  0
SECTION
  2
HEADER
  9
$ACADVER
  1
AC1021
  9
$ACADMAINTVER
 70
    25
  9
$DWGCODEPAGE
  3
ANSI_932
  9
$LASTSAVEDBY
  1
howeNelson
  9
$INSBASE
 10
0.0
 20
0.0
 30
0.0
  9
$EXTMIN
 10
0.0
 20
0.0
 30
0.0
  9
$EXTMAX
 10
593.9999999999999
 20
420.0
 30
0.0
  9
$LIMMIN
 10
0.0
 20
0.0
  9
$LIMMAX
 10
594.0
 20
419.9999999999996
  9
$ORTHOMODE
 70
     0
  9
$REGENMODE
 70
     1
  9
$FILLMODE
 70
     1
  9
$QTEXTMODE
 70
     0
  9
$MIRRTEXT
 70
     1
  9
$LTSCALE
 40
2.0
  9
$ATTMODE
 70
     1
  9
$TEXTSIZE
 40
2.5
  9
$TRACEWID
 40
1.0
  9
$TEXTSTYLE
  7
ＭＳ ゴシック
  9
$CLAYER
  8
寸法
  9
$CELTYPE
  6
Continuous
  9
$CECOLOR
 62
   256
  9
$CELTSCALE
 40
1.0
  9
$DISPSILH
 70
     0
  9
$DIMSCALE
 40
1.0
  9
$DIMASZ
 40
1.5
  9
$DIMEXO
 40
5.0
  9
$DIMDLI
 40
0.9999999999999999
  9
$DIMRND
 40
0.0
  9
$DIMDLE
 40
0.0
  9
$DIMEXE
 40
0.0
  9
$DIMTP
 40
0.0
  9
$DIMTM
 40
0.0
  9
$DIMTXT
 40
5.0
  9
$DIMCEN
 40
0.0
  9
$DIMTSZ
 40
0.0
  9
$DIMTOL
 70
     0
  9
$DIMLIM
 70
     0
  9
$DIMTIH
 70
     0
  9
$DIMTOH
 70
     0
  9
$DIMSE1
 70
     0
  9
$DIMSE2
 70
     0
  9
$DIMTAD
 70
     1
  9
$DIMZIN
 70
    11
  9
$DIMBLK
  1
DOT
  9
$DIMASO
 70
     1
  9
$DIMSHO
 70
     1
  9
$DIMPOST
  1
<>
  9
$DIMAPOST
  1
[]
  9
$DIMALT
 70
     0
  9
$DIMALTD
 70
     1
  9
$DIMALTF
 40
1.0
  9
$DIMLFAC
 40
1.0
  9
$DIMTOFL
 70
     0
  9
$DIMTVP
 40
0.0
  9
$DIMTIX
 70
     1
  9
$DIMSOXD
 70
     0
  9
$DIMSAH
 70
     0
  9
$DIMBLK1
  1

  9
$DIMBLK2
  1

  9
$DIMSTYLE
  2
tfrom線あり
  9
$DIMCLRD
 70
     0
  9
$DIMCLRE
 70
     0
  9
$DIMCLRT
 70
     0
  9
$DIMTFAC
 40
1.0
  9
$DIMGAP
 40
2.0
  9
$DIMJUST
 70
     0
  9
$DIMSD1
 70
     0
  9
$DIMSD2
 70
     0
  9
$DIMTOLJ
 70
     1
  9
$DIMTZIN
 70
    11
  9
$DIMALTZ
 70
    11
  9
$DIMALTTZ
 70
    11
  9
$DIMUPT
 70
     0
  9
$DIMDEC
 70
     0
  9
$DIMTDEC
 70
     1
  9
$DIMALTU
 70
     2
  9
$DIMALTTD
 70
     2
  9
$DIMTXSTY
  7
ＭＳ ゴシック
  9
$DIMAUNIT
 70
     0
  9
$DIMADEC
 70
     2
  9
$DIMALTRND
 40
0.0
  9
$DIMAZIN
 70
     0
  9
$DIMDSEP
 70
    46
  9
$DIMATFIT
 70
     0
  9
$DIMFRAC
 70
     2
  9
$DIMLDRBLK
  1
DOT
  9
$DIMLUNIT
 70
     2
  9
$DIMLWD
 70
    -2
  9
$DIMLWE
 70
    -2
  9
$DIMTMOVE
 70
     0
  9
$DIMFXL
 40
1.0
  9
$DIMFXLON
 70
     0
  9
$DIMJOGANG
 40
0.7853981633974483
  9
$DIMTFILL
 70
     0
  9
$DIMTFILLCLR
 70
     0
  9
$DIMARCSYM
 70
     0
  9
$DIMLTYPE
  6

  9
$DIMLTEX1
  6

  9
$DIMLTEX2
  6

  9
$LUNITS
 70
     2
  9
$LUPREC
 70
     0
  9
$SKETCHINC
 40
0.1
  9
$FILLETRAD
 40
0.0
  9
$AUNITS
 70
     0
  9
$AUPREC
 70
     0
  9
$MENU
  1
acad
  9
$ELEVATION
 40
0.0
  9
$PELEVATION
 40
0.0
  9
$THICKNESS
 40
0.0
  9
$LIMCHECK
 70
     0
  9
$CHAMFERA
 40
0.0
  9
$CHAMFERB
 40
0.0
  9
$CHAMFERC
 40
0.0
  9
$CHAMFERD
 40
0.0
  9
$SKPOLY
 70
     0
  9
$TDCREATE
 40
2447893.375
  9
$TDUCREATE
 40
0.0
  9
$TDUPDATE
 40
2458390.634317789
  9
$TDUUPDATE
 40
2458390.259317789
  9
$TDINDWG
 40
0.0
  9
$TDUSRTIMER
 40
0.0
  9
$USRTIMER
 70
     1
  9
$ANGBASE
 50
0.0
  9
$ANGDIR
 70
     0
  9
$PDMODE
 70
     1
  9
$PDSIZE
 40
-2.0
  9
$PLINEWID
 40
0.0
  9
$SPLFRAME
 70
     0
  9
$SPLINETYPE
 70
     6
  9
$SPLINESEGS
 70
     8
  9
$HANDSEED
  5
5ADA
  9
$SURFTAB1
 70
     6
  9
$SURFTAB2
 70
     6
  9
$SURFTYPE
 70
     6
  9
$SURFU
 70
     6
  9
$SURFV
 70
     6
  9
$UCSBASE
  2

  9
$UCSNAME
  2

  9
$UCSORG
 10
0.0
 20
0.0
 30
0.0
  9
$UCSXDIR
 10
1.0
 20
0.0
 30
0.0
  9
$UCSYDIR
 10
0.0
 20
1.0
 30
0.0
  9
$UCSORTHOREF
  2

  9
$UCSORTHOVIEW
 70
     1
  9
$UCSORGTOP
 10
0.0
 20
0.0
 30
0.0
  9
$UCSORGBOTTOM
 10
0.0
 20
0.0
 30
0.0
  9
$UCSORGLEFT
 10
0.0
 20
0.0
 30
0.0
  9
$UCSORGRIGHT
 10
0.0
 20
0.0
 30
0.0
  9
$UCSORGFRONT
 10
0.0
 20
0.0
 30
0.0
  9
$UCSORGBACK
 10
0.0
 20
0.0
 30
0.0
  9
$PUCSBASE
  2

  9
$PUCSNAME
  2

  9
$PUCSORG
 10
0.0
 20
0.0
 30
0.0
  9
$PUCSXDIR
 10
1.0
 20
0.0
 30
0.0
  9
$PUCSYDIR
 10
0.0
 20
1.0
 30
0.0
  9
$PUCSORTHOREF
  2

  9
$PUCSORTHOVIEW
 70
     0
  9
$PUCSORGTOP
 10
0.0
 20
0.0
 30
0.0
  9
$PUCSORGBOTTOM
 10
0.0
 20
0.0
 30
0.0
  9
$PUCSORGLEFT
 10
0.0
 20
0.0
 30
0.0
  9
$PUCSORGRIGHT
 10
0.0
 20
0.0
 30
0.0
  9
$PUCSORGFRONT
 10
0.0
 20
0.0
 30
0.0
  9
$PUCSORGBACK
 10
0.0
 20
0.0
 30
0.0
  9
$USERI1
 70
     0
  9
$USERI2
 70
     0
  9
$USERI3
 70
     0
  9
$USERI4
 70
     0
  9
$USERI5
 70
     0
  9
$USERR1
 40
0.0
  9
$USERR2
 40
0.0
  9
$USERR3
 40
0.0
  9
$USERR4
 40
0.0
  9
$USERR5
 40
0.0
  9
$WORLDVIEW
 70
     1
  9
$SHADEDGE
 70
     3
  9
$SHADEDIF
 70
    70
  9
$TILEMODE
 70
     1
  9
$MAXACTVP
 70
    64
  9
$PINSBASE
 10
0.0
 20
0.0
 30
0.0
  9
$PLIMCHECK
 70
     0
  9
$PEXTMIN
 10
0.0
 20
0.0
 30
0.0
  9
$PEXTMAX
 10
0.0
 20
0.0
 30
0.0
  9
$PLIMMIN
 10
-7.5
 20
-20.0
  9
$PLIMMAX
 10
412.5
 20
277.0
  9
$UNITMODE
 70
     0
  9
$VISRETAIN
 70
     0
  9
$PLINEGEN
 70
     1
  9
$PSLTSCALE
 70
     1
  9
$TREEDEPTH
 70
  3020
  9
$CMLSTYLE
  2
Standard
  9
$CMLJUST
 70
     0
  9
$CMLSCALE
 40
1.0
  9
$PROXYGRAPHICS
 70
     0
  9
$MEASUREMENT
 70
     1
  9
$CELWEIGHT
370
    -1
  9
$ENDCAPS
280
     0
  9
$JOINSTYLE
280
     0
  9
$LWDISPLAY
290
     1
  9
$INSUNITS
 70
     4
  9
$HYPERLINKBASE
  1

  9
$STYLESHEET
  1

  9
$XEDIT
290
     1
  9
$CEPSNTYPE
380
     0
  9
$PSTYLEMODE
290
     1
  9
$FINGERPRINTGUID
  2

  9
$VERSIONGUID
  2

  9
$EXTNAMES
290
     1
  9
$PSVPSCALE
 40
0.0
  9
$OLESTARTUP
290
     0
  9
$SORTENTS
280
   127
  9
$INDEXCTL
280
     0
  9
$HIDETEXT
280
     1
  9
$XCLIPFRAME
290
     0
  9
$HALOGAP
280
     0
  9
$OBSCOLOR
 70
   257
  9
$OBSLTYPE
280
     0
  9
$INTERSECTIONDISPLAY
280
     0
  9
$INTERSECTIONCOLOR
 70
   257
  9
$DIMASSOC
280
     2
  9
$PROJECTNAME
  1

  9
$CAMERADISPLAY
290
     0
  9
$LENSLENGTH
 40
50.0
  9
$CAMERAHEIGHT
 40
0.0
  9
$STEPSPERSEC
 40
2.0
  9
$STEPSIZE
 40
6.0
  9
$3DDWFPREC
 40
2.0
  9
$PSOLWIDTH
 40
0.25
  9
$PSOLHEIGHT
 40
4.0
  9
$LOFTANG1
 40
1.570796326794897
  9
$LOFTANG2
 40
1.570796326794897
  9
$LOFTMAG1
 40
0.0
  9
$LOFTMAG2
 40
0.0
  9
$LOFTPARAM
 70
     7
  9
$LOFTNORMALS
280
     1
  9
$LATITUDE
 40
37.795
  9
$LONGITUDE
 40
-122.394
  9
$NORTHDIRECTION
 40
0.0
  9
$TIMEZONE
 70
 -8000
  9
$LIGHTGLYPHDISPLAY
280
     1
  9
$TILEMODELIGHTSYNCH
280
     1
  9
$SOLIDHIST
280
     1
  9
$SHOWHIST
280
     1
  9
$DWFFRAME
280
     2
  9
$DGNFRAME
280
     2
  9
$REALWORLDSCALE
290
     1
  9
$INTERFERECOLOR
 62
   256
  9
$CSHADOW
280
     0
  9
$SHADOWPLANELOCATION
 40
0.0
  0
ENDSEC
  0
SECTION
  2
CLASSES
  0
CLASS
  1
LWPOLYLINE
  2
AcDbPolyline
  3
ObjectDBX Classes
 90
        0
 91
        1
280
     0
281
     1
  0
CLASS
  1
IMAGE
  2
AcDbRasterImage
  3
ISM
 90
      127
 91
       20
280
     0
281
     1
  0
CLASS
  1
OLE2FRAME
  2
AcDbOle2Frame
  3
ObjectDBX Classes
 90
        0
 91
        1
280
     0
281
     1
  0
CLASS
  1
HATCH
  2
AcDbHatch
  3
ObjectDBX Classes
 90
        0
 91
        1
280
     0
281
     1
  0
CLASS
  1
DICTIONARYVAR
  2
AcDbDictionaryVar
  3
ObjectDBX Classes
 90
        0
 91
       19
280
     0
281
     0
  0
CLASS
  1
RASTERVARIABLES
  2
AcDbRasterVariables
  3
ISM
 90
        0
 91
       19
280
     0
281
     0
  0
CLASS
  1
IMAGEDEF
  2
AcDbRasterImageDef
  3
ISM
 90
        0
 91
       19
280
     0
281
     0
  0
CLASS
  1
IMAGEDEF_REACTOR
  2
AcDbRasterImageDefReactor
  3
ISM
 90
        1
 91
       19
280
     0
281
     0
  0
CLASS
  1
IDBUFFER
  2
AcDbIdBuffer
  3
ObjectDBX Classes
 90
        0
 91
       19
280
     0
281
     0
  0
CLASS
  1
SPATIAL_FILTER
  2
AcDbSpatialFilter
  3
ObjectDBX Classes
 90
        0
 91
       19
280
     0
281
     0
  0
CLASS
  1
XRECORD
  2
AcDbXrecord
  3
ObjectDBX Classes
 90
        0
 91
        1
280
     0
281
     0
  0
CLASS
  1
SORTENTSTABLE
  2
AcDbSortentsTable
  3
ObjectDBX Classes
 90
        0
 91
       19
280
     0
281
     0
  0
CLASS
  1
LAYER_INDEX
  2
AcDbLayerIndex
  3
ObjectDBX Classes
 90
        0
 91
       19
280
     0
281
     0
  0
CLASS
  1
SPATIAL_INDEX
  2
AcDbSpatialIndex
  3
AutoCAD 2000
 90
        0
 91
       19
280
     0
281
     0
  0
CLASS
  1
OBJECT_PTR
  2
CAseDLPNTableRecord
  3
ASE-LPNTableRecord
 90
        1
 91
       19
280
     0
281
     0
  0
CLASS
  1
LAYOUT
  2
AcDbLayout
  3
ObjectDBX Classes
 90
        0
 91
        1
280
     0
281
     0
  0
CLASS
  1
PLOTSETTINGS
  2
AcDbPlotSettings
  3
ObjectDBX Classes
 90
        0
 91
       19
280
     0
281
     0
  0
CLASS
  1
ACDBDICTIONARYWDFLT
  2
AcDbDictionaryWithDefault
  3
ObjectDBX Classes
 90
        0
 91
       19
280
     0
281
     0
  0
CLASS
  1
ACDBPLACEHOLDER
  2
AcDbPlaceHolder
  3
ObjectDBX Classes
 90
        0
 91
        1
280
     0
281
     0
  0
CLASS
  1
SCALE
  2
AcDbScale
  3
ObjectDBX Classes
 90
     1153
 91
       19
280
     0
281
     0
  0
CLASS
  1
MATERIAL
  2
AcDbMaterial
  3
ObjectDBX Classes
 90
     1153
 91
       19
280
     0
281
     0
  0
CLASS
  1
VISUALSTYLE
  2
AcDbVisualStyle
  3
ObjectDBX Classes
 90
     4095
 91
       19
280
     0
281
     0
  0
CLASS
  1
TABLESTYLE
  2
AcDbTableStyle
  3
ObjectDBX Classes
 90
     4095
 91
       19
280
     0
281
     0
  0
CLASS
  1
DIMASSOC
  2
AcDbDimAssoc
  3
"AcDbDimAssoc|Product Desc:     AcDim ARX App For Dimension|Company:          Autodesk, Inc.|WEB Address:      www.autodesk.com"
 90
        0
 91
       19
280
     0
281
     0
  0
CLASS
  1
CELLSTYLEMAP
  2
AcDbCellStyleMap
  3
ObjectDBX Classes
 90
     1152
 91
       19
280
     0
281
     0
  0
CLASS
  1
SUN
  2
AcDbSun
  3
SCENEOE
 90
     1153
 91
       19
280
     0
281
     0
  0
CLASS
  1
MLEADERSTYLE
  2
AcDbMLeaderStyle
  3
ACDB_MLEADERSTYLE_CLASS
 90
     4095
 91
       19
280
     0
281
     0
  0
CLASS
  1
FIELD
  2
AcDbField
  3
ObjectDBX Classes
 90
     1152
 91
       18
280
     0
281
     0
  0
CLASS
  1
FIELDLIST
  2
AcDbFieldList
  3
ObjectDBX Classes
 90
     1152
 91
       18
280
     0
281
     0
  0
ENDSEC
  0
SECTION
  2
TABLES
  0
TABLE
  2
VPORT
  5
7
330
0
100
AcDbSymbolTable
 70
     1
  0
VPORT
  5
15
330
7
100
AcDbSymbolTableRecord
100
AcDbViewportTableRecord
  2
*ACTIVE
 70
     0
 10
0.0
 20
0.0
 11
1.0
 21
1.0
 12
296.9999999999999
 22
0.0
 13
0.0
 23
0.0
 14
1.0
 24
1.0
 15
0.0
 25
0.0
 16
0.0
 26
0.0
 36
1.0
 17
0.0
 27
210.0
 37
0.0
 40
428.4
 41
2.294372294372294
 42
50.0
 43
0.0
 44
0.0
 50
0.0
 51
0.0
 71
    16
 72
  2000
 73
     1
 74
     1
 75
     0
 76
     0
 77
     0
 78
     0
281
     0
 65
     1
110
0.0
120
0.0
130
0.0
111
1.0
121
0.0
131
0.0
112
0.0
122
1.0
132
0.0
 79
     1
146
0.0
348
26C
 60
     3
 61
     5
292
     1
282
     1
141
0.0
142
0.0
 63
   256
361
F1A
  0
ENDTAB
  0
TABLE
  2
LTYPE
  5
4
330
0
100
AcDbSymbolTable
 70
     6
  0
LTYPE
  5
11
330
4
100
AcDbSymbolTableRecord
100
AcDbLinetypeTableRecord
  2
ByBlock
 70
     0
  3

 72
    65
 73
     0
 40
0.0
  0
LTYPE
  5
12
330
4
100
AcDbSymbolTableRecord
100
AcDbLinetypeTableRecord
  2
ByLayer
 70
     0
  3
Solid line
 72
    65
 73
     0
 40
0.0
  0
LTYPE
  5
13
330
4
100
AcDbSymbolTableRecord
100
AcDbLinetypeTableRecord
  2
Continuous
 70
     0
  3
Solid line
 72
    65
 73
     0
 40
0.0
  0
LTYPE
  5
3B
330
4
100
AcDbSymbolTableRecord
100
AcDbLinetypeTableRecord
  2
STYLE_02
 70
     0
  3

 72
    65
 73
     2
 40
0.6944250000000001
 49
0.48607
 74
     0
 49
-0.2083550000000001
 74
     0
  0
LTYPE
  5
90E
330
4
100
AcDbSymbolTableRecord
100
AcDbLinetypeTableRecord
  2
DASHED1
 70
     0
  3
--  --  --  --  --  --  --  --  
 72
    65
 73
     2
 40
2.5
 49
1.25
 74
     0
 49
-1.25
 74
     0
  0
LTYPE
  5
529A
330
4
100
AcDbSymbolTableRecord
100
AcDbLinetypeTableRecord
  2
CENTER
 70
     0
  3
----------  --  ----------  --  
 72
    65
 73
     4
 40
20.0
 49
12.5
 74
     0
 49
-2.5
 74
     0
 49
2.5
 74
     0
 49
-2.5
 74
     0
  0
LTYPE
  5
529B
330
4
100
AcDbSymbolTableRecord
100
AcDbLinetypeTableRecord
  2
HIDDEN
 70
     0
  3
Hidden _ _ _ _ _ _ _ _ _ _ _ _ _ _ _ _ _ _ _ _ 
 72
    65
 73
     2
 40
9.524999999999999
 49
6.35
 74
     0
 49
-3.175
 74
     0
  0
LTYPE
  5
5686
330
4
100
AcDbSymbolTableRecord
100
AcDbLinetypeTableRecord
  2
HIDDEN2
 70
     0
  3
Hidden (.5x) _ _ _ _ _ _ _ _ _ _ _ _ _ _ _ _ _ 
 72
    65
 73
     2
 40
4.762499999999999
 49
3.175
 74
     0
 49
-1.5875
 74
     0
  0
ENDTAB
  0
TABLE
  2
LAYER
  5
2
102
{ACAD_XDICTIONARY
360
2E1
102
}
330
0
100
AcDbSymbolTable
 70
    14
  0
LAYER
  5
14
330
2
100
AcDbSymbolTableRecord
100
AcDbLayerTableRecord
  2
0
 70
     0
 62
    -7
  6
Continuous
370
    -3
390
1D
347
266
  0
LAYER
  5
4A
330
2
100
AcDbSymbolTableRecord
100
AcDbLayerTableRecord
  2
Defpoints
 70
     0
 62
    -7
  6
Continuous
290
     0
370
    -3
390
1D
347
266
  0
LAYER
  5
4D
330
2
100
AcDbSymbolTableRecord
100
AcDbLayerTableRecord
  2
MODEL
 70
     0
 62
     7
  6
Continuous
370
    20
390
1D
347
266
  0
LAYER
  5
667
330
2
100
AcDbSymbolTableRecord
100
AcDbLayerTableRecord
  2
レイヤー 1
 70
     0
 62
     7
  6
Continuous
370
    -3
390
1D
347
266
  0
LAYER
  5
13AF
330
2
100
AcDbSymbolTableRecord
100
AcDbLayerTableRecord
  2
DIM
 70
     0
 62
     7
  6
Continuous
370
    13
390
1D
347
266
1001
AcAecLayerStandard
1000

1000

  0
LAYER
  5
528F
330
2
100
AcDbSymbolTableRecord
100
AcDbLayerTableRecord
  2
寸法
 70
     0
 62
     7
  6
Continuous
370
    13
390
1D
347
266
1001
AcAecLayerStandard
1000

1000

  0
LAYER
  5
5292
330
2
100
AcDbSymbolTableRecord
100
AcDbLayerTableRecord
  2
モデル
 70
     0
 62
     7
  6
Continuous
370
    20
390
1D
347
266
1001
AcAecLayerStandard
1000

1000

  0
LAYER
  5
5293
330
2
100
AcDbSymbolTableRecord
100
AcDbLayerTableRecord
  2
テンプレート
 70
     0
 62
     7
  6
Continuous
370
    20
390
1D
347
266
1001
AcAecLayerStandard
1000

1000

  0
LAYER
  5
5294
330
2
100
AcDbSymbolTableRecord
100
AcDbLayerTableRecord
  2
TFORMLOGO
 70
     0
 62
     7
  6
Continuous
370
    20
390
1D
347
266
  0
LAYER
  5
5295
330
2
100
AcDbSymbolTableRecord
100
AcDbLayerTableRecord
  2
PRINT BORDER
 70
     0
 62
     4
  6
Continuous
290
     0
370
    -3
390
1D
347
266
1001
AcAecLayerStandard
1000

1000

  0
LAYER
  5
5296
330
2
100
AcDbSymbolTableRecord
100
AcDbLayerTableRecord
  2
SPACER
 70
     0
 62
    -3
  6
Continuous
290
     0
370
    -3
390
1D
347
266
1001
AcAecLayerStandard
1000

1000

  0
LAYER
  5
5297
330
2
100
AcDbSymbolTableRecord
100
AcDbLayerTableRecord
  2
_0-1_
 70
     0
 62
     7
  6
Continuous
290
     0
370
    -3
390
1D
347
266
  0
LAYER
  5
5298
330
2
100
AcDbSymbolTableRecord
100
AcDbLayerTableRecord
  2
CutoutUnderlay
 70
     0
 62
   254
  6
Continuous
370
    20
390
1D
347
266
1001
AcAecLayerStandard
1000

1000

  0
LAYER
  5
5299
330
2
100
AcDbSymbolTableRecord
100
AcDbLayerTableRecord
  2
CutoutOverlay
 70
     0
 62
     7
  6
Continuous
370
    20
390
1D
347
266
1001
AcAecLayerStandard
1000

1000

  0
ENDTAB
  0
TABLE
  2
STYLE
  5
3
330
0
100
AcDbSymbolTable
 70
     2
  0
STYLE
  5
17
330
3
100
AcDbSymbolTableRecord
100
AcDbTextStyleTableRecord
  2
Standard
 70
     0
 40
0.0
 41
1.0
 50
0.0
 71
     0
 42
2.5
  3
txt
  4
BIGFONT.SHX
  0
STYLE
  5
39
330
3
100
AcDbSymbolTableRecord
100
AcDbTextStyleTableRecord
  2
ＭＳ ゴシック
 70
     0
 40
0.0
 41
1.0
 50
0.0
 71
     0
 42
2.5
  3
msgothic.ttc
  4
ＭＳ ゴシック
1001
ACAD
1000
ＭＳ ゴシック
1071
        0
  0
ENDTAB
  0
TABLE
  2
VIEW
  5
5
330
0
100
AcDbSymbolTable
 70
     0
  0
ENDTAB
  0
TABLE
  2
UCS
  5
6
330
0
100
AcDbSymbolTable
 70
     0
  0
ENDTAB
  0
TABLE
  2
APPID
  5
8
330
0
100
AcDbSymbolTable
 70
     3
  0
APPID
  5
16
330
8
100
AcDbSymbolTableRecord
100
AcDbRegAppTableRecord
  2
ACAD
 70
     0
  0
APPID
  5
7AC
330
8
100
AcDbSymbolTableRecord
100
AcDbRegAppTableRecord
  2
AcAecLayerStandard
 70
     0
  0
APPID
  5
5992
330
8
100
AcDbSymbolTableRecord
100
AcDbRegAppTableRecord
  2
ACAD_MLEADERVER
 70
     0
  0
ENDTAB
  0
TABLE
  2
DIMSTYLE
  5
9
330
0
100
AcDbSymbolTable
 70
     2
100
AcDbDimStyleTable
  0
DIMSTYLE
105
18
330
9
100
AcDbSymbolTableRecord
100
AcDbDimStyleTableRecord
  2
Standard
 70
     0
178
     0
340
17
  0
DIMSTYLE
105
57
102
{ACAD_REACTORS
330
4A6C
330
4A99
330
4AD2
330
4EF1
330
50CC
330
5545
330
5546
330
5547
330
55C6
330
58AA
330
5963
330
5969
330
5AC4
102
}
330
9
100
AcDbSymbolTableRecord
100
AcDbDimStyleTableRecord
  2
tfrom線あり
 70
     0
  3
<>
  4
[]
 41
1.5
 42
5.0
 43
0.9999999999999999
 44
0.0
 73
     0
 74
     0
 77
     1
 78
    11
140
5.0
141
0.0
143
1.0
147
2.0
171
     1
174
     1
178
     0
179
     2
271
     0
272
     1
276
     2
284
    11
285
    11
286
    11
289
     0
340
39
341
4E
342
4E
  0
ENDTAB
  0
TABLE
  2
BLOCK_RECORD
  5
1
330
0
100
AcDbSymbolTable
 70
    45
  0
BLOCK_RECORD
  5
A
102
{ACAD_XDICTIONARY
360
59FD
102
}
330
1
100
AcDbSymbolTableRecord
100
AcDbBlockTableRecord
  2
*MODEL_SPACE
340
20
 70
     0
280
     1
281
     0
  0
BLOCK_RECORD
  5
B
330
1
100
AcDbSymbolTableRecord
100
AcDbBlockTableRecord
  2
*PAPER_SPACE
340
21
 70
     0
280
     1
281
     0
  0
BLOCK_RECORD
  5
4E
330
1
100
AcDbSymbolTableRecord
100
AcDbBlockTableRecord
  2
_DOT
340
0
102
{BLKREFS
331
4A75
331
4A76
331
4AA2
331
4AA3
331
4ADB
331
4ADC
331
4CB4
331
4CB5
331
4EFA
331
4EFB
331
50D5
331
50D6
331
531A
331
531B
331
5324
331
5325
331
5331
331
5332
331
533E
331
533F
331
534D
331
534E
331
53A9
331
53AA
331
53DE
331
53DF
331
53EA
331
53EB
331
53F7
331
53F8
331
5482
331
5483
331
56C7
331
56C8
331
56D4
331
56D5
331
56E3
331
56E4
331
570B
331
570C
331
571A
331
571B
331
5729
331
572A
331
5738
331
5739
331
5745
331
5746
331
57BF
331
57C0
331
57CB
331
57CC
331
57D8
331
57D9
331
57E3
331
57E4
331
57EF
331
57F0
331
57FB
331
57FC
331
5807
331
5808
331
5813
331
5814
331
58A0
331
58A1
331
58B2
331
58B3
331
593D
331
593E
331
594F
331
5950
331
597B
331
597C
331
5987
331
5988
331
5ACB
331
5ACC
102
}
 70
     0
280
     1
281
     0
  0
BLOCK_RECORD
  5
690
330
1
100
AcDbSymbolTableRecord
100
AcDbBlockTableRecord
  2
block 3
340
0
102
{BLKREFS
331
52DC
102
}
 70
     0
280
     1
281
     0
  0
BLOCK_RECORD
  5
693
330
1
100
AcDbSymbolTableRecord
100
AcDbBlockTableRecord
  2
block 4
340
0
102
{BLKREFS
331
692
102
}
 70
     0
280
     1
281
     0
  0
BLOCK_RECORD
  5
6A2
330
1
100
AcDbSymbolTableRecord
100
AcDbBlockTableRecord
  2
block 5
340
0
102
{BLKREFS
331
6A1
102
}
 70
     0
280
     1
281
     0
  0
BLOCK_RECORD
  5
4A6F
330
1
100
AcDbSymbolTableRecord
100
AcDbBlockTableRecord
  2
*D4
340
0
 70
     0
280
     1
281
     0
  0
BLOCK_RECORD
  5
4A9C
330
1
100
AcDbSymbolTableRecord
100
AcDbBlockTableRecord
  2
*D5
340
0
 70
     0
280
     1
281
     0
  0
BLOCK_RECORD
  5
4AD5
330
1
100
AcDbSymbolTableRecord
100
AcDbBlockTableRecord
  2
*D6
340
0
 70
     0
280
     1
281
     0
  0
BLOCK_RECORD
  5
4CAE
330
1
100
AcDbSymbolTableRecord
100
AcDbBlockTableRecord
  2
*D7
340
0
 70
     0
280
     1
281
     0
  0
BLOCK_RECORD
  5
4EF4
330
1
100
AcDbSymbolTableRecord
100
AcDbBlockTableRecord
  2
*D8
340
0
 70
     0
280
     1
281
     0
  0
BLOCK_RECORD
  5
50CF
330
1
100
AcDbSymbolTableRecord
100
AcDbBlockTableRecord
  2
*D9
340
0
 70
     0
280
     1
281
     0
  0
BLOCK_RECORD
  5
52D7
330
1
100
AcDbSymbolTableRecord
100
AcDbBlockTableRecord
  2
名称未設定-1
340
0
102
{BLKREFS
331
54B3
102
}
 70
     1
280
     1
281
     0
  0
BLOCK_RECORD
  5
52DA
330
1
100
AcDbSymbolTableRecord
100
AcDbBlockTableRecord
  2
block 2
340
0
102
{BLKREFS
331
52D9
102
}
 70
     0
280
     1
281
     0
  0
BLOCK_RECORD
  5
5313
330
1
100
AcDbSymbolTableRecord
100
AcDbBlockTableRecord
  2
*D12
340
0
 70
     0
280
     1
281
     0
  0
BLOCK_RECORD
  5
531F
330
1
100
AcDbSymbolTableRecord
100
AcDbBlockTableRecord
  2
*D13
340
0
 70
     0
280
     1
281
     0
  0
BLOCK_RECORD
  5
532C
330
1
100
AcDbSymbolTableRecord
100
AcDbBlockTableRecord
  2
*D14
340
0
 70
     0
280
     1
281
     0
  0
BLOCK_RECORD
  5
5339
330
1
100
AcDbSymbolTableRecord
100
AcDbBlockTableRecord
  2
*D15
340
0
 70
     0
280
     1
281
     0
  0
BLOCK_RECORD
  5
5348
330
1
100
AcDbSymbolTableRecord
100
AcDbBlockTableRecord
  2
*D16
340
0
 70
     0
280
     1
281
     0
  0
BLOCK_RECORD
  5
53A4
330
1
100
AcDbSymbolTableRecord
100
AcDbBlockTableRecord
  2
*D17
340
0
 70
     0
280
     1
281
     0
  0
BLOCK_RECORD
  5
53D8
330
1
100
AcDbSymbolTableRecord
100
AcDbBlockTableRecord
  2
*D18
340
0
 70
     0
280
     1
281
     0
  0
BLOCK_RECORD
  5
53E5
330
1
100
AcDbSymbolTableRecord
100
AcDbBlockTableRecord
  2
*D19
340
0
 70
     0
280
     1
281
     0
  0
BLOCK_RECORD
  5
53F2
330
1
100
AcDbSymbolTableRecord
100
AcDbBlockTableRecord
  2
*D20
340
0
 70
     0
280
     1
281
     0
  0
BLOCK_RECORD
  5
547D
330
1
100
AcDbSymbolTableRecord
100
AcDbBlockTableRecord
  2
*D21
340
0
 70
     0
280
     1
281
     0
  0
BLOCK_RECORD
  5
56C2
330
1
100
AcDbSymbolTableRecord
100
AcDbBlockTableRecord
  2
*D22
340
0
 70
     0
280
     1
281
     0
  0
BLOCK_RECORD
  5
56CF
330
1
100
AcDbSymbolTableRecord
100
AcDbBlockTableRecord
  2
*D23
340
0
 70
     0
280
     1
281
     0
  0
BLOCK_RECORD
  5
56DD
330
1
100
AcDbSymbolTableRecord
100
AcDbBlockTableRecord
  2
*D24
340
0
 70
     0
280
     1
281
     0
  0
BLOCK_RECORD
  5
5706
330
1
100
AcDbSymbolTableRecord
100
AcDbBlockTableRecord
  2
*D25
340
0
 70
     0
280
     1
281
     0
  0
BLOCK_RECORD
  5
5715
330
1
100
AcDbSymbolTableRecord
100
AcDbBlockTableRecord
  2
*D26
340
0
 70
     0
280
     1
281
     0
  0
BLOCK_RECORD
  5
5724
330
1
100
AcDbSymbolTableRecord
100
AcDbBlockTableRecord
  2
*D27
340
0
 70
     0
280
     1
281
     0
  0
BLOCK_RECORD
  5
5733
330
1
100
AcDbSymbolTableRecord
100
AcDbBlockTableRecord
  2
*D28
340
0
 70
     0
280
     1
281
     0
  0
BLOCK_RECORD
  5
5740
330
1
100
AcDbSymbolTableRecord
100
AcDbBlockTableRecord
  2
*D29
340
0
 70
     0
280
     1
281
     0
  0
BLOCK_RECORD
  5
57B9
330
1
100
AcDbSymbolTableRecord
100
AcDbBlockTableRecord
  2
*D30
340
0
 70
     0
280
     1
281
     0
  0
BLOCK_RECORD
  5
57C5
330
1
100
AcDbSymbolTableRecord
100
AcDbBlockTableRecord
  2
*D31
340
0
 70
     0
280
     1
281
     0
  0
BLOCK_RECORD
  5
57D1
330
1
100
AcDbSymbolTableRecord
100
AcDbBlockTableRecord
  2
*D32
340
0
 70
     0
280
     1
281
     0
  0
BLOCK_RECORD
  5
57DD
330
1
100
AcDbSymbolTableRecord
100
AcDbBlockTableRecord
  2
*D33
340
0
 70
     0
280
     1
281
     0
  0
BLOCK_RECORD
  5
57E9
330
1
100
AcDbSymbolTableRecord
100
AcDbBlockTableRecord
  2
*D34
340
0
 70
     0
280
     1
281
     0
  0
BLOCK_RECORD
  5
57F5
330
1
100
AcDbSymbolTableRecord
100
AcDbBlockTableRecord
  2
*D35
340
0
 70
     0
280
     1
281
     0
  0
BLOCK_RECORD
  5
5801
330
1
100
AcDbSymbolTableRecord
100
AcDbBlockTableRecord
  2
*D36
340
0
 70
     0
280
     1
281
     0
  0
BLOCK_RECORD
  5
580D
330
1
100
AcDbSymbolTableRecord
100
AcDbBlockTableRecord
  2
*D37
340
0
 70
     0
280
     1
281
     0
  0
BLOCK_RECORD
  5
589A
330
1
100
AcDbSymbolTableRecord
100
AcDbBlockTableRecord
  2
*D38
340
0
 70
     0
280
     1
281
     0
  0
BLOCK_RECORD
  5
58AB
330
1
100
AcDbSymbolTableRecord
100
AcDbBlockTableRecord
  2
*D39
340
0
 70
     0
280
     1
281
     0
  0
BLOCK_RECORD
  5
5938
330
1
100
AcDbSymbolTableRecord
100
AcDbBlockTableRecord
  2
*D40
340
0
 70
     0
280
     1
281
     0
  0
BLOCK_RECORD
  5
594A
330
1
100
AcDbSymbolTableRecord
100
AcDbBlockTableRecord
  2
*D41
340
0
 70
     0
280
     1
281
     0
  0
BLOCK_RECORD
  5
5975
330
1
100
AcDbSymbolTableRecord
100
AcDbBlockTableRecord
  2
*D42
340
0
 70
     0
280
     1
281
     0
  0
BLOCK_RECORD
  5
5981
330
1
100
AcDbSymbolTableRecord
100
AcDbBlockTableRecord
  2
*D43
340
0
 70
     0
280
     1
281
     0
  0
BLOCK_RECORD
  5
5AC5
330
1
100
AcDbSymbolTableRecord
100
AcDbBlockTableRecord
  2
*D44
340
0
 70
     0
280
     1
281
     0
  0
ENDTAB
  0
ENDSEC
  0
SECTION
  2
BLOCKS
  0
BLOCK
  5
D
330
A
100
AcDbEntity
  8
0
390
1D
100
AcDbBlockBegin
  2
*MODEL_SPACE
 70
     0
 10
0.0
 20
0.0
 30
0.0
  3
*MODEL_SPACE
  1
*MODEL_SPACE
  0
ENDBLK
  5
E
330
A
100
AcDbEntity
  8
0
390
1D
100
AcDbBlockEnd
  0
BLOCK
  5
F
330
B
100
AcDbEntity
 67
     1
  8
0
390
1D
100
AcDbBlockBegin
  2
*PAPER_SPACE
 70
     0
 10
0.0
 20
0.0
 30
0.0
  3
*PAPER_SPACE
  1
*PAPER_SPACE
  0
ENDBLK
  5
10
330
B
100
AcDbEntity
 67
     1
  8
0
390
1D
100
AcDbBlockEnd
  0
BLOCK
  5
5282
330
4E
100
AcDbEntity
  8
0
390
1D
100
AcDbBlockBegin
  2
_DOT
 70
     0
 10
0.0
 20
0.0
 30
0.0
  3
_DOT
  1
_DOT
  0
POLYLINE
  5
5284
330
4E
100
AcDbEntity
  8
0
  6
ByBlock
 62
     0
370
    -2
390
1D
100
AcDb2dPolyline
 66
     1
 10
0.0
 20
0.0
 30
0.0
 70
     1
 40
0.5
 41
0.5
  0
VERTEX
  5
5285
330
5284
100
AcDbEntity
  8
0
  6
ByBlock
 62
     0
370
    -2
390
1D
100
AcDbVertex
100
AcDb2dVertex
 10
-0.25
 20
0.0
 30
0.0
 42
1.0
  0
VERTEX
  5
5286
330
5284
100
AcDbEntity
  8
0
  6
ByBlock
 62
     0
370
    -2
390
1D
100
AcDbVertex
100
AcDb2dVertex
 10
0.25
 20
0.0
 30
0.0
 42
1.0
  0
SEQEND
  5
5287
330
5284
100
AcDbEntity
  8
0
390
1D
  0
LINE
  5
5288
330
4E
100
AcDbEntity
  8
0
  6
ByBlock
 62
     0
370
    -2
390
1D
100
AcDbLine
 10
-0.5
 20
0.0
 30
0.0
 11
-1.0
 21
0.0
 31
0.0
  0
ENDBLK
  5
5289
330
4E
100
AcDbEntity
  8
0
390
1D
100
AcDbBlockEnd
  0
BLOCK
  5
691
330
690
100
AcDbEntity
  8
0
100
AcDbBlockBegin
  2
block 3
 70
     0
 10
0.0
 20
0.0
 30
0.0
  3
block 3
  1
block 3
  0
INSERT
  5
692
330
690
100
AcDbEntity
  8
レイヤー 1
100
AcDbBlockReference
  2
block 4
 10
0.0
 20
0.0
 30
0.0
  0
ENDBLK
  5
6AF
330
690
100
AcDbEntity
  8
0
100
AcDbBlockEnd
  0
BLOCK
  5
694
330
693
100
AcDbEntity
  8
0
100
AcDbBlockBegin
  2
block 4
 70
     0
 10
0.0
 20
0.0
 30
0.0
  3
block 4
  1
block 4
  0
POLYLINE
  5
695
330
693
100
AcDbEntity
  8
レイヤー 1
370
     0
100
AcDb2dPolyline
 66
     1
 10
0.0
 20
0.0
 30
0.0
  0
VERTEX
  5
696
330
695
100
AcDbEntity
  8
レイヤー 1
370
     0
100
AcDbVertex
100
AcDb2dVertex
 10
83.79545727667795
 20
167.6444858234922
 30
0.0
  0
VERTEX
  5
697
330
695
100
AcDbEntity
  8
レイヤー 1
370
     0
100
AcDbVertex
100
AcDb2dVertex
 10
83.79545727667795
 20
159.7968976406313
 30
0.0
  0
VERTEX
  5
698
330
695
100
AcDbEntity
  8
レイヤー 1
370
     0
100
AcDbVertex
100
AcDb2dVertex
 10
71.3631329975216
 20
159.7968976406313
 30
0.0
  0
VERTEX
  5
699
330
695
100
AcDbEntity
  8
レイヤー 1
370
     0
100
AcDbVertex
100
AcDb2dVertex
 10
71.3631329975216
 20
127.8027915271048
 30
0.0
  0
VERTEX
  5
69A
330
695
100
AcDbEntity
  8
レイヤー 1
370
     0
100
AcDbVertex
100
AcDb2dVertex
 10
60.43011526263018
 20
127.8027915271048
 30
0.0
  0
VERTEX
  5
69B
330
695
100
AcDbEntity
  8
レイヤー 1
370
     0
100
AcDbVertex
100
AcDb2dVertex
 10
60.43011526263018
 20
159.7968976406313
 30
0.0
  0
VERTEX
  5
69C
330
695
100
AcDbEntity
  8
レイヤー 1
370
     0
100
AcDbVertex
100
AcDb2dVertex
 10
48.21793273020759
 20
159.7968976406313
 30
0.0
  0
VERTEX
  5
69D
330
695
100
AcDbEntity
  8
レイヤー 1
370
     0
100
AcDbVertex
100
AcDb2dVertex
 10
48.21793273020759
 20
167.6444858234922
 30
0.0
  0
VERTEX
  5
69E
330
695
100
AcDbEntity
  8
レイヤー 1
370
     0
100
AcDbVertex
100
AcDb2dVertex
 10
83.79545727667795
 20
167.6444858234922
 30
0.0
  0
SEQEND
  5
69F
330
695
100
AcDbEntity
  8
レイヤー 1
370
     0
  0
HATCH
  5
6A0
330
693
100
AcDbEntity
  8
レイヤー 1
 62
   250
420
  2234388
100
AcDbHatch
 10
0.0
 20
0.0
 30
0.0
210
0.0
220
0.0
230
1.0
  2
SOLID
 70
     1
 71
     0
 91
        1
 92
        1
 93
        8
 72
     1
 10
83.79545727667795
 20
167.6444858234922
 11
83.79545727667795
 21
159.7968976406313
 72
     1
 10
83.79545727667795
 20
159.7968976406313
 11
71.3631329975216
 21
159.7968976406313
 72
     1
 10
71.3631329975216
 20
159.7968976406313
 11
71.3631329975216
 21
127.8027915271048
 72
     1
 10
71.3631329975216
 20
127.8027915271048
 11
60.43011526263018
 21
127.8027915271048
 72
     1
 10
60.43011526263018
 20
127.8027915271048
 11
60.43011526263018
 21
159.7968976406313
 72
     1
 10
60.43011526263018
 20
159.7968976406313
 11
48.21793273020759
 21
159.7968976406313
 72
     1
 10
48.21793273020759
 20
159.7968976406313
 11
48.21793273020759
 21
167.6444858234922
 72
     1
 10
48.21793273020759
 20
167.6444858234922
 11
83.79545727667795
 21
167.6444858234922
 97
        0
 75
     2
 76
     1
 98
        0
  0
INSERT
  5
6A1
330
693
100
AcDbEntity
  8
レイヤー 1
100
AcDbBlockReference
  2
block 5
 10
0.0
 20
0.0
 30
0.0
  0
ENDBLK
  5
6AE
330
693
100
AcDbEntity
  8
0
100
AcDbBlockEnd
  0
BLOCK
  5
6A3
330
6A2
100
AcDbEntity
  8
0
100
AcDbBlockBegin
  2
block 5
 70
     0
 10
0.0
 20
0.0
 30
0.0
  3
block 5
  1
block 5
  0
SPLINE
  5
6A4
330
6A2
100
AcDbEntity
  8
レイヤー 1
370
     0
100
AcDbSpline
210
0.0
220
0.0
230
1.0
 70
    11
 71
     3
 72
    56
 73
    52
 74
     0
 42
0.000000001
 43
0.0000000001
 40
0.0
 40
0.0
 40
0.0
 40
0.0
 40
1.0
 40
1.0
 40
1.0
 40
2.0
 40
2.0
 40
2.0
 40
3.0
 40
3.0
 40
3.0
 40
4.0
 40
4.0
 40
4.0
 40
5.0
 40
5.0
 40
5.0
 40
6.0
 40
6.0
 40
6.0
 40
7.0
 40
7.0
 40
7.0
 40
8.0
 40
8.0
 40
8.0
 40
9.0
 40
9.0
 40
9.0
 40
10.0
 40
10.0
 40
10.0
 40
11.0
 40
11.0
 40
11.0
 40
12.0
 40
12.0
 40
12.0
 40
13.0
 40
13.0
 40
13.0
 40
14.0
 40
14.0
 40
14.0
 40
15.0
 40
15.0
 40
15.0
 40
16.0
 40
16.0
 40
16.0
 40
17.0
 40
17.0
 40
17.0
 40
17.0
 10
100.4504378777679
 20
166.69157178364
 30
0.0
 10
101.9848844191641
 20
167.1313385124438
 30
0.0
 10
103.9637485713373
 20
166.7649523658846
 30
0.0
 10
103.9637485713373
 20
166.7649523658846
 30
0.0
 10
103.9637485713373
 20
166.7649523658846
 30
0.0
 10
103.0132460999156
 20
163.911205638077
 30
0.0
 10
103.0132460999156
 20
163.911205638077
 30
0.0
 10
103.0132460999156
 20
163.911205638077
 30
0.0
 10
101.0674548862189
 20
164.3601018759394
 30
0.0
 10
99.57090442016032
 20
163.1805004036133
 30
0.0
 10
98.40508333886608
 20
162.258247733807
 30
0.0
 10
97.65301849830304
 20
159.804132345923
 30
0.0
 10
97.3598406791005
 20
158.8699940888517
 30
0.0
 10
97.3598406791005
 20
158.8699940888517
 30
0.0
 10
96.07137411762282
 20
154.9119212747295
 30
0.0
 10
96.07137411762282
 20
154.9119212747295
 30
0.0
 10
96.07137411762282
 20
154.9119212747295
 30
0.0
 10
100.3012651448482
 20
154.9119212747295
 30
0.0
 10
100.3012651448482
 20
154.9119212747295
 30
0.0
 10
100.3012651448482
 20
154.9119212747295
 30
0.0
 10
99.64152892419852
 20
152.4199098115079
 30
0.0
 10
99.64152892419852
 20
152.4199098115079
 30
0.0
 10
99.64152892419852
 20
152.4199098115079
 30
0.0
 10
95.38097652692731
 20
152.4199098115079
 30
0.0
 10
95.38097652692731
 20
152.4199098115079
 30
0.0
 10
95.38097652692731
 20
152.4199098115079
 30
0.0
 10
87.75353009080013
 20
127.8027915271048
 30
0.0
 10
87.75353009080013
 20
127.8027915271048
 30
0.0
 10
87.75353009080013
 20
127.8027915271048
 30
0.0
 10
85.36538832498108
 20
127.8027915271048
 30
0.0
 10
85.36538832498108
 20
127.8027915271048
 30
0.0
 10
85.36538832498108
 20
127.8027915271048
 30
0.0
 10
93.00006946639998
 20
152.4199098115079
 30
0.0
 10
93.00006946639998
 20
152.4199098115079
 30
0.0
 10
93.00006946639998
 20
152.4199098115079
 30
0.0
 10
89.85297266450198
 20
152.4199098115079
 30
0.0
 10
89.85297266450198
 20
152.4199098115079
 30
0.0
 10
89.85297266450198
 20
152.4199098115079
 30
0.0
 10
90.51270888515164
 20
154.9119212747295
 30
0.0
 10
90.51270888515164
 20
154.9119212747295
 30
0.0
 10
90.51270888515164
 20
154.9119212747295
 30
0.0
 10
93.6904670570955
 20
154.9119212747295
 30
0.0
 10
93.6904670570955
 20
154.9119212747295
 30
0.0
 10
93.6904670570955
 20
154.9119212747295
 30
0.0
 10
94.81598049462158
 20
158.3616699146644
 30
0.0
 10
94.81598049462158
 20
158.3616699146644
 30
0.0
 10
95.7237637538445
 20
161.2605474231013
 30
0.0
 10
96.4968436907311
 20
162.8139420021662
 30
0.0
 10
97.15657991138076
 20
163.9844139654337
 30
0.0
 10
97.81183750494507
 20
165.1523021053827
 30
0.0
 10
99.1047826935081
 20
166.3084769129547
 30
0.0
 10
100.4504378777679
 20
166.69157178364
 30
0.0
  0
HATCH
  5
6A5
330
6A2
100
AcDbEntity
  8
レイヤー 1
 62
   250
420
  2234388
100
AcDbHatch
 10
0.0
 20
0.0
 30
0.0
210
0.0
220
0.0
230
1.0
  2
SOLID
 70
     1
 71
     0
 91
        1
 92
        1
 93
        1
 72
     4
 94
        3
 73
     0
 74
     1
 95
       56
 96
       52
 40
0.0
 40
0.0
 40
0.0
 40
0.0
 40
1.0
 40
1.0
 40
1.0
 40
2.0
 40
2.0
 40
2.0
 40
3.0
 40
3.0
 40
3.0
 40
4.0
 40
4.0
 40
4.0
 40
5.0
 40
5.0
 40
5.0
 40
6.0
 40
6.0
 40
6.0
 40
7.0
 40
7.0
 40
7.0
 40
8.0
 40
8.0
 40
8.0
 40
9.0
 40
9.0
 40
9.0
 40
10.0
 40
10.0
 40
10.0
 40
11.0
 40
11.0
 40
11.0
 40
12.0
 40
12.0
 40
12.0
 40
13.0
 40
13.0
 40
13.0
 40
14.0
 40
14.0
 40
14.0
 40
15.0
 40
15.0
 40
15.0
 40
16.0
 40
16.0
 40
16.0
 40
17.0
 40
17.0
 40
17.0
 40
17.0
 10
100.4504378777679
 20
166.69157178364
 10
101.9848844191641
 20
167.1313385124438
 10
103.9637485713373
 20
166.7649523658846
 10
103.9637485713373
 20
166.7649523658846
 10
103.9637485713373
 20
166.7649523658846
 10
103.0132460999156
 20
163.911205638077
 10
103.0132460999156
 20
163.911205638077
 10
103.0132460999156
 20
163.911205638077
 10
101.0674548862189
 20
164.3601018759394
 10
99.57090442016032
 20
163.1805004036133
 10
98.40508333886608
 20
162.258247733807
 10
97.65301849830304
 20
159.804132345923
 10
97.3598406791005
 20
158.8699940888517
 10
97.3598406791005
 20
158.8699940888517
 10
96.07137411762282
 20
154.9119212747295
 10
96.07137411762282
 20
154.9119212747295
 10
96.07137411762282
 20
154.9119212747295
 10
100.3012651448482
 20
154.9119212747295
 10
100.3012651448482
 20
154.9119212747295
 10
100.3012651448482
 20
154.9119212747295
 10
99.64152892419852
 20
152.4199098115079
 10
99.64152892419852
 20
152.4199098115079
 10
99.64152892419852
 20
152.4199098115079
 10
95.38097652692731
 20
152.4199098115079
 10
95.38097652692731
 20
152.4199098115079
 10
95.38097652692731
 20
152.4199098115079
 10
87.75353009080013
 20
127.8027915271048
 10
87.75353009080013
 20
127.8027915271048
 10
87.75353009080013
 20
127.8027915271048
 10
85.36538832498108
 20
127.8027915271048
 10
85.36538832498108
 20
127.8027915271048
 10
85.36538832498108
 20
127.8027915271048
 10
93.00006946639998
 20
152.4199098115079
 10
93.00006946639998
 20
152.4199098115079
 10
93.00006946639998
 20
152.4199098115079
 10
89.85297266450198
 20
152.4199098115079
 10
89.85297266450198
 20
152.4199098115079
 10
89.85297266450198
 20
152.4199098115079
 10
90.51270888515164
 20
154.9119212747295
 10
90.51270888515164
 20
154.9119212747295
 10
90.51270888515164
 20
154.9119212747295
 10
93.6904670570955
 20
154.9119212747295
 10
93.6904670570955
 20
154.9119212747295
 10
93.6904670570955
 20
154.9119212747295
 10
94.81598049462158
 20
158.3616699146644
 10
94.81598049462158
 20
158.3616699146644
 10
95.7237637538445
 20
161.2605474231013
 10
96.4968436907311
 20
162.8139420021662
 10
97.15657991138076
 20
163.9844139654337
 10
97.81183750494507
 20
165.1523021053827
 10
99.1047826935081
 20
166.3084769129547
 10
100.4504378777679
 20
166.69157178364
 97
        0
 75
     2
 76
     1
 98
        0
  0
SPLINE
  5
6A6
330
6A2
100
AcDbEntity
  8
レイヤー 1
370
     0
100
AcDbSpline
210
0.0
220
0.0
230
1.0
 70
    11
 71
     3
 72
    38
 73
    34
 74
     0
 42
0.000000001
 43
0.0000000001
 40
0.0
 40
0.0
 40
0.0
 40
0.0
 40
1.0
 40
1.0
 40
1.0
 40
2.0
 40
2.0
 40
2.0
 40
3.0
 40
3.0
 40
3.0
 40
4.0
 40
4.0
 40
4.0
 40
5.0
 40
5.0
 40
5.0
 40
6.0
 40
6.0
 40
6.0
 40
7.0
 40
7.0
 40
7.0
 40
8.0
 40
8.0
 40
8.0
 40
9.0
 40
9.0
 40
9.0
 40
10.0
 40
10.0
 40
10.0
 40
11.0
 40
11.0
 40
11.0
 40
11.0
 10
126.377554584636
 20
154.8151140277308
 30
0.0
 10
126.377554584636
 20
154.8151140277308
 30
0.0
 10
128.8311532078563
 20
154.8151140277308
 30
0.0
 10
128.8311532078563
 20
154.8151140277308
 30
0.0
 10
128.8311532078563
 20
154.8151140277308
 30
0.0
 10
127.7345785914971
 20
151.3062819612468
 30
0.0
 10
127.7345785914971
 20
151.3062819612468
 30
0.0
 10
128.571392836906
 20
152.2922689395754
 30
0.0
 10
129.8860421413442
 20
153.604506675583
 30
0.0
 10
131.0163787157314
 20
154.2664822097754
 30
0.0
 10
132.7044766171327
 20
155.2500576196734
 30
0.0
 10
133.6642808525008
 20
155.3847609420097
 30
0.0
 10
134.7284715499351
 20
155.3565111403944
 30
0.0
 10
134.7284715499351
 20
155.3565111403944
 30
0.0
 10
133.6877075172549
 20
152.0345756272799
 30
0.0
 10
133.6877075172549
 20
152.0345756272799
 30
0.0
 10
133.011434827367
 20
152.3184516825359
 30
0.0
 10
130.930940291334
 20
151.7768823149844
 30
0.0
 10
129.739280976855
 20
150.9162968950455
 30
0.0
 10
128.66613302525
 20
150.1454562717016
 30
0.0
 10
127.9192358313239
 20
149.4857200510519
 30
0.0
 10
127.0393578639405
 20
147.8282835196966
 30
0.0
 10
126.164647543194
 20
146.1699857139017
 30
0.0
 10
125.4742499524985
 20
143.5262176944419
 30
0.0
 10
124.2822461282437
 20
139.6959580071401
 30
0.0
 10
124.2822461282437
 20
139.6959580071401
 30
0.0
 10
120.5753209406769
 20
127.8027915271048
 30
0.0
 10
120.5753209406769
 20
127.8027915271048
 30
0.0
 10
120.5753209406769
 20
127.8027915271048
 30
0.0
 10
118.1964809388044
 20
127.8027915271048
 30
0.0
 10
118.1964809388044
 20
127.8027915271048
 30
0.0
 10
118.1964809388044
 20
127.8027915271048
 30
0.0
 10
126.377554584636
 20
154.8151140277308
 30
0.0
 10
126.377554584636
 20
154.8151140277308
 30
0.0
  0
HATCH
  5
6A7
330
6A2
100
AcDbEntity
  8
レイヤー 1
 62
   250
420
  2234388
100
AcDbHatch
 10
0.0
 20
0.0
 30
0.0
210
0.0
220
0.0
230
1.0
  2
SOLID
 70
     1
 71
     0
 91
        1
 92
        1
 93
        1
 72
     4
 94
        3
 73
     0
 74
     1
 95
       38
 96
       34
 40
0.0
 40
0.0
 40
0.0
 40
0.0
 40
1.0
 40
1.0
 40
1.0
 40
2.0
 40
2.0
 40
2.0
 40
3.0
 40
3.0
 40
3.0
 40
4.0
 40
4.0
 40
4.0
 40
5.0
 40
5.0
 40
5.0
 40
6.0
 40
6.0
 40
6.0
 40
7.0
 40
7.0
 40
7.0
 40
8.0
 40
8.0
 40
8.0
 40
9.0
 40
9.0
 40
9.0
 40
10.0
 40
10.0
 40
10.0
 40
11.0
 40
11.0
 40
11.0
 40
11.0
 10
126.377554584636
 20
154.8151140277308
 10
126.377554584636
 20
154.8151140277308
 10
128.8311532078563
 20
154.8151140277308
 10
128.8311532078563
 20
154.8151140277308
 10
128.8311532078563
 20
154.8151140277308
 10
127.7345785914971
 20
151.3062819612468
 10
127.7345785914971
 20
151.3062819612468
 10
128.571392836906
 20
152.2922689395754
 10
129.8860421413442
 20
153.604506675583
 10
131.0163787157314
 20
154.2664822097754
 10
132.7044766171327
 20
155.2500576196734
 10
133.6642808525008
 20
155.3847609420097
 10
134.7284715499351
 20
155.3565111403944
 10
134.7284715499351
 20
155.3565111403944
 10
133.6877075172549
 20
152.0345756272799
 10
133.6877075172549
 20
152.0345756272799
 10
133.011434827367
 20
152.3184516825359
 10
130.930940291334
 20
151.7768823149844
 10
129.739280976855
 20
150.9162968950455
 10
128.66613302525
 20
150.1454562717016
 10
127.9192358313239
 20
149.4857200510519
 10
127.0393578639405
 20
147.8282835196966
 10
126.164647543194
 20
146.1699857139017
 10
125.4742499524985
 20
143.5262176944419
 10
124.2822461282437
 20
139.6959580071401
 10
124.2822461282437
 20
139.6959580071401
 10
120.5753209406769
 20
127.8027915271048
 10
120.5753209406769
 20
127.8027915271048
 10
120.5753209406769
 20
127.8027915271048
 10
118.1964809388044
 20
127.8027915271048
 10
118.1964809388044
 20
127.8027915271048
 10
118.1964809388044
 20
127.8027915271048
 10
126.377554584636
 20
154.8151140277308
 10
126.377554584636
 20
154.8151140277308
 97
        0
 75
     2
 76
     1
 98
        0
  0
SPLINE
  5
6A8
330
6A2
100
AcDbEntity
  8
レイヤー 1
370
     0
100
AcDbSpline
210
0.0
220
0.0
230
1.0
 70
    11
 71
     3
 72
   104
 73
   100
 74
     0
 42
0.000000001
 43
0.0000000001
 40
0.0
 40
0.0
 40
0.0
 40
0.0
 40
1.0
 40
1.0
 40
1.0
 40
2.0
 40
2.0
 40
2.0
 40
3.0
 40
3.0
 40
3.0
 40
4.0
 40
4.0
 40
4.0
 40
5.0
 40
5.0
 40
5.0
 40
6.0
 40
6.0
 40
6.0
 40
7.0
 40
7.0
 40
7.0
 40
8.0
 40
8.0
 40
8.0
 40
9.0
 40
9.0
 40
9.0
 40
10.0
 40
10.0
 40
10.0
 40
11.0
 40
11.0
 40
11.0
 40
12.0
 40
12.0
 40
12.0
 40
13.0
 40
13.0
 40
13.0
 40
14.0
 40
14.0
 40
14.0
 40
15.0
 40
15.0
 40
15.0
 40
16.0
 40
16.0
 40
16.0
 40
17.0
 40
17.0
 40
17.0
 40
18.0
 40
18.0
 40
18.0
 40
19.0
 40
19.0
 40
19.0
 40
20.0
 40
20.0
 40
20.0
 40
21.0
 40
21.0
 40
21.0
 40
22.0
 40
22.0
 40
22.0
 40
23.0
 40
23.0
 40
23.0
 40
24.0
 40
24.0
 40
24.0
 40
25.0
 40
25.0
 40
25.0
 40
26.0
 40
26.0
 40
26.0
 40
27.0
 40
27.0
 40
27.0
 40
28.0
 40
28.0
 40
28.0
 40
29.0
 40
29.0
 40
29.0
 40
30.0
 40
30.0
 40
30.0
 40
31.0
 40
31.0
 40
31.0
 40
32.0
 40
32.0
 40
32.0
 40
33.0
 40
33.0
 40
33.0
 40
33.0
 10
139.8926730891197
 20
154.8294111834263
 30
0.0
 10
139.8926730891197
 20
154.8294111834263
 30
0.0
 10
142.0344903652445
 20
154.8294111834263
 30
0.0
 10
142.0344903652445
 20
154.8294111834263
 30
0.0
 10
142.0344903652445
 20
154.8294111834263
 30
0.0
 10
140.9516961399171
 20
151.3157559800812
 30
0.0
 10
140.9516961399171
 20
151.3157559800812
 30
0.0
 10
141.8928968473923
 20
152.7887075264977
 30
0.0
 10
142.7341897198865
 20
153.4484437471474
 30
0.0
 10
143.8552245303272
 20
154.2926649527359
 30
0.0
 10
144.9803934580775
 20
155.1296514530327
 30
0.0
 10
146.3139908001845
 20
155.3044901642492
 30
0.0
 10
147.241066606852
 20
155.3044901642492
 30
0.0
 10
148.3855280820469
 20
155.3044901642492
 30
0.0
 10
149.4969166187653
 20
155.0752189084569
 30
0.0
 10
150.0784491203092
 20
153.8172414621372
 30
0.0
 10
150.5228667310863
 20
152.833838307127
 30
0.0
 10
150.5414702589793
 20
152.7201500811143
 30
0.0
 10
150.4140016419347
 20
150.7765981809602
 30
0.0
 10
151.5818897818837
 20
152.7699317437168
 30
0.0
 10
152.4424752018226
 20
153.6256940267945
 30
0.0
 10
153.9038856707499
 20
154.4507949398263
 30
0.0
 10
155.4455669174378
 20
155.3044901642492
 30
0.0
 10
156.339225275853
 20
155.3659851592288
 30
0.0
 10
157.3748216618963
 20
155.2147453676543
 30
0.0
 10
158.911679771723
 20
154.9877134254046
 30
0.0
 10
159.8859534176746
 20
154.4390816074493
 30
0.0
 10
160.3965169054045
 20
152.7816450760939
 30
0.0
 10
160.9070803931344
 20
151.1219692311958
 30
0.0
 10
160.6328506116007
 20
150.2303779314354
 30
0.0
 10
159.9992971339115
 20
147.597634224801
 30
0.0
 10
159.7105979417943
 20
146.4014962832367
 30
0.0
 10
159.2947746424084
 20
144.9400858143094
 30
0.0
 10
158.7463150793409
 20
143.2092687007094
 30
0.0
 10
158.7463150793409
 20
143.2092687007094
 30
0.0
 10
153.9038856707499
 20
127.8027915271048
 30
0.0
 10
153.9038856707499
 20
127.8027915271048
 30
0.0
 10
153.9038856707499
 20
127.8027915271048
 30
0.0
 10
151.3882752878863
 20
127.8027915271048
 30
0.0
 10
151.3882752878863
 20
127.8027915271048
 30
0.0
 10
151.3882752878863
 20
127.8027915271048
 30
0.0
 10
155.6250565106276
 20
141.2751908193897
 30
0.0
 10
155.6250565106276
 20
141.2751908193897
 30
0.0
 10
156.5094131050963
 20
144.0936252951782
 30
0.0
 10
157.109893644309
 20
146.1506931664571
 30
0.0
 10
157.4220195011804
 20
147.4415712963654
 30
0.0
 10
157.8095929989511
 20
149.0530157726519
 30
0.0
 10
157.9656559273867
 20
149.5826995529385
 30
0.0
 10
157.7816877071116
 20
150.7529992613181
 30
0.0
 10
157.6111553680925
 20
151.8430281919372
 30
0.0
 10
157.0582171779396
 20
152.5547853887321
 30
0.0
 10
156.1170164704645
 20
152.5547853887321
 30
0.0
 10
155.1096698860365
 20
152.5547853887321
 30
0.0
 10
154.2962823053817
 20
152.4412694176073
 30
0.0
 10
153.156643967048
 20
151.2945686288697
 30
0.0
 10
152.0170056287143
 20
150.1476955852443
 30
0.0
 10
151.076149431015
 20
148.7930831468137
 30
0.0
 10
150.3337308641742
 20
147.2290087646991
 30
0.0
 10
149.5957909244188
 20
145.6683794803425
 30
0.0
 10
148.8530278478023
 20
143.6822806228776
 30
0.0
 10
148.0964843801539
 20
141.2751908193897
 30
0.0
 10
148.0964843801539
 20
141.2751908193897
 30
0.0
 10
143.8552245303272
 20
127.8027915271048
 30
0.0
 10
143.8552245303272
 20
127.8027915271048
 30
0.0
 10
143.8552245303272
 20
127.8027915271048
 30
0.0
 10
141.486030802177
 20
127.8027915271048
 30
0.0
 10
141.486030802177
 20
127.8027915271048
 30
0.0
 10
141.486030802177
 20
127.8027915271048
 30
0.0
 10
146.3329388378533
 20
143.2092687007094
 30
0.0
 10
146.3329388378533
 20
143.2092687007094
 30
0.0
 10
146.8483254624444
 20
144.8408669988801
 30
0.0
 10
147.2314203331297
 20
146.1837661049335
 30
0.0
 10
147.4867020769946
 20
147.224185627838
 30
0.0
 10
147.9169947869641
 20
149.0197705792876
 30
0.0
 10
148.0306830129768
 20
150.2400242051577
 30
0.0
 10
147.709255392159
 20
151.3157559800812
 30
0.0
 10
147.3874832615654
 20
152.3916600098926
 30
0.0
 10
146.8245542879144
 20
152.6683013598569
 30
0.0
 10
145.8840425999909
 20
152.6683013598569
 30
0.0
 10
145.0989048209514
 20
152.6683013598569
 30
0.0
 10
144.3282364524954
 20
152.3275811915945
 30
0.0
 10
143.4531816219731
 20
151.6538923250251
 30
0.0
 10
142.34627171234
 20
150.8074318058939
 30
0.0
 10
141.901854101563
 20
150.1097995099067
 30
0.0
 10
141.3578731655808
 20
149.289521733736
 30
0.0
 10
140.6299240093235
 20
148.192602607601
 30
0.0
 10
140.2850697237515
 20
147.455696197173
 30
0.0
 10
139.6652966370942
 20
145.8385673095858
 30
0.0
 10
139.0506911970739
 20
144.2214384219986
 30
0.0
 10
138.463991048893
 20
142.3252566160164
 30
0.0
 10
138.0571250036777
 20
141.0154304484394
 30
0.0
 10
138.0571250036777
 20
141.0154304484394
 30
0.0
 10
133.9009590684727
 20
127.8027915271048
 30
0.0
 10
133.9009590684727
 20
127.8027915271048
 30
0.0
 10
133.9009590684727
 20
127.8027915271048
 30
0.0
 10
131.4180771143097
 20
127.8027915271048
 30
0.0
 10
131.4180771143097
 20
127.8027915271048
 30
0.0
 10
131.4180771143097
 20
127.8027915271048
 30
0.0
 10
139.8926730891197
 20
154.8294111834263
 30
0.0
 10
139.8926730891197
 20
154.8294111834263
 30
0.0
  0
HATCH
  5
6A9
330
6A2
100
AcDbEntity
  8
レイヤー 1
 62
   250
420
  2234388
100
AcDbHatch
 10
0.0
 20
0.0
 30
0.0
210
0.0
220
0.0
230
1.0
  2
SOLID
 70
     1
 71
     0
 91
        1
 92
        1
 93
        1
 72
     4
 94
        3
 73
     0
 74
     1
 95
      104
 96
      100
 40
0.0
 40
0.0
 40
0.0
 40
0.0
 40
1.0
 40
1.0
 40
1.0
 40
2.0
 40
2.0
 40
2.0
 40
3.0
 40
3.0
 40
3.0
 40
4.0
 40
4.0
 40
4.0
 40
5.0
 40
5.0
 40
5.0
 40
6.0
 40
6.0
 40
6.0
 40
7.0
 40
7.0
 40
7.0
 40
8.0
 40
8.0
 40
8.0
 40
9.0
 40
9.0
 40
9.0
 40
10.0
 40
10.0
 40
10.0
 40
11.0
 40
11.0
 40
11.0
 40
12.0
 40
12.0
 40
12.0
 40
13.0
 40
13.0
 40
13.0
 40
14.0
 40
14.0
 40
14.0
 40
15.0
 40
15.0
 40
15.0
 40
16.0
 40
16.0
 40
16.0
 40
17.0
 40
17.0
 40
17.0
 40
18.0
 40
18.0
 40
18.0
 40
19.0
 40
19.0
 40
19.0
 40
20.0
 40
20.0
 40
20.0
 40
21.0
 40
21.0
 40
21.0
 40
22.0
 40
22.0
 40
22.0
 40
23.0
 40
23.0
 40
23.0
 40
24.0
 40
24.0
 40
24.0
 40
25.0
 40
25.0
 40
25.0
 40
26.0
 40
26.0
 40
26.0
 40
27.0
 40
27.0
 40
27.0
 40
28.0
 40
28.0
 40
28.0
 40
29.0
 40
29.0
 40
29.0
 40
30.0
 40
30.0
 40
30.0
 40
31.0
 40
31.0
 40
31.0
 40
32.0
 40
32.0
 40
32.0
 40
33.0
 40
33.0
 40
33.0
 40
33.0
 10
139.8926730891197
 20
154.8294111834263
 10
139.8926730891197
 20
154.8294111834263
 10
142.0344903652445
 20
154.8294111834263
 10
142.0344903652445
 20
154.8294111834263
 10
142.0344903652445
 20
154.8294111834263
 10
140.9516961399171
 20
151.3157559800812
 10
140.9516961399171
 20
151.3157559800812
 10
141.8928968473923
 20
152.7887075264977
 10
142.7341897198865
 20
153.4484437471474
 10
143.8552245303272
 20
154.2926649527359
 10
144.9803934580775
 20
155.1296514530327
 10
146.3139908001845
 20
155.3044901642492
 10
147.241066606852
 20
155.3044901642492
 10
148.3855280820469
 20
155.3044901642492
 10
149.4969166187653
 20
155.0752189084569
 10
150.0784491203092
 20
153.8172414621372
 10
150.5228667310863
 20
152.833838307127
 10
150.5414702589793
 20
152.7201500811143
 10
150.4140016419347
 20
150.7765981809602
 10
151.5818897818837
 20
152.7699317437168
 10
152.4424752018226
 20
153.6256940267945
 10
153.9038856707499
 20
154.4507949398263
 10
155.4455669174378
 20
155.3044901642492
 10
156.339225275853
 20
155.3659851592288
 10
157.3748216618963
 20
155.2147453676543
 10
158.911679771723
 20
154.9877134254046
 10
159.8859534176746
 20
154.4390816074493
 10
160.3965169054045
 20
152.7816450760939
 10
160.9070803931344
 20
151.1219692311958
 10
160.6328506116007
 20
150.2303779314354
 10
159.9992971339115
 20
147.597634224801
 10
159.7105979417943
 20
146.4014962832367
 10
159.2947746424084
 20
144.9400858143094
 10
158.7463150793409
 20
143.2092687007094
 10
158.7463150793409
 20
143.2092687007094
 10
153.9038856707499
 20
127.8027915271048
 10
153.9038856707499
 20
127.8027915271048
 10
153.9038856707499
 20
127.8027915271048
 10
151.3882752878863
 20
127.8027915271048
 10
151.3882752878863
 20
127.8027915271048
 10
151.3882752878863
 20
127.8027915271048
 10
155.6250565106276
 20
141.2751908193897
 10
155.6250565106276
 20
141.2751908193897
 10
156.5094131050963
 20
144.0936252951782
 10
157.109893644309
 20
146.1506931664571
 10
157.4220195011804
 20
147.4415712963654
 10
157.8095929989511
 20
149.0530157726519
 10
157.9656559273867
 20
149.5826995529385
 10
157.7816877071116
 20
150.7529992613181
 10
157.6111553680925
 20
151.8430281919372
 10
157.0582171779396
 20
152.5547853887321
 10
156.1170164704645
 20
152.5547853887321
 10
155.1096698860365
 20
152.5547853887321
 10
154.2962823053817
 20
152.4412694176073
 10
153.156643967048
 20
151.2945686288697
 10
152.0170056287143
 20
150.1476955852443
 10
151.076149431015
 20
148.7930831468137
 10
150.3337308641742
 20
147.2290087646991
 10
149.5957909244188
 20
145.6683794803425
 10
148.8530278478023
 20
143.6822806228776
 10
148.0964843801539
 20
141.2751908193897
 10
148.0964843801539
 20
141.2751908193897
 10
143.8552245303272
 20
127.8027915271048
 10
143.8552245303272
 20
127.8027915271048
 10
143.8552245303272
 20
127.8027915271048
 10
141.486030802177
 20
127.8027915271048
 10
141.486030802177
 20
127.8027915271048
 10
141.486030802177
 20
127.8027915271048
 10
146.3329388378533
 20
143.2092687007094
 10
146.3329388378533
 20
143.2092687007094
 10
146.8483254624444
 20
144.8408669988801
 10
147.2314203331297
 20
146.1837661049335
 10
147.4867020769946
 20
147.224185627838
 10
147.9169947869641
 20
149.0197705792876
 10
148.0306830129768
 20
150.2400242051577
 10
147.709255392159
 20
151.3157559800812
 10
147.3874832615654
 20
152.3916600098926
 10
146.8245542879144
 20
152.6683013598569
 10
145.8840425999909
 20
152.6683013598569
 10
145.0989048209514
 20
152.6683013598569
 10
144.3282364524954
 20
152.3275811915945
 10
143.4531816219731
 20
151.6538923250251
 10
142.34627171234
 20
150.8074318058939
 10
141.901854101563
 20
150.1097995099067
 10
141.3578731655808
 20
149.289521733736
 10
140.6299240093235
 20
148.192602607601
 10
140.2850697237515
 20
147.455696197173
 10
139.6652966370942
 20
145.8385673095858
 10
139.0506911970739
 20
144.2214384219986
 10
138.463991048893
 20
142.3252566160164
 10
138.0571250036777
 20
141.0154304484394
 10
138.0571250036777
 20
141.0154304484394
 10
133.9009590684727
 20
127.8027915271048
 10
133.9009590684727
 20
127.8027915271048
 10
133.9009590684727
 20
127.8027915271048
 10
131.4180771143097
 20
127.8027915271048
 10
131.4180771143097
 20
127.8027915271048
 10
131.4180771143097
 20
127.8027915271048
 10
139.8926730891197
 20
154.8294111834263
 10
139.8926730891197
 20
154.8294111834263
 97
        0
 75
     2
 76
     1
 98
        0
  0
SPLINE
  5
6AA
330
6A2
100
AcDbEntity
  8
レイヤー 1
370
     0
100
AcDbSpline
210
0.0
220
0.0
230
1.0
 70
    11
 71
     3
 72
    29
 73
    25
 74
     0
 42
0.000000001
 43
0.0000000001
 40
0.0
 40
0.0
 40
0.0
 40
0.0
 40
1.0
 40
1.0
 40
1.0
 40
2.0
 40
2.0
 40
2.0
 40
3.0
 40
3.0
 40
3.0
 40
4.0
 40
4.0
 40
4.0
 40
5.0
 40
5.0
 40
5.0
 40
6.0
 40
6.0
 40
6.0
 40
7.0
 40
7.0
 40
7.0
 40
8.0
 40
8.0
 40
8.0
 40
8.0
 10
101.6420971922469
 20
132.8388354296931
 30
0.0
 10
101.630039350094
 20
134.7164137077823
 30
0.0
 10
102.2236296937908
 20
138.0598810818841
 30
0.0
 10
103.7487744712405
 20
142.5378191476827
 30
0.0
 10
105.819967243327
 20
148.5896501242061
 30
0.0
 10
107.0602024361932
 20
150.8074318058939
 30
0.0
 10
108.1522984254671
 20
151.8833358357054
 30
0.0
 10
109.741177511439
 20
153.4532668840085
 30
0.0
 10
111.8740375333931
 20
153.5290590346837
 30
0.0
 10
112.5075910110823
 20
153.4532668840085
 30
0.0
 10
113.4012493694975
 20
153.3490526768302
 30
0.0
 10
114.6683563248758
 20
152.7580461564518
 30
0.0
 10
114.7493161221879
 20
150.7838328862519
 30
0.0
 10
114.8106388622796
 20
149.0909118479895
 30
0.0
 10
114.3186789024427
 20
145.9191825971221
 30
0.0
 10
112.6164561002338
 20
140.9489400617108
 30
0.0
 10
110.6444821435766
 20
135.1746117095912
 30
0.0
 10
109.4669477299053
 20
132.8960240524753
 30
0.0
 10
108.5212683953448
 20
131.9072809959403
 30
0.0
 10
106.7346406980658
 20
130.0538184021569
 30
0.0
 10
104.8222669326213
 20
130.2336525051225
 30
0.0
 10
104.5408024457958
 20
130.2336525051225
 30
0.0
 10
104.1721769856939
 20
130.2336525051225
 30
0.0
 10
101.6465758193322
 20
130.6305277668397
 30
0.0
 10
101.6420971922469
 20
132.8388354296931
 30
0.0
  0
SPLINE
  5
6AB
330
6A2
100
AcDbEntity
  8
レイヤー 1
370
     0
100
AcDbSpline
210
0.0
220
0.0
230
1.0
 70
    11
 71
     3
 72
    32
 73
    28
 74
     0
 42
0.000000001
 43
0.0000000001
 40
0.0
 40
0.0
 40
0.0
 40
0.0
 40
1.0
 40
1.0
 40
1.0
 40
2.0
 40
2.0
 40
2.0
 40
3.0
 40
3.0
 40
3.0
 40
4.0
 40
4.0
 40
4.0
 40
5.0
 40
5.0
 40
5.0
 40
6.0
 40
6.0
 40
6.0
 40
7.0
 40
7.0
 40
7.0
 40
8.0
 40
8.0
 40
8.0
 40
9.0
 40
9.0
 40
9.0
 40
9.0
 10
106.2595617172429
 20
153.4105476718098
 30
0.0
 10
104.8222669326213
 20
151.5474388043041
 30
0.0
 10
103.7177685914188
 20
149.8758773721411
 30
0.0
 10
101.9232171692965
 20
144.6141795664062
 30
0.0
 10
100.2754269116635
 20
139.7999999594306
 30
0.0
 10
99.22777268346732
 20
136.3052927937542
 30
0.0
 10
99.06964269637689
 20
132.039572749846
 30
0.0
 10
98.94665270641765
 20
128.8673267343149
 30
0.0
 10
100.8807305877373
 20
127.8027915271048
 30
0.0
 10
103.7129454545577
 20
127.8027915271048
 30
0.0
 10
104.9352661390825
 20
127.8027915271048
 30
0.0
 10
108.0151835347002
 20
127.8827177950895
 30
0.0
 10
110.2045431598849
 20
130.5926316915021
 30
0.0
 10
111.7417457794874
 20
132.4984597712065
 30
0.0
 10
113.155269389579
 20
134.475256864725
 30
0.0
 10
115.0562743324223
 20
140.9489400617108
 30
0.0
 10
116.6361961642235
 20
146.3680788349845
 30
0.0
 10
117.7282921534974
 20
149.8639917848761
 30
0.0
 10
117.6480213757369
 20
151.8595646611754
 30
0.0
 10
117.6480213757369
 20
151.8595646611754
 30
0.0
 10
117.6480213757369
 20
151.8595646611754
 30
0.0
 10
117.6480213757369
 20
151.8595646611754
 30
0.0
 10
117.13229024137
 20
155.18150017429
 30
0.0
 10
114.7162431837115
 20
155.886194920681
 30
0.0
 10
113.3351034925446
 20
155.886194920681
 30
0.0
 10
111.9829026225447
 20
155.886194920681
 30
0.0
 10
108.3414342923792
 20
156.1251124501957
 30
0.0
 10
106.2595617172429
 20
153.4105476718098
 30
0.0
  0
HATCH
  5
6AC
330
6A2
100
AcDbEntity
  8
レイヤー 1
 62
   250
420
  2234388
100
AcDbHatch
 10
0.0
 20
0.0
 30
0.0
210
0.0
220
0.0
230
1.0
  2
SOLID
 70
     1
 71
     0
 91
        2
 92
        1
 93
        1
 72
     4
 94
        3
 73
     0
 74
     1
 95
       29
 96
       25
 40
0.0
 40
0.0
 40
0.0
 40
0.0
 40
1.0
 40
1.0
 40
1.0
 40
2.0
 40
2.0
 40
2.0
 40
3.0
 40
3.0
 40
3.0
 40
4.0
 40
4.0
 40
4.0
 40
5.0
 40
5.0
 40
5.0
 40
6.0
 40
6.0
 40
6.0
 40
7.0
 40
7.0
 40
7.0
 40
8.0
 40
8.0
 40
8.0
 40
8.0
 10
101.6420971922469
 20
132.8388354296931
 10
101.630039350094
 20
134.7164137077823
 10
102.2236296937908
 20
138.0598810818841
 10
103.7487744712405
 20
142.5378191476827
 10
105.819967243327
 20
148.5896501242061
 10
107.0602024361932
 20
150.8074318058939
 10
108.1522984254671
 20
151.8833358357054
 10
109.741177511439
 20
153.4532668840085
 10
111.8740375333931
 20
153.5290590346837
 10
112.5075910110823
 20
153.4532668840085
 10
113.4012493694975
 20
153.3490526768302
 10
114.6683563248758
 20
152.7580461564518
 10
114.7493161221879
 20
150.7838328862519
 10
114.8106388622796
 20
149.0909118479895
 10
114.3186789024427
 20
145.9191825971221
 10
112.6164561002338
 20
140.9489400617108
 10
110.6444821435766
 20
135.1746117095912
 10
109.4669477299053
 20
132.8960240524753
 10
108.5212683953448
 20
131.9072809959403
 10
106.7346406980658
 20
130.0538184021569
 10
104.8222669326213
 20
130.2336525051225
 10
104.5408024457958
 20
130.2336525051225
 10
104.1721769856939
 20
130.2336525051225
 10
101.6465758193322
 20
130.6305277668397
 10
101.6420971922469
 20
132.8388354296931
 97
        0
 92
        1
 93
        1
 72
     4
 94
        3
 73
     0
 74
     1
 95
       32
 96
       28
 40
0.0
 40
0.0
 40
0.0
 40
0.0
 40
1.0
 40
1.0
 40
1.0
 40
2.0
 40
2.0
 40
2.0
 40
3.0
 40
3.0
 40
3.0
 40
4.0
 40
4.0
 40
4.0
 40
5.0
 40
5.0
 40
5.0
 40
6.0
 40
6.0
 40
6.0
 40
7.0
 40
7.0
 40
7.0
 40
8.0
 40
8.0
 40
8.0
 40
9.0
 40
9.0
 40
9.0
 40
9.0
 10
106.2595617172429
 20
153.4105476718098
 10
104.8222669326213
 20
151.5474388043041
 10
103.7177685914188
 20
149.8758773721411
 10
101.9232171692965
 20
144.6141795664062
 10
100.2754269116635
 20
139.7999999594306
 10
99.22777268346732
 20
136.3052927937542
 10
99.06964269637689
 20
132.039572749846
 10
98.94665270641765
 20
128.8673267343149
 10
100.8807305877373
 20
127.8027915271048
 10
103.7129454545577
 20
127.8027915271048
 10
104.9352661390825
 20
127.8027915271048
 10
108.0151835347002
 20
127.8827177950895
 10
110.2045431598849
 20
130.5926316915021
 10
111.7417457794874
 20
132.4984597712065
 10
113.155269389579
 20
134.475256864725
 10
115.0562743324223
 20
140.9489400617108
 10
116.6361961642235
 20
146.3680788349845
 10
117.7282921534974
 20
149.8639917848761
 10
117.6480213757369
 20
151.8595646611754
 10
117.6480213757369
 20
151.8595646611754
 10
117.6480213757369
 20
151.8595646611754
 10
117.6480213757369
 20
151.8595646611754
 10
117.13229024137
 20
155.18150017429
 10
114.7162431837115
 20
155.886194920681
 10
113.3351034925446
 20
155.886194920681
 10
111.9829026225447
 20
155.886194920681
 10
108.3414342923792
 20
156.1251124501957
 10
106.2595617172429
 20
153.4105476718098
 97
        0
 75
     2
 76
     1
 98
        0
  0
ENDBLK
  5
6AD
330
6A2
100
AcDbEntity
  8
0
100
AcDbBlockEnd
  0
BLOCK
  5
4A70
330
4A6F
100
AcDbEntity
  8
0
100
AcDbBlockBegin
  2
*D4
 70
     1
 10
0.0
 20
0.0
 30
0.0
  3
*D4
  1
*D201
  0
LINE
  5
4A72
330
4A6F
100
AcDbEntity
  8
寸法
  6
Continuous
 62
     0
370
    -2
100
AcDbLine
 10
98.91682655240878
 20
348.7335990428101
 30
0.0
 11
86.56381770696608
 21
348.7335990428101
 31
0.0
  0
LINE
  5
4A73
330
4A6F
100
AcDbEntity
  8
寸法
  6
Continuous
 62
     0
370
    -2
100
AcDbLine
 10
113.4691954971437
 20
341.034177143836
 30
0.0
 11
86.56381770696608
 21
341.034177143836
 31
0.0
  0
LINE
  5
4A74
330
4A6F
100
AcDbEntity
  8
寸法
  6
Continuous
 62
     0
370
    -2
100
AcDbLine
 10
86.56381770696608
 20
347.2335990428101
 30
0.0
 11
86.56381770696608
 21
342.534177143836
 31
0.0
  0
INSERT
  5
4A75
330
4A6F
100
AcDbEntity
  8
寸法
 62
     0
370
    -2
100
AcDbBlockReference
  2
_DOT
 10
86.56381770696608
 20
348.7335990428101
 30
0.0
 41
1.5
 42
1.5
 43
1.5
 50
90.0
  0
INSERT
  5
4A76
330
4A6F
100
AcDbEntity
  8
寸法
 62
     0
370
    -2
100
AcDbBlockReference
  2
_DOT
 10
86.56381770696608
 20
341.034177143836
 30
0.0
 41
1.5
 42
1.5
 43
1.5
 50
270.0
  0
MTEXT
  5
4A77
330
4A6F
100
AcDbEntity
  8
寸法
  6
Continuous
 62
     0
100
AcDbMText
 10
82.06381770696608
 20
344.883888093323
 30
0.0
 40
5.0
 41
0.0
 46
0.0
 71
     5
 72
     1
  1
\A1;8
  7
ＭＳ ゴシック
 11
0.0
 21
1.0
 31
0.0
 73
     1
 44
1.0
  0
POINT
  5
4A78
330
4A6F
100
AcDbEntity
  8
Defpoints
 62
     0
100
AcDbPoint
 10
103.9168265524088
 20
348.7335990428101
 30
0.0
  0
POINT
  5
4A79
330
4A6F
100
AcDbEntity
  8
Defpoints
 62
     0
100
AcDbPoint
 10
118.4691954971437
 20
341.034177143836
 30
0.0
  0
POINT
  5
50E4
330
4A6F
100
AcDbEntity
  8
Defpoints
 62
     0
100
AcDbPoint
 10
86.56381770696608
 20
341.034177143836
 30
0.0
  0
ENDBLK
  5
4A71
330
4A6F
100
AcDbEntity
  8
0
100
AcDbBlockEnd
  0
BLOCK
  5
4A9D
330
4A9C
100
AcDbEntity
  8
0
100
AcDbBlockBegin
  2
*D5
 70
     1
 10
0.0
 20
0.0
 30
0.0
  3
*D5
  1
*D204
  0
LINE
  5
4A9F
330
4A9C
100
AcDbEntity
  8
寸法
  6
Continuous
 62
     0
370
    -2
100
AcDbLine
 10
393.399155477559
 20
348.818818554795
 30
0.0
 11
367.476467670506
 21
348.818818554795
 31
0.0
  0
LINE
  5
4AA0
330
4A9C
100
AcDbEntity
  8
寸法
  6
Continuous
 62
     0
370
    -2
100
AcDbLine
 10
393.399155477559
 20
293.818818554795
 30
0.0
 11
367.476467670506
 21
293.818818554795
 31
0.0
  0
LINE
  5
4AA1
330
4A9C
100
AcDbEntity
  8
寸法
  6
Continuous
 62
     0
370
    -2
100
AcDbLine
 10
367.476467670506
 20
347.318818554795
 30
0.0
 11
367.476467670506
 21
295.318818554795
 31
0.0
  0
INSERT
  5
4AA2
330
4A9C
100
AcDbEntity
  8
寸法
 62
     0
370
    -2
100
AcDbBlockReference
  2
_DOT
 10
367.476467670506
 20
348.818818554795
 30
0.0
 41
1.5
 42
1.5
 43
1.5
 50
90.0
  0
INSERT
  5
4AA3
330
4A9C
100
AcDbEntity
  8
寸法
 62
     0
370
    -2
100
AcDbBlockReference
  2
_DOT
 10
367.476467670506
 20
293.818818554795
 30
0.0
 41
1.5
 42
1.5
 43
1.5
 50
270.0
  0
MTEXT
  5
4AA4
330
4A9C
100
AcDbEntity
  8
寸法
  6
Continuous
 62
     0
100
AcDbMText
 10
362.571467670506
 20
321.318818554795
 30
0.0
 40
5.0
 41
0.0
 46
0.0
 71
     5
 72
     1
  1
\A1;φ55
  7
ＭＳ ゴシック
 11
0.0
 21
1.0
 31
0.0
 73
     1
 44
1.0
  0
POINT
  5
4AA5
330
4A9C
100
AcDbEntity
  8
Defpoints
 62
     0
100
AcDbPoint
 10
398.399155477559
 20
348.818818554795
 30
0.0
  0
POINT
  5
4AA6
330
4A9C
100
AcDbEntity
  8
Defpoints
 62
     0
100
AcDbPoint
 10
398.399155477559
 20
293.818818554795
 30
0.0
  0
POINT
  5
4AA7
330
4A9C
100
AcDbEntity
  8
Defpoints
 62
     0
100
AcDbPoint
 10
367.476467670506
 20
293.818818554795
 30
0.0
  0
ENDBLK
  5
4A9E
330
4A9C
100
AcDbEntity
  8
0
100
AcDbBlockEnd
  0
BLOCK
  5
4AD6
330
4AD5
100
AcDbEntity
  8
0
100
AcDbBlockBegin
  2
*D6
 70
     1
 10
0.0
 20
0.0
 30
0.0
  3
*D6
  1
*D205
  0
LINE
  5
4AD8
330
4AD5
100
AcDbEntity
  8
寸法
  6
Continuous
 62
     0
370
    -2
100
AcDbLine
 10
98.05251894705448
 20
348.7335990428101
 30
0.0
 11
68.82714828459429
 21
348.7335990428101
 31
0.0
  0
LINE
  5
4AD9
330
4AD5
100
AcDbEntity
  8
寸法
  6
Continuous
 62
     0
370
    -2
100
AcDbLine
 10
147.7127408186816
 20
286.72031825047
 30
0.0
 11
68.82714828459429
 21
286.72031825047
 31
0.0
  0
LINE
  5
4ADA
330
4AD5
100
AcDbEntity
  8
寸法
  6
Continuous
 62
     0
370
    -2
100
AcDbLine
 10
68.82714828459429
 20
347.2335990428101
 30
0.0
 11
68.82714828459429
 21
288.22031825047
 31
0.0
  0
INSERT
  5
4ADB
330
4AD5
100
AcDbEntity
  8
寸法
 62
     0
370
    -2
100
AcDbBlockReference
  2
_DOT
 10
68.82714828459429
 20
348.7335990428101
 30
0.0
 41
1.5
 42
1.5
 43
1.5
 50
90.0
  0
INSERT
  5
4ADC
330
4AD5
100
AcDbEntity
  8
寸法
 62
     0
370
    -2
100
AcDbBlockReference
  2
_DOT
 10
68.82714828459429
 20
286.72031825047
 30
0.0
 41
1.5
 42
1.5
 43
1.5
 50
270.0
  0
MTEXT
  5
4ADD
330
4AD5
100
AcDbEntity
  8
寸法
  6
Continuous
 62
     0
100
AcDbMText
 10
64.32714828459429
 20
317.7269586466401
 30
0.0
 40
5.0
 41
0.0
 46
0.0
 71
     5
 72
     1
  1
\A1;62
  7
ＭＳ ゴシック
 11
0.0
 21
1.0
 31
0.0
 73
     1
 44
1.0
  0
POINT
  5
4ADE
330
4AD5
100
AcDbEntity
  8
Defpoints
 62
     0
100
AcDbPoint
 10
103.0525189470545
 20
348.7335990428101
 30
0.0
  0
POINT
  5
4ADF
330
4AD5
100
AcDbEntity
  8
Defpoints
 62
     0
100
AcDbPoint
 10
152.7127408186816
 20
286.72031825047
 30
0.0
  0
POINT
  5
4AE0
330
4AD5
100
AcDbEntity
  8
Defpoints
 62
     0
100
AcDbPoint
 10
68.82714828459429
 20
286.72031825047
 30
0.0
  0
ENDBLK
  5
4AD7
330
4AD5
100
AcDbEntity
  8
0
100
AcDbBlockEnd
  0
BLOCK
  5
4CAF
330
4CAE
100
AcDbEntity
  8
0
100
AcDbBlockBegin
  2
*D7
 70
     1
 10
0.0
 20
0.0
 30
0.0
  3
*D7
  1
*D212
  0
LINE
  5
4CB1
330
4CAE
100
AcDbEntity
  8
寸法
  6
Continuous
 62
     0
370
    -2
100
AcDbLine
 10
127.1816507401138
 20
148.4628469200377
 30
0.0
 11
127.1816507401138
 21
139.2647026849566
 31
0.0
  0
LINE
  5
4CB2
330
4CAE
100
AcDbEntity
  8
寸法
  6
Continuous
 62
     0
370
    -2
100
AcDbLine
 10
134.8478779086743
 20
161.8572489862937
 30
0.0
 11
134.8478779086743
 21
139.2647026849566
 31
0.0
  0
LINE
  5
4CB3
330
4CAE
100
AcDbEntity
  8
寸法
  6
Continuous
 62
     0
370
    -2
100
AcDbLine
 10
134.8478779086743
 20
139.2647026849566
 30
0.0
 11
184.5467937044841
 21
139.2647026849566
 31
0.0
  0
INSERT
  5
4CB4
330
4CAE
100
AcDbEntity
  8
寸法
 62
     0
370
    -2
100
AcDbBlockReference
  2
_DOT
 10
127.1816507401138
 20
139.2647026849566
 30
0.0
 41
1.5
 42
1.5
 43
1.5
 50
180.0
  0
INSERT
  5
4CB5
330
4CAE
100
AcDbEntity
  8
寸法
 62
     0
370
    -2
100
AcDbBlockReference
  2
_DOT
 10
134.8478779086743
 20
139.2647026849566
 30
0.0
 41
1.5
 42
1.5
 43
1.5
  0
MTEXT
  5
4CB6
330
4CAE
100
AcDbEntity
  8
寸法
  6
Continuous
 62
     0
100
AcDbMText
 10
162.1317937044842
 20
144.3222026849566
 30
0.0
 40
5.0
 41
0.0
 46
0.0
 71
     5
 72
     1
  1
\A1;プレート部分8
  7
ＭＳ ゴシック
 73
     1
 44
1.0
  0
POINT
  5
4CB7
330
4CAE
100
AcDbEntity
  8
Defpoints
 62
     0
100
AcDbPoint
 10
127.1816507401138
 20
153.4628469200377
 30
0.0
  0
POINT
  5
4CB8
330
4CAE
100
AcDbEntity
  8
Defpoints
 62
     0
100
AcDbPoint
 10
134.8478779086743
 20
166.8572489862937
 30
0.0
  0
POINT
  5
4CB9
330
4CAE
100
AcDbEntity
  8
Defpoints
 62
     0
100
AcDbPoint
 10
134.8478779086743
 20
139.2647026849566
 30
0.0
  0
ENDBLK
  5
4CB0
330
4CAE
100
AcDbEntity
  8
0
100
AcDbBlockEnd
  0
BLOCK
  5
4EF5
330
4EF4
100
AcDbEntity
  8
0
100
AcDbBlockBegin
  2
*D8
 70
     1
 10
0.0
 20
0.0
 30
0.0
  3
*D8
  1
*D205
  0
LINE
  5
4EF7
330
4EF4
100
AcDbEntity
  8
寸法
  6
Continuous
 62
     0
370
    -2
100
AcDbLine
 10
114.058077654318
 20
341.022953810548
 30
0.0
 11
86.51194664155467
 21
341.022953810548
 31
0.0
  0
LINE
  5
4EF8
330
4EF4
100
AcDbEntity
  8
寸法
  6
Continuous
 62
     0
370
    -2
100
AcDbLine
 10
152.7127408186816
 20
286.72031825047
 30
0.0
 11
86.51194664155467
 21
286.72031825047
 31
0.0
  0
LINE
  5
4EF9
330
4EF4
100
AcDbEntity
  8
寸法
  6
Continuous
 62
     0
370
    -2
100
AcDbLine
 10
86.51194664155467
 20
339.522953810548
 30
0.0
 11
86.51194664155467
 21
288.22031825047
 31
0.0
  0
INSERT
  5
4EFA
330
4EF4
100
AcDbEntity
  8
寸法
 62
     0
370
    -2
100
AcDbBlockReference
  2
_DOT
 10
86.51194664155467
 20
341.022953810548
 30
0.0
 41
1.5
 42
1.5
 43
1.5
 50
90.0
  0
INSERT
  5
4EFB
330
4EF4
100
AcDbEntity
  8
寸法
 62
     0
370
    -2
100
AcDbBlockReference
  2
_DOT
 10
86.51194664155467
 20
286.72031825047
 30
0.0
 41
1.5
 42
1.5
 43
1.5
 50
270.0
  0
MTEXT
  5
4EFC
330
4EF4
100
AcDbEntity
  8
寸法
  6
Continuous
 62
     0
100
AcDbMText
 10
82.01194664155467
 20
313.871636030509
 30
0.0
 40
5.0
 41
0.0
 46
0.0
 71
     5
 72
     1
  1
\A1;54
  7
ＭＳ ゴシック
 11
0.0
 21
1.0
 31
0.0
 73
     1
 44
1.0
  0
POINT
  5
4EFD
330
4EF4
100
AcDbEntity
  8
Defpoints
 62
     0
100
AcDbPoint
 10
119.058077654318
 20
341.022953810548
 30
0.0
  0
POINT
  5
4EFE
330
4EF4
100
AcDbEntity
  8
Defpoints
 62
     0
100
AcDbPoint
 10
157.7127408186816
 20
286.72031825047
 30
0.0
  0
POINT
  5
4EFF
330
4EF4
100
AcDbEntity
  8
Defpoints
 62
     0
100
AcDbPoint
 10
86.51194664155467
 20
286.72031825047
 30
0.0
  0
ENDBLK
  5
4EF6
330
4EF4
100
AcDbEntity
  8
0
100
AcDbBlockEnd
  0
BLOCK
  5
50D0
330
50CF
100
AcDbEntity
  8
0
100
AcDbBlockBegin
  2
*D9
 70
     1
 10
0.0
 20
0.0
 30
0.0
  3
*D9
  1
*D208
  0
LINE
  5
50D2
330
50CF
100
AcDbEntity
  8
寸法
  6
Continuous
 62
     0
370
    -2
100
AcDbLine
 10
113.1442848186816
 20
332.02031825047
 30
0.0
 11
113.1442848186816
 21
259.6316994925465
 31
0.0
  0
LINE
  5
50D3
330
50CF
100
AcDbEntity
  8
寸法
  6
Continuous
 62
     0
370
    -2
100
AcDbLine
 10
238.1102108186815
 20
295.9883962504701
 30
0.0
 11
238.1102108186815
 21
259.6316994925465
 31
0.0
  0
LINE
  5
50D4
330
50CF
100
AcDbEntity
  8
寸法
  6
Continuous
 62
     0
370
    -2
100
AcDbLine
 10
114.6442848186816
 20
259.6316994925465
 30
0.0
 11
236.6102108186815
 21
259.6316994925465
 31
0.0
  0
INSERT
  5
50D5
330
50CF
100
AcDbEntity
  8
寸法
 62
     0
370
    -2
100
AcDbBlockReference
  2
_DOT
 10
113.1442848186816
 20
259.6316994925465
 30
0.0
 41
1.5
 42
1.5
 43
1.5
 50
180.0
  0
INSERT
  5
50D6
330
50CF
100
AcDbEntity
  8
寸法
 62
     0
370
    -2
100
AcDbBlockReference
  2
_DOT
 10
238.1102108186815
 20
259.6316994925465
 30
0.0
 41
1.5
 42
1.5
 43
1.5
  0
MTEXT
  5
50D7
330
50CF
100
AcDbEntity
  8
寸法
  6
Continuous
 62
     0
100
AcDbMText
 10
175.6272478186816
 20
264.1316994925465
 30
0.0
 40
5.0
 41
0.0
 46
0.0
 71
     5
 72
     1
  1
\A1;125
  7
ＭＳ ゴシック
 73
     1
 44
1.0
  0
POINT
  5
50D8
330
50CF
100
AcDbEntity
  8
Defpoints
 62
     0
100
AcDbPoint
 10
113.1442848186816
 20
337.02031825047
 30
0.0
  0
POINT
  5
50D9
330
50CF
100
AcDbEntity
  8
Defpoints
 62
     0
100
AcDbPoint
 10
238.1102108186815
 20
300.9883962504701
 30
0.0
  0
POINT
  5
50DA
330
50CF
100
AcDbEntity
  8
Defpoints
 62
     0
100
AcDbPoint
 10
238.1102108186815
 20
259.6316994925465
 30
0.0
  0
ENDBLK
  5
50D1
330
50CF
100
AcDbEntity
  8
0
100
AcDbBlockEnd
  0
BLOCK
  5
52D8
330
52D7
100
AcDbEntity
  8
0
100
AcDbBlockBegin
  2
名称未設定-1
 70
     0
 10
0.0
 20
0.0
 30
0.0
  3
名称未設定-1
  1
名称未設定-1
  0
INSERT
  5
52D9
330
52D7
100
AcDbEntity
  8
TFORMLOGO
100
AcDbBlockReference
  2
block 2
 10
0.0
 20
0.0
 30
0.0
  0
ENDBLK
  5
52FE
330
52D7
100
AcDbEntity
  8
0
100
AcDbBlockEnd
  0
BLOCK
  5
52DB
330
52DA
100
AcDbEntity
  8
0
100
AcDbBlockBegin
  2
block 2
 70
     0
 10
0.0
 20
0.0
 30
0.0
  3
block 2
  1
block 2
  0
INSERT
  5
52DC
330
52DA
100
AcDbEntity
  8
TFORMLOGO
100
AcDbBlockReference
  2
block 3
 10
0.0
 20
0.0
 30
0.0
  0
ENDBLK
  5
52FD
330
52DA
100
AcDbEntity
  8
0
100
AcDbBlockEnd
  0
BLOCK
  5
5314
330
5313
100
AcDbEntity
  8
0
100
AcDbBlockBegin
  2
*D12
 70
     1
 10
0.0
 20
0.0
 30
0.0
  3
*D12
  1
*D53
  0
LINE
  5
5315
330
5313
100
AcDbEntity
  8
寸法
  6
Continuous
 62
     0
370
    -2
100
AcDbLine
 10
94.93135926942057
 20
348.7335990428101
 30
0.0
 11
82.57835042397778
 21
348.7335990428101
 31
0.0
  0
LINE
  5
5316
330
5313
100
AcDbEntity
  8
寸法
  6
Continuous
 62
     0
370
    -2
100
AcDbLine
 10
109.4837282141555
 20
341.0341771438358
 30
0.0
 11
82.57835042397778
 21
341.0341771438358
 31
0.0
  0
LINE
  5
5317
330
5313
100
AcDbEntity
  8
寸法
  6
Continuous
 62
     0
370
    -2
100
AcDbLine
 10
82.57835042397778
 20
348.7335990428101
 30
0.0
 11
82.57835042397778
 21
341.0341771438358
 31
0.0
  0
LINE
  5
5318
330
5313
100
AcDbEntity
  8
寸法
  6
Continuous
 62
     0
370
    -2
100
AcDbLine
 10
82.57835042397778
 20
350.2335990428101
 30
0.0
 11
82.57835042397778
 21
351.7335990428101
 31
0.0
  0
LINE
  5
5319
330
5313
100
AcDbEntity
  8
寸法
  6
Continuous
 62
     0
370
    -2
100
AcDbLine
 10
82.57835042397778
 20
339.5341771438358
 30
0.0
 11
82.57835042397778
 21
338.0341771438358
 31
0.0
  0
INSERT
  5
531A
330
5313
100
AcDbEntity
  8
寸法
 62
     0
370
    -2
100
AcDbBlockReference
  2
_DOT
 10
82.57835042397778
 20
348.7335990428101
 30
0.0
 41
1.5
 42
1.5
 43
1.5
 50
270.0
  0
INSERT
  5
531B
330
5313
100
AcDbEntity
  8
寸法
 62
     0
370
    -2
100
AcDbBlockReference
  2
_DOT
 10
82.57835042397778
 20
341.0341771438358
 30
0.0
 41
1.5
 42
1.5
 43
1.5
 50
90.0
  0
MTEXT
  5
531C
330
5313
100
AcDbEntity
  8
寸法
  6
Continuous
 62
     0
100
AcDbMText
 10
78.07835042397778
 20
344.883888093323
 30
0.0
 40
5.0
 41
0.0
 46
0.0
 71
     5
 72
     1
  1
\A1;8
  7
ＭＳ ゴシック
 11
0.0
 21
1.0
 31
0.0
 73
     1
 44
1.0
  0
POINT
  5
549C
330
5313
100
AcDbEntity
  8
Defpoints
 62
     0
100
AcDbPoint
 10
99.93135926942057
 20
348.7335990428101
 30
0.0
  0
POINT
  5
549D
330
5313
100
AcDbEntity
  8
Defpoints
 62
     0
100
AcDbPoint
 10
114.4837282141555
 20
341.0341771438358
 30
0.0
  0
POINT
  5
549E
330
5313
100
AcDbEntity
  8
Defpoints
 62
     0
100
AcDbPoint
 10
82.57835042397778
 20
341.0341771438358
 30
0.0
  0
ENDBLK
  5
531D
330
5313
100
AcDbEntity
  8
0
100
AcDbBlockEnd
  0
BLOCK
  5
5320
330
531F
100
AcDbEntity
  8
0
100
AcDbBlockBegin
  2
*D13
 70
     1
 10
0.0
 20
0.0
 30
0.0
  3
*D13
  1
*D54
  0
LINE
  5
5321
330
531F
100
AcDbEntity
  8
寸法
  6
Continuous
 62
     0
370
    -2
100
AcDbLine
 10
403.8854160529299
 20
348.7990849693352
 30
0.0
 11
364.2169531300075
 21
348.7990849693352
 31
0.0
  0
LINE
  5
5322
330
531F
100
AcDbEntity
  8
寸法
  6
Continuous
 62
     0
370
    -2
100
AcDbLine
 10
403.8854160529299
 20
293.7990849693352
 30
0.0
 11
364.2169531300075
 21
293.7990849693352
 31
0.0
  0
LINE
  5
5323
330
531F
100
AcDbEntity
  8
寸法
  6
Continuous
 62
     0
370
    -2
100
AcDbLine
 10
364.2169531300075
 20
347.2990849693352
 30
0.0
 11
364.2169531300075
 21
295.2990849693352
 31
0.0
  0
INSERT
  5
5324
330
531F
100
AcDbEntity
  8
寸法
 62
     0
370
    -2
100
AcDbBlockReference
  2
_DOT
 10
364.2169531300075
 20
348.7990849693352
 30
0.0
 41
1.5
 42
1.5
 43
1.5
 50
90.0
  0
INSERT
  5
5325
330
531F
100
AcDbEntity
  8
寸法
 62
     0
370
    -2
100
AcDbBlockReference
  2
_DOT
 10
364.2169531300075
 20
293.7990849693352
 30
0.0
 41
1.5
 42
1.5
 43
1.5
 50
270.0
  0
MTEXT
  5
5326
330
531F
100
AcDbEntity
  8
寸法
  6
Continuous
 62
     0
100
AcDbMText
 10
359.3119531300075
 20
321.2990849693352
 30
0.0
 40
5.0
 41
0.0
 46
0.0
 71
     5
 72
     1
  1
\A1;φ55
  7
ＭＳ ゴシック
 11
0.0
 21
1.0
 31
0.0
 73
     1
 44
1.0
  0
POINT
  5
5327
330
531F
100
AcDbEntity
  8
Defpoints
 62
     0
100
AcDbPoint
 10
408.8854160529299
 20
348.7990849693352
 30
0.0
  0
POINT
  5
5328
330
531F
100
AcDbEntity
  8
Defpoints
 62
     0
100
AcDbPoint
 10
408.8854160529299
 20
293.7990849693352
 30
0.0
  0
POINT
  5
5329
330
531F
100
AcDbEntity
  8
Defpoints
 62
     0
100
AcDbPoint
 10
364.2169531300075
 20
293.7990849693352
 30
0.0
  0
ENDBLK
  5
532A
330
531F
100
AcDbEntity
  8
0
100
AcDbBlockEnd
  0
BLOCK
  5
532D
330
532C
100
AcDbEntity
  8
0
100
AcDbBlockBegin
  2
*D14
 70
     1
 10
0.0
 20
0.0
 30
0.0
  3
*D14
  1
*D55
  0
LINE
  5
532E
330
532C
100
AcDbEntity
  8
寸法
  6
Continuous
 62
     0
370
    -2
100
AcDbLine
 10
94.06705166406618
 20
348.7335990428101
 30
0.0
 11
62.66820315675285
 21
348.7335990428101
 31
0.0
  0
LINE
  5
532F
330
532C
100
AcDbEntity
  8
寸法
  6
Continuous
 62
     0
370
    -2
100
AcDbLine
 10
184.9711760191407
 20
281.0777285890699
 30
0.0
 11
62.66820315675284
 21
281.0777285890699
 31
0.0
  0
LINE
  5
5330
330
532C
100
AcDbEntity
  8
寸法
  6
Continuous
 62
     0
370
    -2
100
AcDbLine
 10
62.66820315675285
 20
347.2335990428101
 30
0.0
 11
62.66820315675284
 21
282.5777285890699
 31
0.0
  0
INSERT
  5
5331
330
532C
100
AcDbEntity
  8
寸法
 62
     0
370
    -2
100
AcDbBlockReference
  2
_DOT
 10
62.66820315675285
 20
348.7335990428101
 30
0.0
 41
1.5
 42
1.5
 43
1.5
 50
90.0
  0
INSERT
  5
5332
330
532C
100
AcDbEntity
  8
寸法
 62
     0
370
    -2
100
AcDbBlockReference
  2
_DOT
 10
62.66820315675284
 20
281.0777285890699
 30
0.0
 41
1.5
 42
1.5
 43
1.5
 50
270.0
  0
MTEXT
  5
5333
330
532C
100
AcDbEntity
  8
寸法
  6
Continuous
 62
     0
100
AcDbMText
 10
58.16820315675284
 20
314.90566381594
 30
0.0
 40
5.0
 41
0.0
 46
0.0
 71
     5
 72
     1
  1
\A1;68
  7
ＭＳ ゴシック
 11
1.050230720549128E-16
 21
1.0
 31
0.0
 73
     1
 44
1.0
  0
POINT
  5
5334
330
532C
100
AcDbEntity
  8
Defpoints
 62
     0
100
AcDbPoint
 10
99.06705166406618
 20
348.7335990428101
 30
0.0
  0
POINT
  5
5335
330
532C
100
AcDbEntity
  8
Defpoints
 62
     0
100
AcDbPoint
 10
189.9711760191407
 20
281.0777285890699
 30
0.0
  0
POINT
  5
5336
330
532C
100
AcDbEntity
  8
Defpoints
 62
     0
100
AcDbPoint
 10
62.66820315675284
 20
281.0777285890699
 30
0.0
  0
ENDBLK
  5
5337
330
532C
100
AcDbEntity
  8
0
100
AcDbBlockEnd
  0
BLOCK
  5
533A
330
5339
100
AcDbEntity
  8
0
100
AcDbBlockBegin
  2
*D15
 70
     1
 10
0.0
 20
0.0
 30
0.0
  3
*D15
  1
*D56
  0
LINE
  5
533B
330
5339
100
AcDbEntity
  8
寸法
  6
Continuous
 62
     0
370
    -2
100
AcDbLine
 10
127.0296484505602
 20
145.053068208781
 30
0.0
 11
127.0296484505602
 21
138.3207352236588
 31
0.0
  0
LINE
  5
533C
330
5339
100
AcDbEntity
  8
寸法
  6
Continuous
 62
     0
370
    -2
100
AcDbLine
 10
134.8816507401137
 20
163.6511043765549
 30
0.0
 11
134.8816507401137
 21
138.3207352236588
 31
0.0
  0
LINE
  5
533D
330
5339
100
AcDbEntity
  8
寸法
  6
Continuous
 62
     0
370
    -2
100
AcDbLine
 10
134.8816507401137
 20
138.3207352236588
 30
0.0
 11
186.7116507401138
 21
138.3207352236588
 31
0.0
  0
INSERT
  5
533E
330
5339
100
AcDbEntity
  8
寸法
 62
     0
370
    -2
100
AcDbBlockReference
  2
_DOT
 10
127.0296484505602
 20
138.3207352236588
 30
0.0
 41
1.5
 42
1.5
 43
1.5
 50
180.0
  0
INSERT
  5
533F
330
5339
100
AcDbEntity
  8
寸法
 62
     0
370
    -2
100
AcDbBlockReference
  2
_DOT
 10
134.8816507401137
 20
138.3207352236588
 30
0.0
 41
1.5
 42
1.5
 43
1.5
  0
MTEXT
  5
5340
330
5339
100
AcDbEntity
  8
寸法
  6
Continuous
 62
     0
100
AcDbMText
 10
164.2966507401138
 20
143.3782352236588
 30
0.0
 40
5.0
 41
0.0
 46
0.0
 71
     5
 72
     1
  1
\A1;プレート部分8
  7
ＭＳ ゴシック
 73
     1
 44
1.0
  0
POINT
  5
5341
330
5339
100
AcDbEntity
  8
Defpoints
 62
     0
100
AcDbPoint
 10
127.0296484505602
 20
150.053068208781
 30
0.0
  0
POINT
  5
5342
330
5339
100
AcDbEntity
  8
Defpoints
 62
     0
100
AcDbPoint
 10
134.8816507401137
 20
168.6511043765549
 30
0.0
  0
POINT
  5
5343
330
5339
100
AcDbEntity
  8
Defpoints
 62
     0
100
AcDbPoint
 10
134.8816507401137
 20
138.3207352236588
 30
0.0
  0
ENDBLK
  5
5344
330
5339
100
AcDbEntity
  8
0
100
AcDbBlockEnd
  0
BLOCK
  5
5349
330
5348
100
AcDbEntity
  8
0
100
AcDbBlockBegin
  2
*D16
 70
     1
 10
0.0
 20
0.0
 30
0.0
  3
*D16
  1
*D57
  0
LINE
  5
534A
330
5348
100
AcDbEntity
  8
寸法
  6
Continuous
 62
     0
370
    -2
100
AcDbLine
 10
110.0726103713298
 20
341.022953810548
 30
0.0
 11
82.52647935856646
 21
341.022953810548
 31
0.0
  0
LINE
  5
534B
330
5348
100
AcDbEntity
  8
寸法
  6
Continuous
 62
     0
370
    -2
100
AcDbLine
 10
189.9711760191407
 20
281.0777285890699
 30
0.0
 11
82.52647935856646
 21
281.0777285890699
 31
0.0
  0
LINE
  5
534C
330
5348
100
AcDbEntity
  8
寸法
  6
Continuous
 62
     0
370
    -2
100
AcDbLine
 10
82.52647935856646
 20
339.522953810548
 30
0.0
 11
82.52647935856646
 21
282.5777285890699
 31
0.0
  0
INSERT
  5
534D
330
5348
100
AcDbEntity
  8
寸法
 62
     0
370
    -2
100
AcDbBlockReference
  2
_DOT
 10
82.52647935856646
 20
341.022953810548
 30
0.0
 41
1.5
 42
1.5
 43
1.5
 50
90.0
  0
INSERT
  5
534E
330
5348
100
AcDbEntity
  8
寸法
 62
     0
370
    -2
100
AcDbBlockReference
  2
_DOT
 10
82.52647935856646
 20
281.0777285890699
 30
0.0
 41
1.5
 42
1.5
 43
1.5
 50
270.0
  0
MTEXT
  5
534F
330
5348
100
AcDbEntity
  8
寸法
  6
Continuous
 62
     0
100
AcDbMText
 10
78.02647935856646
 20
311.0503411998089
 30
0.0
 40
5.0
 41
0.0
 46
0.0
 71
     5
 72
     1
  1
\A1;60
  7
ＭＳ ゴシック
 11
0.0
 21
1.0
 31
0.0
 73
     1
 44
1.0
  0
POINT
  5
5350
330
5348
100
AcDbEntity
  8
Defpoints
 62
     0
100
AcDbPoint
 10
115.0726103713298
 20
341.022953810548
 30
0.0
  0
POINT
  5
5351
330
5348
100
AcDbEntity
  8
Defpoints
 62
     0
100
AcDbPoint
 10
194.9711760191407
 20
281.0777285890699
 30
0.0
  0
POINT
  5
5352
330
5348
100
AcDbEntity
  8
Defpoints
 62
     0
100
AcDbPoint
 10
82.52647935856646
 20
281.0777285890699
 30
0.0
  0
ENDBLK
  5
5353
330
5348
100
AcDbEntity
  8
0
100
AcDbBlockEnd
  0
BLOCK
  5
53A5
330
53A4
100
AcDbEntity
  8
0
100
AcDbBlockBegin
  2
*D17
 70
     1
 10
0.0
 20
0.0
 30
0.0
  3
*D17
  1
*D58
  0
LINE
  5
53A6
330
53A4
100
AcDbEntity
  8
寸法
  6
Continuous
 62
     0
370
    -2
100
AcDbLine
 10
115.1935433875918
 20
326.04005183593
 30
0.0
 11
115.1935433875918
 21
262.1267427827099
 31
0.0
  0
LINE
  5
53A7
330
53A4
100
AcDbEntity
  8
寸法
  6
Continuous
 62
     0
370
    -2
100
AcDbLine
 10
234.1687403875918
 20
292.9484688359301
 30
0.0
 11
234.1687403875918
 21
262.1267427827099
 31
0.0
  0
LINE
  5
53A8
330
53A4
100
AcDbEntity
  8
寸法
  6
Continuous
 62
     0
370
    -2
100
AcDbLine
 10
116.6935433875918
 20
262.1267427827099
 30
0.0
 11
232.6687403875918
 21
262.1267427827099
 31
0.0
  0
INSERT
  5
53A9
330
53A4
100
AcDbEntity
  8
寸法
 62
     0
370
    -2
100
AcDbBlockReference
  2
_DOT
 10
115.1935433875918
 20
262.1267427827099
 30
0.0
 41
1.5
 42
1.5
 43
1.5
 50
180.0
  0
INSERT
  5
53AA
330
53A4
100
AcDbEntity
  8
寸法
 62
     0
370
    -2
100
AcDbBlockReference
  2
_DOT
 10
234.1687403875918
 20
262.1267427827099
 30
0.0
 41
1.5
 42
1.5
 43
1.5
  0
MTEXT
  5
53AB
330
53A4
100
AcDbEntity
  8
寸法
  6
Continuous
 62
     0
100
AcDbMText
 10
174.6811418875918
 20
266.6267427827099
 30
0.0
 40
5.0
 41
0.0
 46
0.0
 71
     5
 72
     1
  1
\A1;119
  7
ＭＳ ゴシック
 73
     1
 44
1.0
  0
POINT
  5
53AC
330
53A4
100
AcDbEntity
  8
Defpoints
 62
     0
100
AcDbPoint
 10
115.1935433875918
 20
331.04005183593
 30
0.0
  0
POINT
  5
53AD
330
53A4
100
AcDbEntity
  8
Defpoints
 62
     0
100
AcDbPoint
 10
234.1687403875918
 20
297.9484688359301
 30
0.0
  0
POINT
  5
53AE
330
53A4
100
AcDbEntity
  8
Defpoints
 62
     0
100
AcDbPoint
 10
234.1687403875918
 20
262.1267427827099
 30
0.0
  0
ENDBLK
  5
53AF
330
53A4
100
AcDbEntity
  8
0
100
AcDbBlockEnd
  0
BLOCK
  5
53D9
330
53D8
100
AcDbEntity
  8
0
100
AcDbBlockBegin
  2
*D18
 70
     1
 10
0.0
 20
0.0
 30
0.0
  3
*D18
  1
*D63
  0
LINE
  5
53DA
330
53D8
100
AcDbEntity
  8
寸法
 62
     0
370
    -2
100
AcDbLine
 10
427.8721245115549
 20
172.3452081951892
 30
0.0
 11
427.8721245115549
 21
144.5573006134969
 31
0.0
  0
LINE
  5
53DB
330
53D8
100
AcDbEntity
  8
寸法
 62
     0
370
    -2
100
AcDbLine
 10
389.8721245115548
 20
172.3452081951892
 30
0.0
 11
389.8721245115548
 21
144.5573006134969
 31
0.0
  0
LINE
  5
53DC
330
53D8
100
AcDbEntity
  8
寸法
 62
     0
370
    -2
100
AcDbLine
 10
389.8721245115548
 20
144.5573006134969
 30
0.0
 11
376.2146245115548
 21
144.5573006134969
 31
0.0
  0
LINE
  5
53DD
330
53D8
100
AcDbEntity
  8
寸法
 62
     0
370
    -2
100
AcDbLine
 10
426.3721245115549
 20
144.5573006134969
 30
0.0
 11
391.3721245115548
 21
144.5573006134969
 31
0.0
  0
INSERT
  5
53DE
330
53D8
100
AcDbEntity
  8
寸法
 62
     0
370
    -2
100
AcDbBlockReference
  2
_DOT
 10
427.8721245115549
 20
144.5573006134969
 30
0.0
 41
1.5
 42
1.5
 43
1.5
  0
INSERT
  5
53DF
330
53D8
100
AcDbEntity
  8
寸法
 62
     0
370
    -2
100
AcDbBlockReference
  2
_DOT
 10
389.8721245115548
 20
144.5573006134969
 30
0.0
 41
1.5
 42
1.5
 43
1.5
 50
180.0
  0
POINT
  5
53E0
330
53D8
100
AcDbEntity
  8
Defpoints
 62
     0
100
AcDbPoint
 10
427.8721245115549
 20
177.3452081951892
 30
0.0
  0
POINT
  5
53E1
330
53D8
100
AcDbEntity
  8
Defpoints
 62
     0
100
AcDbPoint
 10
389.8721245115548
 20
177.3452081951892
 30
0.0
  0
POINT
  5
53E2
330
53D8
100
AcDbEntity
  8
Defpoints
 62
     0
100
AcDbPoint
 10
389.8721245115548
 20
144.5573006134969
 30
0.0
  0
ENDBLK
  5
53E3
330
53D8
100
AcDbEntity
  8
0
100
AcDbBlockEnd
  0
BLOCK
  5
53E6
330
53E5
100
AcDbEntity
  8
0
100
AcDbBlockBegin
  2
*D19
 70
     1
 10
0.0
 20
0.0
 30
0.0
  3
*D19
  1
*D67
  0
LINE
  5
53E7
330
53E5
100
AcDbEntity
  8
寸法
 62
     0
370
    -2
100
AcDbLine
 10
389.8721245115548
 20
191.0157099566222
 30
0.0
 11
389.8721245115548
 21
213.8023335341041
 31
0.0
  0
LINE
  5
53E8
330
53E5
100
AcDbEntity
  8
寸法
 62
     0
370
    -2
100
AcDbLine
 10
408.8721245115548
 20
205.1912224768318
 30
0.0
 11
408.8721245115548
 21
213.8023335341041
 31
0.0
  0
LINE
  5
53E9
330
53E5
100
AcDbEntity
  8
寸法
 62
     0
370
    -2
100
AcDbLine
 10
391.3721245115548
 20
213.8023335341041
 30
0.0
 11
407.3721245115548
 21
213.8023335341041
 31
0.0
  0
INSERT
  5
53EA
330
53E5
100
AcDbEntity
  8
寸法
 62
     0
370
    -2
100
AcDbBlockReference
  2
_DOT
 10
389.8721245115548
 20
213.8023335341041
 30
0.0
 41
1.5
 42
1.5
 43
1.5
 50
180.0
  0
INSERT
  5
53EB
330
53E5
100
AcDbEntity
  8
寸法
 62
     0
370
    -2
100
AcDbBlockReference
  2
_DOT
 10
408.8721245115548
 20
213.8023335341041
 30
0.0
 41
1.5
 42
1.5
 43
1.5
  0
MTEXT
  5
53EC
330
53E5
100
AcDbEntity
  8
寸法
  6
Continuous
 62
     0
100
AcDbMText
 10
399.3721245115548
 20
218.3023335341041
 30
0.0
 40
5.0
 41
0.0
 46
0.0
 71
     5
 72
     1
  1
\A1;19
  7
ＭＳ ゴシック
 73
     1
 44
1.0
  0
POINT
  5
53ED
330
53E5
100
AcDbEntity
  8
Defpoints
 62
     0
100
AcDbPoint
 10
389.8721245115548
 20
186.0157099566222
 30
0.0
  0
POINT
  5
53EE
330
53E5
100
AcDbEntity
  8
Defpoints
 62
     0
100
AcDbPoint
 10
408.8721245115548
 20
200.1912224768318
 30
0.0
  0
POINT
  5
53EF
330
53E5
100
AcDbEntity
  8
Defpoints
 62
     0
100
AcDbPoint
 10
408.8721245115548
 20
213.8023335341041
 30
0.0
  0
ENDBLK
  5
53F0
330
53E5
100
AcDbEntity
  8
0
100
AcDbBlockEnd
  0
BLOCK
  5
53F3
330
53F2
100
AcDbEntity
  8
0
100
AcDbBlockBegin
  2
*D20
 70
     1
 10
0.0
 20
0.0
 30
0.0
  3
*D20
  1
*D68
  0
LINE
  5
53F4
330
53F2
100
AcDbEntity
  8
寸法
 62
     0
370
    -2
100
AcDbLine
 10
408.8721245115548
 20
205.1912224768318
 30
0.0
 11
408.8721245115548
 21
213.8023335341041
 31
0.0
  0
LINE
  5
53F5
330
53F2
100
AcDbEntity
  8
寸法
 62
     0
370
    -2
100
AcDbLine
 10
427.8721245115549
 20
191.0157099566222
 30
0.0
 11
427.8721245115549
 21
213.8023335341041
 31
0.0
  0
LINE
  5
53F6
330
53F2
100
AcDbEntity
  8
寸法
 62
     0
370
    -2
100
AcDbLine
 10
410.3721245115548
 20
213.8023335341041
 30
0.0
 11
426.3721245115549
 21
213.8023335341041
 31
0.0
  0
INSERT
  5
53F7
330
53F2
100
AcDbEntity
  8
寸法
 62
     0
370
    -2
100
AcDbBlockReference
  2
_DOT
 10
408.8721245115548
 20
213.8023335341041
 30
0.0
 41
1.5
 42
1.5
 43
1.5
 50
180.0
  0
INSERT
  5
53F8
330
53F2
100
AcDbEntity
  8
寸法
 62
     0
370
    -2
100
AcDbBlockReference
  2
_DOT
 10
427.8721245115549
 20
213.8023335341041
 30
0.0
 41
1.5
 42
1.5
 43
1.5
  0
MTEXT
  5
53F9
330
53F2
100
AcDbEntity
  8
寸法
  6
Continuous
 62
     0
100
AcDbMText
 10
418.3721245115548
 20
218.3023335341041
 30
0.0
 40
5.0
 41
0.0
 46
0.0
 71
     5
 72
     1
  1
\A1;19
  7
ＭＳ ゴシック
 73
     1
 44
1.0
  0
POINT
  5
53FA
330
53F2
100
AcDbEntity
  8
Defpoints
 62
     0
100
AcDbPoint
 10
408.8721245115548
 20
200.1912224768318
 30
0.0
  0
POINT
  5
53FB
330
53F2
100
AcDbEntity
  8
Defpoints
 62
     0
100
AcDbPoint
 10
427.8721245115549
 20
186.0157099566222
 30
0.0
  0
POINT
  5
53FC
330
53F2
100
AcDbEntity
  8
Defpoints
 62
     0
100
AcDbPoint
 10
427.8721245115549
 20
213.8023335341041
 30
0.0
  0
ENDBLK
  5
53FD
330
53F2
100
AcDbEntity
  8
0
100
AcDbBlockEnd
  0
BLOCK
  5
547E
330
547D
100
AcDbEntity
  8
0
100
AcDbBlockBegin
  2
*D21
 70
     1
 10
0.0
 20
0.0
 30
0.0
  3
*D21
  1
*D69
  0
LINE
  5
547F
330
547D
100
AcDbEntity
  8
寸法
 62
     0
370
    -2
100
AcDbLine
 10
108.1825120145531
 20
356.4345575436565
 30
0.0
 11
108.1825120145531
 21
365.9906564456901
 31
0.0
  0
LINE
  5
5480
330
547D
100
AcDbEntity
  8
寸法
 62
     0
370
    -2
100
AcDbLine
 10
146.1825120145531
 20
356.4345575436565
 30
0.0
 11
146.1825120145531
 21
365.9906564456901
 31
0.0
  0
LINE
  5
5481
330
547D
100
AcDbEntity
  8
寸法
 62
     0
370
    -2
100
AcDbLine
 10
109.6825120145531
 20
365.9906564456901
 30
0.0
 11
144.6825120145531
 21
365.9906564456901
 31
0.0
  0
INSERT
  5
5482
330
547D
100
AcDbEntity
  8
寸法
 62
     0
370
    -2
100
AcDbBlockReference
  2
_DOT
 10
108.1825120145531
 20
365.9906564456901
 30
0.0
 41
1.5
 42
1.5
 43
1.5
 50
180.0
  0
INSERT
  5
5483
330
547D
100
AcDbEntity
  8
寸法
 62
     0
370
    -2
100
AcDbBlockReference
  2
_DOT
 10
146.1825120145531
 20
365.9906564456901
 30
0.0
 41
1.5
 42
1.5
 43
1.5
  0
MTEXT
  5
5484
330
547D
100
AcDbEntity
  8
寸法
  6
Continuous
 62
     0
100
AcDbMText
 10
127.1825120145531
 20
370.4906564456901
 30
0.0
 40
5.0
 41
0.0
 46
0.0
 71
     5
 72
     1
  1
\A1;38
  7
ＭＳ ゴシック
 73
     1
 44
1.0
  0
POINT
  5
5485
330
547D
100
AcDbEntity
  8
Defpoints
 62
     0
100
AcDbPoint
 10
108.1825120145531
 20
351.4345575436565
 30
0.0
  0
POINT
  5
5486
330
547D
100
AcDbEntity
  8
Defpoints
 62
     0
100
AcDbPoint
 10
146.1825120145531
 20
351.4345575436565
 30
0.0
  0
POINT
  5
5487
330
547D
100
AcDbEntity
  8
Defpoints
 62
     0
100
AcDbPoint
 10
146.1825120145531
 20
365.9906564456901
 30
0.0
  0
ENDBLK
  5
5488
330
547D
100
AcDbEntity
  8
0
100
AcDbBlockEnd
  0
BLOCK
  5
56C3
330
56C2
100
AcDbEntity
  8
0
100
AcDbBlockBegin
  2
*D22
 70
     1
 10
0.0
 20
0.0
 30
0.0
  3
*D22
  1
*D201
  0
LINE
  5
56C4
330
56C2
100
AcDbEntity
  8
寸法
  6
Continuous
 62
     0
370
    -2
100
AcDbLine
 10
28.02960661531085
 20
77.97169245409674
 30
0.0
 11
22.94973743043306
 21
77.97169245409674
 31
0.0
  0
LINE
  5
56C5
330
56C2
100
AcDbEntity
  8
寸法
  6
Continuous
 62
     0
370
    -2
100
AcDbLine
 10
28.02960661531085
 20
59.97169245409674
 30
0.0
 11
22.94973743043306
 21
59.97169245409674
 31
0.0
  0
LINE
  5
56C6
330
56C2
100
AcDbEntity
  8
寸法
  6
Continuous
 62
     0
370
    -2
100
AcDbLine
 10
22.94973743043306
 20
76.47169245409674
 30
0.0
 11
22.94973743043306
 21
61.47169245409674
 31
0.0
  0
INSERT
  5
56C7
330
56C2
100
AcDbEntity
  8
寸法
 62
     0
370
    -2
100
AcDbBlockReference
  2
_DOT
 10
22.94973743043306
 20
77.97169245409674
 30
0.0
 41
1.5
 42
1.5
 43
1.5
 50
90.0
  0
INSERT
  5
56C8
330
56C2
100
AcDbEntity
  8
寸法
 62
     0
370
    -2
100
AcDbBlockReference
  2
_DOT
 10
22.94973743043306
 20
59.97169245409674
 30
0.0
 41
1.5
 42
1.5
 43
1.5
 50
270.0
  0
MTEXT
  5
56C9
330
56C2
100
AcDbEntity
  8
寸法
  6
Continuous
 62
     0
100
AcDbMText
 10
18.44973743043306
 20
68.97169245409674
 30
0.0
 40
5.0
 41
0.0
 46
0.0
 71
     5
 72
     1
  1
\A1;18
  7
ＭＳ ゴシック
 11
0.0
 21
1.0
 31
0.0
 73
     1
 44
1.0
  0
POINT
  5
56CA
330
56C2
100
AcDbEntity
  8
Defpoints
 62
     0
100
AcDbPoint
 10
33.02960661531085
 20
77.97169245409674
 30
0.0
  0
POINT
  5
56CB
330
56C2
100
AcDbEntity
  8
Defpoints
 62
     0
100
AcDbPoint
 10
33.02960661531085
 20
59.97169245409674
 30
0.0
  0
POINT
  5
56CC
330
56C2
100
AcDbEntity
  8
Defpoints
 62
     0
100
AcDbPoint
 10
22.94973743043306
 20
59.97169245409674
 30
0.0
  0
ENDBLK
  5
56CD
330
56C2
100
AcDbEntity
  8
0
100
AcDbBlockEnd
  0
BLOCK
  5
56D0
330
56CF
100
AcDbEntity
  8
0
100
AcDbBlockBegin
  2
*D23
 70
     1
 10
0.0
 20
0.0
 30
0.0
  3
*D23
  1
*D202
  0
LINE
  5
56D1
330
56CF
100
AcDbEntity
  8
寸法
  6
Continuous
 62
     0
370
    -2
100
AcDbLine
 10
39.08746693884768
 20
88.97169245409684
 30
0.0
 11
10.00000000000012
 21
88.97169245409684
 31
0.0
  0
LINE
  5
56D2
330
56CF
100
AcDbEntity
  8
寸法
  6
Continuous
 62
     0
370
    -2
100
AcDbLine
 10
39.08746693884768
 20
48.97169245409678
 30
0.0
 11
10.00000000000011
 21
48.97169245409678
 31
0.0
  0
LINE
  5
56D3
330
56CF
100
AcDbEntity
  8
寸法
  6
Continuous
 62
     0
370
    -2
100
AcDbLine
 10
10.00000000000012
 20
87.47169245409684
 30
0.0
 11
10.00000000000011
 21
50.47169245409678
 31
0.0
  0
INSERT
  5
56D4
330
56CF
100
AcDbEntity
  8
寸法
 62
     0
370
    -2
100
AcDbBlockReference
  2
_DOT
 10
10.00000000000012
 20
88.97169245409684
 30
0.0
 41
1.5
 42
1.5
 43
1.5
 50
90.0
  0
INSERT
  5
56D5
330
56CF
100
AcDbEntity
  8
寸法
 62
     0
370
    -2
100
AcDbBlockReference
  2
_DOT
 10
10.00000000000011
 20
48.97169245409678
 30
0.0
 41
1.5
 42
1.5
 43
1.5
 50
270.0
  0
MTEXT
  5
56D6
330
56CF
100
AcDbEntity
  8
寸法
  6
Continuous
 62
     0
100
AcDbMText
 10
5.500000000000114
 20
68.97169245409674
 30
0.0
 40
5.0
 41
0.0
 46
0.0
 71
     5
 72
     1
  1
\A1;40
  7
ＭＳ ゴシック
 11
4.440892098500620E-17
 21
1.0
 31
0.0
 73
     1
 44
1.0
  0
POINT
  5
56D7
330
56CF
100
AcDbEntity
  8
Defpoints
 62
     0
100
AcDbPoint
 10
44.08746693884768
 20
88.97169245409684
 30
0.0
  0
POINT
  5
56D8
330
56CF
100
AcDbEntity
  8
Defpoints
 62
     0
100
AcDbPoint
 10
44.08746693884768
 20
48.97169245409678
 30
0.0
  0
POINT
  5
56D9
330
56CF
100
AcDbEntity
  8
Defpoints
 62
     0
100
AcDbPoint
 10
10.00000000000011
 20
48.97169245409678
 30
0.0
  0
ENDBLK
  5
56DA
330
56CF
100
AcDbEntity
  8
0
100
AcDbBlockEnd
  0
BLOCK
  5
56DE
330
56DD
100
AcDbEntity
  8
0
100
AcDbBlockBegin
  2
*D24
 70
     1
 10
0.0
 20
0.0
 30
0.0
  3
*D24
  1
*D204
  0
LINE
  5
56DF
330
56DD
100
AcDbEntity
  8
寸法
 62
     0
370
    -2
100
AcDbLine
 10
63.06625105837611
 20
149.0322461508724
 30
0.0
 11
90.85415864006916
 21
149.0322461508724
 31
0.0
  0
LINE
  5
56E0
330
56DD
100
AcDbEntity
  8
寸法
 62
     0
370
    -2
100
AcDbLine
 10
55.08746693884768
 20
127.4716924540967
 30
0.0
 11
90.85415864006916
 21
127.4716924540967
 31
0.0
  0
LINE
  5
56E1
330
56DD
100
AcDbEntity
  8
寸法
 62
     0
370
    -2
100
AcDbLine
 10
90.85415864006916
 20
127.4716924540967
 30
0.0
 11
90.85415864006916
 21
109.3682414943981
 31
0.0
  0
LINE
  5
56E2
330
56DD
100
AcDbEntity
  8
寸法
 62
     0
370
    -2
100
AcDbLine
 10
90.85415864006916
 20
147.5322461508724
 30
0.0
 11
90.85415864006916
 21
128.9716924540967
 31
0.0
  0
INSERT
  5
56E3
330
56DD
100
AcDbEntity
  8
寸法
 62
     0
370
    -2
100
AcDbBlockReference
  2
_DOT
 10
90.85415864006916
 20
149.0322461508724
 30
0.0
 41
1.5
 42
1.5
 43
1.5
 50
90.0
  0
INSERT
  5
56E4
330
56DD
100
AcDbEntity
  8
寸法
 62
     0
370
    -2
100
AcDbBlockReference
  2
_DOT
 10
90.85415864006916
 20
127.4716924540967
 30
0.0
 41
1.5
 42
1.5
 43
1.5
 50
270.0
  0
POINT
  5
56E5
330
56DD
100
AcDbEntity
  8
Defpoints
 62
     0
100
AcDbPoint
 10
58.06625105837611
 20
149.0322461508724
 30
0.0
  0
POINT
  5
56E6
330
56DD
100
AcDbEntity
  8
Defpoints
 62
     0
100
AcDbPoint
 10
50.08746693884768
 20
127.4716924540967
 30
0.0
  0
POINT
  5
56E7
330
56DD
100
AcDbEntity
  8
Defpoints
 62
     0
100
AcDbPoint
 10
90.85415864006916
 20
127.4716924540967
 30
0.0
  0
ENDBLK
  5
56E8
330
56DD
100
AcDbEntity
  8
0
100
AcDbBlockEnd
  0
BLOCK
  5
5707
330
5706
100
AcDbEntity
  8
0
100
AcDbBlockBegin
  2
*D25
 70
     1
 10
0.0
 20
0.0
 30
0.0
  3
*D25
  1
*D207
  0
LINE
  5
5708
330
5706
100
AcDbEntity
  8
寸法
 62
     0
370
    -2
100
AcDbLine
 10
44.08746693884768
 20
43.97169245409678
 30
0.0
 11
44.08746693884768
 21
15.47280621445514
 31
0.0
  0
LINE
  5
5709
330
5706
100
AcDbEntity
  8
寸法
 62
     0
370
    -2
100
AcDbLine
 10
62.00823705837604
 20
26.53224615087224
 30
0.0
 11
62.00823705837604
 21
15.47280621445514
 31
0.0
  0
LINE
  5
570A
330
5706
100
AcDbEntity
  8
寸法
 62
     0
370
    -2
100
AcDbLine
 10
45.58746693884768
 20
15.47280621445514
 30
0.0
 11
60.50823705837604
 21
15.47280621445514
 31
0.0
  0
INSERT
  5
570B
330
5706
100
AcDbEntity
  8
寸法
 62
     0
370
    -2
100
AcDbBlockReference
  2
_DOT
 10
44.08746693884768
 20
15.47280621445514
 30
0.0
 41
1.5
 42
1.5
 43
1.5
 50
180.0
  0
INSERT
  5
570C
330
5706
100
AcDbEntity
  8
寸法
 62
     0
370
    -2
100
AcDbBlockReference
  2
_DOT
 10
62.00823705837604
 20
15.47280621445514
 30
0.0
 41
1.5
 42
1.5
 43
1.5
  0
MTEXT
  5
570D
330
5706
100
AcDbEntity
  8
寸法
  6
Continuous
 62
     0
100
AcDbMText
 10
53.04785199861186
 20
19.97280621445514
 30
0.0
 40
5.0
 41
0.0
 46
0.0
 71
     5
 72
     1
  1
\A1;18
  7
ＭＳ ゴシック
 73
     1
 44
1.0
  0
POINT
  5
570E
330
5706
100
AcDbEntity
  8
Defpoints
 62
     0
100
AcDbPoint
 10
44.08746693884768
 20
48.97169245409678
 30
0.0
  0
POINT
  5
570F
330
5706
100
AcDbEntity
  8
Defpoints
 62
     0
100
AcDbPoint
 10
62.00823705837604
 20
31.53224615087224
 30
0.0
  0
POINT
  5
5710
330
5706
100
AcDbEntity
  8
Defpoints
 62
     0
100
AcDbPoint
 10
62.00823705837604
 20
15.47280621445514
 30
0.0
  0
ENDBLK
  5
5711
330
5706
100
AcDbEntity
  8
0
100
AcDbBlockEnd
  0
BLOCK
  5
5716
330
5715
100
AcDbEntity
  8
0
100
AcDbBlockBegin
  2
*D26
 70
     1
 10
0.0
 20
0.0
 30
0.0
  3
*D26
  1
*D208
  0
LINE
  5
5717
330
5715
100
AcDbEntity
  8
寸法
 62
     0
370
    -2
100
AcDbLine
 10
62.00823705837604
 20
26.53224615087224
 30
0.0
 11
62.00823705837604
 21
15.47280621445514
 31
0.0
  0
LINE
  5
5718
330
5715
100
AcDbEntity
  8
寸法
 62
     0
370
    -2
100
AcDbLine
 10
132.008237058376
 20
26.53224615087224
 30
0.0
 11
132.008237058376
 21
15.47280621445514
 31
0.0
  0
LINE
  5
5719
330
5715
100
AcDbEntity
  8
寸法
 62
     0
370
    -2
100
AcDbLine
 10
63.50823705837604
 20
15.47280621445514
 30
0.0
 11
130.508237058376
 21
15.47280621445514
 31
0.0
  0
INSERT
  5
571A
330
5715
100
AcDbEntity
  8
寸法
 62
     0
370
    -2
100
AcDbBlockReference
  2
_DOT
 10
62.00823705837604
 20
15.47280621445514
 30
0.0
 41
1.5
 42
1.5
 43
1.5
 50
180.0
  0
INSERT
  5
571B
330
5715
100
AcDbEntity
  8
寸法
 62
     0
370
    -2
100
AcDbBlockReference
  2
_DOT
 10
132.008237058376
 20
15.47280621445514
 30
0.0
 41
1.5
 42
1.5
 43
1.5
  0
MTEXT
  5
571C
330
5715
100
AcDbEntity
  8
寸法
  6
Continuous
 62
     0
100
AcDbMText
 10
97.00823705837604
 20
19.97280621445514
 30
0.0
 40
5.0
 41
0.0
 46
0.0
 71
     5
 72
     1
  1
\A1;70
  7
ＭＳ ゴシック
 73
     1
 44
1.0
  0
POINT
  5
571D
330
5715
100
AcDbEntity
  8
Defpoints
 62
     0
100
AcDbPoint
 10
62.00823705837604
 20
31.53224615087224
 30
0.0
  0
POINT
  5
571E
330
5715
100
AcDbEntity
  8
Defpoints
 62
     0
100
AcDbPoint
 10
132.008237058376
 20
31.53224615087224
 30
0.0
  0
POINT
  5
571F
330
5715
100
AcDbEntity
  8
Defpoints
 62
     0
100
AcDbPoint
 10
132.008237058376
 20
15.47280621445514
 30
0.0
  0
ENDBLK
  5
5720
330
5715
100
AcDbEntity
  8
0
100
AcDbBlockEnd
  0
BLOCK
  5
5725
330
5724
100
AcDbEntity
  8
0
100
AcDbBlockBegin
  2
*D27
 70
     1
 10
0.0
 20
0.0
 30
0.0
  3
*D27
  1
*D209
  0
LINE
  5
5726
330
5724
100
AcDbEntity
  8
寸法
 62
     0
370
    -2
100
AcDbLine
 10
44.06625105837634
 20
168.5622502441901
 30
0.0
 11
44.06625105837634
 21
187.664096364889
 31
0.0
  0
LINE
  5
5727
330
5724
100
AcDbEntity
  8
寸法
 62
     0
370
    -2
100
AcDbLine
 10
150.0715639880572
 20
138.0375590805537
 30
0.0
 11
150.0715639880572
 21
187.664096364889
 31
0.0
  0
LINE
  5
5728
330
5724
100
AcDbEntity
  8
寸法
 62
     0
370
    -2
100
AcDbLine
 10
45.56625105837634
 20
187.664096364889
 30
0.0
 11
148.5715639880572
 21
187.664096364889
 31
0.0
  0
INSERT
  5
5729
330
5724
100
AcDbEntity
  8
寸法
 62
     0
370
    -2
100
AcDbBlockReference
  2
_DOT
 10
44.06625105837634
 20
187.664096364889
 30
0.0
 41
1.5
 42
1.5
 43
1.5
 50
180.0
  0
INSERT
  5
572A
330
5724
100
AcDbEntity
  8
寸法
 62
     0
370
    -2
100
AcDbBlockReference
  2
_DOT
 10
150.0715639880572
 20
187.664096364889
 30
0.0
 41
1.5
 42
1.5
 43
1.5
  0
MTEXT
  5
572B
330
5724
100
AcDbEntity
  8
寸法
  6
Continuous
 62
     0
100
AcDbMText
 10
97.06890752321675
 20
192.164096364889
 30
0.0
 40
5.0
 41
0.0
 46
0.0
 71
     5
 72
     1
  1
\A1;106
  7
ＭＳ ゴシック
 73
     1
 44
1.0
  0
POINT
  5
572C
330
5724
100
AcDbEntity
  8
Defpoints
 62
     0
100
AcDbPoint
 10
44.06625105837634
 20
163.5622502441901
 30
0.0
  0
POINT
  5
572D
330
5724
100
AcDbEntity
  8
Defpoints
 62
     0
100
AcDbPoint
 10
150.0715639880572
 20
133.0375590805537
 30
0.0
  0
POINT
  5
572E
330
5724
100
AcDbEntity
  8
Defpoints
 62
     0
100
AcDbPoint
 10
150.0715639880572
 20
187.664096364889
 30
0.0
  0
ENDBLK
  5
572F
330
5724
100
AcDbEntity
  8
0
100
AcDbBlockEnd
  0
BLOCK
  5
5734
330
5733
100
AcDbEntity
  8
0
100
AcDbBlockBegin
  2
*D28
 70
     1
 10
0.0
 20
0.0
 30
0.0
  3
*D28
  1
*D210
  0
LINE
  5
5735
330
5733
100
AcDbEntity
  8
寸法
 62
     0
370
    -2
100
AcDbLine
 10
95.85415864006916
 20
149.0322461508724
 30
0.0
 11
193.2041932421681
 21
149.0322461508724
 31
0.0
  0
LINE
  5
5736
330
5733
100
AcDbEntity
  8
寸法
 62
     0
370
    -2
100
AcDbLine
 10
142.508237058376
 20
37.03224615087224
 30
0.0
 11
193.2041932421681
 21
37.03224615087224
 31
0.0
  0
LINE
  5
5737
330
5733
100
AcDbEntity
  8
寸法
 62
     0
370
    -2
100
AcDbLine
 10
193.2041932421681
 20
147.5322461508724
 30
0.0
 11
193.2041932421681
 21
38.53224615087224
 31
0.0
  0
INSERT
  5
5738
330
5733
100
AcDbEntity
  8
寸法
 62
     0
370
    -2
100
AcDbBlockReference
  2
_DOT
 10
193.2041932421681
 20
149.0322461508724
 30
0.0
 41
1.5
 42
1.5
 43
1.5
 50
90.0
  0
INSERT
  5
5739
330
5733
100
AcDbEntity
  8
寸法
 62
     0
370
    -2
100
AcDbBlockReference
  2
_DOT
 10
193.2041932421681
 20
37.03224615087224
 30
0.0
 41
1.5
 42
1.5
 43
1.5
 50
270.0
  0
MTEXT
  5
573A
330
5733
100
AcDbEntity
  8
寸法
  6
Continuous
 62
     0
100
AcDbMText
 10
188.7041932421681
 20
93.03224615087234
 30
0.0
 40
5.0
 41
0.0
 46
0.0
 71
     5
 72
     1
  1
\A1;112
  7
ＭＳ ゴシック
 11
0.0
 21
1.0
 31
0.0
 73
     1
 44
1.0
  0
POINT
  5
573B
330
5733
100
AcDbEntity
  8
Defpoints
 62
     0
100
AcDbPoint
 10
90.85415864006916
 20
149.0322461508724
 30
0.0
  0
POINT
  5
573C
330
5733
100
AcDbEntity
  8
Defpoints
 62
     0
100
AcDbPoint
 10
137.508237058376
 20
37.03224615087224
 30
0.0
  0
POINT
  5
573D
330
5733
100
AcDbEntity
  8
Defpoints
 62
     0
100
AcDbPoint
 10
193.2041932421681
 20
37.03224615087224
 30
0.0
  0
ENDBLK
  5
573E
330
5733
100
AcDbEntity
  8
0
100
AcDbBlockEnd
  0
BLOCK
  5
5741
330
5740
100
AcDbEntity
  8
0
100
AcDbBlockBegin
  2
*D29
 70
     1
 10
0.0
 20
0.0
 30
0.0
  3
*D29
  1
*D211
  0
LINE
  5
5742
330
5740
100
AcDbEntity
  8
寸法
 62
     0
370
    -2
100
AcDbLine
 10
92.91440015132105
 20
68.97169245409684
 30
0.0
 11
171.0336444235642
 21
68.97169245409684
 31
0.0
  0
LINE
  5
5743
330
5740
100
AcDbEntity
  8
寸法
 62
     0
370
    -2
100
AcDbLine
 10
155.0715639880572
 20
149.0322461508724
 30
0.0
 11
171.0336444235642
 21
149.0322461508724
 31
0.0
  0
LINE
  5
5744
330
5740
100
AcDbEntity
  8
寸法
 62
     0
370
    -2
100
AcDbLine
 10
171.0336444235642
 20
70.47169245409684
 30
0.0
 11
171.0336444235642
 21
147.5322461508724
 31
0.0
  0
INSERT
  5
5745
330
5740
100
AcDbEntity
  8
寸法
 62
     0
370
    -2
100
AcDbBlockReference
  2
_DOT
 10
171.0336444235642
 20
68.97169245409684
 30
0.0
 41
1.5
 42
1.5
 43
1.5
 50
270.0
  0
INSERT
  5
5746
330
5740
100
AcDbEntity
  8
寸法
 62
     0
370
    -2
100
AcDbBlockReference
  2
_DOT
 10
171.0336444235642
 20
149.0322461508724
 30
0.0
 41
1.5
 42
1.5
 43
1.5
 50
90.0
  0
MTEXT
  5
5747
330
5740
100
AcDbEntity
  8
寸法
  6
Continuous
 62
     0
100
AcDbMText
 10
166.5336444235642
 20
109.0019693024846
 30
0.0
 40
5.0
 41
0.0
 46
0.0
 71
     5
 72
     1
  1
\A1;80
  7
ＭＳ ゴシック
 11
0.0
 21
1.0
 31
0.0
 73
     1
 44
1.0
  0
POINT
  5
5748
330
5740
100
AcDbEntity
  8
Defpoints
 62
     0
100
AcDbPoint
 10
87.91440015132105
 20
68.97169245409684
 30
0.0
  0
POINT
  5
5749
330
5740
100
AcDbEntity
  8
Defpoints
 62
     0
100
AcDbPoint
 10
150.0715639880572
 20
149.0322461508724
 30
0.0
  0
POINT
  5
574A
330
5740
100
AcDbEntity
  8
Defpoints
 62
     0
100
AcDbPoint
 10
171.0336444235642
 20
149.0322461508724
 30
0.0
  0
ENDBLK
  5
574B
330
5740
100
AcDbEntity
  8
0
100
AcDbBlockEnd
  0
BLOCK
  5
57BA
330
57B9
100
AcDbEntity
  8
0
100
AcDbBlockBegin
  2
*D30
 70
     1
 10
0.0
 20
0.0
 30
0.0
  3
*D30
  1
*D32
  0
LINE
  5
57BC
330
57B9
100
AcDbEntity
  8
寸法
  6
Continuous
 62
     0
370
    -2
100
AcDbLine
 10
655.0662775538666
 20
188.7368113104869
 30
0.0
 11
649.9864083689888
 21
188.7368113104869
 31
0.0
  0
LINE
  5
57BD
330
57B9
100
AcDbEntity
  8
寸法
  6
Continuous
 62
     0
370
    -2
100
AcDbLine
 10
655.0662775538666
 20
170.7368113104869
 30
0.0
 11
649.9864083689888
 21
170.7368113104869
 31
0.0
  0
LINE
  5
57BE
330
57B9
100
AcDbEntity
  8
寸法
  6
Continuous
 62
     0
370
    -2
100
AcDbLine
 10
649.9864083689888
 20
187.2368113104869
 30
0.0
 11
649.9864083689888
 21
172.2368113104869
 31
0.0
  0
INSERT
  5
57BF
330
57B9
100
AcDbEntity
  8
寸法
 62
     0
370
    -2
100
AcDbBlockReference
  2
_DOT
 10
649.9864083689888
 20
188.7368113104869
 30
0.0
 41
1.5
 42
1.5
 43
1.5
 50
90.0
  0
INSERT
  5
57C0
330
57B9
100
AcDbEntity
  8
寸法
 62
     0
370
    -2
100
AcDbBlockReference
  2
_DOT
 10
649.9864083689888
 20
170.7368113104869
 30
0.0
 41
1.5
 42
1.5
 43
1.5
 50
270.0
  0
MTEXT
  5
57C1
330
57B9
100
AcDbEntity
  8
寸法
  6
Continuous
 62
     0
100
AcDbMText
 10
645.4864083689888
 20
179.7368113104869
 30
0.0
 40
5.0
 41
0.0
 46
0.0
 71
     5
 72
     1
  1
\A1;18
  7
ＭＳ ゴシック
 11
0.0
 21
1.0
 31
0.0
 73
     1
 44
1.0
  0
POINT
  5
57C2
330
57B9
100
AcDbEntity
  8
Defpoints
 62
     0
100
AcDbPoint
 10
660.0662775538666
 20
188.7368113104869
 30
0.0
  0
POINT
  5
57C3
330
57B9
100
AcDbEntity
  8
Defpoints
 62
     0
100
AcDbPoint
 10
660.0662775538666
 20
170.7368113104869
 30
0.0
  0
POINT
  5
57C4
330
57B9
100
AcDbEntity
  8
Defpoints
 62
     0
100
AcDbPoint
 10
649.9864083689888
 20
170.7368113104869
 30
0.0
  0
ENDBLK
  5
57BB
330
57B9
100
AcDbEntity
  8
0
100
AcDbBlockEnd
  0
BLOCK
  5
57C6
330
57C5
100
AcDbEntity
  8
0
100
AcDbBlockBegin
  2
*D31
 70
     1
 10
0.0
 20
0.0
 30
0.0
  3
*D31
  1
*D33
  0
LINE
  5
57C8
330
57C5
100
AcDbEntity
  8
寸法
  6
Continuous
 62
     0
370
    -2
100
AcDbLine
 10
666.1241378774034
 20
199.736811310487
 30
0.0
 11
637.0366709385559
 21
199.736811310487
 31
0.0
  0
LINE
  5
57C9
330
57C5
100
AcDbEntity
  8
寸法
  6
Continuous
 62
     0
370
    -2
100
AcDbLine
 10
666.1241378774034
 20
159.7368113104869
 30
0.0
 11
637.0366709385559
 21
159.7368113104869
 31
0.0
  0
LINE
  5
57CA
330
57C5
100
AcDbEntity
  8
寸法
  6
Continuous
 62
     0
370
    -2
100
AcDbLine
 10
637.0366709385559
 20
198.236811310487
 30
0.0
 11
637.0366709385559
 21
161.2368113104869
 31
0.0
  0
INSERT
  5
57CB
330
57C5
100
AcDbEntity
  8
寸法
 62
     0
370
    -2
100
AcDbBlockReference
  2
_DOT
 10
637.0366709385559
 20
199.736811310487
 30
0.0
 41
1.5
 42
1.5
 43
1.5
 50
90.0
  0
INSERT
  5
57CC
330
57C5
100
AcDbEntity
  8
寸法
 62
     0
370
    -2
100
AcDbBlockReference
  2
_DOT
 10
637.0366709385559
 20
159.7368113104869
 30
0.0
 41
1.5
 42
1.5
 43
1.5
 50
270.0
  0
MTEXT
  5
57CD
330
57C5
100
AcDbEntity
  8
寸法
  6
Continuous
 62
     0
100
AcDbMText
 10
632.5366709385559
 20
179.7368113104869
 30
0.0
 40
5.0
 41
0.0
 46
0.0
 71
     5
 72
     1
  1
\A1;40
  7
ＭＳ ゴシック
 11
0.0
 21
1.0
 31
0.0
 73
     1
 44
1.0
  0
POINT
  5
57CE
330
57C5
100
AcDbEntity
  8
Defpoints
 62
     0
100
AcDbPoint
 10
671.1241378774034
 20
199.736811310487
 30
0.0
  0
POINT
  5
57CF
330
57C5
100
AcDbEntity
  8
Defpoints
 62
     0
100
AcDbPoint
 10
671.1241378774034
 20
159.7368113104869
 30
0.0
  0
POINT
  5
57D0
330
57C5
100
AcDbEntity
  8
Defpoints
 62
     0
100
AcDbPoint
 10
637.0366709385559
 20
159.7368113104869
 30
0.0
  0
ENDBLK
  5
57C7
330
57C5
100
AcDbEntity
  8
0
100
AcDbBlockEnd
  0
BLOCK
  5
57D2
330
57D1
100
AcDbEntity
  8
0
100
AcDbBlockBegin
  2
*D32
 70
     1
 10
0.0
 20
0.0
 30
0.0
  3
*D32
  1
*D34
  0
LINE
  5
57D4
330
57D1
100
AcDbEntity
  8
寸法
 62
     0
370
    -2
100
AcDbLine
 10
690.1029219969319
 20
259.7973650072626
 30
0.0
 11
717.8908295786249
 21
259.7973650072626
 31
0.0
  0
LINE
  5
57D5
330
57D1
100
AcDbEntity
  8
寸法
 62
     0
370
    -2
100
AcDbLine
 10
682.1241378774034
 20
238.2368113104869
 30
0.0
 11
717.8908295786249
 21
238.2368113104869
 31
0.0
  0
LINE
  5
57D6
330
57D1
100
AcDbEntity
  8
寸法
 62
     0
370
    -2
100
AcDbLine
 10
717.8908295786249
 20
238.2368113104869
 30
0.0
 11
717.8908295786249
 21
220.1333603507883
 31
0.0
  0
LINE
  5
57D7
330
57D1
100
AcDbEntity
  8
寸法
 62
     0
370
    -2
100
AcDbLine
 10
717.8908295786249
 20
258.2973650072626
 30
0.0
 11
717.8908295786249
 21
239.7368113104869
 31
0.0
  0
INSERT
  5
57D8
330
57D1
100
AcDbEntity
  8
寸法
 62
     0
370
    -2
100
AcDbBlockReference
  2
_DOT
 10
717.8908295786249
 20
259.7973650072626
 30
0.0
 41
1.5
 42
1.5
 43
1.5
 50
90.0
  0
INSERT
  5
57D9
330
57D1
100
AcDbEntity
  8
寸法
 62
     0
370
    -2
100
AcDbBlockReference
  2
_DOT
 10
717.8908295786249
 20
238.2368113104869
 30
0.0
 41
1.5
 42
1.5
 43
1.5
 50
270.0
  0
POINT
  5
57DA
330
57D1
100
AcDbEntity
  8
Defpoints
 62
     0
100
AcDbPoint
 10
685.1029219969319
 20
259.7973650072626
 30
0.0
  0
POINT
  5
57DB
330
57D1
100
AcDbEntity
  8
Defpoints
 62
     0
100
AcDbPoint
 10
677.1241378774034
 20
238.2368113104869
 30
0.0
  0
POINT
  5
57DC
330
57D1
100
AcDbEntity
  8
Defpoints
 62
     0
100
AcDbPoint
 10
717.8908295786249
 20
238.2368113104869
 30
0.0
  0
ENDBLK
  5
57D3
330
57D1
100
AcDbEntity
  8
0
100
AcDbBlockEnd
  0
BLOCK
  5
57DE
330
57DD
100
AcDbEntity
  8
0
100
AcDbBlockBegin
  2
*D33
 70
     1
 10
0.0
 20
0.0
 30
0.0
  3
*D33
  1
*D35
  0
LINE
  5
57E0
330
57DD
100
AcDbEntity
  8
寸法
 62
     0
370
    -2
100
AcDbLine
 10
671.1241378774034
 20
154.7368113104869
 30
0.0
 11
671.1241378774034
 21
126.2379250708453
 31
0.0
  0
LINE
  5
57E1
330
57DD
100
AcDbEntity
  8
寸法
 62
     0
370
    -2
100
AcDbLine
 10
689.0449079969318
 20
137.2973650072624
 30
0.0
 11
689.0449079969318
 21
126.2379250708453
 31
0.0
  0
LINE
  5
57E2
330
57DD
100
AcDbEntity
  8
寸法
 62
     0
370
    -2
100
AcDbLine
 10
672.6241378774034
 20
126.2379250708453
 30
0.0
 11
687.5449079969318
 21
126.2379250708453
 31
0.0
  0
INSERT
  5
57E3
330
57DD
100
AcDbEntity
  8
寸法
 62
     0
370
    -2
100
AcDbBlockReference
  2
_DOT
 10
671.1241378774034
 20
126.2379250708453
 30
0.0
 41
1.5
 42
1.5
 43
1.5
 50
180.0
  0
INSERT
  5
57E4
330
57DD
100
AcDbEntity
  8
寸法
 62
     0
370
    -2
100
AcDbBlockReference
  2
_DOT
 10
689.0449079969318
 20
126.2379250708453
 30
0.0
 41
1.5
 42
1.5
 43
1.5
  0
MTEXT
  5
57E5
330
57DD
100
AcDbEntity
  8
寸法
  6
Continuous
 62
     0
100
AcDbMText
 10
680.0845229371675
 20
130.7379250708453
 30
0.0
 40
5.0
 41
0.0
 46
0.0
 71
     5
 72
     1
  1
\A1;18
  7
ＭＳ ゴシック
 73
     1
 44
1.0
  0
POINT
  5
57E6
330
57DD
100
AcDbEntity
  8
Defpoints
 62
     0
100
AcDbPoint
 10
671.1241378774034
 20
159.7368113104869
 30
0.0
  0
POINT
  5
57E7
330
57DD
100
AcDbEntity
  8
Defpoints
 62
     0
100
AcDbPoint
 10
689.0449079969318
 20
142.2973650072624
 30
0.0
  0
POINT
  5
57E8
330
57DD
100
AcDbEntity
  8
Defpoints
 62
     0
100
AcDbPoint
 10
689.0449079969318
 20
126.2379250708453
 30
0.0
  0
ENDBLK
  5
57DF
330
57DD
100
AcDbEntity
  8
0
100
AcDbBlockEnd
  0
BLOCK
  5
57EA
330
57E9
100
AcDbEntity
  8
0
100
AcDbBlockBegin
  2
*D34
 70
     1
 10
0.0
 20
0.0
 30
0.0
  3
*D34
  1
*D36
  0
LINE
  5
57EC
330
57E9
100
AcDbEntity
  8
寸法
 62
     0
370
    -2
100
AcDbLine
 10
689.0449079969318
 20
137.2973650072624
 30
0.0
 11
689.0449079969318
 21
126.2379250708453
 31
0.0
  0
LINE
  5
57ED
330
57E9
100
AcDbEntity
  8
寸法
 62
     0
370
    -2
100
AcDbLine
 10
759.0449079969318
 20
137.2973650072624
 30
0.0
 11
759.0449079969318
 21
126.2379250708453
 31
0.0
  0
LINE
  5
57EE
330
57E9
100
AcDbEntity
  8
寸法
 62
     0
370
    -2
100
AcDbLine
 10
690.5449079969318
 20
126.2379250708453
 30
0.0
 11
757.5449079969318
 21
126.2379250708453
 31
0.0
  0
INSERT
  5
57EF
330
57E9
100
AcDbEntity
  8
寸法
 62
     0
370
    -2
100
AcDbBlockReference
  2
_DOT
 10
689.0449079969318
 20
126.2379250708453
 30
0.0
 41
1.5
 42
1.5
 43
1.5
 50
180.0
  0
INSERT
  5
57F0
330
57E9
100
AcDbEntity
  8
寸法
 62
     0
370
    -2
100
AcDbBlockReference
  2
_DOT
 10
759.0449079969318
 20
126.2379250708453
 30
0.0
 41
1.5
 42
1.5
 43
1.5
  0
MTEXT
  5
57F1
330
57E9
100
AcDbEntity
  8
寸法
  6
Continuous
 62
     0
100
AcDbMText
 10
724.0449079969318
 20
130.7379250708453
 30
0.0
 40
5.0
 41
0.0
 46
0.0
 71
     5
 72
     1
  1
\A1;70
  7
ＭＳ ゴシック
 73
     1
 44
1.0
  0
POINT
  5
57F2
330
57E9
100
AcDbEntity
  8
Defpoints
 62
     0
100
AcDbPoint
 10
689.0449079969318
 20
142.2973650072624
 30
0.0
  0
POINT
  5
57F3
330
57E9
100
AcDbEntity
  8
Defpoints
 62
     0
100
AcDbPoint
 10
759.0449079969318
 20
142.2973650072624
 30
0.0
  0
POINT
  5
57F4
330
57E9
100
AcDbEntity
  8
Defpoints
 62
     0
100
AcDbPoint
 10
759.0449079969318
 20
126.2379250708453
 30
0.0
  0
ENDBLK
  5
57EB
330
57E9
100
AcDbEntity
  8
0
100
AcDbBlockEnd
  0
BLOCK
  5
57F6
330
57F5
100
AcDbEntity
  8
0
100
AcDbBlockBegin
  2
*D35
 70
     1
 10
0.0
 20
0.0
 30
0.0
  3
*D35
  1
*D37
  0
LINE
  5
57F8
330
57F5
100
AcDbEntity
  8
寸法
 62
     0
370
    -2
100
AcDbLine
 10
671.1029219969321
 20
279.3273691005803
 30
0.0
 11
671.1029219969321
 21
298.4292152212792
 31
0.0
  0
LINE
  5
57F9
330
57F5
100
AcDbEntity
  8
寸法
 62
     0
370
    -2
100
AcDbLine
 10
777.1082349266129
 20
248.8026779369438
 30
0.0
 11
777.1082349266129
 21
298.4292152212792
 31
0.0
  0
LINE
  5
57FA
330
57F5
100
AcDbEntity
  8
寸法
 62
     0
370
    -2
100
AcDbLine
 10
672.6029219969321
 20
298.4292152212792
 30
0.0
 11
775.6082349266129
 21
298.4292152212792
 31
0.0
  0
INSERT
  5
57FB
330
57F5
100
AcDbEntity
  8
寸法
 62
     0
370
    -2
100
AcDbBlockReference
  2
_DOT
 10
671.1029219969321
 20
298.4292152212792
 30
0.0
 41
1.5
 42
1.5
 43
1.5
 50
180.0
  0
INSERT
  5
57FC
330
57F5
100
AcDbEntity
  8
寸法
 62
     0
370
    -2
100
AcDbBlockReference
  2
_DOT
 10
777.1082349266129
 20
298.4292152212792
 30
0.0
 41
1.5
 42
1.5
 43
1.5
  0
MTEXT
  5
57FD
330
57F5
100
AcDbEntity
  8
寸法
  6
Continuous
 62
     0
100
AcDbMText
 10
724.1055784617724
 20
302.9292152212792
 30
0.0
 40
5.0
 41
0.0
 46
0.0
 71
     5
 72
     1
  1
\A1;106
  7
ＭＳ ゴシック
 73
     1
 44
1.0
  0
POINT
  5
57FE
330
57F5
100
AcDbEntity
  8
Defpoints
 62
     0
100
AcDbPoint
 10
671.1029219969321
 20
274.3273691005803
 30
0.0
  0
POINT
  5
57FF
330
57F5
100
AcDbEntity
  8
Defpoints
 62
     0
100
AcDbPoint
 10
777.1082349266129
 20
243.8026779369438
 30
0.0
  0
POINT
  5
5800
330
57F5
100
AcDbEntity
  8
Defpoints
 62
     0
100
AcDbPoint
 10
777.1082349266129
 20
298.4292152212792
 30
0.0
  0
ENDBLK
  5
57F7
330
57F5
100
AcDbEntity
  8
0
100
AcDbBlockEnd
  0
BLOCK
  5
5802
330
5801
100
AcDbEntity
  8
0
100
AcDbBlockBegin
  2
*D36
 70
     1
 10
0.0
 20
0.0
 30
0.0
  3
*D36
  1
*D38
  0
LINE
  5
5804
330
5801
100
AcDbEntity
  8
寸法
 62
     0
370
    -2
100
AcDbLine
 10
722.8908295786249
 20
259.7973650072626
 30
0.0
 11
820.2408641807239
 21
259.7973650072626
 31
0.0
  0
LINE
  5
5805
330
5801
100
AcDbEntity
  8
寸法
 62
     0
370
    -2
100
AcDbLine
 10
769.5449079969318
 20
147.7973650072624
 30
0.0
 11
820.2408641807239
 21
147.7973650072624
 31
0.0
  0
LINE
  5
5806
330
5801
100
AcDbEntity
  8
寸法
 62
     0
370
    -2
100
AcDbLine
 10
820.2408641807239
 20
258.2973650072626
 30
0.0
 11
820.2408641807239
 21
149.2973650072624
 31
0.0
  0
INSERT
  5
5807
330
5801
100
AcDbEntity
  8
寸法
 62
     0
370
    -2
100
AcDbBlockReference
  2
_DOT
 10
820.2408641807239
 20
259.7973650072626
 30
0.0
 41
1.5
 42
1.5
 43
1.5
 50
90.0
  0
INSERT
  5
5808
330
5801
100
AcDbEntity
  8
寸法
 62
     0
370
    -2
100
AcDbBlockReference
  2
_DOT
 10
820.2408641807239
 20
147.7973650072624
 30
0.0
 41
1.5
 42
1.5
 43
1.5
 50
270.0
  0
MTEXT
  5
5809
330
5801
100
AcDbEntity
  8
寸法
  6
Continuous
 62
     0
100
AcDbMText
 10
815.7408641807239
 20
203.7973650072625
 30
0.0
 40
5.0
 41
0.0
 46
0.0
 71
     5
 72
     1
  1
\A1;112
  7
ＭＳ ゴシック
 11
0.0
 21
1.0
 31
0.0
 73
     1
 44
1.0
  0
POINT
  5
580A
330
5801
100
AcDbEntity
  8
Defpoints
 62
     0
100
AcDbPoint
 10
717.8908295786249
 20
259.7973650072626
 30
0.0
  0
POINT
  5
580B
330
5801
100
AcDbEntity
  8
Defpoints
 62
     0
100
AcDbPoint
 10
764.5449079969318
 20
147.7973650072624
 30
0.0
  0
POINT
  5
580C
330
5801
100
AcDbEntity
  8
Defpoints
 62
     0
100
AcDbPoint
 10
820.2408641807239
 20
147.7973650072624
 30
0.0
  0
ENDBLK
  5
5803
330
5801
100
AcDbEntity
  8
0
100
AcDbBlockEnd
  0
BLOCK
  5
580E
330
580D
100
AcDbEntity
  8
0
100
AcDbBlockBegin
  2
*D37
 70
     1
 10
0.0
 20
0.0
 30
0.0
  3
*D37
  1
*D39
  0
LINE
  5
5810
330
580D
100
AcDbEntity
  8
寸法
 62
     0
370
    -2
100
AcDbLine
 10
719.9510710898768
 20
179.736811310487
 30
0.0
 11
798.0703153621199
 21
179.736811310487
 31
0.0
  0
LINE
  5
5811
330
580D
100
AcDbEntity
  8
寸法
 62
     0
370
    -2
100
AcDbLine
 10
782.1082349266129
 20
259.7973650072626
 30
0.0
 11
798.0703153621199
 21
259.7973650072626
 31
0.0
  0
LINE
  5
5812
330
580D
100
AcDbEntity
  8
寸法
 62
     0
370
    -2
100
AcDbLine
 10
798.0703153621199
 20
181.236811310487
 30
0.0
 11
798.0703153621199
 21
258.2973650072626
 31
0.0
  0
INSERT
  5
5813
330
580D
100
AcDbEntity
  8
寸法
 62
     0
370
    -2
100
AcDbBlockReference
  2
_DOT
 10
798.0703153621199
 20
179.736811310487
 30
0.0
 41
1.5
 42
1.5
 43
1.5
 50
270.0
  0
INSERT
  5
5814
330
580D
100
AcDbEntity
  8
寸法
 62
     0
370
    -2
100
AcDbBlockReference
  2
_DOT
 10
798.0703153621199
 20
259.7973650072626
 30
0.0
 41
1.5
 42
1.5
 43
1.5
 50
90.0
  0
MTEXT
  5
5815
330
580D
100
AcDbEntity
  8
寸法
  6
Continuous
 62
     0
100
AcDbMText
 10
793.5703153621199
 20
219.7670881588748
 30
0.0
 40
5.0
 41
0.0
 46
0.0
 71
     5
 72
     1
  1
\A1;80
  7
ＭＳ ゴシック
 11
0.0
 21
1.0
 31
0.0
 73
     1
 44
1.0
  0
POINT
  5
5816
330
580D
100
AcDbEntity
  8
Defpoints
 62
     0
100
AcDbPoint
 10
714.9510710898768
 20
179.736811310487
 30
0.0
  0
POINT
  5
5817
330
580D
100
AcDbEntity
  8
Defpoints
 62
     0
100
AcDbPoint
 10
777.1082349266129
 20
259.7973650072626
 30
0.0
  0
POINT
  5
5818
330
580D
100
AcDbEntity
  8
Defpoints
 62
     0
100
AcDbPoint
 10
798.0703153621199
 20
259.7973650072626
 30
0.0
  0
ENDBLK
  5
580F
330
580D
100
AcDbEntity
  8
0
100
AcDbBlockEnd
  0
BLOCK
  5
589B
330
589A
100
AcDbEntity
  8
0
100
AcDbBlockBegin
  2
*D38
 70
     1
 10
0.0
 20
0.0
 30
0.0
  3
*D38
  1
*D39
  0
LINE
  5
589C
330
589A
100
AcDbEntity
  8
寸法
  6
Continuous
 62
     0
370
    -2
100
AcDbLine
 10
0.375
 20
9.573144235081088
 30
0.0
 11
0.375
 21
0.375
 31
0.0
  0
LINE
  5
589D
330
589A
100
AcDbEntity
  8
寸法
  6
Continuous
 62
     0
370
    -2
100
AcDbLine
 10
8.074570739085033
 20
24.7782398278371
 30
0.0
 11
8.074570739085033
 21
0.375
 31
0.0
  0
LINE
  5
589E
330
589A
100
AcDbEntity
  8
寸法
  6
Continuous
 62
     0
370
    -2
100
AcDbLine
 10
8.074570739085033
 20
0.375
 30
0.0
 11
18.17765809326037
 21
0.375
 31
0.0
  0
LINE
  5
589F
330
589A
100
AcDbEntity
  8
寸法
  6
Continuous
 62
     0
370
    -2
100
AcDbLine
 10
1.875
 20
0.375
 30
0.0
 11
6.574570739085033
 21
0.375
 31
0.0
  0
INSERT
  5
58A0
330
589A
100
AcDbEntity
  8
寸法
 62
     0
370
    -2
100
AcDbBlockReference
  2
_DOT
 10
0.375
 20
0.375
 30
0.0
 41
1.5
 42
1.5
 43
1.5
 50
180.0
  0
INSERT
  5
58A1
330
589A
100
AcDbEntity
  8
寸法
 62
     0
370
    -2
100
AcDbBlockReference
  2
_DOT
 10
8.074570739085033
 20
0.375
 30
0.0
 41
1.5
 42
1.5
 43
1.5
  0
MTEXT
  5
58A2
330
589A
100
AcDbEntity
  8
寸法
  6
Continuous
 62
     0
100
AcDbMText
 10
14.85765809326037
 20
4.875
 30
0.0
 40
5.0
 41
0.0
 46
0.0
 71
     5
 72
     1
  1
\A1;8
  7
ＭＳ ゴシック
 73
     1
 44
1.0
  0
POINT
  5
58A3
330
589A
100
AcDbEntity
  8
Defpoints
 62
     0
100
AcDbPoint
 10
0.375
 20
14.57314423508109
 30
0.0
  0
POINT
  5
58A4
330
589A
100
AcDbEntity
  8
Defpoints
 62
     0
100
AcDbPoint
 10
8.074570739085033
 20
29.7782398278371
 30
0.0
  0
POINT
  5
58A5
330
589A
100
AcDbEntity
  8
Defpoints
 62
     0
100
AcDbPoint
 10
8.074570739085033
 20
0.375
 30
0.0
  0
ENDBLK
  5
58A6
330
589A
100
AcDbEntity
  8
0
100
AcDbBlockEnd
  0
BLOCK
  5
58AC
330
58AB
100
AcDbEntity
  8
0
100
AcDbBlockBegin
  2
*D39
 70
     1
 10
0.0
 20
0.0
 30
0.0
  3
*D39
  1
*D40
  0
LINE
  5
58AE
330
58AB
100
AcDbEntity
  8
寸法
  6
Continuous
 62
     0
370
    -2
100
AcDbLine
 10
127.1816507401138
 20
148.4628469200377
 30
0.0
 11
127.1816507401138
 21
139.2647026849566
 31
0.0
  0
LINE
  5
58AF
330
58AB
100
AcDbEntity
  8
寸法
  6
Continuous
 62
     0
370
    -2
100
AcDbLine
 10
134.8812214791988
 20
163.6679425127937
 30
0.0
 11
134.8812214791988
 21
139.2647026849566
 31
0.0
  0
LINE
  5
58B0
330
58AB
100
AcDbEntity
  8
寸法
  6
Continuous
 62
     0
370
    -2
100
AcDbLine
 10
134.8812214791988
 20
139.2647026849566
 30
0.0
 11
144.9843088333741
 21
139.2647026849566
 31
0.0
  0
LINE
  5
58B1
330
58AB
100
AcDbEntity
  8
寸法
  6
Continuous
 62
     0
370
    -2
100
AcDbLine
 10
128.6816507401138
 20
139.2647026849566
 30
0.0
 11
133.3812214791988
 21
139.2647026849566
 31
0.0
  0
INSERT
  5
58B2
330
58AB
100
AcDbEntity
  8
寸法
 62
     0
370
    -2
100
AcDbBlockReference
  2
_DOT
 10
127.1816507401138
 20
139.2647026849566
 30
0.0
 41
1.5
 42
1.5
 43
1.5
 50
180.0
  0
INSERT
  5
58B3
330
58AB
100
AcDbEntity
  8
寸法
 62
     0
370
    -2
100
AcDbBlockReference
  2
_DOT
 10
134.8812214791988
 20
139.2647026849566
 30
0.0
 41
1.5
 42
1.5
 43
1.5
  0
MTEXT
  5
58B4
330
58AB
100
AcDbEntity
  8
寸法
  6
Continuous
 62
     0
100
AcDbMText
 10
141.6643088333742
 20
143.7647026849566
 30
0.0
 40
5.0
 41
0.0
 46
0.0
 71
     5
 72
     1
  1
\A1;8
  7
ＭＳ ゴシック
 73
     1
 44
1.0
  0
POINT
  5
58B5
330
58AB
100
AcDbEntity
  8
Defpoints
 62
     0
100
AcDbPoint
 10
127.1816507401138
 20
153.4628469200377
 30
0.0
  0
POINT
  5
58B6
330
58AB
100
AcDbEntity
  8
Defpoints
 62
     0
100
AcDbPoint
 10
134.8812214791988
 20
168.6679425127937
 30
0.0
  0
POINT
  5
58B7
330
58AB
100
AcDbEntity
  8
Defpoints
 62
     0
100
AcDbPoint
 10
134.8812214791988
 20
139.2647026849566
 30
0.0
  0
ENDBLK
  5
58AD
330
58AB
100
AcDbEntity
  8
0
100
AcDbBlockEnd
  0
BLOCK
  5
5939
330
5938
100
AcDbEntity
  8
0
100
AcDbBlockBegin
  2
*D40
 70
     1
 10
0.0
 20
0.0
 30
0.0
  3
*D40
  1
*D41
  0
LINE
  5
593A
330
5938
100
AcDbEntity
  8
寸法
  6
Continuous
 62
     0
370
    -2
100
AcDbLine
 10
12.67192425945136
 20
214.4558524656296
 30
0.0
 11
12.67192425945136
 21
221.1724008234254
 31
0.0
  0
LINE
  5
593B
330
5938
100
AcDbEntity
  8
寸法
  6
Continuous
 62
     0
370
    -2
100
AcDbLine
 10
21.17192425945136
 20
214.4558524656296
 30
0.0
 11
21.17192425945136
 21
221.1724008234254
 31
0.0
  0
LINE
  5
593C
330
5938
100
AcDbEntity
  8
寸法
  6
Continuous
 62
     0
370
    -2
100
AcDbLine
 10
14.17192425945136
 20
221.1724008234254
 30
0.0
 11
19.67192425945136
 21
221.1724008234254
 31
0.0
  0
INSERT
  5
593D
330
5938
100
AcDbEntity
  8
寸法
 62
     0
370
    -2
100
AcDbBlockReference
  2
_DOT
 10
12.67192425945136
 20
221.1724008234254
 30
0.0
 41
1.5
 42
1.5
 43
1.5
 50
180.0
  0
INSERT
  5
593E
330
5938
100
AcDbEntity
  8
寸法
 62
     0
370
    -2
100
AcDbBlockReference
  2
_DOT
 10
21.17192425945136
 20
221.1724008234254
 30
0.0
 41
1.5
 42
1.5
 43
1.5
  0
MTEXT
  5
593F
330
5938
100
AcDbEntity
  8
寸法
  6
Continuous
 62
     0
100
AcDbMText
 10
16.92192425945136
 20
225.6724008234254
 30
0.0
 40
5.0
 41
0.0
 46
0.0
 71
     5
 72
     1
  1
\A1;8.5
  7
ＭＳ ゴシック
 73
     1
 44
1.0
  0
POINT
  5
5940
330
5938
100
AcDbEntity
  8
Defpoints
 62
     0
100
AcDbPoint
 10
12.67192425945136
 20
209.4558524656296
 30
0.0
  0
POINT
  5
5941
330
5938
100
AcDbEntity
  8
Defpoints
 62
     0
100
AcDbPoint
 10
21.17192425945136
 20
209.4558524656296
 30
0.0
  0
POINT
  5
5942
330
5938
100
AcDbEntity
  8
Defpoints
 62
     0
100
AcDbPoint
 10
21.17192425945136
 20
221.1724008234254
 30
0.0
  0
ENDBLK
  5
5943
330
5938
100
AcDbEntity
  8
0
100
AcDbBlockEnd
  0
BLOCK
  5
594B
330
594A
100
AcDbEntity
  8
0
100
AcDbBlockBegin
  2
*D41
 70
     1
 10
0.0
 20
0.0
 30
0.0
  3
*D41
  1
*D42
  0
LINE
  5
594C
330
594A
100
AcDbEntity
  8
寸法
  6
Continuous
 62
     0
370
    -2
100
AcDbLine
 10
62.46043540515663
 20
197.1207521227724
 30
0.0
 11
77.8834322030564
 21
197.1207521227724
 31
0.0
  0
LINE
  5
594D
330
594A
100
AcDbEntity
  8
寸法
  6
Continuous
 62
     0
370
    -2
100
AcDbLine
 10
68.2153519287707
 20
191.1207521227724
 30
0.0
 11
77.8834322030564
 21
191.1207521227724
 31
0.0
  0
LINE
  5
594E
330
594A
100
AcDbEntity
  8
寸法
  6
Continuous
 62
     0
370
    -2
100
AcDbLine
 10
77.8834322030564
 20
195.6207521227724
 30
0.0
 11
77.8834322030564
 21
192.6207521227724
 31
0.0
  0
INSERT
  5
594F
330
594A
100
AcDbEntity
  8
寸法
 62
     0
370
    -2
100
AcDbBlockReference
  2
_DOT
 10
77.8834322030564
 20
197.1207521227724
 30
0.0
 41
1.5
 42
1.5
 43
1.5
 50
90.0
  0
INSERT
  5
5950
330
594A
100
AcDbEntity
  8
寸法
 62
     0
370
    -2
100
AcDbBlockReference
  2
_DOT
 10
77.8834322030564
 20
191.1207521227724
 30
0.0
 41
1.5
 42
1.5
 43
1.5
 50
270.0
  0
MTEXT
  5
5951
330
594A
100
AcDbEntity
  8
寸法
  6
Continuous
 62
     0
100
AcDbMText
 10
73.3834322030564
 20
194.1207521227724
 30
0.0
 40
5.0
 41
0.0
 46
0.0
 71
     5
 72
     1
  1
\A1;6
  7
ＭＳ ゴシック
 11
0.0
 21
1.0
 31
0.0
 73
     1
 44
1.0
  0
POINT
  5
5952
330
594A
100
AcDbEntity
  8
Defpoints
 62
     0
100
AcDbPoint
 10
57.46043540515663
 20
197.1207521227724
 30
0.0
  0
POINT
  5
5953
330
594A
100
AcDbEntity
  8
Defpoints
 62
     0
100
AcDbPoint
 10
63.2153519287707
 20
191.1207521227724
 30
0.0
  0
POINT
  5
5954
330
594A
100
AcDbEntity
  8
Defpoints
 62
     0
100
AcDbPoint
 10
77.8834322030564
 20
191.1207521227724
 30
0.0
  0
ENDBLK
  5
5955
330
594A
100
AcDbEntity
  8
0
100
AcDbBlockEnd
  0
BLOCK
  5
5976
330
5975
100
AcDbEntity
  8
0
100
AcDbBlockBegin
  2
*D42
 70
     1
 10
0.0
 20
0.0
 30
0.0
  3
*D42
  1
*D43
  0
LINE
  5
5978
330
5975
100
AcDbEntity
  8
寸法
  6
Continuous
 62
     0
370
    -2
100
AcDbLine
 10
103.9325120145531
 20
372.0686993856673
 30
0.0
 11
103.9325120145531
 21
378.7852477434631
 31
0.0
  0
LINE
  5
5979
330
5975
100
AcDbEntity
  8
寸法
  6
Continuous
 62
     0
370
    -2
100
AcDbLine
 10
112.4325120145531
 20
372.0686993856673
 30
0.0
 11
112.4325120145531
 21
378.7852477434631
 31
0.0
  0
LINE
  5
597A
330
5975
100
AcDbEntity
  8
寸法
  6
Continuous
 62
     0
370
    -2
100
AcDbLine
 10
105.4325120145531
 20
378.7852477434631
 30
0.0
 11
110.9325120145531
 21
378.7852477434631
 31
0.0
  0
INSERT
  5
597B
330
5975
100
AcDbEntity
  8
寸法
 62
     0
370
    -2
100
AcDbBlockReference
  2
_DOT
 10
103.9325120145531
 20
378.7852477434631
 30
0.0
 41
1.5
 42
1.5
 43
1.5
 50
180.0
  0
INSERT
  5
597C
330
5975
100
AcDbEntity
  8
寸法
 62
     0
370
    -2
100
AcDbBlockReference
  2
_DOT
 10
112.4325120145531
 20
378.7852477434631
 30
0.0
 41
1.5
 42
1.5
 43
1.5
  0
MTEXT
  5
597D
330
5975
100
AcDbEntity
  8
寸法
  6
Continuous
 62
     0
100
AcDbMText
 10
108.1825120145531
 20
383.2852477434631
 30
0.0
 40
5.0
 41
0.0
 46
0.0
 71
     5
 72
     1
  1
\A1;8.5
  7
ＭＳ ゴシック
 73
     1
 44
1.0
  0
POINT
  5
597E
330
5975
100
AcDbEntity
  8
Defpoints
 62
     0
100
AcDbPoint
 10
103.9325120145531
 20
367.0686993856673
 30
0.0
  0
POINT
  5
597F
330
5975
100
AcDbEntity
  8
Defpoints
 62
     0
100
AcDbPoint
 10
112.4325120145531
 20
367.0686993856673
 30
0.0
  0
POINT
  5
5980
330
5975
100
AcDbEntity
  8
Defpoints
 62
     0
100
AcDbPoint
 10
112.4325120145531
 20
378.7852477434631
 30
0.0
  0
ENDBLK
  5
5977
330
5975
100
AcDbEntity
  8
0
100
AcDbBlockEnd
  0
BLOCK
  5
5982
330
5981
100
AcDbEntity
  8
0
100
AcDbBlockBegin
  2
*D43
 70
     1
 10
0.0
 20
0.0
 30
0.0
  3
*D43
  1
*D44
  0
LINE
  5
5984
330
5981
100
AcDbEntity
  8
寸法
  6
Continuous
 62
     0
370
    -2
100
AcDbLine
 10
153.7210231602584
 20
354.7335990428101
 30
0.0
 11
169.1440199581582
 21
354.7335990428101
 31
0.0
  0
LINE
  5
5985
330
5981
100
AcDbEntity
  8
寸法
  6
Continuous
 62
     0
370
    -2
100
AcDbLine
 10
159.4759396838725
 20
348.7335990428101
 30
0.0
 11
169.1440199581582
 21
348.7335990428101
 31
0.0
  0
LINE
  5
5986
330
5981
100
AcDbEntity
  8
寸法
  6
Continuous
 62
     0
370
    -2
100
AcDbLine
 10
169.1440199581582
 20
353.2335990428101
 30
0.0
 11
169.1440199581582
 21
350.2335990428101
 31
0.0
  0
INSERT
  5
5987
330
5981
100
AcDbEntity
  8
寸法
 62
     0
370
    -2
100
AcDbBlockReference
  2
_DOT
 10
169.1440199581582
 20
354.7335990428101
 30
0.0
 41
1.5
 42
1.5
 43
1.5
 50
90.0
  0
INSERT
  5
5988
330
5981
100
AcDbEntity
  8
寸法
 62
     0
370
    -2
100
AcDbBlockReference
  2
_DOT
 10
169.1440199581582
 20
348.7335990428101
 30
0.0
 41
1.5
 42
1.5
 43
1.5
 50
270.0
  0
MTEXT
  5
5989
330
5981
100
AcDbEntity
  8
寸法
  6
Continuous
 62
     0
100
AcDbMText
 10
164.6440199581582
 20
351.7335990428101
 30
0.0
 40
5.0
 41
0.0
 46
0.0
 71
     5
 72
     1
  1
\A1;6
  7
ＭＳ ゴシック
 11
0.0
 21
1.0
 31
0.0
 73
     1
 44
1.0
  0
POINT
  5
598A
330
5981
100
AcDbEntity
  8
Defpoints
 62
     0
100
AcDbPoint
 10
148.7210231602584
 20
354.7335990428101
 30
0.0
  0
POINT
  5
598B
330
5981
100
AcDbEntity
  8
Defpoints
 62
     0
100
AcDbPoint
 10
154.4759396838725
 20
348.7335990428101
 30
0.0
  0
POINT
  5
598C
330
5981
100
AcDbEntity
  8
Defpoints
 62
     0
100
AcDbPoint
 10
169.1440199581582
 20
348.7335990428101
 30
0.0
  0
ENDBLK
  5
5983
330
5981
100
AcDbEntity
  8
0
100
AcDbBlockEnd
  0
BLOCK
  5
5AC6
330
5AC5
100
AcDbEntity
  8
0
100
AcDbBlockBegin
  2
*D44
 70
     1
 10
0.0
 20
0.0
 30
0.0
  3
*D44
  1

  0
LINE
  5
5AC8
330
5AC5
100
AcDbEntity
  8
寸法
  6
Continuous
 62
     0
370
    -2
100
AcDbLine
 10
521.4606778181817
 20
331.33359904281
 30
0.0
 11
536.7172596363636
 21
331.33359904281
 31
0.0
  0
LINE
  5
5AC9
330
5AC5
100
AcDbEntity
  8
寸法
  6
Continuous
 62
     0
370
    -2
100
AcDbLine
 10
521.4606778181817
 20
311.33359904281
 30
0.0
 11
536.7172596363636
 21
311.33359904281
 31
0.0
  0
LINE
  5
5ACA
330
5AC5
100
AcDbEntity
  8
寸法
  6
Continuous
 62
     0
370
    -2
100
AcDbLine
 10
536.7172596363636
 20
329.83359904281
 30
0.0
 11
536.7172596363636
 21
312.83359904281
 31
0.0
  0
INSERT
  5
5ACB
330
5AC5
100
AcDbEntity
  8
寸法
 62
     0
370
    -2
100
AcDbBlockReference
  2
_DOT
 10
536.7172596363636
 20
331.33359904281
 30
0.0
 41
1.5
 42
1.5
 43
1.5
 50
90.0
  0
INSERT
  5
5ACC
330
5AC5
100
AcDbEntity
  8
寸法
 62
     0
370
    -2
100
AcDbBlockReference
  2
_DOT
 10
536.7172596363636
 20
311.33359904281
 30
0.0
 41
1.5
 42
1.5
 43
1.5
 50
270.0
  0
MTEXT
  5
5ACD
330
5AC5
100
AcDbEntity
  8
寸法
  6
Continuous
 62
     0
100
AcDbMText
 10
532.2172596363636
 20
321.33359904281
 30
0.0
 40
5.0
 41
0.0
 46
0.0
 71
     5
 72
     1
  1
\A1;20
  7
ＭＳ ゴシック
 11
0.0
 21
1.0
 31
0.0
 73
     1
 44
1.0
  0
POINT
  5
5ACE
330
5AC5
100
AcDbEntity
  8
Defpoints
 62
     0
100
AcDbPoint
 10
516.4606778181817
 20
331.33359904281
 30
0.0
  0
POINT
  5
5ACF
330
5AC5
100
AcDbEntity
  8
Defpoints
 62
     0
100
AcDbPoint
 10
516.4606778181817
 20
311.33359904281
 30
0.0
  0
POINT
  5
5AD0
330
5AC5
100
AcDbEntity
  8
Defpoints
 62
     0
100
AcDbPoint
 10
536.7172596363636
 20
311.33359904281
 30
0.0
  0
ENDBLK
  5
5AC7
330
5AC5
100
AcDbEntity
  8
0
100
AcDbBlockEnd
  0
ENDSEC
  0
SECTION
  2
ENTITIES
  0
POINT
  5
1301
330
A
100
AcDbEntity
  8
MODEL
100
AcDbPoint
 10
963.7243970754489
 20
138.0847547131194
 30
0.0
  0
POINT
  5
1306
330
A
100
AcDbEntity
  8
MODEL
100
AcDbPoint
 10
847.7244070754489
 20
138.0847547131194
 30
0.0
  0
POINT
  5
1307
330
A
100
AcDbEntity
  8
MODEL
100
AcDbPoint
 10
973.7862873746794
 20
166.0075841667841
 30
0.0
  0
POINT
  5
1308
330
A
100
AcDbEntity
  8
MODEL
100
AcDbPoint
 10
973.7862873746794
 20
184.0075841667841
 30
0.0
  0
POINT
  5
1312
330
A
100
AcDbEntity
  8
MODEL
100
AcDbPoint
 10
810.9244070754489
 20
149.007583882008
 30
0.0
  0
POINT
  5
1313
330
A
100
AcDbEntity
  8
MODEL
100
AcDbPoint
 10
810.9244070754489
 20
201.007583882008
 30
0.0
  0
POINT
  5
131E
330
A
100
AcDbEntity
  8
MODEL
100
AcDbPoint
 10
1111.259263541787
 20
138.207583607055
 30
0.0
  0
POINT
  5
131F
330
A
100
AcDbEntity
  8
MODEL
100
AcDbPoint
 10
1104.759263541787
 20
138.207583607055
 30
0.0
  0
POINT
  5
1342
330
A
100
AcDbEntity
  8
MODEL
100
AcDbPoint
 10
973.354966229004
 20
368.3598201219507
 30
0.0
  0
POINT
  5
1343
330
A
100
AcDbEntity
  8
MODEL
100
AcDbPoint
 10
973.354966229004
 20
319.3598501219507
 30
0.0
  0
POINT
  5
1346
330
A
100
AcDbEntity
  8
MODEL
100
AcDbPoint
 10
983.2218070738209
 20
368.3598201219507
 30
0.0
  0
POINT
  5
1347
330
A
100
AcDbEntity
  8
MODEL
100
AcDbPoint
 10
983.2218070738209
 20
301.3598201219507
 30
0.0
  0
POINT
  5
1350
330
A
100
AcDbEntity
  8
MODEL
100
AcDbPoint
 10
963.7243970754489
 20
286.3598201219507
 30
0.0
  0
POINT
  5
1351
330
A
100
AcDbEntity
  8
MODEL
100
AcDbPoint
 10
838.7244070754489
 20
286.3598201219507
 30
0.0
  0
POINT
  5
1357
330
A
100
AcDbEntity
  8
MODEL
100
AcDbPoint
 10
810.9244070754489
 20
301.3598201219507
 30
0.0
  0
POINT
  5
1359
330
A
100
AcDbEntity
  8
MODEL
100
AcDbPoint
 10
810.9244070754489
 20
361.3598201219507
 30
0.0
  0
POINT
  5
135A
330
A
100
AcDbEntity
  8
MODEL
100
AcDbPoint
 10
810.9244070754489
 20
368.3598201219507
 30
0.0
  0
POINT
  5
135B
330
A
100
AcDbEntity
  8
MODEL
100
AcDbPoint
 10
810.9244070754489
 20
361.3598201219507
 30
0.0
  0
POINT
  5
1371
330
A
100
AcDbEntity
  8
MODEL
100
AcDbPoint
 10
1164.81489702863
 20
383.9337336502628
 30
0.0
  0
POINT
  5
1372
330
A
100
AcDbEntity
  8
MODEL
100
AcDbPoint
 10
1164.81489702863
 20
279.9338376502628
 30
0.0
  0
POINT
  5
1378
330
A
100
AcDbEntity
  8
MODEL
100
AcDbPoint
 10
1180.157201609016
 20
264.2731813749589
 30
0.0
  0
POINT
  5
1379
330
A
100
AcDbEntity
  8
MODEL
100
AcDbPoint
 10
1193.957187809016
 20
264.2731813749589
 30
0.0
  0
POINT
  5
1389
330
A
100
AcDbEntity
  8
MODEL
100
AcDbPoint
 10
1079.093440814797
 20
383.9337336502628
 30
0.0
  0
POINT
  5
138A
330
A
100
AcDbEntity
  8
MODEL
100
AcDbPoint
 10
1079.093440814797
 20
279.9337336502626
 30
0.0
  0
POINT
  5
138D
330
A
100
AcDbEntity
  8
MODEL
100
AcDbPoint
 10
1093.467555113589
 20
264.2731813749589
 30
0.0
  0
POINT
  5
138E
330
A
100
AcDbEntity
  8
MODEL
100
AcDbPoint
 10
1106.467555113589
 20
264.2731813749589
 30
0.0
  0
POINT
  5
1398
330
A
100
AcDbEntity
  8
MODEL
100
AcDbPoint
 10
1180.157201609016
 20
398.2298339817613
 30
0.0
  0
POINT
  5
1399
330
A
100
AcDbEntity
  8
MODEL
100
AcDbPoint
 10
1194.157187609016
 20
398.2298339817613
 30
0.0
  0
POINT
  5
139C
330
A
100
AcDbEntity
  8
MODEL
100
AcDbPoint
 10
1093.467555113589
 20
398.2298339817613
 30
0.0
  0
POINT
  5
139D
330
A
100
AcDbEntity
  8
MODEL
100
AcDbPoint
 10
1107.467555113589
 20
398.2298339817613
 30
0.0
  0
POINT
  5
4967
330
A
100
AcDbEntity
  8
MODEL
 62
     7
100
AcDbPoint
 10
159.6608149866037
 20
1112.943495860789
 30
0.0
  0
POINT
  5
4968
330
A
100
AcDbEntity
  8
MODEL
 62
     7
100
AcDbPoint
 10
159.6608149866037
 20
1058.143496245838
 30
0.0
  0
ARC
  5
4976
330
A
100
AcDbEntity
  8
MODEL
  6
STYLE_02
100
AcDbCircle
 10
412.1850098071981
 20
319.0744904530162
 30
0.0
 40
12.0
100
AcDbArc
 50
179.9992630000003
 51
180.4691690000001
  0
LINE
  5
4980
330
A
100
AcDbEntity
  8
MODEL
  6
STYLE_02
100
AcDbLine
 10
400.1854208071981
 20
318.983283453016
 30
0.0
 11
400.1854118071981
 21
318.9762284530162
 31
0.0
  0
POINT
  5
499D
330
A
100
AcDbEntity
  8
MODEL
 62
     7
100
AcDbPoint
 10
471.5926809920595
 20
1039.574930990415
 30
0.0
  0
POINT
  5
499E
330
A
100
AcDbEntity
  8
MODEL
 62
     7
100
AcDbPoint
 10
478.7926809920594
 20
1039.574930990415
 30
0.0
  0
DIMENSION
  5
4A6C
330
A
100
AcDbEntity
  8
寸法
  6
Continuous
100
AcDbDimension
  2
*D4
 10
86.56381770696608
 20
341.034177143836
 30
0.0
 11
82.06381770696608
 21
344.883888093323
 31
0.0
 70
    32
 71
     5
 42
7.69942189897415
 73
     0
 74
     0
 75
     0
  3
tfrom線あり
100
AcDbAlignedDimension
 13
103.9168265524088
 23
348.7335990428101
 33
0.0
 14
118.4691954971437
 24
341.034177143836
 34
0.0
 50
90.0
100
AcDbRotatedDimension
1001
ACAD
1000
DSTYLE
1002
{
1070
   271
1070
     0
1002
}
  0
DIMENSION
  5
4A99
330
A
100
AcDbEntity
  8
寸法
  6
Continuous
100
AcDbDimension
  2
*D5
 10
367.476467670506
 20
293.818818554795
 30
0.0
 11
367.476467670506
 21
321.318818554795
 31
0.0
 70
   160
 71
     5
 42
55.0
 73
     0
 74
     0
 75
     0
  3
tfrom線あり
100
AcDbAlignedDimension
 13
398.399155477559
 23
348.818818554795
 33
0.0
 14
398.399155477559
 24
293.818818554795
 34
0.0
 50
90.0
100
AcDbRotatedDimension
1001
ACAD
1000
DSTYLE
1002
{
1070
     3
1000
φ<>
1002
}
  0
DIMENSION
  5
4AD2
330
A
100
AcDbEntity
  8
寸法
  6
Continuous
100
AcDbDimension
  2
*D6
 10
68.82714828459429
 20
286.72031825047
 30
0.0
 11
64.32714828459429
 21
317.7269586466401
 31
0.0
 70
    32
 71
     5
 42
62.01328079234008
 73
     0
 74
     0
 75
     0
  3
tfrom線あり
100
AcDbAlignedDimension
 13
103.0525189470545
 23
348.7335990428101
 33
0.0
 14
152.7127408186816
 24
286.72031825047
 34
0.0
 50
90.0
100
AcDbRotatedDimension
1001
ACAD
1000
DSTYLE
1002
{
1070
   271
1070
     0
1002
}
  0
LINE
  5
4CC1
330
A
100
AcDbEntity
  8
寸法
  6
Continuous
100
AcDbLine
 10
86.56381770696608
 20
347.2335990428101
 30
0.0
 11
86.56381770696608
 21
342.534177143836
 31
0.0
  0
POINT
  5
4ECE
330
A
100
AcDbEntity
  8
MODEL
 62
     7
100
AcDbPoint
 10
130.0913409417582
 20
1181.156054141915
 30
0.0
  0
POINT
  5
4ECF
330
A
100
AcDbEntity
  8
MODEL
 62
     7
100
AcDbPoint
 10
260.0913409417582
 20
1181.156054141915
 30
0.0
  0
DIMENSION
  5
4EF1
330
A
100
AcDbEntity
  8
寸法
  6
Continuous
100
AcDbDimension
  2
*D8
 10
86.51194664155467
 20
286.72031825047
 30
0.0
 11
82.01194664155467
 21
313.871636030509
 31
0.0
 70
    32
 71
     5
 42
54.30263556007799
 73
     0
 74
     0
 75
     0
  3
tfrom線あり
100
AcDbAlignedDimension
 13
119.058077654318
 23
341.022953810548
 33
0.0
 14
157.7127408186816
 24
286.72031825047
 34
0.0
 50
90.0
100
AcDbRotatedDimension
  0
LINE
  5
5004
330
A
100
AcDbEntity
  8
MODEL
  6
Continuous
100
AcDbLine
 10
127.1816507401138
 20
208.2628469200377
 30
0.0
 11
127.1816507401138
 21
153.4628469200377
 31
0.0
  0
LINE
  5
5005
330
A
100
AcDbEntity
  8
MODEL
  6
Continuous
100
AcDbLine
 10
127.1816507401138
 20
208.2628469200377
 30
0.0
 11
133.3816507401139
 21
208.2628469200377
 31
0.0
  0
LINE
  5
5006
330
A
100
AcDbEntity
  8
MODEL
  6
Continuous
100
AcDbLine
 10
133.3816507401139
 20
153.4628469200377
 30
0.0
 11
127.1816507401138
 21
153.4628469200377
 31
0.0
  0
LINE
  5
5007
330
A
100
AcDbEntity
  8
MODEL
  6
Continuous
100
AcDbLine
 10
153.5825120145532
 20
341.5335990428101
 30
0.0
 11
100.7825120145531
 21
341.5335990428101
 31
0.0
  0
ARC
  5
5008
330
A
100
AcDbEntity
  8
MODEL
  6
Continuous
100
AcDbCircle
 10
100.7825120145531
 20
342.5335990428101
 30
0.0
 40
1.0
100
AcDbArc
 50
180.0
 51
270.0
  0
ARC
  5
5009
330
A
100
AcDbEntity
  8
MODEL
  6
Continuous
100
AcDbCircle
 10
153.5825120145532
 20
342.5335990428101
 30
0.0
 40
1.0
100
AcDbArc
 50
270.0
 51
0.0
  0
LINE
  5
500A
330
A
100
AcDbEntity
  8
MODEL
  6
Continuous
100
AcDbLine
 10
99.78251201455308
 20
342.5335990428101
 30
0.0
 11
99.78251201455308
 21
348.7335990428101
 31
0.0
  0
LINE
  5
500B
330
A
100
AcDbEntity
  8
MODEL
  6
Continuous
100
AcDbLine
 10
154.5825120145532
 20
348.7335990428101
 30
0.0
 11
154.5825120145532
 21
342.5335990428101
 31
0.0
  0
LINE
  5
500C
330
A
100
AcDbEntity
  8
MODEL
  6
Continuous
100
AcDbLine
 10
139.4237631164623
 20
341.5335990428101
 30
0.0
 11
139.4237631164623
 21
341.226058375657
 31
0.0
  0
LINE
  5
500D
330
A
100
AcDbEntity
  8
MODEL
  6
Continuous
100
AcDbLine
 10
139.4237631164623
 20
341.5335990428101
 30
0.0
 11
139.4325120145532
 21
341.022953810548
 31
0.0
  0
LINE
  5
500E
330
A
100
AcDbEntity
  8
MODEL
  6
Continuous
100
AcDbLine
 10
114.9237631164623
 20
341.5335990428101
 30
0.0
 11
114.9237631164623
 21
341.246678442145
 31
0.0
  0
LINE
  5
500F
330
A
100
AcDbEntity
  8
MODEL
  6
Continuous
100
AcDbLine
 10
519.8721245115548
 20
330.33359904281
 30
0.0
 11
519.8721245115548
 21
312.33359904281
 31
0.0
  0
LINE
  5
5010
330
A
100
AcDbEntity
  8
MODEL
  6
Continuous
100
AcDbLine
 10
398.8721245115547
 20
330.33359904281
 30
0.0
 11
398.8721245115547
 21
312.33359904281
 31
0.0
  0
LINE
  5
5011
330
A
100
AcDbEntity
  8
MODEL
  6
Continuous
100
AcDbLine
 10
399.8721245115547
 20
311.33359904281
 30
0.0
 11
518.8721245115547
 21
311.33359904281
 31
0.0
  0
LINE
  5
5012
330
A
100
AcDbEntity
  8
MODEL
  6
Continuous
100
AcDbLine
 10
399.8721245115547
 20
331.33359904281
 30
0.0
 11
518.8721245115547
 21
331.33359904281
 31
0.0
  0
ARC
  5
5013
330
A
100
AcDbEntity
  8
MODEL
  6
Continuous
100
AcDbCircle
 10
408.8721245115547
 20
321.33359904281
 30
0.0
 40
13.99999999999998
100
AcDbArc
 50
45.58469099999956
 51
314.4153089999998
  0
ARC
  5
5014
330
A
100
AcDbEntity
  8
MODEL
  6
Continuous
100
AcDbCircle
 10
518.8721245115547
 20
312.33359904281
 30
0.0
 40
1.0
100
AcDbArc
 50
270.0
 51
0.0
  0
ARC
  5
5015
330
A
100
AcDbEntity
  8
MODEL
  6
Continuous
100
AcDbCircle
 10
518.8721245115547
 20
330.33359904281
 30
0.0
 40
1.0
100
AcDbArc
 50
0.0
 51
90.0
  0
ARC
  5
5016
330
A
100
AcDbEntity
  8
MODEL
  6
Continuous
100
AcDbCircle
 10
399.8721245115547
 20
312.33359904281
 30
0.0
 40
0.9999999999999715
100
AcDbArc
 50
180.0
 51
270.0
  0
ARC
  5
5017
330
A
100
AcDbEntity
  8
MODEL
  6
Continuous
100
AcDbCircle
 10
399.8721245115547
 20
330.33359904281
 30
0.0
 40
1.0
100
AcDbArc
 50
90.0
 51
180.0
  0
LINE
  5
5018
330
A
100
AcDbEntity
  8
MODEL
  6
DASHED1
100
AcDbLine
 10
418.8721245115547
 20
330.33359904281
 30
0.0
 11
418.8721245115547
 21
312.33359904281
 31
0.0
  0
ARC
  5
5019
330
A
100
AcDbEntity
  8
MODEL
  6
DASHED1
100
AcDbCircle
 10
408.8721245115547
 20
321.33359904281
 30
0.0
 40
14.0
100
AcDbArc
 50
314.4153089999998
 51
45.5846909999994
  0
CIRCLE
  5
501A
330
A
100
AcDbEntity
  8
MODEL
  6
DASHED1
100
AcDbCircle
 10
408.8721245115547
 20
321.33359904281
 30
0.0
 40
8.925
  0
ARC
  5
501B
330
A
100
AcDbEntity
  8
MODEL
  6
DASHED1
100
AcDbCircle
 10
417.8721245115547
 20
312.33359904281
 30
0.0
 40
1.0
100
AcDbArc
 50
270.0
 51
0.0
  0
ARC
  5
501C
330
A
100
AcDbEntity
  8
MODEL
  6
DASHED1
100
AcDbCircle
 10
417.8721245115547
 20
330.33359904281
 30
0.0
 40
1.0
100
AcDbArc
 50
0.0
 51
90.0
  0
ARC
  5
501D
330
A
100
AcDbEntity
  8
MODEL
  6
Continuous
100
AcDbCircle
 10
408.9346746218399
 20
321.318818554795
 30
0.0
 40
27.5
100
AcDbArc
 50
22.39309199486758
 51
338.6097860866306
  0
ARC
  5
501E
330
A
100
AcDbEntity
  8
MODEL
  6
DASHED1
100
AcDbCircle
 10
408.9346746218399
 20
321.318818554795
 30
0.0
 40
27.5
100
AcDbArc
 50
338.1884107295646
 51
21.61187187501373
  0
LINE
  5
501F
330
A
100
AcDbEntity
  8
MODEL
  6
Continuous
100
AcDbLine
 10
139.4325120145532
 20
341.022953810548
 30
0.0
 11
114.9237631164623
 21
341.022953810548
 31
0.0
  0
LINE
  5
5020
330
A
100
AcDbEntity
  8
MODEL
  6
Continuous
100
AcDbLine
 10
115.1991885646423
 20
341.034177143836
 30
0.0
 11
139.1991885646423
 21
341.034177143836
 31
0.0
  0
LINE
  5
5021
330
A
100
AcDbEntity
  8
MODEL
  6
Continuous
100
AcDbLine
 10
115.1904852108879
 20
341.0489661744751
 30
0.0
 11
139.1904852108879
 21
341.0489661744751
 31
0.0
  0
LINE
  5
5022
330
A
100
AcDbEntity
  8
MODEL
  6
Continuous
100
AcDbLine
 10
139.1338587022739
 20
340.987843699367
 30
0.0
 11
115.1338587022739
 21
340.987843699367
 31
0.0
  0
LINE
  5
5023
330
A
100
AcDbEntity
  8
MODEL
  6
Continuous
100
AcDbLine
 10
115.177628389206
 20
341.021426967421
 30
0.0
 11
139.1776283892059
 21
341.021426967421
 31
0.0
  0
LINE
  5
5024
330
A
100
AcDbEntity
  8
MODEL
  6
Continuous
100
AcDbLine
 10
117.1442848186816
 20
334.02031825047
 30
0.0
 11
117.1442848186816
 21
316.87962625047
 31
0.0
  0
LINE
  5
5025
330
A
100
AcDbEntity
  8
MODEL
  6
Continuous
100
AcDbLine
 10
137.1442848186816
 20
334.02031825047
 30
0.0
 11
137.1442848186816
 21
317.5121292504701
 31
0.0
  0
LINE
  5
5026
330
A
100
AcDbEntity
  8
MODEL
  6
Continuous
100
AcDbLine
 10
114.6442848186816
 20
337.02031825047
 30
0.0
 11
113.1442848186816
 21
337.02031825047
 31
0.0
  0
LINE
  5
5027
330
A
100
AcDbEntity
  8
MODEL
  6
Continuous
100
AcDbLine
 10
140.1442848186816
 20
337.02031825047
 30
0.0
 11
141.1442848186816
 21
337.02031825047
 31
0.0
  0
LINE
  5
5028
102
{ACAD_REACTORS
330
50CE
102
}
330
A
100
AcDbEntity
  8
MODEL
  6
Continuous
100
AcDbLine
 10
113.1442848186816
 20
341.02031825047
 30
0.0
 11
113.1442848186816
 21
337.02031825047
 31
0.0
  0
LINE
  5
5029
330
A
100
AcDbEntity
  8
MODEL
  6
Continuous
100
AcDbLine
 10
141.1442848186816
 20
341.02031825047
 30
0.0
 11
141.1442848186816
 21
337.02031825047
 31
0.0
  0
LINE
  5
502A
330
A
100
AcDbEntity
  8
MODEL
  6
Continuous
100
AcDbLine
 10
117.1442848186816
 20
337.02031825047
 30
0.0
 11
137.1442848186816
 21
337.02031825047
 31
0.0
  0
LINE
  5
502B
330
A
100
AcDbEntity
  8
MODEL
  6
Continuous
100
AcDbLine
 10
113.1442848186816
 20
341.02031825047
 30
0.0
 11
141.1442848186816
 21
341.02031825047
 31
0.0
  0
LINE
  5
502C
102
{ACAD_REACTORS
330
50CE
102
}
330
A
100
AcDbEntity
  8
MODEL
  6
Continuous
100
AcDbLine
 10
236.7326328186816
 20
306.12958725047
 30
0.0
 11
238.1102108186815
 21
300.9883962504701
 31
0.0
  0
ARC
  5
502D
330
A
100
AcDbEntity
  8
MODEL
  6
Continuous
100
AcDbCircle
 10
173.2136738186816
 20
579.8198842504701
 30
0.0
 40
280.0
100
AcDbArc
 50
265.841996
 51
282.862298
  0
ARC
  5
502E
330
A
100
AcDbEntity
  8
MODEL
  6
Continuous
100
AcDbCircle
 10
154.1442848186816
 20
317.5121292504701
 30
0.0
 40
17.0
100
AcDbArc
 50
180.0
 51
265.8419959999999
  0
ARC
  5
502F
330
A
100
AcDbEntity
  8
MODEL
  6
Continuous
100
AcDbCircle
 10
138.6442848186816
 20
307.5121292504701
 30
0.0
 40
20.00000000000003
100
AcDbArc
 50
198.194872
 51
265.244358
  0
ARC
  5
5030
330
A
100
AcDbEntity
  8
MODEL
  6
Continuous
100
AcDbCircle
 10
167.1442848186816
 20
316.87962625047
 30
0.0
 40
50.00000000000003
100
AcDbArc
 50
180.0
 51
198.194872
  0
ARC
  5
5031
330
A
100
AcDbEntity
  8
MODEL
  6
Continuous
100
AcDbCircle
 10
237.1442848186816
 20
300.72957725047
 30
0.0
 40
1.000000000000019
100
AcDbArc
 50
288.6025920000002
 51
14.99999999999445
  0
ARC
  5
5032
330
A
100
AcDbEntity
  8
MODEL
  6
Continuous
100
AcDbCircle
 10
157.7127408186816
 20
536.72031825047
 30
0.0
 40
249.9999999999999
100
AcDbArc
 50
265.244358
 51
288.602592
  0
ARC
  5
5033
330
A
100
AcDbEntity
  8
MODEL
  6
Continuous
100
AcDbCircle
 10
114.3942848186816
 20
334.27031825047
 30
0.0
 40
2.761340254296815
100
AcDbArc
 50
354.8055709999969
 51
84.80557099999996
  0
ARC
  5
5034
330
A
100
AcDbEntity
  8
MODEL
  6
Continuous
100
AcDbCircle
 10
140.1442848186816
 20
334.02031825047
 30
0.0
 40
3.0
100
AcDbArc
 50
90.0
 51
180.0
  0
ARC
  5
5035
330
A
100
AcDbEntity
  8
MODEL
  6
Continuous
100
AcDbCircle
 10
235.7667068186816
 20
305.8707682504701
 30
0.0
 40
1.000000000000045
100
AcDbArc
 50
15.00000000000788
 51
102.8622979999998
  0
LINE
  5
5036
330
A
100
AcDbEntity
  8
MODEL
  6
Continuous
100
AcDbLine
 10
114.9237631164623
 20
341.5335990428101
 30
0.0
 11
114.9237631164623
 21
341.0489661744751
 31
0.0
  0
LINE
  5
5037
330
A
100
AcDbEntity
  8
MODEL
  6
Continuous
100
AcDbLine
 10
99.78251201455308
 20
348.7335990428101
 30
0.0
 11
154.5825120145532
 21
348.7335990428101
 31
0.0
  0
POINT
  5
5038
330
A
100
AcDbEntity
  8
MODEL
 62
     7
100
AcDbPoint
 10
175.8242659295918
 20
1204.041148504878
 30
0.0
  0
LINE
  5
5039
330
A
100
AcDbEntity
  8
MODEL
  6
Continuous
100
AcDbLine
 10
134.3816507401139
 20
168.6128469200376
 30
0.0
 11
134.3816507401139
 21
154.4628469200377
 31
0.0
  0
LINE
  5
503A
330
A
100
AcDbEntity
  8
MODEL
  6
Continuous
100
AcDbLine
 10
134.3816507401139
 20
207.2628469200377
 30
0.0
 11
134.3816507401139
 21
193.1128469200376
 31
0.0
  0
ARC
  5
503B
330
A
100
AcDbEntity
  8
MODEL
  6
Continuous
100
AcDbCircle
 10
133.3816507401139
 20
154.4628469200377
 30
0.0
 40
1.0
100
AcDbArc
 50
270.0
 51
0.0
  0
ARC
  5
503C
330
A
100
AcDbEntity
  8
MODEL
  6
Continuous
100
AcDbCircle
 10
133.3816507401139
 20
207.2628469200377
 30
0.0
 40
1.0
100
AcDbArc
 50
0.0
 51
90.0
  0
LINE
  5
503D
330
A
100
AcDbEntity
  8
MODEL
  6
Continuous
100
AcDbLine
 10
134.3816507401139
 20
168.6128469200376
 30
0.0
 11
134.3816507401139
 21
193.1128469200376
 31
0.0
  0
LINE
  5
503E
330
A
100
AcDbEntity
  8
MODEL
  6
Continuous
100
AcDbLine
 10
134.8816507401139
 20
168.6511043765548
 30
0.0
 11
134.8816507401139
 21
192.6868054765337
 31
0.0
  0
LINE
  5
503F
330
A
100
AcDbEntity
  8
MODEL
  6
Continuous
100
AcDbLine
 10
134.8816507401139
 20
192.6868054765337
 30
0.0
 11
134.8816507401139
 21
193.1132827288387
 31
0.0
  0
LINE
  5
5040
330
A
100
AcDbEntity
  8
MODEL
  6
Continuous
100
AcDbLine
 10
134.8816507401139
 20
169.1128469200376
 30
0.0
 11
134.8816507401139
 21
192.6128469200376
 31
0.0
  0
LINE
  5
5041
330
A
100
AcDbEntity
  8
MODEL
  6
Continuous
100
AcDbLine
 10
134.8818376441981
 20
168.8641440028258
 30
0.0
 11
134.8818376441981
 21
192.8641440028258
 31
0.0
  0
LINE
  5
5042
330
A
100
AcDbEntity
  8
MODEL
  6
Continuous
100
AcDbLine
 10
134.902772654635
 20
168.8711198796596
 30
0.0
 11
134.902772654635
 21
192.8711198796596
 31
0.0
  0
LINE
  5
5043
330
A
100
AcDbEntity
  8
MODEL
  6
Continuous
100
AcDbLine
 10
134.8511761809597
 20
168.8592872546847
 30
0.0
 11
134.8511761809597
 21
192.8592872546847
 31
0.0
  0
LINE
  5
5044
330
A
100
AcDbEntity
  8
MODEL
  6
Continuous
100
AcDbLine
 10
134.8812214791987
 20
192.8583577032446
 30
0.0
 11
134.8812214791987
 21
168.8583577032446
 31
0.0
  0
LINE
  5
5045
330
A
100
AcDbEntity
  8
MODEL
  6
Continuous
100
AcDbLine
 10
189.1478779086744
 20
171.8572489862937
 30
0.0
 11
189.1478779086744
 21
189.8572489862937
 31
0.0
  0
LINE
  5
5046
330
A
100
AcDbEntity
  8
MODEL
  6
Continuous
100
AcDbLine
 10
141.8478779086743
 20
170.8572489862937
 30
0.0
 11
188.1478779086744
 21
170.8572489862937
 31
0.0
  0
LINE
  5
5047
330
A
100
AcDbEntity
  8
MODEL
  6
Continuous
100
AcDbLine
 10
141.8478779086743
 20
190.8572489862937
 30
0.0
 11
188.1478779086744
 21
190.8572489862937
 31
0.0
  0
LINE
  5
5048
330
A
100
AcDbEntity
  8
MODEL
  6
Continuous
100
AcDbLine
 10
138.8478779086743
 20
167.8572489862937
 30
0.0
 11
138.8478779086743
 21
166.8572489862937
 31
0.0
  0
LINE
  5
5049
330
A
100
AcDbEntity
  8
MODEL
  6
Continuous
100
AcDbLine
 10
138.8478779086743
 20
193.8572489862937
 30
0.0
 11
138.8478779086743
 21
194.8572489862937
 31
0.0
  0
LINE
  5
504A
330
A
100
AcDbEntity
  8
MODEL
  6
Continuous
100
AcDbLine
 10
134.8478779086743
 20
166.8572489862937
 30
0.0
 11
138.8478779086743
 21
166.8572489862937
 31
0.0
  0
LINE
  5
504B
330
A
100
AcDbEntity
  8
MODEL
  6
Continuous
100
AcDbLine
 10
134.8478779086743
 20
194.8572489862937
 30
0.0
 11
138.8478779086743
 21
194.8572489862937
 31
0.0
  0
LINE
  5
504C
330
A
100
AcDbEntity
  8
MODEL
  6
Continuous
100
AcDbLine
 10
138.8478779086743
 20
170.8572489862937
 30
0.0
 11
138.8478779086743
 21
190.8572489862937
 31
0.0
  0
LINE
  5
504D
330
A
100
AcDbEntity
  8
MODEL
  6
Continuous
100
AcDbLine
 10
134.8478779086743
 20
166.8572489862937
 30
0.0
 11
134.8478779086743
 21
194.8572489862937
 31
0.0
  0
ARC
  5
504E
330
A
100
AcDbEntity
  8
MODEL
  6
Continuous
100
AcDbCircle
 10
188.1478779086744
 20
171.8572489862937
 30
0.0
 40
0.9999999999999964
100
AcDbArc
 50
270.0
 51
0.0
  0
ARC
  5
504F
330
A
100
AcDbEntity
  8
MODEL
  6
Continuous
100
AcDbCircle
 10
188.1478779086744
 20
189.8572489862937
 30
0.0
 40
1.0
100
AcDbArc
 50
0.0
 51
90.0
  0
ARC
  5
5050
330
A
100
AcDbEntity
  8
MODEL
  6
Continuous
100
AcDbCircle
 10
141.8478779086743
 20
167.8572489862937
 30
0.0
 40
3.0
100
AcDbArc
 50
90.0
 51
180.0
  0
ARC
  5
5051
330
A
100
AcDbEntity
  8
MODEL
  6
Continuous
100
AcDbCircle
 10
141.8478779086743
 20
193.8572489862937
 30
0.0
 40
3.0
100
AcDbArc
 50
180.0
 51
270.0
  0
LINE
  5
5052
330
A
100
AcDbEntity
  8
MODEL
  6
Continuous
100
AcDbLine
 10
134.3816507401139
 20
193.1050322715917
 30
0.0
 11
134.902772654635
 21
193.1050322715917
 31
0.0
  0
LINE
  5
5053
330
A
100
AcDbEntity
  8
MODEL
  6
Continuous
100
AcDbLine
 10
134.3816507401139
 20
168.6679425127937
 30
0.0
 11
134.902772654635
 21
168.6679425127937
 31
0.0
  0
DIMENSION
  5
50CC
102
{ACAD_REACTORS
330
50CE
102
}
102
{ACAD_XDICTIONARY
360
50CD
102
}
330
A
100
AcDbEntity
  8
寸法
  6
Continuous
100
AcDbDimension
  2
*D9
 10
238.1102108186815
 20
259.6316994925465
 30
0.0
 11
175.6272478186816
 21
259.6316994925465
 31
0.0
 70
   160
 71
     5
 42
124.965926
 73
     0
 74
     0
 75
     0
  3
tfrom線あり
100
AcDbAlignedDimension
 13
113.1442848186816
 23
337.02031825047
 33
0.0
 14
238.1102108186815
 24
300.9883962504701
 34
0.0
100
AcDbRotatedDimension
  0
LINE
  5
54A0
330
A
100
AcDbEntity
  8
PRINT BORDER
100
AcDbLine
 10
296.9999999999999
 20
0.0
 30
0.0
 11
296.9999999999999
 21
15.30952622855898
 31
0.0
  0
LINE
  5
54A1
330
A
100
AcDbEntity
  8
テンプレート
100
AcDbLine
 10
437.9999999999999
 20
38.27810890422097
 30
0.0
 11
15.30952622855898
 21
38.27810890422097
 31
0.0
  0
LINE
  5
54A2
330
A
100
AcDbEntity
  8
テンプレート
100
AcDbLine
 10
15.30952622855898
 20
26.22153683920783
 30
0.0
 11
578.6904737714407
 21
26.22153683920783
 31
0.0
  0
TEXT
  5
54A3
330
A
100
AcDbEntity
  8
テンプレート
100
AcDbText
 10
18.06121699514119
 20
32.16825981613692
 30
0.0
 40
3.5
  1
材質
  7
ＭＳ ゴシック
100
AcDbText
  0
TEXT
  5
54A4
330
A
100
AcDbEntity
  8
テンプレート
100
AcDbText
 10
18.06121699514119
 20
56.50959028673083
 30
0.0
 40
3.5
  1
品名
  7
ＭＳ ゴシック
100
AcDbText
  0
TEXT
  5
54A5
330
A
100
AcDbEntity
  8
テンプレート
100
AcDbText
 10
18.06121699514119
 20
44.65099339080098
 30
0.0
 40
3.5
  1
仕上げ
  7
ＭＳ ゴシック
100
AcDbText
  0
TEXT
  5
54A6
330
A
100
AcDbEntity
  8
テンプレート
100
AcDbText
 10
334.2723666997488
 20
56.58523052309897
 30
0.0
 40
3.5
  1
品番
  7
ＭＳ ゴシック
100
AcDbText
  0
TEXT
  5
54A7
330
A
100
AcDbEntity
  8
テンプレート
100
AcDbText
 10
36.7528253083583
 20
53.09440584367189
 30
0.0
 40
5.5
  1
レバーハンドル - FSB -
  7
ＭＳ ゴシック
100
AcDbText
  0
TEXT
  5
54A8
330
A
100
AcDbEntity
  8
テンプレート
100
AcDbText
 10
348.4661387242646
 20
52.977080524553
 30
0.0
 40
5.5
  1
FSB10-1163-NC
  7
ＭＳ ゴシック
100
AcDbText
  0
LINE
  5
54A9
330
A
100
AcDbEntity
  8
テンプレート
100
AcDbLine
 10
437.9999999999999
 20
50.16496477419605
 30
0.0
 11
15.30952622855898
 21
50.16496477419605
 31
0.0
  0
LINE
  5
54AA
330
A
100
AcDbEntity
  8
テンプレート
100
AcDbLine
 10
578.6904737714411
 20
62.22153683920783
 30
0.0
 11
15.30952622855898
 21
62.22153683920783
 31
0.0
  0
LINE
  5
54AB
330
A
100
AcDbEntity
  8
PRINT BORDER
100
AcDbLine
 10
593.9999999999999
 20
210.0
 30
0.0
 11
578.6904737714411
 21
210.0
 31
0.0
  0
LINE
  5
54AC
330
A
100
AcDbEntity
  8
PRINT BORDER
100
AcDbLine
 10
0.0
 20
210.0
 30
0.0
 11
15.30952622855898
 21
210.0
 31
0.0
  0
LINE
  5
54AD
330
A
100
AcDbEntity
  8
PRINT BORDER
100
AcDbLine
 10
296.9999999999999
 20
420.0
 30
0.0
 11
296.9999999999999
 21
404.690473771441
 31
0.0
  0
LINE
  5
54AE
330
A
100
AcDbEntity
  8
テンプレート
100
AcDbLine
 10
578.6904737714411
 20
62.22153683920783
 30
0.0
 11
578.6904737714411
 21
26.22153683920783
 31
0.0
  0
LINE
  5
54AF
330
A
100
AcDbEntity
  8
テンプレート
100
AcDbLine
 10
15.30952622855898
 20
62.22153683920783
 30
0.0
 11
15.30952622855898
 21
26.22153683920783
 31
0.0
  0
TEXT
  5
54B0
330
A
100
AcDbEntity
  8
テンプレート
100
AcDbText
 10
494.9733384955217
 20
16.51938390313694
 30
0.0
 40
5.5
  1
大洋金物株式会社  
  7
ＭＳ ゴシック
100
AcDbText
  0
LINE
  5
54B1
330
A
100
AcDbEntity
  8
テンプレート
100
AcDbLine
 10
437.9999999999999
 20
62.22153683920783
 30
0.0
 11
437.9999999999999
 21
26.22153683920783
 31
0.0
  0
LINE
  5
54B2
330
A
100
AcDbEntity
  8
テンプレート
100
AcDbLine
 10
332.4490181818181
 20
62.22153683920783
 30
0.0
 11
332.4490181818181
 21
26.22153683920783
 31
0.0
  0
INSERT
  5
54B3
330
A
100
AcDbEntity
  8
テンプレート
100
AcDbBlockReference
  2
名称未設定-1
 10
548.3945198859805
 20
-7.642344203993161
 30
0.0
 41
0.180975
 42
0.180975
 43
0.180975
  0
LINE
  5
54B5
330
A
100
AcDbEntity
  8
テンプレート
100
AcDbLine
 10
15.30952622855898
 20
210.0
 30
0.0
 11
15.30952622855898
 21
26.22153683920783
 31
0.0
  0
LINE
  5
54B6
330
A
100
AcDbEntity
  8
テンプレート
100
AcDbLine
 10
15.30952622855898
 20
210.0
 30
0.0
 11
15.30952622855898
 21
404.690473771441
 31
0.0
  0
LINE
  5
54B7
330
A
100
AcDbEntity
  8
テンプレート
100
AcDbLine
 10
296.9999999999999
 20
404.690473771441
 30
0.0
 11
15.30952622855887
 21
404.690473771441
 31
0.0
  0
LINE
  5
54B8
330
A
100
AcDbEntity
  8
テンプレート
100
AcDbLine
 10
296.9999999999999
 20
404.690473771441
 30
0.0
 11
578.6904737714411
 21
404.690473771441
 31
0.0
  0
LINE
  5
54B9
330
A
100
AcDbEntity
  8
テンプレート
100
AcDbLine
 10
578.6904737714411
 20
210.0
 30
0.0
 11
578.6904737714411
 21
404.690473771441
 31
0.0
  0
LINE
  5
54BA
330
A
100
AcDbEntity
  8
テンプレート
100
AcDbLine
 10
578.6904737714411
 20
210.0
 30
0.0
 11
578.6904737714411
 21
26.22153683920783
 31
0.0
  0
LWPOLYLINE
  5
54BB
330
A
100
AcDbEntity
  8
PRINT BORDER
  6
HIDDEN
 48
3.0
100
AcDbPolyline
 90
        4
 70
     1
 43
0.0
 10
0.0
 20
0.0
 10
0.0
 20
420.0
 10
593.9999999999999
 20
420.0
 10
593.9999999999999
 20
0.0
  0
TEXT
  5
54BC
330
A
100
AcDbEntity
  8
テンプレート
100
AcDbText
 10
334.2479338040403
 20
32.62405342819488
 30
0.0
 40
3.5
  1
縮尺
  7
ＭＳ ゴシック
100
AcDbText
  0
TEXT
  5
54BD
330
A
100
AcDbEntity
  8
テンプレート
100
AcDbText
 10
348.4661387242646
 20
28.29362070227194
 30
0.0
 40
5.5
  1
1/2
  7
ＭＳ ゴシック
100
AcDbText
  0
TEXT
  5
54BE
330
A
100
AcDbEntity
  8
テンプレート
100
AcDbText
 10
334.2723666997488
 20
44.52865845808583
 30
0.0
 40
3.5
  1
扉厚
  7
ＭＳ ゴシック
100
AcDbText
  0
TEXT
  5
54BF
330
A
100
AcDbEntity
  8
テンプレート
100
AcDbText
 10
440.0887524673468
 20
56.58523052309897
 30
0.0
 40
3.5
  1
備考
  7
ＭＳ ゴシック
100
AcDbText
  0
TEXT
  5
54C0
330
A
100
AcDbEntity
  8
テンプレート
100
AcDbText
 10
449.0017237694899
 20
47.28154793898159
 30
0.0
 40
5.5
  1
取付方＝呼込み(ビス付)
  7
ＭＳ ゴシック
100
AcDbText
  0
TEXT
  5
54C1
330
A
100
AcDbEntity
  8
_0-1_
 62
     1
100
AcDbText
 10
177.7468866874332
 20
79.37939740351129
 30
0.0
 40
4.0
  1
   
  7
ＭＳ ゴシック
100
AcDbText
  0
LINE
  5
54C2
330
A
100
AcDbEntity
  8
SPACER
  6
CENTER
 48
3.0
100
AcDbLine
 10
127.1816507401138
 20
224.6771809568476
 30
0.0
 11
127.1816507401138
 21
137.0485128832279
 31
0.0
  0
LINE
  5
54C3
330
A
100
AcDbEntity
  8
SPACER
  6
CENTER
 48
3.0
100
AcDbLine
 10
83.36731670330403
 20
180.8628469200378
 30
0.0
 11
170.9959847769237
 21
180.8628469200378
 31
0.0
  0
LINE
  5
54C4
330
A
100
AcDbEntity
  8
SPACER
  6
CENTER
 48
3.0
100
AcDbLine
 10
83.36817797774336
 20
348.7335990428101
 30
0.0
 11
170.9968460513629
 21
348.7335990428101
 31
0.0
  0
LINE
  5
54C5
330
A
100
AcDbEntity
  8
SPACER
  6
CENTER
 48
3.0
100
AcDbLine
 10
408.8721245115548
 20
365.1479330796199
 30
0.0
 11
408.8721245115548
 21
277.5192650060002
 31
0.0
  0
LINE
  5
54C6
330
A
100
AcDbEntity
  8
SPACER
  6
CENTER
 48
3.0
100
AcDbLine
 10
365.0577904747449
 20
321.33359904281
 30
0.0
 11
452.6864585483646
 21
321.33359904281
 31
0.0
  0
LWPOLYLINE
  5
5528
330
A
100
AcDbEntity
  8
SPACER
100
AcDbPolyline
 90
        4
 70
     1
 43
0.0
 10
161.5928474918056
 20
97.1045060433407
 10
161.5928474918056
 20
69.6571102646527
 10
432.4071525081941
 20
69.6571102646527
 10
432.4071525081941
 20
97.1045060433407
  0
LINE
  5
5529
330
A
100
AcDbEntity
  8
SPACER
  6
CENTER
 48
3.0
100
AcDbLine
 10
296.9999999999999
 20
404.690473771441
 30
0.0
 11
297.0
 21
106.25363796957
 31
0.0
  0
LINE
  5
552A
330
A
100
AcDbEntity
  8
SPACER
  6
CENTER
 48
3.0
100
AcDbLine
 10
15.30952622855898
 20
255.4720558705055
 30
0.0
 11
578.690473771441
 21
255.4720558705055
 31
0.0
  0
LINE
  5
552B
330
A
100
AcDbEntity
  8
SPACER
  6
CENTER
 48
3.0
100
AcDbLine
 10
15.30952622855898
 20
106.25363796957
 30
0.0
 11
578.690473771441
 21
106.25363796957
 31
0.0
  0
LINE
  5
552C
330
A
100
AcDbEntity
  8
SPACER
  6
CENTER
 48
3.0
100
AcDbLine
 10
408.8721245115548
 20
224.6771809568476
 30
0.0
 11
408.8721245115548
 21
137.0485128832279
 31
0.0
  0
LINE
  5
552D
330
A
100
AcDbEntity
  8
SPACER
  6
CENTER
 48
3.0
100
AcDbLine
 10
365.057790474745
 20
180.8628469200378
 30
0.0
 11
452.6864585483647
 21
180.8628469200378
 31
0.0
  0
CIRCLE
  5
5542
102
{ACAD_REACTORS
330
55D1
102
}
330
A
100
AcDbEntity
  8
CutoutOverlay
100
AcDbCircle
 10
427.8721245115549
 20
180.8628469200378
 30
0.0
 40
5.0
  0
CIRCLE
  5
5543
102
{ACAD_REACTORS
330
55D1
102
}
330
A
100
AcDbEntity
  8
CutoutOverlay
100
AcDbCircle
 10
389.8721245115548
 20
180.8628469200378
 30
0.0
 40
5.0
  0
CIRCLE
  5
5544
102
{ACAD_REACTORS
330
55CD
330
55D0
330
55D1
102
}
330
A
100
AcDbEntity
  8
CutoutOverlay
100
AcDbCircle
 10
408.8721245115548
 20
180.8628469200378
 30
0.0
 40
14.0
  0
DIMENSION
  5
5545
330
A
100
AcDbEntity
  8
寸法
100
AcDbDimension
  2
*D18
 10
389.8721245115548
 20
144.5573006134969
 30
0.0
 11
376.2146245115548
 21
144.5573006134969
 31
0.0
 70
   128
  1
 
 71
     5
 42
38.00000000000011
 73
     0
 74
     1
 75
     1
  3
tfrom線あり
100
AcDbAlignedDimension
 13
427.8721245115549
 23
177.3452081951892
 33
0.0
 14
389.8721245115548
 24
177.3452081951892
 34
0.0
100
AcDbRotatedDimension
1001
ACAD
1000
DSTYLE
1002
{
1070
   172
1070
     1
1002
}
  0
DIMENSION
  5
5546
330
A
100
AcDbEntity
  8
寸法
100
AcDbDimension
  2
*D19
 10
408.8721245115548
 20
213.8023335341041
 30
0.0
 11
399.3721245115548
 21
218.3023335341041
 31
0.0
 70
    32
 71
     5
 42
19.0
 73
     0
 74
     0
 75
     0
  3
tfrom線あり
100
AcDbAlignedDimension
 13
389.8721245115548
 23
186.0157099566222
 33
0.0
 14
408.8721245115548
 24
200.1912224768318
 34
0.0
100
AcDbRotatedDimension
  0
DIMENSION
  5
5547
330
A
100
AcDbEntity
  8
寸法
100
AcDbDimension
  2
*D20
 10
427.8721245115549
 20
213.8023335341041
 30
0.0
 11
418.3721245115548
 21
218.3023335341041
 31
0.0
 70
    32
 71
     5
 42
19.00000000000011
 73
     0
 74
     0
 75
     0
  3
tfrom線あり
100
AcDbAlignedDimension
 13
408.8721245115548
 23
200.1912224768318
 33
0.0
 14
427.8721245115549
 24
186.0157099566222
 34
0.0
100
AcDbRotatedDimension
  0
DIMENSION
  5
55C6
330
A
100
AcDbEntity
  8
寸法
100
AcDbDimension
  2
*D21
 10
146.1825120145531
 20
365.9906564456901
 30
0.0
 11
127.1825120145531
 21
370.4906564456901
 31
0.0
 70
    32
 71
     5
 42
38.00000000000001
 73
     0
 74
     0
 75
     0
  3
tfrom線あり
100
AcDbAlignedDimension
 13
108.1825120145531
 23
351.4345575436565
 33
0.0
 14
146.1825120145531
 24
351.4345575436565
 34
0.0
100
AcDbRotatedDimension
  0
LINE
  5
55C7
330
A
100
AcDbEntity
  8
寸法
  6
CENTER
 48
0.5
100
AcDbLine
 10
108.1825120145531
 20
351.4345575436565
 30
0.0
 11
108.1825120145531
 21
345.8123890105664
 31
0.0
  0
LINE
  5
55C8
330
A
100
AcDbEntity
  8
寸法
  6
CENTER
 48
0.5
100
AcDbLine
 10
146.1825120145531
 20
351.4345575436565
 30
0.0
 11
146.1825120145531
 21
345.8123890105664
 31
0.0
  0
TEXT
  5
55CA
330
A
100
AcDbEntity
  8
寸法
100
AcDbText
 10
348.1659509202454
 20
231.4229447852761
 30
0.0
 40
5.0
  1
<切欠図>
  7
ＭＳ ゴシック
100
AcDbText
  0
LEADER
  5
55CB
102
{ACAD_REACTORS
330
55CD
102
}
102
{ACAD_XDICTIONARY
360
55CC
102
}
330
A
100
AcDbEntity
  8
寸法
100
AcDbLeader
  3
tfrom線あり
 76
     3
 10
408.8721245115548
 20
194.8628469200378
 30
0.0
 10
408.8721245115548
 20
200.7337752882268
 30
0.0
 10
447.9531070495427
 20
200.7337752882268
 30
0.0
  0
LEADER
  5
55CE
102
{ACAD_REACTORS
330
55D0
102
}
102
{ACAD_XDICTIONARY
360
55CF
102
}
330
A
100
AcDbEntity
  8
寸法
100
AcDbLeader
  3
tfrom線あり
 76
     3
 10
408.8721245115548
 20
180.8628469200378
 30
0.0
 10
442.1530114131083
 20
156.5669494488204
 30
0.0
 10
510.1082899407156
 20
156.5669494488204
 30
0.0
  0
HATCH
  5
55D1
330
A
100
AcDbEntity
  8
CutoutOverlay
100
AcDbHatch
 10
0.0
 20
0.0
 30
0.0
210
0.0
220
0.0
230
1.0
  2
ANSI31
 70
     0
 71
     1
 91
        3
 92
        1
 93
        1
 72
     2
 10
389.8721245115548
 20
180.8628469200378
 40
5.0
 50
0.0
 51
360.0
 73
     1
 97
        1
330
5543
 92
        1
 93
        1
 72
     2
 10
408.8721245115548
 20
180.8628469200378
 40
14.0
 50
0.0
 51
360.0
 73
     1
 97
        1
330
5544
 92
        1
 93
        1
 72
     2
 10
427.8721245115549
 20
180.8628469200378
 40
5.0
 50
0.0
 51
360.0
 73
     1
 97
        1
330
5542
 75
     0
 76
     1
 52
0.0
 41
1.0
 77
     0
 78
     1
 53
45.0
 43
0.0
 44
0.0
 45
-2.245064030267288
 46
2.245064030267288
 79
     0
 98
        1
 10
0.0
 20
0.0
1001
ACAD
1010
0.0
1020
0.0
1030
0.0
  0
TEXT
  5
55D2
330
A
100
AcDbEntity
  8
寸法
100
AcDbText
 10
443.7339484827306
 20
159.2024023985158
 30
0.0
 40
5.0
  1
レバー角芯 センター
  7
ＭＳ ゴシック
100
AcDbText
  0
TEXT
  5
55D3
330
A
100
AcDbEntity
  8
寸法
100
AcDbText
 10
438.0695551162909
 20
203.042649715703
 30
0.0
 40
5.0
  1
ø28
  7
ＭＳ ゴシック
100
AcDbText
  0
TEXT
  5
55D4
330
A
100
AcDbEntity
  8
寸法
100
AcDbText
 10
375.8306164726592
 20
147.0523164739852
 30
0.0
 40
5.0
  1
ø10
  7
ＭＳ ゴシック
100
AcDbText
  0
LINE
  5
55D7
330
A
100
AcDbEntity
  8
SPACER
  6
CENTER
 48
3.0
100
AcDbLine
 10
127.1825120145532
 20
392.54793307962
 30
0.0
 11
127.1825120145532
 21
304.9192650060003
 31
0.0
  0
ARC
  5
55FC
102
{ACAD_REACTORS
330
59FC
102
}
330
A
100
AcDbEntity
  8
CutoutUnderlay
  6
STYLE_02
100
AcDbCircle
 10
412.1850098071982
 20
178.6037383302439
 30
0.0
 40
12.0
100
AcDbArc
 50
179.9992630000003
 51
180.4691690000001
  0
LINE
  5
55FD
102
{ACAD_REACTORS
330
59FC
102
}
330
A
100
AcDbEntity
  8
CutoutUnderlay
  6
STYLE_02
100
AcDbLine
 10
400.1854208071982
 20
178.5125313302437
 30
0.0
 11
400.1854118071982
 21
178.5054763302439
 31
0.0
  0
LINE
  5
55FE
102
{ACAD_REACTORS
330
59FC
102
}
330
A
100
AcDbEntity
  8
CutoutUnderlay
  6
Continuous
100
AcDbLine
 10
519.8721245115548
 20
189.8628469200378
 30
0.0
 11
519.8721245115548
 21
171.8628469200378
 31
0.0
  0
LINE
  5
55FF
102
{ACAD_REACTORS
330
59FC
102
}
330
A
100
AcDbEntity
  8
CutoutUnderlay
  6
Continuous
100
AcDbLine
 10
398.8721245115548
 20
189.8628469200378
 30
0.0
 11
398.8721245115548
 21
171.8628469200378
 31
0.0
  0
LINE
  5
5600
102
{ACAD_REACTORS
330
59FC
102
}
330
A
100
AcDbEntity
  8
CutoutUnderlay
  6
Continuous
100
AcDbLine
 10
399.8721245115548
 20
170.8628469200378
 30
0.0
 11
518.8721245115548
 21
170.8628469200378
 31
0.0
  0
LINE
  5
5601
102
{ACAD_REACTORS
330
59FC
102
}
330
A
100
AcDbEntity
  8
CutoutUnderlay
  6
Continuous
100
AcDbLine
 10
399.8721245115548
 20
190.8628469200378
 30
0.0
 11
518.8721245115548
 21
190.8628469200378
 31
0.0
  0
ARC
  5
5603
102
{ACAD_REACTORS
330
59FC
102
}
330
A
100
AcDbEntity
  8
CutoutUnderlay
  6
Continuous
100
AcDbCircle
 10
518.8721245115548
 20
171.8628469200378
 30
0.0
 40
1.0
100
AcDbArc
 50
270.0
 51
0.0
  0
ARC
  5
5604
102
{ACAD_REACTORS
330
59FC
102
}
330
A
100
AcDbEntity
  8
CutoutUnderlay
  6
Continuous
100
AcDbCircle
 10
518.8721245115548
 20
189.8628469200378
 30
0.0
 40
1.0
100
AcDbArc
 50
0.0
 51
90.0
  0
ARC
  5
5605
102
{ACAD_REACTORS
330
59FC
102
}
330
A
100
AcDbEntity
  8
CutoutUnderlay
  6
Continuous
100
AcDbCircle
 10
399.8721245115548
 20
171.8628469200378
 30
0.0
 40
0.9999999999999715
100
AcDbArc
 50
180.0
 51
270.0
  0
ARC
  5
5606
102
{ACAD_REACTORS
330
59FC
102
}
330
A
100
AcDbEntity
  8
CutoutUnderlay
  6
Continuous
100
AcDbCircle
 10
399.8721245115548
 20
189.8628469200378
 30
0.0
 40
1.0
100
AcDbArc
 50
90.0
 51
180.0
  0
LINE
  5
5607
102
{ACAD_REACTORS
330
59FC
102
}
330
A
100
AcDbEntity
  8
CutoutUnderlay
  6
DASHED1
100
AcDbLine
 10
418.8721245115548
 20
189.8628469200378
 30
0.0
 11
418.8721245115548
 21
171.8628469200378
 31
0.0
  0
ARC
  5
5608
102
{ACAD_REACTORS
330
59FC
102
}
330
A
100
AcDbEntity
  8
CutoutUnderlay
  6
DASHED1
100
AcDbCircle
 10
408.8721245115548
 20
180.8628469200378
 30
0.0
 40
14.0
100
AcDbArc
 50
314.4153089999998
 51
45.58469099999956
  0
CIRCLE
  5
5609
102
{ACAD_REACTORS
330
59FC
102
}
330
A
100
AcDbEntity
  8
CutoutUnderlay
  6
DASHED1
100
AcDbCircle
 10
408.8721245115548
 20
180.8628469200378
 30
0.0
 40
8.925
  0
ARC
  5
560A
102
{ACAD_REACTORS
330
59FC
102
}
330
A
100
AcDbEntity
  8
CutoutUnderlay
  6
DASHED1
100
AcDbCircle
 10
417.8721245115548
 20
171.8628469200378
 30
0.0
 40
1.0
100
AcDbArc
 50
270.0
 51
0.0
  0
ARC
  5
560B
102
{ACAD_REACTORS
330
59FC
102
}
330
A
100
AcDbEntity
  8
CutoutUnderlay
  6
DASHED1
100
AcDbCircle
 10
417.8721245115548
 20
189.8628469200378
 30
0.0
 40
1.0
100
AcDbArc
 50
0.0
 51
90.0
  0
ARC
  5
560C
102
{ACAD_REACTORS
330
59FC
102
}
330
A
100
AcDbEntity
  8
CutoutUnderlay
  6
Continuous
100
AcDbCircle
 10
408.93467462184
 20
180.8480664320227
 30
0.0
 40
27.5
100
AcDbArc
 50
22.39309199486758
 51
338.6097860866306
  0
ARC
  5
560D
102
{ACAD_REACTORS
330
59FC
102
}
330
A
100
AcDbEntity
  8
CutoutUnderlay
  6
DASHED1
100
AcDbCircle
 10
408.93467462184
 20
180.8480664320227
 30
0.0
 40
27.5
100
AcDbArc
 50
338.1884107295646
 51
21.61187187501378
  0
DIMENSION
  5
58AA
330
A
100
AcDbEntity
  8
寸法
  6
Continuous
100
AcDbDimension
  2
*D39
 10
134.8812214791988
 20
139.2647026849566
 30
0.0
 11
141.6643088333742
 21
139.2647026849566
 31
0.0
 70
   160
 71
     5
 42
7.699570739085019
 73
     0
 74
     1
 75
     1
  3
tfrom線あり
100
AcDbAlignedDimension
 13
127.1816507401138
 23
153.4628469200377
 33
0.0
 14
134.8812214791988
 24
168.6679425127937
 34
0.0
100
AcDbRotatedDimension
1001
ACAD
1000
DSTYLE
1002
{
1070
   172
1070
     1
1070
   175
1070
     1
1070
   174
1070
     1
1070
     3
1000
<>
1070
   271
1070
     0
1002
}
  0
TEXT
  5
58FC
330
A
100
AcDbEntity
  8
テンプレート
100
AcDbText
 10
348.4996013140878
 20
44.82304125840494
 30
0.0
 40
4.0
  1
MIWAケース：37～54
  7
ＭＳ ゴシック
100
AcDbText
  0
TEXT
  5
58FD
330
A
100
AcDbEntity
  8
テンプレート
100
AcDbText
 10
348.2973273774884
 20
39.8279918743558
 30
0.0
 40
4.0
  1
ユーロケース(DIN規格)：36～54
  7
ＭＳ ゴシック
100
AcDbText
  0
DIMENSION
  5
5963
330
A
100
AcDbEntity
  8
寸法
  6
Continuous
100
AcDbDimension
  2
*D42
 10
112.4325120145531
 20
378.7852477434631
 30
0.0
 11
108.1825120145531
 21
378.7852477434631
 31
0.0
 70
   160
 71
     5
 42
8.5
 73
     0
 74
     0
 75
     0
  3
tfrom線あり
100
AcDbAlignedDimension
 13
103.9325120145531
 23
367.0686993856673
 33
0.0
 14
112.4325120145531
 24
367.0686993856673
 34
0.0
100
AcDbRotatedDimension
1001
ACAD
1000
DSTYLE
1002
{
1070
   271
1070
     1
1002
}
  0
LINE
  5
5966
330
A
100
AcDbEntity
  8
MODEL
  6
Continuous
100
AcDbLine
 10
110.6317432308796
 20
354.7335990428101
 30
0.0
 11
105.7332807982266
 21
354.7335990428101
 31
0.0
  0
LINE
  5
5967
330
A
100
AcDbEntity
  8
MODEL
  6
Continuous
100
AcDbLine
 10
112.4325120145531
 20
348.7335990428101
 30
0.0
 11
110.6317432308797
 21
354.7335990428101
 31
0.0
  0
LINE
  5
5968
330
A
100
AcDbEntity
  8
MODEL
  6
Continuous
100
AcDbLine
 10
103.9325120145531
 20
348.7335990428101
 30
0.0
 11
105.7332807982266
 21
354.7335990428101
 31
0.0
  0
DIMENSION
  5
5969
330
A
100
AcDbEntity
  8
寸法
  6
Continuous
100
AcDbDimension
  2
*D43
 10
169.1440199581582
 20
348.7335990428101
 30
0.0
 11
169.1440199581582
 21
351.7335990428101
 31
0.0
 70
   160
 71
     5
 42
5.999999999999943
 73
     0
 74
     0
 75
     0
  3
tfrom線あり
100
AcDbAlignedDimension
 13
148.7210231602584
 23
354.7335990428101
 33
0.0
 14
154.4759396838725
 24
348.7335990428101
 34
0.0
 50
90.0
100
AcDbRotatedDimension
  0
LINE
  5
596B
330
A
100
AcDbEntity
  8
MODEL
  6
Continuous
100
AcDbLine
 10
150.4325120145531
 20
348.7335990428101
 30
0.0
 11
148.6317432308797
 21
354.7335990428101
 31
0.0
  0
LINE
  5
596C
330
A
100
AcDbEntity
  8
MODEL
  6
Continuous
100
AcDbLine
 10
148.6317432308796
 20
354.7335990428101
 30
0.0
 11
143.7332807982266
 21
354.7335990428101
 31
0.0
  0
LINE
  5
596D
330
A
100
AcDbEntity
  8
MODEL
  6
Continuous
100
AcDbLine
 10
141.9325120145531
 20
348.7335990428101
 30
0.0
 11
143.7332807982266
 21
354.7335990428101
 31
0.0
  0
LINE
  5
596F
330
A
100
AcDbEntity
  8
MODEL
  6
Continuous
100
AcDbLine
 10
127.1816507401138
 20
185.1128469200377
 30
0.0
 11
121.1816507401138
 21
183.3120781363643
 31
0.0
  0
LINE
  5
5970
330
A
100
AcDbEntity
  8
MODEL
  6
Continuous
100
AcDbLine
 10
121.1816507401138
 20
183.3120781363642
 30
0.0
 11
121.1816507401138
 21
178.4136157037112
 31
0.0
  0
LINE
  5
5971
330
A
100
AcDbEntity
  8
MODEL
  6
Continuous
100
AcDbLine
 10
127.1816507401138
 20
176.6128469200377
 30
0.0
 11
121.1816507401138
 21
178.4136157037112
 31
0.0
  0
LINE
  5
59F5
330
A
100
AcDbEntity
  8
テンプレート
  6
Continuous
100
AcDbLine
 10
33.63100153769659
 20
26.22153683920783
 30
0.0
 11
33.63100153769659
 21
50.16496477419605
 31
0.0
  0
MTEXT
  5
59F7
102
{ACAD_XDICTIONARY
360
59F8
102
}
330
A
100
AcDbEntity
  8
寸法
  6
Continuous
370
     0
100
AcDbMText
 10
16.03746315898582
 20
23.37395828580276
 30
0.0
 40
4.0
 41
0.0
 46
4.0
 71
     1
 72
     1
  1
{20180416N}
  7
ＭＳ ゴシック
 73
     1
 44
1.0
1001
ACAD
1000
ACAD_MTEXT_DEFINED_HEIGHT_BEGIN
1070
    46
1040
4.0
1000
ACAD_MTEXT_DEFINED_HEIGHT_END
  0
TEXT
  5
5A3E
330
A
100
AcDbEntity
  8
テンプレート
100
AcDbText
 10
187.3255251873665
 20
95.58845453164052
 30
0.0
 40
5.0
  1
　 加工は現物合わせの上行って下さい。
  7
ＭＳ ゴシック
100
AcDbText
  0
TEXT
  5
5A3F
330
A
100
AcDbEntity
  8
テンプレート
100
AcDbText
 10
187.4977682695751
 20
103.6922386277807
 30
0.0
 40
5.0
  1
※ 輸入製品の為、国内製品と比べ製品寸法の個体差に幅が有ります。
  7
ＭＳ ゴシック
100
AcDbText
  0
TEXT
  5
5A40
330
A
100
AcDbEntity
  8
テンプレート
100
AcDbText
 10
187.3255251873665
 20
86.21682322716002
 30
0.0
 40
5.0
  1
※ ご注文の際は正確な扉厚の指示をしてください。
  7
ＭＳ ゴシック
100
AcDbText
  0
TEXT
  5
5A41
330
A
100
AcDbEntity
  8
テンプレート
100
AcDbText
 10
187.3255251873665
 20
77.5173345961741
 30
0.0
 40
5.0
  1
※ イモネジ・ビスのゆるみ止め防止のために金属製ネジ用ゆるみ止め剤(中強度タイプ)
  7
ＭＳ ゴシック
100
AcDbText
  0
TEXT
  5
5A42
330
A
100
AcDbEntity
  8
テンプレート
100
AcDbText
 10
183.5610795085161
 20
68.07646144979785
 30
0.0
 40
5.0
  1
　　を用意して塗布してください。(推奨商品　住友3M社TL42J等)
  7
ＭＳ ゴシック
100
AcDbText
  0
MTEXT
  5
5A9E
330
A
100
AcDbEntity
  8
テンプレート
390
1D
100
AcDbMText
 10
35.02123153496908
 20
34.57354675141926
 30
0.0
 40
5.0
 41
0.0
 46
5.205
 71
     1
 72
     1
  1
{アルミ}
  7
ＭＳ ゴシック
 73
     1
 44
0.7828267384257843
1001
ACAD
1000
ACAD_MTEXT_DEFINED_HEIGHT_BEGIN
1070
    46
1040
5.205
1000
ACAD_MTEXT_DEFINED_HEIGHT_END
  0
MTEXT
  5
5A9F
330
A
100
AcDbEntity
  8
テンプレート
390
1D
100
AcDbMText
 10
243.5503247464253
 20
34.57354675141926
 30
0.0
 40
5.0
 41
0.0
 46
5.075
 71
     1
 72
     1
  1
{ステンレス}
  7
ＭＳ ゴシック
 73
     1
 44
0.7828267384257843
1001
ACAD
1000
ACAD_MTEXT_DEFINED_HEIGHT_BEGIN
1070
    46
1040
5.075
1000
ACAD_MTEXT_DEFINED_HEIGHT_END
  0
MTEXT
  5
5AA0
330
A
100
AcDbEntity
  8
テンプレート
390
1D
100
AcDbMText
 10
34.78893721489681
 20
43.13396992254107
 30
0.0
 40
3.0
 41
0.0
 46
4.468
 71
     1
 72
     1
  1
{シャンパンシルバー}
  7
ＭＳ ゴシック
 73
     1
 44
0.7828267384257843
1001
ACAD
1000
ACAD_MTEXT_DEFINED_HEIGHT_BEGIN
1070
    46
1040
4.468
1000
ACAD_MTEXT_DEFINED_HEIGHT_END
  0
MTEXT
  5
5AA1
330
A
100
AcDbEntity
  8
テンプレート
390
1D
100
AcDbMText
 10
34.78893721489681
 20
48.77911613324934
 30
0.0
 40
3.0
 41
0.0
 46
4.224
 71
     1
 72
     1
  1
{ナチュラル}
  7
ＭＳ ゴシック
 73
     1
 44
0.7828267384257843
1001
ACAD
1000
ACAD_MTEXT_DEFINED_HEIGHT_BEGIN
1070
    46
1040
4.224
1000
ACAD_MTEXT_DEFINED_HEIGHT_END
  0
MTEXT
  5
5AA2
330
A
100
AcDbEntity
  8
テンプレート
390
1D
100
AcDbMText
 10
88.87425041605846
 20
43.13396992254107
 30
0.0
 40
3.0
 41
0.0
 46
4.468
 71
     1
 72
     1
  1
{ライトブロンズ}
  7
ＭＳ ゴシック
 73
     1
 44
0.7828267384257843
1001
ACAD
1000
ACAD_MTEXT_DEFINED_HEIGHT_BEGIN
1070
    46
1040
4.468
1000
ACAD_MTEXT_DEFINED_HEIGHT_END
  0
MTEXT
  5
5AA3
330
A
100
AcDbEntity
  8
テンプレート
390
1D
100
AcDbMText
 10
88.87425041605846
 20
48.77911613324933
 30
0.0
 40
3.0
 41
0.0
 46
4.468
 71
     1
 72
     1
  1
{ゴールドブラスト}
  7
ＭＳ ゴシック
 73
     1
 44
0.7828267384257843
1001
ACAD
1000
ACAD_MTEXT_DEFINED_HEIGHT_BEGIN
1070
    46
1040
4.468
1000
ACAD_MTEXT_DEFINED_HEIGHT_END
  0
MTEXT
  5
5AA4
330
A
100
AcDbEntity
  8
テンプレート
390
1D
100
AcDbMText
 10
139.8343001147318
 20
43.13396992254113
 30
0.0
 40
3.0
 41
0.0
 46
4.468
 71
     1
 72
     1
  1
{ダークブロンズ}
  7
ＭＳ ゴシック
 73
     1
 44
0.7828267384257843
1001
ACAD
1000
ACAD_MTEXT_DEFINED_HEIGHT_BEGIN
1070
    46
1040
4.468
1000
ACAD_MTEXT_DEFINED_HEIGHT_END
  0
MTEXT
  5
5AA5
330
A
100
AcDbEntity
  8
テンプレート
390
1D
100
AcDbMText
 10
139.8343001147318
 20
48.77911613324939
 30
0.0
 40
3.0
 41
0.0
 46
4.468
 71
     1
 72
     1
  1
{ミディアムブロンズ}
  7
ＭＳ ゴシック
 73
     1
 44
0.7828267384257843
1001
ACAD
1000
ACAD_MTEXT_DEFINED_HEIGHT_BEGIN
1070
    46
1040
4.468
1000
ACAD_MTEXT_DEFINED_HEIGHT_END
  0
MTEXT
  5
5AA6
330
A
100
AcDbEntity
  8
テンプレート
390
1D
100
AcDbMText
 10
194.0581809025754
 20
48.77911613324942
 30
0.0
 40
3.0
 41
0.0
 46
4.468
 71
     1
 72
     1
  1
{ブラックブラスト}
  7
ＭＳ ゴシック
 73
     1
 44
0.7828267384257843
1001
ACAD
1000
ACAD_MTEXT_DEFINED_HEIGHT_BEGIN
1070
    46
1040
4.468
1000
ACAD_MTEXT_DEFINED_HEIGHT_END
  0
LINE
  5
5AA7
330
A
100
AcDbEntity
  8
テンプレート
  6
Continuous
100
AcDbLine
 10
191.6929578215278
 20
50.16496477419608
 30
0.0
 11
191.6929578215278
 21
38.278108904221
 31
0.0
  0
LINE
  5
5AA8
330
A
100
AcDbEntity
  8
テンプレート
  6
Continuous
100
AcDbLine
 10
137.2622548266091
 20
50.16496477419606
 30
0.0
 11
137.2622548266091
 21
38.27810890422099
 31
0.0
  0
LINE
  5
5AA9
330
A
100
AcDbEntity
  8
テンプレート
  6
Continuous
100
AcDbLine
 10
86.44498978318508
 20
50.16496477419605
 30
0.0
 11
86.44498978318518
 21
38.27810890422097
 31
0.0
  0
LINE
  5
5AAA
330
A
100
AcDbEntity
  8
テンプレート
  6
Continuous
100
AcDbLine
 10
332.4490181818181
 20
44.22153683920783
 30
0.0
 11
33.63100153769662
 21
44.22153683920783
 31
0.0
  0
LINE
  5
5AAB
330
A
100
AcDbEntity
  8
テンプレート
  6
Continuous
100
AcDbLine
 10
241.5029147091358
 20
50.16496477419611
 30
0.0
 11
241.5029147091358
 21
26.22153683920783
 31
0.0
  0
MTEXT
  5
5AAC
330
A
100
AcDbEntity
  8
テンプレート
390
1D
100
AcDbMText
 10
243.8681377901834
 20
48.77911613324945
 30
0.0
 40
3.0
 41
0.0
 46
3.138
 71
     1
 72
     1
  1
{サテン}
  7
ＭＳ ゴシック
 73
     1
 44
0.7828267384257843
1001
ACAD
1000
ACAD_MTEXT_DEFINED_HEIGHT_BEGIN
1070
    46
1040
3.138
1000
ACAD_MTEXT_DEFINED_HEIGHT_END
  0
MTEXT
  5
5AAD
330
A
100
AcDbEntity
  8
テンプレート
390
1D
100
AcDbMText
 10
243.8681377901834
 20
42.83568819826117
 30
0.0
 40
3.0
 41
0.0
 46
3.258
 71
     1
 72
     1
  1
{ポリッシュ}
  7
ＭＳ ゴシック
 73
     1
 44
0.7828267384257843
1001
ACAD
1000
ACAD_MTEXT_DEFINED_HEIGHT_BEGIN
1070
    46
1040
3.258
1000
ACAD_MTEXT_DEFINED_HEIGHT_END
  0
LINE
  5
5ABA
330
A
100
AcDbEntity
  8
テンプレート
  6
Continuous
100
AcDbLine
 10
285.590602146909
 20
50.16496477419605
 30
0.0
 11
285.590602146909
 21
26.22153683920777
 31
0.0
  0
MTEXT
  5
5ABB
330
A
100
AcDbEntity
  8
テンプレート
390
1D
100
AcDbMText
 10
287.6380121841985
 20
34.5735467514192
 30
0.0
 40
5.0
 41
0.0
 46
5.535
 71
     1
 72
     1
  1
{銅}
  7
ＭＳ ゴシック
 73
     1
 44
0.7828267384257843
1001
ACAD
1000
ACAD_MTEXT_DEFINED_HEIGHT_BEGIN
1070
    46
1040
5.535
1000
ACAD_MTEXT_DEFINED_HEIGHT_END
  0
MTEXT
  5
5ABC
330
A
100
AcDbEntity
  8
テンプレート
390
1D
100
AcDbMText
 10
287.9558252279566
 20
48.7791161332494
 30
0.0
 40
3.0
 41
0.0
 46
3.045
 71
     1
 72
     1
  1
{ライトワックス}
  7
ＭＳ ゴシック
 73
     1
 44
0.7828267384257843
1001
ACAD
1000
ACAD_MTEXT_DEFINED_HEIGHT_BEGIN
1070
    46
1040
3.045
1000
ACAD_MTEXT_DEFINED_HEIGHT_END
  0
DIMENSION
  5
5AC4
330
A
100
AcDbEntity
  8
寸法
  6
Continuous
100
AcDbDimension
  2
*D44
 10
536.7172596363636
 20
311.33359904281
 30
0.0
 11
532.2172596363636
 21
321.33359904281
 31
0.0
 70
    32
 71
     5
 42
20.0
 73
     0
 74
     0
 75
     0
  3
tfrom線あり
100
AcDbAlignedDimension
 13
516.4606778181817
 23
331.33359904281
 33
0.0
 14
516.4606778181817
 24
311.33359904281
 34
0.0
 50
90.0
100
AcDbRotatedDimension
1001
ACAD
1000
DSTYLE
1002
{
1070
   144
1040
1.0
1002
}
  0
VIEWPORT
  5
349
330
B
100
AcDbEntity
 67
     1
  8
0
100
AcDbViewport
 10
202.5
 20
128.5
 30
0.0
 40
486.0
 41
308.4
 68
     1
 69
     1
 12
202.5
 22
128.5
 13
0.0
 23
0.0
 14
0.5
 24
0.5
 15
0.0
 25
0.0
 16
0.0
 26
0.0
 36
1.0
 17
0.0
 27
0.0
 37
0.0
 42
50.0
 43
0.0
 44
0.0
 45
308.4
 50
0.0
 51
0.0
 72
   100
 90
   557152
  1

281
     0
 71
     1
 74
     0
110
0.0
120
0.0
130
0.0
111
1.0
121
0.0
131
0.0
112
0.0
122
1.0
132
0.0
 79
     0
146
0.0
170
     0
 61
     5
348
26C
292
     1
282
     1
141
0.0
142
0.0
 63
   256
361
44F1
  0
VIEWPORT
  5
34A
330
B
100
AcDbEntity
 67
     1
  8
0
100
AcDbViewport
 10
202.5
 20
128.5
 30
0.0
 40
324.0
 41
205.6
 68
     2
 69
     2
 12
986.6781359294573
 22
1427.077061889956
 13
0.0
 23
0.0
 14
0.5
 24
0.5
 15
0.0
 25
0.0
 16
0.0
 26
0.0
 36
1.0
 17
0.0
 27
0.0
 37
0.0
 42
50.0
 43
0.0
 44
0.0
 45
2890.021615685494
 50
0.0
 51
0.0
 72
   100
 90
   557152
  1

281
     0
 71
     1
 74
     0
110
0.0
120
0.0
130
0.0
111
1.0
121
0.0
131
0.0
112
0.0
122
1.0
132
0.0
 79
     0
146
0.0
170
     0
 61
     5
348
26C
292
     1
282
     1
141
0.0
142
0.0
 63
   256
  0
ENDSEC
  0
SECTION
  2
OBJECTS
  0
DICTIONARY
  5
19
330
0
100
AcDbDictionary
281
     1
  3
ACAD_COLOR
350
674
  3
ACAD_DETAILVIEWSTYLE
350
13B5
  3
ACAD_FIELDLIST
350
59E4
  3
ACAD_GROUP
350
1A
  3
ACAD_IMAGE_VARS
350
27B
  3
ACAD_LAYOUT
350
1E
  3
ACAD_MATERIAL
350
263
  3
ACAD_MLEADERSTYLE
350
336
  3
ACAD_MLINESTYLE
350
1B
  3
ACAD_PLOTSETTINGS
350
22
  3
ACAD_PLOTSTYLENAME
350
1F
  3
ACAD_SCALELIST
350
241
  3
ACAD_SECTIONVIEWSTYLE
350
13B6
  3
ACAD_TABLESTYLE
350
278
  3
ACAD_VISUALSTYLE
350
267
  3
ACDB_RECOMPOSE_DATA
350
5AD9
  3
AcDbVariableDictionary
350
330
  3
APPDATA
350
27A
  0
SUN
  5
F1A
330
15
100
AcDbSun
 90
        1
290
     0
 63
     7
421
 16777215
 40
1.0
291
     1
 91
  2455826
 92
 54000000
292
     0
 70
     2
 71
   256
280
     1
  0
DICTIONARY
  5
2E1
330
2
100
AcDbDictionary
280
     1
281
     1
  3
ACAD_LAYERSTATES
360
2E2
  3
ACLYDICTIONARY
360
5173
  0
DICTIONARY
  5
59FD
330
A
100
AcDbDictionary
280
     1
281
     1
  3
ACAD_SORTENTS
360
59FE
  0
DICTIONARY
  5
50CD
330
50CC
100
AcDbDictionary
280
     1
281
     1
  3
ACAD_DIMASSOC
360
50CE
  0
DICTIONARY
  5
55CC
330
55CB
100
AcDbDictionary
280
     1
281
     1
  3
ACAD_DIMASSOC
360
55CD
  0
DICTIONARY
  5
55CF
330
55CE
100
AcDbDictionary
280
     1
281
     1
  3
ACAD_DIMASSOC
360
55D0
  0
DICTIONARY
  5
59F8
330
59F7
100
AcDbDictionary
280
     1
281
     1
  3
ACAD_FIELD
360
59F9
  0
SUN
  5
44F1
330
349
100
AcDbSun
 90
        1
290
     0
 63
     7
421
 16777215
 40
1.0
291
     1
 91
  2455826
 92
 54000000
292
     0
 70
     2
 71
   256
280
     1
  0
DICTIONARY
  5
674
102
{ACAD_REACTORS
330
19
102
}
330
19
100
AcDbDictionary
281
     1
  0
DICTIONARY
  5
13B5
102
{ACAD_REACTORS
330
19
102
}
330
19
100
AcDbDictionary
281
     1
  0
FIELDLIST
  5
59E4
102
{ACAD_REACTORS
330
19
102
}
330
19
100
AcDbIdSet
 90
        1
330
59FA
100
AcDbFieldList
  0
DICTIONARY
  5
1A
102
{ACAD_REACTORS
330
19
102
}
330
19
100
AcDbDictionary
281
     1
  3
*A1
350
59FC
  0
RASTERVARIABLES
  5
27B
102
{ACAD_REACTORS
330
19
102
}
330
19
100
AcDbRasterVariables
 90
        0
 70
     1
 71
     1
 72
     1
  0
DICTIONARY
  5
1E
102
{ACAD_REACTORS
330
19
102
}
330
19
100
AcDbDictionary
281
     1
  3
Layout1
350
21
  3
Model
350
20
  0
DICTIONARY
  5
263
102
{ACAD_REACTORS
330
19
102
}
330
19
100
AcDbDictionary
281
     1
  3
ByBlock
350
518C
  3
ByLayer
350
264
  3
Global
350
266
  0
DICTIONARY
  5
336
102
{ACAD_REACTORS
330
19
102
}
330
19
100
AcDbDictionary
281
     1
  3
Standard
350
5908
  0
DICTIONARY
  5
1B
102
{ACAD_REACTORS
330
19
102
}
330
19
100
AcDbDictionary
281
     1
  3
Standard
350
1C
  0
DICTIONARY
  5
22
102
{ACAD_REACTORS
330
19
102
}
330
19
100
AcDbDictionary
281
     1
  0
ACDBDICTIONARYWDFLT
  5
1F
102
{ACAD_REACTORS
330
19
102
}
330
19
100
AcDbDictionary
281
     1
  3
Normal
350
1D
100
AcDbDictionaryWithDefault
340
1D
  0
DICTIONARY
  5
241
102
{ACAD_REACTORS
330
19
102
}
330
19
100
AcDbDictionary
281
     1
  3
A0
350
242
  3
A1
350
243
  3
A2
350
244
  3
A3
350
245
  3
A4
350
246
  3
A5
350
247
  3
A6
350
248
  3
A7
350
249
  3
A8
350
24A
  3
A9
350
24B
  3
B0
350
24C
  3
B1
350
24D
  3
B2
350
24E
  3
B3
350
24F
  3
B4
350
250
  3
B5
350
251
  3
B6
350
252
  3
B7
350
253
  3
B8
350
254
  3
B9
350
255
  3
C0
350
256
  3
C1
350
257
  3
C2
350
258
  3
C3
350
259
  3
C4
350
25A
  3
C5
350
25B
  3
C6
350
25C
  3
C7
350
25D
  3
C8
350
25E
  3
C9
350
25F
  3
D0
350
260
  3
D1
350
261
  3
D2
350
262
  0
DICTIONARY
  5
13B6
102
{ACAD_REACTORS
330
19
102
}
330
19
100
AcDbDictionary
281
     1
  0
DICTIONARY
  5
278
102
{ACAD_REACTORS
330
19
102
}
330
19
100
AcDbDictionary
281
     1
  3
Standard
350
279
  0
DICTIONARY
  5
267
102
{ACAD_REACTORS
330
19
102
}
330
19
100
AcDbDictionary
281
     1
  3
2dWireframe
350
26C
  3
3D Hidden
350
26E
  3
3dWireframe
350
26D
  3
Basic
350
26F
  3
Brighten
350
273
  3
ColorChange
350
277
  3
Conceptual
350
271
  3
Dim
350
272
  3
EdgeColorOff
350
F14
  3
Facepattern
350
276
  3
Flat
350
268
  3
FlatWithEdges
350
269
  3
Gouraud
350
26A
  3
GouraudWithEdges
350
26B
  3
Hidden
350
F11
  3
JitterOff
350
F12
  3
Linepattern
350
275
  3
OverhangOff
350
F13
  3
Realistic
350
270
  3
Shaded
350
F19
  3
Shaded with edges
350
F18
  3
Shades of Gray
350
F15
  3
Sketchy
350
F16
  3
Thicken
350
274
  3
Wireframe
350
F10
  3
X-Ray
350
F17
  0
XRECORD
  5
5AD9
102
{ACAD_REACTORS
330
19
102
}
330
19
100
AcDbXrecord
280
     1
 90
        1
330
279
  0
DICTIONARY
  5
330
102
{ACAD_REACTORS
330
19
102
}
330
19
100
AcDbDictionary
281
     1
  3
CANNOSCALE
350
331
  3
CMLEADERSTYLE
350
598D
  3
CTABLESTYLE
350
335
  3
HPTRANSPARENCY
350
528A
  3
XCLIPFRAME
350
13B4
  0
DICTIONARY
  5
27A
102
{ACAD_REACTORS
330
19
102
}
330
19
100
AcDbDictionary
281
     1
  0
DICTIONARY
  5
2E2
102
{ACAD_REACTORS
330
2E1
102
}
330
2E1
100
AcDbDictionary
281
     1
  0
DICTIONARY
  5
5173
102
{ACAD_REACTORS
330
2E1
102
}
330
2E1
100
AcDbDictionary
281
     1
1001
ACAD
1000
<All
  0
SORTENTSTABLE
  5
59FE
102
{ACAD_REACTORS
330
59FD
102
}
330
59FD
100
AcDbSortentsTable
330
A
331
0
  5
54C5
331
1301
  5
135B
331
1306
  5
1371
331
1307
  5
1372
331
1308
  5
1378
331
1312
  5
1379
331
1313
  5
1389
331
131E
  5
138A
331
131F
  5
138D
331
1342
  5
138E
331
1343
  5
1398
331
1346
  5
1399
331
1347
  5
139C
331
1350
  5
139D
331
1351
  5
4967
331
1357
  5
4968
331
1359
  5
4976
331
135A
  5
4980
331
135B
  5
499D
331
1371
  5
499E
331
1372
  5
4A6C
331
1378
  5
4A99
331
1379
  5
4AD2
331
1389
  5
4CC1
331
138A
  5
4ECE
331
138D
  5
4ECF
331
138E
  5
4EF1
331
1398
  5
5004
331
1399
  5
5005
331
139C
  5
5006
331
139D
  5
5007
331
4967
  5
5008
331
4968
  5
5009
331
4976
  5
500A
331
4980
  5
500B
331
499D
  5
500C
331
499E
  5
500D
331
4A6C
  5
500E
331
4A99
  5
500F
331
4AD2
  5
5010
331
4CC1
  5
5011
331
4ECE
  5
5012
331
4ECF
  5
5013
331
4EF1
  5
5014
331
5004
  5
5015
331
5005
  5
5016
331
5006
  5
5017
331
5007
  5
5018
331
5008
  5
5019
331
5009
  5
501A
331
500A
  5
501B
331
500B
  5
501C
331
500C
  5
501D
331
500D
  5
501E
331
500E
  5
501F
331
500F
  5
5020
331
5010
  5
5021
331
5011
  5
5022
331
5012
  5
5023
331
5013
  5
5024
331
5014
  5
5025
331
5015
  5
5026
331
5016
  5
5027
331
5017
  5
5028
331
5018
  5
5029
331
5019
  5
502A
331
501A
  5
502B
331
501B
  5
502C
331
501C
  5
502D
331
501D
  5
502E
331
501E
  5
502F
331
501F
  5
5030
331
5020
  5
5031
331
5021
  5
5032
331
5022
  5
5033
331
5023
  5
5034
331
5024
  5
5035
331
5025
  5
5036
331
5026
  5
5037
331
5027
  5
5038
331
5028
  5
5039
331
5029
  5
503A
331
502A
  5
503B
331
502B
  5
503C
331
502C
  5
503D
331
502D
  5
503E
331
502E
  5
503F
331
502F
  5
5040
331
5030
  5
5041
331
5031
  5
5042
331
5032
  5
5043
331
5033
  5
5044
331
5034
  5
5045
331
5035
  5
5046
331
5036
  5
5047
331
5037
  5
5048
331
5038
  5
5049
331
5039
  5
504A
331
503A
  5
504B
331
503B
  5
504C
331
503C
  5
504D
331
503D
  5
504E
331
503E
  5
504F
331
503F
  5
5050
331
5040
  5
5051
331
5041
  5
5052
331
5042
  5
5053
331
5043
  5
50CC
331
5044
  5
54A0
331
5045
  5
54A1
331
5046
  5
54A2
331
5047
  5
54A3
331
5048
  5
54A4
331
5049
  5
54A5
331
504A
  5
54A6
331
504B
  5
54A7
331
504C
  5
54A8
331
504D
  5
54A9
331
504E
  5
54AA
331
504F
  5
54AB
331
5050
  5
54AC
331
5051
  5
54AD
331
5052
  5
54AE
331
5053
  5
54AF
331
50CC
  5
54B0
331
54A0
  5
54B1
331
54A1
  5
54B2
331
54A2
  5
54B3
331
54A3
  5
54B4
331
54A4
  5
54B5
331
54A5
  5
54B6
331
54A6
  5
54B7
331
54A7
  5
54B8
331
54A8
  5
54B9
331
54A9
  5
54BA
331
54AA
  5
54BB
331
54AB
  5
54BC
331
54AC
  5
54BD
331
54AD
  5
54BE
331
54AE
  5
54BF
331
54AF
  5
54C0
331
54B0
  5
54C1
331
54B1
  5
54C2
331
54B2
  5
54C3
331
54B3
  5
54C4
331
54B5
  5
54C6
331
54B6
  5
5528
331
54B7
  5
5529
331
54B8
  5
552A
331
54B9
  5
552B
331
54BA
  5
552C
331
54BB
  5
552D
331
54BC
  5
5542
331
54BD
  5
5543
331
54BE
  5
5544
331
54BF
  5
5545
331
54C0
  5
5546
331
54C1
  5
5547
331
54C2
  5
55C6
331
54C3
  5
55C7
331
54C4
  5
55C8
331
54C5
  5
55CA
331
54C6
  5
55CB
331
5528
  5
55CE
331
5529
  5
55D1
331
552A
  5
55D2
331
552B
  5
55D3
331
552C
  5
55D4
331
552D
  5
55D7
331
5542
  5
55FC
331
5543
  5
55FD
331
5544
  5
55FE
331
5545
  5
55FF
331
5546
  5
5600
331
5547
  5
5601
331
55C6
  5
5602
331
55C7
  5
5603
331
55C8
  5
5604
331
55CA
  5
5605
331
55CB
  5
5606
331
55CE
  5
5607
331
55D1
  5
5608
331
55D2
  5
5609
331
55D3
  5
560A
331
55D4
  5
560B
331
55D7
  5
560C
331
55FC
  5
1301
331
55FD
  5
1306
331
55FE
  5
1307
331
55FF
  5
1308
331
5600
  5
1312
331
5601
  5
1313
331
5603
  5
131E
331
5604
  5
131F
331
5605
  5
1342
331
5606
  5
1343
331
5607
  5
1346
331
5608
  5
1347
331
5609
  5
1350
331
560A
  5
1351
331
560B
  5
1357
331
560C
  5
1359
331
560D
  5
135A
  0
DIMASSOC
  5
50CE
102
{ACAD_REACTORS
330
50CD
102
}
330
50CD
100
AcDbDimAssoc
330
50CC
 90
        3
 70
     0
 71
     1
  1
AcDbOsnapPointRef
 72
     1
331
5028
 73
     0
 91
        0
 40
0.0
 10
0.0
 20
0.0
 30
0.0
 75
     0
  1
AcDbOsnapPointRef
 72
     1
331
502C
 73
     0
 91
        0
 40
0.0
 10
0.0
 20
0.0
 30
0.0
 75
     0
  0
DIMASSOC
  5
55CD
102
{ACAD_REACTORS
330
55CC
102
}
330
55CC
100
AcDbDimAssoc
330
55CB
 90
        1
 70
     0
 71
     1
  1
AcDbOsnapPointRef
 72
     5
331
5544
 73
     0
 91
        0
 40
1.570796326794897
 10
0.0
 20
0.0
 30
0.0
 75
     0
  0
DIMASSOC
  5
55D0
102
{ACAD_REACTORS
330
55CF
102
}
330
55CF
100
AcDbDimAssoc
330
55CE
 90
        1
 70
     0
 71
     1
  1
AcDbOsnapPointRef
 72
     3
331
5544
 73
     0
 91
        0
 40
0.0
 10
0.0
 20
0.0
 30
0.0
 75
     0
  0
DICTIONARY
  5
59F9
102
{ACAD_REACTORS
330
59F8
102
}
330
59F8
100
AcDbDictionary
280
     1
281
     1
  3
TEXT
360
59FA
  0
GROUP
  5
59FC
102
{ACAD_REACTORS
330
1A
102
}
330
1A
100
AcDbGroup
300

 70
     1
 71
     1
340
55FC
340
55FD
340
55FE
340
55FF
340
5600
340
5601
340
5603
340
5604
340
5605
340
5606
340
5607
340
5608
340
560A
340
560B
340
560C
340
560D
340
5609
  0
LAYOUT
  5
21
102
{ACAD_REACTORS
330
1E
102
}
330
1E
100
AcDbPlotSettings
  1

  2
none_device
  4
ISO_A3_(420.00_x_297.00_MM)
  6

 40
7.5
 41
20.0
 42
7.5
 43
20.0
 44
420.0
 45
297.0
 46
0.0
 47
0.0
 48
0.0
 49
0.0
140
0.0
141
0.0
142
1.0
143
1.0
 70
     0
 72
     1
 73
     0
 74
     0
  7

 75
     0
 76
     0
 77
     2
 78
   300
147
1.0
148
0.0
149
0.0
100
AcDbLayout
  1
Layout1
 70
     1
 71
     0
 10
-7.5
 20
-20.0
 11
412.5
 21
277.0
 12
0.0
 22
0.0
 32
0.0
 14
0.0
 24
0.0
 34
0.0
 15
0.0
 25
0.0
 35
0.0
146
0.0
 13
0.0
 23
0.0
 33
0.0
 16
0.0
 26
0.0
 36
0.0
 17
0.0
 27
0.0
 37
0.0
 76
     0
330
B
331
349
  0
LAYOUT
  5
20
102
{ACAD_REACTORS
330
1E
102
}
330
1E
100
AcDbPlotSettings
  1

  2
none_device
  4
ISO_A3_(420.00_x_297.00_MM)
  6

 40
7.5
 41
20.0
 42
7.5
 43
20.0
 44
420.0
 45
297.0
 46
0.0
 47
0.0
 48
0.0
 49
0.0
140
0.0
141
0.0
142
1.0
143
1.0
 70
  1024
 72
     1
 73
     0
 74
     0
  7

 75
     0
 76
     0
 77
     2
 78
   300
147
1.0
148
0.0
149
0.0
100
AcDbLayout
  1
Model
 70
     0
 71
     1
 10
0.0
 20
0.0
 11
594.0
 21
419.9999999999996
 12
0.0
 22
0.0
 32
0.0
 14
0.0
 24
0.0
 34
0.0
 15
593.9999999999999
 25
420.0
 35
0.0
146
0.0
 13
0.0
 23
0.0
 33
0.0
 16
0.0
 26
0.0
 36
0.0
 17
0.0
 27
0.0
 37
0.0
 76
     0
330
A
331
15
  0
MATERIAL
  5
518C
102
{ACAD_REACTORS
330
263
102
}
330
263
100
AcDbMaterial
  1
ByBlock
 72
     1
 94
      127
  0
MATERIAL
  5
264
102
{ACAD_REACTORS
330
263
102
}
330
263
100
AcDbMaterial
  1
ByLayer
 72
     1
 94
      127
  0
MATERIAL
  5
266
102
{ACAD_REACTORS
330
263
102
}
330
263
100
AcDbMaterial
  1
Global
 72
     1
 94
      127
  0
MLEADERSTYLE
  5
5908
102
{ACAD_REACTORS
330
336
102
}
330
336
100
AcDbMLeaderStyle
170
     2
171
     1
172
     0
 90
        2
 40
0.0
 41
0.0
173
     1
 91
-1056964608
340
11
 92
       -2
290
     1
 42
2.0
291
     1
 43
8.0
  3
Standard
341
0
 44
4.0
300

342
17
174
     1
178
     6
175
     1
176
     0
 93
-1056964608
 45
4.0
292
     0
297
     0
 46
4.0
343
0
 94
-1056964608
 47
1.0
 49
1.0
140
1.0
293
     1
141
0.0
294
     1
177
     0
142
1.0
295
     0
296
     0
143
3.75
1001
ACAD_MLEADERVER
1070
     2
  0
MLINESTYLE
  5
1C
102
{ACAD_REACTORS
330
1B
102
}
330
1B
100
AcDbMlineStyle
  2
Standard
 70
     0
  3

 62
     0
 51
90.0
 52
90.0
 71
     2
 49
0.5
 62
   256
  6
BYLAYER
 49
-0.5
 62
   256
  6
BYLAYER
  0
ACDBPLACEHOLDER
  5
1D
102
{ACAD_REACTORS
330
1F
102
}
330
1F
  0
SCALE
  5
242
102
{ACAD_REACTORS
330
241
102
}
330
241
100
AcDbScale
 70
     0
300
1:1
140
1.0
141
1.0
290
     1
  0
SCALE
  5
243
102
{ACAD_REACTORS
330
241
102
}
330
241
100
AcDbScale
 70
     0
300
1:2
140
1.0
141
2.0
290
     0
  0
SCALE
  5
244
102
{ACAD_REACTORS
330
241
102
}
330
241
100
AcDbScale
 70
     0
300
1:4
140
1.0
141
4.0
290
     0
  0
SCALE
  5
245
102
{ACAD_REACTORS
330
241
102
}
330
241
100
AcDbScale
 70
     0
300
1:5
140
1.0
141
5.0
290
     0
  0
SCALE
  5
246
102
{ACAD_REACTORS
330
241
102
}
330
241
100
AcDbScale
 70
     0
300
1:8
140
1.0
141
8.0
290
     0
  0
SCALE
  5
247
102
{ACAD_REACTORS
330
241
102
}
330
241
100
AcDbScale
 70
     0
300
1:10
140
1.0
141
10.0
290
     0
  0
SCALE
  5
248
102
{ACAD_REACTORS
330
241
102
}
330
241
100
AcDbScale
 70
     0
300
1:16
140
1.0
141
16.0
290
     0
  0
SCALE
  5
249
102
{ACAD_REACTORS
330
241
102
}
330
241
100
AcDbScale
 70
     0
300
1:20
140
1.0
141
20.0
290
     0
  0
SCALE
  5
24A
102
{ACAD_REACTORS
330
241
102
}
330
241
100
AcDbScale
 70
     0
300
1:30
140
1.0
141
30.0
290
     0
  0
SCALE
  5
24B
102
{ACAD_REACTORS
330
241
102
}
330
241
100
AcDbScale
 70
     0
300
1:40
140
1.0
141
40.0
290
     0
  0
SCALE
  5
24C
102
{ACAD_REACTORS
330
241
102
}
330
241
100
AcDbScale
 70
     0
300
1:50
140
1.0
141
50.0
290
     0
  0
SCALE
  5
24D
102
{ACAD_REACTORS
330
241
102
}
330
241
100
AcDbScale
 70
     0
300
1:100
140
1.0
141
100.0
290
     0
  0
SCALE
  5
24E
102
{ACAD_REACTORS
330
241
102
}
330
241
100
AcDbScale
 70
     0
300
2:1
140
2.0
141
1.0
290
     0
  0
SCALE
  5
24F
102
{ACAD_REACTORS
330
241
102
}
330
241
100
AcDbScale
 70
     0
300
4:1
140
4.0
141
1.0
290
     0
  0
SCALE
  5
250
102
{ACAD_REACTORS
330
241
102
}
330
241
100
AcDbScale
 70
     0
300
8:1
140
8.0
141
1.0
290
     0
  0
SCALE
  5
251
102
{ACAD_REACTORS
330
241
102
}
330
241
100
AcDbScale
 70
     0
300
10:1
140
10.0
141
1.0
290
     0
  0
SCALE
  5
252
102
{ACAD_REACTORS
330
241
102
}
330
241
100
AcDbScale
 70
     0
300
100:1
140
100.0
141
1.0
290
     0
  0
SCALE
  5
253
102
{ACAD_REACTORS
330
241
102
}
330
241
100
AcDbScale
 70
     0
300
1/128" = 1'-0"
140
0.0078125
141
12.0
290
     0
  0
SCALE
  5
254
102
{ACAD_REACTORS
330
241
102
}
330
241
100
AcDbScale
 70
     0
300
1/64" = 1'-0"
140
0.015625
141
12.0
290
     0
  0
SCALE
  5
255
102
{ACAD_REACTORS
330
241
102
}
330
241
100
AcDbScale
 70
     0
300
1/32" = 1'-0"
140
0.03125
141
12.0
290
     0
  0
SCALE
  5
256
102
{ACAD_REACTORS
330
241
102
}
330
241
100
AcDbScale
 70
     0
300
1/16" = 1'-0"
140
0.0625
141
12.0
290
     0
  0
SCALE
  5
257
102
{ACAD_REACTORS
330
241
102
}
330
241
100
AcDbScale
 70
     0
300
3/32" = 1'-0"
140
0.09375
141
12.0
290
     0
  0
SCALE
  5
258
102
{ACAD_REACTORS
330
241
102
}
330
241
100
AcDbScale
 70
     0
300
1/8" = 1'-0"
140
0.125
141
12.0
290
     0
  0
SCALE
  5
259
102
{ACAD_REACTORS
330
241
102
}
330
241
100
AcDbScale
 70
     0
300
3/16" = 1'-0"
140
0.1875
141
12.0
290
     0
  0
SCALE
  5
25A
102
{ACAD_REACTORS
330
241
102
}
330
241
100
AcDbScale
 70
     0
300
1/4" = 1'-0"
140
0.25
141
12.0
290
     0
  0
SCALE
  5
25B
102
{ACAD_REACTORS
330
241
102
}
330
241
100
AcDbScale
 70
     0
300
3/8" = 1'-0"
140
0.375
141
12.0
290
     0
  0
SCALE
  5
25C
102
{ACAD_REACTORS
330
241
102
}
330
241
100
AcDbScale
 70
     0
300
1/2" = 1'-0"
140
0.5
141
12.0
290
     0
  0
SCALE
  5
25D
102
{ACAD_REACTORS
330
241
102
}
330
241
100
AcDbScale
 70
     0
300
3/4" = 1'-0"
140
0.75
141
12.0
290
     0
  0
SCALE
  5
25E
102
{ACAD_REACTORS
330
241
102
}
330
241
100
AcDbScale
 70
     0
300
1" = 1'-0"
140
1.0
141
12.0
290
     0
  0
SCALE
  5
25F
102
{ACAD_REACTORS
330
241
102
}
330
241
100
AcDbScale
 70
     0
300
1-1/2" = 1'-0"
140
1.5
141
12.0
290
     0
  0
SCALE
  5
260
102
{ACAD_REACTORS
330
241
102
}
330
241
100
AcDbScale
 70
     0
300
3" = 1'-0"
140
3.0
141
12.0
290
     0
  0
SCALE
  5
261
102
{ACAD_REACTORS
330
241
102
}
330
241
100
AcDbScale
 70
     0
300
6" = 1'-0"
140
6.0
141
12.0
290
     0
  0
SCALE
  5
262
102
{ACAD_REACTORS
330
241
102
}
330
241
100
AcDbScale
 70
     0
300
1'-0" = 1'-0"
140
12.0
141
12.0
290
     0
  0
TABLESTYLE
  5
279
102
{ACAD_REACTORS
330
278
102
}
102
{ACAD_XDICTIONARY
360
5AD7
102
}
330
278
100
AcDbTableStyle
  3
Standard
 70
     0
 71
     0
 40
0.06
 41
0.06
280
     0
281
     0
  7
Standard
140
4.5
170
     2
 62
     0
 63
   257
283
     0
 90
        4
 91
        0
  1

274
    -2
284
     1
 64
     0
275
    -2
285
     1
 65
     0
276
    -2
286
     1
 66
     0
277
    -2
287
     1
 67
     0
278
    -2
288
     1
 68
     0
279
    -2
289
     1
 69
     0
  7
Standard
140
6.0
170
     5
 62
     0
 63
   257
283
     0
 90
        4
 91
        0
  1

274
    -2
284
     1
 64
     0
275
    -2
285
     1
 65
     0
276
    -2
286
     1
 66
     0
277
    -2
287
     1
 67
     0
278
    -2
288
     1
 68
     0
279
    -2
289
     1
 69
     0
  7
Standard
140
4.5
170
     5
 62
     0
 63
   257
283
     0
 90
        4
 91
        0
  1

274
    -2
284
     1
 64
     0
275
    -2
285
     1
 65
     0
276
    -2
286
     1
 66
     0
277
    -2
287
     1
 67
     0
278
    -2
288
     1
 68
     0
279
    -2
289
     1
 69
     0
  0
VISUALSTYLE
  5
26C
102
{ACAD_REACTORS
330
267
102
}
330
267
100
AcDbVisualStyle
  2
2dWireframe
 70
     4
 71
     0
 72
     2
 73
     0
 90
        0
 40
-0.6
 41
-30.0
 62
     5
 63
     7
421
 16777215
 74
     1
 91
        4
 64
     7
 65
   257
 75
     1
175
     1
 42
1.0
 92
        0
 66
   257
 43
1.0
 76
     1
 77
     6
 78
     2
 67
     7
 79
     5
170
     0
171
     0
290
     0
174
     0
 93
        1
 44
0.0
173
     0
291
     0
 45
0.0
  0
VISUALSTYLE
  5
26E
102
{ACAD_REACTORS
330
267
102
}
330
267
100
AcDbVisualStyle
  2
3D Hidden
 70
     6
 71
     1
 72
     2
 73
     2
 90
        0
 40
-0.6
 41
-30.0
 62
     5
 63
     7
421
 16777215
 74
     2
 91
        2
 64
     7
 65
   257
 75
     2
175
     1
 42
40.0
 92
        0
 66
   257
 43
1.0
 76
     1
 77
     6
 78
     2
 67
     7
 79
     3
170
     0
171
     0
290
     0
174
     0
 93
        1
 44
0.0
173
     0
291
     0
 45
0.0
  0
VISUALSTYLE
  5
26D
102
{ACAD_REACTORS
330
267
102
}
330
267
100
AcDbVisualStyle
  2
3dWireframe
 70
     5
 71
     0
 72
     2
 73
     0
 90
        0
 40
-0.6
 41
-30.0
 62
     5
 63
     7
421
 16777215
 74
     1
 91
        4
 64
     7
 65
   257
 75
     1
175
     1
 42
1.0
 92
        0
 66
   257
 43
1.0
 76
     1
 77
     6
 78
     2
 67
     7
 79
     5
170
     0
171
     0
290
     0
174
     0
 93
        1
 44
0.0
173
     0
291
     0
 45
0.0
  0
VISUALSTYLE
  5
26F
102
{ACAD_REACTORS
330
267
102
}
330
267
100
AcDbVisualStyle
  2
Basic
 70
     7
 71
     1
 72
     0
 73
     1
 90
        0
 40
-0.6
 41
-30.0
 62
     5
 63
     7
421
 16777215
 74
     0
 91
        4
 64
     7
 65
   257
 75
     1
175
     1
 42
1.0
 92
        8
 66
     7
 43
1.0
 76
     1
 77
     6
 78
     2
 67
     7
 79
     5
170
     0
171
     0
290
     0
174
     0
 93
        1
 44
0.0
173
     0
291
     1
 45
0.0
  0
VISUALSTYLE
  5
273
102
{ACAD_REACTORS
330
267
102
}
330
267
100
AcDbVisualStyle
  2
Brighten
 70
    12
 71
     2
 72
     2
 73
     0
 90
        0
 40
-0.6
 41
-30.0
 62
     5
 63
     7
421
 16777215
 74
     1
 91
        4
 64
     7
 65
   257
 75
     1
175
     1
 42
1.0
 92
        8
 66
     7
 43
1.0
 76
     1
 77
     6
 78
     2
 67
     7
 79
     5
170
     0
171
     0
290
     0
174
     0
 93
        1
 44
50.0
173
     0
291
     1
 45
0.0
  0
VISUALSTYLE
  5
277
102
{ACAD_REACTORS
330
267
102
}
330
267
100
AcDbVisualStyle
  2
ColorChange
 70
    16
 71
     2
 72
     2
 73
     3
 90
        0
 40
-0.6
 41
-30.0
 62
     5
 63
     8
421
  8421504
 74
     1
 91
        4
 64
     7
 65
   257
 75
     1
175
     1
 42
1.0
 92
        8
 66
     8
424
  8421504
 43
1.0
 76
     1
 77
     6
 78
     2
 67
     7
 79
     5
170
     0
171
     0
290
     0
174
     0
 93
        1
 44
0.0
173
     0
291
     1
 45
0.0
  0
VISUALSTYLE
  5
271
102
{ACAD_REACTORS
330
267
102
}
330
267
100
AcDbVisualStyle
  2
Conceptual
 70
     9
 71
     3
 72
     2
 73
     0
 90
        0
 40
-0.6
 41
-30.0
 62
     5
 63
     7
421
 16777215
 74
     2
 91
        2
 64
     7
 65
   257
 75
     1
175
     1
 42
40.0
 92
        8
 66
     7
 43
1.0
 76
     1
 77
     6
 78
     2
 67
     7
 79
     3
170
     0
171
     0
290
     0
174
     0
 93
        1
 44
0.0
173
     0
291
     0
 45
0.0
  0
VISUALSTYLE
  5
272
102
{ACAD_REACTORS
330
267
102
}
330
267
100
AcDbVisualStyle
  2
Dim
 70
    11
 71
     2
 72
     2
 73
     0
 90
        0
 40
-0.6
 41
-30.0
 62
     5
 63
     7
421
 16777215
 74
     1
 91
        4
 64
     7
 65
   257
 75
     1
175
     1
 42
1.0
 92
        8
 66
     7
 43
1.0
 76
     1
 77
     6
 78
     2
 67
     7
 79
     5
170
     0
171
     0
290
     0
174
     0
 93
        1
 44
-50.0
173
     0
291
     1
 45
0.0
  0
VISUALSTYLE
  5
F14
102
{ACAD_REACTORS
330
267
102
}
330
267
100
AcDbVisualStyle
  2
EdgeColorOff
 70
    22
 71
     2
 72
     2
 73
     0
 90
        0
 40
0.6
 41
30.0
 62
     5
 63
     7
421
 16777215
 74
     1
 91
        4
 64
     7
 65
   257
 75
     1
175
     1
 42
1.0
 92
        8
 66
     7
 43
1.0
 76
     1
 77
     6
 78
     2
 67
     7
 79
     5
170
     0
171
     0
290
     0
174
     0
 93
        1
 44
0.0
173
     0
291
     1
 45
0.0
  0
VISUALSTYLE
  5
276
102
{ACAD_REACTORS
330
267
102
}
330
267
100
AcDbVisualStyle
  2
Facepattern
 70
    15
 71
     2
 72
     2
 73
     0
 90
        0
 40
-0.6
 41
-30.0
 62
     5
 63
     7
421
 16777215
 74
     1
 91
        4
 64
     7
 65
   257
 75
     1
175
     1
 42
1.0
 92
        8
 66
     7
 43
1.0
 76
     1
 77
     6
 78
     2
 67
     7
 79
     5
170
     0
171
     0
290
     0
174
     0
 93
        1
 44
0.0
173
     0
291
     1
 45
0.0
  0
VISUALSTYLE
  5
268
102
{ACAD_REACTORS
330
267
102
}
330
267
100
AcDbVisualStyle
  2
Flat
 70
     0
 71
     2
 72
     1
 73
     1
 90
        2
 40
-0.6
 41
30.0
 62
     5
 63
     7
421
 16777215
 74
     0
 91
        4
 64
     7
 65
   257
 75
     1
175
     1
 42
1.0
 92
        8
 66
     7
 43
1.0
 76
     1
 77
     6
 78
     2
 67
     7
 79
     5
170
     0
171
     0
290
     0
174
     0
 93
       13
 44
0.0
173
     0
291
     1
 45
0.0
  0
VISUALSTYLE
  5
269
102
{ACAD_REACTORS
330
267
102
}
330
267
100
AcDbVisualStyle
  2
FlatWithEdges
 70
     1
 71
     2
 72
     1
 73
     1
 90
        2
 40
-0.6
 41
30.0
 62
     5
 63
     7
421
 16777215
 74
     1
 91
        4
 64
     7
 65
   257
 75
     1
175
     1
 42
1.0
 92
        0
 66
   257
 43
1.0
 76
     1
 77
     6
 78
     2
 67
     7
 79
     5
170
     0
171
     0
290
     0
174
     0
 93
       13
 44
0.0
173
     0
291
     1
 45
0.0
  0
VISUALSTYLE
  5
26A
102
{ACAD_REACTORS
330
267
102
}
330
267
100
AcDbVisualStyle
  2
Gouraud
 70
     2
 71
     2
 72
     2
 73
     1
 90
        2
 40
-0.6
 41
30.0
 62
     5
 63
     7
421
 16777215
 74
     0
 91
        4
 64
     7
 65
   257
 75
     1
175
     1
 42
1.0
 92
        0
 66
     7
 43
1.0
 76
     1
 77
     6
 78
     2
 67
     7
 79
     5
170
     0
171
     0
290
     0
174
     0
 93
       13
 44
0.0
173
     0
291
     1
 45
0.0
  0
VISUALSTYLE
  5
26B
102
{ACAD_REACTORS
330
267
102
}
330
267
100
AcDbVisualStyle
  2
GouraudWithEdges
 70
     3
 71
     2
 72
     2
 73
     1
 90
        2
 40
-0.6
 41
30.0
 62
     5
 63
     7
421
 16777215
 74
     1
 91
        4
 64
     7
 65
   257
 75
     1
175
     1
 42
1.0
 92
        0
 66
   257
 43
1.0
 76
     1
 77
     6
 78
     2
 67
     7
 79
     5
170
     0
171
     0
290
     0
174
     0
 93
       13
 44
0.0
173
     0
291
     1
 45
0.0
  0
VISUALSTYLE
  5
F11
102
{ACAD_REACTORS
330
267
102
}
330
267
100
AcDbVisualStyle
  2
Hidden
 70
     6
 71
     1
 72
     2
 73
     2
 90
        0
 40
0.6
 41
30.0
 62
     5
 63
     7
421
 16777215
 74
     2
 91
        2
 64
     7
 65
   257
 75
     2
175
     1
 42
40.0
 92
        0
 66
   257
 43
1.0
 76
     1
 77
     6
 78
     2
 67
     7
 79
     3
170
     0
171
     0
290
     0
174
     0
 93
        1
 44
0.0
173
     0
291
     0
 45
0.0
  0
VISUALSTYLE
  5
F12
102
{ACAD_REACTORS
330
267
102
}
330
267
100
AcDbVisualStyle
  2
JitterOff
 70
    20
 71
     2
 72
     2
 73
     0
 90
        0
 40
0.6
 41
30.0
 62
     5
 63
     7
421
 16777215
 74
     1
 91
        4
 64
     7
 65
   257
 75
     1
175
     1
 42
1.0
 92
       10
 66
     7
 43
1.0
 76
     1
 77
     6
 78
     2
 67
     7
 79
     5
170
     0
171
     0
290
     0
174
     0
 93
        1
 44
0.0
173
     0
291
     1
 45
0.0
  0
VISUALSTYLE
  5
275
102
{ACAD_REACTORS
330
267
102
}
330
267
100
AcDbVisualStyle
  2
Linepattern
 70
    14
 71
     2
 72
     2
 73
     0
 90
        0
 40
-0.6
 41
-30.0
 62
     5
 63
     7
421
 16777215
 74
     1
 91
        4
 64
     7
 65
   257
 75
     7
175
     7
 42
1.0
 92
        8
 66
     7
 43
1.0
 76
     1
 77
     6
 78
     2
 67
     7
 79
     5
170
     0
171
     0
290
     0
174
     0
 93
        1
 44
0.0
173
     0
291
     1
 45
0.0
  0
VISUALSTYLE
  5
F13
102
{ACAD_REACTORS
330
267
102
}
330
267
100
AcDbVisualStyle
  2
OverhangOff
 70
    21
 71
     2
 72
     2
 73
     0
 90
        0
 40
0.6
 41
30.0
 62
     5
 63
     7
421
 16777215
 74
     1
 91
        4
 64
     7
 65
   257
 75
     1
175
     1
 42
1.0
 92
        9
 66
     7
 43
1.0
 76
     1
 77
     6
 78
     2
 67
     7
 79
     5
170
     0
171
     0
290
     0
174
     0
 93
        1
 44
0.0
173
     0
291
     1
 45
0.0
  0
VISUALSTYLE
  5
270
102
{ACAD_REACTORS
330
267
102
}
330
267
100
AcDbVisualStyle
  2
Realistic
 70
     8
 71
     2
 72
     2
 73
     0
 90
        0
 40
-0.6
 41
-30.0
 62
     5
 63
     7
421
 16777215
 74
     1
 91
        0
 64
     7
 65
   257
 75
     1
175
     1
 42
1.0
 92
        8
 66
     8
424
  7895160
 43
1.0
 76
     1
 77
     6
 78
     2
 67
     7
 79
     5
170
     0
171
     0
290
     0
174
     0
 93
       13
 44
0.0
173
     0
291
     0
 45
0.0
  0
VISUALSTYLE
  5
F19
102
{ACAD_REACTORS
330
267
102
}
330
267
100
AcDbVisualStyle
  2
Shaded
 70
    27
 71
     2
 72
     2
 73
     1
 90
        2
 40
0.6
 41
30.0
 62
     5
 63
     7
421
 16777215
 74
     0
 91
        4
 64
     7
 65
   257
 75
     1
175
     1
 42
1.0
 92
        8
 66
   257
 43
1.0
 76
     1
 77
     6
 78
     2
 67
     8
425
  7895160
 79
     3
170
     0
171
     0
290
     0
174
     0
 93
        5
 44
0.0
173
     0
291
     0
 45
0.0
  0
VISUALSTYLE
  5
F18
102
{ACAD_REACTORS
330
267
102
}
330
267
100
AcDbVisualStyle
  2
Shaded with edges
 70
    26
 71
     2
 72
     2
 73
     1
 90
        2
 40
0.6
 41
30.0
 62
     5
 63
     7
421
 16777215
 74
     1
 91
       10
 64
     7
 65
   257
 75
     2
175
     1
 42
1.0
 92
        8
 66
   257
 43
1.0
 76
     1
 77
     6
 78
     2
 67
     7
 79
     3
170
     0
171
     0
290
     0
174
     0
 93
        5
 44
0.0
173
     0
291
     0
 45
0.0
  0
VISUALSTYLE
  5
F15
102
{ACAD_REACTORS
330
267
102
}
330
267
100
AcDbVisualStyle
  2
Shades of Gray
 70
    23
 71
     2
 72
     2
 73
     3
 90
        0
 40
0.6
 41
30.0
 62
     5
 63
     7
421
 16777215
 74
     2
 91
        2
 64
     7
 65
     7
 75
     1
175
     1
 42
40.0
 92
        8
 66
     7
 43
1.0
 76
     1
 77
     6
 78
     2
 67
     7
 79
     3
170
     0
171
     0
290
     0
174
     0
 93
        1
 44
0.0
173
     0
291
     0
 45
0.0
  0
VISUALSTYLE
  5
F16
102
{ACAD_REACTORS
330
267
102
}
330
267
100
AcDbVisualStyle
  2
Sketchy
 70
    24
 71
     1
 72
     2
 73
     2
 90
        0
 40
0.6
 41
30.0
 62
     5
 63
     7
421
 16777215
 74
     2
 91
        2
 64
     7
 65
     7
 75
     1
175
     1
 42
40.0
 92
       11
 66
     7
 43
1.0
 76
     1
 77
     6
 78
     2
 67
     7
 79
     6
170
     0
171
     0
290
     0
174
     0
 93
        1
 44
0.0
173
     0
291
     0
 45
0.0
  0
VISUALSTYLE
  5
274
102
{ACAD_REACTORS
330
267
102
}
330
267
100
AcDbVisualStyle
  2
Thicken
 70
    13
 71
     2
 72
     2
 73
     0
 90
        0
 40
-0.6
 41
-30.0
 62
     5
 63
     7
421
 16777215
 74
     1
 91
        4
 64
     7
 65
   257
 75
     1
175
     1
 42
1.0
 92
       12
 66
     7
 43
1.0
 76
     1
 77
     6
 78
     2
 67
     7
 79
     5
170
     0
171
     0
290
     0
174
     0
 93
        1
 44
0.0
173
     0
291
     1
 45
0.0
  0
VISUALSTYLE
  5
F10
102
{ACAD_REACTORS
330
267
102
}
330
267
100
AcDbVisualStyle
  2
Wireframe
 70
     5
 71
     0
 72
     2
 73
     0
 90
        0
 40
0.6
 41
30.0
 62
     5
 63
     7
421
 16777215
 74
     1
 91
        4
 64
     7
 65
   257
 75
     1
175
     1
 42
1.0
 92
        0
 66
   257
 43
1.0
 76
     1
 77
     6
 78
     2
 67
     7
 79
     3
170
     0
171
     0
290
     0
174
     0
 93
        1
 44
0.0
173
     0
291
     0
 45
0.0
  0
VISUALSTYLE
  5
F17
102
{ACAD_REACTORS
330
267
102
}
330
267
100
AcDbVisualStyle
  2
X-Ray
 70
    25
 71
     2
 72
     2
 73
     1
 90
        1
 40
0.5
 41
30.0
 62
     5
 63
     7
421
 16777215
 74
     1
 91
        0
 64
     7
 65
   257
 75
     1
175
     1
 42
1.0
 92
        8
 66
     7
 43
1.0
 76
     1
 77
     6
 78
     2
 67
     7
 79
     3
170
     0
171
     0
290
     0
174
     0
 93
       13
 44
0.0
173
     0
291
     0
 45
0.0
  0
DICTIONARYVAR
  5
331
102
{ACAD_REACTORS
330
330
102
}
330
330
100
DictionaryVariables
280
     0
  1
1:1
  0
DICTIONARYVAR
  5
598D
102
{ACAD_REACTORS
330
330
102
}
330
330
100
DictionaryVariables
280
     0
  1
Standard
  0
DICTIONARYVAR
  5
335
102
{ACAD_REACTORS
330
330
102
}
330
330
100
DictionaryVariables
280
     0
  1
Standard
  0
DICTIONARYVAR
  5
528A
102
{ACAD_REACTORS
330
330
102
}
330
330
100
DictionaryVariables
280
     0
  1
ByLayer
  0
DICTIONARYVAR
  5
13B4
102
{ACAD_REACTORS
330
330
102
}
330
330
100
DictionaryVariables
280
     0
  1
0
  0
FIELD
  5
59FA
102
{ACAD_REACTORS
330
59F9
102
}
330
59F9
100
AcDbField
  1
_text
  2
{%<\_FldIdx 0>%N}
 90
        1
360
59FB
 97
        0
 91
       63
 92
        0
 94
       11
 95
        2
 96
        0
300

 93
        1
  6
ACFD_FIELDTEXT_CHECKSUM
 93
        2
 90
        2
140
4528.0
 94
        0
300

302

304
ACVALUE_END
  7
ACFD_FIELD_VALUE
 93
        6
 90
        4
  1
{20180416N}
 94
        0
300

302

304
ACVALUE_END
301
{20180416N}
 98
       11
  0
DICTIONARY
  5
5AD7
330
279
100
AcDbDictionary
280
     1
281
     1
  3
ACAD_ROUNDTRIP_2008_TABLESTYLE_CELLSTYLEMAP
360
5AD8
  0
FIELD
  5
59FB
330
59FA
100
AcDbField
  1
AcVar
  2
\AcVar Date \f "yyyyMMdd"
 90
        0
 97
        0
 91
       63
 92
        0
 94
       11
 95
       64
 96
        0
300
Variable not supported
 93
        1
  6
Variable
 93
        2
 90
        4
  1
Date
 94
        0
300

302

304
ACVALUE_END
  7
ACFD_FIELD_VALUE
 93
        6
 90
        8
 92
       16
310
E2070400000010000A000E0023000000
 94
        0
300
yyyyMMdd
302

304
ACVALUE_END
301
20180416
 98
        8
  0
CELLSTYLEMAP
  5
5AD8
102
{ACAD_REACTORS
330
5AD7
102
}
330
5AD7
100
AcDbCellStyleMap
 90
        3
300
CELLSTYLE
  1
TABLEFORMAT_BEGIN
 90
        5
170
     1
 91
        0
 92
    32768
 62
   257
 93
        1
300
CONTENTFORMAT
  1
CONTENTFORMAT_BEGIN
 90
        0
 91
        0
 92
        4
 93
        0
300

 40
0.0
140
1.0
 94
        5
 62
     0
340
17
144
6.0
309
CONTENTFORMAT_END
171
     1
301
MARGIN
  1
CELLMARGIN_BEGIN
 40
0.06
 40
0.06
 40
0.06
 40
0.06
 40
0.18
 40
0.18
309
CELLMARGIN_END
 94
        6
 95
        1
302
GRIDFORMAT
  1
GRIDFORMAT_BEGIN
 90
        0
 91
        1
 62
     0
 92
       -2
340
0
 93
        0
 40
0.045
309
GRIDFORMAT_END
 95
        2
302
GRIDFORMAT
  1
GRIDFORMAT_BEGIN
 90
        0
 91
        1
 62
     0
 92
       -2
340
0
 93
        0
 40
0.045
309
GRIDFORMAT_END
 95
        4
302
GRIDFORMAT
  1
GRIDFORMAT_BEGIN
 90
        0
 91
        1
 62
     0
 92
       -2
340
0
 93
        0
 40
0.045
309
GRIDFORMAT_END
 95
        8
302
GRIDFORMAT
  1
GRIDFORMAT_BEGIN
 90
        0
 91
        1
 62
     0
 92
       -2
340
0
 93
        0
 40
0.045
309
GRIDFORMAT_END
 95
       16
302
GRIDFORMAT
  1
GRIDFORMAT_BEGIN
 90
        0
 91
        1
 62
     0
 92
       -2
340
0
 93
        0
 40
0.045
309
GRIDFORMAT_END
 95
       32
302
GRIDFORMAT
  1
GRIDFORMAT_BEGIN
 90
        0
 91
        1
 62
     0
 92
       -2
340
0
 93
        0
 40
0.045
309
GRIDFORMAT_END
309
TABLEFORMAT_END
  1
CELLSTYLE_BEGIN
 90
        1
 91
        1
300
_TITLE
309
CELLSTYLE_END
300
CELLSTYLE
  1
TABLEFORMAT_BEGIN
 90
        5
170
     1
 91
        0
 92
        0
 62
   257
 93
        1
300
CONTENTFORMAT
  1
CONTENTFORMAT_BEGIN
 90
        0
 91
        0
 92
        4
 93
        0
300

 40
0.0
140
1.0
 94
        5
 62
     0
340
17
144
4.5
309
CONTENTFORMAT_END
171
     1
301
MARGIN
  1
CELLMARGIN_BEGIN
 40
0.06
 40
0.06
 40
0.06
 40
0.06
 40
0.18
 40
0.18
309
CELLMARGIN_END
 94
        6
 95
        1
302
GRIDFORMAT
  1
GRIDFORMAT_BEGIN
 90
        0
 91
        1
 62
     0
 92
       -2
340
0
 93
        0
 40
0.045
309
GRIDFORMAT_END
 95
        2
302
GRIDFORMAT
  1
GRIDFORMAT_BEGIN
 90
        0
 91
        1
 62
     0
 92
       -2
340
0
 93
        0
 40
0.045
309
GRIDFORMAT_END
 95
        4
302
GRIDFORMAT
  1
GRIDFORMAT_BEGIN
 90
        0
 91
        1
 62
     0
 92
       -2
340
0
 93
        0
 40
0.045
309
GRIDFORMAT_END
 95
        8
302
GRIDFORMAT
  1
GRIDFORMAT_BEGIN
 90
        0
 91
        1
 62
     0
 92
       -2
340
0
 93
        0
 40
0.045
309
GRIDFORMAT_END
 95
       16
302
GRIDFORMAT
  1
GRIDFORMAT_BEGIN
 90
        0
 91
        1
 62
     0
 92
       -2
340
0
 93
        0
 40
0.045
309
GRIDFORMAT_END
 95
       32
302
GRIDFORMAT
  1
GRIDFORMAT_BEGIN
 90
        0
 91
        1
 62
     0
 92
       -2
340
0
 93
        0
 40
0.045
309
GRIDFORMAT_END
309
TABLEFORMAT_END
  1
CELLSTYLE_BEGIN
 90
        2
 91
        1
300
_HEADER
309
CELLSTYLE_END
300
CELLSTYLE
  1
TABLEFORMAT_BEGIN
 90
        5
170
     1
 91
        0
 92
        0
 62
   257
 93
        1
300
CONTENTFORMAT
  1
CONTENTFORMAT_BEGIN
 90
        0
 91
        0
 92
        4
 93
        0
300

 40
0.0
140
1.0
 94
        2
 62
     0
340
17
144
4.5
309
CONTENTFORMAT_END
171
     1
301
MARGIN
  1
CELLMARGIN_BEGIN
 40
0.06
 40
0.06
 40
0.06
 40
0.06
 40
0.18
 40
0.18
309
CELLMARGIN_END
 94
        6
 95
        1
302
GRIDFORMAT
  1
GRIDFORMAT_BEGIN
 90
        0
 91
        1
 62
     0
 92
       -2
340
0
 93
        0
 40
0.045
309
GRIDFORMAT_END
 95
        2
302
GRIDFORMAT
  1
GRIDFORMAT_BEGIN
 90
        0
 91
        1
 62
     0
 92
       -2
340
0
 93
        0
 40
0.045
309
GRIDFORMAT_END
 95
        4
302
GRIDFORMAT
  1
GRIDFORMAT_BEGIN
 90
        0
 91
        1
 62
     0
 92
       -2
340
0
 93
        0
 40
0.045
309
GRIDFORMAT_END
 95
        8
302
GRIDFORMAT
  1
GRIDFORMAT_BEGIN
 90
        0
 91
        1
 62
     0
 92
       -2
340
0
 93
        0
 40
0.045
309
GRIDFORMAT_END
 95
       16
302
GRIDFORMAT
  1
GRIDFORMAT_BEGIN
 90
        0
 91
        1
 62
     0
 92
       -2
340
0
 93
        0
 40
0.045
309
GRIDFORMAT_END
 95
       32
302
GRIDFORMAT
  1
GRIDFORMAT_BEGIN
 90
        0
 91
        1
 62
     0
 92
       -2
340
0
 93
        0
 40
0.045
309
GRIDFORMAT_END
309
TABLEFORMAT_END
  1
CELLSTYLE_BEGIN
 90
        3
 91
        2
300
_DATA
309
CELLSTYLE_END
  0
ENDSEC
  0
EOF
