  0
SECTION
  2
HEADER
  9
$ACADVER
  1
AC1021
  9
$ACADMAINTVER
 70
    25
  9
$DWGCODEPAGE
  3
ANSI_932
  9
$LASTSAVEDBY
  1
howeNelson
  9
$INSBASE
 10
0.0
 20
0.0
 30
0.0
  9
$EXTMIN
 10
0.0
 20
0.0
 30
0.0
  9
$EXTMAX
 10
791.9999999999998
 20
560.0
 30
0.0
  9
$LIMMIN
 10
0.0
 20
0.0
  9
$LIMMAX
 10
791.9999999999997
 20
560.0
  9
$ORTHOMODE
 70
     0
  9
$REGENMODE
 70
     1
  9
$FILLMODE
 70
     1
  9
$QTEXTMODE
 70
     0
  9
$MIRRTEXT
 70
     1
  9
$LTSCALE
 40
2.0
  9
$ATTMODE
 70
     1
  9
$TEXTSIZE
 40
2.5
  9
$TRACEWID
 40
1.0
  9
$TEXTSTYLE
  7
ＭＳ ゴシック
  9
$CLAYER
  8
DIM
  9
$CELTYPE
  6
Continuous
  9
$CECOLOR
 62
   256
  9
$CELTSCALE
 40
1.0
  9
$DISPSILH
 70
     0
  9
$DIMSCALE
 40
1.0
  9
$DIMASZ
 40
1.5
  9
$DIMEXO
 40
5.0
  9
$DIMDLI
 40
0.9999999999999999
  9
$DIMRND
 40
0.0
  9
$DIMDLE
 40
0.0
  9
$DIMEXE
 40
0.0
  9
$DIMTP
 40
0.0
  9
$DIMTM
 40
0.0
  9
$DIMTXT
 40
6.0
  9
$DIMCEN
 40
0.0
  9
$DIMTSZ
 40
0.0
  9
$DIMTOL
 70
     0
  9
$DIMLIM
 70
     0
  9
$DIMTIH
 70
     0
  9
$DIMTOH
 70
     0
  9
$DIMSE1
 70
     0
  9
$DIMSE2
 70
     0
  9
$DIMTAD
 70
     1
  9
$DIMZIN
 70
    11
  9
$DIMBLK
  1
DOT
  9
$DIMASO
 70
     1
  9
$DIMSHO
 70
     1
  9
$DIMPOST
  1
<>
  9
$DIMAPOST
  1
[]
  9
$DIMALT
 70
     0
  9
$DIMALTD
 70
     1
  9
$DIMALTF
 40
1.0
  9
$DIMLFAC
 40
1.0
  9
$DIMTOFL
 70
     0
  9
$DIMTVP
 40
0.0
  9
$DIMTIX
 70
     1
  9
$DIMSOXD
 70
     0
  9
$DIMSAH
 70
     0
  9
$DIMBLK1
  1

  9
$DIMBLK2
  1

  9
$DIMSTYLE
  2
tfrom線あり
  9
$DIMCLRD
 70
     0
  9
$DIMCLRE
 70
     0
  9
$DIMCLRT
 70
     0
  9
$DIMTFAC
 40
1.0
  9
$DIMGAP
 40
2.0
  9
$DIMJUST
 70
     0
  9
$DIMSD1
 70
     0
  9
$DIMSD2
 70
     0
  9
$DIMTOLJ
 70
     1
  9
$DIMTZIN
 70
    11
  9
$DIMALTZ
 70
    11
  9
$DIMALTTZ
 70
    11
  9
$DIMUPT
 70
     0
  9
$DIMDEC
 70
     0
  9
$DIMTDEC
 70
     1
  9
$DIMALTU
 70
     2
  9
$DIMALTTD
 70
     2
  9
$DIMTXSTY
  7
ＭＳ ゴシック
  9
$DIMAUNIT
 70
     0
  9
$DIMADEC
 70
     2
  9
$DIMALTRND
 40
0.0
  9
$DIMAZIN
 70
     0
  9
$DIMDSEP
 70
    46
  9
$DIMATFIT
 70
     0
  9
$DIMFRAC
 70
     2
  9
$DIMLDRBLK
  1
DOT
  9
$DIMLUNIT
 70
     2
  9
$DIMLWD
 70
    -2
  9
$DIMLWE
 70
    -2
  9
$DIMTMOVE
 70
     0
  9
$DIMFXL
 40
1.0
  9
$DIMFXLON
 70
     0
  9
$DIMJOGANG
 40
0.7853981633974483
  9
$DIMTFILL
 70
     0
  9
$DIMTFILLCLR
 70
     0
  9
$DIMARCSYM
 70
     0
  9
$DIMLTYPE
  6

  9
$DIMLTEX1
  6

  9
$DIMLTEX2
  6

  9
$LUNITS
 70
     2
  9
$LUPREC
 70
     0
  9
$SKETCHINC
 40
0.1
  9
$FILLETRAD
 40
0.0
  9
$AUNITS
 70
     0
  9
$AUPREC
 70
     0
  9
$MENU
  1
acad
  9
$ELEVATION
 40
0.0
  9
$PELEVATION
 40
0.0
  9
$THICKNESS
 40
0.0
  9
$LIMCHECK
 70
     0
  9
$CHAMFERA
 40
0.0
  9
$CHAMFERB
 40
0.0
  9
$CHAMFERC
 40
0.0
  9
$CHAMFERD
 40
0.0
  9
$SKPOLY
 70
     0
  9
$TDCREATE
 40
2447893.375
  9
$TDUCREATE
 40
0.0
  9
$TDUPDATE
 40
2458390.634327708
  9
$TDUUPDATE
 40
2458390.259327708
  9
$TDINDWG
 40
0.0
  9
$TDUSRTIMER
 40
0.0
  9
$USRTIMER
 70
     1
  9
$ANGBASE
 50
0.0
  9
$ANGDIR
 70
     0
  9
$PDMODE
 70
     1
  9
$PDSIZE
 40
-2.0
  9
$PLINEWID
 40
0.0
  9
$SPLFRAME
 70
     0
  9
$SPLINETYPE
 70
     6
  9
$SPLINESEGS
 70
     8
  9
$HANDSEED
  5
5FDD
  9
$SURFTAB1
 70
     6
  9
$SURFTAB2
 70
     6
  9
$SURFTYPE
 70
     6
  9
$SURFU
 70
     6
  9
$SURFV
 70
     6
  9
$UCSBASE
  2

  9
$UCSNAME
  2

  9
$UCSORG
 10
0.0
 20
0.0
 30
0.0
  9
$UCSXDIR
 10
1.0
 20
0.0
 30
0.0
  9
$UCSYDIR
 10
0.0
 20
1.0
 30
0.0
  9
$UCSORTHOREF
  2

  9
$UCSORTHOVIEW
 70
     0
  9
$UCSORGTOP
 10
0.0
 20
0.0
 30
0.0
  9
$UCSORGBOTTOM
 10
0.0
 20
0.0
 30
0.0
  9
$UCSORGLEFT
 10
0.0
 20
0.0
 30
0.0
  9
$UCSORGRIGHT
 10
0.0
 20
0.0
 30
0.0
  9
$UCSORGFRONT
 10
0.0
 20
0.0
 30
0.0
  9
$UCSORGBACK
 10
0.0
 20
0.0
 30
0.0
  9
$PUCSBASE
  2

  9
$PUCSNAME
  2

  9
$PUCSORG
 10
0.0
 20
0.0
 30
0.0
  9
$PUCSXDIR
 10
1.0
 20
0.0
 30
0.0
  9
$PUCSYDIR
 10
0.0
 20
1.0
 30
0.0
  9
$PUCSORTHOREF
  2

  9
$PUCSORTHOVIEW
 70
     0
  9
$PUCSORGTOP
 10
0.0
 20
0.0
 30
0.0
  9
$PUCSORGBOTTOM
 10
0.0
 20
0.0
 30
0.0
  9
$PUCSORGLEFT
 10
0.0
 20
0.0
 30
0.0
  9
$PUCSORGRIGHT
 10
0.0
 20
0.0
 30
0.0
  9
$PUCSORGFRONT
 10
0.0
 20
0.0
 30
0.0
  9
$PUCSORGBACK
 10
0.0
 20
0.0
 30
0.0
  9
$USERI1
 70
     0
  9
$USERI2
 70
     0
  9
$USERI3
 70
     0
  9
$USERI4
 70
     0
  9
$USERI5
 70
     0
  9
$USERR1
 40
0.0
  9
$USERR2
 40
0.0
  9
$USERR3
 40
0.0
  9
$USERR4
 40
0.0
  9
$USERR5
 40
0.0
  9
$WORLDVIEW
 70
     1
  9
$SHADEDGE
 70
     3
  9
$SHADEDIF
 70
    70
  9
$TILEMODE
 70
     1
  9
$MAXACTVP
 70
    64
  9
$PINSBASE
 10
0.0
 20
0.0
 30
0.0
  9
$PLIMCHECK
 70
     0
  9
$PEXTMIN
 10
0.0
 20
0.0
 30
0.0
  9
$PEXTMAX
 10
0.0
 20
0.0
 30
0.0
  9
$PLIMMIN
 10
-7.5
 20
-20.0
  9
$PLIMMAX
 10
412.5
 20
277.0
  9
$UNITMODE
 70
     0
  9
$VISRETAIN
 70
     0
  9
$PLINEGEN
 70
     1
  9
$PSLTSCALE
 70
     1
  9
$TREEDEPTH
 70
  3020
  9
$CMLSTYLE
  2
Standard
  9
$CMLJUST
 70
     0
  9
$CMLSCALE
 40
1.0
  9
$PROXYGRAPHICS
 70
     0
  9
$MEASUREMENT
 70
     1
  9
$CELWEIGHT
370
     0
  9
$ENDCAPS
280
     0
  9
$JOINSTYLE
280
     0
  9
$LWDISPLAY
290
     1
  9
$INSUNITS
 70
     4
  9
$HYPERLINKBASE
  1

  9
$STYLESHEET
  1

  9
$XEDIT
290
     1
  9
$CEPSNTYPE
380
     0
  9
$PSTYLEMODE
290
     1
  9
$FINGERPRINTGUID
  2

  9
$VERSIONGUID
  2

  9
$EXTNAMES
290
     1
  9
$PSVPSCALE
 40
0.0
  9
$OLESTARTUP
290
     0
  9
$SORTENTS
280
   127
  9
$INDEXCTL
280
     0
  9
$HIDETEXT
280
     1
  9
$XCLIPFRAME
290
     0
  9
$HALOGAP
280
     0
  9
$OBSCOLOR
 70
   257
  9
$OBSLTYPE
280
     0
  9
$INTERSECTIONDISPLAY
280
     0
  9
$INTERSECTIONCOLOR
 70
   257
  9
$DIMASSOC
280
     2
  9
$PROJECTNAME
  1

  9
$CAMERADISPLAY
290
     0
  9
$LENSLENGTH
 40
50.0
  9
$CAMERAHEIGHT
 40
0.0
  9
$STEPSPERSEC
 40
2.0
  9
$STEPSIZE
 40
6.0
  9
$3DDWFPREC
 40
2.0
  9
$PSOLWIDTH
 40
0.25
  9
$PSOLHEIGHT
 40
4.0
  9
$LOFTANG1
 40
1.570796326794897
  9
$LOFTANG2
 40
1.570796326794897
  9
$LOFTMAG1
 40
0.0
  9
$LOFTMAG2
 40
0.0
  9
$LOFTPARAM
 70
     7
  9
$LOFTNORMALS
280
     1
  9
$LATITUDE
 40
37.795
  9
$LONGITUDE
 40
-122.394
  9
$NORTHDIRECTION
 40
0.0
  9
$TIMEZONE
 70
 -8000
  9
$LIGHTGLYPHDISPLAY
280
     1
  9
$TILEMODELIGHTSYNCH
280
     1
  9
$SOLIDHIST
280
     1
  9
$SHOWHIST
280
     1
  9
$DWFFRAME
280
     2
  9
$DGNFRAME
280
     2
  9
$REALWORLDSCALE
290
     1
  9
$INTERFERECOLOR
 62
   256
  9
$CSHADOW
280
     0
  9
$SHADOWPLANELOCATION
 40
0.0
  0
ENDSEC
  0
SECTION
  2
CLASSES
  0
CLASS
  1
LWPOLYLINE
  2
AcDbPolyline
  3
ObjectDBX Classes
 90
        0
 91
        1
280
     0
281
     1
  0
CLASS
  1
IMAGE
  2
AcDbRasterImage
  3
ISM
 90
      127
 91
       20
280
     0
281
     1
  0
CLASS
  1
OLE2FRAME
  2
AcDbOle2Frame
  3
ObjectDBX Classes
 90
        0
 91
        1
280
     0
281
     1
  0
CLASS
  1
HATCH
  2
AcDbHatch
  3
ObjectDBX Classes
 90
        0
 91
        1
280
     0
281
     1
  0
CLASS
  1
DICTIONARYVAR
  2
AcDbDictionaryVar
  3
ObjectDBX Classes
 90
        0
 91
       19
280
     0
281
     0
  0
CLASS
  1
RASTERVARIABLES
  2
AcDbRasterVariables
  3
ISM
 90
        0
 91
       19
280
     0
281
     0
  0
CLASS
  1
IMAGEDEF
  2
AcDbRasterImageDef
  3
ISM
 90
        0
 91
       19
280
     0
281
     0
  0
CLASS
  1
IMAGEDEF_REACTOR
  2
AcDbRasterImageDefReactor
  3
ISM
 90
        1
 91
       19
280
     0
281
     0
  0
CLASS
  1
IDBUFFER
  2
AcDbIdBuffer
  3
ObjectDBX Classes
 90
        0
 91
       19
280
     0
281
     0
  0
CLASS
  1
SPATIAL_FILTER
  2
AcDbSpatialFilter
  3
ObjectDBX Classes
 90
        0
 91
       19
280
     0
281
     0
  0
CLASS
  1
XRECORD
  2
AcDbXrecord
  3
ObjectDBX Classes
 90
        0
 91
        1
280
     0
281
     0
  0
CLASS
  1
SORTENTSTABLE
  2
AcDbSortentsTable
  3
ObjectDBX Classes
 90
        0
 91
       19
280
     0
281
     0
  0
CLASS
  1
LAYER_INDEX
  2
AcDbLayerIndex
  3
ObjectDBX Classes
 90
        0
 91
       19
280
     0
281
     0
  0
CLASS
  1
SPATIAL_INDEX
  2
AcDbSpatialIndex
  3
AutoCAD 2000
 90
        0
 91
       19
280
     0
281
     0
  0
CLASS
  1
OBJECT_PTR
  2
CAseDLPNTableRecord
  3
ASE-LPNTableRecord
 90
        1
 91
       19
280
     0
281
     0
  0
CLASS
  1
LAYOUT
  2
AcDbLayout
  3
ObjectDBX Classes
 90
        0
 91
        1
280
     0
281
     0
  0
CLASS
  1
PLOTSETTINGS
  2
AcDbPlotSettings
  3
ObjectDBX Classes
 90
        0
 91
       19
280
     0
281
     0
  0
CLASS
  1
ACDBDICTIONARYWDFLT
  2
AcDbDictionaryWithDefault
  3
ObjectDBX Classes
 90
        0
 91
       19
280
     0
281
     0
  0
CLASS
  1
ACDBPLACEHOLDER
  2
AcDbPlaceHolder
  3
ObjectDBX Classes
 90
        0
 91
        1
280
     0
281
     0
  0
CLASS
  1
SCALE
  2
AcDbScale
  3
ObjectDBX Classes
 90
     1153
 91
       19
280
     0
281
     0
  0
CLASS
  1
MATERIAL
  2
AcDbMaterial
  3
ObjectDBX Classes
 90
     1153
 91
       19
280
     0
281
     0
  0
CLASS
  1
VISUALSTYLE
  2
AcDbVisualStyle
  3
ObjectDBX Classes
 90
     4095
 91
       19
280
     0
281
     0
  0
CLASS
  1
TABLESTYLE
  2
AcDbTableStyle
  3
ObjectDBX Classes
 90
     4095
 91
       19
280
     0
281
     0
  0
CLASS
  1
DIMASSOC
  2
AcDbDimAssoc
  3
"AcDbDimAssoc|Product Desc:     AcDim ARX App For Dimension|Company:          Autodesk, Inc.|WEB Address:      www.autodesk.com"
 90
        0
 91
       19
280
     0
281
     0
  0
CLASS
  1
CELLSTYLEMAP
  2
AcDbCellStyleMap
  3
ObjectDBX Classes
 90
     1152
 91
       19
280
     0
281
     0
  0
CLASS
  1
SUN
  2
AcDbSun
  3
SCENEOE
 90
     1153
 91
       19
280
     0
281
     0
  0
CLASS
  1
MLEADERSTYLE
  2
AcDbMLeaderStyle
  3
ACDB_MLEADERSTYLE_CLASS
 90
     4095
 91
       19
280
     0
281
     0
  0
ENDSEC
  0
SECTION
  2
TABLES
  0
TABLE
  2
VPORT
  5
7
330
0
100
AcDbSymbolTable
 70
     1
  0
VPORT
  5
15
330
7
100
AcDbSymbolTableRecord
100
AcDbViewportTableRecord
  2
*ACTIVE
 70
     0
 10
0.0
 20
0.0
 11
1.0
 21
1.0
 12
395.9999999999999
 22
280.0
 13
0.0
 23
0.0
 14
1.0
 24
1.0
 15
0.0
 25
0.0
 16
0.0
 26
0.0
 36
1.0
 17
0.0
 27
0.0
 37
0.0
 40
571.2
 41
2.294372294372294
 42
50.0
 43
0.0
 44
0.0
 50
0.0
 51
0.0
 71
    16
 72
  2000
 73
     1
 74
     1
 75
     0
 76
     0
 77
     0
 78
     0
281
     0
 65
     1
110
0.0
120
0.0
130
0.0
111
1.0
121
0.0
131
0.0
112
0.0
122
1.0
132
0.0
 79
     0
146
0.0
348
26C
 60
     3
 61
     5
292
     1
282
     1
141
0.0
142
0.0
 63
   256
361
F1A
  0
ENDTAB
  0
TABLE
  2
LTYPE
  5
4
330
0
100
AcDbSymbolTable
 70
     9
  0
LTYPE
  5
11
330
4
100
AcDbSymbolTableRecord
100
AcDbLinetypeTableRecord
  2
ByBlock
 70
     0
  3

 72
    65
 73
     0
 40
0.0
  0
LTYPE
  5
12
330
4
100
AcDbSymbolTableRecord
100
AcDbLinetypeTableRecord
  2
ByLayer
 70
     0
  3
Solid line
 72
    65
 73
     0
 40
0.0
  0
LTYPE
  5
13
330
4
100
AcDbSymbolTableRecord
100
AcDbLinetypeTableRecord
  2
Continuous
 70
     0
  3
Solid line
 72
    65
 73
     0
 40
0.0
  0
LTYPE
  5
3B
330
4
100
AcDbSymbolTableRecord
100
AcDbLinetypeTableRecord
  2
STYLE_02
 70
     0
  3

 72
    65
 73
     2
 40
0.6944250000000001
 49
0.48607
 74
     0
 49
-0.2083550000000001
 74
     0
  0
LTYPE
  5
88D
330
4
100
AcDbSymbolTableRecord
100
AcDbLinetypeTableRecord
  2
CENTER2
 70
     0
  3
----------  --  ----------  --  
 72
    65
 73
     4
 40
20.0
 49
12.5
 74
     0
 49
-2.5
 74
     0
 49
2.5
 74
     0
 49
-2.5
 74
     0
  0
LTYPE
  5
90E
330
4
100
AcDbSymbolTableRecord
100
AcDbLinetypeTableRecord
  2
DASHED1
 70
     0
  3
--  --  --  --  --  --  --  --  
 72
    65
 73
     2
 40
2.5
 49
1.25
 74
     0
 49
-1.25
 74
     0
  0
LTYPE
  5
5057
330
4
100
AcDbSymbolTableRecord
100
AcDbLinetypeTableRecord
  2
DASHDOT
 70
     0
  3
__ . __ . __ .
 72
    65
 73
     4
 40
7.524724905419956
 49
3.762362452709978
 74
     0
 49
-1.881181226354989
 74
     0
 49
0.0
 74
     0
 49
-1.881181226354989
 74
     0
  0
LTYPE
  5
5058
330
4
100
AcDbSymbolTableRecord
100
AcDbLinetypeTableRecord
  2
DASHED
 70
     0
  3
__ __ __ __ __
 72
    65
 73
     2
 40
5.643543679064967
 49
3.762362452709978
 74
     0
 49
-1.881181226354989
 74
     0
  0
LTYPE
  5
5059
330
4
100
AcDbSymbolTableRecord
100
AcDbLinetypeTableRecord
  2
HIDDEN2
 70
     0
  3
Hidden (.5x) _ _ _ _ _ _ _ _ _ _ _ _ _ _ _ _ _ 
 72
    65
 73
     2
 40
4.7625
 49
3.175
 74
     0
 49
-1.5875
 74
     0
  0
LTYPE
  5
5565
330
4
100
AcDbSymbolTableRecord
100
AcDbLinetypeTableRecord
  2
CENTER
 70
     0
  3
----------  --  ----------  --  
 72
    65
 73
     4
 40
20.0
 49
12.5
 74
     0
 49
-2.5
 74
     0
 49
2.5
 74
     0
 49
-2.5
 74
     0
  0
LTYPE
  5
5566
330
4
100
AcDbSymbolTableRecord
100
AcDbLinetypeTableRecord
  2
HIDDEN
 70
     0
  3
Hidden _ _ _ _ _ _ _ _ _ _ _ _ _ _ _ _ _ _ _ _ 
 72
    65
 73
     2
 40
9.524999999999999
 49
6.35
 74
     0
 49
-3.175
 74
     0
  0
ENDTAB
  0
TABLE
  2
LAYER
  5
2
102
{ACAD_XDICTIONARY
360
2E1
102
}
330
0
100
AcDbSymbolTable
 70
    14
  0
LAYER
  5
14
330
2
100
AcDbSymbolTableRecord
100
AcDbLayerTableRecord
  2
0
 70
     0
 62
    -7
  6
Continuous
370
    -3
390
1D
347
266
  0
LAYER
  5
4A
330
2
100
AcDbSymbolTableRecord
100
AcDbLayerTableRecord
  2
Defpoints
 70
     0
 62
    -7
  6
Continuous
290
     0
370
    -3
390
1D
347
266
  0
LAYER
  5
4D
330
2
100
AcDbSymbolTableRecord
100
AcDbLayerTableRecord
  2
MODEL
 70
     0
 62
     7
  6
Continuous
370
    20
390
1D
347
266
  0
LAYER
  5
667
330
2
100
AcDbSymbolTableRecord
100
AcDbLayerTableRecord
  2
レイヤー 1
 70
     0
 62
     7
  6
Continuous
370
    -3
390
1D
347
266
  0
LAYER
  5
13AF
330
2
100
AcDbSymbolTableRecord
100
AcDbLayerTableRecord
  2
DIM
 70
     0
 62
     7
  6
Continuous
370
    13
390
1D
347
266
1001
AcAecLayerStandard
1000

1000

  0
LAYER
  5
555A
330
2
100
AcDbSymbolTableRecord
100
AcDbLayerTableRecord
  2
寸法
 70
     0
 62
     7
  6
Continuous
370
    13
390
1D
347
266
1001
AcAecLayerStandard
1000

1000

  0
LAYER
  5
555D
330
2
100
AcDbSymbolTableRecord
100
AcDbLayerTableRecord
  2
モデル
 70
     0
 62
     7
  6
Continuous
370
    20
390
1D
347
266
1001
AcAecLayerStandard
1000

1000

  0
LAYER
  5
555E
330
2
100
AcDbSymbolTableRecord
100
AcDbLayerTableRecord
  2
テンプレート
 70
     0
 62
     7
  6
Continuous
370
    20
390
1D
347
266
1001
AcAecLayerStandard
1000

1000

  0
LAYER
  5
555F
330
2
100
AcDbSymbolTableRecord
100
AcDbLayerTableRecord
  2
TFORMLOGO
 70
     0
 62
     7
  6
Continuous
370
    20
390
1D
347
266
  0
LAYER
  5
5560
330
2
100
AcDbSymbolTableRecord
100
AcDbLayerTableRecord
  2
PRINT BORDER
 70
     0
 62
     4
  6
Continuous
290
     0
370
    -3
390
1D
347
266
1001
AcAecLayerStandard
1000

1000

  0
LAYER
  5
5561
330
2
100
AcDbSymbolTableRecord
100
AcDbLayerTableRecord
  2
SPACER
 70
     0
 62
    -3
  6
Continuous
290
     0
370
    -3
390
1D
347
266
1001
AcAecLayerStandard
1000

1000

  0
LAYER
  5
5562
330
2
100
AcDbSymbolTableRecord
100
AcDbLayerTableRecord
  2
_0-1_
 70
     0
 62
     7
  6
Continuous
290
     0
370
    -3
390
1D
347
266
  0
LAYER
  5
5563
330
2
100
AcDbSymbolTableRecord
100
AcDbLayerTableRecord
  2
CutoutUnderlay
 70
     0
 62
   254
  6
Continuous
370
    20
390
1D
347
266
1001
AcAecLayerStandard
1000

1000

  0
LAYER
  5
5564
330
2
100
AcDbSymbolTableRecord
100
AcDbLayerTableRecord
  2
CutoutOverlay
 70
     0
 62
     7
  6
Continuous
370
    20
390
1D
347
266
1001
AcAecLayerStandard
1000

1000

  0
ENDTAB
  0
TABLE
  2
STYLE
  5
3
330
0
100
AcDbSymbolTable
 70
     2
  0
STYLE
  5
17
330
3
100
AcDbSymbolTableRecord
100
AcDbTextStyleTableRecord
  2
Standard
 70
     0
 40
0.0
 41
1.0
 50
0.0
 71
     0
 42
2.5
  3
txt
  4
BIGFONT.SHX
  0
STYLE
  5
39
330
3
100
AcDbSymbolTableRecord
100
AcDbTextStyleTableRecord
  2
ＭＳ ゴシック
 70
     0
 40
0.0
 41
1.0
 50
0.0
 71
     0
 42
2.5
  3
msgothic.ttc
  4
ＭＳ ゴシック
1001
ACAD
1000
ＭＳ ゴシック
1071
        0
  0
ENDTAB
  0
TABLE
  2
VIEW
  5
5
330
0
100
AcDbSymbolTable
 70
     0
  0
ENDTAB
  0
TABLE
  2
UCS
  5
6
330
0
100
AcDbSymbolTable
 70
     0
  0
ENDTAB
  0
TABLE
  2
APPID
  5
8
330
0
100
AcDbSymbolTable
 70
     3
  0
APPID
  5
16
330
8
100
AcDbSymbolTableRecord
100
AcDbRegAppTableRecord
  2
ACAD
 70
     0
  0
APPID
  5
7AC
330
8
100
AcDbSymbolTableRecord
100
AcDbRegAppTableRecord
  2
AcAecLayerStandard
 70
     0
  0
APPID
  5
5EF6
330
8
100
AcDbSymbolTableRecord
100
AcDbRegAppTableRecord
  2
ACAD_MLEADERVER
 70
     0
  0
ENDTAB
  0
TABLE
  2
DIMSTYLE
  5
9
330
0
100
AcDbSymbolTable
 70
     2
100
AcDbDimStyleTable
  0
DIMSTYLE
105
18
330
9
100
AcDbSymbolTableRecord
100
AcDbDimStyleTableRecord
  2
Standard
 70
     0
178
     0
340
17
  0
DIMSTYLE
105
57
102
{ACAD_REACTORS
330
4AD2
330
4EF1
330
503F
330
5201
330
5202
330
5203
330
5204
330
520B
330
520C
330
520D
330
529D
330
5385
330
53D8
330
53E7
330
53F6
330
5405
330
5414
330
5C61
330
5C62
330
5C64
330
5C66
330
5C69
330
5C7F
330
5C82
330
5C85
330
5C88
330
5C8B
330
5C8C
330
5C8F
330
5C96
330
5C9A
330
5C9D
330
5CA0
102
}
330
9
100
AcDbSymbolTableRecord
100
AcDbDimStyleTableRecord
  2
tfrom線あり
 70
     0
  3
<>
  4
[]
 41
1.5
 42
5.0
 43
0.9999999999999999
 44
0.0
 73
     0
 74
     0
 77
     1
 78
    11
140
6.0
141
0.0
143
1.0
147
2.0
171
     1
174
     1
178
     0
179
     2
271
     0
272
     1
276
     2
284
    11
285
    11
286
    11
289
     0
340
39
341
4E
342
4E
  0
ENDTAB
  0
TABLE
  2
BLOCK_RECORD
  5
1
330
0
100
AcDbSymbolTable
 70
    68
  0
BLOCK_RECORD
  5
A
102
{ACAD_XDICTIONARY
360
5E64
102
}
330
1
100
AcDbSymbolTableRecord
100
AcDbBlockTableRecord
  2
*MODEL_SPACE
340
20
 70
     0
280
     1
281
     0
  0
BLOCK_RECORD
  5
B
330
1
100
AcDbSymbolTableRecord
100
AcDbBlockTableRecord
  2
*PAPER_SPACE
340
21
 70
     0
280
     1
281
     0
  0
BLOCK_RECORD
  5
4E
330
1
100
AcDbSymbolTableRecord
100
AcDbBlockTableRecord
  2
_DOT
340
0
102
{BLKREFS
331
4ADB
331
4ADC
331
4EFA
331
4EFB
331
5048
331
5049
331
52AC
331
52AD
331
52B8
331
52B9
331
52C4
331
52C5
331
52D0
331
52D1
331
5324
331
5325
331
5330
331
5331
331
533C
331
533D
331
5360
331
5361
331
538E
331
538F
331
53E1
331
53E2
331
53F0
331
53F1
331
53FF
331
5400
331
540E
331
540F
331
541D
331
541E
331
55E5
331
55E6
331
55EF
331
55F0
331
55FC
331
55FD
331
5609
331
560A
331
5618
331
5619
331
5674
331
5675
331
56A9
331
56AA
331
56B5
331
56B6
331
56C2
331
56C3
331
574D
331
574E
331
5922
331
5923
331
592E
331
592F
331
593A
331
593B
331
5946
331
5947
331
5959
331
595A
331
5965
331
5966
331
5972
331
5973
331
5A26
331
5A27
331
5A34
331
5A35
331
5A43
331
5A44
331
5A52
331
5A53
331
5A78
331
5A79
331
5AB1
331
5AB2
331
5AC4
331
5AC5
331
5BB0
331
5BB1
331
5BBD
331
5BBE
331
5BCC
331
5BCD
331
5BF4
331
5BF5
331
5C03
331
5C04
331
5C12
331
5C13
331
5C21
331
5C22
331
5C2E
331
5C2F
331
5CA8
331
5CA9
331
5CB4
331
5CB5
331
5CC1
331
5CC2
331
5CCC
331
5CCD
331
5CD8
331
5CD9
331
5CE4
331
5CE5
331
5CF0
331
5CF1
331
5CFC
331
5CFD
331
5DCC
331
5DCD
331
5EA1
331
5EA2
331
5EB3
331
5EB4
331
5EDF
331
5EE0
331
5EEB
331
5EEC
102
}
 70
     0
280
     1
281
     0
  0
BLOCK_RECORD
  5
690
330
1
100
AcDbSymbolTableRecord
100
AcDbBlockTableRecord
  2
block 3
340
0
102
{BLKREFS
331
55A7
102
}
 70
     0
280
     1
281
     0
  0
BLOCK_RECORD
  5
693
330
1
100
AcDbSymbolTableRecord
100
AcDbBlockTableRecord
  2
block 4
340
0
102
{BLKREFS
331
692
102
}
 70
     0
280
     1
281
     0
  0
BLOCK_RECORD
  5
6A2
330
1
100
AcDbSymbolTableRecord
100
AcDbBlockTableRecord
  2
block 5
340
0
102
{BLKREFS
331
6A1
102
}
 70
     0
280
     1
281
     0
  0
BLOCK_RECORD
  5
4AD5
330
1
100
AcDbSymbolTableRecord
100
AcDbBlockTableRecord
  2
*D4
340
0
 70
     0
280
     1
281
     0
  0
BLOCK_RECORD
  5
4EF4
330
1
100
AcDbSymbolTableRecord
100
AcDbBlockTableRecord
  2
*D5
340
0
 70
     0
280
     1
281
     0
  0
BLOCK_RECORD
  5
5042
330
1
100
AcDbSymbolTableRecord
100
AcDbBlockTableRecord
  2
*D6
340
0
 70
     0
280
     1
281
     0
  0
BLOCK_RECORD
  5
52A6
330
1
100
AcDbSymbolTableRecord
100
AcDbBlockTableRecord
  2
*D7
340
0
 70
     0
280
     1
281
     0
  0
BLOCK_RECORD
  5
52B2
330
1
100
AcDbSymbolTableRecord
100
AcDbBlockTableRecord
  2
*D8
340
0
 70
     0
280
     1
281
     0
  0
BLOCK_RECORD
  5
52BE
330
1
100
AcDbSymbolTableRecord
100
AcDbBlockTableRecord
  2
*D9
340
0
 70
     0
280
     1
281
     0
  0
BLOCK_RECORD
  5
52CA
330
1
100
AcDbSymbolTableRecord
100
AcDbBlockTableRecord
  2
*D10
340
0
 70
     0
280
     1
281
     0
  0
BLOCK_RECORD
  5
531E
330
1
100
AcDbSymbolTableRecord
100
AcDbBlockTableRecord
  2
*D11
340
0
 70
     0
280
     1
281
     0
  0
BLOCK_RECORD
  5
532A
330
1
100
AcDbSymbolTableRecord
100
AcDbBlockTableRecord
  2
*D12
340
0
 70
     0
280
     1
281
     0
  0
BLOCK_RECORD
  5
5336
330
1
100
AcDbSymbolTableRecord
100
AcDbBlockTableRecord
  2
*D13
340
0
 70
     0
280
     1
281
     0
  0
BLOCK_RECORD
  5
535A
330
1
100
AcDbSymbolTableRecord
100
AcDbBlockTableRecord
  2
*D14
340
0
 70
     0
280
     1
281
     0
  0
BLOCK_RECORD
  5
5388
330
1
100
AcDbSymbolTableRecord
100
AcDbBlockTableRecord
  2
*D15
340
0
 70
     0
280
     1
281
     0
  0
BLOCK_RECORD
  5
53DB
330
1
100
AcDbSymbolTableRecord
100
AcDbBlockTableRecord
  2
*D16
340
0
 70
     0
280
     1
281
     0
  0
BLOCK_RECORD
  5
53EA
330
1
100
AcDbSymbolTableRecord
100
AcDbBlockTableRecord
  2
*D17
340
0
 70
     0
280
     1
281
     0
  0
BLOCK_RECORD
  5
53F9
330
1
100
AcDbSymbolTableRecord
100
AcDbBlockTableRecord
  2
*D18
340
0
 70
     0
280
     1
281
     0
  0
BLOCK_RECORD
  5
5408
330
1
100
AcDbSymbolTableRecord
100
AcDbBlockTableRecord
  2
*D19
340
0
 70
     0
280
     1
281
     0
  0
BLOCK_RECORD
  5
5417
330
1
100
AcDbSymbolTableRecord
100
AcDbBlockTableRecord
  2
*D20
340
0
 70
     0
280
     1
281
     0
  0
BLOCK_RECORD
  5
55A2
330
1
100
AcDbSymbolTableRecord
100
AcDbBlockTableRecord
  2
名称未設定-1
340
0
102
{BLKREFS
331
577E
102
}
 70
     1
280
     1
281
     0
  0
BLOCK_RECORD
  5
55A5
330
1
100
AcDbSymbolTableRecord
100
AcDbBlockTableRecord
  2
block 2
340
0
102
{BLKREFS
331
55A4
102
}
 70
     0
280
     1
281
     0
  0
BLOCK_RECORD
  5
55DE
330
1
100
AcDbSymbolTableRecord
100
AcDbBlockTableRecord
  2
*D23
340
0
 70
     0
280
     1
281
     0
  0
BLOCK_RECORD
  5
55EA
330
1
100
AcDbSymbolTableRecord
100
AcDbBlockTableRecord
  2
*D24
340
0
 70
     0
280
     1
281
     0
  0
BLOCK_RECORD
  5
55F7
330
1
100
AcDbSymbolTableRecord
100
AcDbBlockTableRecord
  2
*D25
340
0
 70
     0
280
     1
281
     0
  0
BLOCK_RECORD
  5
5604
330
1
100
AcDbSymbolTableRecord
100
AcDbBlockTableRecord
  2
*D26
340
0
 70
     0
280
     1
281
     0
  0
BLOCK_RECORD
  5
5613
330
1
100
AcDbSymbolTableRecord
100
AcDbBlockTableRecord
  2
*D27
340
0
 70
     0
280
     1
281
     0
  0
BLOCK_RECORD
  5
566F
330
1
100
AcDbSymbolTableRecord
100
AcDbBlockTableRecord
  2
*D28
340
0
 70
     0
280
     1
281
     0
  0
BLOCK_RECORD
  5
56A3
330
1
100
AcDbSymbolTableRecord
100
AcDbBlockTableRecord
  2
*D29
340
0
 70
     0
280
     1
281
     0
  0
BLOCK_RECORD
  5
56B0
330
1
100
AcDbSymbolTableRecord
100
AcDbBlockTableRecord
  2
*D30
340
0
 70
     0
280
     1
281
     0
  0
BLOCK_RECORD
  5
56BD
330
1
100
AcDbSymbolTableRecord
100
AcDbBlockTableRecord
  2
*D31
340
0
 70
     0
280
     1
281
     0
  0
BLOCK_RECORD
  5
5748
330
1
100
AcDbSymbolTableRecord
100
AcDbBlockTableRecord
  2
*D32
340
0
 70
     0
280
     1
281
     0
  0
BLOCK_RECORD
  5
591C
330
1
100
AcDbSymbolTableRecord
100
AcDbBlockTableRecord
  2
*D33
340
0
 70
     0
280
     1
281
     0
  0
BLOCK_RECORD
  5
5928
330
1
100
AcDbSymbolTableRecord
100
AcDbBlockTableRecord
  2
*D34
340
0
 70
     0
280
     1
281
     0
  0
BLOCK_RECORD
  5
5934
330
1
100
AcDbSymbolTableRecord
100
AcDbBlockTableRecord
  2
*D35
340
0
 70
     0
280
     1
281
     0
  0
BLOCK_RECORD
  5
5940
330
1
100
AcDbSymbolTableRecord
100
AcDbBlockTableRecord
  2
*D36
340
0
 70
     0
280
     1
281
     0
  0
BLOCK_RECORD
  5
5953
330
1
100
AcDbSymbolTableRecord
100
AcDbBlockTableRecord
  2
*D37
340
0
 70
     0
280
     1
281
     0
  0
BLOCK_RECORD
  5
595F
330
1
100
AcDbSymbolTableRecord
100
AcDbBlockTableRecord
  2
*D38
340
0
 70
     0
280
     1
281
     0
  0
BLOCK_RECORD
  5
596B
330
1
100
AcDbSymbolTableRecord
100
AcDbBlockTableRecord
  2
*D39
340
0
 70
     0
280
     1
281
     0
  0
BLOCK_RECORD
  5
5A1F
330
1
100
AcDbSymbolTableRecord
100
AcDbBlockTableRecord
  2
*D40
340
0
 70
     0
280
     1
281
     0
  0
BLOCK_RECORD
  5
5A2E
330
1
100
AcDbSymbolTableRecord
100
AcDbBlockTableRecord
  2
*D41
340
0
 70
     0
280
     1
281
     0
  0
BLOCK_RECORD
  5
5A3D
330
1
100
AcDbSymbolTableRecord
100
AcDbBlockTableRecord
  2
*D42
340
0
 70
     0
280
     1
281
     0
  0
BLOCK_RECORD
  5
5A4C
330
1
100
AcDbSymbolTableRecord
100
AcDbBlockTableRecord
  2
*D43
340
0
 70
     0
280
     1
281
     0
  0
BLOCK_RECORD
  5
5A72
330
1
100
AcDbSymbolTableRecord
100
AcDbBlockTableRecord
  2
*D44
340
0
 70
     0
280
     1
281
     0
  0
BLOCK_RECORD
  5
5AAB
330
1
100
AcDbSymbolTableRecord
100
AcDbBlockTableRecord
  2
*D45
340
0
 70
     0
280
     1
281
     0
  0
BLOCK_RECORD
  5
5ABD
330
1
100
AcDbSymbolTableRecord
100
AcDbBlockTableRecord
  2
*D46
340
0
 70
     0
280
     1
281
     0
  0
BLOCK_RECORD
  5
5BAB
330
1
100
AcDbSymbolTableRecord
100
AcDbBlockTableRecord
  2
*D47
340
0
 70
     0
280
     1
281
     0
  0
BLOCK_RECORD
  5
5BB8
330
1
100
AcDbSymbolTableRecord
100
AcDbBlockTableRecord
  2
*D48
340
0
 70
     0
280
     1
281
     0
  0
BLOCK_RECORD
  5
5BC6
330
1
100
AcDbSymbolTableRecord
100
AcDbBlockTableRecord
  2
*D49
340
0
 70
     0
280
     1
281
     0
  0
BLOCK_RECORD
  5
5BEF
330
1
100
AcDbSymbolTableRecord
100
AcDbBlockTableRecord
  2
*D50
340
0
 70
     0
280
     1
281
     0
  0
BLOCK_RECORD
  5
5BFE
330
1
100
AcDbSymbolTableRecord
100
AcDbBlockTableRecord
  2
*D51
340
0
 70
     0
280
     1
281
     0
  0
BLOCK_RECORD
  5
5C0D
330
1
100
AcDbSymbolTableRecord
100
AcDbBlockTableRecord
  2
*D52
340
0
 70
     0
280
     1
281
     0
  0
BLOCK_RECORD
  5
5C1C
330
1
100
AcDbSymbolTableRecord
100
AcDbBlockTableRecord
  2
*D53
340
0
 70
     0
280
     1
281
     0
  0
BLOCK_RECORD
  5
5C29
330
1
100
AcDbSymbolTableRecord
100
AcDbBlockTableRecord
  2
*D54
340
0
 70
     0
280
     1
281
     0
  0
BLOCK_RECORD
  5
5CA2
330
1
100
AcDbSymbolTableRecord
100
AcDbBlockTableRecord
  2
*D55
340
0
 70
     0
280
     1
281
     0
  0
BLOCK_RECORD
  5
5CAE
330
1
100
AcDbSymbolTableRecord
100
AcDbBlockTableRecord
  2
*D56
340
0
 70
     0
280
     1
281
     0
  0
BLOCK_RECORD
  5
5CBA
330
1
100
AcDbSymbolTableRecord
100
AcDbBlockTableRecord
  2
*D57
340
0
 70
     0
280
     1
281
     0
  0
BLOCK_RECORD
  5
5CC6
330
1
100
AcDbSymbolTableRecord
100
AcDbBlockTableRecord
  2
*D58
340
0
 70
     0
280
     1
281
     0
  0
BLOCK_RECORD
  5
5CD2
330
1
100
AcDbSymbolTableRecord
100
AcDbBlockTableRecord
  2
*D59
340
0
 70
     0
280
     1
281
     0
  0
BLOCK_RECORD
  5
5CDE
330
1
100
AcDbSymbolTableRecord
100
AcDbBlockTableRecord
  2
*D60
340
0
 70
     0
280
     1
281
     0
  0
BLOCK_RECORD
  5
5CEA
330
1
100
AcDbSymbolTableRecord
100
AcDbBlockTableRecord
  2
*D61
340
0
 70
     0
280
     1
281
     0
  0
BLOCK_RECORD
  5
5CF6
330
1
100
AcDbSymbolTableRecord
100
AcDbBlockTableRecord
  2
*D62
340
0
 70
     0
280
     1
281
     0
  0
BLOCK_RECORD
  5
5DC6
330
1
100
AcDbSymbolTableRecord
100
AcDbBlockTableRecord
  2
*D63
340
0
 70
     0
280
     1
281
     0
  0
BLOCK_RECORD
  5
5E9C
330
1
100
AcDbSymbolTableRecord
100
AcDbBlockTableRecord
  2
*D64
340
0
 70
     0
280
     1
281
     0
  0
BLOCK_RECORD
  5
5EAE
330
1
100
AcDbSymbolTableRecord
100
AcDbBlockTableRecord
  2
*D65
340
0
 70
     0
280
     1
281
     0
  0
BLOCK_RECORD
  5
5ED9
330
1
100
AcDbSymbolTableRecord
100
AcDbBlockTableRecord
  2
*D66
340
0
 70
     0
280
     1
281
     0
  0
BLOCK_RECORD
  5
5EE5
330
1
100
AcDbSymbolTableRecord
100
AcDbBlockTableRecord
  2
*D67
340
0
 70
     0
280
     1
281
     0
  0
ENDTAB
  0
ENDSEC
  0
SECTION
  2
BLOCKS
  0
BLOCK
  5
D
330
A
100
AcDbEntity
  8
0
390
1D
100
AcDbBlockBegin
  2
*MODEL_SPACE
 70
     0
 10
0.0
 20
0.0
 30
0.0
  3
*MODEL_SPACE
  1
*MODEL_SPACE
  0
ENDBLK
  5
E
330
A
100
AcDbEntity
  8
0
390
1D
100
AcDbBlockEnd
  0
BLOCK
  5
F
330
B
100
AcDbEntity
 67
     1
  8
0
390
1D
100
AcDbBlockBegin
  2
*PAPER_SPACE
 70
     0
 10
0.0
 20
0.0
 30
0.0
  3
*PAPER_SPACE
  1
*PAPER_SPACE
  0
ENDBLK
  5
10
330
B
100
AcDbEntity
 67
     1
  8
0
390
1D
100
AcDbBlockEnd
  0
BLOCK
  5
5D22
330
4E
100
AcDbEntity
  8
0
390
1D
100
AcDbBlockBegin
  2
_DOT
 70
     0
 10
0.0
 20
0.0
 30
0.0
  3
_DOT
  1
_DOT
  0
POLYLINE
  5
5D24
330
4E
100
AcDbEntity
  8
0
  6
ByBlock
 62
     0
370
    -2
390
1D
100
AcDb2dPolyline
 66
     1
 10
0.0
 20
0.0
 30
0.0
 70
     1
 40
0.5
 41
0.5
  0
VERTEX
  5
5D25
330
5D24
100
AcDbEntity
  8
0
  6
ByBlock
 62
     0
370
    -2
390
1D
100
AcDbVertex
100
AcDb2dVertex
 10
-0.25
 20
0.0
 30
0.0
 42
1.0
  0
VERTEX
  5
5D26
330
5D24
100
AcDbEntity
  8
0
  6
ByBlock
 62
     0
370
    -2
390
1D
100
AcDbVertex
100
AcDb2dVertex
 10
0.25
 20
0.0
 30
0.0
 42
1.0
  0
SEQEND
  5
5D27
330
5D24
100
AcDbEntity
  8
0
390
1D
  0
LINE
  5
5D28
330
4E
100
AcDbEntity
  8
0
  6
ByBlock
 62
     0
370
    -2
390
1D
100
AcDbLine
 10
-0.5
 20
0.0
 30
0.0
 11
-1.0
 21
0.0
 31
0.0
  0
ENDBLK
  5
5D29
330
4E
100
AcDbEntity
  8
0
390
1D
100
AcDbBlockEnd
  0
BLOCK
  5
691
330
690
100
AcDbEntity
  8
0
100
AcDbBlockBegin
  2
block 3
 70
     0
 10
0.0
 20
0.0
 30
0.0
  3
block 3
  1
block 3
  0
INSERT
  5
692
330
690
100
AcDbEntity
  8
レイヤー 1
100
AcDbBlockReference
  2
block 4
 10
0.0
 20
0.0
 30
0.0
  0
ENDBLK
  5
6AF
330
690
100
AcDbEntity
  8
0
100
AcDbBlockEnd
  0
BLOCK
  5
694
330
693
100
AcDbEntity
  8
0
100
AcDbBlockBegin
  2
block 4
 70
     0
 10
0.0
 20
0.0
 30
0.0
  3
block 4
  1
block 4
  0
POLYLINE
  5
695
330
693
100
AcDbEntity
  8
レイヤー 1
370
     0
100
AcDb2dPolyline
 66
     1
 10
0.0
 20
0.0
 30
0.0
  0
VERTEX
  5
696
330
695
100
AcDbEntity
  8
レイヤー 1
370
     0
100
AcDbVertex
100
AcDb2dVertex
 10
83.79545727667795
 20
167.6444858234922
 30
0.0
  0
VERTEX
  5
697
330
695
100
AcDbEntity
  8
レイヤー 1
370
     0
100
AcDbVertex
100
AcDb2dVertex
 10
83.79545727667795
 20
159.7968976406313
 30
0.0
  0
VERTEX
  5
698
330
695
100
AcDbEntity
  8
レイヤー 1
370
     0
100
AcDbVertex
100
AcDb2dVertex
 10
71.3631329975216
 20
159.7968976406313
 30
0.0
  0
VERTEX
  5
699
330
695
100
AcDbEntity
  8
レイヤー 1
370
     0
100
AcDbVertex
100
AcDb2dVertex
 10
71.3631329975216
 20
127.8027915271048
 30
0.0
  0
VERTEX
  5
69A
330
695
100
AcDbEntity
  8
レイヤー 1
370
     0
100
AcDbVertex
100
AcDb2dVertex
 10
60.43011526263018
 20
127.8027915271048
 30
0.0
  0
VERTEX
  5
69B
330
695
100
AcDbEntity
  8
レイヤー 1
370
     0
100
AcDbVertex
100
AcDb2dVertex
 10
60.43011526263018
 20
159.7968976406313
 30
0.0
  0
VERTEX
  5
69C
330
695
100
AcDbEntity
  8
レイヤー 1
370
     0
100
AcDbVertex
100
AcDb2dVertex
 10
48.21793273020759
 20
159.7968976406313
 30
0.0
  0
VERTEX
  5
69D
330
695
100
AcDbEntity
  8
レイヤー 1
370
     0
100
AcDbVertex
100
AcDb2dVertex
 10
48.21793273020759
 20
167.6444858234922
 30
0.0
  0
VERTEX
  5
69E
330
695
100
AcDbEntity
  8
レイヤー 1
370
     0
100
AcDbVertex
100
AcDb2dVertex
 10
83.79545727667795
 20
167.6444858234922
 30
0.0
  0
SEQEND
  5
69F
330
695
100
AcDbEntity
  8
レイヤー 1
370
     0
  0
HATCH
  5
6A0
330
693
100
AcDbEntity
  8
レイヤー 1
 62
   250
420
  2234388
100
AcDbHatch
 10
0.0
 20
0.0
 30
0.0
210
0.0
220
0.0
230
1.0
  2
SOLID
 70
     1
 71
     0
 91
        1
 92
        1
 93
        8
 72
     1
 10
83.79545727667795
 20
167.6444858234922
 11
83.79545727667795
 21
159.7968976406313
 72
     1
 10
83.79545727667795
 20
159.7968976406313
 11
71.3631329975216
 21
159.7968976406313
 72
     1
 10
71.3631329975216
 20
159.7968976406313
 11
71.3631329975216
 21
127.8027915271048
 72
     1
 10
71.3631329975216
 20
127.8027915271048
 11
60.43011526263018
 21
127.8027915271048
 72
     1
 10
60.43011526263018
 20
127.8027915271048
 11
60.43011526263018
 21
159.7968976406313
 72
     1
 10
60.43011526263018
 20
159.7968976406313
 11
48.21793273020759
 21
159.7968976406313
 72
     1
 10
48.21793273020759
 20
159.7968976406313
 11
48.21793273020759
 21
167.6444858234922
 72
     1
 10
48.21793273020759
 20
167.6444858234922
 11
83.79545727667795
 21
167.6444858234922
 97
        0
 75
     2
 76
     1
 98
        0
  0
INSERT
  5
6A1
330
693
100
AcDbEntity
  8
レイヤー 1
100
AcDbBlockReference
  2
block 5
 10
0.0
 20
0.0
 30
0.0
  0
ENDBLK
  5
6AE
330
693
100
AcDbEntity
  8
0
100
AcDbBlockEnd
  0
BLOCK
  5
6A3
330
6A2
100
AcDbEntity
  8
0
100
AcDbBlockBegin
  2
block 5
 70
     0
 10
0.0
 20
0.0
 30
0.0
  3
block 5
  1
block 5
  0
SPLINE
  5
6A4
330
6A2
100
AcDbEntity
  8
レイヤー 1
370
     0
100
AcDbSpline
210
0.0
220
0.0
230
1.0
 70
    11
 71
     3
 72
    56
 73
    52
 74
     0
 42
0.000000001
 43
0.0000000001
 40
0.0
 40
0.0
 40
0.0
 40
0.0
 40
1.0
 40
1.0
 40
1.0
 40
2.0
 40
2.0
 40
2.0
 40
3.0
 40
3.0
 40
3.0
 40
4.0
 40
4.0
 40
4.0
 40
5.0
 40
5.0
 40
5.0
 40
6.0
 40
6.0
 40
6.0
 40
7.0
 40
7.0
 40
7.0
 40
8.0
 40
8.0
 40
8.0
 40
9.0
 40
9.0
 40
9.0
 40
10.0
 40
10.0
 40
10.0
 40
11.0
 40
11.0
 40
11.0
 40
12.0
 40
12.0
 40
12.0
 40
13.0
 40
13.0
 40
13.0
 40
14.0
 40
14.0
 40
14.0
 40
15.0
 40
15.0
 40
15.0
 40
16.0
 40
16.0
 40
16.0
 40
17.0
 40
17.0
 40
17.0
 40
17.0
 10
100.4504378777679
 20
166.69157178364
 30
0.0
 10
101.9848844191641
 20
167.1313385124438
 30
0.0
 10
103.9637485713373
 20
166.7649523658846
 30
0.0
 10
103.9637485713373
 20
166.7649523658846
 30
0.0
 10
103.9637485713373
 20
166.7649523658846
 30
0.0
 10
103.0132460999156
 20
163.911205638077
 30
0.0
 10
103.0132460999156
 20
163.911205638077
 30
0.0
 10
103.0132460999156
 20
163.911205638077
 30
0.0
 10
101.0674548862189
 20
164.3601018759394
 30
0.0
 10
99.57090442016032
 20
163.1805004036133
 30
0.0
 10
98.40508333886608
 20
162.258247733807
 30
0.0
 10
97.65301849830304
 20
159.804132345923
 30
0.0
 10
97.3598406791005
 20
158.8699940888517
 30
0.0
 10
97.3598406791005
 20
158.8699940888517
 30
0.0
 10
96.07137411762282
 20
154.9119212747295
 30
0.0
 10
96.07137411762282
 20
154.9119212747295
 30
0.0
 10
96.07137411762282
 20
154.9119212747295
 30
0.0
 10
100.3012651448482
 20
154.9119212747295
 30
0.0
 10
100.3012651448482
 20
154.9119212747295
 30
0.0
 10
100.3012651448482
 20
154.9119212747295
 30
0.0
 10
99.64152892419852
 20
152.4199098115079
 30
0.0
 10
99.64152892419852
 20
152.4199098115079
 30
0.0
 10
99.64152892419852
 20
152.4199098115079
 30
0.0
 10
95.38097652692731
 20
152.4199098115079
 30
0.0
 10
95.38097652692731
 20
152.4199098115079
 30
0.0
 10
95.38097652692731
 20
152.4199098115079
 30
0.0
 10
87.75353009080013
 20
127.8027915271048
 30
0.0
 10
87.75353009080013
 20
127.8027915271048
 30
0.0
 10
87.75353009080013
 20
127.8027915271048
 30
0.0
 10
85.36538832498108
 20
127.8027915271048
 30
0.0
 10
85.36538832498108
 20
127.8027915271048
 30
0.0
 10
85.36538832498108
 20
127.8027915271048
 30
0.0
 10
93.00006946639998
 20
152.4199098115079
 30
0.0
 10
93.00006946639998
 20
152.4199098115079
 30
0.0
 10
93.00006946639998
 20
152.4199098115079
 30
0.0
 10
89.85297266450198
 20
152.4199098115079
 30
0.0
 10
89.85297266450198
 20
152.4199098115079
 30
0.0
 10
89.85297266450198
 20
152.4199098115079
 30
0.0
 10
90.51270888515164
 20
154.9119212747295
 30
0.0
 10
90.51270888515164
 20
154.9119212747295
 30
0.0
 10
90.51270888515164
 20
154.9119212747295
 30
0.0
 10
93.6904670570955
 20
154.9119212747295
 30
0.0
 10
93.6904670570955
 20
154.9119212747295
 30
0.0
 10
93.6904670570955
 20
154.9119212747295
 30
0.0
 10
94.81598049462158
 20
158.3616699146644
 30
0.0
 10
94.81598049462158
 20
158.3616699146644
 30
0.0
 10
95.7237637538445
 20
161.2605474231013
 30
0.0
 10
96.4968436907311
 20
162.8139420021662
 30
0.0
 10
97.15657991138076
 20
163.9844139654337
 30
0.0
 10
97.81183750494507
 20
165.1523021053827
 30
0.0
 10
99.1047826935081
 20
166.3084769129547
 30
0.0
 10
100.4504378777679
 20
166.69157178364
 30
0.0
  0
HATCH
  5
6A5
330
6A2
100
AcDbEntity
  8
レイヤー 1
 62
   250
420
  2234388
100
AcDbHatch
 10
0.0
 20
0.0
 30
0.0
210
0.0
220
0.0
230
1.0
  2
SOLID
 70
     1
 71
     0
 91
        1
 92
        1
 93
        1
 72
     4
 94
        3
 73
     0
 74
     1
 95
       56
 96
       52
 40
0.0
 40
0.0
 40
0.0
 40
0.0
 40
1.0
 40
1.0
 40
1.0
 40
2.0
 40
2.0
 40
2.0
 40
3.0
 40
3.0
 40
3.0
 40
4.0
 40
4.0
 40
4.0
 40
5.0
 40
5.0
 40
5.0
 40
6.0
 40
6.0
 40
6.0
 40
7.0
 40
7.0
 40
7.0
 40
8.0
 40
8.0
 40
8.0
 40
9.0
 40
9.0
 40
9.0
 40
10.0
 40
10.0
 40
10.0
 40
11.0
 40
11.0
 40
11.0
 40
12.0
 40
12.0
 40
12.0
 40
13.0
 40
13.0
 40
13.0
 40
14.0
 40
14.0
 40
14.0
 40
15.0
 40
15.0
 40
15.0
 40
16.0
 40
16.0
 40
16.0
 40
17.0
 40
17.0
 40
17.0
 40
17.0
 10
100.4504378777679
 20
166.69157178364
 10
101.9848844191641
 20
167.1313385124438
 10
103.9637485713373
 20
166.7649523658846
 10
103.9637485713373
 20
166.7649523658846
 10
103.9637485713373
 20
166.7649523658846
 10
103.0132460999156
 20
163.911205638077
 10
103.0132460999156
 20
163.911205638077
 10
103.0132460999156
 20
163.911205638077
 10
101.0674548862189
 20
164.3601018759394
 10
99.57090442016032
 20
163.1805004036133
 10
98.40508333886608
 20
162.258247733807
 10
97.65301849830304
 20
159.804132345923
 10
97.3598406791005
 20
158.8699940888517
 10
97.3598406791005
 20
158.8699940888517
 10
96.07137411762282
 20
154.9119212747295
 10
96.07137411762282
 20
154.9119212747295
 10
96.07137411762282
 20
154.9119212747295
 10
100.3012651448482
 20
154.9119212747295
 10
100.3012651448482
 20
154.9119212747295
 10
100.3012651448482
 20
154.9119212747295
 10
99.64152892419852
 20
152.4199098115079
 10
99.64152892419852
 20
152.4199098115079
 10
99.64152892419852
 20
152.4199098115079
 10
95.38097652692731
 20
152.4199098115079
 10
95.38097652692731
 20
152.4199098115079
 10
95.38097652692731
 20
152.4199098115079
 10
87.75353009080013
 20
127.8027915271048
 10
87.75353009080013
 20
127.8027915271048
 10
87.75353009080013
 20
127.8027915271048
 10
85.36538832498108
 20
127.8027915271048
 10
85.36538832498108
 20
127.8027915271048
 10
85.36538832498108
 20
127.8027915271048
 10
93.00006946639998
 20
152.4199098115079
 10
93.00006946639998
 20
152.4199098115079
 10
93.00006946639998
 20
152.4199098115079
 10
89.85297266450198
 20
152.4199098115079
 10
89.85297266450198
 20
152.4199098115079
 10
89.85297266450198
 20
152.4199098115079
 10
90.51270888515164
 20
154.9119212747295
 10
90.51270888515164
 20
154.9119212747295
 10
90.51270888515164
 20
154.9119212747295
 10
93.6904670570955
 20
154.9119212747295
 10
93.6904670570955
 20
154.9119212747295
 10
93.6904670570955
 20
154.9119212747295
 10
94.81598049462158
 20
158.3616699146644
 10
94.81598049462158
 20
158.3616699146644
 10
95.7237637538445
 20
161.2605474231013
 10
96.4968436907311
 20
162.8139420021662
 10
97.15657991138076
 20
163.9844139654337
 10
97.81183750494507
 20
165.1523021053827
 10
99.1047826935081
 20
166.3084769129547
 10
100.4504378777679
 20
166.69157178364
 97
        0
 75
     2
 76
     1
 98
        0
  0
SPLINE
  5
6A6
330
6A2
100
AcDbEntity
  8
レイヤー 1
370
     0
100
AcDbSpline
210
0.0
220
0.0
230
1.0
 70
    11
 71
     3
 72
    38
 73
    34
 74
     0
 42
0.000000001
 43
0.0000000001
 40
0.0
 40
0.0
 40
0.0
 40
0.0
 40
1.0
 40
1.0
 40
1.0
 40
2.0
 40
2.0
 40
2.0
 40
3.0
 40
3.0
 40
3.0
 40
4.0
 40
4.0
 40
4.0
 40
5.0
 40
5.0
 40
5.0
 40
6.0
 40
6.0
 40
6.0
 40
7.0
 40
7.0
 40
7.0
 40
8.0
 40
8.0
 40
8.0
 40
9.0
 40
9.0
 40
9.0
 40
10.0
 40
10.0
 40
10.0
 40
11.0
 40
11.0
 40
11.0
 40
11.0
 10
126.377554584636
 20
154.8151140277308
 30
0.0
 10
126.377554584636
 20
154.8151140277308
 30
0.0
 10
128.8311532078563
 20
154.8151140277308
 30
0.0
 10
128.8311532078563
 20
154.8151140277308
 30
0.0
 10
128.8311532078563
 20
154.8151140277308
 30
0.0
 10
127.7345785914971
 20
151.3062819612468
 30
0.0
 10
127.7345785914971
 20
151.3062819612468
 30
0.0
 10
128.571392836906
 20
152.2922689395754
 30
0.0
 10
129.8860421413442
 20
153.604506675583
 30
0.0
 10
131.0163787157314
 20
154.2664822097754
 30
0.0
 10
132.7044766171327
 20
155.2500576196734
 30
0.0
 10
133.6642808525008
 20
155.3847609420097
 30
0.0
 10
134.7284715499351
 20
155.3565111403944
 30
0.0
 10
134.7284715499351
 20
155.3565111403944
 30
0.0
 10
133.6877075172549
 20
152.0345756272799
 30
0.0
 10
133.6877075172549
 20
152.0345756272799
 30
0.0
 10
133.011434827367
 20
152.3184516825359
 30
0.0
 10
130.930940291334
 20
151.7768823149844
 30
0.0
 10
129.739280976855
 20
150.9162968950455
 30
0.0
 10
128.66613302525
 20
150.1454562717016
 30
0.0
 10
127.9192358313239
 20
149.4857200510519
 30
0.0
 10
127.0393578639405
 20
147.8282835196966
 30
0.0
 10
126.164647543194
 20
146.1699857139017
 30
0.0
 10
125.4742499524985
 20
143.5262176944419
 30
0.0
 10
124.2822461282437
 20
139.6959580071401
 30
0.0
 10
124.2822461282437
 20
139.6959580071401
 30
0.0
 10
120.5753209406769
 20
127.8027915271048
 30
0.0
 10
120.5753209406769
 20
127.8027915271048
 30
0.0
 10
120.5753209406769
 20
127.8027915271048
 30
0.0
 10
118.1964809388044
 20
127.8027915271048
 30
0.0
 10
118.1964809388044
 20
127.8027915271048
 30
0.0
 10
118.1964809388044
 20
127.8027915271048
 30
0.0
 10
126.377554584636
 20
154.8151140277308
 30
0.0
 10
126.377554584636
 20
154.8151140277308
 30
0.0
  0
HATCH
  5
6A7
330
6A2
100
AcDbEntity
  8
レイヤー 1
 62
   250
420
  2234388
100
AcDbHatch
 10
0.0
 20
0.0
 30
0.0
210
0.0
220
0.0
230
1.0
  2
SOLID
 70
     1
 71
     0
 91
        1
 92
        1
 93
        1
 72
     4
 94
        3
 73
     0
 74
     1
 95
       38
 96
       34
 40
0.0
 40
0.0
 40
0.0
 40
0.0
 40
1.0
 40
1.0
 40
1.0
 40
2.0
 40
2.0
 40
2.0
 40
3.0
 40
3.0
 40
3.0
 40
4.0
 40
4.0
 40
4.0
 40
5.0
 40
5.0
 40
5.0
 40
6.0
 40
6.0
 40
6.0
 40
7.0
 40
7.0
 40
7.0
 40
8.0
 40
8.0
 40
8.0
 40
9.0
 40
9.0
 40
9.0
 40
10.0
 40
10.0
 40
10.0
 40
11.0
 40
11.0
 40
11.0
 40
11.0
 10
126.377554584636
 20
154.8151140277308
 10
126.377554584636
 20
154.8151140277308
 10
128.8311532078563
 20
154.8151140277308
 10
128.8311532078563
 20
154.8151140277308
 10
128.8311532078563
 20
154.8151140277308
 10
127.7345785914971
 20
151.3062819612468
 10
127.7345785914971
 20
151.3062819612468
 10
128.571392836906
 20
152.2922689395754
 10
129.8860421413442
 20
153.604506675583
 10
131.0163787157314
 20
154.2664822097754
 10
132.7044766171327
 20
155.2500576196734
 10
133.6642808525008
 20
155.3847609420097
 10
134.7284715499351
 20
155.3565111403944
 10
134.7284715499351
 20
155.3565111403944
 10
133.6877075172549
 20
152.0345756272799
 10
133.6877075172549
 20
152.0345756272799
 10
133.011434827367
 20
152.3184516825359
 10
130.930940291334
 20
151.7768823149844
 10
129.739280976855
 20
150.9162968950455
 10
128.66613302525
 20
150.1454562717016
 10
127.9192358313239
 20
149.4857200510519
 10
127.0393578639405
 20
147.8282835196966
 10
126.164647543194
 20
146.1699857139017
 10
125.4742499524985
 20
143.5262176944419
 10
124.2822461282437
 20
139.6959580071401
 10
124.2822461282437
 20
139.6959580071401
 10
120.5753209406769
 20
127.8027915271048
 10
120.5753209406769
 20
127.8027915271048
 10
120.5753209406769
 20
127.8027915271048
 10
118.1964809388044
 20
127.8027915271048
 10
118.1964809388044
 20
127.8027915271048
 10
118.1964809388044
 20
127.8027915271048
 10
126.377554584636
 20
154.8151140277308
 10
126.377554584636
 20
154.8151140277308
 97
        0
 75
     2
 76
     1
 98
        0
  0
SPLINE
  5
6A8
330
6A2
100
AcDbEntity
  8
レイヤー 1
370
     0
100
AcDbSpline
210
0.0
220
0.0
230
1.0
 70
    11
 71
     3
 72
   104
 73
   100
 74
     0
 42
0.000000001
 43
0.0000000001
 40
0.0
 40
0.0
 40
0.0
 40
0.0
 40
1.0
 40
1.0
 40
1.0
 40
2.0
 40
2.0
 40
2.0
 40
3.0
 40
3.0
 40
3.0
 40
4.0
 40
4.0
 40
4.0
 40
5.0
 40
5.0
 40
5.0
 40
6.0
 40
6.0
 40
6.0
 40
7.0
 40
7.0
 40
7.0
 40
8.0
 40
8.0
 40
8.0
 40
9.0
 40
9.0
 40
9.0
 40
10.0
 40
10.0
 40
10.0
 40
11.0
 40
11.0
 40
11.0
 40
12.0
 40
12.0
 40
12.0
 40
13.0
 40
13.0
 40
13.0
 40
14.0
 40
14.0
 40
14.0
 40
15.0
 40
15.0
 40
15.0
 40
16.0
 40
16.0
 40
16.0
 40
17.0
 40
17.0
 40
17.0
 40
18.0
 40
18.0
 40
18.0
 40
19.0
 40
19.0
 40
19.0
 40
20.0
 40
20.0
 40
20.0
 40
21.0
 40
21.0
 40
21.0
 40
22.0
 40
22.0
 40
22.0
 40
23.0
 40
23.0
 40
23.0
 40
24.0
 40
24.0
 40
24.0
 40
25.0
 40
25.0
 40
25.0
 40
26.0
 40
26.0
 40
26.0
 40
27.0
 40
27.0
 40
27.0
 40
28.0
 40
28.0
 40
28.0
 40
29.0
 40
29.0
 40
29.0
 40
30.0
 40
30.0
 40
30.0
 40
31.0
 40
31.0
 40
31.0
 40
32.0
 40
32.0
 40
32.0
 40
33.0
 40
33.0
 40
33.0
 40
33.0
 10
139.8926730891197
 20
154.8294111834263
 30
0.0
 10
139.8926730891197
 20
154.8294111834263
 30
0.0
 10
142.0344903652445
 20
154.8294111834263
 30
0.0
 10
142.0344903652445
 20
154.8294111834263
 30
0.0
 10
142.0344903652445
 20
154.8294111834263
 30
0.0
 10
140.9516961399171
 20
151.3157559800812
 30
0.0
 10
140.9516961399171
 20
151.3157559800812
 30
0.0
 10
141.8928968473923
 20
152.7887075264977
 30
0.0
 10
142.7341897198865
 20
153.4484437471474
 30
0.0
 10
143.8552245303272
 20
154.2926649527359
 30
0.0
 10
144.9803934580775
 20
155.1296514530327
 30
0.0
 10
146.3139908001845
 20
155.3044901642492
 30
0.0
 10
147.241066606852
 20
155.3044901642492
 30
0.0
 10
148.3855280820469
 20
155.3044901642492
 30
0.0
 10
149.4969166187653
 20
155.0752189084569
 30
0.0
 10
150.0784491203092
 20
153.8172414621372
 30
0.0
 10
150.5228667310863
 20
152.833838307127
 30
0.0
 10
150.5414702589793
 20
152.7201500811143
 30
0.0
 10
150.4140016419347
 20
150.7765981809602
 30
0.0
 10
151.5818897818837
 20
152.7699317437168
 30
0.0
 10
152.4424752018226
 20
153.6256940267945
 30
0.0
 10
153.9038856707499
 20
154.4507949398263
 30
0.0
 10
155.4455669174378
 20
155.3044901642492
 30
0.0
 10
156.339225275853
 20
155.3659851592288
 30
0.0
 10
157.3748216618963
 20
155.2147453676543
 30
0.0
 10
158.911679771723
 20
154.9877134254046
 30
0.0
 10
159.8859534176746
 20
154.4390816074493
 30
0.0
 10
160.3965169054045
 20
152.7816450760939
 30
0.0
 10
160.9070803931344
 20
151.1219692311958
 30
0.0
 10
160.6328506116007
 20
150.2303779314354
 30
0.0
 10
159.9992971339115
 20
147.597634224801
 30
0.0
 10
159.7105979417943
 20
146.4014962832367
 30
0.0
 10
159.2947746424084
 20
144.9400858143094
 30
0.0
 10
158.7463150793409
 20
143.2092687007094
 30
0.0
 10
158.7463150793409
 20
143.2092687007094
 30
0.0
 10
153.9038856707499
 20
127.8027915271048
 30
0.0
 10
153.9038856707499
 20
127.8027915271048
 30
0.0
 10
153.9038856707499
 20
127.8027915271048
 30
0.0
 10
151.3882752878863
 20
127.8027915271048
 30
0.0
 10
151.3882752878863
 20
127.8027915271048
 30
0.0
 10
151.3882752878863
 20
127.8027915271048
 30
0.0
 10
155.6250565106276
 20
141.2751908193897
 30
0.0
 10
155.6250565106276
 20
141.2751908193897
 30
0.0
 10
156.5094131050963
 20
144.0936252951782
 30
0.0
 10
157.109893644309
 20
146.1506931664571
 30
0.0
 10
157.4220195011804
 20
147.4415712963654
 30
0.0
 10
157.8095929989511
 20
149.0530157726519
 30
0.0
 10
157.9656559273867
 20
149.5826995529385
 30
0.0
 10
157.7816877071116
 20
150.7529992613181
 30
0.0
 10
157.6111553680925
 20
151.8430281919372
 30
0.0
 10
157.0582171779396
 20
152.5547853887321
 30
0.0
 10
156.1170164704645
 20
152.5547853887321
 30
0.0
 10
155.1096698860365
 20
152.5547853887321
 30
0.0
 10
154.2962823053817
 20
152.4412694176073
 30
0.0
 10
153.156643967048
 20
151.2945686288697
 30
0.0
 10
152.0170056287143
 20
150.1476955852443
 30
0.0
 10
151.076149431015
 20
148.7930831468137
 30
0.0
 10
150.3337308641742
 20
147.2290087646991
 30
0.0
 10
149.5957909244188
 20
145.6683794803425
 30
0.0
 10
148.8530278478023
 20
143.6822806228776
 30
0.0
 10
148.0964843801539
 20
141.2751908193897
 30
0.0
 10
148.0964843801539
 20
141.2751908193897
 30
0.0
 10
143.8552245303272
 20
127.8027915271048
 30
0.0
 10
143.8552245303272
 20
127.8027915271048
 30
0.0
 10
143.8552245303272
 20
127.8027915271048
 30
0.0
 10
141.486030802177
 20
127.8027915271048
 30
0.0
 10
141.486030802177
 20
127.8027915271048
 30
0.0
 10
141.486030802177
 20
127.8027915271048
 30
0.0
 10
146.3329388378533
 20
143.2092687007094
 30
0.0
 10
146.3329388378533
 20
143.2092687007094
 30
0.0
 10
146.8483254624444
 20
144.8408669988801
 30
0.0
 10
147.2314203331297
 20
146.1837661049335
 30
0.0
 10
147.4867020769946
 20
147.224185627838
 30
0.0
 10
147.9169947869641
 20
149.0197705792876
 30
0.0
 10
148.0306830129768
 20
150.2400242051577
 30
0.0
 10
147.709255392159
 20
151.3157559800812
 30
0.0
 10
147.3874832615654
 20
152.3916600098926
 30
0.0
 10
146.8245542879144
 20
152.6683013598569
 30
0.0
 10
145.8840425999909
 20
152.6683013598569
 30
0.0
 10
145.0989048209514
 20
152.6683013598569
 30
0.0
 10
144.3282364524954
 20
152.3275811915945
 30
0.0
 10
143.4531816219731
 20
151.6538923250251
 30
0.0
 10
142.34627171234
 20
150.8074318058939
 30
0.0
 10
141.901854101563
 20
150.1097995099067
 30
0.0
 10
141.3578731655808
 20
149.289521733736
 30
0.0
 10
140.6299240093235
 20
148.192602607601
 30
0.0
 10
140.2850697237515
 20
147.455696197173
 30
0.0
 10
139.6652966370942
 20
145.8385673095858
 30
0.0
 10
139.0506911970739
 20
144.2214384219986
 30
0.0
 10
138.463991048893
 20
142.3252566160164
 30
0.0
 10
138.0571250036777
 20
141.0154304484394
 30
0.0
 10
138.0571250036777
 20
141.0154304484394
 30
0.0
 10
133.9009590684727
 20
127.8027915271048
 30
0.0
 10
133.9009590684727
 20
127.8027915271048
 30
0.0
 10
133.9009590684727
 20
127.8027915271048
 30
0.0
 10
131.4180771143097
 20
127.8027915271048
 30
0.0
 10
131.4180771143097
 20
127.8027915271048
 30
0.0
 10
131.4180771143097
 20
127.8027915271048
 30
0.0
 10
139.8926730891197
 20
154.8294111834263
 30
0.0
 10
139.8926730891197
 20
154.8294111834263
 30
0.0
  0
HATCH
  5
6A9
330
6A2
100
AcDbEntity
  8
レイヤー 1
 62
   250
420
  2234388
100
AcDbHatch
 10
0.0
 20
0.0
 30
0.0
210
0.0
220
0.0
230
1.0
  2
SOLID
 70
     1
 71
     0
 91
        1
 92
        1
 93
        1
 72
     4
 94
        3
 73
     0
 74
     1
 95
      104
 96
      100
 40
0.0
 40
0.0
 40
0.0
 40
0.0
 40
1.0
 40
1.0
 40
1.0
 40
2.0
 40
2.0
 40
2.0
 40
3.0
 40
3.0
 40
3.0
 40
4.0
 40
4.0
 40
4.0
 40
5.0
 40
5.0
 40
5.0
 40
6.0
 40
6.0
 40
6.0
 40
7.0
 40
7.0
 40
7.0
 40
8.0
 40
8.0
 40
8.0
 40
9.0
 40
9.0
 40
9.0
 40
10.0
 40
10.0
 40
10.0
 40
11.0
 40
11.0
 40
11.0
 40
12.0
 40
12.0
 40
12.0
 40
13.0
 40
13.0
 40
13.0
 40
14.0
 40
14.0
 40
14.0
 40
15.0
 40
15.0
 40
15.0
 40
16.0
 40
16.0
 40
16.0
 40
17.0
 40
17.0
 40
17.0
 40
18.0
 40
18.0
 40
18.0
 40
19.0
 40
19.0
 40
19.0
 40
20.0
 40
20.0
 40
20.0
 40
21.0
 40
21.0
 40
21.0
 40
22.0
 40
22.0
 40
22.0
 40
23.0
 40
23.0
 40
23.0
 40
24.0
 40
24.0
 40
24.0
 40
25.0
 40
25.0
 40
25.0
 40
26.0
 40
26.0
 40
26.0
 40
27.0
 40
27.0
 40
27.0
 40
28.0
 40
28.0
 40
28.0
 40
29.0
 40
29.0
 40
29.0
 40
30.0
 40
30.0
 40
30.0
 40
31.0
 40
31.0
 40
31.0
 40
32.0
 40
32.0
 40
32.0
 40
33.0
 40
33.0
 40
33.0
 40
33.0
 10
139.8926730891197
 20
154.8294111834263
 10
139.8926730891197
 20
154.8294111834263
 10
142.0344903652445
 20
154.8294111834263
 10
142.0344903652445
 20
154.8294111834263
 10
142.0344903652445
 20
154.8294111834263
 10
140.9516961399171
 20
151.3157559800812
 10
140.9516961399171
 20
151.3157559800812
 10
141.8928968473923
 20
152.7887075264977
 10
142.7341897198865
 20
153.4484437471474
 10
143.8552245303272
 20
154.2926649527359
 10
144.9803934580775
 20
155.1296514530327
 10
146.3139908001845
 20
155.3044901642492
 10
147.241066606852
 20
155.3044901642492
 10
148.3855280820469
 20
155.3044901642492
 10
149.4969166187653
 20
155.0752189084569
 10
150.0784491203092
 20
153.8172414621372
 10
150.5228667310863
 20
152.833838307127
 10
150.5414702589793
 20
152.7201500811143
 10
150.4140016419347
 20
150.7765981809602
 10
151.5818897818837
 20
152.7699317437168
 10
152.4424752018226
 20
153.6256940267945
 10
153.9038856707499
 20
154.4507949398263
 10
155.4455669174378
 20
155.3044901642492
 10
156.339225275853
 20
155.3659851592288
 10
157.3748216618963
 20
155.2147453676543
 10
158.911679771723
 20
154.9877134254046
 10
159.8859534176746
 20
154.4390816074493
 10
160.3965169054045
 20
152.7816450760939
 10
160.9070803931344
 20
151.1219692311958
 10
160.6328506116007
 20
150.2303779314354
 10
159.9992971339115
 20
147.597634224801
 10
159.7105979417943
 20
146.4014962832367
 10
159.2947746424084
 20
144.9400858143094
 10
158.7463150793409
 20
143.2092687007094
 10
158.7463150793409
 20
143.2092687007094
 10
153.9038856707499
 20
127.8027915271048
 10
153.9038856707499
 20
127.8027915271048
 10
153.9038856707499
 20
127.8027915271048
 10
151.3882752878863
 20
127.8027915271048
 10
151.3882752878863
 20
127.8027915271048
 10
151.3882752878863
 20
127.8027915271048
 10
155.6250565106276
 20
141.2751908193897
 10
155.6250565106276
 20
141.2751908193897
 10
156.5094131050963
 20
144.0936252951782
 10
157.109893644309
 20
146.1506931664571
 10
157.4220195011804
 20
147.4415712963654
 10
157.8095929989511
 20
149.0530157726519
 10
157.9656559273867
 20
149.5826995529385
 10
157.7816877071116
 20
150.7529992613181
 10
157.6111553680925
 20
151.8430281919372
 10
157.0582171779396
 20
152.5547853887321
 10
156.1170164704645
 20
152.5547853887321
 10
155.1096698860365
 20
152.5547853887321
 10
154.2962823053817
 20
152.4412694176073
 10
153.156643967048
 20
151.2945686288697
 10
152.0170056287143
 20
150.1476955852443
 10
151.076149431015
 20
148.7930831468137
 10
150.3337308641742
 20
147.2290087646991
 10
149.5957909244188
 20
145.6683794803425
 10
148.8530278478023
 20
143.6822806228776
 10
148.0964843801539
 20
141.2751908193897
 10
148.0964843801539
 20
141.2751908193897
 10
143.8552245303272
 20
127.8027915271048
 10
143.8552245303272
 20
127.8027915271048
 10
143.8552245303272
 20
127.8027915271048
 10
141.486030802177
 20
127.8027915271048
 10
141.486030802177
 20
127.8027915271048
 10
141.486030802177
 20
127.8027915271048
 10
146.3329388378533
 20
143.2092687007094
 10
146.3329388378533
 20
143.2092687007094
 10
146.8483254624444
 20
144.8408669988801
 10
147.2314203331297
 20
146.1837661049335
 10
147.4867020769946
 20
147.224185627838
 10
147.9169947869641
 20
149.0197705792876
 10
148.0306830129768
 20
150.2400242051577
 10
147.709255392159
 20
151.3157559800812
 10
147.3874832615654
 20
152.3916600098926
 10
146.8245542879144
 20
152.6683013598569
 10
145.8840425999909
 20
152.6683013598569
 10
145.0989048209514
 20
152.6683013598569
 10
144.3282364524954
 20
152.3275811915945
 10
143.4531816219731
 20
151.6538923250251
 10
142.34627171234
 20
150.8074318058939
 10
141.901854101563
 20
150.1097995099067
 10
141.3578731655808
 20
149.289521733736
 10
140.6299240093235
 20
148.192602607601
 10
140.2850697237515
 20
147.455696197173
 10
139.6652966370942
 20
145.8385673095858
 10
139.0506911970739
 20
144.2214384219986
 10
138.463991048893
 20
142.3252566160164
 10
138.0571250036777
 20
141.0154304484394
 10
138.0571250036777
 20
141.0154304484394
 10
133.9009590684727
 20
127.8027915271048
 10
133.9009590684727
 20
127.8027915271048
 10
133.9009590684727
 20
127.8027915271048
 10
131.4180771143097
 20
127.8027915271048
 10
131.4180771143097
 20
127.8027915271048
 10
131.4180771143097
 20
127.8027915271048
 10
139.8926730891197
 20
154.8294111834263
 10
139.8926730891197
 20
154.8294111834263
 97
        0
 75
     2
 76
     1
 98
        0
  0
SPLINE
  5
6AA
330
6A2
100
AcDbEntity
  8
レイヤー 1
370
     0
100
AcDbSpline
210
0.0
220
0.0
230
1.0
 70
    11
 71
     3
 72
    29
 73
    25
 74
     0
 42
0.000000001
 43
0.0000000001
 40
0.0
 40
0.0
 40
0.0
 40
0.0
 40
1.0
 40
1.0
 40
1.0
 40
2.0
 40
2.0
 40
2.0
 40
3.0
 40
3.0
 40
3.0
 40
4.0
 40
4.0
 40
4.0
 40
5.0
 40
5.0
 40
5.0
 40
6.0
 40
6.0
 40
6.0
 40
7.0
 40
7.0
 40
7.0
 40
8.0
 40
8.0
 40
8.0
 40
8.0
 10
101.6420971922469
 20
132.8388354296931
 30
0.0
 10
101.630039350094
 20
134.7164137077823
 30
0.0
 10
102.2236296937908
 20
138.0598810818841
 30
0.0
 10
103.7487744712405
 20
142.5378191476827
 30
0.0
 10
105.819967243327
 20
148.5896501242061
 30
0.0
 10
107.0602024361932
 20
150.8074318058939
 30
0.0
 10
108.1522984254671
 20
151.8833358357054
 30
0.0
 10
109.741177511439
 20
153.4532668840085
 30
0.0
 10
111.8740375333931
 20
153.5290590346837
 30
0.0
 10
112.5075910110823
 20
153.4532668840085
 30
0.0
 10
113.4012493694975
 20
153.3490526768302
 30
0.0
 10
114.6683563248758
 20
152.7580461564518
 30
0.0
 10
114.7493161221879
 20
150.7838328862519
 30
0.0
 10
114.8106388622796
 20
149.0909118479895
 30
0.0
 10
114.3186789024427
 20
145.9191825971221
 30
0.0
 10
112.6164561002338
 20
140.9489400617108
 30
0.0
 10
110.6444821435766
 20
135.1746117095912
 30
0.0
 10
109.4669477299053
 20
132.8960240524753
 30
0.0
 10
108.5212683953448
 20
131.9072809959403
 30
0.0
 10
106.7346406980658
 20
130.0538184021569
 30
0.0
 10
104.8222669326213
 20
130.2336525051225
 30
0.0
 10
104.5408024457958
 20
130.2336525051225
 30
0.0
 10
104.1721769856939
 20
130.2336525051225
 30
0.0
 10
101.6465758193322
 20
130.6305277668397
 30
0.0
 10
101.6420971922469
 20
132.8388354296931
 30
0.0
  0
SPLINE
  5
6AB
330
6A2
100
AcDbEntity
  8
レイヤー 1
370
     0
100
AcDbSpline
210
0.0
220
0.0
230
1.0
 70
    11
 71
     3
 72
    32
 73
    28
 74
     0
 42
0.000000001
 43
0.0000000001
 40
0.0
 40
0.0
 40
0.0
 40
0.0
 40
1.0
 40
1.0
 40
1.0
 40
2.0
 40
2.0
 40
2.0
 40
3.0
 40
3.0
 40
3.0
 40
4.0
 40
4.0
 40
4.0
 40
5.0
 40
5.0
 40
5.0
 40
6.0
 40
6.0
 40
6.0
 40
7.0
 40
7.0
 40
7.0
 40
8.0
 40
8.0
 40
8.0
 40
9.0
 40
9.0
 40
9.0
 40
9.0
 10
106.2595617172429
 20
153.4105476718098
 30
0.0
 10
104.8222669326213
 20
151.5474388043041
 30
0.0
 10
103.7177685914188
 20
149.8758773721411
 30
0.0
 10
101.9232171692965
 20
144.6141795664062
 30
0.0
 10
100.2754269116635
 20
139.7999999594306
 30
0.0
 10
99.22777268346732
 20
136.3052927937542
 30
0.0
 10
99.06964269637689
 20
132.039572749846
 30
0.0
 10
98.94665270641765
 20
128.8673267343149
 30
0.0
 10
100.8807305877373
 20
127.8027915271048
 30
0.0
 10
103.7129454545577
 20
127.8027915271048
 30
0.0
 10
104.9352661390825
 20
127.8027915271048
 30
0.0
 10
108.0151835347002
 20
127.8827177950895
 30
0.0
 10
110.2045431598849
 20
130.5926316915021
 30
0.0
 10
111.7417457794874
 20
132.4984597712065
 30
0.0
 10
113.155269389579
 20
134.475256864725
 30
0.0
 10
115.0562743324223
 20
140.9489400617108
 30
0.0
 10
116.6361961642235
 20
146.3680788349845
 30
0.0
 10
117.7282921534974
 20
149.8639917848761
 30
0.0
 10
117.6480213757369
 20
151.8595646611754
 30
0.0
 10
117.6480213757369
 20
151.8595646611754
 30
0.0
 10
117.6480213757369
 20
151.8595646611754
 30
0.0
 10
117.6480213757369
 20
151.8595646611754
 30
0.0
 10
117.13229024137
 20
155.18150017429
 30
0.0
 10
114.7162431837115
 20
155.886194920681
 30
0.0
 10
113.3351034925446
 20
155.886194920681
 30
0.0
 10
111.9829026225447
 20
155.886194920681
 30
0.0
 10
108.3414342923792
 20
156.1251124501957
 30
0.0
 10
106.2595617172429
 20
153.4105476718098
 30
0.0
  0
HATCH
  5
6AC
330
6A2
100
AcDbEntity
  8
レイヤー 1
 62
   250
420
  2234388
100
AcDbHatch
 10
0.0
 20
0.0
 30
0.0
210
0.0
220
0.0
230
1.0
  2
SOLID
 70
     1
 71
     0
 91
        2
 92
        1
 93
        1
 72
     4
 94
        3
 73
     0
 74
     1
 95
       29
 96
       25
 40
0.0
 40
0.0
 40
0.0
 40
0.0
 40
1.0
 40
1.0
 40
1.0
 40
2.0
 40
2.0
 40
2.0
 40
3.0
 40
3.0
 40
3.0
 40
4.0
 40
4.0
 40
4.0
 40
5.0
 40
5.0
 40
5.0
 40
6.0
 40
6.0
 40
6.0
 40
7.0
 40
7.0
 40
7.0
 40
8.0
 40
8.0
 40
8.0
 40
8.0
 10
101.6420971922469
 20
132.8388354296931
 10
101.630039350094
 20
134.7164137077823
 10
102.2236296937908
 20
138.0598810818841
 10
103.7487744712405
 20
142.5378191476827
 10
105.819967243327
 20
148.5896501242061
 10
107.0602024361932
 20
150.8074318058939
 10
108.1522984254671
 20
151.8833358357054
 10
109.741177511439
 20
153.4532668840085
 10
111.8740375333931
 20
153.5290590346837
 10
112.5075910110823
 20
153.4532668840085
 10
113.4012493694975
 20
153.3490526768302
 10
114.6683563248758
 20
152.7580461564518
 10
114.7493161221879
 20
150.7838328862519
 10
114.8106388622796
 20
149.0909118479895
 10
114.3186789024427
 20
145.9191825971221
 10
112.6164561002338
 20
140.9489400617108
 10
110.6444821435766
 20
135.1746117095912
 10
109.4669477299053
 20
132.8960240524753
 10
108.5212683953448
 20
131.9072809959403
 10
106.7346406980658
 20
130.0538184021569
 10
104.8222669326213
 20
130.2336525051225
 10
104.5408024457958
 20
130.2336525051225
 10
104.1721769856939
 20
130.2336525051225
 10
101.6465758193322
 20
130.6305277668397
 10
101.6420971922469
 20
132.8388354296931
 97
        0
 92
        1
 93
        1
 72
     4
 94
        3
 73
     0
 74
     1
 95
       32
 96
       28
 40
0.0
 40
0.0
 40
0.0
 40
0.0
 40
1.0
 40
1.0
 40
1.0
 40
2.0
 40
2.0
 40
2.0
 40
3.0
 40
3.0
 40
3.0
 40
4.0
 40
4.0
 40
4.0
 40
5.0
 40
5.0
 40
5.0
 40
6.0
 40
6.0
 40
6.0
 40
7.0
 40
7.0
 40
7.0
 40
8.0
 40
8.0
 40
8.0
 40
9.0
 40
9.0
 40
9.0
 40
9.0
 10
106.2595617172429
 20
153.4105476718098
 10
104.8222669326213
 20
151.5474388043041
 10
103.7177685914188
 20
149.8758773721411
 10
101.9232171692965
 20
144.6141795664062
 10
100.2754269116635
 20
139.7999999594306
 10
99.22777268346732
 20
136.3052927937542
 10
99.06964269637689
 20
132.039572749846
 10
98.94665270641765
 20
128.8673267343149
 10
100.8807305877373
 20
127.8027915271048
 10
103.7129454545577
 20
127.8027915271048
 10
104.9352661390825
 20
127.8027915271048
 10
108.0151835347002
 20
127.8827177950895
 10
110.2045431598849
 20
130.5926316915021
 10
111.7417457794874
 20
132.4984597712065
 10
113.155269389579
 20
134.475256864725
 10
115.0562743324223
 20
140.9489400617108
 10
116.6361961642235
 20
146.3680788349845
 10
117.7282921534974
 20
149.8639917848761
 10
117.6480213757369
 20
151.8595646611754
 10
117.6480213757369
 20
151.8595646611754
 10
117.6480213757369
 20
151.8595646611754
 10
117.6480213757369
 20
151.8595646611754
 10
117.13229024137
 20
155.18150017429
 10
114.7162431837115
 20
155.886194920681
 10
113.3351034925446
 20
155.886194920681
 10
111.9829026225447
 20
155.886194920681
 10
108.3414342923792
 20
156.1251124501957
 10
106.2595617172429
 20
153.4105476718098
 97
        0
 75
     2
 76
     1
 98
        0
  0
ENDBLK
  5
6AD
330
6A2
100
AcDbEntity
  8
0
100
AcDbBlockEnd
  0
BLOCK
  5
4AD6
330
4AD5
100
AcDbEntity
  8
0
100
AcDbBlockBegin
  2
*D4
 70
     1
 10
0.0
 20
0.0
 30
0.0
  3
*D4
  1
*D205
  0
LINE
  5
4AD8
330
4AD5
100
AcDbEntity
  8
寸法
  6
Continuous
 62
     0
370
    -2
100
AcDbLine
 10
132.6319257346262
 20
467.711427100288
 30
0.0
 11
105.962968358403
 21
467.711427100288
 31
0.0
  0
LINE
  5
4AD9
330
4AD5
100
AcDbEntity
  8
寸法
  6
Continuous
 62
     0
370
    -2
100
AcDbLine
 10
165.8986390006591
 20
389.5771408405531
 30
0.0
 11
105.962968358403
 21
389.5771408405531
 31
0.0
  0
LINE
  5
4ADA
330
4AD5
100
AcDbEntity
  8
寸法
  6
Continuous
 62
     0
370
    -2
100
AcDbLine
 10
105.962968358403
 20
466.211427100288
 30
0.0
 11
105.962968358403
 21
391.0771408405531
 31
0.0
  0
INSERT
  5
4ADB
330
4AD5
100
AcDbEntity
  8
寸法
 62
     0
370
    -2
100
AcDbBlockReference
  2
_DOT
 10
105.962968358403
 20
467.711427100288
 30
0.0
 41
1.5
 42
1.5
 43
1.5
 50
90.0
  0
INSERT
  5
4ADC
330
4AD5
100
AcDbEntity
  8
寸法
 62
     0
370
    -2
100
AcDbBlockReference
  2
_DOT
 10
105.962968358403
 20
389.5771408405531
 30
0.0
 41
1.5
 42
1.5
 43
1.5
 50
270.0
  0
MTEXT
  5
4ADD
330
4AD5
100
AcDbEntity
  8
寸法
  6
Continuous
 62
     0
100
AcDbMText
 10
100.962968358403
 20
429.9560604020071
 30
0.0
 40
6.0
 41
0.0
 46
0.0
 71
     5
 72
     1
  1
\A1;78
  7
ＭＳ ゴシック
 11
0.0
 21
1.0
 31
0.0
 73
     1
 44
1.0
  0
POINT
  5
4ADE
330
4AD5
100
AcDbEntity
  8
Defpoints
 62
     0
100
AcDbPoint
 10
137.6319257346262
 20
467.711427100288
 30
0.0
  0
POINT
  5
4ADF
330
4AD5
100
AcDbEntity
  8
Defpoints
 62
     0
100
AcDbPoint
 10
170.8986390006591
 20
389.5771408405531
 30
0.0
  0
POINT
  5
4AE0
330
4AD5
100
AcDbEntity
  8
Defpoints
 62
     0
100
AcDbPoint
 10
105.962968358403
 20
389.5771408405531
 30
0.0
  0
ENDBLK
  5
4AD7
330
4AD5
100
AcDbEntity
  8
0
100
AcDbBlockEnd
  0
BLOCK
  5
4EF5
330
4EF4
100
AcDbEntity
  8
0
100
AcDbBlockBegin
  2
*D5
 70
     1
 10
0.0
 20
0.0
 30
0.0
  3
*D5
  1
*D205
  0
LINE
  5
4EF7
330
4EF4
100
AcDbEntity
  8
寸法
  6
Continuous
 62
     0
370
    -2
100
AcDbLine
 10
145.7043454386834
 20
457.711427100288
 30
0.0
 11
124.4090168514825
 21
457.711427100288
 31
0.0
  0
LINE
  5
4EF8
330
4EF4
100
AcDbEntity
  8
寸法
  6
Continuous
 62
     0
370
    -2
100
AcDbLine
 10
160.131925733825
 20
389.5771408405531
 30
0.0
 11
124.4090168514825
 21
389.5771408405531
 31
0.0
  0
LINE
  5
4EF9
330
4EF4
100
AcDbEntity
  8
寸法
  6
Continuous
 62
     0
370
    -2
100
AcDbLine
 10
124.4090168514825
 20
456.211427100288
 30
0.0
 11
124.4090168514825
 21
391.0771408405531
 31
0.0
  0
INSERT
  5
4EFA
330
4EF4
100
AcDbEntity
  8
寸法
 62
     0
370
    -2
100
AcDbBlockReference
  2
_DOT
 10
124.4090168514825
 20
457.711427100288
 30
0.0
 41
1.5
 42
1.5
 43
1.5
 50
90.0
  0
INSERT
  5
4EFB
330
4EF4
100
AcDbEntity
  8
寸法
 62
     0
370
    -2
100
AcDbBlockReference
  2
_DOT
 10
124.4090168514825
 20
389.5771408405531
 30
0.0
 41
1.5
 42
1.5
 43
1.5
 50
270.0
  0
MTEXT
  5
4EFC
330
4EF4
100
AcDbEntity
  8
寸法
  6
Continuous
 62
     0
100
AcDbMText
 10
119.4090168514825
 20
424.0635726889399
 30
0.0
 40
6.0
 41
0.0
 46
0.0
 71
     5
 72
     1
  1
\A1;68
  7
ＭＳ ゴシック
 11
0.0
 21
1.0
 31
0.0
 73
     1
 44
1.0
  0
POINT
  5
4EFD
330
4EF4
100
AcDbEntity
  8
Defpoints
 62
     0
100
AcDbPoint
 10
150.7043454386834
 20
457.711427100288
 30
0.0
  0
POINT
  5
4EFE
330
4EF4
100
AcDbEntity
  8
Defpoints
 62
     0
100
AcDbPoint
 10
165.131925733825
 20
389.5771408405531
 30
0.0
  0
POINT
  5
4EFF
330
4EF4
100
AcDbEntity
  8
Defpoints
 62
     0
100
AcDbPoint
 10
124.4090168514825
 20
389.5771408405531
 30
0.0
  0
ENDBLK
  5
4EF6
330
4EF4
100
AcDbEntity
  8
0
100
AcDbBlockEnd
  0
BLOCK
  5
5043
330
5042
100
AcDbEntity
  8
0
100
AcDbBlockBegin
  2
*D6
 70
     1
 10
0.0
 20
0.0
 30
0.0
  3
*D6
  1
*D207
  0
LINE
  5
5045
330
5042
100
AcDbEntity
  8
寸法
  6
Continuous
 62
     0
370
    -2
100
AcDbLine
 10
165.131925733825
 20
384.5771408405531
 30
0.0
 11
165.131925733825
 21
370.5388411485959
 31
0.0
  0
LINE
  5
5046
330
5042
100
AcDbEntity
  8
寸法
  6
Continuous
 62
     0
370
    -2
100
AcDbLine
 10
311.4183773961797
 20
399.1305914353681
 30
0.0
 11
311.4183773961797
 21
370.5388411485959
 31
0.0
  0
LINE
  5
5047
330
5042
100
AcDbEntity
  8
寸法
  6
Continuous
 62
     0
370
    -2
100
AcDbLine
 10
166.631925733825
 20
370.5388411485959
 30
0.0
 11
309.9183773961797
 21
370.5388411485959
 31
0.0
  0
INSERT
  5
5048
330
5042
100
AcDbEntity
  8
寸法
 62
     0
370
    -2
100
AcDbBlockReference
  2
_DOT
 10
165.131925733825
 20
370.5388411485959
 30
0.0
 41
1.5
 42
1.5
 43
1.5
 50
180.0
  0
INSERT
  5
5049
330
5042
100
AcDbEntity
  8
寸法
 62
     0
370
    -2
100
AcDbBlockReference
  2
_DOT
 10
311.4183773961797
 20
370.5388411485959
 30
0.0
 41
1.5
 42
1.5
 43
1.5
  0
MTEXT
  5
504A
330
5042
100
AcDbEntity
  8
寸法
  6
Continuous
 62
     0
100
AcDbMText
 10
238.2751515650024
 20
375.5388411485959
 30
0.0
 40
6.0
 41
0.0
 46
0.0
 71
     5
 72
     1
  1
\A1;146
  7
ＭＳ ゴシック
 73
     1
 44
1.0
  0
POINT
  5
504B
330
5042
100
AcDbEntity
  8
Defpoints
 62
     0
100
AcDbPoint
 10
165.131925733825
 20
389.5771408405531
 30
0.0
  0
POINT
  5
504C
330
5042
100
AcDbEntity
  8
Defpoints
 62
     0
100
AcDbPoint
 10
311.4183773961797
 20
404.1305914353681
 30
0.0
  0
POINT
  5
504D
330
5042
100
AcDbEntity
  8
Defpoints
 62
     0
100
AcDbPoint
 10
311.4183773961797
 20
370.5388411485959
 30
0.0
  0
ENDBLK
  5
5044
330
5042
100
AcDbEntity
  8
0
100
AcDbBlockEnd
  0
BLOCK
  5
52A7
330
52A6
100
AcDbEntity
  8
0
100
AcDbBlockBegin
  2
*D7
 70
     1
 10
0.0
 20
0.0
 30
0.0
  3
*D7
  1
*D226
  0
LINE
  5
52A9
330
52A6
100
AcDbEntity
  8
寸法
  6
Continuous
 62
     0
370
    -2
100
AcDbLine
 10
172.1310644601869
 20
307.3779471493081
 30
0.0
 11
125.5788355726735
 21
307.3779471493081
 31
0.0
  0
LINE
  5
52AA
330
52A6
100
AcDbEntity
  8
寸法
  6
Continuous
 62
     0
370
    -2
100
AcDbLine
 10
175.5636663473824
 20
260.422827948755
 30
0.0
 11
125.5788355726735
 21
260.422827948755
 31
0.0
  0
LINE
  5
52AB
330
52A6
100
AcDbEntity
  8
寸法
  6
Continuous
 62
     0
370
    -2
100
AcDbLine
 10
125.5788355726735
 20
305.8779471493081
 30
0.0
 11
125.5788355726735
 21
261.922827948755
 31
0.0
  0
INSERT
  5
52AC
330
52A6
100
AcDbEntity
  8
寸法
 62
     0
370
    -2
100
AcDbBlockReference
  2
_DOT
 10
125.5788355726735
 20
307.3779471493081
 30
0.0
 41
1.5
 42
1.5
 43
1.5
 50
90.0
  0
INSERT
  5
52AD
330
52A6
100
AcDbEntity
  8
寸法
 62
     0
370
    -2
100
AcDbBlockReference
  2
_DOT
 10
125.5788355726735
 20
260.422827948755
 30
0.0
 41
1.5
 42
1.5
 43
1.5
 50
270.0
  0
MTEXT
  5
52AE
330
52A6
100
AcDbEntity
  8
寸法
  6
Continuous
 62
     0
100
AcDbMText
 10
120.5788355726735
 20
283.9003875490315
 30
0.0
 40
6.0
 41
0.0
 46
0.0
 71
     5
 72
     1
  1
\A1;47
  7
ＭＳ ゴシック
 11
0.0
 21
1.0
 31
0.0
 73
     1
 44
1.0
  0
POINT
  5
52AF
330
52A6
100
AcDbEntity
  8
Defpoints
 62
     0
100
AcDbPoint
 10
177.1310644601869
 20
307.3779471493081
 30
0.0
  0
POINT
  5
52B0
330
52A6
100
AcDbEntity
  8
Defpoints
 62
     0
100
AcDbPoint
 10
180.5636663473824
 20
260.422827948755
 30
0.0
  0
POINT
  5
52B1
330
52A6
100
AcDbEntity
  8
Defpoints
 62
     0
100
AcDbPoint
 10
125.5788355726735
 20
260.422827948755
 30
0.0
  0
ENDBLK
  5
52A8
330
52A6
100
AcDbEntity
  8
0
100
AcDbBlockEnd
  0
BLOCK
  5
52B3
330
52B2
100
AcDbEntity
  8
0
100
AcDbBlockBegin
  2
*D8
 70
     1
 10
0.0
 20
0.0
 30
0.0
  3
*D8
  1
*D227
  0
LINE
  5
52B5
330
52B2
100
AcDbEntity
  8
寸法
  6
Continuous
 62
     0
370
    -2
100
AcDbLine
 10
170.5636663473823
 20
260.422827948755
 30
0.0
 11
125.5251726856204
 21
260.422827948755
 31
0.0
  0
LINE
  5
52B6
330
52B2
100
AcDbEntity
  8
寸法
  6
Continuous
 62
     0
370
    -2
100
AcDbLine
 10
165.4905613473822
 20
238.922827948755
 30
0.0
 11
125.5251726856204
 21
238.922827948755
 31
0.0
  0
LINE
  5
52B7
330
52B2
100
AcDbEntity
  8
寸法
  6
Continuous
 62
     0
370
    -2
100
AcDbLine
 10
125.5251726856204
 20
258.922827948755
 30
0.0
 11
125.5251726856204
 21
240.422827948755
 31
0.0
  0
INSERT
  5
52B8
330
52B2
100
AcDbEntity
  8
寸法
 62
     0
370
    -2
100
AcDbBlockReference
  2
_DOT
 10
125.5251726856204
 20
260.422827948755
 30
0.0
 41
1.5
 42
1.5
 43
1.5
 50
90.0
  0
INSERT
  5
52B9
330
52B2
100
AcDbEntity
  8
寸法
 62
     0
370
    -2
100
AcDbBlockReference
  2
_DOT
 10
125.5251726856204
 20
238.922827948755
 30
0.0
 41
1.5
 42
1.5
 43
1.5
 50
270.0
  0
MTEXT
  5
52BA
330
52B2
100
AcDbEntity
  8
寸法
  6
Continuous
 62
     0
100
AcDbMText
 10
120.5251726856204
 20
249.672827948755
 30
0.0
 40
6.0
 41
0.0
 46
0.0
 71
     5
 72
     1
  1
\A1;21.5
  7
ＭＳ ゴシック
 11
0.0
 21
1.0
 31
0.0
 73
     1
 44
1.0
  0
POINT
  5
52BB
330
52B2
100
AcDbEntity
  8
Defpoints
 62
     0
100
AcDbPoint
 10
175.5636663473823
 20
260.422827948755
 30
0.0
  0
POINT
  5
52BC
330
52B2
100
AcDbEntity
  8
Defpoints
 62
     0
100
AcDbPoint
 10
170.4905613473822
 20
238.922827948755
 30
0.0
  0
POINT
  5
52BD
330
52B2
100
AcDbEntity
  8
Defpoints
 62
     0
100
AcDbPoint
 10
125.5251726856204
 20
238.922827948755
 30
0.0
  0
ENDBLK
  5
52B4
330
52B2
100
AcDbEntity
  8
0
100
AcDbBlockEnd
  0
BLOCK
  5
52BF
330
52BE
100
AcDbEntity
  8
0
100
AcDbBlockBegin
  2
*D9
 70
     1
 10
0.0
 20
0.0
 30
0.0
  3
*D9
  1
*D228
  0
LINE
  5
52C1
330
52BE
100
AcDbEntity
  8
寸法
  6
Continuous
 62
     0
370
    -2
100
AcDbLine
 10
164.4588143473822
 20
148.422827948755
 30
0.0
 11
125.5788355726735
 21
148.422827948755
 31
0.0
  0
LINE
  5
52C2
330
52BE
100
AcDbEntity
  8
寸法
  6
Continuous
 62
     0
370
    -2
100
AcDbLine
 10
172.1310644601869
 20
122.3779471493081
 30
0.0
 11
125.5788355726735
 21
122.3779471493081
 31
0.0
  0
LINE
  5
52C3
330
52BE
100
AcDbEntity
  8
寸法
  6
Continuous
 62
     0
370
    -2
100
AcDbLine
 10
125.5788355726735
 20
146.922827948755
 30
0.0
 11
125.5788355726735
 21
123.8779471493081
 31
0.0
  0
INSERT
  5
52C4
330
52BE
100
AcDbEntity
  8
寸法
 62
     0
370
    -2
100
AcDbBlockReference
  2
_DOT
 10
125.5788355726735
 20
148.422827948755
 30
0.0
 41
1.5
 42
1.5
 43
1.5
 50
90.0
  0
INSERT
  5
52C5
330
52BE
100
AcDbEntity
  8
寸法
 62
     0
370
    -2
100
AcDbBlockReference
  2
_DOT
 10
125.5788355726735
 20
122.3779471493081
 30
0.0
 41
1.5
 42
1.5
 43
1.5
 50
270.0
  0
MTEXT
  5
52C6
330
52BE
100
AcDbEntity
  8
寸法
  6
Continuous
 62
     0
100
AcDbMText
 10
120.5788355726735
 20
135.4003875490315
 30
0.0
 40
6.0
 41
0.0
 46
0.0
 71
     5
 72
     1
  1
\A1;26
  7
ＭＳ ゴシック
 11
0.0
 21
1.0
 31
0.0
 73
     1
 44
1.0
  0
POINT
  5
52C7
330
52BE
100
AcDbEntity
  8
Defpoints
 62
     0
100
AcDbPoint
 10
169.4588143473822
 20
148.422827948755
 30
0.0
  0
POINT
  5
52C8
330
52BE
100
AcDbEntity
  8
Defpoints
 62
     0
100
AcDbPoint
 10
177.1310644601869
 20
122.3779471493081
 30
0.0
  0
POINT
  5
52C9
330
52BE
100
AcDbEntity
  8
Defpoints
 62
     0
100
AcDbPoint
 10
125.5788355726735
 20
122.3779471493081
 30
0.0
  0
ENDBLK
  5
52C0
330
52BE
100
AcDbEntity
  8
0
100
AcDbBlockEnd
  0
BLOCK
  5
52CB
330
52CA
100
AcDbEntity
  8
0
100
AcDbBlockBegin
  2
*D10
 70
     1
 10
0.0
 20
0.0
 30
0.0
  3
*D10
  1
*D229
  0
LINE
  5
52CD
330
52CA
100
AcDbEntity
  8
寸法
  6
Continuous
 62
     0
370
    -2
100
AcDbLine
 10
166.6362963473823
 20
238.922827948755
 30
0.0
 11
125.5788355726735
 21
238.922827948755
 31
0.0
  0
LINE
  5
52CE
330
52CA
100
AcDbEntity
  8
寸法
  6
Continuous
 62
     0
370
    -2
100
AcDbLine
 10
166.7362963473822
 20
148.422827948755
 30
0.0
 11
125.5788355726735
 21
148.422827948755
 31
0.0
  0
LINE
  5
52CF
330
52CA
100
AcDbEntity
  8
寸法
  6
Continuous
 62
     0
370
    -2
100
AcDbLine
 10
125.5788355726735
 20
237.422827948755
 30
0.0
 11
125.5788355726735
 21
149.922827948755
 31
0.0
  0
INSERT
  5
52D0
330
52CA
100
AcDbEntity
  8
寸法
 62
     0
370
    -2
100
AcDbBlockReference
  2
_DOT
 10
125.5788355726735
 20
238.922827948755
 30
0.0
 41
1.5
 42
1.5
 43
1.5
 50
90.0
  0
INSERT
  5
52D1
330
52CA
100
AcDbEntity
  8
寸法
 62
     0
370
    -2
100
AcDbBlockReference
  2
_DOT
 10
125.5788355726735
 20
148.422827948755
 30
0.0
 41
1.5
 42
1.5
 43
1.5
 50
270.0
  0
MTEXT
  5
52D2
330
52CA
100
AcDbEntity
  8
寸法
  6
Continuous
 62
     0
100
AcDbMText
 10
120.5788355726735
 20
193.672827948755
 30
0.0
 40
6.0
 41
0.0
 46
0.0
 71
     5
 72
     1
  1
\A1;90.5
  7
ＭＳ ゴシック
 11
0.0
 21
1.0
 31
0.0
 73
     1
 44
1.0
  0
POINT
  5
52D3
330
52CA
100
AcDbEntity
  8
Defpoints
 62
     0
100
AcDbPoint
 10
171.6362963473823
 20
238.922827948755
 30
0.0
  0
POINT
  5
52D4
330
52CA
100
AcDbEntity
  8
Defpoints
 62
     0
100
AcDbPoint
 10
171.7362963473822
 20
148.422827948755
 30
0.0
  0
POINT
  5
52D5
330
52CA
100
AcDbEntity
  8
Defpoints
 62
     0
100
AcDbPoint
 10
125.5788355726735
 20
148.422827948755
 30
0.0
  0
ENDBLK
  5
52CC
330
52CA
100
AcDbEntity
  8
0
100
AcDbBlockEnd
  0
BLOCK
  5
531F
330
531E
100
AcDbEntity
  8
0
100
AcDbBlockBegin
  2
*D11
 70
     1
 10
0.0
 20
0.0
 30
0.0
  3
*D11
  1
*D236
  0
LINE
  5
5321
330
531E
100
AcDbEntity
  8
寸法
  6
Continuous
 62
     0
370
    -2
100
AcDbLine
 10
177.1319257346262
 20
489.3571621002881
 30
0.0
 11
177.1319257346262
 21
502.1747610008059
 31
0.0
  0
LINE
  5
5322
330
531E
100
AcDbEntity
  8
寸法
  6
Continuous
 62
     0
370
    -2
100
AcDbLine
 10
283.1319257346262
 20
490.640500100288
 30
0.0
 11
283.1319257346262
 21
502.1747610008059
 31
0.0
  0
LINE
  5
5323
330
531E
100
AcDbEntity
  8
寸法
  6
Continuous
 62
     0
370
    -2
100
AcDbLine
 10
178.6319257346262
 20
502.1747610008059
 30
0.0
 11
281.6319257346262
 21
502.1747610008059
 31
0.0
  0
INSERT
  5
5324
330
531E
100
AcDbEntity
  8
寸法
 62
     0
370
    -2
100
AcDbBlockReference
  2
_DOT
 10
177.1319257346262
 20
502.1747610008059
 30
0.0
 41
1.5
 42
1.5
 43
1.5
 50
180.0
  0
INSERT
  5
5325
330
531E
100
AcDbEntity
  8
寸法
 62
     0
370
    -2
100
AcDbBlockReference
  2
_DOT
 10
283.1319257346262
 20
502.1747610008059
 30
0.0
 41
1.5
 42
1.5
 43
1.5
  0
MTEXT
  5
5326
330
531E
100
AcDbEntity
  8
寸法
  6
Continuous
 62
     0
100
AcDbMText
 10
230.1319257346262
 20
507.1747610008059
 30
0.0
 40
6.0
 41
0.0
 46
0.0
 71
     5
 72
     1
  1
\A1;106
  7
ＭＳ ゴシック
 73
     1
 44
1.0
  0
POINT
  5
5327
330
531E
100
AcDbEntity
  8
Defpoints
 62
     0
100
AcDbPoint
 10
177.1319257346262
 20
484.3571621002881
 30
0.0
  0
POINT
  5
5328
330
531E
100
AcDbEntity
  8
Defpoints
 62
     0
100
AcDbPoint
 10
283.1319257346262
 20
485.640500100288
 30
0.0
  0
POINT
  5
5329
330
531E
100
AcDbEntity
  8
Defpoints
 62
     0
100
AcDbPoint
 10
283.1319257346262
 20
502.1747610008059
 30
0.0
  0
ENDBLK
  5
5320
330
531E
100
AcDbEntity
  8
0
100
AcDbBlockEnd
  0
BLOCK
  5
532B
330
532A
100
AcDbEntity
  8
0
100
AcDbBlockBegin
  2
*D12
 70
     1
 10
0.0
 20
0.0
 30
0.0
  3
*D12
  1
*D237
  0
LINE
  5
532D
330
532A
100
AcDbEntity
  8
寸法
  6
Continuous
 62
     0
370
    -2
100
AcDbLine
 10
137.6319257346262
 20
482.711427100288
 30
0.0
 11
137.6319257346262
 21
502.1747610008059
 31
0.0
  0
LINE
  5
532E
330
532A
100
AcDbEntity
  8
寸法
  6
Continuous
 62
     0
370
    -2
100
AcDbLine
 10
177.1319257346262
 20
489.3571621002881
 30
0.0
 11
177.1319257346262
 21
502.1747610008059
 31
0.0
  0
LINE
  5
532F
330
532A
100
AcDbEntity
  8
寸法
  6
Continuous
 62
     0
370
    -2
100
AcDbLine
 10
139.1319257346262
 20
502.1747610008059
 30
0.0
 11
175.6319257346262
 21
502.1747610008059
 31
0.0
  0
INSERT
  5
5330
330
532A
100
AcDbEntity
  8
寸法
 62
     0
370
    -2
100
AcDbBlockReference
  2
_DOT
 10
137.6319257346262
 20
502.1747610008059
 30
0.0
 41
1.5
 42
1.5
 43
1.5
 50
180.0
  0
INSERT
  5
5331
330
532A
100
AcDbEntity
  8
寸法
 62
     0
370
    -2
100
AcDbBlockReference
  2
_DOT
 10
177.1319257346262
 20
502.1747610008059
 30
0.0
 41
1.5
 42
1.5
 43
1.5
  0
MTEXT
  5
5332
330
532A
100
AcDbEntity
  8
寸法
  6
Continuous
 62
     0
100
AcDbMText
 10
157.3819257346262
 20
507.1747610008059
 30
0.0
 40
6.0
 41
0.0
 46
0.0
 71
     5
 72
     1
  1
\A1;39.5
  7
ＭＳ ゴシック
 73
     1
 44
1.0
  0
POINT
  5
5333
330
532A
100
AcDbEntity
  8
Defpoints
 62
     0
100
AcDbPoint
 10
137.6319257346262
 20
477.711427100288
 30
0.0
  0
POINT
  5
5334
330
532A
100
AcDbEntity
  8
Defpoints
 62
     0
100
AcDbPoint
 10
177.1319257346262
 20
484.3571621002881
 30
0.0
  0
POINT
  5
5335
330
532A
100
AcDbEntity
  8
Defpoints
 62
     0
100
AcDbPoint
 10
177.1319257346262
 20
502.1747610008059
 30
0.0
  0
ENDBLK
  5
532C
330
532A
100
AcDbEntity
  8
0
100
AcDbBlockEnd
  0
BLOCK
  5
5337
330
5336
100
AcDbEntity
  8
0
100
AcDbBlockBegin
  2
*D13
 70
     1
 10
0.0
 20
0.0
 30
0.0
  3
*D13
  1
*D238
  0
LINE
  5
5339
330
5336
100
AcDbEntity
  8
寸法
  6
Continuous
 62
     0
370
    -2
100
AcDbLine
 10
283.1319257346262
 20
490.640500100288
 30
0.0
 11
283.1319257346262
 21
502.1747610008059
 31
0.0
  0
LINE
  5
533A
330
5336
100
AcDbEntity
  8
寸法
  6
Continuous
 62
     0
370
    -2
100
AcDbLine
 10
322.6319257346262
 20
482.711427100288
 30
0.0
 11
322.6319257346262
 21
502.1747610008059
 31
0.0
  0
LINE
  5
533B
330
5336
100
AcDbEntity
  8
寸法
  6
Continuous
 62
     0
370
    -2
100
AcDbLine
 10
284.6319257346262
 20
502.1747610008059
 30
0.0
 11
321.1319257346262
 21
502.1747610008059
 31
0.0
  0
INSERT
  5
533C
330
5336
100
AcDbEntity
  8
寸法
 62
     0
370
    -2
100
AcDbBlockReference
  2
_DOT
 10
283.1319257346262
 20
502.1747610008059
 30
0.0
 41
1.5
 42
1.5
 43
1.5
 50
180.0
  0
INSERT
  5
533D
330
5336
100
AcDbEntity
  8
寸法
 62
     0
370
    -2
100
AcDbBlockReference
  2
_DOT
 10
322.6319257346262
 20
502.1747610008059
 30
0.0
 41
1.5
 42
1.5
 43
1.5
  0
MTEXT
  5
533E
330
5336
100
AcDbEntity
  8
寸法
  6
Continuous
 62
     0
100
AcDbMText
 10
302.8819257346262
 20
507.1747610008059
 30
0.0
 40
6.0
 41
0.0
 46
0.0
 71
     5
 72
     1
  1
\A1;39.5
  7
ＭＳ ゴシック
 73
     1
 44
1.0
  0
POINT
  5
533F
330
5336
100
AcDbEntity
  8
Defpoints
 62
     0
100
AcDbPoint
 10
283.1319257346262
 20
485.640500100288
 30
0.0
  0
POINT
  5
5340
330
5336
100
AcDbEntity
  8
Defpoints
 62
     0
100
AcDbPoint
 10
322.6319257346262
 20
477.711427100288
 30
0.0
  0
POINT
  5
5341
330
5336
100
AcDbEntity
  8
Defpoints
 62
     0
100
AcDbPoint
 10
322.6319257346262
 20
502.1747610008059
 30
0.0
  0
ENDBLK
  5
5338
330
5336
100
AcDbEntity
  8
0
100
AcDbBlockEnd
  0
BLOCK
  5
535B
330
535A
100
AcDbEntity
  8
0
100
AcDbBlockBegin
  2
*D14
 70
     1
 10
0.0
 20
0.0
 30
0.0
  3
*D14
  1
*D241
  0
LINE
  5
535D
330
535A
100
AcDbEntity
  8
寸法
  6
Continuous
 62
     0
370
    -2
100
AcDbLine
 10
195.1319257346262
 20
480.640500100288
 30
0.0
 11
195.1319257346262
 21
488.543966994637
 31
0.0
  0
LINE
  5
535E
330
535A
100
AcDbEntity
  8
寸法
  6
Continuous
 62
     0
370
    -2
100
AcDbLine
 10
265.1319257346262
 20
480.640500100288
 30
0.0
 11
265.1319257346262
 21
488.543966994637
 31
0.0
  0
LINE
  5
535F
330
535A
100
AcDbEntity
  8
寸法
  6
Continuous
 62
     0
370
    -2
100
AcDbLine
 10
196.6319257346262
 20
488.543966994637
 30
0.0
 11
263.6319257346262
 21
488.543966994637
 31
0.0
  0
INSERT
  5
5360
330
535A
100
AcDbEntity
  8
寸法
 62
     0
370
    -2
100
AcDbBlockReference
  2
_DOT
 10
195.1319257346262
 20
488.543966994637
 30
0.0
 41
1.5
 42
1.5
 43
1.5
 50
180.0
  0
INSERT
  5
5361
330
535A
100
AcDbEntity
  8
寸法
 62
     0
370
    -2
100
AcDbBlockReference
  2
_DOT
 10
265.1319257346262
 20
488.543966994637
 30
0.0
 41
1.5
 42
1.5
 43
1.5
  0
MTEXT
  5
5362
330
535A
100
AcDbEntity
  8
寸法
  6
Continuous
 62
     0
100
AcDbMText
 10
230.1319257346262
 20
493.543966994637
 30
0.0
 40
6.0
 41
0.0
 46
0.0
 71
     5
 72
     1
  1
\A1;70
  7
ＭＳ ゴシック
 73
     1
 44
1.0
  0
POINT
  5
5363
330
535A
100
AcDbEntity
  8
Defpoints
 62
     0
100
AcDbPoint
 10
195.1319257346262
 20
475.640500100288
 30
0.0
  0
POINT
  5
5364
330
535A
100
AcDbEntity
  8
Defpoints
 62
     0
100
AcDbPoint
 10
265.1319257346262
 20
475.640500100288
 30
0.0
  0
POINT
  5
5365
330
535A
100
AcDbEntity
  8
Defpoints
 62
     0
100
AcDbPoint
 10
265.1319257346262
 20
488.543966994637
 30
0.0
  0
ENDBLK
  5
535C
330
535A
100
AcDbEntity
  8
0
100
AcDbBlockEnd
  0
BLOCK
  5
5389
330
5388
100
AcDbEntity
  8
0
100
AcDbBlockBegin
  2
*D15
 70
     1
 10
0.0
 20
0.0
 30
0.0
  3
*D15
  1
*D244
  0
LINE
  5
538B
330
5388
100
AcDbEntity
  8
寸法
  6
Continuous
 62
     0
370
    -2
100
AcDbLine
 10
132.6319257346262
 20
467.711427100288
 30
0.0
 11
124.3058980412941
 21
467.711427100288
 31
0.0
  0
LINE
  5
538C
330
5388
100
AcDbEntity
  8
寸法
  6
Continuous
 62
     0
370
    -2
100
AcDbLine
 10
145.7043454386834
 20
457.711427100288
 30
0.0
 11
124.3058980412941
 21
457.711427100288
 31
0.0
  0
LINE
  5
538D
330
5388
100
AcDbEntity
  8
寸法
  6
Continuous
 62
     0
370
    -2
100
AcDbLine
 10
124.3058980412941
 20
466.211427100288
 30
0.0
 11
124.3058980412941
 21
459.211427100288
 31
0.0
  0
INSERT
  5
538E
330
5388
100
AcDbEntity
  8
寸法
 62
     0
370
    -2
100
AcDbBlockReference
  2
_DOT
 10
124.3058980412941
 20
467.711427100288
 30
0.0
 41
1.5
 42
1.5
 43
1.5
 50
90.0
  0
INSERT
  5
538F
330
5388
100
AcDbEntity
  8
寸法
 62
     0
370
    -2
100
AcDbBlockReference
  2
_DOT
 10
124.3058980412941
 20
457.711427100288
 30
0.0
 41
1.5
 42
1.5
 43
1.5
 50
270.0
  0
MTEXT
  5
5390
330
5388
100
AcDbEntity
  8
寸法
  6
Continuous
 62
     0
100
AcDbMText
 10
119.3058980412941
 20
462.7551516088369
 30
0.0
 40
6.0
 41
0.0
 46
0.0
 71
     5
 72
     1
  1
\A1;10
  7
ＭＳ ゴシック
 11
0.0
 21
1.0
 31
0.0
 73
     1
 44
1.0
  0
POINT
  5
5391
330
5388
100
AcDbEntity
  8
Defpoints
 62
     0
100
AcDbPoint
 10
137.6319257346262
 20
467.711427100288
 30
0.0
  0
POINT
  5
5392
330
5388
100
AcDbEntity
  8
Defpoints
 62
     0
100
AcDbPoint
 10
150.7043454386834
 20
457.711427100288
 30
0.0
  0
POINT
  5
5393
330
5388
100
AcDbEntity
  8
Defpoints
 62
     0
100
AcDbPoint
 10
124.3058980412941
 20
457.711427100288
 30
0.0
  0
ENDBLK
  5
538A
330
5388
100
AcDbEntity
  8
0
100
AcDbBlockEnd
  0
BLOCK
  5
53DC
330
53DB
100
AcDbEntity
  8
0
100
AcDbBlockBegin
  2
*D16
 70
     1
 10
0.0
 20
0.0
 30
0.0
  3
*D16
  1
*D247
  0
LINE
  5
53DE
330
53DB
100
AcDbEntity
  8
寸法
  6
Continuous
 62
     0
370
    -2
100
AcDbLine
 10
600.3152291158422
 20
525.4038005247389
 30
0.0
 11
452.0062099742706
 21
525.4038005247389
 31
0.0
  0
LINE
  5
53DF
330
53DB
100
AcDbEntity
  8
寸法
  6
Continuous
 62
     0
370
    -2
100
AcDbLine
 10
600.3152291158422
 20
340.4038005247389
 30
0.0
 11
452.0062099742706
 21
340.4038005247389
 31
0.0
  0
LINE
  5
53E0
330
53DB
100
AcDbEntity
  8
寸法
  6
Continuous
 62
     0
370
    -2
100
AcDbLine
 10
452.0062099742706
 20
523.9038005247389
 30
0.0
 11
452.0062099742706
 21
341.9038005247389
 31
0.0
  0
INSERT
  5
53E1
330
53DB
100
AcDbEntity
  8
寸法
 62
     0
370
    -2
100
AcDbBlockReference
  2
_DOT
 10
452.0062099742706
 20
525.4038005247389
 30
0.0
 41
1.5
 42
1.5
 43
1.5
 50
90.0
  0
INSERT
  5
53E2
330
53DB
100
AcDbEntity
  8
寸法
 62
     0
370
    -2
100
AcDbBlockReference
  2
_DOT
 10
452.0062099742706
 20
340.4038005247389
 30
0.0
 41
1.5
 42
1.5
 43
1.5
 50
270.0
  0
MTEXT
  5
53E3
330
53DB
100
AcDbEntity
  8
寸法
  6
Continuous
 62
     0
100
AcDbMText
 10
446.5202099742706
 20
432.9038005247389
 30
0.0
 40
6.0
 41
0.0
 46
0.0
 71
     5
 72
     1
  1
\A1;φ185
  7
ＭＳ ゴシック
 11
0.0
 21
1.0
 31
0.0
 73
     1
 44
1.0
  0
POINT
  5
53E4
330
53DB
100
AcDbEntity
  8
Defpoints
 62
     0
100
AcDbPoint
 10
605.3152291158422
 20
525.4038005247389
 30
0.0
  0
POINT
  5
53E5
330
53DB
100
AcDbEntity
  8
Defpoints
 62
     0
100
AcDbPoint
 10
605.3152291158422
 20
340.4038005247389
 30
0.0
  0
POINT
  5
53E6
330
53DB
100
AcDbEntity
  8
Defpoints
 62
     0
100
AcDbPoint
 10
452.0062099742706
 20
340.4038005247389
 30
0.0
  0
ENDBLK
  5
53DD
330
53DB
100
AcDbEntity
  8
0
100
AcDbBlockEnd
  0
BLOCK
  5
53EB
330
53EA
100
AcDbEntity
  8
0
100
AcDbBlockBegin
  2
*D17
 70
     1
 10
0.0
 20
0.0
 30
0.0
  3
*D17
  1
*D248
  0
LINE
  5
53ED
330
53EA
100
AcDbEntity
  8
寸法
  6
Continuous
 62
     0
370
    -2
100
AcDbLine
 10
600.3152291158422
 20
525.4038005247389
 30
0.0
 11
477.5297326799068
 21
525.4038005247389
 31
0.0
  0
LINE
  5
53EE
330
53EA
100
AcDbEntity
  8
寸法
  6
Continuous
 62
     0
370
    -2
100
AcDbLine
 10
537.065749115842
 20
406.4012535247392
 30
0.0
 11
477.5297326799068
 21
406.4012535247392
 31
0.0
  0
LINE
  5
53EF
330
53EA
100
AcDbEntity
  8
寸法
  6
Continuous
 62
     0
370
    -2
100
AcDbLine
 10
477.5297326799068
 20
523.9038005247389
 30
0.0
 11
477.5297326799068
 21
407.9012535247392
 31
0.0
  0
INSERT
  5
53F0
330
53EA
100
AcDbEntity
  8
寸法
 62
     0
370
    -2
100
AcDbBlockReference
  2
_DOT
 10
477.5297326799068
 20
525.4038005247389
 30
0.0
 41
1.5
 42
1.5
 43
1.5
 50
90.0
  0
INSERT
  5
53F1
330
53EA
100
AcDbEntity
  8
寸法
 62
     0
370
    -2
100
AcDbBlockReference
  2
_DOT
 10
477.5297326799068
 20
406.4012535247392
 30
0.0
 41
1.5
 42
1.5
 43
1.5
 50
270.0
  0
MTEXT
  5
53F2
330
53EA
100
AcDbEntity
  8
寸法
  6
Continuous
 62
     0
100
AcDbMText
 10
472.5297326799068
 20
465.9025270247391
 30
0.0
 40
6.0
 41
0.0
 46
0.0
 71
     5
 72
     1
  1
\A1;119
  7
ＭＳ ゴシック
 11
0.0
 21
1.0
 31
0.0
 73
     1
 44
1.0
  0
POINT
  5
53F3
330
53EA
100
AcDbEntity
  8
Defpoints
 62
     0
100
AcDbPoint
 10
605.3152291158422
 20
525.4038005247389
 30
0.0
  0
POINT
  5
53F4
330
53EA
100
AcDbEntity
  8
Defpoints
 62
     0
100
AcDbPoint
 10
542.065749115842
 20
406.4012535247392
 30
0.0
  0
POINT
  5
53F5
330
53EA
100
AcDbEntity
  8
Defpoints
 62
     0
100
AcDbPoint
 10
477.5297326799068
 20
406.4012535247392
 30
0.0
  0
ENDBLK
  5
53EC
330
53EA
100
AcDbEntity
  8
0
100
AcDbBlockEnd
  0
BLOCK
  5
53FA
330
53F9
100
AcDbEntity
  8
0
100
AcDbBlockBegin
  2
*D18
 70
     1
 10
0.0
 20
0.0
 30
0.0
  3
*D18
  1
*D249
  0
LINE
  5
53FC
330
53F9
100
AcDbEntity
  8
寸法
  6
Continuous
 62
     0
370
    -2
100
AcDbLine
 10
537.065749115842
 20
406.4012535247392
 30
0.0
 11
477.5297326799068
 21
406.4012535247392
 31
0.0
  0
LINE
  5
53FD
330
53F9
100
AcDbEntity
  8
寸法
  6
Continuous
 62
     0
370
    -2
100
AcDbLine
 10
540.5652291158422
 20
386.6012535247389
 30
0.0
 11
477.5297326799068
 21
386.6012535247389
 31
0.0
  0
LINE
  5
53FE
330
53F9
100
AcDbEntity
  8
寸法
  6
Continuous
 62
     0
370
    -2
100
AcDbLine
 10
477.5297326799068
 20
404.9012535247392
 30
0.0
 11
477.5297326799068
 21
388.1012535247389
 31
0.0
  0
INSERT
  5
53FF
330
53F9
100
AcDbEntity
  8
寸法
 62
     0
370
    -2
100
AcDbBlockReference
  2
_DOT
 10
477.5297326799068
 20
406.4012535247392
 30
0.0
 41
1.5
 42
1.5
 43
1.5
 50
90.0
  0
INSERT
  5
5400
330
53F9
100
AcDbEntity
  8
寸法
 62
     0
370
    -2
100
AcDbBlockReference
  2
_DOT
 10
477.5297326799068
 20
386.6012535247389
 30
0.0
 41
1.5
 42
1.5
 43
1.5
 50
270.0
  0
MTEXT
  5
5401
330
53F9
100
AcDbEntity
  8
寸法
  6
Continuous
 62
     0
100
AcDbMText
 10
472.5297326799068
 20
396.5012535247391
 30
0.0
 40
6.0
 41
0.0
 46
0.0
 71
     5
 72
     1
  1
\A1;21
  7
ＭＳ ゴシック
 11
0.0
 21
1.0
 31
0.0
 73
     1
 44
1.0
  0
POINT
  5
5402
330
53F9
100
AcDbEntity
  8
Defpoints
 62
     0
100
AcDbPoint
 10
542.065749115842
 20
406.4012535247392
 30
0.0
  0
POINT
  5
5403
330
53F9
100
AcDbEntity
  8
Defpoints
 62
     0
100
AcDbPoint
 10
545.5652291158422
 20
386.6012535247389
 30
0.0
  0
POINT
  5
5404
330
53F9
100
AcDbEntity
  8
Defpoints
 62
     0
100
AcDbPoint
 10
477.5297326799068
 20
386.6012535247389
 30
0.0
  0
ENDBLK
  5
53FB
330
53F9
100
AcDbEntity
  8
0
100
AcDbBlockEnd
  0
BLOCK
  5
5409
330
5408
100
AcDbEntity
  8
0
100
AcDbBlockBegin
  2
*D19
 70
     1
 10
0.0
 20
0.0
 30
0.0
  3
*D19
  1
*D250
  0
LINE
  5
540B
330
5408
100
AcDbEntity
  8
寸法
  6
Continuous
 62
     0
370
    -2
100
AcDbLine
 10
542.1152291158421
 20
386.6012535247389
 30
0.0
 11
477.3351524878164
 21
386.6012535247389
 31
0.0
  0
LINE
  5
540C
330
5408
100
AcDbEntity
  8
寸法
  6
Continuous
 62
     0
370
    -2
100
AcDbLine
 10
600.3152291158422
 20
340.4038005247389
 30
0.0
 11
477.3351524878164
 21
340.4038005247389
 31
0.0
  0
LINE
  5
540D
330
5408
100
AcDbEntity
  8
寸法
  6
Continuous
 62
     0
370
    -2
100
AcDbLine
 10
477.3351524878164
 20
385.1012535247389
 30
0.0
 11
477.3351524878164
 21
341.9038005247389
 31
0.0
  0
INSERT
  5
540E
330
5408
100
AcDbEntity
  8
寸法
 62
     0
370
    -2
100
AcDbBlockReference
  2
_DOT
 10
477.3351524878164
 20
386.6012535247389
 30
0.0
 41
1.5
 42
1.5
 43
1.5
 50
90.0
  0
INSERT
  5
540F
330
5408
100
AcDbEntity
  8
寸法
 62
     0
370
    -2
100
AcDbBlockReference
  2
_DOT
 10
477.3351524878164
 20
340.4038005247389
 30
0.0
 41
1.5
 42
1.5
 43
1.5
 50
270.0
  0
MTEXT
  5
5410
330
5408
100
AcDbEntity
  8
寸法
  6
Continuous
 62
     0
100
AcDbMText
 10
472.3351524878164
 20
363.5025270247389
 30
0.0
 40
6.0
 41
0.0
 46
0.0
 71
     5
 72
     1
  1
\A1;45
  7
ＭＳ ゴシック
 11
0.0
 21
1.0
 31
0.0
 73
     1
 44
1.0
  0
POINT
  5
5411
330
5408
100
AcDbEntity
  8
Defpoints
 62
     0
100
AcDbPoint
 10
547.1152291158421
 20
386.6012535247389
 30
0.0
  0
POINT
  5
5412
330
5408
100
AcDbEntity
  8
Defpoints
 62
     0
100
AcDbPoint
 10
605.3152291158422
 20
340.4038005247389
 30
0.0
  0
POINT
  5
5413
330
5408
100
AcDbEntity
  8
Defpoints
 62
     0
100
AcDbPoint
 10
477.3351524878164
 20
340.4038005247389
 30
0.0
  0
ENDBLK
  5
540A
330
5408
100
AcDbEntity
  8
0
100
AcDbBlockEnd
  0
BLOCK
  5
5418
330
5417
100
AcDbEntity
  8
0
100
AcDbBlockBegin
  2
*D20
 70
     1
 10
0.0
 20
0.0
 30
0.0
  3
*D20
  1
*D251
  0
LINE
  5
541A
330
5417
100
AcDbEntity
  8
寸法
  6
Continuous
 62
     0
370
    -2
100
AcDbLine
 10
250.8665141205616
 20
296.4812206297561
 30
0.0
 11
271.6334357966439
 21
296.4812206297561
 31
0.0
  0
LINE
  5
541B
330
5417
100
AcDbEntity
  8
寸法
  6
Continuous
 62
     0
370
    -2
100
AcDbLine
 10
236.4999749586026
 20
248.1804957420638
 30
0.0
 11
271.6334357966439
 21
248.1804957420638
 31
0.0
  0
LINE
  5
541C
330
5417
100
AcDbEntity
  8
寸法
  6
Continuous
 62
     0
370
    -2
100
AcDbLine
 10
271.6334357966439
 20
294.9812206297561
 30
0.0
 11
271.6334357966439
 21
249.6804957420638
 31
0.0
  0
INSERT
  5
541D
330
5417
100
AcDbEntity
  8
寸法
 62
     0
370
    -2
100
AcDbBlockReference
  2
_DOT
 10
271.6334357966439
 20
296.4812206297561
 30
0.0
 41
1.5
 42
1.5
 43
1.5
 50
90.0
  0
INSERT
  5
541E
330
5417
100
AcDbEntity
  8
寸法
 62
     0
370
    -2
100
AcDbBlockReference
  2
_DOT
 10
271.6334357966439
 20
248.1804957420638
 30
0.0
 41
1.5
 42
1.5
 43
1.5
 50
270.0
  0
MTEXT
  5
541F
330
5417
100
AcDbEntity
  8
寸法
  6
Continuous
 62
     0
100
AcDbMText
 10
266.6334357966439
 20
273.2290411252141
 30
0.0
 40
6.0
 41
0.0
 46
0.0
 71
     5
 72
     1
  1
\A1;48
  7
ＭＳ ゴシック
 11
0.0
 21
1.0
 31
0.0
 73
     1
 44
1.0
  0
POINT
  5
5420
330
5417
100
AcDbEntity
  8
Defpoints
 62
     0
100
AcDbPoint
 10
245.8665141205616
 20
296.4812206297561
 30
0.0
  0
POINT
  5
5421
330
5417
100
AcDbEntity
  8
Defpoints
 62
     0
100
AcDbPoint
 10
231.4999749586026
 20
248.1804957420638
 30
0.0
  0
POINT
  5
5422
330
5417
100
AcDbEntity
  8
Defpoints
 62
     0
100
AcDbPoint
 10
271.6334357966439
 20
248.1804957420638
 30
0.0
  0
ENDBLK
  5
5419
330
5417
100
AcDbEntity
  8
0
100
AcDbBlockEnd
  0
BLOCK
  5
55A3
330
55A2
100
AcDbEntity
  8
0
100
AcDbBlockBegin
  2
名称未設定-1
 70
     0
 10
0.0
 20
0.0
 30
0.0
  3
名称未設定-1
  1
名称未設定-1
  0
INSERT
  5
55A4
330
55A2
100
AcDbEntity
  8
TFORMLOGO
100
AcDbBlockReference
  2
block 2
 10
0.0
 20
0.0
 30
0.0
  0
ENDBLK
  5
55C9
330
55A2
100
AcDbEntity
  8
0
100
AcDbBlockEnd
  0
BLOCK
  5
55A6
330
55A5
100
AcDbEntity
  8
0
100
AcDbBlockBegin
  2
block 2
 70
     0
 10
0.0
 20
0.0
 30
0.0
  3
block 2
  1
block 2
  0
INSERT
  5
55A7
330
55A5
100
AcDbEntity
  8
TFORMLOGO
100
AcDbBlockReference
  2
block 3
 10
0.0
 20
0.0
 30
0.0
  0
ENDBLK
  5
55C8
330
55A5
100
AcDbEntity
  8
0
100
AcDbBlockEnd
  0
BLOCK
  5
55DF
330
55DE
100
AcDbEntity
  8
0
100
AcDbBlockBegin
  2
*D23
 70
     1
 10
0.0
 20
0.0
 30
0.0
  3
*D23
  1
*D53
  0
LINE
  5
55E0
330
55DE
100
AcDbEntity
  8
寸法
  6
Continuous
 62
     0
370
    -2
100
AcDbLine
 10
94.93135926942057
 20
348.7335990428101
 30
0.0
 11
82.57835042397778
 21
348.7335990428101
 31
0.0
  0
LINE
  5
55E1
330
55DE
100
AcDbEntity
  8
寸法
  6
Continuous
 62
     0
370
    -2
100
AcDbLine
 10
109.4837282141555
 20
341.0341771438358
 30
0.0
 11
82.57835042397778
 21
341.0341771438358
 31
0.0
  0
LINE
  5
55E2
330
55DE
100
AcDbEntity
  8
寸法
  6
Continuous
 62
     0
370
    -2
100
AcDbLine
 10
82.57835042397778
 20
348.7335990428101
 30
0.0
 11
82.57835042397778
 21
341.0341771438358
 31
0.0
  0
LINE
  5
55E3
330
55DE
100
AcDbEntity
  8
寸法
  6
Continuous
 62
     0
370
    -2
100
AcDbLine
 10
82.57835042397778
 20
350.2335990428101
 30
0.0
 11
82.57835042397778
 21
351.7335990428101
 31
0.0
  0
LINE
  5
55E4
330
55DE
100
AcDbEntity
  8
寸法
  6
Continuous
 62
     0
370
    -2
100
AcDbLine
 10
82.57835042397778
 20
339.5341771438358
 30
0.0
 11
82.57835042397778
 21
338.0341771438358
 31
0.0
  0
INSERT
  5
55E5
330
55DE
100
AcDbEntity
  8
寸法
 62
     0
370
    -2
100
AcDbBlockReference
  2
_DOT
 10
82.57835042397778
 20
348.7335990428101
 30
0.0
 41
1.5
 42
1.5
 43
1.5
 50
270.0
  0
INSERT
  5
55E6
330
55DE
100
AcDbEntity
  8
寸法
 62
     0
370
    -2
100
AcDbBlockReference
  2
_DOT
 10
82.57835042397778
 20
341.0341771438358
 30
0.0
 41
1.5
 42
1.5
 43
1.5
 50
90.0
  0
MTEXT
  5
55E7
330
55DE
100
AcDbEntity
  8
寸法
  6
Continuous
 62
     0
100
AcDbMText
 10
78.07835042397778
 20
344.883888093323
 30
0.0
 40
5.0
 41
0.0
 46
0.0
 71
     5
 72
     1
  1
\A1;8
  7
ＭＳ ゴシック
 11
0.0
 21
1.0
 31
0.0
 73
     1
 44
1.0
  0
POINT
  5
5767
330
55DE
100
AcDbEntity
  8
Defpoints
 62
     0
100
AcDbPoint
 10
99.93135926942057
 20
348.7335990428101
 30
0.0
  0
POINT
  5
5768
330
55DE
100
AcDbEntity
  8
Defpoints
 62
     0
100
AcDbPoint
 10
114.4837282141555
 20
341.0341771438358
 30
0.0
  0
POINT
  5
5769
330
55DE
100
AcDbEntity
  8
Defpoints
 62
     0
100
AcDbPoint
 10
82.57835042397778
 20
341.0341771438358
 30
0.0
  0
ENDBLK
  5
55E8
330
55DE
100
AcDbEntity
  8
0
100
AcDbBlockEnd
  0
BLOCK
  5
55EB
330
55EA
100
AcDbEntity
  8
0
100
AcDbBlockBegin
  2
*D24
 70
     1
 10
0.0
 20
0.0
 30
0.0
  3
*D24
  1
*D54
  0
LINE
  5
55EC
330
55EA
100
AcDbEntity
  8
寸法
  6
Continuous
 62
     0
370
    -2
100
AcDbLine
 10
403.8854160529299
 20
348.7990849693352
 30
0.0
 11
364.2169531300075
 21
348.7990849693352
 31
0.0
  0
LINE
  5
55ED
330
55EA
100
AcDbEntity
  8
寸法
  6
Continuous
 62
     0
370
    -2
100
AcDbLine
 10
403.8854160529299
 20
293.7990849693352
 30
0.0
 11
364.2169531300075
 21
293.7990849693352
 31
0.0
  0
LINE
  5
55EE
330
55EA
100
AcDbEntity
  8
寸法
  6
Continuous
 62
     0
370
    -2
100
AcDbLine
 10
364.2169531300075
 20
347.2990849693352
 30
0.0
 11
364.2169531300075
 21
295.2990849693352
 31
0.0
  0
INSERT
  5
55EF
330
55EA
100
AcDbEntity
  8
寸法
 62
     0
370
    -2
100
AcDbBlockReference
  2
_DOT
 10
364.2169531300075
 20
348.7990849693352
 30
0.0
 41
1.5
 42
1.5
 43
1.5
 50
90.0
  0
INSERT
  5
55F0
330
55EA
100
AcDbEntity
  8
寸法
 62
     0
370
    -2
100
AcDbBlockReference
  2
_DOT
 10
364.2169531300075
 20
293.7990849693352
 30
0.0
 41
1.5
 42
1.5
 43
1.5
 50
270.0
  0
MTEXT
  5
55F1
330
55EA
100
AcDbEntity
  8
寸法
  6
Continuous
 62
     0
100
AcDbMText
 10
359.3119531300075
 20
321.2990849693352
 30
0.0
 40
5.0
 41
0.0
 46
0.0
 71
     5
 72
     1
  1
\A1;φ55
  7
ＭＳ ゴシック
 11
0.0
 21
1.0
 31
0.0
 73
     1
 44
1.0
  0
POINT
  5
55F2
330
55EA
100
AcDbEntity
  8
Defpoints
 62
     0
100
AcDbPoint
 10
408.8854160529299
 20
348.7990849693352
 30
0.0
  0
POINT
  5
55F3
330
55EA
100
AcDbEntity
  8
Defpoints
 62
     0
100
AcDbPoint
 10
408.8854160529299
 20
293.7990849693352
 30
0.0
  0
POINT
  5
55F4
330
55EA
100
AcDbEntity
  8
Defpoints
 62
     0
100
AcDbPoint
 10
364.2169531300075
 20
293.7990849693352
 30
0.0
  0
ENDBLK
  5
55F5
330
55EA
100
AcDbEntity
  8
0
100
AcDbBlockEnd
  0
BLOCK
  5
55F8
330
55F7
100
AcDbEntity
  8
0
100
AcDbBlockBegin
  2
*D25
 70
     1
 10
0.0
 20
0.0
 30
0.0
  3
*D25
  1
*D55
  0
LINE
  5
55F9
330
55F7
100
AcDbEntity
  8
寸法
  6
Continuous
 62
     0
370
    -2
100
AcDbLine
 10
94.06705166406618
 20
348.7335990428101
 30
0.0
 11
62.66820315675285
 21
348.7335990428101
 31
0.0
  0
LINE
  5
55FA
330
55F7
100
AcDbEntity
  8
寸法
  6
Continuous
 62
     0
370
    -2
100
AcDbLine
 10
184.9711760191407
 20
281.0777285890699
 30
0.0
 11
62.66820315675284
 21
281.0777285890699
 31
0.0
  0
LINE
  5
55FB
330
55F7
100
AcDbEntity
  8
寸法
  6
Continuous
 62
     0
370
    -2
100
AcDbLine
 10
62.66820315675285
 20
347.2335990428101
 30
0.0
 11
62.66820315675284
 21
282.5777285890699
 31
0.0
  0
INSERT
  5
55FC
330
55F7
100
AcDbEntity
  8
寸法
 62
     0
370
    -2
100
AcDbBlockReference
  2
_DOT
 10
62.66820315675285
 20
348.7335990428101
 30
0.0
 41
1.5
 42
1.5
 43
1.5
 50
90.0
  0
INSERT
  5
55FD
330
55F7
100
AcDbEntity
  8
寸法
 62
     0
370
    -2
100
AcDbBlockReference
  2
_DOT
 10
62.66820315675284
 20
281.0777285890699
 30
0.0
 41
1.5
 42
1.5
 43
1.5
 50
270.0
  0
MTEXT
  5
55FE
330
55F7
100
AcDbEntity
  8
寸法
  6
Continuous
 62
     0
100
AcDbMText
 10
58.16820315675284
 20
314.90566381594
 30
0.0
 40
5.0
 41
0.0
 46
0.0
 71
     5
 72
     1
  1
\A1;68
  7
ＭＳ ゴシック
 11
1.050230720549128E-16
 21
1.0
 31
0.0
 73
     1
 44
1.0
  0
POINT
  5
55FF
330
55F7
100
AcDbEntity
  8
Defpoints
 62
     0
100
AcDbPoint
 10
99.06705166406618
 20
348.7335990428101
 30
0.0
  0
POINT
  5
5600
330
55F7
100
AcDbEntity
  8
Defpoints
 62
     0
100
AcDbPoint
 10
189.9711760191407
 20
281.0777285890699
 30
0.0
  0
POINT
  5
5601
330
55F7
100
AcDbEntity
  8
Defpoints
 62
     0
100
AcDbPoint
 10
62.66820315675284
 20
281.0777285890699
 30
0.0
  0
ENDBLK
  5
5602
330
55F7
100
AcDbEntity
  8
0
100
AcDbBlockEnd
  0
BLOCK
  5
5605
330
5604
100
AcDbEntity
  8
0
100
AcDbBlockBegin
  2
*D26
 70
     1
 10
0.0
 20
0.0
 30
0.0
  3
*D26
  1
*D56
  0
LINE
  5
5606
330
5604
100
AcDbEntity
  8
寸法
  6
Continuous
 62
     0
370
    -2
100
AcDbLine
 10
127.0296484505602
 20
145.053068208781
 30
0.0
 11
127.0296484505602
 21
138.3207352236588
 31
0.0
  0
LINE
  5
5607
330
5604
100
AcDbEntity
  8
寸法
  6
Continuous
 62
     0
370
    -2
100
AcDbLine
 10
134.8816507401137
 20
163.6511043765549
 30
0.0
 11
134.8816507401137
 21
138.3207352236588
 31
0.0
  0
LINE
  5
5608
330
5604
100
AcDbEntity
  8
寸法
  6
Continuous
 62
     0
370
    -2
100
AcDbLine
 10
134.8816507401137
 20
138.3207352236588
 30
0.0
 11
186.7116507401138
 21
138.3207352236588
 31
0.0
  0
INSERT
  5
5609
330
5604
100
AcDbEntity
  8
寸法
 62
     0
370
    -2
100
AcDbBlockReference
  2
_DOT
 10
127.0296484505602
 20
138.3207352236588
 30
0.0
 41
1.5
 42
1.5
 43
1.5
 50
180.0
  0
INSERT
  5
560A
330
5604
100
AcDbEntity
  8
寸法
 62
     0
370
    -2
100
AcDbBlockReference
  2
_DOT
 10
134.8816507401137
 20
138.3207352236588
 30
0.0
 41
1.5
 42
1.5
 43
1.5
  0
MTEXT
  5
560B
330
5604
100
AcDbEntity
  8
寸法
  6
Continuous
 62
     0
100
AcDbMText
 10
164.2966507401138
 20
143.3782352236588
 30
0.0
 40
5.0
 41
0.0
 46
0.0
 71
     5
 72
     1
  1
\A1;プレート部分8
  7
ＭＳ ゴシック
 73
     1
 44
1.0
  0
POINT
  5
560C
330
5604
100
AcDbEntity
  8
Defpoints
 62
     0
100
AcDbPoint
 10
127.0296484505602
 20
150.053068208781
 30
0.0
  0
POINT
  5
560D
330
5604
100
AcDbEntity
  8
Defpoints
 62
     0
100
AcDbPoint
 10
134.8816507401137
 20
168.6511043765549
 30
0.0
  0
POINT
  5
560E
330
5604
100
AcDbEntity
  8
Defpoints
 62
     0
100
AcDbPoint
 10
134.8816507401137
 20
138.3207352236588
 30
0.0
  0
ENDBLK
  5
560F
330
5604
100
AcDbEntity
  8
0
100
AcDbBlockEnd
  0
BLOCK
  5
5614
330
5613
100
AcDbEntity
  8
0
100
AcDbBlockBegin
  2
*D27
 70
     1
 10
0.0
 20
0.0
 30
0.0
  3
*D27
  1
*D57
  0
LINE
  5
5615
330
5613
100
AcDbEntity
  8
寸法
  6
Continuous
 62
     0
370
    -2
100
AcDbLine
 10
110.0726103713298
 20
341.022953810548
 30
0.0
 11
82.52647935856646
 21
341.022953810548
 31
0.0
  0
LINE
  5
5616
330
5613
100
AcDbEntity
  8
寸法
  6
Continuous
 62
     0
370
    -2
100
AcDbLine
 10
189.9711760191407
 20
281.0777285890699
 30
0.0
 11
82.52647935856646
 21
281.0777285890699
 31
0.0
  0
LINE
  5
5617
330
5613
100
AcDbEntity
  8
寸法
  6
Continuous
 62
     0
370
    -2
100
AcDbLine
 10
82.52647935856646
 20
339.522953810548
 30
0.0
 11
82.52647935856646
 21
282.5777285890699
 31
0.0
  0
INSERT
  5
5618
330
5613
100
AcDbEntity
  8
寸法
 62
     0
370
    -2
100
AcDbBlockReference
  2
_DOT
 10
82.52647935856646
 20
341.022953810548
 30
0.0
 41
1.5
 42
1.5
 43
1.5
 50
90.0
  0
INSERT
  5
5619
330
5613
100
AcDbEntity
  8
寸法
 62
     0
370
    -2
100
AcDbBlockReference
  2
_DOT
 10
82.52647935856646
 20
281.0777285890699
 30
0.0
 41
1.5
 42
1.5
 43
1.5
 50
270.0
  0
MTEXT
  5
561A
330
5613
100
AcDbEntity
  8
寸法
  6
Continuous
 62
     0
100
AcDbMText
 10
78.02647935856646
 20
311.0503411998089
 30
0.0
 40
5.0
 41
0.0
 46
0.0
 71
     5
 72
     1
  1
\A1;60
  7
ＭＳ ゴシック
 11
0.0
 21
1.0
 31
0.0
 73
     1
 44
1.0
  0
POINT
  5
561B
330
5613
100
AcDbEntity
  8
Defpoints
 62
     0
100
AcDbPoint
 10
115.0726103713298
 20
341.022953810548
 30
0.0
  0
POINT
  5
561C
330
5613
100
AcDbEntity
  8
Defpoints
 62
     0
100
AcDbPoint
 10
194.9711760191407
 20
281.0777285890699
 30
0.0
  0
POINT
  5
561D
330
5613
100
AcDbEntity
  8
Defpoints
 62
     0
100
AcDbPoint
 10
82.52647935856646
 20
281.0777285890699
 30
0.0
  0
ENDBLK
  5
561E
330
5613
100
AcDbEntity
  8
0
100
AcDbBlockEnd
  0
BLOCK
  5
5670
330
566F
100
AcDbEntity
  8
0
100
AcDbBlockBegin
  2
*D28
 70
     1
 10
0.0
 20
0.0
 30
0.0
  3
*D28
  1
*D58
  0
LINE
  5
5671
330
566F
100
AcDbEntity
  8
寸法
  6
Continuous
 62
     0
370
    -2
100
AcDbLine
 10
115.1935433875918
 20
326.04005183593
 30
0.0
 11
115.1935433875918
 21
262.1267427827099
 31
0.0
  0
LINE
  5
5672
330
566F
100
AcDbEntity
  8
寸法
  6
Continuous
 62
     0
370
    -2
100
AcDbLine
 10
234.1687403875918
 20
292.9484688359301
 30
0.0
 11
234.1687403875918
 21
262.1267427827099
 31
0.0
  0
LINE
  5
5673
330
566F
100
AcDbEntity
  8
寸法
  6
Continuous
 62
     0
370
    -2
100
AcDbLine
 10
116.6935433875918
 20
262.1267427827099
 30
0.0
 11
232.6687403875918
 21
262.1267427827099
 31
0.0
  0
INSERT
  5
5674
330
566F
100
AcDbEntity
  8
寸法
 62
     0
370
    -2
100
AcDbBlockReference
  2
_DOT
 10
115.1935433875918
 20
262.1267427827099
 30
0.0
 41
1.5
 42
1.5
 43
1.5
 50
180.0
  0
INSERT
  5
5675
330
566F
100
AcDbEntity
  8
寸法
 62
     0
370
    -2
100
AcDbBlockReference
  2
_DOT
 10
234.1687403875918
 20
262.1267427827099
 30
0.0
 41
1.5
 42
1.5
 43
1.5
  0
MTEXT
  5
5676
330
566F
100
AcDbEntity
  8
寸法
  6
Continuous
 62
     0
100
AcDbMText
 10
174.6811418875918
 20
266.6267427827099
 30
0.0
 40
5.0
 41
0.0
 46
0.0
 71
     5
 72
     1
  1
\A1;119
  7
ＭＳ ゴシック
 73
     1
 44
1.0
  0
POINT
  5
5677
330
566F
100
AcDbEntity
  8
Defpoints
 62
     0
100
AcDbPoint
 10
115.1935433875918
 20
331.04005183593
 30
0.0
  0
POINT
  5
5678
330
566F
100
AcDbEntity
  8
Defpoints
 62
     0
100
AcDbPoint
 10
234.1687403875918
 20
297.9484688359301
 30
0.0
  0
POINT
  5
5679
330
566F
100
AcDbEntity
  8
Defpoints
 62
     0
100
AcDbPoint
 10
234.1687403875918
 20
262.1267427827099
 30
0.0
  0
ENDBLK
  5
567A
330
566F
100
AcDbEntity
  8
0
100
AcDbBlockEnd
  0
BLOCK
  5
56A4
330
56A3
100
AcDbEntity
  8
0
100
AcDbBlockBegin
  2
*D29
 70
     1
 10
0.0
 20
0.0
 30
0.0
  3
*D29
  1
*D63
  0
LINE
  5
56A5
330
56A3
100
AcDbEntity
  8
寸法
 62
     0
370
    -2
100
AcDbLine
 10
427.8721245115549
 20
172.3452081951892
 30
0.0
 11
427.8721245115549
 21
144.5573006134969
 31
0.0
  0
LINE
  5
56A6
330
56A3
100
AcDbEntity
  8
寸法
 62
     0
370
    -2
100
AcDbLine
 10
389.8721245115548
 20
172.3452081951892
 30
0.0
 11
389.8721245115548
 21
144.5573006134969
 31
0.0
  0
LINE
  5
56A7
330
56A3
100
AcDbEntity
  8
寸法
 62
     0
370
    -2
100
AcDbLine
 10
389.8721245115548
 20
144.5573006134969
 30
0.0
 11
376.2146245115548
 21
144.5573006134969
 31
0.0
  0
LINE
  5
56A8
330
56A3
100
AcDbEntity
  8
寸法
 62
     0
370
    -2
100
AcDbLine
 10
426.3721245115549
 20
144.5573006134969
 30
0.0
 11
391.3721245115548
 21
144.5573006134969
 31
0.0
  0
INSERT
  5
56A9
330
56A3
100
AcDbEntity
  8
寸法
 62
     0
370
    -2
100
AcDbBlockReference
  2
_DOT
 10
427.8721245115549
 20
144.5573006134969
 30
0.0
 41
1.5
 42
1.5
 43
1.5
  0
INSERT
  5
56AA
330
56A3
100
AcDbEntity
  8
寸法
 62
     0
370
    -2
100
AcDbBlockReference
  2
_DOT
 10
389.8721245115548
 20
144.5573006134969
 30
0.0
 41
1.5
 42
1.5
 43
1.5
 50
180.0
  0
POINT
  5
56AB
330
56A3
100
AcDbEntity
  8
Defpoints
 62
     0
100
AcDbPoint
 10
427.8721245115549
 20
177.3452081951892
 30
0.0
  0
POINT
  5
56AC
330
56A3
100
AcDbEntity
  8
Defpoints
 62
     0
100
AcDbPoint
 10
389.8721245115548
 20
177.3452081951892
 30
0.0
  0
POINT
  5
56AD
330
56A3
100
AcDbEntity
  8
Defpoints
 62
     0
100
AcDbPoint
 10
389.8721245115548
 20
144.5573006134969
 30
0.0
  0
ENDBLK
  5
56AE
330
56A3
100
AcDbEntity
  8
0
100
AcDbBlockEnd
  0
BLOCK
  5
56B1
330
56B0
100
AcDbEntity
  8
0
100
AcDbBlockBegin
  2
*D30
 70
     1
 10
0.0
 20
0.0
 30
0.0
  3
*D30
  1
*D67
  0
LINE
  5
56B2
330
56B0
100
AcDbEntity
  8
寸法
 62
     0
370
    -2
100
AcDbLine
 10
389.8721245115548
 20
191.0157099566222
 30
0.0
 11
389.8721245115548
 21
213.8023335341041
 31
0.0
  0
LINE
  5
56B3
330
56B0
100
AcDbEntity
  8
寸法
 62
     0
370
    -2
100
AcDbLine
 10
408.8721245115548
 20
205.1912224768318
 30
0.0
 11
408.8721245115548
 21
213.8023335341041
 31
0.0
  0
LINE
  5
56B4
330
56B0
100
AcDbEntity
  8
寸法
 62
     0
370
    -2
100
AcDbLine
 10
391.3721245115548
 20
213.8023335341041
 30
0.0
 11
407.3721245115548
 21
213.8023335341041
 31
0.0
  0
INSERT
  5
56B5
330
56B0
100
AcDbEntity
  8
寸法
 62
     0
370
    -2
100
AcDbBlockReference
  2
_DOT
 10
389.8721245115548
 20
213.8023335341041
 30
0.0
 41
1.5
 42
1.5
 43
1.5
 50
180.0
  0
INSERT
  5
56B6
330
56B0
100
AcDbEntity
  8
寸法
 62
     0
370
    -2
100
AcDbBlockReference
  2
_DOT
 10
408.8721245115548
 20
213.8023335341041
 30
0.0
 41
1.5
 42
1.5
 43
1.5
  0
MTEXT
  5
56B7
330
56B0
100
AcDbEntity
  8
寸法
  6
Continuous
 62
     0
100
AcDbMText
 10
399.3721245115548
 20
218.3023335341041
 30
0.0
 40
5.0
 41
0.0
 46
0.0
 71
     5
 72
     1
  1
\A1;19
  7
ＭＳ ゴシック
 73
     1
 44
1.0
  0
POINT
  5
56B8
330
56B0
100
AcDbEntity
  8
Defpoints
 62
     0
100
AcDbPoint
 10
389.8721245115548
 20
186.0157099566222
 30
0.0
  0
POINT
  5
56B9
330
56B0
100
AcDbEntity
  8
Defpoints
 62
     0
100
AcDbPoint
 10
408.8721245115548
 20
200.1912224768318
 30
0.0
  0
POINT
  5
56BA
330
56B0
100
AcDbEntity
  8
Defpoints
 62
     0
100
AcDbPoint
 10
408.8721245115548
 20
213.8023335341041
 30
0.0
  0
ENDBLK
  5
56BB
330
56B0
100
AcDbEntity
  8
0
100
AcDbBlockEnd
  0
BLOCK
  5
56BE
330
56BD
100
AcDbEntity
  8
0
100
AcDbBlockBegin
  2
*D31
 70
     1
 10
0.0
 20
0.0
 30
0.0
  3
*D31
  1
*D68
  0
LINE
  5
56BF
330
56BD
100
AcDbEntity
  8
寸法
 62
     0
370
    -2
100
AcDbLine
 10
408.8721245115548
 20
205.1912224768318
 30
0.0
 11
408.8721245115548
 21
213.8023335341041
 31
0.0
  0
LINE
  5
56C0
330
56BD
100
AcDbEntity
  8
寸法
 62
     0
370
    -2
100
AcDbLine
 10
427.8721245115549
 20
191.0157099566222
 30
0.0
 11
427.8721245115549
 21
213.8023335341041
 31
0.0
  0
LINE
  5
56C1
330
56BD
100
AcDbEntity
  8
寸法
 62
     0
370
    -2
100
AcDbLine
 10
410.3721245115548
 20
213.8023335341041
 30
0.0
 11
426.3721245115549
 21
213.8023335341041
 31
0.0
  0
INSERT
  5
56C2
330
56BD
100
AcDbEntity
  8
寸法
 62
     0
370
    -2
100
AcDbBlockReference
  2
_DOT
 10
408.8721245115548
 20
213.8023335341041
 30
0.0
 41
1.5
 42
1.5
 43
1.5
 50
180.0
  0
INSERT
  5
56C3
330
56BD
100
AcDbEntity
  8
寸法
 62
     0
370
    -2
100
AcDbBlockReference
  2
_DOT
 10
427.8721245115549
 20
213.8023335341041
 30
0.0
 41
1.5
 42
1.5
 43
1.5
  0
MTEXT
  5
56C4
330
56BD
100
AcDbEntity
  8
寸法
  6
Continuous
 62
     0
100
AcDbMText
 10
418.3721245115548
 20
218.3023335341041
 30
0.0
 40
5.0
 41
0.0
 46
0.0
 71
     5
 72
     1
  1
\A1;19
  7
ＭＳ ゴシック
 73
     1
 44
1.0
  0
POINT
  5
56C5
330
56BD
100
AcDbEntity
  8
Defpoints
 62
     0
100
AcDbPoint
 10
408.8721245115548
 20
200.1912224768318
 30
0.0
  0
POINT
  5
56C6
330
56BD
100
AcDbEntity
  8
Defpoints
 62
     0
100
AcDbPoint
 10
427.8721245115549
 20
186.0157099566222
 30
0.0
  0
POINT
  5
56C7
330
56BD
100
AcDbEntity
  8
Defpoints
 62
     0
100
AcDbPoint
 10
427.8721245115549
 20
213.8023335341041
 30
0.0
  0
ENDBLK
  5
56C8
330
56BD
100
AcDbEntity
  8
0
100
AcDbBlockEnd
  0
BLOCK
  5
5749
330
5748
100
AcDbEntity
  8
0
100
AcDbBlockBegin
  2
*D32
 70
     1
 10
0.0
 20
0.0
 30
0.0
  3
*D32
  1
*D69
  0
LINE
  5
574A
330
5748
100
AcDbEntity
  8
寸法
 62
     0
370
    -2
100
AcDbLine
 10
108.1825120145531
 20
356.4345575436565
 30
0.0
 11
108.1825120145531
 21
365.9906564456901
 31
0.0
  0
LINE
  5
574B
330
5748
100
AcDbEntity
  8
寸法
 62
     0
370
    -2
100
AcDbLine
 10
146.1825120145531
 20
356.4345575436565
 30
0.0
 11
146.1825120145531
 21
365.9906564456901
 31
0.0
  0
LINE
  5
574C
330
5748
100
AcDbEntity
  8
寸法
 62
     0
370
    -2
100
AcDbLine
 10
109.6825120145531
 20
365.9906564456901
 30
0.0
 11
144.6825120145531
 21
365.9906564456901
 31
0.0
  0
INSERT
  5
574D
330
5748
100
AcDbEntity
  8
寸法
 62
     0
370
    -2
100
AcDbBlockReference
  2
_DOT
 10
108.1825120145531
 20
365.9906564456901
 30
0.0
 41
1.5
 42
1.5
 43
1.5
 50
180.0
  0
INSERT
  5
574E
330
5748
100
AcDbEntity
  8
寸法
 62
     0
370
    -2
100
AcDbBlockReference
  2
_DOT
 10
146.1825120145531
 20
365.9906564456901
 30
0.0
 41
1.5
 42
1.5
 43
1.5
  0
MTEXT
  5
574F
330
5748
100
AcDbEntity
  8
寸法
  6
Continuous
 62
     0
100
AcDbMText
 10
127.1825120145531
 20
370.4906564456901
 30
0.0
 40
5.0
 41
0.0
 46
0.0
 71
     5
 72
     1
  1
\A1;38
  7
ＭＳ ゴシック
 73
     1
 44
1.0
  0
POINT
  5
5750
330
5748
100
AcDbEntity
  8
Defpoints
 62
     0
100
AcDbPoint
 10
108.1825120145531
 20
351.4345575436565
 30
0.0
  0
POINT
  5
5751
330
5748
100
AcDbEntity
  8
Defpoints
 62
     0
100
AcDbPoint
 10
146.1825120145531
 20
351.4345575436565
 30
0.0
  0
POINT
  5
5752
330
5748
100
AcDbEntity
  8
Defpoints
 62
     0
100
AcDbPoint
 10
146.1825120145531
 20
365.9906564456901
 30
0.0
  0
ENDBLK
  5
5753
330
5748
100
AcDbEntity
  8
0
100
AcDbBlockEnd
  0
BLOCK
  5
591D
330
591C
100
AcDbEntity
  8
0
100
AcDbBlockBegin
  2
*D33
 70
     1
 10
0.0
 20
0.0
 30
0.0
  3
*D33
  1
*D34
  0
LINE
  5
591F
330
591C
100
AcDbEntity
  8
寸法
  6
Continuous
 62
     0
370
    -2
100
AcDbLine
 10
458.3256399711349
 20
685.4965095234392
 30
0.0
 11
310.0166208295636
 21
685.4965095234392
 31
0.0
  0
LINE
  5
5920
330
591C
100
AcDbEntity
  8
寸法
  6
Continuous
 62
     0
370
    -2
100
AcDbLine
 10
458.3256399711349
 20
500.4965095234393
 30
0.0
 11
310.0166208295636
 21
500.4965095234393
 31
0.0
  0
LINE
  5
5921
330
591C
100
AcDbEntity
  8
寸法
  6
Continuous
 62
     0
370
    -2
100
AcDbLine
 10
310.0166208295636
 20
683.9965095234392
 30
0.0
 11
310.0166208295636
 21
501.9965095234393
 31
0.0
  0
INSERT
  5
5922
330
591C
100
AcDbEntity
  8
寸法
 62
     0
370
    -2
100
AcDbBlockReference
  2
_DOT
 10
310.0166208295636
 20
685.4965095234392
 30
0.0
 41
1.5
 42
1.5
 43
1.5
 50
90.0
  0
INSERT
  5
5923
330
591C
100
AcDbEntity
  8
寸法
 62
     0
370
    -2
100
AcDbBlockReference
  2
_DOT
 10
310.0166208295636
 20
500.4965095234393
 30
0.0
 41
1.5
 42
1.5
 43
1.5
 50
270.0
  0
MTEXT
  5
5924
330
591C
100
AcDbEntity
  8
寸法
  6
Continuous
 62
     0
100
AcDbMText
 10
305.1116208295636
 20
592.9965095234393
 30
0.0
 40
5.0
 41
0.0
 46
0.0
 71
     5
 72
     1
  1
\A1;φ185
  7
ＭＳ ゴシック
 11
0.0
 21
1.0
 31
0.0
 73
     1
 44
1.0
  0
POINT
  5
5925
330
591C
100
AcDbEntity
  8
Defpoints
 62
     0
100
AcDbPoint
 10
463.3256399711349
 20
685.4965095234392
 30
0.0
  0
POINT
  5
5926
330
591C
100
AcDbEntity
  8
Defpoints
 62
     0
100
AcDbPoint
 10
463.3256399711349
 20
500.4965095234393
 30
0.0
  0
POINT
  5
5927
330
591C
100
AcDbEntity
  8
Defpoints
 62
     0
100
AcDbPoint
 10
310.0166208295636
 20
500.4965095234393
 30
0.0
  0
ENDBLK
  5
591E
330
591C
100
AcDbEntity
  8
0
100
AcDbBlockEnd
  0
BLOCK
  5
5929
330
5928
100
AcDbEntity
  8
0
100
AcDbBlockBegin
  2
*D34
 70
     1
 10
0.0
 20
0.0
 30
0.0
  3
*D34
  1
*D35
  0
LINE
  5
592B
330
5928
100
AcDbEntity
  8
寸法
  6
Continuous
 62
     0
370
    -2
100
AcDbLine
 10
458.3256399711349
 20
685.4965095234392
 30
0.0
 11
335.5401435351997
 21
685.4965095234392
 31
0.0
  0
LINE
  5
592C
330
5928
100
AcDbEntity
  8
寸法
  6
Continuous
 62
     0
370
    -2
100
AcDbLine
 10
395.076159971135
 20
566.4939625234394
 30
0.0
 11
335.5401435351997
 21
566.4939625234394
 31
0.0
  0
LINE
  5
592D
330
5928
100
AcDbEntity
  8
寸法
  6
Continuous
 62
     0
370
    -2
100
AcDbLine
 10
335.5401435351997
 20
683.9965095234392
 30
0.0
 11
335.5401435351997
 21
567.9939625234394
 31
0.0
  0
INSERT
  5
592E
330
5928
100
AcDbEntity
  8
寸法
 62
     0
370
    -2
100
AcDbBlockReference
  2
_DOT
 10
335.5401435351997
 20
685.4965095234392
 30
0.0
 41
1.5
 42
1.5
 43
1.5
 50
90.0
  0
INSERT
  5
592F
330
5928
100
AcDbEntity
  8
寸法
 62
     0
370
    -2
100
AcDbBlockReference
  2
_DOT
 10
335.5401435351997
 20
566.4939625234394
 30
0.0
 41
1.5
 42
1.5
 43
1.5
 50
270.0
  0
MTEXT
  5
5930
330
5928
100
AcDbEntity
  8
寸法
  6
Continuous
 62
     0
100
AcDbMText
 10
331.0401435351997
 20
625.9952360234392
 30
0.0
 40
5.0
 41
0.0
 46
0.0
 71
     5
 72
     1
  1
\A1;119
  7
ＭＳ ゴシック
 11
0.0
 21
1.0
 31
0.0
 73
     1
 44
1.0
  0
POINT
  5
5931
330
5928
100
AcDbEntity
  8
Defpoints
 62
     0
100
AcDbPoint
 10
463.3256399711349
 20
685.4965095234392
 30
0.0
  0
POINT
  5
5932
330
5928
100
AcDbEntity
  8
Defpoints
 62
     0
100
AcDbPoint
 10
400.076159971135
 20
566.4939625234394
 30
0.0
  0
POINT
  5
5933
330
5928
100
AcDbEntity
  8
Defpoints
 62
     0
100
AcDbPoint
 10
335.5401435351997
 20
566.4939625234394
 30
0.0
  0
ENDBLK
  5
592A
330
5928
100
AcDbEntity
  8
0
100
AcDbBlockEnd
  0
BLOCK
  5
5935
330
5934
100
AcDbEntity
  8
0
100
AcDbBlockBegin
  2
*D35
 70
     1
 10
0.0
 20
0.0
 30
0.0
  3
*D35
  1
*D36
  0
LINE
  5
5937
330
5934
100
AcDbEntity
  8
寸法
  6
Continuous
 62
     0
370
    -2
100
AcDbLine
 10
395.076159971135
 20
566.4939625234394
 30
0.0
 11
335.5401435351997
 21
566.4939625234394
 31
0.0
  0
LINE
  5
5938
330
5934
100
AcDbEntity
  8
寸法
  6
Continuous
 62
     0
370
    -2
100
AcDbLine
 10
398.575639971135
 20
546.6939625234392
 30
0.0
 11
335.5401435351997
 21
546.6939625234392
 31
0.0
  0
LINE
  5
5939
330
5934
100
AcDbEntity
  8
寸法
  6
Continuous
 62
     0
370
    -2
100
AcDbLine
 10
335.5401435351997
 20
564.9939625234394
 30
0.0
 11
335.5401435351997
 21
548.1939625234392
 31
0.0
  0
INSERT
  5
593A
330
5934
100
AcDbEntity
  8
寸法
 62
     0
370
    -2
100
AcDbBlockReference
  2
_DOT
 10
335.5401435351997
 20
566.4939625234394
 30
0.0
 41
1.5
 42
1.5
 43
1.5
 50
90.0
  0
INSERT
  5
593B
330
5934
100
AcDbEntity
  8
寸法
 62
     0
370
    -2
100
AcDbBlockReference
  2
_DOT
 10
335.5401435351997
 20
546.6939625234392
 30
0.0
 41
1.5
 42
1.5
 43
1.5
 50
270.0
  0
MTEXT
  5
593C
330
5934
100
AcDbEntity
  8
寸法
  6
Continuous
 62
     0
100
AcDbMText
 10
331.0401435351997
 20
556.5939625234394
 30
0.0
 40
5.0
 41
0.0
 46
0.0
 71
     5
 72
     1
  1
\A1;21
  7
ＭＳ ゴシック
 11
0.0
 21
1.0
 31
0.0
 73
     1
 44
1.0
  0
POINT
  5
593D
330
5934
100
AcDbEntity
  8
Defpoints
 62
     0
100
AcDbPoint
 10
400.076159971135
 20
566.4939625234394
 30
0.0
  0
POINT
  5
593E
330
5934
100
AcDbEntity
  8
Defpoints
 62
     0
100
AcDbPoint
 10
403.575639971135
 20
546.6939625234392
 30
0.0
  0
POINT
  5
593F
330
5934
100
AcDbEntity
  8
Defpoints
 62
     0
100
AcDbPoint
 10
335.5401435351997
 20
546.6939625234392
 30
0.0
  0
ENDBLK
  5
5936
330
5934
100
AcDbEntity
  8
0
100
AcDbBlockEnd
  0
BLOCK
  5
5941
330
5940
100
AcDbEntity
  8
0
100
AcDbBlockBegin
  2
*D36
 70
     1
 10
0.0
 20
0.0
 30
0.0
  3
*D36
  1
*D37
  0
LINE
  5
5943
330
5940
100
AcDbEntity
  8
寸法
  6
Continuous
 62
     0
370
    -2
100
AcDbLine
 10
400.125639971135
 20
546.6939625234392
 30
0.0
 11
335.3455633431095
 21
546.6939625234392
 31
0.0
  0
LINE
  5
5944
330
5940
100
AcDbEntity
  8
寸法
  6
Continuous
 62
     0
370
    -2
100
AcDbLine
 10
458.3256399711349
 20
500.4965095234393
 30
0.0
 11
335.3455633431095
 21
500.4965095234393
 31
0.0
  0
LINE
  5
5945
330
5940
100
AcDbEntity
  8
寸法
  6
Continuous
 62
     0
370
    -2
100
AcDbLine
 10
335.3455633431095
 20
545.1939625234392
 30
0.0
 11
335.3455633431095
 21
501.9965095234393
 31
0.0
  0
INSERT
  5
5946
330
5940
100
AcDbEntity
  8
寸法
 62
     0
370
    -2
100
AcDbBlockReference
  2
_DOT
 10
335.3455633431095
 20
546.6939625234392
 30
0.0
 41
1.5
 42
1.5
 43
1.5
 50
90.0
  0
INSERT
  5
5947
330
5940
100
AcDbEntity
  8
寸法
 62
     0
370
    -2
100
AcDbBlockReference
  2
_DOT
 10
335.3455633431095
 20
500.4965095234393
 30
0.0
 41
1.5
 42
1.5
 43
1.5
 50
270.0
  0
MTEXT
  5
5948
330
5940
100
AcDbEntity
  8
寸法
  6
Continuous
 62
     0
100
AcDbMText
 10
330.8455633431095
 20
523.5952360234392
 30
0.0
 40
5.0
 41
0.0
 46
0.0
 71
     5
 72
     1
  1
\A1;45
  7
ＭＳ ゴシック
 11
0.0
 21
1.0
 31
0.0
 73
     1
 44
1.0
  0
POINT
  5
5949
330
5940
100
AcDbEntity
  8
Defpoints
 62
     0
100
AcDbPoint
 10
405.125639971135
 20
546.6939625234392
 30
0.0
  0
POINT
  5
594A
330
5940
100
AcDbEntity
  8
Defpoints
 62
     0
100
AcDbPoint
 10
463.3256399711349
 20
500.4965095234393
 30
0.0
  0
POINT
  5
594B
330
5940
100
AcDbEntity
  8
Defpoints
 62
     0
100
AcDbPoint
 10
335.3455633431095
 20
500.4965095234393
 30
0.0
  0
ENDBLK
  5
5942
330
5940
100
AcDbEntity
  8
0
100
AcDbBlockEnd
  0
BLOCK
  5
5954
330
5953
100
AcDbEntity
  8
0
100
AcDbBlockBegin
  2
*D37
 70
     1
 10
0.0
 20
0.0
 30
0.0
  3
*D37
  1
*D38
  0
LINE
  5
5956
330
5953
100
AcDbEntity
  8
寸法
 62
     0
370
    -2
100
AcDbLine
 10
408.8721245115548
 20
183.8801795018433
 30
0.0
 11
408.8721245115548
 21
192.4912905591156
 31
0.0
  0
LINE
  5
5957
330
5953
100
AcDbEntity
  8
寸法
 62
     0
370
    -2
100
AcDbLine
 10
427.8721245115549
 20
169.7046669816337
 30
0.0
 11
427.8721245115549
 21
192.4912905591156
 31
0.0
  0
LINE
  5
5958
330
5953
100
AcDbEntity
  8
寸法
 62
     0
370
    -2
100
AcDbLine
 10
410.3721245115548
 20
192.4912905591156
 30
0.0
 11
426.3721245115549
 21
192.4912905591156
 31
0.0
  0
INSERT
  5
5959
330
5953
100
AcDbEntity
  8
寸法
 62
     0
370
    -2
100
AcDbBlockReference
  2
_DOT
 10
408.8721245115548
 20
192.4912905591156
 30
0.0
 41
1.5
 42
1.5
 43
1.5
 50
180.0
  0
INSERT
  5
595A
330
5953
100
AcDbEntity
  8
寸法
 62
     0
370
    -2
100
AcDbBlockReference
  2
_DOT
 10
427.8721245115549
 20
192.4912905591156
 30
0.0
 41
1.5
 42
1.5
 43
1.5
  0
MTEXT
  5
595B
330
5953
100
AcDbEntity
  8
寸法
  6
Continuous
 62
     0
100
AcDbMText
 10
418.3721245115548
 20
196.9912905591156
 30
0.0
 40
5.0
 41
0.0
 46
0.0
 71
     5
 72
     1
  1
\A1;19
  7
ＭＳ ゴシック
 73
     1
 44
1.0
  0
POINT
  5
595C
330
5953
100
AcDbEntity
  8
Defpoints
 62
     0
100
AcDbPoint
 10
408.8721245115548
 20
178.8801795018433
 30
0.0
  0
POINT
  5
595D
330
5953
100
AcDbEntity
  8
Defpoints
 62
     0
100
AcDbPoint
 10
427.8721245115549
 20
164.7046669816337
 30
0.0
  0
POINT
  5
595E
330
5953
100
AcDbEntity
  8
Defpoints
 62
     0
100
AcDbPoint
 10
427.8721245115549
 20
192.4912905591156
 30
0.0
  0
ENDBLK
  5
5955
330
5953
100
AcDbEntity
  8
0
100
AcDbBlockEnd
  0
BLOCK
  5
5960
330
595F
100
AcDbEntity
  8
0
100
AcDbBlockBegin
  2
*D38
 70
     1
 10
0.0
 20
0.0
 30
0.0
  3
*D38
  1
*D39
  0
LINE
  5
5962
330
595F
100
AcDbEntity
  8
寸法
 62
     0
370
    -2
100
AcDbLine
 10
389.8721245115548
 20
169.7046669816337
 30
0.0
 11
389.8721245115548
 21
192.4912905591156
 31
0.0
  0
LINE
  5
5963
330
595F
100
AcDbEntity
  8
寸法
 62
     0
370
    -2
100
AcDbLine
 10
408.8721245115548
 20
183.8801795018433
 30
0.0
 11
408.8721245115548
 21
192.4912905591156
 31
0.0
  0
LINE
  5
5964
330
595F
100
AcDbEntity
  8
寸法
 62
     0
370
    -2
100
AcDbLine
 10
391.3721245115548
 20
192.4912905591156
 30
0.0
 11
407.3721245115548
 21
192.4912905591156
 31
0.0
  0
INSERT
  5
5965
330
595F
100
AcDbEntity
  8
寸法
 62
     0
370
    -2
100
AcDbBlockReference
  2
_DOT
 10
389.8721245115548
 20
192.4912905591156
 30
0.0
 41
1.5
 42
1.5
 43
1.5
 50
180.0
  0
INSERT
  5
5966
330
595F
100
AcDbEntity
  8
寸法
 62
     0
370
    -2
100
AcDbBlockReference
  2
_DOT
 10
408.8721245115548
 20
192.4912905591156
 30
0.0
 41
1.5
 42
1.5
 43
1.5
  0
MTEXT
  5
5967
330
595F
100
AcDbEntity
  8
寸法
  6
Continuous
 62
     0
100
AcDbMText
 10
399.3721245115548
 20
196.9912905591156
 30
0.0
 40
5.0
 41
0.0
 46
0.0
 71
     5
 72
     1
  1
\A1;19
  7
ＭＳ ゴシック
 73
     1
 44
1.0
  0
POINT
  5
5968
330
595F
100
AcDbEntity
  8
Defpoints
 62
     0
100
AcDbPoint
 10
389.8721245115548
 20
164.7046669816337
 30
0.0
  0
POINT
  5
5969
330
595F
100
AcDbEntity
  8
Defpoints
 62
     0
100
AcDbPoint
 10
408.8721245115548
 20
178.8801795018433
 30
0.0
  0
POINT
  5
596A
330
595F
100
AcDbEntity
  8
Defpoints
 62
     0
100
AcDbPoint
 10
408.8721245115548
 20
192.4912905591156
 30
0.0
  0
ENDBLK
  5
5961
330
595F
100
AcDbEntity
  8
0
100
AcDbBlockEnd
  0
BLOCK
  5
596C
330
596B
100
AcDbEntity
  8
0
100
AcDbBlockBegin
  2
*D39
 70
     1
 10
0.0
 20
0.0
 30
0.0
  3
*D39
  1
*D40
  0
LINE
  5
596E
330
596B
100
AcDbEntity
  8
寸法
 62
     0
370
    -2
100
AcDbLine
 10
516.6482352508114
 20
243.0634884228729
 30
0.0
 11
544.4361428325036
 21
243.0634884228729
 31
0.0
  0
LINE
  5
596F
330
596B
100
AcDbEntity
  8
寸法
 62
     0
370
    -2
100
AcDbLine
 10
508.6694511312827
 20
221.5029347260972
 30
0.0
 11
544.4361428325036
 21
221.5029347260972
 31
0.0
  0
LINE
  5
5970
330
596B
100
AcDbEntity
  8
寸法
 62
     0
370
    -2
100
AcDbLine
 10
544.4361428325036
 20
221.5029347260972
 30
0.0
 11
544.4361428325036
 21
203.3994837663986
 31
0.0
  0
LINE
  5
5971
330
596B
100
AcDbEntity
  8
寸法
 62
     0
370
    -2
100
AcDbLine
 10
544.4361428325036
 20
241.5634884228729
 30
0.0
 11
544.4361428325036
 21
223.0029347260972
 31
0.0
  0
INSERT
  5
5972
330
596B
100
AcDbEntity
  8
寸法
 62
     0
370
    -2
100
AcDbBlockReference
  2
_DOT
 10
544.4361428325036
 20
243.0634884228729
 30
0.0
 41
1.5
 42
1.5
 43
1.5
 50
90.0
  0
INSERT
  5
5973
330
596B
100
AcDbEntity
  8
寸法
 62
     0
370
    -2
100
AcDbBlockReference
  2
_DOT
 10
544.4361428325036
 20
221.5029347260972
 30
0.0
 41
1.5
 42
1.5
 43
1.5
 50
270.0
  0
POINT
  5
5974
330
596B
100
AcDbEntity
  8
Defpoints
 62
     0
100
AcDbPoint
 10
511.6482352508114
 20
243.0634884228729
 30
0.0
  0
POINT
  5
5975
330
596B
100
AcDbEntity
  8
Defpoints
 62
     0
100
AcDbPoint
 10
503.6694511312827
 20
221.5029347260972
 30
0.0
  0
POINT
  5
5976
330
596B
100
AcDbEntity
  8
Defpoints
 62
     0
100
AcDbPoint
 10
544.4361428325036
 20
221.5029347260972
 30
0.0
  0
ENDBLK
  5
596D
330
596B
100
AcDbEntity
  8
0
100
AcDbBlockEnd
  0
BLOCK
  5
5A20
330
5A1F
100
AcDbEntity
  8
0
100
AcDbBlockBegin
  2
*D40
 70
     1
 10
0.0
 20
0.0
 30
0.0
  3
*D40
  1
*D43
  0
LINE
  5
5A22
330
5A1F
100
AcDbEntity
  8
寸法
 62
     0
370
    -2
100
AcDbLine
 10
413.8933403920261
 20
97.62295005266596
 30
0.0
 11
436.6812479737184
 21
97.62295005266596
 31
0.0
  0
LINE
  5
5A23
330
5A1F
100
AcDbEntity
  8
寸法
 62
     0
370
    -2
100
AcDbLine
 10
413.8933403920261
 20
79.62295005266596
 30
0.0
 11
436.6812479737184
 21
79.62295005266596
 31
0.0
  0
LINE
  5
5A24
330
5A1F
100
AcDbEntity
  8
寸法
 62
     0
370
    -2
100
AcDbLine
 10
436.6812479737184
 20
79.62295005266596
 30
0.0
 11
436.6812479737184
 21
66.96811184424573
 31
0.0
  0
LINE
  5
5A25
330
5A1F
100
AcDbEntity
  8
寸法
 62
     0
370
    -2
100
AcDbLine
 10
436.6812479737184
 20
96.12295005266596
 30
0.0
 11
436.6812479737184
 21
81.12295005266596
 31
0.0
  0
INSERT
  5
5A26
330
5A1F
100
AcDbEntity
  8
寸法
 62
     0
370
    -2
100
AcDbBlockReference
  2
_DOT
 10
436.6812479737184
 20
97.62295005266596
 30
0.0
 41
1.5
 42
1.5
 43
1.5
 50
90.0
  0
INSERT
  5
5A27
330
5A1F
100
AcDbEntity
  8
寸法
 62
     0
370
    -2
100
AcDbBlockReference
  2
_DOT
 10
436.6812479737184
 20
79.62295005266596
 30
0.0
 41
1.5
 42
1.5
 43
1.5
 50
270.0
  0
POINT
  5
5A28
330
5A1F
100
AcDbEntity
  8
Defpoints
 62
     0
100
AcDbPoint
 10
408.8933403920261
 20
97.62295005266596
 30
0.0
  0
POINT
  5
5A29
330
5A1F
100
AcDbEntity
  8
Defpoints
 62
     0
100
AcDbPoint
 10
408.8933403920261
 20
79.62295005266596
 30
0.0
  0
POINT
  5
5A2A
330
5A1F
100
AcDbEntity
  8
Defpoints
 62
     0
100
AcDbPoint
 10
436.6812479737184
 20
79.62295005266596
 30
0.0
  0
ENDBLK
  5
5A21
330
5A1F
100
AcDbEntity
  8
0
100
AcDbBlockEnd
  0
BLOCK
  5
5A2F
330
5A2E
100
AcDbEntity
  8
0
100
AcDbBlockBegin
  2
*D41
 70
     1
 10
0.0
 20
0.0
 30
0.0
  3
*D41
  1
*D44
  0
LINE
  5
5A31
330
5A2E
100
AcDbEntity
  8
寸法
  6
Continuous
 62
     0
370
    -2
100
AcDbLine
 10
512.3995521482165
 20
172.0029347260972
 30
0.0
 11
527.948143651567
 21
172.0029347260972
 31
0.0
  0
LINE
  5
5A32
330
5A2E
100
AcDbEntity
  8
寸法
  6
Continuous
 62
     0
370
    -2
100
AcDbLine
 10
512.3995521482165
 20
154.0029347260972
 30
0.0
 11
527.948143651567
 21
154.0029347260972
 31
0.0
  0
LINE
  5
5A33
330
5A2E
100
AcDbEntity
  8
寸法
  6
Continuous
 62
     0
370
    -2
100
AcDbLine
 10
527.948143651567
 20
170.5029347260972
 30
0.0
 11
527.948143651567
 21
155.5029347260972
 31
0.0
  0
INSERT
  5
5A34
330
5A2E
100
AcDbEntity
  8
寸法
 62
     0
370
    -2
100
AcDbBlockReference
  2
_DOT
 10
527.948143651567
 20
172.0029347260972
 30
0.0
 41
1.5
 42
1.5
 43
1.5
 50
90.0
  0
INSERT
  5
5A35
330
5A2E
100
AcDbEntity
  8
寸法
 62
     0
370
    -2
100
AcDbBlockReference
  2
_DOT
 10
527.948143651567
 20
154.0029347260972
 30
0.0
 41
1.5
 42
1.5
 43
1.5
 50
270.0
  0
MTEXT
  5
5A36
330
5A2E
100
AcDbEntity
  8
寸法
  6
Continuous
 62
     0
100
AcDbMText
 10
523.448143651567
 20
163.0029347260972
 30
0.0
 40
5.0
 41
0.0
 46
0.0
 71
     5
 72
     1
  1
\A1;18
  7
ＭＳ ゴシック
 11
0.0
 21
1.0
 31
0.0
 73
     1
 44
1.0
  0
POINT
  5
5A37
330
5A2E
100
AcDbEntity
  8
Defpoints
 62
     0
100
AcDbPoint
 10
507.3995521482165
 20
172.0029347260972
 30
0.0
  0
POINT
  5
5A38
330
5A2E
100
AcDbEntity
  8
Defpoints
 62
     0
100
AcDbPoint
 10
507.3995521482165
 20
154.0029347260972
 30
0.0
  0
POINT
  5
5A39
330
5A2E
100
AcDbEntity
  8
Defpoints
 62
     0
100
AcDbPoint
 10
527.948143651567
 20
154.0029347260972
 30
0.0
  0
ENDBLK
  5
5A30
330
5A2E
100
AcDbEntity
  8
0
100
AcDbBlockEnd
  0
BLOCK
  5
5A3E
330
5A3D
100
AcDbEntity
  8
0
100
AcDbBlockBegin
  2
*D42
 70
     1
 10
0.0
 20
0.0
 30
0.0
  3
*D42
  1
*D45
  0
LINE
  5
5A40
330
5A3D
100
AcDbEntity
  8
寸法
  6
Continuous
 62
     0
370
    -2
100
AcDbLine
 10
397.8933403920261
 20
102.622950052666
 30
0.0
 11
397.8933403920261
 21
115.5251060981684
 31
0.0
  0
LINE
  5
5A41
330
5A3D
100
AcDbEntity
  8
寸法
  6
Continuous
 62
     0
370
    -2
100
AcDbLine
 10
419.8933403920261
 20
102.622950052666
 30
0.0
 11
419.8933403920261
 21
115.5251060981684
 31
0.0
  0
LINE
  5
5A42
330
5A3D
100
AcDbEntity
  8
寸法
  6
Continuous
 62
     0
370
    -2
100
AcDbLine
 10
399.3933403920261
 20
115.5251060981684
 30
0.0
 11
418.3933403920261
 21
115.5251060981684
 31
0.0
  0
INSERT
  5
5A43
330
5A3D
100
AcDbEntity
  8
寸法
 62
     0
370
    -2
100
AcDbBlockReference
  2
_DOT
 10
397.8933403920261
 20
115.5251060981684
 30
0.0
 41
1.5
 42
1.5
 43
1.5
 50
180.0
  0
INSERT
  5
5A44
330
5A3D
100
AcDbEntity
  8
寸法
 62
     0
370
    -2
100
AcDbBlockReference
  2
_DOT
 10
419.8933403920261
 20
115.5251060981684
 30
0.0
 41
1.5
 42
1.5
 43
1.5
  0
MTEXT
  5
5A45
330
5A3D
100
AcDbEntity
  8
寸法
  6
Continuous
 62
     0
370
     0
100
AcDbMText
 10
408.8933403920261
 20
120.0251060981684
 30
0.0
 40
5.0
 41
0.0
 46
0.0
 71
     5
 72
     1
  1
\A1;22
  7
ＭＳ ゴシック
 73
     1
 44
1.0
  0
POINT
  5
5A46
330
5A3D
100
AcDbEntity
  8
Defpoints
 62
     0
100
AcDbPoint
 10
397.8933403920261
 20
97.62295005266596
 30
0.0
  0
POINT
  5
5A47
330
5A3D
100
AcDbEntity
  8
Defpoints
 62
     0
100
AcDbPoint
 10
419.8933403920261
 20
97.62295005266596
 30
0.0
  0
POINT
  5
5A48
330
5A3D
100
AcDbEntity
  8
Defpoints
 62
     0
100
AcDbPoint
 10
419.8933403920261
 20
115.5251060981684
 30
0.0
  0
ENDBLK
  5
5A3F
330
5A3D
100
AcDbEntity
  8
0
100
AcDbBlockEnd
  0
BLOCK
  5
5A4D
330
5A4C
100
AcDbEntity
  8
0
100
AcDbBlockBegin
  2
*D43
 70
     1
 10
0.0
 20
0.0
 30
0.0
  3
*D43
  1
*D46
  0
LINE
  5
5A4F
330
5A4C
100
AcDbEntity
  8
寸法
  6
Continuous
 62
     0
370
    -2
100
AcDbLine
 10
502.6694511312827
 20
183.0029347260973
 30
0.0
 11
541.4963843437566
 21
183.0029347260973
 31
0.0
  0
LINE
  5
5A50
330
5A4C
100
AcDbEntity
  8
寸法
  6
Continuous
 62
     0
370
    -2
100
AcDbLine
 10
502.6694511312827
 20
143.0029347260972
 30
0.0
 11
541.4963843437566
 21
143.0029347260972
 31
0.0
  0
LINE
  5
5A51
330
5A4C
100
AcDbEntity
  8
寸法
  6
Continuous
 62
     0
370
    -2
100
AcDbLine
 10
541.4963843437566
 20
181.5029347260973
 30
0.0
 11
541.4963843437566
 21
144.5029347260972
 31
0.0
  0
INSERT
  5
5A52
330
5A4C
100
AcDbEntity
  8
寸法
 62
     0
370
    -2
100
AcDbBlockReference
  2
_DOT
 10
541.4963843437566
 20
183.0029347260973
 30
0.0
 41
1.5
 42
1.5
 43
1.5
 50
90.0
  0
INSERT
  5
5A53
330
5A4C
100
AcDbEntity
  8
寸法
 62
     0
370
    -2
100
AcDbBlockReference
  2
_DOT
 10
541.4963843437566
 20
143.0029347260972
 30
0.0
 41
1.5
 42
1.5
 43
1.5
 50
270.0
  0
MTEXT
  5
5A54
330
5A4C
100
AcDbEntity
  8
寸法
  6
Continuous
 62
     0
100
AcDbMText
 10
536.9963843437566
 20
163.0029347260972
 30
0.0
 40
5.0
 41
0.0
 46
0.0
 71
     5
 72
     1
  1
\A1;40
  7
ＭＳ ゴシック
 11
0.0
 21
1.0
 31
0.0
 73
     1
 44
1.0
  0
POINT
  5
5A55
330
5A4C
100
AcDbEntity
  8
Defpoints
 62
     0
100
AcDbPoint
 10
497.6694511312827
 20
183.0029347260973
 30
0.0
  0
POINT
  5
5A56
330
5A4C
100
AcDbEntity
  8
Defpoints
 62
     0
100
AcDbPoint
 10
497.6694511312827
 20
143.0029347260972
 30
0.0
  0
POINT
  5
5A57
330
5A4C
100
AcDbEntity
  8
Defpoints
 62
     0
100
AcDbPoint
 10
541.4963843437566
 20
143.0029347260972
 30
0.0
  0
ENDBLK
  5
5A4E
330
5A4C
100
AcDbEntity
  8
0
100
AcDbBlockEnd
  0
BLOCK
  5
5A73
330
5A72
100
AcDbEntity
  8
0
100
AcDbBlockBegin
  2
*D44
 70
     1
 10
0.0
 20
0.0
 30
0.0
  3
*D44
  1
*D47
  0
LINE
  5
5A75
330
5A72
100
AcDbEntity
  8
寸法
  6
Continuous
 62
     0
370
    -2
100
AcDbLine
 10
403.8933403920261
 20
68.62295005266596
 30
0.0
 11
389.4787943468996
 21
68.62295005266596
 31
0.0
  0
LINE
  5
5A76
330
5A72
100
AcDbEntity
  8
寸法
  6
Continuous
 62
     0
370
    -2
100
AcDbLine
 10
403.8933403920261
 20
108.622950052666
 30
0.0
 11
389.4787943468996
 21
108.622950052666
 31
0.0
  0
LINE
  5
5A77
330
5A72
100
AcDbEntity
  8
寸法
  6
Continuous
 62
     0
370
    -2
100
AcDbLine
 10
389.4787943468996
 20
70.12295005266596
 30
0.0
 11
389.4787943468996
 21
107.122950052666
 31
0.0
  0
INSERT
  5
5A78
330
5A72
100
AcDbEntity
  8
寸法
 62
     0
370
    -2
100
AcDbBlockReference
  2
_DOT
 10
389.4787943468996
 20
68.62295005266596
 30
0.0
 41
1.5
 42
1.5
 43
1.5
 50
270.0
  0
INSERT
  5
5A79
330
5A72
100
AcDbEntity
  8
寸法
 62
     0
370
    -2
100
AcDbBlockReference
  2
_DOT
 10
389.4787943468996
 20
108.622950052666
 30
0.0
 41
1.5
 42
1.5
 43
1.5
 50
90.0
  0
MTEXT
  5
5A7A
330
5A72
100
AcDbEntity
  8
寸法
  6
Continuous
 62
     0
370
     0
100
AcDbMText
 10
384.9787943468996
 20
88.62295005266598
 30
0.0
 40
5.0
 41
0.0
 46
0.0
 71
     5
 72
     1
  1
\A1;40
  7
ＭＳ ゴシック
 11
0.0
 21
1.0
 31
0.0
 73
     1
 44
1.0
  0
POINT
  5
5A7B
330
5A72
100
AcDbEntity
  8
Defpoints
 62
     0
100
AcDbPoint
 10
408.8933403920261
 20
68.62295005266596
 30
0.0
  0
POINT
  5
5A7C
330
5A72
100
AcDbEntity
  8
Defpoints
 62
     0
100
AcDbPoint
 10
408.8933403920261
 20
108.622950052666
 30
0.0
  0
POINT
  5
5A7D
330
5A72
100
AcDbEntity
  8
Defpoints
 62
     0
100
AcDbPoint
 10
389.4787943468996
 20
108.622950052666
 30
0.0
  0
ENDBLK
  5
5A74
330
5A72
100
AcDbEntity
  8
0
100
AcDbBlockEnd
  0
BLOCK
  5
5AAC
330
5AAB
100
AcDbEntity
  8
0
100
AcDbBlockBegin
  2
*D45
 70
     1
 10
0.0
 20
0.0
 30
0.0
  3
*D45
  1
*D49
  0
LINE
  5
5AAD
330
5AAB
100
AcDbEntity
  8
寸法
 62
     0
370
    -2
100
AcDbLine
 10
12.97878411952871
 20
39.66400465647428
 30
0.0
 11
40.76669170122102
 21
39.66400465647428
 31
0.0
  0
LINE
  5
5AAE
330
5AAB
100
AcDbEntity
  8
寸法
 62
     0
370
    -2
100
AcDbLine
 10
5.0
 20
18.10345095969865
 30
0.0
 11
40.76669170122102
 21
18.10345095969865
 31
0.0
  0
LINE
  5
5AAF
330
5AAB
100
AcDbEntity
  8
寸法
 62
     0
370
    -2
100
AcDbLine
 10
40.76669170122102
 20
18.10345095969865
 30
0.0
 11
40.76669170122102
 21
0.0
 31
0.0
  0
LINE
  5
5AB0
330
5AAB
100
AcDbEntity
  8
寸法
 62
     0
370
    -2
100
AcDbLine
 10
40.76669170122102
 20
38.16400465647428
 30
0.0
 11
40.76669170122102
 21
19.60345095969865
 31
0.0
  0
INSERT
  5
5AB1
330
5AAB
100
AcDbEntity
  8
寸法
 62
     0
370
    -2
100
AcDbBlockReference
  2
_DOT
 10
40.76669170122102
 20
39.66400465647428
 30
0.0
 41
1.5
 42
1.5
 43
1.5
 50
90.0
  0
INSERT
  5
5AB2
330
5AAB
100
AcDbEntity
  8
寸法
 62
     0
370
    -2
100
AcDbBlockReference
  2
_DOT
 10
40.76669170122102
 20
18.10345095969865
 30
0.0
 41
1.5
 42
1.5
 43
1.5
 50
270.0
  0
POINT
  5
5AB3
330
5AAB
100
AcDbEntity
  8
Defpoints
 62
     0
100
AcDbPoint
 10
7.978784119528711
 20
39.66400465647428
 30
0.0
  0
POINT
  5
5AB4
330
5AAB
100
AcDbEntity
  8
Defpoints
 62
     0
100
AcDbPoint
 10
0.0
 20
18.10345095969865
 30
0.0
  0
POINT
  5
5AB5
330
5AAB
100
AcDbEntity
  8
Defpoints
 62
     0
100
AcDbPoint
 10
40.76669170122102
 20
18.10345095969864
 30
0.0
  0
ENDBLK
  5
5AB6
330
5AAB
100
AcDbEntity
  8
0
100
AcDbBlockEnd
  0
BLOCK
  5
5ABE
330
5ABD
100
AcDbEntity
  8
0
100
AcDbBlockBegin
  2
*D46
 70
     1
 10
0.0
 20
0.0
 30
0.0
  3
*D46
  1
*D50
  0
LINE
  5
5AC0
330
5ABD
100
AcDbEntity
  8
寸法
 62
     0
370
    -2
100
AcDbLine
 10
492.6694511312827
 20
143.0029347260972
 30
0.0
 11
474.7861052806721
 21
143.0029347260972
 31
0.0
  0
LINE
  5
5AC1
330
5ABD
100
AcDbEntity
  8
寸法
 62
     0
370
    -2
100
AcDbLine
 10
492.6694511312827
 20
183.0029347260973
 30
0.0
 11
474.7861052806721
 21
183.0029347260973
 31
0.0
  0
LINE
  5
5AC2
330
5ABD
100
AcDbEntity
  8
寸法
 62
     0
370
    -2
100
AcDbLine
 10
474.7861052806721
 20
183.0029347260973
 30
0.0
 11
474.7861052806721
 21
195.0476900369256
 31
0.0
  0
LINE
  5
5AC3
330
5ABD
100
AcDbEntity
  8
寸法
 62
     0
370
    -2
100
AcDbLine
 10
474.7861052806721
 20
144.5029347260972
 30
0.0
 11
474.7861052806721
 21
181.5029347260973
 31
0.0
  0
INSERT
  5
5AC4
330
5ABD
100
AcDbEntity
  8
寸法
 62
     0
370
    -2
100
AcDbBlockReference
  2
_DOT
 10
474.7861052806721
 20
143.0029347260972
 30
0.0
 41
1.5
 42
1.5
 43
1.5
 50
270.0
  0
INSERT
  5
5AC5
330
5ABD
100
AcDbEntity
  8
寸法
 62
     0
370
    -2
100
AcDbBlockReference
  2
_DOT
 10
474.7861052806721
 20
183.0029347260973
 30
0.0
 41
1.5
 42
1.5
 43
1.5
 50
90.0
  0
POINT
  5
5AC6
330
5ABD
100
AcDbEntity
  8
Defpoints
 62
     0
100
AcDbPoint
 10
497.6694511312827
 20
143.0029347260972
 30
0.0
  0
POINT
  5
5AC7
330
5ABD
100
AcDbEntity
  8
Defpoints
 62
     0
100
AcDbPoint
 10
497.6694511312827
 20
183.0029347260973
 30
0.0
  0
POINT
  5
5AC8
330
5ABD
100
AcDbEntity
  8
Defpoints
 62
     0
100
AcDbPoint
 10
474.7861052806721
 20
183.0029347260973
 30
0.0
  0
ENDBLK
  5
5ABF
330
5ABD
100
AcDbEntity
  8
0
100
AcDbBlockEnd
  0
BLOCK
  5
5BAC
330
5BAB
100
AcDbEntity
  8
0
100
AcDbBlockBegin
  2
*D47
 70
     1
 10
0.0
 20
0.0
 30
0.0
  3
*D47
  1
*D49
  0
LINE
  5
5BAD
330
5BAB
100
AcDbEntity
  8
寸法
  6
Continuous
 62
     0
370
    -2
100
AcDbLine
 10
25.02960661531085
 20
77.97169245409674
 30
0.0
 11
19.94973743043306
 21
77.97169245409674
 31
0.0
  0
LINE
  5
5BAE
330
5BAB
100
AcDbEntity
  8
寸法
  6
Continuous
 62
     0
370
    -2
100
AcDbLine
 10
25.02960661531085
 20
59.97169245409674
 30
0.0
 11
19.94973743043306
 21
59.97169245409674
 31
0.0
  0
LINE
  5
5BAF
330
5BAB
100
AcDbEntity
  8
寸法
  6
Continuous
 62
     0
370
    -2
100
AcDbLine
 10
19.94973743043306
 20
76.47169245409674
 30
0.0
 11
19.94973743043306
 21
61.47169245409674
 31
0.0
  0
INSERT
  5
5BB0
330
5BAB
100
AcDbEntity
  8
寸法
 62
     0
370
    -2
100
AcDbBlockReference
  2
_DOT
 10
19.94973743043306
 20
77.97169245409674
 30
0.0
 41
1.5
 42
1.5
 43
1.5
 50
90.0
  0
INSERT
  5
5BB1
330
5BAB
100
AcDbEntity
  8
寸法
 62
     0
370
    -2
100
AcDbBlockReference
  2
_DOT
 10
19.94973743043306
 20
59.97169245409674
 30
0.0
 41
1.5
 42
1.5
 43
1.5
 50
270.0
  0
MTEXT
  5
5BB2
330
5BAB
100
AcDbEntity
  8
寸法
  6
Continuous
 62
     0
100
AcDbMText
 10
14.94973743043306
 20
68.97169245409674
 30
0.0
 40
6.0
 41
0.0
 46
0.0
 71
     5
 72
     1
  1
\A1;18
  7
ＭＳ ゴシック
 11
0.0
 21
1.0
 31
0.0
 73
     1
 44
1.0
  0
POINT
  5
5BB3
330
5BAB
100
AcDbEntity
  8
Defpoints
 62
     0
100
AcDbPoint
 10
30.02960661531085
 20
77.97169245409674
 30
0.0
  0
POINT
  5
5BB4
330
5BAB
100
AcDbEntity
  8
Defpoints
 62
     0
100
AcDbPoint
 10
30.02960661531085
 20
59.97169245409674
 30
0.0
  0
POINT
  5
5BB5
330
5BAB
100
AcDbEntity
  8
Defpoints
 62
     0
100
AcDbPoint
 10
19.94973743043306
 20
59.97169245409674
 30
0.0
  0
ENDBLK
  5
5BB6
330
5BAB
100
AcDbEntity
  8
0
100
AcDbBlockEnd
  0
BLOCK
  5
5BB9
330
5BB8
100
AcDbEntity
  8
0
100
AcDbBlockBegin
  2
*D48
 70
     1
 10
0.0
 20
0.0
 30
0.0
  3
*D48
  1
*D50
  0
LINE
  5
5BBA
330
5BB8
100
AcDbEntity
  8
寸法
  6
Continuous
 62
     0
370
    -2
100
AcDbLine
 10
36.08746693884768
 20
88.97169245409685
 30
0.0
 11
7.000000000000115
 21
88.97169245409685
 31
0.0
  0
LINE
  5
5BBB
330
5BB8
100
AcDbEntity
  8
寸法
  6
Continuous
 62
     0
370
    -2
100
AcDbLine
 10
36.08746693884768
 20
48.9716924540968
 30
0.0
 11
7.000000000000113
 21
48.9716924540968
 31
0.0
  0
LINE
  5
5BBC
330
5BB8
100
AcDbEntity
  8
寸法
  6
Continuous
 62
     0
370
    -2
100
AcDbLine
 10
7.000000000000115
 20
87.47169245409685
 30
0.0
 11
7.000000000000113
 21
50.4716924540968
 31
0.0
  0
INSERT
  5
5BBD
330
5BB8
100
AcDbEntity
  8
寸法
 62
     0
370
    -2
100
AcDbBlockReference
  2
_DOT
 10
7.000000000000115
 20
88.97169245409685
 30
0.0
 41
1.5
 42
1.5
 43
1.5
 50
90.0
  0
INSERT
  5
5BBE
330
5BB8
100
AcDbEntity
  8
寸法
 62
     0
370
    -2
100
AcDbBlockReference
  2
_DOT
 10
7.000000000000113
 20
48.9716924540968
 30
0.0
 41
1.5
 42
1.5
 43
1.5
 50
270.0
  0
MTEXT
  5
5BBF
330
5BB8
100
AcDbEntity
  8
寸法
  6
Continuous
 62
     0
100
AcDbMText
 10
2.000000000000114
 20
68.97169245409674
 30
0.0
 40
6.0
 41
0.0
 46
0.0
 71
     5
 72
     1
  1
\A1;40
  7
ＭＳ ゴシック
 11
6.661338147750930E-17
 21
1.0
 31
0.0
 73
     1
 44
1.0
  0
POINT
  5
5BC0
330
5BB8
100
AcDbEntity
  8
Defpoints
 62
     0
100
AcDbPoint
 10
41.08746693884768
 20
88.97169245409685
 30
0.0
  0
POINT
  5
5BC1
330
5BB8
100
AcDbEntity
  8
Defpoints
 62
     0
100
AcDbPoint
 10
41.08746693884768
 20
48.9716924540968
 30
0.0
  0
POINT
  5
5BC2
330
5BB8
100
AcDbEntity
  8
Defpoints
 62
     0
100
AcDbPoint
 10
7.000000000000113
 20
48.9716924540968
 30
0.0
  0
ENDBLK
  5
5BC3
330
5BB8
100
AcDbEntity
  8
0
100
AcDbBlockEnd
  0
BLOCK
  5
5BC7
330
5BC6
100
AcDbEntity
  8
0
100
AcDbBlockBegin
  2
*D49
 70
     1
 10
0.0
 20
0.0
 30
0.0
  3
*D49
  1
*D51
  0
LINE
  5
5BC8
330
5BC6
100
AcDbEntity
  8
寸法
 62
     0
370
    -2
100
AcDbLine
 10
60.06625105837611
 20
149.0322461508724
 30
0.0
 11
87.85415864006916
 21
149.0322461508724
 31
0.0
  0
LINE
  5
5BC9
330
5BC6
100
AcDbEntity
  8
寸法
 62
     0
370
    -2
100
AcDbLine
 10
52.08746693884768
 20
127.4716924540967
 30
0.0
 11
87.85415864006916
 21
127.4716924540967
 31
0.0
  0
LINE
  5
5BCA
330
5BC6
100
AcDbEntity
  8
寸法
 62
     0
370
    -2
100
AcDbLine
 10
87.85415864006916
 20
127.4716924540967
 30
0.0
 11
87.85415864006916
 21
109.3682414943981
 31
0.0
  0
LINE
  5
5BCB
330
5BC6
100
AcDbEntity
  8
寸法
 62
     0
370
    -2
100
AcDbLine
 10
87.85415864006916
 20
147.5322461508724
 30
0.0
 11
87.85415864006916
 21
128.9716924540967
 31
0.0
  0
INSERT
  5
5BCC
330
5BC6
100
AcDbEntity
  8
寸法
 62
     0
370
    -2
100
AcDbBlockReference
  2
_DOT
 10
87.85415864006916
 20
149.0322461508724
 30
0.0
 41
1.5
 42
1.5
 43
1.5
 50
90.0
  0
INSERT
  5
5BCD
330
5BC6
100
AcDbEntity
  8
寸法
 62
     0
370
    -2
100
AcDbBlockReference
  2
_DOT
 10
87.85415864006916
 20
127.4716924540967
 30
0.0
 41
1.5
 42
1.5
 43
1.5
 50
270.0
  0
POINT
  5
5BCE
330
5BC6
100
AcDbEntity
  8
Defpoints
 62
     0
100
AcDbPoint
 10
55.06625105837611
 20
149.0322461508724
 30
0.0
  0
POINT
  5
5BCF
330
5BC6
100
AcDbEntity
  8
Defpoints
 62
     0
100
AcDbPoint
 10
47.08746693884768
 20
127.4716924540967
 30
0.0
  0
POINT
  5
5BD0
330
5BC6
100
AcDbEntity
  8
Defpoints
 62
     0
100
AcDbPoint
 10
87.85415864006916
 20
127.4716924540967
 30
0.0
  0
ENDBLK
  5
5BD1
330
5BC6
100
AcDbEntity
  8
0
100
AcDbBlockEnd
  0
BLOCK
  5
5BF0
330
5BEF
100
AcDbEntity
  8
0
100
AcDbBlockBegin
  2
*D50
 70
     1
 10
0.0
 20
0.0
 30
0.0
  3
*D50
  1
*D52
  0
LINE
  5
5BF1
330
5BEF
100
AcDbEntity
  8
寸法
 62
     0
370
    -2
100
AcDbLine
 10
41.08746693884768
 20
43.9716924540968
 30
0.0
 11
41.08746693884768
 21
15.47280621445515
 31
0.0
  0
LINE
  5
5BF2
330
5BEF
100
AcDbEntity
  8
寸法
 62
     0
370
    -2
100
AcDbLine
 10
59.00823705837604
 20
26.53224615087225
 30
0.0
 11
59.00823705837604
 21
15.47280621445515
 31
0.0
  0
LINE
  5
5BF3
330
5BEF
100
AcDbEntity
  8
寸法
 62
     0
370
    -2
100
AcDbLine
 10
42.58746693884768
 20
15.47280621445515
 30
0.0
 11
57.50823705837604
 21
15.47280621445515
 31
0.0
  0
INSERT
  5
5BF4
330
5BEF
100
AcDbEntity
  8
寸法
 62
     0
370
    -2
100
AcDbBlockReference
  2
_DOT
 10
41.08746693884768
 20
15.47280621445515
 30
0.0
 41
1.5
 42
1.5
 43
1.5
 50
180.0
  0
INSERT
  5
5BF5
330
5BEF
100
AcDbEntity
  8
寸法
 62
     0
370
    -2
100
AcDbBlockReference
  2
_DOT
 10
59.00823705837604
 20
15.47280621445515
 30
0.0
 41
1.5
 42
1.5
 43
1.5
  0
MTEXT
  5
5BF6
330
5BEF
100
AcDbEntity
  8
寸法
  6
Continuous
 62
     0
100
AcDbMText
 10
50.04785199861186
 20
20.47280621445515
 30
0.0
 40
6.0
 41
0.0
 46
0.0
 71
     5
 72
     1
  1
\A1;18
  7
ＭＳ ゴシック
 73
     1
 44
1.0
  0
POINT
  5
5BF7
330
5BEF
100
AcDbEntity
  8
Defpoints
 62
     0
100
AcDbPoint
 10
41.08746693884768
 20
48.9716924540968
 30
0.0
  0
POINT
  5
5BF8
330
5BEF
100
AcDbEntity
  8
Defpoints
 62
     0
100
AcDbPoint
 10
59.00823705837604
 20
31.53224615087225
 30
0.0
  0
POINT
  5
5BF9
330
5BEF
100
AcDbEntity
  8
Defpoints
 62
     0
100
AcDbPoint
 10
59.00823705837604
 20
15.47280621445515
 30
0.0
  0
ENDBLK
  5
5BFA
330
5BEF
100
AcDbEntity
  8
0
100
AcDbBlockEnd
  0
BLOCK
  5
5BFF
330
5BFE
100
AcDbEntity
  8
0
100
AcDbBlockBegin
  2
*D51
 70
     1
 10
0.0
 20
0.0
 30
0.0
  3
*D51
  1
*D53
  0
LINE
  5
5C00
330
5BFE
100
AcDbEntity
  8
寸法
 62
     0
370
    -2
100
AcDbLine
 10
59.00823705837604
 20
26.53224615087225
 30
0.0
 11
59.00823705837604
 21
15.47280621445515
 31
0.0
  0
LINE
  5
5C01
330
5BFE
100
AcDbEntity
  8
寸法
 62
     0
370
    -2
100
AcDbLine
 10
129.008237058376
 20
26.53224615087225
 30
0.0
 11
129.008237058376
 21
15.47280621445515
 31
0.0
  0
LINE
  5
5C02
330
5BFE
100
AcDbEntity
  8
寸法
 62
     0
370
    -2
100
AcDbLine
 10
60.50823705837604
 20
15.47280621445515
 30
0.0
 11
127.508237058376
 21
15.47280621445515
 31
0.0
  0
INSERT
  5
5C03
330
5BFE
100
AcDbEntity
  8
寸法
 62
     0
370
    -2
100
AcDbBlockReference
  2
_DOT
 10
59.00823705837604
 20
15.47280621445515
 30
0.0
 41
1.5
 42
1.5
 43
1.5
 50
180.0
  0
INSERT
  5
5C04
330
5BFE
100
AcDbEntity
  8
寸法
 62
     0
370
    -2
100
AcDbBlockReference
  2
_DOT
 10
129.008237058376
 20
15.47280621445515
 30
0.0
 41
1.5
 42
1.5
 43
1.5
  0
MTEXT
  5
5C05
330
5BFE
100
AcDbEntity
  8
寸法
  6
Continuous
 62
     0
100
AcDbMText
 10
94.00823705837604
 20
20.47280621445515
 30
0.0
 40
6.0
 41
0.0
 46
0.0
 71
     5
 72
     1
  1
\A1;70
  7
ＭＳ ゴシック
 73
     1
 44
1.0
  0
POINT
  5
5C06
330
5BFE
100
AcDbEntity
  8
Defpoints
 62
     0
100
AcDbPoint
 10
59.00823705837604
 20
31.53224615087225
 30
0.0
  0
POINT
  5
5C07
330
5BFE
100
AcDbEntity
  8
Defpoints
 62
     0
100
AcDbPoint
 10
129.008237058376
 20
31.53224615087225
 30
0.0
  0
POINT
  5
5C08
330
5BFE
100
AcDbEntity
  8
Defpoints
 62
     0
100
AcDbPoint
 10
129.008237058376
 20
15.47280621445515
 30
0.0
  0
ENDBLK
  5
5C09
330
5BFE
100
AcDbEntity
  8
0
100
AcDbBlockEnd
  0
BLOCK
  5
5C0E
330
5C0D
100
AcDbEntity
  8
0
100
AcDbBlockBegin
  2
*D52
 70
     1
 10
0.0
 20
0.0
 30
0.0
  3
*D52
  1
*D54
  0
LINE
  5
5C0F
330
5C0D
100
AcDbEntity
  8
寸法
 62
     0
370
    -2
100
AcDbLine
 10
41.06625105837634
 20
168.5622502441901
 30
0.0
 11
41.06625105837634
 21
187.664096364889
 31
0.0
  0
LINE
  5
5C10
330
5C0D
100
AcDbEntity
  8
寸法
 62
     0
370
    -2
100
AcDbLine
 10
147.0715639880572
 20
138.0375590805537
 30
0.0
 11
147.0715639880572
 21
187.664096364889
 31
0.0
  0
LINE
  5
5C11
330
5C0D
100
AcDbEntity
  8
寸法
 62
     0
370
    -2
100
AcDbLine
 10
42.56625105837634
 20
187.664096364889
 30
0.0
 11
145.5715639880572
 21
187.664096364889
 31
0.0
  0
INSERT
  5
5C12
330
5C0D
100
AcDbEntity
  8
寸法
 62
     0
370
    -2
100
AcDbBlockReference
  2
_DOT
 10
41.06625105837634
 20
187.664096364889
 30
0.0
 41
1.5
 42
1.5
 43
1.5
 50
180.0
  0
INSERT
  5
5C13
330
5C0D
100
AcDbEntity
  8
寸法
 62
     0
370
    -2
100
AcDbBlockReference
  2
_DOT
 10
147.0715639880572
 20
187.664096364889
 30
0.0
 41
1.5
 42
1.5
 43
1.5
  0
MTEXT
  5
5C14
330
5C0D
100
AcDbEntity
  8
寸法
  6
Continuous
 62
     0
100
AcDbMText
 10
94.06890752321675
 20
192.664096364889
 30
0.0
 40
6.0
 41
0.0
 46
0.0
 71
     5
 72
     1
  1
\A1;106
  7
ＭＳ ゴシック
 73
     1
 44
1.0
  0
POINT
  5
5C15
330
5C0D
100
AcDbEntity
  8
Defpoints
 62
     0
100
AcDbPoint
 10
41.06625105837634
 20
163.5622502441901
 30
0.0
  0
POINT
  5
5C16
330
5C0D
100
AcDbEntity
  8
Defpoints
 62
     0
100
AcDbPoint
 10
147.0715639880572
 20
133.0375590805537
 30
0.0
  0
POINT
  5
5C17
330
5C0D
100
AcDbEntity
  8
Defpoints
 62
     0
100
AcDbPoint
 10
147.0715639880572
 20
187.664096364889
 30
0.0
  0
ENDBLK
  5
5C18
330
5C0D
100
AcDbEntity
  8
0
100
AcDbBlockEnd
  0
BLOCK
  5
5C1D
330
5C1C
100
AcDbEntity
  8
0
100
AcDbBlockBegin
  2
*D53
 70
     1
 10
0.0
 20
0.0
 30
0.0
  3
*D53
  1
*D55
  0
LINE
  5
5C1E
330
5C1C
100
AcDbEntity
  8
寸法
 62
     0
370
    -2
100
AcDbLine
 10
92.85415864006916
 20
149.0322461508724
 30
0.0
 11
190.2041932421681
 21
149.0322461508724
 31
0.0
  0
LINE
  5
5C1F
330
5C1C
100
AcDbEntity
  8
寸法
 62
     0
370
    -2
100
AcDbLine
 10
139.508237058376
 20
37.03224615087225
 30
0.0
 11
190.2041932421681
 21
37.03224615087225
 31
0.0
  0
LINE
  5
5C20
330
5C1C
100
AcDbEntity
  8
寸法
 62
     0
370
    -2
100
AcDbLine
 10
190.2041932421681
 20
147.5322461508724
 30
0.0
 11
190.2041932421681
 21
38.53224615087225
 31
0.0
  0
INSERT
  5
5C21
330
5C1C
100
AcDbEntity
  8
寸法
 62
     0
370
    -2
100
AcDbBlockReference
  2
_DOT
 10
190.2041932421681
 20
149.0322461508724
 30
0.0
 41
1.5
 42
1.5
 43
1.5
 50
90.0
  0
INSERT
  5
5C22
330
5C1C
100
AcDbEntity
  8
寸法
 62
     0
370
    -2
100
AcDbBlockReference
  2
_DOT
 10
190.2041932421681
 20
37.03224615087225
 30
0.0
 41
1.5
 42
1.5
 43
1.5
 50
270.0
  0
MTEXT
  5
5C23
330
5C1C
100
AcDbEntity
  8
寸法
  6
Continuous
 62
     0
100
AcDbMText
 10
185.2041932421681
 20
93.03224615087234
 30
0.0
 40
6.0
 41
0.0
 46
0.0
 71
     5
 72
     1
  1
\A1;112
  7
ＭＳ ゴシック
 11
0.0
 21
1.0
 31
0.0
 73
     1
 44
1.0
  0
POINT
  5
5C24
330
5C1C
100
AcDbEntity
  8
Defpoints
 62
     0
100
AcDbPoint
 10
87.85415864006916
 20
149.0322461508724
 30
0.0
  0
POINT
  5
5C25
330
5C1C
100
AcDbEntity
  8
Defpoints
 62
     0
100
AcDbPoint
 10
134.508237058376
 20
37.03224615087225
 30
0.0
  0
POINT
  5
5C26
330
5C1C
100
AcDbEntity
  8
Defpoints
 62
     0
100
AcDbPoint
 10
190.2041932421681
 20
37.03224615087225
 30
0.0
  0
ENDBLK
  5
5C27
330
5C1C
100
AcDbEntity
  8
0
100
AcDbBlockEnd
  0
BLOCK
  5
5C2A
330
5C29
100
AcDbEntity
  8
0
100
AcDbBlockBegin
  2
*D54
 70
     1
 10
0.0
 20
0.0
 30
0.0
  3
*D54
  1
*D56
  0
LINE
  5
5C2B
330
5C29
100
AcDbEntity
  8
寸法
 62
     0
370
    -2
100
AcDbLine
 10
89.91440015132105
 20
68.97169245409685
 30
0.0
 11
168.0336444235642
 21
68.97169245409685
 31
0.0
  0
LINE
  5
5C2C
330
5C29
100
AcDbEntity
  8
寸法
 62
     0
370
    -2
100
AcDbLine
 10
152.0715639880572
 20
149.0322461508724
 30
0.0
 11
168.0336444235642
 21
149.0322461508724
 31
0.0
  0
LINE
  5
5C2D
330
5C29
100
AcDbEntity
  8
寸法
 62
     0
370
    -2
100
AcDbLine
 10
168.0336444235642
 20
70.47169245409685
 30
0.0
 11
168.0336444235642
 21
147.5322461508724
 31
0.0
  0
INSERT
  5
5C2E
330
5C29
100
AcDbEntity
  8
寸法
 62
     0
370
    -2
100
AcDbBlockReference
  2
_DOT
 10
168.0336444235642
 20
68.97169245409685
 30
0.0
 41
1.5
 42
1.5
 43
1.5
 50
270.0
  0
INSERT
  5
5C2F
330
5C29
100
AcDbEntity
  8
寸法
 62
     0
370
    -2
100
AcDbBlockReference
  2
_DOT
 10
168.0336444235642
 20
149.0322461508724
 30
0.0
 41
1.5
 42
1.5
 43
1.5
 50
90.0
  0
MTEXT
  5
5C30
330
5C29
100
AcDbEntity
  8
寸法
  6
Continuous
 62
     0
100
AcDbMText
 10
163.0336444235642
 20
109.0019693024846
 30
0.0
 40
6.0
 41
0.0
 46
0.0
 71
     5
 72
     1
  1
\A1;80
  7
ＭＳ ゴシック
 11
0.0
 21
1.0
 31
0.0
 73
     1
 44
1.0
  0
POINT
  5
5C31
330
5C29
100
AcDbEntity
  8
Defpoints
 62
     0
100
AcDbPoint
 10
84.91440015132105
 20
68.97169245409685
 30
0.0
  0
POINT
  5
5C32
330
5C29
100
AcDbEntity
  8
Defpoints
 62
     0
100
AcDbPoint
 10
147.0715639880572
 20
149.0322461508724
 30
0.0
  0
POINT
  5
5C33
330
5C29
100
AcDbEntity
  8
Defpoints
 62
     0
100
AcDbPoint
 10
168.0336444235642
 20
149.0322461508724
 30
0.0
  0
ENDBLK
  5
5C34
330
5C29
100
AcDbEntity
  8
0
100
AcDbBlockEnd
  0
BLOCK
  5
5CA3
330
5CA2
100
AcDbEntity
  8
0
100
AcDbBlockBegin
  2
*D55
 70
     1
 10
0.0
 20
0.0
 30
0.0
  3
*D55
  1
*D57
  0
LINE
  5
5CA5
330
5CA2
100
AcDbEntity
  8
寸法
  6
Continuous
 62
     0
370
    -2
100
AcDbLine
 10
536.3365986727772
 20
189.3148464525327
 30
0.0
 11
531.2567294878993
 21
189.3148464525327
 31
0.0
  0
LINE
  5
5CA6
330
5CA2
100
AcDbEntity
  8
寸法
  6
Continuous
 62
     0
370
    -2
100
AcDbLine
 10
536.3365986727772
 20
171.3148464525327
 30
0.0
 11
531.2567294878993
 21
171.3148464525327
 31
0.0
  0
LINE
  5
5CA7
330
5CA2
100
AcDbEntity
  8
寸法
  6
Continuous
 62
     0
370
    -2
100
AcDbLine
 10
531.2567294878993
 20
187.8148464525327
 30
0.0
 11
531.2567294878993
 21
172.8148464525327
 31
0.0
  0
INSERT
  5
5CA8
330
5CA2
100
AcDbEntity
  8
寸法
 62
     0
370
    -2
100
AcDbBlockReference
  2
_DOT
 10
531.2567294878993
 20
189.3148464525327
 30
0.0
 41
1.5
 42
1.5
 43
1.5
 50
90.0
  0
INSERT
  5
5CA9
330
5CA2
100
AcDbEntity
  8
寸法
 62
     0
370
    -2
100
AcDbBlockReference
  2
_DOT
 10
531.2567294878993
 20
171.3148464525327
 30
0.0
 41
1.5
 42
1.5
 43
1.5
 50
270.0
  0
MTEXT
  5
5CAA
330
5CA2
100
AcDbEntity
  8
寸法
  6
Continuous
 62
     0
100
AcDbMText
 10
526.2567294878993
 20
180.3148464525327
 30
0.0
 40
6.0
 41
0.0
 46
0.0
 71
     5
 72
     1
  1
\A1;18
  7
ＭＳ ゴシック
 11
0.0
 21
1.0
 31
0.0
 73
     1
 44
1.0
  0
POINT
  5
5CAB
330
5CA2
100
AcDbEntity
  8
Defpoints
 62
     0
100
AcDbPoint
 10
541.3365986727772
 20
189.3148464525327
 30
0.0
  0
POINT
  5
5CAC
330
5CA2
100
AcDbEntity
  8
Defpoints
 62
     0
100
AcDbPoint
 10
541.3365986727772
 20
171.3148464525327
 30
0.0
  0
POINT
  5
5CAD
330
5CA2
100
AcDbEntity
  8
Defpoints
 62
     0
100
AcDbPoint
 10
531.2567294878993
 20
171.3148464525327
 30
0.0
  0
ENDBLK
  5
5CA4
330
5CA2
100
AcDbEntity
  8
0
100
AcDbBlockEnd
  0
BLOCK
  5
5CAF
330
5CAE
100
AcDbEntity
  8
0
100
AcDbBlockBegin
  2
*D56
 70
     1
 10
0.0
 20
0.0
 30
0.0
  3
*D56
  1
*D58
  0
LINE
  5
5CB1
330
5CAE
100
AcDbEntity
  8
寸法
  6
Continuous
 62
     0
370
    -2
100
AcDbLine
 10
547.3944589963139
 20
200.3148464525328
 30
0.0
 11
518.3069920574665
 21
200.3148464525328
 31
0.0
  0
LINE
  5
5CB2
330
5CAE
100
AcDbEntity
  8
寸法
  6
Continuous
 62
     0
370
    -2
100
AcDbLine
 10
547.3944589963139
 20
160.3148464525327
 30
0.0
 11
518.3069920574665
 21
160.3148464525327
 31
0.0
  0
LINE
  5
5CB3
330
5CAE
100
AcDbEntity
  8
寸法
  6
Continuous
 62
     0
370
    -2
100
AcDbLine
 10
518.3069920574665
 20
198.8148464525328
 30
0.0
 11
518.3069920574665
 21
161.8148464525327
 31
0.0
  0
INSERT
  5
5CB4
330
5CAE
100
AcDbEntity
  8
寸法
 62
     0
370
    -2
100
AcDbBlockReference
  2
_DOT
 10
518.3069920574665
 20
200.3148464525328
 30
0.0
 41
1.5
 42
1.5
 43
1.5
 50
90.0
  0
INSERT
  5
5CB5
330
5CAE
100
AcDbEntity
  8
寸法
 62
     0
370
    -2
100
AcDbBlockReference
  2
_DOT
 10
518.3069920574665
 20
160.3148464525327
 30
0.0
 41
1.5
 42
1.5
 43
1.5
 50
270.0
  0
MTEXT
  5
5CB6
330
5CAE
100
AcDbEntity
  8
寸法
  6
Continuous
 62
     0
100
AcDbMText
 10
513.3069920574665
 20
180.3148464525327
 30
0.0
 40
6.0
 41
0.0
 46
0.0
 71
     5
 72
     1
  1
\A1;40
  7
ＭＳ ゴシック
 11
0.0
 21
1.0
 31
0.0
 73
     1
 44
1.0
  0
POINT
  5
5CB7
330
5CAE
100
AcDbEntity
  8
Defpoints
 62
     0
100
AcDbPoint
 10
552.3944589963139
 20
200.3148464525328
 30
0.0
  0
POINT
  5
5CB8
330
5CAE
100
AcDbEntity
  8
Defpoints
 62
     0
100
AcDbPoint
 10
552.3944589963139
 20
160.3148464525327
 30
0.0
  0
POINT
  5
5CB9
330
5CAE
100
AcDbEntity
  8
Defpoints
 62
     0
100
AcDbPoint
 10
518.3069920574665
 20
160.3148464525327
 30
0.0
  0
ENDBLK
  5
5CB0
330
5CAE
100
AcDbEntity
  8
0
100
AcDbBlockEnd
  0
BLOCK
  5
5CBB
330
5CBA
100
AcDbEntity
  8
0
100
AcDbBlockBegin
  2
*D57
 70
     1
 10
0.0
 20
0.0
 30
0.0
  3
*D57
  1
*D59
  0
LINE
  5
5CBD
330
5CBA
100
AcDbEntity
  8
寸法
 62
     0
370
    -2
100
AcDbLine
 10
571.3732431158423
 20
260.3754001493083
 30
0.0
 11
599.1611506975355
 21
260.3754001493083
 31
0.0
  0
LINE
  5
5CBE
330
5CBA
100
AcDbEntity
  8
寸法
 62
     0
370
    -2
100
AcDbLine
 10
563.3944589963139
 20
238.8148464525327
 30
0.0
 11
599.1611506975355
 21
238.8148464525327
 31
0.0
  0
LINE
  5
5CBF
330
5CBA
100
AcDbEntity
  8
寸法
 62
     0
370
    -2
100
AcDbLine
 10
599.1611506975355
 20
238.8148464525327
 30
0.0
 11
599.1611506975355
 21
220.7113954928341
 31
0.0
  0
LINE
  5
5CC0
330
5CBA
100
AcDbEntity
  8
寸法
 62
     0
370
    -2
100
AcDbLine
 10
599.1611506975355
 20
258.8754001493083
 30
0.0
 11
599.1611506975355
 21
240.3148464525327
 31
0.0
  0
INSERT
  5
5CC1
330
5CBA
100
AcDbEntity
  8
寸法
 62
     0
370
    -2
100
AcDbBlockReference
  2
_DOT
 10
599.1611506975355
 20
260.3754001493083
 30
0.0
 41
1.5
 42
1.5
 43
1.5
 50
90.0
  0
INSERT
  5
5CC2
330
5CBA
100
AcDbEntity
  8
寸法
 62
     0
370
    -2
100
AcDbBlockReference
  2
_DOT
 10
599.1611506975355
 20
238.8148464525327
 30
0.0
 41
1.5
 42
1.5
 43
1.5
 50
270.0
  0
POINT
  5
5CC3
330
5CBA
100
AcDbEntity
  8
Defpoints
 62
     0
100
AcDbPoint
 10
566.3732431158423
 20
260.3754001493083
 30
0.0
  0
POINT
  5
5CC4
330
5CBA
100
AcDbEntity
  8
Defpoints
 62
     0
100
AcDbPoint
 10
558.3944589963139
 20
238.8148464525327
 30
0.0
  0
POINT
  5
5CC5
330
5CBA
100
AcDbEntity
  8
Defpoints
 62
     0
100
AcDbPoint
 10
599.1611506975355
 20
238.8148464525327
 30
0.0
  0
ENDBLK
  5
5CBC
330
5CBA
100
AcDbEntity
  8
0
100
AcDbBlockEnd
  0
BLOCK
  5
5CC7
330
5CC6
100
AcDbEntity
  8
0
100
AcDbBlockBegin
  2
*D58
 70
     1
 10
0.0
 20
0.0
 30
0.0
  3
*D58
  1
*D60
  0
LINE
  5
5CC9
330
5CC6
100
AcDbEntity
  8
寸法
 62
     0
370
    -2
100
AcDbLine
 10
552.3944589963139
 20
155.3148464525327
 30
0.0
 11
552.3944589963139
 21
126.8159602128911
 31
0.0
  0
LINE
  5
5CCA
330
5CC6
100
AcDbEntity
  8
寸法
 62
     0
370
    -2
100
AcDbLine
 10
570.3152291158424
 20
137.8754001493082
 30
0.0
 11
570.3152291158424
 21
126.8159602128911
 31
0.0
  0
LINE
  5
5CCB
330
5CC6
100
AcDbEntity
  8
寸法
 62
     0
370
    -2
100
AcDbLine
 10
553.8944589963139
 20
126.8159602128911
 30
0.0
 11
568.8152291158424
 21
126.8159602128911
 31
0.0
  0
INSERT
  5
5CCC
330
5CC6
100
AcDbEntity
  8
寸法
 62
     0
370
    -2
100
AcDbBlockReference
  2
_DOT
 10
552.3944589963139
 20
126.8159602128911
 30
0.0
 41
1.5
 42
1.5
 43
1.5
 50
180.0
  0
INSERT
  5
5CCD
330
5CC6
100
AcDbEntity
  8
寸法
 62
     0
370
    -2
100
AcDbBlockReference
  2
_DOT
 10
570.3152291158424
 20
126.8159602128911
 30
0.0
 41
1.5
 42
1.5
 43
1.5
  0
MTEXT
  5
5CCE
330
5CC6
100
AcDbEntity
  8
寸法
  6
Continuous
 62
     0
100
AcDbMText
 10
561.3548440560782
 20
131.8159602128911
 30
0.0
 40
6.0
 41
0.0
 46
0.0
 71
     5
 72
     1
  1
\A1;18
  7
ＭＳ ゴシック
 73
     1
 44
1.0
  0
POINT
  5
5CCF
330
5CC6
100
AcDbEntity
  8
Defpoints
 62
     0
100
AcDbPoint
 10
552.3944589963139
 20
160.3148464525327
 30
0.0
  0
POINT
  5
5CD0
330
5CC6
100
AcDbEntity
  8
Defpoints
 62
     0
100
AcDbPoint
 10
570.3152291158424
 20
142.8754001493082
 30
0.0
  0
POINT
  5
5CD1
330
5CC6
100
AcDbEntity
  8
Defpoints
 62
     0
100
AcDbPoint
 10
570.3152291158424
 20
126.8159602128911
 30
0.0
  0
ENDBLK
  5
5CC8
330
5CC6
100
AcDbEntity
  8
0
100
AcDbBlockEnd
  0
BLOCK
  5
5CD3
330
5CD2
100
AcDbEntity
  8
0
100
AcDbBlockBegin
  2
*D59
 70
     1
 10
0.0
 20
0.0
 30
0.0
  3
*D59
  1
*D61
  0
LINE
  5
5CD5
330
5CD2
100
AcDbEntity
  8
寸法
 62
     0
370
    -2
100
AcDbLine
 10
570.3152291158424
 20
137.8754001493082
 30
0.0
 11
570.3152291158424
 21
126.8159602128911
 31
0.0
  0
LINE
  5
5CD6
330
5CD2
100
AcDbEntity
  8
寸法
 62
     0
370
    -2
100
AcDbLine
 10
640.3152291158424
 20
137.8754001493082
 30
0.0
 11
640.3152291158424
 21
126.8159602128911
 31
0.0
  0
LINE
  5
5CD7
330
5CD2
100
AcDbEntity
  8
寸法
 62
     0
370
    -2
100
AcDbLine
 10
571.8152291158424
 20
126.8159602128911
 30
0.0
 11
638.8152291158424
 21
126.8159602128911
 31
0.0
  0
INSERT
  5
5CD8
330
5CD2
100
AcDbEntity
  8
寸法
 62
     0
370
    -2
100
AcDbBlockReference
  2
_DOT
 10
570.3152291158424
 20
126.8159602128911
 30
0.0
 41
1.5
 42
1.5
 43
1.5
 50
180.0
  0
INSERT
  5
5CD9
330
5CD2
100
AcDbEntity
  8
寸法
 62
     0
370
    -2
100
AcDbBlockReference
  2
_DOT
 10
640.3152291158424
 20
126.8159602128911
 30
0.0
 41
1.5
 42
1.5
 43
1.5
  0
MTEXT
  5
5CDA
330
5CD2
100
AcDbEntity
  8
寸法
  6
Continuous
 62
     0
100
AcDbMText
 10
605.3152291158424
 20
131.8159602128911
 30
0.0
 40
6.0
 41
0.0
 46
0.0
 71
     5
 72
     1
  1
\A1;70
  7
ＭＳ ゴシック
 73
     1
 44
1.0
  0
POINT
  5
5CDB
330
5CD2
100
AcDbEntity
  8
Defpoints
 62
     0
100
AcDbPoint
 10
570.3152291158424
 20
142.8754001493082
 30
0.0
  0
POINT
  5
5CDC
330
5CD2
100
AcDbEntity
  8
Defpoints
 62
     0
100
AcDbPoint
 10
640.3152291158424
 20
142.8754001493082
 30
0.0
  0
POINT
  5
5CDD
330
5CD2
100
AcDbEntity
  8
Defpoints
 62
     0
100
AcDbPoint
 10
640.3152291158424
 20
126.8159602128911
 30
0.0
  0
ENDBLK
  5
5CD4
330
5CD2
100
AcDbEntity
  8
0
100
AcDbBlockEnd
  0
BLOCK
  5
5CDF
330
5CDE
100
AcDbEntity
  8
0
100
AcDbBlockBegin
  2
*D60
 70
     1
 10
0.0
 20
0.0
 30
0.0
  3
*D60
  1
*D62
  0
LINE
  5
5CE1
330
5CDE
100
AcDbEntity
  8
寸法
 62
     0
370
    -2
100
AcDbLine
 10
552.3732431158426
 20
279.9054042426261
 30
0.0
 11
552.3732431158426
 21
299.0072503633249
 31
0.0
  0
LINE
  5
5CE2
330
5CDE
100
AcDbEntity
  8
寸法
 62
     0
370
    -2
100
AcDbLine
 10
658.3785560455235
 20
249.3807130789896
 30
0.0
 11
658.3785560455235
 21
299.0072503633249
 31
0.0
  0
LINE
  5
5CE3
330
5CDE
100
AcDbEntity
  8
寸法
 62
     0
370
    -2
100
AcDbLine
 10
553.8732431158426
 20
299.0072503633249
 30
0.0
 11
656.8785560455235
 21
299.0072503633249
 31
0.0
  0
INSERT
  5
5CE4
330
5CDE
100
AcDbEntity
  8
寸法
 62
     0
370
    -2
100
AcDbBlockReference
  2
_DOT
 10
552.3732431158426
 20
299.0072503633249
 30
0.0
 41
1.5
 42
1.5
 43
1.5
 50
180.0
  0
INSERT
  5
5CE5
330
5CDE
100
AcDbEntity
  8
寸法
 62
     0
370
    -2
100
AcDbBlockReference
  2
_DOT
 10
658.3785560455235
 20
299.0072503633249
 30
0.0
 41
1.5
 42
1.5
 43
1.5
  0
MTEXT
  5
5CE6
330
5CDE
100
AcDbEntity
  8
寸法
  6
Continuous
 62
     0
100
AcDbMText
 10
605.375899580683
 20
304.0072503633249
 30
0.0
 40
6.0
 41
0.0
 46
0.0
 71
     5
 72
     1
  1
\A1;106
  7
ＭＳ ゴシック
 73
     1
 44
1.0
  0
POINT
  5
5CE7
330
5CDE
100
AcDbEntity
  8
Defpoints
 62
     0
100
AcDbPoint
 10
552.3732431158426
 20
274.9054042426261
 30
0.0
  0
POINT
  5
5CE8
330
5CDE
100
AcDbEntity
  8
Defpoints
 62
     0
100
AcDbPoint
 10
658.3785560455235
 20
244.3807130789896
 30
0.0
  0
POINT
  5
5CE9
330
5CDE
100
AcDbEntity
  8
Defpoints
 62
     0
100
AcDbPoint
 10
658.3785560455235
 20
299.0072503633249
 30
0.0
  0
ENDBLK
  5
5CE0
330
5CDE
100
AcDbEntity
  8
0
100
AcDbBlockEnd
  0
BLOCK
  5
5CEB
330
5CEA
100
AcDbEntity
  8
0
100
AcDbBlockBegin
  2
*D61
 70
     1
 10
0.0
 20
0.0
 30
0.0
  3
*D61
  1
*D63
  0
LINE
  5
5CED
330
5CEA
100
AcDbEntity
  8
寸法
 62
     0
370
    -2
100
AcDbLine
 10
604.1611506975355
 20
260.3754001493083
 30
0.0
 11
711.1522059103731
 21
260.3754001493083
 31
0.0
  0
LINE
  5
5CEE
330
5CEA
100
AcDbEntity
  8
寸法
 62
     0
370
    -2
100
AcDbLine
 10
650.8152291158424
 20
148.3754001493082
 30
0.0
 11
711.1522059103731
 21
148.3754001493082
 31
0.0
  0
LINE
  5
5CEF
330
5CEA
100
AcDbEntity
  8
寸法
 62
     0
370
    -2
100
AcDbLine
 10
711.1522059103731
 20
258.8754001493083
 30
0.0
 11
711.1522059103731
 21
149.8754001493082
 31
0.0
  0
INSERT
  5
5CF0
330
5CEA
100
AcDbEntity
  8
寸法
 62
     0
370
    -2
100
AcDbBlockReference
  2
_DOT
 10
711.1522059103731
 20
260.3754001493083
 30
0.0
 41
1.5
 42
1.5
 43
1.5
 50
90.0
  0
INSERT
  5
5CF1
330
5CEA
100
AcDbEntity
  8
寸法
 62
     0
370
    -2
100
AcDbBlockReference
  2
_DOT
 10
711.1522059103731
 20
148.3754001493082
 30
0.0
 41
1.5
 42
1.5
 43
1.5
 50
270.0
  0
MTEXT
  5
5CF2
330
5CEA
100
AcDbEntity
  8
寸法
  6
Continuous
 62
     0
100
AcDbMText
 10
706.1522059103731
 20
204.3754001493083
 30
0.0
 40
6.0
 41
0.0
 46
0.0
 71
     5
 72
     1
  1
\A1;112
  7
ＭＳ ゴシック
 11
0.0
 21
1.0
 31
0.0
 73
     1
 44
1.0
  0
POINT
  5
5CF3
330
5CEA
100
AcDbEntity
  8
Defpoints
 62
     0
100
AcDbPoint
 10
599.1611506975355
 20
260.3754001493083
 30
0.0
  0
POINT
  5
5CF4
330
5CEA
100
AcDbEntity
  8
Defpoints
 62
     0
100
AcDbPoint
 10
645.8152291158424
 20
148.3754001493082
 30
0.0
  0
POINT
  5
5CF5
330
5CEA
100
AcDbEntity
  8
Defpoints
 62
     0
100
AcDbPoint
 10
711.1522059103731
 20
148.3754001493082
 30
0.0
  0
ENDBLK
  5
5CEC
330
5CEA
100
AcDbEntity
  8
0
100
AcDbBlockEnd
  0
BLOCK
  5
5CF7
330
5CF6
100
AcDbEntity
  8
0
100
AcDbBlockBegin
  2
*D62
 70
     1
 10
0.0
 20
0.0
 30
0.0
  3
*D62
  1
*D64
  0
LINE
  5
5CF9
330
5CF6
100
AcDbEntity
  8
寸法
 62
     0
370
    -2
100
AcDbLine
 10
576.8339454411994
 20
180.3148464525328
 30
0.0
 11
679.3406364810305
 21
180.3148464525328
 31
0.0
  0
LINE
  5
5CFA
330
5CF6
100
AcDbEntity
  8
寸法
 62
     0
370
    -2
100
AcDbLine
 10
663.3785560455235
 20
260.3754001493083
 30
0.0
 11
679.3406364810305
 21
260.3754001493083
 31
0.0
  0
LINE
  5
5CFB
330
5CF6
100
AcDbEntity
  8
寸法
 62
     0
370
    -2
100
AcDbLine
 10
679.3406364810305
 20
181.8148464525328
 30
0.0
 11
679.3406364810305
 21
258.8754001493083
 31
0.0
  0
INSERT
  5
5CFC
330
5CF6
100
AcDbEntity
  8
寸法
 62
     0
370
    -2
100
AcDbBlockReference
  2
_DOT
 10
679.3406364810305
 20
180.3148464525328
 30
0.0
 41
1.5
 42
1.5
 43
1.5
 50
270.0
  0
INSERT
  5
5CFD
330
5CF6
100
AcDbEntity
  8
寸法
 62
     0
370
    -2
100
AcDbBlockReference
  2
_DOT
 10
679.3406364810305
 20
260.3754001493083
 30
0.0
 41
1.5
 42
1.5
 43
1.5
 50
90.0
  0
MTEXT
  5
5CFE
330
5CF6
100
AcDbEntity
  8
寸法
  6
Continuous
 62
     0
100
AcDbMText
 10
674.3406364810305
 20
220.3451233009206
 30
0.0
 40
6.0
 41
0.0
 46
0.0
 71
     5
 72
     1
  1
\A1;80
  7
ＭＳ ゴシック
 11
0.0
 21
1.0
 31
0.0
 73
     1
 44
1.0
  0
POINT
  5
5CFF
330
5CF6
100
AcDbEntity
  8
Defpoints
 62
     0
100
AcDbPoint
 10
571.8339454411994
 20
180.3148464525328
 30
0.0
  0
POINT
  5
5D00
330
5CF6
100
AcDbEntity
  8
Defpoints
 62
     0
100
AcDbPoint
 10
658.3785560455235
 20
260.3754001493083
 30
0.0
  0
POINT
  5
5D01
330
5CF6
100
AcDbEntity
  8
Defpoints
 62
     0
100
AcDbPoint
 10
679.3406364810305
 20
260.3754001493083
 30
0.0
  0
ENDBLK
  5
5CF8
330
5CF6
100
AcDbEntity
  8
0
100
AcDbBlockEnd
  0
BLOCK
  5
5DC7
330
5DC6
100
AcDbEntity
  8
0
100
AcDbBlockBegin
  2
*D63
 70
     1
 10
0.0
 20
0.0
 30
0.0
  3
*D63
  1
*D64
  0
LINE
  5
5DC8
330
5DC6
100
AcDbEntity
  8
寸法
  6
Continuous
 62
     0
370
    -2
100
AcDbLine
 10
0.375
 20
9.573144235081088
 30
0.0
 11
0.375
 21
0.375
 31
0.0
  0
LINE
  5
5DC9
330
5DC6
100
AcDbEntity
  8
寸法
  6
Continuous
 62
     0
370
    -2
100
AcDbLine
 10
8.074570739085033
 20
24.7782398278371
 30
0.0
 11
8.074570739085033
 21
0.375
 31
0.0
  0
LINE
  5
5DCA
330
5DC6
100
AcDbEntity
  8
寸法
  6
Continuous
 62
     0
370
    -2
100
AcDbLine
 10
8.074570739085033
 20
0.375
 30
0.0
 11
18.44165809326037
 21
0.375
 31
0.0
  0
LINE
  5
5DCB
330
5DC6
100
AcDbEntity
  8
寸法
  6
Continuous
 62
     0
370
    -2
100
AcDbLine
 10
1.875
 20
0.375
 30
0.0
 11
6.574570739085033
 21
0.375
 31
0.0
  0
INSERT
  5
5DCC
330
5DC6
100
AcDbEntity
  8
寸法
 62
     0
370
    -2
100
AcDbBlockReference
  2
_DOT
 10
0.375
 20
0.375
 30
0.0
 41
1.5
 42
1.5
 43
1.5
 50
180.0
  0
INSERT
  5
5DCD
330
5DC6
100
AcDbEntity
  8
寸法
 62
     0
370
    -2
100
AcDbBlockReference
  2
_DOT
 10
8.074570739085033
 20
0.375
 30
0.0
 41
1.5
 42
1.5
 43
1.5
  0
MTEXT
  5
5DCE
330
5DC6
100
AcDbEntity
  8
寸法
  6
Continuous
 62
     0
100
AcDbMText
 10
14.85765809326037
 20
5.375
 30
0.0
 40
6.0
 41
0.0
 46
0.0
 71
     5
 72
     1
  1
\A1;8
  7
ＭＳ ゴシック
 73
     1
 44
1.0
  0
POINT
  5
5DCF
330
5DC6
100
AcDbEntity
  8
Defpoints
 62
     0
100
AcDbPoint
 10
0.375
 20
14.57314423508109
 30
0.0
  0
POINT
  5
5DD0
330
5DC6
100
AcDbEntity
  8
Defpoints
 62
     0
100
AcDbPoint
 10
8.074570739085033
 20
29.7782398278371
 30
0.0
  0
POINT
  5
5DD1
330
5DC6
100
AcDbEntity
  8
Defpoints
 62
     0
100
AcDbPoint
 10
8.074570739085033
 20
0.375
 30
0.0
  0
ENDBLK
  5
5DD2
330
5DC6
100
AcDbEntity
  8
0
100
AcDbBlockEnd
  0
BLOCK
  5
5E9D
330
5E9C
100
AcDbEntity
  8
0
100
AcDbBlockBegin
  2
*D64
 70
     1
 10
0.0
 20
0.0
 30
0.0
  3
*D64
  1
*D65
  0
LINE
  5
5E9E
330
5E9C
100
AcDbEntity
  8
寸法
  6
Continuous
 62
     0
370
    -2
100
AcDbLine
 10
12.67192425945136
 20
214.4558524656296
 30
0.0
 11
12.67192425945136
 21
221.1724008234254
 31
0.0
  0
LINE
  5
5E9F
330
5E9C
100
AcDbEntity
  8
寸法
  6
Continuous
 62
     0
370
    -2
100
AcDbLine
 10
21.17192425945136
 20
214.4558524656296
 30
0.0
 11
21.17192425945136
 21
221.1724008234254
 31
0.0
  0
LINE
  5
5EA0
330
5E9C
100
AcDbEntity
  8
寸法
  6
Continuous
 62
     0
370
    -2
100
AcDbLine
 10
14.17192425945136
 20
221.1724008234254
 30
0.0
 11
19.67192425945136
 21
221.1724008234254
 31
0.0
  0
INSERT
  5
5EA1
330
5E9C
100
AcDbEntity
  8
寸法
 62
     0
370
    -2
100
AcDbBlockReference
  2
_DOT
 10
12.67192425945136
 20
221.1724008234254
 30
0.0
 41
1.5
 42
1.5
 43
1.5
 50
180.0
  0
INSERT
  5
5EA2
330
5E9C
100
AcDbEntity
  8
寸法
 62
     0
370
    -2
100
AcDbBlockReference
  2
_DOT
 10
21.17192425945136
 20
221.1724008234254
 30
0.0
 41
1.5
 42
1.5
 43
1.5
  0
MTEXT
  5
5EA3
330
5E9C
100
AcDbEntity
  8
寸法
  6
Continuous
 62
     0
100
AcDbMText
 10
16.92192425945136
 20
226.1724008234254
 30
0.0
 40
6.0
 41
0.0
 46
0.0
 71
     5
 72
     1
  1
\A1;8.5
  7
ＭＳ ゴシック
 73
     1
 44
1.0
  0
POINT
  5
5EA4
330
5E9C
100
AcDbEntity
  8
Defpoints
 62
     0
100
AcDbPoint
 10
12.67192425945136
 20
209.4558524656296
 30
0.0
  0
POINT
  5
5EA5
330
5E9C
100
AcDbEntity
  8
Defpoints
 62
     0
100
AcDbPoint
 10
21.17192425945136
 20
209.4558524656296
 30
0.0
  0
POINT
  5
5EA6
330
5E9C
100
AcDbEntity
  8
Defpoints
 62
     0
100
AcDbPoint
 10
21.17192425945136
 20
221.1724008234254
 30
0.0
  0
ENDBLK
  5
5EA7
330
5E9C
100
AcDbEntity
  8
0
100
AcDbBlockEnd
  0
BLOCK
  5
5EAF
330
5EAE
100
AcDbEntity
  8
0
100
AcDbBlockBegin
  2
*D65
 70
     1
 10
0.0
 20
0.0
 30
0.0
  3
*D65
  1
*D66
  0
LINE
  5
5EB0
330
5EAE
100
AcDbEntity
  8
寸法
  6
Continuous
 62
     0
370
    -2
100
AcDbLine
 10
62.46043540515663
 20
197.1207521227724
 30
0.0
 11
77.8834322030564
 21
197.1207521227724
 31
0.0
  0
LINE
  5
5EB1
330
5EAE
100
AcDbEntity
  8
寸法
  6
Continuous
 62
     0
370
    -2
100
AcDbLine
 10
68.2153519287707
 20
191.1207521227724
 30
0.0
 11
77.8834322030564
 21
191.1207521227724
 31
0.0
  0
LINE
  5
5EB2
330
5EAE
100
AcDbEntity
  8
寸法
  6
Continuous
 62
     0
370
    -2
100
AcDbLine
 10
77.8834322030564
 20
195.6207521227724
 30
0.0
 11
77.8834322030564
 21
192.6207521227724
 31
0.0
  0
INSERT
  5
5EB3
330
5EAE
100
AcDbEntity
  8
寸法
 62
     0
370
    -2
100
AcDbBlockReference
  2
_DOT
 10
77.8834322030564
 20
197.1207521227724
 30
0.0
 41
1.5
 42
1.5
 43
1.5
 50
90.0
  0
INSERT
  5
5EB4
330
5EAE
100
AcDbEntity
  8
寸法
 62
     0
370
    -2
100
AcDbBlockReference
  2
_DOT
 10
77.8834322030564
 20
191.1207521227724
 30
0.0
 41
1.5
 42
1.5
 43
1.5
 50
270.0
  0
MTEXT
  5
5EB5
330
5EAE
100
AcDbEntity
  8
寸法
  6
Continuous
 62
     0
100
AcDbMText
 10
72.8834322030564
 20
194.1207521227724
 30
0.0
 40
6.0
 41
0.0
 46
0.0
 71
     5
 72
     1
  1
\A1;6
  7
ＭＳ ゴシック
 11
0.0
 21
1.0
 31
0.0
 73
     1
 44
1.0
  0
POINT
  5
5EB6
330
5EAE
100
AcDbEntity
  8
Defpoints
 62
     0
100
AcDbPoint
 10
57.46043540515663
 20
197.1207521227724
 30
0.0
  0
POINT
  5
5EB7
330
5EAE
100
AcDbEntity
  8
Defpoints
 62
     0
100
AcDbPoint
 10
63.2153519287707
 20
191.1207521227724
 30
0.0
  0
POINT
  5
5EB8
330
5EAE
100
AcDbEntity
  8
Defpoints
 62
     0
100
AcDbPoint
 10
77.8834322030564
 20
191.1207521227724
 30
0.0
  0
ENDBLK
  5
5EB9
330
5EAE
100
AcDbEntity
  8
0
100
AcDbBlockEnd
  0
BLOCK
  5
5EDA
330
5ED9
100
AcDbEntity
  8
0
100
AcDbBlockBegin
  2
*D66
 70
     1
 10
0.0
 20
0.0
 30
0.0
  3
*D66
  1
*D67
  0
LINE
  5
5EDC
330
5ED9
100
AcDbEntity
  8
寸法
  6
Continuous
 62
     0
370
    -2
100
AcDbLine
 10
-113.8178716589161
 20
394.5374851186908
 30
0.0
 11
-113.8178716589161
 21
401.2540334764866
 31
0.0
  0
LINE
  5
5EDD
330
5ED9
100
AcDbEntity
  8
寸法
  6
Continuous
 62
     0
370
    -2
100
AcDbLine
 10
-105.3178716589161
 20
394.5374851186908
 30
0.0
 11
-105.3178716589161
 21
401.2540334764866
 31
0.0
  0
LINE
  5
5EDE
330
5ED9
100
AcDbEntity
  8
寸法
  6
Continuous
 62
     0
370
    -2
100
AcDbLine
 10
-112.3178716589161
 20
401.2540334764866
 30
0.0
 11
-106.8178716589161
 21
401.2540334764866
 31
0.0
  0
INSERT
  5
5EDF
330
5ED9
100
AcDbEntity
  8
寸法
 62
     0
370
    -2
100
AcDbBlockReference
  2
_DOT
 10
-113.8178716589161
 20
401.2540334764866
 30
0.0
 41
1.5
 42
1.5
 43
1.5
 50
180.0
  0
INSERT
  5
5EE0
330
5ED9
100
AcDbEntity
  8
寸法
 62
     0
370
    -2
100
AcDbBlockReference
  2
_DOT
 10
-105.3178716589161
 20
401.2540334764866
 30
0.0
 41
1.5
 42
1.5
 43
1.5
  0
MTEXT
  5
5EE1
330
5ED9
100
AcDbEntity
  8
寸法
  6
Continuous
 62
     0
100
AcDbMText
 10
-109.5678716589161
 20
406.2540334764866
 30
0.0
 40
6.0
 41
0.0
 46
0.0
 71
     5
 72
     1
  1
\A1;8.5
  7
ＭＳ ゴシック
 73
     1
 44
1.0
  0
POINT
  5
5EE2
330
5ED9
100
AcDbEntity
  8
Defpoints
 62
     0
100
AcDbPoint
 10
-113.8178716589161
 20
389.5374851186908
 30
0.0
  0
POINT
  5
5EE3
330
5ED9
100
AcDbEntity
  8
Defpoints
 62
     0
100
AcDbPoint
 10
-105.3178716589161
 20
389.5374851186908
 30
0.0
  0
POINT
  5
5EE4
330
5ED9
100
AcDbEntity
  8
Defpoints
 62
     0
100
AcDbPoint
 10
-105.3178716589161
 20
401.2540334764866
 30
0.0
  0
ENDBLK
  5
5EDB
330
5ED9
100
AcDbEntity
  8
0
100
AcDbBlockEnd
  0
BLOCK
  5
5EE6
330
5EE5
100
AcDbEntity
  8
0
100
AcDbBlockBegin
  2
*D67
 70
     1
 10
0.0
 20
0.0
 30
0.0
  3
*D67
  1
*D68
  0
LINE
  5
5EE8
330
5EE5
100
AcDbEntity
  8
寸法
  6
Continuous
 62
     0
370
    -2
100
AcDbLine
 10
-64.02936051321083
 20
377.2023847758336
 30
0.0
 11
-48.60636371531106
 21
377.2023847758336
 31
0.0
  0
LINE
  5
5EE9
330
5EE5
100
AcDbEntity
  8
寸法
  6
Continuous
 62
     0
370
    -2
100
AcDbLine
 10
-58.27444398959676
 20
371.2023847758336
 30
0.0
 11
-48.60636371531106
 21
371.2023847758336
 31
0.0
  0
LINE
  5
5EEA
330
5EE5
100
AcDbEntity
  8
寸法
  6
Continuous
 62
     0
370
    -2
100
AcDbLine
 10
-48.60636371531106
 20
375.7023847758336
 30
0.0
 11
-48.60636371531106
 21
372.7023847758336
 31
0.0
  0
INSERT
  5
5EEB
330
5EE5
100
AcDbEntity
  8
寸法
 62
     0
370
    -2
100
AcDbBlockReference
  2
_DOT
 10
-48.60636371531106
 20
377.2023847758336
 30
0.0
 41
1.5
 42
1.5
 43
1.5
 50
90.0
  0
INSERT
  5
5EEC
330
5EE5
100
AcDbEntity
  8
寸法
 62
     0
370
    -2
100
AcDbBlockReference
  2
_DOT
 10
-48.60636371531106
 20
371.2023847758336
 30
0.0
 41
1.5
 42
1.5
 43
1.5
 50
270.0
  0
MTEXT
  5
5EED
330
5EE5
100
AcDbEntity
  8
寸法
  6
Continuous
 62
     0
100
AcDbMText
 10
-53.60636371531106
 20
374.2023847758336
 30
0.0
 40
6.0
 41
0.0
 46
0.0
 71
     5
 72
     1
  1
\A1;6
  7
ＭＳ ゴシック
 11
0.0
 21
1.0
 31
0.0
 73
     1
 44
1.0
  0
POINT
  5
5EEE
330
5EE5
100
AcDbEntity
  8
Defpoints
 62
     0
100
AcDbPoint
 10
-69.02936051321083
 20
377.2023847758336
 30
0.0
  0
POINT
  5
5EEF
330
5EE5
100
AcDbEntity
  8
Defpoints
 62
     0
100
AcDbPoint
 10
-63.27444398959676
 20
371.2023847758336
 30
0.0
  0
POINT
  5
5EF0
330
5EE5
100
AcDbEntity
  8
Defpoints
 62
     0
100
AcDbPoint
 10
-48.60636371531106
 20
371.2023847758336
 30
0.0
  0
ENDBLK
  5
5EE7
330
5EE5
100
AcDbEntity
  8
0
100
AcDbBlockEnd
  0
ENDSEC
  0
SECTION
  2
ENTITIES
  0
POINT
  5
1301
330
A
100
AcDbEntity
  8
MODEL
100
AcDbPoint
 10
963.7243970754489
 20
138.0847547131194
 30
0.0
  0
POINT
  5
1306
330
A
100
AcDbEntity
  8
MODEL
100
AcDbPoint
 10
847.7244070754489
 20
138.0847547131194
 30
0.0
  0
POINT
  5
1307
330
A
100
AcDbEntity
  8
MODEL
100
AcDbPoint
 10
973.7862873746794
 20
166.0075841667841
 30
0.0
  0
POINT
  5
1308
330
A
100
AcDbEntity
  8
MODEL
100
AcDbPoint
 10
973.7862873746794
 20
184.0075841667841
 30
0.0
  0
POINT
  5
1312
330
A
100
AcDbEntity
  8
MODEL
100
AcDbPoint
 10
810.9244070754489
 20
149.007583882008
 30
0.0
  0
POINT
  5
1313
330
A
100
AcDbEntity
  8
MODEL
100
AcDbPoint
 10
810.9244070754489
 20
201.007583882008
 30
0.0
  0
POINT
  5
131E
330
A
100
AcDbEntity
  8
MODEL
100
AcDbPoint
 10
1111.259263541787
 20
138.207583607055
 30
0.0
  0
POINT
  5
131F
330
A
100
AcDbEntity
  8
MODEL
100
AcDbPoint
 10
1104.759263541787
 20
138.207583607055
 30
0.0
  0
POINT
  5
1342
330
A
100
AcDbEntity
  8
MODEL
100
AcDbPoint
 10
973.354966229004
 20
368.3598201219507
 30
0.0
  0
POINT
  5
1343
330
A
100
AcDbEntity
  8
MODEL
100
AcDbPoint
 10
973.354966229004
 20
319.3598501219507
 30
0.0
  0
POINT
  5
1346
330
A
100
AcDbEntity
  8
MODEL
100
AcDbPoint
 10
983.2218070738209
 20
368.3598201219507
 30
0.0
  0
POINT
  5
1347
330
A
100
AcDbEntity
  8
MODEL
100
AcDbPoint
 10
983.2218070738209
 20
301.3598201219507
 30
0.0
  0
POINT
  5
1350
330
A
100
AcDbEntity
  8
MODEL
100
AcDbPoint
 10
963.7243970754489
 20
286.3598201219507
 30
0.0
  0
POINT
  5
1351
330
A
100
AcDbEntity
  8
MODEL
100
AcDbPoint
 10
838.7244070754489
 20
286.3598201219507
 30
0.0
  0
POINT
  5
1357
330
A
100
AcDbEntity
  8
MODEL
100
AcDbPoint
 10
810.9244070754489
 20
301.3598201219507
 30
0.0
  0
POINT
  5
1359
330
A
100
AcDbEntity
  8
MODEL
100
AcDbPoint
 10
810.9244070754489
 20
361.3598201219507
 30
0.0
  0
POINT
  5
135A
330
A
100
AcDbEntity
  8
MODEL
100
AcDbPoint
 10
810.9244070754489
 20
368.3598201219507
 30
0.0
  0
POINT
  5
135B
330
A
100
AcDbEntity
  8
MODEL
100
AcDbPoint
 10
810.9244070754489
 20
361.3598201219507
 30
0.0
  0
POINT
  5
1371
330
A
100
AcDbEntity
  8
MODEL
100
AcDbPoint
 10
1164.81489702863
 20
383.9337336502628
 30
0.0
  0
POINT
  5
1372
330
A
100
AcDbEntity
  8
MODEL
100
AcDbPoint
 10
1164.81489702863
 20
279.9338376502628
 30
0.0
  0
POINT
  5
1378
330
A
100
AcDbEntity
  8
MODEL
100
AcDbPoint
 10
1180.157201609016
 20
264.2731813749589
 30
0.0
  0
POINT
  5
1379
330
A
100
AcDbEntity
  8
MODEL
100
AcDbPoint
 10
1193.957187809016
 20
264.2731813749589
 30
0.0
  0
POINT
  5
1389
330
A
100
AcDbEntity
  8
MODEL
100
AcDbPoint
 10
1079.093440814797
 20
383.9337336502628
 30
0.0
  0
POINT
  5
138A
330
A
100
AcDbEntity
  8
MODEL
100
AcDbPoint
 10
1079.093440814797
 20
279.9337336502626
 30
0.0
  0
POINT
  5
138D
330
A
100
AcDbEntity
  8
MODEL
100
AcDbPoint
 10
1093.467555113589
 20
264.2731813749589
 30
0.0
  0
POINT
  5
138E
330
A
100
AcDbEntity
  8
MODEL
100
AcDbPoint
 10
1106.467555113589
 20
264.2731813749589
 30
0.0
  0
POINT
  5
1398
330
A
100
AcDbEntity
  8
MODEL
100
AcDbPoint
 10
1180.157201609016
 20
398.2298339817613
 30
0.0
  0
POINT
  5
1399
330
A
100
AcDbEntity
  8
MODEL
100
AcDbPoint
 10
1194.157187609016
 20
398.2298339817613
 30
0.0
  0
POINT
  5
139C
330
A
100
AcDbEntity
  8
MODEL
100
AcDbPoint
 10
1093.467555113589
 20
398.2298339817613
 30
0.0
  0
POINT
  5
139D
330
A
100
AcDbEntity
  8
MODEL
100
AcDbPoint
 10
1107.467555113589
 20
398.2298339817613
 30
0.0
  0
LINE
  5
44FA
330
A
100
AcDbEntity
  8
MODEL
  6
Continuous
100
AcDbLine
 10
178.5608932862175
 20
197.9231126249249
 30
0.0
 11
178.5608932862175
 21
197.9231126249249
 31
0.0
  0
LINE
  5
44FB
330
A
100
AcDbEntity
  8
MODEL
  6
Continuous
100
AcDbLine
 10
178.5608932862175
 20
197.9231126249249
 30
0.0
 11
178.5608932862175
 21
197.9231126249249
 31
0.0
  0
POINT
  5
4967
330
A
100
AcDbEntity
  8
MODEL
 62
     7
100
AcDbPoint
 10
159.6608149866037
 20
1112.943495860789
 30
0.0
  0
POINT
  5
4968
330
A
100
AcDbEntity
  8
MODEL
 62
     7
100
AcDbPoint
 10
159.6608149866037
 20
1058.143496245838
 30
0.0
  0
ARC
  5
4976
330
A
100
AcDbEntity
  8
MODEL
  6
STYLE_02
100
AcDbCircle
 10
551.6585777813316
 20
476.1418290126371
 30
0.0
 40
12.0
100
AcDbArc
 50
179.9992630000003
 51
180.4691690000001
  0
LINE
  5
4980
330
A
100
AcDbEntity
  8
MODEL
  6
STYLE_02
100
AcDbLine
 10
539.6589887813316
 20
476.0506220126369
 30
0.0
 11
539.6589797813317
 21
476.0435670126371
 31
0.0
  0
POINT
  5
499D
330
A
100
AcDbEntity
  8
MODEL
 62
     7
100
AcDbPoint
 10
471.5926809920595
 20
1039.574930990415
 30
0.0
  0
POINT
  5
499E
330
A
100
AcDbEntity
  8
MODEL
 62
     7
100
AcDbPoint
 10
478.7926809920594
 20
1039.574930990415
 30
0.0
  0
DIMENSION
  5
4AD2
330
A
100
AcDbEntity
  8
寸法
  6
Continuous
100
AcDbDimension
  2
*D4
 10
105.962968358403
 20
389.5771408405531
 30
0.0
 11
105.962968358403
 21
429.9560604020071
 31
0.0
 70
   160
 71
     5
 42
78.13428625973495
 73
     0
 74
     0
 75
     0
  3
tfrom線あり
100
AcDbAlignedDimension
 13
137.6319257346262
 23
467.711427100288
 33
0.0
 14
170.8986390006591
 24
389.5771408405531
 34
0.0
 50
90.0
100
AcDbRotatedDimension
1001
ACAD
1000
DSTYLE
1002
{
1070
     3
1000
<>
1070
   271
1070
     0
1002
}
  0
POINT
  5
4ECE
330
A
100
AcDbEntity
  8
MODEL
 62
     7
100
AcDbPoint
 10
130.0913409417582
 20
1181.156054141915
 30
0.0
  0
POINT
  5
4ECF
330
A
100
AcDbEntity
  8
MODEL
 62
     7
100
AcDbPoint
 10
260.0913409417582
 20
1181.156054141915
 30
0.0
  0
DIMENSION
  5
4EF1
330
A
100
AcDbEntity
  8
寸法
  6
Continuous
100
AcDbDimension
  2
*D5
 10
124.4090168514825
 20
389.5771408405531
 30
0.0
 11
124.4090168514825
 21
424.0635726889399
 31
0.0
 70
   160
 71
     5
 42
68.13428625973495
 73
     0
 74
     0
 75
     0
  3
tfrom線あり
100
AcDbAlignedDimension
 13
150.7043454386834
 23
457.711427100288
 33
0.0
 14
165.131925733825
 24
389.5771408405531
 34
0.0
 50
90.0
100
AcDbRotatedDimension
1001
ACAD
1000
DSTYLE
1002
{
1070
     3
1000
<>
1002
}
  0
LINE
  5
5002
330
A
100
AcDbEntity
  8
MODEL
  6
Continuous
100
AcDbLine
 10
189.3455965405926
 20
459.0080121002881
 30
0.0
 11
189.3455965405926
 21
458.497366868026
 31
0.0
  0
LINE
  5
5004
330
A
100
AcDbEntity
  8
MODEL
  6
Continuous
100
AcDbLine
 10
164.8455965405926
 20
459.0080121002881
 30
0.0
 11
164.8455965405926
 21
458.497366868026
 31
0.0
  0
ARC
  5
5005
330
A
100
AcDbEntity
  8
MODEL
  6
Continuous
100
AcDbCircle
 10
683.238432115842
 20
442.382664524739
 30
0.0
 40
3.474287135453707
100
AcDbArc
 50
180.0
 51
0.1136519999984825
  0
ARC
  5
5006
330
A
100
AcDbEntity
  8
MODEL
  6
Continuous
100
AcDbCircle
 10
605.3067561158421
 20
432.692300524739
 30
0.0
 40
81.98150034214686
100
AcDbArc
 50
6.793188000000063
 51
139.2198379999999
  0
ARC
  5
5007
330
A
100
AcDbEntity
  8
MODEL
  6
Continuous
100
AcDbCircle
 10
552.3152291158422
 20
478.4012535247392
 30
0.0
 40
12.0
100
AcDbArc
 50
139.2194830000004
 51
317.6403219999988
  0
ARC
  5
5008
330
A
100
AcDbEntity
  8
MODEL
  6
Continuous
100
AcDbCircle
 10
615.2705511158422
 20
434.2627505247389
 30
0.0
 40
65.00274288872335
100
AcDbArc
 50
79.08499199999994
 51
146.314087
  0
ARC
  5
5009
330
A
100
AcDbEntity
  8
MODEL
  6
Continuous
100
AcDbCircle
 10
611.7122311158421
 20
432.0483385247389
 30
0.0
 40
67.92049958471178
100
AcDbArc
 50
61.33493200000001
 51
76.49042499999993
  0
ARC
  5
500A
330
A
100
AcDbEntity
  8
MODEL
  6
Continuous
100
AcDbCircle
 10
604.8448661158423
 20
425.838098524739
 30
0.0
 40
76.72431847640479
100
AcDbArc
 50
12.45287399999995
 51
59.05912700000015
  0
CIRCLE
  5
500B
330
A
100
AcDbEntity
  8
MODEL
  6
DASHED1
100
AcDbCircle
 10
552.3152291158422
 20
478.4012535247392
 30
0.0
 40
8.924999999999997
  0
ARC
  5
500C
330
A
100
AcDbEntity
  8
MODEL
  6
DASHED1
100
AcDbCircle
 10
552.3152291158422
 20
478.4012535247392
 30
0.0
 40
11.99999999999999
100
AcDbArc
 50
317.6403219999989
 51
139.2194830000004
  0
LINE
  5
500F
330
A
100
AcDbEntity
  8
MODEL
  6
Continuous
100
AcDbLine
 10
189.3455965405923
 20
458.4857007221401
 30
0.0
 11
164.8455965405923
 21
458.4857007221401
 31
0.0
  0
LINE
  5
5014
330
A
100
AcDbEntity
  8
MODEL
  6
Continuous
100
AcDbLine
 10
165.131925734626
 20
458.4857007221401
 30
0.0
 11
189.131925734626
 21
458.4857007221401
 31
0.0
  0
LINE
  5
5015
330
A
100
AcDbEntity
  8
MODEL
  6
Continuous
100
AcDbLine
 10
189.131925734626
 20
458.4857007221401
 30
0.0
 11
189.131925734626
 21
448.4857007221401
 31
0.0
  0
LINE
  5
5016
330
A
100
AcDbEntity
  8
MODEL
  6
Continuous
100
AcDbLine
 10
165.131925734626
 20
458.4857007221401
 30
0.0
 11
165.131925734626
 21
448.4857007221401
 31
0.0
  0
ARC
  5
5017
330
A
100
AcDbEntity
  8
MODEL
  6
Continuous
100
AcDbCircle
 10
226.1139367346261
 20
462.5186627221401
 30
0.0
 40
72.14493688158643
100
AcDbArc
 50
237.603925
 51
273.1926429999999
  0
ARC
  5
5018
330
A
100
AcDbEntity
  8
MODEL
  6
Continuous
100
AcDbCircle
 10
230.035043734626
 20
448.3888187221401
 30
0.0
 40
40.90323302811478
100
AcDbArc
 50
179.864291
 51
190.6076449999999
  0
ARC
  5
5019
330
A
100
AcDbEntity
  8
MODEL
  6
Continuous
100
AcDbCircle
 10
226.059888734626
 20
444.5418747221401
 30
0.0
 40
36.41575966477039
100
AcDbArc
 50
185.804085
 51
262.3178369999999
  0
ARC
  5
501A
330
A
100
AcDbEntity
  8
MODEL
  6
Continuous
100
AcDbCircle
 10
230.638802734626
 20
501.5829417221401
 30
0.0
 40
94.09860592599013
100
AcDbArc
 50
269.691366
 51
290.8604139999999
  0
ARC
  5
501B
330
A
100
AcDbEntity
  8
MODEL
  6
Continuous
100
AcDbCircle
 10
224.750502734626
 20
506.92533272214
 30
0.0
 40
101.2516034643937
100
AcDbArc
 50
292.897961
 51
322.607366
  0
ARC
  5
501C
330
A
100
AcDbEntity
  8
MODEL
  6
Continuous
100
AcDbCircle
 10
308.551401734626
 20
443.51892672214
 30
0.0
 40
3.866975661553639
100
AcDbArc
 50
327.224864999997
 51
150.248071
  0
ARC
  5
501D
330
A
100
AcDbEntity
  8
MODEL
  6
Continuous
100
AcDbCircle
 10
222.139209734626
 20
493.6175227221401
 30
0.0
 40
103.441075937644
100
AcDbArc
 50
274.4315649999999
 51
321.4028929999999
  0
ARC
  5
501E
330
A
100
AcDbEntity
  8
MODEL
  6
Continuous
100
AcDbCircle
 10
190.7308777346261
 20
518.6393467221401
 30
0.0
 40
143.5979426059031
100
AcDbArc
 50
321.4180239999999
 51
327.4722429999998
  0
ARC
  5
501F
330
A
100
AcDbEntity
  8
MODEL
  6
Continuous
100
AcDbCircle
 10
230.035043734626
 20
448.3888187221401
 30
0.0
 40
40.90323302811484
100
AcDbArc
 50
257.514277
 51
270.135709
  0
ARC
  5
5020
330
A
100
AcDbEntity
  8
MODEL
  6
Continuous
100
AcDbCircle
 10
216.247916734626
 20
445.80544472214
 30
0.0
 40
51.18621208742171
100
AcDbArc
 50
176.9984569999998
 51
194.5584509999998
  0
ARC
  5
5021
330
A
100
AcDbEntity
  8
MODEL
  6
Continuous
100
AcDbCircle
 10
214.4997497346259
 20
442.0530957221402
 30
0.0
 40
48.65580242536801
100
AcDbArc
 50
190.7964220000001
 51
236.2399220000002
  0
POINT
  5
5022
330
A
100
AcDbEntity
  8
MODEL
 62
     7
100
AcDbPoint
 10
137.8712289865488
 20
1172.915872033079
 30
0.0
  0
POINT
  5
5023
330
A
100
AcDbEntity
  8
MODEL
 62
     7
100
AcDbPoint
 10
285.1802383971645
 20
1172.915872033079
 30
0.0
  0
POINT
  5
5025
330
A
100
AcDbEntity
  8
MODEL
 62
     7
100
AcDbPoint
 10
199.1488154038865
 20
1190.24344750483
 30
0.0
  0
LINE
  5
502A
330
A
100
AcDbEntity
  8
MODEL
  6
Continuous
100
AcDbLine
 10
185.8344794601869
 20
248.1254001493081
 30
0.0
 11
185.8344794601869
 21
272.6254001493081
 31
0.0
  0
LINE
  5
502B
330
A
100
AcDbEntity
  8
MODEL
  6
Continuous
100
AcDbLine
 10
186.3344794601869
 20
248.1636576058249
 30
0.0
 11
186.3344794601869
 21
272.199358705805
 31
0.0
  0
LINE
  5
502C
330
A
100
AcDbEntity
  8
MODEL
  6
Continuous
100
AcDbLine
 10
186.3344794601869
 20
272.199358705805
 30
0.0
 11
186.3344794601869
 21
272.6258359581091
 31
0.0
  0
LINE
  5
502D
330
A
100
AcDbEntity
  8
MODEL
  6
Continuous
100
AcDbLine
 10
186.334479460187
 20
248.6254001493081
 30
0.0
 11
186.334479460187
 21
272.1254001493081
 31
0.0
  0
LINE
  5
502E
330
A
100
AcDbEntity
  8
MODEL
  6
Continuous
100
AcDbLine
 10
186.3346663642713
 20
248.3766972320959
 30
0.0
 11
186.3346663642713
 21
272.3766972320959
 31
0.0
  0
LINE
  5
502F
330
A
100
AcDbEntity
  8
MODEL
  6
Continuous
100
AcDbLine
 10
186.3556013747082
 20
248.38367310893
 30
0.0
 11
186.3556013747082
 21
272.38367310893
 31
0.0
  0
LINE
  5
5030
330
A
100
AcDbEntity
  8
MODEL
  6
Continuous
100
AcDbLine
 10
186.3040049010329
 20
248.3718404839552
 30
0.0
 11
186.3040049010329
 21
272.3718404839552
 31
0.0
  0
LINE
  5
5031
330
A
100
AcDbEntity
  8
MODEL
  6
Continuous
100
AcDbLine
 10
186.3340501992719
 20
272.370910932515
 30
0.0
 11
186.3340501992719
 21
248.370910932515
 31
0.0
  0
LINE
  5
5032
330
A
100
AcDbEntity
  8
MODEL
  6
Continuous
100
AcDbLine
 10
186.3665141205616
 20
272.3607716297562
 30
0.0
 11
186.3665141205616
 21
248.3607716297562
 31
0.0
  0
LINE
  5
5033
330
A
100
AcDbEntity
  8
MODEL
  6
Continuous
100
AcDbLine
 10
194.6426831205616
 20
272.3607716297562
 30
0.0
 11
186.3665141205616
 21
272.3607716297562
 31
0.0
  0
LINE
  5
5034
330
A
100
AcDbEntity
  8
MODEL
  6
Continuous
100
AcDbLine
 10
204.1275991205616
 20
248.3607716297562
 30
0.0
 11
186.3665141205616
 21
248.3607716297562
 31
0.0
  0
ARC
  5
5035
330
A
100
AcDbEntity
  8
MODEL
  6
Continuous
100
AcDbCircle
 10
200.8665141205616
 20
224.3687096297561
 30
0.0
 40
3.500000000000137
100
AcDbArc
 50
132.394787000003
 51
313.7459079999986
  0
ARC
  5
5036
102
{ACAD_REACTORS
330
5416
102
}
330
A
100
AcDbEntity
  8
MODEL
  6
Continuous
100
AcDbCircle
 10
245.8665141205616
 20
287.9812206297561
 30
0.0
 40
8.5
100
AcDbArc
 50
331.6503399999987
 51
143.9098000000012
  0
ARC
  5
5037
330
A
100
AcDbEntity
  8
MODEL
  6
Continuous
100
AcDbCircle
 10
200.3401671205616
 20
301.7821066297558
 30
0.0
 40
54.43220650203315
100
AcDbArc
 50
293.2156820000002
 51
324.1653239999997
  0
ARC
  5
5038
330
A
100
AcDbEntity
  8
MODEL
  6
Continuous
100
AcDbCircle
 10
-244.8906888794385
 20
634.328692629756
 30
0.0
 40
609.1055844115014
100
AcDbArc
 50
317.374501
 51
322.200596
  0
ARC
  5
5039
330
A
100
AcDbEntity
  8
MODEL
  6
Continuous
100
AcDbCircle
 10
203.6542601205616
 20
298.479642629756
 30
0.0
 40
50.12110637619467
100
AcDbArc
 50
270.541104
 51
291.2217089999998
  0
ARC
  5
503A
330
A
100
AcDbEntity
  8
MODEL
  6
Continuous
100
AcDbCircle
 10
194.6763221205615
 20
330.290362629756
 30
0.0
 40
57.92960095508837
100
AcDbArc
 50
269.9667289999999
 51
319.9150960000001
  0
ARC
  5
503B
330
A
100
AcDbEntity
  8
MODEL
  6
Continuous
100
AcDbCircle
 10
196.9871891205616
 20
309.7851316297561
 30
0.0
 40
62.0012095364379
100
AcDbArc
 50
319.9798919999998
 51
335.3692679999999
  0
ARC
  5
503C
330
A
100
AcDbEntity
  8
MODEL
  6
Continuous
100
AcDbCircle
 10
-150.1783108794385
 20
486.191116629756
 30
0.0
 40
434.4943760953064
100
AcDbArc
 50
323.370224
 51
326.988335
  0
LINE
  5
503D
330
A
100
AcDbEntity
  8
MODEL
  6
Continuous
100
AcDbLine
 10
185.8344794601869
 20
272.6175855008622
 30
0.0
 11
186.3556013747082
 21
272.6175855008622
 31
0.0
  0
LINE
  5
503E
330
A
100
AcDbEntity
  8
MODEL
  6
Continuous
100
AcDbLine
 10
185.8344794601869
 20
248.1804957420638
 30
0.0
 11
186.3665141205616
 21
248.1804957420638
 31
0.0
  0
DIMENSION
  5
503F
330
A
100
AcDbEntity
  8
寸法
  6
Continuous
100
AcDbDimension
  2
*D6
 10
311.4183773961797
 20
370.5388411485959
 30
0.0
 11
238.2751515650024
 21
375.5388411485959
 31
0.0
 70
    32
 71
     5
 42
146.2864516623547
 73
     0
 74
     0
 75
     0
  3
tfrom線あり
100
AcDbAlignedDimension
 13
165.131925733825
 23
389.5771408405531
 33
0.0
 14
311.4183773961797
 24
404.1305914353681
 34
0.0
100
AcDbRotatedDimension
  0
DIMENSION
  5
5201
330
A
100
AcDbEntity
  8
寸法
  6
Continuous
100
AcDbDimension
  2
*D7
 10
125.5788355726735
 20
260.422827948755
 30
0.0
 11
120.5788355726735
 21
283.9003875490315
 31
0.0
 70
    32
 71
     5
 42
46.9551192005531
 73
     0
 74
     0
 75
     0
  3
tfrom線あり
100
AcDbAlignedDimension
 13
177.1310644601869
 23
307.3779471493081
 33
0.0
 14
180.5636663473824
 24
260.422827948755
 34
0.0
 50
90.0
100
AcDbRotatedDimension
  0
DIMENSION
  5
5202
330
A
100
AcDbEntity
  8
寸法
  6
Continuous
100
AcDbDimension
  2
*D8
 10
125.5251726856204
 20
238.922827948755
 30
0.0
 11
125.5251726856204
 21
249.672827948755
 31
0.0
 70
   160
 71
     5
 42
21.5
 73
     0
 74
     0
 75
     0
  3
tfrom線あり
100
AcDbAlignedDimension
 13
175.5636663473823
 23
260.422827948755
 33
0.0
 14
170.4905613473822
 24
238.922827948755
 34
0.0
 50
90.0
100
AcDbRotatedDimension
1001
ACAD
1000
DSTYLE
1002
{
1070
   271
1070
     1
1002
}
  0
DIMENSION
  5
5203
330
A
100
AcDbEntity
  8
寸法
  6
Continuous
100
AcDbDimension
  2
*D9
 10
125.5788355726735
 20
122.3779471493081
 30
0.0
 11
120.5788355726735
 21
135.4003875490315
 31
0.0
 70
    32
 71
     5
 42
26.0448807994469
 73
     0
 74
     0
 75
     0
  3
tfrom線あり
100
AcDbAlignedDimension
 13
169.4588143473822
 23
148.422827948755
 33
0.0
 14
177.1310644601869
 24
122.3779471493081
 34
0.0
 50
90.0
100
AcDbRotatedDimension
  0
DIMENSION
  5
5204
330
A
100
AcDbEntity
  8
寸法
  6
Continuous
100
AcDbDimension
  2
*D10
 10
125.5788355726735
 20
148.422827948755
 30
0.0
 11
120.5788355726735
 21
193.672827948755
 31
0.0
 70
    32
 71
     5
 42
90.5
 73
     0
 74
     0
 75
     0
  3
tfrom線あり
100
AcDbAlignedDimension
 13
171.6362963473823
 23
238.922827948755
 33
0.0
 14
171.7362963473822
 24
148.422827948755
 34
0.0
 50
90.0
100
AcDbRotatedDimension
1001
ACAD
1000
DSTYLE
1002
{
1070
   271
1070
     1
1002
}
  0
DIMENSION
  5
520B
330
A
100
AcDbEntity
  8
寸法
  6
Continuous
100
AcDbDimension
  2
*D11
 10
283.1319257346262
 20
502.1747610008059
 30
0.0
 11
230.1319257346262
 21
507.1747610008059
 31
0.0
 70
    32
 71
     5
 42
106.0
 73
     0
 74
     0
 75
     0
  3
tfrom線あり
100
AcDbAlignedDimension
 13
177.1319257346262
 23
484.3571621002881
 33
0.0
 14
283.1319257346262
 24
485.640500100288
 34
0.0
100
AcDbRotatedDimension
  0
DIMENSION
  5
520C
330
A
100
AcDbEntity
  8
寸法
  6
Continuous
100
AcDbDimension
  2
*D12
 10
177.1319257346262
 20
502.1747610008059
 30
0.0
 11
157.3819257346262
 21
507.1747610008059
 31
0.0
 70
    32
 71
     5
 42
39.5
 73
     0
 74
     0
 75
     0
  3
tfrom線あり
100
AcDbAlignedDimension
 13
137.6319257346262
 23
477.711427100288
 33
0.0
 14
177.1319257346262
 24
484.3571621002881
 34
0.0
100
AcDbRotatedDimension
1001
ACAD
1000
DSTYLE
1002
{
1070
   271
1070
     1
1002
}
  0
DIMENSION
  5
520D
330
A
100
AcDbEntity
  8
寸法
  6
Continuous
100
AcDbDimension
  2
*D13
 10
322.6319257346262
 20
502.1747610008059
 30
0.0
 11
302.8819257346262
 21
507.1747610008059
 31
0.0
 70
    32
 71
     5
 42
39.5
 73
     0
 74
     0
 75
     0
  3
tfrom線あり
100
AcDbAlignedDimension
 13
283.1319257346262
 23
485.640500100288
 33
0.0
 14
322.6319257346262
 24
477.711427100288
 34
0.0
100
AcDbRotatedDimension
1001
ACAD
1000
DSTYLE
1002
{
1070
   271
1070
     1
1002
}
  0
ARC
  5
520F
330
A
100
AcDbEntity
  8
MODEL
  6
Continuous
100
AcDbCircle
 10
185.3344794601869
 20
272.0254001493081
 30
0.0
 40
0.5
100
AcDbArc
 50
0.0
 51
52.42655699999782
  0
ARC
  5
5210
330
A
100
AcDbEntity
  8
MODEL
  6
Continuous
100
AcDbCircle
 10
165.4819257346263
 20
459.5080121002881
 30
0.0
 40
0.5
100
AcDbArc
 50
180.0
 51
270.0
  0
ARC
  5
5211
330
A
100
AcDbEntity
  8
MODEL
  6
HIDDEN2
100
AcDbCircle
 10
188.7819257346263
 20
459.5080121002881
 30
0.0
 40
0.5
100
AcDbArc
 50
270.0
 51
0.0
  0
ARC
  5
5212
330
A
100
AcDbEntity
  8
MODEL
  6
HIDDEN2
100
AcDbCircle
 10
185.3344794601869
 20
248.7254001493079
 30
0.0
 40
0.5
100
AcDbArc
 50
270.0
 51
0.0
  0
ARC
  5
5213
330
A
100
AcDbEntity
  8
MODEL
  6
HIDDEN2
100
AcDbCircle
 10
185.3344794601869
 20
272.0254001493081
 30
0.0
 40
0.5
100
AcDbArc
 50
52.42655699999782
 51
90.0
  0
ARC
  5
5214
330
A
100
AcDbEntity
  8
MODEL
  6
Continuous
100
AcDbCircle
 10
181.2267364601871
 20
304.3779471493081
 30
0.0
 40
3.0
100
AcDbArc
 50
3.077647999998154
 51
90.0
  0
ARC
  5
5215
330
A
100
AcDbEntity
  8
MODEL
  6
Continuous
100
AcDbCircle
 10
181.2267364601871
 20
125.3779471493081
 30
0.0
 40
3.0
100
AcDbArc
 50
270.0
 51
356.922352000002
  0
ARC
  5
5216
330
A
100
AcDbEntity
  8
MODEL
  6
Continuous
100
AcDbCircle
 10
319.6319257346262
 20
463.6157551002879
 30
0.0
 40
3.0
100
AcDbArc
 50
273.0776480000025
 51
0.0
  0
ARC
  5
5217
330
A
100
AcDbEntity
  8
MODEL
  6
Continuous
100
AcDbCircle
 10
140.6319257346262
 20
463.6157551002879
 30
0.0
 40
3.0
100
AcDbArc
 50
180.0
 51
266.9223519999996
  0
CIRCLE
  5
5219
330
A
100
AcDbEntity
  8
MODEL
  6
HIDDEN2
 48
0.25
100
AcDbCircle
 10
570.3152291158422
 20
366.401253524739
 30
0.0
 40
4.912678114183
  0
CIRCLE
  5
521B
330
A
100
AcDbEntity
  8
MODEL
  6
HIDDEN
 48
0.25
100
AcDbCircle
 10
658.3152291158422
 20
456.9012535247392
 30
0.0
 40
4.912678114183
  0
CIRCLE
  5
521C
102
{ACAD_REACTORS
330
53DA
102
}
330
A
100
AcDbEntity
  8
MODEL
  6
Continuous
100
AcDbCircle
 10
605.3152291158422
 20
432.9038005247389
 30
0.0
 40
92.5
  0
CIRCLE
  5
521D
330
A
100
AcDbEntity
  8
MODEL
  6
Continuous
100
AcDbCircle
 10
552.3152291158422
 20
478.4012535247392
 30
0.0
 40
12.5
  0
CIRCLE
  5
521E
330
A
100
AcDbEntity
  8
MODEL
  6
HIDDEN2
 48
0.25
100
AcDbCircle
 10
640.3152291158422
 20
366.401253524739
 30
0.0
 40
3.25
  0
CIRCLE
  5
521F
330
A
100
AcDbEntity
  8
MODEL
  6
HIDDEN2
 48
0.25
100
AcDbCircle
 10
640.3152291158422
 20
366.401253524739
 30
0.0
 40
4.8
  0
CIRCLE
  5
5220
330
A
100
AcDbEntity
  8
MODEL
  6
HIDDEN
 48
0.25
100
AcDbCircle
 10
658.3152291158422
 20
456.9012535247392
 30
0.0
 40
3.25
  0
CIRCLE
  5
5222
330
A
100
AcDbEntity
  8
MODEL
  6
HIDDEN2
 48
0.25
100
AcDbCircle
 10
552.3152291158422
 20
456.9012535247392
 30
0.0
 40
4.8
  0
CIRCLE
  5
5223
330
A
100
AcDbEntity
  8
MODEL
  6
HIDDEN2
 48
0.25
100
AcDbCircle
 10
552.3152291158422
 20
456.9012535247392
 30
0.0
 40
3.25
  0
CIRCLE
  5
5225
330
A
100
AcDbEntity
  8
MODEL
  6
HIDDEN2
 48
0.25
100
AcDbCircle
 10
570.3152291158422
 20
366.401253524739
 30
0.0
 40
3.25
  0
CIRCLE
  5
5226
330
A
100
AcDbEntity
  8
MODEL
  6
Continuous
100
AcDbCircle
 10
552.3152291158422
 20
478.4012535247392
 30
0.0
 40
12.15
  0
CIRCLE
  5
5227
330
A
100
AcDbEntity
  8
MODEL
  6
Continuous
100
AcDbCircle
 10
552.3152291158422
 20
478.4012535247392
 30
0.0
 40
9.0
  0
ARC
  5
5228
330
A
100
AcDbEntity
  8
MODEL
100
AcDbCircle
 10
552.3152291158422
 20
386.6012535247389
 30
0.0
 40
5.2
100
AcDbArc
 50
180.0
 51
0.0
  0
ARC
  5
5229
330
A
100
AcDbEntity
  8
MODEL
100
AcDbCircle
 10
552.3152291158422
 20
406.4012535247392
 30
0.0
 40
8.7
100
AcDbArc
 50
306.7054309999992
 51
233.2945689999971
  0
ARC
  5
522A
330
A
100
AcDbEntity
  8
MODEL
  6
Continuous
100
AcDbCircle
 10
230.1319257346262
 20
2128.211427100288
 30
0.0
 40
1670.0
100
AcDbArc
 50
266.922352
 51
273.077648
  0
ARC
  5
522B
330
A
100
AcDbEntity
  8
MODEL
  6
Continuous
100
AcDbCircle
 10
-1483.368935539812
 20
214.8779471493081
 30
0.0
 40
1670.0
100
AcDbArc
 50
356.922352
 51
3.077648000000004
  0
LINE
  5
522C
102
{ACAD_REACTORS
330
5407
102
}
330
A
100
AcDbEntity
  8
MODEL
100
AcDbLine
 10
547.1152291158421
 20
399.4262985247389
 30
0.0
 11
547.1152291158421
 21
386.6012535247389
 31
0.0
  0
LINE
  5
522D
102
{ACAD_REACTORS
330
53F8
102
}
330
A
100
AcDbEntity
  8
MODEL
  6
CENTER2
100
AcDbLine
 10
545.5652291158422
 20
386.6012535247389
 30
0.0
 11
559.0652291158422
 21
386.6012535247389
 31
0.0
  0
LINE
  5
522E
330
A
100
AcDbEntity
  8
MODEL
100
AcDbLine
 10
557.515229115842
 20
386.6012535247389
 30
0.0
 11
557.515229115842
 21
399.4262985247389
 31
0.0
  0
LINE
  5
522F
102
{ACAD_REACTORS
330
53E9
330
53F8
102
}
330
A
100
AcDbEntity
  8
MODEL
  6
CENTER2
100
AcDbLine
 10
542.065749115842
 20
406.4012535247392
 30
0.0
 11
562.5652181158421
 21
406.4012535247392
 31
0.0
  0
LINE
  5
5230
330
A
100
AcDbEntity
  8
MODEL
  6
DASHDOT
 48
0.25
100
AcDbLine
 10
658.3152291158422
 20
462.9009735247391
 30
0.0
 11
658.3152291158422
 21
461.813931524739
 31
0.0
  0
LINE
  5
5231
330
A
100
AcDbEntity
  8
MODEL
  6
DASHDOT
 48
0.25
100
AcDbLine
 10
652.3732431158419
 20
456.9012535247392
 30
0.0
 11
664.3732431158419
 21
456.9012535247392
 31
0.0
  0
LINE
  5
5232
330
A
100
AcDbEntity
  8
MODEL
  6
DASHDOT
 48
0.25
100
AcDbLine
 10
640.3152291158422
 20
372.401253524739
 30
0.0
 11
640.3152291158422
 21
371.3139315247389
 31
0.0
  0
LINE
  5
5233
330
A
100
AcDbEntity
  8
MODEL
  6
DASHDOT
 48
0.25
100
AcDbLine
 10
634.3152291158422
 20
366.401253524739
 30
0.0
 11
646.3152291158422
 21
366.401253524739
 31
0.0
  0
LINE
  5
5234
330
A
100
AcDbEntity
  8
MODEL
  6
DASHDOT
 48
0.25
100
AcDbLine
 10
570.3152291158422
 20
360.403509524739
 30
0.0
 11
570.3152291158422
 21
371.3139315247389
 31
0.0
  0
LINE
  5
5235
330
A
100
AcDbEntity
  8
MODEL
  6
DASHDOT
 48
0.25
100
AcDbLine
 10
564.1507251158421
 20
366.401253524739
 30
0.0
 11
576.1507251158421
 21
366.401253524739
 31
0.0
  0
LINE
  5
5236
330
A
100
AcDbEntity
  8
MODEL
  6
DASHDOT
 48
0.25
100
AcDbLine
 10
546.3152291158422
 20
456.9012535247392
 30
0.0
 11
558.3152291158422
 21
456.9012535247392
 31
0.0
  0
LINE
  5
5237
330
A
100
AcDbEntity
  8
MODEL
  6
CENTER2
100
AcDbLine
 10
537.070509115842
 20
478.4012535247392
 30
0.0
 11
567.5599491158421
 21
478.4012535247392
 31
0.0
  0
LINE
  5
523A
330
A
100
AcDbEntity
  8
MODEL
  6
CENTER2
100
AcDbLine
 10
605.3152291158424
 20
337.4154352605997
 30
0.0
 11
605.3152291158424
 21
536.065674500356
 31
0.0
  0
LINE
  5
523B
330
A
100
AcDbEntity
  8
MODEL
  6
CENTER2
100
AcDbLine
 10
509.1738821158421
 20
432.9038005247389
 30
0.0
 11
701.4565761158422
 21
432.9038005247389
 31
0.0
  0
LINE
  5
523C
330
A
100
AcDbEntity
  8
MODEL
  6
DASHDOT
 48
0.25
100
AcDbLine
 10
640.3152291158422
 20
371.3139315247389
 30
0.0
 11
640.3152291158422
 21
360.401253524739
 31
0.0
  0
LINE
  5
523D
330
A
100
AcDbEntity
  8
MODEL
  6
DASHDOT
 48
0.25
100
AcDbLine
 10
570.3152291158422
 20
371.3139315247389
 30
0.0
 11
570.3152291158422
 21
372.398997524739
 31
0.0
  0
LINE
  5
523E
330
A
100
AcDbEntity
  8
MODEL
  6
CENTER2
100
AcDbLine
 10
552.3152291158422
 20
370.5647205247389
 30
0.0
 11
552.3152291158422
 21
493.645973524739
 31
0.0
  0
LINE
  5
523F
330
A
100
AcDbEntity
  8
MODEL
  6
DASHDOT
 48
0.25
100
AcDbLine
 10
658.3152291158422
 20
461.813931524739
 30
0.0
 11
658.3152291158422
 21
450.901533524739
 31
0.0
  0
LINE
  5
5240
330
A
100
AcDbEntity
  8
MODEL
  6
Continuous
100
AcDbLine
 10
185.8344794601869
 20
260.3754001493081
 30
0.0
 11
185.8344794601869
 21
272.0254001493081
 31
0.0
  0
LINE
  5
5241
330
A
100
AcDbEntity
  8
MODEL
  6
HIDDEN2
100
AcDbLine
 10
177.1319257346262
 20
459.0080121002881
 30
0.0
 11
188.7819257346263
 21
459.0080121002881
 31
0.0
  0
LINE
  5
5242
330
A
100
AcDbEntity
  8
MODEL
  6
HIDDEN2
100
AcDbLine
 10
186.1319257346262
 20
466.7080121002879
 30
0.0
 11
186.1319257346262
 21
459.0080121002881
 31
0.0
  0
LINE
  5
5243
330
A
100
AcDbEntity
  8
MODEL
  6
HIDDEN2
100
AcDbLine
 10
168.1319257346262
 20
459.0080121002881
 30
0.0
 11
168.1319257346262
 21
466.7080121002879
 31
0.0
  0
LINE
  5
5244
330
A
100
AcDbEntity
  8
MODEL
  6
HIDDEN2
100
AcDbLine
 10
164.9819257346263
 20
462.211427100288
 30
0.0
 11
164.9819257346263
 21
459.5080121002881
 31
0.0
  0
LINE
  5
5245
330
A
100
AcDbEntity
  8
MODEL
  6
Continuous
100
AcDbLine
 10
165.4819257346263
 20
459.0080121002881
 30
0.0
 11
177.1319257346262
 21
459.0080121002881
 31
0.0
  0
LINE
  5
5246
330
A
100
AcDbEntity
  8
MODEL
  6
HIDDEN2
100
AcDbLine
 10
189.2819257346263
 20
459.5080121002881
 30
0.0
 11
189.2819257346263
 21
462.211427100288
 31
0.0
  0
LINE
  5
5247
330
A
100
AcDbEntity
  8
MODEL
  6
HIDDEN2
100
AcDbLine
 10
199.9319257346263
 20
463.8113761002881
 30
0.0
 11
199.9319257346263
 21
462.711427100288
 31
0.0
  0
LINE
  5
5248
330
A
100
AcDbEntity
  8
MODEL
  6
HIDDEN2
100
AcDbLine
 10
198.3819257346262
 20
465.361376100288
 30
0.0
 11
199.9319257346263
 21
463.8113761002881
 31
0.0
  0
LINE
  5
5249
330
A
100
AcDbEntity
  8
MODEL
  6
HIDDEN2
100
AcDbLine
 10
198.3819257346262
 20
473.711376100288
 30
0.0
 11
198.3819257346262
 21
465.361376100288
 31
0.0
  0
LINE
  5
524A
330
A
100
AcDbEntity
  8
MODEL
  6
Continuous
100
AcDbLine
 10
199.7826407346262
 20
473.711376100288
 30
0.0
 11
200.0446037346263
 21
467.711427100288
 31
0.0
  0
LINE
  5
524B
330
A
100
AcDbEntity
  8
MODEL
  6
Continuous
100
AcDbLine
 10
190.4812107346262
 20
473.711376100288
 30
0.0
 11
199.7826407346262
 21
473.711376100288
 31
0.0
  0
LINE
  5
524C
330
A
100
AcDbEntity
  8
MODEL
  6
Continuous
100
AcDbLine
 10
190.4812107346262
 20
473.711376100288
 30
0.0
 11
190.2192477346263
 21
467.711427100288
 31
0.0
  0
LINE
  5
524D
102
{ACAD_REACTORS
330
529F
102
}
330
A
100
AcDbEntity
  8
MODEL
  6
DASHDOT
100
AcDbLine
 10
195.1319257346262
 20
475.640500100288
 30
0.0
 11
195.1319257346262
 21
461.4078921002881
 31
0.0
  0
LINE
  5
524E
330
A
100
AcDbEntity
  8
MODEL
  6
HIDDEN2
100
AcDbLine
 10
191.8819257346262
 20
465.361376100288
 30
0.0
 11
191.8819257346262
 21
473.711376100288
 31
0.0
  0
LINE
  5
524F
330
A
100
AcDbEntity
  8
MODEL
  6
HIDDEN2
100
AcDbLine
 10
191.8819257346262
 20
465.361376100288
 30
0.0
 11
198.3819257346262
 21
465.361376100288
 31
0.0
  0
LINE
  5
5250
330
A
100
AcDbEntity
  8
MODEL
  6
HIDDEN2
100
AcDbLine
 10
199.9319257346263
 20
463.8113761002881
 30
0.0
 11
190.3319257346262
 21
463.8113761002881
 31
0.0
  0
LINE
  5
5251
330
A
100
AcDbEntity
  8
MODEL
  6
HIDDEN2
100
AcDbLine
 10
190.3319257346262
 20
462.711427100288
 30
0.0
 11
190.3319257346262
 21
463.8113761002881
 31
0.0
  0
LINE
  5
5252
330
A
100
AcDbEntity
  8
MODEL
  6
HIDDEN2
100
AcDbLine
 10
190.3319257346262
 20
463.8113761002881
 30
0.0
 11
191.8819257346262
 21
465.361376100288
 31
0.0
  0
LINE
  5
5253
330
A
100
AcDbEntity
  8
MODEL
  6
HIDDEN2
100
AcDbLine
 10
181.9319257346263
 20
463.8113761002881
 30
0.0
 11
181.9319257346263
 21
462.711427100288
 31
0.0
  0
LINE
  5
5254
330
A
100
AcDbEntity
  8
MODEL
  6
HIDDEN2
100
AcDbLine
 10
180.3819257346262
 20
465.361376100288
 30
0.0
 11
181.9319257346263
 21
463.8113761002881
 31
0.0
  0
LINE
  5
5255
330
A
100
AcDbEntity
  8
MODEL
  6
HIDDEN2
100
AcDbLine
 10
180.3819257346262
 20
473.711376100288
 30
0.0
 11
180.3819257346262
 21
465.361376100288
 31
0.0
  0
LINE
  5
5256
330
A
100
AcDbEntity
  8
MODEL
  6
Continuous
100
AcDbLine
 10
181.7826407346262
 20
473.711376100288
 30
0.0
 11
182.0446037346263
 21
467.711427100288
 31
0.0
  0
LINE
  5
5257
330
A
100
AcDbEntity
  8
MODEL
  6
Continuous
100
AcDbLine
 10
172.4812107346262
 20
473.711376100288
 30
0.0
 11
181.7826407346262
 21
473.711376100288
 31
0.0
  0
LINE
  5
5258
330
A
100
AcDbEntity
  8
MODEL
  6
Continuous
100
AcDbLine
 10
172.4812107346262
 20
473.711376100288
 30
0.0
 11
172.2192477346263
 21
467.711427100288
 31
0.0
  0
LINE
  5
5259
330
A
100
AcDbEntity
  8
MODEL
  6
DASHDOT
100
AcDbLine
 10
177.1319257346262
 20
475.640500100288
 30
0.0
 11
177.1319257346262
 21
457.4078921002881
 31
0.0
  0
LINE
  5
525A
330
A
100
AcDbEntity
  8
MODEL
  6
HIDDEN2
100
AcDbLine
 10
173.8819257346262
 20
465.361376100288
 30
0.0
 11
173.8819257346262
 21
473.711376100288
 31
0.0
  0
LINE
  5
525B
330
A
100
AcDbEntity
  8
MODEL
  6
HIDDEN2
100
AcDbLine
 10
173.8819257346262
 20
465.361376100288
 30
0.0
 11
180.3819257346262
 21
465.361376100288
 31
0.0
  0
LINE
  5
525C
330
A
100
AcDbEntity
  8
MODEL
  6
HIDDEN2
100
AcDbLine
 10
181.9319257346263
 20
463.8113761002881
 30
0.0
 11
172.3319257346262
 21
463.8113761002881
 31
0.0
  0
LINE
  5
525D
330
A
100
AcDbEntity
  8
MODEL
  6
HIDDEN2
100
AcDbLine
 10
172.3319257346262
 20
462.711427100288
 30
0.0
 11
172.3319257346262
 21
463.8113761002881
 31
0.0
  0
LINE
  5
525E
330
A
100
AcDbEntity
  8
MODEL
  6
HIDDEN2
100
AcDbLine
 10
172.3319257346262
 20
463.8113761002881
 30
0.0
 11
173.8819257346262
 21
465.361376100288
 31
0.0
  0
LINE
  5
525F
330
A
100
AcDbEntity
  8
MODEL
  6
HIDDEN2
100
AcDbLine
 10
260.3319257346263
 20
462.711427100288
 30
0.0
 11
260.3319257346263
 21
463.8113761002881
 31
0.0
  0
LINE
  5
5260
330
A
100
AcDbEntity
  8
MODEL
  6
HIDDEN2
100
AcDbLine
 10
260.3319257346263
 20
463.8113761002881
 30
0.0
 11
261.8819257346262
 21
465.361376100288
 31
0.0
  0
LINE
  5
5261
330
A
100
AcDbEntity
  8
MODEL
  6
HIDDEN2
100
AcDbLine
 10
261.8819257346262
 20
465.361376100288
 30
0.0
 11
261.8819257346262
 21
473.711376100288
 31
0.0
  0
LINE
  5
5262
330
A
100
AcDbEntity
  8
MODEL
  6
Continuous
100
AcDbLine
 10
260.2192477346263
 20
467.711427100288
 30
0.0
 11
260.4812107346262
 21
473.711376100288
 31
0.0
  0
LINE
  5
5263
330
A
100
AcDbEntity
  8
MODEL
  6
Continuous
100
AcDbLine
 10
260.4812107346262
 20
473.711376100288
 30
0.0
 11
269.7826407346262
 21
473.711376100288
 31
0.0
  0
LINE
  5
5264
330
A
100
AcDbEntity
  8
MODEL
  6
Continuous
100
AcDbLine
 10
270.0446037346263
 20
467.711427100288
 30
0.0
 11
269.7826407346262
 21
473.711376100288
 31
0.0
  0
LINE
  5
5265
102
{ACAD_REACTORS
330
529F
102
}
330
A
100
AcDbEntity
  8
MODEL
  6
DASHDOT
100
AcDbLine
 10
265.1319257346262
 20
461.4078921002881
 30
0.0
 11
265.1319257346262
 21
475.640500100288
 31
0.0
  0
LINE
  5
5266
330
A
100
AcDbEntity
  8
MODEL
  6
HIDDEN2
100
AcDbLine
 10
268.3819257346262
 20
473.711376100288
 30
0.0
 11
268.3819257346262
 21
465.361376100288
 31
0.0
  0
LINE
  5
5267
330
A
100
AcDbEntity
  8
MODEL
  6
HIDDEN2
100
AcDbLine
 10
261.8819257346262
 20
465.361376100288
 30
0.0
 11
268.3819257346262
 21
465.361376100288
 31
0.0
  0
LINE
  5
5268
330
A
100
AcDbEntity
  8
MODEL
  6
HIDDEN2
100
AcDbLine
 10
269.9319257346263
 20
463.8113761002881
 30
0.0
 11
260.3319257346263
 21
463.8113761002881
 31
0.0
  0
LINE
  5
5269
330
A
100
AcDbEntity
  8
MODEL
  6
HIDDEN2
100
AcDbLine
 10
269.9319257346263
 20
463.8113761002881
 30
0.0
 11
269.9319257346263
 21
462.711427100288
 31
0.0
  0
LINE
  5
526A
330
A
100
AcDbEntity
  8
MODEL
  6
HIDDEN2
100
AcDbLine
 10
268.3819257346262
 20
465.361376100288
 30
0.0
 11
269.9319257346263
 21
463.8113761002881
 31
0.0
  0
LINE
  5
526B
330
A
100
AcDbEntity
  8
MODEL
  6
HIDDEN2
100
AcDbLine
 10
278.3319257346263
 20
462.711427100288
 30
0.0
 11
278.3319257346263
 21
463.8113761002881
 31
0.0
  0
LINE
  5
526C
330
A
100
AcDbEntity
  8
MODEL
  6
HIDDEN2
100
AcDbLine
 10
278.3319257346263
 20
463.8113761002881
 30
0.0
 11
279.8819257346262
 21
465.361376100288
 31
0.0
  0
LINE
  5
526D
330
A
100
AcDbEntity
  8
MODEL
  6
HIDDEN2
100
AcDbLine
 10
279.8819257346262
 20
465.361376100288
 30
0.0
 11
279.8819257346262
 21
473.711376100288
 31
0.0
  0
LINE
  5
526E
330
A
100
AcDbEntity
  8
MODEL
  6
Continuous
100
AcDbLine
 10
278.2192477346264
 20
467.711427100288
 30
0.0
 11
278.4812107346262
 21
473.711376100288
 31
0.0
  0
LINE
  5
526F
330
A
100
AcDbEntity
  8
MODEL
  6
Continuous
100
AcDbLine
 10
278.4812107346262
 20
473.711376100288
 30
0.0
 11
287.7826407346265
 21
473.711376100288
 31
0.0
  0
LINE
  5
5270
330
A
100
AcDbEntity
  8
MODEL
  6
Continuous
100
AcDbLine
 10
288.0446037346263
 20
467.711427100288
 30
0.0
 11
287.7826407346265
 21
473.711376100288
 31
0.0
  0
LINE
  5
5271
330
A
100
AcDbEntity
  8
MODEL
  6
DASHDOT
100
AcDbLine
 10
283.1319257346262
 20
461.4078921002881
 30
0.0
 11
283.1319257346262
 21
475.640500100288
 31
0.0
  0
LINE
  5
5272
330
A
100
AcDbEntity
  8
MODEL
  6
HIDDEN2
100
AcDbLine
 10
286.3819257346262
 20
473.711376100288
 30
0.0
 11
286.3819257346262
 21
465.361376100288
 31
0.0
  0
LINE
  5
5273
330
A
100
AcDbEntity
  8
MODEL
  6
HIDDEN2
100
AcDbLine
 10
279.8819257346262
 20
465.361376100288
 30
0.0
 11
286.3819257346262
 21
465.361376100288
 31
0.0
  0
LINE
  5
5274
330
A
100
AcDbEntity
  8
MODEL
  6
HIDDEN2
100
AcDbLine
 10
287.9319257346263
 20
463.8113761002881
 30
0.0
 11
278.3319257346263
 21
463.8113761002881
 31
0.0
  0
LINE
  5
5275
330
A
100
AcDbEntity
  8
MODEL
  6
HIDDEN2
100
AcDbLine
 10
287.9319257346263
 20
463.8113761002881
 30
0.0
 11
287.9319257346263
 21
462.711427100288
 31
0.0
  0
LINE
  5
5276
330
A
100
AcDbEntity
  8
MODEL
  6
HIDDEN2
100
AcDbLine
 10
286.3819257346262
 20
465.361376100288
 30
0.0
 11
287.9319257346263
 21
463.8113761002881
 31
0.0
  0
LINE
  5
5277
330
A
100
AcDbEntity
  8
MODEL
  6
HIDDEN2
100
AcDbLine
 10
182.1310644601869
 20
143.5754001493081
 30
0.0
 11
181.031115460187
 21
143.5754001493081
 31
0.0
  0
LINE
  5
5278
330
A
100
AcDbEntity
  8
MODEL
  6
HIDDEN2
100
AcDbLine
 10
181.031115460187
 20
143.5754001493081
 30
0.0
 11
179.4811154601869
 21
145.125400149308
 31
0.0
  0
LINE
  5
5279
330
A
100
AcDbEntity
  8
MODEL
  6
HIDDEN2
100
AcDbLine
 10
179.4811154601869
 20
145.125400149308
 30
0.0
 11
171.131115460187
 21
145.125400149308
 31
0.0
  0
LINE
  5
527A
330
A
100
AcDbEntity
  8
MODEL
  6
Continuous
100
AcDbLine
 10
177.1310644601869
 20
143.4627221493081
 30
0.0
 11
171.131115460187
 21
143.724685149308
 31
0.0
  0
LINE
  5
527B
330
A
100
AcDbEntity
  8
MODEL
  6
Continuous
100
AcDbLine
 10
171.131115460187
 20
143.724685149308
 30
0.0
 11
171.131115460187
 21
153.026115149308
 31
0.0
  0
LINE
  5
527C
330
A
100
AcDbEntity
  8
MODEL
  6
Continuous
100
AcDbLine
 10
177.1310644601869
 20
153.2880781493079
 30
0.0
 11
171.131115460187
 21
153.026115149308
 31
0.0
  0
LINE
  5
527E
330
A
100
AcDbEntity
  8
MODEL
  6
HIDDEN2
100
AcDbLine
 10
171.131115460187
 20
151.625400149308
 30
0.0
 11
179.4811154601869
 21
151.625400149308
 31
0.0
  0
LINE
  5
527F
330
A
100
AcDbEntity
  8
MODEL
  6
HIDDEN2
100
AcDbLine
 10
179.4811154601869
 20
145.125400149308
 30
0.0
 11
179.4811154601869
 21
151.625400149308
 31
0.0
  0
LINE
  5
5280
330
A
100
AcDbEntity
  8
MODEL
  6
HIDDEN2
100
AcDbLine
 10
181.031115460187
 20
153.175400149308
 30
0.0
 11
181.031115460187
 21
143.5754001493081
 31
0.0
  0
LINE
  5
5281
330
A
100
AcDbEntity
  8
MODEL
  6
HIDDEN2
100
AcDbLine
 10
181.031115460187
 20
153.175400149308
 30
0.0
 11
182.1310644601869
 21
153.175400149308
 31
0.0
  0
LINE
  5
5282
330
A
100
AcDbEntity
  8
MODEL
  6
HIDDEN2
100
AcDbLine
 10
179.4811154601869
 20
151.625400149308
 30
0.0
 11
181.031115460187
 21
153.175400149308
 31
0.0
  0
LINE
  5
5284
330
A
100
AcDbEntity
  8
MODEL
  6
HIDDEN2
100
AcDbLine
 10
178.134479460187
 20
269.3754001493081
 30
0.0
 11
185.8344794601869
 21
269.3754001493081
 31
0.0
  0
LINE
  5
5285
330
A
100
AcDbEntity
  8
MODEL
  6
HIDDEN2
100
AcDbLine
 10
185.8344794601869
 20
251.3754001493081
 30
0.0
 11
178.134479460187
 21
251.3754001493081
 31
0.0
  0
LINE
  5
5286
330
A
100
AcDbEntity
  8
MODEL
  6
HIDDEN2
100
AcDbLine
 10
182.6310644601869
 20
248.2254001493079
 30
0.0
 11
185.3344794601869
 21
248.2254001493079
 31
0.0
  0
LINE
  5
5287
330
A
100
AcDbEntity
  8
MODEL
  6
HIDDEN2
100
AcDbLine
 10
185.8344794601869
 20
248.7254001493079
 30
0.0
 11
185.8344794601869
 21
260.3754001493081
 31
0.0
  0
LINE
  5
5288
330
A
100
AcDbEntity
  8
MODEL
  6
HIDDEN2
100
AcDbLine
 10
185.3344794601869
 20
272.5254001493081
 30
0.0
 11
182.6310644601869
 21
272.5254001493081
 31
0.0
  0
LINE
  5
5289
330
A
100
AcDbEntity
  8
MODEL
  6
HIDDEN2
100
AcDbLine
 10
182.1310644601869
 20
234.0754001493081
 30
0.0
 11
181.031115460187
 21
234.0754001493081
 31
0.0
  0
LINE
  5
528A
330
A
100
AcDbEntity
  8
MODEL
  6
HIDDEN2
100
AcDbLine
 10
181.031115460187
 20
234.0754001493081
 30
0.0
 11
179.4811154601869
 21
235.6254001493081
 31
0.0
  0
LINE
  5
528B
330
A
100
AcDbEntity
  8
MODEL
  6
HIDDEN2
100
AcDbLine
 10
179.4811154601869
 20
235.6254001493081
 30
0.0
 11
171.131115460187
 21
235.6254001493081
 31
0.0
  0
LINE
  5
528C
330
A
100
AcDbEntity
  8
MODEL
  6
Continuous
100
AcDbLine
 10
177.1310644601869
 20
233.9627221493081
 30
0.0
 11
171.131115460187
 21
234.224685149308
 31
0.0
  0
LINE
  5
528D
330
A
100
AcDbEntity
  8
MODEL
  6
Continuous
100
AcDbLine
 10
171.131115460187
 20
234.224685149308
 30
0.0
 11
171.131115460187
 21
243.526115149308
 31
0.0
  0
LINE
  5
528E
330
A
100
AcDbEntity
  8
MODEL
  6
Continuous
100
AcDbLine
 10
177.1310644601869
 20
243.7880781493079
 30
0.0
 11
171.131115460187
 21
243.526115149308
 31
0.0
  0
LINE
  5
528F
330
A
100
AcDbEntity
  8
MODEL
  6
DASHDOT
100
AcDbLine
 10
183.4345994601869
 20
238.8754001493081
 30
0.0
 11
169.201991460187
 21
238.8754001493081
 31
0.0
  0
LINE
  5
5290
330
A
100
AcDbEntity
  8
MODEL
  6
HIDDEN2
100
AcDbLine
 10
171.131115460187
 20
242.1254001493081
 30
0.0
 11
179.4811154601869
 21
242.1254001493081
 31
0.0
  0
LINE
  5
5291
330
A
100
AcDbEntity
  8
MODEL
  6
HIDDEN2
100
AcDbLine
 10
179.4811154601869
 20
235.6254001493081
 30
0.0
 11
179.4811154601869
 21
242.1254001493081
 31
0.0
  0
LINE
  5
5292
330
A
100
AcDbEntity
  8
MODEL
  6
HIDDEN2
100
AcDbLine
 10
181.031115460187
 20
243.675400149308
 30
0.0
 11
181.031115460187
 21
234.0754001493081
 31
0.0
  0
LINE
  5
5293
330
A
100
AcDbEntity
  8
MODEL
  6
HIDDEN2
100
AcDbLine
 10
181.031115460187
 20
243.675400149308
 30
0.0
 11
182.1310644601869
 21
243.675400149308
 31
0.0
  0
LINE
  5
5294
330
A
100
AcDbEntity
  8
MODEL
  6
HIDDEN2
100
AcDbLine
 10
179.4811154601869
 20
242.1254001493081
 30
0.0
 11
181.031115460187
 21
243.675400149308
 31
0.0
  0
LINE
  5
5295
330
A
100
AcDbEntity
  8
MODEL
  6
Continuous
100
AcDbLine
 10
177.1310644601869
 20
122.3779471493081
 30
0.0
 11
177.1310644601869
 21
307.3779471493081
 31
0.0
  0
LINE
  5
5296
330
A
100
AcDbEntity
  8
MODEL
  6
Continuous
100
AcDbLine
 10
322.6319257346262
 20
467.711427100288
 30
0.0
 11
137.6319257346262
 21
467.711427100288
 31
0.0
  0
LINE
  5
5297
330
A
100
AcDbEntity
  8
MODEL
  6
Continuous
100
AcDbLine
 10
322.6319257346262
 20
463.6157551002879
 30
0.0
 11
322.6319257346262
 21
467.711427100288
 31
0.0
  0
LINE
  5
5298
102
{ACAD_REACTORS
330
5387
102
}
330
A
100
AcDbEntity
  8
MODEL
  6
Continuous
100
AcDbLine
 10
137.6319257346262
 20
467.711427100288
 30
0.0
 11
137.6319257346262
 21
463.6157551002879
 31
0.0
  0
LINE
  5
5299
330
A
100
AcDbEntity
  8
MODEL
  6
Continuous
100
AcDbLine
 10
181.2267364601871
 20
122.3779471493081
 30
0.0
 11
177.1310644601869
 21
122.3779471493081
 31
0.0
  0
LINE
  5
529A
330
A
100
AcDbEntity
  8
MODEL
  6
Continuous
100
AcDbLine
 10
177.1310644601869
 20
307.3779471493081
 30
0.0
 11
181.2267364601871
 21
307.3779471493081
 31
0.0
  0
CIRCLE
  5
529B
330
A
100
AcDbEntity
  8
MODEL
  6
DASHED
100
AcDbCircle
 10
605.3152291158422
 20
432.9038000247389
 30
0.0
 40
90.5
  0
DIMENSION
  5
529D
102
{ACAD_REACTORS
330
529F
102
}
102
{ACAD_XDICTIONARY
360
529E
102
}
330
A
100
AcDbEntity
  8
寸法
  6
Continuous
100
AcDbDimension
  2
*D14
 10
265.1319257346262
 20
488.543966994637
 30
0.0
 11
230.1319257346262
 21
493.543966994637
 31
0.0
 70
    32
 71
     5
 42
70.0
 73
     0
 74
     0
 75
     0
  3
tfrom線あり
100
AcDbAlignedDimension
 13
195.1319257346262
 23
475.640500100288
 33
0.0
 14
265.1319257346262
 24
475.640500100288
 34
0.0
100
AcDbRotatedDimension
  0
DIMENSION
  5
5385
102
{ACAD_REACTORS
330
5387
102
}
102
{ACAD_XDICTIONARY
360
5386
102
}
330
A
100
AcDbEntity
  8
寸法
  6
Continuous
100
AcDbDimension
  2
*D15
 10
124.3058980412941
 20
457.711427100288
 30
0.0
 11
124.3058980412941
 21
462.7551516088369
 31
0.0
 70
   160
 71
     5
 42
10.0
 73
     0
 74
     0
 75
     0
  3
tfrom線あり
100
AcDbAlignedDimension
 13
137.6319257346262
 23
467.711427100288
 33
0.0
 14
150.7043454386834
 24
457.711427100288
 34
0.0
 50
90.0
100
AcDbRotatedDimension
1001
ACAD
1000
DSTYLE
1002
{
1070
   271
1070
     1
1002
}
  0
DIMENSION
  5
53D8
102
{ACAD_REACTORS
330
53DA
102
}
102
{ACAD_XDICTIONARY
360
53D9
102
}
330
A
100
AcDbEntity
  8
寸法
  6
Continuous
100
AcDbDimension
  2
*D16
 10
452.0062099742706
 20
340.4038005247389
 30
0.0
 11
446.5202099742706
 21
432.9038005247389
 31
0.0
 70
    32
 71
     5
 42
185.0
 73
     0
 74
     0
 75
     0
  3
tfrom線あり
100
AcDbAlignedDimension
 13
605.3152291158422
 23
525.4038005247389
 33
0.0
 14
605.3152291158422
 24
340.4038005247389
 34
0.0
 50
90.0
100
AcDbRotatedDimension
1001
ACAD
1000
DSTYLE
1002
{
1070
     3
1000
φ<>
1002
}
  0
DIMENSION
  5
53E7
102
{ACAD_REACTORS
330
53E9
102
}
102
{ACAD_XDICTIONARY
360
53E8
102
}
330
A
100
AcDbEntity
  8
寸法
  6
Continuous
100
AcDbDimension
  2
*D17
 10
477.5297326799068
 20
406.4012535247392
 30
0.0
 11
472.5297326799068
 21
465.9025270247391
 31
0.0
 70
    32
 71
     5
 42
119.0025469999997
 73
     0
 74
     0
 75
     0
  3
tfrom線あり
100
AcDbAlignedDimension
 13
605.3152291158422
 23
525.4038005247389
 33
0.0
 14
542.065749115842
 24
406.4012535247392
 34
0.0
 50
90.0
100
AcDbRotatedDimension
  0
DIMENSION
  5
53F6
102
{ACAD_REACTORS
330
53F8
102
}
102
{ACAD_XDICTIONARY
360
53F7
102
}
330
A
100
AcDbEntity
  8
寸法
  6
Continuous
100
AcDbDimension
  2
*D18
 10
477.5297326799068
 20
386.6012535247389
 30
0.0
 11
472.5297326799068
 21
396.5012535247391
 31
0.0
 70
    32
  1
21
 71
     5
 42
19.8000000000003
 73
     0
 74
     0
 75
     0
  3
tfrom線あり
100
AcDbAlignedDimension
 13
542.065749115842
 23
406.4012535247392
 33
0.0
 14
545.5652291158422
 24
386.6012535247389
 34
0.0
 50
90.0
100
AcDbRotatedDimension
  0
DIMENSION
  5
5405
102
{ACAD_REACTORS
330
5407
102
}
102
{ACAD_XDICTIONARY
360
5406
102
}
330
A
100
AcDbEntity
  8
寸法
  6
Continuous
100
AcDbDimension
  2
*D19
 10
477.3351524878164
 20
340.4038005247389
 30
0.0
 11
472.3351524878164
 21
363.5025270247389
 31
0.0
 70
    32
  1
45
 71
     5
 42
46.19745299999999
 73
     0
 74
     0
 75
     0
  3
tfrom線あり
100
AcDbAlignedDimension
 13
547.1152291158421
 23
386.6012535247389
 33
0.0
 14
605.3152291158422
 24
340.4038005247389
 34
0.0
 50
90.0
100
AcDbRotatedDimension
  0
DIMENSION
  5
5414
102
{ACAD_REACTORS
330
5416
102
}
102
{ACAD_XDICTIONARY
360
5415
102
}
330
A
100
AcDbEntity
  8
寸法
  6
Continuous
100
AcDbDimension
  2
*D20
 10
271.6334357966439
 20
248.1804957420638
 30
0.0
 11
271.6334357966439
 21
273.2290411252141
 31
0.0
 70
   160
 71
     5
 42
48.30072488769224
 73
     0
 74
     0
 75
     0
  3
tfrom線あり
100
AcDbAlignedDimension
 13
245.8665141205616
 23
296.4812206297561
 33
0.0
 14
231.4999749586026
 24
248.1804957420638
 34
0.0
 50
90.0
100
AcDbRotatedDimension
  0
LINE
  5
576B
330
A
100
AcDbEntity
  8
PRINT BORDER
100
AcDbLine
 10
395.9999999999998
 20
0.0
 30
0.0
 11
395.9999999999998
 21
20.41270163807864
 31
0.0
  0
LINE
  5
576C
330
A
100
AcDbEntity
  8
テンプレート
100
AcDbLine
 10
583.9999999999998
 20
51.0374785389613
 30
0.0
 11
20.41270163807864
 21
51.0374785389613
 31
0.0
  0
LINE
  5
576D
330
A
100
AcDbEntity
  8
テンプレート
100
AcDbLine
 10
20.41270163807864
 20
34.96204911894377
 30
0.0
 11
771.5872983619208
 21
34.96204911894377
 31
0.0
  0
TEXT
  5
576E
330
A
100
AcDbEntity
  8
テンプレート
100
AcDbText
 10
24.08162266018825
 20
42.89101308818255
 30
0.0
 40
4.666666666666666
  1
材質
  7
ＭＳ ゴシック
100
AcDbText
  0
TEXT
  5
576F
330
A
100
AcDbEntity
  8
テンプレート
100
AcDbText
 10
24.08162266018825
 20
75.34612038230776
 30
0.0
 40
4.666666666666666
  1
品名
  7
ＭＳ ゴシック
100
AcDbText
  0
TEXT
  5
5770
330
A
100
AcDbEntity
  8
テンプレート
100
AcDbText
 10
24.08162266018825
 20
59.5346578544013
 30
0.0
 40
4.666666666666666
  1
仕上げ
  7
ＭＳ ゴシック
100
AcDbText
  0
TEXT
  5
5771
330
A
100
AcDbEntity
  8
テンプレート
100
AcDbText
 10
398.4311313572408
 20
75.44697403079863
 30
0.0
 40
4.666666666666666
  1
品番
  7
ＭＳ ゴシック
100
AcDbText
  0
TEXT
  5
5772
330
A
100
AcDbEntity
  8
テンプレート
100
AcDbText
 10
49.00376707781106
 20
70.79254112489585
 30
0.0
 40
7.333333333333333
  1
レバーハンドル - FSB 専用座（玄関用）-
  7
ＭＳ ゴシック
100
AcDbText
  0
TEXT
  5
5773
330
A
100
AcDbEntity
  8
テンプレート
100
AcDbText
 10
417.3561607232618
 20
70.63610736607066
 30
0.0
 40
7.333333333333333
  1
FSB10-1191L-Z1
  7
ＭＳ ゴシック
100
AcDbText
  0
LINE
  5
5774
330
A
100
AcDbEntity
  8
テンプレート
100
AcDbLine
 10
583.9999999999998
 20
66.88661969892806
 30
0.0
 11
20.41270163807864
 21
66.88661969892806
 31
0.0
  0
LINE
  5
5775
330
A
100
AcDbEntity
  8
テンプレート
100
AcDbLine
 10
771.5872983619215
 20
82.96204911894377
 30
0.0
 11
20.41270163807864
 21
82.96204911894377
 31
0.0
  0
LINE
  5
5776
330
A
100
AcDbEntity
  8
PRINT BORDER
100
AcDbLine
 10
791.9999999999998
 20
280.0
 30
0.0
 11
771.5872983619215
 21
280.0
 31
0.0
  0
LINE
  5
5777
330
A
100
AcDbEntity
  8
PRINT BORDER
100
AcDbLine
 10
0.0
 20
280.0
 30
0.0
 11
20.41270163807864
 21
280.0
 31
0.0
  0
LINE
  5
5778
330
A
100
AcDbEntity
  8
PRINT BORDER
100
AcDbLine
 10
395.9999999999998
 20
560.0
 30
0.0
 11
395.9999999999998
 21
539.5872983619213
 31
0.0
  0
LINE
  5
5779
330
A
100
AcDbEntity
  8
テンプレート
100
AcDbLine
 10
771.5872983619215
 20
82.96204911894377
 30
0.0
 11
771.5872983619215
 21
34.96204911894377
 31
0.0
  0
LINE
  5
577A
330
A
100
AcDbEntity
  8
テンプレート
100
AcDbLine
 10
20.41270163807864
 20
82.96204911894377
 30
0.0
 11
20.41270163807864
 21
34.96204911894377
 31
0.0
  0
TEXT
  5
577B
330
A
100
AcDbEntity
  8
テンプレート
100
AcDbText
 10
659.9644513273622
 20
22.02584520418259
 30
0.0
 40
7.333333333333333
  1
大洋金物株式会社  
  7
ＭＳ ゴシック
100
AcDbText
  0
LINE
  5
577C
330
A
100
AcDbEntity
  8
テンプレート
100
AcDbLine
 10
583.9999999999998
 20
82.96204911894377
 30
0.0
 11
583.9999999999998
 21
34.96204911894377
 31
0.0
  0
LINE
  5
577D
330
A
100
AcDbEntity
  8
テンプレート
100
AcDbLine
 10
395.9999999999998
 20
82.96204911894377
 30
0.0
 11
395.9999999999998
 21
34.96204911894377
 31
0.0
  0
INSERT
  5
577E
330
A
100
AcDbEntity
  8
テンプレート
100
AcDbBlockReference
  2
名称未設定-1
 10
731.1926931813073
 20
-10.18979227199088
 30
0.0
 41
0.2413
 42
0.2413
 43
0.2413
  0
TEXT
  5
577F
330
A
100
AcDbEntity
  8
テンプレート
100
AcDbText
 10
24.56340255965794
 20
25.20644905223465
 30
0.0
 40
5.333333333333333
  1
20151207N
  7
ＭＳ ゴシック
100
AcDbText
  0
LINE
  5
5780
330
A
100
AcDbEntity
  8
テンプレート
100
AcDbLine
 10
20.41270163807864
 20
280.0
 30
0.0
 11
20.41270163807864
 21
34.96204911894377
 31
0.0
  0
LINE
  5
5781
330
A
100
AcDbEntity
  8
テンプレート
100
AcDbLine
 10
20.41270163807864
 20
280.0
 30
0.0
 11
20.41270163807864
 21
539.5872983619213
 31
0.0
  0
LINE
  5
5782
330
A
100
AcDbEntity
  8
テンプレート
100
AcDbLine
 10
395.9999999999998
 20
539.5872983619213
 30
0.0
 11
20.41270163807849
 21
539.5872983619213
 31
0.0
  0
LINE
  5
5783
330
A
100
AcDbEntity
  8
テンプレート
100
AcDbLine
 10
395.9999999999998
 20
539.5872983619213
 30
0.0
 11
771.5872983619215
 21
539.5872983619213
 31
0.0
  0
LINE
  5
5784
330
A
100
AcDbEntity
  8
テンプレート
100
AcDbLine
 10
771.5872983619215
 20
280.0
 30
0.0
 11
771.5872983619215
 21
539.5872983619213
 31
0.0
  0
LINE
  5
5785
330
A
100
AcDbEntity
  8
テンプレート
100
AcDbLine
 10
771.5872983619215
 20
280.0
 30
0.0
 11
771.5872983619215
 21
34.96204911894377
 31
0.0
  0
LWPOLYLINE
  5
5786
330
A
100
AcDbEntity
  8
PRINT BORDER
  6
HIDDEN
 48
3.0
100
AcDbPolyline
 90
        4
 70
     1
 43
0.0
 10
0.0
 20
0.0
 10
0.0
 20
560.0
 10
791.9999999999997
 20
560.0
 10
791.9999999999997
 20
0.0
  0
TEXT
  5
5787
330
A
100
AcDbEntity
  8
テンプレート
100
AcDbText
 10
398.3985541629628
 20
43.49873790425983
 30
0.0
 40
4.666666666666666
  1
縮尺
  7
ＭＳ ゴシック
100
AcDbText
  0
TEXT
  5
5788
330
A
100
AcDbEntity
  8
テンプレート
100
AcDbText
 10
417.3561607232618
 20
37.72482760302925
 30
0.0
 40
7.333333333333333
  1
1/3
  7
ＭＳ ゴシック
100
AcDbText
  0
TEXT
  5
5789
330
A
100
AcDbEntity
  8
テンプレート
100
AcDbText
 10
398.4311313572408
 20
59.3715446107811
 30
0.0
 40
4.666666666666666
  1
扉厚
  7
ＭＳ ゴシック
100
AcDbText
  0
TEXT
  5
578A
330
A
100
AcDbEntity
  8
テンプレート
100
AcDbText
 10
586.7850032897957
 20
75.44697403079863
 30
0.0
 40
4.666666666666666
  1
備考
  7
ＭＳ ゴシック
100
AcDbText
  0
TEXT
  5
578B
330
A
100
AcDbEntity
  8
テンプレート
100
AcDbText
 10
598.6689650259865
 20
63.04206391864211
 30
0.0
 40
7.333333333333333
  1
取付方＝呼込み(ビス付)
  7
ＭＳ ゴシック
100
AcDbText
  0
TEXT
  5
578C
330
A
100
AcDbEntity
  8
_0-1_
 62
     1
100
AcDbText
 10
177.7468866874332
 20
79.37939740351129
 30
0.0
 40
4.0
  1
   
  7
ＭＳ ゴシック
100
AcDbText
  0
LINE
  5
578D
330
A
100
AcDbEntity
  8
SPACER
  6
CENTER
 48
3.0
100
AcDbLine
 10
127.1816507401138
 20
224.6771809568476
 30
0.0
 11
127.1816507401138
 21
137.0485128832279
 31
0.0
  0
LINE
  5
578E
330
A
100
AcDbEntity
  8
SPACER
  6
CENTER
 48
3.0
100
AcDbLine
 10
83.36731670330403
 20
180.8628469200378
 30
0.0
 11
170.9959847769237
 21
180.8628469200378
 31
0.0
  0
LINE
  5
578F
330
A
100
AcDbEntity
  8
SPACER
  6
CENTER
 48
3.0
100
AcDbLine
 10
83.36817797774336
 20
348.7335990428101
 30
0.0
 11
170.9968460513629
 21
348.7335990428101
 31
0.0
  0
LINE
  5
5790
330
A
100
AcDbEntity
  8
SPACER
  6
CENTER
 48
3.0
100
AcDbLine
 10
408.8721245115548
 20
390.2510986248161
 30
0.0
 11
408.8721245115548
 21
302.6224305511963
 31
0.0
  0
LINE
  5
5791
330
A
100
AcDbEntity
  8
SPACER
  6
CENTER
 48
3.0
100
AcDbLine
 10
365.0577904747449
 20
346.4367645880062
 30
0.0
 11
452.6864585483646
 21
346.4367645880062
 31
0.0
  0
LINE
  5
57F4
330
A
100
AcDbEntity
  8
SPACER
  6
CENTER
 48
3.0
100
AcDbLine
 10
296.9999999999999
 20
404.690473771441
 30
0.0
 11
297.0
 21
106.25363796957
 31
0.0
  0
LINE
  5
57F5
330
A
100
AcDbEntity
  8
SPACER
  6
CENTER
 48
3.0
100
AcDbLine
 10
15.30952622855898
 20
255.4720558705055
 30
0.0
 11
578.690473771441
 21
255.4720558705055
 31
0.0
  0
LINE
  5
57F6
330
A
100
AcDbEntity
  8
SPACER
  6
CENTER
 48
3.0
100
AcDbLine
 10
15.30952622855898
 20
106.25363796957
 30
0.0
 11
578.690473771441
 21
106.25363796957
 31
0.0
  0
LINE
  5
57F7
330
A
100
AcDbEntity
  8
SPACER
  6
CENTER
 48
3.0
100
AcDbLine
 10
408.8721245115548
 20
212.0140969686482
 30
0.0
 11
408.8721245115548
 21
124.3854288950285
 31
0.0
  0
LINE
  5
57F8
330
A
100
AcDbEntity
  8
SPACER
  6
CENTER
 48
3.0
100
AcDbLine
 10
365.057790474745
 20
168.1997629318384
 30
0.0
 11
452.6864585483647
 21
168.1997629318384
 31
0.0
  0
TEXT
  5
5895
330
A
100
AcDbEntity
  8
寸法
100
AcDbText
 10
494.6938357981492
 20
299.686013273205
 30
0.0
 40
6.0
  1
<切欠図>
  7
ＭＳ ゴシック
100
AcDbText
  0
LINE
  5
58A2
330
A
100
AcDbEntity
  8
SPACER
  6
CENTER
 48
3.0
100
AcDbLine
 10
127.1825120145532
 20
392.54793307962
 30
0.0
 11
127.1825120145532
 21
304.9192650060003
 31
0.0
  0
MTEXT
  5
5986
330
A
100
AcDbEntity
  8
MODEL
390
1D
100
AcDbMText
 10
51.64263899650207
 20
46.31748636388025
 30
0.0
 40
6.666666666666666
 41
0.0
 46
5.0
 71
     1
 72
     1
  1
{アルミ}
  7
ＭＳ ゴシック
 73
     1
 44
0.7828267384257843
1001
ACAD
1000
ACAD_MTEXT_DEFINED_HEIGHT_BEGIN
1070
    46
1040
5.0
1000
ACAD_MTEXT_DEFINED_HEIGHT_END
  0
MTEXT
  5
5987
330
A
100
AcDbEntity
  8
MODEL
390
1D
100
AcDbMText
 10
51.29520222797809
 20
62.38839436449371
 30
0.0
 40
6.666666666666666
 41
0.0
 46
5.0
 71
     1
 72
     1
  1
{ナチュラル}
  7
ＭＳ ゴシック
 73
     1
 44
0.7828267384257843
1001
ACAD
1000
ACAD_MTEXT_DEFINED_HEIGHT_BEGIN
1070
    46
1040
5.0
1000
ACAD_MTEXT_DEFINED_HEIGHT_END
  0
ARC
  5
5C4E
330
A
100
AcDbEntity
  8
CutoutUnderlay
  6
Continuous
100
AcDbCircle
 10
683.2384321158424
 20
224.3568111493082
 30
0.0
 40
3.474287135453707
100
AcDbArc
 50
180.0
 51
0.1136519999984825
  0
ARC
  5
5C4F
330
A
100
AcDbEntity
  8
CutoutUnderlay
  6
Continuous
100
AcDbCircle
 10
605.3067561158425
 20
214.6664471493082
 30
0.0
 40
81.98150034214686
100
AcDbArc
 50
6.793188000000081
 51
139.219838
  0
ARC
  5
5C50
330
A
100
AcDbEntity
  8
CutoutUnderlay
  6
Continuous
100
AcDbCircle
 10
552.3152291158422
 20
260.3754001493083
 30
0.0
 40
12.0
100
AcDbArc
 50
139.2194830000004
 51
317.6403219999988
  0
ARC
  5
5C51
330
A
100
AcDbEntity
  8
CutoutUnderlay
  6
Continuous
100
AcDbCircle
 10
615.2705511158424
 20
216.236897149308
 30
0.0
 40
65.00274288872335
100
AcDbArc
 50
79.08499200000017
 51
146.314087
  0
ARC
  5
5C52
330
A
100
AcDbEntity
  8
CutoutUnderlay
  6
Continuous
100
AcDbCircle
 10
611.7122311158423
 20
214.0224851493081
 30
0.0
 40
67.92049958471178
100
AcDbArc
 50
61.33493200000001
 51
76.49042499999993
  0
ARC
  5
5C53
330
A
100
AcDbEntity
  8
CutoutUnderlay
  6
Continuous
100
AcDbCircle
 10
604.8448661158425
 20
207.8122451493082
 30
0.0
 40
76.72431847640479
100
AcDbArc
 50
12.45287399999993
 51
59.05912700000015
  0
CIRCLE
  5
5C54
330
A
100
AcDbEntity
  8
CutoutUnderlay
  6
HIDDEN2
100
AcDbCircle
 10
570.3152291158424
 20
148.3754001493082
 30
0.0
 40
4.912678114183
  0
CIRCLE
  5
5C55
330
A
100
AcDbEntity
  8
CutoutUnderlay
  6
HIDDEN2
100
AcDbCircle
 10
658.3152291158424
 20
238.8754001493083
 30
0.0
 40
4.912678114183
  0
CIRCLE
  5
5C56
330
A
100
AcDbEntity
  8
CutoutUnderlay
  6
Continuous
100
AcDbCircle
 10
605.3152291158424
 20
214.8779471493081
 30
0.0
 40
92.5
  0
CIRCLE
  5
5C57
330
A
100
AcDbEntity
  8
CutoutUnderlay
  6
HIDDEN2
100
AcDbCircle
 10
640.3152291158424
 20
148.3754001493082
 30
0.0
 40
4.8
  0
CIRCLE
  5
5C58
330
A
100
AcDbEntity
  8
CutoutUnderlay
  6
HIDDEN2
100
AcDbCircle
 10
552.3152291158422
 20
238.8754001493083
 30
0.0
 40
4.8
  0
ARC
  5
5C59
330
A
100
AcDbEntity
  8
CutoutUnderlay
100
AcDbCircle
 10
552.3152291158422
 20
168.5754001493081
 30
0.0
 40
5.2
100
AcDbArc
 50
180.0
 51
0.0
  0
ARC
  5
5C5A
330
A
100
AcDbEntity
  8
CutoutUnderlay
100
AcDbCircle
 10
552.3152291158422
 20
188.3754001493083
 30
0.0
 40
8.7
100
AcDbArc
 50
306.7054309999992
 51
233.2945689999971
  0
LINE
  5
5C5B
330
A
100
AcDbEntity
  8
CutoutUnderlay
100
AcDbLine
 10
547.1152291158423
 20
181.400445149308
 30
0.0
 11
547.1152291158423
 21
168.5754001493081
 31
0.0
  0
LINE
  5
5C5C
330
A
100
AcDbEntity
  8
CutoutUnderlay
100
AcDbLine
 10
557.515229115842
 20
168.5754001493081
 30
0.0
 11
557.515229115842
 21
181.400445149308
 31
0.0
  0
LINE
  5
5C5D
102
{ACAD_REACTORS
330
5C60
102
}
330
A
100
AcDbEntity
  8
CutoutOverlay
100
AcDbLine
 10
563.3944589963144
 20
189.3148464525327
 30
0.0
 11
563.3944589963144
 21
171.3148464525327
 31
0.0
  0
ARC
  5
5C5E
102
{ACAD_REACTORS
330
5C60
102
}
330
A
100
AcDbEntity
  8
CutoutOverlay
100
AcDbCircle
 10
552.3944589963139
 20
189.3148464525327
 30
0.0
 40
11.0
100
AcDbArc
 50
0.0
 51
180.0
  0
ARC
  5
5C5F
102
{ACAD_REACTORS
330
5C60
102
}
330
A
100
AcDbEntity
  8
CutoutOverlay
100
AcDbCircle
 10
552.3944589963139
 20
171.3148464525327
 30
0.0
 40
11.0
100
AcDbArc
 50
180.0
 51
0.0
  0
HATCH
  5
5C60
330
A
100
AcDbEntity
  8
CutoutOverlay
  6
Continuous
100
AcDbHatch
 10
0.0
 20
0.0
 30
0.0
210
0.0
220
0.0
230
1.0
  2
ANSI31
 70
     0
 71
     1
 91
        1
 92
        1
 93
        4
 72
     2
 10
552.3944589963139
 20
189.3148464525327
 40
11.0
 50
0.0
 51
180.0
 73
     1
 72
     1
 10
563.3944589963144
 20
189.3148464525327
 11
563.3944589963144
 21
171.3148464525327
 72
     2
 10
552.3944589963139
 20
171.3148464525327
 40
11.0
 50
180.0
 51
360.0
 73
     1
 72
     1
 10
541.3944589963139
 20
189.3148464525327
 11
541.3944589963139
 21
171.3148464525327
 97
        4
330
5C5E
330
5C5D
330
5C5F
330
5C63
 75
     0
 76
     1
 52
0.0
 41
1.0
 77
     0
 78
     1
 53
45.0
 43
143.5011186042878
 44
91.69189639986675
 45
-2.245064030267288
 46
2.245064030267288
 79
     0
 98
        1
 10
143.5011186042878
 20
91.69189639986675
1001
ACAD
1010
0.0
1020
0.0
1030
0.0
  0
DIMENSION
  5
5C61
330
A
100
AcDbEntity
  8
寸法
  6
Continuous
100
AcDbDimension
  2
*D55
 10
531.2567294878993
 20
171.3148464525327
 30
0.0
 11
531.2567294878993
 21
180.3148464525327
 31
0.0
 70
   160
 71
     5
 42
18.0
 73
     0
 74
     0
 75
     0
  3
tfrom線あり
100
AcDbAlignedDimension
 13
541.3365986727772
 23
189.3148464525327
 33
0.0
 14
541.3365986727772
 24
171.3148464525327
 34
0.0
 50
90.0
100
AcDbRotatedDimension
  0
DIMENSION
  5
5C62
330
A
100
AcDbEntity
  8
寸法
  6
Continuous
100
AcDbDimension
  2
*D56
 10
518.3069920574665
 20
160.3148464525327
 30
0.0
 11
518.3069920574665
 21
180.3148464525327
 31
0.0
 70
   160
 71
     5
 42
40.00000000000006
 73
     0
 74
     0
 75
     0
  3
tfrom線あり
100
AcDbAlignedDimension
 13
552.3944589963139
 23
200.3148464525328
 33
0.0
 14
552.3944589963139
 24
160.3148464525327
 34
0.0
 50
90.0
100
AcDbRotatedDimension
  0
LINE
  5
5C63
102
{ACAD_REACTORS
330
5C60
102
}
330
A
100
AcDbEntity
  8
CutoutOverlay
100
AcDbLine
 10
541.3944589963139
 20
189.3148464525327
 30
0.0
 11
541.3944589963139
 21
171.3148464525327
 31
0.0
  0
DIMENSION
  5
5C64
330
A
100
AcDbEntity
  8
寸法
100
AcDbDimension
  2
*D57
 10
599.1611506975355
 20
238.8148464525327
 30
0.0
 11
599.1611506975355
 21
220.7113954928341
 31
0.0
 70
   160
  1
 
 71
     5
 42
21.56055369677568
 73
     0
 74
     1
 75
     1
  3
tfrom線あり
100
AcDbAlignedDimension
 13
566.3732431158423
 23
260.3754001493083
 33
0.0
 14
558.3944589963139
 24
238.8148464525327
 34
0.0
 50
90.0
100
AcDbRotatedDimension
1001
ACAD
1000
DSTYLE
1002
{
1070
   172
1070
     1
1002
}
  0
TEXT
  5
5C65
330
A
100
AcDbEntity
  8
寸法
100
AcDbText
 10
597.3008620767234
 20
221.6735817967491
 30
0.0
 40
6.0
  1
21.5
 50
90.0
  7
ＭＳ ゴシック
100
AcDbText
  0
LEADER
  5
5C66
102
{ACAD_XDICTIONARY
360
5C67
102
}
330
A
100
AcDbEntity
  8
寸法
100
AcDbLeader
  3
tfrom線あり
 76
     3
 10
552.3944589963139
 20
260.3148464525327
 30
0.0
 10
575.5497464168263
 20
266.6159544751109
 30
0.0
 10
651.2858903558283
 20
266.6159544751109
 30
0.0
  0
TEXT
  5
5C68
330
A
100
AcDbEntity
  8
寸法
100
AcDbText
 10
574.9805609891703
 20
270.0769800816048
 30
0.0
 40
6.0
  1
レバー角芯 センター
  7
ＭＳ ゴシック
100
AcDbText
  0
LEADER
  5
5C69
102
{ACAD_XDICTIONARY
360
5C6A
102
}
330
A
100
AcDbEntity
  8
寸法
100
AcDbLeader
  3
tfrom線あり
 76
     3
 10
552.3732431158426
 20
274.4054042426261
 30
0.0
 10
552.3732431158426
 20
280.2763326108151
 30
0.0
 10
591.4542256538305
 20
280.2763326108151
 30
0.0
  0
CIRCLE
  5
5C6B
102
{ACAD_REACTORS
330
5C94
102
}
330
A
100
AcDbEntity
  8
CutoutOverlay
100
AcDbCircle
 10
552.3944589963139
 20
238.8148464525327
 30
0.0
 40
5.5
  0
CIRCLE
  5
5C6C
330
A
100
AcDbEntity
  8
CutoutOverlay
100
AcDbCircle
 10
552.3732431158426
 20
260.3754001493083
 30
0.0
 40
15.0
  0
TEXT
  5
5C6D
330
A
100
AcDbEntity
  8
寸法
100
AcDbText
 10
579.5473916482348
 20
282.4008981406139
 30
0.0
 40
6.0
  1
ø30
  7
ＭＳ ゴシック
100
AcDbText
  0
CIRCLE
  5
5C6E
330
A
100
AcDbEntity
  8
CutoutUnderlay
  6
HIDDEN2
100
AcDbCircle
 10
552.3944589963139
 20
238.8148464525327
 30
0.0
 40
3.25
  0
LINE
  5
5C6F
330
A
100
AcDbEntity
  8
CutoutOverlay
100
AcDbLine
 10
537.5244504405922
 20
262.4998662204499
 30
0.0
 11
550.2487770447009
 21
275.2241928245586
 31
0.0
  0
LINE
  5
5C70
330
A
100
AcDbEntity
  8
CutoutOverlay
100
AcDbLine
 10
537.5559642708225
 20
258.0412519901458
 30
0.0
 11
554.7073912750051
 21
275.1926789943283
 31
0.0
  0
LINE
  5
5C71
330
A
100
AcDbEntity
  8
CutoutOverlay
100
AcDbLine
 10
538.5518765492504
 20
254.5470362080389
 30
0.0
 11
558.2016070571118
 21
274.1967667159005
 31
0.0
  0
LINE
  5
5C72
330
A
100
AcDbEntity
  8
CutoutOverlay
100
AcDbLine
 10
540.1608083931544
 20
251.6658399914082
 30
0.0
 11
561.0828032737421
 21
272.5878348719968
 31
0.0
  0
LINE
  5
5C73
330
A
100
AcDbEntity
  8
CutoutOverlay
100
AcDbLine
 10
542.2717609622563
 20
249.2866644999758
 30
0.0
 11
563.461978765175
 21
270.4768823028946
 31
0.0
  0
LINE
  5
5C74
330
A
100
AcDbEntity
  8
CutoutOverlay
100
AcDbLine
 10
544.8650039722098
 20
247.3897794493948
 30
0.0
 11
565.3588638157561
 21
267.8836392929409
 31
0.0
  0
LINE
  5
5C75
330
A
100
AcDbEntity
  8
CutoutOverlay
100
AcDbLine
 10
547.9941891571295
 20
246.0288365737798
 30
0.0
 11
566.7198066913709
 21
264.7544541080217
 31
0.0
  0
LINE
  5
5C76
330
A
100
AcDbEntity
  8
CutoutOverlay
100
AcDbLine
 10
551.8403496307053
 20
245.3848689868211
 30
0.0
 11
567.3637742783297
 21
260.9082936344455
 31
0.0
  0
LINE
  5
5C77
330
A
100
AcDbEntity
  8
CutoutOverlay
100
AcDbLine
 10
557.0778971807155
 20
246.1322884762968
 30
0.0
 11
566.6163547888536
 21
255.6707460844342
 31
0.0
  0
CIRCLE
  5
5C78
330
A
100
AcDbEntity
  8
CutoutUnderlay
  6
HIDDEN2
100
AcDbCircle
 10
658.3785560455235
 20
238.8807130789896
 30
0.0
 40
3.25
  0
CIRCLE
  5
5C79
102
{ACAD_REACTORS
330
5C87
330
5C94
102
}
330
A
100
AcDbEntity
  8
CutoutOverlay
100
AcDbCircle
 10
658.3785560455235
 20
238.8807130789896
 30
0.0
 40
5.5
  0
CIRCLE
  5
5C7A
330
A
100
AcDbEntity
  8
CutoutUnderlay
  6
HIDDEN2
100
AcDbCircle
 10
640.3152291158424
 20
148.3754001493082
 30
0.0
 40
3.25
  0
CIRCLE
  5
5C7B
102
{ACAD_REACTORS
330
5C84
330
5C8A
330
5C94
102
}
330
A
100
AcDbEntity
  8
CutoutOverlay
100
AcDbCircle
 10
640.3152291158424
 20
148.3754001493082
 30
0.0
 40
5.5
  0
CIRCLE
  5
5C7C
330
A
100
AcDbEntity
  8
CutoutUnderlay
  6
HIDDEN2
100
AcDbCircle
 10
570.3152291158424
 20
148.3754001493082
 30
0.0
 40
3.25
  0
CIRCLE
  5
5C7D
102
{ACAD_REACTORS
330
5C81
330
5C94
330
5C98
102
}
330
A
100
AcDbEntity
  8
CutoutOverlay
100
AcDbCircle
 10
570.3152291158424
 20
148.3754001493082
 30
0.0
 40
5.5
  0
LINE
  5
5C7E
330
A
100
AcDbEntity
  8
寸法
  6
CENTER
 48
0.5
100
AcDbLine
 10
552.3944589963139
 20
321.889364561634
 30
0.0
 11
552.3944589963139
 21
100.7006704294478
 31
0.0
  0
DIMENSION
  5
5C7F
102
{ACAD_REACTORS
330
5C81
102
}
102
{ACAD_XDICTIONARY
360
5C80
102
}
330
A
100
AcDbEntity
  8
寸法
100
AcDbDimension
  2
*D58
 10
570.3152291158424
 20
126.8159602128911
 30
0.0
 11
561.3548440560782
 21
131.8159602128911
 31
0.0
 70
    32
 71
     5
 42
17.92077011952847
 73
     0
 74
     0
 75
     0
  3
tfrom線あり
100
AcDbAlignedDimension
 13
552.3944589963139
 23
160.3148464525327
 33
0.0
 14
570.3152291158424
 24
142.8754001493082
 34
0.0
100
AcDbRotatedDimension
  0
DIMENSION
  5
5C82
102
{ACAD_REACTORS
330
5C84
102
}
102
{ACAD_XDICTIONARY
360
5C83
102
}
330
A
100
AcDbEntity
  8
寸法
100
AcDbDimension
  2
*D59
 10
640.3152291158424
 20
126.8159602128911
 30
0.0
 11
605.3152291158424
 21
131.8159602128911
 31
0.0
 70
    32
 71
     5
 42
70.0
 73
     0
 74
     0
 75
     0
  3
tfrom線あり
100
AcDbAlignedDimension
 13
570.3152291158424
 23
142.8754001493082
 33
0.0
 14
640.3152291158424
 24
142.8754001493082
 34
0.0
100
AcDbRotatedDimension
  0
DIMENSION
  5
5C85
102
{ACAD_REACTORS
330
5C87
102
}
102
{ACAD_XDICTIONARY
360
5C86
102
}
330
A
100
AcDbEntity
  8
寸法
100
AcDbDimension
  2
*D60
 10
658.3785560455235
 20
299.0072503633249
 30
0.0
 11
605.375899580683
 21
304.0072503633249
 31
0.0
 70
    32
 71
     5
 42
106.0053129296809
 73
     0
 74
     0
 75
     0
  3
tfrom線あり
100
AcDbAlignedDimension
 13
552.3732431158426
 23
274.9054042426261
 33
0.0
 14
658.3785560455235
 24
244.3807130789896
 34
0.0
100
AcDbRotatedDimension
  0
DIMENSION
  5
5C88
102
{ACAD_REACTORS
330
5C8A
102
}
102
{ACAD_XDICTIONARY
360
5C89
102
}
330
A
100
AcDbEntity
  8
寸法
100
AcDbDimension
  2
*D61
 10
711.1522059103731
 20
148.3754001493082
 30
0.0
 11
711.1522059103731
 21
204.3754001493083
 31
0.0
 70
   160
 71
     5
 42
112.0000000000002
 73
     0
 74
     0
 75
     0
  3
tfrom線あり
100
AcDbAlignedDimension
 13
599.1611506975355
 23
260.3754001493083
 33
0.0
 14
645.8152291158424
 24
148.3754001493082
 34
0.0
 50
90.0
100
AcDbRotatedDimension
  0
DIMENSION
  5
5C8B
330
A
100
AcDbEntity
  8
寸法
100
AcDbDimension
  2
*D62
 10
679.3406364810305
 20
260.3754001493083
 30
0.0
 11
674.3406364810305
 21
220.3451233009206
 31
0.0
 70
    32
 71
     5
 42
80.06055369677557
 73
     0
 74
     0
 75
     0
  3
tfrom線あり
100
AcDbAlignedDimension
 13
571.8339454411994
 23
180.3148464525328
 33
0.0
 14
658.3785560455235
 24
260.3754001493083
 34
0.0
 50
90.0
100
AcDbRotatedDimension
  0
LEADER
  5
5C8C
102
{ACAD_XDICTIONARY
360
5C8D
102
}
330
A
100
AcDbEntity
  8
寸法
100
AcDbLeader
  3
tfrom線あり
 76
     3
 10
552.3944589963139
 20
200.3148464525327
 30
0.0
 10
552.3944589963139
 20
206.1857748207216
 30
0.0
 10
591.4754415343014
 20
206.1857748207216
 30
0.0
  0
TEXT
  5
5C8E
330
A
100
AcDbEntity
  8
寸法
100
AcDbText
 10
579.754630057492
 20
207.7936111038948
 30
0.0
 40
6.0
  1
ø22
  7
ＭＳ ゴシック
100
AcDbText
  0
LEADER
  5
5C8F
102
{ACAD_XDICTIONARY
360
5C90
102
}
330
A
100
AcDbEntity
  8
寸法
100
AcDbLeader
  3
tfrom線あり
 76
     3
 10
552.3944589963139
 20
160.3148464525327
 30
0.0
 10
552.3944589963139
 20
166.1857748207217
 30
0.0
 10
591.4754415343014
 20
166.1857748207217
 30
0.0
  0
TEXT
  5
5C91
330
A
100
AcDbEntity
  8
寸法
100
AcDbText
 10
579.8694587789644
 20
167.7361967431586
 30
0.0
 40
6.0
  1
ø22
  7
ＭＳ ゴシック
100
AcDbText
  0
ARC
  5
5C92
102
{ACAD_REACTORS
330
5C60
102
}
330
A
100
AcDbEntity
  8
CutoutOverlay
100
AcDbCircle
 10
552.3944589963139
 20
189.3148464525327
 30
0.0
 40
11.0
100
AcDbArc
 50
180.0
 51
0.0
  0
ARC
  5
5C93
102
{ACAD_REACTORS
330
5C60
102
}
330
A
100
AcDbEntity
  8
CutoutOverlay
100
AcDbCircle
 10
552.3944589963139
 20
171.3148464525327
 30
0.0
 40
11.0
100
AcDbArc
 50
0.0
 51
180.0
  0
HATCH
  5
5C94
330
A
100
AcDbEntity
  8
CutoutOverlay
100
AcDbHatch
 10
0.0
 20
0.0
 30
0.0
210
0.0
220
0.0
230
1.0
  2
ANSI31
 70
     0
 71
     1
 91
        4
 92
        1
 93
        1
 72
     2
 10
640.3152291158424
 20
148.3754001493082
 40
5.5
 50
0.0
 51
360.0
 73
     1
 97
        1
330
5C7B
 92
        1
 93
        1
 72
     2
 10
570.3152291158424
 20
148.3754001493082
 40
5.5
 50
0.0
 51
360.0
 73
     1
 97
        1
330
5C7D
 92
        1
 93
        1
 72
     2
 10
658.3785560455235
 20
238.8807130789896
 40
5.5
 50
0.0
 51
360.0
 73
     1
 97
        1
330
5C79
 92
        1
 93
        1
 72
     2
 10
552.3944589963139
 20
238.8148464525327
 40
5.5
 50
0.0
 51
360.0
 73
     1
 97
        1
330
5C6B
 75
     0
 76
     1
 52
0.0
 41
1.0
 77
     0
 78
     1
 53
45.0
 43
-440.5608457289187
 44
68.44711540458896
 45
-2.245064030267288
 46
2.245064030267288
 79
     0
 98
        1
 10
-440.5608457289187
 20
68.44711540458896
1001
ACAD
1010
0.0
1020
0.0
1030
0.0
  0
TEXT
  5
5C95
330
A
100
AcDbEntity
  8
寸法
100
AcDbText
 10
582.4669517394173
 20
153.4209009547226
 30
0.0
 40
6.0
  1
ø11
  7
ＭＳ ゴシック
100
AcDbText
  0
LEADER
  5
5C96
102
{ACAD_REACTORS
330
5C98
102
}
102
{ACAD_XDICTIONARY
360
5C97
102
}
330
A
100
AcDbEntity
  8
寸法
100
AcDbLeader
  3
tfrom線あり
 76
     3
 10
575.8152291158424
 20
148.3754001493082
 30
0.0
 10
581.8284495551413
 20
151.8785175925448
 30
0.0
 10
592.9854918193214
 20
151.8785175925448
 30
0.0
  0
TEXT
  5
5C99
330
A
100
AcDbEntity
  8
寸法
100
AcDbText
 10
636.4848923482564
 20
243.926213884404
 30
0.0
 40
6.0
  1
ø11
  7
ＭＳ ゴシック
100
AcDbText
  0
LEADER
  5
5C9A
102
{ACAD_XDICTIONARY
360
5C9B
102
}
330
A
100
AcDbEntity
  8
寸法
100
AcDbLeader
  3
tfrom線あり
 76
     3
 10
652.8785560455235
 20
238.8807130789896
 30
0.0
 10
646.8653356062243
 20
242.3838305222263
 30
0.0
 10
635.7082933420445
 20
242.3838305222263
 30
0.0
211
-1.0
221
0.0
231
0.0
  0
TEXT
  5
5C9C
330
A
100
AcDbEntity
  8
寸法
100
AcDbText
 10
530.5007952990466
 20
243.8603472579471
 30
0.0
 40
6.0
  1
ø11
  7
ＭＳ ゴシック
100
AcDbText
  0
LEADER
  5
5C9D
102
{ACAD_XDICTIONARY
360
5C9E
102
}
330
A
100
AcDbEntity
  8
寸法
100
AcDbLeader
  3
tfrom線あり
 76
     3
 10
546.8944589963139
 20
238.8148464525327
 30
0.0
 10
540.8812385570143
 20
242.3179638957694
 30
0.0
 10
529.7241962928349
 20
242.3179638957694
 30
0.0
211
-1.0
221
0.0
231
0.0
  0
TEXT
  5
5C9F
330
A
100
AcDbEntity
  8
寸法
100
AcDbText
 10
618.4848923482564
 20
153.4262138844039
 30
0.0
 40
6.0
  1
ø11
  7
ＭＳ ゴシック
100
AcDbText
  0
LEADER
  5
5CA0
102
{ACAD_XDICTIONARY
360
5CA1
102
}
330
A
100
AcDbEntity
  8
寸法
100
AcDbLeader
  3
tfrom線あり
 76
     3
 10
634.8785560455235
 20
148.3807130789895
 30
0.0
 10
628.8653356062243
 20
151.8838305222261
 30
0.0
 10
617.7082933420445
 20
151.8838305222261
 30
0.0
211
-1.0
221
0.0
231
0.0
  0
TEXT
  5
5E47
330
A
100
AcDbEntity
  8
テンプレート
100
AcDbText
 10
417.4068382319898
 20
55.85431590755737
 30
0.0
 40
7.0
  1
ユーロケース(DIN規格)：36～54
  7
ＭＳ ゴシック
100
AcDbText
  0
TEXT
  5
5F77
330
A
100
AcDbEntity
  8
テンプレート
100
AcDbText
 10
276.3802856112953
 20
116.3289668113763
 30
0.0
 40
5.0
  1
　 加工は現物合わせの上行って下さい。
  7
ＭＳ ゴシック
100
AcDbText
  0
TEXT
  5
5F78
330
A
100
AcDbEntity
  8
テンプレート
100
AcDbText
 10
276.5525286935039
 20
124.4327509075165
 30
0.0
 40
5.0
  1
※ 輸入製品の為、国内製品と比べ製品寸法の個体差に幅が有ります。
  7
ＭＳ ゴシック
100
AcDbText
  0
TEXT
  5
5F79
330
A
100
AcDbEntity
  8
テンプレート
100
AcDbText
 10
276.3802856112953
 20
106.9573355068958
 30
0.0
 40
5.0
  1
※ ご注文の際は正確な扉厚の指示をしてください。
  7
ＭＳ ゴシック
100
AcDbText
  0
TEXT
  5
5F7A
330
A
100
AcDbEntity
  8
テンプレート
100
AcDbText
 10
276.3802856112953
 20
98.25784687590992
 30
0.0
 40
5.0
  1
※ イモネジ・ビスのゆるみ止め防止のために金属製ネジ用ゆるみ止め剤(中強度タイプ)
  7
ＭＳ ゴシック
100
AcDbText
  0
TEXT
  5
5F7B
330
A
100
AcDbEntity
  8
テンプレート
100
AcDbText
 10
272.6158399324449
 20
88.81697372953367
 30
0.0
 40
5.0
  1
　　を用意して塗布してください。(推奨商品　住友3M社TL42J等)
  7
ＭＳ ゴシック
100
AcDbText
  0
TEXT
  5
5F8C
330
A
100
AcDbEntity
  8
テンプレート
100
AcDbText
 10
598.6689650259865
 20
51.24275095034242
 30
0.0
 40
7.333333333333333
  1
ユーロケース(DIN規格)専用
  7
ＭＳ ゴシック
100
AcDbText
  0
LINE
  5
5FC7
330
A
100
AcDbEntity
  8
テンプレート
  6
Continuous
100
AcDbLine
 10
46.14589307204598
 20
34.96204911894376
 30
0.0
 11
46.14589307204596
 21
66.88661969892806
 31
0.0
  0
VIEWPORT
  5
349
330
B
100
AcDbEntity
 67
     1
  8
0
100
AcDbViewport
 10
202.5
 20
128.5
 30
0.0
 40
486.0
 41
308.4
 68
     1
 69
     1
 12
202.5
 22
128.5
 13
0.0
 23
0.0
 14
0.5
 24
0.5
 15
0.0
 25
0.0
 16
0.0
 26
0.0
 36
1.0
 17
0.0
 27
0.0
 37
0.0
 42
50.0
 43
0.0
 44
0.0
 45
308.4
 50
0.0
 51
0.0
 72
   100
 90
   557152
  1

281
     0
 71
     1
 74
     0
110
0.0
120
0.0
130
0.0
111
1.0
121
0.0
131
0.0
112
0.0
122
1.0
132
0.0
 79
     0
146
0.0
170
     0
 61
     5
348
26C
292
     1
282
     1
141
0.0
142
0.0
 63
   256
361
44F1
  0
VIEWPORT
  5
34A
330
B
100
AcDbEntity
 67
     1
  8
0
100
AcDbViewport
 10
202.5
 20
128.5
 30
0.0
 40
324.0
 41
205.6
 68
     2
 69
     2
 12
986.6781359294573
 22
1427.077061889956
 13
0.0
 23
0.0
 14
0.5
 24
0.5
 15
0.0
 25
0.0
 16
0.0
 26
0.0
 36
1.0
 17
0.0
 27
0.0
 37
0.0
 42
50.0
 43
0.0
 44
0.0
 45
2890.021615685494
 50
0.0
 51
0.0
 72
   100
 90
   557152
  1

281
     0
 71
     1
 74
     0
110
0.0
120
0.0
130
0.0
111
1.0
121
0.0
131
0.0
112
0.0
122
1.0
132
0.0
 79
     0
146
0.0
170
     0
 61
     5
348
26C
292
     1
282
     1
141
0.0
142
0.0
 63
   256
  0
ENDSEC
  0
SECTION
  2
OBJECTS
  0
DICTIONARY
  5
19
330
0
100
AcDbDictionary
281
     1
  3
ACAD_COLOR
350
674
  3
ACAD_DETAILVIEWSTYLE
350
13B5
  3
ACAD_GROUP
350
1A
  3
ACAD_IMAGE_VARS
350
27B
  3
ACAD_LAYOUT
350
1E
  3
ACAD_MATERIAL
350
263
  3
ACAD_MLEADERSTYLE
350
336
  3
ACAD_MLINESTYLE
350
1B
  3
ACAD_PLOTSETTINGS
350
22
  3
ACAD_PLOTSTYLENAME
350
1F
  3
ACAD_SCALELIST
350
241
  3
ACAD_SECTIONVIEWSTYLE
350
13B6
  3
ACAD_TABLESTYLE
350
278
  3
ACAD_VISUALSTYLE
350
267
  3
ACDB_RECOMPOSE_DATA
350
5FDC
  3
AcDbVariableDictionary
350
330
  3
APPDATA
350
27A
  0
SUN
  5
F1A
330
15
100
AcDbSun
 90
        1
290
     0
 63
     7
421
 16777215
 40
1.0
291
     1
 91
  2455826
 92
 54000000
292
     0
 70
     2
 71
   256
280
     1
  0
DICTIONARY
  5
2E1
330
2
100
AcDbDictionary
280
     1
281
     1
  3
ACAD_LAYERSTATES
360
2E2
  3
ACLYDICTIONARY
360
54D0
  0
DICTIONARY
  5
5E64
330
A
100
AcDbDictionary
280
     1
281
     1
  3
ACAD_SORTENTS
360
5E65
  0
DICTIONARY
  5
529E
330
529D
100
AcDbDictionary
280
     1
281
     1
  3
ACAD_DIMASSOC
360
529F
  0
DICTIONARY
  5
5386
330
5385
100
AcDbDictionary
280
     1
281
     1
  3
ACAD_DIMASSOC
360
5387
  0
DICTIONARY
  5
53D9
330
53D8
100
AcDbDictionary
280
     1
281
     1
  3
ACAD_DIMASSOC
360
53DA
  0
DICTIONARY
  5
53E8
330
53E7
100
AcDbDictionary
280
     1
281
     1
  3
ACAD_DIMASSOC
360
53E9
  0
DICTIONARY
  5
53F7
330
53F6
100
AcDbDictionary
280
     1
281
     1
  3
ACAD_DIMASSOC
360
53F8
  0
DICTIONARY
  5
5406
330
5405
100
AcDbDictionary
280
     1
281
     1
  3
ACAD_DIMASSOC
360
5407
  0
DICTIONARY
  5
5415
330
5414
100
AcDbDictionary
280
     1
281
     1
  3
ACAD_DIMASSOC
360
5416
  0
DICTIONARY
  5
5C67
330
5C66
100
AcDbDictionary
280
     1
281
     1
  0
DICTIONARY
  5
5C6A
330
5C69
100
AcDbDictionary
280
     1
281
     1
  0
DICTIONARY
  5
5C80
330
5C7F
100
AcDbDictionary
280
     1
281
     1
  3
ACAD_DIMASSOC
360
5C81
  0
DICTIONARY
  5
5C83
330
5C82
100
AcDbDictionary
280
     1
281
     1
  3
ACAD_DIMASSOC
360
5C84
  0
DICTIONARY
  5
5C86
330
5C85
100
AcDbDictionary
280
     1
281
     1
  3
ACAD_DIMASSOC
360
5C87
  0
DICTIONARY
  5
5C89
330
5C88
100
AcDbDictionary
280
     1
281
     1
  3
ACAD_DIMASSOC
360
5C8A
  0
DICTIONARY
  5
5C8D
330
5C8C
100
AcDbDictionary
280
     1
281
     1
  0
DICTIONARY
  5
5C90
330
5C8F
100
AcDbDictionary
280
     1
281
     1
  0
DICTIONARY
  5
5C97
330
5C96
100
AcDbDictionary
280
     1
281
     1
  3
ACAD_DIMASSOC
360
5C98
  0
DICTIONARY
  5
5C9B
330
5C9A
100
AcDbDictionary
280
     1
281
     1
  0
DICTIONARY
  5
5C9E
330
5C9D
100
AcDbDictionary
280
     1
281
     1
  0
DICTIONARY
  5
5CA1
330
5CA0
100
AcDbDictionary
280
     1
281
     1
  0
SUN
  5
44F1
330
349
100
AcDbSun
 90
        1
290
     0
 63
     7
421
 16777215
 40
1.0
291
     1
 91
  2455826
 92
 54000000
292
     0
 70
     2
 71
   256
280
     1
  0
DICTIONARY
  5
674
102
{ACAD_REACTORS
330
19
102
}
330
19
100
AcDbDictionary
281
     1
  0
DICTIONARY
  5
13B5
102
{ACAD_REACTORS
330
19
102
}
330
19
100
AcDbDictionary
281
     1
  0
DICTIONARY
  5
1A
102
{ACAD_REACTORS
330
19
102
}
330
19
100
AcDbDictionary
281
     1
  0
RASTERVARIABLES
  5
27B
102
{ACAD_REACTORS
330
19
102
}
330
19
100
AcDbRasterVariables
 90
        0
 70
     1
 71
     1
 72
     1
  0
DICTIONARY
  5
1E
102
{ACAD_REACTORS
330
19
102
}
330
19
100
AcDbDictionary
281
     1
  3
Layout1
350
21
  3
Model
350
20
  0
DICTIONARY
  5
263
102
{ACAD_REACTORS
330
19
102
}
330
19
100
AcDbDictionary
281
     1
  3
ByBlock
350
54DE
  3
ByLayer
350
264
  3
Global
350
266
  0
DICTIONARY
  5
336
102
{ACAD_REACTORS
330
19
102
}
330
19
100
AcDbDictionary
281
     1
  3
Standard
350
5E6C
  0
DICTIONARY
  5
1B
102
{ACAD_REACTORS
330
19
102
}
330
19
100
AcDbDictionary
281
     1
  3
Standard
350
1C
  0
DICTIONARY
  5
22
102
{ACAD_REACTORS
330
19
102
}
330
19
100
AcDbDictionary
281
     1
  0
ACDBDICTIONARYWDFLT
  5
1F
102
{ACAD_REACTORS
330
19
102
}
330
19
100
AcDbDictionary
281
     1
  3
Normal
350
1D
100
AcDbDictionaryWithDefault
340
1D
  0
DICTIONARY
  5
241
102
{ACAD_REACTORS
330
19
102
}
330
19
100
AcDbDictionary
281
     1
  3
A0
350
242
  3
A1
350
243
  3
A2
350
244
  3
A3
350
245
  3
A4
350
246
  3
A5
350
247
  3
A6
350
248
  3
A7
350
249
  3
A8
350
24A
  3
A9
350
24B
  3
B0
350
24C
  3
B1
350
24D
  3
B2
350
24E
  3
B3
350
24F
  3
B4
350
250
  3
B5
350
251
  3
B6
350
252
  3
B7
350
253
  3
B8
350
254
  3
B9
350
255
  3
C0
350
256
  3
C1
350
257
  3
C2
350
258
  3
C3
350
259
  3
C4
350
25A
  3
C5
350
25B
  3
C6
350
25C
  3
C7
350
25D
  3
C8
350
25E
  3
C9
350
25F
  3
D0
350
260
  3
D1
350
261
  3
D2
350
262
  0
DICTIONARY
  5
13B6
102
{ACAD_REACTORS
330
19
102
}
330
19
100
AcDbDictionary
281
     1
  0
DICTIONARY
  5
278
102
{ACAD_REACTORS
330
19
102
}
330
19
100
AcDbDictionary
281
     1
  3
Standard
350
279
  0
DICTIONARY
  5
267
102
{ACAD_REACTORS
330
19
102
}
330
19
100
AcDbDictionary
281
     1
  3
2dWireframe
350
26C
  3
3D Hidden
350
26E
  3
3dWireframe
350
26D
  3
Basic
350
26F
  3
Brighten
350
273
  3
ColorChange
350
277
  3
Conceptual
350
271
  3
Dim
350
272
  3
EdgeColorOff
350
F14
  3
Facepattern
350
276
  3
Flat
350
268
  3
FlatWithEdges
350
269
  3
Gouraud
350
26A
  3
GouraudWithEdges
350
26B
  3
Hidden
350
F11
  3
JitterOff
350
F12
  3
Linepattern
350
275
  3
OverhangOff
350
F13
  3
Realistic
350
270
  3
Shaded
350
F19
  3
Shaded with edges
350
F18
  3
Shades of Gray
350
F15
  3
Sketchy
350
F16
  3
Thicken
350
274
  3
Wireframe
350
F10
  3
X-Ray
350
F17
  0
XRECORD
  5
5FDC
102
{ACAD_REACTORS
330
19
102
}
330
19
100
AcDbXrecord
280
     1
 90
        1
330
279
  0
DICTIONARY
  5
330
102
{ACAD_REACTORS
330
19
102
}
330
19
100
AcDbDictionary
281
     1
  3
CANNOSCALE
350
331
  3
CMLEADERSTYLE
350
5EF1
  3
CTABLESTYLE
350
335
  3
HPTRANSPARENCY
350
5558
  3
XCLIPFRAME
350
13B4
  0
DICTIONARY
  5
27A
102
{ACAD_REACTORS
330
19
102
}
330
19
100
AcDbDictionary
281
     1
  0
DICTIONARY
  5
2E2
102
{ACAD_REACTORS
330
2E1
102
}
330
2E1
100
AcDbDictionary
281
     1
  0
DICTIONARY
  5
54D0
102
{ACAD_REACTORS
330
2E1
102
}
330
2E1
100
AcDbDictionary
281
     1
1001
ACAD
1000
<All
  0
SORTENTSTABLE
  5
5E65
102
{ACAD_REACTORS
330
5E64
102
}
330
5E64
100
AcDbSortentsTable
330
A
331
0
  5
5C73
331
5C5D
  5
5C8E
331
5C5E
  5
5C8F
331
5C5F
  5
5C8C
331
5C60
  5
5C91
331
5C61
  5
5C5D
331
5C62
  5
5E47
331
5C63
  5
5C8B
331
5C64
  5
5C5E
331
5C65
  5
5C5F
331
5C66
  5
5D8A
331
5C68
  5
5E46
331
5C69
  5
5C60
331
5C6B
  5
5C61
331
5C6C
  5
5C85
331
5C6D
  5
5C95
331
5C6E
  5
5C62
331
5C6F
  5
5C78
331
5C70
  5
5C79
331
5C71
  5
5C7A
331
5C72
  5
5C7B
331
5C73
  5
5C7C
331
5C74
  5
5C7D
331
5C75
  5
5C7E
331
5C76
  5
5C7F
331
5C77
  5
5C82
331
5C78
  5
5C63
331
5C79
  5
5C77
331
5C7A
  5
5C64
331
5C7B
  5
5C75
331
5C7C
  5
5C65
331
5C7D
  5
5C76
331
5C7E
  5
5C94
331
5C7F
  5
5C93
331
5C82
  5
5C92
331
5C85
  5
5C96
331
5C88
  5
5C66
331
5C8B
  5
5C68
331
5C8C
  5
5C9A
331
5C8E
  5
5C99
331
5C8F
  5
5C9D
331
5C91
  5
5C9C
331
5C92
  5
5C69
331
5C93
  5
5C6B
331
5C94
  5
5C88
331
5C95
  5
5CA0
331
5C96
  5
5C9F
331
5C99
  5
5C6C
331
5C9A
  5
5C6D
331
5C9C
  5
5C6E
331
5C9D
  5
5C6F
331
5C9F
  5
5D88
331
5CA0
  5
5D87
331
5E47
  5
5C74
  0
DIMASSOC
  5
529F
102
{ACAD_REACTORS
330
529E
102
}
330
529E
100
AcDbDimAssoc
330
529D
 90
        3
 70
     0
 71
     1
  1
AcDbOsnapPointRef
 72
    13
331
524D
 73
     0
 91
        0
 40
0.0
 10
0.0
 20
0.0
 30
0.0
 75
     0
  1
AcDbOsnapPointRef
 72
     1
331
5265
 73
     0
 91
        0
 40
0.0
 10
0.0
 20
0.0
 30
0.0
 75
     0
  0
DIMASSOC
  5
5387
102
{ACAD_REACTORS
330
5386
102
}
330
5386
100
AcDbDimAssoc
330
5385
 90
        1
 70
     0
 71
     1
  1
AcDbOsnapPointRef
 72
    13
331
5298
 73
     0
 91
        0
 40
0.0
 10
0.0
 20
0.0
 30
0.0
 75
     0
  0
DIMASSOC
  5
53DA
102
{ACAD_REACTORS
330
53D9
102
}
330
53D9
100
AcDbDimAssoc
330
53D8
 90
        3
 70
     0
 71
     1
  1
AcDbOsnapPointRef
 72
     5
331
521C
 73
     0
 91
        0
 40
1.570796326794897
 10
0.0
 20
0.0
 30
0.0
 75
     0
  1
AcDbOsnapPointRef
 72
     5
331
521C
 73
     0
 91
        0
 40
4.71238898038469
 10
0.0
 20
0.0
 30
0.0
 75
     0
  0
DIMASSOC
  5
53E9
102
{ACAD_REACTORS
330
53E8
102
}
330
53E8
100
AcDbDimAssoc
330
53E7
 90
        2
 70
     0
 71
     1
  1
AcDbOsnapPointRef
 72
    13
331
522F
 73
     0
 91
        0
 40
0.0
 10
0.0
 20
0.0
 30
0.0
 75
     0
  0
DIMASSOC
  5
53F8
102
{ACAD_REACTORS
330
53F7
102
}
330
53F7
100
AcDbDimAssoc
330
53F6
 90
        3
 70
     0
 71
     1
  1
AcDbOsnapPointRef
 72
    13
331
522F
 73
     0
 91
        0
 40
0.0
 10
0.0
 20
0.0
 30
0.0
 75
     0
  1
AcDbOsnapPointRef
 72
    13
331
522D
 73
     0
 91
        0
 40
0.0
 10
0.0
 20
0.0
 30
0.0
 75
     0
  0
DIMASSOC
  5
5407
102
{ACAD_REACTORS
330
5406
102
}
330
5406
100
AcDbDimAssoc
330
5405
 90
        1
 70
     0
 71
     1
  1
AcDbOsnapPointRef
 72
     1
331
522C
 73
     0
 91
        0
 40
0.0
 10
0.0
 20
0.0
 30
0.0
 75
     0
  0
DIMASSOC
  5
5416
102
{ACAD_REACTORS
330
5415
102
}
330
5415
100
AcDbDimAssoc
330
5414
 90
        1
 70
     0
 71
     1
  1
AcDbOsnapPointRef
 72
     5
331
5036
 73
     0
 91
        0
 40
7.853981633974483
 10
0.0
 20
0.0
 30
0.0
 75
     0
  0
DIMASSOC
  5
5C81
102
{ACAD_REACTORS
330
5C80
102
}
330
5C80
100
AcDbDimAssoc
330
5C7F
 90
        2
 70
     0
 71
     1
  1
AcDbOsnapPointRef
 72
     5
331
5C7D
 73
     0
 91
        0
 40
4.71238898038469
 10
0.0
 20
0.0
 30
0.0
 75
     0
  0
DIMASSOC
  5
5C84
102
{ACAD_REACTORS
330
5C83
102
}
330
5C83
100
AcDbDimAssoc
330
5C82
 90
        2
 70
     0
 71
     1
  1
AcDbOsnapPointRef
 72
     5
331
5C7B
 73
     0
 91
        0
 40
4.71238898038469
 10
0.0
 20
0.0
 30
0.0
 75
     0
  0
DIMASSOC
  5
5C87
102
{ACAD_REACTORS
330
5C86
102
}
330
5C86
100
AcDbDimAssoc
330
5C85
 90
        2
 70
     0
 71
     1
  1
AcDbOsnapPointRef
 72
     5
331
5C79
 73
     0
 91
        0
 40
1.570796326794897
 10
0.0
 20
0.0
 30
0.0
 75
     0
  0
DIMASSOC
  5
5C8A
102
{ACAD_REACTORS
330
5C89
102
}
330
5C89
100
AcDbDimAssoc
330
5C88
 90
        2
 70
     0
 71
     1
  1
AcDbOsnapPointRef
 72
     5
331
5C7B
 73
     0
 91
        0
 40
0.0
 10
0.0
 20
0.0
 30
0.0
 75
     0
  0
DIMASSOC
  5
5C98
102
{ACAD_REACTORS
330
5C97
102
}
330
5C97
100
AcDbDimAssoc
330
5C96
 90
        1
 70
     0
 71
     1
  1
AcDbOsnapPointRef
 72
     5
331
5C7D
 73
     0
 91
        0
 40
0.0
 10
0.0
 20
0.0
 30
0.0
 75
     0
  0
LAYOUT
  5
21
102
{ACAD_REACTORS
330
1E
102
}
330
1E
100
AcDbPlotSettings
  1

  2
none_device
  4
ISO_A3_(420.00_x_297.00_MM)
  6

 40
7.5
 41
20.0
 42
7.5
 43
20.0
 44
420.0
 45
297.0
 46
0.0
 47
0.0
 48
0.0
 49
0.0
140
0.0
141
0.0
142
1.0
143
1.0
 70
     0
 72
     1
 73
     0
 74
     0
  7

 75
     0
 76
     0
 77
     2
 78
   300
147
1.0
148
0.0
149
0.0
100
AcDbLayout
  1
Layout1
 70
     1
 71
     0
 10
-7.5
 20
-20.0
 11
412.5
 21
277.0
 12
0.0
 22
0.0
 32
0.0
 14
0.0
 24
0.0
 34
0.0
 15
0.0
 25
0.0
 35
0.0
146
0.0
 13
0.0
 23
0.0
 33
0.0
 16
0.0
 26
0.0
 36
0.0
 17
0.0
 27
0.0
 37
0.0
 76
     0
330
B
331
349
  0
LAYOUT
  5
20
102
{ACAD_REACTORS
330
1E
102
}
330
1E
100
AcDbPlotSettings
  1

  2
none_device
  4
ISO_A3_(420.00_x_297.00_MM)
  6

 40
7.5
 41
20.0
 42
7.5
 43
20.0
 44
420.0
 45
297.0
 46
0.0
 47
0.0
 48
0.0
 49
0.0
140
0.0
141
0.0
142
1.0
143
1.0
 70
  1024
 72
     1
 73
     0
 74
     0
  7

 75
     0
 76
     0
 77
     2
 78
   300
147
1.0
148
0.0
149
0.0
100
AcDbLayout
  1
Model
 70
     0
 71
     1
 10
0.0
 20
0.0
 11
791.9999999999997
 21
560.0
 12
0.0
 22
0.0
 32
0.0
 14
0.0
 24
0.0
 34
0.0
 15
791.9999999999998
 25
560.0
 35
0.0
146
0.0
 13
0.0
 23
0.0
 33
0.0
 16
0.0
 26
0.0
 36
0.0
 17
0.0
 27
0.0
 37
0.0
 76
     0
330
A
331
15
  0
MATERIAL
  5
54DE
102
{ACAD_REACTORS
330
263
102
}
330
263
100
AcDbMaterial
  1
ByBlock
 72
     1
 94
      127
  0
MATERIAL
  5
264
102
{ACAD_REACTORS
330
263
102
}
330
263
100
AcDbMaterial
  1
ByLayer
 72
     1
 94
      127
  0
MATERIAL
  5
266
102
{ACAD_REACTORS
330
263
102
}
330
263
100
AcDbMaterial
  1
Global
 72
     1
 94
      127
  0
MLEADERSTYLE
  5
5E6C
102
{ACAD_REACTORS
330
336
102
}
330
336
100
AcDbMLeaderStyle
170
     2
171
     1
172
     0
 90
        2
 40
0.0
 41
0.0
173
     1
 91
-1056964608
340
11
 92
       -2
290
     1
 42
2.0
291
     1
 43
8.0
  3
Standard
341
0
 44
4.0
300

342
17
174
     1
178
     6
175
     1
176
     0
 93
-1056964608
 45
4.0
292
     0
297
     0
 46
4.0
343
0
 94
-1056964608
 47
1.0
 49
1.0
140
1.0
293
     1
141
0.0
294
     1
177
     0
142
1.0
295
     0
296
     0
143
3.75
1001
ACAD_MLEADERVER
1070
     2
  0
MLINESTYLE
  5
1C
102
{ACAD_REACTORS
330
1B
102
}
330
1B
100
AcDbMlineStyle
  2
Standard
 70
     0
  3

 62
     0
 51
90.0
 52
90.0
 71
     2
 49
0.5
 62
   256
  6
BYLAYER
 49
-0.5
 62
   256
  6
BYLAYER
  0
ACDBPLACEHOLDER
  5
1D
102
{ACAD_REACTORS
330
1F
102
}
330
1F
  0
SCALE
  5
242
102
{ACAD_REACTORS
330
241
102
}
330
241
100
AcDbScale
 70
     0
300
1:1
140
1.0
141
1.0
290
     1
  0
SCALE
  5
243
102
{ACAD_REACTORS
330
241
102
}
330
241
100
AcDbScale
 70
     0
300
1:2
140
1.0
141
2.0
290
     0
  0
SCALE
  5
244
102
{ACAD_REACTORS
330
241
102
}
330
241
100
AcDbScale
 70
     0
300
1:4
140
1.0
141
4.0
290
     0
  0
SCALE
  5
245
102
{ACAD_REACTORS
330
241
102
}
330
241
100
AcDbScale
 70
     0
300
1:5
140
1.0
141
5.0
290
     0
  0
SCALE
  5
246
102
{ACAD_REACTORS
330
241
102
}
330
241
100
AcDbScale
 70
     0
300
1:8
140
1.0
141
8.0
290
     0
  0
SCALE
  5
247
102
{ACAD_REACTORS
330
241
102
}
330
241
100
AcDbScale
 70
     0
300
1:10
140
1.0
141
10.0
290
     0
  0
SCALE
  5
248
102
{ACAD_REACTORS
330
241
102
}
330
241
100
AcDbScale
 70
     0
300
1:16
140
1.0
141
16.0
290
     0
  0
SCALE
  5
249
102
{ACAD_REACTORS
330
241
102
}
330
241
100
AcDbScale
 70
     0
300
1:20
140
1.0
141
20.0
290
     0
  0
SCALE
  5
24A
102
{ACAD_REACTORS
330
241
102
}
330
241
100
AcDbScale
 70
     0
300
1:30
140
1.0
141
30.0
290
     0
  0
SCALE
  5
24B
102
{ACAD_REACTORS
330
241
102
}
330
241
100
AcDbScale
 70
     0
300
1:40
140
1.0
141
40.0
290
     0
  0
SCALE
  5
24C
102
{ACAD_REACTORS
330
241
102
}
330
241
100
AcDbScale
 70
     0
300
1:50
140
1.0
141
50.0
290
     0
  0
SCALE
  5
24D
102
{ACAD_REACTORS
330
241
102
}
330
241
100
AcDbScale
 70
     0
300
1:100
140
1.0
141
100.0
290
     0
  0
SCALE
  5
24E
102
{ACAD_REACTORS
330
241
102
}
330
241
100
AcDbScale
 70
     0
300
2:1
140
2.0
141
1.0
290
     0
  0
SCALE
  5
24F
102
{ACAD_REACTORS
330
241
102
}
330
241
100
AcDbScale
 70
     0
300
4:1
140
4.0
141
1.0
290
     0
  0
SCALE
  5
250
102
{ACAD_REACTORS
330
241
102
}
330
241
100
AcDbScale
 70
     0
300
8:1
140
8.0
141
1.0
290
     0
  0
SCALE
  5
251
102
{ACAD_REACTORS
330
241
102
}
330
241
100
AcDbScale
 70
     0
300
10:1
140
10.0
141
1.0
290
     0
  0
SCALE
  5
252
102
{ACAD_REACTORS
330
241
102
}
330
241
100
AcDbScale
 70
     0
300
100:1
140
100.0
141
1.0
290
     0
  0
SCALE
  5
253
102
{ACAD_REACTORS
330
241
102
}
330
241
100
AcDbScale
 70
     0
300
1/128" = 1'-0"
140
0.0078125
141
12.0
290
     0
  0
SCALE
  5
254
102
{ACAD_REACTORS
330
241
102
}
330
241
100
AcDbScale
 70
     0
300
1/64" = 1'-0"
140
0.015625
141
12.0
290
     0
  0
SCALE
  5
255
102
{ACAD_REACTORS
330
241
102
}
330
241
100
AcDbScale
 70
     0
300
1/32" = 1'-0"
140
0.03125
141
12.0
290
     0
  0
SCALE
  5
256
102
{ACAD_REACTORS
330
241
102
}
330
241
100
AcDbScale
 70
     0
300
1/16" = 1'-0"
140
0.0625
141
12.0
290
     0
  0
SCALE
  5
257
102
{ACAD_REACTORS
330
241
102
}
330
241
100
AcDbScale
 70
     0
300
3/32" = 1'-0"
140
0.09375
141
12.0
290
     0
  0
SCALE
  5
258
102
{ACAD_REACTORS
330
241
102
}
330
241
100
AcDbScale
 70
     0
300
1/8" = 1'-0"
140
0.125
141
12.0
290
     0
  0
SCALE
  5
259
102
{ACAD_REACTORS
330
241
102
}
330
241
100
AcDbScale
 70
     0
300
3/16" = 1'-0"
140
0.1875
141
12.0
290
     0
  0
SCALE
  5
25A
102
{ACAD_REACTORS
330
241
102
}
330
241
100
AcDbScale
 70
     0
300
1/4" = 1'-0"
140
0.25
141
12.0
290
     0
  0
SCALE
  5
25B
102
{ACAD_REACTORS
330
241
102
}
330
241
100
AcDbScale
 70
     0
300
3/8" = 1'-0"
140
0.375
141
12.0
290
     0
  0
SCALE
  5
25C
102
{ACAD_REACTORS
330
241
102
}
330
241
100
AcDbScale
 70
     0
300
1/2" = 1'-0"
140
0.5
141
12.0
290
     0
  0
SCALE
  5
25D
102
{ACAD_REACTORS
330
241
102
}
330
241
100
AcDbScale
 70
     0
300
3/4" = 1'-0"
140
0.75
141
12.0
290
     0
  0
SCALE
  5
25E
102
{ACAD_REACTORS
330
241
102
}
330
241
100
AcDbScale
 70
     0
300
1" = 1'-0"
140
1.0
141
12.0
290
     0
  0
SCALE
  5
25F
102
{ACAD_REACTORS
330
241
102
}
330
241
100
AcDbScale
 70
     0
300
1-1/2" = 1'-0"
140
1.5
141
12.0
290
     0
  0
SCALE
  5
260
102
{ACAD_REACTORS
330
241
102
}
330
241
100
AcDbScale
 70
     0
300
3" = 1'-0"
140
3.0
141
12.0
290
     0
  0
SCALE
  5
261
102
{ACAD_REACTORS
330
241
102
}
330
241
100
AcDbScale
 70
     0
300
6" = 1'-0"
140
6.0
141
12.0
290
     0
  0
SCALE
  5
262
102
{ACAD_REACTORS
330
241
102
}
330
241
100
AcDbScale
 70
     0
300
1'-0" = 1'-0"
140
12.0
141
12.0
290
     0
  0
TABLESTYLE
  5
279
102
{ACAD_REACTORS
330
278
102
}
102
{ACAD_XDICTIONARY
360
5FDA
102
}
330
278
100
AcDbTableStyle
  3
Standard
 70
     0
 71
     0
 40
0.06
 41
0.06
280
     0
281
     0
  7
Standard
140
4.5
170
     2
 62
     0
 63
   257
283
     0
 90
        4
 91
        0
  1

274
    -2
284
     1
 64
     0
275
    -2
285
     1
 65
     0
276
    -2
286
     1
 66
     0
277
    -2
287
     1
 67
     0
278
    -2
288
     1
 68
     0
279
    -2
289
     1
 69
     0
  7
Standard
140
6.0
170
     5
 62
     0
 63
   257
283
     0
 90
        4
 91
        0
  1

274
    -2
284
     1
 64
     0
275
    -2
285
     1
 65
     0
276
    -2
286
     1
 66
     0
277
    -2
287
     1
 67
     0
278
    -2
288
     1
 68
     0
279
    -2
289
     1
 69
     0
  7
Standard
140
4.5
170
     5
 62
     0
 63
   257
283
     0
 90
        4
 91
        0
  1

274
    -2
284
     1
 64
     0
275
    -2
285
     1
 65
     0
276
    -2
286
     1
 66
     0
277
    -2
287
     1
 67
     0
278
    -2
288
     1
 68
     0
279
    -2
289
     1
 69
     0
  0
VISUALSTYLE
  5
26C
102
{ACAD_REACTORS
330
267
102
}
330
267
100
AcDbVisualStyle
  2
2dWireframe
 70
     4
 71
     0
 72
     2
 73
     0
 90
        0
 40
-0.6
 41
-30.0
 62
     5
 63
     7
421
 16777215
 74
     1
 91
        4
 64
     7
 65
   257
 75
     1
175
     1
 42
1.0
 92
        0
 66
   257
 43
1.0
 76
     1
 77
     6
 78
     2
 67
     7
 79
     5
170
     0
171
     0
290
     0
174
     0
 93
        1
 44
0.0
173
     0
291
     0
 45
0.0
  0
VISUALSTYLE
  5
26E
102
{ACAD_REACTORS
330
267
102
}
330
267
100
AcDbVisualStyle
  2
3D Hidden
 70
     6
 71
     1
 72
     2
 73
     2
 90
        0
 40
-0.6
 41
-30.0
 62
     5
 63
     7
421
 16777215
 74
     2
 91
        2
 64
     7
 65
   257
 75
     2
175
     1
 42
40.0
 92
        0
 66
   257
 43
1.0
 76
     1
 77
     6
 78
     2
 67
     7
 79
     3
170
     0
171
     0
290
     0
174
     0
 93
        1
 44
0.0
173
     0
291
     0
 45
0.0
  0
VISUALSTYLE
  5
26D
102
{ACAD_REACTORS
330
267
102
}
330
267
100
AcDbVisualStyle
  2
3dWireframe
 70
     5
 71
     0
 72
     2
 73
     0
 90
        0
 40
-0.6
 41
-30.0
 62
     5
 63
     7
421
 16777215
 74
     1
 91
        4
 64
     7
 65
   257
 75
     1
175
     1
 42
1.0
 92
        0
 66
   257
 43
1.0
 76
     1
 77
     6
 78
     2
 67
     7
 79
     5
170
     0
171
     0
290
     0
174
     0
 93
        1
 44
0.0
173
     0
291
     0
 45
0.0
  0
VISUALSTYLE
  5
26F
102
{ACAD_REACTORS
330
267
102
}
330
267
100
AcDbVisualStyle
  2
Basic
 70
     7
 71
     1
 72
     0
 73
     1
 90
        0
 40
-0.6
 41
-30.0
 62
     5
 63
     7
421
 16777215
 74
     0
 91
        4
 64
     7
 65
   257
 75
     1
175
     1
 42
1.0
 92
        8
 66
     7
 43
1.0
 76
     1
 77
     6
 78
     2
 67
     7
 79
     5
170
     0
171
     0
290
     0
174
     0
 93
        1
 44
0.0
173
     0
291
     1
 45
0.0
  0
VISUALSTYLE
  5
273
102
{ACAD_REACTORS
330
267
102
}
330
267
100
AcDbVisualStyle
  2
Brighten
 70
    12
 71
     2
 72
     2
 73
     0
 90
        0
 40
-0.6
 41
-30.0
 62
     5
 63
     7
421
 16777215
 74
     1
 91
        4
 64
     7
 65
   257
 75
     1
175
     1
 42
1.0
 92
        8
 66
     7
 43
1.0
 76
     1
 77
     6
 78
     2
 67
     7
 79
     5
170
     0
171
     0
290
     0
174
     0
 93
        1
 44
50.0
173
     0
291
     1
 45
0.0
  0
VISUALSTYLE
  5
277
102
{ACAD_REACTORS
330
267
102
}
330
267
100
AcDbVisualStyle
  2
ColorChange
 70
    16
 71
     2
 72
     2
 73
     3
 90
        0
 40
-0.6
 41
-30.0
 62
     5
 63
     8
421
  8421504
 74
     1
 91
        4
 64
     7
 65
   257
 75
     1
175
     1
 42
1.0
 92
        8
 66
     8
424
  8421504
 43
1.0
 76
     1
 77
     6
 78
     2
 67
     7
 79
     5
170
     0
171
     0
290
     0
174
     0
 93
        1
 44
0.0
173
     0
291
     1
 45
0.0
  0
VISUALSTYLE
  5
271
102
{ACAD_REACTORS
330
267
102
}
330
267
100
AcDbVisualStyle
  2
Conceptual
 70
     9
 71
     3
 72
     2
 73
     0
 90
        0
 40
-0.6
 41
-30.0
 62
     5
 63
     7
421
 16777215
 74
     2
 91
        2
 64
     7
 65
   257
 75
     1
175
     1
 42
40.0
 92
        8
 66
     7
 43
1.0
 76
     1
 77
     6
 78
     2
 67
     7
 79
     3
170
     0
171
     0
290
     0
174
     0
 93
        1
 44
0.0
173
     0
291
     0
 45
0.0
  0
VISUALSTYLE
  5
272
102
{ACAD_REACTORS
330
267
102
}
330
267
100
AcDbVisualStyle
  2
Dim
 70
    11
 71
     2
 72
     2
 73
     0
 90
        0
 40
-0.6
 41
-30.0
 62
     5
 63
     7
421
 16777215
 74
     1
 91
        4
 64
     7
 65
   257
 75
     1
175
     1
 42
1.0
 92
        8
 66
     7
 43
1.0
 76
     1
 77
     6
 78
     2
 67
     7
 79
     5
170
     0
171
     0
290
     0
174
     0
 93
        1
 44
-50.0
173
     0
291
     1
 45
0.0
  0
VISUALSTYLE
  5
F14
102
{ACAD_REACTORS
330
267
102
}
330
267
100
AcDbVisualStyle
  2
EdgeColorOff
 70
    22
 71
     2
 72
     2
 73
     0
 90
        0
 40
0.6
 41
30.0
 62
     5
 63
     7
421
 16777215
 74
     1
 91
        4
 64
     7
 65
   257
 75
     1
175
     1
 42
1.0
 92
        8
 66
     7
 43
1.0
 76
     1
 77
     6
 78
     2
 67
     7
 79
     5
170
     0
171
     0
290
     0
174
     0
 93
        1
 44
0.0
173
     0
291
     1
 45
0.0
  0
VISUALSTYLE
  5
276
102
{ACAD_REACTORS
330
267
102
}
330
267
100
AcDbVisualStyle
  2
Facepattern
 70
    15
 71
     2
 72
     2
 73
     0
 90
        0
 40
-0.6
 41
-30.0
 62
     5
 63
     7
421
 16777215
 74
     1
 91
        4
 64
     7
 65
   257
 75
     1
175
     1
 42
1.0
 92
        8
 66
     7
 43
1.0
 76
     1
 77
     6
 78
     2
 67
     7
 79
     5
170
     0
171
     0
290
     0
174
     0
 93
        1
 44
0.0
173
     0
291
     1
 45
0.0
  0
VISUALSTYLE
  5
268
102
{ACAD_REACTORS
330
267
102
}
330
267
100
AcDbVisualStyle
  2
Flat
 70
     0
 71
     2
 72
     1
 73
     1
 90
        2
 40
-0.6
 41
30.0
 62
     5
 63
     7
421
 16777215
 74
     0
 91
        4
 64
     7
 65
   257
 75
     1
175
     1
 42
1.0
 92
        8
 66
     7
 43
1.0
 76
     1
 77
     6
 78
     2
 67
     7
 79
     5
170
     0
171
     0
290
     0
174
     0
 93
       13
 44
0.0
173
     0
291
     1
 45
0.0
  0
VISUALSTYLE
  5
269
102
{ACAD_REACTORS
330
267
102
}
330
267
100
AcDbVisualStyle
  2
FlatWithEdges
 70
     1
 71
     2
 72
     1
 73
     1
 90
        2
 40
-0.6
 41
30.0
 62
     5
 63
     7
421
 16777215
 74
     1
 91
        4
 64
     7
 65
   257
 75
     1
175
     1
 42
1.0
 92
        0
 66
   257
 43
1.0
 76
     1
 77
     6
 78
     2
 67
     7
 79
     5
170
     0
171
     0
290
     0
174
     0
 93
       13
 44
0.0
173
     0
291
     1
 45
0.0
  0
VISUALSTYLE
  5
26A
102
{ACAD_REACTORS
330
267
102
}
330
267
100
AcDbVisualStyle
  2
Gouraud
 70
     2
 71
     2
 72
     2
 73
     1
 90
        2
 40
-0.6
 41
30.0
 62
     5
 63
     7
421
 16777215
 74
     0
 91
        4
 64
     7
 65
   257
 75
     1
175
     1
 42
1.0
 92
        0
 66
     7
 43
1.0
 76
     1
 77
     6
 78
     2
 67
     7
 79
     5
170
     0
171
     0
290
     0
174
     0
 93
       13
 44
0.0
173
     0
291
     1
 45
0.0
  0
VISUALSTYLE
  5
26B
102
{ACAD_REACTORS
330
267
102
}
330
267
100
AcDbVisualStyle
  2
GouraudWithEdges
 70
     3
 71
     2
 72
     2
 73
     1
 90
        2
 40
-0.6
 41
30.0
 62
     5
 63
     7
421
 16777215
 74
     1
 91
        4
 64
     7
 65
   257
 75
     1
175
     1
 42
1.0
 92
        0
 66
   257
 43
1.0
 76
     1
 77
     6
 78
     2
 67
     7
 79
     5
170
     0
171
     0
290
     0
174
     0
 93
       13
 44
0.0
173
     0
291
     1
 45
0.0
  0
VISUALSTYLE
  5
F11
102
{ACAD_REACTORS
330
267
102
}
330
267
100
AcDbVisualStyle
  2
Hidden
 70
     6
 71
     1
 72
     2
 73
     2
 90
        0
 40
0.6
 41
30.0
 62
     5
 63
     7
421
 16777215
 74
     2
 91
        2
 64
     7
 65
   257
 75
     2
175
     1
 42
40.0
 92
        0
 66
   257
 43
1.0
 76
     1
 77
     6
 78
     2
 67
     7
 79
     3
170
     0
171
     0
290
     0
174
     0
 93
        1
 44
0.0
173
     0
291
     0
 45
0.0
  0
VISUALSTYLE
  5
F12
102
{ACAD_REACTORS
330
267
102
}
330
267
100
AcDbVisualStyle
  2
JitterOff
 70
    20
 71
     2
 72
     2
 73
     0
 90
        0
 40
0.6
 41
30.0
 62
     5
 63
     7
421
 16777215
 74
     1
 91
        4
 64
     7
 65
   257
 75
     1
175
     1
 42
1.0
 92
       10
 66
     7
 43
1.0
 76
     1
 77
     6
 78
     2
 67
     7
 79
     5
170
     0
171
     0
290
     0
174
     0
 93
        1
 44
0.0
173
     0
291
     1
 45
0.0
  0
VISUALSTYLE
  5
275
102
{ACAD_REACTORS
330
267
102
}
330
267
100
AcDbVisualStyle
  2
Linepattern
 70
    14
 71
     2
 72
     2
 73
     0
 90
        0
 40
-0.6
 41
-30.0
 62
     5
 63
     7
421
 16777215
 74
     1
 91
        4
 64
     7
 65
   257
 75
     7
175
     7
 42
1.0
 92
        8
 66
     7
 43
1.0
 76
     1
 77
     6
 78
     2
 67
     7
 79
     5
170
     0
171
     0
290
     0
174
     0
 93
        1
 44
0.0
173
     0
291
     1
 45
0.0
  0
VISUALSTYLE
  5
F13
102
{ACAD_REACTORS
330
267
102
}
330
267
100
AcDbVisualStyle
  2
OverhangOff
 70
    21
 71
     2
 72
     2
 73
     0
 90
        0
 40
0.6
 41
30.0
 62
     5
 63
     7
421
 16777215
 74
     1
 91
        4
 64
     7
 65
   257
 75
     1
175
     1
 42
1.0
 92
        9
 66
     7
 43
1.0
 76
     1
 77
     6
 78
     2
 67
     7
 79
     5
170
     0
171
     0
290
     0
174
     0
 93
        1
 44
0.0
173
     0
291
     1
 45
0.0
  0
VISUALSTYLE
  5
270
102
{ACAD_REACTORS
330
267
102
}
330
267
100
AcDbVisualStyle
  2
Realistic
 70
     8
 71
     2
 72
     2
 73
     0
 90
        0
 40
-0.6
 41
-30.0
 62
     5
 63
     7
421
 16777215
 74
     1
 91
        0
 64
     7
 65
   257
 75
     1
175
     1
 42
1.0
 92
        8
 66
     8
424
  7895160
 43
1.0
 76
     1
 77
     6
 78
     2
 67
     7
 79
     5
170
     0
171
     0
290
     0
174
     0
 93
       13
 44
0.0
173
     0
291
     0
 45
0.0
  0
VISUALSTYLE
  5
F19
102
{ACAD_REACTORS
330
267
102
}
330
267
100
AcDbVisualStyle
  2
Shaded
 70
    27
 71
     2
 72
     2
 73
     1
 90
        2
 40
0.6
 41
30.0
 62
     5
 63
     7
421
 16777215
 74
     0
 91
        4
 64
     7
 65
   257
 75
     1
175
     1
 42
1.0
 92
        8
 66
   257
 43
1.0
 76
     1
 77
     6
 78
     2
 67
     8
425
  7895160
 79
     3
170
     0
171
     0
290
     0
174
     0
 93
        5
 44
0.0
173
     0
291
     0
 45
0.0
  0
VISUALSTYLE
  5
F18
102
{ACAD_REACTORS
330
267
102
}
330
267
100
AcDbVisualStyle
  2
Shaded with edges
 70
    26
 71
     2
 72
     2
 73
     1
 90
        2
 40
0.6
 41
30.0
 62
     5
 63
     7
421
 16777215
 74
     1
 91
       10
 64
     7
 65
   257
 75
     2
175
     1
 42
1.0
 92
        8
 66
   257
 43
1.0
 76
     1
 77
     6
 78
     2
 67
     7
 79
     3
170
     0
171
     0
290
     0
174
     0
 93
        5
 44
0.0
173
     0
291
     0
 45
0.0
  0
VISUALSTYLE
  5
F15
102
{ACAD_REACTORS
330
267
102
}
330
267
100
AcDbVisualStyle
  2
Shades of Gray
 70
    23
 71
     2
 72
     2
 73
     3
 90
        0
 40
0.6
 41
30.0
 62
     5
 63
     7
421
 16777215
 74
     2
 91
        2
 64
     7
 65
     7
 75
     1
175
     1
 42
40.0
 92
        8
 66
     7
 43
1.0
 76
     1
 77
     6
 78
     2
 67
     7
 79
     3
170
     0
171
     0
290
     0
174
     0
 93
        1
 44
0.0
173
     0
291
     0
 45
0.0
  0
VISUALSTYLE
  5
F16
102
{ACAD_REACTORS
330
267
102
}
330
267
100
AcDbVisualStyle
  2
Sketchy
 70
    24
 71
     1
 72
     2
 73
     2
 90
        0
 40
0.6
 41
30.0
 62
     5
 63
     7
421
 16777215
 74
     2
 91
        2
 64
     7
 65
     7
 75
     1
175
     1
 42
40.0
 92
       11
 66
     7
 43
1.0
 76
     1
 77
     6
 78
     2
 67
     7
 79
     6
170
     0
171
     0
290
     0
174
     0
 93
        1
 44
0.0
173
     0
291
     0
 45
0.0
  0
VISUALSTYLE
  5
274
102
{ACAD_REACTORS
330
267
102
}
330
267
100
AcDbVisualStyle
  2
Thicken
 70
    13
 71
     2
 72
     2
 73
     0
 90
        0
 40
-0.6
 41
-30.0
 62
     5
 63
     7
421
 16777215
 74
     1
 91
        4
 64
     7
 65
   257
 75
     1
175
     1
 42
1.0
 92
       12
 66
     7
 43
1.0
 76
     1
 77
     6
 78
     2
 67
     7
 79
     5
170
     0
171
     0
290
     0
174
     0
 93
        1
 44
0.0
173
     0
291
     1
 45
0.0
  0
VISUALSTYLE
  5
F10
102
{ACAD_REACTORS
330
267
102
}
330
267
100
AcDbVisualStyle
  2
Wireframe
 70
     5
 71
     0
 72
     2
 73
     0
 90
        0
 40
0.6
 41
30.0
 62
     5
 63
     7
421
 16777215
 74
     1
 91
        4
 64
     7
 65
   257
 75
     1
175
     1
 42
1.0
 92
        0
 66
   257
 43
1.0
 76
     1
 77
     6
 78
     2
 67
     7
 79
     3
170
     0
171
     0
290
     0
174
     0
 93
        1
 44
0.0
173
     0
291
     0
 45
0.0
  0
VISUALSTYLE
  5
F17
102
{ACAD_REACTORS
330
267
102
}
330
267
100
AcDbVisualStyle
  2
X-Ray
 70
    25
 71
     2
 72
     2
 73
     1
 90
        1
 40
0.5
 41
30.0
 62
     5
 63
     7
421
 16777215
 74
     1
 91
        0
 64
     7
 65
   257
 75
     1
175
     1
 42
1.0
 92
        8
 66
     7
 43
1.0
 76
     1
 77
     6
 78
     2
 67
     7
 79
     3
170
     0
171
     0
290
     0
174
     0
 93
       13
 44
0.0
173
     0
291
     0
 45
0.0
  0
DICTIONARYVAR
  5
331
102
{ACAD_REACTORS
330
330
102
}
330
330
100
DictionaryVariables
280
     0
  1
1:1
  0
DICTIONARYVAR
  5
5EF1
102
{ACAD_REACTORS
330
330
102
}
330
330
100
DictionaryVariables
280
     0
  1
Standard
  0
DICTIONARYVAR
  5
335
102
{ACAD_REACTORS
330
330
102
}
330
330
100
DictionaryVariables
280
     0
  1
Standard
  0
DICTIONARYVAR
  5
5558
102
{ACAD_REACTORS
330
330
102
}
330
330
100
DictionaryVariables
280
     0
  1
ByLayer
  0
DICTIONARYVAR
  5
13B4
102
{ACAD_REACTORS
330
330
102
}
330
330
100
DictionaryVariables
280
     0
  1
0
  0
DICTIONARY
  5
5FDA
330
279
100
AcDbDictionary
280
     1
281
     1
  3
ACAD_ROUNDTRIP_2008_TABLESTYLE_CELLSTYLEMAP
360
5FDB
  0
CELLSTYLEMAP
  5
5FDB
102
{ACAD_REACTORS
330
5FDA
102
}
330
5FDA
100
AcDbCellStyleMap
 90
        3
300
CELLSTYLE
  1
TABLEFORMAT_BEGIN
 90
        5
170
     1
 91
        0
 92
    32768
 62
   257
 93
        1
300
CONTENTFORMAT
  1
CONTENTFORMAT_BEGIN
 90
        0
 91
        0
 92
        4
 93
        0
300

 40
0.0
140
1.0
 94
        5
 62
     0
340
17
144
6.0
309
CONTENTFORMAT_END
171
     1
301
MARGIN
  1
CELLMARGIN_BEGIN
 40
0.06
 40
0.06
 40
0.06
 40
0.06
 40
0.18
 40
0.18
309
CELLMARGIN_END
 94
        6
 95
        1
302
GRIDFORMAT
  1
GRIDFORMAT_BEGIN
 90
        0
 91
        1
 62
     0
 92
       -2
340
0
 93
        0
 40
0.045
309
GRIDFORMAT_END
 95
        2
302
GRIDFORMAT
  1
GRIDFORMAT_BEGIN
 90
        0
 91
        1
 62
     0
 92
       -2
340
0
 93
        0
 40
0.045
309
GRIDFORMAT_END
 95
        4
302
GRIDFORMAT
  1
GRIDFORMAT_BEGIN
 90
        0
 91
        1
 62
     0
 92
       -2
340
0
 93
        0
 40
0.045
309
GRIDFORMAT_END
 95
        8
302
GRIDFORMAT
  1
GRIDFORMAT_BEGIN
 90
        0
 91
        1
 62
     0
 92
       -2
340
0
 93
        0
 40
0.045
309
GRIDFORMAT_END
 95
       16
302
GRIDFORMAT
  1
GRIDFORMAT_BEGIN
 90
        0
 91
        1
 62
     0
 92
       -2
340
0
 93
        0
 40
0.045
309
GRIDFORMAT_END
 95
       32
302
GRIDFORMAT
  1
GRIDFORMAT_BEGIN
 90
        0
 91
        1
 62
     0
 92
       -2
340
0
 93
        0
 40
0.045
309
GRIDFORMAT_END
309
TABLEFORMAT_END
  1
CELLSTYLE_BEGIN
 90
        1
 91
        1
300
_TITLE
309
CELLSTYLE_END
300
CELLSTYLE
  1
TABLEFORMAT_BEGIN
 90
        5
170
     1
 91
        0
 92
        0
 62
   257
 93
        1
300
CONTENTFORMAT
  1
CONTENTFORMAT_BEGIN
 90
        0
 91
        0
 92
        4
 93
        0
300

 40
0.0
140
1.0
 94
        5
 62
     0
340
17
144
4.5
309
CONTENTFORMAT_END
171
     1
301
MARGIN
  1
CELLMARGIN_BEGIN
 40
0.06
 40
0.06
 40
0.06
 40
0.06
 40
0.18
 40
0.18
309
CELLMARGIN_END
 94
        6
 95
        1
302
GRIDFORMAT
  1
GRIDFORMAT_BEGIN
 90
        0
 91
        1
 62
     0
 92
       -2
340
0
 93
        0
 40
0.045
309
GRIDFORMAT_END
 95
        2
302
GRIDFORMAT
  1
GRIDFORMAT_BEGIN
 90
        0
 91
        1
 62
     0
 92
       -2
340
0
 93
        0
 40
0.045
309
GRIDFORMAT_END
 95
        4
302
GRIDFORMAT
  1
GRIDFORMAT_BEGIN
 90
        0
 91
        1
 62
     0
 92
       -2
340
0
 93
        0
 40
0.045
309
GRIDFORMAT_END
 95
        8
302
GRIDFORMAT
  1
GRIDFORMAT_BEGIN
 90
        0
 91
        1
 62
     0
 92
       -2
340
0
 93
        0
 40
0.045
309
GRIDFORMAT_END
 95
       16
302
GRIDFORMAT
  1
GRIDFORMAT_BEGIN
 90
        0
 91
        1
 62
     0
 92
       -2
340
0
 93
        0
 40
0.045
309
GRIDFORMAT_END
 95
       32
302
GRIDFORMAT
  1
GRIDFORMAT_BEGIN
 90
        0
 91
        1
 62
     0
 92
       -2
340
0
 93
        0
 40
0.045
309
GRIDFORMAT_END
309
TABLEFORMAT_END
  1
CELLSTYLE_BEGIN
 90
        2
 91
        1
300
_HEADER
309
CELLSTYLE_END
300
CELLSTYLE
  1
TABLEFORMAT_BEGIN
 90
        5
170
     1
 91
        0
 92
        0
 62
   257
 93
        1
300
CONTENTFORMAT
  1
CONTENTFORMAT_BEGIN
 90
        0
 91
        0
 92
        4
 93
        0
300

 40
0.0
140
1.0
 94
        2
 62
     0
340
17
144
4.5
309
CONTENTFORMAT_END
171
     1
301
MARGIN
  1
CELLMARGIN_BEGIN
 40
0.06
 40
0.06
 40
0.06
 40
0.06
 40
0.18
 40
0.18
309
CELLMARGIN_END
 94
        6
 95
        1
302
GRIDFORMAT
  1
GRIDFORMAT_BEGIN
 90
        0
 91
        1
 62
     0
 92
       -2
340
0
 93
        0
 40
0.045
309
GRIDFORMAT_END
 95
        2
302
GRIDFORMAT
  1
GRIDFORMAT_BEGIN
 90
        0
 91
        1
 62
     0
 92
       -2
340
0
 93
        0
 40
0.045
309
GRIDFORMAT_END
 95
        4
302
GRIDFORMAT
  1
GRIDFORMAT_BEGIN
 90
        0
 91
        1
 62
     0
 92
       -2
340
0
 93
        0
 40
0.045
309
GRIDFORMAT_END
 95
        8
302
GRIDFORMAT
  1
GRIDFORMAT_BEGIN
 90
        0
 91
        1
 62
     0
 92
       -2
340
0
 93
        0
 40
0.045
309
GRIDFORMAT_END
 95
       16
302
GRIDFORMAT
  1
GRIDFORMAT_BEGIN
 90
        0
 91
        1
 62
     0
 92
       -2
340
0
 93
        0
 40
0.045
309
GRIDFORMAT_END
 95
       32
302
GRIDFORMAT
  1
GRIDFORMAT_BEGIN
 90
        0
 91
        1
 62
     0
 92
       -2
340
0
 93
        0
 40
0.045
309
GRIDFORMAT_END
309
TABLEFORMAT_END
  1
CELLSTYLE_BEGIN
 90
        3
 91
        2
300
_DATA
309
CELLSTYLE_END
  0
ENDSEC
  0
EOF
