  0
SECTION
  2
HEADER
  9
$ACADVER
  1
AC1021
  9
$ACADMAINTVER
 70
    25
  9
$DWGCODEPAGE
  3
ANSI_932
  9
$LASTSAVEDBY
  1
howeNelson
  9
$INSBASE
 10
0.0
 20
0.0
 30
0.0
  9
$EXTMIN
 10
0.0
 20
0.0
 30
0.0
  9
$EXTMAX
 10
593.9999999999999
 20
420.0
 30
0.0
  9
$LIMMIN
 10
0.0
 20
0.0
  9
$LIMMAX
 10
594.0
 20
419.9999999999996
  9
$ORTHOMODE
 70
     0
  9
$REGENMODE
 70
     1
  9
$FILLMODE
 70
     1
  9
$QTEXTMODE
 70
     0
  9
$MIRRTEXT
 70
     1
  9
$LTSCALE
 40
2.0
  9
$ATTMODE
 70
     1
  9
$TEXTSIZE
 40
2.5
  9
$TRACEWID
 40
1.0
  9
$TEXTSTYLE
  7
ＭＳ ゴシック
  9
$CLAYER
  8
MODEL
  9
$CELTYPE
  6
Continuous
  9
$CECOLOR
 62
   256
  9
$CELTSCALE
 40
1.0
  9
$DISPSILH
 70
     0
  9
$DIMSCALE
 40
1.0
  9
$DIMASZ
 40
1.5
  9
$DIMEXO
 40
5.0
  9
$DIMDLI
 40
0.9999999999999999
  9
$DIMRND
 40
0.0
  9
$DIMDLE
 40
0.0
  9
$DIMEXE
 40
0.0
  9
$DIMTP
 40
0.0
  9
$DIMTM
 40
0.0
  9
$DIMTXT
 40
5.0
  9
$DIMCEN
 40
0.0
  9
$DIMTSZ
 40
0.0
  9
$DIMTOL
 70
     0
  9
$DIMLIM
 70
     0
  9
$DIMTIH
 70
     0
  9
$DIMTOH
 70
     0
  9
$DIMSE1
 70
     0
  9
$DIMSE2
 70
     0
  9
$DIMTAD
 70
     1
  9
$DIMZIN
 70
    11
  9
$DIMBLK
  1
DOT
  9
$DIMASO
 70
     1
  9
$DIMSHO
 70
     1
  9
$DIMPOST
  1
<>
  9
$DIMAPOST
  1
[]
  9
$DIMALT
 70
     0
  9
$DIMALTD
 70
     1
  9
$DIMALTF
 40
1.0
  9
$DIMLFAC
 40
1.0
  9
$DIMTOFL
 70
     0
  9
$DIMTVP
 40
0.0
  9
$DIMTIX
 70
     1
  9
$DIMSOXD
 70
     0
  9
$DIMSAH
 70
     0
  9
$DIMBLK1
  1

  9
$DIMBLK2
  1

  9
$DIMSTYLE
  2
tfrom線あり
  9
$DIMCLRD
 70
     0
  9
$DIMCLRE
 70
     0
  9
$DIMCLRT
 70
     0
  9
$DIMTFAC
 40
1.0
  9
$DIMGAP
 40
2.0
  9
$DIMJUST
 70
     0
  9
$DIMSD1
 70
     0
  9
$DIMSD2
 70
     0
  9
$DIMTOLJ
 70
     1
  9
$DIMTZIN
 70
    11
  9
$DIMALTZ
 70
    11
  9
$DIMALTTZ
 70
    11
  9
$DIMUPT
 70
     0
  9
$DIMDEC
 70
     0
  9
$DIMTDEC
 70
     1
  9
$DIMALTU
 70
     2
  9
$DIMALTTD
 70
     2
  9
$DIMTXSTY
  7
ＭＳ ゴシック
  9
$DIMAUNIT
 70
     0
  9
$DIMADEC
 70
     2
  9
$DIMALTRND
 40
0.0
  9
$DIMAZIN
 70
     0
  9
$DIMDSEP
 70
    46
  9
$DIMATFIT
 70
     0
  9
$DIMFRAC
 70
     2
  9
$DIMLDRBLK
  1
DOT
  9
$DIMLUNIT
 70
     2
  9
$DIMLWD
 70
    -2
  9
$DIMLWE
 70
    -2
  9
$DIMTMOVE
 70
     0
  9
$DIMFXL
 40
1.0
  9
$DIMFXLON
 70
     0
  9
$DIMJOGANG
 40
0.7853981633974483
  9
$DIMTFILL
 70
     0
  9
$DIMTFILLCLR
 70
     0
  9
$DIMARCSYM
 70
     0
  9
$DIMLTYPE
  6

  9
$DIMLTEX1
  6

  9
$DIMLTEX2
  6

  9
$LUNITS
 70
     2
  9
$LUPREC
 70
     0
  9
$SKETCHINC
 40
0.1
  9
$FILLETRAD
 40
3.0
  9
$AUNITS
 70
     0
  9
$AUPREC
 70
     0
  9
$MENU
  1
acad
  9
$ELEVATION
 40
0.0
  9
$PELEVATION
 40
0.0
  9
$THICKNESS
 40
0.0
  9
$LIMCHECK
 70
     0
  9
$CHAMFERA
 40
0.0
  9
$CHAMFERB
 40
0.0
  9
$CHAMFERC
 40
0.0
  9
$CHAMFERD
 40
0.0
  9
$SKPOLY
 70
     0
  9
$TDCREATE
 40
2447893.375
  9
$TDUCREATE
 40
0.0
  9
$TDUPDATE
 40
2458635.467091516
  9
$TDUUPDATE
 40
2458635.092091516
  9
$TDINDWG
 40
0.0240724769
  9
$TDUSRTIMER
 40
0.0095883912
  9
$USRTIMER
 70
     1
  9
$ANGBASE
 50
0.0
  9
$ANGDIR
 70
     0
  9
$PDMODE
 70
     1
  9
$PDSIZE
 40
-2.0
  9
$PLINEWID
 40
0.0
  9
$SPLFRAME
 70
     0
  9
$SPLINETYPE
 70
     6
  9
$SPLINESEGS
 70
     8
  9
$HANDSEED
  5
5CEE
  9
$SURFTAB1
 70
     6
  9
$SURFTAB2
 70
     6
  9
$SURFTYPE
 70
     6
  9
$SURFU
 70
     6
  9
$SURFV
 70
     6
  9
$UCSBASE
  2

  9
$UCSNAME
  2

  9
$UCSORG
 10
0.0
 20
0.0
 30
0.0
  9
$UCSXDIR
 10
1.0
 20
0.0
 30
0.0
  9
$UCSYDIR
 10
0.0
 20
1.0
 30
0.0
  9
$UCSORTHOREF
  2

  9
$UCSORTHOVIEW
 70
     0
  9
$UCSORGTOP
 10
0.0
 20
0.0
 30
0.0
  9
$UCSORGBOTTOM
 10
0.0
 20
0.0
 30
0.0
  9
$UCSORGLEFT
 10
0.0
 20
0.0
 30
0.0
  9
$UCSORGRIGHT
 10
0.0
 20
0.0
 30
0.0
  9
$UCSORGFRONT
 10
0.0
 20
0.0
 30
0.0
  9
$UCSORGBACK
 10
0.0
 20
0.0
 30
0.0
  9
$PUCSBASE
  2

  9
$PUCSNAME
  2

  9
$PUCSORG
 10
0.0
 20
0.0
 30
0.0
  9
$PUCSXDIR
 10
1.0
 20
0.0
 30
0.0
  9
$PUCSYDIR
 10
0.0
 20
1.0
 30
0.0
  9
$PUCSORTHOREF
  2

  9
$PUCSORTHOVIEW
 70
     0
  9
$PUCSORGTOP
 10
0.0
 20
0.0
 30
0.0
  9
$PUCSORGBOTTOM
 10
0.0
 20
0.0
 30
0.0
  9
$PUCSORGLEFT
 10
0.0
 20
0.0
 30
0.0
  9
$PUCSORGRIGHT
 10
0.0
 20
0.0
 30
0.0
  9
$PUCSORGFRONT
 10
0.0
 20
0.0
 30
0.0
  9
$PUCSORGBACK
 10
0.0
 20
0.0
 30
0.0
  9
$USERI1
 70
     0
  9
$USERI2
 70
     0
  9
$USERI3
 70
     0
  9
$USERI4
 70
     0
  9
$USERI5
 70
     0
  9
$USERR1
 40
0.0
  9
$USERR2
 40
0.0
  9
$USERR3
 40
0.0
  9
$USERR4
 40
0.0
  9
$USERR5
 40
0.0
  9
$WORLDVIEW
 70
     1
  9
$SHADEDGE
 70
     3
  9
$SHADEDIF
 70
    70
  9
$TILEMODE
 70
     1
  9
$MAXACTVP
 70
    64
  9
$PINSBASE
 10
0.0
 20
0.0
 30
0.0
  9
$PLIMCHECK
 70
     0
  9
$PEXTMIN
 10
0.0
 20
0.0
 30
0.0
  9
$PEXTMAX
 10
0.0
 20
0.0
 30
0.0
  9
$PLIMMIN
 10
-7.5
 20
-20.0
  9
$PLIMMAX
 10
412.5
 20
277.0
  9
$UNITMODE
 70
     0
  9
$VISRETAIN
 70
     0
  9
$PLINEGEN
 70
     1
  9
$PSLTSCALE
 70
     1
  9
$TREEDEPTH
 70
  3020
  9
$CMLSTYLE
  2
Standard
  9
$CMLJUST
 70
     0
  9
$CMLSCALE
 40
1.0
  9
$PROXYGRAPHICS
 70
     0
  9
$MEASUREMENT
 70
     1
  9
$CELWEIGHT
370
    -1
  9
$ENDCAPS
280
     0
  9
$JOINSTYLE
280
     0
  9
$LWDISPLAY
290
     1
  9
$INSUNITS
 70
     4
  9
$HYPERLINKBASE
  1

  9
$STYLESHEET
  1

  9
$XEDIT
290
     1
  9
$CEPSNTYPE
380
     0
  9
$PSTYLEMODE
290
     1
  9
$FINGERPRINTGUID
  2

  9
$VERSIONGUID
  2

  9
$EXTNAMES
290
     1
  9
$PSVPSCALE
 40
0.0
  9
$OLESTARTUP
290
     0
  9
$SORTENTS
280
   127
  9
$INDEXCTL
280
     0
  9
$HIDETEXT
280
     1
  9
$XCLIPFRAME
290
     0
  9
$HALOGAP
280
     0
  9
$OBSCOLOR
 70
   257
  9
$OBSLTYPE
280
     0
  9
$INTERSECTIONDISPLAY
280
     0
  9
$INTERSECTIONCOLOR
 70
   257
  9
$DIMASSOC
280
     2
  9
$PROJECTNAME
  1

  9
$CAMERADISPLAY
290
     0
  9
$LENSLENGTH
 40
50.0
  9
$CAMERAHEIGHT
 40
0.0
  9
$STEPSPERSEC
 40
2.0
  9
$STEPSIZE
 40
6.0
  9
$3DDWFPREC
 40
2.0
  9
$PSOLWIDTH
 40
0.25
  9
$PSOLHEIGHT
 40
4.0
  9
$LOFTANG1
 40
1.570796326794897
  9
$LOFTANG2
 40
1.570796326794897
  9
$LOFTMAG1
 40
0.0
  9
$LOFTMAG2
 40
0.0
  9
$LOFTPARAM
 70
     7
  9
$LOFTNORMALS
280
     1
  9
$LATITUDE
 40
37.795
  9
$LONGITUDE
 40
-122.394
  9
$NORTHDIRECTION
 40
0.0
  9
$TIMEZONE
 70
 -8000
  9
$LIGHTGLYPHDISPLAY
280
     1
  9
$TILEMODELIGHTSYNCH
280
     1
  9
$SOLIDHIST
280
     1
  9
$SHOWHIST
280
     1
  9
$DWFFRAME
280
     2
  9
$DGNFRAME
280
     2
  9
$REALWORLDSCALE
290
     1
  9
$INTERFERECOLOR
 62
   256
  9
$CSHADOW
280
     0
  9
$SHADOWPLANELOCATION
 40
0.0
  0
ENDSEC
  0
SECTION
  2
CLASSES
  0
CLASS
  1
LWPOLYLINE
  2
AcDbPolyline
  3
ObjectDBX Classes
 90
        0
 91
        1
280
     0
281
     1
  0
CLASS
  1
IMAGE
  2
AcDbRasterImage
  3
ISM
 90
      127
 91
        5
280
     0
281
     1
  0
CLASS
  1
OLE2FRAME
  2
AcDbOle2Frame
  3
ObjectDBX Classes
 90
        0
 91
        1
280
     0
281
     1
  0
CLASS
  1
HATCH
  2
AcDbHatch
  3
ObjectDBX Classes
 90
        0
 91
        1
280
     0
281
     1
  0
CLASS
  1
DICTIONARYVAR
  2
AcDbDictionaryVar
  3
ObjectDBX Classes
 90
        0
 91
        4
280
     0
281
     0
  0
CLASS
  1
RASTERVARIABLES
  2
AcDbRasterVariables
  3
ISM
 90
        0
 91
        4
280
     0
281
     0
  0
CLASS
  1
IMAGEDEF
  2
AcDbRasterImageDef
  3
ISM
 90
        0
 91
        4
280
     0
281
     0
  0
CLASS
  1
IMAGEDEF_REACTOR
  2
AcDbRasterImageDefReactor
  3
ISM
 90
        1
 91
        4
280
     0
281
     0
  0
CLASS
  1
IDBUFFER
  2
AcDbIdBuffer
  3
ObjectDBX Classes
 90
        0
 91
        4
280
     0
281
     0
  0
CLASS
  1
SPATIAL_FILTER
  2
AcDbSpatialFilter
  3
ObjectDBX Classes
 90
        0
 91
        4
280
     0
281
     0
  0
CLASS
  1
XRECORD
  2
AcDbXrecord
  3
ObjectDBX Classes
 90
        0
 91
        1
280
     0
281
     0
  0
CLASS
  1
SORTENTSTABLE
  2
AcDbSortentsTable
  3
ObjectDBX Classes
 90
        0
 91
        4
280
     0
281
     0
  0
CLASS
  1
LAYER_INDEX
  2
AcDbLayerIndex
  3
ObjectDBX Classes
 90
        0
 91
        4
280
     0
281
     0
  0
CLASS
  1
SPATIAL_INDEX
  2
AcDbSpatialIndex
  3
AutoCAD 2000
 90
        0
 91
        4
280
     0
281
     0
  0
CLASS
  1
OBJECT_PTR
  2
CAseDLPNTableRecord
  3
ASE-LPNTableRecord
 90
        1
 91
        4
280
     0
281
     0
  0
CLASS
  1
LAYOUT
  2
AcDbLayout
  3
ObjectDBX Classes
 90
        0
 91
        1
280
     0
281
     0
  0
CLASS
  1
PLOTSETTINGS
  2
AcDbPlotSettings
  3
ObjectDBX Classes
 90
        0
 91
        4
280
     0
281
     0
  0
CLASS
  1
ACDBDICTIONARYWDFLT
  2
AcDbDictionaryWithDefault
  3
ObjectDBX Classes
 90
        0
 91
        4
280
     0
281
     0
  0
CLASS
  1
ACDBPLACEHOLDER
  2
AcDbPlaceHolder
  3
ObjectDBX Classes
 90
        0
 91
        1
280
     0
281
     0
  0
CLASS
  1
SCALE
  2
AcDbScale
  3
ObjectDBX Classes
 90
     1153
 91
        4
280
     0
281
     0
  0
CLASS
  1
MATERIAL
  2
AcDbMaterial
  3
ObjectDBX Classes
 90
     1153
 91
        4
280
     0
281
     0
  0
CLASS
  1
VISUALSTYLE
  2
AcDbVisualStyle
  3
ObjectDBX Classes
 90
     4095
 91
        4
280
     0
281
     0
  0
CLASS
  1
TABLESTYLE
  2
AcDbTableStyle
  3
ObjectDBX Classes
 90
     4095
 91
        4
280
     0
281
     0
  0
CLASS
  1
DIMASSOC
  2
AcDbDimAssoc
  3
"AcDbDimAssoc|Product Desc:     AcDim ARX App For Dimension|Company:          Autodesk, Inc.|WEB Address:      www.autodesk.com"
 90
        0
 91
        4
280
     0
281
     0
  0
CLASS
  1
CELLSTYLEMAP
  2
AcDbCellStyleMap
  3
ObjectDBX Classes
 90
     1152
 91
        4
280
     0
281
     0
  0
CLASS
  1
SUN
  2
AcDbSun
  3
SCENEOE
 90
     1153
 91
        4
280
     0
281
     0
  0
CLASS
  1
MLEADERSTYLE
  2
AcDbMLeaderStyle
  3
ACDB_MLEADERSTYLE_CLASS
 90
     4095
 91
        4
280
     0
281
     0
  0
CLASS
  1
FIELD
  2
AcDbField
  3
ObjectDBX Classes
 90
     1152
 91
        4
280
     0
281
     0
  0
CLASS
  1
FIELDLIST
  2
AcDbFieldList
  3
ObjectDBX Classes
 90
     1152
 91
        4
280
     0
281
     0
  0
ENDSEC
  0
SECTION
  2
TABLES
  0
TABLE
  2
VPORT
  5
7
330
0
100
AcDbSymbolTable
 70
     1
  0
VPORT
  5
15
330
7
100
AcDbSymbolTableRecord
100
AcDbViewportTableRecord
  2
*ACTIVE
 70
     0
 10
0.0
 20
0.0
 11
1.0
 21
1.0
 12
296.9999999999999
 22
210.0
 13
0.0
 23
0.0
 14
1.0
 24
1.0
 15
0.0
 25
0.0
 16
0.0
 26
0.0
 36
1.0
 17
0.0
 27
0.0
 37
0.0
 40
428.4
 41
2.339705882352941
 42
50.0
 43
0.0
 44
0.0
 50
0.0
 51
0.0
 71
    16
 72
  2000
 73
     1
 74
     1
 75
     0
 76
     0
 77
     0
 78
     0
281
     0
 65
     1
110
0.0
120
0.0
130
0.0
111
1.0
121
0.0
131
0.0
112
0.0
122
1.0
132
0.0
 79
     0
146
0.0
348
26C
 60
     3
 61
     5
292
     1
282
     1
141
0.0
142
0.0
 63
   256
361
F1A
  0
ENDTAB
  0
TABLE
  2
LTYPE
  5
4
330
0
100
AcDbSymbolTable
 70
     7
  0
LTYPE
  5
11
330
4
100
AcDbSymbolTableRecord
100
AcDbLinetypeTableRecord
  2
ByBlock
 70
     0
  3

 72
    65
 73
     0
 40
0.0
  0
LTYPE
  5
12
330
4
100
AcDbSymbolTableRecord
100
AcDbLinetypeTableRecord
  2
ByLayer
 70
     0
  3
Solid line
 72
    65
 73
     0
 40
0.0
  0
LTYPE
  5
13
330
4
100
AcDbSymbolTableRecord
100
AcDbLinetypeTableRecord
  2
Continuous
 70
     0
  3
Solid line
 72
    65
 73
     0
 40
0.0
  0
LTYPE
  5
3B
330
4
100
AcDbSymbolTableRecord
100
AcDbLinetypeTableRecord
  2
STYLE_02
 70
     0
  3

 72
    65
 73
     2
 40
0.6944250000000001
 49
0.48607
 74
     0
 49
-0.2083550000000001
 74
     0
  0
LTYPE
  5
90E
330
4
100
AcDbSymbolTableRecord
100
AcDbLinetypeTableRecord
  2
DASHED1
 70
     0
  3
--  --  --  --  --  --  --  --  
 72
    65
 73
     2
 40
2.5
 49
1.25
 74
     0
 49
-1.25
 74
     0
  0
LTYPE
  5
5249
330
4
100
AcDbSymbolTableRecord
100
AcDbLinetypeTableRecord
  2
CENTER
 70
     0
  3
----------  --  ----------  --  
 72
    65
 73
     4
 40
20.0
 49
12.5
 74
     0
 49
-2.5
 74
     0
 49
2.5
 74
     0
 49
-2.5
 74
     0
  0
LTYPE
  5
524A
330
4
100
AcDbSymbolTableRecord
100
AcDbLinetypeTableRecord
  2
HIDDEN
 70
     0
  3
Hidden _ _ _ _ _ _ _ _ _ _ _ _ _ _ _ _ _ _ _ _ 
 72
    65
 73
     2
 40
9.524999999999999
 49
6.35
 74
     0
 49
-3.175
 74
     0
  0
LTYPE
  5
5901
330
4
100
AcDbSymbolTableRecord
100
AcDbLinetypeTableRecord
  2
HIDDEN2
 70
     0
  3
Hidden (.5x) _ _ _ _ _ _ _ _ _ _ _ _ _ _ _ _ _ 
 72
    65
 73
     2
 40
4.762499999999999
 49
3.175
 74
     0
 49
-1.5875
 74
     0
  0
LTYPE
  5
5902
330
4
100
AcDbSymbolTableRecord
100
AcDbLinetypeTableRecord
  2
DASHDOT
 70
     0
  3
Dash dot __ . __ . __ . __ . __ . __ . __ . __
 72
    65
 73
     4
 40
25.4
 49
12.7
 74
     0
 49
-6.35
 74
     0
 49
0.0
 74
     0
 49
-6.35
 74
     0
  0
ENDTAB
  0
TABLE
  2
LAYER
  5
2
102
{ACAD_XDICTIONARY
360
2E1
102
}
330
0
100
AcDbSymbolTable
 70
    16
  0
LAYER
  5
14
330
2
100
AcDbSymbolTableRecord
100
AcDbLayerTableRecord
  2
0
 70
     0
 62
     7
  6
Continuous
370
    -3
390
1D
347
266
  0
LAYER
  5
4A
330
2
100
AcDbSymbolTableRecord
100
AcDbLayerTableRecord
  2
Defpoints
 70
     0
 62
     7
  6
Continuous
290
     0
370
    -3
390
1D
347
266
  0
LAYER
  5
4D
330
2
100
AcDbSymbolTableRecord
100
AcDbLayerTableRecord
  2
MODEL
 70
     0
 62
     7
  6
Continuous
370
    20
390
1D
347
266
  0
LAYER
  5
667
330
2
100
AcDbSymbolTableRecord
100
AcDbLayerTableRecord
  2
レイヤー 1
 70
     0
 62
     7
  6
Continuous
370
    -3
390
1D
347
266
  0
LAYER
  5
13AF
330
2
100
AcDbSymbolTableRecord
100
AcDbLayerTableRecord
  2
DIM
 70
     0
 62
     7
  6
Continuous
370
    13
390
1D
347
266
1001
AcAecLayerStandard
1000

1000

  0
LAYER
  5
523E
330
2
100
AcDbSymbolTableRecord
100
AcDbLayerTableRecord
  2
寸法
 70
     0
 62
     7
  6
Continuous
370
    13
390
1D
347
266
1001
AcAecLayerStandard
1000

1000

  0
LAYER
  5
5241
330
2
100
AcDbSymbolTableRecord
100
AcDbLayerTableRecord
  2
モデル
 70
     0
 62
     7
  6
Continuous
370
    20
390
1D
347
266
1001
AcAecLayerStandard
1000

1000

  0
LAYER
  5
5242
330
2
100
AcDbSymbolTableRecord
100
AcDbLayerTableRecord
  2
テンプレート
 70
     0
 62
     7
  6
Continuous
370
    20
390
1D
347
266
1001
AcAecLayerStandard
1000

1000

  0
LAYER
  5
5243
330
2
100
AcDbSymbolTableRecord
100
AcDbLayerTableRecord
  2
TFORMLOGO
 70
     0
 62
     7
  6
Continuous
370
    20
390
1D
347
266
  0
LAYER
  5
5244
330
2
100
AcDbSymbolTableRecord
100
AcDbLayerTableRecord
  2
PRINT BORDER
 70
     0
 62
     4
  6
Continuous
290
     0
370
    -3
390
1D
347
266
1001
AcAecLayerStandard
1000

1000

  0
LAYER
  5
5245
330
2
100
AcDbSymbolTableRecord
100
AcDbLayerTableRecord
  2
SPACER
 70
     0
 62
     3
  6
Continuous
290
     0
370
    -3
390
1D
347
266
1001
AcAecLayerStandard
1000

1000

  0
LAYER
  5
5246
330
2
100
AcDbSymbolTableRecord
100
AcDbLayerTableRecord
  2
_0-1_
 70
     0
 62
     7
  6
Continuous
290
     0
370
    -3
390
1D
347
266
  0
LAYER
  5
5247
330
2
100
AcDbSymbolTableRecord
100
AcDbLayerTableRecord
  2
CutoutUnderlay
 70
     0
 62
   254
  6
Continuous
370
    20
390
1D
347
266
1001
AcAecLayerStandard
1000

1000

  0
LAYER
  5
5248
330
2
100
AcDbSymbolTableRecord
100
AcDbLayerTableRecord
  2
CutoutOverlay
 70
     0
 62
     7
  6
Continuous
370
    20
390
1D
347
266
1001
AcAecLayerStandard
1000

1000

  0
LAYER
  5
58FE
330
2
100
AcDbSymbolTableRecord
100
AcDbLayerTableRecord
  2
_____1
 70
     0
 62
     7
  6
Continuous
370
    -3
390
1D
347
266
  0
LAYER
  5
5900
330
2
100
AcDbSymbolTableRecord
100
AcDbLayerTableRecord
  2
101
 70
     0
 62
     2
  6
Continuous
370
    -3
390
1D
347
266
  0
ENDTAB
  0
TABLE
  2
STYLE
  5
3
330
0
100
AcDbSymbolTable
 70
     2
  0
STYLE
  5
17
330
3
100
AcDbSymbolTableRecord
100
AcDbTextStyleTableRecord
  2
Standard
 70
     0
 40
0.0
 41
1.0
 50
0.0
 71
     0
 42
2.5
  3
txt
  4
BIGFONT.SHX
  0
STYLE
  5
39
330
3
100
AcDbSymbolTableRecord
100
AcDbTextStyleTableRecord
  2
ＭＳ ゴシック
 70
     0
 40
0.0
 41
1.0
 50
0.0
 71
     0
 42
2.5
  3
msgothic.ttc
  4
ＭＳ ゴシック
1001
ACAD
1000
ＭＳ ゴシック
1071
        0
  0
ENDTAB
  0
TABLE
  2
VIEW
  5
5
330
0
100
AcDbSymbolTable
 70
     0
  0
ENDTAB
  0
TABLE
  2
UCS
  5
6
330
0
100
AcDbSymbolTable
 70
     0
  0
ENDTAB
  0
TABLE
  2
APPID
  5
8
330
0
100
AcDbSymbolTable
 70
     3
  0
APPID
  5
16
330
8
100
AcDbSymbolTableRecord
100
AcDbRegAppTableRecord
  2
ACAD
 70
     0
  0
APPID
  5
7AC
330
8
100
AcDbSymbolTableRecord
100
AcDbRegAppTableRecord
  2
AcAecLayerStandard
 70
     0
  0
APPID
  5
57BF
330
8
100
AcDbSymbolTableRecord
100
AcDbRegAppTableRecord
  2
ACAD_MLEADERVER
 70
     0
  0
ENDTAB
  0
TABLE
  2
DIMSTYLE
  5
9
330
0
100
AcDbSymbolTable
 70
     2
100
AcDbDimStyleTable
  0
DIMSTYLE
105
18
330
9
100
AcDbSymbolTableRecord
100
AcDbDimStyleTableRecord
  2
Standard
 70
     0
178
     0
340
17
  0
DIMSTYLE
105
57
102
{ACAD_REACTORS
330
5A72
330
5A7F
330
5A8E
330
5A8F
330
5A90
330
5AB8
330
5B12
330
5B2C
330
5BAC
330
5BB9
330
5BCA
330
5BCB
330
5BCC
330
5BCE
330
5BD1
330
5CD6
102
}
330
9
100
AcDbSymbolTableRecord
100
AcDbDimStyleTableRecord
  2
tfrom線あり
 70
     0
  3
<>
  4
[]
 41
1.5
 42
5.0
 43
0.9999999999999999
 44
0.0
 73
     0
 74
     0
 77
     1
 78
    11
140
5.0
141
0.0
143
1.0
147
2.0
171
     1
174
     1
178
     0
179
     2
271
     0
272
     1
276
     2
284
    11
285
    11
286
    11
289
     0
340
39
341
4E
342
4E
  0
ENDTAB
  0
TABLE
  2
BLOCK_RECORD
  5
1
330
0
100
AcDbSymbolTable
 70
    51
  0
BLOCK_RECORD
  5
A
102
{ACAD_XDICTIONARY
360
582D
102
}
330
1
100
AcDbSymbolTableRecord
100
AcDbBlockTableRecord
  2
*MODEL_SPACE
340
20
 70
     0
280
     1
281
     0
  0
BLOCK_RECORD
  5
B
330
1
100
AcDbSymbolTableRecord
100
AcDbBlockTableRecord
  2
*PAPER_SPACE
340
21
 70
     0
280
     1
281
     0
  0
BLOCK_RECORD
  5
4E
330
1
100
AcDbSymbolTableRecord
100
AcDbBlockTableRecord
  2
_DOT
340
0
102
{BLKREFS
331
4A75
331
4A76
331
4AA2
331
4AA3
331
4ADB
331
4ADC
331
4CB4
331
4CB5
331
4EFA
331
4EFB
331
5084
331
5085
331
5093
331
5094
331
51A7
331
51A8
331
52C9
331
52CA
331
52D3
331
52D4
331
52E0
331
52E1
331
52ED
331
52EE
331
52FC
331
52FD
331
5358
331
5359
331
538D
331
538E
331
5399
331
539A
331
53A6
331
53A7
331
5431
331
5432
331
55C4
331
55C5
331
55D0
331
55D1
331
56CF
331
56D0
331
56E1
331
56E2
331
5766
331
5767
331
5778
331
5779
331
57A4
331
57A5
331
57B0
331
57B1
331
5A6C
331
5A6D
331
5A79
331
5A7A
331
5A88
331
5A89
331
5A97
331
5A98
331
5AA3
331
5AA4
331
5AAF
331
5AB0
331
5ABF
331
5AC0
331
5AE0
331
5AE1
331
5B19
331
5B1A
331
5B26
331
5B27
331
5B33
331
5B34
331
5B72
331
5B73
331
5BB3
331
5BB4
331
5BC0
331
5BC1
331
5BE0
331
5BE1
331
5BEC
331
5BED
331
5BF8
331
5BF9
331
5CD1
331
5CD0
331
5CE0
331
5CDF
102
}
 70
     0
280
     1
281
     0
  0
BLOCK_RECORD
  5
690
330
1
100
AcDbSymbolTableRecord
100
AcDbBlockTableRecord
  2
block 3
340
0
102
{BLKREFS
331
528B
102
}
 70
     0
280
     1
281
     0
  0
BLOCK_RECORD
  5
693
330
1
100
AcDbSymbolTableRecord
100
AcDbBlockTableRecord
  2
block 4
340
0
102
{BLKREFS
331
692
102
}
 70
     0
280
     1
281
     0
  0
BLOCK_RECORD
  5
6A2
330
1
100
AcDbSymbolTableRecord
100
AcDbBlockTableRecord
  2
block 5
340
0
102
{BLKREFS
331
6A1
102
}
 70
     0
280
     1
281
     0
  0
BLOCK_RECORD
  5
4A6F
330
1
100
AcDbSymbolTableRecord
100
AcDbBlockTableRecord
  2
*D4
340
0
 70
     0
280
     1
281
     0
  0
BLOCK_RECORD
  5
4A9C
330
1
100
AcDbSymbolTableRecord
100
AcDbBlockTableRecord
  2
*D5
340
0
 70
     0
280
     1
281
     0
  0
BLOCK_RECORD
  5
4AD5
330
1
100
AcDbSymbolTableRecord
100
AcDbBlockTableRecord
  2
*D6
340
0
 70
     0
280
     1
281
     0
  0
BLOCK_RECORD
  5
4CAE
330
1
100
AcDbSymbolTableRecord
100
AcDbBlockTableRecord
  2
*D7
340
0
 70
     0
280
     1
281
     0
  0
BLOCK_RECORD
  5
4EF4
330
1
100
AcDbSymbolTableRecord
100
AcDbBlockTableRecord
  2
*D8
340
0
 70
     0
280
     1
281
     0
  0
BLOCK_RECORD
  5
507E
330
1
100
AcDbSymbolTableRecord
100
AcDbBlockTableRecord
  2
*D9
340
0
 70
     0
280
     1
281
     0
  0
BLOCK_RECORD
  5
508D
330
1
100
AcDbSymbolTableRecord
100
AcDbBlockTableRecord
  2
*D10
340
0
 70
     0
280
     1
281
     0
  0
BLOCK_RECORD
  5
51A1
330
1
100
AcDbSymbolTableRecord
100
AcDbBlockTableRecord
  2
*D11
340
0
 70
     0
280
     1
281
     0
  0
BLOCK_RECORD
  5
5286
330
1
100
AcDbSymbolTableRecord
100
AcDbBlockTableRecord
  2
名称未設定-1
340
0
102
{BLKREFS
331
5462
102
}
 70
     1
280
     1
281
     0
  0
BLOCK_RECORD
  5
5289
330
1
100
AcDbSymbolTableRecord
100
AcDbBlockTableRecord
  2
block 2
340
0
102
{BLKREFS
331
5288
102
}
 70
     0
280
     1
281
     0
  0
BLOCK_RECORD
  5
52C2
330
1
100
AcDbSymbolTableRecord
100
AcDbBlockTableRecord
  2
*D14
340
0
 70
     0
280
     1
281
     0
  0
BLOCK_RECORD
  5
52CE
330
1
100
AcDbSymbolTableRecord
100
AcDbBlockTableRecord
  2
*D15
340
0
 70
     0
280
     1
281
     0
  0
BLOCK_RECORD
  5
52DB
330
1
100
AcDbSymbolTableRecord
100
AcDbBlockTableRecord
  2
*D16
340
0
 70
     0
280
     1
281
     0
  0
BLOCK_RECORD
  5
52E8
330
1
100
AcDbSymbolTableRecord
100
AcDbBlockTableRecord
  2
*D17
340
0
 70
     0
280
     1
281
     0
  0
BLOCK_RECORD
  5
52F7
330
1
100
AcDbSymbolTableRecord
100
AcDbBlockTableRecord
  2
*D18
340
0
 70
     0
280
     1
281
     0
  0
BLOCK_RECORD
  5
5353
330
1
100
AcDbSymbolTableRecord
100
AcDbBlockTableRecord
  2
*D19
340
0
 70
     0
280
     1
281
     0
  0
BLOCK_RECORD
  5
5387
330
1
100
AcDbSymbolTableRecord
100
AcDbBlockTableRecord
  2
*D20
340
0
 70
     0
280
     1
281
     0
  0
BLOCK_RECORD
  5
5394
330
1
100
AcDbSymbolTableRecord
100
AcDbBlockTableRecord
  2
*D21
340
0
 70
     0
280
     1
281
     0
  0
BLOCK_RECORD
  5
53A1
330
1
100
AcDbSymbolTableRecord
100
AcDbBlockTableRecord
  2
*D22
340
0
 70
     0
280
     1
281
     0
  0
BLOCK_RECORD
  5
542C
330
1
100
AcDbSymbolTableRecord
100
AcDbBlockTableRecord
  2
*D23
340
0
 70
     0
280
     1
281
     0
  0
BLOCK_RECORD
  5
55BE
330
1
100
AcDbSymbolTableRecord
100
AcDbBlockTableRecord
  2
*D24
340
0
 70
     0
280
     1
281
     0
  0
BLOCK_RECORD
  5
55CA
330
1
100
AcDbSymbolTableRecord
100
AcDbBlockTableRecord
  2
*D25
340
0
 70
     0
280
     1
281
     0
  0
BLOCK_RECORD
  5
56C9
330
1
100
AcDbSymbolTableRecord
100
AcDbBlockTableRecord
  2
*D26
340
0
 70
     0
280
     1
281
     0
  0
BLOCK_RECORD
  5
56DA
330
1
100
AcDbSymbolTableRecord
100
AcDbBlockTableRecord
  2
*D27
340
0
 70
     0
280
     1
281
     0
  0
BLOCK_RECORD
  5
5761
330
1
100
AcDbSymbolTableRecord
100
AcDbBlockTableRecord
  2
*D28
340
0
 70
     0
280
     1
281
     0
  0
BLOCK_RECORD
  5
5773
330
1
100
AcDbSymbolTableRecord
100
AcDbBlockTableRecord
  2
*D29
340
0
 70
     0
280
     1
281
     0
  0
BLOCK_RECORD
  5
579E
330
1
100
AcDbSymbolTableRecord
100
AcDbBlockTableRecord
  2
*D30
340
0
 70
     0
280
     1
281
     0
  0
BLOCK_RECORD
  5
57AA
330
1
100
AcDbSymbolTableRecord
100
AcDbBlockTableRecord
  2
*D31
340
0
 70
     0
280
     1
281
     0
  0
BLOCK_RECORD
  5
5A66
330
1
100
AcDbSymbolTableRecord
100
AcDbBlockTableRecord
  2
*D32
340
0
 70
     0
280
     1
281
     0
  0
BLOCK_RECORD
  5
5A73
330
1
100
AcDbSymbolTableRecord
100
AcDbBlockTableRecord
  2
*D33
340
0
 70
     0
280
     1
281
     0
  0
BLOCK_RECORD
  5
5A82
330
1
100
AcDbSymbolTableRecord
100
AcDbBlockTableRecord
  2
*D34
340
0
 70
     0
280
     1
281
     0
  0
BLOCK_RECORD
  5
5A91
330
1
100
AcDbSymbolTableRecord
100
AcDbBlockTableRecord
  2
*D35
340
0
 70
     0
280
     1
281
     0
  0
BLOCK_RECORD
  5
5A9D
330
1
100
AcDbSymbolTableRecord
100
AcDbBlockTableRecord
  2
*D36
340
0
 70
     0
280
     1
281
     0
  0
BLOCK_RECORD
  5
5AA9
330
1
100
AcDbSymbolTableRecord
100
AcDbBlockTableRecord
  2
*D37
340
0
 70
     0
280
     1
281
     0
  0
BLOCK_RECORD
  5
5AB9
330
1
100
AcDbSymbolTableRecord
100
AcDbBlockTableRecord
  2
*D38
340
0
 70
     0
280
     1
281
     0
  0
BLOCK_RECORD
  5
5ADA
330
1
100
AcDbSymbolTableRecord
100
AcDbBlockTableRecord
  2
*D39
340
0
 70
     0
280
     1
281
     0
  0
BLOCK_RECORD
  5
5B13
330
1
100
AcDbSymbolTableRecord
100
AcDbBlockTableRecord
  2
*D40
340
0
 70
     0
280
     1
281
     0
  0
BLOCK_RECORD
  5
5B20
330
1
100
AcDbSymbolTableRecord
100
AcDbBlockTableRecord
  2
*D41
340
0
 70
     0
280
     1
281
     0
  0
BLOCK_RECORD
  5
5B2D
330
1
100
AcDbSymbolTableRecord
100
AcDbBlockTableRecord
  2
*D42
340
0
 70
     0
280
     1
281
     0
  0
BLOCK_RECORD
  5
5B6C
330
1
100
AcDbSymbolTableRecord
100
AcDbBlockTableRecord
  2
*D43
340
0
 70
     0
280
     1
281
     0
  0
BLOCK_RECORD
  5
5BAD
330
1
100
AcDbSymbolTableRecord
100
AcDbBlockTableRecord
  2
*D44
340
0
 70
     0
280
     1
281
     0
  0
BLOCK_RECORD
  5
5BBA
330
1
100
AcDbSymbolTableRecord
100
AcDbBlockTableRecord
  2
*D45
340
0
 70
     0
280
     1
281
     0
  0
BLOCK_RECORD
  5
5BD8
330
1
100
AcDbSymbolTableRecord
100
AcDbBlockTableRecord
  2
*D46
340
0
 70
     0
280
     1
281
     0
  0
BLOCK_RECORD
  5
5BE6
330
1
100
AcDbSymbolTableRecord
100
AcDbBlockTableRecord
  2
*D47
340
0
 70
     0
280
     1
281
     0
  0
BLOCK_RECORD
  5
5BF2
330
1
100
AcDbSymbolTableRecord
100
AcDbBlockTableRecord
  2
*D48
340
0
 70
     0
280
     1
281
     0
  0
BLOCK_RECORD
  5
5CCA
330
1
100
AcDbSymbolTableRecord
100
AcDbBlockTableRecord
  2
*D49
340
0
 70
     0
280
     1
281
     0
  0
BLOCK_RECORD
  5
5CD9
330
1
100
AcDbSymbolTableRecord
100
AcDbBlockTableRecord
  2
*D50
340
0
 70
     0
280
     1
281
     0
  0
ENDTAB
  0
ENDSEC
  0
SECTION
  2
BLOCKS
  0
BLOCK
  5
D
330
A
100
AcDbEntity
  8
0
390
1D
100
AcDbBlockBegin
  2
*MODEL_SPACE
 70
     0
 10
0.0
 20
0.0
 30
0.0
  3
*MODEL_SPACE
  1
*MODEL_SPACE
  0
ENDBLK
  5
E
330
A
100
AcDbEntity
  8
0
390
1D
100
AcDbBlockEnd
  0
BLOCK
  5
F
330
B
100
AcDbEntity
 67
     1
  8
0
390
1D
100
AcDbBlockBegin
  2
*PAPER_SPACE
 70
     0
 10
0.0
 20
0.0
 30
0.0
  3
*PAPER_SPACE
  1
*PAPER_SPACE
  0
ENDBLK
  5
10
330
B
100
AcDbEntity
 67
     1
  8
0
390
1D
100
AcDbBlockEnd
  0
BLOCK
  5
5234
330
4E
100
AcDbEntity
  8
0
390
1D
100
AcDbBlockBegin
  2
_DOT
 70
     0
 10
0.0
 20
0.0
 30
0.0
  3
_DOT
  1
_DOT
  0
POLYLINE
  5
5236
330
4E
100
AcDbEntity
  8
0
  6
ByBlock
 62
     0
370
    -2
390
1D
100
AcDb2dPolyline
 66
     1
 10
0.0
 20
0.0
 30
0.0
 70
     1
 40
0.5
 41
0.5
  0
VERTEX
  5
5237
330
5236
100
AcDbEntity
  8
0
  6
ByBlock
 62
     0
370
    -2
390
1D
100
AcDbVertex
100
AcDb2dVertex
 10
-0.25
 20
0.0
 30
0.0
 42
1.0
  0
VERTEX
  5
5238
330
5236
100
AcDbEntity
  8
0
  6
ByBlock
 62
     0
370
    -2
390
1D
100
AcDbVertex
100
AcDb2dVertex
 10
0.25
 20
0.0
 30
0.0
 42
1.0
  0
SEQEND
  5
5239
330
5236
100
AcDbEntity
  8
0
390
1D
  0
LINE
  5
523A
330
4E
100
AcDbEntity
  8
0
  6
ByBlock
 62
     0
370
    -2
390
1D
100
AcDbLine
 10
-0.5
 20
0.0
 30
0.0
 11
-1.0
 21
0.0
 31
0.0
  0
ENDBLK
  5
523B
330
4E
100
AcDbEntity
  8
0
390
1D
100
AcDbBlockEnd
  0
BLOCK
  5
691
330
690
100
AcDbEntity
  8
0
100
AcDbBlockBegin
  2
block 3
 70
     0
 10
0.0
 20
0.0
 30
0.0
  3
block 3
  1
block 3
  0
INSERT
  5
692
330
690
100
AcDbEntity
  8
レイヤー 1
100
AcDbBlockReference
  2
block 4
 10
0.0
 20
0.0
 30
0.0
  0
ENDBLK
  5
6AF
330
690
100
AcDbEntity
  8
0
100
AcDbBlockEnd
  0
BLOCK
  5
694
330
693
100
AcDbEntity
  8
0
100
AcDbBlockBegin
  2
block 4
 70
     0
 10
0.0
 20
0.0
 30
0.0
  3
block 4
  1
block 4
  0
POLYLINE
  5
695
330
693
100
AcDbEntity
  8
レイヤー 1
370
     0
100
AcDb2dPolyline
 66
     1
 10
0.0
 20
0.0
 30
0.0
  0
VERTEX
  5
696
330
695
100
AcDbEntity
  8
レイヤー 1
370
     0
100
AcDbVertex
100
AcDb2dVertex
 10
83.79545727667795
 20
167.6444858234922
 30
0.0
  0
VERTEX
  5
697
330
695
100
AcDbEntity
  8
レイヤー 1
370
     0
100
AcDbVertex
100
AcDb2dVertex
 10
83.79545727667795
 20
159.7968976406313
 30
0.0
  0
VERTEX
  5
698
330
695
100
AcDbEntity
  8
レイヤー 1
370
     0
100
AcDbVertex
100
AcDb2dVertex
 10
71.3631329975216
 20
159.7968976406313
 30
0.0
  0
VERTEX
  5
699
330
695
100
AcDbEntity
  8
レイヤー 1
370
     0
100
AcDbVertex
100
AcDb2dVertex
 10
71.3631329975216
 20
127.8027915271048
 30
0.0
  0
VERTEX
  5
69A
330
695
100
AcDbEntity
  8
レイヤー 1
370
     0
100
AcDbVertex
100
AcDb2dVertex
 10
60.43011526263018
 20
127.8027915271048
 30
0.0
  0
VERTEX
  5
69B
330
695
100
AcDbEntity
  8
レイヤー 1
370
     0
100
AcDbVertex
100
AcDb2dVertex
 10
60.43011526263018
 20
159.7968976406313
 30
0.0
  0
VERTEX
  5
69C
330
695
100
AcDbEntity
  8
レイヤー 1
370
     0
100
AcDbVertex
100
AcDb2dVertex
 10
48.21793273020759
 20
159.7968976406313
 30
0.0
  0
VERTEX
  5
69D
330
695
100
AcDbEntity
  8
レイヤー 1
370
     0
100
AcDbVertex
100
AcDb2dVertex
 10
48.21793273020759
 20
167.6444858234922
 30
0.0
  0
VERTEX
  5
69E
330
695
100
AcDbEntity
  8
レイヤー 1
370
     0
100
AcDbVertex
100
AcDb2dVertex
 10
83.79545727667795
 20
167.6444858234922
 30
0.0
  0
SEQEND
  5
69F
330
695
100
AcDbEntity
  8
レイヤー 1
370
     0
  0
HATCH
  5
6A0
330
693
100
AcDbEntity
  8
レイヤー 1
 62
   250
420
  2234388
100
AcDbHatch
 10
0.0
 20
0.0
 30
0.0
210
0.0
220
0.0
230
1.0
  2
SOLID
 70
     1
 71
     0
 91
        1
 92
        1
 93
        8
 72
     1
 10
83.79545727667795
 20
167.6444858234922
 11
83.79545727667795
 21
159.7968976406313
 72
     1
 10
83.79545727667795
 20
159.7968976406313
 11
71.3631329975216
 21
159.7968976406313
 72
     1
 10
71.3631329975216
 20
159.7968976406313
 11
71.3631329975216
 21
127.8027915271048
 72
     1
 10
71.3631329975216
 20
127.8027915271048
 11
60.43011526263018
 21
127.8027915271048
 72
     1
 10
60.43011526263018
 20
127.8027915271048
 11
60.43011526263018
 21
159.7968976406313
 72
     1
 10
60.43011526263018
 20
159.7968976406313
 11
48.21793273020759
 21
159.7968976406313
 72
     1
 10
48.21793273020759
 20
159.7968976406313
 11
48.21793273020759
 21
167.6444858234922
 72
     1
 10
48.21793273020759
 20
167.6444858234922
 11
83.79545727667795
 21
167.6444858234922
 97
        0
 75
     2
 76
     1
 98
        0
  0
INSERT
  5
6A1
330
693
100
AcDbEntity
  8
レイヤー 1
100
AcDbBlockReference
  2
block 5
 10
0.0
 20
0.0
 30
0.0
  0
ENDBLK
  5
6AE
330
693
100
AcDbEntity
  8
0
100
AcDbBlockEnd
  0
BLOCK
  5
6A3
330
6A2
100
AcDbEntity
  8
0
100
AcDbBlockBegin
  2
block 5
 70
     0
 10
0.0
 20
0.0
 30
0.0
  3
block 5
  1
block 5
  0
SPLINE
  5
6A4
330
6A2
100
AcDbEntity
  8
レイヤー 1
370
     0
100
AcDbSpline
210
0.0
220
0.0
230
1.0
 70
    11
 71
     3
 72
    56
 73
    52
 74
     0
 42
0.000000001
 43
0.0000000001
 40
0.0
 40
0.0
 40
0.0
 40
0.0
 40
1.0
 40
1.0
 40
1.0
 40
2.0
 40
2.0
 40
2.0
 40
3.0
 40
3.0
 40
3.0
 40
4.0
 40
4.0
 40
4.0
 40
5.0
 40
5.0
 40
5.0
 40
6.0
 40
6.0
 40
6.0
 40
7.0
 40
7.0
 40
7.0
 40
8.0
 40
8.0
 40
8.0
 40
9.0
 40
9.0
 40
9.0
 40
10.0
 40
10.0
 40
10.0
 40
11.0
 40
11.0
 40
11.0
 40
12.0
 40
12.0
 40
12.0
 40
13.0
 40
13.0
 40
13.0
 40
14.0
 40
14.0
 40
14.0
 40
15.0
 40
15.0
 40
15.0
 40
16.0
 40
16.0
 40
16.0
 40
17.0
 40
17.0
 40
17.0
 40
17.0
 10
100.4504378777679
 20
166.69157178364
 30
0.0
 10
101.9848844191641
 20
167.1313385124438
 30
0.0
 10
103.9637485713373
 20
166.7649523658846
 30
0.0
 10
103.9637485713373
 20
166.7649523658846
 30
0.0
 10
103.9637485713373
 20
166.7649523658846
 30
0.0
 10
103.0132460999156
 20
163.911205638077
 30
0.0
 10
103.0132460999156
 20
163.911205638077
 30
0.0
 10
103.0132460999156
 20
163.911205638077
 30
0.0
 10
101.0674548862189
 20
164.3601018759394
 30
0.0
 10
99.57090442016032
 20
163.1805004036133
 30
0.0
 10
98.40508333886608
 20
162.258247733807
 30
0.0
 10
97.65301849830304
 20
159.804132345923
 30
0.0
 10
97.3598406791005
 20
158.8699940888517
 30
0.0
 10
97.3598406791005
 20
158.8699940888517
 30
0.0
 10
96.07137411762282
 20
154.9119212747295
 30
0.0
 10
96.07137411762282
 20
154.9119212747295
 30
0.0
 10
96.07137411762282
 20
154.9119212747295
 30
0.0
 10
100.3012651448482
 20
154.9119212747295
 30
0.0
 10
100.3012651448482
 20
154.9119212747295
 30
0.0
 10
100.3012651448482
 20
154.9119212747295
 30
0.0
 10
99.64152892419852
 20
152.4199098115079
 30
0.0
 10
99.64152892419852
 20
152.4199098115079
 30
0.0
 10
99.64152892419852
 20
152.4199098115079
 30
0.0
 10
95.38097652692731
 20
152.4199098115079
 30
0.0
 10
95.38097652692731
 20
152.4199098115079
 30
0.0
 10
95.38097652692731
 20
152.4199098115079
 30
0.0
 10
87.75353009080013
 20
127.8027915271048
 30
0.0
 10
87.75353009080013
 20
127.8027915271048
 30
0.0
 10
87.75353009080013
 20
127.8027915271048
 30
0.0
 10
85.36538832498108
 20
127.8027915271048
 30
0.0
 10
85.36538832498108
 20
127.8027915271048
 30
0.0
 10
85.36538832498108
 20
127.8027915271048
 30
0.0
 10
93.00006946639998
 20
152.4199098115079
 30
0.0
 10
93.00006946639998
 20
152.4199098115079
 30
0.0
 10
93.00006946639998
 20
152.4199098115079
 30
0.0
 10
89.85297266450198
 20
152.4199098115079
 30
0.0
 10
89.85297266450198
 20
152.4199098115079
 30
0.0
 10
89.85297266450198
 20
152.4199098115079
 30
0.0
 10
90.51270888515164
 20
154.9119212747295
 30
0.0
 10
90.51270888515164
 20
154.9119212747295
 30
0.0
 10
90.51270888515164
 20
154.9119212747295
 30
0.0
 10
93.6904670570955
 20
154.9119212747295
 30
0.0
 10
93.6904670570955
 20
154.9119212747295
 30
0.0
 10
93.6904670570955
 20
154.9119212747295
 30
0.0
 10
94.81598049462158
 20
158.3616699146644
 30
0.0
 10
94.81598049462158
 20
158.3616699146644
 30
0.0
 10
95.7237637538445
 20
161.2605474231013
 30
0.0
 10
96.4968436907311
 20
162.8139420021662
 30
0.0
 10
97.15657991138076
 20
163.9844139654337
 30
0.0
 10
97.81183750494507
 20
165.1523021053827
 30
0.0
 10
99.1047826935081
 20
166.3084769129547
 30
0.0
 10
100.4504378777679
 20
166.69157178364
 30
0.0
  0
HATCH
  5
6A5
330
6A2
100
AcDbEntity
  8
レイヤー 1
 62
   250
420
  2234388
100
AcDbHatch
 10
0.0
 20
0.0
 30
0.0
210
0.0
220
0.0
230
1.0
  2
SOLID
 70
     1
 71
     0
 91
        1
 92
        1
 93
        1
 72
     4
 94
        3
 73
     0
 74
     1
 95
       56
 96
       52
 40
0.0
 40
0.0
 40
0.0
 40
0.0
 40
1.0
 40
1.0
 40
1.0
 40
2.0
 40
2.0
 40
2.0
 40
3.0
 40
3.0
 40
3.0
 40
4.0
 40
4.0
 40
4.0
 40
5.0
 40
5.0
 40
5.0
 40
6.0
 40
6.0
 40
6.0
 40
7.0
 40
7.0
 40
7.0
 40
8.0
 40
8.0
 40
8.0
 40
9.0
 40
9.0
 40
9.0
 40
10.0
 40
10.0
 40
10.0
 40
11.0
 40
11.0
 40
11.0
 40
12.0
 40
12.0
 40
12.0
 40
13.0
 40
13.0
 40
13.0
 40
14.0
 40
14.0
 40
14.0
 40
15.0
 40
15.0
 40
15.0
 40
16.0
 40
16.0
 40
16.0
 40
17.0
 40
17.0
 40
17.0
 40
17.0
 10
100.4504378777679
 20
166.69157178364
 10
101.9848844191641
 20
167.1313385124438
 10
103.9637485713373
 20
166.7649523658846
 10
103.9637485713373
 20
166.7649523658846
 10
103.9637485713373
 20
166.7649523658846
 10
103.0132460999156
 20
163.911205638077
 10
103.0132460999156
 20
163.911205638077
 10
103.0132460999156
 20
163.911205638077
 10
101.0674548862189
 20
164.3601018759394
 10
99.57090442016032
 20
163.1805004036133
 10
98.40508333886608
 20
162.258247733807
 10
97.65301849830304
 20
159.804132345923
 10
97.3598406791005
 20
158.8699940888517
 10
97.3598406791005
 20
158.8699940888517
 10
96.07137411762282
 20
154.9119212747295
 10
96.07137411762282
 20
154.9119212747295
 10
96.07137411762282
 20
154.9119212747295
 10
100.3012651448482
 20
154.9119212747295
 10
100.3012651448482
 20
154.9119212747295
 10
100.3012651448482
 20
154.9119212747295
 10
99.64152892419852
 20
152.4199098115079
 10
99.64152892419852
 20
152.4199098115079
 10
99.64152892419852
 20
152.4199098115079
 10
95.38097652692731
 20
152.4199098115079
 10
95.38097652692731
 20
152.4199098115079
 10
95.38097652692731
 20
152.4199098115079
 10
87.75353009080013
 20
127.8027915271048
 10
87.75353009080013
 20
127.8027915271048
 10
87.75353009080013
 20
127.8027915271048
 10
85.36538832498108
 20
127.8027915271048
 10
85.36538832498108
 20
127.8027915271048
 10
85.36538832498108
 20
127.8027915271048
 10
93.00006946639998
 20
152.4199098115079
 10
93.00006946639998
 20
152.4199098115079
 10
93.00006946639998
 20
152.4199098115079
 10
89.85297266450198
 20
152.4199098115079
 10
89.85297266450198
 20
152.4199098115079
 10
89.85297266450198
 20
152.4199098115079
 10
90.51270888515164
 20
154.9119212747295
 10
90.51270888515164
 20
154.9119212747295
 10
90.51270888515164
 20
154.9119212747295
 10
93.6904670570955
 20
154.9119212747295
 10
93.6904670570955
 20
154.9119212747295
 10
93.6904670570955
 20
154.9119212747295
 10
94.81598049462158
 20
158.3616699146644
 10
94.81598049462158
 20
158.3616699146644
 10
95.7237637538445
 20
161.2605474231013
 10
96.4968436907311
 20
162.8139420021662
 10
97.15657991138076
 20
163.9844139654337
 10
97.81183750494507
 20
165.1523021053827
 10
99.1047826935081
 20
166.3084769129547
 10
100.4504378777679
 20
166.69157178364
 97
        0
 75
     2
 76
     1
 98
        0
  0
SPLINE
  5
6A6
330
6A2
100
AcDbEntity
  8
レイヤー 1
370
     0
100
AcDbSpline
210
0.0
220
0.0
230
1.0
 70
    11
 71
     3
 72
    38
 73
    34
 74
     0
 42
0.000000001
 43
0.0000000001
 40
0.0
 40
0.0
 40
0.0
 40
0.0
 40
1.0
 40
1.0
 40
1.0
 40
2.0
 40
2.0
 40
2.0
 40
3.0
 40
3.0
 40
3.0
 40
4.0
 40
4.0
 40
4.0
 40
5.0
 40
5.0
 40
5.0
 40
6.0
 40
6.0
 40
6.0
 40
7.0
 40
7.0
 40
7.0
 40
8.0
 40
8.0
 40
8.0
 40
9.0
 40
9.0
 40
9.0
 40
10.0
 40
10.0
 40
10.0
 40
11.0
 40
11.0
 40
11.0
 40
11.0
 10
126.377554584636
 20
154.8151140277308
 30
0.0
 10
126.377554584636
 20
154.8151140277308
 30
0.0
 10
128.8311532078563
 20
154.8151140277308
 30
0.0
 10
128.8311532078563
 20
154.8151140277308
 30
0.0
 10
128.8311532078563
 20
154.8151140277308
 30
0.0
 10
127.7345785914971
 20
151.3062819612468
 30
0.0
 10
127.7345785914971
 20
151.3062819612468
 30
0.0
 10
128.571392836906
 20
152.2922689395754
 30
0.0
 10
129.8860421413442
 20
153.604506675583
 30
0.0
 10
131.0163787157314
 20
154.2664822097754
 30
0.0
 10
132.7044766171327
 20
155.2500576196734
 30
0.0
 10
133.6642808525008
 20
155.3847609420097
 30
0.0
 10
134.7284715499351
 20
155.3565111403944
 30
0.0
 10
134.7284715499351
 20
155.3565111403944
 30
0.0
 10
133.6877075172549
 20
152.0345756272799
 30
0.0
 10
133.6877075172549
 20
152.0345756272799
 30
0.0
 10
133.011434827367
 20
152.3184516825359
 30
0.0
 10
130.930940291334
 20
151.7768823149844
 30
0.0
 10
129.739280976855
 20
150.9162968950455
 30
0.0
 10
128.66613302525
 20
150.1454562717016
 30
0.0
 10
127.9192358313239
 20
149.4857200510519
 30
0.0
 10
127.0393578639405
 20
147.8282835196966
 30
0.0
 10
126.164647543194
 20
146.1699857139017
 30
0.0
 10
125.4742499524985
 20
143.5262176944419
 30
0.0
 10
124.2822461282437
 20
139.6959580071401
 30
0.0
 10
124.2822461282437
 20
139.6959580071401
 30
0.0
 10
120.5753209406769
 20
127.8027915271048
 30
0.0
 10
120.5753209406769
 20
127.8027915271048
 30
0.0
 10
120.5753209406769
 20
127.8027915271048
 30
0.0
 10
118.1964809388044
 20
127.8027915271048
 30
0.0
 10
118.1964809388044
 20
127.8027915271048
 30
0.0
 10
118.1964809388044
 20
127.8027915271048
 30
0.0
 10
126.377554584636
 20
154.8151140277308
 30
0.0
 10
126.377554584636
 20
154.8151140277308
 30
0.0
  0
HATCH
  5
6A7
330
6A2
100
AcDbEntity
  8
レイヤー 1
 62
   250
420
  2234388
100
AcDbHatch
 10
0.0
 20
0.0
 30
0.0
210
0.0
220
0.0
230
1.0
  2
SOLID
 70
     1
 71
     0
 91
        1
 92
        1
 93
        1
 72
     4
 94
        3
 73
     0
 74
     1
 95
       38
 96
       34
 40
0.0
 40
0.0
 40
0.0
 40
0.0
 40
1.0
 40
1.0
 40
1.0
 40
2.0
 40
2.0
 40
2.0
 40
3.0
 40
3.0
 40
3.0
 40
4.0
 40
4.0
 40
4.0
 40
5.0
 40
5.0
 40
5.0
 40
6.0
 40
6.0
 40
6.0
 40
7.0
 40
7.0
 40
7.0
 40
8.0
 40
8.0
 40
8.0
 40
9.0
 40
9.0
 40
9.0
 40
10.0
 40
10.0
 40
10.0
 40
11.0
 40
11.0
 40
11.0
 40
11.0
 10
126.377554584636
 20
154.8151140277308
 10
126.377554584636
 20
154.8151140277308
 10
128.8311532078563
 20
154.8151140277308
 10
128.8311532078563
 20
154.8151140277308
 10
128.8311532078563
 20
154.8151140277308
 10
127.7345785914971
 20
151.3062819612468
 10
127.7345785914971
 20
151.3062819612468
 10
128.571392836906
 20
152.2922689395754
 10
129.8860421413442
 20
153.604506675583
 10
131.0163787157314
 20
154.2664822097754
 10
132.7044766171327
 20
155.2500576196734
 10
133.6642808525008
 20
155.3847609420097
 10
134.7284715499351
 20
155.3565111403944
 10
134.7284715499351
 20
155.3565111403944
 10
133.6877075172549
 20
152.0345756272799
 10
133.6877075172549
 20
152.0345756272799
 10
133.011434827367
 20
152.3184516825359
 10
130.930940291334
 20
151.7768823149844
 10
129.739280976855
 20
150.9162968950455
 10
128.66613302525
 20
150.1454562717016
 10
127.9192358313239
 20
149.4857200510519
 10
127.0393578639405
 20
147.8282835196966
 10
126.164647543194
 20
146.1699857139017
 10
125.4742499524985
 20
143.5262176944419
 10
124.2822461282437
 20
139.6959580071401
 10
124.2822461282437
 20
139.6959580071401
 10
120.5753209406769
 20
127.8027915271048
 10
120.5753209406769
 20
127.8027915271048
 10
120.5753209406769
 20
127.8027915271048
 10
118.1964809388044
 20
127.8027915271048
 10
118.1964809388044
 20
127.8027915271048
 10
118.1964809388044
 20
127.8027915271048
 10
126.377554584636
 20
154.8151140277308
 10
126.377554584636
 20
154.8151140277308
 97
        0
 75
     2
 76
     1
 98
        0
  0
SPLINE
  5
6A8
330
6A2
100
AcDbEntity
  8
レイヤー 1
370
     0
100
AcDbSpline
210
0.0
220
0.0
230
1.0
 70
    11
 71
     3
 72
   104
 73
   100
 74
     0
 42
0.000000001
 43
0.0000000001
 40
0.0
 40
0.0
 40
0.0
 40
0.0
 40
1.0
 40
1.0
 40
1.0
 40
2.0
 40
2.0
 40
2.0
 40
3.0
 40
3.0
 40
3.0
 40
4.0
 40
4.0
 40
4.0
 40
5.0
 40
5.0
 40
5.0
 40
6.0
 40
6.0
 40
6.0
 40
7.0
 40
7.0
 40
7.0
 40
8.0
 40
8.0
 40
8.0
 40
9.0
 40
9.0
 40
9.0
 40
10.0
 40
10.0
 40
10.0
 40
11.0
 40
11.0
 40
11.0
 40
12.0
 40
12.0
 40
12.0
 40
13.0
 40
13.0
 40
13.0
 40
14.0
 40
14.0
 40
14.0
 40
15.0
 40
15.0
 40
15.0
 40
16.0
 40
16.0
 40
16.0
 40
17.0
 40
17.0
 40
17.0
 40
18.0
 40
18.0
 40
18.0
 40
19.0
 40
19.0
 40
19.0
 40
20.0
 40
20.0
 40
20.0
 40
21.0
 40
21.0
 40
21.0
 40
22.0
 40
22.0
 40
22.0
 40
23.0
 40
23.0
 40
23.0
 40
24.0
 40
24.0
 40
24.0
 40
25.0
 40
25.0
 40
25.0
 40
26.0
 40
26.0
 40
26.0
 40
27.0
 40
27.0
 40
27.0
 40
28.0
 40
28.0
 40
28.0
 40
29.0
 40
29.0
 40
29.0
 40
30.0
 40
30.0
 40
30.0
 40
31.0
 40
31.0
 40
31.0
 40
32.0
 40
32.0
 40
32.0
 40
33.0
 40
33.0
 40
33.0
 40
33.0
 10
139.8926730891197
 20
154.8294111834263
 30
0.0
 10
139.8926730891197
 20
154.8294111834263
 30
0.0
 10
142.0344903652445
 20
154.8294111834263
 30
0.0
 10
142.0344903652445
 20
154.8294111834263
 30
0.0
 10
142.0344903652445
 20
154.8294111834263
 30
0.0
 10
140.9516961399171
 20
151.3157559800812
 30
0.0
 10
140.9516961399171
 20
151.3157559800812
 30
0.0
 10
141.8928968473923
 20
152.7887075264977
 30
0.0
 10
142.7341897198865
 20
153.4484437471474
 30
0.0
 10
143.8552245303272
 20
154.2926649527359
 30
0.0
 10
144.9803934580775
 20
155.1296514530327
 30
0.0
 10
146.3139908001845
 20
155.3044901642492
 30
0.0
 10
147.241066606852
 20
155.3044901642492
 30
0.0
 10
148.3855280820469
 20
155.3044901642492
 30
0.0
 10
149.4969166187653
 20
155.0752189084569
 30
0.0
 10
150.0784491203092
 20
153.8172414621372
 30
0.0
 10
150.5228667310863
 20
152.833838307127
 30
0.0
 10
150.5414702589793
 20
152.7201500811143
 30
0.0
 10
150.4140016419347
 20
150.7765981809602
 30
0.0
 10
151.5818897818837
 20
152.7699317437168
 30
0.0
 10
152.4424752018226
 20
153.6256940267945
 30
0.0
 10
153.9038856707499
 20
154.4507949398263
 30
0.0
 10
155.4455669174378
 20
155.3044901642492
 30
0.0
 10
156.339225275853
 20
155.3659851592288
 30
0.0
 10
157.3748216618963
 20
155.2147453676543
 30
0.0
 10
158.911679771723
 20
154.9877134254046
 30
0.0
 10
159.8859534176746
 20
154.4390816074493
 30
0.0
 10
160.3965169054045
 20
152.7816450760939
 30
0.0
 10
160.9070803931344
 20
151.1219692311958
 30
0.0
 10
160.6328506116007
 20
150.2303779314354
 30
0.0
 10
159.9992971339115
 20
147.597634224801
 30
0.0
 10
159.7105979417943
 20
146.4014962832367
 30
0.0
 10
159.2947746424084
 20
144.9400858143094
 30
0.0
 10
158.7463150793409
 20
143.2092687007094
 30
0.0
 10
158.7463150793409
 20
143.2092687007094
 30
0.0
 10
153.9038856707499
 20
127.8027915271048
 30
0.0
 10
153.9038856707499
 20
127.8027915271048
 30
0.0
 10
153.9038856707499
 20
127.8027915271048
 30
0.0
 10
151.3882752878863
 20
127.8027915271048
 30
0.0
 10
151.3882752878863
 20
127.8027915271048
 30
0.0
 10
151.3882752878863
 20
127.8027915271048
 30
0.0
 10
155.6250565106276
 20
141.2751908193897
 30
0.0
 10
155.6250565106276
 20
141.2751908193897
 30
0.0
 10
156.5094131050963
 20
144.0936252951782
 30
0.0
 10
157.109893644309
 20
146.1506931664571
 30
0.0
 10
157.4220195011804
 20
147.4415712963654
 30
0.0
 10
157.8095929989511
 20
149.0530157726519
 30
0.0
 10
157.9656559273867
 20
149.5826995529385
 30
0.0
 10
157.7816877071116
 20
150.7529992613181
 30
0.0
 10
157.6111553680925
 20
151.8430281919372
 30
0.0
 10
157.0582171779396
 20
152.5547853887321
 30
0.0
 10
156.1170164704645
 20
152.5547853887321
 30
0.0
 10
155.1096698860365
 20
152.5547853887321
 30
0.0
 10
154.2962823053817
 20
152.4412694176073
 30
0.0
 10
153.156643967048
 20
151.2945686288697
 30
0.0
 10
152.0170056287143
 20
150.1476955852443
 30
0.0
 10
151.076149431015
 20
148.7930831468137
 30
0.0
 10
150.3337308641742
 20
147.2290087646991
 30
0.0
 10
149.5957909244188
 20
145.6683794803425
 30
0.0
 10
148.8530278478023
 20
143.6822806228776
 30
0.0
 10
148.0964843801539
 20
141.2751908193897
 30
0.0
 10
148.0964843801539
 20
141.2751908193897
 30
0.0
 10
143.8552245303272
 20
127.8027915271048
 30
0.0
 10
143.8552245303272
 20
127.8027915271048
 30
0.0
 10
143.8552245303272
 20
127.8027915271048
 30
0.0
 10
141.486030802177
 20
127.8027915271048
 30
0.0
 10
141.486030802177
 20
127.8027915271048
 30
0.0
 10
141.486030802177
 20
127.8027915271048
 30
0.0
 10
146.3329388378533
 20
143.2092687007094
 30
0.0
 10
146.3329388378533
 20
143.2092687007094
 30
0.0
 10
146.8483254624444
 20
144.8408669988801
 30
0.0
 10
147.2314203331297
 20
146.1837661049335
 30
0.0
 10
147.4867020769946
 20
147.224185627838
 30
0.0
 10
147.9169947869641
 20
149.0197705792876
 30
0.0
 10
148.0306830129768
 20
150.2400242051577
 30
0.0
 10
147.709255392159
 20
151.3157559800812
 30
0.0
 10
147.3874832615654
 20
152.3916600098926
 30
0.0
 10
146.8245542879144
 20
152.6683013598569
 30
0.0
 10
145.8840425999909
 20
152.6683013598569
 30
0.0
 10
145.0989048209514
 20
152.6683013598569
 30
0.0
 10
144.3282364524954
 20
152.3275811915945
 30
0.0
 10
143.4531816219731
 20
151.6538923250251
 30
0.0
 10
142.34627171234
 20
150.8074318058939
 30
0.0
 10
141.901854101563
 20
150.1097995099067
 30
0.0
 10
141.3578731655808
 20
149.289521733736
 30
0.0
 10
140.6299240093235
 20
148.192602607601
 30
0.0
 10
140.2850697237515
 20
147.455696197173
 30
0.0
 10
139.6652966370942
 20
145.8385673095858
 30
0.0
 10
139.0506911970739
 20
144.2214384219986
 30
0.0
 10
138.463991048893
 20
142.3252566160164
 30
0.0
 10
138.0571250036777
 20
141.0154304484394
 30
0.0
 10
138.0571250036777
 20
141.0154304484394
 30
0.0
 10
133.9009590684727
 20
127.8027915271048
 30
0.0
 10
133.9009590684727
 20
127.8027915271048
 30
0.0
 10
133.9009590684727
 20
127.8027915271048
 30
0.0
 10
131.4180771143097
 20
127.8027915271048
 30
0.0
 10
131.4180771143097
 20
127.8027915271048
 30
0.0
 10
131.4180771143097
 20
127.8027915271048
 30
0.0
 10
139.8926730891197
 20
154.8294111834263
 30
0.0
 10
139.8926730891197
 20
154.8294111834263
 30
0.0
  0
HATCH
  5
6A9
330
6A2
100
AcDbEntity
  8
レイヤー 1
 62
   250
420
  2234388
100
AcDbHatch
 10
0.0
 20
0.0
 30
0.0
210
0.0
220
0.0
230
1.0
  2
SOLID
 70
     1
 71
     0
 91
        1
 92
        1
 93
        1
 72
     4
 94
        3
 73
     0
 74
     1
 95
      104
 96
      100
 40
0.0
 40
0.0
 40
0.0
 40
0.0
 40
1.0
 40
1.0
 40
1.0
 40
2.0
 40
2.0
 40
2.0
 40
3.0
 40
3.0
 40
3.0
 40
4.0
 40
4.0
 40
4.0
 40
5.0
 40
5.0
 40
5.0
 40
6.0
 40
6.0
 40
6.0
 40
7.0
 40
7.0
 40
7.0
 40
8.0
 40
8.0
 40
8.0
 40
9.0
 40
9.0
 40
9.0
 40
10.0
 40
10.0
 40
10.0
 40
11.0
 40
11.0
 40
11.0
 40
12.0
 40
12.0
 40
12.0
 40
13.0
 40
13.0
 40
13.0
 40
14.0
 40
14.0
 40
14.0
 40
15.0
 40
15.0
 40
15.0
 40
16.0
 40
16.0
 40
16.0
 40
17.0
 40
17.0
 40
17.0
 40
18.0
 40
18.0
 40
18.0
 40
19.0
 40
19.0
 40
19.0
 40
20.0
 40
20.0
 40
20.0
 40
21.0
 40
21.0
 40
21.0
 40
22.0
 40
22.0
 40
22.0
 40
23.0
 40
23.0
 40
23.0
 40
24.0
 40
24.0
 40
24.0
 40
25.0
 40
25.0
 40
25.0
 40
26.0
 40
26.0
 40
26.0
 40
27.0
 40
27.0
 40
27.0
 40
28.0
 40
28.0
 40
28.0
 40
29.0
 40
29.0
 40
29.0
 40
30.0
 40
30.0
 40
30.0
 40
31.0
 40
31.0
 40
31.0
 40
32.0
 40
32.0
 40
32.0
 40
33.0
 40
33.0
 40
33.0
 40
33.0
 10
139.8926730891197
 20
154.8294111834263
 10
139.8926730891197
 20
154.8294111834263
 10
142.0344903652445
 20
154.8294111834263
 10
142.0344903652445
 20
154.8294111834263
 10
142.0344903652445
 20
154.8294111834263
 10
140.9516961399171
 20
151.3157559800812
 10
140.9516961399171
 20
151.3157559800812
 10
141.8928968473923
 20
152.7887075264977
 10
142.7341897198865
 20
153.4484437471474
 10
143.8552245303272
 20
154.2926649527359
 10
144.9803934580775
 20
155.1296514530327
 10
146.3139908001845
 20
155.3044901642492
 10
147.241066606852
 20
155.3044901642492
 10
148.3855280820469
 20
155.3044901642492
 10
149.4969166187653
 20
155.0752189084569
 10
150.0784491203092
 20
153.8172414621372
 10
150.5228667310863
 20
152.833838307127
 10
150.5414702589793
 20
152.7201500811143
 10
150.4140016419347
 20
150.7765981809602
 10
151.5818897818837
 20
152.7699317437168
 10
152.4424752018226
 20
153.6256940267945
 10
153.9038856707499
 20
154.4507949398263
 10
155.4455669174378
 20
155.3044901642492
 10
156.339225275853
 20
155.3659851592288
 10
157.3748216618963
 20
155.2147453676543
 10
158.911679771723
 20
154.9877134254046
 10
159.8859534176746
 20
154.4390816074493
 10
160.3965169054045
 20
152.7816450760939
 10
160.9070803931344
 20
151.1219692311958
 10
160.6328506116007
 20
150.2303779314354
 10
159.9992971339115
 20
147.597634224801
 10
159.7105979417943
 20
146.4014962832367
 10
159.2947746424084
 20
144.9400858143094
 10
158.7463150793409
 20
143.2092687007094
 10
158.7463150793409
 20
143.2092687007094
 10
153.9038856707499
 20
127.8027915271048
 10
153.9038856707499
 20
127.8027915271048
 10
153.9038856707499
 20
127.8027915271048
 10
151.3882752878863
 20
127.8027915271048
 10
151.3882752878863
 20
127.8027915271048
 10
151.3882752878863
 20
127.8027915271048
 10
155.6250565106276
 20
141.2751908193897
 10
155.6250565106276
 20
141.2751908193897
 10
156.5094131050963
 20
144.0936252951782
 10
157.109893644309
 20
146.1506931664571
 10
157.4220195011804
 20
147.4415712963654
 10
157.8095929989511
 20
149.0530157726519
 10
157.9656559273867
 20
149.5826995529385
 10
157.7816877071116
 20
150.7529992613181
 10
157.6111553680925
 20
151.8430281919372
 10
157.0582171779396
 20
152.5547853887321
 10
156.1170164704645
 20
152.5547853887321
 10
155.1096698860365
 20
152.5547853887321
 10
154.2962823053817
 20
152.4412694176073
 10
153.156643967048
 20
151.2945686288697
 10
152.0170056287143
 20
150.1476955852443
 10
151.076149431015
 20
148.7930831468137
 10
150.3337308641742
 20
147.2290087646991
 10
149.5957909244188
 20
145.6683794803425
 10
148.8530278478023
 20
143.6822806228776
 10
148.0964843801539
 20
141.2751908193897
 10
148.0964843801539
 20
141.2751908193897
 10
143.8552245303272
 20
127.8027915271048
 10
143.8552245303272
 20
127.8027915271048
 10
143.8552245303272
 20
127.8027915271048
 10
141.486030802177
 20
127.8027915271048
 10
141.486030802177
 20
127.8027915271048
 10
141.486030802177
 20
127.8027915271048
 10
146.3329388378533
 20
143.2092687007094
 10
146.3329388378533
 20
143.2092687007094
 10
146.8483254624444
 20
144.8408669988801
 10
147.2314203331297
 20
146.1837661049335
 10
147.4867020769946
 20
147.224185627838
 10
147.9169947869641
 20
149.0197705792876
 10
148.0306830129768
 20
150.2400242051577
 10
147.709255392159
 20
151.3157559800812
 10
147.3874832615654
 20
152.3916600098926
 10
146.8245542879144
 20
152.6683013598569
 10
145.8840425999909
 20
152.6683013598569
 10
145.0989048209514
 20
152.6683013598569
 10
144.3282364524954
 20
152.3275811915945
 10
143.4531816219731
 20
151.6538923250251
 10
142.34627171234
 20
150.8074318058939
 10
141.901854101563
 20
150.1097995099067
 10
141.3578731655808
 20
149.289521733736
 10
140.6299240093235
 20
148.192602607601
 10
140.2850697237515
 20
147.455696197173
 10
139.6652966370942
 20
145.8385673095858
 10
139.0506911970739
 20
144.2214384219986
 10
138.463991048893
 20
142.3252566160164
 10
138.0571250036777
 20
141.0154304484394
 10
138.0571250036777
 20
141.0154304484394
 10
133.9009590684727
 20
127.8027915271048
 10
133.9009590684727
 20
127.8027915271048
 10
133.9009590684727
 20
127.8027915271048
 10
131.4180771143097
 20
127.8027915271048
 10
131.4180771143097
 20
127.8027915271048
 10
131.4180771143097
 20
127.8027915271048
 10
139.8926730891197
 20
154.8294111834263
 10
139.8926730891197
 20
154.8294111834263
 97
        0
 75
     2
 76
     1
 98
        0
  0
SPLINE
  5
6AA
330
6A2
100
AcDbEntity
  8
レイヤー 1
370
     0
100
AcDbSpline
210
0.0
220
0.0
230
1.0
 70
    11
 71
     3
 72
    29
 73
    25
 74
     0
 42
0.000000001
 43
0.0000000001
 40
0.0
 40
0.0
 40
0.0
 40
0.0
 40
1.0
 40
1.0
 40
1.0
 40
2.0
 40
2.0
 40
2.0
 40
3.0
 40
3.0
 40
3.0
 40
4.0
 40
4.0
 40
4.0
 40
5.0
 40
5.0
 40
5.0
 40
6.0
 40
6.0
 40
6.0
 40
7.0
 40
7.0
 40
7.0
 40
8.0
 40
8.0
 40
8.0
 40
8.0
 10
101.6420971922469
 20
132.8388354296931
 30
0.0
 10
101.630039350094
 20
134.7164137077823
 30
0.0
 10
102.2236296937908
 20
138.0598810818841
 30
0.0
 10
103.7487744712405
 20
142.5378191476827
 30
0.0
 10
105.819967243327
 20
148.5896501242061
 30
0.0
 10
107.0602024361932
 20
150.8074318058939
 30
0.0
 10
108.1522984254671
 20
151.8833358357054
 30
0.0
 10
109.741177511439
 20
153.4532668840085
 30
0.0
 10
111.8740375333931
 20
153.5290590346837
 30
0.0
 10
112.5075910110823
 20
153.4532668840085
 30
0.0
 10
113.4012493694975
 20
153.3490526768302
 30
0.0
 10
114.6683563248758
 20
152.7580461564518
 30
0.0
 10
114.7493161221879
 20
150.7838328862519
 30
0.0
 10
114.8106388622796
 20
149.0909118479895
 30
0.0
 10
114.3186789024427
 20
145.9191825971221
 30
0.0
 10
112.6164561002338
 20
140.9489400617108
 30
0.0
 10
110.6444821435766
 20
135.1746117095912
 30
0.0
 10
109.4669477299053
 20
132.8960240524753
 30
0.0
 10
108.5212683953448
 20
131.9072809959403
 30
0.0
 10
106.7346406980658
 20
130.0538184021569
 30
0.0
 10
104.8222669326213
 20
130.2336525051225
 30
0.0
 10
104.5408024457958
 20
130.2336525051225
 30
0.0
 10
104.1721769856939
 20
130.2336525051225
 30
0.0
 10
101.6465758193322
 20
130.6305277668397
 30
0.0
 10
101.6420971922469
 20
132.8388354296931
 30
0.0
  0
SPLINE
  5
6AB
330
6A2
100
AcDbEntity
  8
レイヤー 1
370
     0
100
AcDbSpline
210
0.0
220
0.0
230
1.0
 70
    11
 71
     3
 72
    32
 73
    28
 74
     0
 42
0.000000001
 43
0.0000000001
 40
0.0
 40
0.0
 40
0.0
 40
0.0
 40
1.0
 40
1.0
 40
1.0
 40
2.0
 40
2.0
 40
2.0
 40
3.0
 40
3.0
 40
3.0
 40
4.0
 40
4.0
 40
4.0
 40
5.0
 40
5.0
 40
5.0
 40
6.0
 40
6.0
 40
6.0
 40
7.0
 40
7.0
 40
7.0
 40
8.0
 40
8.0
 40
8.0
 40
9.0
 40
9.0
 40
9.0
 40
9.0
 10
106.2595617172429
 20
153.4105476718098
 30
0.0
 10
104.8222669326213
 20
151.5474388043041
 30
0.0
 10
103.7177685914188
 20
149.8758773721411
 30
0.0
 10
101.9232171692965
 20
144.6141795664062
 30
0.0
 10
100.2754269116635
 20
139.7999999594306
 30
0.0
 10
99.22777268346732
 20
136.3052927937542
 30
0.0
 10
99.06964269637689
 20
132.039572749846
 30
0.0
 10
98.94665270641765
 20
128.8673267343149
 30
0.0
 10
100.8807305877373
 20
127.8027915271048
 30
0.0
 10
103.7129454545577
 20
127.8027915271048
 30
0.0
 10
104.9352661390825
 20
127.8027915271048
 30
0.0
 10
108.0151835347002
 20
127.8827177950895
 30
0.0
 10
110.2045431598849
 20
130.5926316915021
 30
0.0
 10
111.7417457794874
 20
132.4984597712065
 30
0.0
 10
113.155269389579
 20
134.475256864725
 30
0.0
 10
115.0562743324223
 20
140.9489400617108
 30
0.0
 10
116.6361961642235
 20
146.3680788349845
 30
0.0
 10
117.7282921534974
 20
149.8639917848761
 30
0.0
 10
117.6480213757369
 20
151.8595646611754
 30
0.0
 10
117.6480213757369
 20
151.8595646611754
 30
0.0
 10
117.6480213757369
 20
151.8595646611754
 30
0.0
 10
117.6480213757369
 20
151.8595646611754
 30
0.0
 10
117.13229024137
 20
155.18150017429
 30
0.0
 10
114.7162431837115
 20
155.886194920681
 30
0.0
 10
113.3351034925446
 20
155.886194920681
 30
0.0
 10
111.9829026225447
 20
155.886194920681
 30
0.0
 10
108.3414342923792
 20
156.1251124501957
 30
0.0
 10
106.2595617172429
 20
153.4105476718098
 30
0.0
  0
HATCH
  5
6AC
330
6A2
100
AcDbEntity
  8
レイヤー 1
 62
   250
420
  2234388
100
AcDbHatch
 10
0.0
 20
0.0
 30
0.0
210
0.0
220
0.0
230
1.0
  2
SOLID
 70
     1
 71
     0
 91
        2
 92
        1
 93
        1
 72
     4
 94
        3
 73
     0
 74
     1
 95
       29
 96
       25
 40
0.0
 40
0.0
 40
0.0
 40
0.0
 40
1.0
 40
1.0
 40
1.0
 40
2.0
 40
2.0
 40
2.0
 40
3.0
 40
3.0
 40
3.0
 40
4.0
 40
4.0
 40
4.0
 40
5.0
 40
5.0
 40
5.0
 40
6.0
 40
6.0
 40
6.0
 40
7.0
 40
7.0
 40
7.0
 40
8.0
 40
8.0
 40
8.0
 40
8.0
 10
101.6420971922469
 20
132.8388354296931
 10
101.630039350094
 20
134.7164137077823
 10
102.2236296937908
 20
138.0598810818841
 10
103.7487744712405
 20
142.5378191476827
 10
105.819967243327
 20
148.5896501242061
 10
107.0602024361932
 20
150.8074318058939
 10
108.1522984254671
 20
151.8833358357054
 10
109.741177511439
 20
153.4532668840085
 10
111.8740375333931
 20
153.5290590346837
 10
112.5075910110823
 20
153.4532668840085
 10
113.4012493694975
 20
153.3490526768302
 10
114.6683563248758
 20
152.7580461564518
 10
114.7493161221879
 20
150.7838328862519
 10
114.8106388622796
 20
149.0909118479895
 10
114.3186789024427
 20
145.9191825971221
 10
112.6164561002338
 20
140.9489400617108
 10
110.6444821435766
 20
135.1746117095912
 10
109.4669477299053
 20
132.8960240524753
 10
108.5212683953448
 20
131.9072809959403
 10
106.7346406980658
 20
130.0538184021569
 10
104.8222669326213
 20
130.2336525051225
 10
104.5408024457958
 20
130.2336525051225
 10
104.1721769856939
 20
130.2336525051225
 10
101.6465758193322
 20
130.6305277668397
 10
101.6420971922469
 20
132.8388354296931
 97
        0
 92
        1
 93
        1
 72
     4
 94
        3
 73
     0
 74
     1
 95
       32
 96
       28
 40
0.0
 40
0.0
 40
0.0
 40
0.0
 40
1.0
 40
1.0
 40
1.0
 40
2.0
 40
2.0
 40
2.0
 40
3.0
 40
3.0
 40
3.0
 40
4.0
 40
4.0
 40
4.0
 40
5.0
 40
5.0
 40
5.0
 40
6.0
 40
6.0
 40
6.0
 40
7.0
 40
7.0
 40
7.0
 40
8.0
 40
8.0
 40
8.0
 40
9.0
 40
9.0
 40
9.0
 40
9.0
 10
106.2595617172429
 20
153.4105476718098
 10
104.8222669326213
 20
151.5474388043041
 10
103.7177685914188
 20
149.8758773721411
 10
101.9232171692965
 20
144.6141795664062
 10
100.2754269116635
 20
139.7999999594306
 10
99.22777268346732
 20
136.3052927937542
 10
99.06964269637689
 20
132.039572749846
 10
98.94665270641765
 20
128.8673267343149
 10
100.8807305877373
 20
127.8027915271048
 10
103.7129454545577
 20
127.8027915271048
 10
104.9352661390825
 20
127.8027915271048
 10
108.0151835347002
 20
127.8827177950895
 10
110.2045431598849
 20
130.5926316915021
 10
111.7417457794874
 20
132.4984597712065
 10
113.155269389579
 20
134.475256864725
 10
115.0562743324223
 20
140.9489400617108
 10
116.6361961642235
 20
146.3680788349845
 10
117.7282921534974
 20
149.8639917848761
 10
117.6480213757369
 20
151.8595646611754
 10
117.6480213757369
 20
151.8595646611754
 10
117.6480213757369
 20
151.8595646611754
 10
117.6480213757369
 20
151.8595646611754
 10
117.13229024137
 20
155.18150017429
 10
114.7162431837115
 20
155.886194920681
 10
113.3351034925446
 20
155.886194920681
 10
111.9829026225447
 20
155.886194920681
 10
108.3414342923792
 20
156.1251124501957
 10
106.2595617172429
 20
153.4105476718098
 97
        0
 75
     2
 76
     1
 98
        0
  0
ENDBLK
  5
6AD
330
6A2
100
AcDbEntity
  8
0
100
AcDbBlockEnd
  0
BLOCK
  5
4A70
330
4A6F
100
AcDbEntity
  8
0
100
AcDbBlockBegin
  2
*D4
 70
     1
 10
0.0
 20
0.0
 30
0.0
  3
*D4
  1
*D201
  0
LINE
  5
4A72
330
4A6F
100
AcDbEntity
  8
寸法
  6
Continuous
 62
     0
370
    -2
100
AcDbLine
 10
95.08303289800979
 20
348.7335990428101
 30
0.0
 11
82.67815298715568
 21
348.7335990428101
 31
0.0
  0
LINE
  5
4A73
330
4A6F
100
AcDbEntity
  8
寸法
  6
Continuous
 62
     0
370
    -2
100
AcDbLine
 10
109.6354018427447
 20
341.0341771438358
 30
0.0
 11
82.67815298715568
 21
341.0341771438358
 31
0.0
  0
LINE
  5
4A74
330
4A6F
100
AcDbEntity
  8
寸法
  6
Continuous
 62
     0
370
    -2
100
AcDbLine
 10
82.67815298715568
 20
347.2335990428101
 30
0.0
 11
82.67815298715568
 21
342.5341771438358
 31
0.0
  0
INSERT
  5
4A75
330
4A6F
100
AcDbEntity
  8
寸法
 62
     0
370
    -2
100
AcDbBlockReference
  2
_DOT
 10
82.67815298715568
 20
348.7335990428101
 30
0.0
 41
1.5
 42
1.5
 43
1.5
 50
90.0
  0
INSERT
  5
4A76
330
4A6F
100
AcDbEntity
  8
寸法
 62
     0
370
    -2
100
AcDbBlockReference
  2
_DOT
 10
82.67815298715568
 20
341.0341771438358
 30
0.0
 41
1.5
 42
1.5
 43
1.5
 50
270.0
  0
MTEXT
  5
4A77
330
4A6F
100
AcDbEntity
  8
寸法
  6
Continuous
 62
     0
100
AcDbMText
 10
78.17815298715568
 20
344.883888093323
 30
0.0
 40
5.0
 41
0.0
 46
0.0
 71
     5
 72
     1
  1
\A1;8
  7
ＭＳ ゴシック
 11
0.0
 21
1.0
 31
0.0
 73
     1
 44
1.0
  0
POINT
  5
4A78
330
4A6F
100
AcDbEntity
  8
Defpoints
 62
     0
100
AcDbPoint
 10
100.0830328980098
 20
348.7335990428101
 30
0.0
  0
POINT
  5
4A79
330
4A6F
100
AcDbEntity
  8
Defpoints
 62
     0
100
AcDbPoint
 10
114.6354018427447
 20
341.0341771438358
 30
0.0
  0
POINT
  5
50A3
330
4A6F
100
AcDbEntity
  8
Defpoints
 62
     0
100
AcDbPoint
 10
82.67815298715568
 20
341.0341771438358
 30
0.0
  0
ENDBLK
  5
4A71
330
4A6F
100
AcDbEntity
  8
0
100
AcDbBlockEnd
  0
BLOCK
  5
4A9D
330
4A9C
100
AcDbEntity
  8
0
100
AcDbBlockBegin
  2
*D5
 70
     1
 10
0.0
 20
0.0
 30
0.0
  3
*D5
  1
*D204
  0
LINE
  5
4A9F
330
4A9C
100
AcDbEntity
  8
寸法
  6
Continuous
 62
     0
370
    -2
100
AcDbLine
 10
403.8693711443834
 20
348.8173283586119
 30
0.0
 11
350.9378555463423
 21
348.8173283586119
 31
0.0
  0
LINE
  5
4AA0
330
4A9C
100
AcDbEntity
  8
寸法
  6
Continuous
 62
     0
370
    -2
100
AcDbLine
 10
404.139943491755
 20
293.8173283586119
 30
0.0
 11
350.9378555463423
 21
293.8173283586119
 31
0.0
  0
LINE
  5
4AA1
330
4A9C
100
AcDbEntity
  8
寸法
  6
Continuous
 62
     0
370
    -2
100
AcDbLine
 10
350.9378555463423
 20
347.3173283586119
 30
0.0
 11
350.9378555463423
 21
295.3173283586119
 31
0.0
  0
INSERT
  5
4AA2
330
4A9C
100
AcDbEntity
  8
寸法
 62
     0
370
    -2
100
AcDbBlockReference
  2
_DOT
 10
350.9378555463423
 20
348.8173283586119
 30
0.0
 41
1.5
 42
1.5
 43
1.5
 50
90.0
  0
INSERT
  5
4AA3
330
4A9C
100
AcDbEntity
  8
寸法
 62
     0
370
    -2
100
AcDbBlockReference
  2
_DOT
 10
350.9378555463423
 20
293.8173283586119
 30
0.0
 41
1.5
 42
1.5
 43
1.5
 50
270.0
  0
MTEXT
  5
4AA4
330
4A9C
100
AcDbEntity
  8
寸法
  6
Continuous
 62
     0
100
AcDbMText
 10
346.0328555463424
 20
321.3173283586119
 30
0.0
 40
5.0
 41
0.0
 46
0.0
 71
     5
 72
     1
  1
\A1;φ55
  7
ＭＳ ゴシック
 11
0.0
 21
1.0
 31
0.0
 73
     1
 44
1.0
  0
POINT
  5
4AA5
330
4A9C
100
AcDbEntity
  8
Defpoints
 62
     0
100
AcDbPoint
 10
408.8693711443834
 20
348.8173283586119
 30
0.0
  0
POINT
  5
4AA6
330
4A9C
100
AcDbEntity
  8
Defpoints
 62
     0
100
AcDbPoint
 10
409.139943491755
 20
293.8173283586119
 30
0.0
  0
POINT
  5
4AA7
330
4A9C
100
AcDbEntity
  8
Defpoints
 62
     0
100
AcDbPoint
 10
350.9378555463423
 20
293.8173283586119
 30
0.0
  0
ENDBLK
  5
4A9E
330
4A9C
100
AcDbEntity
  8
0
100
AcDbBlockEnd
  0
BLOCK
  5
4AD6
330
4AD5
100
AcDbEntity
  8
0
100
AcDbBlockBegin
  2
*D6
 70
     1
 10
0.0
 20
0.0
 30
0.0
  3
*D6
  1
*D205
  0
LINE
  5
4AD8
330
4AD5
100
AcDbEntity
  8
寸法
  6
Continuous
 62
     0
370
    -2
100
AcDbLine
 10
94.21872529265549
 20
348.7335990428101
 30
0.0
 11
70.83476535556696
 21
348.7335990428101
 31
0.0
  0
LINE
  5
4AD9
330
4AD5
100
AcDbEntity
  8
寸法
  6
Continuous
 62
     0
370
    -2
100
AcDbLine
 10
146.4526239204269
 20
281.1423696530218
 30
0.0
 11
70.83476535556696
 21
281.1423696530218
 31
0.0
  0
LINE
  5
4ADA
330
4AD5
100
AcDbEntity
  8
寸法
  6
Continuous
 62
     0
370
    -2
100
AcDbLine
 10
70.83476535556696
 20
347.2335990428101
 30
0.0
 11
70.83476535556696
 21
282.6423696530218
 31
0.0
  0
INSERT
  5
4ADB
330
4AD5
100
AcDbEntity
  8
寸法
 62
     0
370
    -2
100
AcDbBlockReference
  2
_DOT
 10
70.83476535556696
 20
348.7335990428101
 30
0.0
 41
1.5
 42
1.5
 43
1.5
 50
90.0
  0
INSERT
  5
4ADC
330
4AD5
100
AcDbEntity
  8
寸法
 62
     0
370
    -2
100
AcDbBlockReference
  2
_DOT
 10
70.83476535556696
 20
281.1423696530218
 30
0.0
 41
1.5
 42
1.5
 43
1.5
 50
270.0
  0
MTEXT
  5
4ADD
330
4AD5
100
AcDbEntity
  8
寸法
  6
Continuous
 62
     0
100
AcDbMText
 10
66.33476535556696
 20
314.937984347916
 30
0.0
 40
5.0
 41
0.0
 46
0.0
 71
     5
 72
     1
  1
\A1;68
  7
ＭＳ ゴシック
 11
0.0
 21
1.0
 31
0.0
 73
     1
 44
1.0
  0
POINT
  5
4ADE
330
4AD5
100
AcDbEntity
  8
Defpoints
 62
     0
100
AcDbPoint
 10
99.21872529265549
 20
348.7335990428101
 30
0.0
  0
POINT
  5
4ADF
330
4AD5
100
AcDbEntity
  8
Defpoints
 62
     0
100
AcDbPoint
 10
151.4526239204269
 20
281.1423696530218
 30
0.0
  0
POINT
  5
4AE0
330
4AD5
100
AcDbEntity
  8
Defpoints
 62
     0
100
AcDbPoint
 10
70.83476535556696
 20
281.1423696530218
 30
0.0
  0
ENDBLK
  5
4AD7
330
4AD5
100
AcDbEntity
  8
0
100
AcDbBlockEnd
  0
BLOCK
  5
4CAF
330
4CAE
100
AcDbEntity
  8
0
100
AcDbBlockBegin
  2
*D7
 70
     1
 10
0.0
 20
0.0
 30
0.0
  3
*D7
  1
*D212
  0
LINE
  5
4CB1
330
4CAE
100
AcDbEntity
  8
寸法
  6
Continuous
 62
     0
370
    -2
100
AcDbLine
 10
127.1740041084216
 20
148.4628469200378
 30
0.0
 11
127.1740041084216
 21
139.0647026849566
 31
0.0
  0
LINE
  5
4CB2
330
4CAE
100
AcDbEntity
  8
寸法
  6
Continuous
 62
     0
370
    -2
100
AcDbLine
 10
134.9208280178232
 20
163.6679425127937
 30
0.0
 11
134.9208280178232
 21
139.0647026849566
 31
0.0
  0
LINE
  5
4CB3
330
4CAE
100
AcDbEntity
  8
寸法
  6
Continuous
 62
     0
370
    -2
100
AcDbLine
 10
134.9208280178232
 20
139.0647026849566
 30
0.0
 11
182.7508280178232
 21
139.0647026849566
 31
0.0
  0
INSERT
  5
4CB4
330
4CAE
100
AcDbEntity
  8
寸法
 62
     0
370
    -2
100
AcDbBlockReference
  2
_DOT
 10
127.1740041084216
 20
139.0647026849566
 30
0.0
 41
1.5
 42
1.5
 43
1.5
 50
180.0
  0
INSERT
  5
4CB5
330
4CAE
100
AcDbEntity
  8
寸法
 62
     0
370
    -2
100
AcDbBlockReference
  2
_DOT
 10
134.9208280178232
 20
139.0647026849566
 30
0.0
 41
1.5
 42
1.5
 43
1.5
  0
MTEXT
  5
4CB6
330
4CAE
100
AcDbEntity
  8
寸法
  6
Continuous
 62
     0
100
AcDbMText
 10
160.3358280178232
 20
144.1222026849566
 30
0.0
 40
5.0
 41
0.0
 46
0.0
 71
     5
 72
     1
  1
\A1;プレート部分8
  7
ＭＳ ゴシック
 73
     1
 44
1.0
  0
POINT
  5
4CB7
330
4CAE
100
AcDbEntity
  8
Defpoints
 62
     0
100
AcDbPoint
 10
127.1740041084216
 20
153.4628469200378
 30
0.0
  0
POINT
  5
4CB8
330
4CAE
100
AcDbEntity
  8
Defpoints
 62
     0
100
AcDbPoint
 10
134.9208280178232
 20
168.6679425127937
 30
0.0
  0
POINT
  5
4CB9
330
4CAE
100
AcDbEntity
  8
Defpoints
 62
     0
100
AcDbPoint
 10
134.9208280178232
 20
139.0647026849566
 30
0.0
  0
ENDBLK
  5
4CB0
330
4CAE
100
AcDbEntity
  8
0
100
AcDbBlockEnd
  0
BLOCK
  5
4EF5
330
4EF4
100
AcDbEntity
  8
0
100
AcDbBlockBegin
  2
*D8
 70
     1
 10
0.0
 20
0.0
 30
0.0
  3
*D8
  1
*D205
  0
LINE
  5
4EF7
330
4EF4
100
AcDbEntity
  8
寸法
  6
Continuous
 62
     0
370
    -2
100
AcDbLine
 10
110.224283999919
 20
341.022953810548
 30
0.0
 11
82.67815298715568
 21
341.022953810548
 31
0.0
  0
LINE
  5
4EF8
330
4EF4
100
AcDbEntity
  8
寸法
  6
Continuous
 62
     0
370
    -2
100
AcDbLine
 10
151.4526239204269
 20
281.1423696530218
 30
0.0
 11
82.67815298715568
 21
281.1423696530218
 31
0.0
  0
LINE
  5
4EF9
330
4EF4
100
AcDbEntity
  8
寸法
  6
Continuous
 62
     0
370
    -2
100
AcDbLine
 10
82.67815298715568
 20
339.522953810548
 30
0.0
 11
82.67815298715568
 21
282.6423696530218
 31
0.0
  0
INSERT
  5
4EFA
330
4EF4
100
AcDbEntity
  8
寸法
 62
     0
370
    -2
100
AcDbBlockReference
  2
_DOT
 10
82.67815298715568
 20
341.022953810548
 30
0.0
 41
1.5
 42
1.5
 43
1.5
 50
90.0
  0
INSERT
  5
4EFB
330
4EF4
100
AcDbEntity
  8
寸法
 62
     0
370
    -2
100
AcDbBlockReference
  2
_DOT
 10
82.67815298715568
 20
281.1423696530218
 30
0.0
 41
1.5
 42
1.5
 43
1.5
 50
270.0
  0
MTEXT
  5
4EFC
330
4EF4
100
AcDbEntity
  8
寸法
  6
Continuous
 62
     0
100
AcDbMText
 10
78.17815298715568
 20
311.0826617317849
 30
0.0
 40
5.0
 41
0.0
 46
0.0
 71
     5
 72
     1
  1
\A1;60
  7
ＭＳ ゴシック
 11
0.0
 21
1.0
 31
0.0
 73
     1
 44
1.0
  0
POINT
  5
4EFD
330
4EF4
100
AcDbEntity
  8
Defpoints
 62
     0
100
AcDbPoint
 10
115.224283999919
 20
341.022953810548
 30
0.0
  0
POINT
  5
4EFE
330
4EF4
100
AcDbEntity
  8
Defpoints
 62
     0
100
AcDbPoint
 10
156.4526239204269
 20
281.1423696530218
 30
0.0
  0
POINT
  5
4EFF
330
4EF4
100
AcDbEntity
  8
Defpoints
 62
     0
100
AcDbPoint
 10
82.67815298715568
 20
281.1423696530218
 30
0.0
  0
ENDBLK
  5
4EF6
330
4EF4
100
AcDbEntity
  8
0
100
AcDbBlockEnd
  0
BLOCK
  5
507F
330
507E
100
AcDbEntity
  8
0
100
AcDbBlockBegin
  2
*D9
 70
     1
 10
0.0
 20
0.0
 30
0.0
  3
*D9
  1
*D207
  0
LINE
  5
5081
330
507E
100
AcDbEntity
  8
寸法
  6
Continuous
 62
     0
370
    -2
100
AcDbLine
 10
115.2095882961383
 20
328.0218084466529
 30
0.0
 11
115.2095882961383
 21
261.614963308242
 31
0.0
  0
LINE
  5
5082
330
507E
100
AcDbEntity
  8
寸法
  6
Continuous
 62
     0
370
    -2
100
AcDbLine
 10
248.2095882961384
 20
278.773849688622
 30
0.0
 11
248.2095882961384
 21
261.614963308242
 31
0.0
  0
LINE
  5
5083
330
507E
100
AcDbEntity
  8
寸法
  6
Continuous
 62
     0
370
    -2
100
AcDbLine
 10
116.7095882961383
 20
261.614963308242
 30
0.0
 11
246.7095882961384
 21
261.614963308242
 31
0.0
  0
INSERT
  5
5084
330
507E
100
AcDbEntity
  8
寸法
 62
     0
370
    -2
100
AcDbBlockReference
  2
_DOT
 10
115.2095882961383
 20
261.614963308242
 30
0.0
 41
1.5
 42
1.5
 43
1.5
 50
180.0
  0
INSERT
  5
5085
330
507E
100
AcDbEntity
  8
寸法
 62
     0
370
    -2
100
AcDbBlockReference
  2
_DOT
 10
248.2095882961384
 20
261.614963308242
 30
0.0
 41
1.5
 42
1.5
 43
1.5
  0
MTEXT
  5
5086
330
507E
100
AcDbEntity
  8
寸法
  6
Continuous
 62
     0
100
AcDbMText
 10
181.7095882961383
 20
266.114963308242
 30
0.0
 40
5.0
 41
0.0
 46
0.0
 71
     5
 72
     1
  1
\A1;133
  7
ＭＳ ゴシック
 73
     1
 44
1.0
  0
POINT
  5
5087
330
507E
100
AcDbEntity
  8
Defpoints
 62
     0
100
AcDbPoint
 10
115.2095882961383
 20
333.0218084466529
 30
0.0
  0
POINT
  5
5088
330
507E
100
AcDbEntity
  8
Defpoints
 62
     0
100
AcDbPoint
 10
248.2095882961384
 20
283.773849688622
 30
0.0
  0
POINT
  5
5089
330
507E
100
AcDbEntity
  8
Defpoints
 62
     0
100
AcDbPoint
 10
248.2095882961384
 20
261.614963308242
 30
0.0
  0
ENDBLK
  5
5080
330
507E
100
AcDbEntity
  8
0
100
AcDbBlockEnd
  0
BLOCK
  5
508E
330
508D
100
AcDbEntity
  8
0
100
AcDbBlockBegin
  2
*D10
 70
     1
 10
0.0
 20
0.0
 30
0.0
  3
*D10
  1
*D208
  0
LINE
  5
5090
330
508D
100
AcDbEntity
  8
寸法
  6
Continuous
 62
     0
370
    -2
100
AcDbLine
 10
533.8721245115548
 20
331.8335990428101
 30
0.0
 11
546.0448392536257
 21
331.8335990428101
 31
0.0
  0
LINE
  5
5091
330
508D
100
AcDbEntity
  8
寸法
  6
Continuous
 62
     0
370
    -2
100
AcDbLine
 10
533.8721245115548
 20
310.8335990428101
 30
0.0
 11
546.0448392536257
 21
310.8335990428101
 31
0.0
  0
LINE
  5
5092
330
508D
100
AcDbEntity
  8
寸法
  6
Continuous
 62
     0
370
    -2
100
AcDbLine
 10
546.0448392536257
 20
330.3335990428101
 30
0.0
 11
546.0448392536257
 21
312.3335990428101
 31
0.0
  0
INSERT
  5
5093
330
508D
100
AcDbEntity
  8
寸法
 62
     0
370
    -2
100
AcDbBlockReference
  2
_DOT
 10
546.0448392536257
 20
331.8335990428101
 30
0.0
 41
1.5
 42
1.5
 43
1.5
 50
90.0
  0
INSERT
  5
5094
330
508D
100
AcDbEntity
  8
寸法
 62
     0
370
    -2
100
AcDbBlockReference
  2
_DOT
 10
546.0448392536257
 20
310.8335990428101
 30
0.0
 41
1.5
 42
1.5
 43
1.5
 50
270.0
  0
MTEXT
  5
5095
330
508D
100
AcDbEntity
  8
寸法
  6
Continuous
 62
     0
100
AcDbMText
 10
541.5448392536257
 20
321.3335990428101
 30
0.0
 40
5.0
 41
0.0
 46
0.0
 71
     5
 72
     1
  1
\A1;21
  7
ＭＳ ゴシック
 11
0.0
 21
1.0
 31
0.0
 73
     1
 44
1.0
  0
POINT
  5
5096
330
508D
100
AcDbEntity
  8
Defpoints
 62
     0
100
AcDbPoint
 10
528.8721245115548
 20
331.8335990428101
 30
0.0
  0
POINT
  5
5097
330
508D
100
AcDbEntity
  8
Defpoints
 62
     0
100
AcDbPoint
 10
528.8721245115548
 20
310.8335990428101
 30
0.0
  0
POINT
  5
5098
330
508D
100
AcDbEntity
  8
Defpoints
 62
     0
100
AcDbPoint
 10
546.0448392536257
 20
310.8335990428101
 30
0.0
  0
ENDBLK
  5
508F
330
508D
100
AcDbEntity
  8
0
100
AcDbBlockEnd
  0
BLOCK
  5
51A2
330
51A1
100
AcDbEntity
  8
0
100
AcDbBlockBegin
  2
*D11
 70
     1
 10
0.0
 20
0.0
 30
0.0
  3
*D11
  1
*D210
  0
LINE
  5
51A4
330
51A1
100
AcDbEntity
  8
寸法
  6
Continuous
 62
     0
370
    -2
100
AcDbLine
 10
252.2095882961384
 20
302.2556545729788
 30
0.0
 11
264.3823030382093
 21
302.2556545729788
 31
0.0
  0
LINE
  5
51A5
330
51A1
100
AcDbEntity
  8
寸法
  6
Continuous
 62
     0
370
    -2
100
AcDbLine
 10
252.2095882961384
 20
281.2556545729787
 30
0.0
 11
264.3823030382093
 21
281.2556545729787
 31
0.0
  0
LINE
  5
51A6
330
51A1
100
AcDbEntity
  8
寸法
  6
Continuous
 62
     0
370
    -2
100
AcDbLine
 10
264.3823030382093
 20
300.7556545729788
 30
0.0
 11
264.3823030382093
 21
282.7556545729787
 31
0.0
  0
INSERT
  5
51A7
330
51A1
100
AcDbEntity
  8
寸法
 62
     0
370
    -2
100
AcDbBlockReference
  2
_DOT
 10
264.3823030382093
 20
302.2556545729788
 30
0.0
 41
1.5
 42
1.5
 43
1.5
 50
90.0
  0
INSERT
  5
51A8
330
51A1
100
AcDbEntity
  8
寸法
 62
     0
370
    -2
100
AcDbBlockReference
  2
_DOT
 10
264.3823030382093
 20
281.2556545729787
 30
0.0
 41
1.5
 42
1.5
 43
1.5
 50
270.0
  0
MTEXT
  5
51A9
330
51A1
100
AcDbEntity
  8
寸法
  6
Continuous
 62
     0
100
AcDbMText
 10
259.8823030382093
 20
291.7556545729788
 30
0.0
 40
5.0
 41
0.0
 46
0.0
 71
     5
 72
     1
  1
\A1;21
  7
ＭＳ ゴシック
 11
0.0
 21
1.0
 31
0.0
 73
     1
 44
1.0
  0
POINT
  5
51AA
330
51A1
100
AcDbEntity
  8
Defpoints
 62
     0
100
AcDbPoint
 10
247.2095882961384
 20
302.2556545729788
 30
0.0
  0
POINT
  5
51AB
330
51A1
100
AcDbEntity
  8
Defpoints
 62
     0
100
AcDbPoint
 10
247.2095882961384
 20
281.2556545729787
 30
0.0
  0
POINT
  5
51AC
330
51A1
100
AcDbEntity
  8
Defpoints
 62
     0
100
AcDbPoint
 10
264.3823030382093
 20
281.2556545729787
 30
0.0
  0
ENDBLK
  5
51A3
330
51A1
100
AcDbEntity
  8
0
100
AcDbBlockEnd
  0
BLOCK
  5
5287
330
5286
100
AcDbEntity
  8
0
100
AcDbBlockBegin
  2
名称未設定-1
 70
     0
 10
0.0
 20
0.0
 30
0.0
  3
名称未設定-1
  1
名称未設定-1
  0
INSERT
  5
5288
330
5286
100
AcDbEntity
  8
TFORMLOGO
100
AcDbBlockReference
  2
block 2
 10
0.0
 20
0.0
 30
0.0
  0
ENDBLK
  5
52AD
330
5286
100
AcDbEntity
  8
0
100
AcDbBlockEnd
  0
BLOCK
  5
528A
330
5289
100
AcDbEntity
  8
0
100
AcDbBlockBegin
  2
block 2
 70
     0
 10
0.0
 20
0.0
 30
0.0
  3
block 2
  1
block 2
  0
INSERT
  5
528B
330
5289
100
AcDbEntity
  8
TFORMLOGO
100
AcDbBlockReference
  2
block 3
 10
0.0
 20
0.0
 30
0.0
  0
ENDBLK
  5
52AC
330
5289
100
AcDbEntity
  8
0
100
AcDbBlockEnd
  0
BLOCK
  5
52C3
330
52C2
100
AcDbEntity
  8
0
100
AcDbBlockBegin
  2
*D14
 70
     1
 10
0.0
 20
0.0
 30
0.0
  3
*D14
  1
*D53
  0
LINE
  5
52C4
330
52C2
100
AcDbEntity
  8
寸法
  6
Continuous
 62
     0
370
    -2
100
AcDbLine
 10
94.93135926942057
 20
348.7335990428101
 30
0.0
 11
82.57835042397778
 21
348.7335990428101
 31
0.0
  0
LINE
  5
52C5
330
52C2
100
AcDbEntity
  8
寸法
  6
Continuous
 62
     0
370
    -2
100
AcDbLine
 10
109.4837282141555
 20
341.0341771438358
 30
0.0
 11
82.57835042397778
 21
341.0341771438358
 31
0.0
  0
LINE
  5
52C6
330
52C2
100
AcDbEntity
  8
寸法
  6
Continuous
 62
     0
370
    -2
100
AcDbLine
 10
82.57835042397778
 20
348.7335990428101
 30
0.0
 11
82.57835042397778
 21
341.0341771438358
 31
0.0
  0
LINE
  5
52C7
330
52C2
100
AcDbEntity
  8
寸法
  6
Continuous
 62
     0
370
    -2
100
AcDbLine
 10
82.57835042397778
 20
350.2335990428101
 30
0.0
 11
82.57835042397778
 21
351.7335990428101
 31
0.0
  0
LINE
  5
52C8
330
52C2
100
AcDbEntity
  8
寸法
  6
Continuous
 62
     0
370
    -2
100
AcDbLine
 10
82.57835042397778
 20
339.5341771438358
 30
0.0
 11
82.57835042397778
 21
338.0341771438358
 31
0.0
  0
INSERT
  5
52C9
330
52C2
100
AcDbEntity
  8
寸法
 62
     0
370
    -2
100
AcDbBlockReference
  2
_DOT
 10
82.57835042397778
 20
348.7335990428101
 30
0.0
 41
1.5
 42
1.5
 43
1.5
 50
270.0
  0
INSERT
  5
52CA
330
52C2
100
AcDbEntity
  8
寸法
 62
     0
370
    -2
100
AcDbBlockReference
  2
_DOT
 10
82.57835042397778
 20
341.0341771438358
 30
0.0
 41
1.5
 42
1.5
 43
1.5
 50
90.0
  0
MTEXT
  5
52CB
330
52C2
100
AcDbEntity
  8
寸法
  6
Continuous
 62
     0
100
AcDbMText
 10
78.07835042397778
 20
344.883888093323
 30
0.0
 40
5.0
 41
0.0
 46
0.0
 71
     5
 72
     1
  1
\A1;8
  7
ＭＳ ゴシック
 11
0.0
 21
1.0
 31
0.0
 73
     1
 44
1.0
  0
POINT
  5
544B
330
52C2
100
AcDbEntity
  8
Defpoints
 62
     0
100
AcDbPoint
 10
99.93135926942057
 20
348.7335990428101
 30
0.0
  0
POINT
  5
544C
330
52C2
100
AcDbEntity
  8
Defpoints
 62
     0
100
AcDbPoint
 10
114.4837282141555
 20
341.0341771438358
 30
0.0
  0
POINT
  5
544D
330
52C2
100
AcDbEntity
  8
Defpoints
 62
     0
100
AcDbPoint
 10
82.57835042397778
 20
341.0341771438358
 30
0.0
  0
ENDBLK
  5
52CC
330
52C2
100
AcDbEntity
  8
0
100
AcDbBlockEnd
  0
BLOCK
  5
52CF
330
52CE
100
AcDbEntity
  8
0
100
AcDbBlockBegin
  2
*D15
 70
     1
 10
0.0
 20
0.0
 30
0.0
  3
*D15
  1
*D54
  0
LINE
  5
52D0
330
52CE
100
AcDbEntity
  8
寸法
  6
Continuous
 62
     0
370
    -2
100
AcDbLine
 10
403.8854160529299
 20
348.7990849693352
 30
0.0
 11
364.2169531300075
 21
348.7990849693352
 31
0.0
  0
LINE
  5
52D1
330
52CE
100
AcDbEntity
  8
寸法
  6
Continuous
 62
     0
370
    -2
100
AcDbLine
 10
403.8854160529299
 20
293.7990849693352
 30
0.0
 11
364.2169531300075
 21
293.7990849693352
 31
0.0
  0
LINE
  5
52D2
330
52CE
100
AcDbEntity
  8
寸法
  6
Continuous
 62
     0
370
    -2
100
AcDbLine
 10
364.2169531300075
 20
347.2990849693352
 30
0.0
 11
364.2169531300075
 21
295.2990849693352
 31
0.0
  0
INSERT
  5
52D3
330
52CE
100
AcDbEntity
  8
寸法
 62
     0
370
    -2
100
AcDbBlockReference
  2
_DOT
 10
364.2169531300075
 20
348.7990849693352
 30
0.0
 41
1.5
 42
1.5
 43
1.5
 50
90.0
  0
INSERT
  5
52D4
330
52CE
100
AcDbEntity
  8
寸法
 62
     0
370
    -2
100
AcDbBlockReference
  2
_DOT
 10
364.2169531300075
 20
293.7990849693352
 30
0.0
 41
1.5
 42
1.5
 43
1.5
 50
270.0
  0
MTEXT
  5
52D5
330
52CE
100
AcDbEntity
  8
寸法
  6
Continuous
 62
     0
100
AcDbMText
 10
359.3119531300075
 20
321.2990849693352
 30
0.0
 40
5.0
 41
0.0
 46
0.0
 71
     5
 72
     1
  1
\A1;φ55
  7
ＭＳ ゴシック
 11
0.0
 21
1.0
 31
0.0
 73
     1
 44
1.0
  0
POINT
  5
52D6
330
52CE
100
AcDbEntity
  8
Defpoints
 62
     0
100
AcDbPoint
 10
408.8854160529299
 20
348.7990849693352
 30
0.0
  0
POINT
  5
52D7
330
52CE
100
AcDbEntity
  8
Defpoints
 62
     0
100
AcDbPoint
 10
408.8854160529299
 20
293.7990849693352
 30
0.0
  0
POINT
  5
52D8
330
52CE
100
AcDbEntity
  8
Defpoints
 62
     0
100
AcDbPoint
 10
364.2169531300075
 20
293.7990849693352
 30
0.0
  0
ENDBLK
  5
52D9
330
52CE
100
AcDbEntity
  8
0
100
AcDbBlockEnd
  0
BLOCK
  5
52DC
330
52DB
100
AcDbEntity
  8
0
100
AcDbBlockBegin
  2
*D16
 70
     1
 10
0.0
 20
0.0
 30
0.0
  3
*D16
  1
*D55
  0
LINE
  5
52DD
330
52DB
100
AcDbEntity
  8
寸法
  6
Continuous
 62
     0
370
    -2
100
AcDbLine
 10
94.06705166406618
 20
348.7335990428101
 30
0.0
 11
62.66820315675285
 21
348.7335990428101
 31
0.0
  0
LINE
  5
52DE
330
52DB
100
AcDbEntity
  8
寸法
  6
Continuous
 62
     0
370
    -2
100
AcDbLine
 10
184.9711760191407
 20
281.0777285890699
 30
0.0
 11
62.66820315675284
 21
281.0777285890699
 31
0.0
  0
LINE
  5
52DF
330
52DB
100
AcDbEntity
  8
寸法
  6
Continuous
 62
     0
370
    -2
100
AcDbLine
 10
62.66820315675285
 20
347.2335990428101
 30
0.0
 11
62.66820315675284
 21
282.5777285890699
 31
0.0
  0
INSERT
  5
52E0
330
52DB
100
AcDbEntity
  8
寸法
 62
     0
370
    -2
100
AcDbBlockReference
  2
_DOT
 10
62.66820315675285
 20
348.7335990428101
 30
0.0
 41
1.5
 42
1.5
 43
1.5
 50
90.0
  0
INSERT
  5
52E1
330
52DB
100
AcDbEntity
  8
寸法
 62
     0
370
    -2
100
AcDbBlockReference
  2
_DOT
 10
62.66820315675284
 20
281.0777285890699
 30
0.0
 41
1.5
 42
1.5
 43
1.5
 50
270.0
  0
MTEXT
  5
52E2
330
52DB
100
AcDbEntity
  8
寸法
  6
Continuous
 62
     0
100
AcDbMText
 10
58.16820315675284
 20
314.90566381594
 30
0.0
 40
5.0
 41
0.0
 46
0.0
 71
     5
 72
     1
  1
\A1;68
  7
ＭＳ ゴシック
 11
1.050230720549128E-16
 21
1.0
 31
0.0
 73
     1
 44
1.0
  0
POINT
  5
52E3
330
52DB
100
AcDbEntity
  8
Defpoints
 62
     0
100
AcDbPoint
 10
99.06705166406618
 20
348.7335990428101
 30
0.0
  0
POINT
  5
52E4
330
52DB
100
AcDbEntity
  8
Defpoints
 62
     0
100
AcDbPoint
 10
189.9711760191407
 20
281.0777285890699
 30
0.0
  0
POINT
  5
52E5
330
52DB
100
AcDbEntity
  8
Defpoints
 62
     0
100
AcDbPoint
 10
62.66820315675284
 20
281.0777285890699
 30
0.0
  0
ENDBLK
  5
52E6
330
52DB
100
AcDbEntity
  8
0
100
AcDbBlockEnd
  0
BLOCK
  5
52E9
330
52E8
100
AcDbEntity
  8
0
100
AcDbBlockBegin
  2
*D17
 70
     1
 10
0.0
 20
0.0
 30
0.0
  3
*D17
  1
*D56
  0
LINE
  5
52EA
330
52E8
100
AcDbEntity
  8
寸法
  6
Continuous
 62
     0
370
    -2
100
AcDbLine
 10
127.0296484505602
 20
145.053068208781
 30
0.0
 11
127.0296484505602
 21
138.3207352236588
 31
0.0
  0
LINE
  5
52EB
330
52E8
100
AcDbEntity
  8
寸法
  6
Continuous
 62
     0
370
    -2
100
AcDbLine
 10
134.8816507401137
 20
163.6511043765549
 30
0.0
 11
134.8816507401137
 21
138.3207352236588
 31
0.0
  0
LINE
  5
52EC
330
52E8
100
AcDbEntity
  8
寸法
  6
Continuous
 62
     0
370
    -2
100
AcDbLine
 10
134.8816507401137
 20
138.3207352236588
 30
0.0
 11
186.7116507401138
 21
138.3207352236588
 31
0.0
  0
INSERT
  5
52ED
330
52E8
100
AcDbEntity
  8
寸法
 62
     0
370
    -2
100
AcDbBlockReference
  2
_DOT
 10
127.0296484505602
 20
138.3207352236588
 30
0.0
 41
1.5
 42
1.5
 43
1.5
 50
180.0
  0
INSERT
  5
52EE
330
52E8
100
AcDbEntity
  8
寸法
 62
     0
370
    -2
100
AcDbBlockReference
  2
_DOT
 10
134.8816507401137
 20
138.3207352236588
 30
0.0
 41
1.5
 42
1.5
 43
1.5
  0
MTEXT
  5
52EF
330
52E8
100
AcDbEntity
  8
寸法
  6
Continuous
 62
     0
100
AcDbMText
 10
164.2966507401138
 20
143.3782352236588
 30
0.0
 40
5.0
 41
0.0
 46
0.0
 71
     5
 72
     1
  1
\A1;プレート部分8
  7
ＭＳ ゴシック
 73
     1
 44
1.0
  0
POINT
  5
52F0
330
52E8
100
AcDbEntity
  8
Defpoints
 62
     0
100
AcDbPoint
 10
127.0296484505602
 20
150.053068208781
 30
0.0
  0
POINT
  5
52F1
330
52E8
100
AcDbEntity
  8
Defpoints
 62
     0
100
AcDbPoint
 10
134.8816507401137
 20
168.6511043765549
 30
0.0
  0
POINT
  5
52F2
330
52E8
100
AcDbEntity
  8
Defpoints
 62
     0
100
AcDbPoint
 10
134.8816507401137
 20
138.3207352236588
 30
0.0
  0
ENDBLK
  5
52F3
330
52E8
100
AcDbEntity
  8
0
100
AcDbBlockEnd
  0
BLOCK
  5
52F8
330
52F7
100
AcDbEntity
  8
0
100
AcDbBlockBegin
  2
*D18
 70
     1
 10
0.0
 20
0.0
 30
0.0
  3
*D18
  1
*D57
  0
LINE
  5
52F9
330
52F7
100
AcDbEntity
  8
寸法
  6
Continuous
 62
     0
370
    -2
100
AcDbLine
 10
110.0726103713298
 20
341.022953810548
 30
0.0
 11
82.52647935856646
 21
341.022953810548
 31
0.0
  0
LINE
  5
52FA
330
52F7
100
AcDbEntity
  8
寸法
  6
Continuous
 62
     0
370
    -2
100
AcDbLine
 10
189.9711760191407
 20
281.0777285890699
 30
0.0
 11
82.52647935856646
 21
281.0777285890699
 31
0.0
  0
LINE
  5
52FB
330
52F7
100
AcDbEntity
  8
寸法
  6
Continuous
 62
     0
370
    -2
100
AcDbLine
 10
82.52647935856646
 20
339.522953810548
 30
0.0
 11
82.52647935856646
 21
282.5777285890699
 31
0.0
  0
INSERT
  5
52FC
330
52F7
100
AcDbEntity
  8
寸法
 62
     0
370
    -2
100
AcDbBlockReference
  2
_DOT
 10
82.52647935856646
 20
341.022953810548
 30
0.0
 41
1.5
 42
1.5
 43
1.5
 50
90.0
  0
INSERT
  5
52FD
330
52F7
100
AcDbEntity
  8
寸法
 62
     0
370
    -2
100
AcDbBlockReference
  2
_DOT
 10
82.52647935856646
 20
281.0777285890699
 30
0.0
 41
1.5
 42
1.5
 43
1.5
 50
270.0
  0
MTEXT
  5
52FE
330
52F7
100
AcDbEntity
  8
寸法
  6
Continuous
 62
     0
100
AcDbMText
 10
78.02647935856646
 20
311.0503411998089
 30
0.0
 40
5.0
 41
0.0
 46
0.0
 71
     5
 72
     1
  1
\A1;60
  7
ＭＳ ゴシック
 11
0.0
 21
1.0
 31
0.0
 73
     1
 44
1.0
  0
POINT
  5
52FF
330
52F7
100
AcDbEntity
  8
Defpoints
 62
     0
100
AcDbPoint
 10
115.0726103713298
 20
341.022953810548
 30
0.0
  0
POINT
  5
5300
330
52F7
100
AcDbEntity
  8
Defpoints
 62
     0
100
AcDbPoint
 10
194.9711760191407
 20
281.0777285890699
 30
0.0
  0
POINT
  5
5301
330
52F7
100
AcDbEntity
  8
Defpoints
 62
     0
100
AcDbPoint
 10
82.52647935856646
 20
281.0777285890699
 30
0.0
  0
ENDBLK
  5
5302
330
52F7
100
AcDbEntity
  8
0
100
AcDbBlockEnd
  0
BLOCK
  5
5354
330
5353
100
AcDbEntity
  8
0
100
AcDbBlockBegin
  2
*D19
 70
     1
 10
0.0
 20
0.0
 30
0.0
  3
*D19
  1
*D58
  0
LINE
  5
5355
330
5353
100
AcDbEntity
  8
寸法
  6
Continuous
 62
     0
370
    -2
100
AcDbLine
 10
115.1935433875918
 20
326.04005183593
 30
0.0
 11
115.1935433875918
 21
262.1267427827099
 31
0.0
  0
LINE
  5
5356
330
5353
100
AcDbEntity
  8
寸法
  6
Continuous
 62
     0
370
    -2
100
AcDbLine
 10
234.1687403875918
 20
292.9484688359301
 30
0.0
 11
234.1687403875918
 21
262.1267427827099
 31
0.0
  0
LINE
  5
5357
330
5353
100
AcDbEntity
  8
寸法
  6
Continuous
 62
     0
370
    -2
100
AcDbLine
 10
116.6935433875918
 20
262.1267427827099
 30
0.0
 11
232.6687403875918
 21
262.1267427827099
 31
0.0
  0
INSERT
  5
5358
330
5353
100
AcDbEntity
  8
寸法
 62
     0
370
    -2
100
AcDbBlockReference
  2
_DOT
 10
115.1935433875918
 20
262.1267427827099
 30
0.0
 41
1.5
 42
1.5
 43
1.5
 50
180.0
  0
INSERT
  5
5359
330
5353
100
AcDbEntity
  8
寸法
 62
     0
370
    -2
100
AcDbBlockReference
  2
_DOT
 10
234.1687403875918
 20
262.1267427827099
 30
0.0
 41
1.5
 42
1.5
 43
1.5
  0
MTEXT
  5
535A
330
5353
100
AcDbEntity
  8
寸法
  6
Continuous
 62
     0
100
AcDbMText
 10
174.6811418875918
 20
266.6267427827099
 30
0.0
 40
5.0
 41
0.0
 46
0.0
 71
     5
 72
     1
  1
\A1;119
  7
ＭＳ ゴシック
 73
     1
 44
1.0
  0
POINT
  5
535B
330
5353
100
AcDbEntity
  8
Defpoints
 62
     0
100
AcDbPoint
 10
115.1935433875918
 20
331.04005183593
 30
0.0
  0
POINT
  5
535C
330
5353
100
AcDbEntity
  8
Defpoints
 62
     0
100
AcDbPoint
 10
234.1687403875918
 20
297.9484688359301
 30
0.0
  0
POINT
  5
535D
330
5353
100
AcDbEntity
  8
Defpoints
 62
     0
100
AcDbPoint
 10
234.1687403875918
 20
262.1267427827099
 30
0.0
  0
ENDBLK
  5
535E
330
5353
100
AcDbEntity
  8
0
100
AcDbBlockEnd
  0
BLOCK
  5
5388
330
5387
100
AcDbEntity
  8
0
100
AcDbBlockBegin
  2
*D20
 70
     1
 10
0.0
 20
0.0
 30
0.0
  3
*D20
  1
*D63
  0
LINE
  5
5389
330
5387
100
AcDbEntity
  8
寸法
 62
     0
370
    -2
100
AcDbLine
 10
427.8721245115549
 20
172.3452081951892
 30
0.0
 11
427.8721245115549
 21
144.5573006134969
 31
0.0
  0
LINE
  5
538A
330
5387
100
AcDbEntity
  8
寸法
 62
     0
370
    -2
100
AcDbLine
 10
389.8721245115548
 20
172.3452081951892
 30
0.0
 11
389.8721245115548
 21
144.5573006134969
 31
0.0
  0
LINE
  5
538B
330
5387
100
AcDbEntity
  8
寸法
 62
     0
370
    -2
100
AcDbLine
 10
389.8721245115548
 20
144.5573006134969
 30
0.0
 11
376.2146245115548
 21
144.5573006134969
 31
0.0
  0
LINE
  5
538C
330
5387
100
AcDbEntity
  8
寸法
 62
     0
370
    -2
100
AcDbLine
 10
426.3721245115549
 20
144.5573006134969
 30
0.0
 11
391.3721245115548
 21
144.5573006134969
 31
0.0
  0
INSERT
  5
538D
330
5387
100
AcDbEntity
  8
寸法
 62
     0
370
    -2
100
AcDbBlockReference
  2
_DOT
 10
427.8721245115549
 20
144.5573006134969
 30
0.0
 41
1.5
 42
1.5
 43
1.5
  0
INSERT
  5
538E
330
5387
100
AcDbEntity
  8
寸法
 62
     0
370
    -2
100
AcDbBlockReference
  2
_DOT
 10
389.8721245115548
 20
144.5573006134969
 30
0.0
 41
1.5
 42
1.5
 43
1.5
 50
180.0
  0
POINT
  5
538F
330
5387
100
AcDbEntity
  8
Defpoints
 62
     0
100
AcDbPoint
 10
427.8721245115549
 20
177.3452081951892
 30
0.0
  0
POINT
  5
5390
330
5387
100
AcDbEntity
  8
Defpoints
 62
     0
100
AcDbPoint
 10
389.8721245115548
 20
177.3452081951892
 30
0.0
  0
POINT
  5
5391
330
5387
100
AcDbEntity
  8
Defpoints
 62
     0
100
AcDbPoint
 10
389.8721245115548
 20
144.5573006134969
 30
0.0
  0
ENDBLK
  5
5392
330
5387
100
AcDbEntity
  8
0
100
AcDbBlockEnd
  0
BLOCK
  5
5395
330
5394
100
AcDbEntity
  8
0
100
AcDbBlockBegin
  2
*D21
 70
     1
 10
0.0
 20
0.0
 30
0.0
  3
*D21
  1
*D67
  0
LINE
  5
5396
330
5394
100
AcDbEntity
  8
寸法
 62
     0
370
    -2
100
AcDbLine
 10
389.8721245115548
 20
191.0157099566222
 30
0.0
 11
389.8721245115548
 21
213.8023335341041
 31
0.0
  0
LINE
  5
5397
330
5394
100
AcDbEntity
  8
寸法
 62
     0
370
    -2
100
AcDbLine
 10
408.8721245115548
 20
205.1912224768318
 30
0.0
 11
408.8721245115548
 21
213.8023335341041
 31
0.0
  0
LINE
  5
5398
330
5394
100
AcDbEntity
  8
寸法
 62
     0
370
    -2
100
AcDbLine
 10
391.3721245115548
 20
213.8023335341041
 30
0.0
 11
407.3721245115548
 21
213.8023335341041
 31
0.0
  0
INSERT
  5
5399
330
5394
100
AcDbEntity
  8
寸法
 62
     0
370
    -2
100
AcDbBlockReference
  2
_DOT
 10
389.8721245115548
 20
213.8023335341041
 30
0.0
 41
1.5
 42
1.5
 43
1.5
 50
180.0
  0
INSERT
  5
539A
330
5394
100
AcDbEntity
  8
寸法
 62
     0
370
    -2
100
AcDbBlockReference
  2
_DOT
 10
408.8721245115548
 20
213.8023335341041
 30
0.0
 41
1.5
 42
1.5
 43
1.5
  0
MTEXT
  5
539B
330
5394
100
AcDbEntity
  8
寸法
  6
Continuous
 62
     0
100
AcDbMText
 10
399.3721245115548
 20
218.3023335341041
 30
0.0
 40
5.0
 41
0.0
 46
0.0
 71
     5
 72
     1
  1
\A1;19
  7
ＭＳ ゴシック
 73
     1
 44
1.0
  0
POINT
  5
539C
330
5394
100
AcDbEntity
  8
Defpoints
 62
     0
100
AcDbPoint
 10
389.8721245115548
 20
186.0157099566222
 30
0.0
  0
POINT
  5
539D
330
5394
100
AcDbEntity
  8
Defpoints
 62
     0
100
AcDbPoint
 10
408.8721245115548
 20
200.1912224768318
 30
0.0
  0
POINT
  5
539E
330
5394
100
AcDbEntity
  8
Defpoints
 62
     0
100
AcDbPoint
 10
408.8721245115548
 20
213.8023335341041
 30
0.0
  0
ENDBLK
  5
539F
330
5394
100
AcDbEntity
  8
0
100
AcDbBlockEnd
  0
BLOCK
  5
53A2
330
53A1
100
AcDbEntity
  8
0
100
AcDbBlockBegin
  2
*D22
 70
     1
 10
0.0
 20
0.0
 30
0.0
  3
*D22
  1
*D68
  0
LINE
  5
53A3
330
53A1
100
AcDbEntity
  8
寸法
 62
     0
370
    -2
100
AcDbLine
 10
408.8721245115548
 20
205.1912224768318
 30
0.0
 11
408.8721245115548
 21
213.8023335341041
 31
0.0
  0
LINE
  5
53A4
330
53A1
100
AcDbEntity
  8
寸法
 62
     0
370
    -2
100
AcDbLine
 10
427.8721245115549
 20
191.0157099566222
 30
0.0
 11
427.8721245115549
 21
213.8023335341041
 31
0.0
  0
LINE
  5
53A5
330
53A1
100
AcDbEntity
  8
寸法
 62
     0
370
    -2
100
AcDbLine
 10
410.3721245115548
 20
213.8023335341041
 30
0.0
 11
426.3721245115549
 21
213.8023335341041
 31
0.0
  0
INSERT
  5
53A6
330
53A1
100
AcDbEntity
  8
寸法
 62
     0
370
    -2
100
AcDbBlockReference
  2
_DOT
 10
408.8721245115548
 20
213.8023335341041
 30
0.0
 41
1.5
 42
1.5
 43
1.5
 50
180.0
  0
INSERT
  5
53A7
330
53A1
100
AcDbEntity
  8
寸法
 62
     0
370
    -2
100
AcDbBlockReference
  2
_DOT
 10
427.8721245115549
 20
213.8023335341041
 30
0.0
 41
1.5
 42
1.5
 43
1.5
  0
MTEXT
  5
53A8
330
53A1
100
AcDbEntity
  8
寸法
  6
Continuous
 62
     0
100
AcDbMText
 10
418.3721245115548
 20
218.3023335341041
 30
0.0
 40
5.0
 41
0.0
 46
0.0
 71
     5
 72
     1
  1
\A1;19
  7
ＭＳ ゴシック
 73
     1
 44
1.0
  0
POINT
  5
53A9
330
53A1
100
AcDbEntity
  8
Defpoints
 62
     0
100
AcDbPoint
 10
408.8721245115548
 20
200.1912224768318
 30
0.0
  0
POINT
  5
53AA
330
53A1
100
AcDbEntity
  8
Defpoints
 62
     0
100
AcDbPoint
 10
427.8721245115549
 20
186.0157099566222
 30
0.0
  0
POINT
  5
53AB
330
53A1
100
AcDbEntity
  8
Defpoints
 62
     0
100
AcDbPoint
 10
427.8721245115549
 20
213.8023335341041
 30
0.0
  0
ENDBLK
  5
53AC
330
53A1
100
AcDbEntity
  8
0
100
AcDbBlockEnd
  0
BLOCK
  5
542D
330
542C
100
AcDbEntity
  8
0
100
AcDbBlockBegin
  2
*D23
 70
     1
 10
0.0
 20
0.0
 30
0.0
  3
*D23
  1
*D69
  0
LINE
  5
542E
330
542C
100
AcDbEntity
  8
寸法
 62
     0
370
    -2
100
AcDbLine
 10
108.1825120145531
 20
356.4345575436565
 30
0.0
 11
108.1825120145531
 21
365.9906564456901
 31
0.0
  0
LINE
  5
542F
330
542C
100
AcDbEntity
  8
寸法
 62
     0
370
    -2
100
AcDbLine
 10
146.1825120145531
 20
356.4345575436565
 30
0.0
 11
146.1825120145531
 21
365.9906564456901
 31
0.0
  0
LINE
  5
5430
330
542C
100
AcDbEntity
  8
寸法
 62
     0
370
    -2
100
AcDbLine
 10
109.6825120145531
 20
365.9906564456901
 30
0.0
 11
144.6825120145531
 21
365.9906564456901
 31
0.0
  0
INSERT
  5
5431
330
542C
100
AcDbEntity
  8
寸法
 62
     0
370
    -2
100
AcDbBlockReference
  2
_DOT
 10
108.1825120145531
 20
365.9906564456901
 30
0.0
 41
1.5
 42
1.5
 43
1.5
 50
180.0
  0
INSERT
  5
5432
330
542C
100
AcDbEntity
  8
寸法
 62
     0
370
    -2
100
AcDbBlockReference
  2
_DOT
 10
146.1825120145531
 20
365.9906564456901
 30
0.0
 41
1.5
 42
1.5
 43
1.5
  0
MTEXT
  5
5433
330
542C
100
AcDbEntity
  8
寸法
  6
Continuous
 62
     0
100
AcDbMText
 10
127.1825120145531
 20
370.4906564456901
 30
0.0
 40
5.0
 41
0.0
 46
0.0
 71
     5
 72
     1
  1
\A1;38
  7
ＭＳ ゴシック
 73
     1
 44
1.0
  0
POINT
  5
5434
330
542C
100
AcDbEntity
  8
Defpoints
 62
     0
100
AcDbPoint
 10
108.1825120145531
 20
351.4345575436565
 30
0.0
  0
POINT
  5
5435
330
542C
100
AcDbEntity
  8
Defpoints
 62
     0
100
AcDbPoint
 10
146.1825120145531
 20
351.4345575436565
 30
0.0
  0
POINT
  5
5436
330
542C
100
AcDbEntity
  8
Defpoints
 62
     0
100
AcDbPoint
 10
146.1825120145531
 20
365.9906564456901
 30
0.0
  0
ENDBLK
  5
5437
330
542C
100
AcDbEntity
  8
0
100
AcDbBlockEnd
  0
BLOCK
  5
55BF
330
55BE
100
AcDbEntity
  8
0
100
AcDbBlockBegin
  2
*D24
 70
     1
 10
0.0
 20
0.0
 30
0.0
  3
*D24
  1
*D25
  0
LINE
  5
55C1
330
55BE
100
AcDbEntity
  8
寸法
  6
Continuous
 62
     0
370
    -2
100
AcDbLine
 10
394.8285146470681
 20
599.3431920335519
 30
0.0
 11
341.896999049027
 21
599.3431920335519
 31
0.0
  0
LINE
  5
55C2
330
55BE
100
AcDbEntity
  8
寸法
  6
Continuous
 62
     0
370
    -2
100
AcDbLine
 10
395.0990869944397
 20
544.3431920335519
 30
0.0
 11
341.896999049027
 21
544.3431920335519
 31
0.0
  0
LINE
  5
55C3
330
55BE
100
AcDbEntity
  8
寸法
  6
Continuous
 62
     0
370
    -2
100
AcDbLine
 10
341.896999049027
 20
597.8431920335519
 30
0.0
 11
341.896999049027
 21
545.8431920335519
 31
0.0
  0
INSERT
  5
55C4
330
55BE
100
AcDbEntity
  8
寸法
 62
     0
370
    -2
100
AcDbBlockReference
  2
_DOT
 10
341.896999049027
 20
599.3431920335519
 30
0.0
 41
1.5
 42
1.5
 43
1.5
 50
90.0
  0
INSERT
  5
55C5
330
55BE
100
AcDbEntity
  8
寸法
 62
     0
370
    -2
100
AcDbBlockReference
  2
_DOT
 10
341.896999049027
 20
544.3431920335519
 30
0.0
 41
1.5
 42
1.5
 43
1.5
 50
270.0
  0
MTEXT
  5
55C6
330
55BE
100
AcDbEntity
  8
寸法
  6
Continuous
 62
     0
100
AcDbMText
 10
336.9919990490271
 20
571.8431920335519
 30
0.0
 40
5.0
 41
0.0
 46
0.0
 71
     5
 72
     1
  1
\A1;φ55
  7
ＭＳ ゴシック
 11
0.0
 21
1.0
 31
0.0
 73
     1
 44
1.0
  0
POINT
  5
55C7
330
55BE
100
AcDbEntity
  8
Defpoints
 62
     0
100
AcDbPoint
 10
399.8285146470681
 20
599.3431920335519
 30
0.0
  0
POINT
  5
55C8
330
55BE
100
AcDbEntity
  8
Defpoints
 62
     0
100
AcDbPoint
 10
400.0990869944397
 20
544.3431920335519
 30
0.0
  0
POINT
  5
55C9
330
55BE
100
AcDbEntity
  8
Defpoints
 62
     0
100
AcDbPoint
 10
341.896999049027
 20
544.3431920335519
 30
0.0
  0
ENDBLK
  5
55C0
330
55BE
100
AcDbEntity
  8
0
100
AcDbBlockEnd
  0
BLOCK
  5
55CB
330
55CA
100
AcDbEntity
  8
0
100
AcDbBlockBegin
  2
*D25
 70
     1
 10
0.0
 20
0.0
 30
0.0
  3
*D25
  1
*D26
  0
LINE
  5
55CD
330
55CA
100
AcDbEntity
  8
寸法
  6
Continuous
 62
     0
370
    -2
100
AcDbLine
 10
524.8312680142396
 20
582.35946271775
 30
0.0
 11
537.0039827563105
 21
582.35946271775
 31
0.0
  0
LINE
  5
55CE
330
55CA
100
AcDbEntity
  8
寸法
  6
Continuous
 62
     0
370
    -2
100
AcDbLine
 10
524.8312680142396
 20
561.35946271775
 30
0.0
 11
537.0039827563105
 21
561.35946271775
 31
0.0
  0
LINE
  5
55CF
330
55CA
100
AcDbEntity
  8
寸法
  6
Continuous
 62
     0
370
    -2
100
AcDbLine
 10
537.0039827563105
 20
580.85946271775
 30
0.0
 11
537.0039827563105
 21
562.85946271775
 31
0.0
  0
INSERT
  5
55D0
330
55CA
100
AcDbEntity
  8
寸法
 62
     0
370
    -2
100
AcDbBlockReference
  2
_DOT
 10
537.0039827563105
 20
582.35946271775
 30
0.0
 41
1.5
 42
1.5
 43
1.5
 50
90.0
  0
INSERT
  5
55D1
330
55CA
100
AcDbEntity
  8
寸法
 62
     0
370
    -2
100
AcDbBlockReference
  2
_DOT
 10
537.0039827563105
 20
561.35946271775
 30
0.0
 41
1.5
 42
1.5
 43
1.5
 50
270.0
  0
MTEXT
  5
55D2
330
55CA
100
AcDbEntity
  8
寸法
  6
Continuous
 62
     0
100
AcDbMText
 10
532.5039827563105
 20
571.85946271775
 30
0.0
 40
5.0
 41
0.0
 46
0.0
 71
     5
 72
     1
  1
\A1;21
  7
ＭＳ ゴシック
 11
0.0
 21
1.0
 31
0.0
 73
     1
 44
1.0
  0
POINT
  5
55D3
330
55CA
100
AcDbEntity
  8
Defpoints
 62
     0
100
AcDbPoint
 10
519.8312680142396
 20
582.35946271775
 30
0.0
  0
POINT
  5
55D4
330
55CA
100
AcDbEntity
  8
Defpoints
 62
     0
100
AcDbPoint
 10
519.8312680142396
 20
561.35946271775
 30
0.0
  0
POINT
  5
55D5
330
55CA
100
AcDbEntity
  8
Defpoints
 62
     0
100
AcDbPoint
 10
537.0039827563105
 20
561.35946271775
 30
0.0
  0
ENDBLK
  5
55CC
330
55CA
100
AcDbEntity
  8
0
100
AcDbBlockEnd
  0
BLOCK
  5
56CA
330
56C9
100
AcDbEntity
  8
0
100
AcDbBlockBegin
  2
*D26
 70
     1
 10
0.0
 20
0.0
 30
0.0
  3
*D26
  1
*D27
  0
LINE
  5
56CB
330
56C9
100
AcDbEntity
  8
寸法
  6
Continuous
 62
     0
370
    -2
100
AcDbLine
 10
0.375
 20
9.573144235081088
 30
0.0
 11
0.375
 21
0.375
 31
0.0
  0
LINE
  5
56CC
330
56C9
100
AcDbEntity
  8
寸法
  6
Continuous
 62
     0
370
    -2
100
AcDbLine
 10
8.074570739085033
 20
24.7782398278371
 30
0.0
 11
8.074570739085033
 21
0.375
 31
0.0
  0
LINE
  5
56CD
330
56C9
100
AcDbEntity
  8
寸法
  6
Continuous
 62
     0
370
    -2
100
AcDbLine
 10
8.074570739085033
 20
0.375
 30
0.0
 11
18.17765809326037
 21
0.375
 31
0.0
  0
LINE
  5
56CE
330
56C9
100
AcDbEntity
  8
寸法
  6
Continuous
 62
     0
370
    -2
100
AcDbLine
 10
1.875
 20
0.375
 30
0.0
 11
6.574570739085033
 21
0.375
 31
0.0
  0
INSERT
  5
56CF
330
56C9
100
AcDbEntity
  8
寸法
 62
     0
370
    -2
100
AcDbBlockReference
  2
_DOT
 10
0.375
 20
0.375
 30
0.0
 41
1.5
 42
1.5
 43
1.5
 50
180.0
  0
INSERT
  5
56D0
330
56C9
100
AcDbEntity
  8
寸法
 62
     0
370
    -2
100
AcDbBlockReference
  2
_DOT
 10
8.074570739085033
 20
0.375
 30
0.0
 41
1.5
 42
1.5
 43
1.5
  0
MTEXT
  5
56D1
330
56C9
100
AcDbEntity
  8
寸法
  6
Continuous
 62
     0
100
AcDbMText
 10
14.85765809326037
 20
4.875
 30
0.0
 40
5.0
 41
0.0
 46
0.0
 71
     5
 72
     1
  1
\A1;8
  7
ＭＳ ゴシック
 73
     1
 44
1.0
  0
POINT
  5
56D2
330
56C9
100
AcDbEntity
  8
Defpoints
 62
     0
100
AcDbPoint
 10
0.375
 20
14.57314423508109
 30
0.0
  0
POINT
  5
56D3
330
56C9
100
AcDbEntity
  8
Defpoints
 62
     0
100
AcDbPoint
 10
8.074570739085033
 20
29.7782398278371
 30
0.0
  0
POINT
  5
56D4
330
56C9
100
AcDbEntity
  8
Defpoints
 62
     0
100
AcDbPoint
 10
8.074570739085033
 20
0.375
 30
0.0
  0
ENDBLK
  5
56D5
330
56C9
100
AcDbEntity
  8
0
100
AcDbBlockEnd
  0
BLOCK
  5
56DB
330
56DA
100
AcDbEntity
  8
0
100
AcDbBlockBegin
  2
*D27
 70
     1
 10
0.0
 20
0.0
 30
0.0
  3
*D27
  1
*D28
  0
LINE
  5
56DD
330
56DA
100
AcDbEntity
  8
寸法
  6
Continuous
 62
     0
370
    -2
100
AcDbLine
 10
127.1740041084216
 20
148.4628469200378
 30
0.0
 11
127.1740041084216
 21
139.2647026849567
 31
0.0
  0
LINE
  5
56DE
330
56DA
100
AcDbEntity
  8
寸法
  6
Continuous
 62
     0
370
    -2
100
AcDbLine
 10
134.8735748475066
 20
163.6679425127938
 30
0.0
 11
134.8735748475066
 21
139.2647026849567
 31
0.0
  0
LINE
  5
56DF
330
56DA
100
AcDbEntity
  8
寸法
  6
Continuous
 62
     0
370
    -2
100
AcDbLine
 10
134.8735748475066
 20
139.2647026849567
 30
0.0
 11
144.976662201682
 21
139.2647026849567
 31
0.0
  0
LINE
  5
56E0
330
56DA
100
AcDbEntity
  8
寸法
  6
Continuous
 62
     0
370
    -2
100
AcDbLine
 10
128.6740041084216
 20
139.2647026849567
 30
0.0
 11
133.3735748475066
 21
139.2647026849567
 31
0.0
  0
INSERT
  5
56E1
330
56DA
100
AcDbEntity
  8
寸法
 62
     0
370
    -2
100
AcDbBlockReference
  2
_DOT
 10
127.1740041084216
 20
139.2647026849567
 30
0.0
 41
1.5
 42
1.5
 43
1.5
 50
180.0
  0
INSERT
  5
56E2
330
56DA
100
AcDbEntity
  8
寸法
 62
     0
370
    -2
100
AcDbBlockReference
  2
_DOT
 10
134.8735748475066
 20
139.2647026849567
 30
0.0
 41
1.5
 42
1.5
 43
1.5
  0
MTEXT
  5
56E3
330
56DA
100
AcDbEntity
  8
寸法
  6
Continuous
 62
     0
100
AcDbMText
 10
141.656662201682
 20
143.7647026849567
 30
0.0
 40
5.0
 41
0.0
 46
0.0
 71
     5
 72
     1
  1
\A1;8
  7
ＭＳ ゴシック
 73
     1
 44
1.0
  0
POINT
  5
56E4
330
56DA
100
AcDbEntity
  8
Defpoints
 62
     0
100
AcDbPoint
 10
127.1740041084216
 20
153.4628469200378
 30
0.0
  0
POINT
  5
56E5
330
56DA
100
AcDbEntity
  8
Defpoints
 62
     0
100
AcDbPoint
 10
134.8735748475066
 20
168.6679425127938
 30
0.0
  0
POINT
  5
56E6
330
56DA
100
AcDbEntity
  8
Defpoints
 62
     0
100
AcDbPoint
 10
134.8735748475066
 20
139.2647026849567
 30
0.0
  0
ENDBLK
  5
56DC
330
56DA
100
AcDbEntity
  8
0
100
AcDbBlockEnd
  0
BLOCK
  5
5762
330
5761
100
AcDbEntity
  8
0
100
AcDbBlockBegin
  2
*D28
 70
     1
 10
0.0
 20
0.0
 30
0.0
  3
*D28
  1
*D29
  0
LINE
  5
5763
330
5761
100
AcDbEntity
  8
寸法
  6
Continuous
 62
     0
370
    -2
100
AcDbLine
 10
12.67192425945136
 20
214.4558524656296
 30
0.0
 11
12.67192425945136
 21
221.1724008234254
 31
0.0
  0
LINE
  5
5764
330
5761
100
AcDbEntity
  8
寸法
  6
Continuous
 62
     0
370
    -2
100
AcDbLine
 10
21.17192425945136
 20
214.4558524656296
 30
0.0
 11
21.17192425945136
 21
221.1724008234254
 31
0.0
  0
LINE
  5
5765
330
5761
100
AcDbEntity
  8
寸法
  6
Continuous
 62
     0
370
    -2
100
AcDbLine
 10
14.17192425945136
 20
221.1724008234254
 30
0.0
 11
19.67192425945136
 21
221.1724008234254
 31
0.0
  0
INSERT
  5
5766
330
5761
100
AcDbEntity
  8
寸法
 62
     0
370
    -2
100
AcDbBlockReference
  2
_DOT
 10
12.67192425945136
 20
221.1724008234254
 30
0.0
 41
1.5
 42
1.5
 43
1.5
 50
180.0
  0
INSERT
  5
5767
330
5761
100
AcDbEntity
  8
寸法
 62
     0
370
    -2
100
AcDbBlockReference
  2
_DOT
 10
21.17192425945136
 20
221.1724008234254
 30
0.0
 41
1.5
 42
1.5
 43
1.5
  0
MTEXT
  5
5768
330
5761
100
AcDbEntity
  8
寸法
  6
Continuous
 62
     0
100
AcDbMText
 10
16.92192425945136
 20
225.6724008234254
 30
0.0
 40
5.0
 41
0.0
 46
0.0
 71
     5
 72
     1
  1
\A1;8.5
  7
ＭＳ ゴシック
 73
     1
 44
1.0
  0
POINT
  5
5769
330
5761
100
AcDbEntity
  8
Defpoints
 62
     0
100
AcDbPoint
 10
12.67192425945136
 20
209.4558524656296
 30
0.0
  0
POINT
  5
576A
330
5761
100
AcDbEntity
  8
Defpoints
 62
     0
100
AcDbPoint
 10
21.17192425945136
 20
209.4558524656296
 30
0.0
  0
POINT
  5
576B
330
5761
100
AcDbEntity
  8
Defpoints
 62
     0
100
AcDbPoint
 10
21.17192425945136
 20
221.1724008234254
 30
0.0
  0
ENDBLK
  5
576C
330
5761
100
AcDbEntity
  8
0
100
AcDbBlockEnd
  0
BLOCK
  5
5774
330
5773
100
AcDbEntity
  8
0
100
AcDbBlockBegin
  2
*D29
 70
     1
 10
0.0
 20
0.0
 30
0.0
  3
*D29
  1
*D30
  0
LINE
  5
5775
330
5773
100
AcDbEntity
  8
寸法
  6
Continuous
 62
     0
370
    -2
100
AcDbLine
 10
62.46043540515663
 20
197.1207521227724
 30
0.0
 11
77.8834322030564
 21
197.1207521227724
 31
0.0
  0
LINE
  5
5776
330
5773
100
AcDbEntity
  8
寸法
  6
Continuous
 62
     0
370
    -2
100
AcDbLine
 10
68.2153519287707
 20
191.1207521227724
 30
0.0
 11
77.8834322030564
 21
191.1207521227724
 31
0.0
  0
LINE
  5
5777
330
5773
100
AcDbEntity
  8
寸法
  6
Continuous
 62
     0
370
    -2
100
AcDbLine
 10
77.8834322030564
 20
195.6207521227724
 30
0.0
 11
77.8834322030564
 21
192.6207521227724
 31
0.0
  0
INSERT
  5
5778
330
5773
100
AcDbEntity
  8
寸法
 62
     0
370
    -2
100
AcDbBlockReference
  2
_DOT
 10
77.8834322030564
 20
197.1207521227724
 30
0.0
 41
1.5
 42
1.5
 43
1.5
 50
90.0
  0
INSERT
  5
5779
330
5773
100
AcDbEntity
  8
寸法
 62
     0
370
    -2
100
AcDbBlockReference
  2
_DOT
 10
77.8834322030564
 20
191.1207521227724
 30
0.0
 41
1.5
 42
1.5
 43
1.5
 50
270.0
  0
MTEXT
  5
577A
330
5773
100
AcDbEntity
  8
寸法
  6
Continuous
 62
     0
100
AcDbMText
 10
73.3834322030564
 20
194.1207521227724
 30
0.0
 40
5.0
 41
0.0
 46
0.0
 71
     5
 72
     1
  1
\A1;6
  7
ＭＳ ゴシック
 11
0.0
 21
1.0
 31
0.0
 73
     1
 44
1.0
  0
POINT
  5
577B
330
5773
100
AcDbEntity
  8
Defpoints
 62
     0
100
AcDbPoint
 10
57.46043540515663
 20
197.1207521227724
 30
0.0
  0
POINT
  5
577C
330
5773
100
AcDbEntity
  8
Defpoints
 62
     0
100
AcDbPoint
 10
63.2153519287707
 20
191.1207521227724
 30
0.0
  0
POINT
  5
577D
330
5773
100
AcDbEntity
  8
Defpoints
 62
     0
100
AcDbPoint
 10
77.8834322030564
 20
191.1207521227724
 30
0.0
  0
ENDBLK
  5
577E
330
5773
100
AcDbEntity
  8
0
100
AcDbBlockEnd
  0
BLOCK
  5
579F
330
579E
100
AcDbEntity
  8
0
100
AcDbBlockBegin
  2
*D30
 70
     1
 10
0.0
 20
0.0
 30
0.0
  3
*D30
  1
*D31
  0
LINE
  5
57A1
330
579E
100
AcDbEntity
  8
寸法
  6
Continuous
 62
     0
370
    -2
100
AcDbLine
 10
103.9325120145531
 20
372.0686993856673
 30
0.0
 11
103.9325120145531
 21
378.7852477434631
 31
0.0
  0
LINE
  5
57A2
330
579E
100
AcDbEntity
  8
寸法
  6
Continuous
 62
     0
370
    -2
100
AcDbLine
 10
112.4325120145531
 20
372.0686993856673
 30
0.0
 11
112.4325120145531
 21
378.7852477434631
 31
0.0
  0
LINE
  5
57A3
330
579E
100
AcDbEntity
  8
寸法
  6
Continuous
 62
     0
370
    -2
100
AcDbLine
 10
105.4325120145531
 20
378.7852477434631
 30
0.0
 11
110.9325120145531
 21
378.7852477434631
 31
0.0
  0
INSERT
  5
57A4
330
579E
100
AcDbEntity
  8
寸法
 62
     0
370
    -2
100
AcDbBlockReference
  2
_DOT
 10
103.9325120145531
 20
378.7852477434631
 30
0.0
 41
1.5
 42
1.5
 43
1.5
 50
180.0
  0
INSERT
  5
57A5
330
579E
100
AcDbEntity
  8
寸法
 62
     0
370
    -2
100
AcDbBlockReference
  2
_DOT
 10
112.4325120145531
 20
378.7852477434631
 30
0.0
 41
1.5
 42
1.5
 43
1.5
  0
MTEXT
  5
57A6
330
579E
100
AcDbEntity
  8
寸法
  6
Continuous
 62
     0
100
AcDbMText
 10
108.1825120145531
 20
383.2852477434631
 30
0.0
 40
5.0
 41
0.0
 46
0.0
 71
     5
 72
     1
  1
\A1;8.5
  7
ＭＳ ゴシック
 73
     1
 44
1.0
  0
POINT
  5
57A7
330
579E
100
AcDbEntity
  8
Defpoints
 62
     0
100
AcDbPoint
 10
103.9325120145531
 20
367.0686993856673
 30
0.0
  0
POINT
  5
57A8
330
579E
100
AcDbEntity
  8
Defpoints
 62
     0
100
AcDbPoint
 10
112.4325120145531
 20
367.0686993856673
 30
0.0
  0
POINT
  5
57A9
330
579E
100
AcDbEntity
  8
Defpoints
 62
     0
100
AcDbPoint
 10
112.4325120145531
 20
378.7852477434631
 30
0.0
  0
ENDBLK
  5
57A0
330
579E
100
AcDbEntity
  8
0
100
AcDbBlockEnd
  0
BLOCK
  5
57AB
330
57AA
100
AcDbEntity
  8
0
100
AcDbBlockBegin
  2
*D31
 70
     1
 10
0.0
 20
0.0
 30
0.0
  3
*D31
  1
*D32
  0
LINE
  5
57AD
330
57AA
100
AcDbEntity
  8
寸法
  6
Continuous
 62
     0
370
    -2
100
AcDbLine
 10
153.7210231602584
 20
354.7335990428101
 30
0.0
 11
169.1440199581582
 21
354.7335990428101
 31
0.0
  0
LINE
  5
57AE
330
57AA
100
AcDbEntity
  8
寸法
  6
Continuous
 62
     0
370
    -2
100
AcDbLine
 10
159.4759396838725
 20
348.7335990428101
 30
0.0
 11
169.1440199581582
 21
348.7335990428101
 31
0.0
  0
LINE
  5
57AF
330
57AA
100
AcDbEntity
  8
寸法
  6
Continuous
 62
     0
370
    -2
100
AcDbLine
 10
169.1440199581582
 20
353.2335990428101
 30
0.0
 11
169.1440199581582
 21
350.2335990428101
 31
0.0
  0
INSERT
  5
57B0
330
57AA
100
AcDbEntity
  8
寸法
 62
     0
370
    -2
100
AcDbBlockReference
  2
_DOT
 10
169.1440199581582
 20
354.7335990428101
 30
0.0
 41
1.5
 42
1.5
 43
1.5
 50
90.0
  0
INSERT
  5
57B1
330
57AA
100
AcDbEntity
  8
寸法
 62
     0
370
    -2
100
AcDbBlockReference
  2
_DOT
 10
169.1440199581582
 20
348.7335990428101
 30
0.0
 41
1.5
 42
1.5
 43
1.5
 50
270.0
  0
MTEXT
  5
57B2
330
57AA
100
AcDbEntity
  8
寸法
  6
Continuous
 62
     0
100
AcDbMText
 10
164.6440199581582
 20
351.7335990428101
 30
0.0
 40
5.0
 41
0.0
 46
0.0
 71
     5
 72
     1
  1
\A1;6
  7
ＭＳ ゴシック
 11
0.0
 21
1.0
 31
0.0
 73
     1
 44
1.0
  0
POINT
  5
57B3
330
57AA
100
AcDbEntity
  8
Defpoints
 62
     0
100
AcDbPoint
 10
148.7210231602584
 20
354.7335990428101
 30
0.0
  0
POINT
  5
57B4
330
57AA
100
AcDbEntity
  8
Defpoints
 62
     0
100
AcDbPoint
 10
154.4759396838725
 20
348.7335990428101
 30
0.0
  0
POINT
  5
57B5
330
57AA
100
AcDbEntity
  8
Defpoints
 62
     0
100
AcDbPoint
 10
169.1440199581582
 20
348.7335990428101
 30
0.0
  0
ENDBLK
  5
57AC
330
57AA
100
AcDbEntity
  8
0
100
AcDbBlockEnd
  0
BLOCK
  5
5A67
330
5A66
100
AcDbEntity
  8
0
100
AcDbBlockBegin
  2
*D32
 70
     1
 10
0.0
 20
0.0
 30
0.0
  3
*D32
  1

  0
LINE
  5
5A69
330
5A66
100
AcDbEntity
  8
CutoutOverlay
  6
Continuous
 62
     0
370
    -2
100
AcDbLine
 10
698.8560945937597
 20
341.5335990428101
 30
0.0
 11
647.4080945937598
 21
341.5335990428101
 31
0.0
  0
LINE
  5
5A6A
330
5A66
100
AcDbEntity
  8
CutoutOverlay
  6
Continuous
 62
     0
370
    -2
100
AcDbLine
 10
698.8560945937597
 20
279.5335990428101
 30
0.0
 11
647.4080945937598
 21
279.5335990428101
 31
0.0
  0
LINE
  5
5A6B
330
5A66
100
AcDbEntity
  8
CutoutOverlay
  6
Continuous
 62
     0
370
    -2
100
AcDbLine
 10
647.4080945937598
 20
340.0335990428101
 30
0.0
 11
647.4080945937598
 21
281.0335990428101
 31
0.0
  0
INSERT
  5
5A6C
330
5A66
100
AcDbEntity
  8
CutoutOverlay
 62
     0
370
    -2
100
AcDbBlockReference
  2
_DOT
 10
647.4080945937598
 20
341.5335990428101
 30
0.0
 41
1.5
 42
1.5
 43
1.5
 50
90.0
  0
INSERT
  5
5A6D
330
5A66
100
AcDbEntity
  8
CutoutOverlay
 62
     0
370
    -2
100
AcDbBlockReference
  2
_DOT
 10
647.4080945937598
 20
279.5335990428101
 30
0.0
 41
1.5
 42
1.5
 43
1.5
 50
270.0
  0
MTEXT
  5
5A6E
330
5A66
100
AcDbEntity
  8
CutoutOverlay
  6
Continuous
 62
     0
370
     0
100
AcDbMText
 10
642.9080945937598
 20
310.5335990428101
 30
0.0
 40
5.0
 41
0.0
 46
0.0
 71
     5
 72
     1
  1
\A1;62
  7
ＭＳ ゴシック
 11
0.0
 21
1.0
 31
0.0
 73
     1
 44
1.0
  0
POINT
  5
5A6F
330
5A66
100
AcDbEntity
  8
Defpoints
 62
     0
100
AcDbPoint
 10
703.8560945937597
 20
341.5335990428101
 30
0.0
  0
POINT
  5
5A70
330
5A66
100
AcDbEntity
  8
Defpoints
 62
     0
100
AcDbPoint
 10
703.8560945937597
 20
279.5335990428101
 30
0.0
  0
POINT
  5
5A71
330
5A66
100
AcDbEntity
  8
Defpoints
 62
     0
100
AcDbPoint
 10
647.4080945937598
 20
279.5335990428101
 30
0.0
  0
ENDBLK
  5
5A68
330
5A66
100
AcDbEntity
  8
0
100
AcDbBlockEnd
  0
BLOCK
  5
5A74
330
5A73
100
AcDbEntity
  8
0
100
AcDbBlockBegin
  2
*D33
 70
     1
 10
0.0
 20
0.0
 30
0.0
  3
*D33
  1

  0
LINE
  5
5A76
330
5A73
100
AcDbEntity
  8
寸法
 62
     0
370
    -2
100
AcDbLine
 10
139.0010535271614
 20
268.8682783387544
 30
0.0
 11
76.65052552716156
 21
268.8682783387544
 31
0.0
  0
LINE
  5
5A77
330
5A73
100
AcDbEntity
  8
寸法
 62
     0
370
    -2
100
AcDbLine
 10
88.93974152716157
 20
330.8682783387544
 30
0.0
 11
76.65052552716156
 21
330.8682783387544
 31
0.0
  0
LINE
  5
5A78
330
5A73
100
AcDbEntity
  8
寸法
 62
     0
370
    -2
100
AcDbLine
 10
76.65052552716156
 20
270.3682783387544
 30
0.0
 11
76.65052552716156
 21
329.3682783387544
 31
0.0
  0
INSERT
  5
5A79
330
5A73
100
AcDbEntity
  8
寸法
 62
     0
370
    -2
100
AcDbBlockReference
  2
_DOT
 10
76.65052552716156
 20
268.8682783387544
 30
0.0
 41
1.5
 42
1.5
 43
1.5
 50
270.0
  0
INSERT
  5
5A7A
330
5A73
100
AcDbEntity
  8
寸法
 62
     0
370
    -2
100
AcDbBlockReference
  2
_DOT
 10
76.65052552716156
 20
330.8682783387544
 30
0.0
 41
1.5
 42
1.5
 43
1.5
 50
90.0
  0
MTEXT
  5
5A7B
330
5A73
100
AcDbEntity
  8
寸法
  6
Continuous
 62
     0
100
AcDbMText
 10
72.15052552716156
 20
299.8682783387544
 30
0.0
 40
5.0
 41
0.0
 46
0.0
 71
     5
 72
     1
  1
\A1;62
  7
ＭＳ ゴシック
 11
0.0
 21
1.0
 31
0.0
 73
     1
 44
1.0
  0
POINT
  5
5A7C
330
5A73
100
AcDbEntity
  8
Defpoints
 62
     0
100
AcDbPoint
 10
144.0010535271614
 20
268.8682783387544
 30
0.0
  0
POINT
  5
5A7D
330
5A73
100
AcDbEntity
  8
Defpoints
 62
     0
100
AcDbPoint
 10
93.93974152716157
 20
330.8682783387544
 30
0.0
  0
POINT
  5
5A7E
330
5A73
100
AcDbEntity
  8
Defpoints
 62
     0
100
AcDbPoint
 10
76.65052552716156
 20
330.8682783387544
 30
0.0
  0
ENDBLK
  5
5A75
330
5A73
100
AcDbEntity
  8
0
100
AcDbBlockEnd
  0
BLOCK
  5
5A83
330
5A82
100
AcDbEntity
  8
0
100
AcDbBlockBegin
  2
*D34
 70
     1
 10
0.0
 20
0.0
 30
0.0
  3
*D34
  1

  0
LINE
  5
5A85
330
5A82
100
AcDbEntity
  8
寸法
 62
     0
370
    -2
100
AcDbLine
 10
88.93974152716157
 20
330.8682783387544
 30
0.0
 11
76.65052552716156
 21
330.8682783387544
 31
0.0
  0
LINE
  5
5A86
330
5A82
100
AcDbEntity
  8
寸法
 62
     0
370
    -2
100
AcDbLine
 10
89.08087417195725
 20
338.4896644105034
 30
0.0
 11
76.65052552716156
 21
338.4896644105034
 31
0.0
  0
LINE
  5
5A87
330
5A82
100
AcDbEntity
  8
寸法
 62
     0
370
    -2
100
AcDbLine
 10
76.65052552716156
 20
332.3682783387544
 30
0.0
 11
76.65052552716156
 21
336.9896644105034
 31
0.0
  0
INSERT
  5
5A88
330
5A82
100
AcDbEntity
  8
寸法
 62
     0
370
    -2
100
AcDbBlockReference
  2
_DOT
 10
76.65052552716156
 20
330.8682783387544
 30
0.0
 41
1.5
 42
1.5
 43
1.5
 50
270.0
  0
INSERT
  5
5A89
330
5A82
100
AcDbEntity
  8
寸法
 62
     0
370
    -2
100
AcDbBlockReference
  2
_DOT
 10
76.65052552716156
 20
338.4896644105034
 30
0.0
 41
1.5
 42
1.5
 43
1.5
 50
90.0
  0
MTEXT
  5
5A8A
330
5A82
100
AcDbEntity
  8
寸法
  6
Continuous
 62
     0
100
AcDbMText
 10
72.15052552716156
 20
334.6789713746289
 30
0.0
 40
5.0
 41
0.0
 46
0.0
 71
     5
 72
     1
  1
\A1;8
  7
ＭＳ ゴシック
 11
0.0
 21
1.0
 31
0.0
 73
     1
 44
1.0
  0
POINT
  5
5A8B
330
5A82
100
AcDbEntity
  8
Defpoints
 62
     0
100
AcDbPoint
 10
93.93974152716157
 20
330.8682783387544
 30
0.0
  0
POINT
  5
5A8C
330
5A82
100
AcDbEntity
  8
Defpoints
 62
     0
100
AcDbPoint
 10
94.08087417195725
 20
338.4896644105034
 30
0.0
  0
POINT
  5
5A8D
330
5A82
100
AcDbEntity
  8
Defpoints
 62
     0
100
AcDbPoint
 10
76.65052552716156
 20
338.4896644105034
 30
0.0
  0
ENDBLK
  5
5A84
330
5A82
100
AcDbEntity
  8
0
100
AcDbBlockEnd
  0
BLOCK
  5
5A92
330
5A91
100
AcDbEntity
  8
0
100
AcDbBlockBegin
  2
*D35
 70
     1
 10
0.0
 20
0.0
 30
0.0
  3
*D35
  1

  0
LINE
  5
5A94
330
5A91
100
AcDbEntity
  8
寸法
 62
     0
370
    -2
100
AcDbLine
 10
102.5808741719572
 20
349.8899990393499
 30
0.0
 11
102.5808741719572
 21
359.4460979413835
 31
0.0
  0
LINE
  5
5A95
330
5A91
100
AcDbEntity
  8
寸法
 62
     0
370
    -2
100
AcDbLine
 10
140.5808741719572
 20
349.8899990393499
 30
0.0
 11
140.5808741719572
 21
359.4460979413835
 31
0.0
  0
LINE
  5
5A96
330
5A91
100
AcDbEntity
  8
寸法
 62
     0
370
    -2
100
AcDbLine
 10
104.0808741719572
 20
359.4460979413835
 30
0.0
 11
139.0808741719572
 21
359.4460979413835
 31
0.0
  0
INSERT
  5
5A97
330
5A91
100
AcDbEntity
  8
寸法
 62
     0
370
    -2
100
AcDbBlockReference
  2
_DOT
 10
102.5808741719572
 20
359.4460979413835
 30
0.0
 41
1.5
 42
1.5
 43
1.5
 50
180.0
  0
INSERT
  5
5A98
330
5A91
100
AcDbEntity
  8
寸法
 62
     0
370
    -2
100
AcDbBlockReference
  2
_DOT
 10
140.5808741719572
 20
359.4460979413835
 30
0.0
 41
1.5
 42
1.5
 43
1.5
  0
MTEXT
  5
5A99
330
5A91
100
AcDbEntity
  8
寸法
  6
Continuous
 62
     0
100
AcDbMText
 10
121.5808741719572
 20
363.9460979413835
 30
0.0
 40
5.0
 41
0.0
 46
0.0
 71
     5
 72
     1
  1
\A1;38
  7
ＭＳ ゴシック
 73
     1
 44
1.0
  0
POINT
  5
5A9A
330
5A91
100
AcDbEntity
  8
Defpoints
 62
     0
100
AcDbPoint
 10
102.5808741719572
 20
344.8899990393499
 30
0.0
  0
POINT
  5
5A9B
330
5A91
100
AcDbEntity
  8
Defpoints
 62
     0
100
AcDbPoint
 10
140.5808741719572
 20
344.8899990393499
 30
0.0
  0
POINT
  5
5A9C
330
5A91
100
AcDbEntity
  8
Defpoints
 62
     0
100
AcDbPoint
 10
140.5808741719572
 20
359.4460979413835
 30
0.0
  0
ENDBLK
  5
5A93
330
5A91
100
AcDbEntity
  8
0
100
AcDbBlockEnd
  0
BLOCK
  5
5A9E
330
5A9D
100
AcDbEntity
  8
0
100
AcDbBlockBegin
  2
*D36
 70
     1
 10
0.0
 20
0.0
 30
0.0
  3
*D36
  1

  0
LINE
  5
5AA0
330
5A9D
100
AcDbEntity
  8
寸法
 62
     0
370
    -2
100
AcDbLine
 10
98.33087417195725
 20
365.5241408813607
 30
0.0
 11
98.33087417195725
 21
372.2406892391565
 31
0.0
  0
LINE
  5
5AA1
330
5A9D
100
AcDbEntity
  8
寸法
 62
     0
370
    -2
100
AcDbLine
 10
106.8308741719572
 20
365.5241408813607
 30
0.0
 11
106.8308741719572
 21
372.2406892391565
 31
0.0
  0
LINE
  5
5AA2
330
5A9D
100
AcDbEntity
  8
寸法
 62
     0
370
    -2
100
AcDbLine
 10
99.83087417195725
 20
372.2406892391565
 30
0.0
 11
105.3308741719572
 21
372.2406892391565
 31
0.0
  0
INSERT
  5
5AA3
330
5A9D
100
AcDbEntity
  8
寸法
 62
     0
370
    -2
100
AcDbBlockReference
  2
_DOT
 10
98.33087417195725
 20
372.2406892391565
 30
0.0
 41
1.5
 42
1.5
 43
1.5
 50
180.0
  0
INSERT
  5
5AA4
330
5A9D
100
AcDbEntity
  8
寸法
 62
     0
370
    -2
100
AcDbBlockReference
  2
_DOT
 10
106.8308741719572
 20
372.2406892391565
 30
0.0
 41
1.5
 42
1.5
 43
1.5
  0
MTEXT
  5
5AA5
330
5A9D
100
AcDbEntity
  8
寸法
  6
Continuous
 62
     0
100
AcDbMText
 10
102.5808741719572
 20
376.7406892391565
 30
0.0
 40
5.0
 41
0.0
 46
0.0
 71
     5
 72
     1
  1
\A1;8.5
  7
ＭＳ ゴシック
 73
     1
 44
1.0
  0
POINT
  5
5AA6
330
5A9D
100
AcDbEntity
  8
Defpoints
 62
     0
100
AcDbPoint
 10
98.33087417195725
 20
360.5241408813607
 30
0.0
  0
POINT
  5
5AA7
330
5A9D
100
AcDbEntity
  8
Defpoints
 62
     0
100
AcDbPoint
 10
106.8308741719572
 20
360.5241408813607
 30
0.0
  0
POINT
  5
5AA8
330
5A9D
100
AcDbEntity
  8
Defpoints
 62
     0
100
AcDbPoint
 10
106.8308741719572
 20
372.2406892391565
 30
0.0
  0
ENDBLK
  5
5A9F
330
5A9D
100
AcDbEntity
  8
0
100
AcDbBlockEnd
  0
BLOCK
  5
5AAA
330
5AA9
100
AcDbEntity
  8
0
100
AcDbBlockBegin
  2
*D37
 70
     1
 10
0.0
 20
0.0
 30
0.0
  3
*D37
  1

  0
LINE
  5
5AAC
330
5AA9
100
AcDbEntity
  8
寸法
 62
     0
370
    -2
100
AcDbLine
 10
148.1193853176625
 20
344.4896644105034
 30
0.0
 11
163.5423821155623
 21
344.4896644105034
 31
0.0
  0
LINE
  5
5AAD
330
5AA9
100
AcDbEntity
  8
寸法
 62
     0
370
    -2
100
AcDbLine
 10
153.8743018412766
 20
338.4896644105034
 30
0.0
 11
163.5423821155623
 21
338.4896644105034
 31
0.0
  0
LINE
  5
5AAE
330
5AA9
100
AcDbEntity
  8
寸法
 62
     0
370
    -2
100
AcDbLine
 10
163.5423821155623
 20
342.9896644105034
 30
0.0
 11
163.5423821155623
 21
339.9896644105034
 31
0.0
  0
INSERT
  5
5AAF
330
5AA9
100
AcDbEntity
  8
寸法
 62
     0
370
    -2
100
AcDbBlockReference
  2
_DOT
 10
163.5423821155623
 20
344.4896644105034
 30
0.0
 41
1.5
 42
1.5
 43
1.5
 50
90.0
  0
INSERT
  5
5AB0
330
5AA9
100
AcDbEntity
  8
寸法
 62
     0
370
    -2
100
AcDbBlockReference
  2
_DOT
 10
163.5423821155623
 20
338.4896644105034
 30
0.0
 41
1.5
 42
1.5
 43
1.5
 50
270.0
  0
MTEXT
  5
5AB1
330
5AA9
100
AcDbEntity
  8
寸法
  6
Continuous
 62
     0
100
AcDbMText
 10
159.0423821155623
 20
341.4896644105034
 30
0.0
 40
5.0
 41
0.0
 46
0.0
 71
     5
 72
     1
  1
\A1;6
  7
ＭＳ ゴシック
 11
0.0
 21
1.0
 31
0.0
 73
     1
 44
1.0
  0
POINT
  5
5AB2
330
5AA9
100
AcDbEntity
  8
Defpoints
 62
     0
100
AcDbPoint
 10
143.1193853176625
 20
344.4896644105034
 30
0.0
  0
POINT
  5
5AB3
330
5AA9
100
AcDbEntity
  8
Defpoints
 62
     0
100
AcDbPoint
 10
148.8743018412766
 20
338.4896644105034
 30
0.0
  0
POINT
  5
5AB4
330
5AA9
100
AcDbEntity
  8
Defpoints
 62
     0
100
AcDbPoint
 10
163.5423821155623
 20
338.4896644105034
 30
0.0
  0
ENDBLK
  5
5AAB
330
5AA9
100
AcDbEntity
  8
0
100
AcDbBlockEnd
  0
BLOCK
  5
5ABA
330
5AB9
100
AcDbEntity
  8
0
100
AcDbBlockBegin
  2
*D38
 70
     1
 10
0.0
 20
0.0
 30
0.0
  3
*D38
  1

  0
LINE
  5
5ABC
330
5AB9
100
AcDbEntity
  8
寸法
 62
     0
370
    -2
100
AcDbLine
 10
241.5663199601154
 20
260.9713157294311
 30
0.0
 11
241.5663199601154
 21
238.1176660775409
 31
0.0
  0
LINE
  5
5ABD
330
5AB9
100
AcDbEntity
  8
寸法
 62
     0
370
    -2
100
AcDbLine
 10
107.5663199601154
 20
310.6476911656129
 30
0.0
 11
107.5663199601154
 21
238.1176660775409
 31
0.0
  0
LINE
  5
5ABE
330
5AB9
100
AcDbEntity
  8
寸法
 62
     0
370
    -2
100
AcDbLine
 10
240.0663199601154
 20
238.1176660775409
 30
0.0
 11
109.0663199601154
 21
238.1176660775409
 31
0.0
  0
INSERT
  5
5ABF
330
5AB9
100
AcDbEntity
  8
寸法
 62
     0
370
    -2
100
AcDbBlockReference
  2
_DOT
 10
241.5663199601154
 20
238.1176660775409
 30
0.0
 41
1.5
 42
1.5
 43
1.5
  0
INSERT
  5
5AC0
330
5AB9
100
AcDbEntity
  8
寸法
 62
     0
370
    -2
100
AcDbBlockReference
  2
_DOT
 10
107.5663199601154
 20
238.1176660775409
 30
0.0
 41
1.5
 42
1.5
 43
1.5
 50
180.0
  0
MTEXT
  5
5AC1
330
5AB9
100
AcDbEntity
  8
寸法
  6
Continuous
 62
     0
100
AcDbMText
 10
174.5663199601154
 20
242.6176660775409
 30
0.0
 40
5.0
 41
0.0
 46
0.0
 71
     5
 72
     1
  1
\A1;134
  7
ＭＳ ゴシック
 73
     1
 44
1.0
  0
POINT
  5
5AC2
330
5AB9
100
AcDbEntity
  8
Defpoints
 62
     0
100
AcDbPoint
 10
241.5663199601154
 20
265.9713157294311
 30
0.0
  0
POINT
  5
5AC3
330
5AB9
100
AcDbEntity
  8
Defpoints
 62
     0
100
AcDbPoint
 10
107.5663199601154
 20
315.6476911656129
 30
0.0
  0
POINT
  5
5AC4
330
5AB9
100
AcDbEntity
  8
Defpoints
 62
     0
100
AcDbPoint
 10
107.5663199601154
 20
238.1176660775409
 30
0.0
  0
ENDBLK
  5
5ABB
330
5AB9
100
AcDbEntity
  8
0
100
AcDbBlockEnd
  0
BLOCK
  5
5ADB
330
5ADA
100
AcDbEntity
  8
0
100
AcDbBlockBegin
  2
*D39
 70
     1
 10
0.0
 20
0.0
 30
0.0
  3
*D39
  1

  0
LINE
  5
5ADD
330
5ADA
100
AcDbEntity
  8
MODEL
  6
Continuous
 62
     0
370
    -2
100
AcDbLine
 10
801.9566330660181
 20
188.2557876825351
 30
0.0
 11
807.5764750382771
 21
188.2557876825351
 31
0.0
  0
LINE
  5
5ADE
330
5ADA
100
AcDbEntity
  8
MODEL
  6
Continuous
 62
     0
370
    -2
100
AcDbLine
 10
801.9566330660181
 20
173.4699061575405
 30
0.0
 11
807.5764750382771
 21
173.4699061575405
 31
0.0
  0
LINE
  5
5ADF
330
5ADA
100
AcDbEntity
  8
MODEL
  6
Continuous
 62
     0
370
    -2
100
AcDbLine
 10
807.5764750382771
 20
186.7557876825351
 30
0.0
 11
807.5764750382771
 21
174.9699061575405
 31
0.0
  0
INSERT
  5
5AE0
330
5ADA
100
AcDbEntity
  8
MODEL
 62
     0
370
    -2
100
AcDbBlockReference
  2
_DOT
 10
807.5764750382771
 20
188.2557876825351
 30
0.0
 41
1.5
 42
1.5
 43
1.5
 50
90.0
  0
INSERT
  5
5AE1
330
5ADA
100
AcDbEntity
  8
MODEL
 62
     0
370
    -2
100
AcDbBlockReference
  2
_DOT
 10
807.5764750382771
 20
173.4699061575405
 30
0.0
 41
1.5
 42
1.5
 43
1.5
 50
270.0
  0
MTEXT
  5
5AE2
330
5ADA
100
AcDbEntity
  8
MODEL
  6
Continuous
 62
     0
100
AcDbMText
 10
803.0764750382771
 20
180.8628469200378
 30
0.0
 40
5.0
 41
0.0
 46
0.0
 71
     5
 72
     1
  1
\A1;15
  7
ＭＳ ゴシック
 11
0.0
 21
1.0
 31
0.0
 73
     1
 44
1.0
  0
POINT
  5
5AE3
330
5ADA
100
AcDbEntity
  8
Defpoints
 62
     0
100
AcDbPoint
 10
796.9566330660181
 20
188.2557876825351
 30
0.0
  0
POINT
  5
5AE4
330
5ADA
100
AcDbEntity
  8
Defpoints
 62
     0
100
AcDbPoint
 10
796.9566330660181
 20
173.4699061575405
 30
0.0
  0
POINT
  5
5AE5
330
5ADA
100
AcDbEntity
  8
Defpoints
 62
     0
100
AcDbPoint
 10
807.5764750382771
 20
173.4699061575405
 30
0.0
  0
ENDBLK
  5
5ADC
330
5ADA
100
AcDbEntity
  8
0
100
AcDbBlockEnd
  0
BLOCK
  5
5B14
330
5B13
100
AcDbEntity
  8
0
100
AcDbBlockBegin
  2
*D40
 70
     1
 10
0.0
 20
0.0
 30
0.0
  3
*D40
  1

  0
LINE
  5
5B16
330
5B13
100
AcDbEntity
  8
寸法
 62
     0
370
    -2
100
AcDbLine
 10
120.6618892974019
 20
138.1189122877312
 30
0.0
 11
120.6618892974019
 21
122.4413154532795
 31
0.0
  0
LINE
  5
5B17
330
5B13
100
AcDbEntity
  8
寸法
 62
     0
370
    -2
100
AcDbLine
 10
128.6618892974019
 20
138.1189122877312
 30
0.0
 11
128.6618892974019
 21
122.4413154532795
 31
0.0
  0
LINE
  5
5B18
330
5B13
100
AcDbEntity
  8
寸法
 62
     0
370
    -2
100
AcDbLine
 10
122.1618892974019
 20
122.4413154532795
 30
0.0
 11
127.1618892974019
 21
122.4413154532795
 31
0.0
  0
INSERT
  5
5B19
330
5B13
100
AcDbEntity
  8
寸法
 62
     0
370
    -2
100
AcDbBlockReference
  2
_DOT
 10
120.6618892974019
 20
122.4413154532795
 30
0.0
 41
1.5
 42
1.5
 43
1.5
 50
180.0
  0
INSERT
  5
5B1A
330
5B13
100
AcDbEntity
  8
寸法
 62
     0
370
    -2
100
AcDbBlockReference
  2
_DOT
 10
128.6618892974019
 20
122.4413154532795
 30
0.0
 41
1.5
 42
1.5
 43
1.5
  0
MTEXT
  5
5B1B
330
5B13
100
AcDbEntity
  8
寸法
  6
Continuous
 62
     0
100
AcDbMText
 10
124.6618892974019
 20
126.9413154532795
 30
0.0
 40
5.0
 41
0.0
 46
0.0
 71
     5
 72
     1
  1
\A1;8
  7
ＭＳ ゴシック
 73
     1
 44
1.0
  0
POINT
  5
5B1C
330
5B13
100
AcDbEntity
  8
Defpoints
 62
     0
100
AcDbPoint
 10
120.6618892974019
 20
143.1189122877312
 30
0.0
  0
POINT
  5
5B1D
330
5B13
100
AcDbEntity
  8
Defpoints
 62
     0
100
AcDbPoint
 10
128.6618892974019
 20
143.1189122877312
 30
0.0
  0
POINT
  5
5B1E
330
5B13
100
AcDbEntity
  8
Defpoints
 62
     0
100
AcDbPoint
 10
128.6618892974019
 20
122.4413154532795
 30
0.0
  0
ENDBLK
  5
5B15
330
5B13
100
AcDbEntity
  8
0
100
AcDbBlockEnd
  0
BLOCK
  5
5B21
330
5B20
100
AcDbEntity
  8
0
100
AcDbBlockBegin
  2
*D41
 70
     1
 10
0.0
 20
0.0
 30
0.0
  3
*D41
  1

  0
LINE
  5
5B23
330
5B20
100
AcDbEntity
  8
MODEL
  6
Continuous
 62
     0
370
    -2
100
AcDbLine
 10
854.3791701004751
 20
279.2266332263902
 30
0.0
 11
864.5599988262054
 21
279.2266332263902
 31
0.0
  0
LINE
  5
5B24
330
5B20
100
AcDbEntity
  8
MODEL
  6
Continuous
 62
     0
370
    -2
100
AcDbLine
 10
854.3791701004751
 20
299.2266332263902
 30
0.0
 11
864.5599988262054
 21
299.2266332263902
 31
0.0
  0
LINE
  5
5B25
330
5B20
100
AcDbEntity
  8
MODEL
  6
Continuous
 62
     0
370
    -2
100
AcDbLine
 10
864.5599988262054
 20
280.7266332263902
 30
0.0
 11
864.5599988262054
 21
297.7266332263902
 31
0.0
  0
INSERT
  5
5B26
330
5B20
100
AcDbEntity
  8
MODEL
 62
     0
370
    -2
100
AcDbBlockReference
  2
_DOT
 10
864.5599988262054
 20
279.2266332263902
 30
0.0
 41
1.5
 42
1.5
 43
1.5
 50
270.0
  0
INSERT
  5
5B27
330
5B20
100
AcDbEntity
  8
MODEL
 62
     0
370
    -2
100
AcDbBlockReference
  2
_DOT
 10
864.5599988262054
 20
299.2266332263902
 30
0.0
 41
1.5
 42
1.5
 43
1.5
 50
90.0
  0
MTEXT
  5
5B28
330
5B20
100
AcDbEntity
  8
MODEL
  6
Continuous
 62
     0
100
AcDbMText
 10
860.0599988262054
 20
289.2266332263902
 30
0.0
 40
5.0
 41
0.0
 46
0.0
 71
     5
 72
     1
  1
\A1;20
  7
ＭＳ ゴシック
 11
0.0
 21
1.0
 31
0.0
 73
     1
 44
1.0
  0
POINT
  5
5B29
330
5B20
100
AcDbEntity
  8
Defpoints
 62
     0
100
AcDbPoint
 10
849.3791701004751
 20
279.2266332263902
 30
0.0
  0
POINT
  5
5B2A
330
5B20
100
AcDbEntity
  8
Defpoints
 62
     0
100
AcDbPoint
 10
849.3791701004751
 20
299.2266332263902
 30
0.0
  0
POINT
  5
5B2B
330
5B20
100
AcDbEntity
  8
Defpoints
 62
     0
100
AcDbPoint
 10
864.5599988262054
 20
299.2266332263902
 30
0.0
  0
ENDBLK
  5
5B22
330
5B20
100
AcDbEntity
  8
0
100
AcDbBlockEnd
  0
BLOCK
  5
5B2E
330
5B2D
100
AcDbEntity
  8
0
100
AcDbBlockBegin
  2
*D42
 70
     1
 10
0.0
 20
0.0
 30
0.0
  3
*D42
  1

  0
LINE
  5
5B30
330
5B2D
100
AcDbEntity
  8
寸法
 62
     0
370
    -2
100
AcDbLine
 10
248.8126731643589
 20
269.6193095420285
 30
0.0
 11
266.7933802818951
 21
269.6193095420285
 31
0.0
  0
LINE
  5
5B31
330
5B2D
100
AcDbEntity
  8
寸法
 62
     0
370
    -2
100
AcDbLine
 10
248.8126731643589
 20
290.6193095420285
 30
0.0
 11
266.7933802818951
 21
290.6193095420285
 31
0.0
  0
LINE
  5
5B32
330
5B2D
100
AcDbEntity
  8
寸法
 62
     0
370
    -2
100
AcDbLine
 10
266.7933802818951
 20
271.1193095420285
 30
0.0
 11
266.7933802818951
 21
289.1193095420285
 31
0.0
  0
INSERT
  5
5B33
330
5B2D
100
AcDbEntity
  8
寸法
 62
     0
370
    -2
100
AcDbBlockReference
  2
_DOT
 10
266.7933802818951
 20
269.6193095420285
 30
0.0
 41
1.5
 42
1.5
 43
1.5
 50
270.0
  0
INSERT
  5
5B34
330
5B2D
100
AcDbEntity
  8
寸法
 62
     0
370
    -2
100
AcDbBlockReference
  2
_DOT
 10
266.7933802818951
 20
290.6193095420285
 30
0.0
 41
1.5
 42
1.5
 43
1.5
 50
90.0
  0
MTEXT
  5
5B35
330
5B2D
100
AcDbEntity
  8
寸法
  6
Continuous
 62
     0
100
AcDbMText
 10
262.2933802818951
 20
280.1193095420286
 30
0.0
 40
5.0
 41
0.0
 46
0.0
 71
     5
 72
     1
  1
\A1;21
  7
ＭＳ ゴシック
 11
0.0
 21
1.0
 31
0.0
 73
     1
 44
1.0
  0
POINT
  5
5B36
330
5B2D
100
AcDbEntity
  8
Defpoints
 62
     0
100
AcDbPoint
 10
243.8126731643589
 20
269.6193095420285
 30
0.0
  0
POINT
  5
5B37
330
5B2D
100
AcDbEntity
  8
Defpoints
 62
     0
100
AcDbPoint
 10
243.8126731643589
 20
290.6193095420285
 30
0.0
  0
POINT
  5
5B38
330
5B2D
100
AcDbEntity
  8
Defpoints
 62
     0
100
AcDbPoint
 10
266.7933802818951
 20
290.6193095420285
 30
0.0
  0
ENDBLK
  5
5B2F
330
5B2D
100
AcDbEntity
  8
0
100
AcDbBlockEnd
  0
BLOCK
  5
5B6D
330
5B6C
100
AcDbEntity
  8
0
100
AcDbBlockBegin
  2
*D43
 70
     1
 10
0.0
 20
0.0
 30
0.0
  3
*D43
  1

  0
LINE
  5
5B6F
330
5B6C
100
AcDbEntity
  8
MODEL
  6
Continuous
 62
     0
370
    -2
100
AcDbLine
 10
984.2649785494426
 20
148.3628469200378
 30
0.0
 11
984.2649785494426
 21
132.6852500855862
 31
0.0
  0
LINE
  5
5B70
330
5B6C
100
AcDbEntity
  8
MODEL
  6
Continuous
 62
     0
370
    -2
100
AcDbLine
 10
992.2649785494426
 20
148.3628469200378
 30
0.0
 11
992.2649785494426
 21
132.6852500855862
 31
0.0
  0
LINE
  5
5B71
330
5B6C
100
AcDbEntity
  8
MODEL
  6
Continuous
 62
     0
370
    -2
100
AcDbLine
 10
985.7649785494426
 20
132.6852500855862
 30
0.0
 11
990.7649785494426
 21
132.6852500855862
 31
0.0
  0
INSERT
  5
5B72
330
5B6C
100
AcDbEntity
  8
MODEL
 62
     0
370
    -2
100
AcDbBlockReference
  2
_DOT
 10
984.2649785494426
 20
132.6852500855862
 30
0.0
 41
1.5
 42
1.5
 43
1.5
 50
180.0
  0
INSERT
  5
5B73
330
5B6C
100
AcDbEntity
  8
MODEL
 62
     0
370
    -2
100
AcDbBlockReference
  2
_DOT
 10
992.2649785494426
 20
132.6852500855862
 30
0.0
 41
1.5
 42
1.5
 43
1.5
  0
MTEXT
  5
5B74
330
5B6C
100
AcDbEntity
  8
MODEL
  6
Continuous
 62
     0
100
AcDbMText
 10
988.2649785494426
 20
137.1852500855862
 30
0.0
 40
5.0
 41
0.0
 46
0.0
 71
     5
 72
     1
  1
\A1;8
  7
ＭＳ ゴシック
 73
     1
 44
1.0
  0
POINT
  5
5B75
330
5B6C
100
AcDbEntity
  8
Defpoints
 62
     0
100
AcDbPoint
 10
984.2649785494426
 20
153.3628469200378
 30
0.0
  0
POINT
  5
5B76
330
5B6C
100
AcDbEntity
  8
Defpoints
 62
     0
100
AcDbPoint
 10
992.2649785494426
 20
153.3628469200378
 30
0.0
  0
POINT
  5
5B77
330
5B6C
100
AcDbEntity
  8
Defpoints
 62
     0
100
AcDbPoint
 10
992.2649785494426
 20
132.6852500855862
 30
0.0
  0
ENDBLK
  5
5B6E
330
5B6C
100
AcDbEntity
  8
0
100
AcDbBlockEnd
  0
BLOCK
  5
5BAE
330
5BAD
100
AcDbEntity
  8
0
100
AcDbBlockBegin
  2
*D44
 70
     1
 10
0.0
 20
0.0
 30
0.0
  3
*D44
  1

  0
LINE
  5
5BB0
330
5BAD
100
AcDbEntity
  8
寸法
 62
     0
370
    -2
100
AcDbLine
 10
506.6446279098014
 20
300.8937280372542
 30
0.0
 11
524.6253350273377
 21
300.8937280372542
 31
0.0
  0
LINE
  5
5BB1
330
5BAD
100
AcDbEntity
  8
寸法
 62
     0
370
    -2
100
AcDbLine
 10
506.6446279098014
 20
321.8937280372542
 30
0.0
 11
524.6253350273377
 21
321.8937280372542
 31
0.0
  0
LINE
  5
5BB2
330
5BAD
100
AcDbEntity
  8
寸法
 62
     0
370
    -2
100
AcDbLine
 10
524.6253350273377
 20
302.3937280372542
 30
0.0
 11
524.6253350273377
 21
320.3937280372542
 31
0.0
  0
INSERT
  5
5BB3
330
5BAD
100
AcDbEntity
  8
寸法
 62
     0
370
    -2
100
AcDbBlockReference
  2
_DOT
 10
524.6253350273377
 20
300.8937280372542
 30
0.0
 41
1.5
 42
1.5
 43
1.5
 50
270.0
  0
INSERT
  5
5BB4
330
5BAD
100
AcDbEntity
  8
寸法
 62
     0
370
    -2
100
AcDbBlockReference
  2
_DOT
 10
524.6253350273377
 20
321.8937280372542
 30
0.0
 41
1.5
 42
1.5
 43
1.5
 50
90.0
  0
MTEXT
  5
5BB5
330
5BAD
100
AcDbEntity
  8
寸法
  6
Continuous
 62
     0
100
AcDbMText
 10
520.1253350273377
 20
311.3937280372543
 30
0.0
 40
5.0
 41
0.0
 46
0.0
 71
     5
 72
     1
  1
\A1;21
  7
ＭＳ ゴシック
 11
0.0
 21
1.0
 31
0.0
 73
     1
 44
1.0
  0
POINT
  5
5BB6
330
5BAD
100
AcDbEntity
  8
Defpoints
 62
     0
100
AcDbPoint
 10
501.6446279098014
 20
300.8937280372542
 30
0.0
  0
POINT
  5
5BB7
330
5BAD
100
AcDbEntity
  8
Defpoints
 62
     0
100
AcDbPoint
 10
501.6446279098014
 20
321.8937280372542
 30
0.0
  0
POINT
  5
5BB8
330
5BAD
100
AcDbEntity
  8
Defpoints
 62
     0
100
AcDbPoint
 10
524.6253350273377
 20
321.8937280372542
 30
0.0
  0
ENDBLK
  5
5BAF
330
5BAD
100
AcDbEntity
  8
0
100
AcDbBlockEnd
  0
BLOCK
  5
5BBB
330
5BBA
100
AcDbEntity
  8
0
100
AcDbBlockBegin
  2
*D45
 70
     1
 10
0.0
 20
0.0
 30
0.0
  3
*D45
  1

  0
LINE
  5
5BBD
330
5BBA
100
AcDbEntity
  8
寸法
 62
     0
370
    -2
100
AcDbLine
 10
363.3178597156399
 20
338.5896644105034
 30
0.0
 11
336.7885856870258
 21
338.5896644105034
 31
0.0
  0
LINE
  5
5BBE
330
5BBA
100
AcDbEntity
  8
寸法
 62
     0
370
    -2
100
AcDbLine
 10
363.5884320630115
 20
283.5896644105034
 30
0.0
 11
336.7885856870258
 21
283.5896644105034
 31
0.0
  0
LINE
  5
5BBF
330
5BBA
100
AcDbEntity
  8
寸法
 62
     0
370
    -2
100
AcDbLine
 10
336.7885856870258
 20
337.0896644105034
 30
0.0
 11
336.7885856870258
 21
285.0896644105034
 31
0.0
  0
INSERT
  5
5BC0
330
5BBA
100
AcDbEntity
  8
寸法
 62
     0
370
    -2
100
AcDbBlockReference
  2
_DOT
 10
336.7885856870258
 20
338.5896644105034
 30
0.0
 41
1.5
 42
1.5
 43
1.5
 50
90.0
  0
INSERT
  5
5BC1
330
5BBA
100
AcDbEntity
  8
寸法
 62
     0
370
    -2
100
AcDbBlockReference
  2
_DOT
 10
336.7885856870258
 20
283.5896644105034
 30
0.0
 41
1.5
 42
1.5
 43
1.5
 50
270.0
  0
MTEXT
  5
5BC2
330
5BBA
100
AcDbEntity
  8
寸法
  6
Continuous
 62
     0
100
AcDbMText
 10
331.8835856870258
 20
311.0896644105034
 30
0.0
 40
5.0
 41
0.0
 46
0.0
 71
     5
 72
     1
  1
\A1;φ55
  7
ＭＳ ゴシック
 11
0.0
 21
1.0
 31
0.0
 73
     1
 44
1.0
  0
POINT
  5
5BC3
330
5BBA
100
AcDbEntity
  8
Defpoints
 62
     0
100
AcDbPoint
 10
368.3178597156399
 20
338.5896644105034
 30
0.0
  0
POINT
  5
5BC4
330
5BBA
100
AcDbEntity
  8
Defpoints
 62
     0
100
AcDbPoint
 10
368.5884320630115
 20
283.5896644105034
 30
0.0
  0
POINT
  5
5BC5
330
5BBA
100
AcDbEntity
  8
Defpoints
 62
     0
100
AcDbPoint
 10
336.7885856870258
 20
283.5896644105034
 30
0.0
  0
ENDBLK
  5
5BBC
330
5BBA
100
AcDbEntity
  8
0
100
AcDbBlockEnd
  0
BLOCK
  5
5BD9
330
5BD8
100
AcDbEntity
  8
0
100
AcDbBlockBegin
  2
*D46
 70
     1
 10
0.0
 20
0.0
 30
0.0
  3
*D46
  1

  0
LINE
  5
5BDB
330
5BD8
100
AcDbEntity
  8
寸法
 62
     0
370
    -2
100
AcDbLine
 10
398.4128289173997
 20
162.1012735628825
 30
0.0
 11
398.4128289173997
 21
134.3133659811902
 31
0.0
  0
LINE
  5
5BDC
330
5BD8
100
AcDbEntity
  8
寸法
 62
     0
370
    -2
100
AcDbLine
 10
360.4128289173997
 20
162.1012735628825
 30
0.0
 11
360.4128289173997
 21
134.3133659811902
 31
0.0
  0
LINE
  5
5BDD
330
5BD8
100
AcDbEntity
  8
寸法
 62
     0
370
    -2
100
AcDbLine
 10
360.4128289173997
 20
134.3133659811902
 30
0.0
 11
343.1303289173997
 21
134.3133659811902
 31
0.0
  0
LINE
  5
5BDE
330
5BD8
100
AcDbEntity
  8
寸法
 62
     0
370
    -2
100
AcDbLine
 10
396.9128289173997
 20
134.3133659811902
 30
0.0
 11
361.9128289173997
 21
134.3133659811902
 31
0.0
  0
LINE
  5
5BDF
330
5BD8
100
AcDbEntity
  8
寸法
 62
     0
370
    -2
100
AcDbLine
 10
361.9128289173997
 20
134.3133659811902
 30
0.0
 11
363.4128289173997
 21
134.3133659811902
 31
0.0
  0
INSERT
  5
5BE0
330
5BD8
100
AcDbEntity
  8
寸法
 62
     0
370
    -2
100
AcDbBlockReference
  2
_DOT
 10
398.4128289173997
 20
134.3133659811902
 30
0.0
 41
1.5
 42
1.5
 43
1.5
  0
INSERT
  5
5BE1
330
5BD8
100
AcDbEntity
  8
寸法
 62
     0
370
    -2
100
AcDbBlockReference
  2
_DOT
 10
360.4128289173997
 20
134.3133659811902
 30
0.0
 41
1.5
 42
1.5
 43
1.5
 50
180.0
  0
MTEXT
  5
5BE2
330
5BD8
100
AcDbEntity
  8
寸法
  6
Continuous
 62
     0
100
AcDbMText
 10
346.7553289173997
 20
138.8133659811902
 30
0.0
 40
5.0
 41
0.0
 46
0.0
 71
     5
 72
     1
  1
\A1; 
  7
ＭＳ ゴシック
 73
     1
 44
1.0
  0
POINT
  5
5BE3
330
5BD8
100
AcDbEntity
  8
Defpoints
 62
     0
100
AcDbPoint
 10
398.4128289173997
 20
167.1012735628825
 30
0.0
  0
POINT
  5
5BE4
330
5BD8
100
AcDbEntity
  8
Defpoints
 62
     0
100
AcDbPoint
 10
360.4128289173997
 20
167.1012735628825
 30
0.0
  0
POINT
  5
5BE5
330
5BD8
100
AcDbEntity
  8
Defpoints
 62
     0
100
AcDbPoint
 10
360.4128289173997
 20
134.3133659811902
 30
0.0
  0
ENDBLK
  5
5BDA
330
5BD8
100
AcDbEntity
  8
0
100
AcDbBlockEnd
  0
BLOCK
  5
5BE7
330
5BE6
100
AcDbEntity
  8
0
100
AcDbBlockBegin
  2
*D47
 70
     1
 10
0.0
 20
0.0
 30
0.0
  3
*D47
  1

  0
LINE
  5
5BE9
330
5BE6
100
AcDbEntity
  8
寸法
 62
     0
370
    -2
100
AcDbLine
 10
360.4128289173997
 20
180.7717753243155
 30
0.0
 11
360.4128289173997
 21
203.5583989017974
 31
0.0
  0
LINE
  5
5BEA
330
5BE6
100
AcDbEntity
  8
寸法
 62
     0
370
    -2
100
AcDbLine
 10
379.4128289173997
 20
194.9472878445251
 30
0.0
 11
379.4128289173997
 21
203.5583989017974
 31
0.0
  0
LINE
  5
5BEB
330
5BE6
100
AcDbEntity
  8
寸法
 62
     0
370
    -2
100
AcDbLine
 10
361.9128289173997
 20
203.5583989017974
 30
0.0
 11
377.9128289173997
 21
203.5583989017974
 31
0.0
  0
INSERT
  5
5BEC
330
5BE6
100
AcDbEntity
  8
寸法
 62
     0
370
    -2
100
AcDbBlockReference
  2
_DOT
 10
360.4128289173997
 20
203.5583989017974
 30
0.0
 41
1.5
 42
1.5
 43
1.5
 50
180.0
  0
INSERT
  5
5BED
330
5BE6
100
AcDbEntity
  8
寸法
 62
     0
370
    -2
100
AcDbBlockReference
  2
_DOT
 10
379.4128289173997
 20
203.5583989017974
 30
0.0
 41
1.5
 42
1.5
 43
1.5
  0
MTEXT
  5
5BEE
330
5BE6
100
AcDbEntity
  8
寸法
  6
Continuous
 62
     0
100
AcDbMText
 10
369.9128289173997
 20
208.0583989017974
 30
0.0
 40
5.0
 41
0.0
 46
0.0
 71
     5
 72
     1
  1
\A1;19
  7
ＭＳ ゴシック
 73
     1
 44
1.0
  0
POINT
  5
5BEF
330
5BE6
100
AcDbEntity
  8
Defpoints
 62
     0
100
AcDbPoint
 10
360.4128289173997
 20
175.7717753243155
 30
0.0
  0
POINT
  5
5BF0
330
5BE6
100
AcDbEntity
  8
Defpoints
 62
     0
100
AcDbPoint
 10
379.4128289173997
 20
189.9472878445251
 30
0.0
  0
POINT
  5
5BF1
330
5BE6
100
AcDbEntity
  8
Defpoints
 62
     0
100
AcDbPoint
 10
379.4128289173997
 20
203.5583989017974
 30
0.0
  0
ENDBLK
  5
5BE8
330
5BE6
100
AcDbEntity
  8
0
100
AcDbBlockEnd
  0
BLOCK
  5
5BF3
330
5BF2
100
AcDbEntity
  8
0
100
AcDbBlockBegin
  2
*D48
 70
     1
 10
0.0
 20
0.0
 30
0.0
  3
*D48
  1

  0
LINE
  5
5BF5
330
5BF2
100
AcDbEntity
  8
寸法
 62
     0
370
    -2
100
AcDbLine
 10
379.4128289173997
 20
194.9472878445251
 30
0.0
 11
379.4128289173997
 21
203.5583989017974
 31
0.0
  0
LINE
  5
5BF6
330
5BF2
100
AcDbEntity
  8
寸法
 62
     0
370
    -2
100
AcDbLine
 10
398.4128289173997
 20
180.7717753243155
 30
0.0
 11
398.4128289173997
 21
203.5583989017974
 31
0.0
  0
LINE
  5
5BF7
330
5BF2
100
AcDbEntity
  8
寸法
 62
     0
370
    -2
100
AcDbLine
 10
380.9128289173997
 20
203.5583989017974
 30
0.0
 11
396.9128289173997
 21
203.5583989017974
 31
0.0
  0
INSERT
  5
5BF8
330
5BF2
100
AcDbEntity
  8
寸法
 62
     0
370
    -2
100
AcDbBlockReference
  2
_DOT
 10
379.4128289173997
 20
203.5583989017974
 30
0.0
 41
1.5
 42
1.5
 43
1.5
 50
180.0
  0
INSERT
  5
5BF9
330
5BF2
100
AcDbEntity
  8
寸法
 62
     0
370
    -2
100
AcDbBlockReference
  2
_DOT
 10
398.4128289173997
 20
203.5583989017974
 30
0.0
 41
1.5
 42
1.5
 43
1.5
  0
MTEXT
  5
5BFA
330
5BF2
100
AcDbEntity
  8
寸法
  6
Continuous
 62
     0
100
AcDbMText
 10
388.9128289173997
 20
208.0583989017974
 30
0.0
 40
5.0
 41
0.0
 46
0.0
 71
     5
 72
     1
  1
\A1;19
  7
ＭＳ ゴシック
 73
     1
 44
1.0
  0
POINT
  5
5BFB
330
5BF2
100
AcDbEntity
  8
Defpoints
 62
     0
100
AcDbPoint
 10
379.4128289173997
 20
189.9472878445251
 30
0.0
  0
POINT
  5
5BFC
330
5BF2
100
AcDbEntity
  8
Defpoints
 62
     0
100
AcDbPoint
 10
398.4128289173997
 20
175.7717753243155
 30
0.0
  0
POINT
  5
5BFD
330
5BF2
100
AcDbEntity
  8
Defpoints
 62
     0
100
AcDbPoint
 10
398.4128289173997
 20
203.5583989017974
 30
0.0
  0
ENDBLK
  5
5BF4
330
5BF2
100
AcDbEntity
  8
0
100
AcDbBlockEnd
  0
BLOCK
  5
5CCB
330
5CCA
100
AcDbEntity
  8
0
100
AcDbBlockBegin
  2
*D49
 70
     1
 10
0.0
 20
0.0
 30
0.0
  3
*D49
  1

  0
LINE
  5
5CCD
330
5CCA
100
AcDbEntity
  8
MODEL
  6
Continuous
 62
     0
370
    -2
100
AcDbLine
 10
76.27539999999996
 20
268.8682783387544
 30
0.0
 11
58.29299999999994
 21
268.8682783387544
 31
0.0
  0
LINE
  5
5CCE
330
5CCA
100
AcDbEntity
  8
MODEL
  6
Continuous
 62
     0
370
    -2
100
AcDbLine
 10
93.83087417195725
 20
344.4896644105034
 30
0.0
 11
58.29299999999995
 21
344.4896644105034
 31
0.0
  0
LINE
  5
5CCF
330
5CCA
100
AcDbEntity
  8
MODEL
  6
Continuous
 62
     0
370
    -2
100
AcDbLine
 10
58.29299999999994
 20
270.3682783387544
 30
0.0
 11
58.29299999999995
 21
342.9896644105034
 31
0.0
  0
INSERT
  5
5CD0
330
5CCA
100
AcDbEntity
  8
MODEL
 62
     0
370
    -2
100
AcDbBlockReference
  2
_DOT
 10
58.29299999999994
 20
268.8682783387544
 30
0.0
 41
1.5
 42
1.5
 43
1.5
 50
270.0
  0
INSERT
  5
5CD1
330
5CCA
100
AcDbEntity
  8
MODEL
 62
     0
370
    -2
100
AcDbBlockReference
  2
_DOT
 10
58.29299999999995
 20
344.4896644105034
 30
0.0
 41
1.5
 42
1.5
 43
1.5
 50
90.0
  0
MTEXT
  5
5CD2
330
5CCA
100
AcDbEntity
  8
MODEL
  6
Continuous
 62
     0
100
AcDbMText
 10
53.79299999999995
 20
306.6789713746289
 30
0.0
 40
5.0
 41
0.0
 46
0.0
 71
     5
 72
     1
  1
\A1;76
  7
ＭＳ ゴシック
 11
9.396055437094776E-17
 21
1.0
 31
0.0
 73
     1
 44
1.0
  0
POINT
  5
5CD3
330
5CCA
100
AcDbEntity
  8
Defpoints
 62
     0
100
AcDbPoint
 10
81.27539999999996
 20
268.8682783387544
 30
0.0
  0
POINT
  5
5CD4
330
5CCA
100
AcDbEntity
  8
Defpoints
 62
     0
100
AcDbPoint
 10
98.83087417195725
 20
344.4896644105034
 30
0.0
  0
POINT
  5
5CD5
330
5CCA
100
AcDbEntity
  8
Defpoints
 62
     0
100
AcDbPoint
 10
58.29299999999995
 20
344.4896644105034
 30
0.0
  0
ENDBLK
  5
5CCC
330
5CCA
100
AcDbEntity
  8
0
100
AcDbBlockEnd
  0
BLOCK
  5
5CDA
330
5CD9
100
AcDbEntity
  8
0
100
AcDbBlockBegin
  2
*D50
 70
     1
 10
0.0
 20
0.0
 30
0.0
  3
*D50
  1

  0
LINE
  5
5CDC
330
5CD9
100
AcDbEntity
  8
MODEL
  6
Continuous
 62
     0
370
    -2
100
AcDbLine
 10
81.51699999999997
 20
268.8682783387544
 30
0.0
 11
61.92179999999995
 21
268.8682783387544
 31
0.0
  0
LINE
  5
5CDD
330
5CD9
100
AcDbEntity
  8
MODEL
  6
Continuous
 62
     0
370
    -2
100
AcDbLine
 10
84.08087417195725
 20
338.4896644105034
 30
0.0
 11
61.92179999999996
 21
338.4896644105034
 31
0.0
  0
LINE
  5
5CDE
330
5CD9
100
AcDbEntity
  8
MODEL
  6
Continuous
 62
     0
370
    -2
100
AcDbLine
 10
61.92179999999995
 20
270.3682783387544
 30
0.0
 11
61.92179999999996
 21
336.9896644105034
 31
0.0
  0
INSERT
  5
5CDF
330
5CD9
100
AcDbEntity
  8
MODEL
 62
     0
370
    -2
100
AcDbBlockReference
  2
_DOT
 10
61.92179999999995
 20
268.8682783387544
 30
0.0
 41
1.5
 42
1.5
 43
1.5
 50
270.0
  0
INSERT
  5
5CE0
330
5CD9
100
AcDbEntity
  8
MODEL
 62
     0
370
    -2
100
AcDbBlockReference
  2
_DOT
 10
61.92179999999996
 20
338.4896644105034
 30
0.0
 41
1.5
 42
1.5
 43
1.5
 50
90.0
  0
MTEXT
  5
5CE1
330
5CD9
100
AcDbEntity
  8
MODEL
  6
Continuous
 62
     0
100
AcDbMText
 10
57.42179999999996
 20
303.6789713746289
 30
0.0
 40
5.0
 41
0.0
 46
0.0
 71
     5
 72
     1
  1
\A1;70
  7
ＭＳ ゴシック
 11
1.020581140151165E-16
 21
1.0
 31
0.0
 73
     1
 44
1.0
  0
POINT
  5
5CE2
330
5CD9
100
AcDbEntity
  8
Defpoints
 62
     0
100
AcDbPoint
 10
86.51699999999997
 20
268.8682783387544
 30
0.0
  0
POINT
  5
5CE3
330
5CD9
100
AcDbEntity
  8
Defpoints
 62
     0
100
AcDbPoint
 10
89.08087417195725
 20
338.4896644105034
 30
0.0
  0
POINT
  5
5CE4
330
5CD9
100
AcDbEntity
  8
Defpoints
 62
     0
100
AcDbPoint
 10
61.92179999999996
 20
338.4896644105034
 30
0.0
  0
ENDBLK
  5
5CDB
330
5CD9
100
AcDbEntity
  8
0
100
AcDbBlockEnd
  0
ENDSEC
  0
SECTION
  2
ENTITIES
  0
LINE
  5
544F
330
A
100
AcDbEntity
  8
PRINT BORDER
100
AcDbLine
 10
296.9999999999999
 20
0.0
 30
0.0
 11
296.9999999999999
 21
15.30952622855898
 31
0.0
  0
LINE
  5
5450
330
A
100
AcDbEntity
  8
テンプレート
100
AcDbLine
 10
437.9999999999999
 20
38.27810890422097
 30
0.0
 11
15.30952622855898
 21
38.27810890422097
 31
0.0
  0
LINE
  5
5451
330
A
100
AcDbEntity
  8
テンプレート
100
AcDbLine
 10
15.30952622855898
 20
26.22153683920783
 30
0.0
 11
578.6904737714407
 21
26.22153683920783
 31
0.0
  0
TEXT
  5
5452
330
A
100
AcDbEntity
  8
テンプレート
100
AcDbText
 10
18.06121699514119
 20
32.16825981613692
 30
0.0
 40
3.5
  1
材質
  7
ＭＳ ゴシック
100
AcDbText
  0
TEXT
  5
5453
330
A
100
AcDbEntity
  8
テンプレート
100
AcDbText
 10
18.06121699514119
 20
56.50959028673083
 30
0.0
 40
3.5
  1
品名
  7
ＭＳ ゴシック
100
AcDbText
  0
TEXT
  5
5454
330
A
100
AcDbEntity
  8
テンプレート
100
AcDbText
 10
18.06121699514119
 20
44.65099339080098
 30
0.0
 40
3.5
  1
仕上げ
  7
ＭＳ ゴシック
100
AcDbText
  0
TEXT
  5
5455
330
A
100
AcDbEntity
  8
テンプレート
100
AcDbText
 10
298.8233485179306
 20
56.58523052309897
 30
0.0
 40
3.5
  1
品番
  7
ＭＳ ゴシック
100
AcDbText
  0
TEXT
  5
5456
330
A
100
AcDbEntity
  8
テンプレート
100
AcDbText
 10
36.7528253083583
 20
53.09440584367189
 30
0.0
 40
5.5
  1
レバーハンドル - FSB -
  7
ＭＳ ゴシック
100
AcDbText
  0
TEXT
  5
5457
330
A
100
AcDbEntity
  8
テンプレート
100
AcDbText
 10
313.0171205424464
 20
52.977080524553
 30
0.0
 40
5.5
  1
FSB10-1254-NC
  7
ＭＳ ゴシック
100
AcDbText
  0
LINE
  5
5458
330
A
100
AcDbEntity
  8
テンプレート
100
AcDbLine
 10
437.9999999999999
 20
50.16496477419605
 30
0.0
 11
15.30952622855898
 21
50.16496477419605
 31
0.0
  0
LINE
  5
5459
330
A
100
AcDbEntity
  8
テンプレート
100
AcDbLine
 10
578.6904737714411
 20
62.22153683920783
 30
0.0
 11
15.30952622855898
 21
62.22153683920783
 31
0.0
  0
LINE
  5
545A
330
A
100
AcDbEntity
  8
PRINT BORDER
100
AcDbLine
 10
593.9999999999999
 20
210.0
 30
0.0
 11
578.6904737714411
 21
210.0
 31
0.0
  0
LINE
  5
545B
330
A
100
AcDbEntity
  8
PRINT BORDER
100
AcDbLine
 10
0.0
 20
210.0
 30
0.0
 11
15.30952622855898
 21
210.0
 31
0.0
  0
LINE
  5
545C
330
A
100
AcDbEntity
  8
PRINT BORDER
100
AcDbLine
 10
296.9999999999999
 20
420.0
 30
0.0
 11
296.9999999999999
 21
404.690473771441
 31
0.0
  0
LINE
  5
545D
330
A
100
AcDbEntity
  8
テンプレート
100
AcDbLine
 10
578.6904737714411
 20
62.22153683920783
 30
0.0
 11
578.6904737714411
 21
26.22153683920783
 31
0.0
  0
LINE
  5
545E
330
A
100
AcDbEntity
  8
テンプレート
100
AcDbLine
 10
15.30952622855898
 20
62.22153683920783
 30
0.0
 11
15.30952622855898
 21
26.22153683920783
 31
0.0
  0
TEXT
  5
545F
330
A
100
AcDbEntity
  8
テンプレート
100
AcDbText
 10
494.9733384955217
 20
16.51938390313694
 30
0.0
 40
5.5
  1
大洋金物株式会社  
  7
ＭＳ ゴシック
100
AcDbText
  0
LINE
  5
5460
330
A
100
AcDbEntity
  8
テンプレート
100
AcDbLine
 10
437.9999999999999
 20
62.22153683920783
 30
0.0
 11
437.9999999999999
 21
26.22153683920783
 31
0.0
  0
LINE
  5
5461
330
A
100
AcDbEntity
  8
テンプレート
100
AcDbLine
 10
296.9999999999999
 20
62.22153683920783
 30
0.0
 11
296.9999999999999
 21
26.22153683920783
 31
0.0
  0
INSERT
  5
5462
330
A
100
AcDbEntity
  8
テンプレート
100
AcDbBlockReference
  2
名称未設定-1
 10
548.3945198859805
 20
-7.642344203993161
 30
0.0
 41
0.180975
 42
0.180975
 43
0.180975
  0
LINE
  5
5464
330
A
100
AcDbEntity
  8
テンプレート
100
AcDbLine
 10
15.30952622855898
 20
210.0
 30
0.0
 11
15.30952622855898
 21
26.22153683920783
 31
0.0
  0
LINE
  5
5465
330
A
100
AcDbEntity
  8
テンプレート
100
AcDbLine
 10
15.30952622855898
 20
210.0
 30
0.0
 11
15.30952622855898
 21
404.690473771441
 31
0.0
  0
LINE
  5
5466
330
A
100
AcDbEntity
  8
テンプレート
100
AcDbLine
 10
296.9999999999999
 20
404.690473771441
 30
0.0
 11
15.30952622855887
 21
404.690473771441
 31
0.0
  0
LINE
  5
5467
330
A
100
AcDbEntity
  8
テンプレート
100
AcDbLine
 10
296.9999999999999
 20
404.690473771441
 30
0.0
 11
578.6904737714411
 21
404.690473771441
 31
0.0
  0
LINE
  5
5468
330
A
100
AcDbEntity
  8
テンプレート
100
AcDbLine
 10
578.6904737714411
 20
210.0
 30
0.0
 11
578.6904737714411
 21
404.690473771441
 31
0.0
  0
LINE
  5
5469
330
A
100
AcDbEntity
  8
テンプレート
100
AcDbLine
 10
578.6904737714411
 20
210.0
 30
0.0
 11
578.6904737714411
 21
26.22153683920783
 31
0.0
  0
LWPOLYLINE
  5
546A
330
A
100
AcDbEntity
  8
PRINT BORDER
  6
HIDDEN
 48
3.0
100
AcDbPolyline
 90
        4
 70
     1
 43
0.0
 10
0.0
 20
0.0
 10
0.0
 20
420.0
 10
593.9999999999999
 20
420.0
 10
593.9999999999999
 20
0.0
  0
TEXT
  5
546B
330
A
100
AcDbEntity
  8
テンプレート
100
AcDbText
 10
298.7989156222221
 20
32.62405342819488
 30
0.0
 40
3.5
  1
縮尺
  7
ＭＳ ゴシック
100
AcDbText
  0
TEXT
  5
546C
330
A
100
AcDbEntity
  8
テンプレート
100
AcDbText
 10
313.0171205424463
 20
29.50322070227194
 30
0.0
 40
5.0
  1
1/2
  7
ＭＳ ゴシック
100
AcDbText
  0
TEXT
  5
546D
330
A
100
AcDbEntity
  8
テンプレート
100
AcDbText
 10
298.8233485179306
 20
44.52865845808583
 30
0.0
 40
3.5
  1
扉厚
  7
ＭＳ ゴシック
100
AcDbText
  0
TEXT
  5
546E
330
A
100
AcDbEntity
  8
テンプレート
100
AcDbText
 10
440.0887524673468
 20
56.58523052309897
 30
0.0
 40
3.5
  1
備考
  7
ＭＳ ゴシック
100
AcDbText
  0
TEXT
  5
546F
330
A
100
AcDbEntity
  8
テンプレート
100
AcDbText
 10
449.0017237694899
 20
47.28154793898159
 30
0.0
 40
5.5
  1
取付方＝呼込み(ビス付)
  7
ＭＳ ゴシック
100
AcDbText
  0
TEXT
  5
5728
330
A
100
AcDbEntity
  8
テンプレート
100
AcDbText
 10
313.0505831322697
 20
44.82304125840494
 30
0.0
 40
4.0
  1
MIWAケース：37～54
  7
ＭＳ ゴシック
100
AcDbText
  0
TEXT
  5
5729
330
A
100
AcDbEntity
  8
テンプレート
100
AcDbText
 10
313.0505831322697
 20
39.8279918743558
 30
0.0
 40
4.0
  1
ユーロケース(DIN規格)：36～54
  7
ＭＳ ゴシック
100
AcDbText
  0
LINE
  5
5825
330
A
100
AcDbEntity
  8
テンプレート
  6
Continuous
100
AcDbLine
 10
33.63100153769659
 20
26.22153683920783
 30
0.0
 11
33.63100153769659
 21
50.16496477419605
 31
0.0
  0
MTEXT
  5
5827
102
{ACAD_XDICTIONARY
360
5828
102
}
330
A
100
AcDbEntity
  8
寸法
  6
Continuous
370
     0
100
AcDbMText
 10
16.03746315898582
 20
23.37395828580276
 30
0.0
 40
4.0
 41
0.0
 46
4.0
 71
     1
 72
     1
  1
{20190531N}
  7
ＭＳ ゴシック
 73
     1
 44
1.0
1001
ACAD
1000
ACAD_MTEXT_DEFINED_HEIGHT_BEGIN
1070
    46
1040
4.0
1000
ACAD_MTEXT_DEFINED_HEIGHT_END
  0
TEXT
  5
586E
330
A
100
AcDbEntity
  8
テンプレート
100
AcDbText
 10
187.3255251873665
 20
95.58845453164052
 30
0.0
 40
5.0
  1
　 加工は現物合わせの上行って下さい。
  7
ＭＳ ゴシック
100
AcDbText
  0
TEXT
  5
586F
330
A
100
AcDbEntity
  8
テンプレート
100
AcDbText
 10
187.4977682695751
 20
103.6922386277807
 30
0.0
 40
5.0
  1
※ 輸入製品の為、国内製品と比べ製品寸法の個体差に幅が有ります。
  7
ＭＳ ゴシック
100
AcDbText
  0
TEXT
  5
5870
330
A
100
AcDbEntity
  8
テンプレート
100
AcDbText
 10
187.3255251873665
 20
86.21682322716002
 30
0.0
 40
5.0
  1
※ ご注文の際は正確な扉厚の指示をしてください。
  7
ＭＳ ゴシック
100
AcDbText
  0
TEXT
  5
5871
330
A
100
AcDbEntity
  8
テンプレート
100
AcDbText
 10
187.3255251873665
 20
77.5173345961741
 30
0.0
 40
5.0
  1
※ イモネジ・ビスのゆるみ止め防止のために金属製ネジ用ゆるみ止め剤(中強度タイプ)
  7
ＭＳ ゴシック
100
AcDbText
  0
TEXT
  5
5872
330
A
100
AcDbEntity
  8
テンプレート
100
AcDbText
 10
183.5610795085161
 20
68.07646144979785
 30
0.0
 40
5.0
  1
　　を用意して塗布してください。(推奨商品　住友3M社TL42J等)
  7
ＭＳ ゴシック
100
AcDbText
  0
MTEXT
  5
58D5
330
A
100
AcDbEntity
  8
テンプレート
390
1D
100
AcDbMText
 10
38.40216474642531
 20
34.57354675141927
 30
0.0
 40
5.0
 41
0.0
 46
5.075
 71
     1
 72
     1
  1
{ステンレス}
  7
ＭＳ ゴシック
 73
     1
 44
0.7828267384257843
1001
ACAD
1000
ACAD_MTEXT_DEFINED_HEIGHT_BEGIN
1070
    46
1040
5.075
1000
ACAD_MTEXT_DEFINED_HEIGHT_END
  0
MTEXT
  5
58E3
330
A
100
AcDbEntity
  8
テンプレート
390
1D
100
AcDbMText
 10
38.71997779018332
 20
46.79930547826119
 30
0.0
 40
5.0
 41
0.0
 46
3.258
 71
     1
 72
     1
  1
{ポリッシュ}
  7
ＭＳ ゴシック
 73
     1
 44
0.7828267384257843
1001
ACAD
1000
ACAD_MTEXT_DEFINED_HEIGHT_BEGIN
1070
    46
1040
3.258
1000
ACAD_MTEXT_DEFINED_HEIGHT_END
  0
SPLINE
  5
59C6
330
A
100
AcDbEntity
  8
モデル
100
AcDbSpline
210
0.0
220
0.0
230
1.0
 70
    11
 71
     3
 72
   179
 73
   175
 74
     0
 42
0.000000001
 43
0.0000000001
 40
0.0
 40
0.0
 40
0.0
 40
0.0
 40
1.0
 40
1.0
 40
1.0
 40
2.0
 40
2.0
 40
2.0
 40
3.0
 40
3.0
 40
3.0
 40
4.0
 40
4.0
 40
4.0
 40
5.0
 40
5.0
 40
5.0
 40
6.0
 40
6.0
 40
6.0
 40
7.0
 40
7.0
 40
7.0
 40
8.0
 40
8.0
 40
8.0
 40
9.0
 40
9.0
 40
9.0
 40
10.0
 40
10.0
 40
10.0
 40
11.0
 40
11.0
 40
11.0
 40
12.0
 40
12.0
 40
12.0
 40
13.0
 40
13.0
 40
13.0
 40
14.0
 40
14.0
 40
14.0
 40
15.0
 40
15.0
 40
15.0
 40
16.0
 40
16.0
 40
16.0
 40
17.0
 40
17.0
 40
17.0
 40
18.0
 40
18.0
 40
18.0
 40
19.0
 40
19.0
 40
19.0
 40
20.0
 40
20.0
 40
20.0
 40
21.0
 40
21.0
 40
21.0
 40
22.0
 40
22.0
 40
22.0
 40
23.0
 40
23.0
 40
23.0
 40
24.0
 40
24.0
 40
24.0
 40
25.0
 40
25.0
 40
25.0
 40
26.0
 40
26.0
 40
26.0
 40
27.0
 40
27.0
 40
27.0
 40
28.0
 40
28.0
 40
28.0
 40
29.0
 40
29.0
 40
29.0
 40
30.0
 40
30.0
 40
30.0
 40
31.0
 40
31.0
 40
31.0
 40
32.0
 40
32.0
 40
32.0
 40
33.0
 40
33.0
 40
33.0
 40
34.0
 40
34.0
 40
34.0
 40
35.0
 40
35.0
 40
35.0
 40
36.0
 40
36.0
 40
36.0
 40
37.0
 40
37.0
 40
37.0
 40
38.0
 40
38.0
 40
38.0
 40
39.0
 40
39.0
 40
39.0
 40
40.0
 40
40.0
 40
40.0
 40
41.0
 40
41.0
 40
41.0
 40
42.0
 40
42.0
 40
42.0
 40
43.0
 40
43.0
 40
43.0
 40
44.0
 40
44.0
 40
44.0
 40
45.0
 40
45.0
 40
45.0
 40
46.0
 40
46.0
 40
46.0
 40
47.0
 40
47.0
 40
47.0
 40
48.0
 40
48.0
 40
48.0
 40
49.0
 40
49.0
 40
49.0
 40
50.0
 40
50.0
 40
50.0
 40
51.0
 40
51.0
 40
51.0
 40
52.0
 40
52.0
 40
52.0
 40
53.0
 40
53.0
 40
53.0
 40
54.0
 40
54.0
 40
54.0
 40
55.0
 40
55.0
 40
55.0
 40
56.0
 40
56.0
 40
56.0
 40
57.0
 40
57.0
 40
57.0
 40
58.0
 40
58.0
 40
58.0
 40
58.0
 10
119.5469629029099
 20
280.1274883919096
 30
0.0
 10
119.5469629029099
 20
280.1274883919096
 30
0.0
 10
120.6015995105527
 20
279.0267733371382
 30
0.0
 10
120.6015995105527
 20
279.0267733371382
 30
0.0
 10
120.6015995105527
 20
279.0267733371382
 30
0.0
 10
121.6467620449541
 20
278.0535276314328
 30
0.0
 10
121.6467620449541
 20
278.0535276314328
 30
0.0
 10
121.6467620449541
 20
278.0535276314328
 30
0.0
 10
122.7431707027977
 20
277.1371263651756
 30
0.0
 10
122.7431707027977
 20
277.1371263651756
 30
0.0
 10
122.7431707027977
 20
277.1371263651756
 30
0.0
 10
123.8860884474624
 20
276.2792920971378
 30
0.0
 10
123.8860884474624
 20
276.2792920971378
 30
0.0
 10
123.8860884474624
 20
276.2792920971378
 30
0.0
 10
125.0432173019893
 20
275.50327937073
 30
0.0
 10
125.0432173019893
 20
275.50327937073
 30
0.0
 10
125.0432173019893
 20
275.50327937073
 30
0.0
 10
126.2399650082529
 20
274.7858336425418
 30
0.0
 10
126.2399650082529
 20
274.7858336425418
 30
0.0
 10
126.2399650082529
 20
274.7858336425418
 30
0.0
 10
127.4685800517829
 20
274.1269549125729
 30
0.0
 10
127.4685800517829
 20
274.1269549125729
 30
0.0
 10
127.4685800517829
 20
274.1269549125729
 30
0.0
 10
128.8250950840716
 20
273.4835792115446
 30
0.0
 10
128.8250950840716
 20
273.4835792115446
 30
0.0
 10
128.8250950840716
 20
273.4835792115446
 30
0.0
 10
130.2130468139339
 20
272.9099671407484
 30
0.0
 10
130.2130468139339
 20
272.9099671407484
 30
0.0
 10
130.2130468139339
 20
272.9099671407484
 30
0.0
 10
131.6251143665926
 20
272.4035348620272
 30
0.0
 10
131.6251143665926
 20
272.4035348620272
 30
0.0
 10
131.6251143665926
 20
272.4035348620272
 30
0.0
 10
133.0328755223234
 20
271.9711726104659
 30
0.0
 10
133.0328755223234
 20
271.9711726104659
 30
0.0
 10
133.0328755223234
 20
271.9711726104659
 30
0.0
 10
134.4587235451512
 20
271.6042675922089
 30
0.0
 10
134.4587235451512
 20
271.6042675922089
 30
0.0
 10
134.4587235451512
 20
271.6042675922089
 30
0.0
 10
135.899213317534
 20
271.2985134103279
 30
0.0
 10
135.899213317534
 20
271.2985134103279
 30
0.0
 10
135.899213317534
 20
271.2985134103279
 30
0.0
 10
137.3138647083492
 20
271.0608002999078
 30
0.0
 10
137.3138647083492
 20
271.0608002999078
 30
0.0
 10
137.3138647083492
 20
271.0608002999078
 30
0.0
 10
138.7379901724059
 20
270.8842380258639
 30
0.0
 10
138.7379901724059
 20
270.8842380258639
 30
0.0
 10
138.7379901724059
 20
270.8842380258639
 30
0.0
 10
140.1573785998421
 20
270.7662427500395
 30
0.0
 10
140.1573785998421
 20
270.7662427500395
 30
0.0
 10
140.1573785998421
 20
270.7662427500395
 30
0.0
 10
141.5797815051276
 20
270.7085370312054
 30
0.0
 10
141.5797815051276
 20
270.7085370312054
 30
0.0
 10
141.5797815051276
 20
270.7085370312054
 30
0.0
 10
238.5240972269473
 20
268.8473122789669
 30
0.0
 10
238.5240972269473
 20
268.8473122789669
 30
0.0
 10
240.1794762060322
 20
268.8154449417005
 30
0.0
 10
241.5489104291046
 20
270.133202401638
 30
0.0
 10
241.5807777663712
 20
271.7885813807229
 30
0.0
 10
241.5807777663712
 20
271.7885813807229
 30
0.0
 10
241.5807777663712
 20
271.8471483789424
 30
0.0
 10
241.5807777663712
 20
271.8471483789424
 30
0.0
 10
241.5807777663712
 20
271.8471483789424
 30
0.0
 10
241.5807777663712
 20
273.3466357892374
 30
0.0
 10
241.5807777663712
 20
273.3466357892374
 30
0.0
 10
241.5807777663712
 20
273.3466357892374
 30
0.0
 10
241.5807777663712
 20
286.2305141181304
 30
0.0
 10
241.5807777663712
 20
286.2305141181304
 30
0.0
 10
241.5807777663712
 20
286.2305141181304
 30
0.0
 10
241.5807777663712
 20
287.7308628078109
 30
0.0
 10
241.5807777663712
 20
287.7308628078109
 30
0.0
 10
241.5807777663712
 20
289.3879643456669
 30
0.0
 10
240.2380432042515
 20
290.7306989077866
 30
0.0
 10
238.5809416663955
 20
290.7306989077866
 30
0.0
 10
238.5619935199128
 20
290.7306989077866
 30
0.0
 10
238.54304537343
 20
290.7306989077866
 30
0.0
 10
238.5240972269473
 20
290.7306989077866
 30
0.0
 10
238.5240972269473
 20
290.7306989077866
 30
0.0
 10
141.5797815051276
 20
288.8686128761623
 30
0.0
 10
141.5797815051276
 20
288.8686128761623
 30
0.0
 10
141.0974650492027
 20
288.8462196121373
 30
0.0
 10
140.612995394814
 20
288.8608613616921
 30
0.0
 10
140.1315402182746
 20
288.9090930072846
 30
0.0
 10
134.6740433915462
 20
289.4611730934413
 30
0.0
 10
130.699239027094
 20
294.3317080188968
 30
0.0
 10
131.2504578338652
 20
299.7887742059326
 30
0.0
 10
131.2504578338652
 20
299.7887742059326
 30
0.0
 10
131.6173628521224
 20
304.7885010392253
 30
0.0
 10
131.6173628521224
 20
304.7885010392253
 30
0.0
 10
131.6173628521224
 20
304.7885010392253
 30
0.0
 10
132.6164469393954
 20
318.4001604489333
 30
0.0
 10
132.6164469393954
 20
318.4001604489333
 30
0.0
 10
132.6164469393954
 20
318.4001604489333
 30
0.0
 10
132.5884553593639
 20
318.0091396078799
 30
0.0
 10
132.5884553593639
 20
318.0091396078799
 30
0.0
 10
132.6827654520851
 20
319.2915846130088
 30
0.0
 10
133.5840943290946
 20
320.3716289625262
 30
0.0
 10
134.830365600029
 20
320.6937474527332
 30
0.0
 10
135.2722019248316
 20
320.8074363316298
 30
0.0
 10
135.5809705845621
 20
321.2062086871533
 30
0.0
 10
135.5809705845621
 20
321.6618254821253
 30
0.0
 10
135.5809705845621
 20
321.6618254821253
 30
0.0
 10
135.5809705845621
 20
330.7896644105034
 30
0.0
 10
135.5809705845621
 20
330.7896644105034
 30
0.0
 10
135.5809705845621
 20
330.7896644105034
 30
0.0
 10
121.5808741719572
 20
330.7896644105034
 30
0.0
 10
121.5808741719572
 20
330.7896644105034
 30
0.0
 10
121.5808741719572
 20
330.7896644105034
 30
0.0
 10
107.5807777593524
 20
330.7896644105034
 30
0.0
 10
107.5807777593524
 20
330.7896644105034
 30
0.0
 10
107.5807777593524
 20
330.7896644105034
 30
0.0
 10
107.5807777593524
 20
321.6618254821253
 30
0.0
 10
107.5807777593524
 20
321.6618254821253
 30
0.0
 10
107.5807777593524
 20
321.2062086871533
 30
0.0
 10
107.8882545000046
 20
320.8074363316298
 30
0.0
 10
108.3300908248071
 20
320.6937474527332
 30
0.0
 10
108.3300908248071
 20
320.6937474527332
 30
0.0
 10
108.3684177574655
 20
320.6842733794917
 30
0.0
 10
108.3684177574655
 20
320.6842733794917
 30
0.0
 10
109.5957408819172
 20
320.3500969778867
 30
0.0
 10
110.4785522521368
 20
319.2786654222251
 30
0.0
 10
110.5720010654721
 20
318.0100008872655
 30
0.0
 10
110.5720010654721
 20
318.0100008872655
 30
0.0
 10
110.5431482060553
 20
318.4001604489333
 30
0.0
 10
110.5431482060553
 20
318.4001604489333
 30
0.0
 10
110.5431482060553
 20
318.4001604489333
 30
0.0
 10
111.5430935727138
 20
304.7885010392253
 30
0.0
 10
111.5430935727138
 20
304.7885010392253
 30
0.0
 10
111.5430935727138
 20
304.7885010392253
 30
0.0
 10
111.909998590971
 20
299.7887742059326
 30
0.0
 10
111.909998590971
 20
299.7887742059326
 30
0.0
 10
111.909998590971
 20
299.7887742059326
 30
0.0
 10
112.0706271963816
 20
298.0507124058319
 30
0.0
 10
112.0706271963816
 20
298.0507124058319
 30
0.0
 10
112.0706271963816
 20
298.0507124058319
 30
0.0
 10
112.2997275129459
 20
296.3178182820446
 30
0.0
 10
112.2997275129459
 20
296.3178182820446
 30
0.0
 10
112.2997275129459
 20
296.3178182820446
 30
0.0
 10
112.6016059375918
 20
294.5952595108845
 30
0.0
 10
112.6016059375918
 20
294.5952595108845
 30
0.0
 10
112.6016059375918
 20
294.5952595108845
 30
0.0
 10
112.9809995069398
 20
292.8890650480503
 30
0.0
 10
112.9809995069398
 20
292.8890650480503
 30
0.0
 10
112.9809995069398
 20
292.8890650480503
 30
0.0
 10
113.3280950993285
 20
291.5902557345956
 30
0.0
 10
113.3280950993285
 20
291.5902557345956
 30
0.0
 10
113.3280950993285
 20
291.5902557345956
 30
0.0
 10
113.7260061754665
 20
290.3035043325388
 30
0.0
 10
113.7260061754665
 20
290.3035043325388
 30
0.0
 10
113.7260061754665
 20
290.3035043325388
 30
0.0
 10
114.1768859338177
 20
289.0339785181936
 30
0.0
 10
114.1768859338177
 20
289.0339785181936
 30
0.0
 10
114.1768859338177
 20
289.0339785181936
 30
0.0
 10
114.6803037346893
 20
287.7842621297169
 30
0.0
 10
114.6803037346893
 20
287.7842621297169
 30
0.0
 10
114.6803037346893
 20
287.7842621297169
 30
0.0
 10
115.2384127765453
 20
286.5603841228075
 30
0.0
 10
115.2384127765453
 20
286.5603841228075
 30
0.0
 10
115.2384127765453
 20
286.5603841228075
 30
0.0
 10
115.7732672749905
 20
285.5096232723998
 30
0.0
 10
115.7732672749905
 20
285.5096232723998
 30
0.0
 10
115.7732672749905
 20
285.5096232723998
 30
0.0
 10
116.3516163824075
 20
284.4821169654028
 30
0.0
 10
116.3516163824075
 20
284.4821169654028
 30
0.0
 10
116.3516163824075
 20
284.4821169654028
 30
0.0
 10
116.9725988194108
 20
283.4778652018162
 30
0.0
 10
116.9725988194108
 20
283.4778652018162
 30
0.0
 10
116.9725988194108
 20
283.4778652018162
 30
0.0
 10
117.6357839463075
 20
282.5046194961109
 30
0.0
 10
117.6357839463075
 20
282.5046194961109
 30
0.0
 10
117.6357839463075
 20
282.5046194961109
 30
0.0
 10
118.5564916094927
 20
281.2893542830573
 30
0.0
 10
118.5564916094927
 20
281.2893542830573
 30
0.0
 10
118.5564916094927
 20
281.2893542830573
 30
0.0
 10
119.5469629029099
 20
280.1274883919096
 30
0.0
 10
119.5469629029099
 20
280.1274883919096
 30
0.0
  0
SPLINE
  5
59C7
102
{ACAD_REACTORS
330
5AC5
102
}
330
A
100
AcDbEntity
  8
モデル
100
AcDbSpline
210
0.0
220
0.0
230
1.0
 70
    11
 71
     3
 72
   179
 73
   175
 74
     0
 42
0.000000001
 43
0.0000000001
 40
0.0
 40
0.0
 40
0.0
 40
0.0
 40
1.0
 40
1.0
 40
1.0
 40
2.0
 40
2.0
 40
2.0
 40
3.0
 40
3.0
 40
3.0
 40
4.0
 40
4.0
 40
4.0
 40
5.0
 40
5.0
 40
5.0
 40
6.0
 40
6.0
 40
6.0
 40
7.0
 40
7.0
 40
7.0
 40
8.0
 40
8.0
 40
8.0
 40
9.0
 40
9.0
 40
9.0
 40
10.0
 40
10.0
 40
10.0
 40
11.0
 40
11.0
 40
11.0
 40
12.0
 40
12.0
 40
12.0
 40
13.0
 40
13.0
 40
13.0
 40
14.0
 40
14.0
 40
14.0
 40
15.0
 40
15.0
 40
15.0
 40
16.0
 40
16.0
 40
16.0
 40
17.0
 40
17.0
 40
17.0
 40
18.0
 40
18.0
 40
18.0
 40
19.0
 40
19.0
 40
19.0
 40
20.0
 40
20.0
 40
20.0
 40
21.0
 40
21.0
 40
21.0
 40
22.0
 40
22.0
 40
22.0
 40
23.0
 40
23.0
 40
23.0
 40
24.0
 40
24.0
 40
24.0
 40
25.0
 40
25.0
 40
25.0
 40
26.0
 40
26.0
 40
26.0
 40
27.0
 40
27.0
 40
27.0
 40
28.0
 40
28.0
 40
28.0
 40
29.0
 40
29.0
 40
29.0
 40
30.0
 40
30.0
 40
30.0
 40
31.0
 40
31.0
 40
31.0
 40
32.0
 40
32.0
 40
32.0
 40
33.0
 40
33.0
 40
33.0
 40
34.0
 40
34.0
 40
34.0
 40
35.0
 40
35.0
 40
35.0
 40
36.0
 40
36.0
 40
36.0
 40
37.0
 40
37.0
 40
37.0
 40
38.0
 40
38.0
 40
38.0
 40
39.0
 40
39.0
 40
39.0
 40
40.0
 40
40.0
 40
40.0
 40
41.0
 40
41.0
 40
41.0
 40
42.0
 40
42.0
 40
42.0
 40
43.0
 40
43.0
 40
43.0
 40
44.0
 40
44.0
 40
44.0
 40
45.0
 40
45.0
 40
45.0
 40
46.0
 40
46.0
 40
46.0
 40
47.0
 40
47.0
 40
47.0
 40
48.0
 40
48.0
 40
48.0
 40
49.0
 40
49.0
 40
49.0
 40
50.0
 40
50.0
 40
50.0
 40
51.0
 40
51.0
 40
51.0
 40
52.0
 40
52.0
 40
52.0
 40
53.0
 40
53.0
 40
53.0
 40
54.0
 40
54.0
 40
54.0
 40
55.0
 40
55.0
 40
55.0
 40
56.0
 40
56.0
 40
56.0
 40
57.0
 40
57.0
 40
57.0
 40
58.0
 40
58.0
 40
58.0
 40
58.0
 10
119.5469629029099
 20
280.1274883919096
 30
0.0
 10
119.5469629029099
 20
280.1274883919096
 30
0.0
 10
120.6015995105527
 20
279.0267733371382
 30
0.0
 10
120.6015995105527
 20
279.0267733371382
 30
0.0
 10
120.6015995105527
 20
279.0267733371382
 30
0.0
 10
121.6467620449541
 20
278.0535276314328
 30
0.0
 10
121.6467620449541
 20
278.0535276314328
 30
0.0
 10
121.6467620449541
 20
278.0535276314328
 30
0.0
 10
122.7431707027977
 20
277.1371263651756
 30
0.0
 10
122.7431707027977
 20
277.1371263651756
 30
0.0
 10
122.7431707027977
 20
277.1371263651756
 30
0.0
 10
123.8860884474624
 20
276.2792920971378
 30
0.0
 10
123.8860884474624
 20
276.2792920971378
 30
0.0
 10
123.8860884474624
 20
276.2792920971378
 30
0.0
 10
125.0432173019893
 20
275.50327937073
 30
0.0
 10
125.0432173019893
 20
275.50327937073
 30
0.0
 10
125.0432173019893
 20
275.50327937073
 30
0.0
 10
126.2399650082529
 20
274.7858336425418
 30
0.0
 10
126.2399650082529
 20
274.7858336425418
 30
0.0
 10
126.2399650082529
 20
274.7858336425418
 30
0.0
 10
127.4685800517829
 20
274.1269549125729
 30
0.0
 10
127.4685800517829
 20
274.1269549125729
 30
0.0
 10
127.4685800517829
 20
274.1269549125729
 30
0.0
 10
128.8250950840716
 20
273.4835792115446
 30
0.0
 10
128.8250950840716
 20
273.4835792115446
 30
0.0
 10
128.8250950840716
 20
273.4835792115446
 30
0.0
 10
130.2130468139339
 20
272.9099671407484
 30
0.0
 10
130.2130468139339
 20
272.9099671407484
 30
0.0
 10
130.2130468139339
 20
272.9099671407484
 30
0.0
 10
131.6251143665926
 20
272.4035348620272
 30
0.0
 10
131.6251143665926
 20
272.4035348620272
 30
0.0
 10
131.6251143665926
 20
272.4035348620272
 30
0.0
 10
133.0328755223234
 20
271.9711726104659
 30
0.0
 10
133.0328755223234
 20
271.9711726104659
 30
0.0
 10
133.0328755223234
 20
271.9711726104659
 30
0.0
 10
134.4587235451512
 20
271.6042675922089
 30
0.0
 10
134.4587235451512
 20
271.6042675922089
 30
0.0
 10
134.4587235451512
 20
271.6042675922089
 30
0.0
 10
135.899213317534
 20
271.2985134103279
 30
0.0
 10
135.899213317534
 20
271.2985134103279
 30
0.0
 10
135.899213317534
 20
271.2985134103279
 30
0.0
 10
137.3138647083492
 20
271.0608002999078
 30
0.0
 10
137.3138647083492
 20
271.0608002999078
 30
0.0
 10
137.3138647083492
 20
271.0608002999078
 30
0.0
 10
138.7379901724059
 20
270.8842380258639
 30
0.0
 10
138.7379901724059
 20
270.8842380258639
 30
0.0
 10
138.7379901724059
 20
270.8842380258639
 30
0.0
 10
140.1573785998421
 20
270.7662427500395
 30
0.0
 10
140.1573785998421
 20
270.7662427500395
 30
0.0
 10
140.1573785998421
 20
270.7662427500395
 30
0.0
 10
141.5797815051276
 20
270.7085370312054
 30
0.0
 10
141.5797815051276
 20
270.7085370312054
 30
0.0
 10
141.5797815051276
 20
270.7085370312054
 30
0.0
 10
238.5240972269473
 20
268.8473122789669
 30
0.0
 10
238.5240972269473
 20
268.8473122789669
 30
0.0
 10
240.1794762060322
 20
268.8154449417005
 30
0.0
 10
241.5489104291046
 20
270.133202401638
 30
0.0
 10
241.5807777663712
 20
271.7885813807229
 30
0.0
 10
241.5807777663712
 20
271.7885813807229
 30
0.0
 10
241.5807777663712
 20
271.8471483789424
 30
0.0
 10
241.5807777663712
 20
271.8471483789424
 30
0.0
 10
241.5807777663712
 20
271.8471483789424
 30
0.0
 10
241.5807777663712
 20
273.3466357892374
 30
0.0
 10
241.5807777663712
 20
273.3466357892374
 30
0.0
 10
241.5807777663712
 20
273.3466357892374
 30
0.0
 10
241.5807777663712
 20
286.2305141181304
 30
0.0
 10
241.5807777663712
 20
286.2305141181304
 30
0.0
 10
241.5807777663712
 20
286.2305141181304
 30
0.0
 10
241.5807777663712
 20
287.7308628078109
 30
0.0
 10
241.5807777663712
 20
287.7308628078109
 30
0.0
 10
241.5807777663712
 20
289.3879643456669
 30
0.0
 10
240.2380432042515
 20
290.7306989077866
 30
0.0
 10
238.5809416663955
 20
290.7306989077866
 30
0.0
 10
238.5619935199128
 20
290.7306989077866
 30
0.0
 10
238.54304537343
 20
290.7306989077866
 30
0.0
 10
238.5240972269473
 20
290.7306989077866
 30
0.0
 10
238.5240972269473
 20
290.7306989077866
 30
0.0
 10
141.5797815051276
 20
288.8686128761623
 30
0.0
 10
141.5797815051276
 20
288.8686128761623
 30
0.0
 10
141.0974650492027
 20
288.8462196121373
 30
0.0
 10
140.612995394814
 20
288.8608613616921
 30
0.0
 10
140.1315402182746
 20
288.9090930072846
 30
0.0
 10
134.6740433915462
 20
289.4611730934413
 30
0.0
 10
130.699239027094
 20
294.3317080188968
 30
0.0
 10
131.2504578338652
 20
299.7887742059326
 30
0.0
 10
131.2504578338652
 20
299.7887742059326
 30
0.0
 10
131.6173628521224
 20
304.7885010392253
 30
0.0
 10
131.6173628521224
 20
304.7885010392253
 30
0.0
 10
131.6173628521224
 20
304.7885010392253
 30
0.0
 10
132.6164469393954
 20
318.4001604489333
 30
0.0
 10
132.6164469393954
 20
318.4001604489333
 30
0.0
 10
132.6164469393954
 20
318.4001604489333
 30
0.0
 10
132.5884553593639
 20
318.0091396078799
 30
0.0
 10
132.5884553593639
 20
318.0091396078799
 30
0.0
 10
132.6827654520851
 20
319.2915846130088
 30
0.0
 10
133.5840943290946
 20
320.3716289625262
 30
0.0
 10
134.830365600029
 20
320.6937474527332
 30
0.0
 10
135.2722019248316
 20
320.8074363316298
 30
0.0
 10
135.5809705845621
 20
321.2062086871533
 30
0.0
 10
135.5809705845621
 20
321.6618254821253
 30
0.0
 10
135.5809705845621
 20
321.6618254821253
 30
0.0
 10
135.5809705845621
 20
330.7896644105034
 30
0.0
 10
135.5809705845621
 20
330.7896644105034
 30
0.0
 10
135.5809705845621
 20
330.7896644105034
 30
0.0
 10
121.5808741719572
 20
330.7896644105034
 30
0.0
 10
121.5808741719572
 20
330.7896644105034
 30
0.0
 10
121.5808741719572
 20
330.7896644105034
 30
0.0
 10
107.5807777593524
 20
330.7896644105034
 30
0.0
 10
107.5807777593524
 20
330.7896644105034
 30
0.0
 10
107.5807777593524
 20
330.7896644105034
 30
0.0
 10
107.5807777593524
 20
321.6618254821253
 30
0.0
 10
107.5807777593524
 20
321.6618254821253
 30
0.0
 10
107.5807777593524
 20
321.2062086871533
 30
0.0
 10
107.8882545000046
 20
320.8074363316298
 30
0.0
 10
108.3300908248071
 20
320.6937474527332
 30
0.0
 10
108.3300908248071
 20
320.6937474527332
 30
0.0
 10
108.3684177574655
 20
320.6842733794917
 30
0.0
 10
108.3684177574655
 20
320.6842733794917
 30
0.0
 10
109.5957408819172
 20
320.3500969778867
 30
0.0
 10
110.4785522521368
 20
319.2786654222251
 30
0.0
 10
110.5720010654721
 20
318.0100008872655
 30
0.0
 10
110.5720010654721
 20
318.0100008872655
 30
0.0
 10
110.5431482060553
 20
318.4001604489333
 30
0.0
 10
110.5431482060553
 20
318.4001604489333
 30
0.0
 10
110.5431482060553
 20
318.4001604489333
 30
0.0
 10
111.5430935727138
 20
304.7885010392253
 30
0.0
 10
111.5430935727138
 20
304.7885010392253
 30
0.0
 10
111.5430935727138
 20
304.7885010392253
 30
0.0
 10
111.909998590971
 20
299.7887742059326
 30
0.0
 10
111.909998590971
 20
299.7887742059326
 30
0.0
 10
111.909998590971
 20
299.7887742059326
 30
0.0
 10
112.0706271963816
 20
298.0507124058319
 30
0.0
 10
112.0706271963816
 20
298.0507124058319
 30
0.0
 10
112.0706271963816
 20
298.0507124058319
 30
0.0
 10
112.2997275129459
 20
296.3178182820446
 30
0.0
 10
112.2997275129459
 20
296.3178182820446
 30
0.0
 10
112.2997275129459
 20
296.3178182820446
 30
0.0
 10
112.6016059375918
 20
294.5952595108845
 30
0.0
 10
112.6016059375918
 20
294.5952595108845
 30
0.0
 10
112.6016059375918
 20
294.5952595108845
 30
0.0
 10
112.9809995069398
 20
292.8890650480503
 30
0.0
 10
112.9809995069398
 20
292.8890650480503
 30
0.0
 10
112.9809995069398
 20
292.8890650480503
 30
0.0
 10
113.3280950993285
 20
291.5902557345956
 30
0.0
 10
113.3280950993285
 20
291.5902557345956
 30
0.0
 10
113.3280950993285
 20
291.5902557345956
 30
0.0
 10
113.7260061754665
 20
290.3035043325388
 30
0.0
 10
113.7260061754665
 20
290.3035043325388
 30
0.0
 10
113.7260061754665
 20
290.3035043325388
 30
0.0
 10
114.1768859338177
 20
289.0339785181936
 30
0.0
 10
114.1768859338177
 20
289.0339785181936
 30
0.0
 10
114.1768859338177
 20
289.0339785181936
 30
0.0
 10
114.6803037346893
 20
287.7842621297169
 30
0.0
 10
114.6803037346893
 20
287.7842621297169
 30
0.0
 10
114.6803037346893
 20
287.7842621297169
 30
0.0
 10
115.2384127765453
 20
286.5603841228075
 30
0.0
 10
115.2384127765453
 20
286.5603841228075
 30
0.0
 10
115.2384127765453
 20
286.5603841228075
 30
0.0
 10
115.7732672749905
 20
285.5096232723998
 30
0.0
 10
115.7732672749905
 20
285.5096232723998
 30
0.0
 10
115.7732672749905
 20
285.5096232723998
 30
0.0
 10
116.3516163824075
 20
284.4821169654028
 30
0.0
 10
116.3516163824075
 20
284.4821169654028
 30
0.0
 10
116.3516163824075
 20
284.4821169654028
 30
0.0
 10
116.9725988194108
 20
283.4778652018162
 30
0.0
 10
116.9725988194108
 20
283.4778652018162
 30
0.0
 10
116.9725988194108
 20
283.4778652018162
 30
0.0
 10
117.6357839463075
 20
282.5046194961109
 30
0.0
 10
117.6357839463075
 20
282.5046194961109
 30
0.0
 10
117.6357839463075
 20
282.5046194961109
 30
0.0
 10
118.5564916094927
 20
281.2893542830573
 30
0.0
 10
118.5564916094927
 20
281.2893542830573
 30
0.0
 10
118.5564916094927
 20
281.2893542830573
 30
0.0
 10
119.5469629029099
 20
280.1274883919096
 30
0.0
 10
119.5469629029099
 20
280.1274883919096
 30
0.0
  0
SPLINE
  5
59C8
102
{ACAD_REACTORS
330
5AC5
102
}
330
A
100
AcDbEntity
  8
モデル
100
AcDbSpline
210
0.0
220
0.0
230
1.0
 70
     8
 71
     3
 72
    23
 73
    19
 74
     0
 42
0.000000001
 43
0.0000000001
 40
0.0
 40
0.0
 40
0.0
 40
0.0
 40
1.0
 40
1.0
 40
1.0
 40
2.0
 40
2.0
 40
2.0
 40
3.0
 40
3.0
 40
3.0
 40
4.0
 40
4.0
 40
4.0
 40
5.0
 40
5.0
 40
5.0
 40
6.0
 40
6.0
 40
6.0
 40
6.0
 10
107.5803471196597
 20
321.6618254821253
 30
0.0
 10
108.0742908472898
 20
321.5455527650719
 30
0.0
 10
108.5682345749201
 20
321.4241123717052
 30
0.0
 10
109.0595944643935
 20
321.2931979050969
 30
0.0
 10
111.1128845196165
 20
320.7721238768208
 30
0.0
 10
113.2639297851028
 20
320.7721238768208
 30
0.0
 10
115.3180811197115
 20
321.2931979050969
 30
0.0
 10
117.3959176374235
 20
321.5464140444575
 30
0.0
 10
119.4879652649976
 20
321.6695769965953
 30
0.0
 10
121.5804435322644
 20
321.6618254821253
 30
0.0
 10
123.6742137186097
 20
321.6790510698368
 30
0.0
 10
125.7662613461838
 20
321.5567493970846
 30
0.0
 10
127.8423753051246
 20
321.2931979050969
 30
0.0
 10
129.8982491985045
 20
320.77815283252
 30
0.0
 10
132.0475719052196
 20
320.77815283252
 30
0.0
 10
134.1017232398282
 20
321.2931979050969
 30
0.0
 10
134.5939444086872
 20
321.4223898129341
 30
0.0
 10
135.0857349378535
 20
321.5438302063007
 30
0.0
 10
135.5805399448693
 20
321.6618254821253
 30
0.0
  0
SPLINE
  5
59C9
102
{ACAD_REACTORS
330
5AC5
102
}
330
A
100
AcDbEntity
  8
モデル
100
AcDbSpline
210
0.0
220
0.0
230
1.0
 70
     8
 71
     3
 72
   155
 73
   151
 74
     0
 42
0.000000001
 43
0.0000000001
 40
0.0
 40
0.0
 40
0.0
 40
0.0
 40
1.0
 40
1.0
 40
1.0
 40
2.0
 40
2.0
 40
2.0
 40
3.0
 40
3.0
 40
3.0
 40
4.0
 40
4.0
 40
4.0
 40
5.0
 40
5.0
 40
5.0
 40
6.0
 40
6.0
 40
6.0
 40
7.0
 40
7.0
 40
7.0
 40
8.0
 40
8.0
 40
8.0
 40
9.0
 40
9.0
 40
9.0
 40
10.0
 40
10.0
 40
10.0
 40
11.0
 40
11.0
 40
11.0
 40
12.0
 40
12.0
 40
12.0
 40
13.0
 40
13.0
 40
13.0
 40
14.0
 40
14.0
 40
14.0
 40
15.0
 40
15.0
 40
15.0
 40
16.0
 40
16.0
 40
16.0
 40
17.0
 40
17.0
 40
17.0
 40
18.0
 40
18.0
 40
18.0
 40
19.0
 40
19.0
 40
19.0
 40
20.0
 40
20.0
 40
20.0
 40
21.0
 40
21.0
 40
21.0
 40
22.0
 40
22.0
 40
22.0
 40
23.0
 40
23.0
 40
23.0
 40
24.0
 40
24.0
 40
24.0
 40
25.0
 40
25.0
 40
25.0
 40
26.0
 40
26.0
 40
26.0
 40
27.0
 40
27.0
 40
27.0
 40
28.0
 40
28.0
 40
28.0
 40
29.0
 40
29.0
 40
29.0
 40
30.0
 40
30.0
 40
30.0
 40
31.0
 40
31.0
 40
31.0
 40
32.0
 40
32.0
 40
32.0
 40
33.0
 40
33.0
 40
33.0
 40
34.0
 40
34.0
 40
34.0
 40
35.0
 40
35.0
 40
35.0
 40
36.0
 40
36.0
 40
36.0
 40
37.0
 40
37.0
 40
37.0
 40
38.0
 40
38.0
 40
38.0
 40
39.0
 40
39.0
 40
39.0
 40
40.0
 40
40.0
 40
40.0
 40
41.0
 40
41.0
 40
41.0
 40
42.0
 40
42.0
 40
42.0
 40
43.0
 40
43.0
 40
43.0
 40
44.0
 40
44.0
 40
44.0
 40
45.0
 40
45.0
 40
45.0
 40
46.0
 40
46.0
 40
46.0
 40
47.0
 40
47.0
 40
47.0
 40
48.0
 40
48.0
 40
48.0
 40
49.0
 40
49.0
 40
49.0
 40
50.0
 40
50.0
 40
50.0
 40
50.0
 10
132.6164469393954
 20
318.4001604489333
 30
0.0
 10
132.6164469393954
 20
318.4001604489333
 30
0.0
 10
132.6147243806242
 20
318.59567086946
 30
0.0
 10
132.6147243806242
 20
318.59567086946
 30
0.0
 10
132.6147243806242
 20
318.59567086946
 30
0.0
 10
132.5819957639721
 20
318.809268157084
 30
0.0
 10
132.5819957639721
 20
318.809268157084
 30
0.0
 10
132.5819957639721
 20
318.809268157084
 30
0.0
 10
132.5195530085176
 20
319.042674870576
 30
0.0
 10
132.5195530085176
 20
319.042674870576
 30
0.0
 10
132.5195530085176
 20
319.042674870576
 30
0.0
 10
132.4295493127245
 20
319.289000774852
 30
0.0
 10
132.4295493127245
 20
319.289000774852
 30
0.0
 10
132.4295493127245
 20
319.289000774852
 30
0.0
 10
132.3068170002792
 20
319.5551361049964
 30
0.0
 10
132.3068170002792
 20
319.5551361049964
 30
0.0
 10
132.3068170002792
 20
319.5551361049964
 30
0.0
 10
132.1578156665739
 20
319.8307455083818
 30
0.0
 10
132.1578156665739
 20
319.8307455083818
 30
0.0
 10
132.1578156665739
 20
319.8307455083818
 30
0.0
 10
131.9786695543733
 20
320.1166902643947
 30
0.0
 10
131.9786695543733
 20
320.1166902643947
 30
0.0
 10
131.9786695543733
 20
320.1166902643947
 30
0.0
 10
131.7723931415268
 20
320.4095252554919
 30
0.0
 10
131.7723931415268
 20
320.4095252554919
 30
0.0
 10
131.7723931415268
 20
320.4095252554919
 30
0.0
 10
131.6578429832447
 20
320.5593878685827
 30
0.0
 10
131.6578429832447
 20
320.5593878685827
 30
0.0
 10
131.6578429832447
 20
320.5593878685827
 30
0.0
 10
131.5342493914138
 20
320.7040828053603
 30
0.0
 10
131.5342493914138
 20
320.7040828053603
 30
0.0
 10
131.5342493914138
 20
320.7040828053603
 30
0.0
 10
131.5071190907681
 20
320.7290599075422
 30
0.0
 10
131.5071190907681
 20
320.7290599075422
 30
0.0
 10
131.5071190907681
 20
320.7290599075422
 30
0.0
 10
131.4830032679719
 20
320.7385339807834
 30
0.0
 10
131.4830032679719
 20
320.7385339807834
 30
0.0
 10
131.4830032679719
 20
320.7385339807834
 30
0.0
 10
131.4761130328872
 20
320.739395260169
 30
0.0
 10
131.4761130328872
 20
320.739395260169
 30
0.0
 10
131.4761130328872
 20
320.739395260169
 30
0.0
 10
131.447690813163
 20
320.7316437456986
 30
0.0
 10
131.447690813163
 20
320.7316437456986
 30
0.0
 10
131.447690813163
 20
320.7316437456986
 30
0.0
 10
131.4097945201976
 20
320.7032215259748
 30
0.0
 10
131.4097945201976
 20
320.7032215259748
 30
0.0
 10
131.4097945201976
 20
320.7032215259748
 30
0.0
 10
131.2935218031442
 20
320.5964228821626
 30
0.0
 10
131.2935218031442
 20
320.5964228821626
 30
0.0
 10
131.2935218031442
 20
320.5964228821626
 30
0.0
 10
131.1755265273198
 20
320.4844565620372
 30
0.0
 10
131.1755265273198
 20
320.4844565620372
 30
0.0
 10
131.1755265273198
 20
320.4844565620372
 30
0.0
 10
130.6699555279843
 20
320.0374525609211
 30
0.0
 10
130.6699555279843
 20
320.0374525609211
 30
0.0
 10
130.6699555279843
 20
320.0374525609211
 30
0.0
 10
130.1152916036707
 20
319.5973387948898
 30
0.0
 10
130.1152916036707
 20
319.5973387948898
 30
0.0
 10
130.1152916036707
 20
319.5973387948898
 30
0.0
 10
129.735036754937
 20
319.3243132296609
 30
0.0
 10
129.735036754937
 20
319.3243132296609
 30
0.0
 10
129.735036754937
 20
319.3243132296609
 30
0.0
 10
129.3384175978773
 20
319.061623017059
 30
0.0
 10
129.3384175978773
 20
319.061623017059
 30
0.0
 10
129.3384175978773
 20
319.061623017059
 30
0.0
 10
128.9150987798647
 20
318.8058230395416
 30
0.0
 10
128.9150987798647
 20
318.8058230395416
 30
0.0
 10
128.9150987798647
 20
318.8058230395416
 30
0.0
 10
128.4784301313756
 20
318.5681099291216
 30
0.0
 10
128.4784301313756
 20
318.5681099291216
 30
0.0
 10
128.4784301313756
 20
318.5681099291216
 30
0.0
 10
128.1300426199085
 20
318.4001604489333
 30
0.0
 10
128.1300426199085
 20
318.4001604489333
 30
0.0
 10
125.9665088033312
 20
318.0341167100617
 30
0.0
 10
123.7706770097947
 20
317.9032022434536
 30
0.0
 10
121.5804435322644
 20
318.0091396078799
 30
0.0
 10
119.3889181356558
 20
317.8808089794285
 30
0.0
 10
117.1913637833483
 20
318.0117234460367
 30
0.0
 10
115.0312750843132
 20
318.4001604489333
 30
0.0
 10
115.0312750843132
 20
318.4001604489333
 30
0.0
 10
114.6307801700185
 20
318.59567086946
 30
0.0
 10
114.6307801700185
 20
318.59567086946
 30
0.0
 10
114.6307801700185
 20
318.59567086946
 30
0.0
 10
114.2401899686579
 20
318.809268157084
 30
0.0
 10
114.2401899686579
 20
318.809268157084
 30
0.0
 10
114.2401899686579
 20
318.809268157084
 30
0.0
 10
113.852183605454
 20
319.042674870576
 30
0.0
 10
113.852183605454
 20
319.042674870576
 30
0.0
 10
113.852183605454
 20
319.042674870576
 30
0.0
 10
113.4762351536483
 20
319.289000774852
 30
0.0
 10
113.4762351536483
 20
319.289000774852
 30
0.0
 10
113.4762351536483
 20
319.289000774852
 30
0.0
 10
113.101578620921
 20
319.5551361049964
 30
0.0
 10
113.101578620921
 20
319.5551361049964
 30
0.0
 10
113.101578620921
 20
319.5551361049964
 30
0.0
 10
112.7424251171341
 20
319.8307455083818
 30
0.0
 10
112.7424251171341
 20
319.8307455083818
 30
0.0
 10
112.7424251171341
 20
319.8307455083818
 30
0.0
 10
112.3961908041309
 20
320.1166902643947
 30
0.0
 10
112.3961908041309
 20
320.1166902643947
 30
0.0
 10
112.3961908041309
 20
320.1166902643947
 30
0.0
 10
112.0671820788392
 20
320.4095252554919
 30
0.0
 10
112.0671820788392
 20
320.4095252554919
 30
0.0
 10
112.0671820788392
 20
320.4095252554919
 30
0.0
 10
111.9065534734286
 20
320.5593878685827
 30
0.0
 10
111.9065534734286
 20
320.5593878685827
 30
0.0
 10
111.9065534734286
 20
320.5593878685827
 30
0.0
 10
111.7485087061747
 20
320.7040828053603
 30
0.0
 10
111.7485087061747
 20
320.7040828053603
 30
0.0
 10
111.7485087061747
 20
320.7040828053603
 30
0.0
 10
111.7170720086009
 20
320.7290599075422
 30
0.0
 10
111.7170720086009
 20
320.7290599075422
 30
0.0
 10
111.7170720086009
 20
320.7290599075422
 30
0.0
 10
111.6920949064191
 20
320.7385339807834
 30
0.0
 10
111.6920949064191
 20
320.7385339807834
 30
0.0
 10
111.6920949064191
 20
320.7385339807834
 30
0.0
 10
111.6852046713345
 20
320.739395260169
 30
0.0
 10
111.6852046713345
 20
320.739395260169
 30
0.0
 10
111.6852046713345
 20
320.739395260169
 30
0.0
 10
111.6576437309959
 20
320.7316437456986
 30
0.0
 10
111.6576437309959
 20
320.7316437456986
 30
0.0
 10
111.6576437309959
 20
320.7316437456986
 30
0.0
 10
111.6262070334222
 20
320.7032215259748
 30
0.0
 10
111.6262070334222
 20
320.7032215259748
 30
0.0
 10
111.6262070334222
 20
320.7032215259748
 30
0.0
 10
111.5314663010084
 20
320.5964228821626
 30
0.0
 10
111.5314663010084
 20
320.5964228821626
 30
0.0
 10
111.5314663010084
 20
320.5964228821626
 30
0.0
 10
111.4444770830648
 20
320.4844565620372
 30
0.0
 10
111.4444770830648
 20
320.4844565620372
 30
0.0
 10
111.4444770830648
 20
320.4844565620372
 30
0.0
 10
111.130540747021
 20
320.0374525609211
 30
0.0
 10
111.130540747021
 20
320.0374525609211
 30
0.0
 10
111.130540747021
 20
320.0374525609211
 30
0.0
 10
110.8756020488892
 20
319.5973387948898
 30
0.0
 10
110.8756020488892
 20
319.5973387948898
 30
0.0
 10
110.8756020488892
 20
319.5973387948898
 30
0.0
 10
110.7468407807449
 20
319.3243132296609
 30
0.0
 10
110.7468407807449
 20
319.3243132296609
 30
0.0
 10
110.7468407807449
 20
319.3243132296609
 30
0.0
 10
110.6460710926322
 20
319.061623017059
 30
0.0
 10
110.6460710926322
 20
319.061623017059
 30
0.0
 10
110.6460710926322
 20
319.061623017059
 30
0.0
 10
110.5775993814785
 20
318.8058230395416
 30
0.0
 10
110.5775993814785
 20
318.8058230395416
 30
0.0
 10
110.5775993814785
 20
318.8058230395416
 30
0.0
 10
110.5440094854408
 20
318.5681099291216
 30
0.0
 10
110.5440094854408
 20
318.5681099291216
 30
0.0
 10
110.5440094854408
 20
318.5681099291216
 30
0.0
 10
110.5431482060553
 20
318.4001604489333
 30
0.0
 10
110.5431482060553
 20
318.4001604489333
 30
0.0
  0
SPLINE
  5
59CA
102
{ACAD_REACTORS
330
5AC5
102
}
330
A
100
AcDbEntity
  8
モデル
100
AcDbSpline
210
0.0
220
0.0
230
1.0
 70
     8
 71
     3
 72
    20
 73
    16
 74
     0
 42
0.000000001
 43
0.0000000001
 40
0.0
 40
0.0
 40
0.0
 40
0.0
 40
1.0
 40
1.0
 40
1.0
 40
2.0
 40
2.0
 40
2.0
 40
3.0
 40
3.0
 40
3.0
 40
4.0
 40
4.0
 40
4.0
 40
5.0
 40
5.0
 40
5.0
 40
5.0
 10
238.5240972269473
 20
286.2305141181304
 30
0.0
 10
238.5240972269473
 20
286.2305141181304
 30
0.0
 10
141.5797815051276
 20
284.3692893658919
 30
0.0
 10
141.5797815051276
 20
284.3692893658919
 30
0.0
 10
140.9880825672341
 20
284.3443122637099
 30
0.0
 10
140.3942304308765
 20
284.3555088957224
 30
0.0
 10
139.8033927723686
 20
284.4054631000861
 30
0.0
 10
131.9532618124986
 20
285.0522839186567
 30
0.0
 10
126.114648857651
 20
291.939935165141
 30
0.0
 10
126.7627615953
 20
299.7887742059326
 30
0.0
 10
126.7627615953
 20
299.7887742059326
 30
0.0
 10
127.1296666135571
 20
304.7885010392253
 30
0.0
 10
127.1296666135571
 20
304.7885010392253
 30
0.0
 10
127.1296666135571
 20
304.7885010392253
 30
0.0
 10
128.1300426199085
 20
318.4001604489333
 30
0.0
 10
128.1300426199085
 20
318.4001604489333
 30
0.0
  0
SPLINE
  5
59CB
102
{ACAD_REACTORS
330
5AC5
102
}
330
A
100
AcDbEntity
  8
モデル
100
AcDbSpline
210
0.0
220
0.0
230
1.0
 70
     8
 71
     3
 72
   107
 73
   103
 74
     0
 42
0.000000001
 43
0.0000000001
 40
0.0
 40
0.0
 40
0.0
 40
0.0
 40
1.0
 40
1.0
 40
1.0
 40
2.0
 40
2.0
 40
2.0
 40
3.0
 40
3.0
 40
3.0
 40
4.0
 40
4.0
 40
4.0
 40
5.0
 40
5.0
 40
5.0
 40
6.0
 40
6.0
 40
6.0
 40
7.0
 40
7.0
 40
7.0
 40
8.0
 40
8.0
 40
8.0
 40
9.0
 40
9.0
 40
9.0
 40
10.0
 40
10.0
 40
10.0
 40
11.0
 40
11.0
 40
11.0
 40
12.0
 40
12.0
 40
12.0
 40
13.0
 40
13.0
 40
13.0
 40
14.0
 40
14.0
 40
14.0
 40
15.0
 40
15.0
 40
15.0
 40
16.0
 40
16.0
 40
16.0
 40
17.0
 40
17.0
 40
17.0
 40
18.0
 40
18.0
 40
18.0
 40
19.0
 40
19.0
 40
19.0
 40
20.0
 40
20.0
 40
20.0
 40
21.0
 40
21.0
 40
21.0
 40
22.0
 40
22.0
 40
22.0
 40
23.0
 40
23.0
 40
23.0
 40
24.0
 40
24.0
 40
24.0
 40
25.0
 40
25.0
 40
25.0
 40
26.0
 40
26.0
 40
26.0
 40
27.0
 40
27.0
 40
27.0
 40
28.0
 40
28.0
 40
28.0
 40
29.0
 40
29.0
 40
29.0
 40
30.0
 40
30.0
 40
30.0
 40
31.0
 40
31.0
 40
31.0
 40
32.0
 40
32.0
 40
32.0
 40
33.0
 40
33.0
 40
33.0
 40
34.0
 40
34.0
 40
34.0
 40
34.0
 10
115.0312750843132
 20
318.4001604489333
 30
0.0
 10
115.0312750843132
 20
318.4001604489333
 30
0.0
 10
116.0312204509718
 20
304.7885010392253
 30
0.0
 10
116.0312204509718
 20
304.7885010392253
 30
0.0
 10
116.0312204509718
 20
304.7885010392253
 30
0.0
 10
116.3981254692288
 20
299.7887742059326
 30
0.0
 10
116.3981254692288
 20
299.787912926547
 30
0.0
 10
116.3981254692288
 20
299.787912926547
 30
0.0
 10
116.5316237739938
 20
298.3435473969291
 30
0.0
 10
116.5316237739938
 20
298.3435473969291
 30
0.0
 10
116.5316237739938
 20
298.3435473969291
 30
0.0
 10
116.7202439594359
 20
296.9034882642391
 30
0.0
 10
116.7202439594359
 20
296.9034882642391
 30
0.0
 10
116.7202439594359
 20
296.9034882642391
 30
0.0
 10
116.966139224019
 20
295.4711806460195
 30
0.0
 10
116.966139224019
 20
295.4711806460195
 30
0.0
 10
116.966139224019
 20
295.4711806460195
 30
0.0
 10
117.2749078837494
 20
294.0509309391978
 30
0.0
 10
117.2749078837494
 20
294.0509309391978
 30
0.0
 10
117.2749078837494
 20
294.0509309391978
 30
0.0
 10
117.579370146552
 20
292.8864812098935
 30
0.0
 10
117.579370146552
 20
292.8864812098935
 30
0.0
 10
117.579370146552
 20
292.8864812098935
 30
0.0
 10
117.930341496176
 20
291.7358119507585
 30
0.0
 10
117.930341496176
 20
291.7358119507585
 30
0.0
 10
117.930341496176
 20
291.7358119507585
 30
0.0
 10
118.3295444913923
 20
290.5989231617928
 30
0.0
 10
118.3295444913923
 20
290.5989231617928
 30
0.0
 10
118.3295444913923
 20
290.5989231617928
 30
0.0
 10
118.7804242497434
 20
289.4809825193097
 30
0.0
 10
118.7804242497434
 20
289.4809825193097
 30
0.0
 10
118.7804242497434
 20
289.4809825193097
 30
0.0
 10
119.2812582124584
 20
288.3880189790086
 30
0.0
 10
119.2812582124584
 20
288.3880189790086
 30
0.0
 10
119.2812582124584
 20
288.3880189790086
 30
0.0
 10
119.8742490694303
 20
287.2528527488141
 30
0.0
 10
119.8742490694303
 20
287.2528527488141
 30
0.0
 10
119.8742490694303
 20
287.2528527488141
 30
0.0
 10
120.5309746009351
 20
286.1486925765004
 30
0.0
 10
120.5309746009351
 20
286.1486925765004
 30
0.0
 10
120.5309746009351
 20
286.1486925765004
 30
0.0
 10
121.2497122482017
 20
285.0807061383809
 30
0.0
 10
121.2497122482017
 20
285.0807061383809
 30
0.0
 10
121.2497122482017
 20
285.0807061383809
 30
0.0
 10
122.0278781730733
 20
284.0557836695406
 30
0.0
 10
122.0278781730733
 20
284.0557836695406
 30
0.0
 10
122.0278781730733
 20
284.0557836695406
 30
0.0
 10
122.8611659786221
 20
283.0782315669071
 30
0.0
 10
122.8611659786221
 20
283.0782315669071
 30
0.0
 10
122.8611659786221
 20
283.0782315669071
 30
0.0
 10
123.7491450251553
 20
282.1566626243364
 30
0.0
 10
123.7491450251553
 20
282.1566626243364
 30
0.0
 10
123.7491450251553
 20
282.1566626243364
 30
0.0
 10
124.609132491657
 20
281.3625630308317
 30
0.0
 10
124.609132491657
 20
281.3625630308317
 30
0.0
 10
124.609132491657
 20
281.3625630308317
 30
0.0
 10
125.5130452068233
 20
280.6123886859913
 30
0.0
 10
125.5130452068233
 20
280.6123886859913
 30
0.0
 10
125.5130452068233
 20
280.6123886859913
 30
0.0
 10
126.4561461340335
 20
279.9104459867435
 30
0.0
 10
126.4561461340335
 20
279.9104459867435
 30
0.0
 10
126.4561461340335
 20
279.9104459867435
 30
0.0
 10
127.4349901557453
 20
279.2575962124737
 30
0.0
 10
127.4349901557453
 20
279.2575962124737
 30
0.0
 10
127.4349901557453
 20
279.2575962124737
 30
0.0
 10
128.4431176765669
 20
278.6564232013389
 30
0.0
 10
128.4431176765669
 20
278.6564232013389
 30
0.0
 10
128.4431176765669
 20
278.6564232013389
 30
0.0
 10
129.4775142186485
 20
278.1052043945675
 30
0.0
 10
129.4775142186485
 20
278.1052043945675
 30
0.0
 10
129.4775142186485
 20
278.1052043945675
 30
0.0
 10
130.6234464411629
 20
277.5660434991943
 30
0.0
 10
130.6234464411629
 20
277.5660434991943
 30
0.0
 10
130.6234464411629
 20
277.5660434991943
 30
0.0
 10
131.7969396040158
 20
277.0845883226552
 30
0.0
 10
131.7969396040158
 20
277.0845883226552
 30
0.0
 10
131.7969396040158
 20
277.0845883226552
 30
0.0
 10
132.9949792293578
 20
276.6591163061786
 30
0.0
 10
132.9949792293578
 20
276.6591163061786
 30
0.0
 10
132.9949792293578
 20
276.6591163061786
 30
0.0
 10
134.2102444424113
 20
276.2887661703791
 30
0.0
 10
134.2102444424113
 20
276.2887661703791
 30
0.0
 10
134.2102444424113
 20
276.2887661703791
 30
0.0
 10
135.4405820447125
 20
275.9735379152567
 30
0.0
 10
135.4405820447125
 20
275.9735379152567
 30
0.0
 10
135.4405820447125
 20
275.9735379152567
 30
0.0
 10
136.6803937202551
 20
275.7134315408117
 30
0.0
 10
136.6803937202551
 20
275.7134315408117
 30
0.0
 10
136.6803937202551
 20
275.7134315408117
 30
0.0
 10
137.8956589333086
 20
275.5118921645858
 30
0.0
 10
137.8956589333086
 20
275.5118921645858
 30
0.0
 10
137.8956589333086
 20
275.5118921645858
 30
0.0
 10
139.1199675799107
 20
275.3585844339527
 30
0.0
 10
139.1199675799107
 20
275.3585844339527
 30
0.0
 10
139.1199675799107
 20
275.3585844339527
 30
0.0
 10
140.3494439028264
 20
275.2578147458397
 30
0.0
 10
140.3494439028264
 20
275.2578147458397
 30
0.0
 10
140.3494439028264
 20
275.2578147458397
 30
0.0
 10
141.5797815051276
 20
275.207860541476
 30
0.0
 10
141.5797815051276
 20
275.207860541476
 30
0.0
 10
141.5797815051276
 20
275.207860541476
 30
0.0
 10
238.5240972269473
 20
273.3466357892374
 30
0.0
 10
238.5240972269473
 20
273.3466357892374
 30
0.0
  0
LINE
  5
59E0
330
A
100
AcDbEntity
  8
モデル
100
AcDbLine
 10
128.3618892974018
 20
181.5707912877311
 30
0.0
 11
128.3618892974018
 21
180.2848492877312
 31
0.0
  0
LINE
  5
59E1
330
A
100
AcDbEntity
  8
モデル
100
AcDbLine
 10
128.3618892974018
 20
174.9981262877312
 30
0.0
 11
128.3618892974018
 21
174.3484962877312
 31
0.0
  0
LINE
  5
59E2
330
A
100
AcDbEntity
  8
モデル
100
AcDbLine
 10
127.8618892974018
 20
158.4689122877312
 30
0.0
 11
128.1618892974019
 21
158.4689122877312
 31
0.0
  0
LINE
  5
59E4
330
A
100
AcDbEntity
  8
モデル
100
AcDbLine
 10
127.8618892974018
 20
182.7689122877312
 30
0.0
 11
128.1618892974019
 21
182.7689122877312
 31
0.0
  0
ARC
  5
59E6
330
A
100
AcDbEntity
  8
モデル
100
AcDbCircle
 10
128.1618892974019
 20
158.6689122877311
 30
0.0
 40
0.2000000029802322
100
AcDbArc
 50
270.0
 51
0.0
  0
ARC
  5
59E7
330
A
100
AcDbEntity
  8
モデル
100
AcDbCircle
 10
128.1618892974019
 20
182.5689122877311
 30
0.0
 40
0.2000000029802322
100
AcDbArc
 50
0.0
 51
90.0
  0
LINE
  5
59E9
330
A
100
AcDbEntity
  8
モデル
100
AcDbLine
 10
116.5223762974018
 20
182.0847052877311
 30
0.0
 11
120.6618892974019
 21
182.3741682877312
 31
0.0
  0
LINE
  5
59EA
330
A
100
AcDbEntity
  8
モデル
100
AcDbLine
 10
116.5223762974018
 20
159.1531192877312
 30
0.0
 11
120.6618892974019
 21
158.8636562877311
 31
0.0
  0
ARC
  5
59EB
330
A
100
AcDbEntity
  8
モデル
100
AcDbCircle
 10
116.6618892974019
 20
180.0895772877311
 30
0.0
 40
2.0
100
AcDbArc
 50
94.000000000003
 51
180.0
  0
ARC
  5
59EC
330
A
100
AcDbEntity
  8
モデル
100
AcDbCircle
 10
116.6618892974019
 20
161.1482472877311
 30
0.0
 40
2.0
100
AcDbArc
 50
180.0
 51
265.999999999997
  0
LINE
  5
59FB
330
A
100
AcDbEntity
  8
モデル
100
AcDbLine
 10
120.6618892974019
 20
166.3439802877311
 30
0.0
 11
114.6618892974019
 21
166.8689122877312
 31
0.0
  0
LINE
  5
59FC
330
A
100
AcDbEntity
  8
モデル
100
AcDbLine
 10
120.6618892974019
 20
174.8938442877312
 30
0.0
 11
114.6618892974019
 21
174.3689122877312
 31
0.0
  0
LINE
  5
59FD
330
A
100
AcDbEntity
  8
モデル
100
AcDbLine
 10
127.8618892974018
 20
197.1189122877311
 30
0.0
 11
127.8618892974018
 21
144.1189122877312
 31
0.0
  0
LINE
  5
59FF
330
A
100
AcDbEntity
  8
モデル
100
AcDbLine
 10
120.6618892974019
 20
198.1189122877311
 30
0.0
 11
120.6618892974019
 21
143.1189122877312
 31
0.0
  0
ARC
  5
5A01
330
A
100
AcDbEntity
  8
モデル
100
AcDbCircle
 10
126.8618892974018
 20
197.1189122877311
 30
0.0
 40
1.0
100
AcDbArc
 50
0.0
 51
90.0
  0
ARC
  5
5A02
330
A
100
AcDbEntity
  8
モデル
100
AcDbCircle
 10
126.8618892974018
 20
144.1189122877312
 30
0.0
 40
1.0
100
AcDbArc
 50
270.0
 51
0.0
  0
LINE
  5
5A03
330
A
100
AcDbEntity
  8
モデル
100
AcDbLine
 10
126.8618892974018
 20
198.1189122877311
 30
0.0
 11
120.6618892974019
 21
198.1189122877311
 31
0.0
  0
LINE
  5
5A04
330
A
100
AcDbEntity
  8
モデル
100
AcDbLine
 10
126.8618892974018
 20
143.1189122877312
 30
0.0
 11
120.6618892974019
 21
143.1189122877312
 31
0.0
  0
ARC
  5
5A11
330
A
100
AcDbEntity
  8
モデル
100
AcDbCircle
 10
131.1808741719573
 20
331.3896644105034
 30
0.0
 40
0.6000000238418579
100
AcDbArc
 50
180.0
 51
270.0
  0
LINE
  5
5A12
330
A
100
AcDbEntity
  8
モデル
100
AcDbLine
 10
98.83087417195725
 20
344.4896644105034
 30
0.0
 11
106.3308741719572
 21
344.4896644105034
 31
0.0
  0
LINE
  5
5A13
330
A
100
AcDbEntity
  8
モデル
100
AcDbLine
 10
98.30594217195721
 20
338.4896644105034
 30
0.0
 11
98.83087417195725
 21
344.4896644105034
 31
0.0
  0
LINE
  5
5A14
330
A
100
AcDbEntity
  8
モデル
100
AcDbLine
 10
136.8308741719572
 20
344.4896644105034
 30
0.0
 11
144.3308741719572
 21
344.4896644105034
 31
0.0
  0
LINE
  5
5A15
330
A
100
AcDbEntity
  8
モデル
100
AcDbLine
 10
144.8558061719573
 20
338.4896644105034
 30
0.0
 11
144.3308741719572
 21
344.4896644105034
 31
0.0
  0
ARC
  5
5A16
330
A
100
AcDbEntity
  8
モデル
100
AcDbCircle
 10
112.1102091719572
 20
342.4896644105034
 30
0.0
 40
2.0
100
AcDbArc
 50
90.0
 51
176.0000000000003
  0
LINE
  5
5A17
330
A
100
AcDbEntity
  8
モデル
100
AcDbLine
 10
112.1102091719572
 20
344.4896644105034
 30
0.0
 11
131.0515391719573
 21
344.4896644105034
 31
0.0
  0
LINE
  5
5A18
330
A
100
AcDbEntity
  8
モデル
100
AcDbLine
 10
110.1150811719573
 20
342.6291774105034
 30
0.0
 11
109.8256181719573
 21
338.4896644105034
 31
0.0
  0
LINE
  5
5A19
330
A
100
AcDbEntity
  8
モデル
100
AcDbLine
 10
133.7308741719572
 20
331.2896644105034
 30
0.0
 11
133.7308741719572
 21
330.9896644105034
 31
0.0
  0
LINE
  5
5A1A
330
A
100
AcDbEntity
  8
モデル
100
AcDbLine
 10
109.4308741719573
 20
331.2896644105034
 30
0.0
 11
109.4308741719573
 21
330.9896644105034
 31
0.0
  0
ARC
  5
5A1B
330
A
100
AcDbEntity
  8
モデル
100
AcDbCircle
 10
133.5308741719573
 20
330.9896644105034
 30
0.0
 40
0.2000000029802322
100
AcDbArc
 50
270.0
 51
0.0
  0
ARC
  5
5A1C
330
A
100
AcDbEntity
  8
モデル
100
AcDbCircle
 10
109.6308741719572
 20
330.9896644105034
 30
0.0
 40
0.2000000029802322
100
AcDbArc
 50
180.0
 51
270.0
  0
LINE
  5
5A1D
330
A
100
AcDbEntity
  8
モデル
100
AcDbLine
 10
133.0466671719573
 20
342.6291774105034
 30
0.0
 11
133.3361301719573
 21
338.4896644105034
 31
0.0
  0
ARC
  5
5A1E
330
A
100
AcDbEntity
  8
モデル
100
AcDbCircle
 10
131.0515391719573
 20
342.4896644105034
 30
0.0
 40
2.0
100
AcDbArc
 50
3.999999999999762
 51
90.0
  0
LINE
  5
5A1F
330
A
100
AcDbEntity
  8
モデル
100
AcDbLine
 10
136.3059421719572
 20
338.4896644105034
 30
0.0
 11
136.8308741719572
 21
344.4896644105034
 31
0.0
  0
LINE
  5
5A20
330
A
100
AcDbEntity
  8
モデル
100
AcDbLine
 10
106.8558061719573
 20
338.4896644105034
 30
0.0
 11
106.3308741719572
 21
344.4896644105034
 31
0.0
  0
LINE
  5
5A21
330
A
100
AcDbEntity
  8
モデル
100
AcDbLine
 10
149.0808741719572
 20
332.2896644105034
 30
0.0
 11
149.0808741719572
 21
338.4896644105034
 31
0.0
  0
ARC
  5
5A22
330
A
100
AcDbEntity
  8
モデル
100
AcDbCircle
 10
148.0808741719572
 20
332.2896644105034
 30
0.0
 40
1.0
100
AcDbArc
 50
270.0
 51
0.0
  0
LINE
  5
5A23
330
A
100
AcDbEntity
  8
モデル
100
AcDbLine
 10
148.0808741719572
 20
331.2896644105034
 30
0.0
 11
95.08087417195725
 21
331.2896644105034
 31
0.0
  0
LINE
  5
5A24
102
{ACAD_REACTORS
330
5A81
102
}
330
A
100
AcDbEntity
  8
モデル
100
AcDbLine
 10
149.0808741719572
 20
338.4896644105034
 30
0.0
 11
94.08087417195725
 21
338.4896644105034
 31
0.0
  0
ARC
  5
5A25
330
A
100
AcDbEntity
  8
モデル
100
AcDbCircle
 10
95.08087417195725
 20
332.2896644105034
 30
0.0
 40
1.0
100
AcDbArc
 50
180.0
 51
270.0
  0
LINE
  5
5A26
330
A
100
AcDbEntity
  8
モデル
100
AcDbLine
 10
94.08087417195725
 20
332.2896644105034
 30
0.0
 11
94.08087417195725
 21
338.4896644105034
 31
0.0
  0
LINE
  5
5A27
330
A
100
AcDbEntity
  8
モデル
100
AcDbLine
 10
114.6618892974019
 20
161.1482472877311
 30
0.0
 11
114.6618892974019
 21
180.0895772877311
 31
0.0
  0
LINE
  5
5A28
330
A
100
AcDbEntity
  8
モデル
100
AcDbLine
 10
128.3618892974018
 20
158.6689122877311
 30
0.0
 11
128.3618892974018
 21
182.5689122877311
 31
0.0
  0
LINE
  5
5A31
330
A
100
AcDbEntity
  8
モデル
100
AcDbLine
 10
109.6308741719572
 20
330.7896644105034
 30
0.0
 11
133.5308741719573
 21
330.7896644105034
 31
0.0
  0
LINE
  5
5A48
330
A
100
AcDbEntity
  8
モデル
  6
CENTER
 48
0.25
100
AcDbLine
 10
140.5808741719572
 20
334.0032927651841
 30
0.0
 11
140.5808741719572
 21
345.6358734105034
 31
0.0
  0
LINE
  5
5A49
330
A
100
AcDbEntity
  8
モデル
  6
CENTER
 48
0.25
100
AcDbLine
 10
102.5808741719572
 20
334.0032927651841
 30
0.0
 11
102.5808741719572
 21
345.6358734105034
 31
0.0
  0
DIMENSION
  5
5A72
330
A
100
AcDbEntity
  8
寸法
100
AcDbDimension
  2
*D33
 10
76.65052552716156
 20
330.8682783387544
 30
0.0
 11
72.15052552716156
 21
299.8682783387544
 31
0.0
 70
    32
 71
     5
 42
62.0
 73
     0
 74
     0
 75
     0
  3
tfrom線あり
100
AcDbAlignedDimension
 13
144.0010535271614
 23
268.8682783387544
 33
0.0
 14
93.93974152716157
 24
330.8682783387544
 34
0.0
 50
90.0
100
AcDbRotatedDimension
1001
ACAD
1000
DSTYLE
1002
{
1070
   144
1040
1.0
1002
}
  0
DIMENSION
  5
5A7F
102
{ACAD_REACTORS
330
5A81
102
}
102
{ACAD_XDICTIONARY
360
5A80
102
}
330
A
100
AcDbEntity
  8
寸法
100
AcDbDimension
  2
*D34
 10
76.65052552716156
 20
338.4896644105034
 30
0.0
 11
72.15052552716156
 21
334.6789713746289
 31
0.0
 70
    32
 71
     5
 42
7.621386071748987
 73
     0
 74
     0
 75
     0
  3
tfrom線あり
100
AcDbAlignedDimension
 13
93.93974152716157
 23
330.8682783387544
 33
0.0
 14
94.08087417195725
 24
338.4896644105034
 34
0.0
 50
90.0
100
AcDbRotatedDimension
1001
ACAD
1000
DSTYLE
1002
{
1070
   144
1040
1.0
1002
}
  0
DIMENSION
  5
5A8E
330
A
100
AcDbEntity
  8
寸法
100
AcDbDimension
  2
*D35
 10
140.5808741719572
 20
359.4460979413835
 30
0.0
 11
121.5808741719572
 21
363.9460979413835
 31
0.0
 70
    32
 71
     5
 42
37.99999999999999
 73
     0
 74
     0
 75
     0
  3
tfrom線あり
100
AcDbAlignedDimension
 13
102.5808741719572
 23
344.8899990393499
 33
0.0
 14
140.5808741719572
 24
344.8899990393499
 34
0.0
100
AcDbRotatedDimension
  0
DIMENSION
  5
5A8F
330
A
100
AcDbEntity
  8
寸法
100
AcDbDimension
  2
*D36
 10
106.8308741719572
 20
372.2406892391565
 30
0.0
 11
102.5808741719572
 21
372.2406892391565
 31
0.0
 70
   160
 71
     5
 42
8.499999999999957
 73
     0
 74
     0
 75
     0
  3
tfrom線あり
100
AcDbAlignedDimension
 13
98.33087417195725
 23
360.5241408813607
 33
0.0
 14
106.8308741719572
 24
360.5241408813607
 34
0.0
100
AcDbRotatedDimension
1001
ACAD
1000
DSTYLE
1002
{
1070
   271
1070
     1
1002
}
  0
DIMENSION
  5
5A90
330
A
100
AcDbEntity
  8
寸法
100
AcDbDimension
  2
*D37
 10
163.5423821155623
 20
338.4896644105034
 30
0.0
 11
163.5423821155623
 21
341.4896644105034
 31
0.0
 70
   160
 71
     5
 42
6.0
 73
     0
 74
     0
 75
     0
  3
tfrom線あり
100
AcDbAlignedDimension
 13
143.1193853176625
 23
344.4896644105034
 33
0.0
 14
148.8743018412766
 24
338.4896644105034
 34
0.0
 50
90.0
100
AcDbRotatedDimension
  0
DIMENSION
  5
5AB8
330
A
100
AcDbEntity
  8
寸法
100
AcDbDimension
  2
*D38
 10
107.5663199601154
 20
238.1176660775409
 30
0.0
 11
174.5663199601154
 21
242.6176660775409
 31
0.0
 70
    32
 71
     5
 42
134.0
 73
     0
 74
     0
 75
     0
  3
tfrom線あり
100
AcDbAlignedDimension
 13
241.5663199601154
 23
265.9713157294311
 33
0.0
 14
107.5663199601154
 24
315.6476911656129
 34
0.0
100
AcDbRotatedDimension
1001
ACAD
1000
DSTYLE
1002
{
1070
   144
1040
1.0
1002
}
  0
LINE
  5
5ACF
330
A
100
AcDbEntity
  8
モデル
100
AcDbLine
 10
190.1854985594198
 20
177.6826868364546
 30
0.0
 11
190.1854985594198
 21
163.5551377390075
 31
0.0
  0
LINE
  5
5AD4
330
A
100
AcDbEntity
  8
モデル
100
AcDbLine
 10
141.1424141000253
 20
181.6269241148306
 30
0.0
 11
187.2499508171962
 21
180.6819944076229
 31
0.0
  0
LINE
  5
5AD6
330
A
100
AcDbEntity
  8
モデル
100
AcDbLine
 10
141.1083067327864
 20
159.607836687104
 30
0.0
 11
187.2499508171962
 21
160.5558301678392
 31
0.0
  0
ARC
  5
5AEB
330
A
100
AcDbEntity
  8
モデル
100
AcDbCircle
 10
187.1854985594198
 20
177.6826868364546
 30
0.0
 40
3.000000000000001
100
AcDbArc
 50
0.0
 51
88.76895783619511
  0
ARC
  5
5AEC
330
A
100
AcDbEntity
  8
モデル
100
AcDbCircle
 10
187.1854985594198
 20
163.5551377390075
 30
0.0
 40
3.0
100
AcDbArc
 50
271.2310421638048
 51
0.0
  0
SPLINE
  5
5AFB
330
A
100
AcDbEntity
  8
モデル
100
AcDbSpline
210
0.0
220
0.0
230
1.0
 70
     8
 71
     3
 72
     8
 73
     4
 74
     0
 42
0.000000001
 43
0.0000000001
 40
31.0
 40
31.0
 40
31.0
 40
31.0
 40
32.0
 40
32.0
 40
32.0
 40
32.0
 10
141.1424141000253
 20
181.6269241148306
 30
0.0
 10
139.8599690948965
 20
181.7212342075517
 30
0.0
 10
138.779924745379
 20
182.6225630845612
 30
0.0
 10
138.457806255172
 20
183.8688343554957
 30
0.0
  0
SPLINE
  5
5AFC
330
A
100
AcDbEntity
  8
モデル
100
AcDbSpline
210
0.0
220
0.0
230
1.0
 70
     8
 71
     3
 72
    26
 73
    22
 74
     0
 42
0.000000001
 43
0.0000000001
 40
32.0
 40
32.0
 40
32.0
 40
32.0
 40
33.0
 40
33.0
 40
33.0
 40
34.0
 40
34.0
 40
34.0
 40
35.0
 40
35.0
 40
35.0
 40
36.0
 40
36.0
 40
36.0
 40
37.0
 40
37.0
 40
37.0
 40
38.0
 40
38.0
 40
38.0
 40
39.0
 40
39.0
 40
39.0
 40
39.0
 10
138.457806255172
 20
183.8688343554957
 30
0.0
 10
138.3441173762754
 20
184.3106706802982
 30
0.0
 10
137.9453450207519
 20
184.6194393400287
 30
0.0
 10
137.48972822578
 20
184.6194393400287
 30
0.0
 10
137.48972822578
 20
184.6194393400287
 30
0.0
 10
128.3618892974018
 20
184.6194393400287
 30
0.0
 10
128.3618892974018
 20
184.6194393400287
 30
0.0
 10
128.3618892974018
 20
184.6194393400287
 30
0.0
 10
128.3618892974018
 20
170.6193429274239
 30
0.0
 10
128.3618892974018
 20
170.6193429274239
 30
0.0
 10
128.3618892974018
 20
170.6193429274239
 30
0.0
 10
128.3618892974018
 20
156.619246514819
 30
0.0
 10
128.3618892974018
 20
156.619246514819
 30
0.0
 10
128.3618892974018
 20
156.619246514819
 30
0.0
 10
137.48972822578
 20
156.619246514819
 30
0.0
 10
137.48972822578
 20
156.619246514819
 30
0.0
 10
137.9453450207519
 20
156.619246514819
 30
0.0
 10
138.3441173762754
 20
156.9267232554712
 30
0.0
 10
138.457806255172
 20
157.3685595802738
 30
0.0
 10
138.457806255172
 20
157.3685595802738
 30
0.0
 10
138.4672803284135
 20
157.4068865129321
 30
0.0
 10
138.4672803284135
 20
157.4068865129321
 30
0.0
  0
SPLINE
  5
5AFD
330
A
100
AcDbEntity
  8
モデル
100
AcDbSpline
210
0.0
220
0.0
230
1.0
 70
     8
 71
     3
 72
    14
 73
    10
 74
     0
 42
0.000000001
 43
0.0000000001
 40
39.0
 40
39.0
 40
39.0
 40
39.0
 40
40.0
 40
40.0
 40
40.0
 40
41.0
 40
41.0
 40
41.0
 40
41.09665601095223
 40
41.09665601095223
 40
41.09665601095223
 40
41.09665601095223
 10
138.4672803284135
 20
157.4068865129321
 30
0.0
 10
138.8014567300186
 20
158.6342096373838
 30
0.0
 10
139.8728882856801
 20
159.5170210076034
 30
0.0
 10
141.1415528206397
 20
159.6104698209388
 30
0.0
 10
141.1415528206397
 20
159.6104698209388
 30
0.0
 10
140.7513932589719
 20
159.5816169615219
 30
0.0
 10
140.7513932589719
 20
159.5816169615219
 30
0.0
 10
140.7513932589719
 20
159.5816169615219
 30
0.0
 10
140.8785586142235
 20
159.5909588355695
 30
0.0
 10
141.1083067327864
 20
159.607836687104
 30
0.0
  0
SPLINE
  5
5B02
330
A
100
AcDbEntity
  8
モデル
100
AcDbSpline
210
0.0
220
0.0
230
1.0
 70
     8
 71
     3
 72
     8
 73
     4
 74
     0
 42
0.000000001
 43
0.0000000001
 40
31.0
 40
31.0
 40
31.0
 40
31.0
 40
32.0
 40
32.0
 40
32.0
 40
32.0
 10
141.1424141000253
 20
181.6269241148306
 30
0.0
 10
139.8599690948965
 20
181.7212342075517
 30
0.0
 10
138.779924745379
 20
182.6225630845612
 30
0.0
 10
138.457806255172
 20
183.8688343554957
 30
0.0
  0
SPLINE
  5
5B03
330
A
100
AcDbEntity
  8
モデル
100
AcDbSpline
210
0.0
220
0.0
230
1.0
 70
     8
 71
     3
 72
    26
 73
    22
 74
     0
 42
0.000000001
 43
0.0000000001
 40
32.0
 40
32.0
 40
32.0
 40
32.0
 40
33.0
 40
33.0
 40
33.0
 40
34.0
 40
34.0
 40
34.0
 40
35.0
 40
35.0
 40
35.0
 40
36.0
 40
36.0
 40
36.0
 40
37.0
 40
37.0
 40
37.0
 40
38.0
 40
38.0
 40
38.0
 40
39.0
 40
39.0
 40
39.0
 40
39.0
 10
138.457806255172
 20
183.8688343554957
 30
0.0
 10
138.3441173762754
 20
184.3106706802982
 30
0.0
 10
137.9453450207519
 20
184.6194393400287
 30
0.0
 10
137.48972822578
 20
184.6194393400287
 30
0.0
 10
137.48972822578
 20
184.6194393400287
 30
0.0
 10
128.3618892974018
 20
184.6194393400287
 30
0.0
 10
128.3618892974018
 20
184.6194393400287
 30
0.0
 10
128.3618892974018
 20
184.6194393400287
 30
0.0
 10
128.3618892974018
 20
170.6193429274239
 30
0.0
 10
128.3618892974018
 20
170.6193429274239
 30
0.0
 10
128.3618892974018
 20
170.6193429274239
 30
0.0
 10
128.3618892974018
 20
156.619246514819
 30
0.0
 10
128.3618892974018
 20
156.619246514819
 30
0.0
 10
128.3618892974018
 20
156.619246514819
 30
0.0
 10
137.48972822578
 20
156.619246514819
 30
0.0
 10
137.48972822578
 20
156.619246514819
 30
0.0
 10
137.9453450207519
 20
156.619246514819
 30
0.0
 10
138.3441173762754
 20
156.9267232554712
 30
0.0
 10
138.457806255172
 20
157.3685595802738
 30
0.0
 10
138.457806255172
 20
157.3685595802738
 30
0.0
 10
138.4672803284135
 20
157.4068865129321
 30
0.0
 10
138.4672803284135
 20
157.4068865129321
 30
0.0
  0
SPLINE
  5
5B04
330
A
100
AcDbEntity
  8
モデル
100
AcDbSpline
210
0.0
220
0.0
230
1.0
 70
     8
 71
     3
 72
    14
 73
    10
 74
     0
 42
0.000000001
 43
0.0000000001
 40
39.0
 40
39.0
 40
39.0
 40
39.0
 40
40.0
 40
40.0
 40
40.0
 40
41.0
 40
41.0
 40
41.0
 40
41.09665601095223
 40
41.09665601095223
 40
41.09665601095223
 40
41.09665601095223
 10
138.4672803284135
 20
157.4068865129321
 30
0.0
 10
138.8014567300186
 20
158.6342096373838
 30
0.0
 10
139.8728882856801
 20
159.5170210076034
 30
0.0
 10
141.1415528206397
 20
159.6104698209388
 30
0.0
 10
141.1415528206397
 20
159.6104698209388
 30
0.0
 10
140.7513932589719
 20
159.5816169615219
 30
0.0
 10
140.7513932589719
 20
159.5816169615219
 30
0.0
 10
140.7513932589719
 20
159.5816169615219
 30
0.0
 10
140.8785586142235
 20
159.5909588355695
 30
0.0
 10
141.1083067327864
 20
159.607836687104
 30
0.0
  0
SPLINE
  5
5B0A
330
A
100
AcDbEntity
  8
モデル
100
AcDbSpline
210
0.0
220
0.0
230
1.0
 70
  1064
 71
     3
 72
    13
 73
     9
 74
     7
 42
0.000000001
 43
0.0000000001
 44
0.0
 40
0.0
 40
0.0
 40
0.0
 40
0.0
 40
5.09956055844755
 40
7.496568509341724
 40
9.927709256757
 40
10.46822460375727
 40
24.9349837118114
 40
42.91486248042052
 40
42.91486248042052
 40
42.91486248042052
 40
42.91486248042052
 10
137.48972822578
 20
170.6189122877311
 30
0.0
 10
137.6127553167309
 20
168.8857371796068
 30
0.0
 10
137.79361031497
 20
166.3378968730109
 30
0.0
 10
139.5653631763472
 20
163.4812640772667
 30
0.0
 10
141.1627671114864
 20
162.3859649452989
 30
0.0
 10
146.9841857860091
 20
161.9808316549864
 30
0.0
 10
157.9697008613645
 20
162.3601659632737
 30
0.0
 10
168.7861342058459
 20
162.4674083411331
 30
0.0
 10
174.7799188618022
 20
162.5268352980985
 30
0.0
 11
137.48972822578
 21
170.6189122877311
 31
0.0
 11
138.3942146939496
 21
165.6002050719063
 31
0.0
 11
139.7009766779124
 21
163.5907224932509
 31
0.0
 11
141.7974767940384
 21
162.3598152681415
 31
0.0
 11
142.3352101054542
 21
162.3050455124671
 31
0.0
 11
156.8019189556662
 21
162.2669124078893
 31
0.0
 11
174.7799188618022
 21
162.5268352980985
 31
0.0
  0
SPLINE
  5
5B0C
330
A
100
AcDbEntity
  8
モデル
100
AcDbSpline
210
0.0
220
0.0
230
1.0
 70
  1064
 71
     3
 72
    13
 73
     9
 74
     7
 42
0.000000001
 43
0.0000000001
 44
0.0
 40
0.0
 40
0.0
 40
0.0
 40
0.0
 40
5.09956055844755
 40
7.496568509341724
 40
9.927709256756957
 40
10.46822460375723
 40
24.93498371181136
 40
42.91486248042047
 40
42.91486248042047
 40
42.91486248042047
 40
42.91486248042047
 10
137.48972822578
 20
170.6189122877311
 30
0.0
 10
137.6127553167309
 20
172.3520873958554
 30
0.0
 10
137.79361031497
 20
174.8999277024513
 30
0.0
 10
139.5653631763471
 20
177.7565604981955
 30
0.0
 10
141.1627671114864
 20
178.8518596301631
 30
0.0
 10
146.9841857860092
 20
179.2569929204761
 30
0.0
 10
157.9697008613644
 20
178.8776586121882
 30
0.0
 10
168.7861342058459
 20
178.770416234329
 30
0.0
 10
174.7799188618022
 20
178.7109892773636
 30
0.0
 11
137.48972822578
 21
170.6189122877311
 31
0.0
 11
138.3942146939496
 21
175.6376195035559
 31
0.0
 11
139.7009766779124
 21
177.6471020822113
 31
0.0
 11
141.7974767940384
 21
178.8780093073206
 31
0.0
 11
142.3352101054542
 21
178.932779062995
 31
0.0
 11
156.8019189556662
 21
178.9709121675728
 31
0.0
 11
174.7799188618022
 21
178.7109892773636
 31
0.0
  0
CIRCLE
  5
5B0D
330
A
100
AcDbEntity
  8
モデル
100
AcDbCircle
 10
132.805074541547
 20
170.6189122877311
 30
0.0
 40
2.590930647899942
  0
DIMENSION
  5
5B12
330
A
100
AcDbEntity
  8
寸法
100
AcDbDimension
  2
*D40
 10
128.6618892974019
 20
122.4413154532795
 30
0.0
 11
124.6618892974019
 21
126.9413154532795
 31
0.0
 70
    32
 71
     5
 42
8.0
 73
     0
 74
     0
 75
     0
  3
tfrom線あり
100
AcDbAlignedDimension
 13
120.6618892974019
 23
143.1189122877312
 33
0.0
 14
128.6618892974019
 24
143.1189122877312
 34
0.0
100
AcDbRotatedDimension
1001
ACAD
1000
DSTYLE
1002
{
1070
   144
1040
1.0
1002
}
  0
DIMENSION
  5
5B2C
330
A
100
AcDbEntity
  8
寸法
100
AcDbDimension
  2
*D42
 10
266.7933802818951
 20
290.6193095420285
 30
0.0
 11
266.7933802818951
 21
280.1193095420286
 31
0.0
 70
   160
 71
     5
 42
21.0
 73
     0
 74
     0
 75
     0
  3
tfrom線あり
100
AcDbAlignedDimension
 13
243.8126731643589
 23
269.6193095420285
 33
0.0
 14
243.8126731643589
 24
290.6193095420285
 34
0.0
 50
90.0
100
AcDbRotatedDimension
1001
ACAD
1000
DSTYLE
1002
{
1070
   144
1040
1.0
1002
}
  0
SPLINE
  5
5B68
102
{ACAD_REACTORS
330
5BAA
330
5BFE
102
}
330
A
100
AcDbEntity
  8
モデル
100
AcDbSpline
210
0.0
220
0.0
230
1.0
 70
     8
 71
     3
 72
    12
 73
     8
 74
     0
 42
0.000000001
 43
0.0000000001
 40
0.0
 40
0.0
 40
0.0
 40
0.0
 40
5.099560558447545
 40
7.496568509341735
 40
9.927709256756971
 40
10.46822460375721
 40
18.92526299173772
 40
18.92526299173772
 40
18.92526299173772
 40
18.92526299173772
 10
368.3537716436607
 20
311.0896644105034
 30
0.0
 10
368.3843519822956
 20
312.8228395186276
 30
0.0
 10
368.5652069805345
 20
315.3706798252236
 30
0.0
 10
370.3369598419125
 20
318.2273126209678
 30
0.0
 10
371.9343637770509
 20
319.3226117529355
 30
0.0
 10
375.7518098084853
 20
319.482327883363
 30
0.0
 10
378.7502243782386
 20
319.5457000894552
 30
0.0
 10
381.5233377487217
 20
319.6043105010389
 30
0.0
  0
ARC
  5
5B7B
102
{ACAD_REACTORS
330
5BAA
330
5BFE
102
}
330
A
100
AcDbEntity
  8
モデル
100
AcDbCircle
 10
379.4128289173997
 20
311.0896644105034
 30
0.0
 40
13.999671076922
100
AcDbArc
 50
38.43112982227473
 51
321.5688701777272
  0
SPLINE
  5
5B81
102
{ACAD_REACTORS
330
5BAA
330
5BFE
102
}
330
A
100
AcDbEntity
  8
モデル
100
AcDbSpline
210
0.0
220
0.0
230
1.0
 70
     8
 71
     3
 72
    29
 73
    25
 74
     0
 42
0.000000001
 43
0.0000000001
 40
18.0
 40
18.0
 40
18.0
 40
18.0
 40
19.0
 40
19.0
 40
19.0
 40
20.0
 40
20.0
 40
20.0
 40
21.0
 40
21.0
 40
21.0
 40
22.0
 40
22.0
 40
22.0
 40
23.0
 40
23.0
 40
23.0
 40
24.0
 40
24.0
 40
24.0
 40
25.0
 40
25.0
 40
25.0
 40
26.0
 40
26.0
 40
26.0
 40
26.0
 10
496.3560519723898
 20
300.1479790512864
 30
0.0
 10
498.0114309514746
 20
300.1161117140201
 30
0.0
 10
499.380865174547
 20
301.4338691739576
 30
0.0
 10
499.4127325118137
 20
303.0892481530424
 30
0.0
 10
499.4127325118137
 20
303.0892481530424
 30
0.0
 10
499.4127325118137
 20
303.147815151262
 30
0.0
 10
499.4127325118137
 20
303.147815151262
 30
0.0
 10
499.4127325118137
 20
303.147815151262
 30
0.0
 10
499.4127325118137
 20
304.647302561557
 30
0.0
 10
499.4127325118137
 20
304.647302561557
 30
0.0
 10
499.4127325118137
 20
304.647302561557
 30
0.0
 10
499.4127325118137
 20
317.53118089045
 30
0.0
 10
499.4127325118137
 20
317.53118089045
 30
0.0
 10
499.4127325118137
 20
317.53118089045
 30
0.0
 10
499.4127325118137
 20
319.0315295801304
 30
0.0
 10
499.4127325118137
 20
319.0315295801304
 30
0.0
 10
499.4127325118137
 20
320.6886311179865
 30
0.0
 10
498.0699979496939
 20
322.0313656801061
 30
0.0
 10
496.412896411838
 20
322.0313656801061
 30
0.0
 10
496.3939482653553
 20
322.0313656801061
 30
0.0
 10
496.3750001188724
 20
322.0313656801061
 30
0.0
 10
496.3560519723898
 20
322.0313656801061
 30
0.0
 10
496.3560519723898
 20
322.0313656801061
 30
0.0
 10
496.2236240838394
 20
322.0285283719761
 30
0.0
 10
496.2236240838394
 20
322.0285283719761
 30
0.0
  0
LINE
  5
5B87
102
{ACAD_REACTORS
330
5BAA
330
5BFE
102
}
330
A
100
AcDbEntity
  8
モデル
100
AcDbLine
 10
496.2236240838394
 20
322.0285283719761
 30
0.0
 11
381.5233377487217
 21
319.6043105010389
 31
0.0
  0
LINE
  5
5B88
102
{ACAD_REACTORS
330
5BAA
330
5BFE
102
}
330
A
100
AcDbEntity
  8
モデル
100
AcDbLine
 10
496.2236240838394
 20
300.1508004490308
 30
0.0
 11
380.5213227791563
 21
302.5961961450095
 31
0.0
  0
SPLINE
  5
5B97
102
{ACAD_REACTORS
330
5BAA
330
5BFE
102
}
330
A
100
AcDbEntity
  8
モデル
100
AcDbSpline
210
0.0
220
0.0
230
1.0
 70
     8
 71
     3
 72
    12
 73
     8
 74
     0
 42
0.000000001
 43
0.0000000001
 40
0.0
 40
0.0
 40
0.0
 40
0.0
 40
5.099560558447545
 40
7.496568509341735
 40
9.927709256756971
 40
10.46822460375721
 40
18.92526299173772
 40
18.92526299173772
 40
18.92526299173772
 40
18.92526299173772
 10
368.3537716436607
 20
311.0896644105034
 30
0.0
 10
368.3843519822956
 20
309.3564893023792
 30
0.0
 10
368.5652069805345
 20
306.8086489957832
 30
0.0
 10
370.3369598419125
 20
303.9520162000391
 30
0.0
 10
371.9343637770509
 20
302.8567170680714
 30
0.0
 10
375.7518098084853
 20
302.6970009376438
 30
0.0
 10
378.7502243782386
 20
302.6336287315516
 30
0.0
 10
381.5233377487217
 20
302.575018319968
 30
0.0
  0
ARC
  5
5BAB
102
{ACAD_REACTORS
330
5BFE
102
}
330
A
100
AcDbEntity
  8
モデル
  6
Continuous
100
AcDbCircle
 10
379.4128289173997
 20
311.0896644105034
 30
0.0
 40
27.5
100
AcDbArc
 50
19.14546826121207
 51
340.8545317387887
  0
DIMENSION
  5
5BAC
330
A
100
AcDbEntity
  8
寸法
100
AcDbDimension
  2
*D44
 10
524.6253350273377
 20
321.8937280372542
 30
0.0
 11
524.6253350273377
 21
311.3937280372543
 31
0.0
 70
   160
 71
     5
 42
21.0
 73
     0
 74
     0
 75
     0
  3
tfrom線あり
100
AcDbAlignedDimension
 13
501.6446279098014
 23
300.8937280372542
 33
0.0
 14
501.6446279098014
 24
321.8937280372542
 34
0.0
 50
90.0
100
AcDbRotatedDimension
1001
ACAD
1000
DSTYLE
1002
{
1070
   144
1040
1.0
1002
}
  0
DIMENSION
  5
5BB9
330
A
100
AcDbEntity
  8
寸法
100
AcDbDimension
  2
*D45
 10
336.7885856870258
 20
283.5896644105034
 30
0.0
 11
336.7885856870258
 21
311.0896644105034
 31
0.0
 70
   160
 71
     5
 42
55.0
 73
     0
 74
     0
 75
     0
  3
tfrom線あり
100
AcDbAlignedDimension
 13
368.3178597156399
 23
338.5896644105034
 33
0.0
 14
368.5884320630115
 24
283.5896644105034
 34
0.0
 50
90.0
100
AcDbRotatedDimension
1001
ACAD
1000
DSTYLE
1002
{
1070
     3
1000
φ<>
1002
}
  0
CIRCLE
  5
5BC7
102
{ACAD_REACTORS
330
5BD4
102
}
330
A
100
AcDbEntity
  8
CutoutOverlay
100
AcDbCircle
 10
398.4128289173997
 20
170.6189122877311
 30
0.0
 40
5.0
  0
CIRCLE
  5
5BC8
102
{ACAD_REACTORS
330
5BD4
102
}
330
A
100
AcDbEntity
  8
CutoutOverlay
100
AcDbCircle
 10
360.4128289173997
 20
170.6189122877311
 30
0.0
 40
5.0
  0
CIRCLE
  5
5BC9
102
{ACAD_REACTORS
330
5BD0
330
5BD3
330
5BD4
102
}
330
A
100
AcDbEntity
  8
CutoutOverlay
100
AcDbCircle
 10
379.4128289173997
 20
170.6189122877311
 30
0.0
 40
14.0
  0
DIMENSION
  5
5BCA
330
A
100
AcDbEntity
  8
寸法
100
AcDbDimension
  2
*D46
 10
360.4128289173997
 20
134.3133659811902
 30
0.0
 11
346.7553289173997
 21
134.3133659811902
 31
0.0
 70
   160
  1
 
 71
     5
 42
38.0
 73
     0
 74
     1
 75
     1
  3
tfrom線あり
100
AcDbAlignedDimension
 13
398.4128289173997
 23
167.1012735628825
 33
0.0
 14
360.4128289173997
 24
167.1012735628825
 34
0.0
100
AcDbRotatedDimension
1001
ACAD
1000
DSTYLE
1002
{
1070
   172
1070
     1
1002
}
  0
DIMENSION
  5
5BCB
330
A
100
AcDbEntity
  8
寸法
100
AcDbDimension
  2
*D47
 10
379.4128289173997
 20
203.5583989017974
 30
0.0
 11
369.9128289173997
 21
208.0583989017974
 31
0.0
 70
    32
 71
     5
 42
19.0
 73
     0
 74
     0
 75
     0
  3
tfrom線あり
100
AcDbAlignedDimension
 13
360.4128289173997
 23
175.7717753243155
 33
0.0
 14
379.4128289173997
 24
189.9472878445251
 34
0.0
100
AcDbRotatedDimension
  0
DIMENSION
  5
5BCC
330
A
100
AcDbEntity
  8
寸法
100
AcDbDimension
  2
*D48
 10
398.4128289173997
 20
203.5583989017974
 30
0.0
 11
388.9128289173997
 21
208.0583989017974
 31
0.0
 70
    32
 71
     5
 42
19.0
 73
     0
 74
     0
 75
     0
  3
tfrom線あり
100
AcDbAlignedDimension
 13
379.4128289173997
 23
189.9472878445251
 33
0.0
 14
398.4128289173997
 24
175.7717753243155
 34
0.0
100
AcDbRotatedDimension
  0
TEXT
  5
5BCD
330
A
100
AcDbEntity
  8
寸法
100
AcDbText
 10
318.7066553260903
 20
221.1790101529694
 30
0.0
 40
5.0
  1
<切欠図>
  7
ＭＳ ゴシック
100
AcDbText
  0
LEADER
  5
5BCE
102
{ACAD_REACTORS
330
5BD0
102
}
102
{ACAD_XDICTIONARY
360
5BCF
102
}
330
A
100
AcDbEntity
  8
寸法
100
AcDbLeader
  3
tfrom線あり
 76
     3
 10
379.4128289173997
 20
184.6189122877311
 30
0.0
 10
379.4128289173997
 20
190.4898406559201
 30
0.0
 10
418.4938114553876
 20
190.4898406559201
 30
0.0
  0
LEADER
  5
5BD1
102
{ACAD_REACTORS
330
5BD3
102
}
102
{ACAD_XDICTIONARY
360
5BD2
102
}
330
A
100
AcDbEntity
  8
寸法
100
AcDbLeader
  3
tfrom線あり
 76
     3
 10
379.4128289173997
 20
170.6189122877311
 30
0.0
 10
412.6937158189531
 20
146.3230148165137
 30
0.0
 10
480.6489943465605
 20
146.3230148165137
 30
0.0
  0
HATCH
  5
5BD4
330
A
100
AcDbEntity
  8
CutoutOverlay
100
AcDbHatch
 10
0.0
 20
0.0
 30
0.0
210
0.0
220
0.0
230
1.0
  2
ANSI31
 70
     0
 71
     1
 91
        3
 92
        1
 93
        1
 72
     2
 10
360.4128289173997
 20
170.6189122877311
 40
5.0
 50
0.0
 51
360.0
 73
     1
 97
        1
330
5BC8
 92
        1
 93
        1
 72
     2
 10
379.4128289173997
 20
170.6189122877311
 40
14.0
 50
0.0
 51
360.0
 73
     1
 97
        1
330
5BC9
 92
        1
 93
        1
 72
     2
 10
398.4128289173997
 20
170.6189122877311
 40
5.0
 50
0.0
 51
360.0
 73
     1
 97
        1
330
5BC7
 75
     0
 76
     1
 52
0.0
 41
1.0
 77
     0
 78
     1
 53
45.0
 43
-29.45929559415515
 44
-10.24393463230666
 45
-2.245064030267288
 46
2.245064030267288
 79
     0
 98
        1
 10
-29.45929559415515
 20
-10.24393463230666
1001
ACAD
1010
0.0
1020
0.0
1030
0.0
  0
TEXT
  5
5BD5
330
A
100
AcDbEntity
  8
寸法
100
AcDbText
 10
414.2746528885755
 20
148.9584677662091
 30
0.0
 40
5.0
  1
レバー角芯 センター
  7
ＭＳ ゴシック
100
AcDbText
  0
TEXT
  5
5BD6
330
A
100
AcDbEntity
  8
寸法
100
AcDbText
 10
408.6102595221358
 20
192.7987150833963
 30
0.0
 40
5.0
  1
ø28
  7
ＭＳ ゴシック
100
AcDbText
  0
TEXT
  5
5BD7
330
A
100
AcDbEntity
  8
寸法
100
AcDbText
 10
346.371320878504
 20
136.8083818416785
 30
0.0
 40
5.0
  1
ø10
  7
ＭＳ ゴシック
100
AcDbText
  0
SPLINE
  5
5BFF
102
{ACAD_REACTORS
330
5C06
330
5C07
102
}
330
A
100
AcDbEntity
  8
CutoutUnderlay
100
AcDbSpline
210
0.0
220
0.0
230
1.0
 70
     8
 71
     3
 72
    29
 73
    25
 74
     0
 42
0.000000001
 43
0.0000000001
 40
18.0
 40
18.0
 40
18.0
 40
18.0
 40
19.0
 40
19.0
 40
19.0
 40
20.0
 40
20.0
 40
20.0
 40
21.0
 40
21.0
 40
21.0
 40
22.0
 40
22.0
 40
22.0
 40
23.0
 40
23.0
 40
23.0
 40
24.0
 40
24.0
 40
24.0
 40
25.0
 40
25.0
 40
25.0
 40
26.0
 40
26.0
 40
26.0
 40
26.0
 10
496.3560519723898
 20
159.6772269285142
 30
0.0
 10
498.0114309514746
 20
159.6453595912478
 30
0.0
 10
499.380865174547
 20
160.9631170511853
 30
0.0
 10
499.4127325118137
 20
162.6184960302702
 30
0.0
 10
499.4127325118137
 20
162.6184960302702
 30
0.0
 10
499.4127325118137
 20
162.6770630284898
 30
0.0
 10
499.4127325118137
 20
162.6770630284898
 30
0.0
 10
499.4127325118137
 20
162.6770630284898
 30
0.0
 10
499.4127325118137
 20
164.1765504387847
 30
0.0
 10
499.4127325118137
 20
164.1765504387847
 30
0.0
 10
499.4127325118137
 20
164.1765504387847
 30
0.0
 10
499.4127325118137
 20
177.0604287676777
 30
0.0
 10
499.4127325118137
 20
177.0604287676777
 30
0.0
 10
499.4127325118137
 20
177.0604287676777
 30
0.0
 10
499.4127325118137
 20
178.5607774573582
 30
0.0
 10
499.4127325118137
 20
178.5607774573582
 30
0.0
 10
499.4127325118137
 20
180.2178789952142
 30
0.0
 10
498.0699979496939
 20
181.5606135573339
 30
0.0
 10
496.412896411838
 20
181.5606135573339
 30
0.0
 10
496.3939482653553
 20
181.5606135573339
 30
0.0
 10
496.3750001188724
 20
181.5606135573339
 30
0.0
 10
496.3560519723898
 20
181.5606135573339
 30
0.0
 10
496.3560519723898
 20
181.5606135573339
 30
0.0
 10
496.2236240838394
 20
181.5577762492038
 30
0.0
 10
496.2236240838394
 20
181.5577762492038
 30
0.0
  0
LINE
  5
5C00
102
{ACAD_REACTORS
330
5C06
330
5C07
102
}
330
A
100
AcDbEntity
  8
CutoutUnderlay
100
AcDbLine
 10
496.2236240838394
 20
159.6800483262586
 30
0.0
 11
380.5213227791563
 21
162.1254440222372
 31
0.0
  0
SPLINE
  5
5C01
102
{ACAD_REACTORS
330
5C06
330
5C07
102
}
330
A
100
AcDbEntity
  8
CutoutUnderlay
100
AcDbSpline
210
0.0
220
0.0
230
1.0
 70
     8
 71
     3
 72
    12
 73
     8
 74
     0
 42
0.000000001
 43
0.0000000001
 40
0.0
 40
0.0
 40
0.0
 40
0.0
 40
5.099560558447545
 40
7.496568509341735
 40
9.927709256756971
 40
10.46822460375721
 40
18.92526299173772
 40
18.92526299173772
 40
18.92526299173772
 40
18.92526299173772
 10
368.3537716436607
 20
170.6189122877311
 30
0.0
 10
368.3843519822956
 20
172.3520873958554
 30
0.0
 10
368.5652069805345
 20
174.8999277024513
 30
0.0
 10
370.3369598419125
 20
177.7565604981955
 30
0.0
 10
371.9343637770509
 20
178.8518596301632
 30
0.0
 10
375.7518098084853
 20
179.0115757605907
 30
0.0
 10
378.7502243782386
 20
179.074947966683
 30
0.0
 10
381.5233377487217
 20
179.1335583782666
 30
0.0
  0
LINE
  5
5C02
102
{ACAD_REACTORS
330
5C06
330
5C07
102
}
330
A
100
AcDbEntity
  8
CutoutUnderlay
100
AcDbLine
 10
496.2236240838394
 20
181.5577762492038
 30
0.0
 11
381.5233377487217
 21
179.1335583782666
 31
0.0
  0
SPLINE
  5
5C03
102
{ACAD_REACTORS
330
5C06
330
5C07
102
}
330
A
100
AcDbEntity
  8
CutoutUnderlay
100
AcDbSpline
210
0.0
220
0.0
230
1.0
 70
     8
 71
     3
 72
    12
 73
     8
 74
     0
 42
0.000000001
 43
0.0000000001
 40
0.0
 40
0.0
 40
0.0
 40
0.0
 40
5.099560558447545
 40
7.496568509341735
 40
9.927709256756971
 40
10.46822460375721
 40
18.92526299173772
 40
18.92526299173772
 40
18.92526299173772
 40
18.92526299173772
 10
368.3537716436607
 20
170.6189122877311
 30
0.0
 10
368.3843519822956
 20
168.8857371796069
 30
0.0
 10
368.5652069805345
 20
166.337896873011
 30
0.0
 10
370.3369598419125
 20
163.4812640772668
 30
0.0
 10
371.9343637770509
 20
162.3859649452991
 30
0.0
 10
375.7518098084853
 20
162.2262488148716
 30
0.0
 10
378.7502243782386
 20
162.1628766087793
 30
0.0
 10
381.5233377487217
 20
162.1042661971957
 30
0.0
  0
ARC
  5
5C04
102
{ACAD_REACTORS
330
5C06
330
5C07
102
}
330
A
100
AcDbEntity
  8
CutoutUnderlay
100
AcDbCircle
 10
379.4128289173997
 20
170.6189122877311
 30
0.0
 40
13.999671076922
100
AcDbArc
 50
38.43112982227482
 51
321.5688701777273
  0
ARC
  5
5C05
102
{ACAD_REACTORS
330
5C06
102
}
330
A
100
AcDbEntity
  8
CutoutUnderlay
  6
Continuous
100
AcDbCircle
 10
379.4128289173997
 20
170.6189122877311
 30
0.0
 40
27.5
100
AcDbArc
 50
19.14546826121207
 51
340.8545317387887
  0
DIMENSION
  5
5CD6
102
{ACAD_XDICTIONARY
360
5CD7
102
}
330
A
100
AcDbEntity
  8
MODEL
  6
Continuous
100
AcDbDimension
  2
*D50
 10
61.92179999999996
 20
338.4896644105034
 30
0.0
 11
57.42179999999996
 21
303.6789713746289
 31
0.0
 70
    32
  1
70
 71
     5
 42
69.62138607174899
 73
     0
 74
     0
 75
     0
  3
tfrom線あり
100
AcDbAlignedDimension
 13
86.51699999999997
 23
268.8682783387544
 33
0.0
 14
89.08087417195725
 24
338.4896644105034
 34
0.0
 50
90.0
100
AcDbRotatedDimension
1001
ACAD
1000
DSTYLE
1002
{
1070
   144
1040
1.0
1002
}
  0
VIEWPORT
  5
349
330
B
100
AcDbEntity
 67
     1
  8
0
100
AcDbViewport
 10
202.5
 20
128.5
 30
0.0
 40
486.0
 41
308.4
 68
     1
 69
     1
 12
202.5
 22
128.5
 13
0.0
 23
0.0
 14
0.5
 24
0.5
 15
0.0
 25
0.0
 16
0.0
 26
0.0
 36
1.0
 17
0.0
 27
0.0
 37
0.0
 42
50.0
 43
0.0
 44
0.0
 45
308.4
 50
0.0
 51
0.0
 72
   100
 90
   557152
  1

281
     0
 71
     1
 74
     0
110
0.0
120
0.0
130
0.0
111
1.0
121
0.0
131
0.0
112
0.0
122
1.0
132
0.0
 79
     0
146
0.0
170
     0
 61
     5
348
26C
292
     1
282
     1
141
0.0
142
0.0
 63
   256
361
44F1
  0
VIEWPORT
  5
34A
330
B
100
AcDbEntity
 67
     1
  8
0
100
AcDbViewport
 10
202.5
 20
128.5
 30
0.0
 40
324.0
 41
205.6
 68
     2
 69
     2
 12
986.6781359294573
 22
1427.077061889956
 13
0.0
 23
0.0
 14
0.5
 24
0.5
 15
0.0
 25
0.0
 16
0.0
 26
0.0
 36
1.0
 17
0.0
 27
0.0
 37
0.0
 42
50.0
 43
0.0
 44
0.0
 45
2890.021615685494
 50
0.0
 51
0.0
 72
   100
 90
   557152
  1

281
     0
 71
     1
 74
     0
110
0.0
120
0.0
130
0.0
111
1.0
121
0.0
131
0.0
112
0.0
122
1.0
132
0.0
 79
     0
146
0.0
170
     0
 61
     5
348
26C
292
     1
282
     1
141
0.0
142
0.0
 63
   256
  0
ENDSEC
  0
SECTION
  2
OBJECTS
  0
DICTIONARY
  5
19
330
0
100
AcDbDictionary
281
     1
  3
ACAD_COLOR
350
674
  3
ACAD_DETAILVIEWSTYLE
350
13B5
  3
ACAD_FIELDLIST
350
5814
  3
ACAD_GROUP
350
1A
  3
ACAD_IMAGE_VARS
350
27B
  3
ACAD_LAYOUT
350
1E
  3
ACAD_MATERIAL
350
263
  3
ACAD_MLEADERSTYLE
350
336
  3
ACAD_MLINESTYLE
350
1B
  3
ACAD_PLOTSETTINGS
350
22
  3
ACAD_PLOTSTYLENAME
350
1F
  3
ACAD_SCALELIST
350
241
  3
ACAD_SECTIONVIEWSTYLE
350
13B6
  3
ACAD_TABLESTYLE
350
278
  3
ACAD_VISUALSTYLE
350
267
  3
ACDB_RECOMPOSE_DATA
350
5CED
  3
AcDbVariableDictionary
350
330
  3
APPDATA
350
27A
  0
SUN
  5
F1A
330
15
100
AcDbSun
 90
        1
290
     0
 63
     7
421
 16777215
 40
1.0
291
     1
 91
  2455826
 92
 54000000
292
     0
 70
     2
 71
   256
280
     1
  0
DICTIONARY
  5
2E1
330
2
100
AcDbDictionary
280
     1
281
     1
  3
ACAD_LAYERSTATES
360
2E2
  3
ACLYDICTIONARY
360
519E
  0
DICTIONARY
  5
582D
330
A
100
AcDbDictionary
280
     1
281
     1
  3
ACAD_SORTENTS
360
582E
  0
DICTIONARY
  5
5828
330
5827
100
AcDbDictionary
280
     1
281
     1
  3
ACAD_FIELD
360
58F9
  0
DICTIONARY
  5
5A80
330
5A7F
100
AcDbDictionary
280
     1
281
     1
  3
ACAD_DIMASSOC
360
5A81
  0
DICTIONARY
  5
5BCF
330
5BCE
100
AcDbDictionary
280
     1
281
     1
  3
ACAD_DIMASSOC
360
5BD0
  0
DICTIONARY
  5
5BD2
330
5BD1
100
AcDbDictionary
280
     1
281
     1
  3
ACAD_DIMASSOC
360
5BD3
  0
DICTIONARY
  5
5CD7
330
5CD6
100
AcDbDictionary
280
     1
281
     1
  0
SUN
  5
44F1
330
349
100
AcDbSun
 90
        1
290
     0
 63
     7
421
 16777215
 40
1.0
291
     1
 91
  2455826
 92
 54000000
292
     0
 70
     2
 71
   256
280
     1
  0
DICTIONARY
  5
674
102
{ACAD_REACTORS
330
19
102
}
330
19
100
AcDbDictionary
281
     1
  0
DICTIONARY
  5
13B5
102
{ACAD_REACTORS
330
19
102
}
330
19
100
AcDbDictionary
281
     1
  0
FIELDLIST
  5
5814
102
{ACAD_REACTORS
330
19
102
}
330
19
100
AcDbIdSet
 90
        2
330
582B
330
582A
100
AcDbFieldList
  0
DICTIONARY
  5
1A
102
{ACAD_REACTORS
330
19
102
}
330
19
100
AcDbDictionary
281
     1
  3
*A2
350
5AC5
  3
*A3
350
5BAA
  3
*A4
350
5BFE
  3
*A5
350
5C06
  3
*A6
350
5C07
  0
RASTERVARIABLES
  5
27B
102
{ACAD_REACTORS
330
19
102
}
330
19
100
AcDbRasterVariables
 90
        0
 70
     1
 71
     1
 72
     1
  0
DICTIONARY
  5
1E
102
{ACAD_REACTORS
330
19
102
}
330
19
100
AcDbDictionary
281
     1
  3
Layout1
350
21
  3
Model
350
20
  0
DICTIONARY
  5
263
102
{ACAD_REACTORS
330
19
102
}
330
19
100
AcDbDictionary
281
     1
  3
ByBlock
350
51B9
  3
ByLayer
350
264
  3
Global
350
266
  0
DICTIONARY
  5
336
102
{ACAD_REACTORS
330
19
102
}
330
19
100
AcDbDictionary
281
     1
  3
Standard
350
5731
  0
DICTIONARY
  5
1B
102
{ACAD_REACTORS
330
19
102
}
330
19
100
AcDbDictionary
281
     1
  3
Standard
350
1C
  0
DICTIONARY
  5
22
102
{ACAD_REACTORS
330
19
102
}
330
19
100
AcDbDictionary
281
     1
  0
ACDBDICTIONARYWDFLT
  5
1F
102
{ACAD_REACTORS
330
19
102
}
330
19
100
AcDbDictionary
281
     1
  3
Normal
350
1D
100
AcDbDictionaryWithDefault
340
1D
  0
DICTIONARY
  5
241
102
{ACAD_REACTORS
330
19
102
}
330
19
100
AcDbDictionary
281
     1
  3
A0
350
242
  3
A1
350
243
  3
A2
350
244
  3
A3
350
245
  3
A4
350
246
  3
A5
350
247
  3
A6
350
248
  3
A7
350
249
  3
A8
350
24A
  3
A9
350
24B
  3
B0
350
24C
  3
B1
350
24D
  3
B2
350
24E
  3
B3
350
24F
  3
B4
350
250
  3
B5
350
251
  3
B6
350
252
  3
B7
350
253
  3
B8
350
254
  3
B9
350
255
  3
C0
350
256
  3
C1
350
257
  3
C2
350
258
  3
C3
350
259
  3
C4
350
25A
  3
C5
350
25B
  3
C6
350
25C
  3
C7
350
25D
  3
C8
350
25E
  3
C9
350
25F
  3
D0
350
260
  3
D1
350
261
  3
D2
350
262
  0
DICTIONARY
  5
13B6
102
{ACAD_REACTORS
330
19
102
}
330
19
100
AcDbDictionary
281
     1
  0
DICTIONARY
  5
278
102
{ACAD_REACTORS
330
19
102
}
330
19
100
AcDbDictionary
281
     1
  3
Standard
350
279
  0
DICTIONARY
  5
267
102
{ACAD_REACTORS
330
19
102
}
330
19
100
AcDbDictionary
281
     1
  3
2dWireframe
350
26C
  3
3D Hidden
350
26E
  3
3dWireframe
350
26D
  3
Basic
350
26F
  3
Brighten
350
273
  3
ColorChange
350
277
  3
Conceptual
350
271
  3
Dim
350
272
  3
EdgeColorOff
350
F14
  3
Facepattern
350
276
  3
Flat
350
268
  3
FlatWithEdges
350
269
  3
Gouraud
350
26A
  3
GouraudWithEdges
350
26B
  3
Hidden
350
F11
  3
JitterOff
350
F12
  3
Linepattern
350
275
  3
OverhangOff
350
F13
  3
Realistic
350
270
  3
Shaded
350
F19
  3
Shaded with edges
350
F18
  3
Shades of Gray
350
F15
  3
Sketchy
350
F16
  3
Thicken
350
274
  3
Wireframe
350
F10
  3
X-Ray
350
F17
  0
XRECORD
  5
5CED
102
{ACAD_REACTORS
330
19
102
}
330
19
100
AcDbXrecord
280
     1
 90
        1
330
279
  0
DICTIONARY
  5
330
102
{ACAD_REACTORS
330
19
102
}
330
19
100
AcDbDictionary
281
     1
  3
CANNOSCALE
350
331
  3
CMLEADERSTYLE
350
57B6
  3
CTABLESTYLE
350
335
  3
HPTRANSPARENCY
350
523C
  3
XCLIPFRAME
350
13B4
  0
DICTIONARY
  5
27A
102
{ACAD_REACTORS
330
19
102
}
330
19
100
AcDbDictionary
281
     1
  0
DICTIONARY
  5
2E2
102
{ACAD_REACTORS
330
2E1
102
}
330
2E1
100
AcDbDictionary
281
     1
  0
DICTIONARY
  5
519E
102
{ACAD_REACTORS
330
2E1
102
}
330
2E1
100
AcDbDictionary
281
     1
1001
ACAD
1000
<All
  0
SORTENTSTABLE
  5
582E
102
{ACAD_REACTORS
330
582D
102
}
330
582D
100
AcDbSortentsTable
330
A
331
0
  5
4967
331
544F
  5
546D
331
5450
  5
546E
331
5451
  5
546F
331
5452
  5
5470
331
5453
  5
5471
331
5454
  5
5472
331
5455
  5
5473
331
5456
  5
5474
331
5457
  5
5475
331
5458
  5
54D7
331
5459
  5
54D8
331
545A
  5
54D9
331
545B
  5
54DA
331
545C
  5
54DC
331
545D
  5
54F1
331
545E
  5
54F2
331
545F
  5
54F3
331
5460
  5
54F4
331
5461
  5
54F5
331
5462
  5
54F6
331
5464
  5
5575
331
5465
  5
5576
331
5466
  5
5577
331
5467
  5
5579
331
5468
  5
557A
331
5469
  5
557D
331
546A
  5
5580
331
546B
  5
5581
331
546C
  5
5582
331
546D
  5
5583
331
546E
  5
5586
331
546F
  5
55A5
331
5728
  5
5794
331
5729
  5
5795
331
5825
  5
58D4
331
5827
  5
58D5
331
586E
  5
58D6
331
586F
  5
58D7
331
5870
  5
58D8
331
5871
  5
58D9
331
5872
  5
58DA
331
58D5
  5
58DC
331
58E3
  5
59C8
331
59C6
  5
59CD
331
59C7
  5
59CE
331
59C8
  5
59CF
331
59C9
  5
59D0
331
59CA
  5
59D1
331
59CB
  5
59D2
331
59E0
  5
59E7
331
59E1
  5
59E8
331
59E2
  5
59E9
331
59E4
  5
59EB
331
59E6
  5
59ED
331
59E7
  5
59EE
331
59E9
  5
59F0
331
59EA
  5
59F1
331
59EB
  5
59F2
331
59EC
  5
59F3
331
59FB
  5
5A02
331
59FC
  5
5A03
331
59FD
  5
5A04
331
59FF
  5
5A06
331
5A01
  5
5A08
331
5A02
  5
5A09
331
5A03
  5
5A0A
331
5A04
  5
5A0B
331
5A11
  5
5A18
331
5A12
  5
5A19
331
5A13
  5
5A1A
331
5A14
  5
5A1B
331
5A15
  5
5A1C
331
5A16
  5
5A1D
331
5A17
  5
5A1E
331
5A18
  5
5A1F
331
5A19
  5
5A20
331
5A1A
  5
5A21
331
5A1B
  5
5A22
331
5A1C
  5
5A23
331
5A1D
  5
5A24
331
5A1E
  5
5A25
331
5A1F
  5
5A26
331
5A20
  5
5A27
331
5A21
  5
5A28
331
5A22
  5
5A29
331
5A23
  5
5A2A
331
5A24
  5
5A2B
331
5A25
  5
5A2C
331
5A26
  5
5A2D
331
5A27
  5
5A2E
331
5A28
  5
5A2F
331
5A31
  5
5A38
331
5A48
  5
5A4F
331
5A49
  5
5A50
331
5A72
  5
5AC7
331
5A7F
  5
5AC8
331
5A8E
  5
5AC9
331
5A8F
  5
5ACA
331
5A90
  5
5ACB
331
5AB8
  5
5ACD
331
5ACF
  5
5AE9
331
5AD4
  5
5AEC
331
5AD6
  5
5AF4
331
5AEB
  5
5AF9
331
5AEC
  5
5AFA
331
5AFB
  5
5B02
331
5AFC
  5
5B03
331
5AFD
  5
5B04
331
5B02
  5
5B0A
331
5B03
  5
5B0B
331
5B04
  5
5B0C
331
5B0A
  5
5B2C
331
5B0C
  5
5B43
331
5B0D
  5
5B44
331
5B12
  5
5B46
331
5B2C
  5
5B48
331
5B68
  5
5B7D
331
5B7B
  5
5B82
331
5B81
  5
5B88
331
5B87
  5
5B8E
331
5B88
  5
5B8F
331
5B97
  5
5B9E
331
5BAB
  5
5BCA
331
5BAC
  5
5BCB
331
5BB9
  5
5BCC
331
5BC7
  5
5BCE
331
5BC8
  5
5BD1
331
5BC9
  5
5BD4
331
5BCA
  5
5BD5
331
5BCB
  5
5BD6
331
5BCC
  5
5BD7
331
5BCD
  5
5BFF
331
5BCE
  5
5C00
331
5BD1
  5
5C01
331
5BD4
  5
5C02
331
5BD5
  5
5C03
331
5BD6
  5
5C04
331
5BD7
  5
5C05
331
5BFF
  5
1301
331
5C00
  5
1306
331
5C01
  5
1307
331
5C02
  5
1308
331
5C03
  5
1312
331
5C04
  5
1313
331
5C05
  5
131E
  0
DICTIONARY
  5
58F9
102
{ACAD_REACTORS
330
5828
102
}
330
5828
100
AcDbDictionary
280
     1
281
     1
  3
TEXT
360
582A
  0
DIMASSOC
  5
5A81
102
{ACAD_REACTORS
330
5A80
102
}
330
5A80
100
AcDbDimAssoc
330
5A7F
 90
        2
 70
     0
 71
     1
  1
AcDbOsnapPointRef
 72
     1
331
5A24
 73
     0
 91
        0
 40
0.0
 10
0.0
 20
0.0
 30
0.0
 75
     0
  0
DIMASSOC
  5
5BD0
102
{ACAD_REACTORS
330
5BCF
102
}
330
5BCF
100
AcDbDimAssoc
330
5BCE
 90
        1
 70
     0
 71
     1
  1
AcDbOsnapPointRef
 72
     5
331
5BC9
 73
     0
 91
        0
 40
1.570796326794897
 10
0.0
 20
0.0
 30
0.0
 75
     0
  0
DIMASSOC
  5
5BD3
102
{ACAD_REACTORS
330
5BD2
102
}
330
5BD2
100
AcDbDimAssoc
330
5BD1
 90
        1
 70
     0
 71
     1
  1
AcDbOsnapPointRef
 72
     3
331
5BC9
 73
     0
 91
        0
 40
0.0
 10
0.0
 20
0.0
 30
0.0
 75
     0
  0
GROUP
  5
5AC5
102
{ACAD_REACTORS
330
1A
102
}
330
1A
100
AcDbGroup
300

 70
     1
 71
     1
340
59C8
340
59C9
340
59CA
340
59CB
340
59C7
  0
GROUP
  5
5BAA
102
{ACAD_REACTORS
330
1A
102
}
330
1A
100
AcDbGroup
300

 70
     1
 71
     1
340
5B81
340
5B88
340
5B68
340
5B87
340
5B97
340
5B7B
  0
GROUP
  5
5BFE
102
{ACAD_REACTORS
330
1A
102
}
330
1A
100
AcDbGroup
300

 70
     1
 71
     1
340
5BAB
340
5B81
340
5B88
340
5B68
340
5B87
340
5B97
340
5B7B
  0
GROUP
  5
5C06
102
{ACAD_REACTORS
330
1A
102
}
330
1A
100
AcDbGroup
300

 70
     1
 71
     1
340
5BFF
340
5C00
340
5C01
340
5C02
340
5C03
340
5C04
340
5C05
  0
GROUP
  5
5C07
102
{ACAD_REACTORS
330
1A
102
}
330
1A
100
AcDbGroup
300

 70
     1
 71
     1
340
5BFF
340
5C00
340
5C01
340
5C02
340
5C03
340
5C04
  0
LAYOUT
  5
21
102
{ACAD_REACTORS
330
1E
102
}
330
1E
100
AcDbPlotSettings
  1

  2
none_device
  4
ISO_A3_(420.00_x_297.00_MM)
  6

 40
7.5
 41
20.0
 42
7.5
 43
20.0
 44
420.0
 45
297.0
 46
0.0
 47
0.0
 48
0.0
 49
0.0
140
0.0
141
0.0
142
1.0
143
1.0
 70
     0
 72
     1
 73
     0
 74
     0
  7

 75
     0
 76
     0
 77
     2
 78
   300
147
1.0
148
0.0
149
0.0
100
AcDbLayout
  1
Layout1
 70
     1
 71
     0
 10
-7.5
 20
-20.0
 11
412.5
 21
277.0
 12
0.0
 22
0.0
 32
0.0
 14
0.0
 24
0.0
 34
0.0
 15
0.0
 25
0.0
 35
0.0
146
0.0
 13
0.0
 23
0.0
 33
0.0
 16
0.0
 26
0.0
 36
0.0
 17
0.0
 27
0.0
 37
0.0
 76
     0
330
B
331
349
  0
LAYOUT
  5
20
102
{ACAD_REACTORS
330
1E
102
}
330
1E
100
AcDbPlotSettings
  1

  2
none_device
  4
ISO_A3_(420.00_x_297.00_MM)
  6

 40
7.5
 41
20.0
 42
7.5
 43
20.0
 44
420.0
 45
297.0
 46
0.0
 47
0.0
 48
0.0
 49
0.0
140
0.0
141
0.0
142
1.0
143
1.0
 70
  1024
 72
     1
 73
     0
 74
     0
  7

 75
     0
 76
     0
 77
     2
 78
   300
147
1.0
148
0.0
149
0.0
100
AcDbLayout
  1
Model
 70
     0
 71
     1
 10
0.0
 20
0.0
 11
594.0
 21
419.9999999999996
 12
0.0
 22
0.0
 32
0.0
 14
0.0
 24
0.0
 34
0.0
 15
593.9999999999999
 25
420.0
 35
0.0
146
0.0
 13
0.0
 23
0.0
 33
0.0
 16
0.0
 26
0.0
 36
0.0
 17
0.0
 27
0.0
 37
0.0
 76
     0
330
A
331
15
  0
MATERIAL
  5
51B9
102
{ACAD_REACTORS
330
263
102
}
330
263
100
AcDbMaterial
  1
ByBlock
 72
     1
 94
      127
  0
MATERIAL
  5
264
102
{ACAD_REACTORS
330
263
102
}
330
263
100
AcDbMaterial
  1
ByLayer
 72
     1
 94
      127
  0
MATERIAL
  5
266
102
{ACAD_REACTORS
330
263
102
}
330
263
100
AcDbMaterial
  1
Global
 72
     1
 94
      127
  0
MLEADERSTYLE
  5
5731
102
{ACAD_REACTORS
330
336
102
}
330
336
100
AcDbMLeaderStyle
170
     2
171
     1
172
     0
 90
        2
 40
0.0
 41
0.0
173
     1
 91
-1056964608
340
11
 92
       -2
290
     1
 42
2.0
291
     1
 43
8.0
  3
Standard
341
0
 44
4.0
300

342
17
174
     1
178
     6
175
     1
176
     0
 93
-1056964608
 45
4.0
292
     0
297
     0
 46
4.0
343
0
 94
-1056964608
 47
1.0
 49
1.0
140
1.0
293
     1
141
0.0
294
     1
177
     0
142
1.0
295
     0
296
     0
143
3.75
1001
ACAD_MLEADERVER
1070
     2
  0
MLINESTYLE
  5
1C
102
{ACAD_REACTORS
330
1B
102
}
330
1B
100
AcDbMlineStyle
  2
Standard
 70
     0
  3

 62
     0
 51
90.0
 52
90.0
 71
     2
 49
0.5
 62
   256
  6
BYLAYER
 49
-0.5
 62
   256
  6
BYLAYER
  0
ACDBPLACEHOLDER
  5
1D
102
{ACAD_REACTORS
330
1F
102
}
330
1F
  0
SCALE
  5
242
102
{ACAD_REACTORS
330
241
102
}
330
241
100
AcDbScale
 70
     0
300
1:1
140
1.0
141
1.0
290
     1
  0
SCALE
  5
243
102
{ACAD_REACTORS
330
241
102
}
330
241
100
AcDbScale
 70
     0
300
1:2
140
1.0
141
2.0
290
     0
  0
SCALE
  5
244
102
{ACAD_REACTORS
330
241
102
}
330
241
100
AcDbScale
 70
     0
300
1:4
140
1.0
141
4.0
290
     0
  0
SCALE
  5
245
102
{ACAD_REACTORS
330
241
102
}
330
241
100
AcDbScale
 70
     0
300
1:5
140
1.0
141
5.0
290
     0
  0
SCALE
  5
246
102
{ACAD_REACTORS
330
241
102
}
330
241
100
AcDbScale
 70
     0
300
1:8
140
1.0
141
8.0
290
     0
  0
SCALE
  5
247
102
{ACAD_REACTORS
330
241
102
}
330
241
100
AcDbScale
 70
     0
300
1:10
140
1.0
141
10.0
290
     0
  0
SCALE
  5
248
102
{ACAD_REACTORS
330
241
102
}
330
241
100
AcDbScale
 70
     0
300
1:16
140
1.0
141
16.0
290
     0
  0
SCALE
  5
249
102
{ACAD_REACTORS
330
241
102
}
330
241
100
AcDbScale
 70
     0
300
1:20
140
1.0
141
20.0
290
     0
  0
SCALE
  5
24A
102
{ACAD_REACTORS
330
241
102
}
330
241
100
AcDbScale
 70
     0
300
1:30
140
1.0
141
30.0
290
     0
  0
SCALE
  5
24B
102
{ACAD_REACTORS
330
241
102
}
330
241
100
AcDbScale
 70
     0
300
1:40
140
1.0
141
40.0
290
     0
  0
SCALE
  5
24C
102
{ACAD_REACTORS
330
241
102
}
330
241
100
AcDbScale
 70
     0
300
1:50
140
1.0
141
50.0
290
     0
  0
SCALE
  5
24D
102
{ACAD_REACTORS
330
241
102
}
330
241
100
AcDbScale
 70
     0
300
1:100
140
1.0
141
100.0
290
     0
  0
SCALE
  5
24E
102
{ACAD_REACTORS
330
241
102
}
330
241
100
AcDbScale
 70
     0
300
2:1
140
2.0
141
1.0
290
     0
  0
SCALE
  5
24F
102
{ACAD_REACTORS
330
241
102
}
330
241
100
AcDbScale
 70
     0
300
4:1
140
4.0
141
1.0
290
     0
  0
SCALE
  5
250
102
{ACAD_REACTORS
330
241
102
}
330
241
100
AcDbScale
 70
     0
300
8:1
140
8.0
141
1.0
290
     0
  0
SCALE
  5
251
102
{ACAD_REACTORS
330
241
102
}
330
241
100
AcDbScale
 70
     0
300
10:1
140
10.0
141
1.0
290
     0
  0
SCALE
  5
252
102
{ACAD_REACTORS
330
241
102
}
330
241
100
AcDbScale
 70
     0
300
100:1
140
100.0
141
1.0
290
     0
  0
SCALE
  5
253
102
{ACAD_REACTORS
330
241
102
}
330
241
100
AcDbScale
 70
     0
300
1/128" = 1'-0"
140
0.0078125
141
12.0
290
     0
  0
SCALE
  5
254
102
{ACAD_REACTORS
330
241
102
}
330
241
100
AcDbScale
 70
     0
300
1/64" = 1'-0"
140
0.015625
141
12.0
290
     0
  0
SCALE
  5
255
102
{ACAD_REACTORS
330
241
102
}
330
241
100
AcDbScale
 70
     0
300
1/32" = 1'-0"
140
0.03125
141
12.0
290
     0
  0
SCALE
  5
256
102
{ACAD_REACTORS
330
241
102
}
330
241
100
AcDbScale
 70
     0
300
1/16" = 1'-0"
140
0.0625
141
12.0
290
     0
  0
SCALE
  5
257
102
{ACAD_REACTORS
330
241
102
}
330
241
100
AcDbScale
 70
     0
300
3/32" = 1'-0"
140
0.09375
141
12.0
290
     0
  0
SCALE
  5
258
102
{ACAD_REACTORS
330
241
102
}
330
241
100
AcDbScale
 70
     0
300
1/8" = 1'-0"
140
0.125
141
12.0
290
     0
  0
SCALE
  5
259
102
{ACAD_REACTORS
330
241
102
}
330
241
100
AcDbScale
 70
     0
300
3/16" = 1'-0"
140
0.1875
141
12.0
290
     0
  0
SCALE
  5
25A
102
{ACAD_REACTORS
330
241
102
}
330
241
100
AcDbScale
 70
     0
300
1/4" = 1'-0"
140
0.25
141
12.0
290
     0
  0
SCALE
  5
25B
102
{ACAD_REACTORS
330
241
102
}
330
241
100
AcDbScale
 70
     0
300
3/8" = 1'-0"
140
0.375
141
12.0
290
     0
  0
SCALE
  5
25C
102
{ACAD_REACTORS
330
241
102
}
330
241
100
AcDbScale
 70
     0
300
1/2" = 1'-0"
140
0.5
141
12.0
290
     0
  0
SCALE
  5
25D
102
{ACAD_REACTORS
330
241
102
}
330
241
100
AcDbScale
 70
     0
300
3/4" = 1'-0"
140
0.75
141
12.0
290
     0
  0
SCALE
  5
25E
102
{ACAD_REACTORS
330
241
102
}
330
241
100
AcDbScale
 70
     0
300
1" = 1'-0"
140
1.0
141
12.0
290
     0
  0
SCALE
  5
25F
102
{ACAD_REACTORS
330
241
102
}
330
241
100
AcDbScale
 70
     0
300
1-1/2" = 1'-0"
140
1.5
141
12.0
290
     0
  0
SCALE
  5
260
102
{ACAD_REACTORS
330
241
102
}
330
241
100
AcDbScale
 70
     0
300
3" = 1'-0"
140
3.0
141
12.0
290
     0
  0
SCALE
  5
261
102
{ACAD_REACTORS
330
241
102
}
330
241
100
AcDbScale
 70
     0
300
6" = 1'-0"
140
6.0
141
12.0
290
     0
  0
SCALE
  5
262
102
{ACAD_REACTORS
330
241
102
}
330
241
100
AcDbScale
 70
     0
300
1'-0" = 1'-0"
140
12.0
141
12.0
290
     0
  0
TABLESTYLE
  5
279
102
{ACAD_REACTORS
330
278
102
}
102
{ACAD_XDICTIONARY
360
5CEB
102
}
330
278
100
AcDbTableStyle
  3
Standard
 70
     0
 71
     0
 40
0.06
 41
0.06
280
     0
281
     0
  7
Standard
140
4.5
170
     2
 62
     0
 63
   257
283
     0
 90
        4
 91
        0
  1

274
    -2
284
     1
 64
     0
275
    -2
285
     1
 65
     0
276
    -2
286
     1
 66
     0
277
    -2
287
     1
 67
     0
278
    -2
288
     1
 68
     0
279
    -2
289
     1
 69
     0
  7
Standard
140
6.0
170
     5
 62
     0
 63
   257
283
     0
 90
        4
 91
        0
  1

274
    -2
284
     1
 64
     0
275
    -2
285
     1
 65
     0
276
    -2
286
     1
 66
     0
277
    -2
287
     1
 67
     0
278
    -2
288
     1
 68
     0
279
    -2
289
     1
 69
     0
  7
Standard
140
4.5
170
     5
 62
     0
 63
   257
283
     0
 90
        4
 91
        0
  1

274
    -2
284
     1
 64
     0
275
    -2
285
     1
 65
     0
276
    -2
286
     1
 66
     0
277
    -2
287
     1
 67
     0
278
    -2
288
     1
 68
     0
279
    -2
289
     1
 69
     0
  0
VISUALSTYLE
  5
26C
102
{ACAD_REACTORS
330
267
102
}
330
267
100
AcDbVisualStyle
  2
2dWireframe
 70
     4
 71
     0
 72
     2
 73
     0
 90
        0
 40
-0.6
 41
-30.0
 62
     5
 63
     7
421
 16777215
 74
     1
 91
        4
 64
     7
 65
   257
 75
     1
175
     1
 42
1.0
 92
        0
 66
   257
 43
1.0
 76
     1
 77
     6
 78
     2
 67
     7
 79
     5
170
     0
171
     0
290
     0
174
     0
 93
        1
 44
0.0
173
     0
291
     0
 45
0.0
  0
VISUALSTYLE
  5
26E
102
{ACAD_REACTORS
330
267
102
}
330
267
100
AcDbVisualStyle
  2
3D Hidden
 70
     6
 71
     1
 72
     2
 73
     2
 90
        0
 40
-0.6
 41
-30.0
 62
     5
 63
     7
421
 16777215
 74
     2
 91
        2
 64
     7
 65
   257
 75
     2
175
     1
 42
40.0
 92
        0
 66
   257
 43
1.0
 76
     1
 77
     6
 78
     2
 67
     7
 79
     3
170
     0
171
     0
290
     0
174
     0
 93
        1
 44
0.0
173
     0
291
     0
 45
0.0
  0
VISUALSTYLE
  5
26D
102
{ACAD_REACTORS
330
267
102
}
330
267
100
AcDbVisualStyle
  2
3dWireframe
 70
     5
 71
     0
 72
     2
 73
     0
 90
        0
 40
-0.6
 41
-30.0
 62
     5
 63
     7
421
 16777215
 74
     1
 91
        4
 64
     7
 65
   257
 75
     1
175
     1
 42
1.0
 92
        0
 66
   257
 43
1.0
 76
     1
 77
     6
 78
     2
 67
     7
 79
     5
170
     0
171
     0
290
     0
174
     0
 93
        1
 44
0.0
173
     0
291
     0
 45
0.0
  0
VISUALSTYLE
  5
26F
102
{ACAD_REACTORS
330
267
102
}
330
267
100
AcDbVisualStyle
  2
Basic
 70
     7
 71
     1
 72
     0
 73
     1
 90
        0
 40
-0.6
 41
-30.0
 62
     5
 63
     7
421
 16777215
 74
     0
 91
        4
 64
     7
 65
   257
 75
     1
175
     1
 42
1.0
 92
        8
 66
     7
 43
1.0
 76
     1
 77
     6
 78
     2
 67
     7
 79
     5
170
     0
171
     0
290
     0
174
     0
 93
        1
 44
0.0
173
     0
291
     1
 45
0.0
  0
VISUALSTYLE
  5
273
102
{ACAD_REACTORS
330
267
102
}
330
267
100
AcDbVisualStyle
  2
Brighten
 70
    12
 71
     2
 72
     2
 73
     0
 90
        0
 40
-0.6
 41
-30.0
 62
     5
 63
     7
421
 16777215
 74
     1
 91
        4
 64
     7
 65
   257
 75
     1
175
     1
 42
1.0
 92
        8
 66
     7
 43
1.0
 76
     1
 77
     6
 78
     2
 67
     7
 79
     5
170
     0
171
     0
290
     0
174
     0
 93
        1
 44
50.0
173
     0
291
     1
 45
0.0
  0
VISUALSTYLE
  5
277
102
{ACAD_REACTORS
330
267
102
}
330
267
100
AcDbVisualStyle
  2
ColorChange
 70
    16
 71
     2
 72
     2
 73
     3
 90
        0
 40
-0.6
 41
-30.0
 62
     5
 63
     8
421
  8421504
 74
     1
 91
        4
 64
     7
 65
   257
 75
     1
175
     1
 42
1.0
 92
        8
 66
     8
424
  8421504
 43
1.0
 76
     1
 77
     6
 78
     2
 67
     7
 79
     5
170
     0
171
     0
290
     0
174
     0
 93
        1
 44
0.0
173
     0
291
     1
 45
0.0
  0
VISUALSTYLE
  5
271
102
{ACAD_REACTORS
330
267
102
}
330
267
100
AcDbVisualStyle
  2
Conceptual
 70
     9
 71
     3
 72
     2
 73
     0
 90
        0
 40
-0.6
 41
-30.0
 62
     5
 63
     7
421
 16777215
 74
     2
 91
        2
 64
     7
 65
   257
 75
     1
175
     1
 42
40.0
 92
        8
 66
     7
 43
1.0
 76
     1
 77
     6
 78
     2
 67
     7
 79
     3
170
     0
171
     0
290
     0
174
     0
 93
        1
 44
0.0
173
     0
291
     0
 45
0.0
  0
VISUALSTYLE
  5
272
102
{ACAD_REACTORS
330
267
102
}
330
267
100
AcDbVisualStyle
  2
Dim
 70
    11
 71
     2
 72
     2
 73
     0
 90
        0
 40
-0.6
 41
-30.0
 62
     5
 63
     7
421
 16777215
 74
     1
 91
        4
 64
     7
 65
   257
 75
     1
175
     1
 42
1.0
 92
        8
 66
     7
 43
1.0
 76
     1
 77
     6
 78
     2
 67
     7
 79
     5
170
     0
171
     0
290
     0
174
     0
 93
        1
 44
-50.0
173
     0
291
     1
 45
0.0
  0
VISUALSTYLE
  5
F14
102
{ACAD_REACTORS
330
267
102
}
330
267
100
AcDbVisualStyle
  2
EdgeColorOff
 70
    22
 71
     2
 72
     2
 73
     0
 90
        0
 40
0.6
 41
30.0
 62
     5
 63
     7
421
 16777215
 74
     1
 91
        4
 64
     7
 65
   257
 75
     1
175
     1
 42
1.0
 92
        8
 66
     7
 43
1.0
 76
     1
 77
     6
 78
     2
 67
     7
 79
     5
170
     0
171
     0
290
     0
174
     0
 93
        1
 44
0.0
173
     0
291
     1
 45
0.0
  0
VISUALSTYLE
  5
276
102
{ACAD_REACTORS
330
267
102
}
330
267
100
AcDbVisualStyle
  2
Facepattern
 70
    15
 71
     2
 72
     2
 73
     0
 90
        0
 40
-0.6
 41
-30.0
 62
     5
 63
     7
421
 16777215
 74
     1
 91
        4
 64
     7
 65
   257
 75
     1
175
     1
 42
1.0
 92
        8
 66
     7
 43
1.0
 76
     1
 77
     6
 78
     2
 67
     7
 79
     5
170
     0
171
     0
290
     0
174
     0
 93
        1
 44
0.0
173
     0
291
     1
 45
0.0
  0
VISUALSTYLE
  5
268
102
{ACAD_REACTORS
330
267
102
}
330
267
100
AcDbVisualStyle
  2
Flat
 70
     0
 71
     2
 72
     1
 73
     1
 90
        2
 40
-0.6
 41
30.0
 62
     5
 63
     7
421
 16777215
 74
     0
 91
        4
 64
     7
 65
   257
 75
     1
175
     1
 42
1.0
 92
        8
 66
     7
 43
1.0
 76
     1
 77
     6
 78
     2
 67
     7
 79
     5
170
     0
171
     0
290
     0
174
     0
 93
       13
 44
0.0
173
     0
291
     1
 45
0.0
  0
VISUALSTYLE
  5
269
102
{ACAD_REACTORS
330
267
102
}
330
267
100
AcDbVisualStyle
  2
FlatWithEdges
 70
     1
 71
     2
 72
     1
 73
     1
 90
        2
 40
-0.6
 41
30.0
 62
     5
 63
     7
421
 16777215
 74
     1
 91
        4
 64
     7
 65
   257
 75
     1
175
     1
 42
1.0
 92
        0
 66
   257
 43
1.0
 76
     1
 77
     6
 78
     2
 67
     7
 79
     5
170
     0
171
     0
290
     0
174
     0
 93
       13
 44
0.0
173
     0
291
     1
 45
0.0
  0
VISUALSTYLE
  5
26A
102
{ACAD_REACTORS
330
267
102
}
330
267
100
AcDbVisualStyle
  2
Gouraud
 70
     2
 71
     2
 72
     2
 73
     1
 90
        2
 40
-0.6
 41
30.0
 62
     5
 63
     7
421
 16777215
 74
     0
 91
        4
 64
     7
 65
   257
 75
     1
175
     1
 42
1.0
 92
        0
 66
     7
 43
1.0
 76
     1
 77
     6
 78
     2
 67
     7
 79
     5
170
     0
171
     0
290
     0
174
     0
 93
       13
 44
0.0
173
     0
291
     1
 45
0.0
  0
VISUALSTYLE
  5
26B
102
{ACAD_REACTORS
330
267
102
}
330
267
100
AcDbVisualStyle
  2
GouraudWithEdges
 70
     3
 71
     2
 72
     2
 73
     1
 90
        2
 40
-0.6
 41
30.0
 62
     5
 63
     7
421
 16777215
 74
     1
 91
        4
 64
     7
 65
   257
 75
     1
175
     1
 42
1.0
 92
        0
 66
   257
 43
1.0
 76
     1
 77
     6
 78
     2
 67
     7
 79
     5
170
     0
171
     0
290
     0
174
     0
 93
       13
 44
0.0
173
     0
291
     1
 45
0.0
  0
VISUALSTYLE
  5
F11
102
{ACAD_REACTORS
330
267
102
}
330
267
100
AcDbVisualStyle
  2
Hidden
 70
     6
 71
     1
 72
     2
 73
     2
 90
        0
 40
0.6
 41
30.0
 62
     5
 63
     7
421
 16777215
 74
     2
 91
        2
 64
     7
 65
   257
 75
     2
175
     1
 42
40.0
 92
        0
 66
   257
 43
1.0
 76
     1
 77
     6
 78
     2
 67
     7
 79
     3
170
     0
171
     0
290
     0
174
     0
 93
        1
 44
0.0
173
     0
291
     0
 45
0.0
  0
VISUALSTYLE
  5
F12
102
{ACAD_REACTORS
330
267
102
}
330
267
100
AcDbVisualStyle
  2
JitterOff
 70
    20
 71
     2
 72
     2
 73
     0
 90
        0
 40
0.6
 41
30.0
 62
     5
 63
     7
421
 16777215
 74
     1
 91
        4
 64
     7
 65
   257
 75
     1
175
     1
 42
1.0
 92
       10
 66
     7
 43
1.0
 76
     1
 77
     6
 78
     2
 67
     7
 79
     5
170
     0
171
     0
290
     0
174
     0
 93
        1
 44
0.0
173
     0
291
     1
 45
0.0
  0
VISUALSTYLE
  5
275
102
{ACAD_REACTORS
330
267
102
}
330
267
100
AcDbVisualStyle
  2
Linepattern
 70
    14
 71
     2
 72
     2
 73
     0
 90
        0
 40
-0.6
 41
-30.0
 62
     5
 63
     7
421
 16777215
 74
     1
 91
        4
 64
     7
 65
   257
 75
     7
175
     7
 42
1.0
 92
        8
 66
     7
 43
1.0
 76
     1
 77
     6
 78
     2
 67
     7
 79
     5
170
     0
171
     0
290
     0
174
     0
 93
        1
 44
0.0
173
     0
291
     1
 45
0.0
  0
VISUALSTYLE
  5
F13
102
{ACAD_REACTORS
330
267
102
}
330
267
100
AcDbVisualStyle
  2
OverhangOff
 70
    21
 71
     2
 72
     2
 73
     0
 90
        0
 40
0.6
 41
30.0
 62
     5
 63
     7
421
 16777215
 74
     1
 91
        4
 64
     7
 65
   257
 75
     1
175
     1
 42
1.0
 92
        9
 66
     7
 43
1.0
 76
     1
 77
     6
 78
     2
 67
     7
 79
     5
170
     0
171
     0
290
     0
174
     0
 93
        1
 44
0.0
173
     0
291
     1
 45
0.0
  0
VISUALSTYLE
  5
270
102
{ACAD_REACTORS
330
267
102
}
330
267
100
AcDbVisualStyle
  2
Realistic
 70
     8
 71
     2
 72
     2
 73
     0
 90
        0
 40
-0.6
 41
-30.0
 62
     5
 63
     7
421
 16777215
 74
     1
 91
        0
 64
     7
 65
   257
 75
     1
175
     1
 42
1.0
 92
        8
 66
     8
424
  7895160
 43
1.0
 76
     1
 77
     6
 78
     2
 67
     7
 79
     5
170
     0
171
     0
290
     0
174
     0
 93
       13
 44
0.0
173
     0
291
     0
 45
0.0
  0
VISUALSTYLE
  5
F19
102
{ACAD_REACTORS
330
267
102
}
330
267
100
AcDbVisualStyle
  2
Shaded
 70
    27
 71
     2
 72
     2
 73
     1
 90
        2
 40
0.6
 41
30.0
 62
     5
 63
     7
421
 16777215
 74
     0
 91
        4
 64
     7
 65
   257
 75
     1
175
     1
 42
1.0
 92
        8
 66
   257
 43
1.0
 76
     1
 77
     6
 78
     2
 67
     8
425
  7895160
 79
     3
170
     0
171
     0
290
     0
174
     0
 93
        5
 44
0.0
173
     0
291
     0
 45
0.0
  0
VISUALSTYLE
  5
F18
102
{ACAD_REACTORS
330
267
102
}
330
267
100
AcDbVisualStyle
  2
Shaded with edges
 70
    26
 71
     2
 72
     2
 73
     1
 90
        2
 40
0.6
 41
30.0
 62
     5
 63
     7
421
 16777215
 74
     1
 91
       10
 64
     7
 65
   257
 75
     2
175
     1
 42
1.0
 92
        8
 66
   257
 43
1.0
 76
     1
 77
     6
 78
     2
 67
     7
 79
     3
170
     0
171
     0
290
     0
174
     0
 93
        5
 44
0.0
173
     0
291
     0
 45
0.0
  0
VISUALSTYLE
  5
F15
102
{ACAD_REACTORS
330
267
102
}
330
267
100
AcDbVisualStyle
  2
Shades of Gray
 70
    23
 71
     2
 72
     2
 73
     3
 90
        0
 40
0.6
 41
30.0
 62
     5
 63
     7
421
 16777215
 74
     2
 91
        2
 64
     7
 65
     7
 75
     1
175
     1
 42
40.0
 92
        8
 66
     7
 43
1.0
 76
     1
 77
     6
 78
     2
 67
     7
 79
     3
170
     0
171
     0
290
     0
174
     0
 93
        1
 44
0.0
173
     0
291
     0
 45
0.0
  0
VISUALSTYLE
  5
F16
102
{ACAD_REACTORS
330
267
102
}
330
267
100
AcDbVisualStyle
  2
Sketchy
 70
    24
 71
     1
 72
     2
 73
     2
 90
        0
 40
0.6
 41
30.0
 62
     5
 63
     7
421
 16777215
 74
     2
 91
        2
 64
     7
 65
     7
 75
     1
175
     1
 42
40.0
 92
       11
 66
     7
 43
1.0
 76
     1
 77
     6
 78
     2
 67
     7
 79
     6
170
     0
171
     0
290
     0
174
     0
 93
        1
 44
0.0
173
     0
291
     0
 45
0.0
  0
VISUALSTYLE
  5
274
102
{ACAD_REACTORS
330
267
102
}
330
267
100
AcDbVisualStyle
  2
Thicken
 70
    13
 71
     2
 72
     2
 73
     0
 90
        0
 40
-0.6
 41
-30.0
 62
     5
 63
     7
421
 16777215
 74
     1
 91
        4
 64
     7
 65
   257
 75
     1
175
     1
 42
1.0
 92
       12
 66
     7
 43
1.0
 76
     1
 77
     6
 78
     2
 67
     7
 79
     5
170
     0
171
     0
290
     0
174
     0
 93
        1
 44
0.0
173
     0
291
     1
 45
0.0
  0
VISUALSTYLE
  5
F10
102
{ACAD_REACTORS
330
267
102
}
330
267
100
AcDbVisualStyle
  2
Wireframe
 70
     5
 71
     0
 72
     2
 73
     0
 90
        0
 40
0.6
 41
30.0
 62
     5
 63
     7
421
 16777215
 74
     1
 91
        4
 64
     7
 65
   257
 75
     1
175
     1
 42
1.0
 92
        0
 66
   257
 43
1.0
 76
     1
 77
     6
 78
     2
 67
     7
 79
     3
170
     0
171
     0
290
     0
174
     0
 93
        1
 44
0.0
173
     0
291
     0
 45
0.0
  0
VISUALSTYLE
  5
F17
102
{ACAD_REACTORS
330
267
102
}
330
267
100
AcDbVisualStyle
  2
X-Ray
 70
    25
 71
     2
 72
     2
 73
     1
 90
        1
 40
0.5
 41
30.0
 62
     5
 63
     7
421
 16777215
 74
     1
 91
        0
 64
     7
 65
   257
 75
     1
175
     1
 42
1.0
 92
        8
 66
     7
 43
1.0
 76
     1
 77
     6
 78
     2
 67
     7
 79
     3
170
     0
171
     0
290
     0
174
     0
 93
       13
 44
0.0
173
     0
291
     0
 45
0.0
  0
DICTIONARYVAR
  5
331
102
{ACAD_REACTORS
330
330
102
}
330
330
100
DictionaryVariables
280
     0
  1
1:1
  0
DICTIONARYVAR
  5
57B6
102
{ACAD_REACTORS
330
330
102
}
330
330
100
DictionaryVariables
280
     0
  1
Standard
  0
DICTIONARYVAR
  5
335
102
{ACAD_REACTORS
330
330
102
}
330
330
100
DictionaryVariables
280
     0
  1
Standard
  0
DICTIONARYVAR
  5
523C
102
{ACAD_REACTORS
330
330
102
}
330
330
100
DictionaryVariables
280
     0
  1
ByLayer
  0
DICTIONARYVAR
  5
13B4
102
{ACAD_REACTORS
330
330
102
}
330
330
100
DictionaryVariables
280
     0
  1
0
  0
FIELD
  5
582A
102
{ACAD_REACTORS
330
58F9
102
}
330
58F9
100
AcDbField
  1
_text
  2
{%<\_FldIdx 0>%N}
 90
        1
360
582B
 97
        0
 91
       63
 92
        0
 94
       11
 95
        2
 96
        0
300

 93
        1
  6
ACFD_FIELDTEXT_CHECKSUM
 93
        2
 90
        2
140
4511.0
 94
        0
300

302

304
ACVALUE_END
  7
ACFD_FIELD_VALUE
 93
        6
 90
        4
  1
{20190531N}
 94
        0
300

302

304
ACVALUE_END
301
{20190531N}
 98
       11
  0
DICTIONARY
  5
5CEB
330
279
100
AcDbDictionary
280
     1
281
     1
  3
ACAD_ROUNDTRIP_2008_TABLESTYLE_CELLSTYLEMAP
360
5CEC
  0
FIELD
  5
582B
330
582A
100
AcDbField
  1
AcVar
  2
\AcVar Date \f "yyyyMMdd"
 90
        0
 97
        0
 91
       63
 92
        0
 94
       11
 95
       64
 96
        0
300
Variable not supported
 93
        1
  6
Variable
 93
        2
 90
        4
  1
Date
 94
        0
300

302

304
ACVALUE_END
  7
ACFD_FIELD_VALUE
 93
        6
 90
        8
 92
       16
310
E307050000001F000900320023000000
 94
        0
300
yyyyMMdd
302

304
ACVALUE_END
301
20190531
 98
        8
  0
CELLSTYLEMAP
  5
5CEC
102
{ACAD_REACTORS
330
5CEB
102
}
330
5CEB
100
AcDbCellStyleMap
 90
        3
300
CELLSTYLE
  1
TABLEFORMAT_BEGIN
 90
        5
170
     1
 91
        0
 92
    32768
 62
   257
 93
        1
300
CONTENTFORMAT
  1
CONTENTFORMAT_BEGIN
 90
        0
 91
        0
 92
        4
 93
        0
300

 40
0.0
140
1.0
 94
        5
 62
     0
340
17
144
6.0
309
CONTENTFORMAT_END
171
     1
301
MARGIN
  1
CELLMARGIN_BEGIN
 40
0.06
 40
0.06
 40
0.06
 40
0.06
 40
0.18
 40
0.18
309
CELLMARGIN_END
 94
        6
 95
        1
302
GRIDFORMAT
  1
GRIDFORMAT_BEGIN
 90
        0
 91
        1
 62
     0
 92
       -2
340
0
 93
        0
 40
0.045
309
GRIDFORMAT_END
 95
        2
302
GRIDFORMAT
  1
GRIDFORMAT_BEGIN
 90
        0
 91
        1
 62
     0
 92
       -2
340
0
 93
        0
 40
0.045
309
GRIDFORMAT_END
 95
        4
302
GRIDFORMAT
  1
GRIDFORMAT_BEGIN
 90
        0
 91
        1
 62
     0
 92
       -2
340
0
 93
        0
 40
0.045
309
GRIDFORMAT_END
 95
        8
302
GRIDFORMAT
  1
GRIDFORMAT_BEGIN
 90
        0
 91
        1
 62
     0
 92
       -2
340
0
 93
        0
 40
0.045
309
GRIDFORMAT_END
 95
       16
302
GRIDFORMAT
  1
GRIDFORMAT_BEGIN
 90
        0
 91
        1
 62
     0
 92
       -2
340
0
 93
        0
 40
0.045
309
GRIDFORMAT_END
 95
       32
302
GRIDFORMAT
  1
GRIDFORMAT_BEGIN
 90
        0
 91
        1
 62
     0
 92
       -2
340
0
 93
        0
 40
0.045
309
GRIDFORMAT_END
309
TABLEFORMAT_END
  1
CELLSTYLE_BEGIN
 90
        1
 91
        1
300
_TITLE
309
CELLSTYLE_END
300
CELLSTYLE
  1
TABLEFORMAT_BEGIN
 90
        5
170
     1
 91
        0
 92
        0
 62
   257
 93
        1
300
CONTENTFORMAT
  1
CONTENTFORMAT_BEGIN
 90
        0
 91
        0
 92
        4
 93
        0
300

 40
0.0
140
1.0
 94
        5
 62
     0
340
17
144
4.5
309
CONTENTFORMAT_END
171
     1
301
MARGIN
  1
CELLMARGIN_BEGIN
 40
0.06
 40
0.06
 40
0.06
 40
0.06
 40
0.18
 40
0.18
309
CELLMARGIN_END
 94
        6
 95
        1
302
GRIDFORMAT
  1
GRIDFORMAT_BEGIN
 90
        0
 91
        1
 62
     0
 92
       -2
340
0
 93
        0
 40
0.045
309
GRIDFORMAT_END
 95
        2
302
GRIDFORMAT
  1
GRIDFORMAT_BEGIN
 90
        0
 91
        1
 62
     0
 92
       -2
340
0
 93
        0
 40
0.045
309
GRIDFORMAT_END
 95
        4
302
GRIDFORMAT
  1
GRIDFORMAT_BEGIN
 90
        0
 91
        1
 62
     0
 92
       -2
340
0
 93
        0
 40
0.045
309
GRIDFORMAT_END
 95
        8
302
GRIDFORMAT
  1
GRIDFORMAT_BEGIN
 90
        0
 91
        1
 62
     0
 92
       -2
340
0
 93
        0
 40
0.045
309
GRIDFORMAT_END
 95
       16
302
GRIDFORMAT
  1
GRIDFORMAT_BEGIN
 90
        0
 91
        1
 62
     0
 92
       -2
340
0
 93
        0
 40
0.045
309
GRIDFORMAT_END
 95
       32
302
GRIDFORMAT
  1
GRIDFORMAT_BEGIN
 90
        0
 91
        1
 62
     0
 92
       -2
340
0
 93
        0
 40
0.045
309
GRIDFORMAT_END
309
TABLEFORMAT_END
  1
CELLSTYLE_BEGIN
 90
        2
 91
        1
300
_HEADER
309
CELLSTYLE_END
300
CELLSTYLE
  1
TABLEFORMAT_BEGIN
 90
        5
170
     1
 91
        0
 92
        0
 62
   257
 93
        1
300
CONTENTFORMAT
  1
CONTENTFORMAT_BEGIN
 90
        0
 91
        0
 92
        4
 93
        0
300

 40
0.0
140
1.0
 94
        2
 62
     0
340
17
144
4.5
309
CONTENTFORMAT_END
171
     1
301
MARGIN
  1
CELLMARGIN_BEGIN
 40
0.06
 40
0.06
 40
0.06
 40
0.06
 40
0.18
 40
0.18
309
CELLMARGIN_END
 94
        6
 95
        1
302
GRIDFORMAT
  1
GRIDFORMAT_BEGIN
 90
        0
 91
        1
 62
     0
 92
       -2
340
0
 93
        0
 40
0.045
309
GRIDFORMAT_END
 95
        2
302
GRIDFORMAT
  1
GRIDFORMAT_BEGIN
 90
        0
 91
        1
 62
     0
 92
       -2
340
0
 93
        0
 40
0.045
309
GRIDFORMAT_END
 95
        4
302
GRIDFORMAT
  1
GRIDFORMAT_BEGIN
 90
        0
 91
        1
 62
     0
 92
       -2
340
0
 93
        0
 40
0.045
309
GRIDFORMAT_END
 95
        8
302
GRIDFORMAT
  1
GRIDFORMAT_BEGIN
 90
        0
 91
        1
 62
     0
 92
       -2
340
0
 93
        0
 40
0.045
309
GRIDFORMAT_END
 95
       16
302
GRIDFORMAT
  1
GRIDFORMAT_BEGIN
 90
        0
 91
        1
 62
     0
 92
       -2
340
0
 93
        0
 40
0.045
309
GRIDFORMAT_END
 95
       32
302
GRIDFORMAT
  1
GRIDFORMAT_BEGIN
 90
        0
 91
        1
 62
     0
 92
       -2
340
0
 93
        0
 40
0.045
309
GRIDFORMAT_END
309
TABLEFORMAT_END
  1
CELLSTYLE_BEGIN
 90
        3
 91
        2
300
_DATA
309
CELLSTYLE_END
  0
ENDSEC
  0
EOF
