  0
SECTION
  2
HEADER
  9
$ACADVER
  1
AC1021
  9
$ACADMAINTVER
 70
    25
  9
$DWGCODEPAGE
  3
ANSI_932
  9
$LASTSAVEDBY
  1
tform
  9
$INSBASE
 10
0.0
 20
0.0
 30
0.0
  9
$EXTMIN
 10
0.0
 20
0.0
 30
0.0
  9
$EXTMAX
 10
593.9999999999999
 20
420.0
 30
0.0
  9
$LIMMIN
 10
0.0
 20
0.0
  9
$LIMMAX
 10
594.0
 20
419.9999999999996
  9
$ORTHOMODE
 70
     1
  9
$REGENMODE
 70
     1
  9
$FILLMODE
 70
     1
  9
$QTEXTMODE
 70
     0
  9
$MIRRTEXT
 70
     1
  9
$LTSCALE
 40
2.0
  9
$ATTMODE
 70
     1
  9
$TEXTSIZE
 40
2.5
  9
$TRACEWID
 40
1.0
  9
$TEXTSTYLE
  7
ＭＳ ゴシック
  9
$CLAYER
  8
寸法
  9
$CELTYPE
  6
Continuous
  9
$CECOLOR
 62
   256
  9
$CELTSCALE
 40
1.0
  9
$DISPSILH
 70
     0
  9
$DIMSCALE
 40
1.0
  9
$DIMASZ
 40
1.5
  9
$DIMEXO
 40
5.0
  9
$DIMDLI
 40
0.9999999999999999
  9
$DIMRND
 40
0.0
  9
$DIMDLE
 40
0.0
  9
$DIMEXE
 40
0.0
  9
$DIMTP
 40
0.0
  9
$DIMTM
 40
0.0
  9
$DIMTXT
 40
5.0
  9
$DIMCEN
 40
0.0
  9
$DIMTSZ
 40
0.0
  9
$DIMTOL
 70
     0
  9
$DIMLIM
 70
     0
  9
$DIMTIH
 70
     0
  9
$DIMTOH
 70
     0
  9
$DIMSE1
 70
     0
  9
$DIMSE2
 70
     0
  9
$DIMTAD
 70
     1
  9
$DIMZIN
 70
    11
  9
$DIMBLK
  1
DOT
  9
$DIMASO
 70
     1
  9
$DIMSHO
 70
     1
  9
$DIMPOST
  1
<>
  9
$DIMAPOST
  1
[]
  9
$DIMALT
 70
     0
  9
$DIMALTD
 70
     1
  9
$DIMALTF
 40
1.0
  9
$DIMLFAC
 40
1.0
  9
$DIMTOFL
 70
     0
  9
$DIMTVP
 40
0.0
  9
$DIMTIX
 70
     1
  9
$DIMSOXD
 70
     0
  9
$DIMSAH
 70
     0
  9
$DIMBLK1
  1

  9
$DIMBLK2
  1

  9
$DIMSTYLE
  2
tfrom線あり
  9
$DIMCLRD
 70
     0
  9
$DIMCLRE
 70
     0
  9
$DIMCLRT
 70
     0
  9
$DIMTFAC
 40
1.0
  9
$DIMGAP
 40
2.0
  9
$DIMJUST
 70
     0
  9
$DIMSD1
 70
     0
  9
$DIMSD2
 70
     0
  9
$DIMTOLJ
 70
     1
  9
$DIMTZIN
 70
    11
  9
$DIMALTZ
 70
    11
  9
$DIMALTTZ
 70
    11
  9
$DIMUPT
 70
     0
  9
$DIMDEC
 70
     0
  9
$DIMTDEC
 70
     1
  9
$DIMALTU
 70
     2
  9
$DIMALTTD
 70
     2
  9
$DIMTXSTY
  7
ＭＳ ゴシック
  9
$DIMAUNIT
 70
     0
  9
$DIMADEC
 70
     2
  9
$DIMALTRND
 40
0.0
  9
$DIMAZIN
 70
     0
  9
$DIMDSEP
 70
    46
  9
$DIMATFIT
 70
     0
  9
$DIMFRAC
 70
     2
  9
$DIMLDRBLK
  1
DOT
  9
$DIMLUNIT
 70
     2
  9
$DIMLWD
 70
    -2
  9
$DIMLWE
 70
    -2
  9
$DIMTMOVE
 70
     0
  9
$DIMFXL
 40
1.0
  9
$DIMFXLON
 70
     0
  9
$DIMJOGANG
 40
0.7853981633974483
  9
$DIMTFILL
 70
     0
  9
$DIMTFILLCLR
 70
     0
  9
$DIMARCSYM
 70
     0
  9
$DIMLTYPE
  6

  9
$DIMLTEX1
  6

  9
$DIMLTEX2
  6

  9
$LUNITS
 70
     2
  9
$LUPREC
 70
     0
  9
$SKETCHINC
 40
0.1
  9
$FILLETRAD
 40
0.0
  9
$AUNITS
 70
     0
  9
$AUPREC
 70
     0
  9
$MENU
  1
acad
  9
$ELEVATION
 40
0.0
  9
$PELEVATION
 40
0.0
  9
$THICKNESS
 40
0.0
  9
$LIMCHECK
 70
     0
  9
$CHAMFERA
 40
0.0
  9
$CHAMFERB
 40
0.0
  9
$CHAMFERC
 40
0.0
  9
$CHAMFERD
 40
0.0
  9
$SKPOLY
 70
     0
  9
$TDCREATE
 40
2447893.375
  9
$TDUCREATE
 40
0.0
  9
$TDUPDATE
 40
2459503.593215602
  9
$TDUUPDATE
 40
2459503.218215602
  9
$TDINDWG
 40
0.0147108449
  9
$TDUSRTIMER
 40
0.0025404282
  9
$USRTIMER
 70
     1
  9
$ANGBASE
 50
0.0
  9
$ANGDIR
 70
     0
  9
$PDMODE
 70
     1
  9
$PDSIZE
 40
-2.0
  9
$PLINEWID
 40
0.0
  9
$SPLFRAME
 70
     0
  9
$SPLINETYPE
 70
     6
  9
$SPLINESEGS
 70
     8
  9
$HANDSEED
  5
5FD3
  9
$SURFTAB1
 70
     6
  9
$SURFTAB2
 70
     6
  9
$SURFTYPE
 70
     6
  9
$SURFU
 70
     6
  9
$SURFV
 70
     6
  9
$UCSBASE
  2

  9
$UCSNAME
  2

  9
$UCSORG
 10
0.0
 20
0.0
 30
0.0
  9
$UCSXDIR
 10
1.0
 20
0.0
 30
0.0
  9
$UCSYDIR
 10
0.0
 20
1.0
 30
0.0
  9
$UCSORTHOREF
  2

  9
$UCSORTHOVIEW
 70
     0
  9
$UCSORGTOP
 10
0.0
 20
0.0
 30
0.0
  9
$UCSORGBOTTOM
 10
0.0
 20
0.0
 30
0.0
  9
$UCSORGLEFT
 10
0.0
 20
0.0
 30
0.0
  9
$UCSORGRIGHT
 10
0.0
 20
0.0
 30
0.0
  9
$UCSORGFRONT
 10
0.0
 20
0.0
 30
0.0
  9
$UCSORGBACK
 10
0.0
 20
0.0
 30
0.0
  9
$PUCSBASE
  2

  9
$PUCSNAME
  2

  9
$PUCSORG
 10
0.0
 20
0.0
 30
0.0
  9
$PUCSXDIR
 10
1.0
 20
0.0
 30
0.0
  9
$PUCSYDIR
 10
0.0
 20
1.0
 30
0.0
  9
$PUCSORTHOREF
  2

  9
$PUCSORTHOVIEW
 70
     0
  9
$PUCSORGTOP
 10
0.0
 20
0.0
 30
0.0
  9
$PUCSORGBOTTOM
 10
0.0
 20
0.0
 30
0.0
  9
$PUCSORGLEFT
 10
0.0
 20
0.0
 30
0.0
  9
$PUCSORGRIGHT
 10
0.0
 20
0.0
 30
0.0
  9
$PUCSORGFRONT
 10
0.0
 20
0.0
 30
0.0
  9
$PUCSORGBACK
 10
0.0
 20
0.0
 30
0.0
  9
$USERI1
 70
     0
  9
$USERI2
 70
     0
  9
$USERI3
 70
     0
  9
$USERI4
 70
     0
  9
$USERI5
 70
     0
  9
$USERR1
 40
0.0
  9
$USERR2
 40
0.0
  9
$USERR3
 40
0.0
  9
$USERR4
 40
0.0
  9
$USERR5
 40
0.0
  9
$WORLDVIEW
 70
     1
  9
$SHADEDGE
 70
     3
  9
$SHADEDIF
 70
    70
  9
$TILEMODE
 70
     1
  9
$MAXACTVP
 70
    64
  9
$PINSBASE
 10
0.0
 20
0.0
 30
0.0
  9
$PLIMCHECK
 70
     0
  9
$PEXTMIN
 10
0.0
 20
0.0
 30
0.0
  9
$PEXTMAX
 10
0.0
 20
0.0
 30
0.0
  9
$PLIMMIN
 10
-7.5
 20
-20.0
  9
$PLIMMAX
 10
412.5
 20
277.0
  9
$UNITMODE
 70
     0
  9
$VISRETAIN
 70
     0
  9
$PLINEGEN
 70
     1
  9
$PSLTSCALE
 70
     1
  9
$TREEDEPTH
 70
  3020
  9
$CMLSTYLE
  2
Standard
  9
$CMLJUST
 70
     0
  9
$CMLSCALE
 40
1.0
  9
$PROXYGRAPHICS
 70
     0
  9
$MEASUREMENT
 70
     1
  9
$CELWEIGHT
370
    -1
  9
$ENDCAPS
280
     0
  9
$JOINSTYLE
280
     0
  9
$LWDISPLAY
290
     1
  9
$INSUNITS
 70
     4
  9
$HYPERLINKBASE
  1

  9
$STYLESHEET
  1

  9
$XEDIT
290
     1
  9
$CEPSNTYPE
380
     0
  9
$PSTYLEMODE
290
     1
  9
$FINGERPRINTGUID
  2

  9
$VERSIONGUID
  2

  9
$EXTNAMES
290
     1
  9
$PSVPSCALE
 40
0.0
  9
$OLESTARTUP
290
     0
  9
$SORTENTS
280
   127
  9
$INDEXCTL
280
     0
  9
$HIDETEXT
280
     1
  9
$XCLIPFRAME
290
     0
  9
$HALOGAP
280
     0
  9
$OBSCOLOR
 70
   257
  9
$OBSLTYPE
280
     0
  9
$INTERSECTIONDISPLAY
280
     0
  9
$INTERSECTIONCOLOR
 70
   257
  9
$DIMASSOC
280
     2
  9
$PROJECTNAME
  1

  9
$CAMERADISPLAY
290
     0
  9
$LENSLENGTH
 40
50.0
  9
$CAMERAHEIGHT
 40
0.0
  9
$STEPSPERSEC
 40
2.0
  9
$STEPSIZE
 40
6.0
  9
$3DDWFPREC
 40
2.0
  9
$PSOLWIDTH
 40
0.25
  9
$PSOLHEIGHT
 40
4.0
  9
$LOFTANG1
 40
1.570796326794897
  9
$LOFTANG2
 40
1.570796326794897
  9
$LOFTMAG1
 40
0.0
  9
$LOFTMAG2
 40
0.0
  9
$LOFTPARAM
 70
     7
  9
$LOFTNORMALS
280
     1
  9
$LATITUDE
 40
37.795
  9
$LONGITUDE
 40
-122.394
  9
$NORTHDIRECTION
 40
0.0
  9
$TIMEZONE
 70
 -8000
  9
$LIGHTGLYPHDISPLAY
280
     1
  9
$TILEMODELIGHTSYNCH
280
     1
  9
$SOLIDHIST
280
     1
  9
$SHOWHIST
280
     1
  9
$DWFFRAME
280
     2
  9
$DGNFRAME
280
     2
  9
$REALWORLDSCALE
290
     1
  9
$INTERFERECOLOR
 62
   256
  9
$CSHADOW
280
     0
  9
$SHADOWPLANELOCATION
 40
0.0
  0
ENDSEC
  0
SECTION
  2
CLASSES
  0
CLASS
  1
LWPOLYLINE
  2
AcDbPolyline
  3
ObjectDBX Classes
 90
        0
 91
        1
280
     0
281
     1
  0
CLASS
  1
IMAGE
  2
AcDbRasterImage
  3
ISM
 90
      127
 91
        4
280
     0
281
     1
  0
CLASS
  1
OLE2FRAME
  2
AcDbOle2Frame
  3
ObjectDBX Classes
 90
        0
 91
        1
280
     0
281
     1
  0
CLASS
  1
HATCH
  2
AcDbHatch
  3
ObjectDBX Classes
 90
        0
 91
        1
280
     0
281
     1
  0
CLASS
  1
DICTIONARYVAR
  2
AcDbDictionaryVar
  3
ObjectDBX Classes
 90
        0
 91
        3
280
     0
281
     0
  0
CLASS
  1
RASTERVARIABLES
  2
AcDbRasterVariables
  3
ISM
 90
        0
 91
        3
280
     0
281
     0
  0
CLASS
  1
IMAGEDEF
  2
AcDbRasterImageDef
  3
ISM
 90
        0
 91
        3
280
     0
281
     0
  0
CLASS
  1
IMAGEDEF_REACTOR
  2
AcDbRasterImageDefReactor
  3
ISM
 90
        1
 91
        3
280
     0
281
     0
  0
CLASS
  1
IDBUFFER
  2
AcDbIdBuffer
  3
ObjectDBX Classes
 90
        0
 91
        3
280
     0
281
     0
  0
CLASS
  1
SPATIAL_FILTER
  2
AcDbSpatialFilter
  3
ObjectDBX Classes
 90
        0
 91
        3
280
     0
281
     0
  0
CLASS
  1
XRECORD
  2
AcDbXrecord
  3
ObjectDBX Classes
 90
        0
 91
        1
280
     0
281
     0
  0
CLASS
  1
SORTENTSTABLE
  2
AcDbSortentsTable
  3
ObjectDBX Classes
 90
        0
 91
        3
280
     0
281
     0
  0
CLASS
  1
LAYER_INDEX
  2
AcDbLayerIndex
  3
ObjectDBX Classes
 90
        0
 91
        3
280
     0
281
     0
  0
CLASS
  1
SPATIAL_INDEX
  2
AcDbSpatialIndex
  3
AutoCAD 2000
 90
        0
 91
        3
280
     0
281
     0
  0
CLASS
  1
OBJECT_PTR
  2
CAseDLPNTableRecord
  3
ASE-LPNTableRecord
 90
        1
 91
        3
280
     0
281
     0
  0
CLASS
  1
LAYOUT
  2
AcDbLayout
  3
ObjectDBX Classes
 90
        0
 91
        1
280
     0
281
     0
  0
CLASS
  1
PLOTSETTINGS
  2
AcDbPlotSettings
  3
ObjectDBX Classes
 90
        0
 91
        3
280
     0
281
     0
  0
CLASS
  1
ACDBDICTIONARYWDFLT
  2
AcDbDictionaryWithDefault
  3
ObjectDBX Classes
 90
        0
 91
        3
280
     0
281
     0
  0
CLASS
  1
ACDBPLACEHOLDER
  2
AcDbPlaceHolder
  3
ObjectDBX Classes
 90
        0
 91
        1
280
     0
281
     0
  0
CLASS
  1
SCALE
  2
AcDbScale
  3
ObjectDBX Classes
 90
     1153
 91
        3
280
     0
281
     0
  0
CLASS
  1
MATERIAL
  2
AcDbMaterial
  3
ObjectDBX Classes
 90
     1153
 91
        3
280
     0
281
     0
  0
CLASS
  1
VISUALSTYLE
  2
AcDbVisualStyle
  3
ObjectDBX Classes
 90
     4095
 91
        3
280
     0
281
     0
  0
CLASS
  1
TABLESTYLE
  2
AcDbTableStyle
  3
ObjectDBX Classes
 90
     4095
 91
        3
280
     0
281
     0
  0
CLASS
  1
DIMASSOC
  2
AcDbDimAssoc
  3
"AcDbDimAssoc|Product Desc:     AcDim ARX App For Dimension|Company:          Autodesk, Inc.|WEB Address:      www.autodesk.com"
 90
        0
 91
        3
280
     0
281
     0
  0
CLASS
  1
CELLSTYLEMAP
  2
AcDbCellStyleMap
  3
ObjectDBX Classes
 90
     1152
 91
        3
280
     0
281
     0
  0
CLASS
  1
SUN
  2
AcDbSun
  3
SCENEOE
 90
     1153
 91
        3
280
     0
281
     0
  0
CLASS
  1
MLEADERSTYLE
  2
AcDbMLeaderStyle
  3
ACDB_MLEADERSTYLE_CLASS
 90
     4095
 91
        3
280
     0
281
     0
  0
CLASS
  1
FIELD
  2
AcDbField
  3
ObjectDBX Classes
 90
     1152
 91
        3
280
     0
281
     0
  0
CLASS
  1
FIELDLIST
  2
AcDbFieldList
  3
ObjectDBX Classes
 90
     1152
 91
        3
280
     0
281
     0
  0
ENDSEC
  0
SECTION
  2
TABLES
  0
TABLE
  2
VPORT
  5
7
330
0
100
AcDbSymbolTable
 70
     1
  0
VPORT
  5
15
330
7
100
AcDbSymbolTableRecord
100
AcDbViewportTableRecord
  2
*ACTIVE
 70
     0
 10
0.0
 20
0.0
 11
1.0
 21
1.0
 12
296.9999999999999
 22
210.0
 13
0.0
 23
0.0
 14
1.0
 24
1.0
 15
0.0
 25
0.0
 16
0.0
 26
0.0
 36
1.0
 17
0.0
 27
0.0
 37
0.0
 40
428.4
 41
2.165535956580733
 42
50.0
 43
0.0
 44
0.0
 50
0.0
 51
0.0
 71
    16
 72
  2000
 73
     1
 74
     1
 75
     0
 76
     0
 77
     0
 78
     0
281
     0
 65
     1
110
0.0
120
0.0
130
0.0
111
1.0
121
0.0
131
0.0
112
0.0
122
1.0
132
0.0
 79
     0
146
0.0
348
26C
 60
     3
 61
     5
292
     1
282
     1
141
0.0
142
0.0
 63
   256
361
F1A
  0
ENDTAB
  0
TABLE
  2
LTYPE
  5
4
330
0
100
AcDbSymbolTable
 70
     4
  0
LTYPE
  5
11
330
4
100
AcDbSymbolTableRecord
100
AcDbLinetypeTableRecord
  2
ByBlock
 70
     0
  3

 72
    65
 73
     0
 40
0.0
  0
LTYPE
  5
12
330
4
100
AcDbSymbolTableRecord
100
AcDbLinetypeTableRecord
  2
ByLayer
 70
     0
  3
Solid line
 72
    65
 73
     0
 40
0.0
  0
LTYPE
  5
13
330
4
100
AcDbSymbolTableRecord
100
AcDbLinetypeTableRecord
  2
Continuous
 70
     0
  3
Solid line
 72
    65
 73
     0
 40
0.0
  0
LTYPE
  5
90E
330
4
100
AcDbSymbolTableRecord
100
AcDbLinetypeTableRecord
  2
DASHED1
 70
     0
  3
--  --  --  --  --  --  --  --  
 72
    65
 73
     2
 40
2.5
 49
1.25
 74
     0
 49
-1.25
 74
     0
  0
LTYPE
  5
4EF2
330
4
100
AcDbSymbolTableRecord
100
AcDbLinetypeTableRecord
  2
CENTER
 70
     0
  3
----------  --  ----------  --  
 72
    65
 73
     4
 40
20.0
 49
12.5
 74
     0
 49
-2.5
 74
     0
 49
2.5
 74
     0
 49
-2.5
 74
     0
  0
LTYPE
  5
4EF3
330
4
100
AcDbSymbolTableRecord
100
AcDbLinetypeTableRecord
  2
HIDDEN
 70
     0
  3
Hidden _ _ _ _ _ _ _ _ _ _ _ _ _ _ _ _ _ _ _ _ 
 72
    65
 73
     2
 40
9.524999999999999
 49
6.35
 74
     0
 49
-3.175
 74
     0
  0
ENDTAB
  0
TABLE
  2
LAYER
  5
2
102
{ACAD_XDICTIONARY
360
2E1
102
}
330
0
100
AcDbSymbolTable
 70
    12
  0
LAYER
  5
14
330
2
100
AcDbSymbolTableRecord
100
AcDbLayerTableRecord
  2
0
 70
     0
 62
     7
  6
Continuous
370
    -3
390
1D
347
266
  0
LAYER
  5
4A
330
2
100
AcDbSymbolTableRecord
100
AcDbLayerTableRecord
  2
Defpoints
 70
     0
 62
     7
  6
Continuous
290
     0
370
    -3
390
1D
347
266
  0
LAYER
  5
4D
330
2
100
AcDbSymbolTableRecord
100
AcDbLayerTableRecord
  2
MODEL
 70
     0
 62
     7
  6
Continuous
370
    20
390
1D
347
266
  0
LAYER
  5
667
330
2
100
AcDbSymbolTableRecord
100
AcDbLayerTableRecord
  2
レイヤー 1
 70
     0
 62
     7
  6
Continuous
370
    -3
390
1D
347
266
  0
LAYER
  5
4598
330
2
100
AcDbSymbolTableRecord
100
AcDbLayerTableRecord
  2
_0-1_
 70
     0
 62
     7
  6
Continuous
370
    -3
390
1D
347
266
  0
LAYER
  5
4EE8
330
2
100
AcDbSymbolTableRecord
100
AcDbLayerTableRecord
  2
寸法
 70
     0
 62
     7
  6
Continuous
370
    13
390
1D
347
266
1001
AcAecLayerStandard
1000

1000

  0
LAYER
  5
4EEC
330
2
100
AcDbSymbolTableRecord
100
AcDbLayerTableRecord
  2
テンプレート
 70
     0
 62
     7
  6
Continuous
370
    20
390
1D
347
266
1001
AcAecLayerStandard
1000

1000

  0
LAYER
  5
4EED
330
2
100
AcDbSymbolTableRecord
100
AcDbLayerTableRecord
  2
TFORMLOGO
 70
     0
 62
     7
  6
Continuous
370
    20
390
1D
347
266
  0
LAYER
  5
4EEE
330
2
100
AcDbSymbolTableRecord
100
AcDbLayerTableRecord
  2
PRINT BORDER
 70
     0
 62
     4
  6
Continuous
290
     0
370
    -3
390
1D
347
266
1001
AcAecLayerStandard
1000

1000

  0
LAYER
  5
4EEF
330
2
100
AcDbSymbolTableRecord
100
AcDbLayerTableRecord
  2
SPACER
 70
     0
 62
    -3
  6
Continuous
290
     0
370
    -3
390
1D
347
266
1001
AcAecLayerStandard
1000

1000

  0
LAYER
  5
4EF1
330
2
100
AcDbSymbolTableRecord
100
AcDbLayerTableRecord
  2
CutoutOverlay
 70
     0
 62
     7
  6
Continuous
370
    20
390
1D
347
266
1001
AcAecLayerStandard
1000

1000

  0
LAYER
  5
5030
330
2
100
AcDbSymbolTableRecord
100
AcDbLayerTableRecord
  2
CutoutUnderlay
 70
     0
 62
   254
  6
Continuous
370
    20
390
1D
347
266
1001
AcAecLayerStandard
1000

1000

  0
ENDTAB
  0
TABLE
  2
STYLE
  5
3
330
0
100
AcDbSymbolTable
 70
     2
  0
STYLE
  5
17
330
3
100
AcDbSymbolTableRecord
100
AcDbTextStyleTableRecord
  2
Standard
 70
     0
 40
0.0
 41
1.0
 50
0.0
 71
     0
 42
2.5
  3
txt
  4
BIGFONT.SHX
  0
STYLE
  5
39
330
3
100
AcDbSymbolTableRecord
100
AcDbTextStyleTableRecord
  2
ＭＳ ゴシック
 70
     0
 40
0.0
 41
1.0
 50
0.0
 71
     0
 42
2.5
  3
msgothic.ttc
  4
ＭＳ ゴシック
1001
ACAD
1000
ＭＳ ゴシック
1071
        0
  0
ENDTAB
  0
TABLE
  2
VIEW
  5
5
330
0
100
AcDbSymbolTable
 70
     0
  0
ENDTAB
  0
TABLE
  2
UCS
  5
6
330
0
100
AcDbSymbolTable
 70
     0
  0
ENDTAB
  0
TABLE
  2
APPID
  5
8
330
0
100
AcDbSymbolTable
 70
     5
  0
APPID
  5
16
330
8
100
AcDbSymbolTableRecord
100
AcDbRegAppTableRecord
  2
ACAD
 70
     0
  0
APPID
  5
7AC
330
8
100
AcDbSymbolTableRecord
100
AcDbRegAppTableRecord
  2
AcAecLayerStandard
 70
     0
  0
APPID
  5
56DD
330
8
100
AcDbSymbolTableRecord
100
AcDbRegAppTableRecord
  2
ACAD_MLEADERVER
 70
     0
  0
APPID
  5
5E9A
330
8
100
AcDbSymbolTableRecord
100
AcDbRegAppTableRecord
  2
ACAD_DSTYLE_DIMRADIAL_EXTENSION
 70
     0
  0
APPID
  5
5FB7
330
8
100
AcDbSymbolTableRecord
100
AcDbRegAppTableRecord
  2
PLOTTRANSPARENCY
 70
     0
  0
ENDTAB
  0
TABLE
  2
DIMSTYLE
  5
9
330
0
100
AcDbSymbolTable
 70
     1
100
AcDbDimStyleTable
  0
DIMSTYLE
105
57
102
{ACAD_REACTORS
330
52DD
330
52DE
330
52DF
330
5363
330
5366
330
5EF2
330
5F03
330
5F14
330
5F41
330
5F50
330
5F5F
330
5F6F
330
5F7E
330
5F8E
330
5F9F
102
}
330
9
100
AcDbSymbolTableRecord
100
AcDbDimStyleTableRecord
  2
tfrom線あり
 70
     0
  3
<>
  4
[]
 41
1.5
 42
5.0
 43
0.9999999999999999
 44
0.0
 73
     0
 74
     0
 77
     1
 78
    11
140
5.0
141
0.0
143
1.0
147
2.0
171
     1
174
     1
178
     0
179
     2
271
     0
272
     1
276
     2
284
    11
285
    11
286
    11
289
     0
340
39
341
4E
342
4E
  0
ENDTAB
  0
TABLE
  2
BLOCK_RECORD
  5
1
330
0
100
AcDbSymbolTable
 70
    19
  0
BLOCK_RECORD
  5
A
102
{ACAD_XDICTIONARY
360
577D
102
}
330
1
100
AcDbSymbolTableRecord
100
AcDbBlockTableRecord
  2
*MODEL_SPACE
340
20
 70
     0
280
     1
281
     0
  0
BLOCK_RECORD
  5
B
330
1
100
AcDbSymbolTableRecord
100
AcDbBlockTableRecord
  2
*PAPER_SPACE
340
21
 70
     0
280
     1
281
     0
  0
BLOCK_RECORD
  5
4E
330
1
100
AcDbSymbolTableRecord
100
AcDbBlockTableRecord
  2
_DOT
340
0
102
{BLKREFS
331
53CD
331
53CE
331
53D8
331
53D9
331
53E4
331
53E5
331
5EFD
331
5EFE
331
5F0C
331
5F0D
331
5F1D
331
5F1E
331
5F4A
331
5F4B
331
5F59
331
5F5A
331
5F68
331
5F69
331
5F78
331
5F79
331
5F87
331
5F88
331
5F97
331
5F98
331
5FA8
331
5FA9
102
}
 70
     0
280
     1
281
     0
  0
BLOCK_RECORD
  5
690
330
1
100
AcDbSymbolTableRecord
100
AcDbBlockTableRecord
  2
block 3
340
0
102
{BLKREFS
331
4F34
102
}
 70
     0
280
     1
281
     0
  0
BLOCK_RECORD
  5
693
330
1
100
AcDbSymbolTableRecord
100
AcDbBlockTableRecord
  2
block 4
340
0
102
{BLKREFS
331
692
102
}
 70
     0
280
     1
281
     0
  0
BLOCK_RECORD
  5
6A2
330
1
100
AcDbSymbolTableRecord
100
AcDbBlockTableRecord
  2
block 5
340
0
102
{BLKREFS
331
6A1
102
}
 70
     0
280
     1
281
     0
  0
BLOCK_RECORD
  5
4F2F
330
1
100
AcDbSymbolTableRecord
100
AcDbBlockTableRecord
  2
名称未設定-1
340
0
102
{BLKREFS
331
524B
102
}
 70
     1
280
     1
281
     0
  0
BLOCK_RECORD
  5
4F32
330
1
100
AcDbSymbolTableRecord
100
AcDbBlockTableRecord
  2
block 2
340
0
102
{BLKREFS
331
4F31
102
}
 70
     0
280
     1
281
     0
  0
BLOCK_RECORD
  5
53C6
330
1
100
AcDbSymbolTableRecord
100
AcDbBlockTableRecord
  2
*D6
340
0
 70
     0
280
     1
281
     0
  0
BLOCK_RECORD
  5
53D2
330
1
100
AcDbSymbolTableRecord
100
AcDbBlockTableRecord
  2
*D7
340
0
 70
     0
280
     1
281
     0
  0
BLOCK_RECORD
  5
53DE
330
1
100
AcDbSymbolTableRecord
100
AcDbBlockTableRecord
  2
*D8
340
0
 70
     0
280
     1
281
     0
  0
BLOCK_RECORD
  5
5EF5
330
1
100
AcDbSymbolTableRecord
100
AcDbBlockTableRecord
  2
*D9
340
0
 70
     0
280
     1
281
     0
  0
BLOCK_RECORD
  5
5F06
330
1
100
AcDbSymbolTableRecord
100
AcDbBlockTableRecord
  2
*D10
340
0
 70
     0
280
     1
281
     0
  0
BLOCK_RECORD
  5
5F17
330
1
100
AcDbSymbolTableRecord
100
AcDbBlockTableRecord
  2
*D11
340
0
 70
     0
280
     1
281
     0
  0
BLOCK_RECORD
  5
5F44
330
1
100
AcDbSymbolTableRecord
100
AcDbBlockTableRecord
  2
*D12
340
0
 70
     0
280
     1
281
     0
  0
BLOCK_RECORD
  5
5F53
330
1
100
AcDbSymbolTableRecord
100
AcDbBlockTableRecord
  2
*D13
340
0
 70
     0
280
     1
281
     0
  0
BLOCK_RECORD
  5
5F62
330
1
100
AcDbSymbolTableRecord
100
AcDbBlockTableRecord
  2
*D14
340
0
 70
     0
280
     1
281
     0
  0
BLOCK_RECORD
  5
5F72
330
1
100
AcDbSymbolTableRecord
100
AcDbBlockTableRecord
  2
*D15
340
0
 70
     0
280
     1
281
     0
  0
BLOCK_RECORD
  5
5F81
330
1
100
AcDbSymbolTableRecord
100
AcDbBlockTableRecord
  2
*D16
340
0
 70
     0
280
     1
281
     0
  0
BLOCK_RECORD
  5
5F91
330
1
100
AcDbSymbolTableRecord
100
AcDbBlockTableRecord
  2
*D17
340
0
 70
     0
280
     1
281
     0
  0
BLOCK_RECORD
  5
5FA2
330
1
100
AcDbSymbolTableRecord
100
AcDbBlockTableRecord
  2
*D18
340
0
 70
     0
280
     1
281
     0
  0
ENDTAB
  0
ENDSEC
  0
SECTION
  2
BLOCKS
  0
BLOCK
  5
D
330
A
100
AcDbEntity
  8
0
390
1D
100
AcDbBlockBegin
  2
*MODEL_SPACE
 70
     0
 10
0.0
 20
0.0
 30
0.0
  3
*MODEL_SPACE
  1
*MODEL_SPACE
  0
ENDBLK
  5
E
330
A
100
AcDbEntity
  8
0
390
1D
100
AcDbBlockEnd
  0
BLOCK
  5
F
330
B
100
AcDbEntity
 67
     1
  8
0
390
1D
100
AcDbBlockBegin
  2
*PAPER_SPACE
 70
     0
 10
0.0
 20
0.0
 30
0.0
  3
*PAPER_SPACE
  1
*PAPER_SPACE
  0
ENDBLK
  5
10
330
B
100
AcDbEntity
 67
     1
  8
0
390
1D
100
AcDbBlockEnd
  0
BLOCK
  5
5373
330
4E
100
AcDbEntity
  8
0
390
1D
100
AcDbBlockBegin
  2
_DOT
 70
     0
 10
0.0
 20
0.0
 30
0.0
  3
_DOT
  1
_DOT
  0
POLYLINE
  5
5375
330
4E
100
AcDbEntity
  8
0
  6
ByBlock
 62
     0
370
    -2
390
1D
100
AcDb2dPolyline
 66
     1
 10
0.0
 20
0.0
 30
0.0
 70
     1
 40
0.5
 41
0.5
  0
VERTEX
  5
5376
330
5375
100
AcDbEntity
  8
0
  6
ByBlock
 62
     0
370
    -2
390
1D
100
AcDbVertex
100
AcDb2dVertex
 10
-0.25
 20
0.0
 30
0.0
 42
1.0
  0
VERTEX
  5
5377
330
5375
100
AcDbEntity
  8
0
  6
ByBlock
 62
     0
370
    -2
390
1D
100
AcDbVertex
100
AcDb2dVertex
 10
0.25
 20
0.0
 30
0.0
 42
1.0
  0
SEQEND
  5
5378
330
5375
100
AcDbEntity
  8
0
390
1D
  0
LINE
  5
5379
330
4E
100
AcDbEntity
  8
0
  6
ByBlock
 62
     0
370
    -2
390
1D
100
AcDbLine
 10
-0.5
 20
0.0
 30
0.0
 11
-1.0
 21
0.0
 31
0.0
  0
ENDBLK
  5
537A
330
4E
100
AcDbEntity
  8
0
390
1D
100
AcDbBlockEnd
  0
BLOCK
  5
691
330
690
100
AcDbEntity
  8
0
100
AcDbBlockBegin
  2
block 3
 70
     0
 10
0.0
 20
0.0
 30
0.0
  3
block 3
  1
block 3
  0
INSERT
  5
692
330
690
100
AcDbEntity
  8
レイヤー 1
100
AcDbBlockReference
  2
block 4
 10
0.0
 20
0.0
 30
0.0
  0
ENDBLK
  5
6AF
330
690
100
AcDbEntity
  8
0
100
AcDbBlockEnd
  0
BLOCK
  5
694
330
693
100
AcDbEntity
  8
0
100
AcDbBlockBegin
  2
block 4
 70
     0
 10
0.0
 20
0.0
 30
0.0
  3
block 4
  1
block 4
  0
POLYLINE
  5
695
330
693
100
AcDbEntity
  8
レイヤー 1
370
     0
100
AcDb2dPolyline
 66
     1
 10
0.0
 20
0.0
 30
0.0
  0
VERTEX
  5
696
330
695
100
AcDbEntity
  8
レイヤー 1
370
     0
100
AcDbVertex
100
AcDb2dVertex
 10
83.79545727667795
 20
167.6444858234922
 30
0.0
  0
VERTEX
  5
697
330
695
100
AcDbEntity
  8
レイヤー 1
370
     0
100
AcDbVertex
100
AcDb2dVertex
 10
83.79545727667795
 20
159.7968976406313
 30
0.0
  0
VERTEX
  5
698
330
695
100
AcDbEntity
  8
レイヤー 1
370
     0
100
AcDbVertex
100
AcDb2dVertex
 10
71.3631329975216
 20
159.7968976406313
 30
0.0
  0
VERTEX
  5
699
330
695
100
AcDbEntity
  8
レイヤー 1
370
     0
100
AcDbVertex
100
AcDb2dVertex
 10
71.3631329975216
 20
127.8027915271048
 30
0.0
  0
VERTEX
  5
69A
330
695
100
AcDbEntity
  8
レイヤー 1
370
     0
100
AcDbVertex
100
AcDb2dVertex
 10
60.43011526263018
 20
127.8027915271048
 30
0.0
  0
VERTEX
  5
69B
330
695
100
AcDbEntity
  8
レイヤー 1
370
     0
100
AcDbVertex
100
AcDb2dVertex
 10
60.43011526263018
 20
159.7968976406313
 30
0.0
  0
VERTEX
  5
69C
330
695
100
AcDbEntity
  8
レイヤー 1
370
     0
100
AcDbVertex
100
AcDb2dVertex
 10
48.21793273020759
 20
159.7968976406313
 30
0.0
  0
VERTEX
  5
69D
330
695
100
AcDbEntity
  8
レイヤー 1
370
     0
100
AcDbVertex
100
AcDb2dVertex
 10
48.21793273020759
 20
167.6444858234922
 30
0.0
  0
VERTEX
  5
69E
330
695
100
AcDbEntity
  8
レイヤー 1
370
     0
100
AcDbVertex
100
AcDb2dVertex
 10
83.79545727667795
 20
167.6444858234922
 30
0.0
  0
SEQEND
  5
69F
330
695
100
AcDbEntity
  8
レイヤー 1
370
     0
  0
HATCH
  5
6A0
330
693
100
AcDbEntity
  8
レイヤー 1
 62
   250
420
  2234388
100
AcDbHatch
 10
0.0
 20
0.0
 30
0.0
210
0.0
220
0.0
230
1.0
  2
SOLID
 70
     1
 71
     0
 91
        1
 92
        1
 93
        8
 72
     1
 10
83.79545727667795
 20
167.6444858234922
 11
83.79545727667795
 21
159.7968976406313
 72
     1
 10
83.79545727667795
 20
159.7968976406313
 11
71.3631329975216
 21
159.7968976406313
 72
     1
 10
71.3631329975216
 20
159.7968976406313
 11
71.3631329975216
 21
127.8027915271048
 72
     1
 10
71.3631329975216
 20
127.8027915271048
 11
60.43011526263018
 21
127.8027915271048
 72
     1
 10
60.43011526263018
 20
127.8027915271048
 11
60.43011526263018
 21
159.7968976406313
 72
     1
 10
60.43011526263018
 20
159.7968976406313
 11
48.21793273020759
 21
159.7968976406313
 72
     1
 10
48.21793273020759
 20
159.7968976406313
 11
48.21793273020759
 21
167.6444858234922
 72
     1
 10
48.21793273020759
 20
167.6444858234922
 11
83.79545727667795
 21
167.6444858234922
 97
        0
 75
     2
 76
     1
 98
        0
  0
INSERT
  5
6A1
330
693
100
AcDbEntity
  8
レイヤー 1
100
AcDbBlockReference
  2
block 5
 10
0.0
 20
0.0
 30
0.0
  0
ENDBLK
  5
6AE
330
693
100
AcDbEntity
  8
0
100
AcDbBlockEnd
  0
BLOCK
  5
6A3
330
6A2
100
AcDbEntity
  8
0
100
AcDbBlockBegin
  2
block 5
 70
     0
 10
0.0
 20
0.0
 30
0.0
  3
block 5
  1
block 5
  0
SPLINE
  5
6A4
330
6A2
100
AcDbEntity
  8
レイヤー 1
370
     0
100
AcDbSpline
210
0.0
220
0.0
230
1.0
 70
    11
 71
     3
 72
    56
 73
    52
 74
     0
 42
0.000000001
 43
0.0000000001
 40
0.0
 40
0.0
 40
0.0
 40
0.0
 40
1.0
 40
1.0
 40
1.0
 40
2.0
 40
2.0
 40
2.0
 40
3.0
 40
3.0
 40
3.0
 40
4.0
 40
4.0
 40
4.0
 40
5.0
 40
5.0
 40
5.0
 40
6.0
 40
6.0
 40
6.0
 40
7.0
 40
7.0
 40
7.0
 40
8.0
 40
8.0
 40
8.0
 40
9.0
 40
9.0
 40
9.0
 40
10.0
 40
10.0
 40
10.0
 40
11.0
 40
11.0
 40
11.0
 40
12.0
 40
12.0
 40
12.0
 40
13.0
 40
13.0
 40
13.0
 40
14.0
 40
14.0
 40
14.0
 40
15.0
 40
15.0
 40
15.0
 40
16.0
 40
16.0
 40
16.0
 40
17.0
 40
17.0
 40
17.0
 40
17.0
 10
100.4504378777679
 20
166.69157178364
 30
0.0
 10
101.9848844191641
 20
167.1313385124438
 30
0.0
 10
103.9637485713373
 20
166.7649523658846
 30
0.0
 10
103.9637485713373
 20
166.7649523658846
 30
0.0
 10
103.9637485713373
 20
166.7649523658846
 30
0.0
 10
103.0132460999156
 20
163.911205638077
 30
0.0
 10
103.0132460999156
 20
163.911205638077
 30
0.0
 10
103.0132460999156
 20
163.911205638077
 30
0.0
 10
101.0674548862189
 20
164.3601018759394
 30
0.0
 10
99.57090442016032
 20
163.1805004036133
 30
0.0
 10
98.40508333886608
 20
162.258247733807
 30
0.0
 10
97.65301849830304
 20
159.804132345923
 30
0.0
 10
97.3598406791005
 20
158.8699940888517
 30
0.0
 10
97.3598406791005
 20
158.8699940888517
 30
0.0
 10
96.07137411762282
 20
154.9119212747295
 30
0.0
 10
96.07137411762282
 20
154.9119212747295
 30
0.0
 10
96.07137411762282
 20
154.9119212747295
 30
0.0
 10
100.3012651448482
 20
154.9119212747295
 30
0.0
 10
100.3012651448482
 20
154.9119212747295
 30
0.0
 10
100.3012651448482
 20
154.9119212747295
 30
0.0
 10
99.64152892419852
 20
152.4199098115079
 30
0.0
 10
99.64152892419852
 20
152.4199098115079
 30
0.0
 10
99.64152892419852
 20
152.4199098115079
 30
0.0
 10
95.38097652692731
 20
152.4199098115079
 30
0.0
 10
95.38097652692731
 20
152.4199098115079
 30
0.0
 10
95.38097652692731
 20
152.4199098115079
 30
0.0
 10
87.75353009080013
 20
127.8027915271048
 30
0.0
 10
87.75353009080013
 20
127.8027915271048
 30
0.0
 10
87.75353009080013
 20
127.8027915271048
 30
0.0
 10
85.36538832498108
 20
127.8027915271048
 30
0.0
 10
85.36538832498108
 20
127.8027915271048
 30
0.0
 10
85.36538832498108
 20
127.8027915271048
 30
0.0
 10
93.00006946639998
 20
152.4199098115079
 30
0.0
 10
93.00006946639998
 20
152.4199098115079
 30
0.0
 10
93.00006946639998
 20
152.4199098115079
 30
0.0
 10
89.85297266450198
 20
152.4199098115079
 30
0.0
 10
89.85297266450198
 20
152.4199098115079
 30
0.0
 10
89.85297266450198
 20
152.4199098115079
 30
0.0
 10
90.51270888515164
 20
154.9119212747295
 30
0.0
 10
90.51270888515164
 20
154.9119212747295
 30
0.0
 10
90.51270888515164
 20
154.9119212747295
 30
0.0
 10
93.6904670570955
 20
154.9119212747295
 30
0.0
 10
93.6904670570955
 20
154.9119212747295
 30
0.0
 10
93.6904670570955
 20
154.9119212747295
 30
0.0
 10
94.81598049462158
 20
158.3616699146644
 30
0.0
 10
94.81598049462158
 20
158.3616699146644
 30
0.0
 10
95.7237637538445
 20
161.2605474231013
 30
0.0
 10
96.4968436907311
 20
162.8139420021662
 30
0.0
 10
97.15657991138076
 20
163.9844139654337
 30
0.0
 10
97.81183750494507
 20
165.1523021053827
 30
0.0
 10
99.1047826935081
 20
166.3084769129547
 30
0.0
 10
100.4504378777679
 20
166.69157178364
 30
0.0
  0
HATCH
  5
6A5
330
6A2
100
AcDbEntity
  8
レイヤー 1
 62
   250
420
  2234388
100
AcDbHatch
 10
0.0
 20
0.0
 30
0.0
210
0.0
220
0.0
230
1.0
  2
SOLID
 70
     1
 71
     0
 91
        1
 92
        1
 93
        1
 72
     4
 94
        3
 73
     0
 74
     1
 95
       56
 96
       52
 40
0.0
 40
0.0
 40
0.0
 40
0.0
 40
1.0
 40
1.0
 40
1.0
 40
2.0
 40
2.0
 40
2.0
 40
3.0
 40
3.0
 40
3.0
 40
4.0
 40
4.0
 40
4.0
 40
5.0
 40
5.0
 40
5.0
 40
6.0
 40
6.0
 40
6.0
 40
7.0
 40
7.0
 40
7.0
 40
8.0
 40
8.0
 40
8.0
 40
9.0
 40
9.0
 40
9.0
 40
10.0
 40
10.0
 40
10.0
 40
11.0
 40
11.0
 40
11.0
 40
12.0
 40
12.0
 40
12.0
 40
13.0
 40
13.0
 40
13.0
 40
14.0
 40
14.0
 40
14.0
 40
15.0
 40
15.0
 40
15.0
 40
16.0
 40
16.0
 40
16.0
 40
17.0
 40
17.0
 40
17.0
 40
17.0
 10
100.4504378777679
 20
166.69157178364
 10
101.9848844191641
 20
167.1313385124438
 10
103.9637485713373
 20
166.7649523658846
 10
103.9637485713373
 20
166.7649523658846
 10
103.9637485713373
 20
166.7649523658846
 10
103.0132460999156
 20
163.911205638077
 10
103.0132460999156
 20
163.911205638077
 10
103.0132460999156
 20
163.911205638077
 10
101.0674548862189
 20
164.3601018759394
 10
99.57090442016032
 20
163.1805004036133
 10
98.40508333886608
 20
162.258247733807
 10
97.65301849830304
 20
159.804132345923
 10
97.3598406791005
 20
158.8699940888517
 10
97.3598406791005
 20
158.8699940888517
 10
96.07137411762282
 20
154.9119212747295
 10
96.07137411762282
 20
154.9119212747295
 10
96.07137411762282
 20
154.9119212747295
 10
100.3012651448482
 20
154.9119212747295
 10
100.3012651448482
 20
154.9119212747295
 10
100.3012651448482
 20
154.9119212747295
 10
99.64152892419852
 20
152.4199098115079
 10
99.64152892419852
 20
152.4199098115079
 10
99.64152892419852
 20
152.4199098115079
 10
95.38097652692731
 20
152.4199098115079
 10
95.38097652692731
 20
152.4199098115079
 10
95.38097652692731
 20
152.4199098115079
 10
87.75353009080013
 20
127.8027915271048
 10
87.75353009080013
 20
127.8027915271048
 10
87.75353009080013
 20
127.8027915271048
 10
85.36538832498108
 20
127.8027915271048
 10
85.36538832498108
 20
127.8027915271048
 10
85.36538832498108
 20
127.8027915271048
 10
93.00006946639998
 20
152.4199098115079
 10
93.00006946639998
 20
152.4199098115079
 10
93.00006946639998
 20
152.4199098115079
 10
89.85297266450198
 20
152.4199098115079
 10
89.85297266450198
 20
152.4199098115079
 10
89.85297266450198
 20
152.4199098115079
 10
90.51270888515164
 20
154.9119212747295
 10
90.51270888515164
 20
154.9119212747295
 10
90.51270888515164
 20
154.9119212747295
 10
93.6904670570955
 20
154.9119212747295
 10
93.6904670570955
 20
154.9119212747295
 10
93.6904670570955
 20
154.9119212747295
 10
94.81598049462158
 20
158.3616699146644
 10
94.81598049462158
 20
158.3616699146644
 10
95.7237637538445
 20
161.2605474231013
 10
96.4968436907311
 20
162.8139420021662
 10
97.15657991138076
 20
163.9844139654337
 10
97.81183750494507
 20
165.1523021053827
 10
99.1047826935081
 20
166.3084769129547
 10
100.4504378777679
 20
166.69157178364
 97
        0
 75
     2
 76
     1
 98
        0
  0
SPLINE
  5
6A6
330
6A2
100
AcDbEntity
  8
レイヤー 1
370
     0
100
AcDbSpline
210
0.0
220
0.0
230
1.0
 70
    11
 71
     3
 72
    38
 73
    34
 74
     0
 42
0.000000001
 43
0.0000000001
 40
0.0
 40
0.0
 40
0.0
 40
0.0
 40
1.0
 40
1.0
 40
1.0
 40
2.0
 40
2.0
 40
2.0
 40
3.0
 40
3.0
 40
3.0
 40
4.0
 40
4.0
 40
4.0
 40
5.0
 40
5.0
 40
5.0
 40
6.0
 40
6.0
 40
6.0
 40
7.0
 40
7.0
 40
7.0
 40
8.0
 40
8.0
 40
8.0
 40
9.0
 40
9.0
 40
9.0
 40
10.0
 40
10.0
 40
10.0
 40
11.0
 40
11.0
 40
11.0
 40
11.0
 10
126.377554584636
 20
154.8151140277308
 30
0.0
 10
126.377554584636
 20
154.8151140277308
 30
0.0
 10
128.8311532078563
 20
154.8151140277308
 30
0.0
 10
128.8311532078563
 20
154.8151140277308
 30
0.0
 10
128.8311532078563
 20
154.8151140277308
 30
0.0
 10
127.7345785914971
 20
151.3062819612468
 30
0.0
 10
127.7345785914971
 20
151.3062819612468
 30
0.0
 10
128.571392836906
 20
152.2922689395754
 30
0.0
 10
129.8860421413442
 20
153.604506675583
 30
0.0
 10
131.0163787157314
 20
154.2664822097754
 30
0.0
 10
132.7044766171327
 20
155.2500576196734
 30
0.0
 10
133.6642808525008
 20
155.3847609420097
 30
0.0
 10
134.7284715499351
 20
155.3565111403944
 30
0.0
 10
134.7284715499351
 20
155.3565111403944
 30
0.0
 10
133.6877075172549
 20
152.0345756272799
 30
0.0
 10
133.6877075172549
 20
152.0345756272799
 30
0.0
 10
133.011434827367
 20
152.3184516825359
 30
0.0
 10
130.930940291334
 20
151.7768823149844
 30
0.0
 10
129.739280976855
 20
150.9162968950455
 30
0.0
 10
128.66613302525
 20
150.1454562717016
 30
0.0
 10
127.9192358313239
 20
149.4857200510519
 30
0.0
 10
127.0393578639405
 20
147.8282835196966
 30
0.0
 10
126.164647543194
 20
146.1699857139017
 30
0.0
 10
125.4742499524985
 20
143.5262176944419
 30
0.0
 10
124.2822461282437
 20
139.6959580071401
 30
0.0
 10
124.2822461282437
 20
139.6959580071401
 30
0.0
 10
120.5753209406769
 20
127.8027915271048
 30
0.0
 10
120.5753209406769
 20
127.8027915271048
 30
0.0
 10
120.5753209406769
 20
127.8027915271048
 30
0.0
 10
118.1964809388044
 20
127.8027915271048
 30
0.0
 10
118.1964809388044
 20
127.8027915271048
 30
0.0
 10
118.1964809388044
 20
127.8027915271048
 30
0.0
 10
126.377554584636
 20
154.8151140277308
 30
0.0
 10
126.377554584636
 20
154.8151140277308
 30
0.0
  0
HATCH
  5
6A7
330
6A2
100
AcDbEntity
  8
レイヤー 1
 62
   250
420
  2234388
100
AcDbHatch
 10
0.0
 20
0.0
 30
0.0
210
0.0
220
0.0
230
1.0
  2
SOLID
 70
     1
 71
     0
 91
        1
 92
        1
 93
        1
 72
     4
 94
        3
 73
     0
 74
     1
 95
       38
 96
       34
 40
0.0
 40
0.0
 40
0.0
 40
0.0
 40
1.0
 40
1.0
 40
1.0
 40
2.0
 40
2.0
 40
2.0
 40
3.0
 40
3.0
 40
3.0
 40
4.0
 40
4.0
 40
4.0
 40
5.0
 40
5.0
 40
5.0
 40
6.0
 40
6.0
 40
6.0
 40
7.0
 40
7.0
 40
7.0
 40
8.0
 40
8.0
 40
8.0
 40
9.0
 40
9.0
 40
9.0
 40
10.0
 40
10.0
 40
10.0
 40
11.0
 40
11.0
 40
11.0
 40
11.0
 10
126.377554584636
 20
154.8151140277308
 10
126.377554584636
 20
154.8151140277308
 10
128.8311532078563
 20
154.8151140277308
 10
128.8311532078563
 20
154.8151140277308
 10
128.8311532078563
 20
154.8151140277308
 10
127.7345785914971
 20
151.3062819612468
 10
127.7345785914971
 20
151.3062819612468
 10
128.571392836906
 20
152.2922689395754
 10
129.8860421413442
 20
153.604506675583
 10
131.0163787157314
 20
154.2664822097754
 10
132.7044766171327
 20
155.2500576196734
 10
133.6642808525008
 20
155.3847609420097
 10
134.7284715499351
 20
155.3565111403944
 10
134.7284715499351
 20
155.3565111403944
 10
133.6877075172549
 20
152.0345756272799
 10
133.6877075172549
 20
152.0345756272799
 10
133.011434827367
 20
152.3184516825359
 10
130.930940291334
 20
151.7768823149844
 10
129.739280976855
 20
150.9162968950455
 10
128.66613302525
 20
150.1454562717016
 10
127.9192358313239
 20
149.4857200510519
 10
127.0393578639405
 20
147.8282835196966
 10
126.164647543194
 20
146.1699857139017
 10
125.4742499524985
 20
143.5262176944419
 10
124.2822461282437
 20
139.6959580071401
 10
124.2822461282437
 20
139.6959580071401
 10
120.5753209406769
 20
127.8027915271048
 10
120.5753209406769
 20
127.8027915271048
 10
120.5753209406769
 20
127.8027915271048
 10
118.1964809388044
 20
127.8027915271048
 10
118.1964809388044
 20
127.8027915271048
 10
118.1964809388044
 20
127.8027915271048
 10
126.377554584636
 20
154.8151140277308
 10
126.377554584636
 20
154.8151140277308
 97
        0
 75
     2
 76
     1
 98
        0
  0
SPLINE
  5
6A8
330
6A2
100
AcDbEntity
  8
レイヤー 1
370
     0
100
AcDbSpline
210
0.0
220
0.0
230
1.0
 70
    11
 71
     3
 72
   104
 73
   100
 74
     0
 42
0.000000001
 43
0.0000000001
 40
0.0
 40
0.0
 40
0.0
 40
0.0
 40
1.0
 40
1.0
 40
1.0
 40
2.0
 40
2.0
 40
2.0
 40
3.0
 40
3.0
 40
3.0
 40
4.0
 40
4.0
 40
4.0
 40
5.0
 40
5.0
 40
5.0
 40
6.0
 40
6.0
 40
6.0
 40
7.0
 40
7.0
 40
7.0
 40
8.0
 40
8.0
 40
8.0
 40
9.0
 40
9.0
 40
9.0
 40
10.0
 40
10.0
 40
10.0
 40
11.0
 40
11.0
 40
11.0
 40
12.0
 40
12.0
 40
12.0
 40
13.0
 40
13.0
 40
13.0
 40
14.0
 40
14.0
 40
14.0
 40
15.0
 40
15.0
 40
15.0
 40
16.0
 40
16.0
 40
16.0
 40
17.0
 40
17.0
 40
17.0
 40
18.0
 40
18.0
 40
18.0
 40
19.0
 40
19.0
 40
19.0
 40
20.0
 40
20.0
 40
20.0
 40
21.0
 40
21.0
 40
21.0
 40
22.0
 40
22.0
 40
22.0
 40
23.0
 40
23.0
 40
23.0
 40
24.0
 40
24.0
 40
24.0
 40
25.0
 40
25.0
 40
25.0
 40
26.0
 40
26.0
 40
26.0
 40
27.0
 40
27.0
 40
27.0
 40
28.0
 40
28.0
 40
28.0
 40
29.0
 40
29.0
 40
29.0
 40
30.0
 40
30.0
 40
30.0
 40
31.0
 40
31.0
 40
31.0
 40
32.0
 40
32.0
 40
32.0
 40
33.0
 40
33.0
 40
33.0
 40
33.0
 10
139.8926730891197
 20
154.8294111834263
 30
0.0
 10
139.8926730891197
 20
154.8294111834263
 30
0.0
 10
142.0344903652445
 20
154.8294111834263
 30
0.0
 10
142.0344903652445
 20
154.8294111834263
 30
0.0
 10
142.0344903652445
 20
154.8294111834263
 30
0.0
 10
140.9516961399171
 20
151.3157559800812
 30
0.0
 10
140.9516961399171
 20
151.3157559800812
 30
0.0
 10
141.8928968473923
 20
152.7887075264977
 30
0.0
 10
142.7341897198865
 20
153.4484437471474
 30
0.0
 10
143.8552245303272
 20
154.2926649527359
 30
0.0
 10
144.9803934580775
 20
155.1296514530327
 30
0.0
 10
146.3139908001845
 20
155.3044901642492
 30
0.0
 10
147.241066606852
 20
155.3044901642492
 30
0.0
 10
148.3855280820469
 20
155.3044901642492
 30
0.0
 10
149.4969166187653
 20
155.0752189084569
 30
0.0
 10
150.0784491203092
 20
153.8172414621372
 30
0.0
 10
150.5228667310863
 20
152.833838307127
 30
0.0
 10
150.5414702589793
 20
152.7201500811143
 30
0.0
 10
150.4140016419347
 20
150.7765981809602
 30
0.0
 10
151.5818897818837
 20
152.7699317437168
 30
0.0
 10
152.4424752018226
 20
153.6256940267945
 30
0.0
 10
153.9038856707499
 20
154.4507949398263
 30
0.0
 10
155.4455669174378
 20
155.3044901642492
 30
0.0
 10
156.339225275853
 20
155.3659851592288
 30
0.0
 10
157.3748216618963
 20
155.2147453676543
 30
0.0
 10
158.911679771723
 20
154.9877134254046
 30
0.0
 10
159.8859534176746
 20
154.4390816074493
 30
0.0
 10
160.3965169054045
 20
152.7816450760939
 30
0.0
 10
160.9070803931344
 20
151.1219692311958
 30
0.0
 10
160.6328506116007
 20
150.2303779314354
 30
0.0
 10
159.9992971339115
 20
147.597634224801
 30
0.0
 10
159.7105979417943
 20
146.4014962832367
 30
0.0
 10
159.2947746424084
 20
144.9400858143094
 30
0.0
 10
158.7463150793409
 20
143.2092687007094
 30
0.0
 10
158.7463150793409
 20
143.2092687007094
 30
0.0
 10
153.9038856707499
 20
127.8027915271048
 30
0.0
 10
153.9038856707499
 20
127.8027915271048
 30
0.0
 10
153.9038856707499
 20
127.8027915271048
 30
0.0
 10
151.3882752878863
 20
127.8027915271048
 30
0.0
 10
151.3882752878863
 20
127.8027915271048
 30
0.0
 10
151.3882752878863
 20
127.8027915271048
 30
0.0
 10
155.6250565106276
 20
141.2751908193897
 30
0.0
 10
155.6250565106276
 20
141.2751908193897
 30
0.0
 10
156.5094131050963
 20
144.0936252951782
 30
0.0
 10
157.109893644309
 20
146.1506931664571
 30
0.0
 10
157.4220195011804
 20
147.4415712963654
 30
0.0
 10
157.8095929989511
 20
149.0530157726519
 30
0.0
 10
157.9656559273867
 20
149.5826995529385
 30
0.0
 10
157.7816877071116
 20
150.7529992613181
 30
0.0
 10
157.6111553680925
 20
151.8430281919372
 30
0.0
 10
157.0582171779396
 20
152.5547853887321
 30
0.0
 10
156.1170164704645
 20
152.5547853887321
 30
0.0
 10
155.1096698860365
 20
152.5547853887321
 30
0.0
 10
154.2962823053817
 20
152.4412694176073
 30
0.0
 10
153.156643967048
 20
151.2945686288697
 30
0.0
 10
152.0170056287143
 20
150.1476955852443
 30
0.0
 10
151.076149431015
 20
148.7930831468137
 30
0.0
 10
150.3337308641742
 20
147.2290087646991
 30
0.0
 10
149.5957909244188
 20
145.6683794803425
 30
0.0
 10
148.8530278478023
 20
143.6822806228776
 30
0.0
 10
148.0964843801539
 20
141.2751908193897
 30
0.0
 10
148.0964843801539
 20
141.2751908193897
 30
0.0
 10
143.8552245303272
 20
127.8027915271048
 30
0.0
 10
143.8552245303272
 20
127.8027915271048
 30
0.0
 10
143.8552245303272
 20
127.8027915271048
 30
0.0
 10
141.486030802177
 20
127.8027915271048
 30
0.0
 10
141.486030802177
 20
127.8027915271048
 30
0.0
 10
141.486030802177
 20
127.8027915271048
 30
0.0
 10
146.3329388378533
 20
143.2092687007094
 30
0.0
 10
146.3329388378533
 20
143.2092687007094
 30
0.0
 10
146.8483254624444
 20
144.8408669988801
 30
0.0
 10
147.2314203331297
 20
146.1837661049335
 30
0.0
 10
147.4867020769946
 20
147.224185627838
 30
0.0
 10
147.9169947869641
 20
149.0197705792876
 30
0.0
 10
148.0306830129768
 20
150.2400242051577
 30
0.0
 10
147.709255392159
 20
151.3157559800812
 30
0.0
 10
147.3874832615654
 20
152.3916600098926
 30
0.0
 10
146.8245542879144
 20
152.6683013598569
 30
0.0
 10
145.8840425999909
 20
152.6683013598569
 30
0.0
 10
145.0989048209514
 20
152.6683013598569
 30
0.0
 10
144.3282364524954
 20
152.3275811915945
 30
0.0
 10
143.4531816219731
 20
151.6538923250251
 30
0.0
 10
142.34627171234
 20
150.8074318058939
 30
0.0
 10
141.901854101563
 20
150.1097995099067
 30
0.0
 10
141.3578731655808
 20
149.289521733736
 30
0.0
 10
140.6299240093235
 20
148.192602607601
 30
0.0
 10
140.2850697237515
 20
147.455696197173
 30
0.0
 10
139.6652966370942
 20
145.8385673095858
 30
0.0
 10
139.0506911970739
 20
144.2214384219986
 30
0.0
 10
138.463991048893
 20
142.3252566160164
 30
0.0
 10
138.0571250036777
 20
141.0154304484394
 30
0.0
 10
138.0571250036777
 20
141.0154304484394
 30
0.0
 10
133.9009590684727
 20
127.8027915271048
 30
0.0
 10
133.9009590684727
 20
127.8027915271048
 30
0.0
 10
133.9009590684727
 20
127.8027915271048
 30
0.0
 10
131.4180771143097
 20
127.8027915271048
 30
0.0
 10
131.4180771143097
 20
127.8027915271048
 30
0.0
 10
131.4180771143097
 20
127.8027915271048
 30
0.0
 10
139.8926730891197
 20
154.8294111834263
 30
0.0
 10
139.8926730891197
 20
154.8294111834263
 30
0.0
  0
HATCH
  5
6A9
330
6A2
100
AcDbEntity
  8
レイヤー 1
 62
   250
420
  2234388
100
AcDbHatch
 10
0.0
 20
0.0
 30
0.0
210
0.0
220
0.0
230
1.0
  2
SOLID
 70
     1
 71
     0
 91
        1
 92
        1
 93
        1
 72
     4
 94
        3
 73
     0
 74
     1
 95
      104
 96
      100
 40
0.0
 40
0.0
 40
0.0
 40
0.0
 40
1.0
 40
1.0
 40
1.0
 40
2.0
 40
2.0
 40
2.0
 40
3.0
 40
3.0
 40
3.0
 40
4.0
 40
4.0
 40
4.0
 40
5.0
 40
5.0
 40
5.0
 40
6.0
 40
6.0
 40
6.0
 40
7.0
 40
7.0
 40
7.0
 40
8.0
 40
8.0
 40
8.0
 40
9.0
 40
9.0
 40
9.0
 40
10.0
 40
10.0
 40
10.0
 40
11.0
 40
11.0
 40
11.0
 40
12.0
 40
12.0
 40
12.0
 40
13.0
 40
13.0
 40
13.0
 40
14.0
 40
14.0
 40
14.0
 40
15.0
 40
15.0
 40
15.0
 40
16.0
 40
16.0
 40
16.0
 40
17.0
 40
17.0
 40
17.0
 40
18.0
 40
18.0
 40
18.0
 40
19.0
 40
19.0
 40
19.0
 40
20.0
 40
20.0
 40
20.0
 40
21.0
 40
21.0
 40
21.0
 40
22.0
 40
22.0
 40
22.0
 40
23.0
 40
23.0
 40
23.0
 40
24.0
 40
24.0
 40
24.0
 40
25.0
 40
25.0
 40
25.0
 40
26.0
 40
26.0
 40
26.0
 40
27.0
 40
27.0
 40
27.0
 40
28.0
 40
28.0
 40
28.0
 40
29.0
 40
29.0
 40
29.0
 40
30.0
 40
30.0
 40
30.0
 40
31.0
 40
31.0
 40
31.0
 40
32.0
 40
32.0
 40
32.0
 40
33.0
 40
33.0
 40
33.0
 40
33.0
 10
139.8926730891197
 20
154.8294111834263
 10
139.8926730891197
 20
154.8294111834263
 10
142.0344903652445
 20
154.8294111834263
 10
142.0344903652445
 20
154.8294111834263
 10
142.0344903652445
 20
154.8294111834263
 10
140.9516961399171
 20
151.3157559800812
 10
140.9516961399171
 20
151.3157559800812
 10
141.8928968473923
 20
152.7887075264977
 10
142.7341897198865
 20
153.4484437471474
 10
143.8552245303272
 20
154.2926649527359
 10
144.9803934580775
 20
155.1296514530327
 10
146.3139908001845
 20
155.3044901642492
 10
147.241066606852
 20
155.3044901642492
 10
148.3855280820469
 20
155.3044901642492
 10
149.4969166187653
 20
155.0752189084569
 10
150.0784491203092
 20
153.8172414621372
 10
150.5228667310863
 20
152.833838307127
 10
150.5414702589793
 20
152.7201500811143
 10
150.4140016419347
 20
150.7765981809602
 10
151.5818897818837
 20
152.7699317437168
 10
152.4424752018226
 20
153.6256940267945
 10
153.9038856707499
 20
154.4507949398263
 10
155.4455669174378
 20
155.3044901642492
 10
156.339225275853
 20
155.3659851592288
 10
157.3748216618963
 20
155.2147453676543
 10
158.911679771723
 20
154.9877134254046
 10
159.8859534176746
 20
154.4390816074493
 10
160.3965169054045
 20
152.7816450760939
 10
160.9070803931344
 20
151.1219692311958
 10
160.6328506116007
 20
150.2303779314354
 10
159.9992971339115
 20
147.597634224801
 10
159.7105979417943
 20
146.4014962832367
 10
159.2947746424084
 20
144.9400858143094
 10
158.7463150793409
 20
143.2092687007094
 10
158.7463150793409
 20
143.2092687007094
 10
153.9038856707499
 20
127.8027915271048
 10
153.9038856707499
 20
127.8027915271048
 10
153.9038856707499
 20
127.8027915271048
 10
151.3882752878863
 20
127.8027915271048
 10
151.3882752878863
 20
127.8027915271048
 10
151.3882752878863
 20
127.8027915271048
 10
155.6250565106276
 20
141.2751908193897
 10
155.6250565106276
 20
141.2751908193897
 10
156.5094131050963
 20
144.0936252951782
 10
157.109893644309
 20
146.1506931664571
 10
157.4220195011804
 20
147.4415712963654
 10
157.8095929989511
 20
149.0530157726519
 10
157.9656559273867
 20
149.5826995529385
 10
157.7816877071116
 20
150.7529992613181
 10
157.6111553680925
 20
151.8430281919372
 10
157.0582171779396
 20
152.5547853887321
 10
156.1170164704645
 20
152.5547853887321
 10
155.1096698860365
 20
152.5547853887321
 10
154.2962823053817
 20
152.4412694176073
 10
153.156643967048
 20
151.2945686288697
 10
152.0170056287143
 20
150.1476955852443
 10
151.076149431015
 20
148.7930831468137
 10
150.3337308641742
 20
147.2290087646991
 10
149.5957909244188
 20
145.6683794803425
 10
148.8530278478023
 20
143.6822806228776
 10
148.0964843801539
 20
141.2751908193897
 10
148.0964843801539
 20
141.2751908193897
 10
143.8552245303272
 20
127.8027915271048
 10
143.8552245303272
 20
127.8027915271048
 10
143.8552245303272
 20
127.8027915271048
 10
141.486030802177
 20
127.8027915271048
 10
141.486030802177
 20
127.8027915271048
 10
141.486030802177
 20
127.8027915271048
 10
146.3329388378533
 20
143.2092687007094
 10
146.3329388378533
 20
143.2092687007094
 10
146.8483254624444
 20
144.8408669988801
 10
147.2314203331297
 20
146.1837661049335
 10
147.4867020769946
 20
147.224185627838
 10
147.9169947869641
 20
149.0197705792876
 10
148.0306830129768
 20
150.2400242051577
 10
147.709255392159
 20
151.3157559800812
 10
147.3874832615654
 20
152.3916600098926
 10
146.8245542879144
 20
152.6683013598569
 10
145.8840425999909
 20
152.6683013598569
 10
145.0989048209514
 20
152.6683013598569
 10
144.3282364524954
 20
152.3275811915945
 10
143.4531816219731
 20
151.6538923250251
 10
142.34627171234
 20
150.8074318058939
 10
141.901854101563
 20
150.1097995099067
 10
141.3578731655808
 20
149.289521733736
 10
140.6299240093235
 20
148.192602607601
 10
140.2850697237515
 20
147.455696197173
 10
139.6652966370942
 20
145.8385673095858
 10
139.0506911970739
 20
144.2214384219986
 10
138.463991048893
 20
142.3252566160164
 10
138.0571250036777
 20
141.0154304484394
 10
138.0571250036777
 20
141.0154304484394
 10
133.9009590684727
 20
127.8027915271048
 10
133.9009590684727
 20
127.8027915271048
 10
133.9009590684727
 20
127.8027915271048
 10
131.4180771143097
 20
127.8027915271048
 10
131.4180771143097
 20
127.8027915271048
 10
131.4180771143097
 20
127.8027915271048
 10
139.8926730891197
 20
154.8294111834263
 10
139.8926730891197
 20
154.8294111834263
 97
        0
 75
     2
 76
     1
 98
        0
  0
SPLINE
  5
6AA
330
6A2
100
AcDbEntity
  8
レイヤー 1
370
     0
100
AcDbSpline
210
0.0
220
0.0
230
1.0
 70
    11
 71
     3
 72
    29
 73
    25
 74
     0
 42
0.000000001
 43
0.0000000001
 40
0.0
 40
0.0
 40
0.0
 40
0.0
 40
1.0
 40
1.0
 40
1.0
 40
2.0
 40
2.0
 40
2.0
 40
3.0
 40
3.0
 40
3.0
 40
4.0
 40
4.0
 40
4.0
 40
5.0
 40
5.0
 40
5.0
 40
6.0
 40
6.0
 40
6.0
 40
7.0
 40
7.0
 40
7.0
 40
8.0
 40
8.0
 40
8.0
 40
8.0
 10
101.6420971922469
 20
132.8388354296931
 30
0.0
 10
101.630039350094
 20
134.7164137077823
 30
0.0
 10
102.2236296937908
 20
138.0598810818841
 30
0.0
 10
103.7487744712405
 20
142.5378191476827
 30
0.0
 10
105.819967243327
 20
148.5896501242061
 30
0.0
 10
107.0602024361932
 20
150.8074318058939
 30
0.0
 10
108.1522984254671
 20
151.8833358357054
 30
0.0
 10
109.741177511439
 20
153.4532668840085
 30
0.0
 10
111.8740375333931
 20
153.5290590346837
 30
0.0
 10
112.5075910110823
 20
153.4532668840085
 30
0.0
 10
113.4012493694975
 20
153.3490526768302
 30
0.0
 10
114.6683563248758
 20
152.7580461564518
 30
0.0
 10
114.7493161221879
 20
150.7838328862519
 30
0.0
 10
114.8106388622796
 20
149.0909118479895
 30
0.0
 10
114.3186789024427
 20
145.9191825971221
 30
0.0
 10
112.6164561002338
 20
140.9489400617108
 30
0.0
 10
110.6444821435766
 20
135.1746117095912
 30
0.0
 10
109.4669477299053
 20
132.8960240524753
 30
0.0
 10
108.5212683953448
 20
131.9072809959403
 30
0.0
 10
106.7346406980658
 20
130.0538184021569
 30
0.0
 10
104.8222669326213
 20
130.2336525051225
 30
0.0
 10
104.5408024457958
 20
130.2336525051225
 30
0.0
 10
104.1721769856939
 20
130.2336525051225
 30
0.0
 10
101.6465758193322
 20
130.6305277668397
 30
0.0
 10
101.6420971922469
 20
132.8388354296931
 30
0.0
  0
SPLINE
  5
6AB
330
6A2
100
AcDbEntity
  8
レイヤー 1
370
     0
100
AcDbSpline
210
0.0
220
0.0
230
1.0
 70
    11
 71
     3
 72
    32
 73
    28
 74
     0
 42
0.000000001
 43
0.0000000001
 40
0.0
 40
0.0
 40
0.0
 40
0.0
 40
1.0
 40
1.0
 40
1.0
 40
2.0
 40
2.0
 40
2.0
 40
3.0
 40
3.0
 40
3.0
 40
4.0
 40
4.0
 40
4.0
 40
5.0
 40
5.0
 40
5.0
 40
6.0
 40
6.0
 40
6.0
 40
7.0
 40
7.0
 40
7.0
 40
8.0
 40
8.0
 40
8.0
 40
9.0
 40
9.0
 40
9.0
 40
9.0
 10
106.2595617172429
 20
153.4105476718098
 30
0.0
 10
104.8222669326213
 20
151.5474388043041
 30
0.0
 10
103.7177685914188
 20
149.8758773721411
 30
0.0
 10
101.9232171692965
 20
144.6141795664062
 30
0.0
 10
100.2754269116635
 20
139.7999999594306
 30
0.0
 10
99.22777268346732
 20
136.3052927937542
 30
0.0
 10
99.06964269637689
 20
132.039572749846
 30
0.0
 10
98.94665270641765
 20
128.8673267343149
 30
0.0
 10
100.8807305877373
 20
127.8027915271048
 30
0.0
 10
103.7129454545577
 20
127.8027915271048
 30
0.0
 10
104.9352661390825
 20
127.8027915271048
 30
0.0
 10
108.0151835347002
 20
127.8827177950895
 30
0.0
 10
110.2045431598849
 20
130.5926316915021
 30
0.0
 10
111.7417457794874
 20
132.4984597712065
 30
0.0
 10
113.155269389579
 20
134.475256864725
 30
0.0
 10
115.0562743324223
 20
140.9489400617108
 30
0.0
 10
116.6361961642235
 20
146.3680788349845
 30
0.0
 10
117.7282921534974
 20
149.8639917848761
 30
0.0
 10
117.6480213757369
 20
151.8595646611754
 30
0.0
 10
117.6480213757369
 20
151.8595646611754
 30
0.0
 10
117.6480213757369
 20
151.8595646611754
 30
0.0
 10
117.6480213757369
 20
151.8595646611754
 30
0.0
 10
117.13229024137
 20
155.18150017429
 30
0.0
 10
114.7162431837115
 20
155.886194920681
 30
0.0
 10
113.3351034925446
 20
155.886194920681
 30
0.0
 10
111.9829026225447
 20
155.886194920681
 30
0.0
 10
108.3414342923792
 20
156.1251124501957
 30
0.0
 10
106.2595617172429
 20
153.4105476718098
 30
0.0
  0
HATCH
  5
6AC
330
6A2
100
AcDbEntity
  8
レイヤー 1
 62
   250
420
  2234388
100
AcDbHatch
 10
0.0
 20
0.0
 30
0.0
210
0.0
220
0.0
230
1.0
  2
SOLID
 70
     1
 71
     0
 91
        2
 92
        1
 93
        1
 72
     4
 94
        3
 73
     0
 74
     1
 95
       29
 96
       25
 40
0.0
 40
0.0
 40
0.0
 40
0.0
 40
1.0
 40
1.0
 40
1.0
 40
2.0
 40
2.0
 40
2.0
 40
3.0
 40
3.0
 40
3.0
 40
4.0
 40
4.0
 40
4.0
 40
5.0
 40
5.0
 40
5.0
 40
6.0
 40
6.0
 40
6.0
 40
7.0
 40
7.0
 40
7.0
 40
8.0
 40
8.0
 40
8.0
 40
8.0
 10
101.6420971922469
 20
132.8388354296931
 10
101.630039350094
 20
134.7164137077823
 10
102.2236296937908
 20
138.0598810818841
 10
103.7487744712405
 20
142.5378191476827
 10
105.819967243327
 20
148.5896501242061
 10
107.0602024361932
 20
150.8074318058939
 10
108.1522984254671
 20
151.8833358357054
 10
109.741177511439
 20
153.4532668840085
 10
111.8740375333931
 20
153.5290590346837
 10
112.5075910110823
 20
153.4532668840085
 10
113.4012493694975
 20
153.3490526768302
 10
114.6683563248758
 20
152.7580461564518
 10
114.7493161221879
 20
150.7838328862519
 10
114.8106388622796
 20
149.0909118479895
 10
114.3186789024427
 20
145.9191825971221
 10
112.6164561002338
 20
140.9489400617108
 10
110.6444821435766
 20
135.1746117095912
 10
109.4669477299053
 20
132.8960240524753
 10
108.5212683953448
 20
131.9072809959403
 10
106.7346406980658
 20
130.0538184021569
 10
104.8222669326213
 20
130.2336525051225
 10
104.5408024457958
 20
130.2336525051225
 10
104.1721769856939
 20
130.2336525051225
 10
101.6465758193322
 20
130.6305277668397
 10
101.6420971922469
 20
132.8388354296931
 97
        0
 92
        1
 93
        1
 72
     4
 94
        3
 73
     0
 74
     1
 95
       32
 96
       28
 40
0.0
 40
0.0
 40
0.0
 40
0.0
 40
1.0
 40
1.0
 40
1.0
 40
2.0
 40
2.0
 40
2.0
 40
3.0
 40
3.0
 40
3.0
 40
4.0
 40
4.0
 40
4.0
 40
5.0
 40
5.0
 40
5.0
 40
6.0
 40
6.0
 40
6.0
 40
7.0
 40
7.0
 40
7.0
 40
8.0
 40
8.0
 40
8.0
 40
9.0
 40
9.0
 40
9.0
 40
9.0
 10
106.2595617172429
 20
153.4105476718098
 10
104.8222669326213
 20
151.5474388043041
 10
103.7177685914188
 20
149.8758773721411
 10
101.9232171692965
 20
144.6141795664062
 10
100.2754269116635
 20
139.7999999594306
 10
99.22777268346732
 20
136.3052927937542
 10
99.06964269637689
 20
132.039572749846
 10
98.94665270641765
 20
128.8673267343149
 10
100.8807305877373
 20
127.8027915271048
 10
103.7129454545577
 20
127.8027915271048
 10
104.9352661390825
 20
127.8027915271048
 10
108.0151835347002
 20
127.8827177950895
 10
110.2045431598849
 20
130.5926316915021
 10
111.7417457794874
 20
132.4984597712065
 10
113.155269389579
 20
134.475256864725
 10
115.0562743324223
 20
140.9489400617108
 10
116.6361961642235
 20
146.3680788349845
 10
117.7282921534974
 20
149.8639917848761
 10
117.6480213757369
 20
151.8595646611754
 10
117.6480213757369
 20
151.8595646611754
 10
117.6480213757369
 20
151.8595646611754
 10
117.6480213757369
 20
151.8595646611754
 10
117.13229024137
 20
155.18150017429
 10
114.7162431837115
 20
155.886194920681
 10
113.3351034925446
 20
155.886194920681
 10
111.9829026225447
 20
155.886194920681
 10
108.3414342923792
 20
156.1251124501957
 10
106.2595617172429
 20
153.4105476718098
 97
        0
 75
     2
 76
     1
 98
        0
  0
ENDBLK
  5
6AD
330
6A2
100
AcDbEntity
  8
0
100
AcDbBlockEnd
  0
BLOCK
  5
4F30
330
4F2F
100
AcDbEntity
  8
0
100
AcDbBlockBegin
  2
名称未設定-1
 70
     0
 10
0.0
 20
0.0
 30
0.0
  3
名称未設定-1
  1
名称未設定-1
  0
INSERT
  5
4F31
330
4F2F
100
AcDbEntity
  8
TFORMLOGO
100
AcDbBlockReference
  2
block 2
 10
0.0
 20
0.0
 30
0.0
  0
ENDBLK
  5
4F56
330
4F2F
100
AcDbEntity
  8
0
100
AcDbBlockEnd
  0
BLOCK
  5
4F33
330
4F32
100
AcDbEntity
  8
0
100
AcDbBlockBegin
  2
block 2
 70
     0
 10
0.0
 20
0.0
 30
0.0
  3
block 2
  1
block 2
  0
INSERT
  5
4F34
330
4F32
100
AcDbEntity
  8
TFORMLOGO
100
AcDbBlockReference
  2
block 3
 10
0.0
 20
0.0
 30
0.0
  0
ENDBLK
  5
4F55
330
4F32
100
AcDbEntity
  8
0
100
AcDbBlockEnd
  0
BLOCK
  5
53C7
330
53C6
100
AcDbEntity
  8
0
100
AcDbBlockBegin
  2
*D6
 70
     1
 10
0.0
 20
0.0
 30
0.0
  3
*D6
  1
*D40
  0
LINE
  5
53C9
330
53C6
100
AcDbEntity
  8
寸法
 62
     0
370
    -2
100
AcDbLine
 10
427.8721245115549
 20
172.3452081951892
 30
0.0
 11
427.8721245115549
 21
144.5573006134969
 31
0.0
  0
LINE
  5
53CA
330
53C6
100
AcDbEntity
  8
寸法
 62
     0
370
    -2
100
AcDbLine
 10
389.8721245115548
 20
172.3452081951892
 30
0.0
 11
389.8721245115548
 21
144.5573006134969
 31
0.0
  0
LINE
  5
53CB
330
53C6
100
AcDbEntity
  8
寸法
 62
     0
370
    -2
100
AcDbLine
 10
389.8721245115548
 20
144.5573006134969
 30
0.0
 11
376.2146245115548
 21
144.5573006134969
 31
0.0
  0
LINE
  5
53CC
330
53C6
100
AcDbEntity
  8
寸法
 62
     0
370
    -2
100
AcDbLine
 10
426.3721245115549
 20
144.5573006134969
 30
0.0
 11
391.3721245115548
 21
144.5573006134969
 31
0.0
  0
INSERT
  5
53CD
330
53C6
100
AcDbEntity
  8
寸法
 62
     0
370
    -2
100
AcDbBlockReference
  2
_DOT
 10
427.8721245115549
 20
144.5573006134969
 30
0.0
 41
1.5
 42
1.5
 43
1.5
  0
INSERT
  5
53CE
330
53C6
100
AcDbEntity
  8
寸法
 62
     0
370
    -2
100
AcDbBlockReference
  2
_DOT
 10
389.8721245115548
 20
144.5573006134969
 30
0.0
 41
1.5
 42
1.5
 43
1.5
 50
180.0
  0
POINT
  5
53CF
330
53C6
100
AcDbEntity
  8
Defpoints
 62
     0
100
AcDbPoint
 10
427.8721245115549
 20
177.3452081951892
 30
0.0
  0
POINT
  5
53D0
330
53C6
100
AcDbEntity
  8
Defpoints
 62
     0
100
AcDbPoint
 10
389.8721245115548
 20
177.3452081951892
 30
0.0
  0
POINT
  5
53D1
330
53C6
100
AcDbEntity
  8
Defpoints
 62
     0
100
AcDbPoint
 10
389.8721245115548
 20
144.5573006134969
 30
0.0
  0
ENDBLK
  5
53C8
330
53C6
100
AcDbEntity
  8
0
100
AcDbBlockEnd
  0
BLOCK
  5
53D3
330
53D2
100
AcDbEntity
  8
0
100
AcDbBlockBegin
  2
*D7
 70
     1
 10
0.0
 20
0.0
 30
0.0
  3
*D7
  1
*D41
  0
LINE
  5
53D5
330
53D2
100
AcDbEntity
  8
寸法
 62
     0
370
    -2
100
AcDbLine
 10
389.8721245115548
 20
191.0157099566222
 30
0.0
 11
389.8721245115548
 21
213.8023335341041
 31
0.0
  0
LINE
  5
53D6
330
53D2
100
AcDbEntity
  8
寸法
 62
     0
370
    -2
100
AcDbLine
 10
408.8721245115548
 20
205.1912224768318
 30
0.0
 11
408.8721245115548
 21
213.8023335341041
 31
0.0
  0
LINE
  5
53D7
330
53D2
100
AcDbEntity
  8
寸法
 62
     0
370
    -2
100
AcDbLine
 10
391.3721245115548
 20
213.8023335341041
 30
0.0
 11
407.3721245115548
 21
213.8023335341041
 31
0.0
  0
INSERT
  5
53D8
330
53D2
100
AcDbEntity
  8
寸法
 62
     0
370
    -2
100
AcDbBlockReference
  2
_DOT
 10
389.8721245115548
 20
213.8023335341041
 30
0.0
 41
1.5
 42
1.5
 43
1.5
 50
180.0
  0
INSERT
  5
53D9
330
53D2
100
AcDbEntity
  8
寸法
 62
     0
370
    -2
100
AcDbBlockReference
  2
_DOT
 10
408.8721245115548
 20
213.8023335341041
 30
0.0
 41
1.5
 42
1.5
 43
1.5
  0
MTEXT
  5
53DA
330
53D2
100
AcDbEntity
  8
寸法
  6
Continuous
 62
     0
100
AcDbMText
 10
399.3721245115548
 20
218.3023335341041
 30
0.0
 40
5.0
 41
0.0
 46
0.0
 71
     5
 72
     1
  1
\A1;19
  7
ＭＳ ゴシック
 73
     1
 44
1.0
  0
POINT
  5
53DB
330
53D2
100
AcDbEntity
  8
Defpoints
 62
     0
100
AcDbPoint
 10
389.8721245115548
 20
186.0157099566222
 30
0.0
  0
POINT
  5
53DC
330
53D2
100
AcDbEntity
  8
Defpoints
 62
     0
100
AcDbPoint
 10
408.8721245115548
 20
200.1912224768318
 30
0.0
  0
POINT
  5
53DD
330
53D2
100
AcDbEntity
  8
Defpoints
 62
     0
100
AcDbPoint
 10
408.8721245115548
 20
213.8023335341041
 30
0.0
  0
ENDBLK
  5
53D4
330
53D2
100
AcDbEntity
  8
0
100
AcDbBlockEnd
  0
BLOCK
  5
53DF
330
53DE
100
AcDbEntity
  8
0
100
AcDbBlockBegin
  2
*D8
 70
     1
 10
0.0
 20
0.0
 30
0.0
  3
*D8
  1
*D42
  0
LINE
  5
53E1
330
53DE
100
AcDbEntity
  8
寸法
 62
     0
370
    -2
100
AcDbLine
 10
408.8721245115548
 20
205.1912224768318
 30
0.0
 11
408.8721245115548
 21
213.8023335341041
 31
0.0
  0
LINE
  5
53E2
330
53DE
100
AcDbEntity
  8
寸法
 62
     0
370
    -2
100
AcDbLine
 10
427.8721245115549
 20
191.0157099566222
 30
0.0
 11
427.8721245115549
 21
213.8023335341041
 31
0.0
  0
LINE
  5
53E3
330
53DE
100
AcDbEntity
  8
寸法
 62
     0
370
    -2
100
AcDbLine
 10
410.3721245115548
 20
213.8023335341041
 30
0.0
 11
426.3721245115549
 21
213.8023335341041
 31
0.0
  0
INSERT
  5
53E4
330
53DE
100
AcDbEntity
  8
寸法
 62
     0
370
    -2
100
AcDbBlockReference
  2
_DOT
 10
408.8721245115548
 20
213.8023335341041
 30
0.0
 41
1.5
 42
1.5
 43
1.5
 50
180.0
  0
INSERT
  5
53E5
330
53DE
100
AcDbEntity
  8
寸法
 62
     0
370
    -2
100
AcDbBlockReference
  2
_DOT
 10
427.8721245115549
 20
213.8023335341041
 30
0.0
 41
1.5
 42
1.5
 43
1.5
  0
MTEXT
  5
53E6
330
53DE
100
AcDbEntity
  8
寸法
  6
Continuous
 62
     0
100
AcDbMText
 10
418.3721245115548
 20
218.3023335341041
 30
0.0
 40
5.0
 41
0.0
 46
0.0
 71
     5
 72
     1
  1
\A1;19
  7
ＭＳ ゴシック
 73
     1
 44
1.0
  0
POINT
  5
53E7
330
53DE
100
AcDbEntity
  8
Defpoints
 62
     0
100
AcDbPoint
 10
408.8721245115548
 20
200.1912224768318
 30
0.0
  0
POINT
  5
53E8
330
53DE
100
AcDbEntity
  8
Defpoints
 62
     0
100
AcDbPoint
 10
427.8721245115549
 20
186.0157099566222
 30
0.0
  0
POINT
  5
53E9
330
53DE
100
AcDbEntity
  8
Defpoints
 62
     0
100
AcDbPoint
 10
427.8721245115549
 20
213.8023335341041
 30
0.0
  0
ENDBLK
  5
53E0
330
53DE
100
AcDbEntity
  8
0
100
AcDbBlockEnd
  0
BLOCK
  5
5EF6
330
5EF5
100
AcDbEntity
  8
0
100
AcDbBlockBegin
  2
*D9
 70
     1
 10
0.0
 20
0.0
 30
0.0
  3
*D9
  1

  0
LINE
  5
5EF8
330
5EF5
100
AcDbEntity
  8
寸法
  6
Continuous
 62
     0
370
    -2
100
AcDbLine
 10
127.1816507401139
 20
148.2807838528878
 30
0.0
 11
127.1816507401139
 21
140.0657547025723
 31
0.0
  0
LINE
  5
5EF9
330
5EF5
100
AcDbEntity
  8
寸法
  6
Continuous
 62
     0
370
    -2
100
AcDbLine
 10
135.481650740133
 20
162.6807838528751
 30
0.0
 11
135.481650740133
 21
140.0657547025723
 31
0.0
  0
LINE
  5
5EFA
330
5EF5
100
AcDbEntity
  8
寸法
  6
Continuous
 62
     0
370
    -2
100
AcDbLine
 10
135.481650740133
 20
140.0657547025723
 30
0.0
 11
145.8300275343415
 21
140.0657547025723
 31
0.0
  0
LINE
  5
5EFB
330
5EF5
100
AcDbEntity
  8
寸法
  6
Continuous
 62
     0
370
    -2
100
AcDbLine
 10
128.6816507401139
 20
140.0657547025723
 30
0.0
 11
133.981650740133
 21
140.0657547025723
 31
0.0
  0
LINE
  5
5EFC
330
5EF5
100
AcDbEntity
  8
寸法
  6
Continuous
 62
     0
370
    -2
100
AcDbLine
 10
133.981650740133
 20
140.0657547025723
 30
0.0
 11
132.481650740133
 21
140.0657547025723
 31
0.0
  0
INSERT
  5
5EFD
330
5EF5
100
AcDbEntity
  8
寸法
 62
     0
370
    -2
100
AcDbBlockReference
  2
_DOT
 10
127.1816507401139
 20
140.0657547025723
 30
0.0
 41
1.5
 42
1.5
 43
1.5
 50
180.0
  0
INSERT
  5
5EFE
330
5EF5
100
AcDbEntity
  8
寸法
 62
     0
370
    -2
100
AcDbBlockReference
  2
_DOT
 10
135.481650740133
 20
140.0657547025723
 30
0.0
 41
1.5
 42
1.5
 43
1.5
  0
MTEXT
  5
5EFF
330
5EF5
100
AcDbEntity
  8
寸法
  6
Continuous
 62
     0
100
AcDbMText
 10
142.5102357374176
 20
144.5657547025723
 30
0.0
 40
5.0
 41
0.0
 46
0.0
 71
     5
 72
     1
  1
\A1;8
  7
ＭＳ ゴシック
 73
     1
 44
1.0
  0
POINT
  5
5F00
330
5EF5
100
AcDbEntity
  8
Defpoints
 62
     0
100
AcDbPoint
 10
127.1816507401139
 20
153.2807838528878
 30
0.0
  0
POINT
  5
5F01
330
5EF5
100
AcDbEntity
  8
Defpoints
 62
     0
100
AcDbPoint
 10
135.481650740133
 20
167.6807838528751
 30
0.0
  0
POINT
  5
5F02
330
5EF5
100
AcDbEntity
  8
Defpoints
 62
     0
100
AcDbPoint
 10
135.481650740133
 20
140.0657547025723
 30
0.0
  0
ENDBLK
  5
5EF7
330
5EF5
100
AcDbEntity
  8
0
100
AcDbBlockEnd
  0
BLOCK
  5
5F07
330
5F06
100
AcDbEntity
  8
0
100
AcDbBlockBegin
  2
*D10
 70
     1
 10
0.0
 20
0.0
 30
0.0
  3
*D10
  1

  0
LINE
  5
5F09
330
5F06
100
AcDbEntity
  8
寸法
  6
Continuous
 62
     0
370
    -2
100
AcDbLine
 10
252.6628579226489
 20
279.1904027647885
 30
0.0
 11
252.6628579226489
 21
251.8101055599039
 31
0.0
  0
LINE
  5
5F0A
330
5F06
100
AcDbEntity
  8
寸法
  6
Continuous
 62
     0
370
    -2
100
AcDbLine
 10
114.0721240129381
 20
303.7883171100279
 30
0.0
 11
114.0721240129381
 21
251.8101055599039
 31
0.0
  0
LINE
  5
5F0B
330
5F06
100
AcDbEntity
  8
寸法
  6
Continuous
 62
     0
370
    -2
100
AcDbLine
 10
251.1628579226489
 20
251.8101055599039
 30
0.0
 11
115.5721240129381
 21
251.8101055599039
 31
0.0
  0
INSERT
  5
5F0C
330
5F06
100
AcDbEntity
  8
寸法
 62
     0
370
    -2
100
AcDbBlockReference
  2
_DOT
 10
252.6628579226489
 20
251.8101055599039
 30
0.0
 41
1.5
 42
1.5
 43
1.5
  0
INSERT
  5
5F0D
330
5F06
100
AcDbEntity
  8
寸法
 62
     0
370
    -2
100
AcDbBlockReference
  2
_DOT
 10
114.0721240129381
 20
251.8101055599039
 30
0.0
 41
1.5
 42
1.5
 43
1.5
 50
180.0
  0
MTEXT
  5
5F0E
330
5F06
100
AcDbEntity
  8
寸法
  6
Continuous
 62
     0
100
AcDbMText
 10
183.3674909677935
 20
256.3110434115982
 30
0.0
 40
5.0
 41
0.0
 46
0.0
 71
     5
 72
     1
  1
\A1;139
  7
ＭＳ ゴシック
 73
     1
 44
1.0
  0
POINT
  5
5F0F
330
5F06
100
AcDbEntity
  8
Defpoints
 62
     0
100
AcDbPoint
 10
252.6628579226489
 20
284.1904027647885
 30
0.0
  0
POINT
  5
5F10
330
5F06
100
AcDbEntity
  8
Defpoints
 62
     0
100
AcDbPoint
 10
114.0721240129381
 20
308.7883171100279
 30
0.0
  0
POINT
  5
5F11
330
5F06
100
AcDbEntity
  8
Defpoints
 62
     0
100
AcDbPoint
 10
114.0721240129381
 20
251.8101055599039
 30
0.0
  0
ENDBLK
  5
5F08
330
5F06
100
AcDbEntity
  8
0
100
AcDbBlockEnd
  0
BLOCK
  5
5F18
330
5F17
100
AcDbEntity
  8
0
100
AcDbBlockBegin
  2
*D11
 70
     1
 10
0.0
 20
0.0
 30
0.0
  3
*D11
  1

  0
LINE
  5
5F1A
330
5F17
100
AcDbEntity
  8
寸法
  6
Continuous
 62
     0
370
    -2
100
AcDbLine
 10
257.2662542053666
 20
301.5141563667228
 30
0.0
 11
275.1161537701058
 21
301.5141563667228
 31
0.0
  0
LINE
  5
5F1B
330
5F17
100
AcDbEntity
  8
寸法
  6
Continuous
 62
     0
370
    -2
100
AcDbLine
 10
257.6628579226489
 20
273.2325895265203
 30
0.0
 11
275.1161537701058
 21
273.2325895265203
 31
0.0
  0
LINE
  5
5F1C
330
5F17
100
AcDbEntity
  8
寸法
  6
Continuous
 62
     0
370
    -2
100
AcDbLine
 10
275.1161537701058
 20
300.0141563667228
 30
0.0
 11
275.1161537701058
 21
274.7325895265203
 31
0.0
  0
INSERT
  5
5F1D
330
5F17
100
AcDbEntity
  8
寸法
 62
     0
370
    -2
100
AcDbBlockReference
  2
_DOT
 10
275.1161537701058
 20
301.5141563667228
 30
0.0
 41
1.5
 42
1.5
 43
1.5
 50
90.0
  0
INSERT
  5
5F1E
330
5F17
100
AcDbEntity
  8
寸法
 62
     0
370
    -2
100
AcDbBlockReference
  2
_DOT
 10
275.1161537701058
 20
273.2325895265203
 30
0.0
 41
1.5
 42
1.5
 43
1.5
 50
270.0
  0
MTEXT
  5
5F1F
330
5F17
100
AcDbEntity
  8
寸法
  6
Continuous
 62
     0
100
AcDbMText
 10
270.6152159184114
 20
287.3733729466215
 30
0.0
 40
5.0
 41
0.0
 46
0.0
 71
     5
 72
     1
  1
\A1;28
  7
ＭＳ ゴシック
 11
0.0
 21
1.0
 31
0.0
 73
     1
 44
1.0
  0
POINT
  5
5F20
330
5F17
100
AcDbEntity
  8
Defpoints
 62
     0
100
AcDbPoint
 10
252.2662542053666
 20
301.5141563667228
 30
0.0
  0
POINT
  5
5F21
330
5F17
100
AcDbEntity
  8
Defpoints
 62
     0
100
AcDbPoint
 10
252.6628579226489
 20
273.2325895265203
 30
0.0
  0
POINT
  5
5F22
330
5F17
100
AcDbEntity
  8
Defpoints
 62
     0
100
AcDbPoint
 10
275.1161537701058
 20
273.2325895265203
 30
0.0
  0
ENDBLK
  5
5F19
330
5F17
100
AcDbEntity
  8
0
100
AcDbBlockEnd
  0
BLOCK
  5
5F45
330
5F44
100
AcDbEntity
  8
0
100
AcDbBlockBegin
  2
*D12
 70
     1
 10
0.0
 20
0.0
 30
0.0
  3
*D12
  1

  0
LINE
  5
5F47
330
5F44
100
AcDbEntity
  8
寸法
  6
Continuous
 62
     0
370
    -2
100
AcDbLine
 10
108.1825120145531
 20
356.7293032847666
 30
0.0
 11
108.1825120145531
 21
375.5755402277074
 31
0.0
  0
LINE
  5
5F48
330
5F44
100
AcDbEntity
  8
寸法
  6
Continuous
 62
     0
370
    -2
100
AcDbLine
 10
146.1825120145531
 20
356.7293032847666
 30
0.0
 11
146.1825120145531
 21
375.5755402277074
 31
0.0
  0
LINE
  5
5F49
330
5F44
100
AcDbEntity
  8
寸法
  6
Continuous
 62
     0
370
    -2
100
AcDbLine
 10
109.6825120145531
 20
375.5755402277074
 30
0.0
 11
144.6825120145531
 21
375.5755402277074
 31
0.0
  0
INSERT
  5
5F4A
330
5F44
100
AcDbEntity
  8
寸法
 62
     0
370
    -2
100
AcDbBlockReference
  2
_DOT
 10
108.1825120145531
 20
375.5755402277074
 30
0.0
 41
1.5
 42
1.5
 43
1.5
 50
180.0
  0
INSERT
  5
5F4B
330
5F44
100
AcDbEntity
  8
寸法
 62
     0
370
    -2
100
AcDbBlockReference
  2
_DOT
 10
146.1825120145531
 20
375.5755402277074
 30
0.0
 41
1.5
 42
1.5
 43
1.5
  0
MTEXT
  5
5F4C
330
5F44
100
AcDbEntity
  8
寸法
  6
Continuous
 62
     0
100
AcDbMText
 10
127.1825120145531
 20
380.0764780794019
 30
0.0
 40
5.0
 41
0.0
 46
0.0
 71
     5
 72
     1
  1
\A1;38
  7
ＭＳ ゴシック
 73
     1
 44
1.0
  0
POINT
  5
5F4D
330
5F44
100
AcDbEntity
  8
Defpoints
 62
     0
100
AcDbPoint
 10
108.1825120145531
 20
351.7293032847666
 30
0.0
  0
POINT
  5
5F4E
330
5F44
100
AcDbEntity
  8
Defpoints
 62
     0
100
AcDbPoint
 10
146.1825120145531
 20
351.7293032847666
 30
0.0
  0
POINT
  5
5F4F
330
5F44
100
AcDbEntity
  8
Defpoints
 62
     0
100
AcDbPoint
 10
146.1825120145531
 20
375.5755402277074
 30
0.0
  0
ENDBLK
  5
5F46
330
5F44
100
AcDbEntity
  8
0
100
AcDbBlockEnd
  0
BLOCK
  5
5F54
330
5F53
100
AcDbEntity
  8
0
100
AcDbBlockBegin
  2
*D13
 70
     1
 10
0.0
 20
0.0
 30
0.0
  3
*D13
  1

  0
LINE
  5
5F56
330
5F53
100
AcDbEntity
  8
寸法
  6
Continuous
 62
     0
370
    -2
100
AcDbLine
 10
103.7325120145532
 20
380.4536379323479
 30
0.0
 11
103.7325120145532
 21
386.853404224275
 31
0.0
  0
LINE
  5
5F57
330
5F53
100
AcDbEntity
  8
寸法
  6
Continuous
 62
     0
370
    -2
100
AcDbLine
 10
112.6325120145532
 20
380.5755402277074
 30
0.0
 11
112.6325120145532
 21
386.853404224275
 31
0.0
  0
LINE
  5
5F58
330
5F53
100
AcDbEntity
  8
寸法
  6
Continuous
 62
     0
370
    -2
100
AcDbLine
 10
105.2325120145532
 20
386.853404224275
 30
0.0
 11
111.1325120145532
 21
386.853404224275
 31
0.0
  0
INSERT
  5
5F59
330
5F53
100
AcDbEntity
  8
寸法
 62
     0
370
    -2
100
AcDbBlockReference
  2
_DOT
 10
103.7325120145532
 20
386.853404224275
 30
0.0
 41
1.5
 42
1.5
 43
1.5
 50
180.0
  0
INSERT
  5
5F5A
330
5F53
100
AcDbEntity
  8
寸法
 62
     0
370
    -2
100
AcDbBlockReference
  2
_DOT
 10
112.6325120145532
 20
386.853404224275
 30
0.0
 41
1.5
 42
1.5
 43
1.5
  0
MTEXT
  5
5F5B
330
5F53
100
AcDbEntity
  8
寸法
  6
Continuous
 62
     0
100
AcDbMText
 10
108.1825120145532
 20
391.3543420759694
 30
0.0
 40
5.0
 41
0.0
 46
0.0
 71
     5
 72
     1
  1
\A1;8.5
  7
ＭＳ ゴシック
 73
     1
 44
1.0
  0
POINT
  5
5F5C
330
5F53
100
AcDbEntity
  8
Defpoints
 62
     0
100
AcDbPoint
 10
103.7325120145532
 20
375.4536379323479
 30
0.0
  0
POINT
  5
5F5D
330
5F53
100
AcDbEntity
  8
Defpoints
 62
     0
100
AcDbPoint
 10
112.6325120145532
 20
375.5755402277074
 30
0.0
  0
POINT
  5
5F5E
330
5F53
100
AcDbEntity
  8
Defpoints
 62
     0
100
AcDbPoint
 10
112.6325120145532
 20
386.853404224275
 30
0.0
  0
ENDBLK
  5
5F55
330
5F53
100
AcDbEntity
  8
0
100
AcDbBlockEnd
  0
BLOCK
  5
5F63
330
5F62
100
AcDbEntity
  8
0
100
AcDbBlockBegin
  2
*D14
 70
     1
 10
0.0
 20
0.0
 30
0.0
  3
*D14
  1

  0
LINE
  5
5F65
330
5F62
100
AcDbEntity
  8
寸法
  6
Continuous
 62
     0
370
    -2
100
AcDbLine
 10
94.68251201455314
 20
348.7335990428101
 30
0.0
 11
72.97146687375364
 21
348.7335990428101
 31
0.0
  0
LINE
  5
5F66
330
5F62
100
AcDbEntity
  8
寸法
  6
Continuous
 62
     0
370
    -2
100
AcDbLine
 10
137.9700505372544
 20
273.7851099426113
 30
0.0
 11
72.97146687375364
 21
273.7851099426113
 31
0.0
  0
LINE
  5
5F67
330
5F62
100
AcDbEntity
  8
寸法
  6
Continuous
 62
     0
370
    -2
100
AcDbLine
 10
72.97146687375364
 20
347.2335990428101
 30
0.0
 11
72.97146687375364
 21
275.2851099426113
 31
0.0
  0
INSERT
  5
5F68
330
5F62
100
AcDbEntity
  8
寸法
 62
     0
370
    -2
100
AcDbBlockReference
  2
_DOT
 10
72.97146687375364
 20
348.7335990428101
 30
0.0
 41
1.5
 42
1.5
 43
1.5
 50
90.0
  0
INSERT
  5
5F69
330
5F62
100
AcDbEntity
  8
寸法
 62
     0
370
    -2
100
AcDbBlockReference
  2
_DOT
 10
72.97146687375364
 20
273.7851099426113
 30
0.0
 41
1.5
 42
1.5
 43
1.5
 50
270.0
  0
MTEXT
  5
5F6A
330
5F62
100
AcDbEntity
  8
寸法
  6
Continuous
 62
     0
100
AcDbMText
 10
68.47052902205924
 20
311.2593544927107
 30
0.0
 40
5.0
 41
0.0
 46
0.0
 71
     5
 72
     1
  1
\A1;75
  7
ＭＳ ゴシック
 11
0.0
 21
1.0
 31
0.0
 73
     1
 44
1.0
  0
POINT
  5
5F6B
330
5F62
100
AcDbEntity
  8
Defpoints
 62
     0
100
AcDbPoint
 10
99.68251201455314
 20
348.7335990428101
 30
0.0
  0
POINT
  5
5F6C
330
5F62
100
AcDbEntity
  8
Defpoints
 62
     0
100
AcDbPoint
 10
142.9700505372544
 20
273.7851099426113
 30
0.0
  0
POINT
  5
5F6D
330
5F62
100
AcDbEntity
  8
Defpoints
 62
     0
100
AcDbPoint
 10
72.97146687375364
 20
273.7851099426113
 30
0.0
  0
ENDBLK
  5
5F64
330
5F62
100
AcDbEntity
  8
0
100
AcDbBlockEnd
  0
BLOCK
  5
5F73
330
5F72
100
AcDbEntity
  8
0
100
AcDbBlockBegin
  2
*D15
 70
     1
 10
0.0
 20
0.0
 30
0.0
  3
*D15
  1

  0
LINE
  5
5F75
330
5F72
100
AcDbEntity
  8
寸法
  6
Continuous
 62
     0
370
    -2
100
AcDbLine
 10
94.68251201455314
 20
348.7335990428101
 30
0.0
 11
86.7590050955206
 21
348.7335990428101
 31
0.0
  0
LINE
  5
5F76
330
5F72
100
AcDbEntity
  8
寸法
  6
Continuous
 62
     0
370
    -2
100
AcDbLine
 10
109.0825120145427
 20
340.4335990427643
 30
0.0
 11
86.7590050955206
 21
340.4335990427643
 31
0.0
  0
LINE
  5
5F77
330
5F72
100
AcDbEntity
  8
寸法
  6
Continuous
 62
     0
370
    -2
100
AcDbLine
 10
86.7590050955206
 20
347.2335990428101
 30
0.0
 11
86.7590050955206
 21
341.9335990427643
 31
0.0
  0
INSERT
  5
5F78
330
5F72
100
AcDbEntity
  8
寸法
 62
     0
370
    -2
100
AcDbBlockReference
  2
_DOT
 10
86.7590050955206
 20
348.7335990428101
 30
0.0
 41
1.5
 42
1.5
 43
1.5
 50
90.0
  0
INSERT
  5
5F79
330
5F72
100
AcDbEntity
  8
寸法
 62
     0
370
    -2
100
AcDbBlockReference
  2
_DOT
 10
86.7590050955206
 20
340.4335990427643
 30
0.0
 41
1.5
 42
1.5
 43
1.5
 50
270.0
  0
MTEXT
  5
5F7A
330
5F72
100
AcDbEntity
  8
寸法
  6
Continuous
 62
     0
100
AcDbMText
 10
82.2590050955206
 20
344.5835990427872
 30
0.0
 40
5.0
 41
0.0
 46
0.0
 71
     5
 72
     1
  1
\A1;8
  7
ＭＳ ゴシック
 11
0.0
 21
1.0
 31
0.0
 73
     1
 44
1.0
  0
POINT
  5
5F7B
330
5F72
100
AcDbEntity
  8
Defpoints
 62
     0
100
AcDbPoint
 10
99.68251201455314
 20
348.7335990428101
 30
0.0
  0
POINT
  5
5F7C
330
5F72
100
AcDbEntity
  8
Defpoints
 62
     0
100
AcDbPoint
 10
114.0825120145427
 20
340.4335990427643
 30
0.0
  0
POINT
  5
5F7D
330
5F72
100
AcDbEntity
  8
Defpoints
 62
     0
100
AcDbPoint
 10
86.7590050955206
 20
340.4335990427643
 30
0.0
  0
ENDBLK
  5
5F74
330
5F72
100
AcDbEntity
  8
0
100
AcDbBlockEnd
  0
BLOCK
  5
5F82
330
5F81
100
AcDbEntity
  8
0
100
AcDbBlockBegin
  2
*D16
 70
     1
 10
0.0
 20
0.0
 30
0.0
  3
*D16
  1

  0
LINE
  5
5F84
330
5F81
100
AcDbEntity
  8
寸法
  6
Continuous
 62
     0
370
    -2
100
AcDbLine
 10
109.0825120145531
 20
340.4335990428101
 30
0.0
 11
86.7590050955206
 21
340.4335990428101
 31
0.0
  0
LINE
  5
5F85
330
5F81
100
AcDbEntity
  8
寸法
  6
Continuous
 62
     0
370
    -2
100
AcDbLine
 10
132.9700505372544
 20
273.7851099426113
 30
0.0
 11
86.7590050955206
 21
273.7851099426113
 31
0.0
  0
LINE
  5
5F86
330
5F81
100
AcDbEntity
  8
寸法
  6
Continuous
 62
     0
370
    -2
100
AcDbLine
 10
86.7590050955206
 20
338.9335990428101
 30
0.0
 11
86.7590050955206
 21
275.2851099426113
 31
0.0
  0
INSERT
  5
5F87
330
5F81
100
AcDbEntity
  8
寸法
 62
     0
370
    -2
100
AcDbBlockReference
  2
_DOT
 10
86.7590050955206
 20
340.4335990428101
 30
0.0
 41
1.5
 42
1.5
 43
1.5
 50
90.0
  0
INSERT
  5
5F88
330
5F81
100
AcDbEntity
  8
寸法
 62
     0
370
    -2
100
AcDbBlockReference
  2
_DOT
 10
86.7590050955206
 20
273.7851099426113
 30
0.0
 41
1.5
 42
1.5
 43
1.5
 50
270.0
  0
MTEXT
  5
5F89
330
5F81
100
AcDbEntity
  8
寸法
  6
Continuous
 62
     0
100
AcDbMText
 10
82.2580672438262
 20
307.1093544927107
 30
0.0
 40
5.0
 41
0.0
 46
0.0
 71
     5
 72
     1
  1
\A1;67
  7
ＭＳ ゴシック
 11
0.0
 21
1.0
 31
0.0
 73
     1
 44
1.0
  0
POINT
  5
5F8A
330
5F81
100
AcDbEntity
  8
Defpoints
 62
     0
100
AcDbPoint
 10
114.0825120145531
 20
340.4335990428101
 30
0.0
  0
POINT
  5
5F8B
330
5F81
100
AcDbEntity
  8
Defpoints
 62
     0
100
AcDbPoint
 10
137.9700505372544
 20
273.7851099426113
 30
0.0
  0
POINT
  5
5F8C
330
5F81
100
AcDbEntity
  8
Defpoints
 62
     0
100
AcDbPoint
 10
86.7590050955206
 20
273.7851099426113
 30
0.0
  0
ENDBLK
  5
5F83
330
5F81
100
AcDbEntity
  8
0
100
AcDbBlockEnd
  0
BLOCK
  5
5F92
330
5F91
100
AcDbEntity
  8
0
100
AcDbBlockBegin
  2
*D17
 70
     1
 10
0.0
 20
0.0
 30
0.0
  3
*D17
  1

  0
LINE
  5
5F94
330
5F91
100
AcDbEntity
  8
寸法
  6
Continuous
 62
     0
370
    -2
100
AcDbLine
 10
539.3690424915293
 20
328.3664764667113
 30
0.0
 11
552.141254109298
 21
328.3664764667113
 31
0.0
  0
LINE
  5
5F95
330
5F91
100
AcDbEntity
  8
寸法
  6
Continuous
 62
     0
370
    -2
100
AcDbLine
 10
539.3690424915293
 20
314.3007218309194
 30
0.0
 11
552.141254109298
 21
314.3007218309194
 31
0.0
  0
LINE
  5
5F96
330
5F91
100
AcDbEntity
  8
寸法
  6
Continuous
 62
     0
370
    -2
100
AcDbLine
 10
552.141254109298
 20
326.8664764667113
 30
0.0
 11
552.141254109298
 21
315.8007218309194
 31
0.0
  0
INSERT
  5
5F97
330
5F91
100
AcDbEntity
  8
寸法
 62
     0
370
    -2
100
AcDbBlockReference
  2
_DOT
 10
552.141254109298
 20
328.3664764667113
 30
0.0
 41
1.5
 42
1.5
 43
1.5
 50
90.0
  0
INSERT
  5
5F98
330
5F91
100
AcDbEntity
  8
寸法
 62
     0
370
    -2
100
AcDbBlockReference
  2
_DOT
 10
552.141254109298
 20
314.3007218309194
 30
0.0
 41
1.5
 42
1.5
 43
1.5
 50
270.0
  0
MTEXT
  5
5F99
330
5F91
100
AcDbEntity
  8
寸法
  6
Continuous
 62
     0
100
AcDbMText
 10
547.6403162576036
 20
321.3335991488153
 30
0.0
 40
5.0
 41
0.0
 46
0.0
 71
     5
 72
     1
  1
\A1;14
  7
ＭＳ ゴシック
 11
0.0
 21
1.0
 31
0.0
 73
     1
 44
1.0
  0
POINT
  5
5F9A
330
5F91
100
AcDbEntity
  8
Defpoints
 62
     0
100
AcDbPoint
 10
534.3690424915293
 20
328.3664764667113
 30
0.0
  0
POINT
  5
5F9B
330
5F91
100
AcDbEntity
  8
Defpoints
 62
     0
100
AcDbPoint
 10
534.3690424915293
 20
314.3007218309194
 30
0.0
  0
POINT
  5
5F9C
330
5F91
100
AcDbEntity
  8
Defpoints
 62
     0
100
AcDbPoint
 10
552.141254109298
 20
314.3007218309194
 30
0.0
  0
ENDBLK
  5
5F93
330
5F91
100
AcDbEntity
  8
0
100
AcDbBlockEnd
  0
BLOCK
  5
5FA3
330
5FA2
100
AcDbEntity
  8
0
100
AcDbBlockBegin
  2
*D18
 70
     1
 10
0.0
 20
0.0
 30
0.0
  3
*D18
  1

  0
LINE
  5
5FA5
330
5FA2
100
AcDbEntity
  8
寸法
  6
Continuous
 62
     0
370
    -2
100
AcDbLine
 10
399.3711866598603
 20
348.83359904281
 30
0.0
 11
360.9761027055297
 21
348.83359904281
 31
0.0
  0
LINE
  5
5FA6
330
5FA2
100
AcDbEntity
  8
寸法
  6
Continuous
 62
     0
370
    -2
100
AcDbLine
 10
399.3711866598603
 20
293.83359904281
 30
0.0
 11
360.9761027055297
 21
293.83359904281
 31
0.0
  0
LINE
  5
5FA7
330
5FA2
100
AcDbEntity
  8
寸法
  6
Continuous
 62
     0
370
    -2
100
AcDbLine
 10
360.9761027055297
 20
347.33359904281
 30
0.0
 11
360.9761027055297
 21
295.33359904281
 31
0.0
  0
INSERT
  5
5FA8
330
5FA2
100
AcDbEntity
  8
寸法
 62
     0
370
    -2
100
AcDbBlockReference
  2
_DOT
 10
360.9761027055297
 20
348.83359904281
 30
0.0
 41
1.5
 42
1.5
 43
1.5
 50
90.0
  0
INSERT
  5
5FA9
330
5FA2
100
AcDbEntity
  8
寸法
 62
     0
370
    -2
100
AcDbBlockReference
  2
_DOT
 10
360.9761027055297
 20
293.83359904281
 30
0.0
 41
1.5
 42
1.5
 43
1.5
 50
270.0
  0
MTEXT
  5
5FAA
330
5FA2
100
AcDbEntity
  8
寸法
  6
Continuous
 62
     0
100
AcDbMText
 10
356.4751648538353
 20
321.33359904281
 30
0.0
 40
5.0
 41
0.0
 46
0.0
 71
     5
 72
     1
  1
\A1;%%C55
  7
ＭＳ ゴシック
 11
0.0
 21
1.0
 31
0.0
 73
     1
 44
1.0
  0
POINT
  5
5FAB
330
5FA2
100
AcDbEntity
  8
Defpoints
 62
     0
100
AcDbPoint
 10
404.3711866598603
 20
348.83359904281
 30
0.0
  0
POINT
  5
5FAC
330
5FA2
100
AcDbEntity
  8
Defpoints
 62
     0
100
AcDbPoint
 10
404.3711866598603
 20
293.83359904281
 30
0.0
  0
POINT
  5
5FAD
330
5FA2
100
AcDbEntity
  8
Defpoints
 62
     0
100
AcDbPoint
 10
360.9761027055297
 20
293.83359904281
 30
0.0
  0
ENDBLK
  5
5FA4
330
5FA2
100
AcDbEntity
  8
0
100
AcDbBlockEnd
  0
ENDSEC
  0
SECTION
  2
ENTITIES
  0
POINT
  5
1301
330
A
100
AcDbEntity
  8
MODEL
100
AcDbPoint
 10
963.7243970754489
 20
138.0847547131194
 30
0.0
  0
POINT
  5
1306
330
A
100
AcDbEntity
  8
MODEL
100
AcDbPoint
 10
847.7244070754489
 20
138.0847547131194
 30
0.0
  0
POINT
  5
1307
330
A
100
AcDbEntity
  8
MODEL
100
AcDbPoint
 10
973.7862873746794
 20
166.0075841667841
 30
0.0
  0
POINT
  5
1308
330
A
100
AcDbEntity
  8
MODEL
100
AcDbPoint
 10
973.7862873746794
 20
184.0075841667841
 30
0.0
  0
POINT
  5
1312
330
A
100
AcDbEntity
  8
MODEL
100
AcDbPoint
 10
810.9244070754489
 20
149.007583882008
 30
0.0
  0
POINT
  5
1313
330
A
100
AcDbEntity
  8
MODEL
100
AcDbPoint
 10
810.9244070754489
 20
201.007583882008
 30
0.0
  0
POINT
  5
131E
330
A
100
AcDbEntity
  8
MODEL
100
AcDbPoint
 10
1111.259263541787
 20
138.207583607055
 30
0.0
  0
POINT
  5
131F
330
A
100
AcDbEntity
  8
MODEL
100
AcDbPoint
 10
1104.759263541787
 20
138.207583607055
 30
0.0
  0
POINT
  5
1342
330
A
100
AcDbEntity
  8
MODEL
100
AcDbPoint
 10
973.354966229004
 20
368.3598201219507
 30
0.0
  0
POINT
  5
1343
330
A
100
AcDbEntity
  8
MODEL
100
AcDbPoint
 10
973.354966229004
 20
319.3598501219507
 30
0.0
  0
POINT
  5
1346
330
A
100
AcDbEntity
  8
MODEL
100
AcDbPoint
 10
983.2218070738209
 20
368.3598201219507
 30
0.0
  0
POINT
  5
1347
330
A
100
AcDbEntity
  8
MODEL
100
AcDbPoint
 10
983.2218070738209
 20
301.3598201219507
 30
0.0
  0
POINT
  5
1350
330
A
100
AcDbEntity
  8
MODEL
100
AcDbPoint
 10
963.7243970754489
 20
286.3598201219507
 30
0.0
  0
POINT
  5
1351
330
A
100
AcDbEntity
  8
MODEL
100
AcDbPoint
 10
838.7244070754489
 20
286.3598201219507
 30
0.0
  0
POINT
  5
1357
330
A
100
AcDbEntity
  8
MODEL
100
AcDbPoint
 10
810.9244070754489
 20
301.3598201219507
 30
0.0
  0
POINT
  5
1359
330
A
100
AcDbEntity
  8
MODEL
100
AcDbPoint
 10
810.9244070754489
 20
361.3598201219507
 30
0.0
  0
POINT
  5
135A
330
A
100
AcDbEntity
  8
MODEL
100
AcDbPoint
 10
810.9244070754489
 20
368.3598201219507
 30
0.0
  0
POINT
  5
135B
330
A
100
AcDbEntity
  8
MODEL
100
AcDbPoint
 10
810.9244070754489
 20
361.3598201219507
 30
0.0
  0
POINT
  5
1371
330
A
100
AcDbEntity
  8
MODEL
100
AcDbPoint
 10
1164.81489702863
 20
383.9337336502628
 30
0.0
  0
POINT
  5
1372
330
A
100
AcDbEntity
  8
MODEL
100
AcDbPoint
 10
1164.81489702863
 20
279.9338376502628
 30
0.0
  0
POINT
  5
1378
330
A
100
AcDbEntity
  8
MODEL
100
AcDbPoint
 10
1180.157201609016
 20
264.2731813749589
 30
0.0
  0
POINT
  5
1379
330
A
100
AcDbEntity
  8
MODEL
100
AcDbPoint
 10
1193.957187809016
 20
264.2731813749589
 30
0.0
  0
POINT
  5
1389
330
A
100
AcDbEntity
  8
MODEL
100
AcDbPoint
 10
1079.093440814797
 20
383.9337336502628
 30
0.0
  0
POINT
  5
138A
330
A
100
AcDbEntity
  8
MODEL
100
AcDbPoint
 10
1079.093440814797
 20
279.9337336502626
 30
0.0
  0
POINT
  5
138D
330
A
100
AcDbEntity
  8
MODEL
100
AcDbPoint
 10
1093.467555113589
 20
264.2731813749589
 30
0.0
  0
POINT
  5
138E
330
A
100
AcDbEntity
  8
MODEL
100
AcDbPoint
 10
1106.467555113589
 20
264.2731813749589
 30
0.0
  0
POINT
  5
1398
330
A
100
AcDbEntity
  8
MODEL
100
AcDbPoint
 10
1180.157201609016
 20
398.2298339817613
 30
0.0
  0
POINT
  5
1399
330
A
100
AcDbEntity
  8
MODEL
100
AcDbPoint
 10
1194.157187609016
 20
398.2298339817613
 30
0.0
  0
POINT
  5
139C
330
A
100
AcDbEntity
  8
MODEL
100
AcDbPoint
 10
1093.467555113589
 20
398.2298339817613
 30
0.0
  0
POINT
  5
139D
330
A
100
AcDbEntity
  8
MODEL
100
AcDbPoint
 10
1107.467555113589
 20
398.2298339817613
 30
0.0
  0
POINT
  5
4967
330
A
100
AcDbEntity
  8
MODEL
100
AcDbPoint
 10
159.6608149866037
 20
1112.943495860789
 30
0.0
  0
POINT
  5
4968
330
A
100
AcDbEntity
  8
MODEL
100
AcDbPoint
 10
159.6608149866037
 20
1058.143496245838
 30
0.0
  0
POINT
  5
499D
330
A
100
AcDbEntity
  8
MODEL
100
AcDbPoint
 10
471.5926809920595
 20
1039.574930990415
 30
0.0
  0
POINT
  5
499E
330
A
100
AcDbEntity
  8
MODEL
100
AcDbPoint
 10
478.7926809920594
 20
1039.574930990415
 30
0.0
  0
LINE
  5
5238
330
A
100
AcDbEntity
  8
PRINT BORDER
100
AcDbLine
 10
296.9999999999999
 20
0.0
 30
0.0
 11
296.9999999999999
 21
15.30952622855898
 31
0.0
  0
LINE
  5
5239
330
A
100
AcDbEntity
  8
テンプレート
100
AcDbLine
 10
437.9999999999999
 20
38.27810890422097
 30
0.0
 11
15.30952622855898
 21
38.27810890422097
 31
0.0
  0
LINE
  5
523A
330
A
100
AcDbEntity
  8
テンプレート
100
AcDbLine
 10
15.30952622855898
 20
26.22153683920783
 30
0.0
 11
578.6904737714407
 21
26.22153683920783
 31
0.0
  0
TEXT
  5
523B
330
A
100
AcDbEntity
  8
テンプレート
100
AcDbText
 10
18.06121699514119
 20
32.16825981613692
 30
0.0
 40
3.5
  1
材質
  7
ＭＳ ゴシック
100
AcDbText
  0
TEXT
  5
523C
330
A
100
AcDbEntity
  8
テンプレート
100
AcDbText
 10
18.06121699514119
 20
56.50959028673083
 30
0.0
 40
3.5
  1
品名
  7
ＭＳ ゴシック
100
AcDbText
  0
TEXT
  5
523D
330
A
100
AcDbEntity
  8
テンプレート
100
AcDbText
 10
18.06121699514119
 20
44.65099339080098
 30
0.0
 40
3.5
  1
仕上げ
  7
ＭＳ ゴシック
100
AcDbText
  0
TEXT
  5
523E
330
A
100
AcDbEntity
  8
テンプレート
100
AcDbText
 10
298.8233485179306
 20
56.58523052309897
 30
0.0
 40
3.5
  1
品番
  7
ＭＳ ゴシック
100
AcDbText
  0
TEXT
  5
523F
330
A
100
AcDbEntity
  8
テンプレート
100
AcDbText
 10
32.96818727154846
 20
53.09440584367189
 30
0.0
 40
5.5
  1
レバーハンドル - FSB -
  7
ＭＳ ゴシック
100
AcDbText
  0
TEXT
  5
5240
330
A
100
AcDbEntity
  8
テンプレート
100
AcDbText
 10
313.0171205424464
 20
52.977080524553
 30
0.0
 40
5.5
  1
FSB10-1285-NC
  7
ＭＳ ゴシック
100
AcDbText
  0
LINE
  5
5241
330
A
100
AcDbEntity
  8
テンプレート
100
AcDbLine
 10
437.9999999999999
 20
50.16496477419605
 30
0.0
 11
15.30952622855898
 21
50.16496477419605
 31
0.0
  0
LINE
  5
5242
330
A
100
AcDbEntity
  8
テンプレート
100
AcDbLine
 10
578.6904737714411
 20
62.22153683920783
 30
0.0
 11
15.30952622855898
 21
62.22153683920783
 31
0.0
  0
LINE
  5
5243
330
A
100
AcDbEntity
  8
PRINT BORDER
100
AcDbLine
 10
593.9999999999999
 20
210.0
 30
0.0
 11
578.6904737714411
 21
210.0
 31
0.0
  0
LINE
  5
5244
330
A
100
AcDbEntity
  8
PRINT BORDER
100
AcDbLine
 10
0.0
 20
210.0
 30
0.0
 11
15.30952622855898
 21
210.0
 31
0.0
  0
LINE
  5
5245
330
A
100
AcDbEntity
  8
PRINT BORDER
100
AcDbLine
 10
296.9999999999999
 20
420.0
 30
0.0
 11
296.9999999999999
 21
404.690473771441
 31
0.0
  0
LINE
  5
5246
330
A
100
AcDbEntity
  8
テンプレート
100
AcDbLine
 10
578.6904737714411
 20
62.22153683920783
 30
0.0
 11
578.6904737714411
 21
26.22153683920783
 31
0.0
  0
LINE
  5
5247
330
A
100
AcDbEntity
  8
テンプレート
100
AcDbLine
 10
15.30952622855898
 20
62.22153683920783
 30
0.0
 11
15.30952622855898
 21
26.22153683920783
 31
0.0
  0
TEXT
  5
5248
330
A
100
AcDbEntity
  8
テンプレート
100
AcDbText
 10
494.9733384955217
 20
16.51938390313694
 30
0.0
 40
5.5
  1
大洋金物株式会社  
  7
ＭＳ ゴシック
100
AcDbText
  0
LINE
  5
5249
330
A
100
AcDbEntity
  8
テンプレート
100
AcDbLine
 10
437.9999999999999
 20
62.22153683920783
 30
0.0
 11
437.9999999999999
 21
26.22153683920783
 31
0.0
  0
LINE
  5
524A
330
A
100
AcDbEntity
  8
テンプレート
100
AcDbLine
 10
296.9999999999999
 20
62.22153683920783
 30
0.0
 11
296.9999999999999
 21
26.22153683920783
 31
0.0
  0
INSERT
  5
524B
330
A
100
AcDbEntity
  8
テンプレート
100
AcDbBlockReference
  2
名称未設定-1
 10
548.3945198859805
 20
-7.642344203993161
 30
0.0
 41
0.180975
 42
0.180975
 43
0.180975
  0
LINE
  5
524D
330
A
100
AcDbEntity
  8
テンプレート
100
AcDbLine
 10
15.30952622855898
 20
210.0
 30
0.0
 11
15.30952622855898
 21
26.22153683920783
 31
0.0
  0
LINE
  5
524E
330
A
100
AcDbEntity
  8
テンプレート
100
AcDbLine
 10
15.30952622855898
 20
210.0
 30
0.0
 11
15.30952622855898
 21
404.690473771441
 31
0.0
  0
LINE
  5
524F
330
A
100
AcDbEntity
  8
テンプレート
100
AcDbLine
 10
296.9999999999999
 20
404.690473771441
 30
0.0
 11
15.30952622855887
 21
404.690473771441
 31
0.0
  0
LINE
  5
5250
330
A
100
AcDbEntity
  8
テンプレート
100
AcDbLine
 10
296.9999999999999
 20
404.690473771441
 30
0.0
 11
578.6904737714411
 21
404.690473771441
 31
0.0
  0
LINE
  5
5251
330
A
100
AcDbEntity
  8
テンプレート
100
AcDbLine
 10
578.6904737714411
 20
210.0
 30
0.0
 11
578.6904737714411
 21
404.690473771441
 31
0.0
  0
LINE
  5
5252
330
A
100
AcDbEntity
  8
テンプレート
100
AcDbLine
 10
578.6904737714411
 20
210.0
 30
0.0
 11
578.6904737714411
 21
26.22153683920783
 31
0.0
  0
LWPOLYLINE
  5
5253
330
A
100
AcDbEntity
  8
PRINT BORDER
  6
HIDDEN
 48
3.0
100
AcDbPolyline
 90
        4
 70
     1
 43
0.0
 10
0.0
 20
0.0
 10
0.0
 20
420.0
 10
593.9999999999999
 20
420.0
 10
593.9999999999999
 20
0.0
  0
TEXT
  5
5254
330
A
100
AcDbEntity
  8
テンプレート
100
AcDbText
 10
298.7989156222221
 20
32.62405342819488
 30
0.0
 40
3.5
  1
縮尺
  7
ＭＳ ゴシック
100
AcDbText
  0
TEXT
  5
5255
330
A
100
AcDbEntity
  8
テンプレート
100
AcDbText
 10
313.0171205424464
 20
28.29362070227194
 30
0.0
 40
5.5
  1
1/2
  7
ＭＳ ゴシック
100
AcDbText
  0
TEXT
  5
5256
330
A
100
AcDbEntity
  8
テンプレート
100
AcDbText
 10
298.8233485179306
 20
44.52865845808583
 30
0.0
 40
3.5
  1
扉厚
  7
ＭＳ ゴシック
100
AcDbText
  0
TEXT
  5
5257
330
A
100
AcDbEntity
  8
テンプレート
100
AcDbText
 10
440.0887524673468
 20
56.58523052309897
 30
0.0
 40
3.5
  1
備考
  7
ＭＳ ゴシック
100
AcDbText
  0
TEXT
  5
5258
330
A
100
AcDbEntity
  8
テンプレート
100
AcDbText
 10
449.0017237694899
 20
47.28154793898159
 30
0.0
 40
5.5
  1
取付方＝呼込み(ビス付)
  7
ＭＳ ゴシック
100
AcDbText
  0
TEXT
  5
5259
330
A
100
AcDbEntity
  8
_0-1_
 62
     1
100
AcDbText
 10
177.7468866874332
 20
79.37939740351129
 30
0.0
 40
4.0
  1
   
  7
ＭＳ ゴシック
100
AcDbText
  0
LINE
  5
525A
330
A
100
AcDbEntity
  8
SPACER
  6
CENTER
 48
3.0
100
AcDbLine
 10
127.1816507401138
 20
224.6771809568476
 30
0.0
 11
127.1816507401138
 21
137.0485128832279
 31
0.0
  0
LINE
  5
525B
330
A
100
AcDbEntity
  8
SPACER
  6
CENTER
 48
3.0
100
AcDbLine
 10
83.36731670330403
 20
180.8628469200378
 30
0.0
 11
170.9959847769237
 21
180.8628469200378
 31
0.0
  0
LINE
  5
525C
330
A
100
AcDbEntity
  8
SPACER
  6
CENTER
 48
3.0
100
AcDbLine
 10
83.36817797774336
 20
348.7335990428101
 30
0.0
 11
170.9968460513629
 21
348.7335990428101
 31
0.0
  0
LINE
  5
525D
330
A
100
AcDbEntity
  8
SPACER
  6
CENTER
 48
3.0
100
AcDbLine
 10
408.8721245115548
 20
365.1479330796199
 30
0.0
 11
408.8721245115548
 21
277.5192650060002
 31
0.0
  0
LINE
  5
525E
330
A
100
AcDbEntity
  8
SPACER
  6
CENTER
 48
3.0
100
AcDbLine
 10
365.0577904747449
 20
321.33359904281
 30
0.0
 11
452.6864585483646
 21
321.33359904281
 31
0.0
  0
LWPOLYLINE
  5
52C0
330
A
100
AcDbEntity
  8
SPACER
100
AcDbPolyline
 90
        4
 70
     1
 43
0.0
 10
161.5928474918056
 20
97.1045060433407
 10
161.5928474918056
 20
69.6571102646527
 10
432.4071525081941
 20
69.6571102646527
 10
432.4071525081941
 20
97.1045060433407
  0
LINE
  5
52C1
330
A
100
AcDbEntity
  8
SPACER
  6
CENTER
 48
3.0
100
AcDbLine
 10
296.9999999999999
 20
404.690473771441
 30
0.0
 11
297.0
 21
106.25363796957
 31
0.0
  0
LINE
  5
52C2
330
A
100
AcDbEntity
  8
SPACER
  6
CENTER
 48
3.0
100
AcDbLine
 10
15.30952622855898
 20
255.4720558705055
 30
0.0
 11
578.690473771441
 21
255.4720558705055
 31
0.0
  0
LINE
  5
52C3
330
A
100
AcDbEntity
  8
SPACER
  6
CENTER
 48
3.0
100
AcDbLine
 10
15.30952622855898
 20
106.25363796957
 30
0.0
 11
578.690473771441
 21
106.25363796957
 31
0.0
  0
LINE
  5
52C4
330
A
100
AcDbEntity
  8
SPACER
  6
CENTER
 48
3.0
100
AcDbLine
 10
408.8721245115548
 20
224.6771809568476
 30
0.0
 11
408.8721245115548
 21
137.0485128832279
 31
0.0
  0
LINE
  5
52C5
330
A
100
AcDbEntity
  8
SPACER
  6
CENTER
 48
3.0
100
AcDbLine
 10
365.057790474745
 20
180.8628469200378
 30
0.0
 11
452.6864585483647
 21
180.8628469200378
 31
0.0
  0
CIRCLE
  5
52DA
102
{ACAD_REACTORS
330
5369
102
}
330
A
100
AcDbEntity
  8
CutoutOverlay
100
AcDbCircle
 10
427.8721245115549
 20
180.8628469200378
 30
0.0
 40
5.0
  0
CIRCLE
  5
52DB
102
{ACAD_REACTORS
330
5369
102
}
330
A
100
AcDbEntity
  8
CutoutOverlay
100
AcDbCircle
 10
389.8721245115548
 20
180.8628469200378
 30
0.0
 40
5.0
  0
CIRCLE
  5
52DC
102
{ACAD_REACTORS
330
5365
330
5368
330
5369
102
}
330
A
100
AcDbEntity
  8
CutoutOverlay
100
AcDbCircle
 10
408.8721245115548
 20
180.8628469200378
 30
0.0
 40
14.0
  0
DIMENSION
  5
52DD
330
A
100
AcDbEntity
  8
寸法
100
AcDbDimension
  2
*D6
 10
389.8721245115548
 20
144.5573006134969
 30
0.0
 11
376.2146245115548
 21
144.5573006134969
 31
0.0
 70
   160
  1
 
 71
     5
 42
38.00000000000011
 73
     0
 74
     1
 75
     1
  3
tfrom線あり
100
AcDbAlignedDimension
 13
427.8721245115549
 23
177.3452081951892
 33
0.0
 14
389.8721245115548
 24
177.3452081951892
 34
0.0
100
AcDbRotatedDimension
1001
ACAD
1000
DSTYLE
1002
{
1070
   172
1070
     1
1002
}
  0
DIMENSION
  5
52DE
330
A
100
AcDbEntity
  8
寸法
100
AcDbDimension
  2
*D7
 10
408.8721245115548
 20
213.8023335341041
 30
0.0
 11
399.3721245115548
 21
218.3023335341041
 31
0.0
 70
    32
 71
     5
 42
19.0
 73
     0
 74
     0
 75
     0
  3
tfrom線あり
100
AcDbAlignedDimension
 13
389.8721245115548
 23
186.0157099566222
 33
0.0
 14
408.8721245115548
 24
200.1912224768318
 34
0.0
100
AcDbRotatedDimension
  0
DIMENSION
  5
52DF
330
A
100
AcDbEntity
  8
寸法
100
AcDbDimension
  2
*D8
 10
427.8721245115549
 20
213.8023335341041
 30
0.0
 11
418.3721245115548
 21
218.3023335341041
 31
0.0
 70
    32
 71
     5
 42
19.00000000000011
 73
     0
 74
     0
 75
     0
  3
tfrom線あり
100
AcDbAlignedDimension
 13
408.8721245115548
 23
200.1912224768318
 33
0.0
 14
427.8721245115549
 24
186.0157099566222
 34
0.0
100
AcDbRotatedDimension
  0
TEXT
  5
5362
330
A
100
AcDbEntity
  8
寸法
100
AcDbText
 10
348.1659509202454
 20
231.4229447852761
 30
0.0
 40
5.0
  1
<切欠図>
  7
ＭＳ ゴシック
100
AcDbText
  0
LEADER
  5
5363
102
{ACAD_REACTORS
330
5365
102
}
102
{ACAD_XDICTIONARY
360
5364
102
}
330
A
100
AcDbEntity
  8
寸法
100
AcDbLeader
  3
tfrom線あり
 76
     3
 10
408.8721245115548
 20
194.8628469200378
 30
0.0
 10
408.8721245115548
 20
200.7337752882268
 30
0.0
 10
447.9531070495427
 20
200.7337752882268
 30
0.0
  0
LEADER
  5
5366
102
{ACAD_REACTORS
330
5368
102
}
102
{ACAD_XDICTIONARY
360
5367
102
}
330
A
100
AcDbEntity
  8
寸法
100
AcDbLeader
  3
tfrom線あり
 76
     3
 10
408.8721245115548
 20
180.8628469200378
 30
0.0
 10
442.1530114131083
 20
156.5669494488204
 30
0.0
 10
510.1082899407156
 20
156.5669494488204
 30
0.0
  0
HATCH
  5
5369
330
A
100
AcDbEntity
  8
CutoutOverlay
100
AcDbHatch
 10
0.0
 20
0.0
 30
0.0
210
0.0
220
0.0
230
1.0
  2
ANSI31
 70
     0
 71
     1
 91
        3
 92
        1
 93
        1
 72
     2
 10
389.8721245115548
 20
180.8628469200378
 40
5.0
 50
0.0
 51
360.0
 73
     1
 97
        1
330
52DB
 92
        1
 93
        1
 72
     2
 10
408.8721245115548
 20
180.8628469200378
 40
14.0
 50
0.0
 51
360.0
 73
     1
 97
        1
330
52DC
 92
        1
 93
        1
 72
     2
 10
427.8721245115549
 20
180.8628469200378
 40
5.0
 50
0.0
 51
360.0
 73
     1
 97
        1
330
52DA
 75
     0
 76
     1
 52
0.0
 41
1.0
 77
     0
 78
     1
 53
45.0
 43
0.0
 44
0.0
 45
-2.245064030267288
 46
2.245064030267288
 79
     0
 98
        1
 10
0.0
 20
0.0
1001
ACAD
1010
0.0
1020
0.0
1030
0.0
  0
TEXT
  5
536A
330
A
100
AcDbEntity
  8
寸法
100
AcDbText
 10
443.7339484827306
 20
159.2024023985158
 30
0.0
 40
5.0
  1
レバー角芯 センター
  7
ＭＳ ゴシック
100
AcDbText
  0
TEXT
  5
536B
330
A
100
AcDbEntity
  8
寸法
100
AcDbText
 10
438.0695551162909
 20
203.042649715703
 30
0.0
 40
5.0
  1
ø28
  7
ＭＳ ゴシック
100
AcDbText
  0
TEXT
  5
536C
330
A
100
AcDbEntity
  8
寸法
100
AcDbText
 10
375.8306164726592
 20
147.0523164739852
 30
0.0
 40
5.0
  1
ø10
  7
ＭＳ ゴシック
100
AcDbText
  0
LINE
  5
536F
330
A
100
AcDbEntity
  8
SPACER
  6
CENTER
 48
3.0
100
AcDbLine
 10
127.1825120145532
 20
392.54793307962
 30
0.0
 11
127.1825120145532
 21
304.9192650060003
 31
0.0
  0
TEXT
  5
55D2
330
A
100
AcDbEntity
  8
テンプレート
100
AcDbText
 10
313.0505831322697
 20
44.82304125840494
 30
0.0
 40
4.0
  1
MIWAケース：37～54
  7
ＭＳ ゴシック
100
AcDbText
  0
TEXT
  5
55D3
330
A
100
AcDbEntity
  8
テンプレート
100
AcDbText
 10
313.0505831322697
 20
39.8279918743558
 30
0.0
 40
4.0
  1
ユーロケース(DIN規格)：36～54
  7
ＭＳ ゴシック
100
AcDbText
  0
MTEXT
  5
5735
330
A
100
AcDbEntity
  8
テンプレート
390
1D
100
AcDbMText
 10
37.51704960871145
 20
34.57354675141925
 30
0.0
 40
5.0
 41
0.0
 46
5.205
 71
     1
 72
     1
  1
{アルミ}
  7
ＭＳ ゴシック
 73
     1
 44
0.7828267384257843
1001
ACAD
1000
ACAD_MTEXT_DEFINED_HEIGHT_BEGIN
1070
    46
1040
5.205
1000
ACAD_MTEXT_DEFINED_HEIGHT_END
  0
LINE
  5
5736
330
A
100
AcDbEntity
  8
テンプレート
  6
Continuous
100
AcDbLine
 10
33.6310015376966
 20
26.22153683920783
 30
0.0
 11
33.6310015376966
 21
50.16496477419605
 31
0.0
  0
MTEXT
  5
576F
102
{ACAD_XDICTIONARY
360
5770
102
}
330
A
100
AcDbEntity
  8
寸法
  6
Continuous
370
     0
100
AcDbMText
 10
15.74112482822241
 20
22.95236913265297
 30
0.0
 40
4.0
 41
0.0
 46
4.0
 71
     1
 72
     1
  1
{20211014M}
  7
ＭＳ ゴシック
 73
     1
 44
1.0
1001
ACAD
1000
ACAD_MTEXT_DEFINED_HEIGHT_BEGIN
1070
    46
1040
4.0
1000
ACAD_MTEXT_DEFINED_HEIGHT_END
  0
TEXT
  5
581E
330
A
100
AcDbEntity
  8
テンプレート
100
AcDbText
 10
187.3255251873665
 20
95.58845453164052
 30
0.0
 40
5.0
  1
　 加工は現物合わせの上行って下さい。
  7
ＭＳ ゴシック
100
AcDbText
  0
TEXT
  5
581F
330
A
100
AcDbEntity
  8
テンプレート
100
AcDbText
 10
187.4977682695751
 20
103.6922386277807
 30
0.0
 40
5.0
  1
※ 輸入製品の為、国内製品と比べ製品寸法の個体差に幅が有ります。
  7
ＭＳ ゴシック
100
AcDbText
  0
TEXT
  5
5820
330
A
100
AcDbEntity
  8
テンプレート
100
AcDbText
 10
187.3255251873665
 20
86.21682322716002
 30
0.0
 40
5.0
  1
※ ご注文の際は正確な扉厚の指示をしてください。
  7
ＭＳ ゴシック
100
AcDbText
  0
TEXT
  5
5821
330
A
100
AcDbEntity
  8
テンプレート
100
AcDbText
 10
187.3255251873665
 20
77.5173345961741
 30
0.0
 40
5.0
  1
※ イモネジ・ビスのゆるみ止め防止のために金属製ネジ用ゆるみ止め剤(中強度タイプ)
  7
ＭＳ ゴシック
100
AcDbText
  0
TEXT
  5
5822
330
A
100
AcDbEntity
  8
テンプレート
100
AcDbText
 10
183.5610795085161
 20
68.07646144979785
 30
0.0
 40
5.0
  1
　　を用意して塗布してください。(推奨商品　住友3M社TL42J等)
  7
ＭＳ ゴシック
100
AcDbText
  0
MTEXT
  5
587A
330
A
100
AcDbEntity
  8
テンプレート
390
1D
100
AcDbMText
 10
34.78893721489682
 20
43.78124651965922
 30
0.0
 40
3.5
 41
0.0
 46
3.696
 71
     1
 72
     1
  1
{シャンパンシルバー}
  7
ＭＳ ゴシック
 73
     1
 44
0.7828267384257843
1001
ACAD
1000
ACAD_MTEXT_DEFINED_HEIGHT_BEGIN
1070
    46
1040
3.696
1000
ACAD_MTEXT_DEFINED_HEIGHT_END
  0
MTEXT
  5
587B
330
A
100
AcDbEntity
  8
テンプレート
390
1D
100
AcDbMText
 10
34.78893721489682
 20
49.42639273036752
 30
0.0
 40
3.5
 41
0.0
 46
3.69541703138677
 71
     1
 72
     1
  1
{アルミナチュラル}
  7
ＭＳ ゴシック
 73
     1
 44
0.7828267384257843
1001
ACAD
1000
ACAD_MTEXT_DEFINED_HEIGHT_BEGIN
1070
    46
1040
3.69541703138677
1000
ACAD_MTEXT_DEFINED_HEIGHT_END
  0
MTEXT
  5
587C
330
A
100
AcDbEntity
  8
テンプレート
390
1D
100
AcDbMText
 10
100.272386743436
 20
49.48500005861599
 30
0.0
 40
3.5
 41
0.0
 46
3.5525
 71
     1
 72
     1
  1
{ライトブロンズ}
  7
ＭＳ ゴシック
 73
     1
 44
0.7828267384257843
1001
ACAD
1000
ACAD_MTEXT_DEFINED_HEIGHT_BEGIN
1070
    46
1040
3.5525
1000
ACAD_MTEXT_DEFINED_HEIGHT_END
  0
MTEXT
  5
587E
330
A
100
AcDbEntity
  8
テンプレート
390
1D
100
AcDbMText
 10
158.6356625216484
 20
49.36309776325642
 30
0.0
 40
3.5
 41
0.0
 46
3.5525
 71
     1
 72
     1
  1
{ダークブロンズ}
  7
ＭＳ ゴシック
 73
     1
 44
0.7828267384257843
1001
ACAD
1000
ACAD_MTEXT_DEFINED_HEIGHT_BEGIN
1070
    46
1040
3.5525
1000
ACAD_MTEXT_DEFINED_HEIGHT_END
  0
MTEXT
  5
587F
330
A
100
AcDbEntity
  8
テンプレート
390
1D
100
AcDbMText
 10
100.2861528853187
 20
43.26798299527813
 30
0.0
 40
3.5
 41
0.0
 46
3.5525
 71
     1
 72
     1
  1
{ミディアムブロンズ}
  7
ＭＳ ゴシック
 73
     1
 44
0.7828267384257843
1001
ACAD
1000
ACAD_MTEXT_DEFINED_HEIGHT_BEGIN
1070
    46
1040
3.5525
1000
ACAD_MTEXT_DEFINED_HEIGHT_END
  0
MTEXT
  5
5880
330
A
100
AcDbEntity
  8
テンプレート
390
1D
100
AcDbMText
 10
158.7992546579104
 20
43.51178758599726
 30
0.0
 40
3.5
 41
0.0
 46
3.661
 71
     1
 72
     1
  1
{ブラックブラスト}
  7
ＭＳ ゴシック
 73
     1
 44
0.7828267384257843
1001
ACAD
1000
ACAD_MTEXT_DEFINED_HEIGHT_BEGIN
1070
    46
1040
3.661
1000
ACAD_MTEXT_DEFINED_HEIGHT_END
  0
LINE
  5
5881
330
A
100
AcDbEntity
  8
テンプレート
  6
Continuous
100
AcDbLine
 10
218.2414120002022
 20
50.16496477419604
 30
0.0
 11
218.2414120002022
 21
38.27810890422096
 31
0.0
  0
LINE
  5
5882
330
A
100
AcDbEntity
  8
テンプレート
  6
Continuous
100
AcDbLine
 10
156.0636172335256
 20
50.16496477419604
 30
0.0
 11
156.0636172335256
 21
38.27810890422096
 31
0.0
  0
LINE
  5
5883
330
A
100
AcDbEntity
  8
テンプレート
  6
Continuous
100
AcDbLine
 10
97.84312611056262
 20
50.16496477419604
 30
0.0
 11
97.84312611056272
 21
38.27810890422096
 31
0.0
  0
LINE
  5
5884
330
A
100
AcDbEntity
  8
テンプレート
  6
Continuous
100
AcDbLine
 10
296.9999999999999
 20
44.22153683920783
 30
0.0
 11
33.63100153769664
 21
44.22153683920783
 31
0.0
  0
LINE
  5
5D25
330
A
100
AcDbEntity
  8
MODEL
100
AcDbLine
 10
534.1360875458547
 20
320.48261075621
 30
0.0
 11
534.1957180431548
 21
320.60789466801
 31
0.0
  0
LINE
  5
5D26
330
A
100
AcDbEntity
  8
MODEL
100
AcDbLine
 10
534.2038151968547
 20
322.03727749571
 30
0.0
 11
534.1366181300548
 21
322.18365686541
 31
0.0
  0
LINE
  5
5D27
330
A
100
AcDbEntity
  8
MODEL
100
AcDbLine
 10
534.1361775280548
 20
322.1774609133101
 30
0.0
 11
533.9873704890548
 21
322.40953807521
 31
0.0
  0
SPLINE
  5
5D28
330
A
100
AcDbEntity
  8
MODEL
100
AcDbSpline
210
0.0
220
0.0
230
1.0
 70
     8
 71
     3
 72
     9
 73
     5
 74
     0
 42
0.000000001
 43
0.00000001
 40
0.0
 40
0.0
 40
0.0
 40
0.0
 40
0.1008231689030975
 40
1.0
 40
1.0
 40
1.0
 40
1.0
 10
516.5519378687488
 20
327.4225059999567
 30
0.0
 10
516.507144140184
 20
327.4282215209685
 30
0.0
 10
516.0628640302422
 20
327.4849100884276
 30
0.0
 10
515.6175327218838
 20
327.5349896081778
 30
0.0
 10
515.2171011272459
 20
327.5800199520498
 30
0.0
  0
SPLINE
  5
5D29
330
A
100
AcDbEntity
  8
MODEL
100
AcDbSpline
210
0.0
220
0.0
230
1.0
 70
     8
 71
     3
 72
    21
 73
    17
 74
     0
 42
0.000000001
 43
0.00000001
 40
0.0
 40
0.0
 40
0.0
 40
0.0
 40
0.0663808426446298
 40
0.1291002876779027
 40
0.1795019209692844
 40
0.218273912251749
 40
0.256550577581413
 40
0.2954076299444202
 40
0.4815186757615602
 40
0.600149446313262
 40
0.7118911221004771
 40
0.7463287572671703
 40
0.7932681713920092
 40
0.8531289821052968
 40
0.9233857678497046
 40
1.0
 40
1.0
 40
1.0
 40
1.0
 10
515.2181007455434
 20
327.5803034599514
 30
0.0
 10
515.0414654081937
 20
327.6000176448825
 30
0.0
 10
514.697937487224
 20
327.6383586306935
 30
0.0
 10
514.2199877201354
 20
327.6883526158488
 30
0.0
 10
513.8153776923408
 20
327.7296109415931
 30
0.0
 10
513.4756387380272
 20
327.7634757188393
 30
0.0
 10
513.1666032611226
 20
327.7937771941492
 30
0.0
 10
512.4645432483571
 20
327.8615404695545
 30
0.0
 10
511.547658789371
 20
327.9463949062045
 30
0.0
 10
510.4358182964703
 20
328.0444379559785
 30
0.0
 10
509.7286584362388
 20
328.1043992631311
 30
0.0
 10
509.2128333107935
 20
328.1468779818264
 30
0.0
 10
508.8356132635852
 20
328.1773996874469
 30
0.0
 10
508.3626692924053
 20
328.2145996618648
 30
0.0
 10
507.8103385603102
 20
328.2566097774875
 30
0.0
 10
507.417690281566
 20
328.2839374222862
 30
0.0
 10
507.2128680721721
 20
328.2981926957413
 30
0.0
  0
LINE
  5
5D2A
330
A
100
AcDbEntity
  8
MODEL
100
AcDbLine
 10
504.8776800594547
 20
314.2279042507101
 30
0.0
 11
505.1127153413547
 21
314.23879482931
 31
0.0
  0
LINE
  5
5D2B
330
A
100
AcDbEntity
  8
MODEL
100
AcDbLine
 10
506.7884545437547
 20
314.34172734831
 30
0.0
 11
507.2094176122547
 21
314.36968745481
 31
0.0
  0
SPLINE
  5
5D2C
330
A
100
AcDbEntity
  8
MODEL
100
AcDbSpline
210
0.0
220
0.0
230
1.0
 70
     8
 71
     3
 72
    21
 73
    17
 74
     0
 42
0.000000001
 43
0.00000001
 40
0.0
 40
0.0
 40
0.0
 40
0.0
 40
0.0663808013555805
 40
0.1291002971352555
 40
0.1795019669750519
 40
0.218273965507694
 40
0.2565506301850821
 40
0.295407677692877
 40
0.4815186635934585
 40
0.6001493939275241
 40
0.7118910414098217
 40
0.7463286770057465
 40
0.7932681122494675
 40
0.853128954296169
 40
0.9233857677519453
 40
1.0
 40
1.0
 40
1.0
 40
1.0
 10
515.2180863229164
 20
327.5803009773932
 30
0.0
 10
515.0414512155521
 20
327.6000150849281
 30
0.0
 10
514.6979235030274
 20
327.6383559468721
 30
0.0
 10
514.2199739715228
 20
327.6883501273706
 30
0.0
 10
513.8153641709529
 20
327.7296087036062
 30
0.0
 10
513.4756257403434
 20
327.7634737094947
 30
0.0
 10
513.1665907829677
 20
327.7937754109701
 30
0.0
 10
512.4645321009101
 20
327.8615392156275
 30
0.0
 10
511.5476492122888
 20
327.9463943660576
 30
0.0
 10
510.4358104092241
 20
328.0444379609253
 30
0.0
 10
509.7286514929517
 20
328.1043994490354
 30
0.0
 10
509.2128269150302
 20
328.1468782419591
 30
0.0
 10
508.835607112657
 20
328.1774000049475
 30
0.0
 10
508.3626633842181
 20
328.2146000339322
 30
0.0
 10
507.8103330490947
 20
328.2566101820775
 30
0.0
 10
507.4176851151981
 20
328.2839378590068
 30
0.0
 10
507.2128631242119
 20
328.2981931465417
 30
0.0
  0
SPLINE
  5
5D2D
330
A
100
AcDbEntity
  8
MODEL
100
AcDbSpline
210
0.0
220
0.0
230
1.0
 70
     8
 71
     3
 72
    21
 73
    17
 74
     0
 42
0.000000001
 43
0.00000001
 40
0.0
 40
0.0
 40
0.0
 40
0.0
 40
0.0713547043967157
 40
0.1342612289957312
 40
0.1848946312467129
 40
0.2238004822770627
 40
0.2620953884320781
 40
0.3009689367211356
 40
0.4871612482766179
 40
0.6058060517924867
 40
0.7176693932791776
 40
0.7519619142021313
 40
0.7986541424847204
 40
0.8583342409828489
 40
0.9284076904394423
 40
1.0
 40
1.0
 40
1.0
 40
1.0
 10
507.212868072172
 20
314.3690053898533
 30
0.0
 10
507.4035732859525
 20
314.3822440519822
 30
0.0
 10
507.7624047967062
 20
314.4071539589425
 30
0.0
 10
508.2563173556543
 20
314.4444558565693
 30
0.0
 10
508.6635480634485
 20
314.4761798578158
 30
0.0
 10
509.0050772235951
 20
314.5034719268178
 30
0.0
 10
509.3151372104435
 20
314.5286973593552
 30
0.0
 10
510.0185562079321
 20
314.5868903679273
 30
0.0
 10
510.9363013842891
 20
314.6661325615016
 30
0.0
 10
512.0484557087182
 20
314.7669822839942
 30
0.0
 10
512.7549146980631
 20
314.8335630774064
 30
0.0
 10
513.2692076438578
 20
314.8834215980216
 30
0.0
 10
513.6441086605868
 20
314.9203654419439
 30
0.0
 10
514.1141894125523
 20
314.9678881599682
 30
0.0
 10
514.6504319541342
 20
315.023641839753
 30
0.0
 10
515.0275165907352
 20
315.065664393156
 30
0.0
 10
515.2180803530824
 20
315.0869009408766
 30
0.0
  0
SPLINE
  5
5D2E
330
A
100
AcDbEntity
  8
MODEL
100
AcDbSpline
210
0.0
220
0.0
230
1.0
 70
     8
 71
     3
 72
     9
 73
     5
 74
     0
 42
0.000000001
 43
0.00000001
 40
0.0
 40
0.0
 40
0.0
 40
0.0
 40
0.6008079516290703
 40
1.0
 40
1.0
 40
1.0
 40
1.0
 10
505.1092437780554
 20
314.2385980239434
 30
0.0
 10
505.529985056966
 20
314.2629010477906
 30
0.0
 10
506.2302775177592
 20
314.3033516173634
 30
0.0
 10
506.9300671440993
 20
314.3507617185024
 30
0.0
 10
507.2094175984669
 20
314.3696874538895
 30
0.0
  0
SPLINE
  5
5D2F
330
A
100
AcDbEntity
  8
MODEL
100
AcDbSpline
210
0.0
220
0.0
230
1.0
 70
     8
 71
     3
 72
     9
 73
     5
 74
     0
 42
0.000000001
 43
0.00000001
 40
0.0
 40
0.0
 40
0.0
 40
0.0
 40
0.3991520393077043
 40
1.0
 40
1.0
 40
1.0
 40
1.0
 10
507.2093829634638
 20
328.2975129913894
 30
0.0
 10
506.9300706020956
 20
328.3164361522092
 30
0.0
 10
506.2303062670502
 20
328.363844555415
 30
0.0
 10
505.5300133494706
 20
328.4042953089067
 30
0.0
 10
505.1092437780555
 20
328.4286000616506
 30
0.0
  0
LINE
  5
5D30
330
A
100
AcDbEntity
  8
MODEL
100
AcDbLine
 10
395.7649756195548
 20
321.33359904411
 30
0.0
 11
395.7669214896547
 21
321.28659278271
 31
0.0
  0
LINE
  5
5D31
330
A
100
AcDbEntity
  8
MODEL
100
AcDbLine
 10
395.7669215378547
 20
321.38060646911
 30
0.0
 11
395.7649756195548
 21
321.33359904411
 31
0.0
  0
SPLINE
  5
5D32
330
A
100
AcDbEntity
  8
MODEL
100
AcDbSpline
210
0.0
220
0.0
230
1.0
 70
     8
 71
     3
 72
    15
 73
    11
 74
     0
 42
0.000000001
 43
0.00000001
 40
0.0
 40
0.0
 40
0.0
 40
0.0
 40
0.1615417326695729
 40
0.2885725505186226
 40
0.3838160715257893
 40
0.4530952644287742
 40
0.5415144020485037
 40
0.6607834292447746
 40
0.8124219608910039
 40
1.0
 40
1.0
 40
1.0
 40
1.0
 10
534.1366181300072
 20
320.4835412201905
 30
0.0
 10
534.1809772212467
 20
320.5688924157462
 30
0.0
 10
534.260218763888
 20
320.7213608323238
 30
0.0
 10
534.325323408056
 20
320.9410576463005
 30
0.0
 10
534.3562279566808
 20
321.1117121860947
 30
0.0
 10
534.3694497335713
 20
321.2615878211683
 30
0.0
 10
534.3699892759055
 20
321.4264557507894
 30
0.0
 10
534.3460167067794
 20
321.6390220032454
 30
0.0
 10
534.278971479839
 20
321.9050098324014
 30
0.0
 10
534.1869648472714
 20
322.0850369587765
 30
0.0
 10
534.1360875458364
 20
322.1845873294338
 30
0.0
  0
SPLINE
  5
5D33
330
A
100
AcDbEntity
  8
MODEL
100
AcDbSpline
210
0.0
220
0.0
230
1.0
 70
     8
 71
     3
 72
    36
 73
    32
 74
     0
 42
0.000000001
 43
0.00000001
 40
0.0
 40
0.0
 40
0.0
 40
0.0
 40
0.013092190453443
 40
0.0291243527733133
 40
0.0604986567297398
 40
0.089604554965359
 40
0.1146469742658539
 40
0.1435143218397758
 40
0.1754025965116768
 40
0.2108486003514516
 40
0.2441848871245089
 40
0.2803360283807027
 40
0.3182431189759372
 40
0.3516548569949534
 40
0.3789823155337488
 40
0.3996604947242801
 40
0.4135126378339364
 40
0.4288124255667298
 40
0.4467272989059975
 40
0.467712346207029
 40
0.4875425022481478
 40
0.5114860404192576
 40
0.5397027406310628
 40
0.5723629989785033
 40
0.6153537833665296
 40
0.6646299833766697
 40
0.7204219170764332
 40
0.782916805163756
 40
0.8522368580021615
 40
0.9284151721568569
 40
1.0
 40
1.0
 40
1.0
 40
1.0
 10
534.1360115930298
 20
322.1780948542247
 30
0.0
 10
534.0903060960687
 20
322.2541230662263
 30
0.0
 10
533.988631512132
 20
322.4232523249954
 30
0.0
 10
533.7212586728061
 20
322.7341845850752
 30
0.0
 10
533.3367066253351
 20
323.0798420815012
 30
0.0
 10
532.8648192702086
 20
323.4088285467213
 30
0.0
 10
532.3865847114001
 20
323.6925100539468
 30
0.0
 10
531.8794181943435
 20
323.955055490561
 30
0.0
 10
531.298933862744
 20
324.2200562809012
 30
0.0
 10
530.6818160336394
 20
324.4704535893243
 30
0.0
 10
530.0309702061753
 20
324.7088446552751
 30
0.0
 10
529.3586299319144
 20
324.9335667571
 30
0.0
 10
528.6805532131749
 20
325.1414225690955
 30
0.0
 10
528.0532578366557
 20
325.3198659202089
 30
0.0
 10
527.5329982321964
 20
325.4594211316994
 30
0.0
 10
527.1364227084944
 20
325.5612505973233
 30
0.0
 10
526.8170930752592
 20
325.6408158956724
 30
0.0
 10
526.5153299635178
 20
325.7141587631682
 30
0.0
 10
526.1668675406571
 20
325.7965495444383
 30
0.0
 10
525.7884885627408
 20
325.8832561418947
 30
0.0
 10
525.368511244535
 20
325.9764831822119
 30
0.0
 10
524.8998283827452
 20
326.0771070420097
 30
0.0
 10
524.3456033264082
 20
326.191593262294
 30
0.0
 10
523.6647214990072
 20
326.326241651736
 30
0.0
 10
522.8431074578953
 20
326.4804166661233
 30
0.0
 10
521.8662644487922
 20
326.6528000919092
 30
0.0
 10
520.7574858246288
 20
326.8356813553781
 30
0.0
 10
519.5127420626457
 20
327.026511253125
 30
0.0
 10
518.1292971705325
 20
327.2218829614414
 30
0.0
 10
516.6824462114024
 20
327.4106827246758
 30
0.0
 10
515.6952390530288
 20
327.5246325110299
 30
0.0
 10
515.2169800398393
 20
327.5798362359144
 30
0.0
  0
SPLINE
  5
5D34
330
A
100
AcDbEntity
  8
MODEL
100
AcDbSpline
210
0.0
220
0.0
230
1.0
 70
     8
 71
     3
 72
    39
 73
    35
 74
     0
 42
0.000000001
 43
0.00000001
 40
0.0
 40
0.0
 40
0.0
 40
0.0
 40
0.0598419336223792
 40
0.1253234020323108
 40
0.1850507340761601
 40
0.2390629714992488
 40
0.2874538443722852
 40
0.3303564503933884
 40
0.3679293789847008
 40
0.4003443183427494
 40
0.4307399661322545
 40
0.4551166200201709
 40
0.4759233173083867
 40
0.4978611692630406
 40
0.5221431081615554
 40
0.5476197659676101
 40
0.5699858718344615
 40
0.5832658174803671
 40
0.5961362487125784
 40
0.6134125741238226
 40
0.6349774278966872
 40
0.6605533371324158
 40
0.6892340410404144
 40
0.7201928533237144
 40
0.7496640557693866
 40
0.7772770771088153
 40
0.81566872392895
 40
0.850069120707514
 40
0.8807242957385933
 40
0.9060931220405705
 40
0.9362610884966475
 40
0.9691591844691161
 40
0.986028137124774
 40
1.0
 40
1.0
 40
1.0
 40
1.0
 10
515.2171011272459
 20
315.0871781335447
 30
0.0
 10
515.6173734596163
 20
315.1331888506216
 30
0.0
 10
516.4556399960657
 20
315.2295463585594
 30
0.0
 10
517.6910023926584
 20
315.3873847231772
 30
0.0
 10
518.8855469003546
 20
315.5506898223961
 30
0.0
 10
519.9641008345936
 20
315.7089478846275
 30
0.0
 10
520.9287646903673
 20
315.8596230926676
 30
0.0
 10
521.7824049320379
 20
316.0008305425542
 30
0.0
 10
522.5284447405892
 20
316.1307846538049
 30
0.0
 10
523.1901242517293
 20
316.2514861320331
 30
0.0
 10
523.7631080681668
 20
316.3605360713088
 30
0.0
 10
524.2579517548513
 20
316.4583613011702
 30
0.0
 10
524.6951459274127
 20
316.5475940725109
 30
0.0
 10
525.1302301662419
 20
316.6391801481409
 30
0.0
 10
525.5937522616478
 20
316.7401548223389
 30
0.0
 10
526.0576904127687
 20
316.8451426755465
 30
0.0
 10
526.449643121956
 20
316.9372835562008
 30
0.0
 10
526.7604684759807
 20
317.0125427718685
 30
0.0
 10
527.0390359862802
 20
317.0815035468199
 30
0.0
 10
527.3706931150192
 20
317.1657789173352
 30
0.0
 10
527.7829663919088
 20
317.2742500823155
 30
0.0
 10
528.2665846391383
 20
317.4072518095872
 30
0.0
 10
528.8074775141844
 20
317.5642694370909
 30
0.0
 10
529.3693437775022
 20
317.7381321113623
 30
0.0
 10
529.9210311673113
 20
317.9213722457993
 30
0.0
 10
530.5149209740053
 20
318.1337263183133
 30
0.0
 10
531.133174498313
 20
318.3764014736491
 30
0.0
 10
531.7603621033455
 20
318.6545481618642
 30
0.0
 10
532.2976304203282
 20
318.9258363825356
 30
0.0
 10
532.7968999536544
 20
319.2150024591659
 30
0.0
 10
533.2886633214729
 20
319.549111250684
 30
0.0
 10
533.6944959970443
 20
319.9051179506492
 30
0.0
 10
533.9791491759581
 20
320.2299420463792
 30
0.0
 10
534.0872186467349
 20
320.4087372855551
 30
0.0
 10
534.1361775280321
 20
320.4897371722802
 30
0.0
  0
SPLINE
  5
5D35
330
A
100
AcDbEntity
  8
MODEL
100
AcDbSpline
210
0.0
220
0.0
230
1.0
 70
     8
 71
     3
 72
    13
 73
     9
 74
     0
 42
0.000000001
 43
0.00000001
 40
0.0
 40
0.0
 40
0.0
 40
0.0
 40
0.1298618020597106
 40
0.2668452742972365
 40
0.4037787734279094
 40
0.5406974421288857
 40
0.8145652829709213
 40
1.0
 40
1.0
 40
1.0
 40
1.0
 10
504.8790889988369
 20
328.4392285898468
 30
0.0
 10
503.4469788934784
 20
328.5106917460312
 30
0.0
 10
500.5042212247339
 20
328.657537124824
 30
0.0
 10
496.048371643947
 20
328.782031471745
 30
0.0
 10
491.5132133124422
 20
328.8840882565399
 30
0.0
 10
485.4665583587772
 20
329.0147388399246
 30
0.0
 10
478.8830364191302
 20
329.151740374841
 30
0.0
 10
473.8119060948471
 20
329.2607925026486
 30
0.0
 10
471.7645331800094
 20
329.3048202358168
 30
0.0
  0
LINE
  5
5D36
330
A
100
AcDbEntity
  8
MODEL
100
AcDbLine
 10
505.1127153413547
 20
328.42840325621
 30
0.0
 11
504.8790889988547
 21
328.43922858981
 31
0.0
  0
LINE
  5
5D37
330
A
100
AcDbEntity
  8
MODEL
100
AcDbLine
 10
504.8808023262548
 20
314.22804881061
 30
0.0
 11
505.1127153413547
 21
314.23879482931
 31
0.0
  0
SPLINE
  5
5D38
330
A
100
AcDbEntity
  8
MODEL
100
AcDbSpline
210
0.0
220
0.0
230
1.0
 70
     8
 71
     3
 72
    14
 73
    10
 74
     0
 42
0.000000001
 43
0.00000001
 40
0.0
 40
0.0
 40
0.0
 40
0.0
 40
0.069754625192307
 40
0.2572497758017966
 40
0.4447160424239204
 40
0.5853114549660924
 40
0.7259338375521046
 40
0.8666025319429242
 40
1.0
 40
1.0
 40
1.0
 40
1.0
 10
472.6324180319435
 20
313.3809646033878
 30
0.0
 10
473.3824163895415
 20
313.3970275706584
 30
0.0
 10
476.1483535415496
 20
313.4562665776447
 30
0.0
 10
480.9304818891754
 20
313.5584139503516
 30
0.0
 10
486.4739671152545
 20
313.6741218741068
 30
0.0
 10
491.5128802637332
 20
313.7831265446627
 30
0.0
 10
496.0483046333353
 20
313.8851577985716
 30
0.0
 10
500.5047629580566
 20
314.0096797446321
 30
0.0
 10
503.448152813215
 20
314.1565580607211
 30
0.0
 10
504.880802326296
 20
314.2280488106326
 30
0.0
  0
SPLINE
  5
5D39
330
A
100
AcDbEntity
  8
MODEL
100
AcDbSpline
210
0.0
220
0.0
230
1.0
 70
     8
 71
     3
 72
    75
 73
    71
 74
     0
 42
0.000000001
 43
0.00000001
 40
0.0
 40
0.0
 40
0.0
 40
0.0
 40
0.0016664775289505
 40
0.0181802377328532
 40
0.0342973079600937
 40
0.0501164690655445
 40
0.0572872645139611
 40
0.0644958576365419
 40
0.0723057468776487
 40
0.0807630432429066
 40
0.0898345028527685
 40
0.0979280584977083
 40
0.1038807663048004
 40
0.1083257029107851
 40
0.1136451203208148
 40
0.1207430063247954
 40
0.129503822419497
 40
0.1392669865756649
 40
0.1473488425582851
 40
0.1539866687224976
 40
0.1613584931477998
 40
0.1699832839541426
 40
0.1795515554289394
 40
0.1933920526682613
 40
0.205550027470013
 40
0.2181392039182626
 40
0.232665881716078
 40
0.2460368313246982
 40
0.257699728604703
 40
0.2704614111932225
 40
0.2854520734927751
 40
0.3056108057848523
 40
0.3258282205232209
 40
0.3454246548372705
 40
0.3639879703567676
 40
0.3810804494049013
 40
0.3959904419889081
 40
0.411153779248242
 40
0.4279316070699797
 40
0.4463603367917636
 40
0.4723205811670234
 40
0.5010990001952643
 40
0.5130934539101244
 40
0.5236321794528738
 40
0.5319822998260609
 40
0.5381416590271669
 40
0.5416485899858673
 40
0.5435765679983112
 40
0.5447638734674629
 40
0.546865398298259
 40
0.5499256334529762
 40
0.5539446641349791
 40
0.5621976577554058
 40
0.5728189621637251
 40
0.5858091255832722
 40
0.600739907872878
 40
0.6179194601416058
 40
0.6373479439222909
 40
0.6590263075078097
 40
0.6829559879004654
 40
0.7091386803924447
 40
0.7375762913525453
 40
0.7643108806291051
 40
0.7927750294520299
 40
0.8229703578425817
 40
0.8548986990162216
 40
0.8885622756949944
 40
0.9239639996208455
 40
0.9611079381223248
 40
1.0
 40
1.0
 40
1.0
 40
1.0
 10
414.1404121712286
 20
310.6390582160972
 30
0.0
 10
414.1397440948589
 20
310.6388656311329
 30
0.0
 10
414.1324557954284
 20
310.6367646484476
 30
0.0
 10
414.1608092115019
 20
310.6443321849676
 30
0.0
 10
414.2217824129684
 20
310.6589311158407
 30
0.0
 10
414.3028238962401
 20
310.6773749277108
 30
0.0
 10
414.3789268693382
 20
310.6938887164774
 30
0.0
 10
414.4420850085191
 20
310.707258825365
 30
0.0
 10
414.5158956717291
 20
310.7224795914017
 30
0.0
 10
414.6027286206731
 20
310.7399021237207
 30
0.0
 10
414.6978093877667
 20
310.7584399443163
 30
0.0
 10
414.7887320457592
 20
310.7756927415248
 30
0.0
 10
414.8651199719599
 20
310.7898822080424
 30
0.0
 10
414.9338692498771
 20
310.8024550987899
 30
0.0
 10
415.0126948849415
 20
310.8166573321943
 30
0.0
 10
415.1154898105818
 20
310.8348299706578
 30
0.0
 10
415.2450229409365
 20
310.8571962303844
 30
0.0
 10
415.3845386843541
 20
310.8806516388844
 30
0.0
 10
415.5177283481059
 20
310.9024948153761
 30
0.0
 10
415.6419433226118
 20
310.9224645358352
 30
0.0
 10
415.7750443700673
 20
310.9434650220195
 30
0.0
 10
415.9309930442657
 20
310.9675502854019
 30
0.0
 10
416.1334301599156
 20
310.9980783895356
 30
0.0
 10
416.3668460933735
 20
311.0322414283467
 30
0.0
 10
416.631594451697
 20
311.0697571125715
 30
0.0
 10
416.9136886114104
 20
311.108539113342
 30
0.0
 10
417.2175465184844
 20
311.1489725967643
 30
0.0
 10
417.5250216760099
 20
311.1885252085465
 30
0.0
 10
417.8281191154824
 20
311.2263878706707
 30
0.0
 10
418.1552916149972
 20
311.2661247870225
 30
0.0
 10
418.5659951721631
 20
311.3144656122718
 30
0.0
 10
419.0585665983755
 20
311.3702387917187
 30
0.0
 10
419.6142736076436
 20
311.4304838942133
 30
0.0
 10
420.1749919310332
 20
311.4887787499404
 30
0.0
 10
420.7236395881862
 20
311.5436165714774
 30
0.0
 10
421.2402117813391
 20
311.593411558415
 30
0.0
 10
421.734335111109
 20
311.639535554407
 30
0.0
 10
422.234179940024
 20
311.6848178934858
 30
0.0
 10
422.780050432583
 20
311.7327449830797
 30
0.0
 10
423.4569085121683
 20
311.7901909083305
 30
0.0
 10
424.2968422233189
 20
311.8584727024011
 30
0.0
 10
425.0901799166569
 20
311.9196080228028
 30
0.0
 10
425.7148099410928
 20
311.9658595414533
 30
0.0
 10
426.0947228648771
 20
311.9933775246953
 30
0.0
 10
426.4054738446268
 20
312.0154734170314
 30
0.0
 10
426.6303939622799
 20
312.0312402803374
 30
0.0
 10
426.7759312481032
 20
312.0413458506054
 30
0.0
 10
426.8591525152486
 20
312.0470936026928
 30
0.0
 10
426.9255280008679
 20
312.0516639789756
 30
0.0
 10
427.0067071466282
 20
312.0572357296436
 30
0.0
 10
427.1244218866848
 20
312.065274314684
 30
0.0
 10
427.3217049317665
 20
312.0786532738991
 30
0.0
 10
427.6178248329264
 20
312.098494103855
 30
0.0
 10
428.0330768316975
 20
312.1258034993374
 30
0.0
 10
428.5398405839852
 20
312.158358511997
 30
0.0
 10
429.1388354143091
 20
312.195777074633
 30
0.0
 10
429.8309814164116
 20
312.2376282717761
 30
0.0
 10
430.6231823163763
 20
312.2837686787248
 30
0.0
 10
431.518382927336
 20
312.3337381558534
 30
0.0
 10
432.5195968232222
 20
312.3870105585819
 30
0.0
 10
433.6297955750974
 20
312.4429902487952
 30
0.0
 10
434.7950992262473
 20
312.498314582496
 30
0.0
 10
436.0078176059392
 20
312.5523788357838
 30
0.0
 10
437.2598826962598
 20
312.6046567885032
 30
0.0
 10
438.6022607557392
 20
312.6567600092214
 30
0.0
 10
440.0358375962639
 20
312.7080161787764
 30
0.0
 10
441.5610360133165
 20
312.7577345820201
 30
0.0
 10
443.1779298268357
 20
312.8049935647156
 30
0.0
 10
444.8853950824301
 20
312.8494765223191
 30
0.0
 10
446.0574791090027
 20
312.8746446160987
 30
0.0
 10
446.6569946576898
 20
312.8875179794496
 30
0.0
  0
SPLINE
  5
5D3A
330
A
100
AcDbEntity
  8
MODEL
100
AcDbSpline
210
0.0
220
0.0
230
1.0
 70
     8
 71
     3
 72
    65
 73
    61
 74
     0
 42
0.000000001
 43
0.00000001
 40
0.0
 40
0.0
 40
0.0
 40
0.0
 40
0.0409384916774479
 40
0.0799118617418305
 40
0.116926542277414
 40
0.15198679101384
 40
0.1850955616425553
 40
0.2162550747879466
 40
0.2454671670881226
 40
0.2770883479107811
 40
0.3060636322284867
 40
0.3323952533681313
 40
0.3560852235011072
 40
0.3771352656629751
 40
0.3955466788997885
 40
0.4113197384570282
 40
0.4244552108151056
 40
0.4349539162179542
 40
0.4417356713094529
 40
0.4466578182214678
 40
0.4503179766803351
 40
0.4544189469954124
 40
0.4590653398295166
 40
0.4647148177152496
 40
0.4733149985783124
 40
0.4840148325621145
 40
0.4968117804327318
 40
0.5117027168067353
 40
0.5272822025820235
 40
0.5424458802364502
 40
0.5571637480574662
 40
0.5714357082337309
 40
0.5852619495214916
 40
0.5995590967222028
 40
0.6160740663731304
 40
0.6346943524538234
 40
0.6509317194061406
 40
0.6647758798756098
 40
0.677151019706566
 40
0.6893948593725285
 40
0.7123204970442941
 40
0.735746868315288
 40
0.7625081020065997
 40
0.7901603070737786
 40
0.8179903324211532
 40
0.8456945089807053
 40
0.8583479533569408
 40
0.8704941433459294
 40
0.8828686456586665
 40
0.8948202704217103
 40
0.9045400133864405
 40
0.9142483119332867
 40
0.924839544718164
 40
0.9362360116411929
 40
0.9493099646534682
 40
0.9623818154880569
 40
0.9747980725424269
 40
0.9864569477337969
 40
0.9973352330144744
 40
1.0
 40
1.0
 40
1.0
 40
1.0
 10
446.6569946597784
 20
329.7796801277288
 30
0.0
 10
446.0254543752841
 20
329.7932869978268
 30
0.0
 10
444.7926888817108
 20
329.8198475836578
 30
0.0
 10
443.0004353312855
 20
329.8670972572482
 30
0.0
 10
441.3100342885547
 20
329.9172898923916
 30
0.0
 10
439.7226592641083
 20
329.9700170640146
 30
0.0
 10
438.2381056176463
 20
330.0242136293731
 30
0.0
 10
436.8557253075953
 20
330.0790769991528
 30
0.0
 10
435.5106702996061
 20
330.1365536576115
 30
0.0
 10
434.2141442248217
 20
330.1960332841117
 30
0.0
 10
432.9768938882752
 20
330.2567798622897
 30
0.0
 10
431.8684751824695
 20
330.3145634023502
 30
0.0
 10
430.8852138014823
 20
330.3686068067484
 30
0.0
 10
430.0233504065692
 20
330.4182306860462
 30
0.0
 10
429.2791918484218
 20
330.4628458640137
 30
0.0
 10
428.6492326069953
 20
330.501951297338
 30
0.0
 10
428.1302034667603
 20
330.5351197770021
 30
0.0
 10
427.7333258542006
 20
330.5610862056456
 30
0.0
 10
427.4458458079266
 20
330.5802195126363
 30
0.0
 10
427.2481007556872
 20
330.5935333608968
 30
0.0
 10
427.0861189356342
 20
330.6045315552245
 30
0.0
 10
426.9283212703767
 20
330.6153280866916
 30
0.0
 10
426.7460202352154
 20
330.6279093300566
 30
0.0
 10
426.5081859675794
 20
330.6444906427542
 30
0.0
 10
426.1966648160652
 20
330.6665162152307
 30
0.0
 10
425.7996388183448
 20
330.695124355396
 30
0.0
 10
425.3301611527559
 20
330.7297407579443
 30
0.0
 10
424.8077964895442
 20
330.7693128681088
 30
0.0
 10
424.2658027092891
 20
330.8116158375932
 30
0.0
 10
423.7383139228108
 20
330.8540556926866
 30
0.0
 10
423.2378134993339
 20
330.8955251056844
 30
0.0
 10
422.7641908212282
 20
330.9358995622793
 30
0.0
 10
422.3080157745962
 20
330.9758654232736
 30
0.0
 10
421.8384703419753
 20
331.0181149593678
 30
0.0
 10
421.3208509177396
 20
331.0661023969947
 30
0.0
 10
420.7936891139477
 20
331.1167332394186
 30
0.0
 10
420.3075612744206
 20
331.1651059886727
 30
0.0
 10
419.8942837495714
 20
331.2075238691277
 30
0.0
 10
419.5290214272511
 20
331.2460527401787
 30
0.0
 10
419.0875582894673
 20
331.2938456673359
 30
0.0
 10
418.5616066770469
 20
331.3529848499364
 30
0.0
 10
417.9385957004399
 20
331.426723109028
 30
0.0
 10
417.3163996657679
 20
331.5047067056452
 30
0.0
 10
416.7048150960371
 20
331.5865234045514
 30
0.0
 10
416.137342894562
 20
331.6677537735477
 30
0.0
 10
415.7175479906591
 20
331.732300444589
 30
0.0
 10
415.4221970700024
 20
331.7802180390883
 30
0.0
 10
415.2262279657958
 20
331.8131314204384
 30
0.0
 10
415.0467242701912
 20
331.8443569866264
 30
0.0
 10
414.890139042782
 20
331.8726024150765
 30
0.0
 10
414.7580193885631
 20
331.8972431431746
 30
0.0
 10
414.6425178531367
 20
331.9194438942746
 30
0.0
 10
414.5303785488427
 20
331.9417237907148
 30
0.0
 10
414.4239794746752
 20
331.9636430970406
 30
0.0
 10
414.3243649645473
 20
331.9850350617772
 30
0.0
 10
414.2419777085629
 20
332.0035998060309
 30
0.0
 10
414.1837839402679
 20
332.0173768197313
 30
0.0
 10
414.1493741514942
 20
332.0258821200794
 30
0.0
 10
414.1354726384664
 20
332.0295260800034
 30
0.0
 10
414.1373993030298
 20
332.0289730017538
 30
0.0
 10
414.1377783986738
 20
332.0288641766063
 30
0.0
  0
LINE
  5
5D3F
330
A
100
AcDbEntity
  8
MODEL
100
AcDbLine
 10
507.2091246616548
 20
328.29360553761
 30
0.0
 11
507.2128597047548
 21
328.29194575341
 31
0.0
  0
LINE
  5
5D40
330
A
100
AcDbEntity
  8
MODEL
100
AcDbLine
 10
507.2128544315548
 20
314.3752503204101
 30
0.0
 11
507.2091583581547
 21
314.37360774401
 31
0.0
  0
SPLINE
  5
5D41
330
A
100
AcDbEntity
  8
MODEL
100
AcDbSpline
210
0.0
220
0.0
230
1.0
 70
     8
 71
     3
 72
     9
 73
     5
 74
     0
 42
0.000000001
 43
0.00000001
 40
0.0
 40
0.0
 40
0.0
 40
0.0
 40
0.1357321639449697
 40
1.0
 40
1.0
 40
1.0
 40
1.0
 10
468.8336824274564
 20
313.299874420329
 30
0.0
 10
469.004589351452
 20
313.303419271843
 30
0.0
 10
470.2637376552004
 20
313.3295357899254
 30
0.0
 10
471.5235000728295
 20
313.3569458840822
 30
0.0
 10
472.6122722114573
 20
313.3806355468451
 30
0.0
  0
LINE
  5
5D42
330
A
100
AcDbEntity
  8
MODEL
100
AcDbLine
 10
504.8774130693547
 20
314.23448376951
 30
0.0
 11
505.1937759736547
 21
314.25279515711
 31
0.0
  0
SPLINE
  5
5D43
330
A
100
AcDbEntity
  8
MODEL
100
AcDbSpline
210
0.0
220
0.0
230
1.0
 70
     8
 71
     3
 72
     9
 73
     5
 74
     0
 42
0.000000001
 43
0.00000001
 40
0.0
 40
0.0
 40
0.0
 40
0.0
 40
0.1350422059110683
 40
1.0
 40
1.0
 40
1.0
 40
1.0
 10
468.8336824211638
 20
329.3673236716392
 30
0.0
 10
469.0045929951024
 20
329.3637787050964
 30
0.0
 10
470.2702015712183
 20
329.3375279006242
 30
0.0
 10
471.5364274080853
 20
329.3099768886445
 30
0.0
 10
472.63165931476
 20
329.2861464260973
 30
0.0
  0
LINE
  5
5D44
330
A
100
AcDbEntity
  8
MODEL
100
AcDbLine
 10
507.2091583589547
 20
314.37360752251
 30
0.0
 11
507.2128593784547
 21
314.37525218721
 31
0.0
  0
LINE
  5
5D45
330
A
100
AcDbEntity
  8
MODEL
100
AcDbLine
 10
507.2128547576548
 20
328.29194762031
 30
0.0
 11
507.2091246608547
 21
328.2936053170101
 31
0.0
  0
SPLINE
  5
5D46
330
A
100
AcDbEntity
  8
MODEL
100
AcDbSpline
210
0.0
220
0.0
230
1.0
 70
     8
 71
     3
 72
    11
 73
     7
 74
     0
 42
0.000000001
 43
0.00000001
 40
0.0
 40
0.0
 40
0.0
 40
0.0
 40
0.2912268705637646
 40
0.5824612633053988
 40
0.873690508238614
 40
1.0
 40
1.0
 40
1.0
 40
1.0
 10
446.6389651891401
 20
312.8848808799064
 30
0.0
 10
449.1606897451011
 20
312.9245614082375
 30
0.0
 10
454.2042039913307
 20
313.003923489819
 30
0.0
 10
461.7737455607454
 20
313.1513725169423
 30
0.0
 10
467.9164100331601
 20
313.2795181373396
 30
0.0
 10
471.5365362471115
 20
313.3574703606911
 30
0.0
 10
472.6316593147725
 20
313.3810516594975
 30
0.0
  0
LINE
  5
5D47
330
A
100
AcDbEntity
  8
MODEL
100
AcDbLine
 10
504.8805324697547
 20
314.23466420471
 30
0.0
 11
505.1937786689547
 21
314.25279508341
 31
0.0
  0
SPLINE
  5
5D48
330
A
100
AcDbEntity
  8
MODEL
100
AcDbSpline
210
0.0
220
0.0
230
1.0
 70
     8
 71
     3
 72
    11
 73
     7
 74
     0
 42
0.000000001
 43
0.00000001
 40
0.0
 40
0.0
 40
0.0
 40
0.0
 40
0.3012807091420134
 40
0.602567527683891
 40
0.9038498317813414
 40
0.9999999999999999
 40
0.9999999999999999
 40
0.9999999999999999
 40
0.9999999999999999
 10
446.6389651891401
 20
329.7823172056875
 30
0.0
 10
449.160694072243
 20
329.7426391268761
 30
0.0
 10
454.2042029743153
 20
329.6632821646573
 30
0.0
 10
461.7737640201046
 20
329.5157947716665
 30
0.0
 10
467.6271661879844
 20
329.393795441338
 30
0.0
 10
470.9579616514225
 20
329.3221168829643
 30
0.0
 10
471.7637753843699
 20
329.3047758101397
 30
0.0
  0
SPLINE
  5
5D49
330
A
100
AcDbEntity
  8
MODEL
100
AcDbSpline
210
0.0
220
0.0
230
1.0
 70
     8
 71
     3
 72
    23
 73
    19
 74
     0
 42
0.000000001
 43
0.00000001
 40
0.0
 40
0.0
 40
0.0
 40
0.0
 40
0.0620573407630484
 40
0.1241146815260968
 40
0.1879749223053805
 40
0.2518351630846643
 40
0.3138925038477127
 40
0.375949844610761
 40
0.4398100853900447
 40
0.5036703261693285
 40
0.565727666932378
 40
0.6277850076954273
 40
0.691645248474712
 40
0.7555054892539967
 40
0.8175628300170454
 40
0.8796201707800941
 40
0.9434804115593781
 40
1.0
 40
1.0
 40
1.0
 40
1.0
 10
408.8721245115441
 20
308.2335990427973
 30
0.0
 10
408.509110516242
 20
308.2423624297068
 30
0.0
 10
407.7830825256376
 20
308.2598892035259
 30
0.0
 10
406.6910565277666
 20
308.4017214707026
 30
0.0
 10
405.6041162168885
 20
308.6311382896259
 30
0.0
 10
404.5407287884867
 20
308.953912404845
 30
0.0
 10
403.5183481291867
 20
309.3611618904924
 30
0.0
 10
402.5331098403094
 20
309.8515978978656
 30
0.0
 10
401.5838531968539
 20
310.429206643083
 30
0.0
 10
400.687123602944
 20
311.0854123070532
 30
0.0
 10
399.8572083412381
 20
311.8082117219562
 30
0.0
 10
399.0898465448994
 20
312.5970977969628
 30
0.0
 10
398.3852594324013
 20
313.4563536017918
 30
0.0
 10
397.7564182148915
 20
314.3724208169471
 30
0.0
 10
397.2120596014952
 20
315.3290660661362
 30
0.0
 10
396.7508689457876
 20
316.3279176759335
 30
0.0
 10
396.3785359960327
 20
317.3299694140284
 30
0.0
 10
396.2061958692931
 20
318.0129381027568
 30
0.0
 10
396.1252803779003
 20
318.3335990428405
 30
0.0
  0
SPLINE
  5
5D4A
330
A
100
AcDbEntity
  8
MODEL
100
AcDbSpline
210
0.0
220
0.0
230
1.0
 70
     8
 71
     3
 72
    15
 73
    11
 74
     0
 42
0.000000001
 43
0.00000001
 40
0.0
 40
0.0
 40
0.0
 40
0.0
 40
0.1186451392429137
 40
0.247318794754115
 40
0.3748275764394777
 40
0.5022885381654569
 40
0.6285679749768994
 40
0.7543294936295306
 40
0.8798409154860475
 40
1.0
 40
1.0
 40
1.0
 40
1.0
 10
395.7682900704552
 20
321.2866287111835
 30
0.0
 10
395.7712718020776
 20
321.0985392937084
 30
0.0
 10
395.7774872970892
 20
320.7064621438752
 30
0.0
 10
395.8251914628302
 20
320.1355657854136
 30
0.0
 10
395.8939089656517
 20
319.5967202339474
 30
0.0
 10
395.9746979239407
 20
319.1261951978108
 30
0.0
 10
396.054459810604
 20
318.7386872540305
 30
0.0
 10
396.1202682371321
 20
318.4520206209562
 30
0.0
 10
396.1643028530117
 20
318.2683804139352
 30
0.0
 10
396.1680168411679
 20
318.2453758477904
 30
0.0
 10
396.1698333775659
 20
318.2341241609338
 30
0.0
  0
SPLINE
  5
5D4B
330
A
100
AcDbEntity
  8
MODEL
100
AcDbSpline
210
0.0
220
0.0
230
1.0
 70
     8
 71
     3
 72
    23
 73
    19
 74
     0
 42
0.000000001
 43
0.00000001
 40
0.0
 40
0.0
 40
0.0
 40
0.0
 40
0.0620573407633648
 40
0.1241146815267297
 40
0.1879749223063389
 40
0.2518351630859482
 40
0.313892503849313
 40
0.3759498446126777
 40
0.4398100853922869
 40
0.5036703261718961
 40
0.565727666935261
 40
0.6277850076986259
 40
0.6916452484782352
 40
0.7555054892578442
 40
0.8175628300212092
 40
0.8796201707845743
 40
0.9434804115641839
 40
1.0
 40
1.0
 40
1.0
 40
1.0
 10
408.8721245115441
 20
334.4335990427972
 30
0.0
 10
408.509110516242
 20
334.4248356558876
 30
0.0
 10
407.7830825256376
 20
334.4073088820684
 30
0.0
 10
406.6910565277666
 20
334.2654766148918
 30
0.0
 10
405.6041162168885
 20
334.0360597959686
 30
0.0
 10
404.5407287884867
 20
333.7132856807494
 30
0.0
 10
403.5183481291868
 20
333.306036195102
 30
0.0
 10
402.5331098403094
 20
332.8156001877289
 30
0.0
 10
401.583853196854
 20
332.2379914425115
 30
0.0
 10
400.687123602944
 20
331.5817857785411
 30
0.0
 10
399.8572083412381
 20
330.8589863636383
 30
0.0
 10
399.0898465448994
 20
330.0701002886316
 30
0.0
 10
398.3852594324014
 20
329.2108444838026
 30
0.0
 10
397.7564182148915
 20
328.2947772686472
 30
0.0
 10
397.2120596014952
 20
327.3381320194582
 30
0.0
 10
396.7508689457879
 20
326.3392804096608
 30
0.0
 10
396.3785359960423
 20
325.3372286715943
 30
0.0
 10
396.2061958693095
 20
324.654259982895
 30
0.0
 10
396.1252803779236
 20
324.3335990428404
 30
0.0
  0
SPLINE
  5
5D4C
330
A
100
AcDbEntity
  8
MODEL
100
AcDbSpline
210
0.0
220
0.0
230
1.0
 70
     8
 71
     3
 72
    15
 73
    11
 74
     0
 42
0.000000001
 43
0.00000001
 40
0.0
 40
0.0
 40
0.0
 40
0.0
 40
0.1196934173396792
 40
0.2447690392039024
 40
0.370794830052407
 40
0.4974133855782226
 40
0.6242787024101605
 40
0.7524467833258733
 40
0.8803386947593446
 40
1.0
 40
1.0
 40
1.0
 40
1.0
 10
396.169692775867
 20
324.4325294117436
 30
0.0
 10
396.1679502334758
 20
324.4215767127195
 30
0.0
 10
396.1643867925086
 20
324.3991788091721
 30
0.0
 10
396.1205325577145
 20
324.2162823082709
 30
0.0
 10
396.0548156072697
 20
323.9301512697328
 30
0.0
 10
395.9750677103922
 20
323.5429318655111
 30
0.0
 10
395.8941907413839
 20
323.0723138850977
 30
0.0
 10
395.8255183320932
 20
322.5346977368186
 30
0.0
 10
395.7775930490284
 20
321.9627046746315
 30
0.0
 10
395.7713280806449
 20
321.5702656460523
 30
0.0
 10
395.7682997447416
 20
321.3805700039675
 30
0.0
  0
SPLINE
  5
5D4D
330
A
100
AcDbEntity
  8
MODEL
100
AcDbSpline
210
0.0
220
0.0
230
1.0
 70
     8
 71
     3
 72
    16
 73
    12
 74
     0
 42
0.000000001
 43
0.00000001
 40
0.0
 40
0.0
 40
0.0
 40
0.0
 40
0.0497909312141144
 40
0.174225650000341
 40
0.2986603687865649
 40
0.4235397688123895
 40
0.5484191688382138
 40
0.6728538876244378
 40
0.7818529718060301
 40
0.8910009158184078
 40
1.0
 40
1.0
 40
1.0
 40
1.0
 10
417.0666202014079
 20
311.1286356625692
 30
0.0
 10
416.9537428790451
 20
311.0343137908316
 30
0.0
 10
416.558768847039
 20
310.704267956941
 30
0.0
 10
415.8222770779188
 20
310.2147465394175
 30
0.0
 10
414.8635668732292
 20
309.6664205863337
 30
0.0
 10
413.8578162494347
 20
309.2045279813819
 30
0.0
 10
412.8180956507366
 20
308.826572656436
 30
0.0
 10
411.7952985360697
 20
308.5494025671501
 30
0.0
 10
410.7996893961224
 20
308.3653075966067
 30
0.0
 10
409.8385408119634
 20
308.254400809313
 30
0.0
 10
409.1941166969898
 20
308.2405298098575
 30
0.0
 10
408.8721245115441
 20
308.2335990427973
 30
0.0
  0
SPLINE
  5
5D4E
330
A
100
AcDbEntity
  8
MODEL
100
AcDbSpline
210
0.0
220
0.0
230
1.0
 70
     8
 71
     3
 72
    16
 73
    12
 74
     0
 42
0.000000001
 43
0.00000001
 40
0.0
 40
0.0
 40
0.0
 40
0.0
 40
0.0496940325040848
 40
0.1741414406700748
 40
0.2985888488360679
 40
0.4234809835885647
 40
0.5483731183410612
 40
0.6728205265070542
 40
0.7818307260010543
 40
0.8909898005059997
 40
1.0
 40
1.0
 40
1.0
 40
1.0
 10
417.0659209264239
 20
331.5391344628295
 30
0.0
 10
416.9532734431742
 20
331.633261481
 30
0.0
 10
416.5585259446823
 20
331.9631082196167
 30
0.0
 10
415.8222740100643
 20
332.4524476095412
 30
0.0
 10
414.8635676985549
 20
333.000778558309
 30
0.0
 10
413.8578160278601
 20
333.4626698198904
 30
0.0
 10
412.8180957101316
 20
333.8406255053733
 30
0.0
 10
411.7952985223636
 20
334.1177955008567
 30
0.0
 10
410.7996893995767
 20
334.3018904934201
 30
0.0
 10
409.8385408111008
 20
334.4127972751743
 30
0.0
 10
409.1941166967024
 20
334.4266682753679
 30
0.0
 10
408.8721245115441
 20
334.4335990427972
 30
0.0
  0
ARC
  5
5D51
330
A
100
AcDbEntity
  8
MODEL
100
AcDbCircle
 10
408.8721245115547
 20
321.33359904281
 30
0.0
 40
27.50000000000002
100
AcDbArc
 50
18.7462509137002
 51
341.2564548515999
  0
SPLINE
  5
5D56
330
A
100
AcDbEntity
  8
MODEL
100
AcDbSpline
210
0.0
220
0.0
230
1.0
 70
     8
 71
     3
 72
    24
 73
    20
 74
     0
 42
0.000000001
 43
0.00000001
 40
0.0
 40
0.0
 40
0.0
 40
0.0
 40
0.073278689065849
 40
0.1375002735361349
 40
0.1885703844189048
 40
0.2281060380658858
 40
0.2675404656277843
 40
0.3075685506333203
 40
0.49909413341967
 40
0.5816827870880136
 40
0.6655339830456964
 40
0.7506777500988076
 40
0.7766295442253945
 40
0.7989946940080748
 40
0.8178823116930037
 40
0.8433049135625638
 40
0.884616723559977
 40
0.9397079357017065
 40
1.0
 40
1.0
 40
1.0
 40
1.0
 10
226.3362090792468
 20
273.9188923520628
 30
0.0
 10
226.5314042624592
 20
273.9292706010126
 30
0.0
 10
226.8976688808195
 20
273.9487443673643
 30
0.0
 10
227.3997489871344
 20
273.9793685900694
 30
0.0
 10
227.8119034542788
 20
274.0057886970511
 30
0.0
 10
228.1580143093179
 20
274.0288938906509
 30
0.0
 10
228.4746936767654
 20
274.0506608937553
 30
0.0
 10
229.1957548857749
 20
274.1015970337813
 30
0.0
 10
230.031345041775
 20
274.1648774415887
 30
0.0
 10
230.9830770503197
 20
274.2422277460643
 30
0.0
 10
231.6517718337391
 20
274.2989744309051
 30
0.0
 10
232.1697515307509
 20
274.3449973978965
 30
0.0
 10
232.5242618146792
 20
274.3775876754032
 30
0.0
 10
232.7027531293101
 20
274.3942519602028
 30
0.0
 10
232.8798173748139
 20
274.4110139690102
 30
0.0
 10
233.1071659859692
 20
274.4328628915212
 30
0.0
 10
233.4305640359402
 20
274.4647726236812
 30
0.0
 10
233.8463961214907
 20
274.50715669129
 30
0.0
 10
234.1523047403541
 20
274.541092500929
 30
0.0
 10
234.3121534002897
 20
274.5588252268482
 30
0.0
  0
SPLINE
  5
5D57
330
A
100
AcDbEntity
  8
MODEL
100
AcDbSpline
210
0.0
220
0.0
230
1.0
 70
     8
 71
     3
 72
     9
 73
     5
 74
     0
 42
0.000000001
 43
0.00000001
 40
0.0
 40
0.0
 40
0.0
 40
0.0
 40
0.489798395921282
 40
1.0
 40
1.0
 40
1.0
 40
1.0
 10
232.6981222057083
 20
301.2967884027827
 30
0.0
 10
231.3939306943499
 20
301.2214421616498
 30
0.0
 10
228.731219827555
 20
301.0676110308003
 30
0.0
 10
226.0679778122472
 20
300.9232641023057
 30
0.0
 10
224.7091874639874
 20
300.8496180678439
 30
0.0
  0
SPLINE
  5
5D58
330
A
100
AcDbEntity
  8
MODEL
100
AcDbSpline
210
0.0
220
0.0
230
1.0
 70
     8
 71
     3
 72
    56
 73
    52
 74
     0
 42
0.000000001
 43
0.00000001
 40
0.0
 40
0.0
 40
0.0
 40
0.0
 40
0.0253016567762094
 40
0.0546752357981068
 40
0.0822153886143844
 40
0.1078704025178626
 40
0.1316138962630875
 40
0.153446007743914
 40
0.1733801691799273
 40
0.1914327634453578
 40
0.2075872992758355
 40
0.2218825531535661
 40
0.235720464290358
 40
0.2496595671911253
 40
0.2637049450121088
 40
0.2778610561266966
 40
0.3028772495757058
 40
0.3281991728704927
 40
0.3537896560697928
 40
0.3794542956225533
 40
0.4051485282456024
 40
0.4308604809216645
 40
0.4565890719323564
 40
0.4823496921231186
 40
0.4995630714468352
 40
0.5168187200696873
 40
0.5341036421495329
 40
0.5514081839829844
 40
0.5687408235652122
 40
0.5861272079409
 40
0.6035183414660965
 40
0.6205955341231197
 40
0.6372993376610707
 40
0.653643019268255
 40
0.669597471848591
 40
0.6851318687651313
 40
0.6965250220216819
 40
0.7076974778976587
 40
0.7189151009197063
 40
0.7315392277674002
 40
0.7457399852752015
 40
0.7615260343101798
 40
0.7789064546763774
 40
0.7978730905981763
 40
0.8214489174246747
 40
0.8470794249314416
 40
0.8747725627992158
 40
0.9045023343855094
 40
0.9362899982017913
 40
0.9701310093450839
 40
0.9999999999999999
 40
0.9999999999999999
 40
0.9999999999999999
 40
0.9999999999999999
 10
234.3116309185305
 20
274.5630624728965
 30
0.0
 10
234.7565560626349
 20
274.6148856020975
 30
0.0
 10
235.7180103808871
 20
274.7268720160276
 30
0.0
 10
237.1542785406946
 20
274.9660129064808
 30
0.0
 10
238.5849129819901
 20
275.2676491357324
 30
0.0
 10
239.9024056726657
 20
275.6152593372169
 30
0.0
 10
241.1040192784499
 20
275.9992704349394
 30
0.0
 10
242.1889877823959
 20
276.4102314224864
 30
0.0
 10
243.1585807082923
 20
276.8370755504524
 30
0.0
 10
244.0150837775183
 20
277.2680320385037
 30
0.0
 10
244.7625617283261
 20
277.6910981399177
 30
0.0
 10
245.427179093911
 20
278.107350591087
 30
0.0
 10
246.0412685001684
 20
278.52912106464
 30
0.0
 10
246.6331961932858
 20
278.974162479782
 30
0.0
 10
247.2092008593238
 20
279.4485905343346
 30
0.0
 10
247.908293745562
 20
280.0804821958546
 30
0.0
 10
248.7053158428932
 20
280.8998204938765
 30
0.0
 10
249.5604885729233
 20
281.938789619373
 30
0.0
 10
250.3300956594396
 20
283.0567429031489
 30
0.0
 10
251.0046307653926
 20
284.2420535062633
 30
0.0
 10
251.5761691280845
 20
285.4827313565112
 30
0.0
 10
252.0379772284834
 20
286.7695805959935
 30
0.0
 10
252.383725631332
 20
288.0936254460601
 30
0.0
 10
252.5818251088248
 20
289.2954545139756
 30
0.0
 10
252.6718647724499
 20
290.3585000060971
 30
0.0
 10
252.6883443376295
 20
291.275246707719
 30
0.0
 10
252.6385235582259
 20
292.1924895317534
 30
0.0
 10
252.5189515364294
 20
293.1047583363642
 30
0.0
 10
252.3254608931372
 20
294.006183624908
 30
0.0
 10
252.0548002143912
 20
294.8894045830511
 30
0.0
 10
251.7008875611876
 20
295.7379996479263
 30
0.0
 10
251.2713903545039
 20
296.5372183344047
 30
0.0
 10
250.7744738972461
 20
297.2741439581248
 30
0.0
 10
250.2175700150628
 20
297.9412659987295
 30
0.0
 10
249.6088536284104
 20
298.5319168424542
 30
0.0
 10
249.0150341969215
 20
299.0065271042679
 30
0.0
 10
248.4571758247915
 20
299.3863020830114
 30
0.0
 10
247.9429111324646
 20
299.6922266921973
 30
0.0
 10
247.3925795124127
 20
299.9780887412815
 30
0.0
 10
246.7771803354594
 20
300.2525921898449
 30
0.0
 10
246.0704869738909
 20
300.517573703227
 30
0.0
 10
245.2691937730023
 20
300.7661359475533
 30
0.0
 10
244.3728444813061
 20
300.9878602289443
 30
0.0
 10
243.3301784553305
 20
301.1855048999138
 30
0.0
 10
242.133567133121
 20
301.3464054184072
 30
0.0
 10
240.7765694262298
 20
301.4603293882953
 30
0.0
 10
239.3071142760632
 20
301.5181101946931
 30
0.0
 10
237.7276614301078
 20
301.5250707342828
 30
0.0
 10
236.0400077448437
 20
301.4821034445035
 30
0.0
 10
234.3512057891296
 20
301.4036698360399
 30
0.0
 10
233.2258383293274
 20
301.329552541653
 30
0.0
 10
232.6982352969708
 20
301.2948043277003
 30
0.0
  0
LINE
  5
5D6D
330
A
100
AcDbEntity
  8
MODEL
100
AcDbLine
 10
154.6825120145531
 20
342.5335990428101
 30
0.0
 11
154.6825120145531
 21
348.7335990428101
 31
0.0
  0
LINE
  5
5D6E
330
A
100
AcDbEntity
  8
MODEL
100
AcDbLine
 10
99.68251201455314
 20
348.7335990428101
 30
0.0
 11
99.68251201455314
 21
342.5335990428101
 31
0.0
  0
ARC
  5
5D6F
330
A
100
AcDbEntity
  8
MODEL
100
AcDbCircle
 10
153.6825120145531
 20
342.5335990428101
 30
0.0
 40
1.0
100
AcDbArc
 50
270.0
 51
0.0
  0
ARC
  5
5D70
330
A
100
AcDbEntity
  8
MODEL
100
AcDbCircle
 10
100.6825120145531
 20
342.5335990428101
 30
0.0
 40
1.000000000000007
100
AcDbArc
 50
180.0
 51
270.0
  0
ARC
  5
5D75
330
A
100
AcDbEntity
  8
MODEL
100
AcDbCircle
 10
137.4325120145531
 20
348.9335990428101
 30
0.0
 40
0.2000000000000171
100
AcDbArc
 50
180.0
 51
270.0
  0
ARC
  5
5D76
330
A
100
AcDbEntity
  8
MODEL
100
AcDbCircle
 10
116.9325120145531
 20
348.9335990428101
 30
0.0
 40
0.2000000000000171
100
AcDbArc
 50
270.0
 51
0.0
  0
LINE
  5
5D77
330
A
100
AcDbEntity
  8
MODEL
100
AcDbLine
 10
137.2325120145532
 20
348.9335990428101
 30
0.0
 11
137.2325120145532
 21
349.7335990428101
 31
0.0
  0
LINE
  5
5D78
330
A
100
AcDbEntity
  8
MODEL
100
AcDbLine
 10
117.1325120145532
 20
349.7335990428101
 30
0.0
 11
117.1325120145532
 21
348.9335990428101
 31
0.0
  0
LINE
  5
5D7F
330
A
100
AcDbEntity
  8
MODEL
100
AcDbLine
 10
136.1825120145531
 20
349.7335990428101
 30
0.0
 11
136.1825120145531
 21
353.1335990428101
 31
0.0
  0
LINE
  5
5D80
330
A
100
AcDbEntity
  8
MODEL
100
AcDbLine
 10
118.1825120145531
 20
353.1335990428101
 30
0.0
 11
118.1825120145531
 21
349.7335990428101
 31
0.0
  0
ARC
  5
5D81
330
A
100
AcDbEntity
  8
MODEL
100
AcDbCircle
 10
118.6825120145531
 20
353.1335990428101
 30
0.0
 40
0.5
100
AcDbArc
 50
90.0
 51
180.0
  0
ARC
  5
5D82
330
A
100
AcDbEntity
  8
MODEL
100
AcDbCircle
 10
135.6825120145531
 20
353.1335990428101
 30
0.0
 40
0.5000000000000142
100
AcDbArc
 50
0.0
 51
90.0
  0
ARC
  5
5D83
330
A
100
AcDbEntity
  8
MODEL
100
AcDbCircle
 10
135.6825120145531
 20
340.9335990428101
 30
0.0
 40
0.5
100
AcDbArc
 50
270.0
 51
336.4218215217988
  0
ARC
  5
5D84
330
A
100
AcDbEntity
  8
MODEL
100
AcDbCircle
 10
118.6825120145531
 20
340.9335990428101
 30
0.0
 40
0.500000000000005
100
AcDbArc
 50
203.5781784782012
 51
270.0
  0
LINE
  5
5D8F
330
A
100
AcDbEntity
  8
MODEL
100
AcDbLine
 10
116.2825120145532
 20
341.5335990428101
 30
0.0
 11
117.0825120145531
 21
340.7335990428101
 31
0.0
  0
LINE
  5
5D90
330
A
100
AcDbEntity
  8
MODEL
100
AcDbLine
 10
137.2825120145532
 20
340.7335990428101
 30
0.0
 11
138.0825120145531
 21
341.5335990428101
 31
0.0
  0
LINE
  5
5D91
330
A
100
AcDbEntity
  8
MODEL
100
AcDbLine
 10
112.6325120145532
 20
350.4335990428101
 30
0.0
 11
111.9272040917532
 21
354.4335990428101
 31
0.0
  0
LINE
  5
5D92
330
A
100
AcDbEntity
  8
MODEL
100
AcDbLine
 10
104.4378199373532
 20
354.4335990428101
 30
0.0
 11
103.7325120145532
 21
350.4335990428101
 31
0.0
  0
LINE
  5
5D93
330
A
100
AcDbEntity
  8
MODEL
100
AcDbLine
 10
112.6325120145532
 20
348.7335990428101
 30
0.0
 11
112.6325120145532
 21
350.4335990428101
 31
0.0
  0
LINE
  5
5D94
330
A
100
AcDbEntity
  8
MODEL
100
AcDbLine
 10
103.7325120145532
 20
350.4335990428101
 30
0.0
 11
103.7325120145532
 21
348.7335990428101
 31
0.0
  0
LINE
  5
5D95
330
A
100
AcDbEntity
  8
MODEL
100
AcDbLine
 10
150.6325120145532
 20
350.4335990428101
 30
0.0
 11
149.9272040917532
 21
354.4335990428101
 31
0.0
  0
LINE
  5
5D96
330
A
100
AcDbEntity
  8
MODEL
100
AcDbLine
 10
142.4378199373532
 20
354.4335990428101
 30
0.0
 11
141.7325120145532
 21
350.4335990428101
 31
0.0
  0
LINE
  5
5D97
330
A
100
AcDbEntity
  8
MODEL
100
AcDbLine
 10
150.6325120145532
 20
348.7335990428101
 30
0.0
 11
150.6325120145532
 21
350.4335990428101
 31
0.0
  0
LINE
  5
5D98
330
A
100
AcDbEntity
  8
MODEL
100
AcDbLine
 10
141.7325120145532
 20
350.4335990428101
 30
0.0
 11
141.7325120145532
 21
348.7335990428101
 31
0.0
  0
SPLINE
  5
5DA2
330
A
100
AcDbEntity
  8
MODEL
100
AcDbSpline
210
0.0
220
0.0
230
1.0
 70
     8
 71
     3
 72
    41
 73
    37
 74
     0
 42
0.000000001
 43
0.00000001
 40
0.0
 40
0.0
 40
0.0
 40
0.0
 40
0.0289997419544131
 40
0.0580354777553206
 40
0.0870960359796747
 40
0.1161679521869508
 40
0.1452365975553924
 40
0.1742872999080818
 40
0.2033064651602817
 40
0.2322827072887132
 40
0.2612083978107153
 40
0.2900794737665667
 40
0.3188909173851511
 40
0.3476366897936108
 40
0.3763107631448567
 40
0.4049081646172655
 40
0.4334260353801449
 40
0.4618647063515244
 40
0.4902158210110155
 40
0.5184777280140531
 40
0.5466665493293793
 40
0.5748014493323982
 40
0.602808668606897
 40
0.630709124077096
 40
0.6586746058398106
 40
0.6868835273023111
 40
0.6983443874914708
 40
0.7095030548739071
 40
0.7211466873056188
 40
0.7340650107273937
 40
0.7490158629232732
 40
0.7656000528207167
 40
0.7933712725278272
 40
0.821789459001744
 40
0.849730495653323
 40
1.0
 40
1.0
 40
1.0
 40
1.0
 10
165.7273480275576
 20
300.6384096263012
 30
0.0
 10
165.207493681454
 20
300.6762451294787
 30
0.0
 10
164.1671397573839
 20
300.7519630964343
 30
0.0
 10
162.6172921100953
 20
300.9782480457019
 30
0.0
 10
161.0806965419749
 20
301.2850417473658
 30
0.0
 10
159.5632226327569
 20
301.67897768207
 30
0.0
 10
158.0701522443712
 20
302.1562544400574
 30
0.0
 10
156.6069278849953
 20
302.7158803247012
 30
0.0
 10
155.1789485405665
 20
303.3561070280604
 30
0.0
 10
153.7916348363963
 20
304.0754431952748
 30
0.0
 10
152.4503674236029
 20
304.8721737615702
 30
0.0
 10
151.1592814541523
 20
305.742570754779
 30
0.0
 10
149.9224423572372
 20
306.6831339432639
 30
0.0
 10
148.7438900677668
 20
307.6903372617288
 30
0.0
 10
147.6276613698935
 20
308.760663778167
 30
0.0
 10
146.577836251354
 20
309.8906268603521
 30
0.0
 10
145.5983522603433
 20
311.0766388955914
 30
0.0
 10
144.6938407426078
 20
312.3153224401459
 30
0.0
 10
143.866957656045
 20
313.6016242704034
 30
0.0
 10
143.1192341517393
 20
314.9303437799109
 30
0.0
 10
142.4537294446876
 20
316.2978258696989
 30
0.0
 10
141.8744811982566
 20
317.6990568021673
 30
0.0
 10
141.381511717456
 20
319.1274136064112
 30
0.0
 10
140.9764409973717
 20
320.5800089817383
 30
0.0
 10
140.6612228860173
 20
322.0585217770456
 30
0.0
 10
140.485258444526
 20
323.2618669197506
 30
0.0
 10
140.3881439892382
 20
324.1700465652583
 30
0.0
 10
140.3369583494119
 20
324.7836630206653
 30
0.0
 10
140.303351708225
 20
325.4247285734412
 30
0.0
 10
140.2856483759626
 20
326.1345889512288
 30
0.0
 10
140.2858184575375
 20
326.9333894413841
 30
0.0
 10
140.2866855951002
 20
327.9990335933763
 30
0.0
 10
140.2857564842867
 20
329.3066846775313
 30
0.0
 10
140.2845943288391
 20
330.8183962770224
 30
0.0
 10
140.2834838101109
 20
334.5312442187371
 30
0.0
 10
140.2829565810861
 20
337.7334534891633
 30
0.0
 10
140.2825120145426
 20
340.4335990427643
 30
0.0
  0
SPLINE
  5
5DA3
330
A
100
AcDbEntity
  8
MODEL
100
AcDbSpline
210
0.0
220
0.0
230
1.0
 70
    24
 71
     3
 72
    26
 73
    22
 74
     0
 42
0.000000001
 43
0.00000001
 40
0.0
 40
0.0
 40
0.0
 40
0.0
 40
0.0535973264878496
 40
0.1073861889538761
 40
0.1611750514199026
 40
0.2147723779077522
 40
0.2683697043956018
 40
0.3221585668616282
 40
0.3759474293276548
 40
0.4295447558155044
 40
0.4831420823033539
 40
0.5369309447693804
 40
0.590719807235407
 40
0.6443171337232566
 40
0.6979144602111076
 40
0.7517033226771356
 40
0.8054921851431635
 40
0.8590895116310143
 40
0.9060383017978012
 40
0.9530512098332131
 40
1.0
 40
1.0
 40
1.0
 40
1.0
 10
140.2825120145426
 20
340.4335990427643
 30
0.0
 10
140.273332520748
 20
340.4335990427643
 30
0.0
 10
140.2549407292216
 20
340.4335990427643
 30
0.0
 10
140.1092574373458
 20
340.4335990427643
 30
0.0
 10
139.8797848705379
 20
340.4335990427643
 30
0.0
 10
139.5589665265811
 20
340.4335990427643
 30
0.0
 10
139.1485376133144
 20
340.4335990427643
 30
0.0
 10
138.6528772905923
 20
340.4335990427643
 30
0.0
 10
138.076807464822
 20
340.4335990427643
 30
0.0
 10
137.4243285898352
 20
340.4335990427643
 30
0.0
 10
136.6972905173441
 20
340.4335990427643
 30
0.0
 10
135.9021639428402
 20
340.4335990427643
 30
0.0
 10
135.0458842699207
 20
340.4335990427643
 30
0.0
 10
134.1349221474462
 20
340.4335990427643
 30
0.0
 10
133.1733470372509
 20
340.4335990427643
 30
0.0
 10
132.1683668043436
 20
340.4335990427643
 30
0.0
 10
131.1284394462887
 20
340.4335990427643
 30
0.0
 10
130.1056961250756
 20
340.4335990427643
 30
0.0
 10
129.1100743572584
 20
340.4335990427643
 30
0.0
 10
128.1489289497772
 20
340.4335990427643
 30
0.0
 10
127.5045044114971
 20
340.4335990427643
 30
0.0
 10
127.1825120145426
 20
340.4335990427643
 30
0.0
  0
SPLINE
  5
5DA4
330
A
100
AcDbEntity
  8
MODEL
100
AcDbSpline
210
0.0
220
0.0
230
1.0
 70
     8
 71
     3
 72
    47
 73
    43
 74
     0
 42
0.000000001
 43
0.00000001
 40
0.0
 40
0.0
 40
0.0
 40
0.0
 40
0.0136845521741358
 40
0.0272069396964419
 40
0.0406532693630945
 40
0.0544962447554048
 40
0.0692090989851282
 40
0.0819414259535653
 40
0.0957608850071128
 40
0.1102393448480046
 40
0.1249495151051857
 40
0.1394663144078972
 40
0.1682712502860042
 40
0.1971887797635645
 40
0.226163500102661
 40
0.2551400910387876
 40
0.2840645517555535
 40
0.3129360859412674
 40
0.3417886435221284
 40
0.3706212667299084
 40
0.3994317153372802
 40
0.4282169386116382
 40
0.4569680581649789
 40
0.485684154591405
 40
0.5143719012906949
 40
0.543036036047446
 40
0.5716797211022869
 40
0.6003049069813424
 40
0.6289126987859134
 40
0.6575037241730795
 40
0.6860785026317902
 40
0.7146378158716347
 40
0.743180855545432
 40
0.7717100473635863
 40
0.8002307798421687
 40
0.8287476403392228
 40
0.8572647183826865
 40
0.8857859099879467
 40
0.9143152222449407
 40
0.9428570775260562
 40
0.971416616626562
 40
0.9999999999999999
 40
0.9999999999999999
 40
0.9999999999999999
 40
0.9999999999999999
 10
114.0774412917291
 20
332.4137560105207
 30
0.0
 10
114.0768557581484
 20
332.0232681210821
 30
0.0
 10
114.0756916296762
 20
331.2469197009835
 30
0.0
 10
114.0743724586465
 20
330.086880062077
 30
0.0
 10
114.0729875951158
 20
328.9223216592823
 30
0.0
 10
114.0716603050679
 20
327.7237864097137
 30
0.0
 10
114.0624112214681
 20
326.5456645136447
 30
0.0
 10
114.0699971585491
 20
325.3681141843442
 30
0.0
 10
114.1082967603718
 20
324.1978208404625
 30
0.0
 10
114.1734165208388
 20
322.9722389765711
 30
0.0
 10
114.2673159742282
 20
321.7285141527842
 30
0.0
 10
114.4348120849521
 20
320.0808916871732
 30
0.0
 10
114.7250452073346
 20
318.0391353210444
 30
0.0
 10
115.1884278592025
 20
315.6081180470982
 30
0.0
 10
115.7697051459843
 20
313.1974339173789
 30
0.0
 10
116.4659321976551
 20
310.8172142700972
 30
0.0
 10
117.2763952338585
 20
308.4765029374125
 30
0.0
 10
118.1990106209114
 20
306.1815384966167
 30
0.0
 10
119.2289006355044
 20
303.9355888692934
 30
0.0
 10
120.3635902445615
 20
301.7426845050055
 30
0.0
 10
121.5997476606592
 20
299.6075724718737
 30
0.0
 10
122.9338249102499
 20
297.534992199021
 30
0.0
 10
124.3633338862765
 20
295.5303364711039
 30
0.0
 10
125.8845577965501
 20
293.5979196948576
 30
0.0
 10
127.4929761636598
 20
291.7407598691759
 30
0.0
 10
129.1845226539597
 20
289.9618524796341
 30
0.0
 10
130.955056951682
 20
288.2641388302529
 30
0.0
 10
132.8004624587727
 20
286.6505773479471
 30
0.0
 10
134.7166175443148
 20
285.1241211867882
 30
0.0
 10
136.6994112768211
 20
283.6877381643772
 30
0.0
 10
138.7447076224745
 20
282.344354845891
 30
0.0
 10
140.8484166465365
 20
281.0970938095595
 30
0.0
 10
143.006074139062
 20
279.9484679474003
 30
0.0
 10
145.2126980891566
 20
278.8995727495671
 30
0.0
 10
147.4638615687625
 20
277.9519619659703
 30
0.0
 10
149.7551484199805
 20
277.106991615197
 30
0.0
 10
152.0821649257553
 20
276.3659968091416
 30
0.0
 10
154.4405261627123
 20
275.730551810464
 30
0.0
 10
156.8257948031369
 20
275.2013079381696
 30
0.0
 10
159.2337379451354
 20
274.7823844964966
 30
0.0
 10
161.6593585418061
 20
274.4649560017067
 30
0.0
 10
163.2859752164379
 20
274.34742642968
 30
0.0
 10
164.0996229264204
 20
274.2886371226318
 30
0.0
  0
LINE
  5
5DA6
102
{ACAD_REACTORS
330
5F80
102
}
330
A
100
AcDbEntity
  8
MODEL
100
AcDbLine
 10
114.0825120145531
 20
340.4335990428101
 30
0.0
 11
114.0821746370532
 21
338.4539639322101
 31
0.0
  0
SPLINE
  5
5DA7
102
{ACAD_REACTORS
330
5F71
102
}
330
A
100
AcDbEntity
  8
MODEL
100
AcDbSpline
210
0.0
220
0.0
230
1.0
 70
    24
 71
     3
 72
    26
 73
    22
 74
     0
 42
0.000000001
 43
0.00000001
 40
0.0
 40
0.0
 40
0.0
 40
0.0
 40
0.0535973264878498
 40
0.1073861889538766
 40
0.1611750514199033
 40
0.2147723779077532
 40
0.268369704395603
 40
0.3221585668616296
 40
0.3759474293276564
 40
0.4295447558155062
 40
0.4831420823033561
 40
0.5369309447693827
 40
0.5907198072354095
 40
0.6443171337232593
 40
0.6979144602111093
 40
0.7517033226771364
 40
0.8054921851431633
 40
0.8590895116310133
 40
0.9060383017978006
 40
0.9530512098332129
 40
1.0
 40
1.0
 40
1.0
 40
1.0
 10
127.1825120145426
 20
340.4335990427643
 30
0.0
 10
126.814898223565
 20
340.4335990427643
 30
0.0
 10
126.0783569330416
 20
340.4335990427643
 30
0.0
 10
124.9808545270815
 20
340.4335990427643
 30
0.0
 10
123.8987929676156
 20
340.4335990427643
 30
0.0
 10
122.8410773400863
 20
340.4335990427643
 30
0.0
 10
121.8149679142792
 20
340.4335990427643
 30
0.0
 10
120.8257597322996
 20
340.4335990427643
 30
0.0
 10
119.8811332534493
 20
340.4335990427643
 30
0.0
 10
118.9891064875457
 20
340.4335990427643
 30
0.0
 10
118.1567287929325
 20
340.4335990427643
 30
0.0
 10
117.3873404728139
 20
340.4335990427643
 30
0.0
 10
116.6866488455616
 20
340.4335990427643
 30
0.0
 10
116.0608790722464
 20
340.4335990427643
 30
0.0
 10
115.5160815621381
 20
340.4335990427643
 30
0.0
 10
115.0532401369516
 20
340.4335990427643
 30
0.0
 10
114.6755394586592
 20
340.4335990427643
 30
0.0
 10
114.3983031168796
 20
340.4335990427643
 30
0.0
 10
114.2142236989324
 20
340.4335990427643
 30
0.0
 10
114.1033129992143
 20
340.4335990427643
 30
0.0
 10
114.0894425211069
 20
340.4335990427643
 30
0.0
 10
114.0825120145427
 20
340.4335990427643
 30
0.0
  0
SPLINE
  5
5DA8
330
A
100
AcDbEntity
  8
MODEL
100
AcDbSpline
210
0.0
220
0.0
230
1.0
 70
     8
 71
     3
 72
    14
 73
    10
 74
     0
 42
0.000000001
 43
0.00000001
 40
0.0
 40
0.0
 40
0.0
 40
0.0
 40
0.1400145478976976
 40
0.2800129363307597
 40
0.4200101890286437
 40
0.5600074483999916
 40
0.706671190127261
 40
0.8533350354531077
 40
0.9999999999999999
 40
0.9999999999999999
 40
0.9999999999999999
 40
0.9999999999999999
 10
224.7092446375959
 20
300.8486717211359
 30
0.0
 10
221.9593002713481
 20
300.6930399606568
 30
0.0
 10
216.459728917506
 20
300.381794401589
 30
0.0
 10
208.2023617483419
 20
300.0837070912814
 30
0.0
 10
199.9420725970194
 20
299.9095536496003
 30
0.0
 10
191.5487662137427
 20
299.8699354411922
 30
0.0
 10
183.0249629480235
 20
299.9726155148621
 30
0.0
 10
174.3723885151186
 20
300.2128399750539
 30
0.0
 10
168.6090355202658
 20
300.4965527150421
 30
0.0
 10
165.7273480275576
 20
300.6384096263012
 30
0.0
  0
SPLINE
  5
5DA9
330
A
100
AcDbEntity
  8
MODEL
100
AcDbSpline
210
0.0
220
0.0
230
1.0
 70
     8
 71
     3
 72
    15
 73
    11
 74
     0
 42
0.000000001
 43
0.00000001
 40
0.0
 40
0.0
 40
0.0
 40
0.0
 40
0.1249947681396486
 40
0.2499919617168177
 40
0.3749897886425254
 40
0.4999868519548292
 40
0.6249812356380808
 40
0.7499802095172069
 40
0.8749717963127667
 40
1.0
 40
1.0
 40
1.0
 40
1.0
 10
164.0996229264204
 20
274.2886371272427
 30
0.0
 10
166.6899048865573
 20
274.1412251915191
 30
0.0
 10
171.8705190694712
 20
273.8463984596447
 30
0.0
 10
179.6481623012082
 20
273.5374793660201
 30
0.0
 10
187.4289671255934
 20
273.3269249385827
 30
0.0
 10
195.2119621153192
 20
273.2251254675816
 30
0.0
 10
202.9956539558281
 20
273.2293995049487
 30
0.0
 10
210.7783115390467
 20
273.3439526556988
 30
0.0
 10
218.5597798378631
 20
273.5586564093729
 30
0.0
 10
223.74380932873
 20
273.7988630176669
 30
0.0
 10
226.3362036902049
 20
273.9189839116601
 30
0.0
  0
LINE
  5
5DB8
102
{ACAD_REACTORS
330
5F61
330
5F71
102
}
330
A
100
AcDbEntity
  8
MODEL
100
AcDbLine
 10
154.6825120145531
 20
348.7335990428101
 30
0.0
 11
99.68251201455314
 21
348.7335990428101
 31
0.0
  0
LINE
  5
5DB9
330
A
100
AcDbEntity
  8
MODEL
100
AcDbLine
 10
153.6825120145531
 20
341.5335990428101
 30
0.0
 11
100.6825120146532
 21
341.5335990428101
 31
0.0
  0
LINE
  5
5DBB
330
A
100
AcDbEntity
  8
MODEL
100
AcDbLine
 10
117.1325120145532
 20
349.7335990428101
 30
0.0
 11
137.2325120145532
 21
349.7335990428101
 31
0.0
  0
LINE
  5
5DCA
330
A
100
AcDbEntity
  8
MODEL
100
AcDbLine
 10
118.6825120145531
 20
353.6335990428101
 30
0.0
 11
135.6825120145531
 21
353.6335990428101
 31
0.0
  0
LINE
  5
5DE1
330
A
100
AcDbEntity
  8
MODEL
100
AcDbLine
 10
137.2825120145532
 20
340.7335990428101
 30
0.0
 11
117.0825120145531
 21
340.7335990428101
 31
0.0
  0
LINE
  5
5DE2
330
A
100
AcDbEntity
  8
MODEL
100
AcDbLine
 10
108.1825120145531
 20
354.4335990428101
 30
0.0
 11
111.9272040917532
 21
354.4335990428101
 31
0.0
  0
LINE
  5
5DE3
330
A
100
AcDbEntity
  8
MODEL
100
AcDbLine
 10
104.4378199373532
 20
354.4335990428101
 30
0.0
 11
108.1825120145531
 21
354.4335990428101
 31
0.0
  0
LINE
  5
5DE6
330
A
100
AcDbEntity
  8
MODEL
100
AcDbLine
 10
146.1825120145531
 20
354.4335990428101
 30
0.0
 11
149.9272040917532
 21
354.4335990428101
 31
0.0
  0
LINE
  5
5DE7
330
A
100
AcDbEntity
  8
MODEL
100
AcDbLine
 10
142.4378199373532
 20
354.4335990428101
 30
0.0
 11
146.1825120145531
 21
354.4335990428101
 31
0.0
  0
SPLINE
  5
5DF0
330
A
100
AcDbEntity
  8
MODEL
100
AcDbSpline
210
0.0
220
0.0
230
1.0
 70
     8
 71
     3
 72
   101
 73
    97
 74
     0
 42
0.000000001
 43
0.00000001
 40
0.0
 40
0.0
 40
0.0
 40
0.0
 40
0.0150517413603846
 40
0.0286764710121508
 40
0.0408888137360995
 40
0.0491340310096036
 40
0.0566201795147705
 40
0.0660943220157613
 40
0.0746876516152275
 40
0.0833268887593846
 40
0.0920658801230388
 40
0.1009124688405982
 40
0.1098745694083609
 40
0.1189601733800717
 40
0.1337741297935655
 40
0.1490504640980229
 40
0.1656585758908459
 40
0.1838066415587428
 40
0.2034903206808873
 40
0.2247017816417247
 40
0.2474307736615213
 40
0.2663000174919423
 40
0.2847641960834272
 40
0.3017909321755936
 40
0.3173912971650139
 40
0.331575345517682
 40
0.3389188062462314
 40
0.3458172480155859
 40
0.3518411266315588
 40
0.3566916910500152
 40
0.3603686043725767
 40
0.3631753548799672
 40
0.3670416429392714
 40
0.3729952533499749
 40
0.3806858868950843
 40
0.3901143379144797
 40
0.4012820203659114
 40
0.4132224166398991
 40
0.4248515614136567
 40
0.4361685282193107
 40
0.4471731738363867
 40
0.4638344169223245
 40
0.4797229705892427
 40
0.4948377101446984
 40
0.5091307754360317
 40
0.524213589224497
 40
0.5368925249426952
 40
0.5471640744488018
 40
0.5514813951602713
 40
0.5570732912817907
 40
0.5641381818240602
 40
0.5726772991606857
 40
0.5826898023848466
 40
0.6055359726302307
 40
0.6264835386025348
 40
0.6455285703034884
 40
0.6626663428360464
 40
0.6715682336119322
 40
0.6797969790671008
 40
0.687351491843184
 40
0.6942309088621853
 40
0.7004345774287927
 40
0.7061412630944494
 40
0.7131063300043674
 40
0.7209893826345164
 40
0.7302667269961136
 40
0.739529254420069
 40
0.7480828092019705
 40
0.7559262961329462
 40
0.7633060477979633
 40
0.773707982862551
 40
0.785448693467261
 40
0.7985327770234304
 40
0.8115511099623423
 40
0.8226356927340617
 40
0.8317726066257508
 40
0.8368465464405216
 40
0.842461062248236
 40
0.8494771100196944
 40
0.8578990621450423
 40
0.8676779845553984
 40
0.8770261146882508
 40
0.8850717943704657
 40
0.892809182480089
 40
0.9002985758480415
 40
0.90893764754737
 40
0.9187234937011217
 40
0.9286051820288207
 40
0.9379288163224262
 40
0.9439121243066279
 40
0.9500488371091266
 40
0.9574006198780513
 40
0.9660505445230269
 40
0.9760196891194459
 40
0.9873289976305539
 40
1.0
 40
1.0
 40
1.0
 40
1.0
 10
150.179558699856
 20
168.7861286972054
 30
0.0
 10
150.4621988173619
 20
168.8087806589928
 30
0.0
 10
151.0006827669929
 20
168.8519370161216
 30
0.0
 10
151.795349793633
 20
168.9240113651267
 30
0.0
 10
152.473027571627
 20
168.9861495652969
 30
0.0
 10
153.037932297344
 20
169.0365440689756
 30
0.0
 10
153.550947649627
 20
169.0799720782716
 30
0.0
 10
154.0709186778249
 20
169.1195973453763
 30
0.0
 10
154.5892871262329
 20
169.1530508159585
 30
0.0
 10
155.099822337972
 20
169.1890480076378
 30
0.0
 10
155.615732923106
 20
169.2263054497303
 30
0.0
 10
156.139838454591
 20
169.2653521258308
 30
0.0
 10
156.672036907911
 20
169.3058971987639
 30
0.0
 10
157.323881643903
 20
169.3565541081794
 30
0.0
 10
158.1026487625909
 20
169.4183375753686
 30
0.0
 10
159.034928741537
 20
169.494396480528
 30
0.0
 10
160.0230595648059
 20
169.5744568923253
 30
0.0
 10
161.0847790548969
 20
169.6601898390824
 30
0.0
 10
162.219326393853
 20
169.7517335635536
 30
0.0
 10
163.4207483105679
 20
169.8489473328048
 30
0.0
 10
164.5835152744701
 20
169.9436747451771
 30
0.0
 10
165.6713160990109
 20
170.03309603231
 30
0.0
 10
166.6412844544971
 20
170.1139047519968
 30
0.0
 10
167.544331979067
 20
170.190140682533
 30
0.0
 10
168.3646310655461
 20
170.2601100445629
 30
0.0
 10
169.0115693892869
 20
170.3157507389277
 30
0.0
 10
169.505659309536
 20
170.3584629693131
 30
0.0
 10
169.858223817384
 20
170.3890379455116
 30
0.0
 10
170.1663846240099
 20
170.4158324883762
 30
0.0
 10
170.4172447411349
 20
170.437691932339
 30
0.0
 10
170.611892965198
 20
170.4546823300202
 30
0.0
 10
170.7891395162969
 20
170.4701740591725
 30
0.0
 10
171.00542624523
 20
170.4891039130823
 30
0.0
 10
171.3042316902049
 20
170.5153076605019
 30
0.0
 10
171.6955826756819
 20
170.5497241184392
 30
0.0
 10
172.171351192032
 20
170.5917142671879
 30
0.0
 10
172.7128410390399
 20
170.6397127031572
 30
0.0
 10
173.283745263439
 20
170.6905687073163
 30
0.0
 10
173.849480909239
 20
170.7412221465201
 30
0.0
 10
174.3927136165
 20
170.7901068534881
 30
0.0
 10
175.0081279073499
 20
170.845764105317
 30
0.0
 10
175.6840144081521
 20
170.907277255855
 30
0.0
 10
176.4082467262331
 20
170.9736936913253
 30
0.0
 10
177.082244029461
 20
171.035965869164
 30
0.0
 10
177.7307538491659
 20
171.0963213283784
 30
0.0
 10
178.3307022480519
 20
171.1525780348952
 30
0.0
 10
178.8619390580059
 20
171.2027579383016
 30
0.0
 10
179.2360272409169
 20
171.2383150704416
 30
0.0
 10
179.5097303690889
 20
171.2644365260734
 30
0.0
 10
179.73817637819
 20
171.2863000318361
 30
0.0
 10
180.020478096536
 20
171.3134163281919
 30
0.0
 10
180.3571847672499
 20
171.3459067583911
 30
0.0
 10
180.892538474397
 20
171.3978542235733
 30
0.0
 10
181.5683014010331
 20
171.4641014919565
 30
0.0
 10
182.3258691703979
 20
171.5394549017855
 30
0.0
 10
182.9879438379689
 20
171.6062553231195
 30
0.0
 10
183.49150164817
 20
171.6577708399444
 30
0.0
 10
183.8635245503469
 20
171.6962364532872
 30
0.0
 10
184.126260710625
 20
171.7236011311504
 30
0.0
 10
184.3630763086639
 20
171.7484389126963
 30
0.0
 10
184.5750988195571
 20
171.7708231034153
 30
0.0
 10
184.765201340027
 20
171.7910164594479
 30
0.0
 10
184.9535264986059
 20
171.8111357519692
 30
0.0
 10
185.156132326973
 20
171.8329165116013
 30
0.0
 10
185.3897732701439
 20
171.8582245778754
 30
0.0
 10
185.6401726991419
 20
171.8855948525824
 30
0.0
 10
185.890621645224
 20
171.9132508732663
 30
0.0
 10
186.1221370340409
 20
171.9390782516575
 30
0.0
 10
186.331876000485
 20
171.9627062742374
 30
0.0
 10
186.5532466516279
 20
171.9878806187691
 30
0.0
 10
186.804168498629
 20
172.016745873528
 30
0.0
 10
187.095628161685
 20
172.0507899593415
 30
0.0
 10
187.3984860915609
 20
172.0868185573885
 30
0.0
 10
187.6846486153511
 20
172.1215731436323
 30
0.0
 10
187.9312949648029
 20
172.1521504831291
 30
0.0
 10
188.114092031406
 20
172.1752357391788
 30
0.0
 10
188.255170160033
 20
172.1932999697078
 30
0.0
 10
188.3821287288749
 20
172.2097349144672
 30
0.0
 10
188.5321963564259
 20
172.2294302759232
 30
0.0
 10
188.7088808594369
 20
172.2530350891833
 30
0.0
 10
188.8963223026719
 20
172.2786377518789
 30
0.0
 10
189.0771799248239
 20
172.3039612235501
 30
0.0
 10
189.2430504955021
 20
172.3277590663878
 30
0.0
 10
189.3980085904059
 20
172.3505261287454
 30
0.0
 10
189.5624472104321
 20
172.3753084666298
 30
0.0
 10
189.7429162134949
 20
172.4033390845322
 30
0.0
 10
189.9348713988829
 20
172.4342380784059
 30
0.0
 10
190.1443951472011
 20
172.4693847376689
 30
0.0
 10
190.3493583153709
 20
172.5055061390269
 30
0.0
 10
190.540504008882
 20
172.5408618643198
 30
0.0
 10
190.7294930705029
 20
172.5773232144544
 30
0.0
 10
190.9571661296159
 20
172.6235824882704
 30
0.0
 10
191.230750665645
 20
172.6828155500711
 30
0.0
 10
191.548684719992
 20
172.757213615489
 30
0.0
 10
191.908260523187
 20
172.8482803074234
 30
0.0
 10
192.1568211276131
 20
172.9196237986711
 30
0.0
 10
192.2881585411819
 20
172.9573211225777
 30
0.0
  0
SPLINE
  5
5DF1
330
A
100
AcDbEntity
  8
MODEL
100
AcDbSpline
210
0.0
220
0.0
230
1.0
 70
     8
 71
     3
 72
    89
 73
    85
 74
     0
 42
0.000000001
 43
0.00000001
 40
0.0
 40
0.0
 40
0.0
 40
0.0
 40
0.0121397527786228
 40
0.0223308293200178
 40
0.0306272777763694
 40
0.0371039912499154
 40
0.0423701863566621
 40
0.0475051994340631
 40
0.0526022714476037
 40
0.0596723792398283
 40
0.0674994889967378
 40
0.0764675788532032
 40
0.0865757076340278
 40
0.0953783837366585
 40
0.1045890624507314
 40
0.1142028981241202
 40
0.1240676493901439
 40
0.1328333521124976
 40
0.1400713439801727
 40
0.1459560371546086
 40
0.1514950471619657
 40
0.1576531715343271
 40
0.170432873191331
 40
0.1845129439327273
 40
0.1986962186971194
 40
0.2129674642244247
 40
0.2272493402358902
 40
0.2409317972735865
 40
0.2542299765765874
 40
0.2668748115475414
 40
0.2776997728405162
 40
0.2902378541276796
 40
0.3057596028395421
 40
0.3246695835389022
 40
0.3447066546794159
 40
0.3641710907215228
 40
0.3830665841499903
 40
0.4011725458985964
 40
0.4139439764203522
 40
0.4252894951891428
 40
0.4352651513816898
 40
0.4456459856274239
 40
0.4572889704504595
 40
0.4701925014156243
 40
0.4841854264004298
 40
0.5046207599168228
 40
0.5256250591800441
 40
0.5471963095901436
 40
0.5688558355665414
 40
0.5818803202361017
 40
0.5944184531964961
 40
0.6064717194814963
 40
0.6180414103198938
 40
0.6283746697291235
 40
0.6354900357590874
 40
0.6412460392519231
 40
0.6465926121878651
 40
0.6532985112957691
 40
0.6614032221554055
 40
0.6709061359139846
 40
0.6811460578472247
 40
0.6925553291744562
 40
0.7039430198606875
 40
0.7148899700749957
 40
0.7253977784974484
 40
0.7414361682203122
 40
0.7563400529269908
 40
0.7701146079854626
 40
0.783200002305664
 40
0.7974086639512795
 40
0.8129532015318531
 40
0.8298505734593586
 40
0.8481186163777553
 40
0.8637324621386506
 40
0.8802449449786399
 40
0.8973282926020849
 40
0.9137192913586282
 40
0.92936075619343
 40
0.9418999302553733
 40
0.9540673689206524
 40
0.9658969133914652
 40
0.9774411955512825
 40
0.9887769035470713
 40
1.0
 40
1.0
 40
1.0
 40
1.0
 10
192.288158549645
 20
188.6042466027706
 30
0.0
 10
192.187839225855
 20
188.6332255298743
 30
0.0
 10
192.003303861924
 20
188.6865316792524
 30
0.0
 10
191.709548050819
 20
188.7634609285633
 30
0.0
 10
191.4404017259201
 20
188.8295436119071
 30
0.0
 10
191.186556762864
 20
188.888163879362
 30
0.0
 10
190.939868102829
 20
188.9415477501297
 30
0.0
 10
190.7474735096239
 20
188.9806965867384
 30
0.0
 10
190.557781627635
 20
189.0175533864133
 30
0.0
 10
190.3909285029899
 20
189.0484696748644
 30
0.0
 10
190.21939488783
 20
189.0790895743707
 30
0.0
 10
190.028674982216
 20
189.1117676340114
 30
0.0
 10
189.836243179926
 20
189.1433521207042
 30
0.0
 10
189.642989052991
 20
189.1738760038065
 30
0.0
 10
189.4562664824809
 20
189.2023839840796
 30
0.0
 10
189.2634248508489
 20
189.23089689504
 30
0.0
 10
189.0746248798309
 20
189.2579859999394
 30
0.0
 10
188.8971080867971
 20
189.2827945451192
 30
0.0
 10
188.744659554869
 20
189.3036463479939
 30
0.0
 10
188.6148997292839
 20
189.3211052859708
 30
0.0
 10
188.493685181958
 20
189.3371985143648
 30
0.0
 10
188.322957766555
 20
189.3595737212946
 30
0.0
 10
188.088216669551
 20
189.389730021692
 30
0.0
 10
187.7853097832819
 20
189.4276478794518
 30
0.0
 10
187.4589084206129
 20
189.4674987147245
 30
0.0
 10
187.1183807653119
 20
189.5081289460923
 30
0.0
 10
186.7693598101719
 20
189.5489012583382
 30
0.0
 10
186.4151754879679
 20
189.5894940070565
 30
0.0
 10
186.0632237563179
 20
189.6291451597778
 30
0.0
 10
185.7263835604529
 20
189.6665157952397
 30
0.0
 10
185.385687176695
 20
189.7038228019913
 30
0.0
 10
185.007255286572
 20
189.7447518872837
 30
0.0
 10
184.5347152407519
 20
189.7951480315942
 30
0.0
 10
183.963264199378
 20
189.8551169404996
 30
0.0
 10
183.3226000682089
 20
189.9212203751155
 30
0.0
 10
182.655015504409
 20
189.989023448137
 30
0.0
 10
181.9845704601209
 20
190.0561572199954
 30
0.0
 10
181.373149683011
 20
190.1166040999631
 30
0.0
 10
180.839047805393
 20
190.1688782873197
 30
0.0
 10
180.398331584757
 20
190.2116886485892
 30
0.0
 10
179.9808644500279
 20
190.25198032913
 30
0.0
 10
179.552329171381
 20
190.2930941548011
 30
0.0
 10
179.076130979483
 20
190.3384952001645
 30
0.0
 10
178.5403456317761
 20
190.389232113684
 30
0.0
 10
177.868557244976
 20
190.4523918911699
 30
0.0
 10
177.0602351951891
 20
190.5277156419251
 30
0.0
 10
176.113114858611
 20
190.6150687218152
 30
0.0
 10
175.118733600953
 20
190.7058517519037
 30
0.0
 10
174.2234369015539
 20
190.7867759480848
 30
0.0
 10
173.4581875529909
 20
190.8554127270297
 30
0.0
 10
172.840483268777
 20
190.9105089189915
 30
0.0
 10
172.2394229873089
 20
190.9638393171272
 30
0.0
 10
171.6688118686859
 20
191.0142165658566
 30
0.0
 10
171.1760158829341
 20
191.0575240154623
 30
0.0
 10
170.77859745915
 20
191.092324750445
 30
0.0
 10
170.4648400425979
 20
191.1197281285245
 30
0.0
 10
170.1568138910029
 20
191.1465704458011
 30
0.0
 10
169.8062298313509
 20
191.1770475211129
 30
0.0
 10
169.3805219029359
 20
191.2139459917164
 30
0.0
 10
168.8890592588671
 20
191.2563955814862
 30
0.0
 10
168.3345857465561
 20
191.3041018366918
 30
0.0
 10
167.7408719639429
 20
191.3549713088288
 30
0.0
 10
167.1302878209599
 20
191.4070454004673
 30
0.0
 10
166.5324485940509
 20
191.457793562027
 30
0.0
 10
165.8462950417199
 20
191.515762481015
 30
0.0
 10
165.0831510657729
 20
191.5798321347154
 30
0.0
 10
164.255144285446
 20
191.648751878043
 30
0.0
 10
163.478665060273
 20
191.7127489005253
 30
0.0
 10
162.713858532652
 20
191.7750058079377
 30
0.0
 10
161.915557594484
 20
191.8388827847819
 30
0.0
 10
161.042872737997
 20
191.9072350960203
 30
0.0
 10
160.0889507058159
 20
191.9799709482462
 30
0.0
 10
159.126885687682
 20
192.0509737299515
 30
0.0
 10
158.1650115475941
 20
192.1194998825555
 30
0.0
 10
157.219231258227
 20
192.1845873250261
 30
0.0
 10
156.2507093481261
 20
192.2482803869875
 30
0.0
 10
155.268164719289
 20
192.3193054391889
 30
0.0
 10
154.361938303417
 20
192.3914507373869
 30
0.0
 10
153.537647848254
 20
192.46303646409
 30
0.0
 10
152.795243595112
 20
192.5315439467506
 30
0.0
 10
152.0842253425681
 20
192.6001556688256
 30
0.0
 10
151.4095262385999
 20
192.6659998602601
 30
0.0
 10
150.7701498967911
 20
192.7271911481912
 30
0.0
 10
150.3757657667109
 20
192.7594100341553
 30
0.0
 10
150.1795580668991
 20
192.7754390602326
 30
0.0
  0
SPLINE
  5
5DF2
330
A
100
AcDbEntity
  8
MODEL
100
AcDbSpline
210
0.0
220
0.0
230
1.0
 70
     8
 71
     3
 72
    15
 73
    11
 74
     0
 42
0.000000001
 43
0.00000001
 40
0.0
 40
0.0
 40
0.0
 40
0.0
 40
0.1849475793201401
 40
0.3480513978849646
 40
0.4903896885486412
 40
0.6138687132139765
 40
0.7211584822436058
 40
0.8157083077667533
 40
0.905506644167253
 40
0.9999999999999999
 40
0.9999999999999999
 40
0.9999999999999999
 40
0.9999999999999999
 10
201.765080363075
 20
178.9794742815195
 30
0.0
 10
201.8274101892359
 20
179.0495879303675
 30
0.0
 10
201.944708199866
 20
179.1815342558189
 30
0.0
 10
202.122321571931
 20
179.3961901351136
 30
0.0
 10
202.2820163226941
 20
179.6122012499623
 30
0.0
 10
202.4209617435229
 20
179.8338222532575
 30
0.0
 10
202.535951139954
 20
180.0618084425718
 30
0.0
 10
202.6215679035499
 20
180.2979294710746
 30
0.0
 10
202.6750676250829
 20
180.5453242773991
 30
0.0
 10
202.6806512892199
 20
180.7009755360227
 30
0.0
 10
202.6835142460679
 20
180.7807838528747
 30
0.0
  0
SPLINE
  5
5DF3
330
A
100
AcDbEntity
  8
MODEL
100
AcDbSpline
210
0.0
220
0.0
230
1.0
 70
     8
 71
     3
 72
    12
 73
     8
 74
     0
 42
0.000000001
 43
0.00000001
 40
0.0
 40
0.0
 40
0.0
 40
0.0
 40
0.1293761141213588
 40
0.2543124052422573
 40
0.502322603386641
 40
0.750876858926222
 40
1.0
 40
1.0
 40
1.0
 40
1.0
 10
202.683514246067
 20
180.7807838528747
 30
0.0
 10
202.6795503929379
 20
180.8714643407765
 30
0.0
 10
202.671758714928
 20
181.0497134182316
 30
0.0
 10
202.5895511763529
 20
181.3860795666967
 30
0.0
 10
202.406150995844
 20
181.775315907604
 30
0.0
 10
202.1069234422289
 20
182.1949865875967
 30
0.0
 10
201.879114857386
 20
182.4529595173252
 30
0.0
 10
201.765080363142
 20
182.5820934241559
 30
0.0
  0
SPLINE
  5
5DF4
330
A
100
AcDbEntity
  8
MODEL
100
AcDbSpline
210
0.0
220
0.0
230
1.0
 70
     8
 71
     3
 72
    54
 73
    50
 74
     0
 42
0.000000001
 43
0.00000001
 40
0.0
 40
0.0
 40
0.0
 40
0.0
 40
0.0028605770990028
 40
0.0379399029078278
 40
0.0694885665005614
 40
0.0975061691429871
 40
0.1219941808925276
 40
0.1429568342146905
 40
0.1595006433896012
 40
0.1729329286754493
 40
0.1832834344667794
 40
0.1923326832667277
 40
0.2018387200994168
 40
0.2247248726002476
 40
0.2499459965248521
 40
0.277530988807466
 40
0.3077946368482222
 40
0.3346183805151735
 40
0.363829675219873
 40
0.3954424728458651
 40
0.4294718608860494
 40
0.4656906986452289
 40
0.4926544606136409
 40
0.5171181818034143
 40
0.5393237119353788
 40
0.5604656498803761
 40
0.5806986183593413
 40
0.6114428595279965
 40
0.6398258434190365
 40
0.6658506706472099
 40
0.689519866501908
 40
0.7108357573091423
 40
0.7298009254321496
 40
0.7465545854786995
 40
0.7633269908415993
 40
0.7992914778100828
 40
0.8384986132502054
 40
0.8809571371618735
 40
0.884640255580697
 40
0.8883456324570472
 40
0.8920732821373019
 40
0.8958232197031993
 40
0.9002757083933046
 40
0.9071151084613798
 40
0.9185775254048986
 40
0.9335925007601276
 40
0.9521632402244045
 40
0.974295680157357
 40
1.0
 40
1.0
 40
1.0
 40
1.0
 10
191.2232047908949
 20
172.6820330545899
 30
0.0
 10
191.230666219376
 20
172.6835675539119
 30
0.0
 10
191.3296273248939
 20
172.7039196553484
 30
0.0
 10
191.515329106292
 20
172.7461090645782
 30
0.0
 10
191.7729936192529
 20
172.80693148923
 30
0.0
 10
192.010053172829
 20
172.8666855670936
 30
0.0
 10
192.226655671149
 20
172.9241328195714
 30
0.0
 10
192.4201704931459
 20
172.9778844011245
 30
0.0
 10
192.592588106766
 20
173.0277249413084
 30
0.0
 10
192.7412504797219
 20
173.0721435441985
 30
0.0
 10
192.8856222251541
 20
173.1165870862102
 30
0.0
 10
193.025331354514
 20
173.1609132806093
 30
0.0
 10
193.2091890064439
 20
173.2209037797998
 30
0.0
 10
193.4478608234529
 20
173.3022550782813
 30
0.0
 10
193.7311975408929
 20
173.4043834580471
 30
0.0
 10
194.014585182591
 20
173.5121386144621
 30
0.0
 10
194.282709697362
 20
173.6193513807313
 30
0.0
 10
194.5766708430929
 20
173.7428639516027
 30
0.0
 10
194.8820355128919
 20
173.8778402718533
 30
0.0
 10
195.220247800351
 20
174.0355633133106
 30
0.0
 10
195.5886060513699
 20
174.2174385315441
 30
0.0
 10
195.9441005873521
 20
174.4037186053628
 30
0.0
 10
196.2643495083519
 20
174.5804680839509
 30
0.0
 10
196.533665779788
 20
174.7352265712766
 30
0.0
 10
196.7834789814319
 20
174.8841355940438
 30
0.0
 10
197.0161323123559
 20
175.0270835603195
 30
0.0
 10
197.278238274095
 20
175.1925925117747
 30
0.0
 10
197.5647600244199
 20
175.3796935075442
 30
0.0
 10
197.870767432757
 20
175.5873080283948
 30
0.0
 10
198.151258522711
 20
175.7843346536771
 30
0.0
 10
198.4074313451911
 20
175.9700117054936
 30
0.0
 10
198.6406040837439
 20
176.1438715454933
 30
0.0
 10
198.8515334109741
 20
176.3051626751892
 30
0.0
 10
199.052235590163
 20
176.4621809519475
 30
0.0
 10
199.317395572823
 20
176.6741849975773
 30
0.0
 10
199.6636345559359
 20
176.9603535412349
 30
0.0
 10
200.0991508749009
 20
177.3371148254767
 30
0.0
 10
200.409470382157
 20
177.6182788408041
 30
0.0
 10
200.5875995397159
 20
177.7841652848395
 30
0.0
 10
200.6272183231099
 20
177.8212332292257
 30
0.0
 10
200.6669678711839
 20
177.8585990539772
 30
0.0
 10
200.709249172608
 20
177.8985368854441
 30
0.0
 10
200.762426889449
 20
177.9490375591115
 30
0.0
 10
200.8426087653149
 20
178.0257580375375
 30
0.0
 10
200.959140761712
 20
178.1386726661745
 30
0.0
 10
201.114951778894
 20
178.2925094563353
 30
0.0
 10
201.304671591836
 20
178.4847991974558
 30
0.0
 10
201.526814986142
 20
178.7167405933158
 30
0.0
 10
201.681797994652
 20
178.8876393049694
 30
0.0
 10
201.7650756422111
 20
178.9794690017475
 30
0.0
  0
SPLINE
  5
5DF5
330
A
100
AcDbEntity
  8
MODEL
100
AcDbSpline
210
0.0
220
0.0
230
1.0
 70
     8
 71
     3
 72
    51
 73
    47
 74
     0
 42
0.000000001
 43
0.00000001
 40
0.0
 40
0.0
 40
0.0
 40
0.0
 40
0.0256608756012515
 40
0.0477559083171188
 40
0.066295260383798
 40
0.0812848581275605
 40
0.0927279018276247
 40
0.1007745080544715
 40
0.1057211949686281
 40
0.1103128509350229
 40
0.114875795391479
 40
0.1194100553374155
 40
0.1239156561350898
 40
0.1447709772303007
 40
0.1804056254134015
 40
0.2104744456259997
 40
0.2389061026245055
 40
0.2589529937137705
 40
0.2794505690922547
 40
0.3025922410368715
 40
0.3284095215188285
 40
0.3569035108134094
 40
0.3880764232795266
 40
0.4219320804542792
 40
0.4484085204899809
 40
0.4763384313717081
 40
0.5071610831271463
 40
0.5418314160067715
 40
0.5772865864719489
 40
0.6109076342995194
 40
0.6482154219313152
 40
0.6830581242127154
 40
0.7154581882223977
 40
0.7450473394012682
 40
0.7747059813777205
 40
0.8007373563165653
 40
0.8099884300524953
 40
0.8189646039654005
 40
0.830241548068881
 40
0.8444992876761817
 40
0.8653881661608621
 40
0.8905495059626557
 40
0.9199914520508642
 40
0.9537171355856573
 40
0.9917266014679074
 40
1.0
 40
1.0
 40
1.0
 40
1.0
 10
201.7650756422111
 20
182.582098704002
 30
0.0
 10
201.6817980025419
 20
182.6739283930978
 30
0.0
 10
201.5268150087149
 20
182.8448270904526
 30
0.0
 10
201.304671520933
 20
183.0767685773456
 30
0.0
 10
201.114951980943
 20
183.2690580526446
 30
0.0
 10
200.9591402215081
 20
183.422895565666
 30
0.0
 10
200.838339995729
 20
183.5399459208443
 30
0.0
 10
200.752038387936
 20
183.6224527569093
 30
0.0
 10
200.689720299787
 20
183.6815187597038
 30
0.0
 10
200.639630937832
 20
183.7287004598263
 30
0.0
 10
200.590891761545
 20
183.7743430722169
 30
0.0
 10
200.54235046863
 20
183.8195426287105
 30
0.0
 10
200.4354481351379
 20
183.9185348797623
 30
0.0
 10
200.2159137584031
 20
184.1187656404101
 30
0.0
 10
199.9021380875249
 20
184.3961148622862
 30
0.0
 10
199.5595675012369
 20
184.6876052019615
 30
0.0
 10
199.2731316577779
 20
184.9230277678835
 30
0.0
 10
199.0215172265589
 20
185.1238540988861
 30
0.0
 10
198.790353791909
 20
185.3038294262335
 30
0.0
 10
198.539687534055
 20
185.493813460912
 30
0.0
 10
198.259707449924
 20
185.6996478645222
 30
0.0
 10
197.9489727658261
 20
185.9203668344951
 30
0.0
 10
197.6057112661181
 20
186.1549592639491
 30
0.0
 10
197.265302056272
 20
186.3777939364691
 30
0.0
 10
196.9323526479091
 20
186.5869520240739
 30
0.0
 10
196.605779648266
 20
186.7845867749536
 30
0.0
 10
196.246055082783
 20
186.9922845193721
 30
0.0
 10
195.8517671076941
 20
187.207737857644
 30
0.0
 10
195.4504791585189
 20
187.4137705085308
 30
0.0
 10
195.05361352932
 20
187.6052482295198
 30
0.0
 10
194.6768250405469
 20
187.7758369536008
 30
0.0
 10
194.3242503171539
 20
187.9254004511212
 30
0.0
 10
194.035357284288
 20
188.0413344318232
 30
0.0
 10
193.742295112293
 20
188.1532004495956
 30
0.0
 10
193.436712195462
 20
188.2634626216694
 30
0.0
 10
193.1720350484841
 20
188.3531571374213
 30
0.0
 10
192.9732506941189
 20
188.4173296422588
 30
0.0
 10
192.828769139725
 20
188.4626383597104
 30
0.0
 10
192.6901548785061
 20
188.5048274784389
 30
0.0
 10
192.5231283496789
 20
188.5541974287904
 30
0.0
 10
192.3269338933781
 20
188.6099545133735
 30
0.0
 10
192.098587454243
 20
188.6718402784637
 30
0.0
 10
191.845579363267
 20
188.7368299203305
 30
0.0
 10
191.5675921395659
 20
188.8035236053369
 30
0.0
 10
191.3528733725559
 20
188.8526659355247
 30
0.0
 10
191.231961029657
 20
188.877525616855
 30
0.0
 10
191.210347069223
 20
188.8819694656451
 30
0.0
  0
LINE
  5
5DFE
330
A
100
AcDbEntity
  8
MODEL
100
AcDbLine
 10
133.381650740114
 20
208.2807838528878
 30
0.0
 11
127.1816507401139
 21
208.2807838528878
 31
0.0
  0
LINE
  5
5DFF
330
A
100
AcDbEntity
  8
MODEL
100
AcDbLine
 10
129.6816507401139
 20
153.2807838528878
 30
0.0
 11
133.381650740114
 21
153.2807838528878
 31
0.0
  0
ARC
  5
5E00
330
A
100
AcDbEntity
  8
MODEL
100
AcDbCircle
 10
133.381650740114
 20
207.2807838528878
 30
0.0
 40
1.0
100
AcDbArc
 50
0.0
 51
90.0
  0
ARC
  5
5E01
330
A
100
AcDbEntity
  8
MODEL
100
AcDbCircle
 10
133.381650740114
 20
154.2807838528878
 30
0.0
 40
1.0
100
AcDbArc
 50
270.0
 51
0.0
  0
ARC
  5
5E14
330
A
100
AcDbEntity
  8
MODEL
100
AcDbCircle
 10
134.981650740114
 20
189.2807838528878
 30
0.0
 40
0.5
100
AcDbArc
 50
0.0
 51
66.4218215218074
  0
ARC
  5
5E15
330
A
100
AcDbEntity
  8
MODEL
100
AcDbCircle
 10
134.981650740114
 20
172.2807838528878
 30
0.0
 40
0.5
100
AcDbArc
 50
293.5781784781926
 51
0.0
  0
LINE
  5
5E1E
330
A
100
AcDbEntity
  8
MODEL
100
AcDbLine
 10
125.481650740114
 20
185.2307838528879
 30
0.0
 11
121.481650740114
 21
184.5254759300879
 31
0.0
  0
LINE
  5
5E1F
330
A
100
AcDbEntity
  8
MODEL
100
AcDbLine
 10
121.481650740114
 20
177.0360917756879
 30
0.0
 11
125.481650740114
 21
176.3307838528879
 31
0.0
  0
LINE
  5
5E20
330
A
100
AcDbEntity
  8
MODEL
100
AcDbLine
 10
127.1816507401139
 20
185.2307838528879
 30
0.0
 11
125.481650740114
 21
185.2307838528879
 31
0.0
  0
LINE
  5
5E21
330
A
100
AcDbEntity
  8
MODEL
100
AcDbLine
 10
125.481650740114
 20
176.3307838528879
 30
0.0
 11
127.1816507401139
 21
176.3307838528879
 31
0.0
  0
LINE
  5
5E22
330
A
100
AcDbEntity
  8
MODEL
100
AcDbLine
 10
134.381650740114
 20
169.8807838528878
 30
0.0
 11
135.1816507401139
 21
170.6807838528878
 31
0.0
  0
LINE
  5
5E23
330
A
100
AcDbEntity
  8
MODEL
100
AcDbLine
 10
135.1816507401139
 20
190.8807838528878
 30
0.0
 11
134.381650740114
 21
191.6807838528878
 31
0.0
  0
SPLINE
  5
5E2C
330
A
100
AcDbEntity
  8
MODEL
100
AcDbSpline
210
0.0
220
0.0
230
1.0
 70
     8
 71
     3
 72
    16
 73
    12
 74
     0
 42
0.000000001
 43
0.00000001
 40
0.0
 40
0.0
 40
0.0
 40
0.0
 40
0.4468743783372479
 40
0.5170670404041063
 40
0.5871945561063313
 40
0.6572972996435877
 40
0.7273777794884193
 40
0.7974310542471894
 40
0.8674596599042906
 40
0.9374631812427352
 40
1.0
 40
1.0
 40
1.0
 40
1.0
 10
135.481650740133
 20
167.6807838528751
 30
0.0
 10
139.7943100985419
 20
168.0028848684203
 30
0.0
 10
144.7843791622929
 20
168.3755798066239
 30
0.0
 10
150.45192547333
 20
168.8065893589712
 30
0.0
 10
152.480229698147
 20
168.9632163864823
 30
0.0
 10
154.4978215076039
 20
169.1211952399115
 30
0.0
 10
156.4989458883319
 20
169.2800944969354
 30
0.0
 10
158.4783348941969
 20
169.4394196767393
 30
0.0
 10
160.4290014184201
 20
169.5986328318641
 30
0.0
 10
162.2823313394711
 20
169.7517842040627
 30
0.0
 10
163.4635451168529
 20
169.8511150278561
 30
0.0
 10
164.0208799769889
 20
169.8979825228397
 30
0.0
  0
SPLINE
  5
5E2D
330
A
100
AcDbEntity
  8
MODEL
100
AcDbSpline
210
0.0
220
0.0
230
1.0
 70
     8
 71
     3
 72
    23
 73
    19
 74
     0
 42
0.000000001
 43
0.00000001
 40
0.0
 40
0.0
 40
0.0
 40
0.0
 40
0.0633350029826785
 40
0.1267143286697059
 40
0.1895198856447247
 40
0.2523018884837545
 40
0.3145019209725345
 40
0.3764468483775575
 40
0.4382685884352462
 40
0.4997179613601211
 40
0.5615622498490233
 40
0.6232723730662594
 40
0.6854348539489794
 40
0.7478914760165296
 40
0.810387918347221
 40
0.8734633305821937
 40
0.9363379394526125
 40
1.0
 40
1.0
 40
1.0
 40
1.0
 10
143.501493772377
 20
180.7807838538499
 30
0.0
 10
143.4902062642809
 20
180.5768897415599
 30
0.0
 10
143.4676233489379
 20
180.1689588290814
 30
0.0
 10
143.2878358965891
 20
179.5826964061133
 30
0.0
 10
143.009524901717
 20
179.0439485243683
 30
0.0
 10
142.633795015312
 20
178.5732605133552
 30
0.0
 10
142.176220355301
 20
178.1863016026721
 30
0.0
 10
141.652408608775
 20
177.8976134949534
 30
0.0
 10
141.0816074575939
 20
177.7192058323656
 30
0.0
 10
140.4854575427369
 20
177.6589375527037
 30
0.0
 10
139.8899042266919
 20
177.7198254198188
 30
0.0
 10
139.318155501152
 20
177.8988797993346
 30
0.0
 10
138.793257483479
 20
178.187544842203
 30
0.0
 10
138.334335041538
 20
178.5742917105722
 30
0.0
 10
137.956439932343
 20
179.0450058424929
 30
0.0
 10
137.677041988998
 20
179.5820832640669
 30
0.0
 10
137.495612077178
 20
180.1684569213898
 30
0.0
 10
137.4727752981099
 20
180.5758298335401
 30
0.0
 10
137.4612858506759
 20
180.7807838529402
 30
0.0
  0
SPLINE
  5
5E2E
102
{ACAD_REACTORS
330
5EF4
102
}
330
A
100
AcDbEntity
  8
MODEL
100
AcDbSpline
210
0.0
220
0.0
230
1.0
 70
    24
 71
     3
 72
    26
 73
    22
 74
     0
 42
0.000000001
 43
0.00000001
 40
0.0
 40
0.0
 40
0.0
 40
0.0
 40
0.0535973264878499
 40
0.1073861889538767
 40
0.1611750514199036
 40
0.2147723779077535
 40
0.2683697043956034
 40
0.3221585668616302
 40
0.375947429327657
 40
0.4295447558155068
 40
0.4831420823033575
 40
0.5369309447693852
 40
0.5907198072354128
 40
0.6443171337232636
 40
0.6979144602111138
 40
0.7517033226771408
 40
0.8054921851431679
 40
0.8590895116310181
 40
0.9060383017978036
 40
0.9530512098332143
 40
1.0
 40
1.0
 40
1.0
 40
1.0
 10
135.481650740133
 20
167.6807838528751
 30
0.0
 10
135.481650740133
 20
167.6899633466695
 30
0.0
 10
135.481650740133
 20
167.7083551381959
 30
0.0
 10
135.481650740133
 20
167.8540384300718
 30
0.0
 10
135.481650740133
 20
168.0835109968796
 30
0.0
 10
135.481650740133
 20
168.4043293408365
 30
0.0
 10
135.481650740133
 20
168.8147582541033
 30
0.0
 10
135.481650740133
 20
169.3104185768253
 30
0.0
 10
135.481650740133
 20
169.8864884025957
 30
0.0
 10
135.481650740133
 20
170.5389672775824
 30
0.0
 10
135.481650740133
 20
171.2660053500736
 30
0.0
 10
135.481650740133
 20
172.0611319245774
 30
0.0
 10
135.481650740133
 20
172.917411597497
 30
0.0
 10
135.481650740133
 20
173.8283737199714
 30
0.0
 10
135.481650740133
 20
174.7899488301669
 30
0.0
 10
135.481650740133
 20
175.7949290630741
 30
0.0
 10
135.481650740133
 20
176.834856421129
 30
0.0
 10
135.481650740133
 20
177.857599742342
 30
0.0
 10
135.481650740133
 20
178.8532215101593
 30
0.0
 10
135.481650740133
 20
179.8143669176403
 30
0.0
 10
135.481650740133
 20
180.4587914559205
 30
0.0
 10
135.481650740133
 20
180.7807838528751
 30
0.0
  0
SPLINE
  5
5E2F
330
A
100
AcDbEntity
  8
MODEL
100
AcDbSpline
210
0.0
220
0.0
230
1.0
 70
     8
 71
     3
 72
    15
 73
    11
 74
     0
 42
0.000000001
 43
0.00000001
 40
0.0
 40
0.0
 40
0.0
 40
0.0
 40
0.4779446305219052
 40
0.55301764334288
 40
0.628020980298285
 40
0.7029978227273596
 40
0.777950853512073
 40
0.8528747876932546
 40
0.9277723375771033
 40
0.9999999999999999
 40
0.9999999999999999
 40
0.9999999999999999
 40
0.9999999999999999
 10
135.481650740133
 20
193.880783852875
 30
0.0
 10
139.794313086519
 20
193.5586827562023
 30
0.0
 10
144.784385607529
 20
193.1859877241324
 30
0.0
 10
150.451922215912
 20
192.7549784391987
 30
0.0
 10
152.4802424899929
 20
192.5983509737711
 30
0.0
 10
154.4977736139381
 20
192.4403737801376
 30
0.0
 10
156.4991245800429
 20
192.2814683299872
 30
0.0
 10
158.477668363973
 20
192.1221662564523
 30
0.0
 10
160.4085047964491
 20
191.9647407595085
 30
0.0
 10
161.6598670151659
 20
191.8609399263968
 30
0.0
 10
162.2741938629249
 20
191.8099813488991
 30
0.0
  0
SPLINE
  5
5E30
330
A
100
AcDbEntity
  8
MODEL
100
AcDbSpline
210
0.0
220
0.0
230
1.0
 70
     8
 71
     3
 72
    23
 73
    19
 74
     0
 42
0.000000001
 43
0.00000001
 40
0.0
 40
0.0
 40
0.0
 40
0.0
 40
0.0631647062854445
 40
0.126415898132602
 40
0.1891619380329202
 40
0.251977959641274
 40
0.3142553721169757
 40
0.3763287090907176
 40
0.4382364537176565
 40
0.4997213264765489
 40
0.5615290269602066
 40
0.6231322126362803
 40
0.6852033826844474
 40
0.7475665056482534
 40
0.8100511653458542
 40
0.873177472204978
 40
0.936167757994296
 40
1.0
 40
1.0
 40
1.0
 40
1.0
 10
137.4612858506759
 20
180.7807838529402
 30
0.0
 10
137.472604511917
 20
180.9841287625775
 30
0.0
 10
137.495257331988
 20
181.3910970031378
 30
0.0
 10
137.675729910716
 20
181.9763139013276
 30
0.0
 10
137.95519044653
 20
182.5146400381259
 30
0.0
 10
138.3323133796169
 20
182.9852671961027
 30
0.0
 10
138.7910738088581
 20
183.3724149559471
 30
0.0
 10
139.3154209550719
 20
183.6615566124576
 30
0.0
 10
139.8862489853771
 20
183.8409329861821
 30
0.0
 10
140.482283088231
 20
183.9026254721105
 30
0.0
 10
141.077873898392
 20
183.8431719881234
 30
0.0
 10
141.6496463164899
 20
183.6650999234706
 30
0.0
 10
142.1740225874669
 20
183.3768941080952
 30
0.0
 10
142.631857129018
 20
182.9902385767836
 30
0.0
 10
143.008343215761
 20
182.5194542826868
 30
0.0
 10
143.2865661964379
 20
181.9819373035387
 30
0.0
 10
143.467273619066
 20
181.3945818917853
 30
0.0
 10
143.49003668106
 20
180.9862867371036
 30
0.0
 10
143.501493772377
 20
180.7807838538499
 30
0.0
  0
SPLINE
  5
5E31
330
A
100
AcDbEntity
  8
MODEL
100
AcDbSpline
210
0.0
220
0.0
230
1.0
 70
    24
 71
     3
 72
    26
 73
    22
 74
     0
 42
0.000000001
 43
0.00000001
 40
0.0
 40
0.0
 40
0.0
 40
0.0
 40
0.0535973264878498
 40
0.1073861889538766
 40
0.1611750514199033
 40
0.2147723779077532
 40
0.268369704395603
 40
0.3221585668616296
 40
0.3759474293276564
 40
0.4295447558155062
 40
0.4831420823033561
 40
0.5369309447693827
 40
0.5907198072354095
 40
0.6443171337232593
 40
0.6979144602111093
 40
0.7517033226771364
 40
0.8054921851431633
 40
0.8590895116310133
 40
0.9060383017978006
 40
0.9530512098332129
 40
1.0
 40
1.0
 40
1.0
 40
1.0
 10
135.481650740133
 20
193.880783852875
 30
0.0
 10
135.481650740133
 20
193.8716043590803
 30
0.0
 10
135.481650740133
 20
193.853212567554
 30
0.0
 10
135.481650740133
 20
193.7075292756781
 30
0.0
 10
135.481650740133
 20
193.4780567088702
 30
0.0
 10
135.481650740133
 20
193.1572383649135
 30
0.0
 10
135.481650740133
 20
192.7468094516468
 30
0.0
 10
135.481650740133
 20
192.2511491289246
 30
0.0
 10
135.481650740133
 20
191.6750793031545
 30
0.0
 10
135.481650740133
 20
191.0226004281675
 30
0.0
 10
135.481650740133
 20
190.2955623556765
 30
0.0
 10
135.481650740133
 20
189.5004357811726
 30
0.0
 10
135.481650740133
 20
188.644156108253
 30
0.0
 10
135.481650740133
 20
187.7331939857785
 30
0.0
 10
135.481650740133
 20
186.7716188755832
 30
0.0
 10
135.481650740133
 20
185.766638642676
 30
0.0
 10
135.481650740133
 20
184.7267112846211
 30
0.0
 10
135.481650740133
 20
183.7039679634079
 30
0.0
 10
135.481650740133
 20
182.7083461955908
 30
0.0
 10
135.481650740133
 20
181.7472007881096
 30
0.0
 10
135.481650740133
 20
181.1027762498295
 30
0.0
 10
135.481650740133
 20
180.7807838528751
 30
0.0
  0
SPLINE
  5
5E35
330
A
100
AcDbEntity
  8
MODEL
100
AcDbSpline
210
0.0
220
0.0
230
1.0
 70
    24
 71
     3
 72
    12
 73
     8
 74
     0
 42
0.000000001
 43
0.00000001
 40
0.0
 40
0.0
 40
0.0
 40
0.0
 40
0.2161803599396568
 40
0.4397513263239711
 40
0.5934082038109701
 40
0.7522005489759235
 40
1.0
 40
1.0
 40
1.0
 40
1.0
 10
141.3476761439181
 20
179.2807838529182
 30
0.0
 10
141.4069715432199
 20
179.3834864971658
 30
0.0
 10
141.527589486939
 20
179.5924029039915
 30
0.0
 10
141.7049200078341
 20
179.8995483759126
 30
0.0
 10
141.867049771256
 20
180.1803653635793
 30
0.0
 10
142.0335713858849
 20
180.468789260675
 30
0.0
 10
142.1454913517359
 20
180.6626403279098
 30
0.0
 10
142.2137015477019
 20
180.7807838529182
 30
0.0
  0
SPLINE
  5
5E36
330
A
100
AcDbEntity
  8
MODEL
100
AcDbSpline
210
0.0
220
0.0
230
1.0
 70
    24
 71
     3
 72
    12
 73
     8
 74
     0
 42
0.000000001
 43
0.00000001
 40
0.0
 40
0.0
 40
0.0
 40
0.0
 40
0.2161803599396571
 40
0.4397513263239705
 40
0.5934082038109697
 40
0.7522005489759231
 40
1.0
 40
1.0
 40
1.0
 40
1.0
 10
142.2137015477019
 20
180.7807838529182
 30
0.0
 10
142.1544061483989
 20
180.8834864971658
 30
0.0
 10
142.0337882046799
 20
181.0924029039915
 30
0.0
 10
141.8564576837859
 20
181.3995483759126
 30
0.0
 10
141.694327920364
 20
181.6803653635793
 30
0.0
 10
141.5278063057349
 20
181.968789260675
 30
0.0
 10
141.4158863398841
 20
182.1626403279098
 30
0.0
 10
141.3476761439181
 20
182.2807838529182
 30
0.0
  0
SPLINE
  5
5E37
330
A
100
AcDbEntity
  8
MODEL
100
AcDbSpline
210
0.0
220
0.0
230
1.0
 70
    24
 71
     3
 72
    13
 73
     9
 74
     0
 42
0.000000001
 43
0.00000001
 40
0.0
 40
0.0
 40
0.0
 40
0.0
 40
0.158807480913562
 40
0.3273035293722526
 40
0.4954368675869102
 40
0.657624802391448
 40
0.8201162009461839
 40
1.0
 40
1.0
 40
1.0
 40
1.0
 10
141.3476761439181
 20
182.2807838529182
 30
0.0
 10
141.260957243336
 20
182.2807838529182
 30
0.0
 10
141.0822288732329
 20
182.2807838529182
 30
0.0
 10
140.794103492525
 20
182.2807838529182
 30
0.0
 10
140.493545617524
 20
182.2807838529182
 30
0.0
 10
140.19626668868
 20
182.2807838529182
 30
0.0
 10
139.901337364681
 20
182.2807838529182
 30
0.0
 10
139.7140342970749
 20
182.2807838529182
 30
0.0
 10
139.615625336349
 20
182.2807838529182
 30
0.0
  0
SPLINE
  5
5E38
330
A
100
AcDbEntity
  8
MODEL
100
AcDbSpline
210
0.0
220
0.0
230
1.0
 70
    24
 71
     3
 72
    12
 73
     8
 74
     0
 42
0.000000001
 43
0.00000001
 40
0.0
 40
0.0
 40
0.0
 40
0.0
 40
0.2161803599396571
 40
0.4397513263239705
 40
0.5934082038109694
 40
0.7522005489759226
 40
1.0
 40
1.0
 40
1.0
 40
1.0
 10
139.615625336349
 20
182.2807838529182
 30
0.0
 10
139.556329937046
 20
182.1780812086705
 30
0.0
 10
139.435711993327
 20
181.9691648018447
 30
0.0
 10
139.258381472433
 20
181.6620193299236
 30
0.0
 10
139.0962517090099
 20
181.3812023422569
 30
0.0
 10
138.929730094382
 20
181.0927784451614
 30
0.0
 10
138.8178101285309
 20
180.8989273779264
 30
0.0
 10
138.749599932564
 20
180.7807838529182
 30
0.0
  0
SPLINE
  5
5E39
330
A
100
AcDbEntity
  8
MODEL
100
AcDbSpline
210
0.0
220
0.0
230
1.0
 70
    24
 71
     3
 72
    12
 73
     8
 74
     0
 42
0.000000001
 43
0.00000001
 40
0.0
 40
0.0
 40
0.0
 40
0.0
 40
0.2161803599396569
 40
0.4397513263239701
 40
0.5934082038109691
 40
0.7522005489759223
 40
1.0
 40
1.0
 40
1.0
 40
1.0
 10
138.749599932564
 20
180.7807838529182
 30
0.0
 10
138.808895331867
 20
180.6780812086705
 30
0.0
 10
138.929513275586
 20
180.4691648018447
 30
0.0
 10
139.10684379648
 20
180.1620193299236
 30
0.0
 10
139.268973559902
 20
179.8812023422569
 30
0.0
 10
139.4354951745311
 20
179.5927784451614
 30
0.0
 10
139.5474151403819
 20
179.3989273779264
 30
0.0
 10
139.615625336349
 20
179.2807838529182
 30
0.0
  0
SPLINE
  5
5E3A
330
A
100
AcDbEntity
  8
MODEL
100
AcDbSpline
210
0.0
220
0.0
230
1.0
 70
    24
 71
     3
 72
    13
 73
     9
 74
     0
 42
0.000000001
 43
0.00000001
 40
0.0
 40
0.0
 40
0.0
 40
0.0
 40
0.1798837990538161
 40
0.342375197608552
 40
0.5045631324130899
 40
0.6726964706277476
 40
0.841192519086438
 40
1.0
 40
1.0
 40
1.0
 40
1.0
 10
139.615625336349
 20
179.2807838529182
 30
0.0
 10
139.7140342970749
 20
179.2807838529182
 30
0.0
 10
139.901337364681
 20
179.2807838529182
 30
0.0
 10
140.19626668868
 20
179.2807838529182
 30
0.0
 10
140.493545617524
 20
179.2807838529182
 30
0.0
 10
140.794103492525
 20
179.2807838529182
 30
0.0
 10
141.0822288732329
 20
179.2807838529182
 30
0.0
 10
141.260957243336
 20
179.2807838529182
 30
0.0
 10
141.3476761439181
 20
179.2807838529182
 30
0.0
  0
CIRCLE
  5
5E3B
330
A
100
AcDbEntity
  8
MODEL
100
AcDbCircle
 10
140.481650740114
 20
180.7807838528878
 30
0.0
 40
1.75
  0
CIRCLE
  5
5E3C
330
A
100
AcDbEntity
  8
MODEL
100
AcDbCircle
 10
140.481650740114
 20
180.7807838528878
 30
0.0
 40
3.0
  0
CIRCLE
  5
5E3D
330
A
100
AcDbEntity
  8
MODEL
100
AcDbCircle
 10
140.481650740114
 20
180.7807838528878
 30
0.0
 40
2.699999999999989
  0
LINE
  5
5E4D
330
A
100
AcDbEntity
  8
MODEL
100
AcDbLine
 10
127.1816507401139
 20
208.2807838528878
 30
0.0
 11
127.1816507401139
 21
153.4449099871878
 31
0.0
  0
LINE
  5
5E4F
330
A
100
AcDbEntity
  8
MODEL
100
AcDbLine
 10
134.381650740114
 20
207.2807838528878
 30
0.0
 11
134.381650740114
 21
154.2807838528878
 31
0.0
  0
LINE
  5
5E5C
330
A
100
AcDbEntity
  8
MODEL
100
AcDbLine
 10
121.481650740114
 20
177.0360917756879
 30
0.0
 11
121.481650740114
 21
184.5254759300879
 31
0.0
  0
LINE
  5
5E5D
330
A
100
AcDbEntity
  8
MODEL
100
AcDbLine
 10
125.481650740114
 20
185.2307838528879
 30
0.0
 11
125.481650740114
 21
176.3307838528879
 31
0.0
  0
LINE
  5
5E5E
330
A
100
AcDbEntity
  8
MODEL
100
AcDbLine
 10
135.1816507401139
 20
190.8807838528878
 30
0.0
 11
135.1816507401139
 21
170.6807838528878
 31
0.0
  0
LINE
  5
5E5F
102
{ACAD_REACTORS
330
5EF4
102
}
330
A
100
AcDbEntity
  8
MODEL
100
AcDbLine
 10
127.1816507401139
 20
153.2807838528878
 30
0.0
 11
127.1816507401139
 21
153.4449099871878
 31
0.0
  0
LINE
  5
5E6D
102
{ACAD_REACTORS
330
5F8D
102
}
330
A
100
AcDbEntity
  8
CutoutUnderlay
100
AcDbLine
 10
534.111773821712
 20
180.035582043902
 30
0.0
 11
534.171404319012
 21
180.160865955702
 31
0.0
  0
LINE
  5
5E6E
102
{ACAD_REACTORS
330
5F8D
102
}
330
A
100
AcDbEntity
  8
CutoutUnderlay
100
AcDbLine
 10
534.179501472712
 20
181.590248783402
 30
0.0
 11
534.112304405912
 21
181.736628153102
 31
0.0
  0
LINE
  5
5E6F
102
{ACAD_REACTORS
330
5F8D
102
}
330
A
100
AcDbEntity
  8
CutoutUnderlay
100
AcDbLine
 10
534.111863803912
 20
181.7304322010021
 30
0.0
 11
533.9630567649122
 21
181.962509362902
 31
0.0
  0
SPLINE
  5
5E74
102
{ACAD_REACTORS
330
5F8D
102
}
330
A
100
AcDbEntity
  8
CutoutUnderlay
100
AcDbSpline
210
0.0
220
0.0
230
1.0
 70
     8
 71
     3
 72
    21
 73
    17
 74
     0
 42
0.000000001
 43
0.00000001
 40
0.0
 40
0.0
 40
0.0
 40
0.0
 40
0.0663808013555805
 40
0.1291002971352555
 40
0.1795019669750519
 40
0.218273965507694
 40
0.2565506301850821
 40
0.295407677692877
 40
0.4815186635934585
 40
0.6001493939275241
 40
0.7118910414098217
 40
0.7463286770057465
 40
0.7932681122494675
 40
0.853128954296169
 40
0.9233857677519453
 40
1.0
 40
1.0
 40
1.0
 40
1.0
 10
515.1937725987736
 20
187.1332722650852
 30
0.0
 10
515.0171374914094
 20
187.1529863726201
 30
0.0
 10
514.6736097788846
 20
187.1913272345641
 30
0.0
 10
514.1956602473801
 20
187.2413214150626
 30
0.0
 10
513.7910504468102
 20
187.2825799912982
 30
0.0
 10
513.4513120162007
 20
187.3164449971867
 30
0.0
 10
513.1422770588249
 20
187.3467466986621
 30
0.0
 10
512.4402183767675
 20
187.4145105033195
 30
0.0
 10
511.5233354881461
 20
187.4993656537496
 30
0.0
 10
510.4114966850815
 20
187.5974092486173
 30
0.0
 10
509.7043377688091
 20
187.6573707367274
 30
0.0
 10
509.1885131908875
 20
187.6998495296511
 30
0.0
 10
508.8112933885144
 20
187.7303712926395
 30
0.0
 10
508.3383496600754
 20
187.7675713216242
 30
0.0
 10
507.786019324952
 20
187.8095814697695
 30
0.0
 10
507.3933713910554
 20
187.8369091466988
 30
0.0
 10
507.1885494000693
 20
187.8511644342337
 30
0.0
  0
SPLINE
  5
5E75
102
{ACAD_REACTORS
330
5F8D
102
}
330
A
100
AcDbEntity
  8
CutoutUnderlay
100
AcDbSpline
210
0.0
220
0.0
230
1.0
 70
     8
 71
     3
 72
    21
 73
    17
 74
     0
 42
0.000000001
 43
0.00000001
 40
0.0
 40
0.0
 40
0.0
 40
0.0
 40
0.0713547043967157
 40
0.1342612289957312
 40
0.1848946312467129
 40
0.2238004822770627
 40
0.2620953884320781
 40
0.3009689367211356
 40
0.4871612482766179
 40
0.6058060517924867
 40
0.7176693932791776
 40
0.7519619142021313
 40
0.7986541424847204
 40
0.8583342409828489
 40
0.9284076904394423
 40
1.0
 40
1.0
 40
1.0
 40
1.0
 10
507.1885543480294
 20
173.9219766775453
 30
0.0
 10
507.3792595618098
 20
173.9352153396742
 30
0.0
 10
507.7380910725635
 20
173.9601252466345
 30
0.0
 10
508.2320036315117
 20
173.9974271442613
 30
0.0
 10
508.6392343393059
 20
174.0291511455078
 30
0.0
 10
508.9807634994525
 20
174.0564432145098
 30
0.0
 10
509.2908234863008
 20
174.0816686470472
 30
0.0
 10
509.9942424837894
 20
174.1398616556193
 30
0.0
 10
510.9119876601465
 20
174.2191038491936
 30
0.0
 10
512.0241419845754
 20
174.3199535716862
 30
0.0
 10
512.7306009739204
 20
174.3865343650984
 30
0.0
 10
513.2448939197152
 20
174.4363928857136
 30
0.0
 10
513.6197949364441
 20
174.4733367296359
 30
0.0
 10
514.0898756884096
 20
174.5208594476602
 30
0.0
 10
514.6261182299916
 20
174.576613127445
 30
0.0
 10
515.0032028665926
 20
174.618635680848
 30
0.0
 10
515.1937666289398
 20
174.6398722285686
 30
0.0
  0
SPLINE
  5
5E76
102
{ACAD_REACTORS
330
5F8D
102
}
330
A
100
AcDbEntity
  8
CutoutUnderlay
100
AcDbSpline
210
0.0
220
0.0
230
1.0
 70
     8
 71
     3
 72
     9
 73
     5
 74
     0
 42
0.000000001
 43
0.00000001
 40
0.0
 40
0.0
 40
0.0
 40
0.0
 40
0.6008079516290703
 40
1.0
 40
1.0
 40
1.0
 40
1.0
 10
505.0849300539128
 20
173.7915693116354
 30
0.0
 10
505.5056713328233
 20
173.8158723354826
 30
0.0
 10
506.2059637936165
 20
173.8563229050554
 30
0.0
 10
506.9057534199567
 20
173.9037330061944
 30
0.0
 10
507.1851038743242
 20
173.9226587415815
 30
0.0
  0
SPLINE
  5
5E77
102
{ACAD_REACTORS
330
5F8D
102
}
330
A
100
AcDbEntity
  8
CutoutUnderlay
100
AcDbSpline
210
0.0
220
0.0
230
1.0
 70
     8
 71
     3
 72
     9
 73
     5
 74
     0
 42
0.000000001
 43
0.00000001
 40
0.0
 40
0.0
 40
0.0
 40
0.0
 40
0.3991520393077043
 40
1.0
 40
1.0
 40
1.0
 40
1.0
 10
507.1850692393211
 20
187.8504842790814
 30
0.0
 10
506.905756877953
 20
187.8694074399012
 30
0.0
 10
506.2059925429076
 20
187.916815843107
 30
0.0
 10
505.5056996253279
 20
187.9572665965987
 30
0.0
 10
505.0849300539129
 20
187.9815713493426
 30
0.0
  0
SPLINE
  5
5E7A
102
{ACAD_REACTORS
330
5F8D
102
}
330
A
100
AcDbEntity
  8
CutoutUnderlay
100
AcDbSpline
210
0.0
220
0.0
230
1.0
 70
     8
 71
     3
 72
    15
 73
    11
 74
     0
 42
0.000000001
 43
0.00000001
 40
0.0
 40
0.0
 40
0.0
 40
0.0
 40
0.1615417326695729
 40
0.2885725505186226
 40
0.3838160715257893
 40
0.4530952644287742
 40
0.5415144020485037
 40
0.6607834292447746
 40
0.8124219608910039
 40
1.0
 40
1.0
 40
1.0
 40
1.0
 10
534.1123044058645
 20
180.0365125078825
 30
0.0
 10
534.1566634971041
 20
180.1218637034382
 30
0.0
 10
534.2359050397454
 20
180.2743321200158
 30
0.0
 10
534.3010096839132
 20
180.4940289339925
 30
0.0
 10
534.3319142325381
 20
180.6646834737867
 30
0.0
 10
534.3451360094286
 20
180.8145591088603
 30
0.0
 10
534.3456755517627
 20
180.9794270384814
 30
0.0
 10
534.3217029826367
 20
181.1919932909374
 30
0.0
 10
534.2546577556964
 20
181.4579811200934
 30
0.0
 10
534.1626511231286
 20
181.6380082464685
 30
0.0
 10
534.1117738216938
 20
181.7375586171258
 30
0.0
  0
SPLINE
  5
5E7B
102
{ACAD_REACTORS
330
5F8D
102
}
330
A
100
AcDbEntity
  8
CutoutUnderlay
100
AcDbSpline
210
0.0
220
0.0
230
1.0
 70
     8
 71
     3
 72
    36
 73
    32
 74
     0
 42
0.000000001
 43
0.00000001
 40
0.0
 40
0.0
 40
0.0
 40
0.0
 40
0.013092190453443
 40
0.0291243527733133
 40
0.0604986567297398
 40
0.089604554965359
 40
0.1146469742658539
 40
0.1435143218397758
 40
0.1754025965116768
 40
0.2108486003514516
 40
0.2441848871245089
 40
0.2803360283807027
 40
0.3182431189759372
 40
0.3516548569949534
 40
0.3789823155337488
 40
0.3996604947242801
 40
0.4135126378339364
 40
0.4288124255667298
 40
0.4467272989059975
 40
0.467712346207029
 40
0.4875425022481478
 40
0.5114860404192576
 40
0.5397027406310628
 40
0.5723629989785033
 40
0.6153537833665296
 40
0.6646299833766697
 40
0.7204219170764332
 40
0.782916805163756
 40
0.8522368580021615
 40
0.9284151721568569
 40
1.0
 40
1.0
 40
1.0
 40
1.0
 10
534.1116978688872
 20
181.7310661419167
 30
0.0
 10
534.0659923719261
 20
181.8070943539183
 30
0.0
 10
533.9643177879893
 20
181.9762236126874
 30
0.0
 10
533.6969449486635
 20
182.2871558727672
 30
0.0
 10
533.3123929011924
 20
182.6328133691932
 30
0.0
 10
532.840505546066
 20
182.9617998344133
 30
0.0
 10
532.3622709872575
 20
183.2454813416388
 30
0.0
 10
531.8551044702008
 20
183.508026778253
 30
0.0
 10
531.2746201386012
 20
183.7730275685932
 30
0.0
 10
530.6575023094967
 20
184.0234248770163
 30
0.0
 10
530.0066564820327
 20
184.2618159429671
 30
0.0
 10
529.3343162077717
 20
184.486538044792
 30
0.0
 10
528.6562394890323
 20
184.6943938567875
 30
0.0
 10
528.028944112513
 20
184.8728372079009
 30
0.0
 10
527.5086845080536
 20
185.0123924193914
 30
0.0
 10
527.1121089843516
 20
185.1142218850153
 30
0.0
 10
526.7927793511165
 20
185.1937871833644
 30
0.0
 10
526.4910162393751
 20
185.2671300508602
 30
0.0
 10
526.1425538165145
 20
185.3495208321303
 30
0.0
 10
525.7641748385981
 20
185.4362274295867
 30
0.0
 10
525.3441975203923
 20
185.5294544699039
 30
0.0
 10
524.8755146586025
 20
185.6300783297017
 30
0.0
 10
524.3212896022656
 20
185.744564549986
 30
0.0
 10
523.6404077748646
 20
185.879212939428
 30
0.0
 10
522.8187937337525
 20
186.0333879538153
 30
0.0
 10
521.8419507246495
 20
186.2057713796012
 30
0.0
 10
520.7331721004862
 20
186.3886526430701
 30
0.0
 10
519.4884283385029
 20
186.579482540817
 30
0.0
 10
518.1049834463897
 20
186.7748542491334
 30
0.0
 10
516.6581324872598
 20
186.9636540123678
 30
0.0
 10
515.6709253288861
 20
187.0776037987219
 30
0.0
 10
515.1926663156967
 20
187.1328075236064
 30
0.0
  0
SPLINE
  5
5E7C
102
{ACAD_REACTORS
330
5F8D
102
}
330
A
100
AcDbEntity
  8
CutoutUnderlay
100
AcDbSpline
210
0.0
220
0.0
230
1.0
 70
     8
 71
     3
 72
    39
 73
    35
 74
     0
 42
0.000000001
 43
0.00000001
 40
0.0
 40
0.0
 40
0.0
 40
0.0
 40
0.0598419336223792
 40
0.1253234020323108
 40
0.1850507340761601
 40
0.2390629714992488
 40
0.2874538443722852
 40
0.3303564503933884
 40
0.3679293789847008
 40
0.4003443183427494
 40
0.4307399661322545
 40
0.4551166200201709
 40
0.4759233173083867
 40
0.4978611692630406
 40
0.5221431081615554
 40
0.5476197659676101
 40
0.5699858718344615
 40
0.5832658174803671
 40
0.5961362487125784
 40
0.6134125741238226
 40
0.6349774278966872
 40
0.6605533371324158
 40
0.6892340410404144
 40
0.7201928533237144
 40
0.7496640557693866
 40
0.7772770771088153
 40
0.81566872392895
 40
0.850069120707514
 40
0.8807242957385933
 40
0.9060931220405705
 40
0.9362610884966475
 40
0.9691591844691161
 40
0.986028137124774
 40
1.0
 40
1.0
 40
1.0
 40
1.0
 10
515.1927874031032
 20
174.6401494212367
 30
0.0
 10
515.5930597354736
 20
174.6861601383136
 30
0.0
 10
516.4313262719229
 20
174.7825176462514
 30
0.0
 10
517.6666886685157
 20
174.9403560108692
 30
0.0
 10
518.861233176212
 20
175.1036611100881
 30
0.0
 10
519.9397871104509
 20
175.2619191723195
 30
0.0
 10
520.9044509662247
 20
175.4125943803596
 30
0.0
 10
521.7580912078952
 20
175.5538018302462
 30
0.0
 10
522.5041310164465
 20
175.6837559414969
 30
0.0
 10
523.1658105275867
 20
175.8044574197251
 30
0.0
 10
523.7387943440242
 20
175.9135073590008
 30
0.0
 10
524.2336380307086
 20
176.0113325888622
 30
0.0
 10
524.67083220327
 20
176.1005653602029
 30
0.0
 10
525.1059164420992
 20
176.1921514358329
 30
0.0
 10
525.569438537505
 20
176.2931261100309
 30
0.0
 10
526.033376688626
 20
176.3981139632385
 30
0.0
 10
526.4253293978134
 20
176.4902548438928
 30
0.0
 10
526.7361547518381
 20
176.5655140595605
 30
0.0
 10
527.0147222621374
 20
176.6344748345119
 30
0.0
 10
527.3463793908766
 20
176.7187502050272
 30
0.0
 10
527.758652667766
 20
176.8272213700075
 30
0.0
 10
528.2422709149955
 20
176.9602230972792
 30
0.0
 10
528.7831637900417
 20
177.1172407247829
 30
0.0
 10
529.3450300533596
 20
177.2911033990543
 30
0.0
 10
529.8967174431687
 20
177.4743435334913
 30
0.0
 10
530.4906072498627
 20
177.6866976060053
 30
0.0
 10
531.1088607741704
 20
177.9293727613411
 30
0.0
 10
531.7360483792029
 20
178.2075194495562
 30
0.0
 10
532.2733166961855
 20
178.4788076702276
 30
0.0
 10
532.7725862295117
 20
178.7679737468579
 30
0.0
 10
533.2643495973302
 20
179.102082538376
 30
0.0
 10
533.6701822729017
 20
179.4580892383412
 30
0.0
 10
533.9548354518154
 20
179.7829133340712
 30
0.0
 10
534.0629049225922
 20
179.9617085732471
 30
0.0
 10
534.1118638038895
 20
180.0427084599722
 30
0.0
  0
SPLINE
  5
5E7D
102
{ACAD_REACTORS
330
5F8D
102
}
330
A
100
AcDbEntity
  8
CutoutUnderlay
100
AcDbSpline
210
0.0
220
0.0
230
1.0
 70
     8
 71
     3
 72
    13
 73
     9
 74
     0
 42
0.000000001
 43
0.00000001
 40
0.0
 40
0.0
 40
0.0
 40
0.0
 40
0.1298618020597106
 40
0.2668452742972365
 40
0.4037787734279094
 40
0.5406974421288857
 40
0.8145652829709213
 40
1.0
 40
1.0
 40
1.0
 40
1.0
 10
504.8547752746942
 20
187.9921998775388
 30
0.0
 10
503.4226651693358
 20
188.0636630337232
 30
0.0
 10
500.4799075005913
 20
188.210508412516
 30
0.0
 10
496.0240579198044
 20
188.335002759437
 30
0.0
 10
491.4888995882995
 20
188.4370595442319
 30
0.0
 10
485.4422446346346
 20
188.5677101276166
 30
0.0
 10
478.8587226949876
 20
188.704711662533
 30
0.0
 10
473.7875923707045
 20
188.8137637903406
 30
0.0
 10
471.7402194558667
 20
188.8577915235088
 30
0.0
  0
SPLINE
  5
5E80
102
{ACAD_REACTORS
330
5F8D
102
}
330
A
100
AcDbEntity
  8
CutoutUnderlay
100
AcDbSpline
210
0.0
220
0.0
230
1.0
 70
     8
 71
     3
 72
    14
 73
    10
 74
     0
 42
0.000000001
 43
0.00000001
 40
0.0
 40
0.0
 40
0.0
 40
0.0
 40
0.069754625192307
 40
0.2572497758017966
 40
0.4447160424239204
 40
0.5853114549660924
 40
0.7259338375521046
 40
0.8666025319429242
 40
1.0
 40
1.0
 40
1.0
 40
1.0
 10
472.6081043078009
 20
172.9339358910798
 30
0.0
 10
473.3581026653989
 20
172.9499988583504
 30
0.0
 10
476.1240398174069
 20
173.0092378653367
 30
0.0
 10
480.9061681650328
 20
173.1113852380436
 30
0.0
 10
486.4496533911118
 20
173.2270931617988
 30
0.0
 10
491.4885665395906
 20
173.3360978323547
 30
0.0
 10
496.0239909091927
 20
173.4381290862636
 30
0.0
 10
500.480449233914
 20
173.5626510323241
 30
0.0
 10
503.4238390890723
 20
173.7095293484131
 30
0.0
 10
504.8564886021534
 20
173.7810200983246
 30
0.0
  0
SPLINE
  5
5E81
102
{ACAD_REACTORS
330
5F8D
102
}
330
A
100
AcDbEntity
  8
CutoutUnderlay
100
AcDbSpline
210
0.0
220
0.0
230
1.0
 70
     8
 71
     3
 72
    46
 73
    42
 74
     0
 42
0.000000001
 43
0.00000001
 40
0.2906891853646252
 40
0.2906891853646252
 40
0.2906891853646252
 40
0.2906891853646252
 40
0.3056108057848523
 40
0.3258282205232209
 40
0.3454246548372705
 40
0.3639879703567676
 40
0.3810804494049013
 40
0.3959904419889081
 40
0.411153779248242
 40
0.4279316070699797
 40
0.4463603367917636
 40
0.4723205811670234
 40
0.5010990001952643
 40
0.5130934539101244
 40
0.5236321794528738
 40
0.5319822998260609
 40
0.5381416590271669
 40
0.5416485899858673
 40
0.5435765679983112
 40
0.5447638734674629
 40
0.546865398298259
 40
0.5499256334529762
 40
0.5539446641349791
 40
0.5621976577554058
 40
0.5728189621637251
 40
0.5858091255832722
 40
0.600739907872878
 40
0.6179194601416058
 40
0.6373479439222909
 40
0.6590263075078097
 40
0.6829559879004654
 40
0.7091386803924447
 40
0.7375762913525453
 40
0.7643108806291051
 40
0.7927750294520299
 40
0.8229703578425817
 40
0.8548986990162216
 40
0.8885622756949944
 40
0.9239639996208455
 40
0.9611079381223248
 40
1.0
 40
1.0
 40
1.0
 40
1.0
 10
418.6370655613461
 20
170.8780494122539
 30
0.0
 10
418.7684810903041
 20
170.8930867890585
 30
0.0
 10
419.0827800463215
 20
170.9284709892202
 30
0.0
 10
419.5899598835009
 20
170.9834551819053
 30
0.0
 10
420.1506782068906
 20
171.0417500376324
 30
0.0
 10
420.6993258640435
 20
171.0965878591694
 30
0.0
 10
421.2158980571965
 20
171.146382846107
 30
0.0
 10
421.7100213869663
 20
171.192506842099
 30
0.0
 10
422.2098662158813
 20
171.2377891811778
 30
0.0
 10
422.7557367084404
 20
171.2857162707717
 30
0.0
 10
423.4325947880257
 20
171.3431621960225
 30
0.0
 10
424.2725284991762
 20
171.4114439900931
 30
0.0
 10
425.0658661925142
 20
171.4725793104948
 30
0.0
 10
425.6904962169501
 20
171.5188308291453
 30
0.0
 10
426.0704091407345
 20
171.5463488123873
 30
0.0
 10
426.3811601204842
 20
171.5684447047234
 30
0.0
 10
426.6060802381372
 20
171.5842115680294
 30
0.0
 10
426.7516175239606
 20
171.5943171382974
 30
0.0
 10
426.834838791106
 20
171.6000648903848
 30
0.0
 10
426.9012142767252
 20
171.6046352666676
 30
0.0
 10
426.9823934224855
 20
171.6102070173356
 30
0.0
 10
427.1001081625421
 20
171.618245602376
 30
0.0
 10
427.2973912076238
 20
171.6316245615911
 30
0.0
 10
427.5935111087838
 20
171.651465391547
 30
0.0
 10
428.0087631075548
 20
171.6787747870294
 30
0.0
 10
428.5155268598426
 20
171.711329799689
 30
0.0
 10
429.1145216901665
 20
171.748748362325
 30
0.0
 10
429.806667692269
 20
171.7905995594681
 30
0.0
 10
430.5988685922337
 20
171.8367399664168
 30
0.0
 10
431.4940692031934
 20
171.8867094435454
 30
0.0
 10
432.4952830990795
 20
171.9399818462739
 30
0.0
 10
433.6054818509548
 20
171.9959615364872
 30
0.0
 10
434.7707855021047
 20
172.051285870188
 30
0.0
 10
435.9835038817965
 20
172.1053501234758
 30
0.0
 10
437.2355689721171
 20
172.1576280761952
 30
0.0
 10
438.5779470315965
 20
172.2097312969134
 30
0.0
 10
440.0115238721213
 20
172.2609874664684
 30
0.0
 10
441.5367222891739
 20
172.3107058697121
 30
0.0
 10
443.153616102693
 20
172.3579648524076
 30
0.0
 10
444.8610813582875
 20
172.4024478100111
 30
0.0
 10
446.03316538486
 20
172.4276159037907
 30
0.0
 10
446.6326809335471
 20
172.4404892671416
 30
0.0
  0
SPLINE
  5
5E82
102
{ACAD_REACTORS
330
5F8D
102
}
330
A
100
AcDbEntity
  8
CutoutUnderlay
100
AcDbSpline
210
0.0
220
0.0
230
1.0
 70
     8
 71
     3
 72
    46
 73
    42
 74
     0
 42
0.000000001
 43
0.00000001
 40
0.0
 40
0.0
 40
0.0
 40
0.0
 40
0.0409384916774479
 40
0.0799118617418305
 40
0.116926542277414
 40
0.15198679101384
 40
0.1850955616425553
 40
0.2162550747879466
 40
0.2454671670881226
 40
0.2770883479107811
 40
0.3060636322284867
 40
0.3323952533681313
 40
0.3560852235011072
 40
0.3771352656629751
 40
0.3955466788997885
 40
0.4113197384570282
 40
0.4244552108151056
 40
0.4349539162179542
 40
0.4417356713094529
 40
0.4466578182214678
 40
0.4503179766803351
 40
0.4544189469954124
 40
0.4590653398295166
 40
0.4647148177152496
 40
0.4733149985783124
 40
0.4840148325621145
 40
0.4968117804327318
 40
0.5117027168067353
 40
0.5272822025820235
 40
0.5424458802364502
 40
0.5571637480574662
 40
0.5714357082337309
 40
0.5852619495214916
 40
0.5995590967222028
 40
0.6160740663731304
 40
0.6346943524538234
 40
0.6509317194061406
 40
0.6647758798756098
 40
0.677151019706566
 40
0.6893948593725285
 40
0.7089007340355905
 40
0.7089007340355905
 40
0.7089007340355905
 40
0.7089007340355905
 10
446.6326809356358
 20
189.3326514154208
 30
0.0
 10
446.0011406511414
 20
189.3462582855188
 30
0.0
 10
444.7683751575681
 20
189.3728188713498
 30
0.0
 10
442.9761216071429
 20
189.4200685449402
 30
0.0
 10
441.285720564412
 20
189.4702611800836
 30
0.0
 10
439.6983455399657
 20
189.5229883517066
 30
0.0
 10
438.2137918935036
 20
189.5771849170651
 30
0.0
 10
436.8314115834527
 20
189.6320482868448
 30
0.0
 10
435.4863565754634
 20
189.6895249453035
 30
0.0
 10
434.189830500679
 20
189.7490045718037
 30
0.0
 10
432.9525801641325
 20
189.8097511499817
 30
0.0
 10
431.8441614583269
 20
189.8675346900422
 30
0.0
 10
430.8609000773397
 20
189.9215780944404
 30
0.0
 10
429.9990366824265
 20
189.9712019737382
 30
0.0
 10
429.2548781242791
 20
190.0158171517057
 30
0.0
 10
428.6249188828526
 20
190.05492258503
 30
0.0
 10
428.1058897426177
 20
190.0880910646941
 30
0.0
 10
427.709012130058
 20
190.1140574933376
 30
0.0
 10
427.421532083784
 20
190.1331908003283
 30
0.0
 10
427.2237870315446
 20
190.1465046485888
 30
0.0
 10
427.0618052114916
 20
190.1575028429165
 30
0.0
 10
426.9040075462341
 20
190.1682993743836
 30
0.0
 10
426.7217065110727
 20
190.1808806177486
 30
0.0
 10
426.4838722434367
 20
190.1974619304462
 30
0.0
 10
426.1723510919226
 20
190.2194875029227
 30
0.0
 10
425.7753250942021
 20
190.248095643088
 30
0.0
 10
425.3058474286132
 20
190.2827120456363
 30
0.0
 10
424.7834827654016
 20
190.3222841558008
 30
0.0
 10
424.2414889851465
 20
190.3645871252852
 30
0.0
 10
423.7140001986681
 20
190.4070269803786
 30
0.0
 10
423.2134997751913
 20
190.4484963933764
 30
0.0
 10
422.7398770970856
 20
190.4888708499713
 30
0.0
 10
422.2837020504536
 20
190.5288367109656
 30
0.0
 10
421.8141566178326
 20
190.5710862470598
 30
0.0
 10
421.2965371935969
 20
190.6190736846867
 30
0.0
 10
420.7693753898051
 20
190.6697045271106
 30
0.0
 10
420.2832475502779
 20
190.7180772763647
 30
0.0
 10
419.8699700254288
 20
190.7604951568197
 30
0.0
 10
419.5047077031085
 20
190.7990240278707
 30
0.0
 10
419.0949978824866
 20
190.8433793317153
 30
0.0
 10
418.8090600635372
 20
190.8754109444457
 30
0.0
 10
418.6370653180821
 20
190.8950914866848
 30
0.0
  0
SPLINE
  5
5E8E
102
{ACAD_REACTORS
330
5F8D
102
}
330
A
100
AcDbEntity
  8
CutoutUnderlay
100
AcDbSpline
210
0.0
220
0.0
230
1.0
 70
     8
 71
     3
 72
    11
 73
     7
 74
     0
 42
0.000000001
 43
0.00000001
 40
0.0
 40
0.0
 40
0.0
 40
0.0
 40
0.2912268705637646
 40
0.5824612633053988
 40
0.873690508238614
 40
1.0
 40
1.0
 40
1.0
 40
1.0
 10
446.6146514649975
 20
172.4378521675984
 30
0.0
 10
449.1363760209584
 20
172.4775326959295
 30
0.0
 10
454.1798902671881
 20
172.556894777511
 30
0.0
 10
461.7494318366028
 20
172.7043438046343
 30
0.0
 10
467.8920963090175
 20
172.8324894250316
 30
0.0
 10
471.5122225229688
 20
172.9104416483831
 30
0.0
 10
472.6073455906298
 20
172.9340229471895
 30
0.0
  0
SPLINE
  5
5E90
102
{ACAD_REACTORS
330
5F8D
102
}
330
A
100
AcDbEntity
  8
CutoutUnderlay
100
AcDbSpline
210
0.0
220
0.0
230
1.0
 70
     8
 71
     3
 72
    11
 73
     7
 74
     0
 42
0.000000001
 43
0.00000001
 40
0.0
 40
0.0
 40
0.0
 40
0.0
 40
0.3012807091420134
 40
0.602567527683891
 40
0.9038498317813414
 40
0.9999999999999999
 40
0.9999999999999999
 40
0.9999999999999999
 40
0.9999999999999999
 10
446.6146514649975
 20
189.3352884933795
 30
0.0
 10
449.1363803481004
 20
189.2956104145681
 30
0.0
 10
454.1798892501727
 20
189.2162534523493
 30
0.0
 10
461.749450295962
 20
189.0687660593585
 30
0.0
 10
467.6028524638417
 20
188.94676672903
 30
0.0
 10
470.9336479272798
 20
188.8750881706563
 30
0.0
 10
471.7394616602272
 20
188.8577470978317
 30
0.0
  0
ARC
  5
5E99
102
{ACAD_REACTORS
330
5F8D
102
}
330
A
100
AcDbEntity
  8
CutoutUnderlay
100
AcDbCircle
 10
408.8478107874121
 20
180.886570330502
 30
0.0
 40
27.50000000000002
100
AcDbArc
 50
18.7462509137002
 51
341.2564548515999
  0
ARC
  5
5E9C
330
A
100
AcDbEntity
  8
MODEL
  6
DASHED1
100
AcDbCircle
 10
408.8721245115547
 20
321.33359904281
 30
0.0
 40
27.50000000000002
100
AcDbArc
 50
341.2703878660792
 51
18.72987321584505
  0
ARC
  5
5EBB
102
{ACAD_REACTORS
330
5F8D
102
}
330
A
100
AcDbEntity
  8
CutoutUnderlay
  6
DASHED1
100
AcDbCircle
 10
408.8457029249332
 20
180.8802373579741
 30
0.0
 40
27.50000000000002
100
AcDbArc
 50
341.2703878660792
 51
18.72987321584505
  0
LINE
  5
5EE3
330
A
100
AcDbEntity
  8
寸法
  6
CENTER
 48
0.25
100
AcDbLine
 10
109.1301785645734
 20
335.4443604885104
 30
0.0
 11
98.04214919112198
 21
335.4443604885104
 31
0.0
  0
LINE
  5
5EE4
330
A
100
AcDbEntity
  8
寸法
100
AcDbLine
 10
95.15629840209996
 20
336.9833943076173
 30
0.0
 11
92.03135956105652
 21
336.9833943076173
 31
0.0
  0
LINE
  5
5EE5
330
A
100
AcDbEntity
  8
寸法
100
AcDbLine
 10
95.15629840209996
 20
336.9833943076173
 30
0.0
 11
96.01655656577324
 21
335.5321560434962
 31
0.0
  0
LINE
  5
5EE6
330
A
100
AcDbEntity
  8
寸法
100
AcDbLine
 10
92.03135956105652
 20
336.9833943076173
 30
0.0
 11
92.03135956105652
 21
335.5321560434962
 31
0.0
  0
LINE
  5
5EE7
330
A
100
AcDbEntity
  8
寸法
100
AcDbLine
 10
95.15629840209996
 20
334.0809177793752
 30
0.0
 11
92.03135956105652
 21
334.0809177793752
 31
0.0
  0
LINE
  5
5EE8
330
A
100
AcDbEntity
  8
寸法
100
AcDbLine
 10
95.15629840209996
 20
334.0809177793752
 30
0.0
 11
96.01655656577324
 21
335.5321560434962
 31
0.0
  0
LINE
  5
5EE9
330
A
100
AcDbEntity
  8
寸法
100
AcDbLine
 10
92.03135956105652
 20
334.0809177793752
 30
0.0
 11
92.03135956105652
 21
335.5321560434962
 31
0.0
  0
LINE
  5
5EEA
330
A
100
AcDbEntity
  8
寸法
100
AcDbLine
 10
95.15629840209996
 20
336.9833943076173
 30
0.0
 11
94.68538261851015
 21
334.0809177793752
 31
0.0
  0
LINE
  5
5EEB
330
A
100
AcDbEntity
  8
寸法
100
AcDbLine
 10
94.3371144345534
 20
336.9833943076173
 30
0.0
 11
93.86619865096358
 21
334.0809177793752
 31
0.0
  0
LINE
  5
5EEC
330
A
100
AcDbEntity
  8
寸法
100
AcDbLine
 10
93.48379780169259
 20
336.9833943076173
 30
0.0
 11
93.01288201810254
 21
334.0809177793752
 31
0.0
  0
LINE
  5
5EED
330
A
100
AcDbEntity
  8
寸法
100
AcDbLine
 10
92.6987464994605
 20
336.9833943076173
 30
0.0
 11
92.22783071587057
 21
334.0809177793752
 31
0.0
  0
DIMENSION
  5
5EF2
102
{ACAD_REACTORS
330
5EF4
102
}
102
{ACAD_XDICTIONARY
360
5EF3
102
}
330
A
100
AcDbEntity
  8
寸法
  6
Continuous
100
AcDbDimension
  2
*D9
 10
135.481650740133
 20
140.0657547025723
 30
0.0
 11
142.5102357374176
 21
140.0657547025723
 31
0.0
 70
   160
 71
     5
 42
8.300000000019054
 73
     0
 74
     1
 75
     1
  3
tfrom線あり
100
AcDbAlignedDimension
 13
127.1816507401139
 23
153.2807838528878
 33
0.0
 14
135.481650740133
 24
167.6807838528751
 34
0.0
100
AcDbRotatedDimension
1001
ACAD
1000
DSTYLE
1002
{
1070
   172
1070
     1
1002
}
  0
DIMENSION
  5
5F03
330
A
100
AcDbEntity
  8
寸法
  6
Continuous
100
AcDbDimension
  2
*D10
 10
114.0721240129381
 20
251.8101055599039
 30
0.0
 11
183.3674909677935
 21
256.3110434115982
 31
0.0
 70
    32
 71
     5
 42
138.5907339097108
 73
     0
 74
     0
 75
     0
  3
tfrom線あり
100
AcDbAlignedDimension
 13
252.6628579226489
 23
284.1904027647885
 33
0.0
 14
114.0721240129381
 24
308.7883171100279
 34
0.0
100
AcDbRotatedDimension
  0
DIMENSION
  5
5F14
330
A
100
AcDbEntity
  8
寸法
  6
Continuous
100
AcDbDimension
  2
*D11
 10
275.1161537701058
 20
273.2325895265203
 30
0.0
 11
270.6152159184114
 21
287.3733729466215
 31
0.0
 70
    32
 71
     5
 42
28.28156684020257
 73
     0
 74
     0
 75
     0
  3
tfrom線あり
100
AcDbAlignedDimension
 13
252.2662542053666
 23
301.5141563667228
 33
0.0
 14
252.6628579226489
 24
273.2325895265203
 34
0.0
 50
90.0
100
AcDbRotatedDimension
  0
LINE
  5
5F3F
330
A
100
AcDbEntity
  8
寸法
  6
CENTER
 48
0.5
100
AcDbLine
 10
108.1825120145531
 20
351.5446833093552
 30
0.0
 11
108.1825120145531
 21
345.922514776265
 31
0.0
  0
LINE
  5
5F40
330
A
100
AcDbEntity
  8
寸法
  6
CENTER
 48
0.5
100
AcDbLine
 10
146.1825120145532
 20
351.5446833093552
 30
0.0
 11
146.1825120145532
 21
345.922514776265
 31
0.0
  0
DIMENSION
  5
5F41
330
A
100
AcDbEntity
  8
寸法
  6
Continuous
100
AcDbDimension
  2
*D12
 10
146.1825120145531
 20
375.5755402277074
 30
0.0
 11
127.1825120145531
 21
380.0764780794019
 31
0.0
 70
    32
 71
     5
 42
38.00000000000001
 73
     0
 74
     0
 75
     0
  3
tfrom線あり
100
AcDbAlignedDimension
 13
108.1825120145531
 23
351.7293032847666
 33
0.0
 14
146.1825120145531
 24
351.7293032847666
 34
0.0
100
AcDbRotatedDimension
  0
DIMENSION
  5
5F50
330
A
100
AcDbEntity
  8
寸法
  6
Continuous
100
AcDbDimension
  2
*D13
 10
112.6325120145532
 20
386.853404224275
 30
0.0
 11
108.1825120145532
 21
386.853404224275
 31
0.0
 70
   160
  1
8.5
 71
     5
 42
8.899999999999977
 73
     0
 74
     0
 75
     0
  3
tfrom線あり
100
AcDbAlignedDimension
 13
103.7325120145532
 23
375.4536379323479
 33
0.0
 14
112.6325120145532
 24
375.5755402277074
 34
0.0
100
AcDbRotatedDimension
  0
DIMENSION
  5
5F5F
102
{ACAD_REACTORS
330
5F61
102
}
102
{ACAD_XDICTIONARY
360
5F60
102
}
330
A
100
AcDbEntity
  8
寸法
  6
Continuous
100
AcDbDimension
  2
*D14
 10
72.97146687375364
 20
273.7851099426113
 30
0.0
 11
68.47052902205924
 21
311.2593544927107
 31
0.0
 70
    32
 71
     5
 42
74.9484891001988
 73
     0
 74
     0
 75
     0
  3
tfrom線あり
100
AcDbAlignedDimension
 13
99.68251201455314
 23
348.7335990428101
 33
0.0
 14
142.9700505372544
 24
273.7851099426113
 34
0.0
 50
90.0
100
AcDbRotatedDimension
  0
LINE
  5
5F6E
330
A
100
AcDbEntity
  8
MODEL
  6
Continuous
100
AcDbLine
 10
114.0821746370532
 20
338.4539639322101
 30
0.0
 11
114.0774412917291
 21
332.4137560105207
 31
0.0
  0
DIMENSION
  5
5F6F
102
{ACAD_REACTORS
330
5F71
102
}
102
{ACAD_XDICTIONARY
360
5F70
102
}
330
A
100
AcDbEntity
  8
寸法
  6
Continuous
100
AcDbDimension
  2
*D15
 10
86.7590050955206
 20
340.4335990427643
 30
0.0
 11
82.2590050955206
 21
344.5835990427872
 31
0.0
 70
    32
 71
     5
 42
8.300000000045827
 73
     0
 74
     0
 75
     0
  3
tfrom線あり
100
AcDbAlignedDimension
 13
99.68251201455314
 23
348.7335990428101
 33
0.0
 14
114.0825120145427
 24
340.4335990427643
 34
0.0
 50
90.0
100
AcDbRotatedDimension
  0
DIMENSION
  5
5F7E
102
{ACAD_REACTORS
330
5F80
102
}
102
{ACAD_XDICTIONARY
360
5F7F
102
}
330
A
100
AcDbEntity
  8
寸法
  6
Continuous
100
AcDbDimension
  2
*D16
 10
86.7590050955206
 20
273.7851099426113
 30
0.0
 11
82.2580672438262
 21
307.1093544927107
 31
0.0
 70
    32
 71
     5
 42
66.64848910019879
 73
     0
 74
     0
 75
     0
  3
tfrom線あり
100
AcDbAlignedDimension
 13
114.0825120145531
 23
340.4335990428101
 33
0.0
 14
137.9700505372544
 24
273.7851099426113
 34
0.0
 50
90.0
100
AcDbRotatedDimension
  0
DIMENSION
  5
5F8E
330
A
100
AcDbEntity
  8
寸法
  6
Continuous
100
AcDbDimension
  2
*D17
 10
552.141254109298
 20
314.3007218309194
 30
0.0
 11
552.141254109298
 21
321.3335991488153
 31
0.0
 70
   160
 71
     5
 42
14.0657546357919
 73
     0
 74
     0
 75
     0
  3
tfrom線あり
100
AcDbAlignedDimension
 13
534.3690424915293
 23
328.3664764667113
 33
0.0
 14
534.3690424915293
 24
314.3007218309194
 34
0.0
 50
90.0
100
AcDbRotatedDimension
  0
DIMENSION
  5
5F9F
330
A
100
AcDbEntity
  8
寸法
  6
Continuous
100
AcDbDimension
  2
*D18
 10
360.9761027055297
 20
293.83359904281
 30
0.0
 11
356.4751648538353
 21
321.33359904281
 31
0.0
 70
    32
 71
     5
 42
55.0
 73
     0
 74
     0
 75
     0
  3
tfrom線あり
100
AcDbAlignedDimension
 13
404.3711866598603
 23
348.83359904281
 33
0.0
 14
404.3711866598603
 24
293.83359904281
 34
0.0
 50
90.0
100
AcDbRotatedDimension
1001
ACAD
1000
DSTYLE
1002
{
1070
     3
1000
%%C<>
1002
}
  0
LINE
  5
5FB3
330
A
100
AcDbEntity
  8
MODEL
  6
Continuous
100
AcDbLine
 10
129.6816507401139
 20
153.2807838528878
 30
0.0
 11
127.1816507401139
 21
153.2807838528878
 31
0.0
  0
VIEWPORT
  5
349
330
B
100
AcDbEntity
 67
     1
  8
0
100
AcDbViewport
 10
202.5
 20
128.5
 30
0.0
 40
486.0
 41
308.4
 68
     1
 69
     1
 12
202.5
 22
128.5
 13
0.0
 23
0.0
 14
0.5
 24
0.5
 15
0.0
 25
0.0
 16
0.0
 26
0.0
 36
1.0
 17
0.0
 27
0.0
 37
0.0
 42
50.0
 43
0.0
 44
0.0
 45
308.4
 50
0.0
 51
0.0
 72
   100
 90
   557152
  1

281
     0
 71
     1
 74
     0
110
0.0
120
0.0
130
0.0
111
1.0
121
0.0
131
0.0
112
0.0
122
1.0
132
0.0
 79
     0
146
0.0
170
     0
 61
     5
348
26C
292
     1
282
     1
141
0.0
142
0.0
 63
   256
361
44F1
  0
VIEWPORT
  5
34A
330
B
100
AcDbEntity
 67
     1
  8
0
100
AcDbViewport
 10
202.5
 20
128.5
 30
0.0
 40
324.0
 41
205.6
 68
     2
 69
     2
 12
986.6781359294573
 22
1427.077061889956
 13
0.0
 23
0.0
 14
0.5
 24
0.5
 15
0.0
 25
0.0
 16
0.0
 26
0.0
 36
1.0
 17
0.0
 27
0.0
 37
0.0
 42
50.0
 43
0.0
 44
0.0
 45
2890.021615685494
 50
0.0
 51
0.0
 72
   100
 90
   557152
  1

281
     0
 71
     1
 74
     0
110
0.0
120
0.0
130
0.0
111
1.0
121
0.0
131
0.0
112
0.0
122
1.0
132
0.0
 79
     0
146
0.0
170
     0
 61
     5
348
26C
292
     1
282
     1
141
0.0
142
0.0
 63
   256
  0
ENDSEC
  0
SECTION
  2
OBJECTS
  0
DICTIONARY
  5
19
330
0
100
AcDbDictionary
281
     1
  3
ACAD_COLOR
350
674
  3
ACAD_DETAILVIEWSTYLE
350
13B5
  3
ACAD_FIELDLIST
350
576D
  3
ACAD_GROUP
350
1A
  3
ACAD_IMAGE_VARS
350
27B
  3
ACAD_LAYOUT
350
1E
  3
ACAD_MATERIAL
350
263
  3
ACAD_MLEADERSTYLE
350
336
  3
ACAD_MLINESTYLE
350
1B
  3
ACAD_PLOTSETTINGS
350
22
  3
ACAD_PLOTSTYLENAME
350
1F
  3
ACAD_SCALELIST
350
241
  3
ACAD_SECTIONVIEWSTYLE
350
13B6
  3
ACAD_TABLESTYLE
350
278
  3
ACAD_VISUALSTYLE
350
267
  3
ACDB_RECOMPOSE_DATA
350
5FD2
  3
AcDbVariableDictionary
350
330
  3
APPDATA
350
27A
  0
SUN
  5
F1A
330
15
100
AcDbSun
 90
        1
290
     0
 63
     7
421
 16777215
 40
1.0
291
     1
 91
  2455826
 92
 54000000
292
     0
 70
     2
 71
   256
280
     1
  0
DICTIONARY
  5
2E1
330
2
100
AcDbDictionary
280
     1
281
     1
  3
ACAD_LAYERSTATES
360
2E2
  3
ACLYDICTIONARY
360
4E72
  0
DICTIONARY
  5
577D
330
A
100
AcDbDictionary
280
     1
281
     1
  3
ACAD_SORTENTS
360
577E
  0
DICTIONARY
  5
5364
330
5363
100
AcDbDictionary
280
     1
281
     1
  3
ACAD_DIMASSOC
360
5365
  0
DICTIONARY
  5
5367
330
5366
100
AcDbDictionary
280
     1
281
     1
  3
ACAD_DIMASSOC
360
5368
  0
DICTIONARY
  5
5770
330
576F
100
AcDbDictionary
280
     1
281
     1
  3
ACAD_FIELD
360
5FAF
  0
DICTIONARY
  5
5EF3
330
5EF2
100
AcDbDictionary
280
     1
281
     1
  3
ACAD_DIMASSOC
360
5EF4
  0
DICTIONARY
  5
5F60
330
5F5F
100
AcDbDictionary
280
     1
281
     1
  3
ACAD_DIMASSOC
360
5F61
  0
DICTIONARY
  5
5F70
330
5F6F
100
AcDbDictionary
280
     1
281
     1
  3
ACAD_DIMASSOC
360
5F71
  0
DICTIONARY
  5
5F7F
330
5F7E
100
AcDbDictionary
280
     1
281
     1
  3
ACAD_DIMASSOC
360
5F80
  0
SUN
  5
44F1
330
349
100
AcDbSun
 90
        1
290
     0
 63
     7
421
 16777215
 40
1.0
291
     1
 91
  2455826
 92
 54000000
292
     0
 70
     2
 71
   256
280
     1
  0
DICTIONARY
  5
674
102
{ACAD_REACTORS
330
19
102
}
330
19
100
AcDbDictionary
281
     1
  0
DICTIONARY
  5
13B5
102
{ACAD_REACTORS
330
19
102
}
330
19
100
AcDbDictionary
281
     1
  0
FIELDLIST
  5
576D
102
{ACAD_REACTORS
330
19
102
}
330
19
100
AcDbIdSet
 90
        2
330
5773
330
5772
100
AcDbFieldList
  0
DICTIONARY
  5
1A
102
{ACAD_REACTORS
330
19
102
}
330
19
100
AcDbDictionary
281
     1
  3
*A1
350
5F8D
  0
RASTERVARIABLES
  5
27B
102
{ACAD_REACTORS
330
19
102
}
330
19
100
AcDbRasterVariables
 90
        0
 70
     1
 71
     1
 72
     1
  0
DICTIONARY
  5
1E
102
{ACAD_REACTORS
330
19
102
}
330
19
100
AcDbDictionary
281
     1
  3
Layout1
350
21
  3
Model
350
20
  0
DICTIONARY
  5
263
102
{ACAD_REACTORS
330
19
102
}
330
19
100
AcDbDictionary
281
     1
  3
ByBlock
350
4DFD
  3
ByLayer
350
264
  3
Global
350
266
  0
DICTIONARY
  5
336
102
{ACAD_REACTORS
330
19
102
}
330
19
100
AcDbDictionary
281
     1
  3
Standard
350
55E0
  0
DICTIONARY
  5
1B
102
{ACAD_REACTORS
330
19
102
}
330
19
100
AcDbDictionary
281
     1
  3
Standard
350
1C
  0
DICTIONARY
  5
22
102
{ACAD_REACTORS
330
19
102
}
330
19
100
AcDbDictionary
281
     1
  0
ACDBDICTIONARYWDFLT
  5
1F
102
{ACAD_REACTORS
330
19
102
}
330
19
100
AcDbDictionary
281
     1
  3
Normal
350
1D
100
AcDbDictionaryWithDefault
340
1D
  0
DICTIONARY
  5
241
102
{ACAD_REACTORS
330
19
102
}
330
19
100
AcDbDictionary
281
     1
  3
A0
350
242
  3
A1
350
243
  3
A2
350
244
  3
A3
350
245
  3
A4
350
246
  3
A5
350
247
  3
A6
350
248
  3
A7
350
249
  3
A8
350
24A
  3
A9
350
24B
  3
B0
350
24C
  3
B1
350
24D
  3
B2
350
24E
  3
B3
350
24F
  3
B4
350
250
  3
B5
350
251
  3
B6
350
252
  3
B7
350
253
  3
B8
350
254
  3
B9
350
255
  3
C0
350
256
  3
C1
350
257
  3
C2
350
258
  3
C3
350
259
  3
C4
350
25A
  3
C5
350
25B
  3
C6
350
25C
  3
C7
350
25D
  3
C8
350
25E
  3
C9
350
25F
  3
D0
350
260
  3
D1
350
261
  3
D2
350
262
  0
DICTIONARY
  5
13B6
102
{ACAD_REACTORS
330
19
102
}
330
19
100
AcDbDictionary
281
     1
  0
DICTIONARY
  5
278
102
{ACAD_REACTORS
330
19
102
}
330
19
100
AcDbDictionary
281
     1
  3
Standard
350
279
  0
DICTIONARY
  5
267
102
{ACAD_REACTORS
330
19
102
}
330
19
100
AcDbDictionary
281
     1
  3
2dWireframe
350
26C
  3
3D Hidden
350
26E
  3
3dWireframe
350
26D
  3
Basic
350
26F
  3
Brighten
350
273
  3
ColorChange
350
277
  3
Conceptual
350
271
  3
Dim
350
272
  3
EdgeColorOff
350
F14
  3
Facepattern
350
276
  3
Flat
350
268
  3
FlatWithEdges
350
269
  3
Gouraud
350
26A
  3
GouraudWithEdges
350
26B
  3
Hidden
350
F11
  3
JitterOff
350
F12
  3
Linepattern
350
275
  3
OverhangOff
350
F13
  3
Realistic
350
270
  3
Shaded
350
F19
  3
Shaded with edges
350
F18
  3
Shades of Gray
350
F15
  3
Sketchy
350
F16
  3
Thicken
350
274
  3
Wireframe
350
F10
  3
X-Ray
350
F17
  0
XRECORD
  5
5FD2
102
{ACAD_REACTORS
330
19
102
}
330
19
100
AcDbXrecord
280
     1
 90
        1
330
279
  0
DICTIONARY
  5
330
102
{ACAD_REACTORS
330
19
102
}
330
19
100
AcDbDictionary
281
     1
  3
CANNOSCALE
350
331
  3
CMLEADERSTYLE
350
5669
  3
CTABLESTYLE
350
335
  3
HPTRANSPARENCY
350
537B
  3
XCLIPFRAME
350
13B4
  0
DICTIONARY
  5
27A
102
{ACAD_REACTORS
330
19
102
}
330
19
100
AcDbDictionary
281
     1
  0
DICTIONARY
  5
2E2
102
{ACAD_REACTORS
330
2E1
102
}
330
2E1
100
AcDbDictionary
281
     1
  0
DICTIONARY
  5
4E72
102
{ACAD_REACTORS
330
2E1
102
}
330
2E1
100
AcDbDictionary
281
     1
1001
ACAD
1000
<All
  0
SORTENTSTABLE
  5
577E
102
{ACAD_REACTORS
330
577D
102
}
330
577D
100
AcDbSortentsTable
330
A
331
1301
  5
4DDC
331
1306
  5
4DDD
331
1307
  5
4DDE
331
1308
  5
4DDF
331
1312
  5
4DE0
331
1313
  5
4DE1
331
131E
  5
4DE2
331
131F
  5
4DE3
331
1342
  5
4DE4
331
1343
  5
4DE5
331
1346
  5
4DE6
331
1347
  5
4DE7
331
1350
  5
4DE8
331
1351
  5
4DE9
331
1357
  5
4DEA
331
1359
  5
4DEB
331
135A
  5
4DEC
331
135B
  5
4DED
331
1371
  5
4DEE
331
1372
  5
4DEF
331
1378
  5
4DF0
331
1379
  5
4DF1
331
1389
  5
4DF2
331
138A
  5
4DF3
331
138D
  5
4FD7
331
138E
  5
5238
331
1398
  5
5239
331
1399
  5
523A
331
139C
  5
523B
331
139D
  5
523C
331
4967
  5
524F
331
4968
  5
5250
331
499D
  5
5253
331
499E
  5
5254
331
5238
  5
5413
331
5239
  5
542F
331
523A
  5
5430
331
523B
  5
5431
331
523C
  5
5432
331
523D
  5
5433
331
523E
  5
5434
331
523F
  5
5435
331
5240
  5
5436
331
5241
  5
5437
331
5242
  5
5438
331
5243
  5
5439
331
5244
  5
543A
331
5245
  5
543C
331
5246
  5
543D
331
5247
  5
543E
331
5248
  5
543F
331
5249
  5
5440
331
524A
  5
5441
331
524B
  5
5442
331
524D
  5
5443
331
524E
  5
5444
331
524F
  5
5445
331
5250
  5
5446
331
5251
  5
5447
331
5252
  5
5463
331
5253
  5
5464
331
5254
  5
5535
331
5255
  5
5536
331
5256
  5
5537
331
5257
  5
5583
331
5258
  5
55D2
331
5259
  5
55D3
331
525A
  5
563B
331
525B
  5
563E
331
525C
  5
563F
331
525D
  5
5640
331
525E
  5
5641
331
52C0
  5
5643
331
52C1
  5
5644
331
52C2
  5
5645
331
52C3
  5
569F
331
52C4
  5
56A0
331
52C5
  5
56A1
331
52DA
  5
5729
331
52DB
  5
572A
331
52DC
  5
572B
331
52DD
  5
572C
331
52DE
  5
572D
331
52DF
  5
572E
331
5362
  5
5732
331
5363
  5
5733
331
5366
  5
5734
331
5369
  5
5735
331
536A
  5
5736
331
536B
  5
576E
331
536C
  5
576F
331
536F
  5
5796
331
55D2
  5
5821
331
55D3
  5
5822
331
5735
  5
58A1
331
5736
  5
58B0
331
576F
  5
5D25
331
581E
  5
5D26
331
581F
  5
5D27
331
5820
  5
5D28
331
5821
  5
5D29
331
5822
  5
5D2A
331
587A
  5
5D2B
331
587B
  5
5D2C
331
587C
  5
5D2D
331
587E
  5
5D2F
331
587F
  5
5D30
331
5880
  5
5D31
331
5881
  5
5D32
331
5882
  5
5D33
331
5883
  5
5D34
331
5884
  5
5D35
331
5D25
  5
5D38
331
5D26
  5
5D39
331
5D27
  5
5D3A
331
5D28
  5
5D3B
331
5D29
  5
5D3C
331
5D2A
  5
5D3D
331
5D2B
  5
5D3E
331
5D2C
  5
5D3F
331
5D2D
  5
5D40
331
5D2E
  5
5D41
331
5D2F
  5
5D42
331
5D30
  5
5D43
331
5D31
  5
5D44
331
5D32
  5
5D45
331
5D33
  5
5D46
331
5D34
  5
5D47
331
5D35
  5
5D48
331
5D36
  5
5D49
331
5D37
  5
5D4A
331
5D38
  5
5D4B
331
5D39
  5
5D4C
331
5D3A
  5
5D4D
331
5D3F
  5
5D52
331
5D40
  5
5D53
331
5D41
  5
5D54
331
5D42
  5
5D55
331
5D43
  5
5D56
331
5D44
  5
5D57
331
5D45
  5
5D58
331
5D46
  5
5D59
331
5D47
  5
5D5A
331
5D48
  5
5D5B
331
5D49
  5
5D5C
331
5D4A
  5
5D5D
331
5D4B
  5
5D5E
331
5D4C
  5
5D5F
331
5D4D
  5
5D60
331
5D4E
  5
5D61
331
5D51
  5
5D64
331
5D56
  5
5D69
331
5D57
  5
5D6A
331
5D58
  5
5D6B
331
5D6D
  5
5D80
331
5D6E
  5
5D81
331
5D6F
  5
5D82
331
5D70
  5
5D83
331
5D75
  5
5D88
331
5D76
  5
5D89
331
5D77
  5
5D8A
331
5D78
  5
5D8B
331
5D7F
  5
5D92
331
5D80
  5
5D93
331
5D81
  5
5D94
331
5D82
  5
5D95
331
5D83
  5
5D96
331
5D84
  5
5D97
331
5D8F
  5
5DA2
331
5D90
  5
5DA3
331
5D91
  5
5DA4
331
5D92
  5
5DA5
331
5D93
  5
5DA6
331
5D94
  5
5DA7
331
5D95
  5
5DA8
331
5D96
  5
5DA9
331
5D97
  5
5DAA
331
5D98
  5
5DAB
331
5DA2
  5
5DB5
331
5DA3
  5
5DB6
331
5DA4
  5
5DB7
331
5DA6
  5
5DB9
331
5DA7
  5
5DBA
331
5DA8
  5
5DBB
331
5DA9
  5
5DBC
331
5DB8
  5
5DCB
331
5DB9
  5
5DCC
331
5DBB
  5
5DCE
331
5DCA
  5
5DDD
331
5DE1
  5
5DF4
331
5DE2
  5
5DF5
331
5DE3
  5
5DF6
331
5DE6
  5
5DF9
331
5DE7
  5
5DFA
331
5DF0
  5
5E03
331
5DF1
  5
5E04
331
5DF2
  5
5E05
331
5DF3
  5
5E06
331
5DF4
  5
5E07
331
5DF5
  5
5E08
331
5DFE
  5
5E11
331
5DFF
  5
5E12
331
5E00
  5
5E13
331
5E01
  5
5E14
331
5E14
  5
5E27
331
5E15
  5
5E28
331
5E1E
  5
5E31
331
5E1F
  5
5E32
331
5E20
  5
5E33
331
5E21
  5
5E34
331
5E22
  5
5E35
331
5E23
  5
5E36
331
5E2C
  5
5E3F
331
5E2D
  5
5E40
331
5E2E
  5
5E41
331
5E2F
  5
5E42
331
5E30
  5
5E43
331
5E31
  5
5E44
331
5E35
  5
5E48
331
5E36
  5
5E49
331
5E37
  5
5E4A
331
5E38
  5
5E4B
331
5E39
  5
5E4C
331
5E3A
  5
5E4D
331
5E3B
  5
5E4E
331
5E3C
  5
5E4F
331
5E3D
  5
5E50
331
5E4D
  5
5E6D
331
5E4F
  5
5E6F
331
5E5C
  5
5E7C
331
5E5D
  5
5E7D
331
5E5E
  5
5E7E
331
5E5F
  5
5E7F
331
5E6D
  5
1301
331
5E6E
  5
1306
331
5E6F
  5
1307
331
5E74
  5
1308
331
5E75
  5
1312
331
5E76
  5
1313
331
5E77
  5
131E
331
5E7A
  5
131F
331
5E7B
  5
1342
331
5E7C
  5
1343
331
5E7D
  5
1346
331
5E80
  5
1347
331
5E81
  5
1350
331
5E82
  5
1351
331
5E8E
  5
1359
331
5E90
  5
135A
331
5E99
  5
135B
331
5E9C
  5
5EBB
331
5EBB
  5
1371
  0
DIMASSOC
  5
5365
102
{ACAD_REACTORS
330
5364
102
}
330
5364
100
AcDbDimAssoc
330
5363
 90
        1
 70
     0
 71
     1
  1
AcDbOsnapPointRef
 72
     5
331
52DC
 73
     0
 91
        0
 40
1.570796326794897
 10
0.0
 20
0.0
 30
0.0
 75
     0
  0
DIMASSOC
  5
5368
102
{ACAD_REACTORS
330
5367
102
}
330
5367
100
AcDbDimAssoc
330
5366
 90
        1
 70
     0
 71
     1
  1
AcDbOsnapPointRef
 72
     3
331
52DC
 73
     0
 91
        0
 40
0.0
 10
0.0
 20
0.0
 30
0.0
 75
     0
  0
DICTIONARY
  5
5FAF
102
{ACAD_REACTORS
330
5770
102
}
330
5770
100
AcDbDictionary
280
     1
281
     1
  3
TEXT
360
5772
  0
DIMASSOC
  5
5EF4
102
{ACAD_REACTORS
330
5EF3
102
}
330
5EF3
100
AcDbDimAssoc
330
5EF2
 90
        3
 70
     0
 71
     1
  1
AcDbOsnapPointRef
 72
    13
331
5E5F
 73
     0
 91
        0
 40
0.0
 10
0.0
 20
0.0
 30
0.0
 75
     0
  1
AcDbOsnapPointRef
 72
    13
331
5E2E
 73
     0
 91
        0
 40
0.0
 10
0.0
 20
0.0
 30
0.0
 75
     0
  0
DIMASSOC
  5
5F61
102
{ACAD_REACTORS
330
5F60
102
}
330
5F60
100
AcDbDimAssoc
330
5F5F
 90
        1
 70
     0
 71
     1
  1
AcDbOsnapPointRef
 72
     1
331
5DB8
 73
     0
 91
        0
 40
0.0
 10
0.0
 20
0.0
 30
0.0
 75
     0
  0
DIMASSOC
  5
5F71
102
{ACAD_REACTORS
330
5F70
102
}
330
5F70
100
AcDbDimAssoc
330
5F6F
 90
        3
 70
     0
 71
     1
  1
AcDbOsnapPointRef
 72
     1
331
5DB8
 73
     0
 91
        0
 40
0.0
 10
0.0
 20
0.0
 30
0.0
 75
     0
  1
AcDbOsnapPointRef
 72
     1
331
5DA7
 73
     0
 91
        0
 40
0.0
 10
0.0
 20
0.0
 30
0.0
 75
     0
  0
DIMASSOC
  5
5F80
102
{ACAD_REACTORS
330
5F7F
102
}
330
5F7F
100
AcDbDimAssoc
330
5F7E
 90
        1
 70
     0
 71
     1
  1
AcDbOsnapPointRef
 72
    13
331
5DA6
 73
     0
 91
        0
 40
0.0
 10
0.0
 20
0.0
 30
0.0
 75
     0
  0
GROUP
  5
5F8D
102
{ACAD_REACTORS
330
1A
102
}
330
1A
100
AcDbGroup
300

 70
     1
 71
     1
340
5E99
340
5EBB
340
5E82
340
5E81
340
5E8E
340
5E90
340
5E7D
340
5E80
340
5E75
340
5E76
340
5E6E
340
5E7A
340
5E7B
340
5E7C
340
5E6F
340
5E6D
340
5E74
340
5E77
  0
LAYOUT
  5
21
102
{ACAD_REACTORS
330
1E
102
}
330
1E
100
AcDbPlotSettings
  1

  2
none_device
  4
ISO_A3_(420.00_x_297.00_MM)
  6

 40
7.5
 41
20.0
 42
7.5
 43
20.0
 44
420.0
 45
297.0
 46
0.0
 47
0.0
 48
0.0
 49
0.0
140
0.0
141
0.0
142
1.0
143
1.0
 70
     0
 72
     1
 73
     0
 74
     0
  7

 75
     0
 76
     0
 77
     2
 78
   300
147
1.0
148
0.0
149
0.0
100
AcDbLayout
  1
Layout1
 70
     1
 71
     0
 10
-7.5
 20
-20.0
 11
412.5
 21
277.0
 12
0.0
 22
0.0
 32
0.0
 14
0.0
 24
0.0
 34
0.0
 15
0.0
 25
0.0
 35
0.0
146
0.0
 13
0.0
 23
0.0
 33
0.0
 16
0.0
 26
0.0
 36
0.0
 17
0.0
 27
0.0
 37
0.0
 76
     0
330
B
331
349
  0
LAYOUT
  5
20
102
{ACAD_REACTORS
330
1E
102
}
330
1E
100
AcDbPlotSettings
  1

  2
none_device
  4
ISO_A3_(420.00_x_297.00_MM)
  6

 40
7.5
 41
20.0
 42
7.5
 43
20.0
 44
420.0
 45
297.0
 46
0.0
 47
0.0
 48
0.0
 49
0.0
140
0.0
141
0.0
142
1.0
143
1.0
 70
  1024
 72
     1
 73
     0
 74
     0
  7

 75
     0
 76
     0
 77
     2
 78
   300
147
1.0
148
0.0
149
0.0
100
AcDbLayout
  1
Model
 70
     0
 71
     1
 10
0.0
 20
0.0
 11
594.0
 21
419.9999999999996
 12
0.0
 22
0.0
 32
0.0
 14
0.0
 24
0.0
 34
0.0
 15
593.9999999999999
 25
420.0
 35
0.0
146
0.0
 13
0.0
 23
0.0
 33
0.0
 16
0.0
 26
0.0
 36
0.0
 17
0.0
 27
0.0
 37
0.0
 76
     0
330
A
331
15
  0
MATERIAL
  5
4DFD
102
{ACAD_REACTORS
330
263
102
}
330
263
100
AcDbMaterial
  1
ByBlock
 72
     1
 94
      127
  0
MATERIAL
  5
264
102
{ACAD_REACTORS
330
263
102
}
330
263
100
AcDbMaterial
  1
ByLayer
 72
     1
 94
      127
  0
MATERIAL
  5
266
102
{ACAD_REACTORS
330
263
102
}
330
263
100
AcDbMaterial
  1
Global
 72
     1
 94
      127
  0
MLEADERSTYLE
  5
55E0
102
{ACAD_REACTORS
330
336
102
}
330
336
100
AcDbMLeaderStyle
170
     2
171
     1
172
     0
 90
        2
 40
0.0
 41
0.0
173
     1
 91
-1056964608
340
11
 92
       -2
290
     1
 42
2.0
291
     1
 43
8.0
  3
Standard
341
0
 44
4.0
300

342
17
174
     1
178
     6
175
     1
176
     0
 93
-1056964608
 45
4.0
292
     0
297
     0
 46
4.0
343
0
 94
-1056964608
 47
1.0
 49
1.0
140
1.0
293
     1
141
0.0
294
     1
177
     0
142
1.0
295
     0
296
     0
143
3.75
1001
ACAD_MLEADERVER
1070
     2
  0
MLINESTYLE
  5
1C
102
{ACAD_REACTORS
330
1B
102
}
330
1B
100
AcDbMlineStyle
  2
Standard
 70
     0
  3

 62
     0
 51
90.0
 52
90.0
 71
     2
 49
0.5
 62
   256
  6
BYLAYER
 49
-0.5
 62
   256
  6
BYLAYER
  0
ACDBPLACEHOLDER
  5
1D
102
{ACAD_REACTORS
330
1F
102
}
330
1F
  0
SCALE
  5
242
102
{ACAD_REACTORS
330
241
102
}
330
241
100
AcDbScale
 70
     0
300
1:1
140
1.0
141
1.0
290
     1
  0
SCALE
  5
243
102
{ACAD_REACTORS
330
241
102
}
330
241
100
AcDbScale
 70
     0
300
1:2
140
1.0
141
2.0
290
     0
  0
SCALE
  5
244
102
{ACAD_REACTORS
330
241
102
}
330
241
100
AcDbScale
 70
     0
300
1:4
140
1.0
141
4.0
290
     0
  0
SCALE
  5
245
102
{ACAD_REACTORS
330
241
102
}
330
241
100
AcDbScale
 70
     0
300
1:5
140
1.0
141
5.0
290
     0
  0
SCALE
  5
246
102
{ACAD_REACTORS
330
241
102
}
330
241
100
AcDbScale
 70
     0
300
1:8
140
1.0
141
8.0
290
     0
  0
SCALE
  5
247
102
{ACAD_REACTORS
330
241
102
}
330
241
100
AcDbScale
 70
     0
300
1:10
140
1.0
141
10.0
290
     0
  0
SCALE
  5
248
102
{ACAD_REACTORS
330
241
102
}
330
241
100
AcDbScale
 70
     0
300
1:16
140
1.0
141
16.0
290
     0
  0
SCALE
  5
249
102
{ACAD_REACTORS
330
241
102
}
330
241
100
AcDbScale
 70
     0
300
1:20
140
1.0
141
20.0
290
     0
  0
SCALE
  5
24A
102
{ACAD_REACTORS
330
241
102
}
330
241
100
AcDbScale
 70
     0
300
1:30
140
1.0
141
30.0
290
     0
  0
SCALE
  5
24B
102
{ACAD_REACTORS
330
241
102
}
330
241
100
AcDbScale
 70
     0
300
1:40
140
1.0
141
40.0
290
     0
  0
SCALE
  5
24C
102
{ACAD_REACTORS
330
241
102
}
330
241
100
AcDbScale
 70
     0
300
1:50
140
1.0
141
50.0
290
     0
  0
SCALE
  5
24D
102
{ACAD_REACTORS
330
241
102
}
330
241
100
AcDbScale
 70
     0
300
1:100
140
1.0
141
100.0
290
     0
  0
SCALE
  5
24E
102
{ACAD_REACTORS
330
241
102
}
330
241
100
AcDbScale
 70
     0
300
2:1
140
2.0
141
1.0
290
     0
  0
SCALE
  5
24F
102
{ACAD_REACTORS
330
241
102
}
330
241
100
AcDbScale
 70
     0
300
4:1
140
4.0
141
1.0
290
     0
  0
SCALE
  5
250
102
{ACAD_REACTORS
330
241
102
}
330
241
100
AcDbScale
 70
     0
300
8:1
140
8.0
141
1.0
290
     0
  0
SCALE
  5
251
102
{ACAD_REACTORS
330
241
102
}
330
241
100
AcDbScale
 70
     0
300
10:1
140
10.0
141
1.0
290
     0
  0
SCALE
  5
252
102
{ACAD_REACTORS
330
241
102
}
330
241
100
AcDbScale
 70
     0
300
100:1
140
100.0
141
1.0
290
     0
  0
SCALE
  5
253
102
{ACAD_REACTORS
330
241
102
}
330
241
100
AcDbScale
 70
     0
300
1/128" = 1'-0"
140
0.0078125
141
12.0
290
     0
  0
SCALE
  5
254
102
{ACAD_REACTORS
330
241
102
}
330
241
100
AcDbScale
 70
     0
300
1/64" = 1'-0"
140
0.015625
141
12.0
290
     0
  0
SCALE
  5
255
102
{ACAD_REACTORS
330
241
102
}
330
241
100
AcDbScale
 70
     0
300
1/32" = 1'-0"
140
0.03125
141
12.0
290
     0
  0
SCALE
  5
256
102
{ACAD_REACTORS
330
241
102
}
330
241
100
AcDbScale
 70
     0
300
1/16" = 1'-0"
140
0.0625
141
12.0
290
     0
  0
SCALE
  5
257
102
{ACAD_REACTORS
330
241
102
}
330
241
100
AcDbScale
 70
     0
300
3/32" = 1'-0"
140
0.09375
141
12.0
290
     0
  0
SCALE
  5
258
102
{ACAD_REACTORS
330
241
102
}
330
241
100
AcDbScale
 70
     0
300
1/8" = 1'-0"
140
0.125
141
12.0
290
     0
  0
SCALE
  5
259
102
{ACAD_REACTORS
330
241
102
}
330
241
100
AcDbScale
 70
     0
300
3/16" = 1'-0"
140
0.1875
141
12.0
290
     0
  0
SCALE
  5
25A
102
{ACAD_REACTORS
330
241
102
}
330
241
100
AcDbScale
 70
     0
300
1/4" = 1'-0"
140
0.25
141
12.0
290
     0
  0
SCALE
  5
25B
102
{ACAD_REACTORS
330
241
102
}
330
241
100
AcDbScale
 70
     0
300
3/8" = 1'-0"
140
0.375
141
12.0
290
     0
  0
SCALE
  5
25C
102
{ACAD_REACTORS
330
241
102
}
330
241
100
AcDbScale
 70
     0
300
1/2" = 1'-0"
140
0.5
141
12.0
290
     0
  0
SCALE
  5
25D
102
{ACAD_REACTORS
330
241
102
}
330
241
100
AcDbScale
 70
     0
300
3/4" = 1'-0"
140
0.75
141
12.0
290
     0
  0
SCALE
  5
25E
102
{ACAD_REACTORS
330
241
102
}
330
241
100
AcDbScale
 70
     0
300
1" = 1'-0"
140
1.0
141
12.0
290
     0
  0
SCALE
  5
25F
102
{ACAD_REACTORS
330
241
102
}
330
241
100
AcDbScale
 70
     0
300
1-1/2" = 1'-0"
140
1.5
141
12.0
290
     0
  0
SCALE
  5
260
102
{ACAD_REACTORS
330
241
102
}
330
241
100
AcDbScale
 70
     0
300
3" = 1'-0"
140
3.0
141
12.0
290
     0
  0
SCALE
  5
261
102
{ACAD_REACTORS
330
241
102
}
330
241
100
AcDbScale
 70
     0
300
6" = 1'-0"
140
6.0
141
12.0
290
     0
  0
SCALE
  5
262
102
{ACAD_REACTORS
330
241
102
}
330
241
100
AcDbScale
 70
     0
300
1'-0" = 1'-0"
140
12.0
141
12.0
290
     0
  0
TABLESTYLE
  5
279
102
{ACAD_REACTORS
330
278
102
}
102
{ACAD_XDICTIONARY
360
5FD0
102
}
330
278
100
AcDbTableStyle
  3
Standard
 70
     0
 71
     0
 40
0.06
 41
0.06
280
     0
281
     0
  7
Standard
140
4.5
170
     2
 62
     0
 63
   257
283
     0
 90
        4
 91
        0
  1

274
    -2
284
     1
 64
     0
275
    -2
285
     1
 65
     0
276
    -2
286
     1
 66
     0
277
    -2
287
     1
 67
     0
278
    -2
288
     1
 68
     0
279
    -2
289
     1
 69
     0
  7
Standard
140
6.0
170
     5
 62
     0
 63
   257
283
     0
 90
        4
 91
        0
  1

274
    -2
284
     1
 64
     0
275
    -2
285
     1
 65
     0
276
    -2
286
     1
 66
     0
277
    -2
287
     1
 67
     0
278
    -2
288
     1
 68
     0
279
    -2
289
     1
 69
     0
  7
Standard
140
4.5
170
     5
 62
     0
 63
   257
283
     0
 90
        4
 91
        0
  1

274
    -2
284
     1
 64
     0
275
    -2
285
     1
 65
     0
276
    -2
286
     1
 66
     0
277
    -2
287
     1
 67
     0
278
    -2
288
     1
 68
     0
279
    -2
289
     1
 69
     0
  0
VISUALSTYLE
  5
26C
102
{ACAD_REACTORS
330
267
102
}
330
267
100
AcDbVisualStyle
  2
2dWireframe
 70
     4
 71
     0
 72
     2
 73
     0
 90
        0
 40
-0.6
 41
-30.0
 62
     5
 63
     7
421
 16777215
 74
     1
 91
        4
 64
     7
 65
   257
 75
     1
175
     1
 42
1.0
 92
        0
 66
   257
 43
1.0
 76
     1
 77
     6
 78
     2
 67
     7
 79
     5
170
     0
171
     0
290
     0
174
     0
 93
        1
 44
0.0
173
     0
291
     0
 45
0.0
  0
VISUALSTYLE
  5
26E
102
{ACAD_REACTORS
330
267
102
}
330
267
100
AcDbVisualStyle
  2
3D Hidden
 70
     6
 71
     1
 72
     2
 73
     2
 90
        0
 40
-0.6
 41
-30.0
 62
     5
 63
     7
421
 16777215
 74
     2
 91
        2
 64
     7
 65
   257
 75
     2
175
     1
 42
40.0
 92
        0
 66
   257
 43
1.0
 76
     1
 77
     6
 78
     2
 67
     7
 79
     3
170
     0
171
     0
290
     0
174
     0
 93
        1
 44
0.0
173
     0
291
     0
 45
0.0
  0
VISUALSTYLE
  5
26D
102
{ACAD_REACTORS
330
267
102
}
330
267
100
AcDbVisualStyle
  2
3dWireframe
 70
     5
 71
     0
 72
     2
 73
     0
 90
        0
 40
-0.6
 41
-30.0
 62
     5
 63
     7
421
 16777215
 74
     1
 91
        4
 64
     7
 65
   257
 75
     1
175
     1
 42
1.0
 92
        0
 66
   257
 43
1.0
 76
     1
 77
     6
 78
     2
 67
     7
 79
     5
170
     0
171
     0
290
     0
174
     0
 93
        1
 44
0.0
173
     0
291
     0
 45
0.0
  0
VISUALSTYLE
  5
26F
102
{ACAD_REACTORS
330
267
102
}
330
267
100
AcDbVisualStyle
  2
Basic
 70
     7
 71
     1
 72
     0
 73
     1
 90
        0
 40
-0.6
 41
-30.0
 62
     5
 63
     7
421
 16777215
 74
     0
 91
        4
 64
     7
 65
   257
 75
     1
175
     1
 42
1.0
 92
        8
 66
     7
 43
1.0
 76
     1
 77
     6
 78
     2
 67
     7
 79
     5
170
     0
171
     0
290
     0
174
     0
 93
        1
 44
0.0
173
     0
291
     1
 45
0.0
  0
VISUALSTYLE
  5
273
102
{ACAD_REACTORS
330
267
102
}
330
267
100
AcDbVisualStyle
  2
Brighten
 70
    12
 71
     2
 72
     2
 73
     0
 90
        0
 40
-0.6
 41
-30.0
 62
     5
 63
     7
421
 16777215
 74
     1
 91
        4
 64
     7
 65
   257
 75
     1
175
     1
 42
1.0
 92
        8
 66
     7
 43
1.0
 76
     1
 77
     6
 78
     2
 67
     7
 79
     5
170
     0
171
     0
290
     0
174
     0
 93
        1
 44
50.0
173
     0
291
     1
 45
0.0
  0
VISUALSTYLE
  5
277
102
{ACAD_REACTORS
330
267
102
}
330
267
100
AcDbVisualStyle
  2
ColorChange
 70
    16
 71
     2
 72
     2
 73
     3
 90
        0
 40
-0.6
 41
-30.0
 62
     5
 63
     8
421
  8421504
 74
     1
 91
        4
 64
     7
 65
   257
 75
     1
175
     1
 42
1.0
 92
        8
 66
     8
424
  8421504
 43
1.0
 76
     1
 77
     6
 78
     2
 67
     7
 79
     5
170
     0
171
     0
290
     0
174
     0
 93
        1
 44
0.0
173
     0
291
     1
 45
0.0
  0
VISUALSTYLE
  5
271
102
{ACAD_REACTORS
330
267
102
}
330
267
100
AcDbVisualStyle
  2
Conceptual
 70
     9
 71
     3
 72
     2
 73
     0
 90
        0
 40
-0.6
 41
-30.0
 62
     5
 63
     7
421
 16777215
 74
     2
 91
        2
 64
     7
 65
   257
 75
     1
175
     1
 42
40.0
 92
        8
 66
     7
 43
1.0
 76
     1
 77
     6
 78
     2
 67
     7
 79
     3
170
     0
171
     0
290
     0
174
     0
 93
        1
 44
0.0
173
     0
291
     0
 45
0.0
  0
VISUALSTYLE
  5
272
102
{ACAD_REACTORS
330
267
102
}
330
267
100
AcDbVisualStyle
  2
Dim
 70
    11
 71
     2
 72
     2
 73
     0
 90
        0
 40
-0.6
 41
-30.0
 62
     5
 63
     7
421
 16777215
 74
     1
 91
        4
 64
     7
 65
   257
 75
     1
175
     1
 42
1.0
 92
        8
 66
     7
 43
1.0
 76
     1
 77
     6
 78
     2
 67
     7
 79
     5
170
     0
171
     0
290
     0
174
     0
 93
        1
 44
-50.0
173
     0
291
     1
 45
0.0
  0
VISUALSTYLE
  5
F14
102
{ACAD_REACTORS
330
267
102
}
330
267
100
AcDbVisualStyle
  2
EdgeColorOff
 70
    22
 71
     2
 72
     2
 73
     0
 90
        0
 40
0.6
 41
30.0
 62
     5
 63
     7
421
 16777215
 74
     1
 91
        4
 64
     7
 65
   257
 75
     1
175
     1
 42
1.0
 92
        8
 66
     7
 43
1.0
 76
     1
 77
     6
 78
     2
 67
     7
 79
     5
170
     0
171
     0
290
     0
174
     0
 93
        1
 44
0.0
173
     0
291
     1
 45
0.0
  0
VISUALSTYLE
  5
276
102
{ACAD_REACTORS
330
267
102
}
330
267
100
AcDbVisualStyle
  2
Facepattern
 70
    15
 71
     2
 72
     2
 73
     0
 90
        0
 40
-0.6
 41
-30.0
 62
     5
 63
     7
421
 16777215
 74
     1
 91
        4
 64
     7
 65
   257
 75
     1
175
     1
 42
1.0
 92
        8
 66
     7
 43
1.0
 76
     1
 77
     6
 78
     2
 67
     7
 79
     5
170
     0
171
     0
290
     0
174
     0
 93
        1
 44
0.0
173
     0
291
     1
 45
0.0
  0
VISUALSTYLE
  5
268
102
{ACAD_REACTORS
330
267
102
}
330
267
100
AcDbVisualStyle
  2
Flat
 70
     0
 71
     2
 72
     1
 73
     1
 90
        2
 40
-0.6
 41
30.0
 62
     5
 63
     7
421
 16777215
 74
     0
 91
        4
 64
     7
 65
   257
 75
     1
175
     1
 42
1.0
 92
        8
 66
     7
 43
1.0
 76
     1
 77
     6
 78
     2
 67
     7
 79
     5
170
     0
171
     0
290
     0
174
     0
 93
       13
 44
0.0
173
     0
291
     1
 45
0.0
  0
VISUALSTYLE
  5
269
102
{ACAD_REACTORS
330
267
102
}
330
267
100
AcDbVisualStyle
  2
FlatWithEdges
 70
     1
 71
     2
 72
     1
 73
     1
 90
        2
 40
-0.6
 41
30.0
 62
     5
 63
     7
421
 16777215
 74
     1
 91
        4
 64
     7
 65
   257
 75
     1
175
     1
 42
1.0
 92
        0
 66
   257
 43
1.0
 76
     1
 77
     6
 78
     2
 67
     7
 79
     5
170
     0
171
     0
290
     0
174
     0
 93
       13
 44
0.0
173
     0
291
     1
 45
0.0
  0
VISUALSTYLE
  5
26A
102
{ACAD_REACTORS
330
267
102
}
330
267
100
AcDbVisualStyle
  2
Gouraud
 70
     2
 71
     2
 72
     2
 73
     1
 90
        2
 40
-0.6
 41
30.0
 62
     5
 63
     7
421
 16777215
 74
     0
 91
        4
 64
     7
 65
   257
 75
     1
175
     1
 42
1.0
 92
        0
 66
     7
 43
1.0
 76
     1
 77
     6
 78
     2
 67
     7
 79
     5
170
     0
171
     0
290
     0
174
     0
 93
       13
 44
0.0
173
     0
291
     1
 45
0.0
  0
VISUALSTYLE
  5
26B
102
{ACAD_REACTORS
330
267
102
}
330
267
100
AcDbVisualStyle
  2
GouraudWithEdges
 70
     3
 71
     2
 72
     2
 73
     1
 90
        2
 40
-0.6
 41
30.0
 62
     5
 63
     7
421
 16777215
 74
     1
 91
        4
 64
     7
 65
   257
 75
     1
175
     1
 42
1.0
 92
        0
 66
   257
 43
1.0
 76
     1
 77
     6
 78
     2
 67
     7
 79
     5
170
     0
171
     0
290
     0
174
     0
 93
       13
 44
0.0
173
     0
291
     1
 45
0.0
  0
VISUALSTYLE
  5
F11
102
{ACAD_REACTORS
330
267
102
}
330
267
100
AcDbVisualStyle
  2
Hidden
 70
     6
 71
     1
 72
     2
 73
     2
 90
        0
 40
0.6
 41
30.0
 62
     5
 63
     7
421
 16777215
 74
     2
 91
        2
 64
     7
 65
   257
 75
     2
175
     1
 42
40.0
 92
        0
 66
   257
 43
1.0
 76
     1
 77
     6
 78
     2
 67
     7
 79
     3
170
     0
171
     0
290
     0
174
     0
 93
        1
 44
0.0
173
     0
291
     0
 45
0.0
  0
VISUALSTYLE
  5
F12
102
{ACAD_REACTORS
330
267
102
}
330
267
100
AcDbVisualStyle
  2
JitterOff
 70
    20
 71
     2
 72
     2
 73
     0
 90
        0
 40
0.6
 41
30.0
 62
     5
 63
     7
421
 16777215
 74
     1
 91
        4
 64
     7
 65
   257
 75
     1
175
     1
 42
1.0
 92
       10
 66
     7
 43
1.0
 76
     1
 77
     6
 78
     2
 67
     7
 79
     5
170
     0
171
     0
290
     0
174
     0
 93
        1
 44
0.0
173
     0
291
     1
 45
0.0
  0
VISUALSTYLE
  5
275
102
{ACAD_REACTORS
330
267
102
}
330
267
100
AcDbVisualStyle
  2
Linepattern
 70
    14
 71
     2
 72
     2
 73
     0
 90
        0
 40
-0.6
 41
-30.0
 62
     5
 63
     7
421
 16777215
 74
     1
 91
        4
 64
     7
 65
   257
 75
     7
175
     7
 42
1.0
 92
        8
 66
     7
 43
1.0
 76
     1
 77
     6
 78
     2
 67
     7
 79
     5
170
     0
171
     0
290
     0
174
     0
 93
        1
 44
0.0
173
     0
291
     1
 45
0.0
  0
VISUALSTYLE
  5
F13
102
{ACAD_REACTORS
330
267
102
}
330
267
100
AcDbVisualStyle
  2
OverhangOff
 70
    21
 71
     2
 72
     2
 73
     0
 90
        0
 40
0.6
 41
30.0
 62
     5
 63
     7
421
 16777215
 74
     1
 91
        4
 64
     7
 65
   257
 75
     1
175
     1
 42
1.0
 92
        9
 66
     7
 43
1.0
 76
     1
 77
     6
 78
     2
 67
     7
 79
     5
170
     0
171
     0
290
     0
174
     0
 93
        1
 44
0.0
173
     0
291
     1
 45
0.0
  0
VISUALSTYLE
  5
270
102
{ACAD_REACTORS
330
267
102
}
330
267
100
AcDbVisualStyle
  2
Realistic
 70
     8
 71
     2
 72
     2
 73
     0
 90
        0
 40
-0.6
 41
-30.0
 62
     5
 63
     7
421
 16777215
 74
     1
 91
        0
 64
     7
 65
   257
 75
     1
175
     1
 42
1.0
 92
        8
 66
     8
424
  7895160
 43
1.0
 76
     1
 77
     6
 78
     2
 67
     7
 79
     5
170
     0
171
     0
290
     0
174
     0
 93
       13
 44
0.0
173
     0
291
     0
 45
0.0
  0
VISUALSTYLE
  5
F19
102
{ACAD_REACTORS
330
267
102
}
330
267
100
AcDbVisualStyle
  2
Shaded
 70
    27
 71
     2
 72
     2
 73
     1
 90
        2
 40
0.6
 41
30.0
 62
     5
 63
     7
421
 16777215
 74
     0
 91
        4
 64
     7
 65
   257
 75
     1
175
     1
 42
1.0
 92
        8
 66
   257
 43
1.0
 76
     1
 77
     6
 78
     2
 67
     8
425
  7895160
 79
     3
170
     0
171
     0
290
     0
174
     0
 93
        5
 44
0.0
173
     0
291
     0
 45
0.0
  0
VISUALSTYLE
  5
F18
102
{ACAD_REACTORS
330
267
102
}
330
267
100
AcDbVisualStyle
  2
Shaded with edges
 70
    26
 71
     2
 72
     2
 73
     1
 90
        2
 40
0.6
 41
30.0
 62
     5
 63
     7
421
 16777215
 74
     1
 91
       10
 64
     7
 65
   257
 75
     2
175
     1
 42
1.0
 92
        8
 66
   257
 43
1.0
 76
     1
 77
     6
 78
     2
 67
     7
 79
     3
170
     0
171
     0
290
     0
174
     0
 93
        5
 44
0.0
173
     0
291
     0
 45
0.0
  0
VISUALSTYLE
  5
F15
102
{ACAD_REACTORS
330
267
102
}
330
267
100
AcDbVisualStyle
  2
Shades of Gray
 70
    23
 71
     2
 72
     2
 73
     3
 90
        0
 40
0.6
 41
30.0
 62
     5
 63
     7
421
 16777215
 74
     2
 91
        2
 64
     7
 65
     7
 75
     1
175
     1
 42
40.0
 92
        8
 66
     7
 43
1.0
 76
     1
 77
     6
 78
     2
 67
     7
 79
     3
170
     0
171
     0
290
     0
174
     0
 93
        1
 44
0.0
173
     0
291
     0
 45
0.0
  0
VISUALSTYLE
  5
F16
102
{ACAD_REACTORS
330
267
102
}
330
267
100
AcDbVisualStyle
  2
Sketchy
 70
    24
 71
     1
 72
     2
 73
     2
 90
        0
 40
0.6
 41
30.0
 62
     5
 63
     7
421
 16777215
 74
     2
 91
        2
 64
     7
 65
     7
 75
     1
175
     1
 42
40.0
 92
       11
 66
     7
 43
1.0
 76
     1
 77
     6
 78
     2
 67
     7
 79
     6
170
     0
171
     0
290
     0
174
     0
 93
        1
 44
0.0
173
     0
291
     0
 45
0.0
  0
VISUALSTYLE
  5
274
102
{ACAD_REACTORS
330
267
102
}
330
267
100
AcDbVisualStyle
  2
Thicken
 70
    13
 71
     2
 72
     2
 73
     0
 90
        0
 40
-0.6
 41
-30.0
 62
     5
 63
     7
421
 16777215
 74
     1
 91
        4
 64
     7
 65
   257
 75
     1
175
     1
 42
1.0
 92
       12
 66
     7
 43
1.0
 76
     1
 77
     6
 78
     2
 67
     7
 79
     5
170
     0
171
     0
290
     0
174
     0
 93
        1
 44
0.0
173
     0
291
     1
 45
0.0
  0
VISUALSTYLE
  5
F10
102
{ACAD_REACTORS
330
267
102
}
330
267
100
AcDbVisualStyle
  2
Wireframe
 70
     5
 71
     0
 72
     2
 73
     0
 90
        0
 40
0.6
 41
30.0
 62
     5
 63
     7
421
 16777215
 74
     1
 91
        4
 64
     7
 65
   257
 75
     1
175
     1
 42
1.0
 92
        0
 66
   257
 43
1.0
 76
     1
 77
     6
 78
     2
 67
     7
 79
     3
170
     0
171
     0
290
     0
174
     0
 93
        1
 44
0.0
173
     0
291
     0
 45
0.0
  0
VISUALSTYLE
  5
F17
102
{ACAD_REACTORS
330
267
102
}
330
267
100
AcDbVisualStyle
  2
X-Ray
 70
    25
 71
     2
 72
     2
 73
     1
 90
        1
 40
0.5
 41
30.0
 62
     5
 63
     7
421
 16777215
 74
     1
 91
        0
 64
     7
 65
   257
 75
     1
175
     1
 42
1.0
 92
        8
 66
     7
 43
1.0
 76
     1
 77
     6
 78
     2
 67
     7
 79
     3
170
     0
171
     0
290
     0
174
     0
 93
       13
 44
0.0
173
     0
291
     0
 45
0.0
  0
DICTIONARYVAR
  5
331
102
{ACAD_REACTORS
330
330
102
}
330
330
100
DictionaryVariables
280
     0
  1
1:1
  0
DICTIONARYVAR
  5
5669
102
{ACAD_REACTORS
330
330
102
}
330
330
100
DictionaryVariables
280
     0
  1
Standard
  0
DICTIONARYVAR
  5
335
102
{ACAD_REACTORS
330
330
102
}
330
330
100
DictionaryVariables
280
     0
  1
Standard
  0
DICTIONARYVAR
  5
537B
102
{ACAD_REACTORS
330
330
102
}
330
330
100
DictionaryVariables
280
     0
  1
ByLayer
  0
DICTIONARYVAR
  5
13B4
102
{ACAD_REACTORS
330
330
102
}
330
330
100
DictionaryVariables
280
     0
  1
0
  0
FIELD
  5
5772
102
{ACAD_REACTORS
330
5FAF
102
}
330
5FAF
100
AcDbField
  1
_text
  2
{%<\_FldIdx 0>%M}
 90
        1
360
5773
 97
        0
 91
       63
 92
        0
 94
       11
 95
        2
 96
        0
300

 93
        1
  6
ACFD_FIELDTEXT_CHECKSUM
 93
        2
 90
        2
140
4447.0
 94
        0
300

302

304
ACVALUE_END
  7
ACFD_FIELD_VALUE
 93
        6
 90
        4
  1
{20211014M}
 94
        0
300

302

304
ACVALUE_END
301
{20211014M}
 98
       11
  0
DICTIONARY
  5
5FD0
330
279
100
AcDbDictionary
280
     1
281
     1
  3
ACAD_ROUNDTRIP_2008_TABLESTYLE_CELLSTYLEMAP
360
5FD1
  0
FIELD
  5
5773
330
5772
100
AcDbField
  1
AcVar
  2
\AcVar Date \f "yyyyMMdd"
 90
        0
 97
        0
 91
       63
 92
        0
 94
       11
 95
       64
 96
        0
300
Variable not supported
 93
        1
  6
Variable
 93
        2
 90
        4
  1
Date
 94
        0
300

302

304
ACVALUE_END
  7
ACFD_FIELD_VALUE
 93
        6
 90
        8
 92
       16
310
E5070A0000000E00050011001E000000
 94
        0
300
yyyyMMdd
302

304
ACVALUE_END
301
20211014
 98
        8
  0
CELLSTYLEMAP
  5
5FD1
102
{ACAD_REACTORS
330
5FD0
102
}
330
5FD0
100
AcDbCellStyleMap
 90
        3
300
CELLSTYLE
  1
TABLEFORMAT_BEGIN
 90
        5
170
     1
 91
        0
 92
    32768
 62
   257
 93
        1
300
CONTENTFORMAT
  1
CONTENTFORMAT_BEGIN
 90
        0
 91
        0
 92
        4
 93
        0
300

 40
0.0
140
1.0
 94
        5
 62
     0
340
17
144
6.0
309
CONTENTFORMAT_END
171
     1
301
MARGIN
  1
CELLMARGIN_BEGIN
 40
0.06
 40
0.06
 40
0.06
 40
0.06
 40
0.18
 40
0.18
309
CELLMARGIN_END
 94
        6
 95
        1
302
GRIDFORMAT
  1
GRIDFORMAT_BEGIN
 90
        0
 91
        1
 62
     0
 92
       -2
340
0
 93
        0
 40
0.045
309
GRIDFORMAT_END
 95
        2
302
GRIDFORMAT
  1
GRIDFORMAT_BEGIN
 90
        0
 91
        1
 62
     0
 92
       -2
340
0
 93
        0
 40
0.045
309
GRIDFORMAT_END
 95
        4
302
GRIDFORMAT
  1
GRIDFORMAT_BEGIN
 90
        0
 91
        1
 62
     0
 92
       -2
340
0
 93
        0
 40
0.045
309
GRIDFORMAT_END
 95
        8
302
GRIDFORMAT
  1
GRIDFORMAT_BEGIN
 90
        0
 91
        1
 62
     0
 92
       -2
340
0
 93
        0
 40
0.045
309
GRIDFORMAT_END
 95
       16
302
GRIDFORMAT
  1
GRIDFORMAT_BEGIN
 90
        0
 91
        1
 62
     0
 92
       -2
340
0
 93
        0
 40
0.045
309
GRIDFORMAT_END
 95
       32
302
GRIDFORMAT
  1
GRIDFORMAT_BEGIN
 90
        0
 91
        1
 62
     0
 92
       -2
340
0
 93
        0
 40
0.045
309
GRIDFORMAT_END
309
TABLEFORMAT_END
  1
CELLSTYLE_BEGIN
 90
        1
 91
        1
300
_TITLE
309
CELLSTYLE_END
300
CELLSTYLE
  1
TABLEFORMAT_BEGIN
 90
        5
170
     1
 91
        0
 92
        0
 62
   257
 93
        1
300
CONTENTFORMAT
  1
CONTENTFORMAT_BEGIN
 90
        0
 91
        0
 92
        4
 93
        0
300

 40
0.0
140
1.0
 94
        5
 62
     0
340
17
144
4.5
309
CONTENTFORMAT_END
171
     1
301
MARGIN
  1
CELLMARGIN_BEGIN
 40
0.06
 40
0.06
 40
0.06
 40
0.06
 40
0.18
 40
0.18
309
CELLMARGIN_END
 94
        6
 95
        1
302
GRIDFORMAT
  1
GRIDFORMAT_BEGIN
 90
        0
 91
        1
 62
     0
 92
       -2
340
0
 93
        0
 40
0.045
309
GRIDFORMAT_END
 95
        2
302
GRIDFORMAT
  1
GRIDFORMAT_BEGIN
 90
        0
 91
        1
 62
     0
 92
       -2
340
0
 93
        0
 40
0.045
309
GRIDFORMAT_END
 95
        4
302
GRIDFORMAT
  1
GRIDFORMAT_BEGIN
 90
        0
 91
        1
 62
     0
 92
       -2
340
0
 93
        0
 40
0.045
309
GRIDFORMAT_END
 95
        8
302
GRIDFORMAT
  1
GRIDFORMAT_BEGIN
 90
        0
 91
        1
 62
     0
 92
       -2
340
0
 93
        0
 40
0.045
309
GRIDFORMAT_END
 95
       16
302
GRIDFORMAT
  1
GRIDFORMAT_BEGIN
 90
        0
 91
        1
 62
     0
 92
       -2
340
0
 93
        0
 40
0.045
309
GRIDFORMAT_END
 95
       32
302
GRIDFORMAT
  1
GRIDFORMAT_BEGIN
 90
        0
 91
        1
 62
     0
 92
       -2
340
0
 93
        0
 40
0.045
309
GRIDFORMAT_END
309
TABLEFORMAT_END
  1
CELLSTYLE_BEGIN
 90
        2
 91
        1
300
_HEADER
309
CELLSTYLE_END
300
CELLSTYLE
  1
TABLEFORMAT_BEGIN
 90
        5
170
     1
 91
        0
 92
        0
 62
   257
 93
        1
300
CONTENTFORMAT
  1
CONTENTFORMAT_BEGIN
 90
        0
 91
        0
 92
        4
 93
        0
300

 40
0.0
140
1.0
 94
        2
 62
     0
340
17
144
4.5
309
CONTENTFORMAT_END
171
     1
301
MARGIN
  1
CELLMARGIN_BEGIN
 40
0.06
 40
0.06
 40
0.06
 40
0.06
 40
0.18
 40
0.18
309
CELLMARGIN_END
 94
        6
 95
        1
302
GRIDFORMAT
  1
GRIDFORMAT_BEGIN
 90
        0
 91
        1
 62
     0
 92
       -2
340
0
 93
        0
 40
0.045
309
GRIDFORMAT_END
 95
        2
302
GRIDFORMAT
  1
GRIDFORMAT_BEGIN
 90
        0
 91
        1
 62
     0
 92
       -2
340
0
 93
        0
 40
0.045
309
GRIDFORMAT_END
 95
        4
302
GRIDFORMAT
  1
GRIDFORMAT_BEGIN
 90
        0
 91
        1
 62
     0
 92
       -2
340
0
 93
        0
 40
0.045
309
GRIDFORMAT_END
 95
        8
302
GRIDFORMAT
  1
GRIDFORMAT_BEGIN
 90
        0
 91
        1
 62
     0
 92
       -2
340
0
 93
        0
 40
0.045
309
GRIDFORMAT_END
 95
       16
302
GRIDFORMAT
  1
GRIDFORMAT_BEGIN
 90
        0
 91
        1
 62
     0
 92
       -2
340
0
 93
        0
 40
0.045
309
GRIDFORMAT_END
 95
       32
302
GRIDFORMAT
  1
GRIDFORMAT_BEGIN
 90
        0
 91
        1
 62
     0
 92
       -2
340
0
 93
        0
 40
0.045
309
GRIDFORMAT_END
309
TABLEFORMAT_END
  1
CELLSTYLE_BEGIN
 90
        3
 91
        2
300
_DATA
309
CELLSTYLE_END
  0
ENDSEC
  0
EOF
