  0
SECTION
  2
HEADER
  9
$ACADVER
  1
AC1021
  9
$ACADMAINTVER
 70
    25
  9
$DWGCODEPAGE
  3
ANSI_932
  9
$LASTSAVEDBY
  1
tform
  9
$INSBASE
 10
0.0
 20
0.0
 30
0.0
  9
$EXTMIN
 10
0.0
 20
0.0
 30
0.0
  9
$EXTMAX
 10
593.9999999999999
 20
420.0
 30
0.005
  9
$LIMMIN
 10
0.0
 20
0.0
  9
$LIMMAX
 10
593.9999999999999
 20
420.0
  9
$ORTHOMODE
 70
     0
  9
$REGENMODE
 70
     1
  9
$FILLMODE
 70
     1
  9
$QTEXTMODE
 70
     0
  9
$MIRRTEXT
 70
     1
  9
$LTSCALE
 40
0.5
  9
$ATTMODE
 70
     1
  9
$TEXTSIZE
 40
136.139079520063
  9
$TRACEWID
 40
1.0
  9
$TEXTSTYLE
  7
ＭＳ ゴシック
  9
$CLAYER
  8
寸法
  9
$CELTYPE
  6
ByLayer
  9
$CECOLOR
 62
   256
  9
$CELTSCALE
 40
1.0
  9
$DISPSILH
 70
     0
  9
$DIMSCALE
 40
1.0
  9
$DIMASZ
 40
2.0
  9
$DIMEXO
 40
5.0
  9
$DIMDLI
 40
0.9999999999999999
  9
$DIMRND
 40
0.0
  9
$DIMDLE
 40
0.0
  9
$DIMEXE
 40
0.0
  9
$DIMTP
 40
0.0
  9
$DIMTM
 40
0.0
  9
$DIMTXT
 40
5.0
  9
$DIMCEN
 40
0.0
  9
$DIMTSZ
 40
0.0
  9
$DIMTOL
 70
     0
  9
$DIMLIM
 70
     0
  9
$DIMTIH
 70
     0
  9
$DIMTOH
 70
     0
  9
$DIMSE1
 70
     0
  9
$DIMSE2
 70
     0
  9
$DIMTAD
 70
     1
  9
$DIMZIN
 70
    11
  9
$DIMBLK
  1
DOT
  9
$DIMASO
 70
     1
  9
$DIMSHO
 70
     1
  9
$DIMPOST
  1
<>
  9
$DIMAPOST
  1
[]
  9
$DIMALT
 70
     0
  9
$DIMALTD
 70
     1
  9
$DIMALTF
 40
1.0
  9
$DIMLFAC
 40
1.0
  9
$DIMTOFL
 70
     0
  9
$DIMTVP
 40
0.0
  9
$DIMTIX
 70
     1
  9
$DIMSOXD
 70
     0
  9
$DIMSAH
 70
     0
  9
$DIMBLK1
  1

  9
$DIMBLK2
  1

  9
$DIMSTYLE
  2
tfrom線あり
  9
$DIMCLRD
 70
     0
  9
$DIMCLRE
 70
     0
  9
$DIMCLRT
 70
     0
  9
$DIMTFAC
 40
1.0
  9
$DIMGAP
 40
5.0
  9
$DIMJUST
 70
     0
  9
$DIMSD1
 70
     0
  9
$DIMSD2
 70
     0
  9
$DIMTOLJ
 70
     1
  9
$DIMTZIN
 70
    11
  9
$DIMALTZ
 70
    11
  9
$DIMALTTZ
 70
    11
  9
$DIMUPT
 70
     0
  9
$DIMDEC
 70
     0
  9
$DIMTDEC
 70
     1
  9
$DIMALTU
 70
     2
  9
$DIMALTTD
 70
     2
  9
$DIMTXSTY
  7
ＭＳ ゴシック
  9
$DIMAUNIT
 70
     0
  9
$DIMADEC
 70
     2
  9
$DIMALTRND
 40
0.0
  9
$DIMAZIN
 70
     0
  9
$DIMDSEP
 70
    46
  9
$DIMATFIT
 70
     0
  9
$DIMFRAC
 70
     2
  9
$DIMLDRBLK
  1
DOT
  9
$DIMLUNIT
 70
     2
  9
$DIMLWD
 70
    -2
  9
$DIMLWE
 70
    -2
  9
$DIMTMOVE
 70
     0
  9
$DIMFXL
 40
1.0
  9
$DIMFXLON
 70
     0
  9
$DIMJOGANG
 40
0.7853981633974483
  9
$DIMTFILL
 70
     0
  9
$DIMTFILLCLR
 70
     0
  9
$DIMARCSYM
 70
     0
  9
$DIMLTYPE
  6

  9
$DIMLTEX1
  6

  9
$DIMLTEX2
  6

  9
$LUNITS
 70
     2
  9
$LUPREC
 70
     0
  9
$SKETCHINC
 40
0.1
  9
$FILLETRAD
 40
0.0
  9
$AUNITS
 70
     0
  9
$AUPREC
 70
     0
  9
$MENU
  1
acad
  9
$ELEVATION
 40
0.0
  9
$PELEVATION
 40
0.0
  9
$THICKNESS
 40
0.0
  9
$LIMCHECK
 70
     0
  9
$CHAMFERA
 40
0.0
  9
$CHAMFERB
 40
0.0
  9
$CHAMFERC
 40
0.0
  9
$CHAMFERD
 40
0.0
  9
$SKPOLY
 70
     0
  9
$TDCREATE
 40
2447893.375
  9
$TDUCREATE
 40
0.0
  9
$TDUPDATE
 40
2459759.497189514
  9
$TDUUPDATE
 40
2459759.122189514
  9
$TDINDWG
 40
0.001089919
  9
$TDUSRTIMER
 40
0.0007346296
  9
$USRTIMER
 70
     1
  9
$ANGBASE
 50
0.0
  9
$ANGDIR
 70
     0
  9
$PDMODE
 70
     1
  9
$PDSIZE
 40
-2.0
  9
$PLINEWID
 40
0.0
  9
$SPLFRAME
 70
     0
  9
$SPLINETYPE
 70
     6
  9
$SPLINESEGS
 70
     8
  9
$HANDSEED
  5
57FD
  9
$SURFTAB1
 70
     6
  9
$SURFTAB2
 70
     6
  9
$SURFTYPE
 70
     6
  9
$SURFU
 70
     6
  9
$SURFV
 70
     6
  9
$UCSBASE
  2

  9
$UCSNAME
  2

  9
$UCSORG
 10
0.0
 20
0.0
 30
0.0
  9
$UCSXDIR
 10
1.0
 20
0.0
 30
0.0
  9
$UCSYDIR
 10
0.0
 20
1.0
 30
0.0
  9
$UCSORTHOREF
  2

  9
$UCSORTHOVIEW
 70
     1
  9
$UCSORGTOP
 10
0.0
 20
0.0
 30
0.0
  9
$UCSORGBOTTOM
 10
0.0
 20
0.0
 30
0.0
  9
$UCSORGLEFT
 10
0.0
 20
0.0
 30
0.0
  9
$UCSORGRIGHT
 10
0.0
 20
0.0
 30
0.0
  9
$UCSORGFRONT
 10
0.0
 20
0.0
 30
0.0
  9
$UCSORGBACK
 10
0.0
 20
0.0
 30
0.0
  9
$PUCSBASE
  2

  9
$PUCSNAME
  2

  9
$PUCSORG
 10
0.0
 20
0.0
 30
0.0
  9
$PUCSXDIR
 10
1.0
 20
0.0
 30
0.0
  9
$PUCSYDIR
 10
0.0
 20
1.0
 30
0.0
  9
$PUCSORTHOREF
  2

  9
$PUCSORTHOVIEW
 70
     0
  9
$PUCSORGTOP
 10
0.0
 20
0.0
 30
0.0
  9
$PUCSORGBOTTOM
 10
0.0
 20
0.0
 30
0.0
  9
$PUCSORGLEFT
 10
0.0
 20
0.0
 30
0.0
  9
$PUCSORGRIGHT
 10
0.0
 20
0.0
 30
0.0
  9
$PUCSORGFRONT
 10
0.0
 20
0.0
 30
0.0
  9
$PUCSORGBACK
 10
0.0
 20
0.0
 30
0.0
  9
$USERI1
 70
     0
  9
$USERI2
 70
     0
  9
$USERI3
 70
     0
  9
$USERI4
 70
     0
  9
$USERI5
 70
     0
  9
$USERR1
 40
0.0
  9
$USERR2
 40
0.0
  9
$USERR3
 40
0.0
  9
$USERR4
 40
0.0
  9
$USERR5
 40
0.0
  9
$WORLDVIEW
 70
     1
  9
$SHADEDGE
 70
     3
  9
$SHADEDIF
 70
    70
  9
$TILEMODE
 70
     1
  9
$MAXACTVP
 70
    64
  9
$PINSBASE
 10
0.0
 20
0.0
 30
0.0
  9
$PLIMCHECK
 70
     0
  9
$PEXTMIN
 10
0.0
 20
0.0
 30
0.0
  9
$PEXTMAX
 10
0.0
 20
0.0
 30
0.0
  9
$PLIMMIN
 10
-7.5
 20
-20.0
  9
$PLIMMAX
 10
412.5
 20
277.0
  9
$UNITMODE
 70
     0
  9
$VISRETAIN
 70
     0
  9
$PLINEGEN
 70
     1
  9
$PSLTSCALE
 70
     0
  9
$TREEDEPTH
 70
  3020
  9
$CMLSTYLE
  2
Standard
  9
$CMLJUST
 70
     0
  9
$CMLSCALE
 40
1.0
  9
$PROXYGRAPHICS
 70
     0
  9
$MEASUREMENT
 70
     1
  9
$CELWEIGHT
370
    -1
  9
$ENDCAPS
280
     0
  9
$JOINSTYLE
280
     0
  9
$LWDISPLAY
290
     1
  9
$INSUNITS
 70
     4
  9
$HYPERLINKBASE
  1

  9
$STYLESHEET
  1

  9
$XEDIT
290
     1
  9
$CEPSNTYPE
380
     0
  9
$PSTYLEMODE
290
     1
  9
$FINGERPRINTGUID
  2

  9
$VERSIONGUID
  2

  9
$EXTNAMES
290
     1
  9
$PSVPSCALE
 40
0.0
  9
$OLESTARTUP
290
     0
  9
$SORTENTS
280
   127
  9
$INDEXCTL
280
     0
  9
$HIDETEXT
280
     1
  9
$XCLIPFRAME
290
     0
  9
$HALOGAP
280
     0
  9
$OBSCOLOR
 70
   257
  9
$OBSLTYPE
280
     0
  9
$INTERSECTIONDISPLAY
280
     0
  9
$INTERSECTIONCOLOR
 70
   257
  9
$DIMASSOC
280
     2
  9
$PROJECTNAME
  1

  9
$CAMERADISPLAY
290
     0
  9
$LENSLENGTH
 40
50.0
  9
$CAMERAHEIGHT
 40
0.0
  9
$STEPSPERSEC
 40
2.0
  9
$STEPSIZE
 40
6.0
  9
$3DDWFPREC
 40
2.0
  9
$PSOLWIDTH
 40
0.25
  9
$PSOLHEIGHT
 40
4.0
  9
$LOFTANG1
 40
1.570796326794897
  9
$LOFTANG2
 40
1.570796326794897
  9
$LOFTMAG1
 40
0.0
  9
$LOFTMAG2
 40
0.0
  9
$LOFTPARAM
 70
     7
  9
$LOFTNORMALS
280
     1
  9
$LATITUDE
 40
37.795
  9
$LONGITUDE
 40
-122.394
  9
$NORTHDIRECTION
 40
0.0
  9
$TIMEZONE
 70
 -8000
  9
$LIGHTGLYPHDISPLAY
280
     1
  9
$TILEMODELIGHTSYNCH
280
     1
  9
$SOLIDHIST
280
     1
  9
$SHOWHIST
280
     1
  9
$DWFFRAME
280
     2
  9
$DGNFRAME
280
     2
  9
$REALWORLDSCALE
290
     1
  9
$INTERFERECOLOR
 62
   256
  9
$CSHADOW
280
     0
  9
$SHADOWPLANELOCATION
 40
0.0
  0
ENDSEC
  0
SECTION
  2
CLASSES
  0
CLASS
  1
LWPOLYLINE
  2
AcDbPolyline
  3
ObjectDBX Classes
 90
        0
 91
        1
280
     0
281
     1
  0
CLASS
  1
IMAGE
  2
AcDbRasterImage
  3
ISM
 90
      127
 91
        4
280
     0
281
     1
  0
CLASS
  1
OLE2FRAME
  2
AcDbOle2Frame
  3
ObjectDBX Classes
 90
        0
 91
        1
280
     0
281
     1
  0
CLASS
  1
HATCH
  2
AcDbHatch
  3
ObjectDBX Classes
 90
        0
 91
        1
280
     0
281
     1
  0
CLASS
  1
DICTIONARYVAR
  2
AcDbDictionaryVar
  3
ObjectDBX Classes
 90
        0
 91
        3
280
     0
281
     0
  0
CLASS
  1
RASTERVARIABLES
  2
AcDbRasterVariables
  3
ISM
 90
        0
 91
        3
280
     0
281
     0
  0
CLASS
  1
IMAGEDEF
  2
AcDbRasterImageDef
  3
ISM
 90
        0
 91
        3
280
     0
281
     0
  0
CLASS
  1
IMAGEDEF_REACTOR
  2
AcDbRasterImageDefReactor
  3
ISM
 90
        1
 91
        3
280
     0
281
     0
  0
CLASS
  1
IDBUFFER
  2
AcDbIdBuffer
  3
ObjectDBX Classes
 90
        0
 91
        3
280
     0
281
     0
  0
CLASS
  1
SPATIAL_FILTER
  2
AcDbSpatialFilter
  3
ObjectDBX Classes
 90
        0
 91
        3
280
     0
281
     0
  0
CLASS
  1
XRECORD
  2
AcDbXrecord
  3
ObjectDBX Classes
 90
        0
 91
        1
280
     0
281
     0
  0
CLASS
  1
SORTENTSTABLE
  2
AcDbSortentsTable
  3
ObjectDBX Classes
 90
        0
 91
        3
280
     0
281
     0
  0
CLASS
  1
LAYER_INDEX
  2
AcDbLayerIndex
  3
ObjectDBX Classes
 90
        0
 91
        3
280
     0
281
     0
  0
CLASS
  1
SPATIAL_INDEX
  2
AcDbSpatialIndex
  3
AutoCAD 2000
 90
        0
 91
        3
280
     0
281
     0
  0
CLASS
  1
OBJECT_PTR
  2
CAseDLPNTableRecord
  3
ASE-LPNTableRecord
 90
        1
 91
        3
280
     0
281
     0
  0
CLASS
  1
LAYOUT
  2
AcDbLayout
  3
ObjectDBX Classes
 90
        0
 91
        1
280
     0
281
     0
  0
CLASS
  1
PLOTSETTINGS
  2
AcDbPlotSettings
  3
ObjectDBX Classes
 90
        0
 91
        3
280
     0
281
     0
  0
CLASS
  1
ACDBDICTIONARYWDFLT
  2
AcDbDictionaryWithDefault
  3
ObjectDBX Classes
 90
        0
 91
        3
280
     0
281
     0
  0
CLASS
  1
ACDBPLACEHOLDER
  2
AcDbPlaceHolder
  3
ObjectDBX Classes
 90
        0
 91
        1
280
     0
281
     0
  0
CLASS
  1
SCALE
  2
AcDbScale
  3
ObjectDBX Classes
 90
     1153
 91
        3
280
     0
281
     0
  0
CLASS
  1
MATERIAL
  2
AcDbMaterial
  3
ObjectDBX Classes
 90
     1153
 91
        3
280
     0
281
     0
  0
CLASS
  1
VISUALSTYLE
  2
AcDbVisualStyle
  3
ObjectDBX Classes
 90
     4095
 91
        3
280
     0
281
     0
  0
CLASS
  1
TABLESTYLE
  2
AcDbTableStyle
  3
ObjectDBX Classes
 90
     4095
 91
        3
280
     0
281
     0
  0
CLASS
  1
DIMASSOC
  2
AcDbDimAssoc
  3
"AcDbDimAssoc|Product Desc:     AcDim ARX App For Dimension|Company:          Autodesk, Inc.|WEB Address:      www.autodesk.com"
 90
        0
 91
        3
280
     0
281
     0
  0
CLASS
  1
CELLSTYLEMAP
  2
AcDbCellStyleMap
  3
ObjectDBX Classes
 90
     1152
 91
        3
280
     0
281
     0
  0
CLASS
  1
SUN
  2
AcDbSun
  3
SCENEOE
 90
     1153
 91
        3
280
     0
281
     0
  0
CLASS
  1
MLEADERSTYLE
  2
AcDbMLeaderStyle
  3
ACDB_MLEADERSTYLE_CLASS
 90
     4095
 91
        3
280
     0
281
     0
  0
CLASS
  1
FIELD
  2
AcDbField
  3
ObjectDBX Classes
 90
     1152
 91
        3
280
     0
281
     0
  0
CLASS
  1
FIELDLIST
  2
AcDbFieldList
  3
ObjectDBX Classes
 90
     1152
 91
        3
280
     0
281
     0
  0
ENDSEC
  0
SECTION
  2
TABLES
  0
TABLE
  2
VPORT
  5
7
330
0
100
AcDbSymbolTable
 70
     1
  0
VPORT
  5
15
330
7
100
AcDbSymbolTableRecord
100
AcDbViewportTableRecord
  2
*ACTIVE
 70
     0
 10
0.0
 20
0.0
 11
1.0
 21
1.0
 12
296.9999999999999
 22
210.0
 13
0.0
 23
0.0
 14
1.0
 24
1.0
 15
0.0
 25
0.0
 16
0.0
 26
0.0
 36
1.0
 17
0.0
 27
0.0
 37
0.0
 40
428.4
 41
2.338709677419355
 42
50.0
 43
0.0
 44
0.0
 50
0.0
 51
0.0
 71
    16
 72
  2000
 73
     1
 74
     1
 75
     0
 76
     0
 77
     0
 78
     0
281
     0
 65
     0
110
0.0
120
0.0
130
0.0
111
1.0
121
0.0
131
0.0
112
0.0
122
1.0
132
0.0
 79
     0
146
0.0
348
26C
 60
     3
 61
     5
292
     1
282
     1
141
0.0
142
0.0
 63
   256
361
10E8
  0
ENDTAB
  0
TABLE
  2
LTYPE
  5
4
330
0
100
AcDbSymbolTable
 70
     5
  0
LTYPE
  5
11
330
4
100
AcDbSymbolTableRecord
100
AcDbLinetypeTableRecord
  2
ByBlock
 70
     0
  3

 72
    65
 73
     0
 40
0.0
  0
LTYPE
  5
12
330
4
100
AcDbSymbolTableRecord
100
AcDbLinetypeTableRecord
  2
ByLayer
 70
     0
  3
Solid line
 72
    65
 73
     0
 40
0.0
  0
LTYPE
  5
13
330
4
100
AcDbSymbolTableRecord
100
AcDbLinetypeTableRecord
  2
Continuous
 70
     0
  3
Solid line
 72
    65
 73
     0
 40
0.0
  0
LTYPE
  5
12C7
330
4
100
AcDbSymbolTableRecord
100
AcDbLinetypeTableRecord
  2
HIDDEN
 70
     0
  3
Hidden _ _ _ _ _ _ _ _ _ _ _ _ _ _ _ _ _ _ _ _ 
 72
    65
 73
     2
 40
9.524999999999999
 49
6.35
 74
     0
 49
-3.175
 74
     0
  0
LTYPE
  5
4E2F
330
4
100
AcDbSymbolTableRecord
100
AcDbLinetypeTableRecord
  2
HIDDEN2
 70
     0
  3
Hidden (.5x) _ _ _ _ _ _ _ _ _ _ _ _ _ _ _ _ _ 
 72
    65
 73
     2
 40
4.7625
 49
3.175
 74
     0
 49
-1.5875
 74
     0
  0
LTYPE
  5
4E30
330
4
100
AcDbSymbolTableRecord
100
AcDbLinetypeTableRecord
  2
DASHDOT
 70
     0
  3
Dash dot __ . __ . __ . __ . __ . __ . __ . __
 72
    65
 73
     4
 40
25.4
 49
12.7
 74
     0
 49
-6.35
 74
     0
 49
0.0
 74
     0
 49
-6.35
 74
     0
  0
LTYPE
  5
51FC
330
4
100
AcDbSymbolTableRecord
100
AcDbLinetypeTableRecord
  2
CENTER
 70
     0
  3
----------  --  ----------  --  
 72
    65
 73
     4
 40
20.0
 49
12.5
 74
     0
 49
-2.5
 74
     0
 49
2.5
 74
     0
 49
-2.5
 74
     0
  0
ENDTAB
  0
TABLE
  2
LAYER
  5
2
102
{ACAD_XDICTIONARY
360
2E1
102
}
330
0
100
AcDbSymbolTable
 70
    10
  0
LAYER
  5
14
330
2
100
AcDbSymbolTableRecord
100
AcDbLayerTableRecord
  2
0
 70
     0
 62
     7
  6
Continuous
370
    -3
390
1D
347
266
  0
LAYER
  5
4A
330
2
100
AcDbSymbolTableRecord
100
AcDbLayerTableRecord
  2
Defpoints
 70
     0
 62
     7
  6
Continuous
290
     0
370
    -3
390
1D
347
266
  0
LAYER
  5
12CE
330
2
100
AcDbSymbolTableRecord
100
AcDbLayerTableRecord
  2
寸法
 70
     0
 62
     7
  6
Continuous
370
    13
390
1D
347
266
1001
AcAecLayerStandard
1000

1000

  0
LAYER
  5
12CF
330
2
100
AcDbSymbolTableRecord
100
AcDbLayerTableRecord
  2
モデル
 70
     0
 62
     7
  6
Continuous
370
    20
390
1D
347
266
1001
AcAecLayerStandard
1000

1000

  0
LAYER
  5
142A
330
2
100
AcDbSymbolTableRecord
100
AcDbLayerTableRecord
  2
テンプレート
 70
     0
 62
     7
  6
Continuous
370
    20
390
1D
347
266
1001
AcAecLayerStandard
1000

1000

  0
LAYER
  5
1D5C
330
2
100
AcDbSymbolTableRecord
100
AcDbLayerTableRecord
  2
TFORMLOGO
 70
     0
 62
     7
  6
Continuous
370
    20
390
1D
347
266
  0
LAYER
  5
3848
330
2
100
AcDbSymbolTableRecord
100
AcDbLayerTableRecord
  2
PRINT BORDER
 70
     0
 62
     4
  6
Continuous
290
     0
370
    -3
390
1D
347
266
1001
AcAecLayerStandard
1000

1000

  0
LAYER
  5
4BF9
330
2
100
AcDbSymbolTableRecord
100
AcDbLayerTableRecord
  2
CutoutOverlay
 70
     0
 62
     7
  6
Continuous
370
    20
390
1D
347
266
1001
AcAecLayerStandard
1000

1000

  0
LAYER
  5
4BFA
330
2
100
AcDbSymbolTableRecord
100
AcDbLayerTableRecord
  2
CutoutUnderlay
 70
     0
 62
   254
  6
Continuous
370
    20
390
1D
347
266
1001
AcAecLayerStandard
1000

1000

  0
LAYER
  5
4E2D
330
2
100
AcDbSymbolTableRecord
100
AcDbLayerTableRecord
  2
102
 70
     0
 62
     1
  6
Continuous
370
    -3
390
1D
347
266
  0
ENDTAB
  0
TABLE
  2
STYLE
  5
3
330
0
100
AcDbSymbolTable
 70
     2
  0
STYLE
  5
17
330
3
100
AcDbSymbolTableRecord
100
AcDbTextStyleTableRecord
  2
Standard
 70
     0
 40
0.0
 41
1.0
 50
0.0
 71
     0
 42
2.5
  3
txt
  4
BIGFONT.SHX
  0
STYLE
  5
39
330
3
100
AcDbSymbolTableRecord
100
AcDbTextStyleTableRecord
  2
ＭＳ ゴシック
 70
     0
 40
0.0
 41
1.0
 50
0.0
 71
     0
 42
136.139079520063
  3
msgothic.ttc
  4
ＭＳ ゴシック
1001
ACAD
1000
ＭＳ ゴシック
1071
        0
  0
ENDTAB
  0
TABLE
  2
VIEW
  5
5
330
0
100
AcDbSymbolTable
 70
     0
  0
ENDTAB
  0
TABLE
  2
UCS
  5
6
330
0
100
AcDbSymbolTable
 70
     0
  0
ENDTAB
  0
TABLE
  2
APPID
  5
8
330
0
100
AcDbSymbolTable
 70
     4
  0
APPID
  5
16
330
8
100
AcDbSymbolTableRecord
100
AcDbRegAppTableRecord
  2
ACAD
 70
     0
  0
APPID
  5
7AC
330
8
100
AcDbSymbolTableRecord
100
AcDbRegAppTableRecord
  2
AcAecLayerStandard
 70
     0
  0
APPID
  5
4E28
330
8
100
AcDbSymbolTableRecord
100
AcDbRegAppTableRecord
  2
ACAD_MLEADERVER
 70
     0
  0
APPID
  5
57F9
330
8
100
AcDbSymbolTableRecord
100
AcDbRegAppTableRecord
  2
PLOTTRANSPARENCY
 70
     0
  0
ENDTAB
  0
TABLE
  2
DIMSTYLE
  5
9
330
0
100
AcDbSymbolTable
 70
     3
100
AcDbDimStyleTable
  0
DIMSTYLE
105
18
330
9
100
AcDbSymbolTableRecord
100
AcDbDimStyleTableRecord
  2
Standard
 70
     0
178
     0
340
17
  0
DIMSTYLE
105
57
102
{ACAD_REACTORS
330
4FBB
330
5185
330
51D6
330
56FF
330
570E
102
}
330
9
100
AcDbSymbolTableRecord
100
AcDbDimStyleTableRecord
  2
tfrom線あり
 70
     0
  3
<>
  4
[]
 41
2.0
 42
5.0
 43
0.9999999999999999
 44
0.0
 73
     0
 74
     0
 77
     1
 78
    11
140
5.0
141
0.0
143
1.0
147
5.0
171
     1
174
     1
178
     0
179
     2
271
     0
272
     1
276
     2
284
    11
285
    11
286
    11
289
     0
340
39
341
4E
342
4E
  0
DIMSTYLE
105
4E31
330
9
100
AcDbSymbolTableRecord
100
AcDbDimStyleTableRecord
  2
ISO-25
 70
     0
 41
2.5
 42
0.625
 43
3.75
 44
1.25
 73
     0
 74
     0
 77
     1
 78
     8
140
2.5
141
2.5
143
0.03937
147
0.625
171
     3
172
     1
178
     0
271
     2
272
     2
274
     3
283
     0
284
     8
340
17
  0
ENDTAB
  0
TABLE
  2
BLOCK_RECORD
  5
1
330
0
100
AcDbSymbolTable
 70
    47
  0
BLOCK_RECORD
  5
A
102
{ACAD_XDICTIONARY
360
4CE1
102
}
330
1
100
AcDbSymbolTableRecord
100
AcDbBlockTableRecord
  2
*MODEL_SPACE
340
20
 70
     0
280
     1
281
     0
  0
BLOCK_RECORD
  5
B
330
1
100
AcDbSymbolTableRecord
100
AcDbBlockTableRecord
  2
*PAPER_SPACE
340
21
 70
     0
280
     1
281
     0
  0
BLOCK_RECORD
  5
4E
330
1
100
AcDbSymbolTableRecord
100
AcDbBlockTableRecord
  2
_DOT
340
0
102
{BLKREFS
331
49DD
331
49DE
331
49EC
331
49ED
331
4A3B
331
4A3C
331
4A67
331
4A68
331
4A79
331
4A7A
331
4A89
331
4A8A
331
4C78
331
4C79
331
4C84
331
4C85
331
4C91
331
4C92
331
4EE8
331
4EE9
331
4FC4
331
4FC5
331
5000
331
5001
331
5011
331
5012
331
5020
331
5021
331
5032
331
5033
331
5052
331
5053
331
5076
331
5077
331
5082
331
5083
331
5090
331
5091
331
50F7
331
50F8
331
517B
331
517C
331
518C
331
518D
331
51CC
331
51CD
331
51E1
331
51E2
331
5239
331
523A
331
5250
331
5251
331
5277
331
5278
331
5284
331
5285
331
530E
331
530F
331
531B
331
531C
331
532A
331
532B
331
549E
331
549F
331
54AA
331
54AB
331
54B6
331
54B7
331
54C2
331
54C3
331
54CE
331
54CF
331
54DA
331
54DB
331
54E6
331
54E7
331
5708
331
5709
331
5717
331
5718
102
}
 70
     0
280
     1
281
     0
  0
BLOCK_RECORD
  5
12C3
330
1
100
AcDbSymbolTableRecord
100
AcDbBlockTableRecord
  2
*Paper_Space1
340
12C4
 70
     0
280
     1
281
     0
  0
BLOCK_RECORD
  5
1D88
330
1
100
AcDbSymbolTableRecord
100
AcDbBlockTableRecord
  2
名称未設定-1
340
0
102
{BLKREFS
331
36E3
102
}
 70
     1
280
     1
281
     0
  0
BLOCK_RECORD
  5
1D8B
330
1
100
AcDbSymbolTableRecord
100
AcDbBlockTableRecord
  2
block 2
340
0
102
{BLKREFS
331
1D8A
102
}
 70
     0
280
     1
281
     0
  0
BLOCK_RECORD
  5
1D8E
330
1
100
AcDbSymbolTableRecord
100
AcDbBlockTableRecord
  2
block 3
340
0
102
{BLKREFS
331
1D8D
102
}
 70
     0
280
     1
281
     0
  0
BLOCK_RECORD
  5
1D91
330
1
100
AcDbSymbolTableRecord
100
AcDbBlockTableRecord
  2
block 4
340
0
102
{BLKREFS
331
1D90
102
}
 70
     0
280
     1
281
     0
  0
BLOCK_RECORD
  5
1DA0
330
1
100
AcDbSymbolTableRecord
100
AcDbBlockTableRecord
  2
block 5
340
0
102
{BLKREFS
331
1D9F
102
}
 70
     0
280
     1
281
     0
  0
BLOCK_RECORD
  5
49D7
330
1
100
AcDbSymbolTableRecord
100
AcDbBlockTableRecord
  2
*D7
340
0
 70
     0
280
     1
281
     0
  0
BLOCK_RECORD
  5
49E6
330
1
100
AcDbSymbolTableRecord
100
AcDbBlockTableRecord
  2
*D8
340
0
 70
     0
280
     1
281
     0
  0
BLOCK_RECORD
  5
4A35
330
1
100
AcDbSymbolTableRecord
100
AcDbBlockTableRecord
  2
*D9
340
0
 70
     0
280
     1
281
     0
  0
BLOCK_RECORD
  5
4A61
330
1
100
AcDbSymbolTableRecord
100
AcDbBlockTableRecord
  2
*D10
340
0
 70
     0
280
     1
281
     0
  0
BLOCK_RECORD
  5
4A73
330
1
100
AcDbSymbolTableRecord
100
AcDbBlockTableRecord
  2
*D11
340
0
 70
     0
280
     1
281
     0
  0
BLOCK_RECORD
  5
4A83
330
1
100
AcDbSymbolTableRecord
100
AcDbBlockTableRecord
  2
*D12
340
0
 70
     0
280
     1
281
     0
  0
BLOCK_RECORD
  5
4C72
330
1
100
AcDbSymbolTableRecord
100
AcDbBlockTableRecord
  2
*D13
340
0
 70
     0
280
     1
281
     0
  0
BLOCK_RECORD
  5
4C7E
330
1
100
AcDbSymbolTableRecord
100
AcDbBlockTableRecord
  2
*D14
340
0
 70
     0
280
     1
281
     0
  0
BLOCK_RECORD
  5
4C8A
330
1
100
AcDbSymbolTableRecord
100
AcDbBlockTableRecord
  2
*D15
340
0
 70
     0
280
     1
281
     0
  0
BLOCK_RECORD
  5
4EE2
330
1
100
AcDbSymbolTableRecord
100
AcDbBlockTableRecord
  2
*D16
340
0
 70
     0
280
     1
281
     0
  0
BLOCK_RECORD
  5
4FBE
330
1
100
AcDbSymbolTableRecord
100
AcDbBlockTableRecord
  2
*D17
340
0
 70
     0
280
     1
281
     0
  0
BLOCK_RECORD
  5
4FFB
330
1
100
AcDbSymbolTableRecord
100
AcDbBlockTableRecord
  2
*D18
340
0
 70
     0
280
     1
281
     0
  0
BLOCK_RECORD
  5
500B
330
1
100
AcDbSymbolTableRecord
100
AcDbBlockTableRecord
  2
*D19
340
0
 70
     0
280
     1
281
     0
  0
BLOCK_RECORD
  5
501A
330
1
100
AcDbSymbolTableRecord
100
AcDbBlockTableRecord
  2
*D20
340
0
 70
     0
280
     1
281
     0
  0
BLOCK_RECORD
  5
502C
330
1
100
AcDbSymbolTableRecord
100
AcDbBlockTableRecord
  2
*D21
340
0
 70
     0
280
     1
281
     0
  0
BLOCK_RECORD
  5
504C
330
1
100
AcDbSymbolTableRecord
100
AcDbBlockTableRecord
  2
*D22
340
0
 70
     0
280
     1
281
     0
  0
BLOCK_RECORD
  5
5070
330
1
100
AcDbSymbolTableRecord
100
AcDbBlockTableRecord
  2
*D23
340
0
 70
     0
280
     1
281
     0
  0
BLOCK_RECORD
  5
507C
330
1
100
AcDbSymbolTableRecord
100
AcDbBlockTableRecord
  2
*D24
340
0
 70
     0
280
     1
281
     0
  0
BLOCK_RECORD
  5
5088
330
1
100
AcDbSymbolTableRecord
100
AcDbBlockTableRecord
  2
*D25
340
0
 70
     0
280
     1
281
     0
  0
BLOCK_RECORD
  5
50F1
330
1
100
AcDbSymbolTableRecord
100
AcDbBlockTableRecord
  2
*D26
340
0
 70
     0
280
     1
281
     0
  0
BLOCK_RECORD
  5
5176
330
1
100
AcDbSymbolTableRecord
100
AcDbBlockTableRecord
  2
*D27
340
0
 70
     0
280
     1
281
     0
  0
BLOCK_RECORD
  5
5186
330
1
100
AcDbSymbolTableRecord
100
AcDbBlockTableRecord
  2
*D28
340
0
 70
     0
280
     1
281
     0
  0
BLOCK_RECORD
  5
51C7
330
1
100
AcDbSymbolTableRecord
100
AcDbBlockTableRecord
  2
*D29
340
0
 70
     0
280
     1
281
     0
  0
BLOCK_RECORD
  5
51DB
330
1
100
AcDbSymbolTableRecord
100
AcDbBlockTableRecord
  2
*D30
340
0
 70
     0
280
     1
281
     0
  0
BLOCK_RECORD
  5
5234
330
1
100
AcDbSymbolTableRecord
100
AcDbBlockTableRecord
  2
*D31
340
0
 70
     0
280
     1
281
     0
  0
BLOCK_RECORD
  5
524B
330
1
100
AcDbSymbolTableRecord
100
AcDbBlockTableRecord
  2
*D32
340
0
 70
     0
280
     1
281
     0
  0
BLOCK_RECORD
  5
5272
330
1
100
AcDbSymbolTableRecord
100
AcDbBlockTableRecord
  2
*D33
340
0
 70
     0
280
     1
281
     0
  0
BLOCK_RECORD
  5
527F
330
1
100
AcDbSymbolTableRecord
100
AcDbBlockTableRecord
  2
*D34
340
0
 70
     0
280
     1
281
     0
  0
BLOCK_RECORD
  5
5309
330
1
100
AcDbSymbolTableRecord
100
AcDbBlockTableRecord
  2
*D35
340
0
 70
     0
280
     1
281
     0
  0
BLOCK_RECORD
  5
5316
330
1
100
AcDbSymbolTableRecord
100
AcDbBlockTableRecord
  2
*D36
340
0
 70
     0
280
     1
281
     0
  0
BLOCK_RECORD
  5
5325
330
1
100
AcDbSymbolTableRecord
100
AcDbBlockTableRecord
  2
*D37
340
0
 70
     0
280
     1
281
     0
  0
BLOCK_RECORD
  5
5498
330
1
100
AcDbSymbolTableRecord
100
AcDbBlockTableRecord
  2
*D38
340
0
 70
     0
280
     1
281
     0
  0
BLOCK_RECORD
  5
54A4
330
1
100
AcDbSymbolTableRecord
100
AcDbBlockTableRecord
  2
*D39
340
0
 70
     0
280
     1
281
     0
  0
BLOCK_RECORD
  5
54B0
330
1
100
AcDbSymbolTableRecord
100
AcDbBlockTableRecord
  2
*D40
340
0
 70
     0
280
     1
281
     0
  0
BLOCK_RECORD
  5
54BC
330
1
100
AcDbSymbolTableRecord
100
AcDbBlockTableRecord
  2
*D41
340
0
 70
     0
280
     1
281
     0
  0
BLOCK_RECORD
  5
54C8
330
1
100
AcDbSymbolTableRecord
100
AcDbBlockTableRecord
  2
*D42
340
0
 70
     0
280
     1
281
     0
  0
BLOCK_RECORD
  5
54D4
330
1
100
AcDbSymbolTableRecord
100
AcDbBlockTableRecord
  2
*D43
340
0
 70
     0
280
     1
281
     0
  0
BLOCK_RECORD
  5
54E0
330
1
100
AcDbSymbolTableRecord
100
AcDbBlockTableRecord
  2
*D44
340
0
 70
     0
280
     1
281
     0
  0
BLOCK_RECORD
  5
5702
330
1
100
AcDbSymbolTableRecord
100
AcDbBlockTableRecord
  2
*D45
340
0
 70
     0
280
     1
281
     0
  0
BLOCK_RECORD
  5
5711
330
1
100
AcDbSymbolTableRecord
100
AcDbBlockTableRecord
  2
*D46
340
0
 70
     0
280
     1
281
     0
  0
ENDTAB
  0
ENDSEC
  0
SECTION
  2
BLOCKS
  0
BLOCK
  5
D
330
A
100
AcDbEntity
  8
0
390
1D
100
AcDbBlockBegin
  2
*MODEL_SPACE
 70
     0
 10
0.0
 20
0.0
 30
0.0
  3
*MODEL_SPACE
  1
*MODEL_SPACE
  0
ENDBLK
  5
E
330
A
100
AcDbEntity
  8
0
390
1D
100
AcDbBlockEnd
  0
BLOCK
  5
F
330
B
100
AcDbEntity
 67
     1
  8
0
390
1D
100
AcDbBlockBegin
  2
*PAPER_SPACE
 70
     0
 10
0.0
 20
0.0
 30
0.0
  3
*PAPER_SPACE
  1
*PAPER_SPACE
  0
ENDBLK
  5
10
330
B
100
AcDbEntity
 67
     1
  8
0
390
1D
100
AcDbBlockEnd
  0
BLOCK
  5
1066
330
4E
100
AcDbEntity
  8
0
390
1D
100
AcDbBlockBegin
  2
_DOT
 70
     0
 10
0.0
 20
0.0
 30
0.0
  3
_DOT
  1
_DOT
  0
POLYLINE
  5
1068
330
4E
100
AcDbEntity
  8
0
  6
ByBlock
 62
     0
370
    -2
390
1D
100
AcDb2dPolyline
 66
     1
 10
0.0
 20
0.0
 30
0.0
 70
     1
 40
0.5
 41
0.5
  0
VERTEX
  5
1069
330
1068
100
AcDbEntity
  8
0
  6
ByBlock
 62
     0
370
    -2
390
1D
100
AcDbVertex
100
AcDb2dVertex
 10
-0.25
 20
0.0
 30
0.0
 42
1.0
  0
VERTEX
  5
106A
330
1068
100
AcDbEntity
  8
0
  6
ByBlock
 62
     0
370
    -2
390
1D
100
AcDbVertex
100
AcDb2dVertex
 10
0.25
 20
0.0
 30
0.0
 42
1.0
  0
SEQEND
  5
106B
330
1068
100
AcDbEntity
  8
0
390
1D
  0
LINE
  5
106C
330
4E
100
AcDbEntity
  8
0
  6
ByBlock
 62
     0
370
    -2
390
1D
100
AcDbLine
 10
-0.5
 20
0.0
 30
0.0
 11
-1.0
 21
0.0
 31
0.0
  0
ENDBLK
  5
106D
330
4E
100
AcDbEntity
  8
0
390
1D
100
AcDbBlockEnd
  0
BLOCK
  5
12C5
330
12C3
100
AcDbEntity
  8
0
100
AcDbBlockBegin
  2
*Paper_Space1
 70
     0
 10
0.0
 20
0.0
 30
0.0
  3
*Paper_Space1
  1
*Paper_Space83
  0
ENDBLK
  5
12C6
330
12C3
100
AcDbEntity
  8
0
100
AcDbBlockEnd
  0
BLOCK
  5
1D89
330
1D88
100
AcDbEntity
  8
0
100
AcDbBlockBegin
  2
名称未設定-1
 70
     0
 10
0.0
 20
0.0
 30
0.0
  3
名称未設定-1
  1
名称未設定-1
  0
INSERT
  5
1D8A
330
1D88
100
AcDbEntity
  8
TFORMLOGO
100
AcDbBlockReference
  2
block 2
 10
0.0
 20
0.0
 30
0.0
  0
ENDBLK
  5
1DAF
330
1D88
100
AcDbEntity
  8
0
100
AcDbBlockEnd
  0
BLOCK
  5
1D8C
330
1D8B
100
AcDbEntity
  8
0
100
AcDbBlockBegin
  2
block 2
 70
     0
 10
0.0
 20
0.0
 30
0.0
  3
block 2
  1
block 2
  0
INSERT
  5
1D8D
330
1D8B
100
AcDbEntity
  8
TFORMLOGO
100
AcDbBlockReference
  2
block 3
 10
0.0
 20
0.0
 30
0.0
  0
ENDBLK
  5
1DAE
330
1D8B
100
AcDbEntity
  8
0
100
AcDbBlockEnd
  0
BLOCK
  5
1D8F
330
1D8E
100
AcDbEntity
  8
0
100
AcDbBlockBegin
  2
block 3
 70
     0
 10
0.0
 20
0.0
 30
0.0
  3
block 3
  1
block 3
  0
INSERT
  5
1D90
330
1D8E
100
AcDbEntity
  8
TFORMLOGO
100
AcDbBlockReference
  2
block 4
 10
0.0
 20
0.0
 30
0.0
  0
ENDBLK
  5
1DAD
330
1D8E
100
AcDbEntity
  8
0
100
AcDbBlockEnd
  0
BLOCK
  5
1D92
330
1D91
100
AcDbEntity
  8
0
100
AcDbBlockBegin
  2
block 4
 70
     0
 10
0.0
 20
0.0
 30
0.0
  3
block 4
  1
block 4
  0
POLYLINE
  5
1D93
330
1D91
100
AcDbEntity
  8
TFORMLOGO
370
     0
100
AcDb2dPolyline
 66
     1
 10
0.0
 20
0.0
 30
0.0
  0
VERTEX
  5
1D94
330
1D93
100
AcDbEntity
  8
TFORMLOGO
370
     0
100
AcDbVertex
100
AcDb2dVertex
 10
83.79545727667795
 20
167.6444858234922
 30
0.0
  0
VERTEX
  5
1D95
330
1D93
100
AcDbEntity
  8
TFORMLOGO
370
     0
100
AcDbVertex
100
AcDb2dVertex
 10
83.79545727667795
 20
159.7968976406313
 30
0.0
  0
VERTEX
  5
1D96
330
1D93
100
AcDbEntity
  8
TFORMLOGO
370
     0
100
AcDbVertex
100
AcDb2dVertex
 10
71.3631329975216
 20
159.7968976406313
 30
0.0
  0
VERTEX
  5
1D97
330
1D93
100
AcDbEntity
  8
TFORMLOGO
370
     0
100
AcDbVertex
100
AcDb2dVertex
 10
71.3631329975216
 20
127.8027915271048
 30
0.0
  0
VERTEX
  5
1D98
330
1D93
100
AcDbEntity
  8
TFORMLOGO
370
     0
100
AcDbVertex
100
AcDb2dVertex
 10
60.43011526263018
 20
127.8027915271048
 30
0.0
  0
VERTEX
  5
1D99
330
1D93
100
AcDbEntity
  8
TFORMLOGO
370
     0
100
AcDbVertex
100
AcDb2dVertex
 10
60.43011526263018
 20
159.7968976406313
 30
0.0
  0
VERTEX
  5
1D9A
330
1D93
100
AcDbEntity
  8
TFORMLOGO
370
     0
100
AcDbVertex
100
AcDb2dVertex
 10
48.21793273020759
 20
159.7968976406313
 30
0.0
  0
VERTEX
  5
1D9B
330
1D93
100
AcDbEntity
  8
TFORMLOGO
370
     0
100
AcDbVertex
100
AcDb2dVertex
 10
48.21793273020759
 20
167.6444858234922
 30
0.0
  0
VERTEX
  5
1D9C
330
1D93
100
AcDbEntity
  8
TFORMLOGO
370
     0
100
AcDbVertex
100
AcDb2dVertex
 10
83.79545727667795
 20
167.6444858234922
 30
0.0
  0
SEQEND
  5
1D9D
330
1D93
100
AcDbEntity
  8
TFORMLOGO
370
     0
  0
HATCH
  5
1D9E
330
1D91
100
AcDbEntity
  8
TFORMLOGO
 62
   250
420
  2234388
100
AcDbHatch
 10
0.0
 20
0.0
 30
0.0
210
0.0
220
0.0
230
1.0
  2
SOLID
 70
     1
 71
     0
 91
        1
 92
        1
 93
        8
 72
     1
 10
83.79545727667795
 20
167.6444858234922
 11
83.79545727667795
 21
159.7968976406313
 72
     1
 10
83.79545727667795
 20
159.7968976406313
 11
71.3631329975216
 21
159.7968976406313
 72
     1
 10
71.3631329975216
 20
159.7968976406313
 11
71.3631329975216
 21
127.8027915271048
 72
     1
 10
71.3631329975216
 20
127.8027915271048
 11
60.43011526263018
 21
127.8027915271048
 72
     1
 10
60.43011526263018
 20
127.8027915271048
 11
60.43011526263018
 21
159.7968976406313
 72
     1
 10
60.43011526263018
 20
159.7968976406313
 11
48.21793273020759
 21
159.7968976406313
 72
     1
 10
48.21793273020759
 20
159.7968976406313
 11
48.21793273020759
 21
167.6444858234922
 72
     1
 10
48.21793273020759
 20
167.6444858234922
 11
83.79545727667795
 21
167.6444858234922
 97
        0
 75
     2
 76
     1
 98
        0
  0
INSERT
  5
1D9F
330
1D91
100
AcDbEntity
  8
TFORMLOGO
100
AcDbBlockReference
  2
block 5
 10
0.0
 20
0.0
 30
0.0
  0
ENDBLK
  5
1DAC
330
1D91
100
AcDbEntity
  8
0
100
AcDbBlockEnd
  0
BLOCK
  5
1DA1
330
1DA0
100
AcDbEntity
  8
0
100
AcDbBlockBegin
  2
block 5
 70
     0
 10
0.0
 20
0.0
 30
0.0
  3
block 5
  1
block 5
  0
SPLINE
  5
1DA2
330
1DA0
100
AcDbEntity
  8
TFORMLOGO
370
     0
100
AcDbSpline
210
0.0
220
0.0
230
1.0
 70
    11
 71
     3
 72
    56
 73
    52
 74
     0
 42
0.000000001
 43
0.0000000001
 40
0.0
 40
0.0
 40
0.0
 40
0.0
 40
1.0
 40
1.0
 40
1.0
 40
2.0
 40
2.0
 40
2.0
 40
3.0
 40
3.0
 40
3.0
 40
4.0
 40
4.0
 40
4.0
 40
5.0
 40
5.0
 40
5.0
 40
6.0
 40
6.0
 40
6.0
 40
7.0
 40
7.0
 40
7.0
 40
8.0
 40
8.0
 40
8.0
 40
9.0
 40
9.0
 40
9.0
 40
10.0
 40
10.0
 40
10.0
 40
11.0
 40
11.0
 40
11.0
 40
12.0
 40
12.0
 40
12.0
 40
13.0
 40
13.0
 40
13.0
 40
14.0
 40
14.0
 40
14.0
 40
15.0
 40
15.0
 40
15.0
 40
16.0
 40
16.0
 40
16.0
 40
17.0
 40
17.0
 40
17.0
 40
17.0
 10
100.4504378777679
 20
166.69157178364
 30
0.0
 10
101.9848844191641
 20
167.1313385124438
 30
0.0
 10
103.9637485713373
 20
166.7649523658846
 30
0.0
 10
103.9637485713373
 20
166.7649523658846
 30
0.0
 10
103.9637485713373
 20
166.7649523658846
 30
0.0
 10
103.0132460999156
 20
163.911205638077
 30
0.0
 10
103.0132460999156
 20
163.911205638077
 30
0.0
 10
103.0132460999156
 20
163.911205638077
 30
0.0
 10
101.0674548862189
 20
164.3601018759394
 30
0.0
 10
99.57090442016032
 20
163.1805004036133
 30
0.0
 10
98.40508333886608
 20
162.258247733807
 30
0.0
 10
97.65301849830304
 20
159.804132345923
 30
0.0
 10
97.3598406791005
 20
158.8699940888517
 30
0.0
 10
97.3598406791005
 20
158.8699940888517
 30
0.0
 10
96.07137411762282
 20
154.9119212747295
 30
0.0
 10
96.07137411762282
 20
154.9119212747295
 30
0.0
 10
96.07137411762282
 20
154.9119212747295
 30
0.0
 10
100.3012651448482
 20
154.9119212747295
 30
0.0
 10
100.3012651448482
 20
154.9119212747295
 30
0.0
 10
100.3012651448482
 20
154.9119212747295
 30
0.0
 10
99.64152892419852
 20
152.4199098115079
 30
0.0
 10
99.64152892419852
 20
152.4199098115079
 30
0.0
 10
99.64152892419852
 20
152.4199098115079
 30
0.0
 10
95.38097652692731
 20
152.4199098115079
 30
0.0
 10
95.38097652692731
 20
152.4199098115079
 30
0.0
 10
95.38097652692731
 20
152.4199098115079
 30
0.0
 10
87.75353009080013
 20
127.8027915271048
 30
0.0
 10
87.75353009080013
 20
127.8027915271048
 30
0.0
 10
87.75353009080013
 20
127.8027915271048
 30
0.0
 10
85.36538832498108
 20
127.8027915271048
 30
0.0
 10
85.36538832498108
 20
127.8027915271048
 30
0.0
 10
85.36538832498108
 20
127.8027915271048
 30
0.0
 10
93.00006946639998
 20
152.4199098115079
 30
0.0
 10
93.00006946639998
 20
152.4199098115079
 30
0.0
 10
93.00006946639998
 20
152.4199098115079
 30
0.0
 10
89.85297266450198
 20
152.4199098115079
 30
0.0
 10
89.85297266450198
 20
152.4199098115079
 30
0.0
 10
89.85297266450198
 20
152.4199098115079
 30
0.0
 10
90.51270888515164
 20
154.9119212747295
 30
0.0
 10
90.51270888515164
 20
154.9119212747295
 30
0.0
 10
90.51270888515164
 20
154.9119212747295
 30
0.0
 10
93.6904670570955
 20
154.9119212747295
 30
0.0
 10
93.6904670570955
 20
154.9119212747295
 30
0.0
 10
93.6904670570955
 20
154.9119212747295
 30
0.0
 10
94.81598049462158
 20
158.3616699146644
 30
0.0
 10
94.81598049462158
 20
158.3616699146644
 30
0.0
 10
95.7237637538445
 20
161.2605474231013
 30
0.0
 10
96.4968436907311
 20
162.8139420021662
 30
0.0
 10
97.15657991138076
 20
163.9844139654337
 30
0.0
 10
97.81183750494507
 20
165.1523021053827
 30
0.0
 10
99.1047826935081
 20
166.3084769129547
 30
0.0
 10
100.4504378777679
 20
166.69157178364
 30
0.0
  0
HATCH
  5
1DA3
330
1DA0
100
AcDbEntity
  8
TFORMLOGO
 62
   250
420
  2234388
100
AcDbHatch
 10
0.0
 20
0.0
 30
0.0
210
0.0
220
0.0
230
1.0
  2
SOLID
 70
     1
 71
     0
 91
        1
 92
        1
 93
        1
 72
     4
 94
        3
 73
     0
 74
     1
 95
       56
 96
       52
 40
0.0
 40
0.0
 40
0.0
 40
0.0
 40
1.0
 40
1.0
 40
1.0
 40
2.0
 40
2.0
 40
2.0
 40
3.0
 40
3.0
 40
3.0
 40
4.0
 40
4.0
 40
4.0
 40
5.0
 40
5.0
 40
5.0
 40
6.0
 40
6.0
 40
6.0
 40
7.0
 40
7.0
 40
7.0
 40
8.0
 40
8.0
 40
8.0
 40
9.0
 40
9.0
 40
9.0
 40
10.0
 40
10.0
 40
10.0
 40
11.0
 40
11.0
 40
11.0
 40
12.0
 40
12.0
 40
12.0
 40
13.0
 40
13.0
 40
13.0
 40
14.0
 40
14.0
 40
14.0
 40
15.0
 40
15.0
 40
15.0
 40
16.0
 40
16.0
 40
16.0
 40
17.0
 40
17.0
 40
17.0
 40
17.0
 10
100.4504378777679
 20
166.69157178364
 10
101.9848844191641
 20
167.1313385124438
 10
103.9637485713373
 20
166.7649523658846
 10
103.9637485713373
 20
166.7649523658846
 10
103.9637485713373
 20
166.7649523658846
 10
103.0132460999156
 20
163.911205638077
 10
103.0132460999156
 20
163.911205638077
 10
103.0132460999156
 20
163.911205638077
 10
101.0674548862189
 20
164.3601018759394
 10
99.57090442016032
 20
163.1805004036133
 10
98.40508333886608
 20
162.258247733807
 10
97.65301849830304
 20
159.804132345923
 10
97.3598406791005
 20
158.8699940888517
 10
97.3598406791005
 20
158.8699940888517
 10
96.07137411762282
 20
154.9119212747295
 10
96.07137411762282
 20
154.9119212747295
 10
96.07137411762282
 20
154.9119212747295
 10
100.3012651448482
 20
154.9119212747295
 10
100.3012651448482
 20
154.9119212747295
 10
100.3012651448482
 20
154.9119212747295
 10
99.64152892419852
 20
152.4199098115079
 10
99.64152892419852
 20
152.4199098115079
 10
99.64152892419852
 20
152.4199098115079
 10
95.38097652692731
 20
152.4199098115079
 10
95.38097652692731
 20
152.4199098115079
 10
95.38097652692731
 20
152.4199098115079
 10
87.75353009080013
 20
127.8027915271048
 10
87.75353009080013
 20
127.8027915271048
 10
87.75353009080013
 20
127.8027915271048
 10
85.36538832498108
 20
127.8027915271048
 10
85.36538832498108
 20
127.8027915271048
 10
85.36538832498108
 20
127.8027915271048
 10
93.00006946639998
 20
152.4199098115079
 10
93.00006946639998
 20
152.4199098115079
 10
93.00006946639998
 20
152.4199098115079
 10
89.85297266450198
 20
152.4199098115079
 10
89.85297266450198
 20
152.4199098115079
 10
89.85297266450198
 20
152.4199098115079
 10
90.51270888515164
 20
154.9119212747295
 10
90.51270888515164
 20
154.9119212747295
 10
90.51270888515164
 20
154.9119212747295
 10
93.6904670570955
 20
154.9119212747295
 10
93.6904670570955
 20
154.9119212747295
 10
93.6904670570955
 20
154.9119212747295
 10
94.81598049462158
 20
158.3616699146644
 10
94.81598049462158
 20
158.3616699146644
 10
95.7237637538445
 20
161.2605474231013
 10
96.4968436907311
 20
162.8139420021662
 10
97.15657991138076
 20
163.9844139654337
 10
97.81183750494507
 20
165.1523021053827
 10
99.1047826935081
 20
166.3084769129547
 10
100.4504378777679
 20
166.69157178364
 97
        0
 75
     2
 76
     1
 98
        0
  0
SPLINE
  5
1DA4
330
1DA0
100
AcDbEntity
  8
TFORMLOGO
370
     0
100
AcDbSpline
210
0.0
220
0.0
230
1.0
 70
    11
 71
     3
 72
    38
 73
    34
 74
     0
 42
0.000000001
 43
0.0000000001
 40
0.0
 40
0.0
 40
0.0
 40
0.0
 40
1.0
 40
1.0
 40
1.0
 40
2.0
 40
2.0
 40
2.0
 40
3.0
 40
3.0
 40
3.0
 40
4.0
 40
4.0
 40
4.0
 40
5.0
 40
5.0
 40
5.0
 40
6.0
 40
6.0
 40
6.0
 40
7.0
 40
7.0
 40
7.0
 40
8.0
 40
8.0
 40
8.0
 40
9.0
 40
9.0
 40
9.0
 40
10.0
 40
10.0
 40
10.0
 40
11.0
 40
11.0
 40
11.0
 40
11.0
 10
126.377554584636
 20
154.8151140277308
 30
0.0
 10
126.377554584636
 20
154.8151140277308
 30
0.0
 10
128.8311532078563
 20
154.8151140277308
 30
0.0
 10
128.8311532078563
 20
154.8151140277308
 30
0.0
 10
128.8311532078563
 20
154.8151140277308
 30
0.0
 10
127.7345785914971
 20
151.3062819612468
 30
0.0
 10
127.7345785914971
 20
151.3062819612468
 30
0.0
 10
128.571392836906
 20
152.2922689395754
 30
0.0
 10
129.8860421413442
 20
153.604506675583
 30
0.0
 10
131.0163787157314
 20
154.2664822097754
 30
0.0
 10
132.7044766171327
 20
155.2500576196734
 30
0.0
 10
133.6642808525008
 20
155.3847609420097
 30
0.0
 10
134.7284715499351
 20
155.3565111403944
 30
0.0
 10
134.7284715499351
 20
155.3565111403944
 30
0.0
 10
133.6877075172549
 20
152.0345756272799
 30
0.0
 10
133.6877075172549
 20
152.0345756272799
 30
0.0
 10
133.011434827367
 20
152.3184516825359
 30
0.0
 10
130.930940291334
 20
151.7768823149844
 30
0.0
 10
129.739280976855
 20
150.9162968950455
 30
0.0
 10
128.66613302525
 20
150.1454562717016
 30
0.0
 10
127.9192358313239
 20
149.4857200510519
 30
0.0
 10
127.0393578639405
 20
147.8282835196966
 30
0.0
 10
126.164647543194
 20
146.1699857139017
 30
0.0
 10
125.4742499524985
 20
143.5262176944419
 30
0.0
 10
124.2822461282437
 20
139.6959580071401
 30
0.0
 10
124.2822461282437
 20
139.6959580071401
 30
0.0
 10
120.5753209406769
 20
127.8027915271048
 30
0.0
 10
120.5753209406769
 20
127.8027915271048
 30
0.0
 10
120.5753209406769
 20
127.8027915271048
 30
0.0
 10
118.1964809388044
 20
127.8027915271048
 30
0.0
 10
118.1964809388044
 20
127.8027915271048
 30
0.0
 10
118.1964809388044
 20
127.8027915271048
 30
0.0
 10
126.377554584636
 20
154.8151140277308
 30
0.0
 10
126.377554584636
 20
154.8151140277308
 30
0.0
  0
HATCH
  5
1DA5
330
1DA0
100
AcDbEntity
  8
TFORMLOGO
 62
   250
420
  2234388
100
AcDbHatch
 10
0.0
 20
0.0
 30
0.0
210
0.0
220
0.0
230
1.0
  2
SOLID
 70
     1
 71
     0
 91
        1
 92
        1
 93
        1
 72
     4
 94
        3
 73
     0
 74
     1
 95
       38
 96
       34
 40
0.0
 40
0.0
 40
0.0
 40
0.0
 40
1.0
 40
1.0
 40
1.0
 40
2.0
 40
2.0
 40
2.0
 40
3.0
 40
3.0
 40
3.0
 40
4.0
 40
4.0
 40
4.0
 40
5.0
 40
5.0
 40
5.0
 40
6.0
 40
6.0
 40
6.0
 40
7.0
 40
7.0
 40
7.0
 40
8.0
 40
8.0
 40
8.0
 40
9.0
 40
9.0
 40
9.0
 40
10.0
 40
10.0
 40
10.0
 40
11.0
 40
11.0
 40
11.0
 40
11.0
 10
126.377554584636
 20
154.8151140277308
 10
126.377554584636
 20
154.8151140277308
 10
128.8311532078563
 20
154.8151140277308
 10
128.8311532078563
 20
154.8151140277308
 10
128.8311532078563
 20
154.8151140277308
 10
127.7345785914971
 20
151.3062819612468
 10
127.7345785914971
 20
151.3062819612468
 10
128.571392836906
 20
152.2922689395754
 10
129.8860421413442
 20
153.604506675583
 10
131.0163787157314
 20
154.2664822097754
 10
132.7044766171327
 20
155.2500576196734
 10
133.6642808525008
 20
155.3847609420097
 10
134.7284715499351
 20
155.3565111403944
 10
134.7284715499351
 20
155.3565111403944
 10
133.6877075172549
 20
152.0345756272799
 10
133.6877075172549
 20
152.0345756272799
 10
133.011434827367
 20
152.3184516825359
 10
130.930940291334
 20
151.7768823149844
 10
129.739280976855
 20
150.9162968950455
 10
128.66613302525
 20
150.1454562717016
 10
127.9192358313239
 20
149.4857200510519
 10
127.0393578639405
 20
147.8282835196966
 10
126.164647543194
 20
146.1699857139017
 10
125.4742499524985
 20
143.5262176944419
 10
124.2822461282437
 20
139.6959580071401
 10
124.2822461282437
 20
139.6959580071401
 10
120.5753209406769
 20
127.8027915271048
 10
120.5753209406769
 20
127.8027915271048
 10
120.5753209406769
 20
127.8027915271048
 10
118.1964809388044
 20
127.8027915271048
 10
118.1964809388044
 20
127.8027915271048
 10
118.1964809388044
 20
127.8027915271048
 10
126.377554584636
 20
154.8151140277308
 10
126.377554584636
 20
154.8151140277308
 97
        0
 75
     2
 76
     1
 98
        0
  0
SPLINE
  5
1DA6
330
1DA0
100
AcDbEntity
  8
TFORMLOGO
370
     0
100
AcDbSpline
210
0.0
220
0.0
230
1.0
 70
    11
 71
     3
 72
   104
 73
   100
 74
     0
 42
0.000000001
 43
0.0000000001
 40
0.0
 40
0.0
 40
0.0
 40
0.0
 40
1.0
 40
1.0
 40
1.0
 40
2.0
 40
2.0
 40
2.0
 40
3.0
 40
3.0
 40
3.0
 40
4.0
 40
4.0
 40
4.0
 40
5.0
 40
5.0
 40
5.0
 40
6.0
 40
6.0
 40
6.0
 40
7.0
 40
7.0
 40
7.0
 40
8.0
 40
8.0
 40
8.0
 40
9.0
 40
9.0
 40
9.0
 40
10.0
 40
10.0
 40
10.0
 40
11.0
 40
11.0
 40
11.0
 40
12.0
 40
12.0
 40
12.0
 40
13.0
 40
13.0
 40
13.0
 40
14.0
 40
14.0
 40
14.0
 40
15.0
 40
15.0
 40
15.0
 40
16.0
 40
16.0
 40
16.0
 40
17.0
 40
17.0
 40
17.0
 40
18.0
 40
18.0
 40
18.0
 40
19.0
 40
19.0
 40
19.0
 40
20.0
 40
20.0
 40
20.0
 40
21.0
 40
21.0
 40
21.0
 40
22.0
 40
22.0
 40
22.0
 40
23.0
 40
23.0
 40
23.0
 40
24.0
 40
24.0
 40
24.0
 40
25.0
 40
25.0
 40
25.0
 40
26.0
 40
26.0
 40
26.0
 40
27.0
 40
27.0
 40
27.0
 40
28.0
 40
28.0
 40
28.0
 40
29.0
 40
29.0
 40
29.0
 40
30.0
 40
30.0
 40
30.0
 40
31.0
 40
31.0
 40
31.0
 40
32.0
 40
32.0
 40
32.0
 40
33.0
 40
33.0
 40
33.0
 40
33.0
 10
139.8926730891197
 20
154.8294111834263
 30
0.0
 10
139.8926730891197
 20
154.8294111834263
 30
0.0
 10
142.0344903652445
 20
154.8294111834263
 30
0.0
 10
142.0344903652445
 20
154.8294111834263
 30
0.0
 10
142.0344903652445
 20
154.8294111834263
 30
0.0
 10
140.9516961399171
 20
151.3157559800812
 30
0.0
 10
140.9516961399171
 20
151.3157559800812
 30
0.0
 10
141.8928968473923
 20
152.7887075264977
 30
0.0
 10
142.7341897198865
 20
153.4484437471474
 30
0.0
 10
143.8552245303272
 20
154.2926649527359
 30
0.0
 10
144.9803934580775
 20
155.1296514530327
 30
0.0
 10
146.3139908001845
 20
155.3044901642492
 30
0.0
 10
147.241066606852
 20
155.3044901642492
 30
0.0
 10
148.3855280820469
 20
155.3044901642492
 30
0.0
 10
149.4969166187653
 20
155.0752189084569
 30
0.0
 10
150.0784491203092
 20
153.8172414621372
 30
0.0
 10
150.5228667310863
 20
152.833838307127
 30
0.0
 10
150.5414702589793
 20
152.7201500811143
 30
0.0
 10
150.4140016419347
 20
150.7765981809602
 30
0.0
 10
151.5818897818837
 20
152.7699317437168
 30
0.0
 10
152.4424752018226
 20
153.6256940267945
 30
0.0
 10
153.9038856707499
 20
154.4507949398263
 30
0.0
 10
155.4455669174378
 20
155.3044901642492
 30
0.0
 10
156.339225275853
 20
155.3659851592288
 30
0.0
 10
157.3748216618963
 20
155.2147453676543
 30
0.0
 10
158.911679771723
 20
154.9877134254046
 30
0.0
 10
159.8859534176746
 20
154.4390816074493
 30
0.0
 10
160.3965169054045
 20
152.7816450760939
 30
0.0
 10
160.9070803931344
 20
151.1219692311958
 30
0.0
 10
160.6328506116007
 20
150.2303779314354
 30
0.0
 10
159.9992971339115
 20
147.597634224801
 30
0.0
 10
159.7105979417943
 20
146.4014962832367
 30
0.0
 10
159.2947746424084
 20
144.9400858143094
 30
0.0
 10
158.7463150793409
 20
143.2092687007094
 30
0.0
 10
158.7463150793409
 20
143.2092687007094
 30
0.0
 10
153.9038856707499
 20
127.8027915271048
 30
0.0
 10
153.9038856707499
 20
127.8027915271048
 30
0.0
 10
153.9038856707499
 20
127.8027915271048
 30
0.0
 10
151.3882752878863
 20
127.8027915271048
 30
0.0
 10
151.3882752878863
 20
127.8027915271048
 30
0.0
 10
151.3882752878863
 20
127.8027915271048
 30
0.0
 10
155.6250565106276
 20
141.2751908193897
 30
0.0
 10
155.6250565106276
 20
141.2751908193897
 30
0.0
 10
156.5094131050963
 20
144.0936252951782
 30
0.0
 10
157.109893644309
 20
146.1506931664571
 30
0.0
 10
157.4220195011804
 20
147.4415712963654
 30
0.0
 10
157.8095929989511
 20
149.0530157726519
 30
0.0
 10
157.9656559273867
 20
149.5826995529385
 30
0.0
 10
157.7816877071116
 20
150.7529992613181
 30
0.0
 10
157.6111553680925
 20
151.8430281919372
 30
0.0
 10
157.0582171779396
 20
152.5547853887321
 30
0.0
 10
156.1170164704645
 20
152.5547853887321
 30
0.0
 10
155.1096698860365
 20
152.5547853887321
 30
0.0
 10
154.2962823053817
 20
152.4412694176073
 30
0.0
 10
153.156643967048
 20
151.2945686288697
 30
0.0
 10
152.0170056287143
 20
150.1476955852443
 30
0.0
 10
151.076149431015
 20
148.7930831468137
 30
0.0
 10
150.3337308641742
 20
147.2290087646991
 30
0.0
 10
149.5957909244188
 20
145.6683794803425
 30
0.0
 10
148.8530278478023
 20
143.6822806228776
 30
0.0
 10
148.0964843801539
 20
141.2751908193897
 30
0.0
 10
148.0964843801539
 20
141.2751908193897
 30
0.0
 10
143.8552245303272
 20
127.8027915271048
 30
0.0
 10
143.8552245303272
 20
127.8027915271048
 30
0.0
 10
143.8552245303272
 20
127.8027915271048
 30
0.0
 10
141.486030802177
 20
127.8027915271048
 30
0.0
 10
141.486030802177
 20
127.8027915271048
 30
0.0
 10
141.486030802177
 20
127.8027915271048
 30
0.0
 10
146.3329388378533
 20
143.2092687007094
 30
0.0
 10
146.3329388378533
 20
143.2092687007094
 30
0.0
 10
146.8483254624444
 20
144.8408669988801
 30
0.0
 10
147.2314203331297
 20
146.1837661049335
 30
0.0
 10
147.4867020769946
 20
147.224185627838
 30
0.0
 10
147.9169947869641
 20
149.0197705792876
 30
0.0
 10
148.0306830129768
 20
150.2400242051577
 30
0.0
 10
147.709255392159
 20
151.3157559800812
 30
0.0
 10
147.3874832615654
 20
152.3916600098926
 30
0.0
 10
146.8245542879144
 20
152.6683013598569
 30
0.0
 10
145.8840425999909
 20
152.6683013598569
 30
0.0
 10
145.0989048209514
 20
152.6683013598569
 30
0.0
 10
144.3282364524954
 20
152.3275811915945
 30
0.0
 10
143.4531816219731
 20
151.6538923250251
 30
0.0
 10
142.34627171234
 20
150.8074318058939
 30
0.0
 10
141.901854101563
 20
150.1097995099067
 30
0.0
 10
141.3578731655808
 20
149.289521733736
 30
0.0
 10
140.6299240093235
 20
148.192602607601
 30
0.0
 10
140.2850697237515
 20
147.455696197173
 30
0.0
 10
139.6652966370942
 20
145.8385673095858
 30
0.0
 10
139.0506911970739
 20
144.2214384219986
 30
0.0
 10
138.463991048893
 20
142.3252566160164
 30
0.0
 10
138.0571250036777
 20
141.0154304484394
 30
0.0
 10
138.0571250036777
 20
141.0154304484394
 30
0.0
 10
133.9009590684727
 20
127.8027915271048
 30
0.0
 10
133.9009590684727
 20
127.8027915271048
 30
0.0
 10
133.9009590684727
 20
127.8027915271048
 30
0.0
 10
131.4180771143097
 20
127.8027915271048
 30
0.0
 10
131.4180771143097
 20
127.8027915271048
 30
0.0
 10
131.4180771143097
 20
127.8027915271048
 30
0.0
 10
139.8926730891197
 20
154.8294111834263
 30
0.0
 10
139.8926730891197
 20
154.8294111834263
 30
0.0
  0
HATCH
  5
1DA7
330
1DA0
100
AcDbEntity
  8
TFORMLOGO
 62
   250
420
  2234388
100
AcDbHatch
 10
0.0
 20
0.0
 30
0.0
210
0.0
220
0.0
230
1.0
  2
SOLID
 70
     1
 71
     0
 91
        1
 92
        1
 93
        1
 72
     4
 94
        3
 73
     0
 74
     1
 95
      104
 96
      100
 40
0.0
 40
0.0
 40
0.0
 40
0.0
 40
1.0
 40
1.0
 40
1.0
 40
2.0
 40
2.0
 40
2.0
 40
3.0
 40
3.0
 40
3.0
 40
4.0
 40
4.0
 40
4.0
 40
5.0
 40
5.0
 40
5.0
 40
6.0
 40
6.0
 40
6.0
 40
7.0
 40
7.0
 40
7.0
 40
8.0
 40
8.0
 40
8.0
 40
9.0
 40
9.0
 40
9.0
 40
10.0
 40
10.0
 40
10.0
 40
11.0
 40
11.0
 40
11.0
 40
12.0
 40
12.0
 40
12.0
 40
13.0
 40
13.0
 40
13.0
 40
14.0
 40
14.0
 40
14.0
 40
15.0
 40
15.0
 40
15.0
 40
16.0
 40
16.0
 40
16.0
 40
17.0
 40
17.0
 40
17.0
 40
18.0
 40
18.0
 40
18.0
 40
19.0
 40
19.0
 40
19.0
 40
20.0
 40
20.0
 40
20.0
 40
21.0
 40
21.0
 40
21.0
 40
22.0
 40
22.0
 40
22.0
 40
23.0
 40
23.0
 40
23.0
 40
24.0
 40
24.0
 40
24.0
 40
25.0
 40
25.0
 40
25.0
 40
26.0
 40
26.0
 40
26.0
 40
27.0
 40
27.0
 40
27.0
 40
28.0
 40
28.0
 40
28.0
 40
29.0
 40
29.0
 40
29.0
 40
30.0
 40
30.0
 40
30.0
 40
31.0
 40
31.0
 40
31.0
 40
32.0
 40
32.0
 40
32.0
 40
33.0
 40
33.0
 40
33.0
 40
33.0
 10
139.8926730891197
 20
154.8294111834263
 10
139.8926730891197
 20
154.8294111834263
 10
142.0344903652445
 20
154.8294111834263
 10
142.0344903652445
 20
154.8294111834263
 10
142.0344903652445
 20
154.8294111834263
 10
140.9516961399171
 20
151.3157559800812
 10
140.9516961399171
 20
151.3157559800812
 10
141.8928968473923
 20
152.7887075264977
 10
142.7341897198865
 20
153.4484437471474
 10
143.8552245303272
 20
154.2926649527359
 10
144.9803934580775
 20
155.1296514530327
 10
146.3139908001845
 20
155.3044901642492
 10
147.241066606852
 20
155.3044901642492
 10
148.3855280820469
 20
155.3044901642492
 10
149.4969166187653
 20
155.0752189084569
 10
150.0784491203092
 20
153.8172414621372
 10
150.5228667310863
 20
152.833838307127
 10
150.5414702589793
 20
152.7201500811143
 10
150.4140016419347
 20
150.7765981809602
 10
151.5818897818837
 20
152.7699317437168
 10
152.4424752018226
 20
153.6256940267945
 10
153.9038856707499
 20
154.4507949398263
 10
155.4455669174378
 20
155.3044901642492
 10
156.339225275853
 20
155.3659851592288
 10
157.3748216618963
 20
155.2147453676543
 10
158.911679771723
 20
154.9877134254046
 10
159.8859534176746
 20
154.4390816074493
 10
160.3965169054045
 20
152.7816450760939
 10
160.9070803931344
 20
151.1219692311958
 10
160.6328506116007
 20
150.2303779314354
 10
159.9992971339115
 20
147.597634224801
 10
159.7105979417943
 20
146.4014962832367
 10
159.2947746424084
 20
144.9400858143094
 10
158.7463150793409
 20
143.2092687007094
 10
158.7463150793409
 20
143.2092687007094
 10
153.9038856707499
 20
127.8027915271048
 10
153.9038856707499
 20
127.8027915271048
 10
153.9038856707499
 20
127.8027915271048
 10
151.3882752878863
 20
127.8027915271048
 10
151.3882752878863
 20
127.8027915271048
 10
151.3882752878863
 20
127.8027915271048
 10
155.6250565106276
 20
141.2751908193897
 10
155.6250565106276
 20
141.2751908193897
 10
156.5094131050963
 20
144.0936252951782
 10
157.109893644309
 20
146.1506931664571
 10
157.4220195011804
 20
147.4415712963654
 10
157.8095929989511
 20
149.0530157726519
 10
157.9656559273867
 20
149.5826995529385
 10
157.7816877071116
 20
150.7529992613181
 10
157.6111553680925
 20
151.8430281919372
 10
157.0582171779396
 20
152.5547853887321
 10
156.1170164704645
 20
152.5547853887321
 10
155.1096698860365
 20
152.5547853887321
 10
154.2962823053817
 20
152.4412694176073
 10
153.156643967048
 20
151.2945686288697
 10
152.0170056287143
 20
150.1476955852443
 10
151.076149431015
 20
148.7930831468137
 10
150.3337308641742
 20
147.2290087646991
 10
149.5957909244188
 20
145.6683794803425
 10
148.8530278478023
 20
143.6822806228776
 10
148.0964843801539
 20
141.2751908193897
 10
148.0964843801539
 20
141.2751908193897
 10
143.8552245303272
 20
127.8027915271048
 10
143.8552245303272
 20
127.8027915271048
 10
143.8552245303272
 20
127.8027915271048
 10
141.486030802177
 20
127.8027915271048
 10
141.486030802177
 20
127.8027915271048
 10
141.486030802177
 20
127.8027915271048
 10
146.3329388378533
 20
143.2092687007094
 10
146.3329388378533
 20
143.2092687007094
 10
146.8483254624444
 20
144.8408669988801
 10
147.2314203331297
 20
146.1837661049335
 10
147.4867020769946
 20
147.224185627838
 10
147.9169947869641
 20
149.0197705792876
 10
148.0306830129768
 20
150.2400242051577
 10
147.709255392159
 20
151.3157559800812
 10
147.3874832615654
 20
152.3916600098926
 10
146.8245542879144
 20
152.6683013598569
 10
145.8840425999909
 20
152.6683013598569
 10
145.0989048209514
 20
152.6683013598569
 10
144.3282364524954
 20
152.3275811915945
 10
143.4531816219731
 20
151.6538923250251
 10
142.34627171234
 20
150.8074318058939
 10
141.901854101563
 20
150.1097995099067
 10
141.3578731655808
 20
149.289521733736
 10
140.6299240093235
 20
148.192602607601
 10
140.2850697237515
 20
147.455696197173
 10
139.6652966370942
 20
145.8385673095858
 10
139.0506911970739
 20
144.2214384219986
 10
138.463991048893
 20
142.3252566160164
 10
138.0571250036777
 20
141.0154304484394
 10
138.0571250036777
 20
141.0154304484394
 10
133.9009590684727
 20
127.8027915271048
 10
133.9009590684727
 20
127.8027915271048
 10
133.9009590684727
 20
127.8027915271048
 10
131.4180771143097
 20
127.8027915271048
 10
131.4180771143097
 20
127.8027915271048
 10
131.4180771143097
 20
127.8027915271048
 10
139.8926730891197
 20
154.8294111834263
 10
139.8926730891197
 20
154.8294111834263
 97
        0
 75
     2
 76
     1
 98
        0
  0
SPLINE
  5
1DA8
330
1DA0
100
AcDbEntity
  8
TFORMLOGO
370
     0
100
AcDbSpline
210
0.0
220
0.0
230
1.0
 70
    11
 71
     3
 72
    29
 73
    25
 74
     0
 42
0.000000001
 43
0.0000000001
 40
0.0
 40
0.0
 40
0.0
 40
0.0
 40
1.0
 40
1.0
 40
1.0
 40
2.0
 40
2.0
 40
2.0
 40
3.0
 40
3.0
 40
3.0
 40
4.0
 40
4.0
 40
4.0
 40
5.0
 40
5.0
 40
5.0
 40
6.0
 40
6.0
 40
6.0
 40
7.0
 40
7.0
 40
7.0
 40
8.0
 40
8.0
 40
8.0
 40
8.0
 10
101.6420971922469
 20
132.8388354296931
 30
0.0
 10
101.630039350094
 20
134.7164137077823
 30
0.0
 10
102.2236296937908
 20
138.0598810818841
 30
0.0
 10
103.7487744712405
 20
142.5378191476827
 30
0.0
 10
105.819967243327
 20
148.5896501242061
 30
0.0
 10
107.0602024361932
 20
150.8074318058939
 30
0.0
 10
108.1522984254671
 20
151.8833358357054
 30
0.0
 10
109.741177511439
 20
153.4532668840085
 30
0.0
 10
111.8740375333931
 20
153.5290590346837
 30
0.0
 10
112.5075910110823
 20
153.4532668840085
 30
0.0
 10
113.4012493694975
 20
153.3490526768302
 30
0.0
 10
114.6683563248758
 20
152.7580461564518
 30
0.0
 10
114.7493161221879
 20
150.7838328862519
 30
0.0
 10
114.8106388622796
 20
149.0909118479895
 30
0.0
 10
114.3186789024427
 20
145.9191825971221
 30
0.0
 10
112.6164561002338
 20
140.9489400617108
 30
0.0
 10
110.6444821435766
 20
135.1746117095912
 30
0.0
 10
109.4669477299053
 20
132.8960240524753
 30
0.0
 10
108.5212683953448
 20
131.9072809959403
 30
0.0
 10
106.7346406980658
 20
130.0538184021569
 30
0.0
 10
104.8222669326213
 20
130.2336525051225
 30
0.0
 10
104.5408024457958
 20
130.2336525051225
 30
0.0
 10
104.1721769856939
 20
130.2336525051225
 30
0.0
 10
101.6465758193322
 20
130.6305277668397
 30
0.0
 10
101.6420971922469
 20
132.8388354296931
 30
0.0
  0
SPLINE
  5
1DA9
330
1DA0
100
AcDbEntity
  8
TFORMLOGO
370
     0
100
AcDbSpline
210
0.0
220
0.0
230
1.0
 70
    11
 71
     3
 72
    32
 73
    28
 74
     0
 42
0.000000001
 43
0.0000000001
 40
0.0
 40
0.0
 40
0.0
 40
0.0
 40
1.0
 40
1.0
 40
1.0
 40
2.0
 40
2.0
 40
2.0
 40
3.0
 40
3.0
 40
3.0
 40
4.0
 40
4.0
 40
4.0
 40
5.0
 40
5.0
 40
5.0
 40
6.0
 40
6.0
 40
6.0
 40
7.0
 40
7.0
 40
7.0
 40
8.0
 40
8.0
 40
8.0
 40
9.0
 40
9.0
 40
9.0
 40
9.0
 10
106.2595617172429
 20
153.4105476718098
 30
0.0
 10
104.8222669326213
 20
151.5474388043041
 30
0.0
 10
103.7177685914188
 20
149.8758773721411
 30
0.0
 10
101.9232171692965
 20
144.6141795664062
 30
0.0
 10
100.2754269116635
 20
139.7999999594306
 30
0.0
 10
99.22777268346732
 20
136.3052927937542
 30
0.0
 10
99.06964269637689
 20
132.039572749846
 30
0.0
 10
98.94665270641765
 20
128.8673267343149
 30
0.0
 10
100.8807305877373
 20
127.8027915271048
 30
0.0
 10
103.7129454545577
 20
127.8027915271048
 30
0.0
 10
104.9352661390825
 20
127.8027915271048
 30
0.0
 10
108.0151835347002
 20
127.8827177950895
 30
0.0
 10
110.2045431598849
 20
130.5926316915021
 30
0.0
 10
111.7417457794874
 20
132.4984597712065
 30
0.0
 10
113.155269389579
 20
134.475256864725
 30
0.0
 10
115.0562743324223
 20
140.9489400617108
 30
0.0
 10
116.6361961642235
 20
146.3680788349845
 30
0.0
 10
117.7282921534974
 20
149.8639917848761
 30
0.0
 10
117.6480213757369
 20
151.8595646611754
 30
0.0
 10
117.6480213757369
 20
151.8595646611754
 30
0.0
 10
117.6480213757369
 20
151.8595646611754
 30
0.0
 10
117.6480213757369
 20
151.8595646611754
 30
0.0
 10
117.13229024137
 20
155.18150017429
 30
0.0
 10
114.7162431837115
 20
155.886194920681
 30
0.0
 10
113.3351034925446
 20
155.886194920681
 30
0.0
 10
111.9829026225447
 20
155.886194920681
 30
0.0
 10
108.3414342923792
 20
156.1251124501957
 30
0.0
 10
106.2595617172429
 20
153.4105476718098
 30
0.0
  0
HATCH
  5
1DAA
330
1DA0
100
AcDbEntity
  8
TFORMLOGO
 62
   250
420
  2234388
100
AcDbHatch
 10
0.0
 20
0.0
 30
0.0
210
0.0
220
0.0
230
1.0
  2
SOLID
 70
     1
 71
     0
 91
        2
 92
        1
 93
        1
 72
     4
 94
        3
 73
     0
 74
     1
 95
       29
 96
       25
 40
0.0
 40
0.0
 40
0.0
 40
0.0
 40
1.0
 40
1.0
 40
1.0
 40
2.0
 40
2.0
 40
2.0
 40
3.0
 40
3.0
 40
3.0
 40
4.0
 40
4.0
 40
4.0
 40
5.0
 40
5.0
 40
5.0
 40
6.0
 40
6.0
 40
6.0
 40
7.0
 40
7.0
 40
7.0
 40
8.0
 40
8.0
 40
8.0
 40
8.0
 10
101.6420971922469
 20
132.8388354296931
 10
101.630039350094
 20
134.7164137077823
 10
102.2236296937908
 20
138.0598810818841
 10
103.7487744712405
 20
142.5378191476827
 10
105.819967243327
 20
148.5896501242061
 10
107.0602024361932
 20
150.8074318058939
 10
108.1522984254671
 20
151.8833358357054
 10
109.741177511439
 20
153.4532668840085
 10
111.8740375333931
 20
153.5290590346837
 10
112.5075910110823
 20
153.4532668840085
 10
113.4012493694975
 20
153.3490526768302
 10
114.6683563248758
 20
152.7580461564518
 10
114.7493161221879
 20
150.7838328862519
 10
114.8106388622796
 20
149.0909118479895
 10
114.3186789024427
 20
145.9191825971221
 10
112.6164561002338
 20
140.9489400617108
 10
110.6444821435766
 20
135.1746117095912
 10
109.4669477299053
 20
132.8960240524753
 10
108.5212683953448
 20
131.9072809959403
 10
106.7346406980658
 20
130.0538184021569
 10
104.8222669326213
 20
130.2336525051225
 10
104.5408024457958
 20
130.2336525051225
 10
104.1721769856939
 20
130.2336525051225
 10
101.6465758193322
 20
130.6305277668397
 10
101.6420971922469
 20
132.8388354296931
 97
        0
 92
        1
 93
        1
 72
     4
 94
        3
 73
     0
 74
     1
 95
       32
 96
       28
 40
0.0
 40
0.0
 40
0.0
 40
0.0
 40
1.0
 40
1.0
 40
1.0
 40
2.0
 40
2.0
 40
2.0
 40
3.0
 40
3.0
 40
3.0
 40
4.0
 40
4.0
 40
4.0
 40
5.0
 40
5.0
 40
5.0
 40
6.0
 40
6.0
 40
6.0
 40
7.0
 40
7.0
 40
7.0
 40
8.0
 40
8.0
 40
8.0
 40
9.0
 40
9.0
 40
9.0
 40
9.0
 10
106.2595617172429
 20
153.4105476718098
 10
104.8222669326213
 20
151.5474388043041
 10
103.7177685914188
 20
149.8758773721411
 10
101.9232171692965
 20
144.6141795664062
 10
100.2754269116635
 20
139.7999999594306
 10
99.22777268346732
 20
136.3052927937542
 10
99.06964269637689
 20
132.039572749846
 10
98.94665270641765
 20
128.8673267343149
 10
100.8807305877373
 20
127.8027915271048
 10
103.7129454545577
 20
127.8027915271048
 10
104.9352661390825
 20
127.8027915271048
 10
108.0151835347002
 20
127.8827177950895
 10
110.2045431598849
 20
130.5926316915021
 10
111.7417457794874
 20
132.4984597712065
 10
113.155269389579
 20
134.475256864725
 10
115.0562743324223
 20
140.9489400617108
 10
116.6361961642235
 20
146.3680788349845
 10
117.7282921534974
 20
149.8639917848761
 10
117.6480213757369
 20
151.8595646611754
 10
117.6480213757369
 20
151.8595646611754
 10
117.6480213757369
 20
151.8595646611754
 10
117.6480213757369
 20
151.8595646611754
 10
117.13229024137
 20
155.18150017429
 10
114.7162431837115
 20
155.886194920681
 10
113.3351034925446
 20
155.886194920681
 10
111.9829026225447
 20
155.886194920681
 10
108.3414342923792
 20
156.1251124501957
 10
106.2595617172429
 20
153.4105476718098
 97
        0
 75
     2
 76
     1
 98
        0
  0
ENDBLK
  5
1DAB
330
1DA0
100
AcDbEntity
  8
0
100
AcDbBlockEnd
  0
BLOCK
  5
49D8
330
49D7
100
AcDbEntity
  8
0
100
AcDbBlockBegin
  2
*D7
 70
     1
 10
0.0
 20
0.0
 30
0.0
  3
*D7
  1
*D89
  0
LINE
  5
49DA
330
49D7
100
AcDbEntity
  8
寸法
 62
     0
370
    -2
100
AcDbLine
 10
377.4580110333714
 20
322.6433672898764
 30
0.0
 11
348.2503067484663
 21
322.6433672898764
 31
0.0
  0
LINE
  5
49DB
330
49D7
100
AcDbEntity
  8
寸法
 62
     0
370
    -2
100
AcDbLine
 10
377.4580110333714
 20
270.5741597760435
 30
0.0
 11
348.2503067484663
 21
270.5741597760435
 31
0.0
  0
LINE
  5
49DC
330
49D7
100
AcDbEntity
  8
寸法
 62
     0
370
    -2
100
AcDbLine
 10
348.2503067484663
 20
320.6433672898764
 30
0.0
 11
348.2503067484663
 21
272.5741597760435
 31
0.0
  0
INSERT
  5
49DD
330
49D7
100
AcDbEntity
  8
寸法
 62
     0
370
    -2
100
AcDbBlockReference
  2
_DOT
 10
348.2503067484663
 20
322.6433672898764
 30
0.0
 41
2.0
 42
2.0
 43
2.0
 50
90.0
  0
INSERT
  5
49DE
330
49D7
100
AcDbEntity
  8
寸法
 62
     0
370
    -2
100
AcDbBlockReference
  2
_DOT
 10
348.2503067484663
 20
270.5741597760435
 30
0.0
 41
2.0
 42
2.0
 43
2.0
 50
270.0
  0
MTEXT
  5
49DF
330
49D7
100
AcDbEntity
  8
寸法
 62
     0
100
AcDbMText
 10
340.7503067484663
 20
296.60876353296
 30
0.0
 40
5.0
 41
0.0
 46
0.0
 71
     5
 72
     1
  1
\A1;52
  7
ＭＳ ゴシック
 11
0.0
 21
1.0
 31
0.0
 73
     1
 44
1.0
  0
POINT
  5
49E0
330
49D7
100
AcDbEntity
  8
Defpoints
 62
     0
100
AcDbPoint
 10
382.4580110333714
 20
322.6433672898764
 30
0.0
  0
POINT
  5
49E1
330
49D7
100
AcDbEntity
  8
Defpoints
 62
     0
100
AcDbPoint
 10
382.4580110333714
 20
270.5741597760435
 30
0.0
  0
POINT
  5
49E2
330
49D7
100
AcDbEntity
  8
Defpoints
 62
     0
100
AcDbPoint
 10
348.2503067484663
 20
270.5741597760435
 30
0.0
  0
ENDBLK
  5
49D9
330
49D7
100
AcDbEntity
  8
0
100
AcDbBlockEnd
  0
BLOCK
  5
49E7
330
49E6
100
AcDbEntity
  8
0
100
AcDbBlockBegin
  2
*D8
 70
     1
 10
0.0
 20
0.0
 30
0.0
  3
*D8
  1
*D90
  0
LINE
  5
49E9
330
49E6
100
AcDbEntity
  8
寸法
 62
     0
370
    -2
100
AcDbLine
 10
172.8809483580591
 20
262.1859061310873
 30
0.0
 11
172.8809483580591
 21
246.4811791365413
 31
0.0
  0
LINE
  5
49EA
330
49E6
100
AcDbEntity
  8
寸法
 62
     0
370
    -2
100
AcDbLine
 10
224.5281313965421
 20
262.1859061310873
 30
0.0
 11
224.5281313965421
 21
246.4811791365413
 31
0.0
  0
LINE
  5
49EB
330
49E6
100
AcDbEntity
  8
寸法
 62
     0
370
    -2
100
AcDbLine
 10
174.8809483580591
 20
246.4811791365413
 30
0.0
 11
222.5281313965421
 21
246.4811791365413
 31
0.0
  0
INSERT
  5
49EC
330
49E6
100
AcDbEntity
  8
寸法
 62
     0
370
    -2
100
AcDbBlockReference
  2
_DOT
 10
172.8809483580591
 20
246.4811791365413
 30
0.0
 41
2.0
 42
2.0
 43
2.0
 50
180.0
  0
INSERT
  5
49ED
330
49E6
100
AcDbEntity
  8
寸法
 62
     0
370
    -2
100
AcDbBlockReference
  2
_DOT
 10
224.5281313965421
 20
246.4811791365413
 30
0.0
 41
2.0
 42
2.0
 43
2.0
  0
MTEXT
  5
49EE
330
49E6
100
AcDbEntity
  8
寸法
 62
     0
100
AcDbMText
 10
198.7045398773006
 20
253.9811791365413
 30
0.0
 40
5.0
 41
0.0
 46
0.0
 71
     5
 72
     1
  1
\A1;52
  7
ＭＳ ゴシック
 73
     1
 44
1.0
  0
POINT
  5
49EF
330
49E6
100
AcDbEntity
  8
Defpoints
 62
     0
100
AcDbPoint
 10
172.8809483580591
 20
267.1859061310873
 30
0.0
  0
POINT
  5
49F0
330
49E6
100
AcDbEntity
  8
Defpoints
 62
     0
100
AcDbPoint
 10
224.5281313965421
 20
267.1859061310873
 30
0.0
  0
POINT
  5
49F1
330
49E6
100
AcDbEntity
  8
Defpoints
 62
     0
100
AcDbPoint
 10
224.5281313965421
 20
246.4811791365413
 30
0.0
  0
ENDBLK
  5
49E8
330
49E6
100
AcDbEntity
  8
0
100
AcDbBlockEnd
  0
BLOCK
  5
4A36
330
4A35
100
AcDbEntity
  8
0
100
AcDbBlockBegin
  2
*D9
 70
     1
 10
0.0
 20
0.0
 30
0.0
  3
*D9
  1
*D93
  0
LINE
  5
4A38
330
4A35
100
AcDbEntity
  8
寸法
 62
     0
370
    -2
100
AcDbLine
 10
179.7045398773006
 20
327.533685554482
 30
0.0
 11
179.7045398773006
 21
335.7576218506239
 31
0.0
  0
LINE
  5
4A39
330
4A35
100
AcDbEntity
  8
寸法
 62
     0
370
    -2
100
AcDbLine
 10
217.7045398773006
 20
327.533685554482
 30
0.0
 11
217.7045398773006
 21
335.7576218506239
 31
0.0
  0
LINE
  5
4A3A
330
4A35
100
AcDbEntity
  8
寸法
 62
     0
370
    -2
100
AcDbLine
 10
181.7045398773006
 20
335.7576218506239
 30
0.0
 11
215.7045398773006
 21
335.7576218506239
 31
0.0
  0
INSERT
  5
4A3B
330
4A35
100
AcDbEntity
  8
寸法
 62
     0
370
    -2
100
AcDbBlockReference
  2
_DOT
 10
179.7045398773006
 20
335.7576218506239
 30
0.0
 41
2.0
 42
2.0
 43
2.0
 50
180.0
  0
INSERT
  5
4A3C
330
4A35
100
AcDbEntity
  8
寸法
 62
     0
370
    -2
100
AcDbBlockReference
  2
_DOT
 10
217.7045398773006
 20
335.7576218506239
 30
0.0
 41
2.0
 42
2.0
 43
2.0
  0
MTEXT
  5
4A3D
330
4A35
100
AcDbEntity
  8
寸法
 62
     0
100
AcDbMText
 10
198.7045398773006
 20
343.2576218506239
 30
0.0
 40
5.0
 41
0.0
 46
0.0
 71
     5
 72
     1
  1
\A1;38
  7
ＭＳ ゴシック
 73
     1
 44
1.0
  0
POINT
  5
4A3E
330
4A35
100
AcDbEntity
  8
Defpoints
 62
     0
100
AcDbPoint
 10
179.7045398773006
 20
322.533685554482
 30
0.0
  0
POINT
  5
4A3F
330
4A35
100
AcDbEntity
  8
Defpoints
 62
     0
100
AcDbPoint
 10
217.7045398773006
 20
322.533685554482
 30
0.0
  0
POINT
  5
4A40
330
4A35
100
AcDbEntity
  8
Defpoints
 62
     0
100
AcDbPoint
 10
217.7045398773006
 20
335.7576218506239
 30
0.0
  0
ENDBLK
  5
4A37
330
4A35
100
AcDbEntity
  8
0
100
AcDbBlockEnd
  0
BLOCK
  5
4A62
330
4A61
100
AcDbEntity
  8
0
100
AcDbBlockBegin
  2
*D10
 70
     1
 10
0.0
 20
0.0
 30
0.0
  3
*D10
  1
*D96
  0
LINE
  5
4A64
330
4A61
100
AcDbEntity
  8
寸法
 62
     0
370
    -2
100
AcDbLine
 10
229.5281313965421
 20
322.6433672898764
 30
0.0
 11
250.574189629303
 21
322.6433672898764
 31
0.0
  0
LINE
  5
4A65
330
4A61
100
AcDbEntity
  8
寸法
 62
     0
370
    -2
100
AcDbLine
 10
229.5281313965421
 20
266.6433672898764
 30
0.0
 11
250.574189629303
 21
266.6433672898764
 31
0.0
  0
LINE
  5
4A66
330
4A61
100
AcDbEntity
  8
寸法
 62
     0
370
    -2
100
AcDbLine
 10
250.574189629303
 20
320.6433672898764
 30
0.0
 11
250.574189629303
 21
268.6433672898764
 31
0.0
  0
INSERT
  5
4A67
330
4A61
100
AcDbEntity
  8
寸法
 62
     0
370
    -2
100
AcDbBlockReference
  2
_DOT
 10
250.574189629303
 20
322.6433672898764
 30
0.0
 41
2.0
 42
2.0
 43
2.0
 50
90.0
  0
INSERT
  5
4A68
330
4A61
100
AcDbEntity
  8
寸法
 62
     0
370
    -2
100
AcDbBlockReference
  2
_DOT
 10
250.574189629303
 20
266.6433672898764
 30
0.0
 41
2.0
 42
2.0
 43
2.0
 50
270.0
  0
MTEXT
  5
4A69
330
4A61
100
AcDbEntity
  8
寸法
 62
     0
100
AcDbMText
 10
243.074189629303
 20
294.6433672898764
 30
0.0
 40
5.0
 41
0.0
 46
0.0
 71
     5
 72
     1
  1
\A1;56
  7
ＭＳ ゴシック
 11
0.0
 21
1.0
 31
0.0
 73
     1
 44
1.0
  0
POINT
  5
4A6A
330
4A61
100
AcDbEntity
  8
Defpoints
 62
     0
100
AcDbPoint
 10
224.5281313965421
 20
322.6433672898764
 30
0.0
  0
POINT
  5
4A6B
330
4A61
100
AcDbEntity
  8
Defpoints
 62
     0
100
AcDbPoint
 10
224.5281313965421
 20
266.6433672898764
 30
0.0
  0
POINT
  5
4A6C
330
4A61
100
AcDbEntity
  8
Defpoints
 62
     0
100
AcDbPoint
 10
250.574189629303
 20
266.6433672898764
 30
0.0
  0
ENDBLK
  5
4A63
330
4A61
100
AcDbEntity
  8
0
100
AcDbBlockEnd
  0
BLOCK
  5
4A74
330
4A73
100
AcDbEntity
  8
0
100
AcDbBlockBegin
  2
*D11
 70
     1
 10
0.0
 20
0.0
 30
0.0
  3
*D11
  1
*D97
  0
LINE
  5
4A76
330
4A73
100
AcDbEntity
  8
寸法
 62
     0
370
    -2
100
AcDbLine
 10
167.8809483580591
 20
322.6433672898764
 30
0.0
 11
157.1609807423958
 21
322.6433672898764
 31
0.0
  0
LINE
  5
4A77
330
4A73
100
AcDbEntity
  8
寸法
 62
     0
370
    -2
100
AcDbLine
 10
168.3046953822887
 20
316.7160765973034
 30
0.0
 11
157.1609807423958
 21
316.7160765973034
 31
0.0
  0
LINE
  5
4A78
330
4A73
100
AcDbEntity
  8
寸法
 62
     0
370
    -2
100
AcDbLine
 10
157.1609807423958
 20
320.6433672898764
 30
0.0
 11
157.1609807423958
 21
318.7160765973034
 31
0.0
  0
INSERT
  5
4A79
330
4A73
100
AcDbEntity
  8
寸法
 62
     0
370
    -2
100
AcDbBlockReference
  2
_DOT
 10
157.1609807423958
 20
322.6433672898764
 30
0.0
 41
2.0
 42
2.0
 43
2.0
 50
90.0
  0
INSERT
  5
4A7A
330
4A73
100
AcDbEntity
  8
寸法
 62
     0
370
    -2
100
AcDbBlockReference
  2
_DOT
 10
157.1609807423958
 20
316.7160765973034
 30
0.0
 41
2.0
 42
2.0
 43
2.0
 50
270.0
  0
MTEXT
  5
4A7B
330
4A73
100
AcDbEntity
  8
寸法
 62
     0
100
AcDbMText
 10
149.6609807423958
 20
319.6797219435899
 30
0.0
 40
5.0
 41
0.0
 46
0.0
 71
     5
 72
     1
  1
\A1;6
  7
ＭＳ ゴシック
 11
0.0
 21
1.0
 31
0.0
 73
     1
 44
1.0
  0
POINT
  5
4A7C
330
4A73
100
AcDbEntity
  8
Defpoints
 62
     0
100
AcDbPoint
 10
172.8809483580591
 20
322.6433672898764
 30
0.0
  0
POINT
  5
4A7D
330
4A73
100
AcDbEntity
  8
Defpoints
 62
     0
100
AcDbPoint
 10
173.3046953822887
 20
316.7160765973034
 30
0.0
  0
POINT
  5
4A7E
330
4A73
100
AcDbEntity
  8
Defpoints
 62
     0
100
AcDbPoint
 10
157.1609807423958
 20
316.7160765973034
 30
0.0
  0
ENDBLK
  5
4A75
330
4A73
100
AcDbEntity
  8
0
100
AcDbBlockEnd
  0
BLOCK
  5
4A84
330
4A83
100
AcDbEntity
  8
0
100
AcDbBlockBegin
  2
*D12
 70
     1
 10
0.0
 20
0.0
 30
0.0
  3
*D12
  1
*D98
  0
LINE
  5
4A86
330
4A83
100
AcDbEntity
  8
寸法
 62
     0
370
    -2
100
AcDbLine
 10
167.8809483580591
 20
266.6433672898764
 30
0.0
 11
157.1609807423958
 21
266.6433672898764
 31
0.0
  0
LINE
  5
4A87
330
4A83
100
AcDbEntity
  8
寸法
 62
     0
370
    -2
100
AcDbLine
 10
163.3046953822887
 20
316.7160765973034
 30
0.0
 11
157.1609807423958
 21
316.7160765973034
 31
0.0
  0
LINE
  5
4A88
330
4A83
100
AcDbEntity
  8
寸法
 62
     0
370
    -2
100
AcDbLine
 10
157.1609807423958
 20
268.6433672898764
 30
0.0
 11
157.1609807423958
 21
314.7160765973034
 31
0.0
  0
INSERT
  5
4A89
330
4A83
100
AcDbEntity
  8
寸法
 62
     0
370
    -2
100
AcDbBlockReference
  2
_DOT
 10
157.1609807423958
 20
266.6433672898764
 30
0.0
 41
2.0
 42
2.0
 43
2.0
 50
270.0
  0
INSERT
  5
4A8A
330
4A83
100
AcDbEntity
  8
寸法
 62
     0
370
    -2
100
AcDbBlockReference
  2
_DOT
 10
157.1609807423958
 20
316.7160765973034
 30
0.0
 41
2.0
 42
2.0
 43
2.0
 50
90.0
  0
MTEXT
  5
4A8B
330
4A83
100
AcDbEntity
  8
寸法
 62
     0
100
AcDbMText
 10
149.6609807423958
 20
291.6797219435899
 30
0.0
 40
5.0
 41
0.0
 46
0.0
 71
     5
 72
     1
  1
\A1;50
  7
ＭＳ ゴシック
 11
0.0
 21
1.0
 31
0.0
 73
     1
 44
1.0
  0
POINT
  5
4A8C
330
4A83
100
AcDbEntity
  8
Defpoints
 62
     0
100
AcDbPoint
 10
172.8809483580591
 20
266.6433672898764
 30
0.0
  0
POINT
  5
4A8D
330
4A83
100
AcDbEntity
  8
Defpoints
 62
     0
100
AcDbPoint
 10
168.3046953822887
 20
316.7160765973034
 30
0.0
  0
POINT
  5
4A8E
330
4A83
100
AcDbEntity
  8
Defpoints
 62
     0
100
AcDbPoint
 10
157.1609807423958
 20
316.7160765973034
 30
0.0
  0
ENDBLK
  5
4A85
330
4A83
100
AcDbEntity
  8
0
100
AcDbBlockEnd
  0
BLOCK
  5
4C73
330
4C72
100
AcDbEntity
  8
0
100
AcDbBlockBegin
  2
*D13
 70
     1
 10
0.0
 20
0.0
 30
0.0
  3
*D13
  1
*D103
  0
LINE
  5
4C75
330
4C72
100
AcDbEntity
  8
寸法
 62
     0
370
    -2
100
AcDbLine
 10
374.3313019164257
 20
177.4531603118752
 30
0.0
 11
374.3313019164257
 21
200.2397838893573
 31
0.0
  0
LINE
  5
4C76
330
4C72
100
AcDbEntity
  8
寸法
 62
     0
370
    -2
100
AcDbLine
 10
393.3313019164257
 20
191.6286728320842
 30
0.0
 11
393.3313019164257
 21
200.2397838893573
 31
0.0
  0
LINE
  5
4C77
330
4C72
100
AcDbEntity
  8
寸法
 62
     0
370
    -2
100
AcDbLine
 10
376.3313019164257
 20
200.2397838893573
 30
0.0
 11
391.3313019164257
 21
200.2397838893573
 31
0.0
  0
INSERT
  5
4C78
330
4C72
100
AcDbEntity
  8
寸法
 62
     0
370
    -2
100
AcDbBlockReference
  2
_DOT
 10
374.3313019164257
 20
200.2397838893573
 30
0.0
 41
2.0
 42
2.0
 43
2.0
 50
180.0
  0
INSERT
  5
4C79
330
4C72
100
AcDbEntity
  8
寸法
 62
     0
370
    -2
100
AcDbBlockReference
  2
_DOT
 10
393.3313019164257
 20
200.2397838893573
 30
0.0
 41
2.0
 42
2.0
 43
2.0
  0
MTEXT
  5
4C7A
330
4C72
100
AcDbEntity
  8
寸法
 62
     0
100
AcDbMText
 10
383.8313019164257
 20
207.7397838893573
 30
0.0
 40
5.0
 41
0.0
 46
0.0
 71
     5
 72
     1
  1
\A1;19
  7
ＭＳ ゴシック
 73
     1
 44
1.0
  0
POINT
  5
4C7B
330
4C72
100
AcDbEntity
  8
Defpoints
 62
     0
100
AcDbPoint
 10
374.3313019164257
 20
172.4531603118752
 30
0.0
  0
POINT
  5
4C7C
330
4C72
100
AcDbEntity
  8
Defpoints
 62
     0
100
AcDbPoint
 10
393.3313019164257
 20
186.6286728320842
 30
0.0
  0
POINT
  5
4C7D
330
4C72
100
AcDbEntity
  8
Defpoints
 62
     0
100
AcDbPoint
 10
393.3313019164257
 20
200.2397838893573
 30
0.0
  0
ENDBLK
  5
4C74
330
4C72
100
AcDbEntity
  8
0
100
AcDbBlockEnd
  0
BLOCK
  5
4C7F
330
4C7E
100
AcDbEntity
  8
0
100
AcDbBlockBegin
  2
*D14
 70
     1
 10
0.0
 20
0.0
 30
0.0
  3
*D14
  1
*D104
  0
LINE
  5
4C81
330
4C7E
100
AcDbEntity
  8
寸法
 62
     0
370
    -2
100
AcDbLine
 10
393.3313019164257
 20
191.6286728320842
 30
0.0
 11
393.3313019164257
 21
200.2397838893573
 31
0.0
  0
LINE
  5
4C82
330
4C7E
100
AcDbEntity
  8
寸法
 62
     0
370
    -2
100
AcDbLine
 10
412.3313019164257
 20
177.4531603118752
 30
0.0
 11
412.3313019164257
 21
200.2397838893573
 31
0.0
  0
LINE
  5
4C83
330
4C7E
100
AcDbEntity
  8
寸法
 62
     0
370
    -2
100
AcDbLine
 10
395.3313019164257
 20
200.2397838893573
 30
0.0
 11
410.3313019164257
 21
200.2397838893573
 31
0.0
  0
INSERT
  5
4C84
330
4C7E
100
AcDbEntity
  8
寸法
 62
     0
370
    -2
100
AcDbBlockReference
  2
_DOT
 10
393.3313019164257
 20
200.2397838893573
 30
0.0
 41
2.0
 42
2.0
 43
2.0
 50
180.0
  0
INSERT
  5
4C85
330
4C7E
100
AcDbEntity
  8
寸法
 62
     0
370
    -2
100
AcDbBlockReference
  2
_DOT
 10
412.3313019164257
 20
200.2397838893573
 30
0.0
 41
2.0
 42
2.0
 43
2.0
  0
MTEXT
  5
4C86
330
4C7E
100
AcDbEntity
  8
寸法
 62
     0
100
AcDbMText
 10
402.8313019164257
 20
207.7397838893573
 30
0.0
 40
5.0
 41
0.0
 46
0.0
 71
     5
 72
     1
  1
\A1;19
  7
ＭＳ ゴシック
 73
     1
 44
1.0
  0
POINT
  5
4C87
330
4C7E
100
AcDbEntity
  8
Defpoints
 62
     0
100
AcDbPoint
 10
393.3313019164257
 20
186.6286728320842
 30
0.0
  0
POINT
  5
4C88
330
4C7E
100
AcDbEntity
  8
Defpoints
 62
     0
100
AcDbPoint
 10
412.3313019164257
 20
172.4531603118752
 30
0.0
  0
POINT
  5
4C89
330
4C7E
100
AcDbEntity
  8
Defpoints
 62
     0
100
AcDbPoint
 10
412.3313019164257
 20
200.2397838893573
 30
0.0
  0
ENDBLK
  5
4C80
330
4C7E
100
AcDbEntity
  8
0
100
AcDbBlockEnd
  0
BLOCK
  5
4C8B
330
4C8A
100
AcDbEntity
  8
0
100
AcDbBlockBegin
  2
*D15
 70
     1
 10
0.0
 20
0.0
 30
0.0
  3
*D15
  1
*D105
  0
LINE
  5
4C8D
330
4C8A
100
AcDbEntity
  8
寸法
 62
     0
370
    -2
100
AcDbLine
 10
412.3313019164257
 20
158.3002972752912
 30
0.0
 11
412.3313019164257
 21
130.5123896935981
 31
0.0
  0
LINE
  5
4C8E
330
4C8A
100
AcDbEntity
  8
寸法
 62
     0
370
    -2
100
AcDbLine
 10
374.3313019164257
 20
158.3002972752912
 30
0.0
 11
374.3313019164257
 21
130.5123896935981
 31
0.0
  0
LINE
  5
4C8F
330
4C8A
100
AcDbEntity
  8
寸法
 62
     0
370
    -2
100
AcDbLine
 10
374.3313019164257
 20
130.5123896935981
 30
0.0
 11
360.3413019164257
 21
130.5123896935981
 31
0.0
  0
LINE
  5
4C90
330
4C8A
100
AcDbEntity
  8
寸法
 62
     0
370
    -2
100
AcDbLine
 10
410.3313019164257
 20
130.5123896935981
 30
0.0
 11
376.3313019164257
 21
130.5123896935981
 31
0.0
  0
INSERT
  5
4C91
330
4C8A
100
AcDbEntity
  8
寸法
 62
     0
370
    -2
100
AcDbBlockReference
  2
_DOT
 10
412.3313019164257
 20
130.5123896935981
 30
0.0
 41
2.0
 42
2.0
 43
2.0
  0
INSERT
  5
4C92
330
4C8A
100
AcDbEntity
  8
寸法
 62
     0
370
    -2
100
AcDbBlockReference
  2
_DOT
 10
374.3313019164257
 20
130.5123896935981
 30
0.0
 41
2.0
 42
2.0
 43
2.0
 50
180.0
  0
MTEXT
  5
4C93
330
4C8A
100
AcDbEntity
  8
寸法
 62
     0
100
AcDbMText
 10
365.3363019164257
 20
135.0373896935981
 30
0.0
 40
5.0
 41
0.0
 46
0.0
 71
     5
 72
     1
  1
\A1;ø8
  7
ＭＳ ゴシック
 73
     1
 44
1.0
  0
POINT
  5
4C94
330
4C8A
100
AcDbEntity
  8
Defpoints
 62
     0
100
AcDbPoint
 10
412.3313019164257
 20
163.3002972752912
 30
0.0
  0
POINT
  5
4C95
330
4C8A
100
AcDbEntity
  8
Defpoints
 62
     0
100
AcDbPoint
 10
374.3313019164257
 20
163.3002972752912
 30
0.0
  0
POINT
  5
4C96
330
4C8A
100
AcDbEntity
  8
Defpoints
 62
     0
100
AcDbPoint
 10
374.3313019164257
 20
130.5123896935981
 30
0.0
  0
ENDBLK
  5
4C8C
330
4C8A
100
AcDbEntity
  8
0
100
AcDbBlockEnd
  0
BLOCK
  5
4EE3
330
4EE2
100
AcDbEntity
  8
0
100
AcDbBlockBegin
  2
*D16
 70
     1
 10
0.0
 20
0.0
 30
0.0
  3
*D16
  1

  0
LINE
  5
4EE5
330
4EE2
100
AcDbEntity
  8
モデル
 62
     0
370
    -2
100
AcDbLine
 10
749.5828985262247
 20
415.1968756195965
 30
0.0
 11
749.5828985262247
 21
421.0690997118156
 31
0.0
  0
LINE
  5
4EE6
330
4EE2
100
AcDbEntity
  8
モデル
 62
     0
370
    -2
100
AcDbLine
 10
787.5828985262247
 20
415.1968756195965
 30
0.0
 11
787.5828985262247
 21
421.0690997118156
 31
0.0
  0
LINE
  5
4EE7
330
4EE2
100
AcDbEntity
  8
モデル
 62
     0
370
    -2
100
AcDbLine
 10
751.5828985262247
 20
421.0690997118156
 30
0.0
 11
785.5828985262247
 21
421.0690997118156
 31
0.0
  0
INSERT
  5
4EE8
330
4EE2
100
AcDbEntity
  8
モデル
 62
     0
370
    -2
100
AcDbBlockReference
  2
_DOT
 10
749.5828985262247
 20
421.0690997118156
 30
0.0
 41
2.0
 42
2.0
 43
2.0
 50
180.0
  0
INSERT
  5
4EE9
330
4EE2
100
AcDbEntity
  8
モデル
 62
     0
370
    -2
100
AcDbBlockReference
  2
_DOT
 10
787.5828985262247
 20
421.0690997118156
 30
0.0
 41
2.0
 42
2.0
 43
2.0
  0
MTEXT
  5
4EEA
330
4EE2
100
AcDbEntity
  8
モデル
 62
     0
100
AcDbMText
 10
768.5828985262247
 20
428.5690997118156
 30
0.0
 40
5.0
 41
0.0
 46
0.0
 71
     5
 72
     1
  1
\A1;38
  7
ＭＳ ゴシック
 73
     1
 44
1.0
  0
POINT
  5
4EEB
330
4EE2
100
AcDbEntity
  8
Defpoints
 62
     0
100
AcDbPoint
 10
749.5828985262247
 20
410.1968756195965
 30
0.0
  0
POINT
  5
4EEC
330
4EE2
100
AcDbEntity
  8
Defpoints
 62
     0
100
AcDbPoint
 10
787.5828985262247
 20
410.1968756195965
 30
0.0
  0
POINT
  5
4EED
330
4EE2
100
AcDbEntity
  8
Defpoints
 62
     0
100
AcDbPoint
 10
787.5828985262247
 20
421.0690997118156
 30
0.0
  0
ENDBLK
  5
4EE4
330
4EE2
100
AcDbEntity
  8
0
100
AcDbBlockEnd
  0
BLOCK
  5
4FBF
330
4FBE
100
AcDbEntity
  8
0
100
AcDbBlockBegin
  2
*D17
 70
     1
 10
0.0
 20
0.0
 30
0.0
  3
*D17
  1

  0
LINE
  5
4FC1
330
4FBE
100
AcDbEntity
  8
寸法
 62
     0
370
    -2
100
AcDbLine
 10
112.1160840779118
 20
351.4580557552677
 30
0.0
 11
94.2486506697812
 21
351.4580557552677
 31
0.0
  0
LINE
  5
4FC2
330
4FBE
100
AcDbEntity
  8
寸法
 62
     0
370
    -2
100
AcDbLine
 10
112.1160840779118
 20
358.4580557552677
 30
0.0
 11
94.2486506697812
 21
358.4580557552677
 31
0.0
  0
LINE
  5
4FC3
330
4FBE
100
AcDbEntity
  8
寸法
 62
     0
370
    -2
100
AcDbLine
 10
94.2486506697812
 20
353.4580557552677
 30
0.0
 11
94.2486506697812
 21
356.4580557552677
 31
0.0
  0
INSERT
  5
4FC4
330
4FBE
100
AcDbEntity
  8
寸法
 62
     0
370
    -2
100
AcDbBlockReference
  2
_DOT
 10
94.2486506697812
 20
351.4580557552677
 30
0.0
 41
2.0
 42
2.0
 43
2.0
 50
270.0
  0
INSERT
  5
4FC5
330
4FBE
100
AcDbEntity
  8
寸法
 62
     0
370
    -2
100
AcDbBlockReference
  2
_DOT
 10
94.2486506697812
 20
358.4580557552677
 30
0.0
 41
2.0
 42
2.0
 43
2.0
 50
90.0
  0
MTEXT
  5
4FC6
330
4FBE
100
AcDbEntity
  8
寸法
 62
     0
100
AcDbMText
 10
86.7486506697812
 20
355.0121221577136
 30
0.0
 40
5.0
 41
0.0
 46
0.0
 71
     5
 72
     1
  1
\A1;7
  7
ＭＳ ゴシック
 11
0.0
 21
1.0
 31
0.0
 73
     1
 44
1.0
  0
POINT
  5
4FC7
330
4FBE
100
AcDbEntity
  8
Defpoints
 62
     0
100
AcDbPoint
 10
117.1160840779118
 20
351.4580557552677
 30
0.0
  0
POINT
  5
4FC8
330
4FBE
100
AcDbEntity
  8
Defpoints
 62
     0
100
AcDbPoint
 10
117.1160840779118
 20
358.4580557552677
 30
0.0
  0
POINT
  5
4FC9
330
4FBE
100
AcDbEntity
  8
Defpoints
 62
     0
100
AcDbPoint
 10
94.2486506697812
 20
358.4580557552677
 30
0.0
  0
ENDBLK
  5
4FC0
330
4FBE
100
AcDbEntity
  8
0
100
AcDbBlockEnd
  0
BLOCK
  5
4FFC
330
4FFB
100
AcDbEntity
  8
0
100
AcDbBlockBegin
  2
*D18
 70
     1
 10
0.0
 20
0.0
 30
0.0
  3
*D18
  1
*D93
  0
LINE
  5
4FFD
330
4FFB
100
AcDbEntity
  8
寸法
 62
     0
370
    -2
100
AcDbLine
 10
1.0
 20
5.0
 30
0.0
 11
1.0
 21
13.22393629614186
 31
0.0
  0
LINE
  5
4FFE
330
4FFB
100
AcDbEntity
  8
寸法
 62
     0
370
    -2
100
AcDbLine
 10
39.0
 20
5.0
 30
0.0
 11
39.0
 21
13.22393629614186
 31
0.0
  0
LINE
  5
4FFF
330
4FFB
100
AcDbEntity
  8
寸法
 62
     0
370
    -2
100
AcDbLine
 10
3.0
 20
13.22393629614186
 30
0.0
 11
37.0
 21
13.22393629614186
 31
0.0
  0
INSERT
  5
5000
330
4FFB
100
AcDbEntity
  8
寸法
 62
     0
370
    -2
100
AcDbBlockReference
  2
_DOT
 10
1.0
 20
13.22393629614186
 30
0.0
 41
2.0
 42
2.0
 43
2.0
 50
180.0
  0
INSERT
  5
5001
330
4FFB
100
AcDbEntity
  8
寸法
 62
     0
370
    -2
100
AcDbBlockReference
  2
_DOT
 10
39.0
 20
13.22393629614186
 30
0.0
 41
2.0
 42
2.0
 43
2.0
  0
MTEXT
  5
5002
330
4FFB
100
AcDbEntity
  8
寸法
 62
     0
100
AcDbMText
 10
20.0
 20
20.72393629614186
 30
0.0
 40
5.0
 41
0.0
 46
0.0
 71
     5
 72
     1
  1
\A1;38
  7
ＭＳ ゴシック
 73
     1
 44
1.0
  0
POINT
  5
5003
330
4FFB
100
AcDbEntity
  8
Defpoints
 62
     0
100
AcDbPoint
 10
1.0
 20
0.0
 30
0.0
  0
POINT
  5
5004
330
4FFB
100
AcDbEntity
  8
Defpoints
 62
     0
100
AcDbPoint
 10
39.0
 20
0.0
 30
0.0
  0
POINT
  5
5005
330
4FFB
100
AcDbEntity
  8
Defpoints
 62
     0
100
AcDbPoint
 10
39.0
 20
13.22393629614186
 30
0.0
  0
ENDBLK
  5
5006
330
4FFB
100
AcDbEntity
  8
0
100
AcDbBlockEnd
  0
BLOCK
  5
500C
330
500B
100
AcDbEntity
  8
0
100
AcDbBlockBegin
  2
*D19
 70
     1
 10
0.0
 20
0.0
 30
0.0
  3
*D19
  1

  0
LINE
  5
500E
330
500B
100
AcDbEntity
  8
寸法
 62
     0
370
    -2
100
AcDbLine
 10
182.3577572373188
 20
354.9517354443373
 30
0.0
 11
182.3577572373188
 21
363.1756717404792
 31
0.0
  0
LINE
  5
500F
330
500B
100
AcDbEntity
  8
寸法
 62
     0
370
    -2
100
AcDbLine
 10
220.3577572373188
 20
354.9517354443373
 30
0.0
 11
220.3577572373188
 21
363.1756717404792
 31
0.0
  0
LINE
  5
5010
330
500B
100
AcDbEntity
  8
寸法
 62
     0
370
    -2
100
AcDbLine
 10
184.3577572373188
 20
363.1756717404792
 30
0.0
 11
218.3577572373188
 21
363.1756717404792
 31
0.0
  0
INSERT
  5
5011
330
500B
100
AcDbEntity
  8
寸法
 62
     0
370
    -2
100
AcDbBlockReference
  2
_DOT
 10
182.3577572373188
 20
363.1756717404792
 30
0.0
 41
2.0
 42
2.0
 43
2.0
 50
180.0
  0
INSERT
  5
5012
330
500B
100
AcDbEntity
  8
寸法
 62
     0
370
    -2
100
AcDbBlockReference
  2
_DOT
 10
220.3577572373188
 20
363.1756717404792
 30
0.0
 41
2.0
 42
2.0
 43
2.0
  0
MTEXT
  5
5013
330
500B
100
AcDbEntity
  8
寸法
 62
     0
100
AcDbMText
 10
201.3577572373188
 20
370.6756717404792
 30
0.0
 40
5.0
 41
0.0
 46
0.0
 71
     5
 72
     1
  1
\A1;38
  7
ＭＳ ゴシック
 73
     1
 44
1.0
  0
POINT
  5
5014
330
500B
100
AcDbEntity
  8
Defpoints
 62
     0
100
AcDbPoint
 10
182.3577572373188
 20
349.9517354443373
 30
0.0
  0
POINT
  5
5015
330
500B
100
AcDbEntity
  8
Defpoints
 62
     0
100
AcDbPoint
 10
220.3577572373188
 20
349.9517354443373
 30
0.0
  0
POINT
  5
5016
330
500B
100
AcDbEntity
  8
Defpoints
 62
     0
100
AcDbPoint
 10
220.3577572373188
 20
363.1756717404792
 30
0.0
  0
ENDBLK
  5
500D
330
500B
100
AcDbEntity
  8
0
100
AcDbBlockEnd
  0
BLOCK
  5
501B
330
501A
100
AcDbEntity
  8
0
100
AcDbBlockBegin
  2
*D20
 70
     1
 10
0.0
 20
0.0
 30
0.0
  3
*D20
  1

  0
LINE
  5
501D
330
501A
100
AcDbEntity
  8
寸法
 62
     0
370
    -2
100
AcDbLine
 10
173.8577572373189
 20
349.6087635329599
 30
0.0
 11
173.8577572373189
 21
378.5473272247522
 31
0.0
  0
LINE
  5
501E
330
501A
100
AcDbEntity
  8
寸法
 62
     0
370
    -2
100
AcDbLine
 10
228.8577572373189
 20
349.6087635329599
 30
0.0
 11
228.8577572373189
 21
378.5473272247522
 31
0.0
  0
LINE
  5
501F
330
501A
100
AcDbEntity
  8
寸法
 62
     0
370
    -2
100
AcDbLine
 10
175.8577572373189
 20
378.5473272247522
 30
0.0
 11
226.8577572373189
 21
378.5473272247522
 31
0.0
  0
INSERT
  5
5020
330
501A
100
AcDbEntity
  8
寸法
 62
     0
370
    -2
100
AcDbBlockReference
  2
_DOT
 10
173.8577572373189
 20
378.5473272247522
 30
0.0
 41
2.0
 42
2.0
 43
2.0
 50
180.0
  0
INSERT
  5
5021
330
501A
100
AcDbEntity
  8
寸法
 62
     0
370
    -2
100
AcDbBlockReference
  2
_DOT
 10
228.8577572373189
 20
378.5473272247522
 30
0.0
 41
2.0
 42
2.0
 43
2.0
  0
MTEXT
  5
5022
330
501A
100
AcDbEntity
  8
寸法
 62
     0
100
AcDbMText
 10
201.3577572373189
 20
386.0473272247522
 30
0.0
 40
5.0
 41
0.0
 46
0.0
 71
     5
 72
     1
  1
\A1;55
  7
ＭＳ ゴシック
 73
     1
 44
1.0
  0
POINT
  5
5023
330
501A
100
AcDbEntity
  8
Defpoints
 62
     0
100
AcDbPoint
 10
173.8577572373189
 20
344.6087635329599
 30
0.0
  0
POINT
  5
5024
330
501A
100
AcDbEntity
  8
Defpoints
 62
     0
100
AcDbPoint
 10
228.8577572373189
 20
344.6087635329599
 30
0.0
  0
POINT
  5
5025
330
501A
100
AcDbEntity
  8
Defpoints
 62
     0
100
AcDbPoint
 10
228.8577572373189
 20
378.5473272247522
 30
0.0
  0
ENDBLK
  5
501C
330
501A
100
AcDbEntity
  8
0
100
AcDbBlockEnd
  0
BLOCK
  5
502D
330
502C
100
AcDbEntity
  8
0
100
AcDbBlockBegin
  2
*D21
 70
     1
 10
0.0
 20
0.0
 30
0.0
  3
*D21
  1

  0
LINE
  5
502F
330
502C
100
AcDbEntity
  8
寸法
 62
     0
370
    -2
100
AcDbLine
 10
127.6030341284625
 20
296.5692949483513
 30
0.0
 11
100.8605896638784
 21
296.5692949483513
 31
0.0
  0
LINE
  5
5030
330
502C
100
AcDbEntity
  8
寸法
 62
     0
370
    -2
100
AcDbLine
 10
112.1160840779118
 20
362.5692949483513
 30
0.0
 11
100.8605896638784
 21
362.5692949483513
 31
0.0
  0
LINE
  5
5031
330
502C
100
AcDbEntity
  8
寸法
 62
     0
370
    -2
100
AcDbLine
 10
100.8605896638784
 20
298.5692949483513
 30
0.0
 11
100.8605896638784
 21
360.5692949483513
 31
0.0
  0
INSERT
  5
5032
330
502C
100
AcDbEntity
  8
寸法
 62
     0
370
    -2
100
AcDbBlockReference
  2
_DOT
 10
100.8605896638784
 20
296.5692949483513
 30
0.0
 41
2.0
 42
2.0
 43
2.0
 50
270.0
  0
INSERT
  5
5033
330
502C
100
AcDbEntity
  8
寸法
 62
     0
370
    -2
100
AcDbBlockReference
  2
_DOT
 10
100.8605896638784
 20
362.5692949483513
 30
0.0
 41
2.0
 42
2.0
 43
2.0
 50
90.0
  0
MTEXT
  5
5034
330
502C
100
AcDbEntity
  8
寸法
 62
     0
100
AcDbMText
 10
93.36058966387839
 20
329.5692949483513
 30
0.0
 40
5.0
 41
0.0
 46
0.0
 71
     5
 72
     1
  1
\A1;X
  7
ＭＳ ゴシック
 11
0.0
 21
1.0
 31
0.0
 73
     1
 44
1.0
  0
POINT
  5
5035
330
502C
100
AcDbEntity
  8
Defpoints
 62
     0
100
AcDbPoint
 10
132.6030341284625
 20
296.5692949483513
 30
0.0
  0
POINT
  5
5036
330
502C
100
AcDbEntity
  8
Defpoints
 62
     0
100
AcDbPoint
 10
117.1160840779118
 20
362.5692949483513
 30
0.0
  0
POINT
  5
5037
330
502C
100
AcDbEntity
  8
Defpoints
 62
     0
100
AcDbPoint
 10
100.8605896638784
 20
362.5692949483513
 30
0.0
  0
ENDBLK
  5
502E
330
502C
100
AcDbEntity
  8
0
100
AcDbBlockEnd
  0
BLOCK
  5
504D
330
504C
100
AcDbEntity
  8
0
100
AcDbBlockBegin
  2
*D22
 70
     1
 10
0.0
 20
0.0
 30
0.0
  3
*D22
  1

  0
LINE
  5
504F
330
504C
100
AcDbEntity
  8
寸法
 62
     0
370
    -2
100
AcDbLine
 10
381.4193843151289
 20
321.6087635329599
 30
0.0
 11
352.8590261883579
 21
321.6087635329599
 31
0.0
  0
LINE
  5
5050
330
504C
100
AcDbEntity
  8
寸法
 62
     0
370
    -2
100
AcDbLine
 10
381.4193843151289
 20
271.6087635329599
 30
0.0
 11
352.8590261883579
 21
271.6087635329599
 31
0.0
  0
LINE
  5
5051
330
504C
100
AcDbEntity
  8
寸法
 62
     0
370
    -2
100
AcDbLine
 10
352.8590261883579
 20
319.6087635329599
 30
0.0
 11
352.8590261883579
 21
273.6087635329599
 31
0.0
  0
INSERT
  5
5052
330
504C
100
AcDbEntity
  8
寸法
 62
     0
370
    -2
100
AcDbBlockReference
  2
_DOT
 10
352.8590261883579
 20
321.6087635329599
 30
0.0
 41
2.0
 42
2.0
 43
2.0
 50
90.0
  0
INSERT
  5
5053
330
504C
100
AcDbEntity
  8
寸法
 62
     0
370
    -2
100
AcDbBlockReference
  2
_DOT
 10
352.8590261883579
 20
271.6087635329599
 30
0.0
 41
2.0
 42
2.0
 43
2.0
 50
270.0
  0
MTEXT
  5
5054
330
504C
100
AcDbEntity
  8
寸法
 62
     0
100
AcDbMText
 10
345.3590261883579
 20
296.60876353296
 30
0.0
 40
5.0
 41
0.0
 46
0.0
 71
     5
 72
     1
  1
\A1;50
  7
ＭＳ ゴシック
 11
0.0
 21
1.0
 31
0.0
 73
     1
 44
1.0
  0
POINT
  5
5055
330
504C
100
AcDbEntity
  8
Defpoints
 62
     0
100
AcDbPoint
 10
386.4193843151289
 20
321.6087635329599
 30
0.0
  0
POINT
  5
5056
330
504C
100
AcDbEntity
  8
Defpoints
 62
     0
100
AcDbPoint
 10
386.4193843151289
 20
271.6087635329599
 30
0.0
  0
POINT
  5
5057
330
504C
100
AcDbEntity
  8
Defpoints
 62
     0
100
AcDbPoint
 10
352.8590261883579
 20
271.6087635329599
 30
0.0
  0
ENDBLK
  5
504E
330
504C
100
AcDbEntity
  8
0
100
AcDbBlockEnd
  0
BLOCK
  5
5071
330
5070
100
AcDbEntity
  8
0
100
AcDbBlockBegin
  2
*D23
 70
     1
 10
0.0
 20
0.0
 30
0.0
  3
*D23
  1

  0
LINE
  5
5073
330
5070
100
AcDbEntity
  8
寸法
 62
     0
370
    -2
100
AcDbLine
 10
374.2966981595092
 20
177.4531603118752
 30
0.0
 11
374.2966981595092
 21
200.2397838893573
 31
0.0
  0
LINE
  5
5074
330
5070
100
AcDbEntity
  8
寸法
 62
     0
370
    -2
100
AcDbLine
 10
393.2966981595092
 20
191.6286728320842
 30
0.0
 11
393.2966981595092
 21
200.2397838893573
 31
0.0
  0
LINE
  5
5075
330
5070
100
AcDbEntity
  8
寸法
 62
     0
370
    -2
100
AcDbLine
 10
376.2966981595092
 20
200.2397838893573
 30
0.0
 11
391.2966981595092
 21
200.2397838893573
 31
0.0
  0
INSERT
  5
5076
330
5070
100
AcDbEntity
  8
寸法
 62
     0
370
    -2
100
AcDbBlockReference
  2
_DOT
 10
374.2966981595092
 20
200.2397838893573
 30
0.0
 41
2.0
 42
2.0
 43
2.0
 50
180.0
  0
INSERT
  5
5077
330
5070
100
AcDbEntity
  8
寸法
 62
     0
370
    -2
100
AcDbBlockReference
  2
_DOT
 10
393.2966981595092
 20
200.2397838893573
 30
0.0
 41
2.0
 42
2.0
 43
2.0
  0
MTEXT
  5
5078
330
5070
100
AcDbEntity
  8
寸法
 62
     0
100
AcDbMText
 10
383.7966981595092
 20
207.7397838893573
 30
0.0
 40
5.0
 41
0.0
 46
0.0
 71
     5
 72
     1
  1
\A1;19
  7
ＭＳ ゴシック
 73
     1
 44
1.0
  0
POINT
  5
5079
330
5070
100
AcDbEntity
  8
Defpoints
 62
     0
100
AcDbPoint
 10
374.2966981595092
 20
172.4531603118752
 30
0.0
  0
POINT
  5
507A
330
5070
100
AcDbEntity
  8
Defpoints
 62
     0
100
AcDbPoint
 10
393.2966981595092
 20
186.6286728320842
 30
0.0
  0
POINT
  5
507B
330
5070
100
AcDbEntity
  8
Defpoints
 62
     0
100
AcDbPoint
 10
393.2966981595092
 20
200.2397838893573
 30
0.0
  0
ENDBLK
  5
5072
330
5070
100
AcDbEntity
  8
0
100
AcDbBlockEnd
  0
BLOCK
  5
507D
330
507C
100
AcDbEntity
  8
0
100
AcDbBlockBegin
  2
*D24
 70
     1
 10
0.0
 20
0.0
 30
0.0
  3
*D24
  1

  0
LINE
  5
507F
330
507C
100
AcDbEntity
  8
寸法
 62
     0
370
    -2
100
AcDbLine
 10
393.2966981595092
 20
191.6286728320842
 30
0.0
 11
393.2966981595092
 21
200.2397838893573
 31
0.0
  0
LINE
  5
5080
330
507C
100
AcDbEntity
  8
寸法
 62
     0
370
    -2
100
AcDbLine
 10
412.2966981595092
 20
177.4531603118752
 30
0.0
 11
412.2966981595092
 21
200.2397838893573
 31
0.0
  0
LINE
  5
5081
330
507C
100
AcDbEntity
  8
寸法
 62
     0
370
    -2
100
AcDbLine
 10
395.2966981595092
 20
200.2397838893573
 30
0.0
 11
410.2966981595092
 21
200.2397838893573
 31
0.0
  0
INSERT
  5
5082
330
507C
100
AcDbEntity
  8
寸法
 62
     0
370
    -2
100
AcDbBlockReference
  2
_DOT
 10
393.2966981595092
 20
200.2397838893573
 30
0.0
 41
2.0
 42
2.0
 43
2.0
 50
180.0
  0
INSERT
  5
5083
330
507C
100
AcDbEntity
  8
寸法
 62
     0
370
    -2
100
AcDbBlockReference
  2
_DOT
 10
412.2966981595092
 20
200.2397838893573
 30
0.0
 41
2.0
 42
2.0
 43
2.0
  0
MTEXT
  5
5084
330
507C
100
AcDbEntity
  8
寸法
 62
     0
100
AcDbMText
 10
402.7966981595092
 20
207.7397838893573
 30
0.0
 40
5.0
 41
0.0
 46
0.0
 71
     5
 72
     1
  1
\A1;19
  7
ＭＳ ゴシック
 73
     1
 44
1.0
  0
POINT
  5
5085
330
507C
100
AcDbEntity
  8
Defpoints
 62
     0
100
AcDbPoint
 10
393.2966981595092
 20
186.6286728320842
 30
0.0
  0
POINT
  5
5086
330
507C
100
AcDbEntity
  8
Defpoints
 62
     0
100
AcDbPoint
 10
412.2966981595092
 20
172.4531603118752
 30
0.0
  0
POINT
  5
5087
330
507C
100
AcDbEntity
  8
Defpoints
 62
     0
100
AcDbPoint
 10
412.2966981595092
 20
200.2397838893573
 30
0.0
  0
ENDBLK
  5
507E
330
507C
100
AcDbEntity
  8
0
100
AcDbBlockEnd
  0
BLOCK
  5
5089
330
5088
100
AcDbEntity
  8
0
100
AcDbBlockBegin
  2
*D25
 70
     1
 10
0.0
 20
0.0
 30
0.0
  3
*D25
  1

  0
LINE
  5
508B
330
5088
100
AcDbEntity
  8
寸法
 62
     0
370
    -2
100
AcDbLine
 10
412.2966981595092
 20
158.3002972752912
 30
0.0
 11
412.2966981595092
 21
130.5123896935981
 31
0.0
  0
LINE
  5
508C
330
5088
100
AcDbEntity
  8
寸法
 62
     0
370
    -2
100
AcDbLine
 10
374.2966981595092
 20
158.3002972752912
 30
0.0
 11
374.2966981595092
 21
130.5123896935981
 31
0.0
  0
LINE
  5
508D
330
5088
100
AcDbEntity
  8
寸法
 62
     0
370
    -2
100
AcDbLine
 10
374.2966981595092
 20
130.5123896935981
 30
0.0
 11
360.3066981595092
 21
130.5123896935981
 31
0.0
  0
LINE
  5
508E
330
5088
100
AcDbEntity
  8
寸法
 62
     0
370
    -2
100
AcDbLine
 10
410.2966981595092
 20
130.5123896935981
 30
0.0
 11
376.2966981595092
 21
130.5123896935981
 31
0.0
  0
LINE
  5
508F
330
5088
100
AcDbEntity
  8
寸法
 62
     0
370
    -2
100
AcDbLine
 10
376.2966981595092
 20
130.5123896935981
 30
0.0
 11
378.2966981595092
 21
130.5123896935981
 31
0.0
  0
INSERT
  5
5090
330
5088
100
AcDbEntity
  8
寸法
 62
     0
370
    -2
100
AcDbBlockReference
  2
_DOT
 10
412.2966981595092
 20
130.5123896935981
 30
0.0
 41
2.0
 42
2.0
 43
2.0
  0
INSERT
  5
5091
330
5088
100
AcDbEntity
  8
寸法
 62
     0
370
    -2
100
AcDbBlockReference
  2
_DOT
 10
374.2966981595092
 20
130.5123896935981
 30
0.0
 41
2.0
 42
2.0
 43
2.0
 50
180.0
  0
MTEXT
  5
5092
330
5088
100
AcDbEntity
  8
寸法
 62
     0
100
AcDbMText
 10
365.3016981595092
 20
135.0373896935981
 30
0.0
 40
5.0
 41
0.0
 46
0.0
 71
     5
 72
     1
  1
\A1;ø8
  7
ＭＳ ゴシック
 73
     1
 44
1.0
  0
POINT
  5
5093
330
5088
100
AcDbEntity
  8
Defpoints
 62
     0
100
AcDbPoint
 10
412.2966981595092
 20
163.3002972752912
 30
0.0
  0
POINT
  5
5094
330
5088
100
AcDbEntity
  8
Defpoints
 62
     0
100
AcDbPoint
 10
374.2966981595092
 20
163.3002972752912
 30
0.0
  0
POINT
  5
5095
330
5088
100
AcDbEntity
  8
Defpoints
 62
     0
100
AcDbPoint
 10
374.2966981595092
 20
130.5123896935981
 30
0.0
  0
ENDBLK
  5
508A
330
5088
100
AcDbEntity
  8
0
100
AcDbBlockEnd
  0
BLOCK
  5
50F2
330
50F1
100
AcDbEntity
  8
0
100
AcDbBlockBegin
  2
*D26
 70
     1
 10
0.0
 20
0.0
 30
0.0
  3
*D26
  1

  0
LINE
  5
50F4
330
50F1
100
AcDbEntity
  8
寸法
 62
     0
370
    -2
100
AcDbLine
 10
233.8577572373189
 20
344.6087635329599
 30
0.0
 11
253.8390086455331
 21
344.6087635329599
 31
0.0
  0
LINE
  5
50F5
330
50F1
100
AcDbEntity
  8
寸法
 62
     0
370
    -2
100
AcDbLine
 10
206.3577572373189
 20
271.6087635329599
 30
0.0
 11
253.8390086455331
 21
271.6087635329599
 31
0.0
  0
LINE
  5
50F6
330
50F1
100
AcDbEntity
  8
寸法
 62
     0
370
    -2
100
AcDbLine
 10
253.8390086455331
 20
342.6087635329599
 30
0.0
 11
253.8390086455331
 21
273.6087635329599
 31
0.0
  0
INSERT
  5
50F7
330
50F1
100
AcDbEntity
  8
寸法
 62
     0
370
    -2
100
AcDbBlockReference
  2
_DOT
 10
253.8390086455331
 20
344.6087635329599
 30
0.0
 41
2.0
 42
2.0
 43
2.0
 50
90.0
  0
INSERT
  5
50F8
330
50F1
100
AcDbEntity
  8
寸法
 62
     0
370
    -2
100
AcDbBlockReference
  2
_DOT
 10
253.8390086455331
 20
271.6087635329599
 30
0.0
 41
2.0
 42
2.0
 43
2.0
 50
270.0
  0
MTEXT
  5
50F9
330
50F1
100
AcDbEntity
  8
寸法
 62
     0
100
AcDbMText
 10
246.3390086455331
 20
308.1087635329599
 30
0.0
 40
5.0
 41
0.0
 46
0.0
 71
     5
 72
     1
  1
\A1;73
  7
ＭＳ ゴシック
 11
0.0
 21
1.0
 31
0.0
 73
     1
 44
1.0
  0
POINT
  5
50FA
330
50F1
100
AcDbEntity
  8
Defpoints
 62
     0
100
AcDbPoint
 10
228.8577572373189
 20
344.6087635329599
 30
0.0
  0
POINT
  5
50FB
330
50F1
100
AcDbEntity
  8
Defpoints
 62
     0
100
AcDbPoint
 10
201.3577572373189
 20
271.6087635329599
 30
0.0
  0
POINT
  5
50FC
330
50F1
100
AcDbEntity
  8
Defpoints
 62
     0
100
AcDbPoint
 10
253.8390086455331
 20
271.6087635329599
 30
0.0
  0
ENDBLK
  5
50F3
330
50F1
100
AcDbEntity
  8
0
100
AcDbBlockEnd
  0
BLOCK
  5
5177
330
5176
100
AcDbEntity
  8
0
100
AcDbBlockBegin
  2
*D27
 70
     1
 10
0.0
 20
0.0
 30
0.0
  3
*D27
  1

  0
LINE
  5
5178
330
5176
100
AcDbEntity
  8
寸法
 62
     0
370
    -2
100
AcDbLine
 10
38.56035812677101
 20
51.0
 30
0.0
 11
10.0
 21
51.0
 31
0.0
  0
LINE
  5
5179
330
5176
100
AcDbEntity
  8
寸法
 62
     0
370
    -2
100
AcDbLine
 10
38.56035812677101
 20
1.0
 30
0.0
 11
9.999999999999998
 21
1.0
 31
0.0
  0
LINE
  5
517A
330
5176
100
AcDbEntity
  8
寸法
 62
     0
370
    -2
100
AcDbLine
 10
10.0
 20
49.0
 30
0.0
 11
9.999999999999998
 21
3.0
 31
0.0
  0
INSERT
  5
517B
330
5176
100
AcDbEntity
  8
寸法
 62
     0
370
    -2
100
AcDbBlockReference
  2
_DOT
 10
10.0
 20
51.0
 30
0.0
 41
2.0
 42
2.0
 43
2.0
 50
90.0
  0
INSERT
  5
517C
330
5176
100
AcDbEntity
  8
寸法
 62
     0
370
    -2
100
AcDbBlockReference
  2
_DOT
 10
9.999999999999998
 20
1.0
 30
0.0
 41
2.0
 42
2.0
 43
2.0
 50
270.0
  0
MTEXT
  5
517D
330
5176
100
AcDbEntity
  8
寸法
 62
     0
100
AcDbMText
 10
2.5
 20
26.00000000000006
 30
0.0
 40
5.0
 41
0.0
 46
0.0
 71
     5
 72
     1
  1
\A1;50
  7
ＭＳ ゴシック
 11
7.105427357601002E-17
 21
1.0
 31
0.0
 73
     1
 44
1.0
  0
POINT
  5
517E
330
5176
100
AcDbEntity
  8
Defpoints
 62
     0
100
AcDbPoint
 10
43.56035812677101
 20
51.0
 30
0.0
  0
POINT
  5
517F
330
5176
100
AcDbEntity
  8
Defpoints
 62
     0
100
AcDbPoint
 10
43.56035812677101
 20
1.0
 30
0.0
  0
POINT
  5
5180
330
5176
100
AcDbEntity
  8
Defpoints
 62
     0
100
AcDbPoint
 10
10.0
 20
1.000000000000002
 30
0.0
  0
ENDBLK
  5
5181
330
5176
100
AcDbEntity
  8
0
100
AcDbBlockEnd
  0
BLOCK
  5
5187
330
5186
100
AcDbEntity
  8
0
100
AcDbBlockBegin
  2
*D28
 70
     1
 10
0.0
 20
0.0
 30
0.0
  3
*D28
  1

  0
LINE
  5
5189
330
5186
100
AcDbEntity
  8
寸法
 62
     0
370
    -2
100
AcDbLine
 10
114.6160840779118
 20
286.3102498763052
 30
0.0
 11
114.6160840779117
 21
249.1324392999665
 31
0.0
  0
LINE
  5
518A
330
5186
100
AcDbEntity
  8
寸法
 62
     0
370
    -2
100
AcDbLine
 10
174.588444068698
 20
287.5977422385031
 30
0.0
 11
174.5884440686979
 21
249.1324392999663
 31
0.0
  0
LINE
  5
518B
330
5186
100
AcDbEntity
  8
寸法
 62
     0
370
    -2
100
AcDbLine
 10
116.6160840779117
 20
249.1324392999665
 30
0.0
 11
172.5884440686979
 21
249.1324392999663
 31
0.0
  0
INSERT
  5
518C
330
5186
100
AcDbEntity
  8
寸法
 62
     0
370
    -2
100
AcDbBlockReference
  2
_DOT
 10
114.6160840779117
 20
249.1324392999665
 30
0.0
 41
2.0
 42
2.0
 43
2.0
 50
179.9999999999998
  0
INSERT
  5
518D
330
5186
100
AcDbEntity
  8
寸法
 62
     0
370
    -2
100
AcDbBlockReference
  2
_DOT
 10
174.5884440686979
 20
249.1324392999663
 30
0.0
 41
2.0
 42
2.0
 43
2.0
 50
359.9999999999998
  0
MTEXT
  5
518E
330
5186
100
AcDbEntity
  8
寸法
 62
     0
100
AcDbMText
 10
144.6160840779117
 20
256.6324392999664
 30
0.0
 40
5.0
 41
0.0
 46
0.0
 71
     5
 72
     1
  1
\A1;60
  7
ＭＳ ゴシック
 73
     1
 44
1.0
  0
POINT
  5
518F
330
5186
100
AcDbEntity
  8
Defpoints
 62
     0
100
AcDbPoint
 10
114.6160840779118
 20
291.3102498763052
 30
0.0
  0
POINT
  5
5190
330
5186
100
AcDbEntity
  8
Defpoints
 62
     0
100
AcDbPoint
 10
174.588444068698
 20
292.5977422385031
 30
0.0
  0
POINT
  5
5191
330
5186
100
AcDbEntity
  8
Defpoints
 62
     0
100
AcDbPoint
 10
174.5884440686979
 20
249.1324392999663
 30
0.0
  0
ENDBLK
  5
5188
330
5186
100
AcDbEntity
  8
0
100
AcDbBlockEnd
  0
BLOCK
  5
51C8
330
51C7
100
AcDbEntity
  8
0
100
AcDbBlockBegin
  2
*D29
 70
     1
 10
0.0
 20
0.0
 30
0.0
  3
*D29
  1

  0
LINE
  5
51C9
330
51C7
100
AcDbEntity
  8
寸法
 62
     0
370
    -2
100
AcDbLine
 10
1.0
 20
5.0
 30
0.0
 11
1.0
 21
33.9385636917923
 31
0.0
  0
LINE
  5
51CA
330
51C7
100
AcDbEntity
  8
寸法
 62
     0
370
    -2
100
AcDbLine
 10
56.0
 20
5.0
 30
0.0
 11
56.0
 21
33.9385636917923
 31
0.0
  0
LINE
  5
51CB
330
51C7
100
AcDbEntity
  8
寸法
 62
     0
370
    -2
100
AcDbLine
 10
3.0
 20
33.9385636917923
 30
0.0
 11
54.0
 21
33.9385636917923
 31
0.0
  0
INSERT
  5
51CC
330
51C7
100
AcDbEntity
  8
寸法
 62
     0
370
    -2
100
AcDbBlockReference
  2
_DOT
 10
1.0
 20
33.9385636917923
 30
0.0
 41
2.0
 42
2.0
 43
2.0
 50
180.0
  0
INSERT
  5
51CD
330
51C7
100
AcDbEntity
  8
寸法
 62
     0
370
    -2
100
AcDbBlockReference
  2
_DOT
 10
56.0
 20
33.9385636917923
 30
0.0
 41
2.0
 42
2.0
 43
2.0
  0
MTEXT
  5
51CE
330
51C7
100
AcDbEntity
  8
寸法
 62
     0
100
AcDbMText
 10
28.5
 20
41.4385636917923
 30
0.0
 40
5.0
 41
0.0
 46
0.0
 71
     5
 72
     1
  1
\A1;55
  7
ＭＳ ゴシック
 73
     1
 44
1.0
  0
POINT
  5
51CF
330
51C7
100
AcDbEntity
  8
Defpoints
 62
     0
100
AcDbPoint
 10
1.0
 20
0.0
 30
0.0
  0
POINT
  5
51D0
330
51C7
100
AcDbEntity
  8
Defpoints
 62
     0
100
AcDbPoint
 10
56.0
 20
0.0
 30
0.0
  0
POINT
  5
51D1
330
51C7
100
AcDbEntity
  8
Defpoints
 62
     0
100
AcDbPoint
 10
56.0
 20
33.9385636917923
 30
0.0
  0
ENDBLK
  5
51D2
330
51C7
100
AcDbEntity
  8
0
100
AcDbBlockEnd
  0
BLOCK
  5
51DC
330
51DB
100
AcDbEntity
  8
0
100
AcDbBlockBegin
  2
*D30
 70
     1
 10
0.0
 20
0.0
 30
0.0
  3
*D30
  1

  0
LINE
  5
51DE
330
51DB
100
AcDbEntity
  8
寸法
 62
     0
370
    -2
100
AcDbLine
 10
128.1591618877102
 20
153.649589497599
 30
0.0
 11
104.4928729501027
 21
153.649589497599
 31
0.0
  0
LINE
  5
51DF
330
51DB
100
AcDbEntity
  8
寸法
 62
     0
370
    -2
100
AcDbLine
 10
128.1591618877102
 20
208.649589497599
 30
0.0
 11
104.4928729501027
 21
208.649589497599
 31
0.0
  0
LINE
  5
51E0
330
51DB
100
AcDbEntity
  8
寸法
 62
     0
370
    -2
100
AcDbLine
 10
104.4928729501027
 20
155.649589497599
 30
0.0
 11
104.4928729501027
 21
206.649589497599
 31
0.0
  0
INSERT
  5
51E1
330
51DB
100
AcDbEntity
  8
寸法
 62
     0
370
    -2
100
AcDbBlockReference
  2
_DOT
 10
104.4928729501027
 20
153.649589497599
 30
0.0
 41
2.0
 42
2.0
 43
2.0
 50
270.0
  0
INSERT
  5
51E2
330
51DB
100
AcDbEntity
  8
寸法
 62
     0
370
    -2
100
AcDbBlockReference
  2
_DOT
 10
104.4928729501027
 20
208.649589497599
 30
0.0
 41
2.0
 42
2.0
 43
2.0
 50
90.0
  0
MTEXT
  5
51E3
330
51DB
100
AcDbEntity
  8
寸法
 62
     0
100
AcDbMText
 10
96.99287295010271
 20
181.1495894975991
 30
0.0
 40
5.0
 41
0.0
 46
0.0
 71
     5
 72
     1
  1
\A1;55
  7
ＭＳ ゴシック
 11
0.0
 21
1.0
 31
0.0
 73
     1
 44
1.0
  0
POINT
  5
51E4
330
51DB
100
AcDbEntity
  8
Defpoints
 62
     0
100
AcDbPoint
 10
133.1591618877102
 20
153.649589497599
 30
0.0
  0
POINT
  5
51E5
330
51DB
100
AcDbEntity
  8
Defpoints
 62
     0
100
AcDbPoint
 10
133.1591618877102
 20
208.649589497599
 30
0.0
  0
POINT
  5
51E6
330
51DB
100
AcDbEntity
  8
Defpoints
 62
     0
100
AcDbPoint
 10
104.4928729501027
 20
208.649589497599
 30
0.0
  0
ENDBLK
  5
51DD
330
51DB
100
AcDbEntity
  8
0
100
AcDbBlockEnd
  0
BLOCK
  5
5235
330
5234
100
AcDbEntity
  8
0
100
AcDbBlockBegin
  2
*D31
 70
     1
 10
0.0
 20
0.0
 30
0.0
  3
*D31
  1
*D102
  0
LINE
  5
5236
330
5234
100
AcDbEntity
  8
寸法
 62
     0
370
    -2
100
AcDbLine
 10
403.2535362192647
 20
96.15418063013261
 30
0.0
 11
403.2535362192647
 21
107.1993269683445
 31
0.0
  0
LINE
  5
5237
330
5234
100
AcDbEntity
  8
寸法
 62
     0
370
    -2
100
AcDbLine
 10
430.2535362192647
 20
96.0675273155705
 30
0.0
 11
430.2535362192647
 21
107.1993269683445
 31
0.0
  0
LINE
  5
5238
330
5234
100
AcDbEntity
  8
寸法
 62
     0
370
    -2
100
AcDbLine
 10
405.2535362192647
 20
107.1993269683445
 30
0.0
 11
428.2535362192647
 21
107.1993269683445
 31
0.0
  0
INSERT
  5
5239
330
5234
100
AcDbEntity
  8
寸法
 62
     0
370
    -2
100
AcDbBlockReference
  2
_DOT
 10
403.2535362192647
 20
107.1993269683445
 30
0.0
 41
2.0
 42
2.0
 43
2.0
 50
180.0
  0
INSERT
  5
523A
330
5234
100
AcDbEntity
  8
寸法
 62
     0
370
    -2
100
AcDbBlockReference
  2
_DOT
 10
430.2535362192647
 20
107.1993269683445
 30
0.0
 41
2.0
 42
2.0
 43
2.0
  0
MTEXT
  5
523B
330
5234
100
AcDbEntity
  8
寸法
 62
     0
100
AcDbMText
 10
416.7535362192647
 20
114.6993269683445
 30
0.0
 40
5.0
 41
0.0
 46
0.0
 71
     5
 72
     1
  1
\A1;27
  7
ＭＳ ゴシック
 73
     1
 44
1.0
  0
POINT
  5
523C
330
5234
100
AcDbEntity
  8
Defpoints
 62
     0
100
AcDbPoint
 10
403.2535362192647
 20
91.15418063013261
 30
0.0
  0
POINT
  5
523D
330
5234
100
AcDbEntity
  8
Defpoints
 62
     0
100
AcDbPoint
 10
430.2535362192647
 20
91.0675273155705
 30
0.0
  0
POINT
  5
523E
330
5234
100
AcDbEntity
  8
Defpoints
 62
     0
100
AcDbPoint
 10
430.2535362192647
 20
107.1993269683445
 30
0.0
  0
ENDBLK
  5
523F
330
5234
100
AcDbEntity
  8
0
100
AcDbBlockEnd
  0
BLOCK
  5
524C
330
524B
100
AcDbEntity
  8
0
100
AcDbBlockBegin
  2
*D32
 70
     1
 10
0.0
 20
0.0
 30
0.0
  3
*D32
  1
*D103
  0
LINE
  5
524D
330
524B
100
AcDbEntity
  8
寸法
 62
     0
370
    -2
100
AcDbLine
 10
403.2535362192647
 20
39.15418063013261
 30
0.0
 11
403.2535362192647
 21
31.55264755695622
 31
0.0
  0
LINE
  5
524E
330
524B
100
AcDbEntity
  8
寸法
 62
     0
370
    -2
100
AcDbLine
 10
406.2535362192647
 20
39.15418063013261
 30
0.0
 11
406.2535362192647
 21
31.55264755695622
 31
0.0
  0
LINE
  5
524F
330
524B
100
AcDbEntity
  8
寸法
 62
     0
370
    -2
100
AcDbLine
 10
405.2535362192647
 20
31.55264755695622
 30
0.0
 11
404.2535362192647
 21
31.55264755695622
 31
0.0
  0
INSERT
  5
5250
330
524B
100
AcDbEntity
  8
寸法
 62
     0
370
    -2
100
AcDbBlockReference
  2
_DOT
 10
403.2535362192647
 20
31.55264755695622
 30
0.0
 41
2.0
 42
2.0
 43
2.0
 50
180.0
  0
INSERT
  5
5251
330
524B
100
AcDbEntity
  8
寸法
 62
     0
370
    -2
100
AcDbBlockReference
  2
_DOT
 10
406.2535362192647
 20
31.55264755695622
 30
0.0
 41
2.0
 42
2.0
 43
2.0
  0
MTEXT
  5
5252
330
524B
100
AcDbEntity
  8
寸法
 62
     0
100
AcDbMText
 10
404.7535362192647
 20
24.05264755695622
 30
0.0
 40
5.0
 41
0.0
 46
0.0
 71
     5
 72
     1
  1
\A1;3
  7
ＭＳ ゴシック
 73
     1
 44
1.0
  0
POINT
  5
5253
330
524B
100
AcDbEntity
  8
Defpoints
 62
     0
100
AcDbPoint
 10
403.2535362192647
 20
44.15418063013261
 30
0.0
  0
POINT
  5
5254
330
524B
100
AcDbEntity
  8
Defpoints
 62
     0
100
AcDbPoint
 10
406.2535362192647
 20
44.15418063013261
 30
0.0
  0
POINT
  5
5255
330
524B
100
AcDbEntity
  8
Defpoints
 62
     0
100
AcDbPoint
 10
406.2535362192647
 20
31.55264755695622
 30
0.0
  0
ENDBLK
  5
5256
330
524B
100
AcDbEntity
  8
0
100
AcDbBlockEnd
  0
BLOCK
  5
5273
330
5272
100
AcDbEntity
  8
0
100
AcDbBlockBegin
  2
*D33
 70
     1
 10
0.0
 20
0.0
 30
0.0
  3
*D33
  1
*D104
  0
LINE
  5
5274
330
5272
100
AcDbEntity
  8
寸法
 62
     0
370
    -2
100
AcDbLine
 10
325.7749660482596
 20
91.15418063013261
 30
0.0
 11
313.680774107601
 21
91.15418063013261
 31
0.0
  0
LINE
  5
5275
330
5272
100
AcDbEntity
  8
寸法
 62
     0
370
    -2
100
AcDbLine
 10
325.7749660482596
 20
44.15418063013261
 30
0.0
 11
313.680774107601
 21
44.15418063013261
 31
0.0
  0
LINE
  5
5276
330
5272
100
AcDbEntity
  8
寸法
 62
     0
370
    -2
100
AcDbLine
 10
313.680774107601
 20
89.15418063013261
 30
0.0
 11
313.680774107601
 21
46.15418063013261
 31
0.0
  0
INSERT
  5
5277
330
5272
100
AcDbEntity
  8
寸法
 62
     0
370
    -2
100
AcDbBlockReference
  2
_DOT
 10
313.680774107601
 20
91.15418063013261
 30
0.0
 41
2.0
 42
2.0
 43
2.0
 50
90.0
  0
INSERT
  5
5278
330
5272
100
AcDbEntity
  8
寸法
 62
     0
370
    -2
100
AcDbBlockReference
  2
_DOT
 10
313.680774107601
 20
44.15418063013261
 30
0.0
 41
2.0
 42
2.0
 43
2.0
 50
270.0
  0
MTEXT
  5
5279
330
5272
100
AcDbEntity
  8
寸法
 62
     0
100
AcDbMText
 10
306.180774107601
 20
67.65418063013261
 30
0.0
 40
5.0
 41
0.0
 46
0.0
 71
     5
 72
     1
  1
\A1;47
  7
ＭＳ ゴシック
 11
0.0
 21
1.0
 31
0.0
 73
     1
 44
1.0
  0
POINT
  5
527A
330
5272
100
AcDbEntity
  8
Defpoints
 62
     0
100
AcDbPoint
 10
330.7749660482596
 20
91.15418063013261
 30
0.0
  0
POINT
  5
527B
330
5272
100
AcDbEntity
  8
Defpoints
 62
     0
100
AcDbPoint
 10
330.7749660482596
 20
44.15418063013261
 30
0.0
  0
POINT
  5
527C
330
5272
100
AcDbEntity
  8
Defpoints
 62
     0
100
AcDbPoint
 10
313.680774107601
 20
44.15418063013261
 30
0.0
  0
ENDBLK
  5
527D
330
5272
100
AcDbEntity
  8
0
100
AcDbBlockEnd
  0
BLOCK
  5
5280
330
527F
100
AcDbEntity
  8
0
100
AcDbBlockBegin
  2
*D34
 70
     1
 10
0.0
 20
0.0
 30
0.0
  3
*D34
  1
*D105
  0
LINE
  5
5281
330
527F
100
AcDbEntity
  8
寸法
 62
     0
370
    -2
100
AcDbLine
 10
333.6142857142856
 20
158.4985292851236
 30
0.0
 11
333.6142857142856
 21
166.1001960594844
 31
0.0
  0
LINE
  5
5282
330
527F
100
AcDbEntity
  8
寸法
 62
     0
370
    -2
100
AcDbLine
 10
371.6142857142856
 20
158.4985292851236
 30
0.0
 11
371.6142857142856
 21
166.1001960594844
 31
0.0
  0
LINE
  5
5283
330
527F
100
AcDbEntity
  8
寸法
 62
     0
370
    -2
100
AcDbLine
 10
335.6142857142856
 20
166.1001960594844
 30
0.0
 11
369.6142857142856
 21
166.1001960594844
 31
0.0
  0
INSERT
  5
5284
330
527F
100
AcDbEntity
  8
寸法
 62
     0
370
    -2
100
AcDbBlockReference
  2
_DOT
 10
333.6142857142856
 20
166.1001960594844
 30
0.0
 41
2.0
 42
2.0
 43
2.0
 50
180.0
  0
INSERT
  5
5285
330
527F
100
AcDbEntity
  8
寸法
 62
     0
370
    -2
100
AcDbBlockReference
  2
_DOT
 10
371.6142857142856
 20
166.1001960594844
 30
0.0
 41
2.0
 42
2.0
 43
2.0
  0
MTEXT
  5
5286
330
527F
100
AcDbEntity
  8
寸法
 62
     0
100
AcDbMText
 10
352.6142857142856
 20
173.6001960594844
 30
0.0
 40
5.0
 41
0.0
 46
0.0
 71
     5
 72
     1
  1
\A1;38
  7
ＭＳ ゴシック
 73
     1
 44
1.0
  0
POINT
  5
5287
330
527F
100
AcDbEntity
  8
Defpoints
 62
     0
100
AcDbPoint
 10
333.6142857142856
 20
153.4985292851236
 30
0.0
  0
POINT
  5
5288
330
527F
100
AcDbEntity
  8
Defpoints
 62
     0
100
AcDbPoint
 10
371.6142857142856
 20
153.4985292851236
 30
0.0
  0
POINT
  5
5289
330
527F
100
AcDbEntity
  8
Defpoints
 62
     0
100
AcDbPoint
 10
371.6142857142856
 20
166.1001960594844
 30
0.0
  0
ENDBLK
  5
528A
330
527F
100
AcDbEntity
  8
0
100
AcDbBlockEnd
  0
BLOCK
  5
530A
330
5309
100
AcDbEntity
  8
0
100
AcDbBlockBegin
  2
*D35
 70
     1
 10
0.0
 20
0.0
 30
0.0
  3
*D35
  1
*D95
  0
LINE
  5
530B
330
5309
100
AcDbEntity
  8
寸法
 62
     0
370
    -2
100
AcDbLine
 10
33.21971594128948
 20
147.3783548333659
 30
0.0
 11
33.21971594128948
 21
126.3302690683203
 31
0.0
  0
LINE
  5
530C
330
5309
100
AcDbEntity
  8
寸法
 62
     0
370
    -2
100
AcDbLine
 10
91.21793669657447
 20
147.3783548333659
 30
0.0
 11
91.21793669657447
 21
126.3302690683203
 31
0.0
  0
LINE
  5
530D
330
5309
100
AcDbEntity
  8
寸法
 62
     0
370
    -2
100
AcDbLine
 10
35.21971594128948
 20
126.3302690683203
 30
0.0
 11
89.21793669657447
 21
126.3302690683203
 31
0.0
  0
INSERT
  5
530E
330
5309
100
AcDbEntity
  8
寸法
 62
     0
370
    -2
100
AcDbBlockReference
  2
_DOT
 10
33.21971594128948
 20
126.3302690683203
 30
0.0
 41
2.0
 42
2.0
 43
2.0
 50
180.0
  0
INSERT
  5
530F
330
5309
100
AcDbEntity
  8
寸法
 62
     0
370
    -2
100
AcDbBlockReference
  2
_DOT
 10
91.21793669657447
 20
126.3302690683203
 30
0.0
 41
2.0
 42
2.0
 43
2.0
  0
MTEXT
  5
5310
330
5309
100
AcDbEntity
  8
寸法
 62
     0
100
AcDbMText
 10
62.21882631893197
 20
133.8302690683203
 30
0.0
 40
5.0
 41
0.0
 46
0.0
 71
     5
 72
     1
  1
\A1;58
  7
ＭＳ ゴシック
 73
     1
 44
1.0
  0
POINT
  5
5311
330
5309
100
AcDbEntity
  8
Defpoints
 62
     0
100
AcDbPoint
 10
33.21971594128948
 20
152.3783548333659
 30
0.0
  0
POINT
  5
5312
330
5309
100
AcDbEntity
  8
Defpoints
 62
     0
100
AcDbPoint
 10
91.21793669657447
 20
152.3783548333659
 30
0.0
  0
POINT
  5
5313
330
5309
100
AcDbEntity
  8
Defpoints
 62
     0
100
AcDbPoint
 10
91.21793669657447
 20
126.3302690683203
 30
0.0
  0
ENDBLK
  5
5314
330
5309
100
AcDbEntity
  8
0
100
AcDbBlockEnd
  0
BLOCK
  5
5317
330
5316
100
AcDbEntity
  8
0
100
AcDbBlockBegin
  2
*D36
 70
     1
 10
0.0
 20
0.0
 30
0.0
  3
*D36
  1
*D96
  0
LINE
  5
5318
330
5316
100
AcDbEntity
  8
寸法
 62
     0
370
    -2
100
AcDbLine
 10
95.37044264811587
 20
220.1124218526507
 30
0.0
 11
119.3028861526774
 21
220.1124218526507
 31
0.0
  0
LINE
  5
5319
330
5316
100
AcDbEntity
  8
寸法
 62
     0
370
    -2
100
AcDbLine
 10
95.37044264811587
 20
151.1105588584361
 30
0.0
 11
119.3028861526775
 21
151.1105588584361
 31
0.0
  0
LINE
  5
531A
330
5316
100
AcDbEntity
  8
寸法
 62
     0
370
    -2
100
AcDbLine
 10
119.3028861526774
 20
218.1124218526507
 30
0.0
 11
119.3028861526775
 21
153.1105588584361
 31
0.0
  0
INSERT
  5
531B
330
5316
100
AcDbEntity
  8
寸法
 62
     0
370
    -2
100
AcDbBlockReference
  2
_DOT
 10
119.3028861526774
 20
220.1124218526507
 30
0.0
 41
2.0
 42
2.0
 43
2.0
 50
90.00000000000001
  0
INSERT
  5
531C
330
5316
100
AcDbEntity
  8
寸法
 62
     0
370
    -2
100
AcDbBlockReference
  2
_DOT
 10
119.3028861526775
 20
151.1105588584361
 30
0.0
 41
2.0
 42
2.0
 43
2.0
 50
270.0
  0
MTEXT
  5
531D
330
5316
100
AcDbEntity
  8
寸法
 62
     0
100
AcDbMText
 10
111.8028861526775
 20
185.6114903555434
 30
0.0
 40
5.0
 41
0.0
 46
0.0
 71
     5
 72
     1
  1
\A1;69
  7
ＭＳ ゴシック
 11
-4.118977111210318E-16
 21
1.0
 31
0.0
 73
     1
 44
1.0
  0
POINT
  5
531E
330
5316
100
AcDbEntity
  8
Defpoints
 62
     0
100
AcDbPoint
 10
90.37044264811587
 20
220.1124218526507
 30
0.0
  0
POINT
  5
531F
330
5316
100
AcDbEntity
  8
Defpoints
 62
     0
100
AcDbPoint
 10
90.37044264811587
 20
151.1105588584361
 30
0.0
  0
POINT
  5
5320
330
5316
100
AcDbEntity
  8
Defpoints
 62
     0
100
AcDbPoint
 10
119.3028861526775
 20
151.1105588584361
 30
0.0
  0
ENDBLK
  5
5321
330
5316
100
AcDbEntity
  8
0
100
AcDbBlockEnd
  0
BLOCK
  5
5326
330
5325
100
AcDbEntity
  8
0
100
AcDbBlockBegin
  2
*D37
 70
     1
 10
0.0
 20
0.0
 30
0.0
  3
*D37
  1
*D97
  0
LINE
  5
5327
330
5325
100
AcDbEntity
  8
寸法
 62
     0
370
    -2
100
AcDbLine
 10
29.49095701397728
 20
79.38031150861501
 30
0.0
 11
10.00000000000003
 21
79.38031150861501
 31
0.0
  0
LINE
  5
5328
330
5325
100
AcDbEntity
  8
寸法
 62
     0
370
    -2
100
AcDbLine
 10
29.49095701397728
 20
21.38381330220902
 30
0.0
 11
10.00000000000003
 21
21.38381330220902
 31
0.0
  0
LINE
  5
5329
330
5325
100
AcDbEntity
  8
寸法
 62
     0
370
    -2
100
AcDbLine
 10
10.00000000000003
 20
77.38031150861501
 30
0.0
 11
10.00000000000003
 21
23.38381330220902
 31
0.0
  0
INSERT
  5
532A
330
5325
100
AcDbEntity
  8
寸法
 62
     0
370
    -2
100
AcDbBlockReference
  2
_DOT
 10
10.00000000000003
 20
79.38031150861501
 30
0.0
 41
2.0
 42
2.0
 43
2.0
 50
90.0
  0
INSERT
  5
532B
330
5325
100
AcDbEntity
  8
寸法
 62
     0
370
    -2
100
AcDbBlockReference
  2
_DOT
 10
10.00000000000003
 20
21.38381330220902
 30
0.0
 41
2.0
 42
2.0
 43
2.0
 50
270.0
  0
MTEXT
  5
532C
330
5325
100
AcDbEntity
  8
寸法
 62
     0
100
AcDbMText
 10
2.500000000000028
 20
50.38206240541201
 30
0.0
 40
5.0
 41
0.0
 46
0.0
 71
     5
 72
     1
  1
\A1;58
  7
ＭＳ ゴシック
 11
6.125738257776548E-17
 21
1.0
 31
0.0
 73
     1
 44
1.0
  0
POINT
  5
532D
330
5325
100
AcDbEntity
  8
Defpoints
 62
     0
100
AcDbPoint
 10
34.49095701397728
 20
79.38031150861501
 30
0.0
  0
POINT
  5
532E
330
5325
100
AcDbEntity
  8
Defpoints
 62
     0
100
AcDbPoint
 10
34.49095701397728
 20
21.38381330220902
 30
0.0
  0
POINT
  5
532F
330
5325
100
AcDbEntity
  8
Defpoints
 62
     0
100
AcDbPoint
 10
10.00000000000003
 20
21.38381330220902
 30
0.0
  0
ENDBLK
  5
5330
330
5325
100
AcDbEntity
  8
0
100
AcDbBlockEnd
  0
BLOCK
  5
5499
330
5498
100
AcDbEntity
  8
0
100
AcDbBlockBegin
  2
*D38
 70
     1
 10
0.0
 20
0.0
 30
0.0
  3
*D38
  1

  0
LINE
  5
549B
330
5498
100
AcDbEntity
  8
寸法
 62
     0
370
    -2
100
AcDbLine
 10
510.9619534187508
 20
220.7608286906825
 30
0.0
 11
510.9619534187508
 21
231.8059750288944
 31
0.0
  0
LINE
  5
549C
330
5498
100
AcDbEntity
  8
寸法
 62
     0
370
    -2
100
AcDbLine
 10
537.9619534187508
 20
220.6741753761204
 30
0.0
 11
537.9619534187508
 21
231.8059750288944
 31
0.0
  0
LINE
  5
549D
330
5498
100
AcDbEntity
  8
寸法
 62
     0
370
    -2
100
AcDbLine
 10
512.9619534187508
 20
231.8059750288944
 30
0.0
 11
535.9619534187508
 21
231.8059750288944
 31
0.0
  0
INSERT
  5
549E
330
5498
100
AcDbEntity
  8
寸法
 62
     0
370
    -2
100
AcDbBlockReference
  2
_DOT
 10
510.9619534187508
 20
231.8059750288944
 30
0.0
 41
2.0
 42
2.0
 43
2.0
 50
180.0
  0
INSERT
  5
549F
330
5498
100
AcDbEntity
  8
寸法
 62
     0
370
    -2
100
AcDbBlockReference
  2
_DOT
 10
537.9619534187508
 20
231.8059750288944
 30
0.0
 41
2.0
 42
2.0
 43
2.0
  0
MTEXT
  5
54A0
330
5498
100
AcDbEntity
  8
寸法
 62
     0
100
AcDbMText
 10
524.4619534187508
 20
239.3059750288944
 30
0.0
 40
5.0
 41
0.0
 46
0.0
 71
     5
 72
     1
  1
\A1;27
  7
ＭＳ ゴシック
 73
     1
 44
1.0
  0
POINT
  5
54A1
330
5498
100
AcDbEntity
  8
Defpoints
 62
     0
100
AcDbPoint
 10
510.9619534187508
 20
215.7608286906825
 30
0.0
  0
POINT
  5
54A2
330
5498
100
AcDbEntity
  8
Defpoints
 62
     0
100
AcDbPoint
 10
537.9619534187508
 20
215.6741753761204
 30
0.0
  0
POINT
  5
54A3
330
5498
100
AcDbEntity
  8
Defpoints
 62
     0
100
AcDbPoint
 10
537.9619534187508
 20
231.8059750288944
 30
0.0
  0
ENDBLK
  5
549A
330
5498
100
AcDbEntity
  8
0
100
AcDbBlockEnd
  0
BLOCK
  5
54A5
330
54A4
100
AcDbEntity
  8
0
100
AcDbBlockBegin
  2
*D39
 70
     1
 10
0.0
 20
0.0
 30
0.0
  3
*D39
  1

  0
LINE
  5
54A7
330
54A4
100
AcDbEntity
  8
寸法
 62
     0
370
    -2
100
AcDbLine
 10
510.9619534187508
 20
163.7608286906825
 30
0.0
 11
510.9619534187508
 21
156.1592956175061
 31
0.0
  0
LINE
  5
54A8
330
54A4
100
AcDbEntity
  8
寸法
 62
     0
370
    -2
100
AcDbLine
 10
513.9619534187508
 20
163.7608286906825
 30
0.0
 11
513.9619534187508
 21
156.1592956175061
 31
0.0
  0
LINE
  5
54A9
330
54A4
100
AcDbEntity
  8
寸法
 62
     0
370
    -2
100
AcDbLine
 10
512.9619534187508
 20
156.1592956175061
 30
0.0
 11
511.9619534187508
 21
156.1592956175061
 31
0.0
  0
INSERT
  5
54AA
330
54A4
100
AcDbEntity
  8
寸法
 62
     0
370
    -2
100
AcDbBlockReference
  2
_DOT
 10
510.9619534187508
 20
156.1592956175061
 30
0.0
 41
2.0
 42
2.0
 43
2.0
 50
180.0
  0
INSERT
  5
54AB
330
54A4
100
AcDbEntity
  8
寸法
 62
     0
370
    -2
100
AcDbBlockReference
  2
_DOT
 10
513.9619534187508
 20
156.1592956175061
 30
0.0
 41
2.0
 42
2.0
 43
2.0
  0
MTEXT
  5
54AC
330
54A4
100
AcDbEntity
  8
寸法
 62
     0
100
AcDbMText
 10
512.4619534187508
 20
148.6592956175061
 30
0.0
 40
5.0
 41
0.0
 46
0.0
 71
     5
 72
     1
  1
\A1;3
  7
ＭＳ ゴシック
 73
     1
 44
1.0
  0
POINT
  5
54AD
330
54A4
100
AcDbEntity
  8
Defpoints
 62
     0
100
AcDbPoint
 10
510.9619534187508
 20
168.7608286906825
 30
0.0
  0
POINT
  5
54AE
330
54A4
100
AcDbEntity
  8
Defpoints
 62
     0
100
AcDbPoint
 10
513.9619534187508
 20
168.7608286906825
 30
0.0
  0
POINT
  5
54AF
330
54A4
100
AcDbEntity
  8
Defpoints
 62
     0
100
AcDbPoint
 10
513.9619534187508
 20
156.1592956175061
 30
0.0
  0
ENDBLK
  5
54A6
330
54A4
100
AcDbEntity
  8
0
100
AcDbBlockEnd
  0
BLOCK
  5
54B1
330
54B0
100
AcDbEntity
  8
0
100
AcDbBlockBegin
  2
*D40
 70
     1
 10
0.0
 20
0.0
 30
0.0
  3
*D40
  1

  0
LINE
  5
54B3
330
54B0
100
AcDbEntity
  8
寸法
 62
     0
370
    -2
100
AcDbLine
 10
413.1666716305668
 20
215.7608286906825
 30
0.0
 11
401.0724796899082
 21
215.7608286906825
 31
0.0
  0
LINE
  5
54B4
330
54B0
100
AcDbEntity
  8
寸法
 62
     0
370
    -2
100
AcDbLine
 10
413.1666716305668
 20
168.7608286906825
 30
0.0
 11
401.0724796899082
 21
168.7608286906825
 31
0.0
  0
LINE
  5
54B5
330
54B0
100
AcDbEntity
  8
寸法
 62
     0
370
    -2
100
AcDbLine
 10
401.0724796899082
 20
213.7608286906825
 30
0.0
 11
401.0724796899082
 21
170.7608286906825
 31
0.0
  0
INSERT
  5
54B6
330
54B0
100
AcDbEntity
  8
寸法
 62
     0
370
    -2
100
AcDbBlockReference
  2
_DOT
 10
401.0724796899082
 20
215.7608286906825
 30
0.0
 41
2.0
 42
2.0
 43
2.0
 50
90.0
  0
INSERT
  5
54B7
330
54B0
100
AcDbEntity
  8
寸法
 62
     0
370
    -2
100
AcDbBlockReference
  2
_DOT
 10
401.0724796899082
 20
168.7608286906825
 30
0.0
 41
2.0
 42
2.0
 43
2.0
 50
270.0
  0
MTEXT
  5
54B8
330
54B0
100
AcDbEntity
  8
寸法
 62
     0
100
AcDbMText
 10
393.5724796899082
 20
192.2608286906825
 30
0.0
 40
5.0
 41
0.0
 46
0.0
 71
     5
 72
     1
  1
\A1;47
  7
ＭＳ ゴシック
 11
0.0
 21
1.0
 31
0.0
 73
     1
 44
1.0
  0
POINT
  5
54B9
330
54B0
100
AcDbEntity
  8
Defpoints
 62
     0
100
AcDbPoint
 10
418.1666716305668
 20
215.7608286906825
 30
0.0
  0
POINT
  5
54BA
330
54B0
100
AcDbEntity
  8
Defpoints
 62
     0
100
AcDbPoint
 10
418.1666716305668
 20
168.7608286906825
 30
0.0
  0
POINT
  5
54BB
330
54B0
100
AcDbEntity
  8
Defpoints
 62
     0
100
AcDbPoint
 10
401.0724796899082
 20
168.7608286906825
 30
0.0
  0
ENDBLK
  5
54B2
330
54B0
100
AcDbEntity
  8
0
100
AcDbBlockEnd
  0
BLOCK
  5
54BD
330
54BC
100
AcDbEntity
  8
0
100
AcDbBlockBegin
  2
*D41
 70
     1
 10
0.0
 20
0.0
 30
0.0
  3
*D41
  1

  0
LINE
  5
54BF
330
54BC
100
AcDbEntity
  8
寸法
 62
     0
370
    -2
100
AcDbLine
 10
421.0059912965927
 20
340.1097001462159
 30
0.0
 11
421.0059912965927
 21
347.7113669205767
 31
0.0
  0
LINE
  5
54C0
330
54BC
100
AcDbEntity
  8
寸法
 62
     0
370
    -2
100
AcDbLine
 10
459.0059912965927
 20
340.1097001462159
 30
0.0
 11
459.0059912965927
 21
347.7113669205767
 31
0.0
  0
LINE
  5
54C1
330
54BC
100
AcDbEntity
  8
寸法
 62
     0
370
    -2
100
AcDbLine
 10
423.0059912965927
 20
347.7113669205767
 30
0.0
 11
457.0059912965927
 21
347.7113669205767
 31
0.0
  0
INSERT
  5
54C2
330
54BC
100
AcDbEntity
  8
寸法
 62
     0
370
    -2
100
AcDbBlockReference
  2
_DOT
 10
421.0059912965927
 20
347.7113669205767
 30
0.0
 41
2.0
 42
2.0
 43
2.0
 50
180.0
  0
INSERT
  5
54C3
330
54BC
100
AcDbEntity
  8
寸法
 62
     0
370
    -2
100
AcDbBlockReference
  2
_DOT
 10
459.0059912965927
 20
347.7113669205767
 30
0.0
 41
2.0
 42
2.0
 43
2.0
  0
MTEXT
  5
54C4
330
54BC
100
AcDbEntity
  8
寸法
 62
     0
100
AcDbMText
 10
440.0059912965927
 20
355.2113669205767
 30
0.0
 40
5.0
 41
0.0
 46
0.0
 71
     5
 72
     1
  1
\A1;38
  7
ＭＳ ゴシック
 73
     1
 44
1.0
  0
POINT
  5
54C5
330
54BC
100
AcDbEntity
  8
Defpoints
 62
     0
100
AcDbPoint
 10
421.0059912965927
 20
335.1097001462159
 30
0.0
  0
POINT
  5
54C6
330
54BC
100
AcDbEntity
  8
Defpoints
 62
     0
100
AcDbPoint
 10
459.0059912965927
 20
335.1097001462159
 30
0.0
  0
POINT
  5
54C7
330
54BC
100
AcDbEntity
  8
Defpoints
 62
     0
100
AcDbPoint
 10
459.0059912965927
 20
347.7113669205767
 30
0.0
  0
ENDBLK
  5
54BE
330
54BC
100
AcDbEntity
  8
0
100
AcDbBlockEnd
  0
BLOCK
  5
54C9
330
54C8
100
AcDbEntity
  8
0
100
AcDbBlockBegin
  2
*D42
 70
     1
 10
0.0
 20
0.0
 30
0.0
  3
*D42
  1

  0
LINE
  5
54CB
330
54C8
100
AcDbEntity
  8
寸法
 62
     0
370
    -2
100
AcDbLine
 10
734.466351099791
 20
268.7649876863918
 30
0.0
 11
734.466351099791
 21
247.7169019213462
 31
0.0
  0
LINE
  5
54CC
330
54C8
100
AcDbEntity
  8
寸法
 62
     0
370
    -2
100
AcDbLine
 10
792.4645718550761
 20
268.7649876863918
 30
0.0
 11
792.4645718550761
 21
247.7169019213462
 31
0.0
  0
LINE
  5
54CD
330
54C8
100
AcDbEntity
  8
寸法
 62
     0
370
    -2
100
AcDbLine
 10
736.466351099791
 20
247.7169019213462
 30
0.0
 11
790.4645718550761
 21
247.7169019213462
 31
0.0
  0
INSERT
  5
54CE
330
54C8
100
AcDbEntity
  8
寸法
 62
     0
370
    -2
100
AcDbBlockReference
  2
_DOT
 10
734.466351099791
 20
247.7169019213462
 30
0.0
 41
2.0
 42
2.0
 43
2.0
 50
180.0
  0
INSERT
  5
54CF
330
54C8
100
AcDbEntity
  8
寸法
 62
     0
370
    -2
100
AcDbBlockReference
  2
_DOT
 10
792.4645718550761
 20
247.7169019213462
 30
0.0
 41
2.0
 42
2.0
 43
2.0
  0
MTEXT
  5
54D0
330
54C8
100
AcDbEntity
  8
寸法
 62
     0
100
AcDbMText
 10
763.4654614774336
 20
255.2169019213462
 30
0.0
 40
5.0
 41
0.0
 46
0.0
 71
     5
 72
     1
  1
\A1;58
  7
ＭＳ ゴシック
 73
     1
 44
1.0
  0
POINT
  5
54D1
330
54C8
100
AcDbEntity
  8
Defpoints
 62
     0
100
AcDbPoint
 10
734.466351099791
 20
273.7649876863918
 30
0.0
  0
POINT
  5
54D2
330
54C8
100
AcDbEntity
  8
Defpoints
 62
     0
100
AcDbPoint
 10
792.4645718550761
 20
273.7649876863918
 30
0.0
  0
POINT
  5
54D3
330
54C8
100
AcDbEntity
  8
Defpoints
 62
     0
100
AcDbPoint
 10
792.4645718550761
 20
247.7169019213462
 30
0.0
  0
ENDBLK
  5
54CA
330
54C8
100
AcDbEntity
  8
0
100
AcDbBlockEnd
  0
BLOCK
  5
54D5
330
54D4
100
AcDbEntity
  8
0
100
AcDbBlockBegin
  2
*D43
 70
     1
 10
0.0
 20
0.0
 30
0.0
  3
*D43
  1

  0
LINE
  5
54D7
330
54D4
100
AcDbEntity
  8
寸法
 62
     0
370
    -2
100
AcDbLine
 10
796.6170778066174
 20
341.4990547056766
 30
0.0
 11
820.5495213111791
 21
341.4990547056766
 31
0.0
  0
LINE
  5
54D8
330
54D4
100
AcDbEntity
  8
寸法
 62
     0
370
    -2
100
AcDbLine
 10
796.6170778066174
 20
272.4971917114619
 30
0.0
 11
820.5495213111791
 21
272.4971917114619
 31
0.0
  0
LINE
  5
54D9
330
54D4
100
AcDbEntity
  8
寸法
 62
     0
370
    -2
100
AcDbLine
 10
820.5495213111791
 20
339.4990547056766
 30
0.0
 11
820.5495213111791
 21
274.4971917114619
 31
0.0
  0
INSERT
  5
54DA
330
54D4
100
AcDbEntity
  8
寸法
 62
     0
370
    -2
100
AcDbBlockReference
  2
_DOT
 10
820.5495213111791
 20
341.4990547056766
 30
0.0
 41
2.0
 42
2.0
 43
2.0
 50
90.0
  0
INSERT
  5
54DB
330
54D4
100
AcDbEntity
  8
寸法
 62
     0
370
    -2
100
AcDbBlockReference
  2
_DOT
 10
820.5495213111791
 20
272.4971917114619
 30
0.0
 41
2.0
 42
2.0
 43
2.0
 50
270.0
  0
MTEXT
  5
54DC
330
54D4
100
AcDbEntity
  8
寸法
 62
     0
100
AcDbMText
 10
813.0495213111791
 20
306.9981232085693
 30
0.0
 40
5.0
 41
0.0
 46
0.0
 71
     5
 72
     1
  1
\A1;69
  7
ＭＳ ゴシック
 11
0.0
 21
1.0
 31
0.0
 73
     1
 44
1.0
  0
POINT
  5
54DD
330
54D4
100
AcDbEntity
  8
Defpoints
 62
     0
100
AcDbPoint
 10
791.6170778066174
 20
341.4990547056766
 30
0.0
  0
POINT
  5
54DE
330
54D4
100
AcDbEntity
  8
Defpoints
 62
     0
100
AcDbPoint
 10
791.6170778066174
 20
272.4971917114619
 30
0.0
  0
POINT
  5
54DF
330
54D4
100
AcDbEntity
  8
Defpoints
 62
     0
100
AcDbPoint
 10
820.5495213111791
 20
272.4971917114619
 30
0.0
  0
ENDBLK
  5
54D6
330
54D4
100
AcDbEntity
  8
0
100
AcDbBlockEnd
  0
BLOCK
  5
54E1
330
54E0
100
AcDbEntity
  8
0
100
AcDbBlockBegin
  2
*D44
 70
     1
 10
0.0
 20
0.0
 30
0.0
  3
*D44
  1

  0
LINE
  5
54E3
330
54E0
100
AcDbEntity
  8
寸法
 62
     0
370
    -2
100
AcDbLine
 10
730.7375921724789
 20
200.7669443616409
 30
0.0
 11
711.2466351585016
 21
200.7669443616409
 31
0.0
  0
LINE
  5
54E4
330
54E0
100
AcDbEntity
  8
寸法
 62
     0
370
    -2
100
AcDbLine
 10
730.7375921724789
 20
142.7704461552349
 30
0.0
 11
711.2466351585016
 21
142.7704461552349
 31
0.0
  0
LINE
  5
54E5
330
54E0
100
AcDbEntity
  8
寸法
 62
     0
370
    -2
100
AcDbLine
 10
711.2466351585016
 20
198.7669443616409
 30
0.0
 11
711.2466351585016
 21
144.7704461552349
 31
0.0
  0
INSERT
  5
54E6
330
54E0
100
AcDbEntity
  8
寸法
 62
     0
370
    -2
100
AcDbBlockReference
  2
_DOT
 10
711.2466351585016
 20
200.7669443616409
 30
0.0
 41
2.0
 42
2.0
 43
2.0
 50
90.0
  0
INSERT
  5
54E7
330
54E0
100
AcDbEntity
  8
寸法
 62
     0
370
    -2
100
AcDbBlockReference
  2
_DOT
 10
711.2466351585016
 20
142.7704461552349
 30
0.0
 41
2.0
 42
2.0
 43
2.0
 50
270.0
  0
MTEXT
  5
54E8
330
54E0
100
AcDbEntity
  8
寸法
 62
     0
100
AcDbMText
 10
703.7466351585016
 20
171.7686952584379
 30
0.0
 40
5.0
 41
0.0
 46
0.0
 71
     5
 72
     1
  1
\A1;58
  7
ＭＳ ゴシック
 11
0.0
 21
1.0
 31
0.0
 73
     1
 44
1.0
  0
POINT
  5
54E9
330
54E0
100
AcDbEntity
  8
Defpoints
 62
     0
100
AcDbPoint
 10
735.7375921724789
 20
200.7669443616409
 30
0.0
  0
POINT
  5
54EA
330
54E0
100
AcDbEntity
  8
Defpoints
 62
     0
100
AcDbPoint
 10
735.7375921724789
 20
142.7704461552349
 30
0.0
  0
POINT
  5
54EB
330
54E0
100
AcDbEntity
  8
Defpoints
 62
     0
100
AcDbPoint
 10
711.2466351585016
 20
142.7704461552349
 30
0.0
  0
ENDBLK
  5
54E2
330
54E0
100
AcDbEntity
  8
0
100
AcDbBlockEnd
  0
BLOCK
  5
5703
330
5702
100
AcDbEntity
  8
0
100
AcDbBlockBegin
  2
*D45
 70
     1
 10
0.0
 20
0.0
 30
0.0
  3
*D45
  1

  0
LINE
  5
5705
330
5702
100
AcDbEntity
  8
寸法
 62
     0
370
    -2
100
AcDbLine
 10
112.1160840779118
 20
351.4580557552677
 30
0.0
 11
94.2486506697812
 21
351.4580557552677
 31
0.0
  0
LINE
  5
5706
330
5702
100
AcDbEntity
  8
寸法
 62
     0
370
    -2
100
AcDbLine
 10
132.5700389349109
 20
274.4580557552677
 30
0.0
 11
94.2486506697812
 21
274.4580557552677
 31
0.0
  0
LINE
  5
5707
330
5702
100
AcDbEntity
  8
寸法
 62
     0
370
    -2
100
AcDbLine
 10
94.2486506697812
 20
349.4580557552677
 30
0.0
 11
94.2486506697812
 21
276.4580557552677
 31
0.0
  0
INSERT
  5
5708
330
5702
100
AcDbEntity
  8
寸法
 62
     0
370
    -2
100
AcDbBlockReference
  2
_DOT
 10
94.2486506697812
 20
351.4580557552677
 30
0.0
 41
2.0
 42
2.0
 43
2.0
 50
90.0
  0
INSERT
  5
5709
330
5702
100
AcDbEntity
  8
寸法
 62
     0
370
    -2
100
AcDbBlockReference
  2
_DOT
 10
94.2486506697812
 20
274.4580557552677
 30
0.0
 41
2.0
 42
2.0
 43
2.0
 50
270.0
  0
MTEXT
  5
570A
330
5702
100
AcDbEntity
  8
寸法
 62
     0
100
AcDbMText
 10
86.7486506697812
 20
312.9580557552677
 30
0.0
 40
5.0
 41
0.0
 46
0.0
 71
     5
 72
     1
  1
\A1;77
  7
ＭＳ ゴシック
 11
0.0
 21
1.0
 31
0.0
 73
     1
 44
1.0
  0
POINT
  5
570B
330
5702
100
AcDbEntity
  8
Defpoints
 62
     0
100
AcDbPoint
 10
117.1160840779118
 20
351.4580557552677
 30
0.0
  0
POINT
  5
570C
330
5702
100
AcDbEntity
  8
Defpoints
 62
     0
100
AcDbPoint
 10
137.5700389349109
 20
274.4580557552677
 30
0.0
  0
POINT
  5
570D
330
5702
100
AcDbEntity
  8
Defpoints
 62
     0
100
AcDbPoint
 10
94.2486506697812
 20
274.4580557552677
 30
0.0
  0
ENDBLK
  5
5704
330
5702
100
AcDbEntity
  8
0
100
AcDbBlockEnd
  0
BLOCK
  5
5712
330
5711
100
AcDbEntity
  8
0
100
AcDbBlockBegin
  2
*D46
 70
     1
 10
0.0
 20
0.0
 30
0.0
  3
*D46
  1

  0
LINE
  5
5714
330
5711
100
AcDbEntity
  8
寸法
 62
     0
370
    -2
100
AcDbLine
 10
177.1160840779118
 20
358.4580557552677
 30
0.0
 11
197.4936926524902
 21
358.4580557552677
 31
0.0
  0
LINE
  5
5715
330
5711
100
AcDbEntity
  8
寸法
 62
     0
370
    -2
100
AcDbLine
 10
160.774693228859
 20
274.5266734440261
 30
0.0
 11
197.4936926524902
 21
274.5266734440261
 31
0.0
  0
LINE
  5
5716
330
5711
100
AcDbEntity
  8
寸法
 62
     0
370
    -2
100
AcDbLine
 10
197.4936926524902
 20
356.4580557552677
 30
0.0
 11
197.4936926524902
 21
276.5266734440261
 31
0.0
  0
INSERT
  5
5717
330
5711
100
AcDbEntity
  8
寸法
 62
     0
370
    -2
100
AcDbBlockReference
  2
_DOT
 10
197.4936926524902
 20
358.4580557552677
 30
0.0
 41
2.0
 42
2.0
 43
2.0
 50
90.0
  0
INSERT
  5
5718
330
5711
100
AcDbEntity
  8
寸法
 62
     0
370
    -2
100
AcDbBlockReference
  2
_DOT
 10
197.4936926524902
 20
274.5266734440261
 30
0.0
 41
2.0
 42
2.0
 43
2.0
 50
270.0
  0
MTEXT
  5
5719
330
5711
100
AcDbEntity
  8
寸法
 62
     0
100
AcDbMText
 10
189.9936926524902
 20
316.4923645996469
 30
0.0
 40
5.0
 41
0.0
 46
0.0
 71
     5
 72
     1
  1
\A1;84
  7
ＭＳ ゴシック
 11
0.0
 21
1.0
 31
0.0
 73
     1
 44
1.0
  0
POINT
  5
571A
330
5711
100
AcDbEntity
  8
Defpoints
 62
     0
100
AcDbPoint
 10
172.1160840779118
 20
358.4580557552677
 30
0.0
  0
POINT
  5
571B
330
5711
100
AcDbEntity
  8
Defpoints
 62
     0
100
AcDbPoint
 10
155.774693228859
 20
274.5266734440261
 30
0.0
  0
POINT
  5
571C
330
5711
100
AcDbEntity
  8
Defpoints
 62
     0
100
AcDbPoint
 10
197.4936926524902
 20
274.5266734440261
 30
0.0
  0
ENDBLK
  5
5713
330
5711
100
AcDbEntity
  8
0
100
AcDbBlockEnd
  0
ENDSEC
  0
SECTION
  2
ENTITIES
  0
LINE
  5
36CD
330
A
100
AcDbEntity
  8
PRINT BORDER
100
AcDbLine
 10
296.9999999999999
 20
0.0
 30
0.0
 11
296.9999999999999
 21
15.30952622855898
 31
0.0
  0
LINE
  5
36CE
330
A
100
AcDbEntity
  8
テンプレート
100
AcDbLine
 10
459.1755527377521
 20
38.27810890422097
 30
0.0
 11
15.30952622855898
 21
38.27810890422097
 31
0.0
  0
LINE
  5
36CF
330
A
100
AcDbEntity
  8
テンプレート
100
AcDbLine
 10
15.30952622855898
 20
26.22153683920783
 30
0.0
 11
578.6904737714407
 21
26.22153683920783
 31
0.0
  0
TEXT
  5
36D0
330
A
100
AcDbEntity
  8
テンプレート
100
AcDbText
 10
18.06121699514119
 20
32.16825981613692
 30
0.0
 40
3.5
  1
材質
  7
ＭＳ ゴシック
100
AcDbText
  0
TEXT
  5
36D3
330
A
100
AcDbEntity
  8
テンプレート
100
AcDbText
 10
18.06121699514119
 20
56.50959028673083
 30
0.0
 40
3.5
  1
品名
  7
ＭＳ ゴシック
100
AcDbText
  0
TEXT
  5
36D4
330
A
100
AcDbEntity
  8
テンプレート
100
AcDbText
 10
18.06121699514119
 20
44.65099339080098
 30
0.0
 40
3.5
  1
仕上げ
  7
ＭＳ ゴシック
100
AcDbText
  0
TEXT
  5
36D5
330
A
100
AcDbEntity
  8
テンプレート
100
AcDbText
 10
387.2966251611582
 20
56.58523052309899
 30
0.0
 40
3.5
  1
品番
  7
ＭＳ ゴシック
100
AcDbText
  0
TEXT
  5
36D6
330
A
100
AcDbEntity
  8
テンプレート
100
AcDbText
 10
36.7528253083583
 20
53.09440584367189
 30
0.0
 40
5.5
  1
ドアノブ(片面固定タイプ) - FSB -
  7
ＭＳ ゴシック
100
AcDbText
  0
TEXT
  5
36D7
330
A
100
AcDbEntity
  8
テンプレート
100
AcDbText
 10
402.4780628917259
 20
52.97708052455302
 30
0.0
 40
5.5
  1
FSB11-0803A
  7
ＭＳ ゴシック
100
AcDbText
  0
LINE
  5
36D8
330
A
100
AcDbEntity
  8
テンプレート
100
AcDbLine
 10
459.1755527377521
 20
50.16496477419605
 30
0.0
 11
15.30952622855898
 21
50.16496477419605
 31
0.0
  0
LINE
  5
36D9
330
A
100
AcDbEntity
  8
テンプレート
100
AcDbLine
 10
578.6904737714411
 20
62.22153683920783
 30
0.0
 11
15.30952622855898
 21
62.22153683920783
 31
0.0
  0
LINE
  5
36DA
330
A
100
AcDbEntity
  8
PRINT BORDER
100
AcDbLine
 10
593.9999999999999
 20
210.0
 30
0.0
 11
578.6904737714411
 21
210.0
 31
0.0
  0
LINE
  5
36DB
330
A
100
AcDbEntity
  8
PRINT BORDER
100
AcDbLine
 10
0.0
 20
210.0
 30
0.0
 11
15.30952622855898
 21
210.0
 31
0.0
  0
LINE
  5
36DC
330
A
100
AcDbEntity
  8
PRINT BORDER
100
AcDbLine
 10
296.9999999999999
 20
420.0
 30
0.0
 11
296.9999999999999
 21
404.690473771441
 31
0.0
  0
LINE
  5
36DD
330
A
100
AcDbEntity
  8
テンプレート
100
AcDbLine
 10
578.6904737714411
 20
62.22153683920783
 30
0.0
 11
578.6904737714411
 21
26.22153683920783
 31
0.0
  0
LINE
  5
36DE
330
A
100
AcDbEntity
  8
テンプレート
100
AcDbLine
 10
15.30952622855898
 20
62.22153683920783
 30
0.0
 11
15.30952622855898
 21
26.22153683920783
 31
0.0
  0
TEXT
  5
36DF
330
A
100
AcDbEntity
  8
テンプレート
100
AcDbText
 10
461.264305205099
 20
56.585230523099
 30
0.0
 40
3.5
  1
備考
  7
ＭＳ ゴシック
100
AcDbText
  0
TEXT
  5
36E0
330
A
100
AcDbEntity
  8
テンプレート
100
AcDbText
 10
494.9733384955217
 20
16.51938390313694
 30
0.0
 40
5.5
  1
大洋金物株式会社  
  7
ＭＳ ゴシック
100
AcDbText
  0
LINE
  5
36E1
330
A
100
AcDbEntity
  8
テンプレート
100
AcDbLine
 10
459.1755527377521
 20
62.22153683920786
 30
0.0
 11
459.1755527377521
 21
26.22153683920786
 31
0.0
  0
LINE
  5
36E2
330
A
100
AcDbEntity
  8
テンプレート
100
AcDbLine
 10
385.4732766432275
 20
62.22153683920784
 30
0.0
 11
385.4732766432275
 21
26.22153683920784
 31
0.0
  0
INSERT
  5
36E3
330
A
100
AcDbEntity
  8
テンプレート
100
AcDbBlockReference
  2
名称未設定-1
 10
548.3945198859805
 20
-7.642344203993161
 30
0.0
 41
0.180975
 42
0.180975
 43
0.180975
  0
LINE
  5
36E5
330
A
100
AcDbEntity
  8
テンプレート
100
AcDbLine
 10
15.30952622855898
 20
210.0
 30
0.0
 11
15.30952622855898
 21
26.22153683920783
 31
0.0
  0
LINE
  5
36E6
330
A
100
AcDbEntity
  8
テンプレート
100
AcDbLine
 10
15.30952622855898
 20
210.0
 30
0.0
 11
15.30952622855898
 21
404.690473771441
 31
0.0
  0
LINE
  5
36E7
330
A
100
AcDbEntity
  8
テンプレート
100
AcDbLine
 10
296.9999999999999
 20
404.690473771441
 30
0.0
 11
15.30952622855887
 21
404.690473771441
 31
0.0
  0
LINE
  5
36E8
330
A
100
AcDbEntity
  8
テンプレート
100
AcDbLine
 10
296.9999999999999
 20
404.690473771441
 30
0.0
 11
578.6904737714411
 21
404.690473771441
 31
0.0
  0
LINE
  5
36E9
330
A
100
AcDbEntity
  8
テンプレート
100
AcDbLine
 10
578.6904737714411
 20
210.0
 30
0.0
 11
578.6904737714411
 21
404.690473771441
 31
0.0
  0
LINE
  5
36EA
330
A
100
AcDbEntity
  8
テンプレート
100
AcDbLine
 10
578.6904737714411
 20
210.0
 30
0.0
 11
578.6904737714411
 21
26.22153683920783
 31
0.0
  0
LWPOLYLINE
  5
36EB
330
A
100
AcDbEntity
  8
PRINT BORDER
  6
HIDDEN
 48
3.0
100
AcDbPolyline
 90
        4
 70
     1
 43
0.0
 10
0.0
 20
0.0
 10
0.0
 20
420.0
 10
593.9999999999999
 20
420.0
 10
593.9999999999999
 20
0.0
  0
TEXT
  5
36EC
330
A
100
AcDbEntity
  8
テンプレート
100
AcDbText
 10
387.2721922654497
 20
32.62405342819489
 30
0.0
 40
3.5
  1
縮尺
  7
ＭＳ ゴシック
100
AcDbText
  0
TEXT
  5
36ED
330
A
100
AcDbEntity
  8
テンプレート
100
AcDbText
 10
402.4780628917259
 20
28.29362070227196
 30
0.0
 40
5.5
  1
1/2
  7
ＭＳ ゴシック
100
AcDbText
  0
TEXT
  5
37DE
330
A
100
AcDbEntity
  8
テンプレート
100
AcDbText
 10
387.2966251611582
 20
44.52865845808584
 30
0.0
 40
3.5
  1
扉厚
  7
ＭＳ ゴシック
100
AcDbText
  0
LINE
  5
4DC3
330
A
100
AcDbEntity
  8
テンプレート
100
AcDbLine
 10
385.4732766432275
 20
44.22153683920784
 30
0.0
 11
34.39354323042302
 21
44.22153683920783
 31
0.0
  0
MTEXT
  5
4DC4
330
A
100
AcDbEntity
  8
テンプレート
390
1D
100
AcDbMText
 10
37.96371073638406
 20
34.5735467514192
 30
0.0
 40
5.0
 41
0.0
 46
5.075
 71
     1
 72
     1
  1
{ステンレス}
  7
ＭＳ ゴシック
 73
     1
 44
0.7828267384257843
1001
ACAD
1000
ACAD_MTEXT_DEFINED_HEIGHT_BEGIN
1070
    46
1040
5.075
1000
ACAD_MTEXT_DEFINED_HEIGHT_END
  0
MTEXT
  5
4DC5
330
A
100
AcDbEntity
  8
テンプレート
390
1D
100
AcDbMText
 10
38.07896490499746
 20
49.42639273036746
 30
0.0
 40
4.0
 41
0.0
 46
4.264
 71
     1
 72
     1
  1
{サテン}
  7
ＭＳ ゴシック
 73
     1
 44
0.7828267384257843
1001
ACAD
1000
ACAD_MTEXT_DEFINED_HEIGHT_BEGIN
1070
    46
1040
4.264
1000
ACAD_MTEXT_DEFINED_HEIGHT_END
  0
MTEXT
  5
4DC6
330
A
100
AcDbEntity
  8
テンプレート
390
1D
100
AcDbMText
 10
38.07896490499746
 20
43.78124651965916
 30
0.0
 40
4.0
 41
0.0
 46
4.344
 71
     1
 72
     1
  1
{ポリッシュ}
  7
ＭＳ ゴシック
 73
     1
 44
0.7828267384257843
1001
ACAD
1000
ACAD_MTEXT_DEFINED_HEIGHT_BEGIN
1070
    46
1040
4.344
1000
ACAD_MTEXT_DEFINED_HEIGHT_END
  0
TEXT
  5
4E0D
330
A
100
AcDbEntity
  8
テンプレート
100
AcDbText
 10
181.7507280995997
 20
96.8861054737735
 30
0.0
 40
5.0
  1
　 加工は現物合わせの上行って下さい。
  7
ＭＳ ゴシック
100
AcDbText
  0
TEXT
  5
4E0E
330
A
100
AcDbEntity
  8
テンプレート
100
AcDbText
 10
181.9229711818083
 20
104.9898895699137
 30
0.0
 40
5.0
  1
※ 輸入製品の為、国内製品と比べ製品寸法の個体差に幅が有ります。
  7
ＭＳ ゴシック
100
AcDbText
  0
TEXT
  5
4E0F
330
A
100
AcDbEntity
  8
テンプレート
100
AcDbText
 10
181.7507280995997
 20
87.514474169293
 30
0.0
 40
5.0
  1
※ ご注文の際は正確な扉厚の指示をしてください。
  7
ＭＳ ゴシック
100
AcDbText
  0
TEXT
  5
4E10
330
A
100
AcDbEntity
  8
テンプレート
100
AcDbText
 10
181.7507280995997
 20
78.81498553830707
 30
0.0
 40
5.0
  1
※ イモネジ・ビスのゆるみ止め防止のために金属製ネジ用ゆるみ止め剤(中強度タイプ)
  7
ＭＳ ゴシック
100
AcDbText
  0
TEXT
  5
4E11
330
A
100
AcDbEntity
  8
テンプレート
100
AcDbText
 10
177.9862824207493
 20
69.37411239193082
 30
0.0
 40
5.0
  1
　　を用意して塗布してください。(推奨商品　住友3M社TL42J等)
  7
ＭＳ ゴシック
100
AcDbText
  0
MTEXT
  5
4E13
102
{ACAD_XDICTIONARY
360
4E15
102
}
330
A
100
AcDbEntity
  8
TFORMLOGO
100
AcDbMText
 10
16.5085163356771
 20
23.69936259043238
 30
0.0
 40
4.0
 41
0.0
 46
4.0
 71
     1
 72
     1
  1
{20180521N}
  7
ＭＳ ゴシック
 73
     1
 44
1.0
1001
ACAD
1000
ACAD_MTEXT_DEFINED_HEIGHT_BEGIN
1070
    46
1040
4.0
1000
ACAD_MTEXT_DEFINED_HEIGHT_END
  0
LINE
  5
4E1F
330
A
100
AcDbEntity
  8
TFORMLOGO
100
AcDbLine
 10
34.39354323042302
 20
26.22153683920783
 30
0.0
 11
34.39354323042301
 21
50.16496477419605
 31
0.0
  0
ARC
  5
4E8D
330
A
100
AcDbEntity
  8
モデル
100
AcDbCircle
 10
128.349828102125
 20
334.4264009962371
 30
0.0
 40
4.278629667842433
100
AcDbArc
 50
314.1212062821342
 51
355.6414738848263
  0
LINE
  5
4E91
330
A
100
AcDbEntity
  8
モデル
100
AcDbLine
 10
156.6160840779118
 20
351.4580557552677
 30
0.0
 11
156.6160840779118
 21
334.1012367552676
 31
0.0
  0
LINE
  5
4E93
330
A
100
AcDbEntity
  8
モデル
100
AcDbLine
 10
132.6160840779118
 20
334.1012367552676
 30
0.0
 11
132.6160840779118
 21
351.4580557552677
 31
0.0
  0
LINE
  5
4EA1
330
A
100
AcDbEntity
  8
モデル
100
AcDbLine
 10
156.6160840779118
 20
351.4580557552677
 30
0.0
 11
132.6160840779118
 21
351.4580557552677
 31
0.0
  0
CIRCLE
  5
4EA6
330
A
100
AcDbEntity
  8
モデル
100
AcDbCircle
 10
144.6160840779118
 20
181.1495894975989
 30
0.0
 40
30.0
  0
LINE
  5
4EC1
330
A
100
AcDbEntity
  8
モデル
100
AcDbLine
 10
232.9974131091104
 20
193.149589497599
 30
0.0
 11
232.9974131091104
 21
169.149589497599
 31
0.0
  0
LINE
  5
4EDC
102
{ACAD_REACTORS
330
4FBD
330
552E
102
}
330
A
100
AcDbEntity
  8
モデル
100
AcDbLine
 10
117.1160840779118
 20
351.4580557552677
 30
0.0
 11
172.1160840779118
 21
351.4580557552677
 31
0.0
  0
LINE
  5
4EDD
102
{ACAD_REACTORS
330
552E
102
}
330
A
100
AcDbEntity
  8
モデル
100
AcDbLine
 10
172.1160840779118
 20
351.4580557552677
 30
0.0
 11
172.1160840779118
 21
358.4580557552677
 31
0.0
  0
LINE
  5
4EDE
102
{ACAD_REACTORS
330
552E
330
5710
102
}
330
A
100
AcDbEntity
  8
モデル
100
AcDbLine
 10
172.1160840779118
 20
358.4580557552677
 30
0.0
 11
117.1160840779118
 21
358.4580557552677
 31
0.0
  0
LINE
  5
4EDF
102
{ACAD_REACTORS
330
4FBD
330
552E
330
5701
102
}
330
A
100
AcDbEntity
  8
モデル
100
AcDbLine
 10
117.1160840779118
 20
358.4580557552677
 30
0.0
 11
117.1160840779118
 21
351.4580557552677
 31
0.0
  0
LINE
  5
4FA7
102
{ACAD_REACTORS
330
552D
102
}
330
A
100
AcDbEntity
  8
モデル
100
AcDbLine
 10
232.9974131091103
 20
153.649589497599
 30
0.0
 11
232.9974131091104
 21
208.649589497599
 31
0.0
  0
LINE
  5
4FA8
102
{ACAD_REACTORS
330
552D
102
}
330
A
100
AcDbEntity
  8
モデル
100
AcDbLine
 10
232.9974131091104
 20
208.649589497599
 30
0.0
 11
225.9974131091104
 21
208.6495894975991
 31
0.0
  0
LINE
  5
4FA9
102
{ACAD_REACTORS
330
552D
102
}
330
A
100
AcDbEntity
  8
モデル
100
AcDbLine
 10
225.9974131091104
 20
208.6495894975991
 30
0.0
 11
225.9974131091103
 21
153.6495894975991
 31
0.0
  0
LINE
  5
4FAA
102
{ACAD_REACTORS
330
552D
102
}
330
A
100
AcDbEntity
  8
モデル
100
AcDbLine
 10
225.9974131091103
 20
153.6495894975991
 30
0.0
 11
232.9974131091103
 21
153.649589497599
 31
0.0
  0
DIMENSION
  5
4FBB
102
{ACAD_REACTORS
330
4FBD
102
}
102
{ACAD_XDICTIONARY
360
4FBC
102
}
330
A
100
AcDbEntity
  8
寸法
100
AcDbDimension
  2
*D17
 10
94.2486506697812
 20
358.4580557552677
 30
0.0
 11
94.2486506697812
 21
355.0121221577136
 31
0.0
 70
   160
 71
     5
 42
7.0
 73
     0
 74
     0
 75
     0
  3
tfrom線あり
100
AcDbAlignedDimension
 13
117.1160840779118
 23
351.4580557552677
 33
0.0
 14
117.1160840779118
 24
358.4580557552677
 34
0.0
 50
90.0
100
AcDbRotatedDimension
1001
ACAD
1000
DSTYLE
1002
{
1070
   144
1040
1.0
1002
}
  0
CIRCLE
  5
513E
330
A
100
AcDbEntity
  8
モデル
  6
HIDDEN
100
AcDbCircle
 10
144.6160840779118
 20
181.1495894975989
 30
0.0
 40
27.5
  0
DIMENSION
  5
5185
330
A
100
AcDbEntity
  8
寸法
100
AcDbDimension
  2
*D28
 10
174.5884440686979
 20
249.1324392999663
 30
0.0
 11
144.6160840779117
 21
249.1324392999664
 31
0.0
 70
   160
 71
     5
 42
59.9723599907862
 73
     0
 74
     0
 75
     0
 52
-270.0
  3
tfrom線あり
100
AcDbAlignedDimension
 13
114.6160840779118
 23
291.3102498763052
 33
0.0
 14
174.588444068698
 24
292.5977422385031
 34
0.0
 50
179.9999999999998
100
AcDbRotatedDimension
1001
ACAD
1000
DSTYLE
1002
{
1070
   144
1040
1.0
1002
}
  0
DIMENSION
  5
51D6
102
{ACAD_XDICTIONARY
360
51D7
102
}
330
A
100
AcDbEntity
  8
寸法
100
AcDbDimension
  2
*D30
 10
104.4928729501027
 20
208.649589497599
 30
0.0
 11
104.4928729501027
 21
181.1495894975991
 31
0.0
 70
   160
 71
     5
 42
55.0
 73
     0
 74
     0
 75
     0
  3
tfrom線あり
100
AcDbAlignedDimension
 13
133.1591618877102
 23
153.649589497599
 33
0.0
 14
133.1591618877102
 24
208.649589497599
 34
0.0
 50
90.0
100
AcDbRotatedDimension
1001
ACAD
1000
DSTYLE
1002
{
1070
   144
1040
1.0
1002
}
  0
LINE
  5
538C
330
A
100
AcDbEntity
  8
モデル
100
AcDbLine
 10
510.9619534187508
 20
204.6495894975989
 30
0.0
 11
513.9619534187508
 21
204.6495894975989
 31
0.0
  0
LINE
  5
538D
330
A
100
AcDbEntity
  8
モデル
100
AcDbLine
 10
510.9619534187508
 20
157.6495894975989
 30
0.0
 11
513.9619534187508
 21
157.6495894975989
 31
0.0
  0
LINE
  5
538E
330
A
100
AcDbEntity
  8
モデル
100
AcDbLine
 10
510.9619534187508
 20
204.6495894975989
 30
0.0
 11
510.9619534187508
 21
157.6495894975989
 31
0.0
  0
LINE
  5
538F
330
A
100
AcDbEntity
  8
モデル
100
AcDbLine
 10
513.9619534187508
 20
204.6495894975989
 30
0.0
 11
513.9619534187508
 21
157.6495894975989
 31
0.0
  0
LINE
  5
5390
330
A
100
AcDbEntity
  8
モデル
100
AcDbLine
 10
513.9619534187508
 20
178.6495894975989
 30
0.0
 11
516.8052009079976
 21
178.6495894975989
 31
0.0
  0
LINE
  5
5391
330
A
100
AcDbEntity
  8
モデル
100
AcDbLine
 10
513.9619534187508
 20
183.6495894975989
 30
0.0
 11
516.8052009079973
 21
183.6495894975989
 31
0.0
  0
LINE
  5
5392
330
A
100
AcDbEntity
  8
モデル
100
AcDbLine
 10
516.8052009079976
 20
178.6495894975991
 30
0.0
 11
516.8052009079976
 21
183.6495894975991
 31
0.0
  0
LINE
  5
5393
330
A
100
AcDbEntity
  8
モデル
100
AcDbLine
 10
528.9619534187508
 20
185.6495894975989
 30
0.0
 11
537.9619534187508
 21
185.6495894975989
 31
0.0
  0
LINE
  5
5397
330
A
100
AcDbEntity
  8
モデル
100
AcDbLine
 10
524.4619534187508
 20
184.3995894975989
 30
0.0
 11
527.4619534187508
 21
184.3995894975989
 31
0.0
  0
LINE
  5
5398
330
A
100
AcDbEntity
  8
モデル
100
AcDbLine
 10
522.9619534187508
 20
185.6495894975989
 30
0.0
 11
524.4619534187508
 21
184.3995894975989
 31
0.0
  0
LINE
  5
5399
330
A
100
AcDbEntity
  8
モデル
100
AcDbLine
 10
527.4619534187508
 20
184.3995894975989
 30
0.0
 11
528.9619534187508
 21
185.6495894975989
 31
0.0
  0
LINE
  5
539A
330
A
100
AcDbEntity
  8
モデル
100
AcDbLine
 10
528.9619534187508
 20
176.6495894975989
 30
0.0
 11
537.9619534187508
 21
176.6495894975989
 31
0.0
  0
LINE
  5
539B
330
A
100
AcDbEntity
  8
モデル
100
AcDbLine
 10
524.4619534187508
 20
177.8995894975989
 30
0.0
 11
527.4619534187508
 21
177.8995894975989
 31
0.0
  0
LINE
  5
539C
330
A
100
AcDbEntity
  8
モデル
100
AcDbLine
 10
522.9619534187508
 20
176.6495894975989
 30
0.0
 11
524.4619534187508
 21
177.8995894975989
 31
0.0
  0
LINE
  5
539D
330
A
100
AcDbEntity
  8
モデル
100
AcDbLine
 10
527.4619534187508
 20
177.8995894975989
 30
0.0
 11
528.9619534187508
 21
176.6495894975989
 31
0.0
  0
LINE
  5
539E
330
A
100
AcDbEntity
  8
モデル
100
AcDbLine
 10
537.9619534187508
 20
185.6495894975989
 30
0.0
 11
537.9619534187508
 21
176.6495894975989
 31
0.0
  0
LINE
  5
539F
330
A
100
AcDbEntity
  8
モデル
100
AcDbLine
 10
513.9619534187508
 20
185.6495894975989
 30
0.0
 11
522.9619534187508
 21
185.6495894975989
 31
0.0
  0
LINE
  5
53A0
330
A
100
AcDbEntity
  8
モデル
100
AcDbLine
 10
513.9619534187508
 20
176.6495894975989
 30
0.0
 11
522.9619534187508
 21
176.6495894975989
 31
0.0
  0
CIRCLE
  5
53A2
330
A
100
AcDbEntity
  8
モデル
100
AcDbCircle
 10
440.0059912965927
 20
181.1495894975989
 30
0.0
 40
23.5
  0
CIRCLE
  5
53A3
330
A
100
AcDbEntity
  8
モデル
100
AcDbCircle
 10
440.0059912965927
 20
181.1495894975989
 30
0.0
 40
4.0
  0
CIRCLE
  5
53A4
330
A
100
AcDbEntity
  8
モデル
100
AcDbCircle
 10
440.0059912965927
 20
162.1495894975989
 30
0.0
 40
4.5
  0
CIRCLE
  5
53A5
330
A
100
AcDbEntity
  8
モデル
100
AcDbCircle
 10
440.0059912965927
 20
162.1495894975989
 30
0.0
 40
2.5
  0
CIRCLE
  5
53A6
330
A
100
AcDbEntity
  8
モデル
100
AcDbCircle
 10
450.5059912965927
 20
170.6495894975989
 30
0.0
 40
4.5
  0
CIRCLE
  5
53A7
330
A
100
AcDbEntity
  8
モデル
100
AcDbCircle
 10
450.5059912965927
 20
170.6495894975989
 30
0.0
 40
2.5
  0
CIRCLE
  5
53A8
330
A
100
AcDbEntity
  8
モデル
100
AcDbCircle
 10
429.5059912965927
 20
170.6495894975989
 30
0.0
 40
4.5
  0
CIRCLE
  5
53A9
330
A
100
AcDbEntity
  8
モデル
100
AcDbCircle
 10
429.5059912965927
 20
170.6495894975989
 30
0.0
 40
2.5
  0
CIRCLE
  5
53AA
330
A
100
AcDbEntity
  8
モデル
100
AcDbCircle
 10
450.5059912965927
 20
191.6495894975989
 30
0.0
 40
4.5
  0
CIRCLE
  5
53AB
330
A
100
AcDbEntity
  8
モデル
100
AcDbCircle
 10
450.5059912965927
 20
191.6495894975989
 30
0.0
 40
2.5
  0
CIRCLE
  5
53AC
330
A
100
AcDbEntity
  8
モデル
100
AcDbCircle
 10
429.5059912965927
 20
191.6495894975989
 30
0.0
 40
4.5
  0
CIRCLE
  5
53AD
330
A
100
AcDbEntity
  8
モデル
100
AcDbCircle
 10
429.5059912965927
 20
191.6495894975989
 30
0.0
 40
2.5
  0
CIRCLE
  5
53AE
330
A
100
AcDbEntity
  8
モデル
100
AcDbCircle
 10
440.0059912965927
 20
200.1495894975989
 30
0.0
 40
4.5
  0
CIRCLE
  5
53AF
330
A
100
AcDbEntity
  8
モデル
100
AcDbCircle
 10
440.0059912965927
 20
200.1495894975989
 30
0.0
 40
2.5
  0
CIRCLE
  5
53B0
330
A
100
AcDbEntity
  8
モデル
100
AcDbCircle
 10
459.0059912965927
 20
181.1495894975989
 30
0.0
 40
2.5
  0
CIRCLE
  5
53B1
330
A
100
AcDbEntity
  8
モデル
100
AcDbCircle
 10
421.0059912965927
 20
181.1495894975989
 30
0.0
 40
2.5
  0
LINE
  5
53B2
330
A
100
AcDbEntity
  8
モデル
100
AcDbLine
 10
463.5059912965927
 20
320.7919453573942
 30
0.0
 11
416.5059912965927
 21
320.7919453573942
 31
0.0
  0
LINE
  5
53B3
330
A
100
AcDbEntity
  8
モデル
100
AcDbLine
 10
416.5059912965927
 20
323.7919453573942
 30
0.0
 11
416.5059912965927
 21
320.7919453573942
 31
0.0
  0
LINE
  5
53B4
330
A
100
AcDbEntity
  8
モデル
100
AcDbLine
 10
463.5059912965927
 20
323.7919453573942
 30
0.0
 11
416.5059912965927
 21
323.7919453573942
 31
0.0
  0
LINE
  5
53B5
330
A
100
AcDbEntity
  8
モデル
100
AcDbLine
 10
463.5059912965927
 20
323.7919453573942
 30
0.0
 11
463.5059912965927
 21
320.7919453573942
 31
0.0
  0
LINE
  5
53B9
330
A
100
AcDbEntity
  8
モデル
100
AcDbLine
 10
456.5059912965927
 20
320.7919453573942
 30
0.0
 11
456.5059912965927
 21
317.9486978681474
 31
0.0
  0
LINE
  5
53BB
330
A
100
AcDbEntity
  8
モデル
100
AcDbLine
 10
461.5059912965927
 20
320.7919453573942
 30
0.0
 11
461.5059912965927
 21
317.9486978681476
 31
0.0
  0
LINE
  5
53BE
330
A
100
AcDbEntity
  8
モデル
100
AcDbLine
 10
433.0059912965927
 20
273.9963100963694
 30
0.0
 11
426.0059912965927
 21
273.9963100963694
 31
0.0
  0
LINE
  5
53BF
330
A
100
AcDbEntity
  8
モデル
100
AcDbLine
 10
431.5059912965927
 20
275.9963100963694
 30
0.0
 11
427.5059912965927
 21
275.9963100963694
 31
0.0
  0
LINE
  5
53C0
330
A
100
AcDbEntity
  8
モデル
100
AcDbLine
 10
433.0059912965927
 20
273.9963100963694
 30
0.0
 11
431.5059912965927
 21
275.9963100963694
 31
0.0
  0
LINE
  5
53C1
330
A
100
AcDbEntity
  8
モデル
100
AcDbLine
 10
431.5059912965927
 20
275.9963100963694
 30
0.0
 11
431.0059912965927
 21
277.9963100963694
 31
0.0
  0
LINE
  5
53C2
330
A
100
AcDbEntity
  8
モデル
100
AcDbLine
 10
431.0059912965927
 20
277.9963100963694
 30
0.0
 11
431.0059912965927
 21
287.0544373691729
 31
0.0
  0
LINE
  5
53C3
330
A
100
AcDbEntity
  8
モデル
100
AcDbLine
 10
429.5059912965927
 20
288.9963100963694
 30
0.0
 11
431.0059912965927
 21
287.0544373691729
 31
0.0
  0
LINE
  5
53C4
330
A
100
AcDbEntity
  8
モデル
100
AcDbLine
 10
427.5059912965927
 20
275.9963100963694
 30
0.0
 11
426.0059912965927
 21
273.9963100963694
 31
0.0
  0
LINE
  5
53C5
330
A
100
AcDbEntity
  8
モデル
100
AcDbLine
 10
428.0059912965927
 20
277.9963100963694
 30
0.0
 11
427.5059912965927
 21
275.9963100963694
 31
0.0
  0
LINE
  5
53C6
330
A
100
AcDbEntity
  8
モデル
100
AcDbLine
 10
428.0059912965927
 20
277.9963100963694
 30
0.0
 11
428.0059912965927
 21
287.0544373691729
 31
0.0
  0
LINE
  5
53C7
330
A
100
AcDbEntity
  8
モデル
100
AcDbLine
 10
429.5059912965927
 20
288.9963100963694
 30
0.0
 11
428.0059912965927
 21
287.0544373691729
 31
0.0
  0
HATCH
  5
53C8
330
A
100
AcDbEntity
  8
モデル
100
AcDbHatch
 10
0.0
 20
0.0
 30
0.0
210
0.0
220
0.0
230
1.0
  2
ANSI31
 70
     0
 71
     0
 91
        1
 92
        1
 93
        5
 72
     1
 10
431.0059912965927
 20
277.9963100963694
 11
431.0059912965927
 21
287.0544373691729
 72
     1
 10
429.5059912965927
 20
288.9963100963694
 11
431.0059912965927
 21
287.0544373691729
 72
     1
 10
429.5059912965927
 20
288.9963100963694
 11
428.0059912965927
 21
287.0544373691729
 72
     1
 10
428.0059912965927
 20
277.9963100963694
 11
428.0059912965927
 21
287.0544373691729
 72
     1
 10
431.0059912965927
 20
277.9963100963694
 11
428.0059912965927
 21
277.9963100963694
 97
        0
 75
     0
 76
     1
 52
180.0
 41
0.5
 77
     0
 78
     1
 53
225.0
 43
714.743130172585
 44
553.6557892492987
 45
1.122532015133644
 46
-1.122532015133644
 79
     0
 98
        1
 10
714.743130172585
 20
553.6557892492987
1001
ACAD
1010
0.0
1020
0.0
1030
0.0
  0
LINE
  5
53C9
330
A
100
AcDbEntity
  8
寸法
  6
CENTER
100
AcDbLine
 10
429.5059912965927
 20
319.0536133013576
 30
0.0
 11
429.5059912965927
 21
290.7242154591835
 31
0.0
  0
LINE
  5
53CA
330
A
100
AcDbEntity
  8
モデル
100
AcDbLine
 10
443.5059912965927
 20
273.9963100963694
 30
0.0
 11
436.5059912965927
 21
273.9963100963694
 31
0.0
  0
LINE
  5
53CB
330
A
100
AcDbEntity
  8
モデル
100
AcDbLine
 10
442.0059912965927
 20
275.9963100963694
 30
0.0
 11
438.0059912965927
 21
275.9963100963694
 31
0.0
  0
LINE
  5
53CC
330
A
100
AcDbEntity
  8
モデル
100
AcDbLine
 10
443.5059912965927
 20
273.9963100963694
 30
0.0
 11
442.0059912965927
 21
275.9963100963694
 31
0.0
  0
LINE
  5
53CD
330
A
100
AcDbEntity
  8
モデル
100
AcDbLine
 10
442.0059912965927
 20
275.9963100963694
 30
0.0
 11
441.5059912965927
 21
277.9963100963694
 31
0.0
  0
LINE
  5
53CE
330
A
100
AcDbEntity
  8
モデル
100
AcDbLine
 10
441.5059912965927
 20
277.9963100963694
 30
0.0
 11
441.5059912965927
 21
287.0544373691729
 31
0.0
  0
LINE
  5
53CF
330
A
100
AcDbEntity
  8
モデル
100
AcDbLine
 10
440.0059912965927
 20
288.9963100963694
 30
0.0
 11
441.5059912965927
 21
287.0544373691729
 31
0.0
  0
LINE
  5
53D0
330
A
100
AcDbEntity
  8
モデル
100
AcDbLine
 10
438.0059912965927
 20
275.9963100963694
 30
0.0
 11
436.5059912965927
 21
273.9963100963694
 31
0.0
  0
LINE
  5
53D1
330
A
100
AcDbEntity
  8
モデル
100
AcDbLine
 10
438.5059912965927
 20
277.9963100963694
 30
0.0
 11
438.0059912965927
 21
275.9963100963694
 31
0.0
  0
LINE
  5
53D2
330
A
100
AcDbEntity
  8
モデル
100
AcDbLine
 10
438.5059912965927
 20
277.9963100963694
 30
0.0
 11
438.5059912965927
 21
287.0544373691729
 31
0.0
  0
LINE
  5
53D3
330
A
100
AcDbEntity
  8
モデル
100
AcDbLine
 10
440.0059912965927
 20
288.9963100963694
 30
0.0
 11
438.5059912965927
 21
287.0544373691729
 31
0.0
  0
HATCH
  5
53D4
330
A
100
AcDbEntity
  8
モデル
100
AcDbHatch
 10
0.0
 20
0.0
 30
0.0
210
0.0
220
0.0
230
1.0
  2
ANSI31
 70
     0
 71
     0
 91
        1
 92
        1
 93
        5
 72
     1
 10
441.5059912965927
 20
277.9963100963694
 11
441.5059912965927
 21
287.0544373691729
 72
     1
 10
440.0059912965927
 20
288.9963100963694
 11
441.5059912965927
 21
287.0544373691729
 72
     1
 10
440.0059912965927
 20
288.9963100963694
 11
438.5059912965927
 21
287.0544373691729
 72
     1
 10
438.5059912965927
 20
277.9963100963694
 11
438.5059912965927
 21
287.0544373691729
 72
     1
 10
441.5059912965927
 20
277.9963100963694
 11
438.5059912965927
 21
277.9963100963694
 97
        0
 75
     0
 76
     1
 52
180.0
 41
0.5
 77
     0
 78
     1
 53
225.0
 43
725.243130172585
 44
553.6557892492987
 45
1.122532015133644
 46
-1.122532015133644
 79
     0
 98
        1
 10
725.243130172585
 20
553.6557892492987
1001
ACAD
1010
0.0
1020
0.0
1030
0.0
  0
LINE
  5
53D5
330
A
100
AcDbEntity
  8
モデル
100
AcDbLine
 10
454.0059912965927
 20
273.9963100963694
 30
0.0
 11
447.0059912965927
 21
273.9963100963694
 31
0.0
  0
LINE
  5
53D6
330
A
100
AcDbEntity
  8
モデル
100
AcDbLine
 10
452.5059912965927
 20
275.9963100963694
 30
0.0
 11
448.5059912965927
 21
275.9963100963694
 31
0.0
  0
LINE
  5
53D7
330
A
100
AcDbEntity
  8
モデル
100
AcDbLine
 10
454.0059912965927
 20
273.9963100963694
 30
0.0
 11
452.5059912965927
 21
275.9963100963694
 31
0.0
  0
LINE
  5
53D8
330
A
100
AcDbEntity
  8
モデル
100
AcDbLine
 10
452.5059912965927
 20
275.9963100963694
 30
0.0
 11
452.0059912965927
 21
277.9963100963694
 31
0.0
  0
LINE
  5
53D9
330
A
100
AcDbEntity
  8
モデル
100
AcDbLine
 10
452.0059912965927
 20
277.9963100963694
 30
0.0
 11
452.0059912965927
 21
287.0544373691729
 31
0.0
  0
LINE
  5
53DA
330
A
100
AcDbEntity
  8
モデル
100
AcDbLine
 10
450.5059912965927
 20
288.9963100963694
 30
0.0
 11
452.0059912965927
 21
287.0544373691729
 31
0.0
  0
LINE
  5
53DB
330
A
100
AcDbEntity
  8
モデル
100
AcDbLine
 10
448.5059912965927
 20
275.9963100963694
 30
0.0
 11
447.0059912965927
 21
273.9963100963694
 31
0.0
  0
LINE
  5
53DC
330
A
100
AcDbEntity
  8
モデル
100
AcDbLine
 10
449.0059912965927
 20
277.9963100963694
 30
0.0
 11
448.5059912965927
 21
275.9963100963694
 31
0.0
  0
LINE
  5
53DD
330
A
100
AcDbEntity
  8
モデル
100
AcDbLine
 10
449.0059912965927
 20
277.9963100963694
 30
0.0
 11
449.0059912965927
 21
287.0544373691729
 31
0.0
  0
LINE
  5
53DE
330
A
100
AcDbEntity
  8
モデル
100
AcDbLine
 10
450.5059912965927
 20
288.9963100963694
 30
0.0
 11
449.0059912965927
 21
287.0544373691729
 31
0.0
  0
HATCH
  5
53DF
330
A
100
AcDbEntity
  8
モデル
100
AcDbHatch
 10
0.0
 20
0.0
 30
0.0
210
0.0
220
0.0
230
1.0
  2
ANSI31
 70
     0
 71
     0
 91
        1
 92
        1
 93
        5
 72
     1
 10
452.0059912965927
 20
277.9963100963694
 11
452.0059912965927
 21
287.0544373691729
 72
     1
 10
450.5059912965927
 20
288.9963100963694
 11
452.0059912965927
 21
287.0544373691729
 72
     1
 10
450.5059912965927
 20
288.9963100963694
 11
449.0059912965927
 21
287.0544373691729
 72
     1
 10
449.0059912965927
 20
277.9963100963694
 11
449.0059912965927
 21
287.0544373691729
 72
     1
 10
452.0059912965927
 20
277.9963100963694
 11
449.0059912965927
 21
277.9963100963694
 97
        0
 75
     0
 76
     1
 52
180.0
 41
0.5
 77
     0
 78
     1
 53
225.0
 43
735.743130172585
 44
553.6557892492987
 45
1.122532015133644
 46
-1.122532015133644
 79
     0
 98
        1
 10
735.743130172585
 20
553.6557892492987
1001
ACAD
1010
0.0
1020
0.0
1030
0.0
  0
LINE
  5
53E0
330
A
100
AcDbEntity
  8
モデル
  6
HIDDEN
 48
0.5
100
AcDbLine
 39
0.005
 10
427.0059912965927
 20
323.7919453573942
 30
0.0
 11
425.0059912965927
 21
320.7919453573942
 31
0.0
  0
LINE
  5
53E1
330
A
100
AcDbEntity
  8
モデル
  6
HIDDEN
 48
0.5
100
AcDbLine
 39
0.005
 10
432.0059912965927
 20
323.7919453573942
 30
0.0
 11
434.0059912965927
 21
320.7919453573942
 31
0.0
  0
LINE
  5
53E2
330
A
100
AcDbEntity
  8
モデル
  6
HIDDEN
 48
0.5
100
AcDbLine
 39
0.005
 10
453.0059912965927
 20
323.7919453573942
 30
0.0
 11
455.0059912965927
 21
320.7919453573942
 31
0.0
  0
LINE
  5
53E3
330
A
100
AcDbEntity
  8
モデル
  6
HIDDEN
 48
0.5
100
AcDbLine
 39
0.005
 10
448.0059912965927
 20
323.7919453573942
 30
0.0
 11
446.0059912965927
 21
320.7919453573942
 31
0.0
  0
LINE
  5
53E4
330
A
100
AcDbEntity
  8
モデル
  6
HIDDEN
 48
0.5
100
AcDbLine
 39
0.005
 10
442.5059912965927
 20
323.7919453573942
 30
0.0
 11
444.5059912965927
 21
320.7919453573942
 31
0.0
  0
LINE
  5
53E5
330
A
100
AcDbEntity
  8
モデル
  6
HIDDEN
 48
0.5
100
AcDbLine
 39
0.005
 10
437.5059912965927
 20
323.7919453573942
 30
0.0
 11
435.5059912965927
 21
320.7919453573942
 31
0.0
  0
LINE
  5
53E6
330
A
100
AcDbEntity
  8
寸法
  6
CENTER
100
AcDbLine
 10
450.5059912965927
 20
319.0536133013576
 30
0.0
 11
450.5059912965927
 21
290.7242154591835
 31
0.0
  0
LINE
  5
53E7
330
A
100
AcDbEntity
  8
寸法
  6
CENTER
100
AcDbLine
 10
440.0059912965927
 20
319.0536133013576
 30
0.0
 11
440.0059912965927
 21
290.7242154591835
 31
0.0
  0
LINE
  5
53E8
330
A
100
AcDbEntity
  8
モデル
100
AcDbLine
 10
444.5059912965927
 20
305.7919453573942
 30
0.0
 11
444.5059912965927
 21
296.7919453573942
 31
0.0
  0
LINE
  5
53E9
330
A
100
AcDbEntity
  8
モデル
100
AcDbLine
 10
443.2559912965927
 20
310.2919453573942
 30
0.0
 11
443.2559912965927
 21
307.2919453573942
 31
0.0
  0
LINE
  5
53EA
330
A
100
AcDbEntity
  8
モデル
100
AcDbLine
 10
444.5059912965927
 20
311.7919453573942
 30
0.0
 11
443.2559912965927
 21
310.2919453573942
 31
0.0
  0
LINE
  5
53EB
330
A
100
AcDbEntity
  8
モデル
100
AcDbLine
 10
443.2559912965927
 20
307.2919453573942
 30
0.0
 11
444.5059912965927
 21
305.7919453573942
 31
0.0
  0
LINE
  5
53EC
330
A
100
AcDbEntity
  8
モデル
100
AcDbLine
 10
435.5059912965927
 20
305.7919453573942
 30
0.0
 11
435.5059912965927
 21
296.7919453573942
 31
0.0
  0
LINE
  5
53ED
330
A
100
AcDbEntity
  8
モデル
100
AcDbLine
 10
436.7559912965927
 20
310.2919453573942
 30
0.0
 11
436.7559912965927
 21
307.2919453573942
 31
0.0
  0
LINE
  5
53EE
330
A
100
AcDbEntity
  8
モデル
100
AcDbLine
 10
435.5059912965927
 20
311.7919453573942
 30
0.0
 11
436.7559912965927
 21
310.2919453573942
 31
0.0
  0
LINE
  5
53EF
330
A
100
AcDbEntity
  8
モデル
100
AcDbLine
 10
436.7559912965927
 20
307.2919453573942
 30
0.0
 11
435.5059912965927
 21
305.7919453573942
 31
0.0
  0
LINE
  5
53F0
330
A
100
AcDbEntity
  8
モデル
100
AcDbLine
 10
444.5059912965927
 20
296.7919453573942
 30
0.0
 11
435.5059912965927
 21
296.7919453573942
 31
0.0
  0
LINE
  5
53F1
330
A
100
AcDbEntity
  8
モデル
100
AcDbLine
 10
435.5059912965927
 20
320.7919453573942
 30
0.0
 11
435.5059912965927
 21
311.7919453573942
 31
0.0
  0
LINE
  5
53F2
330
A
100
AcDbEntity
  8
モデル
100
AcDbLine
 10
444.5059912965927
 20
320.7919453573942
 30
0.0
 11
444.5059912965927
 21
311.7919453573942
 31
0.0
  0
TEXT
  5
53F3
330
A
100
AcDbEntity
  8
テンプレート
100
AcDbText
 10
421.3340380062974
 20
359.0500707260908
 30
0.0
 40
6.0
  1
<取付部品>
  7
ＭＳ ゴシック
100
AcDbText
  0
LINE
  5
5447
102
{ACAD_REACTORS
330
56D2
102
}
330
A
100
AcDbEntity
  8
モデル
  6
HIDDEN
100
AcDbLine
 10
168.1160840779118
 20
355.4580557552677
 30
0.0
 11
121.1160840779118
 21
355.4580557552677
 31
0.0
  0
LINE
  5
5448
102
{ACAD_REACTORS
330
56D2
102
}
330
A
100
AcDbEntity
  8
モデル
  6
HIDDEN
100
AcDbLine
 10
121.1160840779118
 20
358.4580557552677
 30
0.0
 11
121.1160840779118
 21
355.4580557552677
 31
0.0
  0
LINE
  5
5449
102
{ACAD_REACTORS
330
56D2
102
}
330
A
100
AcDbEntity
  8
モデル
  6
HIDDEN
100
AcDbLine
 10
168.1160840779118
 20
358.4580557552677
 30
0.0
 11
168.1160840779118
 21
355.4580557552677
 31
0.0
  0
LINE
  5
544A
102
{ACAD_REACTORS
330
56D2
102
}
330
A
100
AcDbEntity
  8
モデル
  6
HIDDEN
100
AcDbLine
 10
128.1160840779118
 20
355.4580557552677
 30
0.0
 11
128.1160840779118
 21
352.6148082660209
 31
0.0
  0
LINE
  5
544B
102
{ACAD_REACTORS
330
56D2
102
}
330
A
100
AcDbEntity
  8
モデル
  6
HIDDEN
100
AcDbLine
 10
123.1160840779118
 20
352.6148082660209
 30
0.0
 11
128.1160840779118
 21
352.6148082660209
 31
0.0
  0
LINE
  5
544C
102
{ACAD_REACTORS
330
56D2
102
}
330
A
100
AcDbEntity
  8
モデル
  6
HIDDEN
100
AcDbLine
 10
123.1160840779118
 20
355.4580557552677
 30
0.0
 11
123.1160840779118
 21
352.6148082660209
 31
0.0
  0
LINE
  5
544D
102
{ACAD_REACTORS
330
56D2
102
}
330
A
100
AcDbEntity
  8
モデル
  6
HIDDEN
100
AcDbLine
 10
161.1160840779118
 20
355.4580557552677
 30
0.0
 11
161.1160840779118
 21
352.6148082660209
 31
0.0
  0
LINE
  5
544E
102
{ACAD_REACTORS
330
56D2
102
}
330
A
100
AcDbEntity
  8
モデル
  6
HIDDEN
100
AcDbLine
 10
166.1160840779119
 20
352.6148082660209
 30
0.0
 11
161.1160840779119
 21
352.6148082660209
 31
0.0
  0
LINE
  5
544F
102
{ACAD_REACTORS
330
56D2
102
}
330
A
100
AcDbEntity
  8
モデル
  6
HIDDEN
100
AcDbLine
 10
166.1160840779118
 20
355.4580557552677
 30
0.0
 11
166.1160840779118
 21
352.6148082660209
 31
0.0
  0
CIRCLE
  5
5450
102
{ACAD_REACTORS
330
56D2
102
}
330
A
100
AcDbEntity
  8
モデル
  6
HIDDEN
 48
0.5
100
AcDbCircle
 10
144.6160840779118
 20
343.4580557552677
 30
0.0
 40
2.0
  0
LINE
  5
5451
102
{ACAD_REACTORS
330
56D2
102
}
330
A
100
AcDbEntity
  8
モデル
  6
HIDDEN
100
AcDbLine
 10
158.6160840779118
 20
355.4580557552677
 30
0.0
 11
151.6160840779118
 21
355.4580557552677
 31
0.0
  0
LINE
  5
5452
102
{ACAD_REACTORS
330
56D2
102
}
330
A
100
AcDbEntity
  8
モデル
  6
HIDDEN
 48
0.5
100
AcDbLine
 10
157.1160840779118
 20
357.4580557552677
 30
0.0
 11
153.1160840779118
 21
357.4580557552677
 31
0.0
  0
LINE
  5
5453
102
{ACAD_REACTORS
330
56D2
102
}
330
A
100
AcDbEntity
  8
モデル
  6
HIDDEN
 48
0.5
100
AcDbLine
 10
158.6160840779118
 20
355.4580557552677
 30
0.0
 11
157.1160840779118
 21
357.4580557552677
 31
0.0
  0
LINE
  5
5454
102
{ACAD_REACTORS
330
56D2
102
}
330
A
100
AcDbEntity
  8
モデル
  6
HIDDEN
 48
0.5
100
AcDbLine
 10
157.1160840779118
 20
357.4580557552677
 30
0.0
 11
156.6160840779118
 21
359.4580557552677
 31
0.0
  0
LINE
  5
5455
102
{ACAD_REACTORS
330
56D2
102
}
330
A
100
AcDbEntity
  8
モデル
100
AcDbLine
 10
156.6160840779118
 20
359.4580557552677
 30
0.0
 11
156.6160840779118
 21
368.5161830280713
 31
0.0
  0
LINE
  5
5456
102
{ACAD_REACTORS
330
56D2
102
}
330
A
100
AcDbEntity
  8
モデル
100
AcDbLine
 10
155.1160840779118
 20
370.4580557552677
 30
0.0
 11
156.6160840779118
 21
368.5161830280713
 31
0.0
  0
LINE
  5
5457
102
{ACAD_REACTORS
330
56D2
102
}
330
A
100
AcDbEntity
  8
モデル
  6
HIDDEN
 48
0.5
100
AcDbLine
 10
153.1160840779118
 20
357.4580557552677
 30
0.0
 11
151.6160840779118
 21
355.4580557552677
 31
0.0
  0
LINE
  5
5458
102
{ACAD_REACTORS
330
56D2
102
}
330
A
100
AcDbEntity
  8
モデル
  6
HIDDEN
 48
0.5
100
AcDbLine
 10
153.6160840779118
 20
359.4580557552677
 30
0.0
 11
153.1160840779118
 21
357.4580557552677
 31
0.0
  0
LINE
  5
5459
102
{ACAD_REACTORS
330
56D2
102
}
330
A
100
AcDbEntity
  8
モデル
100
AcDbLine
 10
153.6160840779118
 20
359.4580557552677
 30
0.0
 11
153.6160840779118
 21
368.5161830280713
 31
0.0
  0
LINE
  5
545A
102
{ACAD_REACTORS
330
56D2
102
}
330
A
100
AcDbEntity
  8
モデル
100
AcDbLine
 10
155.1160840779118
 20
370.4580557552677
 30
0.0
 11
153.6160840779118
 21
368.5161830280713
 31
0.0
  0
HATCH
  5
545B
102
{ACAD_REACTORS
330
56D2
102
}
330
A
100
AcDbEntity
  8
モデル
100
AcDbHatch
 10
0.0
 20
0.0
 30
0.0
210
0.0
220
0.0
230
1.0
  2
ANSI31
 70
     0
 71
     0
 91
        1
 92
        1
 93
        5
 72
     1
 10
156.6160840779118
 20
359.4580557552677
 11
156.6160840779118
 21
368.5161830280713
 72
     1
 10
155.1160840779118
 20
370.4580557552677
 11
156.6160840779118
 21
368.5161830280713
 72
     1
 10
155.1160840779118
 20
370.4580557552677
 11
153.6160840779118
 21
368.5161830280713
 72
     1
 10
153.6160840779118
 20
359.4580557552677
 11
153.6160840779118
 21
368.5161830280713
 72
     1
 10
156.6160840779118
 20
359.4580557552677
 11
153.6160840779118
 21
359.4580557552677
 97
        0
 75
     0
 76
     1
 52
180.0
 41
0.5
 77
     0
 78
     1
 53
225.0
 43
440.3532229539038
 44
635.117534908197
 45
1.122532015133644
 46
-1.122532015133644
 79
     0
 98
        1
 10
440.3532229539038
 20
635.117534908197
1001
ACAD
1010
0.0
1020
0.0
1030
0.0
  0
LINE
  5
545C
102
{ACAD_REACTORS
330
56D2
102
}
330
A
100
AcDbEntity
  8
モデル
  6
HIDDEN
100
AcDbLine
 10
148.1160840779118
 20
355.4580557552677
 30
0.0
 11
141.1160840779118
 21
355.4580557552677
 31
0.0
  0
LINE
  5
545D
102
{ACAD_REACTORS
330
56D2
102
}
330
A
100
AcDbEntity
  8
モデル
  6
HIDDEN
 48
0.5
100
AcDbLine
 10
146.6160840779118
 20
357.4580557552677
 30
0.0
 11
142.6160840779118
 21
357.4580557552677
 31
0.0
  0
LINE
  5
545E
102
{ACAD_REACTORS
330
56D2
102
}
330
A
100
AcDbEntity
  8
モデル
  6
HIDDEN
 48
0.5
100
AcDbLine
 10
148.1160840779118
 20
355.4580557552677
 30
0.0
 11
146.6160840779118
 21
357.4580557552677
 31
0.0
  0
LINE
  5
545F
102
{ACAD_REACTORS
330
56D2
102
}
330
A
100
AcDbEntity
  8
モデル
  6
HIDDEN
 48
0.5
100
AcDbLine
 10
146.6160840779118
 20
357.4580557552677
 30
0.0
 11
146.1160840779118
 21
359.4580557552677
 31
0.0
  0
LINE
  5
5460
102
{ACAD_REACTORS
330
56D2
102
}
330
A
100
AcDbEntity
  8
モデル
100
AcDbLine
 10
146.1160840779118
 20
359.4580557552677
 30
0.0
 11
146.1160840779118
 21
368.5161830280713
 31
0.0
  0
LINE
  5
5461
102
{ACAD_REACTORS
330
56D2
102
}
330
A
100
AcDbEntity
  8
モデル
100
AcDbLine
 10
144.6160840779118
 20
370.4580557552677
 30
0.0
 11
146.1160840779118
 21
368.5161830280713
 31
0.0
  0
LINE
  5
5462
102
{ACAD_REACTORS
330
56D2
102
}
330
A
100
AcDbEntity
  8
モデル
  6
HIDDEN
 48
0.5
100
AcDbLine
 10
142.6160840779118
 20
357.4580557552677
 30
0.0
 11
141.1160840779118
 21
355.4580557552677
 31
0.0
  0
LINE
  5
5463
102
{ACAD_REACTORS
330
56D2
102
}
330
A
100
AcDbEntity
  8
モデル
  6
HIDDEN
 48
0.5
100
AcDbLine
 10
143.1160840779118
 20
359.4580557552677
 30
0.0
 11
142.6160840779118
 21
357.4580557552677
 31
0.0
  0
LINE
  5
5464
102
{ACAD_REACTORS
330
56D2
102
}
330
A
100
AcDbEntity
  8
モデル
100
AcDbLine
 10
143.1160840779118
 20
359.4580557552677
 30
0.0
 11
143.1160840779118
 21
368.5161830280713
 31
0.0
  0
LINE
  5
5465
102
{ACAD_REACTORS
330
56D2
102
}
330
A
100
AcDbEntity
  8
モデル
100
AcDbLine
 10
144.6160840779118
 20
370.4580557552677
 30
0.0
 11
143.1160840779118
 21
368.5161830280713
 31
0.0
  0
HATCH
  5
5466
102
{ACAD_REACTORS
330
56D2
102
}
330
A
100
AcDbEntity
  8
モデル
100
AcDbHatch
 10
0.0
 20
0.0
 30
0.0
210
0.0
220
0.0
230
1.0
  2
ANSI31
 70
     0
 71
     0
 91
        1
 92
        1
 93
        5
 72
     1
 10
146.1160840779118
 20
359.4580557552677
 11
146.1160840779118
 21
368.5161830280713
 72
     1
 10
144.6160840779118
 20
370.4580557552677
 11
146.1160840779118
 21
368.5161830280713
 72
     1
 10
144.6160840779118
 20
370.4580557552677
 11
143.1160840779118
 21
368.5161830280713
 72
     1
 10
143.1160840779118
 20
359.4580557552677
 11
143.1160840779118
 21
368.5161830280713
 72
     1
 10
146.1160840779118
 20
359.4580557552677
 11
143.1160840779118
 21
359.4580557552677
 97
        0
 75
     0
 76
     1
 52
180.0
 41
0.5
 77
     0
 78
     1
 53
225.0
 43
429.8532229539038
 44
635.117534908197
 45
1.122532015133644
 46
-1.122532015133644
 79
     0
 98
        1
 10
429.8532229539038
 20
635.117534908197
1001
ACAD
1010
0.0
1020
0.0
1030
0.0
  0
LINE
  5
5467
102
{ACAD_REACTORS
330
56D2
102
}
330
A
100
AcDbEntity
  8
モデル
  6
HIDDEN
100
AcDbLine
 10
137.6160840779118
 20
355.4580557552677
 30
0.0
 11
130.6160840779118
 21
355.4580557552677
 31
0.0
  0
LINE
  5
5468
102
{ACAD_REACTORS
330
56D2
102
}
330
A
100
AcDbEntity
  8
モデル
  6
HIDDEN
 48
0.5
100
AcDbLine
 10
136.1160840779118
 20
357.4580557552677
 30
0.0
 11
132.1160840779118
 21
357.4580557552677
 31
0.0
  0
LINE
  5
5469
102
{ACAD_REACTORS
330
56D2
102
}
330
A
100
AcDbEntity
  8
モデル
  6
HIDDEN
 48
0.5
100
AcDbLine
 10
137.6160840779118
 20
355.4580557552677
 30
0.0
 11
136.1160840779118
 21
357.4580557552677
 31
0.0
  0
LINE
  5
546A
102
{ACAD_REACTORS
330
56D2
102
}
330
A
100
AcDbEntity
  8
モデル
  6
HIDDEN
 48
0.5
100
AcDbLine
 10
136.1160840779118
 20
357.4580557552677
 30
0.0
 11
135.6160840779118
 21
359.4580557552677
 31
0.0
  0
LINE
  5
546B
102
{ACAD_REACTORS
330
56D2
102
}
330
A
100
AcDbEntity
  8
モデル
100
AcDbLine
 10
135.6160840779118
 20
359.4580557552677
 30
0.0
 11
135.6160840779118
 21
368.5161830280713
 31
0.0
  0
LINE
  5
546C
102
{ACAD_REACTORS
330
56D2
102
}
330
A
100
AcDbEntity
  8
モデル
100
AcDbLine
 10
134.1160840779118
 20
370.4580557552677
 30
0.0
 11
135.6160840779118
 21
368.5161830280713
 31
0.0
  0
LINE
  5
546D
102
{ACAD_REACTORS
330
56D2
102
}
330
A
100
AcDbEntity
  8
モデル
  6
HIDDEN
 48
0.5
100
AcDbLine
 10
132.1160840779118
 20
357.4580557552677
 30
0.0
 11
130.6160840779118
 21
355.4580557552677
 31
0.0
  0
LINE
  5
546E
102
{ACAD_REACTORS
330
56D2
102
}
330
A
100
AcDbEntity
  8
モデル
  6
HIDDEN
 48
0.5
100
AcDbLine
 10
132.6160840779118
 20
359.4580557552677
 30
0.0
 11
132.1160840779118
 21
357.4580557552677
 31
0.0
  0
LINE
  5
546F
102
{ACAD_REACTORS
330
56D2
102
}
330
A
100
AcDbEntity
  8
モデル
100
AcDbLine
 10
132.6160840779118
 20
359.4580557552677
 30
0.0
 11
132.6160840779118
 21
368.5161830280713
 31
0.0
  0
LINE
  5
5470
102
{ACAD_REACTORS
330
56D2
102
}
330
A
100
AcDbEntity
  8
モデル
100
AcDbLine
 10
134.1160840779118
 20
370.4580557552677
 30
0.0
 11
132.6160840779118
 21
368.5161830280713
 31
0.0
  0
HATCH
  5
5471
102
{ACAD_REACTORS
330
56D2
102
}
330
A
100
AcDbEntity
  8
モデル
100
AcDbHatch
 10
0.0
 20
0.0
 30
0.0
210
0.0
220
0.0
230
1.0
  2
ANSI31
 70
     0
 71
     0
 91
        1
 92
        1
 93
        5
 72
     1
 10
135.6160840779118
 20
359.4580557552677
 11
135.6160840779118
 21
368.5161830280713
 72
     1
 10
134.1160840779118
 20
370.4580557552677
 11
135.6160840779118
 21
368.5161830280713
 72
     1
 10
134.1160840779118
 20
370.4580557552677
 11
132.6160840779118
 21
368.5161830280713
 72
     1
 10
132.6160840779118
 20
359.4580557552677
 11
132.6160840779118
 21
368.5161830280713
 72
     1
 10
135.6160840779118
 20
359.4580557552677
 11
132.6160840779118
 21
359.4580557552677
 97
        0
 75
     0
 76
     1
 52
180.0
 41
0.5
 77
     0
 78
     1
 53
225.0
 43
419.3532229539038
 44
635.117534908197
 45
1.122532015133644
 46
-1.122532015133644
 79
     0
 98
        1
 10
419.3532229539038
 20
635.117534908197
1001
ACAD
1010
0.0
1020
0.0
1030
0.0
  0
LINE
  5
5472
102
{ACAD_REACTORS
330
56D2
102
}
330
A
100
AcDbEntity
  8
モデル
  6
HIDDEN
100
AcDbLine
 10
149.1160840779118
 20
340.4580557552677
 30
0.0
 11
149.1160840779118
 21
331.4580557552677
 31
0.0
  0
LINE
  5
5473
102
{ACAD_REACTORS
330
56D2
102
}
330
A
100
AcDbEntity
  8
モデル
  6
HIDDEN
100
AcDbLine
 10
147.8660840779118
 20
344.9580557552677
 30
0.0
 11
147.8660840779118
 21
341.9580557552677
 31
0.0
  0
LINE
  5
5474
102
{ACAD_REACTORS
330
56D2
102
}
330
A
100
AcDbEntity
  8
モデル
  6
HIDDEN
100
AcDbLine
 10
149.1160840779118
 20
346.4580557552677
 30
0.0
 11
147.8660840779118
 21
344.9580557552677
 31
0.0
  0
LINE
  5
5475
102
{ACAD_REACTORS
330
56D2
102
}
330
A
100
AcDbEntity
  8
モデル
  6
HIDDEN
100
AcDbLine
 10
147.8660840779118
 20
341.9580557552677
 30
0.0
 11
149.1160840779118
 21
340.4580557552677
 31
0.0
  0
LINE
  5
5476
102
{ACAD_REACTORS
330
56D2
102
}
330
A
100
AcDbEntity
  8
モデル
  6
HIDDEN
100
AcDbLine
 10
140.1160840779118
 20
340.4580557552677
 30
0.0
 11
140.1160840779118
 21
331.4580557552677
 31
0.0
  0
LINE
  5
5477
102
{ACAD_REACTORS
330
56D2
102
}
330
A
100
AcDbEntity
  8
モデル
  6
HIDDEN
100
AcDbLine
 10
141.3660840779118
 20
344.9580557552677
 30
0.0
 11
141.3660840779118
 21
341.9580557552677
 31
0.0
  0
LINE
  5
5478
102
{ACAD_REACTORS
330
56D2
102
}
330
A
100
AcDbEntity
  8
モデル
  6
HIDDEN
100
AcDbLine
 10
140.1160840779118
 20
346.4580557552677
 30
0.0
 11
141.3660840779118
 21
344.9580557552677
 31
0.0
  0
LINE
  5
5479
102
{ACAD_REACTORS
330
56D2
102
}
330
A
100
AcDbEntity
  8
モデル
  6
HIDDEN
100
AcDbLine
 10
141.3660840779118
 20
341.9580557552677
 30
0.0
 11
140.1160840779118
 21
340.4580557552677
 31
0.0
  0
LINE
  5
547A
102
{ACAD_REACTORS
330
56D2
102
}
330
A
100
AcDbEntity
  8
モデル
  6
HIDDEN
100
AcDbLine
 10
149.1160840779118
 20
331.4580557552677
 30
0.0
 11
140.1160840779118
 21
331.4580557552677
 31
0.0
  0
LINE
  5
547B
102
{ACAD_REACTORS
330
56D2
102
}
330
A
100
AcDbEntity
  8
モデル
  6
HIDDEN
100
AcDbLine
 10
149.1160840779118
 20
355.4580557552677
 30
0.0
 11
149.1160840779118
 21
346.4580557552677
 31
0.0
  0
LINE
  5
547C
102
{ACAD_REACTORS
330
56D2
102
}
330
A
100
AcDbEntity
  8
モデル
  6
HIDDEN
100
AcDbLine
 10
140.1160840779118
 20
355.4580557552677
 30
0.0
 11
140.1160840779118
 21
346.4580557552677
 31
0.0
  0
LINE
  5
547D
102
{ACAD_REACTORS
330
56D4
102
}
330
A
100
AcDbEntity
  8
モデル
  6
HIDDEN
100
AcDbLine
 10
252.9974131091103
 20
185.6495894975991
 30
0.0
 11
252.9974131091103
 21
176.6495894975991
 31
0.0
  0
LINE
  5
547E
102
{ACAD_REACTORS
330
56D4
102
}
330
A
100
AcDbEntity
  8
モデル
  6
HIDDEN
370
     0
100
AcDbLine
 10
242.9974131091105
 20
177.1495894975991
 30
0.0
 11
242.9974131091105
 21
169.149589497599
 31
0.0
  0
LINE
  5
547F
102
{ACAD_REACTORS
330
56D4
102
}
330
A
100
AcDbEntity
  8
モデル
  6
HIDDEN
100
AcDbLine
 10
243.9974131091103
 20
185.6495894975991
 30
0.0
 11
252.9974131091103
 21
185.6495894975991
 31
0.0
  0
LINE
  5
5480
102
{ACAD_REACTORS
330
56D4
102
}
330
A
100
AcDbEntity
  8
モデル
  6
HIDDEN
100
AcDbLine
 10
239.4974131091103
 20
184.3995894975991
 30
0.0
 11
242.4974131091103
 21
184.3995894975991
 31
0.0
  0
LINE
  5
5481
102
{ACAD_REACTORS
330
56D4
102
}
330
A
100
AcDbEntity
  8
モデル
  6
HIDDEN
100
AcDbLine
 10
242.4974131091103
 20
184.3995894975991
 30
0.0
 11
243.9974131091103
 21
185.6495894975991
 31
0.0
  0
LINE
  5
5482
102
{ACAD_REACTORS
330
56D4
102
}
330
A
100
AcDbEntity
  8
モデル
  6
HIDDEN
100
AcDbLine
 10
243.9974131091103
 20
176.6495894975991
 30
0.0
 11
252.9974131091103
 21
176.6495894975991
 31
0.0
  0
LINE
  5
5483
102
{ACAD_REACTORS
330
56D4
102
}
330
A
100
AcDbEntity
  8
モデル
  6
HIDDEN
100
AcDbLine
 10
239.4974131091103
 20
177.8995894975991
 30
0.0
 11
242.4974131091103
 21
177.8995894975991
 31
0.0
  0
LINE
  5
5484
102
{ACAD_REACTORS
330
56D4
102
}
330
A
100
AcDbEntity
  8
モデル
  6
HIDDEN
100
AcDbLine
 10
242.4974131091103
 20
177.8995894975991
 30
0.0
 11
243.9974131091103
 21
176.6495894975991
 31
0.0
  0
LINE
  5
5485
102
{ACAD_REACTORS
330
56D4
102
}
330
A
100
AcDbEntity
  8
モデル
  6
HIDDEN
100
AcDbLine
 10
228.9974131091103
 20
204.6495894975991
 30
0.0
 11
228.9974131091103
 21
157.6495894975991
 31
0.0
  0
LINE
  5
5486
102
{ACAD_REACTORS
330
56D4
102
}
330
A
100
AcDbEntity
  8
モデル
  6
HIDDEN
100
AcDbLine
 10
225.9974131091103
 20
157.6495894975991
 30
0.0
 11
228.9974131091103
 21
157.6495894975991
 31
0.0
  0
LINE
  5
5487
102
{ACAD_REACTORS
330
56D4
102
}
330
A
100
AcDbEntity
  8
モデル
  6
HIDDEN
100
AcDbLine
 10
225.9974131091103
 20
204.6495894975991
 30
0.0
 11
228.9974131091103
 21
204.6495894975991
 31
0.0
  0
LINE
  5
5488
102
{ACAD_REACTORS
330
56D4
102
}
330
A
100
AcDbEntity
  8
モデル
  6
HIDDEN
100
AcDbLine
 10
228.9974131091103
 20
183.6495894975991
 30
0.0
 11
231.8406605983569
 21
183.6495894975991
 31
0.0
  0
LINE
  5
548A
102
{ACAD_REACTORS
330
56D4
102
}
330
A
100
AcDbEntity
  8
モデル
  6
HIDDEN
100
AcDbLine
 10
228.9974131091103
 20
178.6495894975991
 30
0.0
 11
231.8406605983571
 21
178.6495894975991
 31
0.0
  0
LINE
  5
548B
102
{ACAD_REACTORS
330
56D4
102
}
330
A
100
AcDbEntity
  8
モデル
100
AcDbLine
 10
240.9974131091103
 20
149.8169124093814
 30
0.0
 11
239.5327401734247
 21
148.3933768335586
 31
0.0
  0
LINE
  5
548C
102
{ACAD_REACTORS
330
56D4
102
}
330
A
100
AcDbEntity
  8
モデル
100
AcDbLine
 10
239.5327401734247
 20
148.3933768335586
 30
0.0
 11
239.5327401734247
 21
143.9154615607457
 31
0.0
  0
LINE
  5
548D
102
{ACAD_REACTORS
330
56D4
102
}
330
A
100
AcDbEntity
  8
モデル
100
AcDbLine
 10
240.9974131091103
 20
149.8169124093814
 30
0.0
 11
242.4620860447959
 21
148.3933768335586
 31
0.0
  0
LINE
  5
548E
102
{ACAD_REACTORS
330
56D4
102
}
330
A
100
AcDbEntity
  8
モデル
100
AcDbLine
 10
242.4620860447959
 20
148.3933768335586
 30
0.0
 11
242.4620860447959
 21
143.9154615607457
 31
0.0
  0
LINE
  5
548F
102
{ACAD_REACTORS
330
56D4
102
}
330
A
100
AcDbEntity
  8
モデル
100
AcDbLine
 10
239.5327401734247
 20
143.9154615607457
 30
0.0
 11
242.4620860447959
 21
143.9154615607457
 31
0.0
  0
LINE
  5
5490
102
{ACAD_REACTORS
330
56D4
102
}
330
A
100
AcDbEntity
  8
寸法
100
AcDbLine
 10
239.5327401734247
 20
148.3933768335586
 30
0.0
 11
242.4620860447959
 21
148.3933768335586
 31
0.0
  0
HATCH
  5
5491
102
{ACAD_REACTORS
330
56D4
102
}
330
A
100
AcDbEntity
  8
寸法
100
AcDbHatch
 10
0.0
 20
0.0
 30
0.0
210
0.0
220
0.0
230
1.0
  2
ANSI31
 70
     0
 71
     0
 91
        1
 92
        1
 93
        4
 72
     1
 10
239.5327401734247
 20
148.3933768335586
 11
239.5327401734247
 21
143.9154615607457
 72
     1
 10
239.5327401734247
 20
143.9154615607457
 11
242.4620860447959
 21
143.9154615607457
 72
     1
 10
239.5327401734247
 20
148.3933768335586
 11
242.4620860447959
 21
148.3933768335586
 72
     1
 10
242.4620860447959
 20
148.3933768335586
 11
242.4620860447959
 21
143.9154615607457
 97
        0
 75
     0
 76
     1
 52
330.0000000000002
 41
0.4999999999999989
 77
     0
 78
     1
 53
14.99999999999995
 43
-39.20882319174575
 44
18.29369327526996
 45
-0.4108752341002508
 46
1.533407249233896
 79
     0
 98
        1
 10
-39.20882319174575
 20
18.29369327526996
1001
ACAD
1010
0.0
1020
0.0
1030
0.0
  0
LINE
  5
5492
102
{ACAD_REACTORS
330
56D4
102
}
330
A
100
AcDbEntity
  8
モデル
  6
HIDDEN
370
     0
100
AcDbLine
 10
238.9974131091105
 20
177.1495894975991
 30
0.0
 11
238.9974131091105
 21
169.149589497599
 31
0.0
  0
LINE
  5
5493
102
{ACAD_REACTORS
330
56D4
102
}
330
A
100
AcDbEntity
  8
寸法
  6
CENTER
100
AcDbLine
 10
240.9974131091103
 20
151.28812406353
 30
0.0
 11
240.9974131091103
 21
163.5662992038125
 31
0.0
  0
LINE
  5
5494
102
{ACAD_REACTORS
330
56D4
102
}
330
A
100
AcDbEntity
  8
モデル
  6
HIDDEN
100
AcDbLine
 10
237.9974131091103
 20
185.6495894975991
 30
0.0
 11
239.4974131091103
 21
184.3995894975991
 31
0.0
  0
LINE
  5
5495
102
{ACAD_REACTORS
330
56D4
102
}
330
A
100
AcDbEntity
  8
モデル
  6
HIDDEN
100
AcDbLine
 10
237.9974131091103
 20
176.6495894975991
 30
0.0
 11
239.4974131091103
 21
177.8995894975991
 31
0.0
  0
LINE
  5
5496
102
{ACAD_REACTORS
330
56D4
102
}
330
A
100
AcDbEntity
  8
モデル
  6
HIDDEN
100
AcDbLine
 10
228.9974131091103
 20
185.6495894975991
 30
0.0
 11
237.9974131091103
 21
185.6495894975991
 31
0.0
  0
LINE
  5
5497
102
{ACAD_REACTORS
330
56D4
102
}
330
A
100
AcDbEntity
  8
モデル
  6
HIDDEN
100
AcDbLine
 10
228.9974131091103
 20
176.6495894975991
 30
0.0
 11
237.9974131091103
 21
176.6495894975991
 31
0.0
  0
TEXT
  5
5523
330
A
100
AcDbEntity
  8
テンプレート
100
AcDbText
 10
475.2081170749278
 20
53.68033020164549
 30
0.0
 40
5.5
  1
付属品
  7
ＭＳ ゴシック
100
AcDbText
  0
TEXT
  5
5524
330
A
100
AcDbEntity
  8
テンプレート
100
AcDbText
 10
475.2081170749278
 20
45.3003054259581
 30
0.0
 40
5.5
  1
皿+木ネジ
  7
ＭＳ ゴシック
100
AcDbText
  0
TEXT
  5
5526
330
A
100
AcDbEntity
  8
テンプレート
100
AcDbText
 10
475.3946181118871
 20
36.48961992241084
 30
0.0
 40
5.5
  1
イモネジ
  7
ＭＳ ゴシック
100
AcDbText
  0
LINE
  5
552F
102
{ACAD_REACTORS
330
56D2
102
}
330
A
100
AcDbEntity
  8
モデル
  6
HIDDEN
100
AcDbLine
 10
168.1160840779118
 20
358.4580557552677
 30
0.0
 11
121.1160840779118
 21
358.4580557552677
 31
0.0
  0
LINE
  5
5531
102
{ACAD_REACTORS
330
56D4
102
}
330
A
100
AcDbEntity
  8
モデル
  6
HIDDEN
100
AcDbLine
 10
225.9974131091103
 20
204.6495894975991
 30
0.0
 11
225.9974131091103
 21
157.6495894975991
 31
0.0
  0
LINE
  5
560F
330
A
100
AcDbEntity
  8
寸法
100
AcDbLine
 10
440.0059912965927
 20
323.7919453573942
 30
0.0
 11
440.0059912965927
 21
319.4530675260663
 31
0.0
  0
LINE
  5
564F
102
{ACAD_REACTORS
330
56D4
102
}
330
A
100
AcDbEntity
  8
モデル
  6
HIDDEN
100
AcDbLine
 10
231.8406605983569
 20
183.6495894975993
 30
0.0
 11
231.8406605983571
 21
178.6495894975993
 31
0.0
  0
LINE
  5
568B
330
A
100
AcDbEntity
  8
モデル
  6
HIDDEN
100
AcDbLine
 10
516.8052009079973
 20
183.6495894975991
 30
0.0
 11
516.8052009079976
 21
178.6495894975991
 31
0.0
  0
LINE
  5
56C4
330
A
100
AcDbEntity
  8
モデル
100
AcDbLine
 10
456.5059912965929
 20
317.9486978681474
 30
0.0
 11
461.5059912965929
 21
317.9486978681474
 31
0.0
  0
LINE
  5
56C7
330
A
100
AcDbEntity
  8
モデル
  6
HIDDEN
100
AcDbLine
 10
461.5059912965929
 20
317.9486978681476
 30
0.0
 11
456.5059912965929
 21
317.9486978681474
 31
0.0
  0
LINE
  5
56C8
330
A
100
AcDbEntity
  8
モデル
100
AcDbLine
 10
423.5059912965927
 20
320.7919453573942
 30
0.0
 11
423.5059912965927
 21
317.9486978681474
 31
0.0
  0
LINE
  5
56C9
330
A
100
AcDbEntity
  8
モデル
100
AcDbLine
 10
418.5059912965927
 20
320.7919453573942
 30
0.0
 11
418.5059912965927
 21
317.9486978681476
 31
0.0
  0
LINE
  5
56CA
330
A
100
AcDbEntity
  8
モデル
100
AcDbLine
 10
423.5059912965925
 20
317.9486978681474
 30
0.0
 11
418.5059912965925
 21
317.9486978681474
 31
0.0
  0
LINE
  5
56CB
330
A
100
AcDbEntity
  8
モデル
  6
HIDDEN
100
AcDbLine
 10
418.5059912965925
 20
317.9486978681476
 30
0.0
 11
423.5059912965925
 21
317.9486978681474
 31
0.0
  0
ARC
  5
56F9
330
A
100
AcDbEntity
  8
モデル
100
AcDbCircle
 10
144.6160840779118
 20
304.4580557552677
 30
0.0
 40
30.0
100
AcDbArc
 50
116.2902647499612
 51
63.70973525003879
  0
ARC
  5
56FD
330
A
100
AcDbEntity
  8
モデル
100
AcDbCircle
 10
160.8823400536986
 20
334.4264009962371
 30
0.0
 40
4.278629667842433
100
AcDbArc
 50
184.3585261151738
 51
225.8787937178658
  0
LINE
  5
56FE
330
A
100
AcDbEntity
  8
モデル
100
AcDbLine
 10
157.9036498922326
 20
331.3549067741154
 30
0.0
 11
131.328518263591
 21
331.3549067741154
 31
0.0
  0
DIMENSION
  5
56FF
102
{ACAD_REACTORS
330
5701
102
}
102
{ACAD_XDICTIONARY
360
5700
102
}
330
A
100
AcDbEntity
  8
寸法
100
AcDbDimension
  2
*D45
 10
94.2486506697812
 20
274.4580557552677
 30
0.0
 11
86.7486506697812
 21
312.9580557552677
 31
0.0
 70
    32
 71
     5
 42
77.0
 73
     0
 74
     0
 75
     0
  3
tfrom線あり
100
AcDbAlignedDimension
 13
117.1160840779118
 23
351.4580557552677
 33
0.0
 14
137.5700389349109
 24
274.4580557552677
 34
0.0
 50
90.0
100
AcDbRotatedDimension
1001
ACAD
1000
DSTYLE
1002
{
1070
   144
1040
1.0
1002
}
  0
DIMENSION
  5
570E
102
{ACAD_REACTORS
330
5710
102
}
102
{ACAD_XDICTIONARY
360
570F
102
}
330
A
100
AcDbEntity
  8
寸法
100
AcDbDimension
  2
*D46
 10
197.4936926524902
 20
274.5266734440261
 30
0.0
 11
189.9936926524902
 21
316.4923645996469
 31
0.0
 70
    32
 71
     5
 42
83.93138231124158
 73
     0
 74
     0
 75
     0
  3
tfrom線あり
100
AcDbAlignedDimension
 13
172.1160840779118
 23
358.4580557552677
 33
0.0
 14
155.774693228859
 24
274.5266734440261
 34
0.0
 50
90.0
100
AcDbRotatedDimension
1001
ACAD
1000
DSTYLE
1002
{
1070
   144
1040
1.0
1002
}
  0
ARC
  5
5762
330
A
100
AcDbEntity
  8
モデル
100
AcDbCircle
 10
279.9974131091104
 20
181.149589497599
 30
0.0
 40
30.0
100
AcDbArc
 50
206.2902647499612
 51
153.7097352500388
  0
LINE
  5
5763
330
A
100
AcDbEntity
  8
モデル
100
AcDbLine
 10
253.1005620902626
 20
194.4371553119197
 30
0.0
 11
253.1005620902626
 21
167.8620236832782
 31
0.0
  0
LINE
  5
5764
330
A
100
AcDbEntity
  8
モデル
100
AcDbLine
 10
232.9974131091104
 20
193.149589497599
 30
0.0
 11
250.3542321091105
 21
193.149589497599
 31
0.0
  0
ARC
  5
5765
330
A
100
AcDbEntity
  8
モデル
100
AcDbCircle
 10
250.0290678681409
 20
197.4158454733857
 30
0.0
 40
4.278629667842433
100
AcDbArc
 50
274.3585261151738
 51
315.8787937178658
  0
ARC
  5
5766
330
A
100
AcDbEntity
  8
モデル
100
AcDbCircle
 10
250.0290678681409
 20
164.8833335218122
 30
0.0
 40
4.278629667842433
100
AcDbArc
 50
44.12120628213395
 51
85.64147388482623
  0
LINE
  5
5767
330
A
100
AcDbEntity
  8
モデル
100
AcDbLine
 10
250.3542321091105
 20
169.149589497599
 30
0.0
 11
232.9974131091104
 21
169.149589497599
 31
0.0
  0
VIEWPORT
  5
349
330
B
100
AcDbEntity
 67
     1
  8
0
100
AcDbViewport
 10
202.5
 20
128.5
 30
0.0
 40
486.0
 41
308.4
 68
     1
 69
     1
 12
202.5
 22
128.5
 13
0.0
 23
0.0
 14
0.5
 24
0.5
 15
0.0
 25
0.0
 16
0.0
 26
0.0
 36
1.0
 17
0.0
 27
0.0
 37
0.0
 42
50.0
 43
0.0
 44
0.0
 45
308.4
 50
0.0
 51
0.0
 72
   100
 90
   557152
  1

281
     0
 71
     1
 74
     0
110
0.0
120
0.0
130
0.0
111
1.0
121
0.0
131
0.0
112
0.0
122
1.0
132
0.0
 79
     0
146
0.0
170
     0
 61
     5
348
26C
292
     1
282
     1
141
0.0
142
0.0
 63
   256
  0
VIEWPORT
  5
34A
330
B
100
AcDbEntity
 67
     1
  8
0
100
AcDbViewport
 10
202.5
 20
128.5
 30
0.0
 40
324.0
 41
205.6
 68
     2
 69
     2
 12
986.6781359294573
 22
1427.077061889956
 13
0.0
 23
0.0
 14
0.5
 24
0.5
 15
0.0
 25
0.0
 16
0.0
 26
0.0
 36
1.0
 17
0.0
 27
0.0
 37
0.0
 42
50.0
 43
0.0
 44
0.0
 45
2890.021615685494
 50
0.0
 51
0.0
 72
   100
 90
   557152
  1

281
     0
 71
     1
 74
     0
110
0.0
120
0.0
130
0.0
111
1.0
121
0.0
131
0.0
112
0.0
122
1.0
132
0.0
 79
     0
146
0.0
170
     0
 61
     5
348
26C
292
     1
282
     1
141
0.0
142
0.0
 63
   256
  0
ENDSEC
  0
SECTION
  2
OBJECTS
  0
DICTIONARY
  5
19
330
0
100
AcDbDictionary
281
     1
  3
ACAD_COLOR
350
674
  3
ACAD_DETAILVIEWSTYLE
350
12F4
  3
ACAD_FIELDLIST
350
4E17
  3
ACAD_GROUP
350
1A
  3
ACAD_IMAGE_VARS
350
27B
  3
ACAD_LAYOUT
350
1E
  3
ACAD_MATERIAL
350
263
  3
ACAD_MLEADERSTYLE
350
336
  3
ACAD_MLINESTYLE
350
1B
  3
ACAD_PLOTSETTINGS
350
22
  3
ACAD_PLOTSTYLENAME
350
1F
  3
ACAD_SCALELIST
350
241
  3
ACAD_SECTIONVIEWSTYLE
350
12F5
  3
ACAD_TABLESTYLE
350
278
  3
ACAD_VISUALSTYLE
350
267
  3
ACDB_RECOMPOSE_DATA
350
57FC
  3
AcDbVariableDictionary
350
330
  3
AcStStandard
350
12B9
  3
APPDATA
350
27A
  0
SUN
  5
10E8
330
15
100
AcDbSun
 90
        1
290
     0
 63
     7
421
 16777215
 40
1.0
291
     1
 91
  2455826
 92
 54000000
292
     0
 70
     2
 71
   256
280
     1
  0
DICTIONARY
  5
2E1
330
2
100
AcDbDictionary
280
     1
281
     1
  3
ACAD_LAYERSTATES
360
2E2
  3
ACLYDICTIONARY
360
5105
  0
DICTIONARY
  5
4CE1
330
A
100
AcDbDictionary
280
     1
281
     1
  3
ACAD_SORTENTS
360
4CE2
  0
DICTIONARY
  5
4E15
330
4E13
100
AcDbDictionary
280
     1
281
     1
  3
ACAD_FIELD
360
57D7
  0
DICTIONARY
  5
4FBC
330
4FBB
100
AcDbDictionary
280
     1
281
     1
  3
ACAD_DIMASSOC
360
4FBD
  0
DICTIONARY
  5
51D7
330
51D6
100
AcDbDictionary
280
     1
281
     1
  3
*A1
360
51D9
  3
*A2
360
51DA
  0
DICTIONARY
  5
5700
330
56FF
100
AcDbDictionary
280
     1
281
     1
  3
ACAD_DIMASSOC
360
5701
  0
DICTIONARY
  5
570F
330
570E
100
AcDbDictionary
280
     1
281
     1
  3
ACAD_DIMASSOC
360
5710
  0
DICTIONARY
  5
674
102
{ACAD_REACTORS
330
19
102
}
330
19
100
AcDbDictionary
281
     1
  0
DICTIONARY
  5
12F4
102
{ACAD_REACTORS
330
19
102
}
330
19
100
AcDbDictionary
281
     1
  0
FIELDLIST
  5
4E17
102
{ACAD_REACTORS
330
19
102
}
330
19
100
AcDbIdSet
 90
        2
330
4E18
330
4E14
100
AcDbFieldList
  0
DICTIONARY
  5
1A
102
{ACAD_REACTORS
330
19
102
}
330
19
100
AcDbDictionary
281
     1
  3
*A1
350
56D2
  3
*A2
350
56D4
  3
*A3
350
552D
  3
*A4
350
552E
  0
RASTERVARIABLES
  5
27B
102
{ACAD_REACTORS
330
19
102
}
330
19
100
AcDbRasterVariables
 90
        0
 70
     1
 71
     1
 72
     1
  0
DICTIONARY
  5
1E
102
{ACAD_REACTORS
330
19
102
}
330
19
100
AcDbDictionary
281
     1
  3
Layout1
350
21
  3
Layout2
350
12C4
  3
Model
350
20
  0
DICTIONARY
  5
263
102
{ACAD_REACTORS
330
19
102
}
330
19
100
AcDbDictionary
281
     1
  3
ByBlock
350
385B
  3
ByLayer
350
264
  3
Global
350
266
  0
DICTIONARY
  5
336
102
{ACAD_REACTORS
330
19
102
}
330
19
100
AcDbDictionary
281
     1
  3
Standard
350
4D73
  0
DICTIONARY
  5
1B
102
{ACAD_REACTORS
330
19
102
}
330
19
100
AcDbDictionary
281
     1
  3
Standard
350
1C
  0
DICTIONARY
  5
22
102
{ACAD_REACTORS
330
19
102
}
330
19
100
AcDbDictionary
281
     1
  0
ACDBDICTIONARYWDFLT
  5
1F
102
{ACAD_REACTORS
330
19
102
}
330
19
100
AcDbDictionary
281
     1
  3
Normal
350
1D
100
AcDbDictionaryWithDefault
340
1D
  0
DICTIONARY
  5
241
102
{ACAD_REACTORS
330
19
102
}
330
19
100
AcDbDictionary
281
     1
  3
A0
350
242
  3
A1
350
243
  3
A2
350
244
  3
A3
350
245
  3
A4
350
246
  3
A5
350
247
  3
A6
350
248
  3
A7
350
249
  3
A8
350
24A
  3
A9
350
24B
  3
B0
350
24C
  3
B1
350
24D
  3
B2
350
24E
  3
B3
350
24F
  3
B4
350
250
  3
B5
350
251
  3
B6
350
252
  3
B7
350
253
  3
B8
350
254
  3
B9
350
255
  3
C0
350
256
  3
C1
350
257
  3
C2
350
258
  3
C3
350
259
  3
C4
350
25A
  3
C5
350
25B
  3
C6
350
25C
  3
C7
350
25D
  3
C8
350
25E
  3
C9
350
25F
  3
D0
350
260
  3
D1
350
261
  3
D2
350
262
  0
DICTIONARY
  5
12F5
102
{ACAD_REACTORS
330
19
102
}
330
19
100
AcDbDictionary
281
     1
  0
DICTIONARY
  5
278
102
{ACAD_REACTORS
330
19
102
}
330
19
100
AcDbDictionary
281
     1
  3
Standard
350
279
  0
DICTIONARY
  5
267
102
{ACAD_REACTORS
330
19
102
}
330
19
100
AcDbDictionary
281
     1
  3
2dWireframe
350
26C
  3
3D Hidden
350
26E
  3
3dWireframe
350
26D
  3
Basic
350
26F
  3
Brighten
350
273
  3
ColorChange
350
277
  3
Conceptual
350
271
  3
Dim
350
272
  3
EdgeColorOff
350
10E2
  3
Facepattern
350
276
  3
Flat
350
268
  3
FlatWithEdges
350
269
  3
Gouraud
350
26A
  3
GouraudWithEdges
350
26B
  3
Hidden
350
10DF
  3
JitterOff
350
10E0
  3
Linepattern
350
275
  3
OverhangOff
350
10E1
  3
Realistic
350
270
  3
Shaded
350
10E7
  3
Shaded with edges
350
10E6
  3
Shades of Gray
350
10E3
  3
Sketchy
350
10E4
  3
Thicken
350
274
  3
Wireframe
350
10DE
  3
X-Ray
350
10E5
  0
XRECORD
  5
57FC
102
{ACAD_REACTORS
330
19
102
}
330
19
100
AcDbXrecord
280
     1
 90
        1
330
279
  0
DICTIONARY
  5
330
102
{ACAD_REACTORS
330
19
102
}
330
19
100
AcDbDictionary
281
     1
  3
CANNOSCALE
350
331
  3
CMLEADERSTYLE
350
4E1D
  3
CTABLESTYLE
350
335
  3
XCLIPFRAME
350
109E
  0
DICTIONARY
  5
12B9
102
{ACAD_REACTORS
330
19
102
}
330
19
100
AcDbDictionary
281
     1
  0
DICTIONARY
  5
27A
102
{ACAD_REACTORS
330
19
102
}
330
19
100
AcDbDictionary
281
     1
  0
DICTIONARY
  5
2E2
102
{ACAD_REACTORS
330
2E1
102
}
330
2E1
100
AcDbDictionary
281
     1
  0
DICTIONARY
  5
5105
102
{ACAD_REACTORS
330
2E1
102
}
330
2E1
100
AcDbDictionary
281
     1
1001
ACAD
1000
<All
  0
SORTENTSTABLE
  5
4CE2
102
{ACAD_REACTORS
330
4CE1
102
}
330
4CE1
100
AcDbSortentsTable
330
A
331
36CD
  5
36D1
331
36CE
  5
36D2
331
36CF
  5
36D5
331
36D0
  5
36D6
331
36D3
  5
36D7
331
36D4
  5
36D8
331
36D5
  5
36D9
331
36D6
  5
36DA
331
36D7
  5
36DB
331
36D8
  5
36DC
331
36D9
  5
36DD
331
36DA
  5
36DE
331
36DB
  5
36DF
331
36DC
  5
36E0
331
36DD
  5
36E1
331
36DE
  5
36E2
331
36DF
  5
36E3
331
36E0
  5
36E4
331
36E1
  5
36E5
331
36E2
  5
36E7
331
36E3
  5
36E8
331
36E5
  5
36E9
331
36E6
  5
36EA
331
36E7
  5
36EB
331
36E8
  5
36EC
331
36E9
  5
36ED
331
36EA
  5
37DE
331
36EB
  5
3FFF
331
36EC
  5
4998
331
36ED
  5
4999
331
37DE
  5
499D
331
4DC3
  5
4DC5
331
4DC4
  5
4DC6
331
4DC5
  5
4DC7
331
4DC6
  5
4DC8
331
4E0D
  5
4E0F
331
4E0E
  5
4E10
331
4E0F
  5
4E11
331
4E10
  5
4E13
331
4E11
  5
4E1F
331
4E13
  5
4E8B
331
4E1F
  5
4E8D
331
4E8D
  5
4E8F
331
4E91
  5
4E94
331
4E93
  5
4EA2
331
4EA1
  5
4EA5
331
4EA6
  5
4EAA
331
4EC1
  5
4EDD
331
4EDC
  5
4EDE
331
4EDD
  5
4EDF
331
4EDE
  5
4EE0
331
4EDF
  5
4F4D
331
4FA7
  5
4FA9
331
4FA8
  5
4FAA
331
4FA9
  5
4FAB
331
4FAA
  5
4FAC
331
4FBB
  5
5017
331
513E
  5
513F
  0
DICTIONARY
  5
57D7
102
{ACAD_REACTORS
330
4E15
102
}
330
4E15
100
AcDbDictionary
280
     1
281
     1
  3
TEXT
360
4E14
  0
DIMASSOC
  5
4FBD
102
{ACAD_REACTORS
330
4FBC
102
}
330
4FBC
100
AcDbDimAssoc
330
4FBB
 90
        3
 70
     0
 71
     1
  1
AcDbOsnapPointRef
 72
    13
331
4EDC
 73
     0
 91
        0
 40
0.0
 10
0.0
 20
0.0
 30
0.0
 75
     0
  1
AcDbOsnapPointRef
 72
    13
331
4EDF
 73
     0
 91
        0
 40
0.0
 10
0.0
 20
0.0
 30
0.0
 75
     0
  0
LINE
  5
51D9
102
{ACAD_REACTORS
330
51D7
102
}
330
51D7
100
AcDbEntity
  8
モデル
100
AcDbLine
 10
173.8577572373189
 20
344.6087635329599
 30
0.0
 11
173.8577572373189
 21
337.6087635329599
 31
0.0
  0
LINE
  5
51DA
102
{ACAD_REACTORS
330
51D7
102
}
330
51D7
100
AcDbEntity
  8
モデル
100
AcDbLine
 10
228.8577572373189
 20
337.6087635329599
 30
0.0
 11
228.8577572373189
 21
344.6087635329599
 31
0.0
  0
DIMASSOC
  5
5701
102
{ACAD_REACTORS
330
5700
102
}
330
5700
100
AcDbDimAssoc
330
56FF
 90
        1
 70
     0
 71
     1
  1
AcDbOsnapPointRef
 72
     1
331
4EDF
 73
     0
 91
        0
 40
0.0
 10
0.0
 20
0.0
 30
0.0
 75
     0
  0
DIMASSOC
  5
5710
102
{ACAD_REACTORS
330
570F
102
}
330
570F
100
AcDbDimAssoc
330
570E
 90
        1
 70
     0
 71
     1
  1
AcDbOsnapPointRef
 72
    13
331
4EDE
 73
     0
 91
        0
 40
0.0
 10
0.0
 20
0.0
 30
0.0
 75
     0
  0
GROUP
  5
56D2
102
{ACAD_REACTORS
330
1A
102
}
330
1A
100
AcDbGroup
300

 70
     1
 71
     1
340
5447
340
5448
340
5449
340
544B
340
544E
340
5450
340
5451
340
5452
340
5453
340
5454
340
5455
340
5456
340
5457
340
5458
340
5459
340
545A
340
545B
340
545C
340
545D
340
545E
340
545F
340
5460
340
5461
340
5462
340
5463
340
5464
340
5465
340
5466
340
5467
340
5468
340
5469
340
546A
340
546B
340
546C
340
546D
340
546E
340
546F
340
5470
340
5471
340
5472
340
5473
340
5474
340
5475
340
5476
340
5477
340
5478
340
5479
340
547A
340
547B
340
547C
340
552F
340
544D
340
544F
340
544C
340
544A
  0
GROUP
  5
56D4
102
{ACAD_REACTORS
330
1A
102
}
330
1A
100
AcDbGroup
300

 70
     1
 71
     1
340
547D
340
547F
340
5480
340
5481
340
5482
340
5483
340
5484
340
5485
340
5486
340
5487
340
548B
340
548C
340
548D
340
548E
340
548F
340
5490
340
5491
340
5493
340
5494
340
5495
340
5496
340
5497
340
5531
340
548A
340
5488
340
564F
340
547E
340
5492
  0
GROUP
  5
552D
102
{ACAD_REACTORS
330
1A
102
}
330
1A
100
AcDbGroup
300

 70
     1
 71
     1
340
4FA7
340
4FA9
340
4FAA
340
4FA8
  0
GROUP
  5
552E
102
{ACAD_REACTORS
330
1A
102
}
330
1A
100
AcDbGroup
300

 70
     1
 71
     1
340
4EDE
340
4EDC
340
4EDD
340
4EDF
  0
LAYOUT
  5
21
102
{ACAD_REACTORS
330
1E
102
}
330
1E
100
AcDbPlotSettings
  1

  2
none_device
  4
ISO_A3_(420.00_x_297.00_MM)
  6

 40
7.5
 41
20.0
 42
7.5
 43
20.0
 44
420.0
 45
297.0
 46
0.0
 47
0.0
 48
0.0
 49
0.0
140
0.0
141
0.0
142
1.0
143
1.0
 70
     0
 72
     1
 73
     0
 74
     0
  7

 75
     0
 76
     0
 77
     2
 78
   300
147
1.0
148
0.0
149
0.0
100
AcDbLayout
  1
Layout1
 70
     0
 71
     0
 10
-7.5
 20
-20.0
 11
412.5
 21
277.0
 12
0.0
 22
0.0
 32
0.0
 14
0.0
 24
0.0
 34
0.0
 15
0.0
 25
0.0
 35
0.0
146
0.0
 13
0.0
 23
0.0
 33
0.0
 16
0.0
 26
0.0
 36
0.0
 17
0.0
 27
0.0
 37
0.0
 76
     0
330
B
331
349
  0
LAYOUT
  5
12C4
102
{ACAD_REACTORS
330
1E
102
}
330
1E
100
AcDbPlotSettings
  1

  2
none_device
  4

  6

 40
0.0
 41
0.0
 42
0.0
 43
0.0
 44
0.0
 45
0.0
 46
0.0
 47
0.0
 48
0.0
 49
0.0
140
0.0
141
0.0
142
1.0
143
1.0
 70
   688
 72
     1
 73
     0
 74
     5
  7

 75
    16
 76
     0
 77
     2
 78
   300
147
1.0
148
0.0
149
0.0
100
AcDbLayout
  1
Layout2
 70
     1
 71
     2
 10
0.0
 20
0.0
 11
0.0
 21
0.0
 12
0.0
 22
0.0
 32
0.0
 14
0.0
 24
0.0
 34
0.0
 15
0.0
 25
0.0
 35
0.0
146
0.0
 13
0.0
 23
0.0
 33
0.0
 16
1.0
 26
0.0
 36
0.0
 17
0.0
 27
1.0
 37
0.0
 76
     0
330
12C3
  0
LAYOUT
  5
20
102
{ACAD_REACTORS
330
1E
102
}
330
1E
100
AcDbPlotSettings
  1

  2
none_device
  4
ISO_A3_(420.00_x_297.00_MM)
  6

 40
7.5
 41
20.0
 42
7.5
 43
20.0
 44
420.0
 45
297.0
 46
0.0
 47
0.0
 48
0.0
 49
0.0
140
0.0
141
0.0
142
1.0
143
1.0
 70
  1024
 72
     1
 73
     0
 74
     0
  7

 75
     0
 76
     0
 77
     2
 78
   300
147
1.0
148
0.0
149
0.0
100
AcDbLayout
  1
Model
 70
     0
 71
     1
 10
0.0
 20
0.0
 11
593.9999999999999
 21
420.0
 12
0.0
 22
0.0
 32
0.0
 14
0.0
 24
0.0
 34
0.0
 15
593.9999999999999
 25
420.0
 35
0.005
146
0.0
 13
0.0
 23
0.0
 33
0.0
 16
0.0
 26
0.0
 36
0.0
 17
0.0
 27
0.0
 37
0.0
 76
     0
330
A
331
15
  0
MATERIAL
  5
385B
102
{ACAD_REACTORS
330
263
102
}
330
263
100
AcDbMaterial
  1
ByBlock
 72
     1
 94
      127
  0
MATERIAL
  5
264
102
{ACAD_REACTORS
330
263
102
}
330
263
100
AcDbMaterial
  1
ByLayer
 72
     1
 94
      127
  0
MATERIAL
  5
266
102
{ACAD_REACTORS
330
263
102
}
330
263
100
AcDbMaterial
  1
Global
 72
     1
 94
      127
  0
MLEADERSTYLE
  5
4D73
102
{ACAD_REACTORS
330
336
102
}
330
336
100
AcDbMLeaderStyle
170
     2
171
     1
172
     0
 90
        2
 40
0.0
 41
0.0
173
     1
 91
-1056964608
340
11
 92
       -2
290
     1
 42
2.0
291
     1
 43
8.0
  3
Standard
341
0
 44
4.0
300

342
17
174
     1
178
     1
175
     1
176
     0
 93
-1056964608
 45
4.0
292
     0
297
     0
 46
4.0
343
0
 94
-1056964608
 47
1.0
 49
1.0
140
1.0
293
     1
141
0.0
294
     1
177
     0
142
1.0
295
     0
296
     0
143
3.75
1001
ACAD_MLEADERVER
1070
     2
  0
MLINESTYLE
  5
1C
102
{ACAD_REACTORS
330
1B
102
}
330
1B
100
AcDbMlineStyle
  2
Standard
 70
     0
  3

 62
     0
 51
90.0
 52
90.0
 71
     2
 49
0.5
 62
   256
  6
BYLAYER
 49
-0.5
 62
   256
  6
BYLAYER
  0
ACDBPLACEHOLDER
  5
1D
102
{ACAD_REACTORS
330
1F
102
}
330
1F
  0
SCALE
  5
242
102
{ACAD_REACTORS
330
241
102
}
330
241
100
AcDbScale
 70
     0
300
1:1
140
1.0
141
1.0
290
     1
  0
SCALE
  5
243
102
{ACAD_REACTORS
330
241
102
}
330
241
100
AcDbScale
 70
     0
300
1:2
140
1.0
141
2.0
290
     0
  0
SCALE
  5
244
102
{ACAD_REACTORS
330
241
102
}
330
241
100
AcDbScale
 70
     0
300
1:4
140
1.0
141
4.0
290
     0
  0
SCALE
  5
245
102
{ACAD_REACTORS
330
241
102
}
330
241
100
AcDbScale
 70
     0
300
1:5
140
1.0
141
5.0
290
     0
  0
SCALE
  5
246
102
{ACAD_REACTORS
330
241
102
}
330
241
100
AcDbScale
 70
     0
300
1:8
140
1.0
141
8.0
290
     0
  0
SCALE
  5
247
102
{ACAD_REACTORS
330
241
102
}
330
241
100
AcDbScale
 70
     0
300
1:10
140
1.0
141
10.0
290
     0
  0
SCALE
  5
248
102
{ACAD_REACTORS
330
241
102
}
330
241
100
AcDbScale
 70
     0
300
1:16
140
1.0
141
16.0
290
     0
  0
SCALE
  5
249
102
{ACAD_REACTORS
330
241
102
}
330
241
100
AcDbScale
 70
     0
300
1:20
140
1.0
141
20.0
290
     0
  0
SCALE
  5
24A
102
{ACAD_REACTORS
330
241
102
}
330
241
100
AcDbScale
 70
     0
300
1:30
140
1.0
141
30.0
290
     0
  0
SCALE
  5
24B
102
{ACAD_REACTORS
330
241
102
}
330
241
100
AcDbScale
 70
     0
300
1:40
140
1.0
141
40.0
290
     0
  0
SCALE
  5
24C
102
{ACAD_REACTORS
330
241
102
}
330
241
100
AcDbScale
 70
     0
300
1:50
140
1.0
141
50.0
290
     0
  0
SCALE
  5
24D
102
{ACAD_REACTORS
330
241
102
}
330
241
100
AcDbScale
 70
     0
300
1:100
140
1.0
141
100.0
290
     0
  0
SCALE
  5
24E
102
{ACAD_REACTORS
330
241
102
}
330
241
100
AcDbScale
 70
     0
300
2:1
140
2.0
141
1.0
290
     0
  0
SCALE
  5
24F
102
{ACAD_REACTORS
330
241
102
}
330
241
100
AcDbScale
 70
     0
300
4:1
140
4.0
141
1.0
290
     0
  0
SCALE
  5
250
102
{ACAD_REACTORS
330
241
102
}
330
241
100
AcDbScale
 70
     0
300
8:1
140
8.0
141
1.0
290
     0
  0
SCALE
  5
251
102
{ACAD_REACTORS
330
241
102
}
330
241
100
AcDbScale
 70
     0
300
10:1
140
10.0
141
1.0
290
     0
  0
SCALE
  5
252
102
{ACAD_REACTORS
330
241
102
}
330
241
100
AcDbScale
 70
     0
300
100:1
140
100.0
141
1.0
290
     0
  0
SCALE
  5
253
102
{ACAD_REACTORS
330
241
102
}
330
241
100
AcDbScale
 70
     0
300
1/128" = 1'-0"
140
0.0078125
141
12.0
290
     0
  0
SCALE
  5
254
102
{ACAD_REACTORS
330
241
102
}
330
241
100
AcDbScale
 70
     0
300
1/64" = 1'-0"
140
0.015625
141
12.0
290
     0
  0
SCALE
  5
255
102
{ACAD_REACTORS
330
241
102
}
330
241
100
AcDbScale
 70
     0
300
1/32" = 1'-0"
140
0.03125
141
12.0
290
     0
  0
SCALE
  5
256
102
{ACAD_REACTORS
330
241
102
}
330
241
100
AcDbScale
 70
     0
300
1/16" = 1'-0"
140
0.0625
141
12.0
290
     0
  0
SCALE
  5
257
102
{ACAD_REACTORS
330
241
102
}
330
241
100
AcDbScale
 70
     0
300
3/32" = 1'-0"
140
0.09375
141
12.0
290
     0
  0
SCALE
  5
258
102
{ACAD_REACTORS
330
241
102
}
330
241
100
AcDbScale
 70
     0
300
1/8" = 1'-0"
140
0.125
141
12.0
290
     0
  0
SCALE
  5
259
102
{ACAD_REACTORS
330
241
102
}
330
241
100
AcDbScale
 70
     0
300
3/16" = 1'-0"
140
0.1875
141
12.0
290
     0
  0
SCALE
  5
25A
102
{ACAD_REACTORS
330
241
102
}
330
241
100
AcDbScale
 70
     0
300
1/4" = 1'-0"
140
0.25
141
12.0
290
     0
  0
SCALE
  5
25B
102
{ACAD_REACTORS
330
241
102
}
330
241
100
AcDbScale
 70
     0
300
3/8" = 1'-0"
140
0.375
141
12.0
290
     0
  0
SCALE
  5
25C
102
{ACAD_REACTORS
330
241
102
}
330
241
100
AcDbScale
 70
     0
300
1/2" = 1'-0"
140
0.5
141
12.0
290
     0
  0
SCALE
  5
25D
102
{ACAD_REACTORS
330
241
102
}
330
241
100
AcDbScale
 70
     0
300
3/4" = 1'-0"
140
0.75
141
12.0
290
     0
  0
SCALE
  5
25E
102
{ACAD_REACTORS
330
241
102
}
330
241
100
AcDbScale
 70
     0
300
1" = 1'-0"
140
1.0
141
12.0
290
     0
  0
SCALE
  5
25F
102
{ACAD_REACTORS
330
241
102
}
330
241
100
AcDbScale
 70
     0
300
1-1/2" = 1'-0"
140
1.5
141
12.0
290
     0
  0
SCALE
  5
260
102
{ACAD_REACTORS
330
241
102
}
330
241
100
AcDbScale
 70
     0
300
3" = 1'-0"
140
3.0
141
12.0
290
     0
  0
SCALE
  5
261
102
{ACAD_REACTORS
330
241
102
}
330
241
100
AcDbScale
 70
     0
300
6" = 1'-0"
140
6.0
141
12.0
290
     0
  0
SCALE
  5
262
102
{ACAD_REACTORS
330
241
102
}
330
241
100
AcDbScale
 70
     0
300
1'-0" = 1'-0"
140
12.0
141
12.0
290
     0
  0
TABLESTYLE
  5
279
102
{ACAD_REACTORS
330
278
102
}
102
{ACAD_XDICTIONARY
360
57FA
102
}
330
278
100
AcDbTableStyle
  3
Standard
 70
     0
 71
     0
 40
0.06
 41
0.06
280
     0
281
     0
  7
Standard
140
4.5
170
     2
 62
     0
 63
   257
283
     0
 90
        4
 91
        0
  1

274
    -2
284
     1
 64
     0
275
    -2
285
     1
 65
     0
276
    -2
286
     1
 66
     0
277
    -2
287
     1
 67
     0
278
    -2
288
     1
 68
     0
279
    -2
289
     1
 69
     0
  7
Standard
140
6.0
170
     5
 62
     0
 63
   257
283
     0
 90
        4
 91
        0
  1

274
    -2
284
     1
 64
     0
275
    -2
285
     1
 65
     0
276
    -2
286
     1
 66
     0
277
    -2
287
     1
 67
     0
278
    -2
288
     1
 68
     0
279
    -2
289
     1
 69
     0
  7
Standard
140
4.5
170
     5
 62
     0
 63
   257
283
     0
 90
        4
 91
        0
  1

274
    -2
284
     1
 64
     0
275
    -2
285
     1
 65
     0
276
    -2
286
     1
 66
     0
277
    -2
287
     1
 67
     0
278
    -2
288
     1
 68
     0
279
    -2
289
     1
 69
     0
  0
VISUALSTYLE
  5
26C
102
{ACAD_REACTORS
330
267
102
}
330
267
100
AcDbVisualStyle
  2
2dWireframe
 70
     4
 71
     0
 72
     2
 73
     0
 90
        0
 40
-0.6
 41
-30.0
 62
     5
 63
     7
421
 16777215
 74
     1
 91
        4
 64
     7
 65
   257
 75
     1
175
     1
 42
1.0
 92
        0
 66
   257
 43
1.0
 76
     1
 77
     6
 78
     2
 67
     7
 79
     5
170
     0
171
     0
290
     0
174
     0
 93
        1
 44
0.0
173
     0
291
     0
 45
0.0
  0
VISUALSTYLE
  5
26E
102
{ACAD_REACTORS
330
267
102
}
330
267
100
AcDbVisualStyle
  2
3D Hidden
 70
     6
 71
     1
 72
     2
 73
     2
 90
        0
 40
-0.6
 41
-30.0
 62
     5
 63
     7
421
 16777215
 74
     2
 91
        2
 64
     7
 65
   257
 75
     2
175
     1
 42
40.0
 92
        0
 66
   257
 43
1.0
 76
     1
 77
     6
 78
     2
 67
     7
 79
     3
170
     0
171
     0
290
     0
174
     0
 93
        1
 44
0.0
173
     0
291
     0
 45
0.0
  0
VISUALSTYLE
  5
26D
102
{ACAD_REACTORS
330
267
102
}
330
267
100
AcDbVisualStyle
  2
3dWireframe
 70
     5
 71
     0
 72
     2
 73
     0
 90
        0
 40
-0.6
 41
-30.0
 62
     5
 63
     7
421
 16777215
 74
     1
 91
        4
 64
     7
 65
   257
 75
     1
175
     1
 42
1.0
 92
        0
 66
   257
 43
1.0
 76
     1
 77
     6
 78
     2
 67
     7
 79
     5
170
     0
171
     0
290
     0
174
     0
 93
        1
 44
0.0
173
     0
291
     0
 45
0.0
  0
VISUALSTYLE
  5
26F
102
{ACAD_REACTORS
330
267
102
}
330
267
100
AcDbVisualStyle
  2
Basic
 70
     7
 71
     1
 72
     0
 73
     1
 90
        0
 40
-0.6
 41
-30.0
 62
     5
 63
     7
421
 16777215
 74
     0
 91
        4
 64
     7
 65
   257
 75
     1
175
     1
 42
1.0
 92
        8
 66
     7
 43
1.0
 76
     1
 77
     6
 78
     2
 67
     7
 79
     5
170
     0
171
     0
290
     0
174
     0
 93
        1
 44
0.0
173
     0
291
     1
 45
0.0
  0
VISUALSTYLE
  5
273
102
{ACAD_REACTORS
330
267
102
}
330
267
100
AcDbVisualStyle
  2
Brighten
 70
    12
 71
     2
 72
     2
 73
     0
 90
        0
 40
-0.6
 41
-30.0
 62
     5
 63
     7
421
 16777215
 74
     1
 91
        4
 64
     7
 65
   257
 75
     1
175
     1
 42
1.0
 92
        8
 66
     7
 43
1.0
 76
     1
 77
     6
 78
     2
 67
     7
 79
     5
170
     0
171
     0
290
     0
174
     0
 93
        1
 44
50.0
173
     0
291
     1
 45
0.0
  0
VISUALSTYLE
  5
277
102
{ACAD_REACTORS
330
267
102
}
330
267
100
AcDbVisualStyle
  2
ColorChange
 70
    16
 71
     2
 72
     2
 73
     3
 90
        0
 40
-0.6
 41
-30.0
 62
     5
 63
     8
421
  8421504
 74
     1
 91
        4
 64
     7
 65
   257
 75
     1
175
     1
 42
1.0
 92
        8
 66
     8
424
  8421504
 43
1.0
 76
     1
 77
     6
 78
     2
 67
     7
 79
     5
170
     0
171
     0
290
     0
174
     0
 93
        1
 44
0.0
173
     0
291
     1
 45
0.0
  0
VISUALSTYLE
  5
271
102
{ACAD_REACTORS
330
267
102
}
330
267
100
AcDbVisualStyle
  2
Conceptual
 70
     9
 71
     3
 72
     2
 73
     0
 90
        0
 40
-0.6
 41
-30.0
 62
     5
 63
     7
421
 16777215
 74
     2
 91
        2
 64
     7
 65
   257
 75
     1
175
     1
 42
40.0
 92
        8
 66
     7
 43
1.0
 76
     1
 77
     6
 78
     2
 67
     7
 79
     3
170
     0
171
     0
290
     0
174
     0
 93
        1
 44
0.0
173
     0
291
     0
 45
0.0
  0
VISUALSTYLE
  5
272
102
{ACAD_REACTORS
330
267
102
}
330
267
100
AcDbVisualStyle
  2
Dim
 70
    11
 71
     2
 72
     2
 73
     0
 90
        0
 40
-0.6
 41
-30.0
 62
     5
 63
     7
421
 16777215
 74
     1
 91
        4
 64
     7
 65
   257
 75
     1
175
     1
 42
1.0
 92
        8
 66
     7
 43
1.0
 76
     1
 77
     6
 78
     2
 67
     7
 79
     5
170
     0
171
     0
290
     0
174
     0
 93
        1
 44
-50.0
173
     0
291
     1
 45
0.0
  0
VISUALSTYLE
  5
10E2
102
{ACAD_REACTORS
330
267
102
}
330
267
100
AcDbVisualStyle
  2
EdgeColorOff
 70
    22
 71
     2
 72
     2
 73
     0
 90
        0
 40
0.6
 41
30.0
 62
     5
 63
     7
421
 16777215
 74
     1
 91
        4
 64
     7
 65
   257
 75
     1
175
     1
 42
1.0
 92
        8
 66
     7
 43
1.0
 76
     1
 77
     6
 78
     2
 67
     7
 79
     5
170
     0
171
     0
290
     0
174
     0
 93
        1
 44
0.0
173
     0
291
     1
 45
0.0
  0
VISUALSTYLE
  5
276
102
{ACAD_REACTORS
330
267
102
}
330
267
100
AcDbVisualStyle
  2
Facepattern
 70
    15
 71
     2
 72
     2
 73
     0
 90
        0
 40
-0.6
 41
-30.0
 62
     5
 63
     7
421
 16777215
 74
     1
 91
        4
 64
     7
 65
   257
 75
     1
175
     1
 42
1.0
 92
        8
 66
     7
 43
1.0
 76
     1
 77
     6
 78
     2
 67
     7
 79
     5
170
     0
171
     0
290
     0
174
     0
 93
        1
 44
0.0
173
     0
291
     1
 45
0.0
  0
VISUALSTYLE
  5
268
102
{ACAD_REACTORS
330
267
102
}
330
267
100
AcDbVisualStyle
  2
Flat
 70
     0
 71
     2
 72
     1
 73
     1
 90
        2
 40
-0.6
 41
30.0
 62
     5
 63
     7
421
 16777215
 74
     0
 91
        4
 64
     7
 65
   257
 75
     1
175
     1
 42
1.0
 92
        8
 66
     7
 43
1.0
 76
     1
 77
     6
 78
     2
 67
     7
 79
     5
170
     0
171
     0
290
     0
174
     0
 93
       13
 44
0.0
173
     0
291
     1
 45
0.0
  0
VISUALSTYLE
  5
269
102
{ACAD_REACTORS
330
267
102
}
330
267
100
AcDbVisualStyle
  2
FlatWithEdges
 70
     1
 71
     2
 72
     1
 73
     1
 90
        2
 40
-0.6
 41
30.0
 62
     5
 63
     7
421
 16777215
 74
     1
 91
        4
 64
     7
 65
   257
 75
     1
175
     1
 42
1.0
 92
        0
 66
   257
 43
1.0
 76
     1
 77
     6
 78
     2
 67
     7
 79
     5
170
     0
171
     0
290
     0
174
     0
 93
       13
 44
0.0
173
     0
291
     1
 45
0.0
  0
VISUALSTYLE
  5
26A
102
{ACAD_REACTORS
330
267
102
}
330
267
100
AcDbVisualStyle
  2
Gouraud
 70
     2
 71
     2
 72
     2
 73
     1
 90
        2
 40
-0.6
 41
30.0
 62
     5
 63
     7
421
 16777215
 74
     0
 91
        4
 64
     7
 65
   257
 75
     1
175
     1
 42
1.0
 92
        0
 66
     7
 43
1.0
 76
     1
 77
     6
 78
     2
 67
     7
 79
     5
170
     0
171
     0
290
     0
174
     0
 93
       13
 44
0.0
173
     0
291
     1
 45
0.0
  0
VISUALSTYLE
  5
26B
102
{ACAD_REACTORS
330
267
102
}
330
267
100
AcDbVisualStyle
  2
GouraudWithEdges
 70
     3
 71
     2
 72
     2
 73
     1
 90
        2
 40
-0.6
 41
30.0
 62
     5
 63
     7
421
 16777215
 74
     1
 91
        4
 64
     7
 65
   257
 75
     1
175
     1
 42
1.0
 92
        0
 66
   257
 43
1.0
 76
     1
 77
     6
 78
     2
 67
     7
 79
     5
170
     0
171
     0
290
     0
174
     0
 93
       13
 44
0.0
173
     0
291
     1
 45
0.0
  0
VISUALSTYLE
  5
10DF
102
{ACAD_REACTORS
330
267
102
}
330
267
100
AcDbVisualStyle
  2
Hidden
 70
     6
 71
     1
 72
     2
 73
     2
 90
        0
 40
0.6
 41
30.0
 62
     5
 63
     7
421
 16777215
 74
     2
 91
        2
 64
     7
 65
   257
 75
     2
175
     1
 42
40.0
 92
        0
 66
   257
 43
1.0
 76
     1
 77
     6
 78
     2
 67
     7
 79
     3
170
     0
171
     0
290
     0
174
     0
 93
        1
 44
0.0
173
     0
291
     0
 45
0.0
  0
VISUALSTYLE
  5
10E0
102
{ACAD_REACTORS
330
267
102
}
330
267
100
AcDbVisualStyle
  2
JitterOff
 70
    20
 71
     2
 72
     2
 73
     0
 90
        0
 40
0.6
 41
30.0
 62
     5
 63
     7
421
 16777215
 74
     1
 91
        4
 64
     7
 65
   257
 75
     1
175
     1
 42
1.0
 92
       10
 66
     7
 43
1.0
 76
     1
 77
     6
 78
     2
 67
     7
 79
     5
170
     0
171
     0
290
     0
174
     0
 93
        1
 44
0.0
173
     0
291
     1
 45
0.0
  0
VISUALSTYLE
  5
275
102
{ACAD_REACTORS
330
267
102
}
330
267
100
AcDbVisualStyle
  2
Linepattern
 70
    14
 71
     2
 72
     2
 73
     0
 90
        0
 40
-0.6
 41
-30.0
 62
     5
 63
     7
421
 16777215
 74
     1
 91
        4
 64
     7
 65
   257
 75
     7
175
     7
 42
1.0
 92
        8
 66
     7
 43
1.0
 76
     1
 77
     6
 78
     2
 67
     7
 79
     5
170
     0
171
     0
290
     0
174
     0
 93
        1
 44
0.0
173
     0
291
     1
 45
0.0
  0
VISUALSTYLE
  5
10E1
102
{ACAD_REACTORS
330
267
102
}
330
267
100
AcDbVisualStyle
  2
OverhangOff
 70
    21
 71
     2
 72
     2
 73
     0
 90
        0
 40
0.6
 41
30.0
 62
     5
 63
     7
421
 16777215
 74
     1
 91
        4
 64
     7
 65
   257
 75
     1
175
     1
 42
1.0
 92
        9
 66
     7
 43
1.0
 76
     1
 77
     6
 78
     2
 67
     7
 79
     5
170
     0
171
     0
290
     0
174
     0
 93
        1
 44
0.0
173
     0
291
     1
 45
0.0
  0
VISUALSTYLE
  5
270
102
{ACAD_REACTORS
330
267
102
}
330
267
100
AcDbVisualStyle
  2
Realistic
 70
     8
 71
     2
 72
     2
 73
     0
 90
        0
 40
-0.6
 41
-30.0
 62
     5
 63
     7
421
 16777215
 74
     1
 91
        0
 64
     7
 65
   257
 75
     1
175
     1
 42
1.0
 92
        8
 66
     8
424
  7895160
 43
1.0
 76
     1
 77
     6
 78
     2
 67
     7
 79
     5
170
     0
171
     0
290
     0
174
     0
 93
       13
 44
0.0
173
     0
291
     0
 45
0.0
  0
VISUALSTYLE
  5
10E7
102
{ACAD_REACTORS
330
267
102
}
330
267
100
AcDbVisualStyle
  2
Shaded
 70
    27
 71
     2
 72
     2
 73
     1
 90
        2
 40
0.6
 41
30.0
 62
     5
 63
     7
421
 16777215
 74
     0
 91
        4
 64
     7
 65
   257
 75
     1
175
     1
 42
1.0
 92
        8
 66
   257
 43
1.0
 76
     1
 77
     6
 78
     2
 67
     8
425
  7895160
 79
     3
170
     0
171
     0
290
     0
174
     0
 93
        5
 44
0.0
173
     0
291
     0
 45
0.0
  0
VISUALSTYLE
  5
10E6
102
{ACAD_REACTORS
330
267
102
}
330
267
100
AcDbVisualStyle
  2
Shaded with edges
 70
    26
 71
     2
 72
     2
 73
     1
 90
        2
 40
0.6
 41
30.0
 62
     5
 63
     7
421
 16777215
 74
     1
 91
       10
 64
     7
 65
   257
 75
     2
175
     1
 42
1.0
 92
        8
 66
   257
 43
1.0
 76
     1
 77
     6
 78
     2
 67
     7
 79
     3
170
     0
171
     0
290
     0
174
     0
 93
        5
 44
0.0
173
     0
291
     0
 45
0.0
  0
VISUALSTYLE
  5
10E3
102
{ACAD_REACTORS
330
267
102
}
330
267
100
AcDbVisualStyle
  2
Shades of Gray
 70
    23
 71
     2
 72
     2
 73
     3
 90
        0
 40
0.6
 41
30.0
 62
     5
 63
     7
421
 16777215
 74
     2
 91
        2
 64
     7
 65
     7
 75
     1
175
     1
 42
40.0
 92
        8
 66
     7
 43
1.0
 76
     1
 77
     6
 78
     2
 67
     7
 79
     3
170
     0
171
     0
290
     0
174
     0
 93
        1
 44
0.0
173
     0
291
     0
 45
0.0
  0
VISUALSTYLE
  5
10E4
102
{ACAD_REACTORS
330
267
102
}
330
267
100
AcDbVisualStyle
  2
Sketchy
 70
    24
 71
     1
 72
     2
 73
     2
 90
        0
 40
0.6
 41
30.0
 62
     5
 63
     7
421
 16777215
 74
     2
 91
        2
 64
     7
 65
     7
 75
     1
175
     1
 42
40.0
 92
       11
 66
     7
 43
1.0
 76
     1
 77
     6
 78
     2
 67
     7
 79
     6
170
     0
171
     0
290
     0
174
     0
 93
        1
 44
0.0
173
     0
291
     0
 45
0.0
  0
VISUALSTYLE
  5
274
102
{ACAD_REACTORS
330
267
102
}
330
267
100
AcDbVisualStyle
  2
Thicken
 70
    13
 71
     2
 72
     2
 73
     0
 90
        0
 40
-0.6
 41
-30.0
 62
     5
 63
     7
421
 16777215
 74
     1
 91
        4
 64
     7
 65
   257
 75
     1
175
     1
 42
1.0
 92
       12
 66
     7
 43
1.0
 76
     1
 77
     6
 78
     2
 67
     7
 79
     5
170
     0
171
     0
290
     0
174
     0
 93
        1
 44
0.0
173
     0
291
     1
 45
0.0
  0
VISUALSTYLE
  5
10DE
102
{ACAD_REACTORS
330
267
102
}
330
267
100
AcDbVisualStyle
  2
Wireframe
 70
     5
 71
     0
 72
     2
 73
     0
 90
        0
 40
0.6
 41
30.0
 62
     5
 63
     7
421
 16777215
 74
     1
 91
        4
 64
     7
 65
   257
 75
     1
175
     1
 42
1.0
 92
        0
 66
   257
 43
1.0
 76
     1
 77
     6
 78
     2
 67
     7
 79
     3
170
     0
171
     0
290
     0
174
     0
 93
        1
 44
0.0
173
     0
291
     0
 45
0.0
  0
VISUALSTYLE
  5
10E5
102
{ACAD_REACTORS
330
267
102
}
330
267
100
AcDbVisualStyle
  2
X-Ray
 70
    25
 71
     2
 72
     2
 73
     1
 90
        1
 40
0.5
 41
30.0
 62
     5
 63
     7
421
 16777215
 74
     1
 91
        0
 64
     7
 65
   257
 75
     1
175
     1
 42
1.0
 92
        8
 66
     7
 43
1.0
 76
     1
 77
     6
 78
     2
 67
     7
 79
     3
170
     0
171
     0
290
     0
174
     0
 93
       13
 44
0.0
173
     0
291
     0
 45
0.0
  0
DICTIONARYVAR
  5
331
102
{ACAD_REACTORS
330
330
102
}
330
330
100
DictionaryVariables
280
     0
  1
1:1
  0
DICTIONARYVAR
  5
4E1D
102
{ACAD_REACTORS
330
330
102
}
330
330
100
DictionaryVariables
280
     0
  1
Standard
  0
DICTIONARYVAR
  5
335
102
{ACAD_REACTORS
330
330
102
}
330
330
100
DictionaryVariables
280
     0
  1
Standard
  0
DICTIONARYVAR
  5
109E
102
{ACAD_REACTORS
330
330
102
}
330
330
100
DictionaryVariables
280
     0
  1
0
  0
FIELD
  5
4E14
102
{ACAD_REACTORS
330
57D7
102
}
330
57D7
100
AcDbField
  1
_text
  2
{%<\_FldIdx 0>%N}
 90
        1
360
4E18
 97
        0
 91
       63
 92
        0
 94
       11
 95
        2
 96
        0
300

 93
        1
  6
ACFD_FIELDTEXT_CHECKSUM
 93
        2
 90
        2
140
4498.0
 94
        0
300

302

304
ACVALUE_END
  7
ACFD_FIELD_VALUE
 93
        6
 90
        4
  1
{20180521N}
 94
        0
300

302

304
ACVALUE_END
301
{20180521N}
 98
       11
  0
DICTIONARY
  5
57FA
330
279
100
AcDbDictionary
280
     1
281
     1
  3
ACAD_ROUNDTRIP_2008_TABLESTYLE_CELLSTYLEMAP
360
57FB
  0
FIELD
  5
4E18
330
4E14
100
AcDbField
  1
AcVar
  2
\AcVar Date \f "yyyyMMdd"
 90
        0
 97
        0
 91
       63
 92
        0
 94
       11
 95
       64
 96
        0
300
Variable not supported
 93
        1
  6
Variable
 93
        2
 90
        4
  1
Date
 94
        0
300

302

304
ACVALUE_END
  7
ACFD_FIELD_VALUE
 93
        6
 90
        8
 92
       16
310
E2070500000015000B0006002C000000
 94
        0
300
yyyyMMdd
302

304
ACVALUE_END
301
20180521
 98
        8
  0
CELLSTYLEMAP
  5
57FB
102
{ACAD_REACTORS
330
57FA
102
}
330
57FA
100
AcDbCellStyleMap
 90
        3
300
CELLSTYLE
  1
TABLEFORMAT_BEGIN
 90
        5
170
     1
 91
        0
 92
    32768
 62
   257
 93
        1
300
CONTENTFORMAT
  1
CONTENTFORMAT_BEGIN
 90
        0
 91
        0
 92
        4
 93
        0
300

 40
0.0
140
1.0
 94
        5
 62
     0
340
17
144
6.0
309
CONTENTFORMAT_END
171
     1
301
MARGIN
  1
CELLMARGIN_BEGIN
 40
0.06
 40
0.06
 40
0.06
 40
0.06
 40
0.18
 40
0.18
309
CELLMARGIN_END
 94
        6
 95
        1
302
GRIDFORMAT
  1
GRIDFORMAT_BEGIN
 90
        0
 91
        1
 62
     0
 92
       -2
340
0
 93
        0
 40
0.045
309
GRIDFORMAT_END
 95
        2
302
GRIDFORMAT
  1
GRIDFORMAT_BEGIN
 90
        0
 91
        1
 62
     0
 92
       -2
340
0
 93
        0
 40
0.045
309
GRIDFORMAT_END
 95
        4
302
GRIDFORMAT
  1
GRIDFORMAT_BEGIN
 90
        0
 91
        1
 62
     0
 92
       -2
340
0
 93
        0
 40
0.045
309
GRIDFORMAT_END
 95
        8
302
GRIDFORMAT
  1
GRIDFORMAT_BEGIN
 90
        0
 91
        1
 62
     0
 92
       -2
340
0
 93
        0
 40
0.045
309
GRIDFORMAT_END
 95
       16
302
GRIDFORMAT
  1
GRIDFORMAT_BEGIN
 90
        0
 91
        1
 62
     0
 92
       -2
340
0
 93
        0
 40
0.045
309
GRIDFORMAT_END
 95
       32
302
GRIDFORMAT
  1
GRIDFORMAT_BEGIN
 90
        0
 91
        1
 62
     0
 92
       -2
340
0
 93
        0
 40
0.045
309
GRIDFORMAT_END
309
TABLEFORMAT_END
  1
CELLSTYLE_BEGIN
 90
        1
 91
        1
300
_TITLE
309
CELLSTYLE_END
300
CELLSTYLE
  1
TABLEFORMAT_BEGIN
 90
        5
170
     1
 91
        0
 92
        0
 62
   257
 93
        1
300
CONTENTFORMAT
  1
CONTENTFORMAT_BEGIN
 90
        0
 91
        0
 92
        4
 93
        0
300

 40
0.0
140
1.0
 94
        5
 62
     0
340
17
144
4.5
309
CONTENTFORMAT_END
171
     1
301
MARGIN
  1
CELLMARGIN_BEGIN
 40
0.06
 40
0.06
 40
0.06
 40
0.06
 40
0.18
 40
0.18
309
CELLMARGIN_END
 94
        6
 95
        1
302
GRIDFORMAT
  1
GRIDFORMAT_BEGIN
 90
        0
 91
        1
 62
     0
 92
       -2
340
0
 93
        0
 40
0.045
309
GRIDFORMAT_END
 95
        2
302
GRIDFORMAT
  1
GRIDFORMAT_BEGIN
 90
        0
 91
        1
 62
     0
 92
       -2
340
0
 93
        0
 40
0.045
309
GRIDFORMAT_END
 95
        4
302
GRIDFORMAT
  1
GRIDFORMAT_BEGIN
 90
        0
 91
        1
 62
     0
 92
       -2
340
0
 93
        0
 40
0.045
309
GRIDFORMAT_END
 95
        8
302
GRIDFORMAT
  1
GRIDFORMAT_BEGIN
 90
        0
 91
        1
 62
     0
 92
       -2
340
0
 93
        0
 40
0.045
309
GRIDFORMAT_END
 95
       16
302
GRIDFORMAT
  1
GRIDFORMAT_BEGIN
 90
        0
 91
        1
 62
     0
 92
       -2
340
0
 93
        0
 40
0.045
309
GRIDFORMAT_END
 95
       32
302
GRIDFORMAT
  1
GRIDFORMAT_BEGIN
 90
        0
 91
        1
 62
     0
 92
       -2
340
0
 93
        0
 40
0.045
309
GRIDFORMAT_END
309
TABLEFORMAT_END
  1
CELLSTYLE_BEGIN
 90
        2
 91
        1
300
_HEADER
309
CELLSTYLE_END
300
CELLSTYLE
  1
TABLEFORMAT_BEGIN
 90
        5
170
     1
 91
        0
 92
        0
 62
   257
 93
        1
300
CONTENTFORMAT
  1
CONTENTFORMAT_BEGIN
 90
        0
 91
        0
 92
        4
 93
        0
300

 40
0.0
140
1.0
 94
        2
 62
     0
340
17
144
4.5
309
CONTENTFORMAT_END
171
     1
301
MARGIN
  1
CELLMARGIN_BEGIN
 40
0.06
 40
0.06
 40
0.06
 40
0.06
 40
0.18
 40
0.18
309
CELLMARGIN_END
 94
        6
 95
        1
302
GRIDFORMAT
  1
GRIDFORMAT_BEGIN
 90
        0
 91
        1
 62
     0
 92
       -2
340
0
 93
        0
 40
0.045
309
GRIDFORMAT_END
 95
        2
302
GRIDFORMAT
  1
GRIDFORMAT_BEGIN
 90
        0
 91
        1
 62
     0
 92
       -2
340
0
 93
        0
 40
0.045
309
GRIDFORMAT_END
 95
        4
302
GRIDFORMAT
  1
GRIDFORMAT_BEGIN
 90
        0
 91
        1
 62
     0
 92
       -2
340
0
 93
        0
 40
0.045
309
GRIDFORMAT_END
 95
        8
302
GRIDFORMAT
  1
GRIDFORMAT_BEGIN
 90
        0
 91
        1
 62
     0
 92
       -2
340
0
 93
        0
 40
0.045
309
GRIDFORMAT_END
 95
       16
302
GRIDFORMAT
  1
GRIDFORMAT_BEGIN
 90
        0
 91
        1
 62
     0
 92
       -2
340
0
 93
        0
 40
0.045
309
GRIDFORMAT_END
 95
       32
302
GRIDFORMAT
  1
GRIDFORMAT_BEGIN
 90
        0
 91
        1
 62
     0
 92
       -2
340
0
 93
        0
 40
0.045
309
GRIDFORMAT_END
309
TABLEFORMAT_END
  1
CELLSTYLE_BEGIN
 90
        3
 91
        2
300
_DATA
309
CELLSTYLE_END
  0
ENDSEC
  0
EOF
