  0
SECTION
  2
HEADER
  9
$ACADVER
  1
AC1021
  9
$ACADMAINTVER
 70
    25
  9
$DWGCODEPAGE
  3
ANSI_932
  9
$LASTSAVEDBY
  1
tform
  9
$INSBASE
 10
0.0
 20
0.0
 30
0.0
  9
$EXTMIN
 10
0.0
 20
0.0
 30
0.0
  9
$EXTMAX
 10
593.9999999999999
 20
420.0
 30
0.005
  9
$LIMMIN
 10
0.0
 20
0.0
  9
$LIMMAX
 10
593.9999999999999
 20
420.0
  9
$ORTHOMODE
 70
     0
  9
$REGENMODE
 70
     1
  9
$FILLMODE
 70
     1
  9
$QTEXTMODE
 70
     0
  9
$MIRRTEXT
 70
     1
  9
$LTSCALE
 40
0.5
  9
$ATTMODE
 70
     1
  9
$TEXTSIZE
 40
136.139079520063
  9
$TRACEWID
 40
1.0
  9
$TEXTSTYLE
  7
ＭＳ ゴシック
  9
$CLAYER
  8
寸法
  9
$CELTYPE
  6
ByLayer
  9
$CECOLOR
 62
   256
  9
$CELTSCALE
 40
1.0
  9
$DISPSILH
 70
     0
  9
$DIMSCALE
 40
1.0
  9
$DIMASZ
 40
2.0
  9
$DIMEXO
 40
5.0
  9
$DIMDLI
 40
0.9999999999999999
  9
$DIMRND
 40
0.0
  9
$DIMDLE
 40
0.0
  9
$DIMEXE
 40
0.0
  9
$DIMTP
 40
0.0
  9
$DIMTM
 40
0.0
  9
$DIMTXT
 40
5.0
  9
$DIMCEN
 40
0.0
  9
$DIMTSZ
 40
0.0
  9
$DIMTOL
 70
     0
  9
$DIMLIM
 70
     0
  9
$DIMTIH
 70
     0
  9
$DIMTOH
 70
     0
  9
$DIMSE1
 70
     0
  9
$DIMSE2
 70
     0
  9
$DIMTAD
 70
     1
  9
$DIMZIN
 70
    11
  9
$DIMBLK
  1
DOT
  9
$DIMASO
 70
     1
  9
$DIMSHO
 70
     1
  9
$DIMPOST
  1
<>
  9
$DIMAPOST
  1
[]
  9
$DIMALT
 70
     0
  9
$DIMALTD
 70
     1
  9
$DIMALTF
 40
1.0
  9
$DIMLFAC
 40
1.0
  9
$DIMTOFL
 70
     0
  9
$DIMTVP
 40
0.0
  9
$DIMTIX
 70
     1
  9
$DIMSOXD
 70
     0
  9
$DIMSAH
 70
     0
  9
$DIMBLK1
  1

  9
$DIMBLK2
  1

  9
$DIMSTYLE
  2
tfrom線あり
  9
$DIMCLRD
 70
     0
  9
$DIMCLRE
 70
     0
  9
$DIMCLRT
 70
     0
  9
$DIMTFAC
 40
1.0
  9
$DIMGAP
 40
5.0
  9
$DIMJUST
 70
     0
  9
$DIMSD1
 70
     0
  9
$DIMSD2
 70
     0
  9
$DIMTOLJ
 70
     1
  9
$DIMTZIN
 70
    11
  9
$DIMALTZ
 70
    11
  9
$DIMALTTZ
 70
    11
  9
$DIMUPT
 70
     0
  9
$DIMDEC
 70
     0
  9
$DIMTDEC
 70
     1
  9
$DIMALTU
 70
     2
  9
$DIMALTTD
 70
     2
  9
$DIMTXSTY
  7
ＭＳ ゴシック
  9
$DIMAUNIT
 70
     0
  9
$DIMADEC
 70
     2
  9
$DIMALTRND
 40
0.0
  9
$DIMAZIN
 70
     0
  9
$DIMDSEP
 70
    46
  9
$DIMATFIT
 70
     0
  9
$DIMFRAC
 70
     2
  9
$DIMLDRBLK
  1
DOT
  9
$DIMLUNIT
 70
     2
  9
$DIMLWD
 70
    -2
  9
$DIMLWE
 70
    -2
  9
$DIMTMOVE
 70
     0
  9
$DIMFXL
 40
1.0
  9
$DIMFXLON
 70
     0
  9
$DIMJOGANG
 40
0.7853981633974483
  9
$DIMTFILL
 70
     0
  9
$DIMTFILLCLR
 70
     0
  9
$DIMARCSYM
 70
     0
  9
$DIMLTYPE
  6

  9
$DIMLTEX1
  6

  9
$DIMLTEX2
  6

  9
$LUNITS
 70
     2
  9
$LUPREC
 70
     0
  9
$SKETCHINC
 40
0.1
  9
$FILLETRAD
 40
0.0
  9
$AUNITS
 70
     0
  9
$AUPREC
 70
     0
  9
$MENU
  1
acad
  9
$ELEVATION
 40
0.0
  9
$PELEVATION
 40
0.0
  9
$THICKNESS
 40
0.0
  9
$LIMCHECK
 70
     0
  9
$CHAMFERA
 40
0.0
  9
$CHAMFERB
 40
0.0
  9
$CHAMFERC
 40
0.0
  9
$CHAMFERD
 40
0.0
  9
$SKPOLY
 70
     0
  9
$TDCREATE
 40
2447893.375
  9
$TDUCREATE
 40
0.0
  9
$TDUPDATE
 40
2459759.504270602
  9
$TDUUPDATE
 40
2459759.129270602
  9
$TDINDWG
 40
0.0017706481
  9
$TDUSRTIMER
 40
0.0003716898
  9
$USRTIMER
 70
     1
  9
$ANGBASE
 50
0.0
  9
$ANGDIR
 70
     0
  9
$PDMODE
 70
     1
  9
$PDSIZE
 40
-2.0
  9
$PLINEWID
 40
0.0
  9
$SPLFRAME
 70
     0
  9
$SPLINETYPE
 70
     6
  9
$SPLINESEGS
 70
     8
  9
$HANDSEED
  5
5900
  9
$SURFTAB1
 70
     6
  9
$SURFTAB2
 70
     6
  9
$SURFTYPE
 70
     6
  9
$SURFU
 70
     6
  9
$SURFV
 70
     6
  9
$UCSBASE
  2

  9
$UCSNAME
  2

  9
$UCSORG
 10
0.0
 20
0.0
 30
0.0
  9
$UCSXDIR
 10
1.0
 20
0.0
 30
0.0
  9
$UCSYDIR
 10
0.0
 20
1.0
 30
0.0
  9
$UCSORTHOREF
  2

  9
$UCSORTHOVIEW
 70
     1
  9
$UCSORGTOP
 10
0.0
 20
0.0
 30
0.0
  9
$UCSORGBOTTOM
 10
0.0
 20
0.0
 30
0.0
  9
$UCSORGLEFT
 10
0.0
 20
0.0
 30
0.0
  9
$UCSORGRIGHT
 10
0.0
 20
0.0
 30
0.0
  9
$UCSORGFRONT
 10
0.0
 20
0.0
 30
0.0
  9
$UCSORGBACK
 10
0.0
 20
0.0
 30
0.0
  9
$PUCSBASE
  2

  9
$PUCSNAME
  2

  9
$PUCSORG
 10
0.0
 20
0.0
 30
0.0
  9
$PUCSXDIR
 10
1.0
 20
0.0
 30
0.0
  9
$PUCSYDIR
 10
0.0
 20
1.0
 30
0.0
  9
$PUCSORTHOREF
  2

  9
$PUCSORTHOVIEW
 70
     0
  9
$PUCSORGTOP
 10
0.0
 20
0.0
 30
0.0
  9
$PUCSORGBOTTOM
 10
0.0
 20
0.0
 30
0.0
  9
$PUCSORGLEFT
 10
0.0
 20
0.0
 30
0.0
  9
$PUCSORGRIGHT
 10
0.0
 20
0.0
 30
0.0
  9
$PUCSORGFRONT
 10
0.0
 20
0.0
 30
0.0
  9
$PUCSORGBACK
 10
0.0
 20
0.0
 30
0.0
  9
$USERI1
 70
     0
  9
$USERI2
 70
     0
  9
$USERI3
 70
     0
  9
$USERI4
 70
     0
  9
$USERI5
 70
     0
  9
$USERR1
 40
0.0
  9
$USERR2
 40
0.0
  9
$USERR3
 40
0.0
  9
$USERR4
 40
0.0
  9
$USERR5
 40
0.0
  9
$WORLDVIEW
 70
     1
  9
$SHADEDGE
 70
     3
  9
$SHADEDIF
 70
    70
  9
$TILEMODE
 70
     1
  9
$MAXACTVP
 70
    64
  9
$PINSBASE
 10
0.0
 20
0.0
 30
0.0
  9
$PLIMCHECK
 70
     0
  9
$PEXTMIN
 10
0.0
 20
0.0
 30
0.0
  9
$PEXTMAX
 10
0.0
 20
0.0
 30
0.0
  9
$PLIMMIN
 10
-7.5
 20
-20.0
  9
$PLIMMAX
 10
412.5
 20
277.0
  9
$UNITMODE
 70
     0
  9
$VISRETAIN
 70
     0
  9
$PLINEGEN
 70
     1
  9
$PSLTSCALE
 70
     0
  9
$TREEDEPTH
 70
  3020
  9
$CMLSTYLE
  2
Standard
  9
$CMLJUST
 70
     0
  9
$CMLSCALE
 40
1.0
  9
$PROXYGRAPHICS
 70
     0
  9
$MEASUREMENT
 70
     1
  9
$CELWEIGHT
370
    -1
  9
$ENDCAPS
280
     0
  9
$JOINSTYLE
280
     0
  9
$LWDISPLAY
290
     1
  9
$INSUNITS
 70
     4
  9
$HYPERLINKBASE
  1

  9
$STYLESHEET
  1

  9
$XEDIT
290
     1
  9
$CEPSNTYPE
380
     0
  9
$PSTYLEMODE
290
     1
  9
$FINGERPRINTGUID
  2

  9
$VERSIONGUID
  2

  9
$EXTNAMES
290
     1
  9
$PSVPSCALE
 40
0.0
  9
$OLESTARTUP
290
     0
  9
$SORTENTS
280
   127
  9
$INDEXCTL
280
     0
  9
$HIDETEXT
280
     1
  9
$XCLIPFRAME
290
     0
  9
$HALOGAP
280
     0
  9
$OBSCOLOR
 70
   257
  9
$OBSLTYPE
280
     0
  9
$INTERSECTIONDISPLAY
280
     0
  9
$INTERSECTIONCOLOR
 70
   257
  9
$DIMASSOC
280
     2
  9
$PROJECTNAME
  1

  9
$CAMERADISPLAY
290
     0
  9
$LENSLENGTH
 40
50.0
  9
$CAMERAHEIGHT
 40
0.0
  9
$STEPSPERSEC
 40
2.0
  9
$STEPSIZE
 40
6.0
  9
$3DDWFPREC
 40
2.0
  9
$PSOLWIDTH
 40
0.25
  9
$PSOLHEIGHT
 40
4.0
  9
$LOFTANG1
 40
1.570796326794897
  9
$LOFTANG2
 40
1.570796326794897
  9
$LOFTMAG1
 40
0.0
  9
$LOFTMAG2
 40
0.0
  9
$LOFTPARAM
 70
     7
  9
$LOFTNORMALS
280
     1
  9
$LATITUDE
 40
37.795
  9
$LONGITUDE
 40
-122.394
  9
$NORTHDIRECTION
 40
0.0
  9
$TIMEZONE
 70
 -8000
  9
$LIGHTGLYPHDISPLAY
280
     1
  9
$TILEMODELIGHTSYNCH
280
     1
  9
$SOLIDHIST
280
     1
  9
$SHOWHIST
280
     1
  9
$DWFFRAME
280
     2
  9
$DGNFRAME
280
     2
  9
$REALWORLDSCALE
290
     1
  9
$INTERFERECOLOR
 62
   256
  9
$CSHADOW
280
     0
  9
$SHADOWPLANELOCATION
 40
0.0
  0
ENDSEC
  0
SECTION
  2
CLASSES
  0
CLASS
  1
LWPOLYLINE
  2
AcDbPolyline
  3
ObjectDBX Classes
 90
        0
 91
        1
280
     0
281
     1
  0
CLASS
  1
IMAGE
  2
AcDbRasterImage
  3
ISM
 90
      127
 91
        4
280
     0
281
     1
  0
CLASS
  1
OLE2FRAME
  2
AcDbOle2Frame
  3
ObjectDBX Classes
 90
        0
 91
        1
280
     0
281
     1
  0
CLASS
  1
HATCH
  2
AcDbHatch
  3
ObjectDBX Classes
 90
        0
 91
        1
280
     0
281
     1
  0
CLASS
  1
DICTIONARYVAR
  2
AcDbDictionaryVar
  3
ObjectDBX Classes
 90
        0
 91
        3
280
     0
281
     0
  0
CLASS
  1
RASTERVARIABLES
  2
AcDbRasterVariables
  3
ISM
 90
        0
 91
        3
280
     0
281
     0
  0
CLASS
  1
IMAGEDEF
  2
AcDbRasterImageDef
  3
ISM
 90
        0
 91
        3
280
     0
281
     0
  0
CLASS
  1
IMAGEDEF_REACTOR
  2
AcDbRasterImageDefReactor
  3
ISM
 90
        1
 91
        3
280
     0
281
     0
  0
CLASS
  1
IDBUFFER
  2
AcDbIdBuffer
  3
ObjectDBX Classes
 90
        0
 91
        3
280
     0
281
     0
  0
CLASS
  1
SPATIAL_FILTER
  2
AcDbSpatialFilter
  3
ObjectDBX Classes
 90
        0
 91
        3
280
     0
281
     0
  0
CLASS
  1
XRECORD
  2
AcDbXrecord
  3
ObjectDBX Classes
 90
        0
 91
        1
280
     0
281
     0
  0
CLASS
  1
SORTENTSTABLE
  2
AcDbSortentsTable
  3
ObjectDBX Classes
 90
        0
 91
        3
280
     0
281
     0
  0
CLASS
  1
LAYER_INDEX
  2
AcDbLayerIndex
  3
ObjectDBX Classes
 90
        0
 91
        3
280
     0
281
     0
  0
CLASS
  1
SPATIAL_INDEX
  2
AcDbSpatialIndex
  3
AutoCAD 2000
 90
        0
 91
        3
280
     0
281
     0
  0
CLASS
  1
OBJECT_PTR
  2
CAseDLPNTableRecord
  3
ASE-LPNTableRecord
 90
        1
 91
        3
280
     0
281
     0
  0
CLASS
  1
LAYOUT
  2
AcDbLayout
  3
ObjectDBX Classes
 90
        0
 91
        1
280
     0
281
     0
  0
CLASS
  1
PLOTSETTINGS
  2
AcDbPlotSettings
  3
ObjectDBX Classes
 90
        0
 91
        3
280
     0
281
     0
  0
CLASS
  1
ACDBDICTIONARYWDFLT
  2
AcDbDictionaryWithDefault
  3
ObjectDBX Classes
 90
        0
 91
        3
280
     0
281
     0
  0
CLASS
  1
ACDBPLACEHOLDER
  2
AcDbPlaceHolder
  3
ObjectDBX Classes
 90
        0
 91
        1
280
     0
281
     0
  0
CLASS
  1
SCALE
  2
AcDbScale
  3
ObjectDBX Classes
 90
     1153
 91
        3
280
     0
281
     0
  0
CLASS
  1
MATERIAL
  2
AcDbMaterial
  3
ObjectDBX Classes
 90
     1153
 91
        3
280
     0
281
     0
  0
CLASS
  1
VISUALSTYLE
  2
AcDbVisualStyle
  3
ObjectDBX Classes
 90
     4095
 91
        3
280
     0
281
     0
  0
CLASS
  1
TABLESTYLE
  2
AcDbTableStyle
  3
ObjectDBX Classes
 90
     4095
 91
        3
280
     0
281
     0
  0
CLASS
  1
DIMASSOC
  2
AcDbDimAssoc
  3
"AcDbDimAssoc|Product Desc:     AcDim ARX App For Dimension|Company:          Autodesk, Inc.|WEB Address:      www.autodesk.com"
 90
        0
 91
        3
280
     0
281
     0
  0
CLASS
  1
CELLSTYLEMAP
  2
AcDbCellStyleMap
  3
ObjectDBX Classes
 90
     1152
 91
        3
280
     0
281
     0
  0
CLASS
  1
SUN
  2
AcDbSun
  3
SCENEOE
 90
     1153
 91
        3
280
     0
281
     0
  0
CLASS
  1
MLEADERSTYLE
  2
AcDbMLeaderStyle
  3
ACDB_MLEADERSTYLE_CLASS
 90
     4095
 91
        3
280
     0
281
     0
  0
CLASS
  1
FIELD
  2
AcDbField
  3
ObjectDBX Classes
 90
     1152
 91
        3
280
     0
281
     0
  0
CLASS
  1
FIELDLIST
  2
AcDbFieldList
  3
ObjectDBX Classes
 90
     1152
 91
        3
280
     0
281
     0
  0
ENDSEC
  0
SECTION
  2
TABLES
  0
TABLE
  2
VPORT
  5
7
330
0
100
AcDbSymbolTable
 70
     1
  0
VPORT
  5
15
330
7
100
AcDbSymbolTableRecord
100
AcDbViewportTableRecord
  2
*ACTIVE
 70
     0
 10
0.0
 20
0.0
 11
1.0
 21
1.0
 12
296.9999999999999
 22
210.0
 13
0.0
 23
0.0
 14
1.0
 24
1.0
 15
0.0
 25
0.0
 16
0.0
 26
0.0
 36
1.0
 17
0.0
 27
0.0
 37
0.0
 40
428.4
 41
2.338709677419355
 42
50.0
 43
0.0
 44
0.0
 50
0.0
 51
0.0
 71
    16
 72
  2000
 73
     1
 74
     1
 75
     0
 76
     0
 77
     0
 78
     0
281
     0
 65
     0
110
0.0
120
0.0
130
0.0
111
1.0
121
0.0
131
0.0
112
0.0
122
1.0
132
0.0
 79
     0
146
0.0
348
26C
 60
     3
 61
     5
292
     1
282
     1
141
0.0
142
0.0
 63
   256
361
10E8
  0
ENDTAB
  0
TABLE
  2
LTYPE
  5
4
330
0
100
AcDbSymbolTable
 70
     6
  0
LTYPE
  5
11
330
4
100
AcDbSymbolTableRecord
100
AcDbLinetypeTableRecord
  2
ByBlock
 70
     0
  3

 72
    65
 73
     0
 40
0.0
  0
LTYPE
  5
12
330
4
100
AcDbSymbolTableRecord
100
AcDbLinetypeTableRecord
  2
ByLayer
 70
     0
  3
Solid line
 72
    65
 73
     0
 40
0.0
  0
LTYPE
  5
13
330
4
100
AcDbSymbolTableRecord
100
AcDbLinetypeTableRecord
  2
Continuous
 70
     0
  3
Solid line
 72
    65
 73
     0
 40
0.0
  0
LTYPE
  5
12C7
330
4
100
AcDbSymbolTableRecord
100
AcDbLinetypeTableRecord
  2
HIDDEN
 70
     0
  3
Hidden _ _ _ _ _ _ _ _ _ _ _ _ _ _ _ _ _ _ _ _ 
 72
    65
 73
     2
 40
9.524999999999999
 49
6.35
 74
     0
 49
-3.175
 74
     0
  0
LTYPE
  5
4E2F
330
4
100
AcDbSymbolTableRecord
100
AcDbLinetypeTableRecord
  2
HIDDEN2
 70
     0
  3
Hidden (.5x) _ _ _ _ _ _ _ _ _ _ _ _ _ _ _ _ _ 
 72
    65
 73
     2
 40
4.7625
 49
3.175
 74
     0
 49
-1.5875
 74
     0
  0
LTYPE
  5
4E30
330
4
100
AcDbSymbolTableRecord
100
AcDbLinetypeTableRecord
  2
DASHDOT
 70
     0
  3
Dash dot __ . __ . __ . __ . __ . __ . __ . __
 72
    65
 73
     4
 40
25.4
 49
12.7
 74
     0
 49
-6.35
 74
     0
 49
0.0
 74
     0
 49
-6.35
 74
     0
  0
LTYPE
  5
5114
330
4
100
AcDbSymbolTableRecord
100
AcDbLinetypeTableRecord
  2
DASHED
 70
     0
  3
Dashed __ __ __ __ __ __ __ __ __ __ __ __ __ _
 72
    65
 73
     2
 40
19.05
 49
12.7
 74
     0
 49
-6.35
 74
     0
  0
LTYPE
  5
559C
330
4
100
AcDbSymbolTableRecord
100
AcDbLinetypeTableRecord
  2
CENTER
 70
     0
  3
----------  --  ----------  --  
 72
    65
 73
     4
 40
20.0
 49
12.5
 74
     0
 49
-2.5
 74
     0
 49
2.5
 74
     0
 49
-2.5
 74
     0
  0
ENDTAB
  0
TABLE
  2
LAYER
  5
2
102
{ACAD_XDICTIONARY
360
2E1
102
}
330
0
100
AcDbSymbolTable
 70
    10
  0
LAYER
  5
14
330
2
100
AcDbSymbolTableRecord
100
AcDbLayerTableRecord
  2
0
 70
     0
 62
     7
  6
Continuous
370
    -3
390
1D
347
266
  0
LAYER
  5
4A
330
2
100
AcDbSymbolTableRecord
100
AcDbLayerTableRecord
  2
Defpoints
 70
     0
 62
     7
  6
Continuous
290
     0
370
    -3
390
1D
347
266
  0
LAYER
  5
12CE
330
2
100
AcDbSymbolTableRecord
100
AcDbLayerTableRecord
  2
寸法
 70
     0
 62
     7
  6
Continuous
370
    13
390
1D
347
266
1001
AcAecLayerStandard
1000

1000

  0
LAYER
  5
12CF
330
2
100
AcDbSymbolTableRecord
100
AcDbLayerTableRecord
  2
モデル
 70
     0
 62
     7
  6
Continuous
370
    20
390
1D
347
266
1001
AcAecLayerStandard
1000

1000

  0
LAYER
  5
142A
330
2
100
AcDbSymbolTableRecord
100
AcDbLayerTableRecord
  2
テンプレート
 70
     0
 62
     7
  6
Continuous
370
    20
390
1D
347
266
1001
AcAecLayerStandard
1000

1000

  0
LAYER
  5
1D5C
330
2
100
AcDbSymbolTableRecord
100
AcDbLayerTableRecord
  2
TFORMLOGO
 70
     0
 62
     7
  6
Continuous
370
    20
390
1D
347
266
  0
LAYER
  5
3848
330
2
100
AcDbSymbolTableRecord
100
AcDbLayerTableRecord
  2
PRINT BORDER
 70
     0
 62
     4
  6
Continuous
290
     0
370
    -3
390
1D
347
266
1001
AcAecLayerStandard
1000

1000

  0
LAYER
  5
4BF9
330
2
100
AcDbSymbolTableRecord
100
AcDbLayerTableRecord
  2
CutoutOverlay
 70
     0
 62
     7
  6
Continuous
370
    20
390
1D
347
266
1001
AcAecLayerStandard
1000

1000

  0
LAYER
  5
4BFA
330
2
100
AcDbSymbolTableRecord
100
AcDbLayerTableRecord
  2
CutoutUnderlay
 70
     0
 62
   254
  6
Continuous
370
    20
390
1D
347
266
1001
AcAecLayerStandard
1000

1000

  0
LAYER
  5
4E2D
330
2
100
AcDbSymbolTableRecord
100
AcDbLayerTableRecord
  2
102
 70
     0
 62
     1
  6
Continuous
370
    -3
390
1D
347
266
  0
ENDTAB
  0
TABLE
  2
STYLE
  5
3
330
0
100
AcDbSymbolTable
 70
     4
  0
STYLE
  5
17
330
3
100
AcDbSymbolTableRecord
100
AcDbTextStyleTableRecord
  2
Standard
 70
     0
 40
0.0
 41
1.0
 50
0.0
 71
     0
 42
2.5
  3
txt
  4
BIGFONT.SHX
  0
STYLE
  5
39
330
3
100
AcDbSymbolTableRecord
100
AcDbTextStyleTableRecord
  2
ＭＳ ゴシック
 70
     0
 40
0.0
 41
1.0
 50
0.0
 71
     0
 42
136.139079520063
  3
msgothic.ttc
  4
ＭＳ ゴシック
1001
ACAD
1000
ＭＳ ゴシック
1071
        0
  0
STYLE
  5
5117
330
3
100
AcDbSymbolTableRecord
100
AcDbTextStyleTableRecord
  2
FSB
 70
     0
 40
0.0
 41
1.0
 50
0.0
 71
     0
 42
136.139079520063
  3
txt_____.ttf
  4

1001
ACAD
1000
txt
1071
        0
  0
STYLE
  5
53CC
330
3
100
AcDbSymbolTableRecord
100
AcDbTextStyleTableRecord
  2
EXPLODED0
 70
     0
 40
0.2
 41
1.0
 50
0.0
 71
     0
 42
136.139079520063
  3

  4

  0
ENDTAB
  0
TABLE
  2
VIEW
  5
5
330
0
100
AcDbSymbolTable
 70
     0
  0
ENDTAB
  0
TABLE
  2
UCS
  5
6
330
0
100
AcDbSymbolTable
 70
     0
  0
ENDTAB
  0
TABLE
  2
APPID
  5
8
330
0
100
AcDbSymbolTable
 70
     4
  0
APPID
  5
16
330
8
100
AcDbSymbolTableRecord
100
AcDbRegAppTableRecord
  2
ACAD
 70
     0
  0
APPID
  5
7AC
330
8
100
AcDbSymbolTableRecord
100
AcDbRegAppTableRecord
  2
AcAecLayerStandard
 70
     0
  0
APPID
  5
4E28
330
8
100
AcDbSymbolTableRecord
100
AcDbRegAppTableRecord
  2
ACAD_MLEADERVER
 70
     0
  0
APPID
  5
58FC
330
8
100
AcDbSymbolTableRecord
100
AcDbRegAppTableRecord
  2
PLOTTRANSPARENCY
 70
     0
  0
ENDTAB
  0
TABLE
  2
DIMSTYLE
  5
9
330
0
100
AcDbSymbolTable
 70
     3
100
AcDbDimStyleTable
  0
DIMSTYLE
105
18
330
9
100
AcDbSymbolTableRecord
100
AcDbDimStyleTableRecord
  2
Standard
 70
     0
178
     0
340
17
  0
DIMSTYLE
105
57
102
{ACAD_REACTORS
330
54A6
330
54A9
330
54AA
330
54EA
330
5824
102
}
330
9
100
AcDbSymbolTableRecord
100
AcDbDimStyleTableRecord
  2
tfrom線あり
 70
     0
  3
<>
  4
[]
 41
2.0
 42
5.0
 43
0.9999999999999999
 44
0.0
 73
     0
 74
     0
 77
     1
 78
    11
140
5.0
141
0.0
143
1.0
147
5.0
171
     1
174
     1
178
     0
179
     2
271
     0
272
     1
276
     2
284
    11
285
    11
286
    11
289
     0
340
39
341
4E
342
4E
  0
DIMSTYLE
105
4E31
330
9
100
AcDbSymbolTableRecord
100
AcDbDimStyleTableRecord
  2
ISO-25
 70
     0
 41
2.5
 42
0.625
 43
3.75
 44
1.25
 73
     0
 74
     0
 77
     1
 78
     8
140
2.5
141
2.5
143
0.03937
147
0.625
171
     3
172
     1
178
     0
271
     2
272
     2
274
     3
283
     0
284
     8
340
17
  0
ENDTAB
  0
TABLE
  2
BLOCK_RECORD
  5
1
330
0
100
AcDbSymbolTable
 70
    64
  0
BLOCK_RECORD
  5
A
102
{ACAD_XDICTIONARY
360
4CE1
102
}
330
1
100
AcDbSymbolTableRecord
100
AcDbBlockTableRecord
  2
*MODEL_SPACE
340
20
 70
     0
280
     1
281
     0
  0
BLOCK_RECORD
  5
B
330
1
100
AcDbSymbolTableRecord
100
AcDbBlockTableRecord
  2
*PAPER_SPACE
340
21
 70
     0
280
     1
281
     0
  0
BLOCK_RECORD
  5
4E
330
1
100
AcDbSymbolTableRecord
100
AcDbBlockTableRecord
  2
_DOT
340
0
102
{BLKREFS
331
49DD
331
49DE
331
49EC
331
49ED
331
4A3B
331
4A3C
331
4A67
331
4A68
331
4A79
331
4A7A
331
4A89
331
4A8A
331
4C78
331
4C79
331
4C84
331
4C85
331
4C91
331
4C92
331
4EE8
331
4EE9
331
4FC4
331
4FC5
331
5000
331
5001
331
5011
331
5012
331
5020
331
5021
331
5032
331
5033
331
5052
331
5053
331
5076
331
5077
331
5082
331
5083
331
5090
331
5091
331
50F7
331
50F8
331
5272
331
5273
331
527E
331
527F
331
528A
331
528B
331
5296
331
5297
331
52B3
331
52B4
331
52BF
331
52C0
331
52CD
331
52CE
331
52E2
331
52E3
331
52F5
331
52F6
331
5330
331
5331
331
5341
331
5342
331
5350
331
5351
331
5360
331
5361
331
536F
331
5370
331
54B4
331
54B5
331
54C0
331
54C1
331
54CC
331
54CD
331
54D8
331
54D9
331
54E4
331
54E5
331
54F3
331
54F4
331
555B
331
555C
331
5567
331
5568
331
5575
331
5576
331
55EB
331
55EC
331
55FA
331
55FB
331
5607
331
5608
331
56DB
331
56DC
331
56E9
331
56EA
331
57E9
331
57EA
331
57F5
331
57F6
331
5801
331
5802
331
580D
331
580E
331
5819
331
581A
331
582D
331
582E
102
}
 70
     0
280
     1
281
     0
  0
BLOCK_RECORD
  5
12C3
330
1
100
AcDbSymbolTableRecord
100
AcDbBlockTableRecord
  2
*Paper_Space1
340
12C4
 70
     0
280
     1
281
     0
  0
BLOCK_RECORD
  5
1D88
330
1
100
AcDbSymbolTableRecord
100
AcDbBlockTableRecord
  2
名称未設定-1
340
0
102
{BLKREFS
331
36E3
102
}
 70
     1
280
     1
281
     0
  0
BLOCK_RECORD
  5
1D8B
330
1
100
AcDbSymbolTableRecord
100
AcDbBlockTableRecord
  2
block 2
340
0
102
{BLKREFS
331
1D8A
102
}
 70
     0
280
     1
281
     0
  0
BLOCK_RECORD
  5
1D8E
330
1
100
AcDbSymbolTableRecord
100
AcDbBlockTableRecord
  2
block 3
340
0
102
{BLKREFS
331
1D8D
102
}
 70
     0
280
     1
281
     0
  0
BLOCK_RECORD
  5
1D91
330
1
100
AcDbSymbolTableRecord
100
AcDbBlockTableRecord
  2
block 4
340
0
102
{BLKREFS
331
1D90
102
}
 70
     0
280
     1
281
     0
  0
BLOCK_RECORD
  5
1DA0
330
1
100
AcDbSymbolTableRecord
100
AcDbBlockTableRecord
  2
block 5
340
0
102
{BLKREFS
331
1D9F
102
}
 70
     0
280
     1
281
     0
  0
BLOCK_RECORD
  5
49D7
330
1
100
AcDbSymbolTableRecord
100
AcDbBlockTableRecord
  2
*D7
340
0
 70
     0
280
     1
281
     0
  0
BLOCK_RECORD
  5
49E6
330
1
100
AcDbSymbolTableRecord
100
AcDbBlockTableRecord
  2
*D8
340
0
 70
     0
280
     1
281
     0
  0
BLOCK_RECORD
  5
4A35
330
1
100
AcDbSymbolTableRecord
100
AcDbBlockTableRecord
  2
*D9
340
0
 70
     0
280
     1
281
     0
  0
BLOCK_RECORD
  5
4A61
330
1
100
AcDbSymbolTableRecord
100
AcDbBlockTableRecord
  2
*D10
340
0
 70
     0
280
     1
281
     0
  0
BLOCK_RECORD
  5
4A73
330
1
100
AcDbSymbolTableRecord
100
AcDbBlockTableRecord
  2
*D11
340
0
 70
     0
280
     1
281
     0
  0
BLOCK_RECORD
  5
4A83
330
1
100
AcDbSymbolTableRecord
100
AcDbBlockTableRecord
  2
*D12
340
0
 70
     0
280
     1
281
     0
  0
BLOCK_RECORD
  5
4C72
330
1
100
AcDbSymbolTableRecord
100
AcDbBlockTableRecord
  2
*D13
340
0
 70
     0
280
     1
281
     0
  0
BLOCK_RECORD
  5
4C7E
330
1
100
AcDbSymbolTableRecord
100
AcDbBlockTableRecord
  2
*D14
340
0
 70
     0
280
     1
281
     0
  0
BLOCK_RECORD
  5
4C8A
330
1
100
AcDbSymbolTableRecord
100
AcDbBlockTableRecord
  2
*D15
340
0
 70
     0
280
     1
281
     0
  0
BLOCK_RECORD
  5
4EE2
330
1
100
AcDbSymbolTableRecord
100
AcDbBlockTableRecord
  2
*D16
340
0
 70
     0
280
     1
281
     0
  0
BLOCK_RECORD
  5
4FBE
330
1
100
AcDbSymbolTableRecord
100
AcDbBlockTableRecord
  2
*D17
340
0
 70
     0
280
     1
281
     0
  0
BLOCK_RECORD
  5
4FFB
330
1
100
AcDbSymbolTableRecord
100
AcDbBlockTableRecord
  2
*D18
340
0
 70
     0
280
     1
281
     0
  0
BLOCK_RECORD
  5
500B
330
1
100
AcDbSymbolTableRecord
100
AcDbBlockTableRecord
  2
*D19
340
0
 70
     0
280
     1
281
     0
  0
BLOCK_RECORD
  5
501A
330
1
100
AcDbSymbolTableRecord
100
AcDbBlockTableRecord
  2
*D20
340
0
 70
     0
280
     1
281
     0
  0
BLOCK_RECORD
  5
502C
330
1
100
AcDbSymbolTableRecord
100
AcDbBlockTableRecord
  2
*D21
340
0
 70
     0
280
     1
281
     0
  0
BLOCK_RECORD
  5
504C
330
1
100
AcDbSymbolTableRecord
100
AcDbBlockTableRecord
  2
*D22
340
0
 70
     0
280
     1
281
     0
  0
BLOCK_RECORD
  5
5070
330
1
100
AcDbSymbolTableRecord
100
AcDbBlockTableRecord
  2
*D23
340
0
 70
     0
280
     1
281
     0
  0
BLOCK_RECORD
  5
507C
330
1
100
AcDbSymbolTableRecord
100
AcDbBlockTableRecord
  2
*D24
340
0
 70
     0
280
     1
281
     0
  0
BLOCK_RECORD
  5
5088
330
1
100
AcDbSymbolTableRecord
100
AcDbBlockTableRecord
  2
*D25
340
0
 70
     0
280
     1
281
     0
  0
BLOCK_RECORD
  5
50F1
330
1
100
AcDbSymbolTableRecord
100
AcDbBlockTableRecord
  2
*D26
340
0
 70
     0
280
     1
281
     0
  0
BLOCK_RECORD
  5
5169
330
1
100
AcDbSymbolTableRecord
100
AcDbBlockTableRecord
  2
LW_POLYLINE_1
340
0
 70
     0
280
     1
281
     0
  0
BLOCK_RECORD
  5
518E
330
1
100
AcDbSymbolTableRecord
100
AcDbBlockTableRecord
  2
LW_POLYLINE_2
340
0
 70
     0
280
     1
281
     0
  0
BLOCK_RECORD
  5
526C
330
1
100
AcDbSymbolTableRecord
100
AcDbBlockTableRecord
  2
*D29
340
0
 70
     0
280
     1
281
     0
  0
BLOCK_RECORD
  5
5278
330
1
100
AcDbSymbolTableRecord
100
AcDbBlockTableRecord
  2
*D30
340
0
 70
     0
280
     1
281
     0
  0
BLOCK_RECORD
  5
5284
330
1
100
AcDbSymbolTableRecord
100
AcDbBlockTableRecord
  2
*D31
340
0
 70
     0
280
     1
281
     0
  0
BLOCK_RECORD
  5
5290
330
1
100
AcDbSymbolTableRecord
100
AcDbBlockTableRecord
  2
*D32
340
0
 70
     0
280
     1
281
     0
  0
BLOCK_RECORD
  5
52AD
330
1
100
AcDbSymbolTableRecord
100
AcDbBlockTableRecord
  2
*D33
340
0
 70
     0
280
     1
281
     0
  0
BLOCK_RECORD
  5
52B9
330
1
100
AcDbSymbolTableRecord
100
AcDbBlockTableRecord
  2
*D34
340
0
 70
     0
280
     1
281
     0
  0
BLOCK_RECORD
  5
52C5
330
1
100
AcDbSymbolTableRecord
100
AcDbBlockTableRecord
  2
*D35
340
0
 70
     0
280
     1
281
     0
  0
BLOCK_RECORD
  5
52DC
330
1
100
AcDbSymbolTableRecord
100
AcDbBlockTableRecord
  2
*D36
340
0
 70
     0
280
     1
281
     0
  0
BLOCK_RECORD
  5
52EF
330
1
100
AcDbSymbolTableRecord
100
AcDbBlockTableRecord
  2
*D37
340
0
 70
     0
280
     1
281
     0
  0
BLOCK_RECORD
  5
532B
330
1
100
AcDbSymbolTableRecord
100
AcDbBlockTableRecord
  2
*D38
340
0
 70
     0
280
     1
281
     0
  0
BLOCK_RECORD
  5
533B
330
1
100
AcDbSymbolTableRecord
100
AcDbBlockTableRecord
  2
*D39
340
0
 70
     0
280
     1
281
     0
  0
BLOCK_RECORD
  5
534A
330
1
100
AcDbSymbolTableRecord
100
AcDbBlockTableRecord
  2
*D40
340
0
 70
     0
280
     1
281
     0
  0
BLOCK_RECORD
  5
535A
330
1
100
AcDbSymbolTableRecord
100
AcDbBlockTableRecord
  2
*D41
340
0
 70
     0
280
     1
281
     0
  0
BLOCK_RECORD
  5
5369
330
1
100
AcDbSymbolTableRecord
100
AcDbBlockTableRecord
  2
*D42
340
0
 70
     0
280
     1
281
     0
  0
BLOCK_RECORD
  5
5437
330
1
100
AcDbSymbolTableRecord
100
AcDbBlockTableRecord
  2
*X43
340
0
 70
     0
280
     1
281
     0
  0
BLOCK_RECORD
  5
54AE
330
1
100
AcDbSymbolTableRecord
100
AcDbBlockTableRecord
  2
*D44
340
0
 70
     0
280
     1
281
     0
  0
BLOCK_RECORD
  5
54BA
330
1
100
AcDbSymbolTableRecord
100
AcDbBlockTableRecord
  2
*D45
340
0
 70
     0
280
     1
281
     0
  0
BLOCK_RECORD
  5
54C6
330
1
100
AcDbSymbolTableRecord
100
AcDbBlockTableRecord
  2
*D46
340
0
 70
     0
280
     1
281
     0
  0
BLOCK_RECORD
  5
54D2
330
1
100
AcDbSymbolTableRecord
100
AcDbBlockTableRecord
  2
*D47
340
0
 70
     0
280
     1
281
     0
  0
BLOCK_RECORD
  5
54DE
330
1
100
AcDbSymbolTableRecord
100
AcDbBlockTableRecord
  2
*D48
340
0
 70
     0
280
     1
281
     0
  0
BLOCK_RECORD
  5
54ED
330
1
100
AcDbSymbolTableRecord
100
AcDbBlockTableRecord
  2
*D49
340
0
 70
     0
280
     1
281
     0
  0
BLOCK_RECORD
  5
5555
330
1
100
AcDbSymbolTableRecord
100
AcDbBlockTableRecord
  2
*D50
340
0
 70
     0
280
     1
281
     0
  0
BLOCK_RECORD
  5
5561
330
1
100
AcDbSymbolTableRecord
100
AcDbBlockTableRecord
  2
*D51
340
0
 70
     0
280
     1
281
     0
  0
BLOCK_RECORD
  5
556D
330
1
100
AcDbSymbolTableRecord
100
AcDbBlockTableRecord
  2
*D52
340
0
 70
     0
280
     1
281
     0
  0
BLOCK_RECORD
  5
55E6
330
1
100
AcDbSymbolTableRecord
100
AcDbBlockTableRecord
  2
*D53
340
0
 70
     0
280
     1
281
     0
  0
BLOCK_RECORD
  5
55F5
330
1
100
AcDbSymbolTableRecord
100
AcDbBlockTableRecord
  2
*D54
340
0
 70
     0
280
     1
281
     0
  0
BLOCK_RECORD
  5
5602
330
1
100
AcDbSymbolTableRecord
100
AcDbBlockTableRecord
  2
*D55
340
0
 70
     0
280
     1
281
     0
  0
BLOCK_RECORD
  5
56D6
330
1
100
AcDbSymbolTableRecord
100
AcDbBlockTableRecord
  2
*D56
340
0
 70
     0
280
     1
281
     0
  0
BLOCK_RECORD
  5
56E4
330
1
100
AcDbSymbolTableRecord
100
AcDbBlockTableRecord
  2
*D57
340
0
 70
     0
280
     1
281
     0
  0
BLOCK_RECORD
  5
57E3
330
1
100
AcDbSymbolTableRecord
100
AcDbBlockTableRecord
  2
*D58
340
0
 70
     0
280
     1
281
     0
  0
BLOCK_RECORD
  5
57EF
330
1
100
AcDbSymbolTableRecord
100
AcDbBlockTableRecord
  2
*D59
340
0
 70
     0
280
     1
281
     0
  0
BLOCK_RECORD
  5
57FB
330
1
100
AcDbSymbolTableRecord
100
AcDbBlockTableRecord
  2
*D60
340
0
 70
     0
280
     1
281
     0
  0
BLOCK_RECORD
  5
5807
330
1
100
AcDbSymbolTableRecord
100
AcDbBlockTableRecord
  2
*D61
340
0
 70
     0
280
     1
281
     0
  0
BLOCK_RECORD
  5
5813
330
1
100
AcDbSymbolTableRecord
100
AcDbBlockTableRecord
  2
*D62
340
0
 70
     0
280
     1
281
     0
  0
BLOCK_RECORD
  5
5827
330
1
100
AcDbSymbolTableRecord
100
AcDbBlockTableRecord
  2
*D63
340
0
 70
     0
280
     1
281
     0
  0
ENDTAB
  0
ENDSEC
  0
SECTION
  2
BLOCKS
  0
BLOCK
  5
D
330
A
100
AcDbEntity
  8
0
390
1D
100
AcDbBlockBegin
  2
*MODEL_SPACE
 70
     0
 10
0.0
 20
0.0
 30
0.0
  3
*MODEL_SPACE
  1
*MODEL_SPACE
  0
ENDBLK
  5
E
330
A
100
AcDbEntity
  8
0
390
1D
100
AcDbBlockEnd
  0
BLOCK
  5
F
330
B
100
AcDbEntity
 67
     1
  8
0
390
1D
100
AcDbBlockBegin
  2
*PAPER_SPACE
 70
     0
 10
0.0
 20
0.0
 30
0.0
  3
*PAPER_SPACE
  1
*PAPER_SPACE
  0
ENDBLK
  5
10
330
B
100
AcDbEntity
 67
     1
  8
0
390
1D
100
AcDbBlockEnd
  0
BLOCK
  5
1066
330
4E
100
AcDbEntity
  8
0
390
1D
100
AcDbBlockBegin
  2
_DOT
 70
     0
 10
0.0
 20
0.0
 30
0.0
  3
_DOT
  1
_DOT
  0
POLYLINE
  5
1068
330
4E
100
AcDbEntity
  8
0
  6
ByBlock
 62
     0
370
    -2
390
1D
100
AcDb2dPolyline
 66
     1
 10
0.0
 20
0.0
 30
0.0
 70
     1
 40
0.5
 41
0.5
  0
VERTEX
  5
1069
330
1068
100
AcDbEntity
  8
0
  6
ByBlock
 62
     0
370
    -2
390
1D
100
AcDbVertex
100
AcDb2dVertex
 10
-0.25
 20
0.0
 30
0.0
 42
1.0
  0
VERTEX
  5
106A
330
1068
100
AcDbEntity
  8
0
  6
ByBlock
 62
     0
370
    -2
390
1D
100
AcDbVertex
100
AcDb2dVertex
 10
0.25
 20
0.0
 30
0.0
 42
1.0
  0
SEQEND
  5
106B
330
1068
100
AcDbEntity
  8
0
390
1D
  0
LINE
  5
106C
330
4E
100
AcDbEntity
  8
0
  6
ByBlock
 62
     0
370
    -2
390
1D
100
AcDbLine
 10
-0.5
 20
0.0
 30
0.0
 11
-1.0
 21
0.0
 31
0.0
  0
ENDBLK
  5
106D
330
4E
100
AcDbEntity
  8
0
390
1D
100
AcDbBlockEnd
  0
BLOCK
  5
12C5
330
12C3
100
AcDbEntity
  8
0
100
AcDbBlockBegin
  2
*Paper_Space1
 70
     0
 10
0.0
 20
0.0
 30
0.0
  3
*Paper_Space1
  1
*Paper_Space83
  0
ENDBLK
  5
12C6
330
12C3
100
AcDbEntity
  8
0
100
AcDbBlockEnd
  0
BLOCK
  5
1D89
330
1D88
100
AcDbEntity
  8
0
100
AcDbBlockBegin
  2
名称未設定-1
 70
     0
 10
0.0
 20
0.0
 30
0.0
  3
名称未設定-1
  1
名称未設定-1
  0
INSERT
  5
1D8A
330
1D88
100
AcDbEntity
  8
TFORMLOGO
100
AcDbBlockReference
  2
block 2
 10
0.0
 20
0.0
 30
0.0
  0
ENDBLK
  5
1DAF
330
1D88
100
AcDbEntity
  8
0
100
AcDbBlockEnd
  0
BLOCK
  5
1D8C
330
1D8B
100
AcDbEntity
  8
0
100
AcDbBlockBegin
  2
block 2
 70
     0
 10
0.0
 20
0.0
 30
0.0
  3
block 2
  1
block 2
  0
INSERT
  5
1D8D
330
1D8B
100
AcDbEntity
  8
TFORMLOGO
100
AcDbBlockReference
  2
block 3
 10
0.0
 20
0.0
 30
0.0
  0
ENDBLK
  5
1DAE
330
1D8B
100
AcDbEntity
  8
0
100
AcDbBlockEnd
  0
BLOCK
  5
1D8F
330
1D8E
100
AcDbEntity
  8
0
100
AcDbBlockBegin
  2
block 3
 70
     0
 10
0.0
 20
0.0
 30
0.0
  3
block 3
  1
block 3
  0
INSERT
  5
1D90
330
1D8E
100
AcDbEntity
  8
TFORMLOGO
100
AcDbBlockReference
  2
block 4
 10
0.0
 20
0.0
 30
0.0
  0
ENDBLK
  5
1DAD
330
1D8E
100
AcDbEntity
  8
0
100
AcDbBlockEnd
  0
BLOCK
  5
1D92
330
1D91
100
AcDbEntity
  8
0
100
AcDbBlockBegin
  2
block 4
 70
     0
 10
0.0
 20
0.0
 30
0.0
  3
block 4
  1
block 4
  0
POLYLINE
  5
1D93
330
1D91
100
AcDbEntity
  8
TFORMLOGO
370
     0
100
AcDb2dPolyline
 66
     1
 10
0.0
 20
0.0
 30
0.0
  0
VERTEX
  5
1D94
330
1D93
100
AcDbEntity
  8
TFORMLOGO
370
     0
100
AcDbVertex
100
AcDb2dVertex
 10
83.79545727667795
 20
167.6444858234922
 30
0.0
  0
VERTEX
  5
1D95
330
1D93
100
AcDbEntity
  8
TFORMLOGO
370
     0
100
AcDbVertex
100
AcDb2dVertex
 10
83.79545727667795
 20
159.7968976406313
 30
0.0
  0
VERTEX
  5
1D96
330
1D93
100
AcDbEntity
  8
TFORMLOGO
370
     0
100
AcDbVertex
100
AcDb2dVertex
 10
71.3631329975216
 20
159.7968976406313
 30
0.0
  0
VERTEX
  5
1D97
330
1D93
100
AcDbEntity
  8
TFORMLOGO
370
     0
100
AcDbVertex
100
AcDb2dVertex
 10
71.3631329975216
 20
127.8027915271048
 30
0.0
  0
VERTEX
  5
1D98
330
1D93
100
AcDbEntity
  8
TFORMLOGO
370
     0
100
AcDbVertex
100
AcDb2dVertex
 10
60.43011526263018
 20
127.8027915271048
 30
0.0
  0
VERTEX
  5
1D99
330
1D93
100
AcDbEntity
  8
TFORMLOGO
370
     0
100
AcDbVertex
100
AcDb2dVertex
 10
60.43011526263018
 20
159.7968976406313
 30
0.0
  0
VERTEX
  5
1D9A
330
1D93
100
AcDbEntity
  8
TFORMLOGO
370
     0
100
AcDbVertex
100
AcDb2dVertex
 10
48.21793273020759
 20
159.7968976406313
 30
0.0
  0
VERTEX
  5
1D9B
330
1D93
100
AcDbEntity
  8
TFORMLOGO
370
     0
100
AcDbVertex
100
AcDb2dVertex
 10
48.21793273020759
 20
167.6444858234922
 30
0.0
  0
VERTEX
  5
1D9C
330
1D93
100
AcDbEntity
  8
TFORMLOGO
370
     0
100
AcDbVertex
100
AcDb2dVertex
 10
83.79545727667795
 20
167.6444858234922
 30
0.0
  0
SEQEND
  5
1D9D
330
1D93
100
AcDbEntity
  8
TFORMLOGO
370
     0
  0
HATCH
  5
1D9E
330
1D91
100
AcDbEntity
  8
TFORMLOGO
 62
   250
420
  2234388
100
AcDbHatch
 10
0.0
 20
0.0
 30
0.0
210
0.0
220
0.0
230
1.0
  2
SOLID
 70
     1
 71
     0
 91
        1
 92
        1
 93
        8
 72
     1
 10
83.79545727667795
 20
167.6444858234922
 11
83.79545727667795
 21
159.7968976406313
 72
     1
 10
83.79545727667795
 20
159.7968976406313
 11
71.3631329975216
 21
159.7968976406313
 72
     1
 10
71.3631329975216
 20
159.7968976406313
 11
71.3631329975216
 21
127.8027915271048
 72
     1
 10
71.3631329975216
 20
127.8027915271048
 11
60.43011526263018
 21
127.8027915271048
 72
     1
 10
60.43011526263018
 20
127.8027915271048
 11
60.43011526263018
 21
159.7968976406313
 72
     1
 10
60.43011526263018
 20
159.7968976406313
 11
48.21793273020759
 21
159.7968976406313
 72
     1
 10
48.21793273020759
 20
159.7968976406313
 11
48.21793273020759
 21
167.6444858234922
 72
     1
 10
48.21793273020759
 20
167.6444858234922
 11
83.79545727667795
 21
167.6444858234922
 97
        0
 75
     2
 76
     1
 98
        0
  0
INSERT
  5
1D9F
330
1D91
100
AcDbEntity
  8
TFORMLOGO
100
AcDbBlockReference
  2
block 5
 10
0.0
 20
0.0
 30
0.0
  0
ENDBLK
  5
1DAC
330
1D91
100
AcDbEntity
  8
0
100
AcDbBlockEnd
  0
BLOCK
  5
1DA1
330
1DA0
100
AcDbEntity
  8
0
100
AcDbBlockBegin
  2
block 5
 70
     0
 10
0.0
 20
0.0
 30
0.0
  3
block 5
  1
block 5
  0
SPLINE
  5
1DA2
330
1DA0
100
AcDbEntity
  8
TFORMLOGO
370
     0
100
AcDbSpline
210
0.0
220
0.0
230
1.0
 70
    11
 71
     3
 72
    56
 73
    52
 74
     0
 42
0.000000001
 43
0.0000000001
 40
0.0
 40
0.0
 40
0.0
 40
0.0
 40
1.0
 40
1.0
 40
1.0
 40
2.0
 40
2.0
 40
2.0
 40
3.0
 40
3.0
 40
3.0
 40
4.0
 40
4.0
 40
4.0
 40
5.0
 40
5.0
 40
5.0
 40
6.0
 40
6.0
 40
6.0
 40
7.0
 40
7.0
 40
7.0
 40
8.0
 40
8.0
 40
8.0
 40
9.0
 40
9.0
 40
9.0
 40
10.0
 40
10.0
 40
10.0
 40
11.0
 40
11.0
 40
11.0
 40
12.0
 40
12.0
 40
12.0
 40
13.0
 40
13.0
 40
13.0
 40
14.0
 40
14.0
 40
14.0
 40
15.0
 40
15.0
 40
15.0
 40
16.0
 40
16.0
 40
16.0
 40
17.0
 40
17.0
 40
17.0
 40
17.0
 10
100.4504378777679
 20
166.69157178364
 30
0.0
 10
101.9848844191641
 20
167.1313385124438
 30
0.0
 10
103.9637485713373
 20
166.7649523658846
 30
0.0
 10
103.9637485713373
 20
166.7649523658846
 30
0.0
 10
103.9637485713373
 20
166.7649523658846
 30
0.0
 10
103.0132460999156
 20
163.911205638077
 30
0.0
 10
103.0132460999156
 20
163.911205638077
 30
0.0
 10
103.0132460999156
 20
163.911205638077
 30
0.0
 10
101.0674548862189
 20
164.3601018759394
 30
0.0
 10
99.57090442016032
 20
163.1805004036133
 30
0.0
 10
98.40508333886608
 20
162.258247733807
 30
0.0
 10
97.65301849830304
 20
159.804132345923
 30
0.0
 10
97.3598406791005
 20
158.8699940888517
 30
0.0
 10
97.3598406791005
 20
158.8699940888517
 30
0.0
 10
96.07137411762282
 20
154.9119212747295
 30
0.0
 10
96.07137411762282
 20
154.9119212747295
 30
0.0
 10
96.07137411762282
 20
154.9119212747295
 30
0.0
 10
100.3012651448482
 20
154.9119212747295
 30
0.0
 10
100.3012651448482
 20
154.9119212747295
 30
0.0
 10
100.3012651448482
 20
154.9119212747295
 30
0.0
 10
99.64152892419852
 20
152.4199098115079
 30
0.0
 10
99.64152892419852
 20
152.4199098115079
 30
0.0
 10
99.64152892419852
 20
152.4199098115079
 30
0.0
 10
95.38097652692731
 20
152.4199098115079
 30
0.0
 10
95.38097652692731
 20
152.4199098115079
 30
0.0
 10
95.38097652692731
 20
152.4199098115079
 30
0.0
 10
87.75353009080013
 20
127.8027915271048
 30
0.0
 10
87.75353009080013
 20
127.8027915271048
 30
0.0
 10
87.75353009080013
 20
127.8027915271048
 30
0.0
 10
85.36538832498108
 20
127.8027915271048
 30
0.0
 10
85.36538832498108
 20
127.8027915271048
 30
0.0
 10
85.36538832498108
 20
127.8027915271048
 30
0.0
 10
93.00006946639998
 20
152.4199098115079
 30
0.0
 10
93.00006946639998
 20
152.4199098115079
 30
0.0
 10
93.00006946639998
 20
152.4199098115079
 30
0.0
 10
89.85297266450198
 20
152.4199098115079
 30
0.0
 10
89.85297266450198
 20
152.4199098115079
 30
0.0
 10
89.85297266450198
 20
152.4199098115079
 30
0.0
 10
90.51270888515164
 20
154.9119212747295
 30
0.0
 10
90.51270888515164
 20
154.9119212747295
 30
0.0
 10
90.51270888515164
 20
154.9119212747295
 30
0.0
 10
93.6904670570955
 20
154.9119212747295
 30
0.0
 10
93.6904670570955
 20
154.9119212747295
 30
0.0
 10
93.6904670570955
 20
154.9119212747295
 30
0.0
 10
94.81598049462158
 20
158.3616699146644
 30
0.0
 10
94.81598049462158
 20
158.3616699146644
 30
0.0
 10
95.7237637538445
 20
161.2605474231013
 30
0.0
 10
96.4968436907311
 20
162.8139420021662
 30
0.0
 10
97.15657991138076
 20
163.9844139654337
 30
0.0
 10
97.81183750494507
 20
165.1523021053827
 30
0.0
 10
99.1047826935081
 20
166.3084769129547
 30
0.0
 10
100.4504378777679
 20
166.69157178364
 30
0.0
  0
HATCH
  5
1DA3
330
1DA0
100
AcDbEntity
  8
TFORMLOGO
 62
   250
420
  2234388
100
AcDbHatch
 10
0.0
 20
0.0
 30
0.0
210
0.0
220
0.0
230
1.0
  2
SOLID
 70
     1
 71
     0
 91
        1
 92
        1
 93
        1
 72
     4
 94
        3
 73
     0
 74
     1
 95
       56
 96
       52
 40
0.0
 40
0.0
 40
0.0
 40
0.0
 40
1.0
 40
1.0
 40
1.0
 40
2.0
 40
2.0
 40
2.0
 40
3.0
 40
3.0
 40
3.0
 40
4.0
 40
4.0
 40
4.0
 40
5.0
 40
5.0
 40
5.0
 40
6.0
 40
6.0
 40
6.0
 40
7.0
 40
7.0
 40
7.0
 40
8.0
 40
8.0
 40
8.0
 40
9.0
 40
9.0
 40
9.0
 40
10.0
 40
10.0
 40
10.0
 40
11.0
 40
11.0
 40
11.0
 40
12.0
 40
12.0
 40
12.0
 40
13.0
 40
13.0
 40
13.0
 40
14.0
 40
14.0
 40
14.0
 40
15.0
 40
15.0
 40
15.0
 40
16.0
 40
16.0
 40
16.0
 40
17.0
 40
17.0
 40
17.0
 40
17.0
 10
100.4504378777679
 20
166.69157178364
 10
101.9848844191641
 20
167.1313385124438
 10
103.9637485713373
 20
166.7649523658846
 10
103.9637485713373
 20
166.7649523658846
 10
103.9637485713373
 20
166.7649523658846
 10
103.0132460999156
 20
163.911205638077
 10
103.0132460999156
 20
163.911205638077
 10
103.0132460999156
 20
163.911205638077
 10
101.0674548862189
 20
164.3601018759394
 10
99.57090442016032
 20
163.1805004036133
 10
98.40508333886608
 20
162.258247733807
 10
97.65301849830304
 20
159.804132345923
 10
97.3598406791005
 20
158.8699940888517
 10
97.3598406791005
 20
158.8699940888517
 10
96.07137411762282
 20
154.9119212747295
 10
96.07137411762282
 20
154.9119212747295
 10
96.07137411762282
 20
154.9119212747295
 10
100.3012651448482
 20
154.9119212747295
 10
100.3012651448482
 20
154.9119212747295
 10
100.3012651448482
 20
154.9119212747295
 10
99.64152892419852
 20
152.4199098115079
 10
99.64152892419852
 20
152.4199098115079
 10
99.64152892419852
 20
152.4199098115079
 10
95.38097652692731
 20
152.4199098115079
 10
95.38097652692731
 20
152.4199098115079
 10
95.38097652692731
 20
152.4199098115079
 10
87.75353009080013
 20
127.8027915271048
 10
87.75353009080013
 20
127.8027915271048
 10
87.75353009080013
 20
127.8027915271048
 10
85.36538832498108
 20
127.8027915271048
 10
85.36538832498108
 20
127.8027915271048
 10
85.36538832498108
 20
127.8027915271048
 10
93.00006946639998
 20
152.4199098115079
 10
93.00006946639998
 20
152.4199098115079
 10
93.00006946639998
 20
152.4199098115079
 10
89.85297266450198
 20
152.4199098115079
 10
89.85297266450198
 20
152.4199098115079
 10
89.85297266450198
 20
152.4199098115079
 10
90.51270888515164
 20
154.9119212747295
 10
90.51270888515164
 20
154.9119212747295
 10
90.51270888515164
 20
154.9119212747295
 10
93.6904670570955
 20
154.9119212747295
 10
93.6904670570955
 20
154.9119212747295
 10
93.6904670570955
 20
154.9119212747295
 10
94.81598049462158
 20
158.3616699146644
 10
94.81598049462158
 20
158.3616699146644
 10
95.7237637538445
 20
161.2605474231013
 10
96.4968436907311
 20
162.8139420021662
 10
97.15657991138076
 20
163.9844139654337
 10
97.81183750494507
 20
165.1523021053827
 10
99.1047826935081
 20
166.3084769129547
 10
100.4504378777679
 20
166.69157178364
 97
        0
 75
     2
 76
     1
 98
        0
  0
SPLINE
  5
1DA4
330
1DA0
100
AcDbEntity
  8
TFORMLOGO
370
     0
100
AcDbSpline
210
0.0
220
0.0
230
1.0
 70
    11
 71
     3
 72
    38
 73
    34
 74
     0
 42
0.000000001
 43
0.0000000001
 40
0.0
 40
0.0
 40
0.0
 40
0.0
 40
1.0
 40
1.0
 40
1.0
 40
2.0
 40
2.0
 40
2.0
 40
3.0
 40
3.0
 40
3.0
 40
4.0
 40
4.0
 40
4.0
 40
5.0
 40
5.0
 40
5.0
 40
6.0
 40
6.0
 40
6.0
 40
7.0
 40
7.0
 40
7.0
 40
8.0
 40
8.0
 40
8.0
 40
9.0
 40
9.0
 40
9.0
 40
10.0
 40
10.0
 40
10.0
 40
11.0
 40
11.0
 40
11.0
 40
11.0
 10
126.377554584636
 20
154.8151140277308
 30
0.0
 10
126.377554584636
 20
154.8151140277308
 30
0.0
 10
128.8311532078563
 20
154.8151140277308
 30
0.0
 10
128.8311532078563
 20
154.8151140277308
 30
0.0
 10
128.8311532078563
 20
154.8151140277308
 30
0.0
 10
127.7345785914971
 20
151.3062819612468
 30
0.0
 10
127.7345785914971
 20
151.3062819612468
 30
0.0
 10
128.571392836906
 20
152.2922689395754
 30
0.0
 10
129.8860421413442
 20
153.604506675583
 30
0.0
 10
131.0163787157314
 20
154.2664822097754
 30
0.0
 10
132.7044766171327
 20
155.2500576196734
 30
0.0
 10
133.6642808525008
 20
155.3847609420097
 30
0.0
 10
134.7284715499351
 20
155.3565111403944
 30
0.0
 10
134.7284715499351
 20
155.3565111403944
 30
0.0
 10
133.6877075172549
 20
152.0345756272799
 30
0.0
 10
133.6877075172549
 20
152.0345756272799
 30
0.0
 10
133.011434827367
 20
152.3184516825359
 30
0.0
 10
130.930940291334
 20
151.7768823149844
 30
0.0
 10
129.739280976855
 20
150.9162968950455
 30
0.0
 10
128.66613302525
 20
150.1454562717016
 30
0.0
 10
127.9192358313239
 20
149.4857200510519
 30
0.0
 10
127.0393578639405
 20
147.8282835196966
 30
0.0
 10
126.164647543194
 20
146.1699857139017
 30
0.0
 10
125.4742499524985
 20
143.5262176944419
 30
0.0
 10
124.2822461282437
 20
139.6959580071401
 30
0.0
 10
124.2822461282437
 20
139.6959580071401
 30
0.0
 10
120.5753209406769
 20
127.8027915271048
 30
0.0
 10
120.5753209406769
 20
127.8027915271048
 30
0.0
 10
120.5753209406769
 20
127.8027915271048
 30
0.0
 10
118.1964809388044
 20
127.8027915271048
 30
0.0
 10
118.1964809388044
 20
127.8027915271048
 30
0.0
 10
118.1964809388044
 20
127.8027915271048
 30
0.0
 10
126.377554584636
 20
154.8151140277308
 30
0.0
 10
126.377554584636
 20
154.8151140277308
 30
0.0
  0
HATCH
  5
1DA5
330
1DA0
100
AcDbEntity
  8
TFORMLOGO
 62
   250
420
  2234388
100
AcDbHatch
 10
0.0
 20
0.0
 30
0.0
210
0.0
220
0.0
230
1.0
  2
SOLID
 70
     1
 71
     0
 91
        1
 92
        1
 93
        1
 72
     4
 94
        3
 73
     0
 74
     1
 95
       38
 96
       34
 40
0.0
 40
0.0
 40
0.0
 40
0.0
 40
1.0
 40
1.0
 40
1.0
 40
2.0
 40
2.0
 40
2.0
 40
3.0
 40
3.0
 40
3.0
 40
4.0
 40
4.0
 40
4.0
 40
5.0
 40
5.0
 40
5.0
 40
6.0
 40
6.0
 40
6.0
 40
7.0
 40
7.0
 40
7.0
 40
8.0
 40
8.0
 40
8.0
 40
9.0
 40
9.0
 40
9.0
 40
10.0
 40
10.0
 40
10.0
 40
11.0
 40
11.0
 40
11.0
 40
11.0
 10
126.377554584636
 20
154.8151140277308
 10
126.377554584636
 20
154.8151140277308
 10
128.8311532078563
 20
154.8151140277308
 10
128.8311532078563
 20
154.8151140277308
 10
128.8311532078563
 20
154.8151140277308
 10
127.7345785914971
 20
151.3062819612468
 10
127.7345785914971
 20
151.3062819612468
 10
128.571392836906
 20
152.2922689395754
 10
129.8860421413442
 20
153.604506675583
 10
131.0163787157314
 20
154.2664822097754
 10
132.7044766171327
 20
155.2500576196734
 10
133.6642808525008
 20
155.3847609420097
 10
134.7284715499351
 20
155.3565111403944
 10
134.7284715499351
 20
155.3565111403944
 10
133.6877075172549
 20
152.0345756272799
 10
133.6877075172549
 20
152.0345756272799
 10
133.011434827367
 20
152.3184516825359
 10
130.930940291334
 20
151.7768823149844
 10
129.739280976855
 20
150.9162968950455
 10
128.66613302525
 20
150.1454562717016
 10
127.9192358313239
 20
149.4857200510519
 10
127.0393578639405
 20
147.8282835196966
 10
126.164647543194
 20
146.1699857139017
 10
125.4742499524985
 20
143.5262176944419
 10
124.2822461282437
 20
139.6959580071401
 10
124.2822461282437
 20
139.6959580071401
 10
120.5753209406769
 20
127.8027915271048
 10
120.5753209406769
 20
127.8027915271048
 10
120.5753209406769
 20
127.8027915271048
 10
118.1964809388044
 20
127.8027915271048
 10
118.1964809388044
 20
127.8027915271048
 10
118.1964809388044
 20
127.8027915271048
 10
126.377554584636
 20
154.8151140277308
 10
126.377554584636
 20
154.8151140277308
 97
        0
 75
     2
 76
     1
 98
        0
  0
SPLINE
  5
1DA6
330
1DA0
100
AcDbEntity
  8
TFORMLOGO
370
     0
100
AcDbSpline
210
0.0
220
0.0
230
1.0
 70
    11
 71
     3
 72
   104
 73
   100
 74
     0
 42
0.000000001
 43
0.0000000001
 40
0.0
 40
0.0
 40
0.0
 40
0.0
 40
1.0
 40
1.0
 40
1.0
 40
2.0
 40
2.0
 40
2.0
 40
3.0
 40
3.0
 40
3.0
 40
4.0
 40
4.0
 40
4.0
 40
5.0
 40
5.0
 40
5.0
 40
6.0
 40
6.0
 40
6.0
 40
7.0
 40
7.0
 40
7.0
 40
8.0
 40
8.0
 40
8.0
 40
9.0
 40
9.0
 40
9.0
 40
10.0
 40
10.0
 40
10.0
 40
11.0
 40
11.0
 40
11.0
 40
12.0
 40
12.0
 40
12.0
 40
13.0
 40
13.0
 40
13.0
 40
14.0
 40
14.0
 40
14.0
 40
15.0
 40
15.0
 40
15.0
 40
16.0
 40
16.0
 40
16.0
 40
17.0
 40
17.0
 40
17.0
 40
18.0
 40
18.0
 40
18.0
 40
19.0
 40
19.0
 40
19.0
 40
20.0
 40
20.0
 40
20.0
 40
21.0
 40
21.0
 40
21.0
 40
22.0
 40
22.0
 40
22.0
 40
23.0
 40
23.0
 40
23.0
 40
24.0
 40
24.0
 40
24.0
 40
25.0
 40
25.0
 40
25.0
 40
26.0
 40
26.0
 40
26.0
 40
27.0
 40
27.0
 40
27.0
 40
28.0
 40
28.0
 40
28.0
 40
29.0
 40
29.0
 40
29.0
 40
30.0
 40
30.0
 40
30.0
 40
31.0
 40
31.0
 40
31.0
 40
32.0
 40
32.0
 40
32.0
 40
33.0
 40
33.0
 40
33.0
 40
33.0
 10
139.8926730891197
 20
154.8294111834263
 30
0.0
 10
139.8926730891197
 20
154.8294111834263
 30
0.0
 10
142.0344903652445
 20
154.8294111834263
 30
0.0
 10
142.0344903652445
 20
154.8294111834263
 30
0.0
 10
142.0344903652445
 20
154.8294111834263
 30
0.0
 10
140.9516961399171
 20
151.3157559800812
 30
0.0
 10
140.9516961399171
 20
151.3157559800812
 30
0.0
 10
141.8928968473923
 20
152.7887075264977
 30
0.0
 10
142.7341897198865
 20
153.4484437471474
 30
0.0
 10
143.8552245303272
 20
154.2926649527359
 30
0.0
 10
144.9803934580775
 20
155.1296514530327
 30
0.0
 10
146.3139908001845
 20
155.3044901642492
 30
0.0
 10
147.241066606852
 20
155.3044901642492
 30
0.0
 10
148.3855280820469
 20
155.3044901642492
 30
0.0
 10
149.4969166187653
 20
155.0752189084569
 30
0.0
 10
150.0784491203092
 20
153.8172414621372
 30
0.0
 10
150.5228667310863
 20
152.833838307127
 30
0.0
 10
150.5414702589793
 20
152.7201500811143
 30
0.0
 10
150.4140016419347
 20
150.7765981809602
 30
0.0
 10
151.5818897818837
 20
152.7699317437168
 30
0.0
 10
152.4424752018226
 20
153.6256940267945
 30
0.0
 10
153.9038856707499
 20
154.4507949398263
 30
0.0
 10
155.4455669174378
 20
155.3044901642492
 30
0.0
 10
156.339225275853
 20
155.3659851592288
 30
0.0
 10
157.3748216618963
 20
155.2147453676543
 30
0.0
 10
158.911679771723
 20
154.9877134254046
 30
0.0
 10
159.8859534176746
 20
154.4390816074493
 30
0.0
 10
160.3965169054045
 20
152.7816450760939
 30
0.0
 10
160.9070803931344
 20
151.1219692311958
 30
0.0
 10
160.6328506116007
 20
150.2303779314354
 30
0.0
 10
159.9992971339115
 20
147.597634224801
 30
0.0
 10
159.7105979417943
 20
146.4014962832367
 30
0.0
 10
159.2947746424084
 20
144.9400858143094
 30
0.0
 10
158.7463150793409
 20
143.2092687007094
 30
0.0
 10
158.7463150793409
 20
143.2092687007094
 30
0.0
 10
153.9038856707499
 20
127.8027915271048
 30
0.0
 10
153.9038856707499
 20
127.8027915271048
 30
0.0
 10
153.9038856707499
 20
127.8027915271048
 30
0.0
 10
151.3882752878863
 20
127.8027915271048
 30
0.0
 10
151.3882752878863
 20
127.8027915271048
 30
0.0
 10
151.3882752878863
 20
127.8027915271048
 30
0.0
 10
155.6250565106276
 20
141.2751908193897
 30
0.0
 10
155.6250565106276
 20
141.2751908193897
 30
0.0
 10
156.5094131050963
 20
144.0936252951782
 30
0.0
 10
157.109893644309
 20
146.1506931664571
 30
0.0
 10
157.4220195011804
 20
147.4415712963654
 30
0.0
 10
157.8095929989511
 20
149.0530157726519
 30
0.0
 10
157.9656559273867
 20
149.5826995529385
 30
0.0
 10
157.7816877071116
 20
150.7529992613181
 30
0.0
 10
157.6111553680925
 20
151.8430281919372
 30
0.0
 10
157.0582171779396
 20
152.5547853887321
 30
0.0
 10
156.1170164704645
 20
152.5547853887321
 30
0.0
 10
155.1096698860365
 20
152.5547853887321
 30
0.0
 10
154.2962823053817
 20
152.4412694176073
 30
0.0
 10
153.156643967048
 20
151.2945686288697
 30
0.0
 10
152.0170056287143
 20
150.1476955852443
 30
0.0
 10
151.076149431015
 20
148.7930831468137
 30
0.0
 10
150.3337308641742
 20
147.2290087646991
 30
0.0
 10
149.5957909244188
 20
145.6683794803425
 30
0.0
 10
148.8530278478023
 20
143.6822806228776
 30
0.0
 10
148.0964843801539
 20
141.2751908193897
 30
0.0
 10
148.0964843801539
 20
141.2751908193897
 30
0.0
 10
143.8552245303272
 20
127.8027915271048
 30
0.0
 10
143.8552245303272
 20
127.8027915271048
 30
0.0
 10
143.8552245303272
 20
127.8027915271048
 30
0.0
 10
141.486030802177
 20
127.8027915271048
 30
0.0
 10
141.486030802177
 20
127.8027915271048
 30
0.0
 10
141.486030802177
 20
127.8027915271048
 30
0.0
 10
146.3329388378533
 20
143.2092687007094
 30
0.0
 10
146.3329388378533
 20
143.2092687007094
 30
0.0
 10
146.8483254624444
 20
144.8408669988801
 30
0.0
 10
147.2314203331297
 20
146.1837661049335
 30
0.0
 10
147.4867020769946
 20
147.224185627838
 30
0.0
 10
147.9169947869641
 20
149.0197705792876
 30
0.0
 10
148.0306830129768
 20
150.2400242051577
 30
0.0
 10
147.709255392159
 20
151.3157559800812
 30
0.0
 10
147.3874832615654
 20
152.3916600098926
 30
0.0
 10
146.8245542879144
 20
152.6683013598569
 30
0.0
 10
145.8840425999909
 20
152.6683013598569
 30
0.0
 10
145.0989048209514
 20
152.6683013598569
 30
0.0
 10
144.3282364524954
 20
152.3275811915945
 30
0.0
 10
143.4531816219731
 20
151.6538923250251
 30
0.0
 10
142.34627171234
 20
150.8074318058939
 30
0.0
 10
141.901854101563
 20
150.1097995099067
 30
0.0
 10
141.3578731655808
 20
149.289521733736
 30
0.0
 10
140.6299240093235
 20
148.192602607601
 30
0.0
 10
140.2850697237515
 20
147.455696197173
 30
0.0
 10
139.6652966370942
 20
145.8385673095858
 30
0.0
 10
139.0506911970739
 20
144.2214384219986
 30
0.0
 10
138.463991048893
 20
142.3252566160164
 30
0.0
 10
138.0571250036777
 20
141.0154304484394
 30
0.0
 10
138.0571250036777
 20
141.0154304484394
 30
0.0
 10
133.9009590684727
 20
127.8027915271048
 30
0.0
 10
133.9009590684727
 20
127.8027915271048
 30
0.0
 10
133.9009590684727
 20
127.8027915271048
 30
0.0
 10
131.4180771143097
 20
127.8027915271048
 30
0.0
 10
131.4180771143097
 20
127.8027915271048
 30
0.0
 10
131.4180771143097
 20
127.8027915271048
 30
0.0
 10
139.8926730891197
 20
154.8294111834263
 30
0.0
 10
139.8926730891197
 20
154.8294111834263
 30
0.0
  0
HATCH
  5
1DA7
330
1DA0
100
AcDbEntity
  8
TFORMLOGO
 62
   250
420
  2234388
100
AcDbHatch
 10
0.0
 20
0.0
 30
0.0
210
0.0
220
0.0
230
1.0
  2
SOLID
 70
     1
 71
     0
 91
        1
 92
        1
 93
        1
 72
     4
 94
        3
 73
     0
 74
     1
 95
      104
 96
      100
 40
0.0
 40
0.0
 40
0.0
 40
0.0
 40
1.0
 40
1.0
 40
1.0
 40
2.0
 40
2.0
 40
2.0
 40
3.0
 40
3.0
 40
3.0
 40
4.0
 40
4.0
 40
4.0
 40
5.0
 40
5.0
 40
5.0
 40
6.0
 40
6.0
 40
6.0
 40
7.0
 40
7.0
 40
7.0
 40
8.0
 40
8.0
 40
8.0
 40
9.0
 40
9.0
 40
9.0
 40
10.0
 40
10.0
 40
10.0
 40
11.0
 40
11.0
 40
11.0
 40
12.0
 40
12.0
 40
12.0
 40
13.0
 40
13.0
 40
13.0
 40
14.0
 40
14.0
 40
14.0
 40
15.0
 40
15.0
 40
15.0
 40
16.0
 40
16.0
 40
16.0
 40
17.0
 40
17.0
 40
17.0
 40
18.0
 40
18.0
 40
18.0
 40
19.0
 40
19.0
 40
19.0
 40
20.0
 40
20.0
 40
20.0
 40
21.0
 40
21.0
 40
21.0
 40
22.0
 40
22.0
 40
22.0
 40
23.0
 40
23.0
 40
23.0
 40
24.0
 40
24.0
 40
24.0
 40
25.0
 40
25.0
 40
25.0
 40
26.0
 40
26.0
 40
26.0
 40
27.0
 40
27.0
 40
27.0
 40
28.0
 40
28.0
 40
28.0
 40
29.0
 40
29.0
 40
29.0
 40
30.0
 40
30.0
 40
30.0
 40
31.0
 40
31.0
 40
31.0
 40
32.0
 40
32.0
 40
32.0
 40
33.0
 40
33.0
 40
33.0
 40
33.0
 10
139.8926730891197
 20
154.8294111834263
 10
139.8926730891197
 20
154.8294111834263
 10
142.0344903652445
 20
154.8294111834263
 10
142.0344903652445
 20
154.8294111834263
 10
142.0344903652445
 20
154.8294111834263
 10
140.9516961399171
 20
151.3157559800812
 10
140.9516961399171
 20
151.3157559800812
 10
141.8928968473923
 20
152.7887075264977
 10
142.7341897198865
 20
153.4484437471474
 10
143.8552245303272
 20
154.2926649527359
 10
144.9803934580775
 20
155.1296514530327
 10
146.3139908001845
 20
155.3044901642492
 10
147.241066606852
 20
155.3044901642492
 10
148.3855280820469
 20
155.3044901642492
 10
149.4969166187653
 20
155.0752189084569
 10
150.0784491203092
 20
153.8172414621372
 10
150.5228667310863
 20
152.833838307127
 10
150.5414702589793
 20
152.7201500811143
 10
150.4140016419347
 20
150.7765981809602
 10
151.5818897818837
 20
152.7699317437168
 10
152.4424752018226
 20
153.6256940267945
 10
153.9038856707499
 20
154.4507949398263
 10
155.4455669174378
 20
155.3044901642492
 10
156.339225275853
 20
155.3659851592288
 10
157.3748216618963
 20
155.2147453676543
 10
158.911679771723
 20
154.9877134254046
 10
159.8859534176746
 20
154.4390816074493
 10
160.3965169054045
 20
152.7816450760939
 10
160.9070803931344
 20
151.1219692311958
 10
160.6328506116007
 20
150.2303779314354
 10
159.9992971339115
 20
147.597634224801
 10
159.7105979417943
 20
146.4014962832367
 10
159.2947746424084
 20
144.9400858143094
 10
158.7463150793409
 20
143.2092687007094
 10
158.7463150793409
 20
143.2092687007094
 10
153.9038856707499
 20
127.8027915271048
 10
153.9038856707499
 20
127.8027915271048
 10
153.9038856707499
 20
127.8027915271048
 10
151.3882752878863
 20
127.8027915271048
 10
151.3882752878863
 20
127.8027915271048
 10
151.3882752878863
 20
127.8027915271048
 10
155.6250565106276
 20
141.2751908193897
 10
155.6250565106276
 20
141.2751908193897
 10
156.5094131050963
 20
144.0936252951782
 10
157.109893644309
 20
146.1506931664571
 10
157.4220195011804
 20
147.4415712963654
 10
157.8095929989511
 20
149.0530157726519
 10
157.9656559273867
 20
149.5826995529385
 10
157.7816877071116
 20
150.7529992613181
 10
157.6111553680925
 20
151.8430281919372
 10
157.0582171779396
 20
152.5547853887321
 10
156.1170164704645
 20
152.5547853887321
 10
155.1096698860365
 20
152.5547853887321
 10
154.2962823053817
 20
152.4412694176073
 10
153.156643967048
 20
151.2945686288697
 10
152.0170056287143
 20
150.1476955852443
 10
151.076149431015
 20
148.7930831468137
 10
150.3337308641742
 20
147.2290087646991
 10
149.5957909244188
 20
145.6683794803425
 10
148.8530278478023
 20
143.6822806228776
 10
148.0964843801539
 20
141.2751908193897
 10
148.0964843801539
 20
141.2751908193897
 10
143.8552245303272
 20
127.8027915271048
 10
143.8552245303272
 20
127.8027915271048
 10
143.8552245303272
 20
127.8027915271048
 10
141.486030802177
 20
127.8027915271048
 10
141.486030802177
 20
127.8027915271048
 10
141.486030802177
 20
127.8027915271048
 10
146.3329388378533
 20
143.2092687007094
 10
146.3329388378533
 20
143.2092687007094
 10
146.8483254624444
 20
144.8408669988801
 10
147.2314203331297
 20
146.1837661049335
 10
147.4867020769946
 20
147.224185627838
 10
147.9169947869641
 20
149.0197705792876
 10
148.0306830129768
 20
150.2400242051577
 10
147.709255392159
 20
151.3157559800812
 10
147.3874832615654
 20
152.3916600098926
 10
146.8245542879144
 20
152.6683013598569
 10
145.8840425999909
 20
152.6683013598569
 10
145.0989048209514
 20
152.6683013598569
 10
144.3282364524954
 20
152.3275811915945
 10
143.4531816219731
 20
151.6538923250251
 10
142.34627171234
 20
150.8074318058939
 10
141.901854101563
 20
150.1097995099067
 10
141.3578731655808
 20
149.289521733736
 10
140.6299240093235
 20
148.192602607601
 10
140.2850697237515
 20
147.455696197173
 10
139.6652966370942
 20
145.8385673095858
 10
139.0506911970739
 20
144.2214384219986
 10
138.463991048893
 20
142.3252566160164
 10
138.0571250036777
 20
141.0154304484394
 10
138.0571250036777
 20
141.0154304484394
 10
133.9009590684727
 20
127.8027915271048
 10
133.9009590684727
 20
127.8027915271048
 10
133.9009590684727
 20
127.8027915271048
 10
131.4180771143097
 20
127.8027915271048
 10
131.4180771143097
 20
127.8027915271048
 10
131.4180771143097
 20
127.8027915271048
 10
139.8926730891197
 20
154.8294111834263
 10
139.8926730891197
 20
154.8294111834263
 97
        0
 75
     2
 76
     1
 98
        0
  0
SPLINE
  5
1DA8
330
1DA0
100
AcDbEntity
  8
TFORMLOGO
370
     0
100
AcDbSpline
210
0.0
220
0.0
230
1.0
 70
    11
 71
     3
 72
    29
 73
    25
 74
     0
 42
0.000000001
 43
0.0000000001
 40
0.0
 40
0.0
 40
0.0
 40
0.0
 40
1.0
 40
1.0
 40
1.0
 40
2.0
 40
2.0
 40
2.0
 40
3.0
 40
3.0
 40
3.0
 40
4.0
 40
4.0
 40
4.0
 40
5.0
 40
5.0
 40
5.0
 40
6.0
 40
6.0
 40
6.0
 40
7.0
 40
7.0
 40
7.0
 40
8.0
 40
8.0
 40
8.0
 40
8.0
 10
101.6420971922469
 20
132.8388354296931
 30
0.0
 10
101.630039350094
 20
134.7164137077823
 30
0.0
 10
102.2236296937908
 20
138.0598810818841
 30
0.0
 10
103.7487744712405
 20
142.5378191476827
 30
0.0
 10
105.819967243327
 20
148.5896501242061
 30
0.0
 10
107.0602024361932
 20
150.8074318058939
 30
0.0
 10
108.1522984254671
 20
151.8833358357054
 30
0.0
 10
109.741177511439
 20
153.4532668840085
 30
0.0
 10
111.8740375333931
 20
153.5290590346837
 30
0.0
 10
112.5075910110823
 20
153.4532668840085
 30
0.0
 10
113.4012493694975
 20
153.3490526768302
 30
0.0
 10
114.6683563248758
 20
152.7580461564518
 30
0.0
 10
114.7493161221879
 20
150.7838328862519
 30
0.0
 10
114.8106388622796
 20
149.0909118479895
 30
0.0
 10
114.3186789024427
 20
145.9191825971221
 30
0.0
 10
112.6164561002338
 20
140.9489400617108
 30
0.0
 10
110.6444821435766
 20
135.1746117095912
 30
0.0
 10
109.4669477299053
 20
132.8960240524753
 30
0.0
 10
108.5212683953448
 20
131.9072809959403
 30
0.0
 10
106.7346406980658
 20
130.0538184021569
 30
0.0
 10
104.8222669326213
 20
130.2336525051225
 30
0.0
 10
104.5408024457958
 20
130.2336525051225
 30
0.0
 10
104.1721769856939
 20
130.2336525051225
 30
0.0
 10
101.6465758193322
 20
130.6305277668397
 30
0.0
 10
101.6420971922469
 20
132.8388354296931
 30
0.0
  0
SPLINE
  5
1DA9
330
1DA0
100
AcDbEntity
  8
TFORMLOGO
370
     0
100
AcDbSpline
210
0.0
220
0.0
230
1.0
 70
    11
 71
     3
 72
    32
 73
    28
 74
     0
 42
0.000000001
 43
0.0000000001
 40
0.0
 40
0.0
 40
0.0
 40
0.0
 40
1.0
 40
1.0
 40
1.0
 40
2.0
 40
2.0
 40
2.0
 40
3.0
 40
3.0
 40
3.0
 40
4.0
 40
4.0
 40
4.0
 40
5.0
 40
5.0
 40
5.0
 40
6.0
 40
6.0
 40
6.0
 40
7.0
 40
7.0
 40
7.0
 40
8.0
 40
8.0
 40
8.0
 40
9.0
 40
9.0
 40
9.0
 40
9.0
 10
106.2595617172429
 20
153.4105476718098
 30
0.0
 10
104.8222669326213
 20
151.5474388043041
 30
0.0
 10
103.7177685914188
 20
149.8758773721411
 30
0.0
 10
101.9232171692965
 20
144.6141795664062
 30
0.0
 10
100.2754269116635
 20
139.7999999594306
 30
0.0
 10
99.22777268346732
 20
136.3052927937542
 30
0.0
 10
99.06964269637689
 20
132.039572749846
 30
0.0
 10
98.94665270641765
 20
128.8673267343149
 30
0.0
 10
100.8807305877373
 20
127.8027915271048
 30
0.0
 10
103.7129454545577
 20
127.8027915271048
 30
0.0
 10
104.9352661390825
 20
127.8027915271048
 30
0.0
 10
108.0151835347002
 20
127.8827177950895
 30
0.0
 10
110.2045431598849
 20
130.5926316915021
 30
0.0
 10
111.7417457794874
 20
132.4984597712065
 30
0.0
 10
113.155269389579
 20
134.475256864725
 30
0.0
 10
115.0562743324223
 20
140.9489400617108
 30
0.0
 10
116.6361961642235
 20
146.3680788349845
 30
0.0
 10
117.7282921534974
 20
149.8639917848761
 30
0.0
 10
117.6480213757369
 20
151.8595646611754
 30
0.0
 10
117.6480213757369
 20
151.8595646611754
 30
0.0
 10
117.6480213757369
 20
151.8595646611754
 30
0.0
 10
117.6480213757369
 20
151.8595646611754
 30
0.0
 10
117.13229024137
 20
155.18150017429
 30
0.0
 10
114.7162431837115
 20
155.886194920681
 30
0.0
 10
113.3351034925446
 20
155.886194920681
 30
0.0
 10
111.9829026225447
 20
155.886194920681
 30
0.0
 10
108.3414342923792
 20
156.1251124501957
 30
0.0
 10
106.2595617172429
 20
153.4105476718098
 30
0.0
  0
HATCH
  5
1DAA
330
1DA0
100
AcDbEntity
  8
TFORMLOGO
 62
   250
420
  2234388
100
AcDbHatch
 10
0.0
 20
0.0
 30
0.0
210
0.0
220
0.0
230
1.0
  2
SOLID
 70
     1
 71
     0
 91
        2
 92
        1
 93
        1
 72
     4
 94
        3
 73
     0
 74
     1
 95
       29
 96
       25
 40
0.0
 40
0.0
 40
0.0
 40
0.0
 40
1.0
 40
1.0
 40
1.0
 40
2.0
 40
2.0
 40
2.0
 40
3.0
 40
3.0
 40
3.0
 40
4.0
 40
4.0
 40
4.0
 40
5.0
 40
5.0
 40
5.0
 40
6.0
 40
6.0
 40
6.0
 40
7.0
 40
7.0
 40
7.0
 40
8.0
 40
8.0
 40
8.0
 40
8.0
 10
101.6420971922469
 20
132.8388354296931
 10
101.630039350094
 20
134.7164137077823
 10
102.2236296937908
 20
138.0598810818841
 10
103.7487744712405
 20
142.5378191476827
 10
105.819967243327
 20
148.5896501242061
 10
107.0602024361932
 20
150.8074318058939
 10
108.1522984254671
 20
151.8833358357054
 10
109.741177511439
 20
153.4532668840085
 10
111.8740375333931
 20
153.5290590346837
 10
112.5075910110823
 20
153.4532668840085
 10
113.4012493694975
 20
153.3490526768302
 10
114.6683563248758
 20
152.7580461564518
 10
114.7493161221879
 20
150.7838328862519
 10
114.8106388622796
 20
149.0909118479895
 10
114.3186789024427
 20
145.9191825971221
 10
112.6164561002338
 20
140.9489400617108
 10
110.6444821435766
 20
135.1746117095912
 10
109.4669477299053
 20
132.8960240524753
 10
108.5212683953448
 20
131.9072809959403
 10
106.7346406980658
 20
130.0538184021569
 10
104.8222669326213
 20
130.2336525051225
 10
104.5408024457958
 20
130.2336525051225
 10
104.1721769856939
 20
130.2336525051225
 10
101.6465758193322
 20
130.6305277668397
 10
101.6420971922469
 20
132.8388354296931
 97
        0
 92
        1
 93
        1
 72
     4
 94
        3
 73
     0
 74
     1
 95
       32
 96
       28
 40
0.0
 40
0.0
 40
0.0
 40
0.0
 40
1.0
 40
1.0
 40
1.0
 40
2.0
 40
2.0
 40
2.0
 40
3.0
 40
3.0
 40
3.0
 40
4.0
 40
4.0
 40
4.0
 40
5.0
 40
5.0
 40
5.0
 40
6.0
 40
6.0
 40
6.0
 40
7.0
 40
7.0
 40
7.0
 40
8.0
 40
8.0
 40
8.0
 40
9.0
 40
9.0
 40
9.0
 40
9.0
 10
106.2595617172429
 20
153.4105476718098
 10
104.8222669326213
 20
151.5474388043041
 10
103.7177685914188
 20
149.8758773721411
 10
101.9232171692965
 20
144.6141795664062
 10
100.2754269116635
 20
139.7999999594306
 10
99.22777268346732
 20
136.3052927937542
 10
99.06964269637689
 20
132.039572749846
 10
98.94665270641765
 20
128.8673267343149
 10
100.8807305877373
 20
127.8027915271048
 10
103.7129454545577
 20
127.8027915271048
 10
104.9352661390825
 20
127.8027915271048
 10
108.0151835347002
 20
127.8827177950895
 10
110.2045431598849
 20
130.5926316915021
 10
111.7417457794874
 20
132.4984597712065
 10
113.155269389579
 20
134.475256864725
 10
115.0562743324223
 20
140.9489400617108
 10
116.6361961642235
 20
146.3680788349845
 10
117.7282921534974
 20
149.8639917848761
 10
117.6480213757369
 20
151.8595646611754
 10
117.6480213757369
 20
151.8595646611754
 10
117.6480213757369
 20
151.8595646611754
 10
117.6480213757369
 20
151.8595646611754
 10
117.13229024137
 20
155.18150017429
 10
114.7162431837115
 20
155.886194920681
 10
113.3351034925446
 20
155.886194920681
 10
111.9829026225447
 20
155.886194920681
 10
108.3414342923792
 20
156.1251124501957
 10
106.2595617172429
 20
153.4105476718098
 97
        0
 75
     2
 76
     1
 98
        0
  0
ENDBLK
  5
1DAB
330
1DA0
100
AcDbEntity
  8
0
100
AcDbBlockEnd
  0
BLOCK
  5
49D8
330
49D7
100
AcDbEntity
  8
0
100
AcDbBlockBegin
  2
*D7
 70
     1
 10
0.0
 20
0.0
 30
0.0
  3
*D7
  1
*D89
  0
LINE
  5
49DA
330
49D7
100
AcDbEntity
  8
寸法
 62
     0
370
    -2
100
AcDbLine
 10
377.4580110333714
 20
322.6433672898764
 30
0.0
 11
348.2503067484663
 21
322.6433672898764
 31
0.0
  0
LINE
  5
49DB
330
49D7
100
AcDbEntity
  8
寸法
 62
     0
370
    -2
100
AcDbLine
 10
377.4580110333714
 20
270.5741597760435
 30
0.0
 11
348.2503067484663
 21
270.5741597760435
 31
0.0
  0
LINE
  5
49DC
330
49D7
100
AcDbEntity
  8
寸法
 62
     0
370
    -2
100
AcDbLine
 10
348.2503067484663
 20
320.6433672898764
 30
0.0
 11
348.2503067484663
 21
272.5741597760435
 31
0.0
  0
INSERT
  5
49DD
330
49D7
100
AcDbEntity
  8
寸法
 62
     0
370
    -2
100
AcDbBlockReference
  2
_DOT
 10
348.2503067484663
 20
322.6433672898764
 30
0.0
 41
2.0
 42
2.0
 43
2.0
 50
90.0
  0
INSERT
  5
49DE
330
49D7
100
AcDbEntity
  8
寸法
 62
     0
370
    -2
100
AcDbBlockReference
  2
_DOT
 10
348.2503067484663
 20
270.5741597760435
 30
0.0
 41
2.0
 42
2.0
 43
2.0
 50
270.0
  0
MTEXT
  5
49DF
330
49D7
100
AcDbEntity
  8
寸法
 62
     0
100
AcDbMText
 10
340.7503067484663
 20
296.60876353296
 30
0.0
 40
5.0
 41
0.0
 46
0.0
 71
     5
 72
     1
  1
\A1;52
  7
ＭＳ ゴシック
 11
0.0
 21
1.0
 31
0.0
 73
     1
 44
1.0
  0
POINT
  5
49E0
330
49D7
100
AcDbEntity
  8
Defpoints
 62
     0
100
AcDbPoint
 10
382.4580110333714
 20
322.6433672898764
 30
0.0
  0
POINT
  5
49E1
330
49D7
100
AcDbEntity
  8
Defpoints
 62
     0
100
AcDbPoint
 10
382.4580110333714
 20
270.5741597760435
 30
0.0
  0
POINT
  5
49E2
330
49D7
100
AcDbEntity
  8
Defpoints
 62
     0
100
AcDbPoint
 10
348.2503067484663
 20
270.5741597760435
 30
0.0
  0
ENDBLK
  5
49D9
330
49D7
100
AcDbEntity
  8
0
100
AcDbBlockEnd
  0
BLOCK
  5
49E7
330
49E6
100
AcDbEntity
  8
0
100
AcDbBlockBegin
  2
*D8
 70
     1
 10
0.0
 20
0.0
 30
0.0
  3
*D8
  1
*D90
  0
LINE
  5
49E9
330
49E6
100
AcDbEntity
  8
寸法
 62
     0
370
    -2
100
AcDbLine
 10
172.8809483580591
 20
262.1859061310873
 30
0.0
 11
172.8809483580591
 21
246.4811791365413
 31
0.0
  0
LINE
  5
49EA
330
49E6
100
AcDbEntity
  8
寸法
 62
     0
370
    -2
100
AcDbLine
 10
224.5281313965421
 20
262.1859061310873
 30
0.0
 11
224.5281313965421
 21
246.4811791365413
 31
0.0
  0
LINE
  5
49EB
330
49E6
100
AcDbEntity
  8
寸法
 62
     0
370
    -2
100
AcDbLine
 10
174.8809483580591
 20
246.4811791365413
 30
0.0
 11
222.5281313965421
 21
246.4811791365413
 31
0.0
  0
INSERT
  5
49EC
330
49E6
100
AcDbEntity
  8
寸法
 62
     0
370
    -2
100
AcDbBlockReference
  2
_DOT
 10
172.8809483580591
 20
246.4811791365413
 30
0.0
 41
2.0
 42
2.0
 43
2.0
 50
180.0
  0
INSERT
  5
49ED
330
49E6
100
AcDbEntity
  8
寸法
 62
     0
370
    -2
100
AcDbBlockReference
  2
_DOT
 10
224.5281313965421
 20
246.4811791365413
 30
0.0
 41
2.0
 42
2.0
 43
2.0
  0
MTEXT
  5
49EE
330
49E6
100
AcDbEntity
  8
寸法
 62
     0
100
AcDbMText
 10
198.7045398773006
 20
253.9811791365413
 30
0.0
 40
5.0
 41
0.0
 46
0.0
 71
     5
 72
     1
  1
\A1;52
  7
ＭＳ ゴシック
 73
     1
 44
1.0
  0
POINT
  5
49EF
330
49E6
100
AcDbEntity
  8
Defpoints
 62
     0
100
AcDbPoint
 10
172.8809483580591
 20
267.1859061310873
 30
0.0
  0
POINT
  5
49F0
330
49E6
100
AcDbEntity
  8
Defpoints
 62
     0
100
AcDbPoint
 10
224.5281313965421
 20
267.1859061310873
 30
0.0
  0
POINT
  5
49F1
330
49E6
100
AcDbEntity
  8
Defpoints
 62
     0
100
AcDbPoint
 10
224.5281313965421
 20
246.4811791365413
 30
0.0
  0
ENDBLK
  5
49E8
330
49E6
100
AcDbEntity
  8
0
100
AcDbBlockEnd
  0
BLOCK
  5
4A36
330
4A35
100
AcDbEntity
  8
0
100
AcDbBlockBegin
  2
*D9
 70
     1
 10
0.0
 20
0.0
 30
0.0
  3
*D9
  1
*D93
  0
LINE
  5
4A38
330
4A35
100
AcDbEntity
  8
寸法
 62
     0
370
    -2
100
AcDbLine
 10
179.7045398773006
 20
327.533685554482
 30
0.0
 11
179.7045398773006
 21
335.7576218506239
 31
0.0
  0
LINE
  5
4A39
330
4A35
100
AcDbEntity
  8
寸法
 62
     0
370
    -2
100
AcDbLine
 10
217.7045398773006
 20
327.533685554482
 30
0.0
 11
217.7045398773006
 21
335.7576218506239
 31
0.0
  0
LINE
  5
4A3A
330
4A35
100
AcDbEntity
  8
寸法
 62
     0
370
    -2
100
AcDbLine
 10
181.7045398773006
 20
335.7576218506239
 30
0.0
 11
215.7045398773006
 21
335.7576218506239
 31
0.0
  0
INSERT
  5
4A3B
330
4A35
100
AcDbEntity
  8
寸法
 62
     0
370
    -2
100
AcDbBlockReference
  2
_DOT
 10
179.7045398773006
 20
335.7576218506239
 30
0.0
 41
2.0
 42
2.0
 43
2.0
 50
180.0
  0
INSERT
  5
4A3C
330
4A35
100
AcDbEntity
  8
寸法
 62
     0
370
    -2
100
AcDbBlockReference
  2
_DOT
 10
217.7045398773006
 20
335.7576218506239
 30
0.0
 41
2.0
 42
2.0
 43
2.0
  0
MTEXT
  5
4A3D
330
4A35
100
AcDbEntity
  8
寸法
 62
     0
100
AcDbMText
 10
198.7045398773006
 20
343.2576218506239
 30
0.0
 40
5.0
 41
0.0
 46
0.0
 71
     5
 72
     1
  1
\A1;38
  7
ＭＳ ゴシック
 73
     1
 44
1.0
  0
POINT
  5
4A3E
330
4A35
100
AcDbEntity
  8
Defpoints
 62
     0
100
AcDbPoint
 10
179.7045398773006
 20
322.533685554482
 30
0.0
  0
POINT
  5
4A3F
330
4A35
100
AcDbEntity
  8
Defpoints
 62
     0
100
AcDbPoint
 10
217.7045398773006
 20
322.533685554482
 30
0.0
  0
POINT
  5
4A40
330
4A35
100
AcDbEntity
  8
Defpoints
 62
     0
100
AcDbPoint
 10
217.7045398773006
 20
335.7576218506239
 30
0.0
  0
ENDBLK
  5
4A37
330
4A35
100
AcDbEntity
  8
0
100
AcDbBlockEnd
  0
BLOCK
  5
4A62
330
4A61
100
AcDbEntity
  8
0
100
AcDbBlockBegin
  2
*D10
 70
     1
 10
0.0
 20
0.0
 30
0.0
  3
*D10
  1
*D96
  0
LINE
  5
4A64
330
4A61
100
AcDbEntity
  8
寸法
 62
     0
370
    -2
100
AcDbLine
 10
229.5281313965421
 20
322.6433672898764
 30
0.0
 11
250.574189629303
 21
322.6433672898764
 31
0.0
  0
LINE
  5
4A65
330
4A61
100
AcDbEntity
  8
寸法
 62
     0
370
    -2
100
AcDbLine
 10
229.5281313965421
 20
266.6433672898764
 30
0.0
 11
250.574189629303
 21
266.6433672898764
 31
0.0
  0
LINE
  5
4A66
330
4A61
100
AcDbEntity
  8
寸法
 62
     0
370
    -2
100
AcDbLine
 10
250.574189629303
 20
320.6433672898764
 30
0.0
 11
250.574189629303
 21
268.6433672898764
 31
0.0
  0
INSERT
  5
4A67
330
4A61
100
AcDbEntity
  8
寸法
 62
     0
370
    -2
100
AcDbBlockReference
  2
_DOT
 10
250.574189629303
 20
322.6433672898764
 30
0.0
 41
2.0
 42
2.0
 43
2.0
 50
90.0
  0
INSERT
  5
4A68
330
4A61
100
AcDbEntity
  8
寸法
 62
     0
370
    -2
100
AcDbBlockReference
  2
_DOT
 10
250.574189629303
 20
266.6433672898764
 30
0.0
 41
2.0
 42
2.0
 43
2.0
 50
270.0
  0
MTEXT
  5
4A69
330
4A61
100
AcDbEntity
  8
寸法
 62
     0
100
AcDbMText
 10
243.074189629303
 20
294.6433672898764
 30
0.0
 40
5.0
 41
0.0
 46
0.0
 71
     5
 72
     1
  1
\A1;56
  7
ＭＳ ゴシック
 11
0.0
 21
1.0
 31
0.0
 73
     1
 44
1.0
  0
POINT
  5
4A6A
330
4A61
100
AcDbEntity
  8
Defpoints
 62
     0
100
AcDbPoint
 10
224.5281313965421
 20
322.6433672898764
 30
0.0
  0
POINT
  5
4A6B
330
4A61
100
AcDbEntity
  8
Defpoints
 62
     0
100
AcDbPoint
 10
224.5281313965421
 20
266.6433672898764
 30
0.0
  0
POINT
  5
4A6C
330
4A61
100
AcDbEntity
  8
Defpoints
 62
     0
100
AcDbPoint
 10
250.574189629303
 20
266.6433672898764
 30
0.0
  0
ENDBLK
  5
4A63
330
4A61
100
AcDbEntity
  8
0
100
AcDbBlockEnd
  0
BLOCK
  5
4A74
330
4A73
100
AcDbEntity
  8
0
100
AcDbBlockBegin
  2
*D11
 70
     1
 10
0.0
 20
0.0
 30
0.0
  3
*D11
  1
*D97
  0
LINE
  5
4A76
330
4A73
100
AcDbEntity
  8
寸法
 62
     0
370
    -2
100
AcDbLine
 10
167.8809483580591
 20
322.6433672898764
 30
0.0
 11
157.1609807423958
 21
322.6433672898764
 31
0.0
  0
LINE
  5
4A77
330
4A73
100
AcDbEntity
  8
寸法
 62
     0
370
    -2
100
AcDbLine
 10
168.3046953822887
 20
316.7160765973034
 30
0.0
 11
157.1609807423958
 21
316.7160765973034
 31
0.0
  0
LINE
  5
4A78
330
4A73
100
AcDbEntity
  8
寸法
 62
     0
370
    -2
100
AcDbLine
 10
157.1609807423958
 20
320.6433672898764
 30
0.0
 11
157.1609807423958
 21
318.7160765973034
 31
0.0
  0
INSERT
  5
4A79
330
4A73
100
AcDbEntity
  8
寸法
 62
     0
370
    -2
100
AcDbBlockReference
  2
_DOT
 10
157.1609807423958
 20
322.6433672898764
 30
0.0
 41
2.0
 42
2.0
 43
2.0
 50
90.0
  0
INSERT
  5
4A7A
330
4A73
100
AcDbEntity
  8
寸法
 62
     0
370
    -2
100
AcDbBlockReference
  2
_DOT
 10
157.1609807423958
 20
316.7160765973034
 30
0.0
 41
2.0
 42
2.0
 43
2.0
 50
270.0
  0
MTEXT
  5
4A7B
330
4A73
100
AcDbEntity
  8
寸法
 62
     0
100
AcDbMText
 10
149.6609807423958
 20
319.6797219435899
 30
0.0
 40
5.0
 41
0.0
 46
0.0
 71
     5
 72
     1
  1
\A1;6
  7
ＭＳ ゴシック
 11
0.0
 21
1.0
 31
0.0
 73
     1
 44
1.0
  0
POINT
  5
4A7C
330
4A73
100
AcDbEntity
  8
Defpoints
 62
     0
100
AcDbPoint
 10
172.8809483580591
 20
322.6433672898764
 30
0.0
  0
POINT
  5
4A7D
330
4A73
100
AcDbEntity
  8
Defpoints
 62
     0
100
AcDbPoint
 10
173.3046953822887
 20
316.7160765973034
 30
0.0
  0
POINT
  5
4A7E
330
4A73
100
AcDbEntity
  8
Defpoints
 62
     0
100
AcDbPoint
 10
157.1609807423958
 20
316.7160765973034
 30
0.0
  0
ENDBLK
  5
4A75
330
4A73
100
AcDbEntity
  8
0
100
AcDbBlockEnd
  0
BLOCK
  5
4A84
330
4A83
100
AcDbEntity
  8
0
100
AcDbBlockBegin
  2
*D12
 70
     1
 10
0.0
 20
0.0
 30
0.0
  3
*D12
  1
*D98
  0
LINE
  5
4A86
330
4A83
100
AcDbEntity
  8
寸法
 62
     0
370
    -2
100
AcDbLine
 10
167.8809483580591
 20
266.6433672898764
 30
0.0
 11
157.1609807423958
 21
266.6433672898764
 31
0.0
  0
LINE
  5
4A87
330
4A83
100
AcDbEntity
  8
寸法
 62
     0
370
    -2
100
AcDbLine
 10
163.3046953822887
 20
316.7160765973034
 30
0.0
 11
157.1609807423958
 21
316.7160765973034
 31
0.0
  0
LINE
  5
4A88
330
4A83
100
AcDbEntity
  8
寸法
 62
     0
370
    -2
100
AcDbLine
 10
157.1609807423958
 20
268.6433672898764
 30
0.0
 11
157.1609807423958
 21
314.7160765973034
 31
0.0
  0
INSERT
  5
4A89
330
4A83
100
AcDbEntity
  8
寸法
 62
     0
370
    -2
100
AcDbBlockReference
  2
_DOT
 10
157.1609807423958
 20
266.6433672898764
 30
0.0
 41
2.0
 42
2.0
 43
2.0
 50
270.0
  0
INSERT
  5
4A8A
330
4A83
100
AcDbEntity
  8
寸法
 62
     0
370
    -2
100
AcDbBlockReference
  2
_DOT
 10
157.1609807423958
 20
316.7160765973034
 30
0.0
 41
2.0
 42
2.0
 43
2.0
 50
90.0
  0
MTEXT
  5
4A8B
330
4A83
100
AcDbEntity
  8
寸法
 62
     0
100
AcDbMText
 10
149.6609807423958
 20
291.6797219435899
 30
0.0
 40
5.0
 41
0.0
 46
0.0
 71
     5
 72
     1
  1
\A1;50
  7
ＭＳ ゴシック
 11
0.0
 21
1.0
 31
0.0
 73
     1
 44
1.0
  0
POINT
  5
4A8C
330
4A83
100
AcDbEntity
  8
Defpoints
 62
     0
100
AcDbPoint
 10
172.8809483580591
 20
266.6433672898764
 30
0.0
  0
POINT
  5
4A8D
330
4A83
100
AcDbEntity
  8
Defpoints
 62
     0
100
AcDbPoint
 10
168.3046953822887
 20
316.7160765973034
 30
0.0
  0
POINT
  5
4A8E
330
4A83
100
AcDbEntity
  8
Defpoints
 62
     0
100
AcDbPoint
 10
157.1609807423958
 20
316.7160765973034
 30
0.0
  0
ENDBLK
  5
4A85
330
4A83
100
AcDbEntity
  8
0
100
AcDbBlockEnd
  0
BLOCK
  5
4C73
330
4C72
100
AcDbEntity
  8
0
100
AcDbBlockBegin
  2
*D13
 70
     1
 10
0.0
 20
0.0
 30
0.0
  3
*D13
  1
*D103
  0
LINE
  5
4C75
330
4C72
100
AcDbEntity
  8
寸法
 62
     0
370
    -2
100
AcDbLine
 10
374.3313019164257
 20
177.4531603118752
 30
0.0
 11
374.3313019164257
 21
200.2397838893573
 31
0.0
  0
LINE
  5
4C76
330
4C72
100
AcDbEntity
  8
寸法
 62
     0
370
    -2
100
AcDbLine
 10
393.3313019164257
 20
191.6286728320842
 30
0.0
 11
393.3313019164257
 21
200.2397838893573
 31
0.0
  0
LINE
  5
4C77
330
4C72
100
AcDbEntity
  8
寸法
 62
     0
370
    -2
100
AcDbLine
 10
376.3313019164257
 20
200.2397838893573
 30
0.0
 11
391.3313019164257
 21
200.2397838893573
 31
0.0
  0
INSERT
  5
4C78
330
4C72
100
AcDbEntity
  8
寸法
 62
     0
370
    -2
100
AcDbBlockReference
  2
_DOT
 10
374.3313019164257
 20
200.2397838893573
 30
0.0
 41
2.0
 42
2.0
 43
2.0
 50
180.0
  0
INSERT
  5
4C79
330
4C72
100
AcDbEntity
  8
寸法
 62
     0
370
    -2
100
AcDbBlockReference
  2
_DOT
 10
393.3313019164257
 20
200.2397838893573
 30
0.0
 41
2.0
 42
2.0
 43
2.0
  0
MTEXT
  5
4C7A
330
4C72
100
AcDbEntity
  8
寸法
 62
     0
100
AcDbMText
 10
383.8313019164257
 20
207.7397838893573
 30
0.0
 40
5.0
 41
0.0
 46
0.0
 71
     5
 72
     1
  1
\A1;19
  7
ＭＳ ゴシック
 73
     1
 44
1.0
  0
POINT
  5
4C7B
330
4C72
100
AcDbEntity
  8
Defpoints
 62
     0
100
AcDbPoint
 10
374.3313019164257
 20
172.4531603118752
 30
0.0
  0
POINT
  5
4C7C
330
4C72
100
AcDbEntity
  8
Defpoints
 62
     0
100
AcDbPoint
 10
393.3313019164257
 20
186.6286728320842
 30
0.0
  0
POINT
  5
4C7D
330
4C72
100
AcDbEntity
  8
Defpoints
 62
     0
100
AcDbPoint
 10
393.3313019164257
 20
200.2397838893573
 30
0.0
  0
ENDBLK
  5
4C74
330
4C72
100
AcDbEntity
  8
0
100
AcDbBlockEnd
  0
BLOCK
  5
4C7F
330
4C7E
100
AcDbEntity
  8
0
100
AcDbBlockBegin
  2
*D14
 70
     1
 10
0.0
 20
0.0
 30
0.0
  3
*D14
  1
*D104
  0
LINE
  5
4C81
330
4C7E
100
AcDbEntity
  8
寸法
 62
     0
370
    -2
100
AcDbLine
 10
393.3313019164257
 20
191.6286728320842
 30
0.0
 11
393.3313019164257
 21
200.2397838893573
 31
0.0
  0
LINE
  5
4C82
330
4C7E
100
AcDbEntity
  8
寸法
 62
     0
370
    -2
100
AcDbLine
 10
412.3313019164257
 20
177.4531603118752
 30
0.0
 11
412.3313019164257
 21
200.2397838893573
 31
0.0
  0
LINE
  5
4C83
330
4C7E
100
AcDbEntity
  8
寸法
 62
     0
370
    -2
100
AcDbLine
 10
395.3313019164257
 20
200.2397838893573
 30
0.0
 11
410.3313019164257
 21
200.2397838893573
 31
0.0
  0
INSERT
  5
4C84
330
4C7E
100
AcDbEntity
  8
寸法
 62
     0
370
    -2
100
AcDbBlockReference
  2
_DOT
 10
393.3313019164257
 20
200.2397838893573
 30
0.0
 41
2.0
 42
2.0
 43
2.0
 50
180.0
  0
INSERT
  5
4C85
330
4C7E
100
AcDbEntity
  8
寸法
 62
     0
370
    -2
100
AcDbBlockReference
  2
_DOT
 10
412.3313019164257
 20
200.2397838893573
 30
0.0
 41
2.0
 42
2.0
 43
2.0
  0
MTEXT
  5
4C86
330
4C7E
100
AcDbEntity
  8
寸法
 62
     0
100
AcDbMText
 10
402.8313019164257
 20
207.7397838893573
 30
0.0
 40
5.0
 41
0.0
 46
0.0
 71
     5
 72
     1
  1
\A1;19
  7
ＭＳ ゴシック
 73
     1
 44
1.0
  0
POINT
  5
4C87
330
4C7E
100
AcDbEntity
  8
Defpoints
 62
     0
100
AcDbPoint
 10
393.3313019164257
 20
186.6286728320842
 30
0.0
  0
POINT
  5
4C88
330
4C7E
100
AcDbEntity
  8
Defpoints
 62
     0
100
AcDbPoint
 10
412.3313019164257
 20
172.4531603118752
 30
0.0
  0
POINT
  5
4C89
330
4C7E
100
AcDbEntity
  8
Defpoints
 62
     0
100
AcDbPoint
 10
412.3313019164257
 20
200.2397838893573
 30
0.0
  0
ENDBLK
  5
4C80
330
4C7E
100
AcDbEntity
  8
0
100
AcDbBlockEnd
  0
BLOCK
  5
4C8B
330
4C8A
100
AcDbEntity
  8
0
100
AcDbBlockBegin
  2
*D15
 70
     1
 10
0.0
 20
0.0
 30
0.0
  3
*D15
  1
*D105
  0
LINE
  5
4C8D
330
4C8A
100
AcDbEntity
  8
寸法
 62
     0
370
    -2
100
AcDbLine
 10
412.3313019164257
 20
158.3002972752912
 30
0.0
 11
412.3313019164257
 21
130.5123896935981
 31
0.0
  0
LINE
  5
4C8E
330
4C8A
100
AcDbEntity
  8
寸法
 62
     0
370
    -2
100
AcDbLine
 10
374.3313019164257
 20
158.3002972752912
 30
0.0
 11
374.3313019164257
 21
130.5123896935981
 31
0.0
  0
LINE
  5
4C8F
330
4C8A
100
AcDbEntity
  8
寸法
 62
     0
370
    -2
100
AcDbLine
 10
374.3313019164257
 20
130.5123896935981
 30
0.0
 11
360.3413019164257
 21
130.5123896935981
 31
0.0
  0
LINE
  5
4C90
330
4C8A
100
AcDbEntity
  8
寸法
 62
     0
370
    -2
100
AcDbLine
 10
410.3313019164257
 20
130.5123896935981
 30
0.0
 11
376.3313019164257
 21
130.5123896935981
 31
0.0
  0
INSERT
  5
4C91
330
4C8A
100
AcDbEntity
  8
寸法
 62
     0
370
    -2
100
AcDbBlockReference
  2
_DOT
 10
412.3313019164257
 20
130.5123896935981
 30
0.0
 41
2.0
 42
2.0
 43
2.0
  0
INSERT
  5
4C92
330
4C8A
100
AcDbEntity
  8
寸法
 62
     0
370
    -2
100
AcDbBlockReference
  2
_DOT
 10
374.3313019164257
 20
130.5123896935981
 30
0.0
 41
2.0
 42
2.0
 43
2.0
 50
180.0
  0
MTEXT
  5
4C93
330
4C8A
100
AcDbEntity
  8
寸法
 62
     0
100
AcDbMText
 10
365.3363019164257
 20
135.0373896935981
 30
0.0
 40
5.0
 41
0.0
 46
0.0
 71
     5
 72
     1
  1
\A1;ø8
  7
ＭＳ ゴシック
 73
     1
 44
1.0
  0
POINT
  5
4C94
330
4C8A
100
AcDbEntity
  8
Defpoints
 62
     0
100
AcDbPoint
 10
412.3313019164257
 20
163.3002972752912
 30
0.0
  0
POINT
  5
4C95
330
4C8A
100
AcDbEntity
  8
Defpoints
 62
     0
100
AcDbPoint
 10
374.3313019164257
 20
163.3002972752912
 30
0.0
  0
POINT
  5
4C96
330
4C8A
100
AcDbEntity
  8
Defpoints
 62
     0
100
AcDbPoint
 10
374.3313019164257
 20
130.5123896935981
 30
0.0
  0
ENDBLK
  5
4C8C
330
4C8A
100
AcDbEntity
  8
0
100
AcDbBlockEnd
  0
BLOCK
  5
4EE3
330
4EE2
100
AcDbEntity
  8
0
100
AcDbBlockBegin
  2
*D16
 70
     1
 10
0.0
 20
0.0
 30
0.0
  3
*D16
  1

  0
LINE
  5
4EE5
330
4EE2
100
AcDbEntity
  8
モデル
 62
     0
370
    -2
100
AcDbLine
 10
749.5828985262247
 20
415.1968756195965
 30
0.0
 11
749.5828985262247
 21
421.0690997118156
 31
0.0
  0
LINE
  5
4EE6
330
4EE2
100
AcDbEntity
  8
モデル
 62
     0
370
    -2
100
AcDbLine
 10
787.5828985262247
 20
415.1968756195965
 30
0.0
 11
787.5828985262247
 21
421.0690997118156
 31
0.0
  0
LINE
  5
4EE7
330
4EE2
100
AcDbEntity
  8
モデル
 62
     0
370
    -2
100
AcDbLine
 10
751.5828985262247
 20
421.0690997118156
 30
0.0
 11
785.5828985262247
 21
421.0690997118156
 31
0.0
  0
INSERT
  5
4EE8
330
4EE2
100
AcDbEntity
  8
モデル
 62
     0
370
    -2
100
AcDbBlockReference
  2
_DOT
 10
749.5828985262247
 20
421.0690997118156
 30
0.0
 41
2.0
 42
2.0
 43
2.0
 50
180.0
  0
INSERT
  5
4EE9
330
4EE2
100
AcDbEntity
  8
モデル
 62
     0
370
    -2
100
AcDbBlockReference
  2
_DOT
 10
787.5828985262247
 20
421.0690997118156
 30
0.0
 41
2.0
 42
2.0
 43
2.0
  0
MTEXT
  5
4EEA
330
4EE2
100
AcDbEntity
  8
モデル
 62
     0
100
AcDbMText
 10
768.5828985262247
 20
428.5690997118156
 30
0.0
 40
5.0
 41
0.0
 46
0.0
 71
     5
 72
     1
  1
\A1;38
  7
ＭＳ ゴシック
 73
     1
 44
1.0
  0
POINT
  5
4EEB
330
4EE2
100
AcDbEntity
  8
Defpoints
 62
     0
100
AcDbPoint
 10
749.5828985262247
 20
410.1968756195965
 30
0.0
  0
POINT
  5
4EEC
330
4EE2
100
AcDbEntity
  8
Defpoints
 62
     0
100
AcDbPoint
 10
787.5828985262247
 20
410.1968756195965
 30
0.0
  0
POINT
  5
4EED
330
4EE2
100
AcDbEntity
  8
Defpoints
 62
     0
100
AcDbPoint
 10
787.5828985262247
 20
421.0690997118156
 30
0.0
  0
ENDBLK
  5
4EE4
330
4EE2
100
AcDbEntity
  8
0
100
AcDbBlockEnd
  0
BLOCK
  5
4FBF
330
4FBE
100
AcDbEntity
  8
0
100
AcDbBlockBegin
  2
*D17
 70
     1
 10
0.0
 20
0.0
 30
0.0
  3
*D17
  1

  0
LINE
  5
4FC1
330
4FBE
100
AcDbEntity
  8
寸法
 62
     0
370
    -2
100
AcDbLine
 10
168.8577572373189
 20
337.6087635329599
 30
0.0
 11
157.6022628232855
 21
337.6087635329599
 31
0.0
  0
LINE
  5
4FC2
330
4FBE
100
AcDbEntity
  8
寸法
 62
     0
370
    -2
100
AcDbLine
 10
168.8577572373189
 20
344.6087635329599
 30
0.0
 11
157.6022628232855
 21
344.6087635329599
 31
0.0
  0
LINE
  5
4FC3
330
4FBE
100
AcDbEntity
  8
寸法
 62
     0
370
    -2
100
AcDbLine
 10
157.6022628232855
 20
339.6087635329599
 30
0.0
 11
157.6022628232855
 21
342.6087635329599
 31
0.0
  0
INSERT
  5
4FC4
330
4FBE
100
AcDbEntity
  8
寸法
 62
     0
370
    -2
100
AcDbBlockReference
  2
_DOT
 10
157.6022628232855
 20
337.6087635329599
 30
0.0
 41
2.0
 42
2.0
 43
2.0
 50
270.0
  0
INSERT
  5
4FC5
330
4FBE
100
AcDbEntity
  8
寸法
 62
     0
370
    -2
100
AcDbBlockReference
  2
_DOT
 10
157.6022628232855
 20
344.6087635329599
 30
0.0
 41
2.0
 42
2.0
 43
2.0
 50
90.0
  0
MTEXT
  5
4FC6
330
4FBE
100
AcDbEntity
  8
寸法
 62
     0
100
AcDbMText
 10
150.1022628232855
 20
341.1087635329598
 30
0.0
 40
5.0
 41
0.0
 46
0.0
 71
     5
 72
     1
  1
\A1;7
  7
ＭＳ ゴシック
 11
0.0
 21
1.0
 31
0.0
 73
     1
 44
1.0
  0
POINT
  5
4FC7
330
4FBE
100
AcDbEntity
  8
Defpoints
 62
     0
100
AcDbPoint
 10
173.8577572373189
 20
337.6087635329599
 30
0.0
  0
POINT
  5
4FC8
330
4FBE
100
AcDbEntity
  8
Defpoints
 62
     0
100
AcDbPoint
 10
173.8577572373189
 20
344.6087635329599
 30
0.0
  0
POINT
  5
4FC9
330
4FBE
100
AcDbEntity
  8
Defpoints
 62
     0
100
AcDbPoint
 10
157.6022628232855
 20
344.6087635329599
 30
0.0
  0
ENDBLK
  5
4FC0
330
4FBE
100
AcDbEntity
  8
0
100
AcDbBlockEnd
  0
BLOCK
  5
4FFC
330
4FFB
100
AcDbEntity
  8
0
100
AcDbBlockBegin
  2
*D18
 70
     1
 10
0.0
 20
0.0
 30
0.0
  3
*D18
  1
*D93
  0
LINE
  5
4FFD
330
4FFB
100
AcDbEntity
  8
寸法
 62
     0
370
    -2
100
AcDbLine
 10
1.0
 20
5.0
 30
0.0
 11
1.0
 21
13.22393629614186
 31
0.0
  0
LINE
  5
4FFE
330
4FFB
100
AcDbEntity
  8
寸法
 62
     0
370
    -2
100
AcDbLine
 10
39.0
 20
5.0
 30
0.0
 11
39.0
 21
13.22393629614186
 31
0.0
  0
LINE
  5
4FFF
330
4FFB
100
AcDbEntity
  8
寸法
 62
     0
370
    -2
100
AcDbLine
 10
3.0
 20
13.22393629614186
 30
0.0
 11
37.0
 21
13.22393629614186
 31
0.0
  0
INSERT
  5
5000
330
4FFB
100
AcDbEntity
  8
寸法
 62
     0
370
    -2
100
AcDbBlockReference
  2
_DOT
 10
1.0
 20
13.22393629614186
 30
0.0
 41
2.0
 42
2.0
 43
2.0
 50
180.0
  0
INSERT
  5
5001
330
4FFB
100
AcDbEntity
  8
寸法
 62
     0
370
    -2
100
AcDbBlockReference
  2
_DOT
 10
39.0
 20
13.22393629614186
 30
0.0
 41
2.0
 42
2.0
 43
2.0
  0
MTEXT
  5
5002
330
4FFB
100
AcDbEntity
  8
寸法
 62
     0
100
AcDbMText
 10
20.0
 20
20.72393629614186
 30
0.0
 40
5.0
 41
0.0
 46
0.0
 71
     5
 72
     1
  1
\A1;38
  7
ＭＳ ゴシック
 73
     1
 44
1.0
  0
POINT
  5
5003
330
4FFB
100
AcDbEntity
  8
Defpoints
 62
     0
100
AcDbPoint
 10
1.0
 20
0.0
 30
0.0
  0
POINT
  5
5004
330
4FFB
100
AcDbEntity
  8
Defpoints
 62
     0
100
AcDbPoint
 10
39.0
 20
0.0
 30
0.0
  0
POINT
  5
5005
330
4FFB
100
AcDbEntity
  8
Defpoints
 62
     0
100
AcDbPoint
 10
39.0
 20
13.22393629614186
 30
0.0
  0
ENDBLK
  5
5006
330
4FFB
100
AcDbEntity
  8
0
100
AcDbBlockEnd
  0
BLOCK
  5
500C
330
500B
100
AcDbEntity
  8
0
100
AcDbBlockBegin
  2
*D19
 70
     1
 10
0.0
 20
0.0
 30
0.0
  3
*D19
  1

  0
LINE
  5
500E
330
500B
100
AcDbEntity
  8
寸法
 62
     0
370
    -2
100
AcDbLine
 10
182.3577572373188
 20
354.9517354443373
 30
0.0
 11
182.3577572373188
 21
363.1756717404792
 31
0.0
  0
LINE
  5
500F
330
500B
100
AcDbEntity
  8
寸法
 62
     0
370
    -2
100
AcDbLine
 10
220.3577572373188
 20
354.9517354443373
 30
0.0
 11
220.3577572373188
 21
363.1756717404792
 31
0.0
  0
LINE
  5
5010
330
500B
100
AcDbEntity
  8
寸法
 62
     0
370
    -2
100
AcDbLine
 10
184.3577572373188
 20
363.1756717404792
 30
0.0
 11
218.3577572373188
 21
363.1756717404792
 31
0.0
  0
INSERT
  5
5011
330
500B
100
AcDbEntity
  8
寸法
 62
     0
370
    -2
100
AcDbBlockReference
  2
_DOT
 10
182.3577572373188
 20
363.1756717404792
 30
0.0
 41
2.0
 42
2.0
 43
2.0
 50
180.0
  0
INSERT
  5
5012
330
500B
100
AcDbEntity
  8
寸法
 62
     0
370
    -2
100
AcDbBlockReference
  2
_DOT
 10
220.3577572373188
 20
363.1756717404792
 30
0.0
 41
2.0
 42
2.0
 43
2.0
  0
MTEXT
  5
5013
330
500B
100
AcDbEntity
  8
寸法
 62
     0
100
AcDbMText
 10
201.3577572373188
 20
370.6756717404792
 30
0.0
 40
5.0
 41
0.0
 46
0.0
 71
     5
 72
     1
  1
\A1;38
  7
ＭＳ ゴシック
 73
     1
 44
1.0
  0
POINT
  5
5014
330
500B
100
AcDbEntity
  8
Defpoints
 62
     0
100
AcDbPoint
 10
182.3577572373188
 20
349.9517354443373
 30
0.0
  0
POINT
  5
5015
330
500B
100
AcDbEntity
  8
Defpoints
 62
     0
100
AcDbPoint
 10
220.3577572373188
 20
349.9517354443373
 30
0.0
  0
POINT
  5
5016
330
500B
100
AcDbEntity
  8
Defpoints
 62
     0
100
AcDbPoint
 10
220.3577572373188
 20
363.1756717404792
 30
0.0
  0
ENDBLK
  5
500D
330
500B
100
AcDbEntity
  8
0
100
AcDbBlockEnd
  0
BLOCK
  5
501B
330
501A
100
AcDbEntity
  8
0
100
AcDbBlockBegin
  2
*D20
 70
     1
 10
0.0
 20
0.0
 30
0.0
  3
*D20
  1

  0
LINE
  5
501D
330
501A
100
AcDbEntity
  8
寸法
 62
     0
370
    -2
100
AcDbLine
 10
173.8577572373189
 20
349.6087635329599
 30
0.0
 11
173.8577572373189
 21
378.5473272247522
 31
0.0
  0
LINE
  5
501E
330
501A
100
AcDbEntity
  8
寸法
 62
     0
370
    -2
100
AcDbLine
 10
228.8577572373189
 20
349.6087635329599
 30
0.0
 11
228.8577572373189
 21
378.5473272247522
 31
0.0
  0
LINE
  5
501F
330
501A
100
AcDbEntity
  8
寸法
 62
     0
370
    -2
100
AcDbLine
 10
175.8577572373189
 20
378.5473272247522
 30
0.0
 11
226.8577572373189
 21
378.5473272247522
 31
0.0
  0
INSERT
  5
5020
330
501A
100
AcDbEntity
  8
寸法
 62
     0
370
    -2
100
AcDbBlockReference
  2
_DOT
 10
173.8577572373189
 20
378.5473272247522
 30
0.0
 41
2.0
 42
2.0
 43
2.0
 50
180.0
  0
INSERT
  5
5021
330
501A
100
AcDbEntity
  8
寸法
 62
     0
370
    -2
100
AcDbBlockReference
  2
_DOT
 10
228.8577572373189
 20
378.5473272247522
 30
0.0
 41
2.0
 42
2.0
 43
2.0
  0
MTEXT
  5
5022
330
501A
100
AcDbEntity
  8
寸法
 62
     0
100
AcDbMText
 10
201.3577572373189
 20
386.0473272247522
 30
0.0
 40
5.0
 41
0.0
 46
0.0
 71
     5
 72
     1
  1
\A1;55
  7
ＭＳ ゴシック
 73
     1
 44
1.0
  0
POINT
  5
5023
330
501A
100
AcDbEntity
  8
Defpoints
 62
     0
100
AcDbPoint
 10
173.8577572373189
 20
344.6087635329599
 30
0.0
  0
POINT
  5
5024
330
501A
100
AcDbEntity
  8
Defpoints
 62
     0
100
AcDbPoint
 10
228.8577572373189
 20
344.6087635329599
 30
0.0
  0
POINT
  5
5025
330
501A
100
AcDbEntity
  8
Defpoints
 62
     0
100
AcDbPoint
 10
228.8577572373189
 20
378.5473272247522
 30
0.0
  0
ENDBLK
  5
501C
330
501A
100
AcDbEntity
  8
0
100
AcDbBlockEnd
  0
BLOCK
  5
502D
330
502C
100
AcDbEntity
  8
0
100
AcDbBlockBegin
  2
*D21
 70
     1
 10
0.0
 20
0.0
 30
0.0
  3
*D21
  1

  0
LINE
  5
502F
330
502C
100
AcDbEntity
  8
寸法
 62
     0
370
    -2
100
AcDbLine
 10
184.3447072878696
 20
271.6087635329599
 30
0.0
 11
157.6022628232855
 21
271.6087635329599
 31
0.0
  0
LINE
  5
5030
330
502C
100
AcDbEntity
  8
寸法
 62
     0
370
    -2
100
AcDbLine
 10
168.8577572373189
 20
337.6087635329599
 30
0.0
 11
157.6022628232855
 21
337.6087635329599
 31
0.0
  0
LINE
  5
5031
330
502C
100
AcDbEntity
  8
寸法
 62
     0
370
    -2
100
AcDbLine
 10
157.6022628232855
 20
273.6087635329599
 30
0.0
 11
157.6022628232855
 21
335.6087635329599
 31
0.0
  0
INSERT
  5
5032
330
502C
100
AcDbEntity
  8
寸法
 62
     0
370
    -2
100
AcDbBlockReference
  2
_DOT
 10
157.6022628232855
 20
271.6087635329599
 30
0.0
 41
2.0
 42
2.0
 43
2.0
 50
270.0
  0
INSERT
  5
5033
330
502C
100
AcDbEntity
  8
寸法
 62
     0
370
    -2
100
AcDbBlockReference
  2
_DOT
 10
157.6022628232855
 20
337.6087635329599
 30
0.0
 41
2.0
 42
2.0
 43
2.0
 50
90.0
  0
MTEXT
  5
5034
330
502C
100
AcDbEntity
  8
寸法
 62
     0
100
AcDbMText
 10
150.1022628232855
 20
304.6087635329599
 30
0.0
 40
5.0
 41
0.0
 46
0.0
 71
     5
 72
     1
  1
\A1;X
  7
ＭＳ ゴシック
 11
0.0
 21
1.0
 31
0.0
 73
     1
 44
1.0
  0
POINT
  5
5035
330
502C
100
AcDbEntity
  8
Defpoints
 62
     0
100
AcDbPoint
 10
189.3447072878696
 20
271.6087635329599
 30
0.0
  0
POINT
  5
5036
330
502C
100
AcDbEntity
  8
Defpoints
 62
     0
100
AcDbPoint
 10
173.8577572373189
 20
337.6087635329599
 30
0.0
  0
POINT
  5
5037
330
502C
100
AcDbEntity
  8
Defpoints
 62
     0
100
AcDbPoint
 10
157.6022628232855
 20
337.6087635329599
 30
0.0
  0
ENDBLK
  5
502E
330
502C
100
AcDbEntity
  8
0
100
AcDbBlockEnd
  0
BLOCK
  5
504D
330
504C
100
AcDbEntity
  8
0
100
AcDbBlockBegin
  2
*D22
 70
     1
 10
0.0
 20
0.0
 30
0.0
  3
*D22
  1

  0
LINE
  5
504F
330
504C
100
AcDbEntity
  8
寸法
 62
     0
370
    -2
100
AcDbLine
 10
381.4193843151289
 20
321.6087635329599
 30
0.0
 11
352.8590261883579
 21
321.6087635329599
 31
0.0
  0
LINE
  5
5050
330
504C
100
AcDbEntity
  8
寸法
 62
     0
370
    -2
100
AcDbLine
 10
381.4193843151289
 20
271.6087635329599
 30
0.0
 11
352.8590261883579
 21
271.6087635329599
 31
0.0
  0
LINE
  5
5051
330
504C
100
AcDbEntity
  8
寸法
 62
     0
370
    -2
100
AcDbLine
 10
352.8590261883579
 20
319.6087635329599
 30
0.0
 11
352.8590261883579
 21
273.6087635329599
 31
0.0
  0
INSERT
  5
5052
330
504C
100
AcDbEntity
  8
寸法
 62
     0
370
    -2
100
AcDbBlockReference
  2
_DOT
 10
352.8590261883579
 20
321.6087635329599
 30
0.0
 41
2.0
 42
2.0
 43
2.0
 50
90.0
  0
INSERT
  5
5053
330
504C
100
AcDbEntity
  8
寸法
 62
     0
370
    -2
100
AcDbBlockReference
  2
_DOT
 10
352.8590261883579
 20
271.6087635329599
 30
0.0
 41
2.0
 42
2.0
 43
2.0
 50
270.0
  0
MTEXT
  5
5054
330
504C
100
AcDbEntity
  8
寸法
 62
     0
100
AcDbMText
 10
345.3590261883579
 20
296.60876353296
 30
0.0
 40
5.0
 41
0.0
 46
0.0
 71
     5
 72
     1
  1
\A1;50
  7
ＭＳ ゴシック
 11
0.0
 21
1.0
 31
0.0
 73
     1
 44
1.0
  0
POINT
  5
5055
330
504C
100
AcDbEntity
  8
Defpoints
 62
     0
100
AcDbPoint
 10
386.4193843151289
 20
321.6087635329599
 30
0.0
  0
POINT
  5
5056
330
504C
100
AcDbEntity
  8
Defpoints
 62
     0
100
AcDbPoint
 10
386.4193843151289
 20
271.6087635329599
 30
0.0
  0
POINT
  5
5057
330
504C
100
AcDbEntity
  8
Defpoints
 62
     0
100
AcDbPoint
 10
352.8590261883579
 20
271.6087635329599
 30
0.0
  0
ENDBLK
  5
504E
330
504C
100
AcDbEntity
  8
0
100
AcDbBlockEnd
  0
BLOCK
  5
5071
330
5070
100
AcDbEntity
  8
0
100
AcDbBlockBegin
  2
*D23
 70
     1
 10
0.0
 20
0.0
 30
0.0
  3
*D23
  1

  0
LINE
  5
5073
330
5070
100
AcDbEntity
  8
寸法
 62
     0
370
    -2
100
AcDbLine
 10
374.2966981595092
 20
177.4531603118752
 30
0.0
 11
374.2966981595092
 21
200.2397838893573
 31
0.0
  0
LINE
  5
5074
330
5070
100
AcDbEntity
  8
寸法
 62
     0
370
    -2
100
AcDbLine
 10
393.2966981595092
 20
191.6286728320842
 30
0.0
 11
393.2966981595092
 21
200.2397838893573
 31
0.0
  0
LINE
  5
5075
330
5070
100
AcDbEntity
  8
寸法
 62
     0
370
    -2
100
AcDbLine
 10
376.2966981595092
 20
200.2397838893573
 30
0.0
 11
391.2966981595092
 21
200.2397838893573
 31
0.0
  0
INSERT
  5
5076
330
5070
100
AcDbEntity
  8
寸法
 62
     0
370
    -2
100
AcDbBlockReference
  2
_DOT
 10
374.2966981595092
 20
200.2397838893573
 30
0.0
 41
2.0
 42
2.0
 43
2.0
 50
180.0
  0
INSERT
  5
5077
330
5070
100
AcDbEntity
  8
寸法
 62
     0
370
    -2
100
AcDbBlockReference
  2
_DOT
 10
393.2966981595092
 20
200.2397838893573
 30
0.0
 41
2.0
 42
2.0
 43
2.0
  0
MTEXT
  5
5078
330
5070
100
AcDbEntity
  8
寸法
 62
     0
100
AcDbMText
 10
383.7966981595092
 20
207.7397838893573
 30
0.0
 40
5.0
 41
0.0
 46
0.0
 71
     5
 72
     1
  1
\A1;19
  7
ＭＳ ゴシック
 73
     1
 44
1.0
  0
POINT
  5
5079
330
5070
100
AcDbEntity
  8
Defpoints
 62
     0
100
AcDbPoint
 10
374.2966981595092
 20
172.4531603118752
 30
0.0
  0
POINT
  5
507A
330
5070
100
AcDbEntity
  8
Defpoints
 62
     0
100
AcDbPoint
 10
393.2966981595092
 20
186.6286728320842
 30
0.0
  0
POINT
  5
507B
330
5070
100
AcDbEntity
  8
Defpoints
 62
     0
100
AcDbPoint
 10
393.2966981595092
 20
200.2397838893573
 30
0.0
  0
ENDBLK
  5
5072
330
5070
100
AcDbEntity
  8
0
100
AcDbBlockEnd
  0
BLOCK
  5
507D
330
507C
100
AcDbEntity
  8
0
100
AcDbBlockBegin
  2
*D24
 70
     1
 10
0.0
 20
0.0
 30
0.0
  3
*D24
  1

  0
LINE
  5
507F
330
507C
100
AcDbEntity
  8
寸法
 62
     0
370
    -2
100
AcDbLine
 10
393.2966981595092
 20
191.6286728320842
 30
0.0
 11
393.2966981595092
 21
200.2397838893573
 31
0.0
  0
LINE
  5
5080
330
507C
100
AcDbEntity
  8
寸法
 62
     0
370
    -2
100
AcDbLine
 10
412.2966981595092
 20
177.4531603118752
 30
0.0
 11
412.2966981595092
 21
200.2397838893573
 31
0.0
  0
LINE
  5
5081
330
507C
100
AcDbEntity
  8
寸法
 62
     0
370
    -2
100
AcDbLine
 10
395.2966981595092
 20
200.2397838893573
 30
0.0
 11
410.2966981595092
 21
200.2397838893573
 31
0.0
  0
INSERT
  5
5082
330
507C
100
AcDbEntity
  8
寸法
 62
     0
370
    -2
100
AcDbBlockReference
  2
_DOT
 10
393.2966981595092
 20
200.2397838893573
 30
0.0
 41
2.0
 42
2.0
 43
2.0
 50
180.0
  0
INSERT
  5
5083
330
507C
100
AcDbEntity
  8
寸法
 62
     0
370
    -2
100
AcDbBlockReference
  2
_DOT
 10
412.2966981595092
 20
200.2397838893573
 30
0.0
 41
2.0
 42
2.0
 43
2.0
  0
MTEXT
  5
5084
330
507C
100
AcDbEntity
  8
寸法
 62
     0
100
AcDbMText
 10
402.7966981595092
 20
207.7397838893573
 30
0.0
 40
5.0
 41
0.0
 46
0.0
 71
     5
 72
     1
  1
\A1;19
  7
ＭＳ ゴシック
 73
     1
 44
1.0
  0
POINT
  5
5085
330
507C
100
AcDbEntity
  8
Defpoints
 62
     0
100
AcDbPoint
 10
393.2966981595092
 20
186.6286728320842
 30
0.0
  0
POINT
  5
5086
330
507C
100
AcDbEntity
  8
Defpoints
 62
     0
100
AcDbPoint
 10
412.2966981595092
 20
172.4531603118752
 30
0.0
  0
POINT
  5
5087
330
507C
100
AcDbEntity
  8
Defpoints
 62
     0
100
AcDbPoint
 10
412.2966981595092
 20
200.2397838893573
 30
0.0
  0
ENDBLK
  5
507E
330
507C
100
AcDbEntity
  8
0
100
AcDbBlockEnd
  0
BLOCK
  5
5089
330
5088
100
AcDbEntity
  8
0
100
AcDbBlockBegin
  2
*D25
 70
     1
 10
0.0
 20
0.0
 30
0.0
  3
*D25
  1

  0
LINE
  5
508B
330
5088
100
AcDbEntity
  8
寸法
 62
     0
370
    -2
100
AcDbLine
 10
412.2966981595092
 20
158.3002972752912
 30
0.0
 11
412.2966981595092
 21
130.5123896935981
 31
0.0
  0
LINE
  5
508C
330
5088
100
AcDbEntity
  8
寸法
 62
     0
370
    -2
100
AcDbLine
 10
374.2966981595092
 20
158.3002972752912
 30
0.0
 11
374.2966981595092
 21
130.5123896935981
 31
0.0
  0
LINE
  5
508D
330
5088
100
AcDbEntity
  8
寸法
 62
     0
370
    -2
100
AcDbLine
 10
374.2966981595092
 20
130.5123896935981
 30
0.0
 11
360.3066981595092
 21
130.5123896935981
 31
0.0
  0
LINE
  5
508E
330
5088
100
AcDbEntity
  8
寸法
 62
     0
370
    -2
100
AcDbLine
 10
410.2966981595092
 20
130.5123896935981
 30
0.0
 11
376.2966981595092
 21
130.5123896935981
 31
0.0
  0
LINE
  5
508F
330
5088
100
AcDbEntity
  8
寸法
 62
     0
370
    -2
100
AcDbLine
 10
376.2966981595092
 20
130.5123896935981
 30
0.0
 11
378.2966981595092
 21
130.5123896935981
 31
0.0
  0
INSERT
  5
5090
330
5088
100
AcDbEntity
  8
寸法
 62
     0
370
    -2
100
AcDbBlockReference
  2
_DOT
 10
412.2966981595092
 20
130.5123896935981
 30
0.0
 41
2.0
 42
2.0
 43
2.0
  0
INSERT
  5
5091
330
5088
100
AcDbEntity
  8
寸法
 62
     0
370
    -2
100
AcDbBlockReference
  2
_DOT
 10
374.2966981595092
 20
130.5123896935981
 30
0.0
 41
2.0
 42
2.0
 43
2.0
 50
180.0
  0
MTEXT
  5
5092
330
5088
100
AcDbEntity
  8
寸法
 62
     0
100
AcDbMText
 10
365.3016981595092
 20
135.0373896935981
 30
0.0
 40
5.0
 41
0.0
 46
0.0
 71
     5
 72
     1
  1
\A1;ø8
  7
ＭＳ ゴシック
 73
     1
 44
1.0
  0
POINT
  5
5093
330
5088
100
AcDbEntity
  8
Defpoints
 62
     0
100
AcDbPoint
 10
412.2966981595092
 20
163.3002972752912
 30
0.0
  0
POINT
  5
5094
330
5088
100
AcDbEntity
  8
Defpoints
 62
     0
100
AcDbPoint
 10
374.2966981595092
 20
163.3002972752912
 30
0.0
  0
POINT
  5
5095
330
5088
100
AcDbEntity
  8
Defpoints
 62
     0
100
AcDbPoint
 10
374.2966981595092
 20
130.5123896935981
 30
0.0
  0
ENDBLK
  5
508A
330
5088
100
AcDbEntity
  8
0
100
AcDbBlockEnd
  0
BLOCK
  5
50F2
330
50F1
100
AcDbEntity
  8
0
100
AcDbBlockBegin
  2
*D26
 70
     1
 10
0.0
 20
0.0
 30
0.0
  3
*D26
  1

  0
LINE
  5
50F4
330
50F1
100
AcDbEntity
  8
寸法
 62
     0
370
    -2
100
AcDbLine
 10
233.8577572373189
 20
344.6087635329599
 30
0.0
 11
253.8390086455331
 21
344.6087635329599
 31
0.0
  0
LINE
  5
50F5
330
50F1
100
AcDbEntity
  8
寸法
 62
     0
370
    -2
100
AcDbLine
 10
206.3577572373189
 20
271.6087635329599
 30
0.0
 11
253.8390086455331
 21
271.6087635329599
 31
0.0
  0
LINE
  5
50F6
330
50F1
100
AcDbEntity
  8
寸法
 62
     0
370
    -2
100
AcDbLine
 10
253.8390086455331
 20
342.6087635329599
 30
0.0
 11
253.8390086455331
 21
273.6087635329599
 31
0.0
  0
INSERT
  5
50F7
330
50F1
100
AcDbEntity
  8
寸法
 62
     0
370
    -2
100
AcDbBlockReference
  2
_DOT
 10
253.8390086455331
 20
344.6087635329599
 30
0.0
 41
2.0
 42
2.0
 43
2.0
 50
90.0
  0
INSERT
  5
50F8
330
50F1
100
AcDbEntity
  8
寸法
 62
     0
370
    -2
100
AcDbBlockReference
  2
_DOT
 10
253.8390086455331
 20
271.6087635329599
 30
0.0
 41
2.0
 42
2.0
 43
2.0
 50
270.0
  0
MTEXT
  5
50F9
330
50F1
100
AcDbEntity
  8
寸法
 62
     0
100
AcDbMText
 10
246.3390086455331
 20
308.1087635329599
 30
0.0
 40
5.0
 41
0.0
 46
0.0
 71
     5
 72
     1
  1
\A1;73
  7
ＭＳ ゴシック
 11
0.0
 21
1.0
 31
0.0
 73
     1
 44
1.0
  0
POINT
  5
50FA
330
50F1
100
AcDbEntity
  8
Defpoints
 62
     0
100
AcDbPoint
 10
228.8577572373189
 20
344.6087635329599
 30
0.0
  0
POINT
  5
50FB
330
50F1
100
AcDbEntity
  8
Defpoints
 62
     0
100
AcDbPoint
 10
201.3577572373189
 20
271.6087635329599
 30
0.0
  0
POINT
  5
50FC
330
50F1
100
AcDbEntity
  8
Defpoints
 62
     0
100
AcDbPoint
 10
253.8390086455331
 20
271.6087635329599
 30
0.0
  0
ENDBLK
  5
50F3
330
50F1
100
AcDbEntity
  8
0
100
AcDbBlockEnd
  0
BLOCK
  5
516A
330
5169
100
AcDbEntity
  8
0
100
AcDbBlockBegin
  2
LW_POLYLINE_1
 70
     0
 10
0.0
 20
-285.0
 30
0.0
  3
LW_POLYLINE_1
  1

  0
ARC
  5
516B
330
5169
100
AcDbEntity
  8
102
  6
DASHED
 62
     1
100
AcDbCircle
 10
6.338303
 20
195.585296
 30
0.0
 40
480.6270910062725
100
AcDbArc
 50
269.244386
 51
269.451236
  0
ARC
  5
516C
330
5169
100
AcDbEntity
  8
102
  6
DASHED
 62
     1
100
AcDbCircle
 10
3.26846
 20
-124.923243
 30
0.0
 40
160.1038506981205
100
AcDbArc
 50
269.451236
 51
270.072022
  0
ARC
  5
516D
330
5169
100
AcDbEntity
  8
102
  6
DASHED
 62
     1
100
AcDbCircle
 10
3.349126
 20
-189.095749
 30
0.0
 40
95.93129416807574
100
AcDbArc
 50
270.072022
 51
271.107674
  0
ARC
  5
516E
330
5169
100
AcDbEntity
  8
102
  6
DASHED
 62
     1
100
AcDbCircle
 10
3.879887
 20
-216.54656
 30
0.0
 40
68.47535220261258
100
AcDbArc
 50
271.107674
 51
272.558299
  0
ARC
  5
516F
330
5169
100
AcDbEntity
  8
102
  6
DASHED
 62
     1
100
AcDbCircle
 10
4.556325
 20
-231.686023
 30
0.0
 40
53.3207850679044
100
AcDbArc
 50
272.558299
 51
274.422094
  0
ARC
  5
5170
330
5169
100
AcDbEntity
  8
102
  6
DASHED
 62
     1
100
AcDbCircle
 10
5.663751
 20
-246.006116
 30
0.0
 40
38.95793591933525
100
AcDbArc
 50
274.422094
 51
275.390632
  0
ARC
  5
5171
330
5169
100
AcDbEntity
  8
102
  6
DASHED
 62
     1
100
AcDbCircle
 10
6.602057
 20
-255.949714
 30
0.0
 40
28.9701646468723
100
AcDbArc
 50
275.390632
 51
276.6930130000001
  0
ARC
  5
5172
330
5169
100
AcDbEntity
  8
102
  6
DASHED
 62
     1
100
AcDbCircle
 10
7.354344
 20
-262.360374
 30
0.0
 40
22.51551625331317
100
AcDbArc
 50
276.6930130000001
 51
278.368075
  0
ARC
  5
5173
330
5169
100
AcDbEntity
  8
102
  6
DASHED
 62
     1
100
AcDbCircle
 10
7.90476
 20
-266.102208
 30
0.0
 40
18.73341637760561
100
AcDbArc
 50
278.368075
 51
280.380752
  0
ARC
  5
5174
330
5169
100
AcDbEntity
  8
102
  6
DASHED
 62
     1
100
AcDbCircle
 10
8.430331
 20
-268.971251
 30
0.0
 40
15.8166316496027
100
AcDbArc
 50
280.380752
 51
282.765659
  0
ARC
  5
5175
330
5169
100
AcDbEntity
  8
102
  6
DASHED
 62
     1
100
AcDbCircle
 10
8.873672
 20
-270.928049
 30
0.0
 40
13.81023895092374
100
AcDbArc
 50
282.765659
 51
284.707929
  0
ARC
  5
5176
330
5169
100
AcDbEntity
  8
102
  6
DASHED
 62
     1
100
AcDbCircle
 10
9.257893
 20
-272.391788
 30
0.0
 40
12.29691234562211
100
AcDbArc
 50
284.707929
 51
286.889789
  0
ARC
  5
5177
330
5169
100
AcDbEntity
  8
102
  6
DASHED
 62
     1
100
AcDbCircle
 10
9.660616
 20
-273.718156
 30
0.0
 40
10.91075343982437
100
AcDbArc
 50
286.889789
 51
289.3480529999999
  0
ARC
  5
5178
330
5169
100
AcDbEntity
  8
102
  6
DASHED
 62
     1
100
AcDbCircle
 10
9.997744
 20
-274.678259
 30
0.0
 40
9.893180846724952
100
AcDbArc
 50
289.3480529999999
 51
292.058206
  0
ARC
  5
5179
330
5169
100
AcDbEntity
  8
102
  6
DASHED
 62
     1
100
AcDbCircle
 10
10.348177
 20
-275.543081
 30
0.0
 40
8.960056903724725
100
AcDbArc
 50
292.058206
 51
295.05134
  0
ARC
  5
517A
330
5169
100
AcDbEntity
  8
102
  6
DASHED
 62
     1
100
AcDbCircle
 10
10.605638
 20
-276.093918
 30
0.0
 40
8.352021131919056
100
AcDbArc
 50
295.05134
 51
297.6515929999999
  0
ARC
  5
517B
330
5169
100
AcDbEntity
  8
102
  6
DASHED
 62
     1
100
AcDbCircle
 10
10.749063
 20
-276.367665
 30
0.0
 40
8.042977036552195
100
AcDbArc
 50
297.6515929999999
 51
300.35261
  0
ARC
  5
517C
330
5169
100
AcDbEntity
  8
102
  6
DASHED
 62
     1
100
AcDbCircle
 10
10.999542
 20
-276.795405
 30
0.0
 40
7.547294390056626
100
AcDbArc
 50
300.35261
 51
303.230286
  0
ARC
  5
517D
330
5169
100
AcDbEntity
  8
102
  6
DASHED
 62
     1
100
AcDbCircle
 10
11.168043
 20
-277.052606
 30
0.0
 40
7.239812428497568
100
AcDbArc
 50
303.230286
 51
306.228768
  0
ARC
  5
517E
330
5169
100
AcDbEntity
  8
102
  6
DASHED
 62
     1
100
AcDbCircle
 10
11.379789
 20
-277.341615
 30
0.0
 40
6.881535277433289
100
AcDbArc
 50
306.228768
 51
331.815904
  0
ARC
  5
517F
330
5169
100
AcDbEntity
  8
102
  6
DASHED
 62
     1
100
AcDbCircle
 10
2.910783
 20
-272.8036
 30
0.0
 40
16.48974254815899
100
AcDbArc
 50
331.815904
 51
332.964897
  0
ARC
  5
5180
330
5169
100
AcDbEntity
  8
102
  6
DASHED
 62
     1
100
AcDbCircle
 10
12.642207
 20
-277.769521
 30
0.0
 40
5.564497940185878
100
AcDbArc
 50
332.964897
 51
336.369231
  0
ARC
  5
5181
330
5169
100
AcDbEntity
  8
102
  6
DASHED
 62
     1
100
AcDbCircle
 10
-0.230191
 20
-272.137475
 30
0.0
 40
19.61506915979944
100
AcDbArc
 50
336.369231
 51
337.347616
  0
ARC
  5
5182
330
5169
100
AcDbEntity
  8
102
  6
DASHED
 62
     1
100
AcDbCircle
 10
12.32443
 20
-277.376931
 30
0.0
 40
6.011010349960711
100
AcDbArc
 50
337.347616
 51
340.5400179999999
  0
ARC
  5
5183
330
5169
100
AcDbEntity
  8
102
  6
DASHED
 62
     1
100
AcDbCircle
 10
-6.987325
 20
-270.553456
 30
0.0
 40
26.49279998346416
100
AcDbArc
 50
340.5400179999999
 51
341.264384
  0
ARC
  5
5184
330
5169
100
AcDbEntity
  8
102
  6
DASHED
 62
     1
100
AcDbCircle
 10
11.917698
 20
-276.965554
 30
0.0
 40
6.5299622077675
100
AcDbArc
 50
341.264384
 51
344.204448
  0
ARC
  5
5185
330
5169
100
AcDbEntity
  8
102
  6
DASHED
 62
     1
100
AcDbCircle
 10
-20.649007
 20
-267.752835
 30
0.0
 40
40.37467361762375
100
AcDbArc
 50
344.204448
 51
344.680023
  0
ARC
  5
5186
330
5169
100
AcDbEntity
  8
102
  6
DASHED
 62
     1
100
AcDbCircle
 10
8.94266
 20
-275.85929
 30
0.0
 40
9.692734203890124
100
AcDbArc
 50
344.680023
 51
350.7642299999999
  0
ARC
  5
5187
330
5169
100
AcDbEntity
  8
102
  6
DASHED
 62
     1
100
AcDbCircle
 10
4.133451
 20
-275.077287
 30
0.0
 40
14.56510733487807
100
AcDbArc
 50
350.7642299999999
 51
354.827658
  0
ARC
  5
5188
330
5169
100
AcDbEntity
  8
102
  6
DASHED
 62
     1
100
AcDbCircle
 10
9.511155
 20
-275.564079
 30
0.0
 40
9.165415985999845
100
AcDbArc
 50
354.827658
 51
357.001922
  0
ARC
  5
5189
330
5169
100
AcDbEntity
  8
102
  6
DASHED
 62
     1
100
AcDbCircle
 10
-3.76973
 20
-274.685653
 30
0.0
 40
22.47480909365246
100
AcDbArc
 50
356.536406
 51
357.423519
  0
ARC
  5
518A
330
5169
100
AcDbEntity
  8
102
  6
DASHED
 62
     1
100
AcDbCircle
 10
-18.809807
 20
-274.008873
 30
0.0
 40
37.53010516665247
100
AcDbArc
 50
357.423519
 51
357.955053
  0
ARC
  5
518B
330
5169
100
AcDbEntity
  8
102
  6
DASHED
 62
     1
100
AcDbCircle
 10
-93.875074
 20
-271.328576
 30
0.0
 40
112.6432089510239
100
AcDbArc
 50
357.955053
 51
358.1322050000001
  0
ENDBLK
  5
518C
330
5169
100
AcDbEntity
  8
0
100
AcDbBlockEnd
  0
BLOCK
  5
518F
330
518E
100
AcDbEntity
  8
0
100
AcDbBlockBegin
  2
LW_POLYLINE_2
 70
     0
 10
0.0
 20
-285.0
 30
0.0
  3
LW_POLYLINE_2
  1

  0
ARC
  5
5190
330
518E
100
AcDbEntity
  8
102
  6
DASHED
 62
     1
100
AcDbCircle
 10
-6.338303
 20
195.585296
 30
0.0
 40
480.6270910062725
100
AcDbArc
 50
270.548764
 51
270.755614
  0
ARC
  5
5191
330
518E
100
AcDbEntity
  8
102
  6
DASHED
 62
     1
100
AcDbCircle
 10
-3.268346
 20
-124.950678
 30
0.0
 40
160.0764165345946
100
AcDbArc
 50
269.927925
 51
270.548818
  0
ARC
  5
5192
330
518E
100
AcDbEntity
  8
102
  6
DASHED
 62
     1
100
AcDbCircle
 10
-3.34912
 20
-189.095112
 30
0.0
 40
95.93193135616426
100
AcDbArc
 50
268.8923290000001
 51
269.927974
  0
ARC
  5
5193
330
518E
100
AcDbEntity
  8
102
  6
DASHED
 62
     1
100
AcDbCircle
 10
-3.879693
 20
-216.540504
 30
0.0
 40
68.48141167907895
100
AcDbArc
 50
267.441765
 51
268.892262
  0
ARC
  5
5194
330
518E
100
AcDbEntity
  8
102
  6
DASHED
 62
     1
100
AcDbCircle
 10
-4.555311
 20
-231.669394
 30
0.0
 40
53.33744337191591
100
AcDbArc
 50
265.578198
 51
267.4414100000001
  0
ARC
  5
5195
330
518E
100
AcDbEntity
  8
102
  6
DASHED
 62
     1
100
AcDbCircle
 10
-5.632797
 20
-245.645533
 30
0.0
 40
39.31983224359698
100
AcDbArc
 50
264.613826
 51
265.573449
  0
ARC
  5
5196
330
518E
100
AcDbEntity
  8
102
  6
DASHED
 62
     1
100
AcDbCircle
 10
-6.623671
 20
-256.153921
 30
0.0
 40
28.76483081771744
100
AcDbArc
 50
263.302338
 51
264.614017
  0
ARC
  5
5197
330
518E
100
AcDbEntity
  8
102
  6
DASHED
 62
     1
100
AcDbCircle
 10
-7.338407
 20
-262.239816
 30
0.0
 40
22.63710941236611
100
AcDbArc
 50
261.636424
 51
263.302488
  0
ARC
  5
5198
330
518E
100
AcDbEntity
  8
102
  6
DASHED
 62
     1
100
AcDbCircle
 10
-7.918216
 20
-266.183715
 30
0.0
 40
18.65081874023229
100
AcDbArc
 50
259.614791
 51
261.636382
  0
ARC
  5
5199
330
518E
100
AcDbEntity
  8
102
  6
DASHED
 62
     1
100
AcDbCircle
 10
-8.417301
 20
-268.90762
 30
0.0
 40
15.88156879085616
100
AcDbArc
 50
257.239218
 51
259.614372
  0
ARC
  5
519A
330
518E
100
AcDbEntity
  8
102
  6
DASHED
 62
     1
100
AcDbCircle
 10
-8.86217
 20
-270.880999
 30
0.0
 40
13.85866713597122
100
AcDbArc
 50
255.295465
 51
257.2309470000001
  0
ARC
  5
519B
330
518E
100
AcDbEntity
  8
102
  6
DASHED
 62
     1
100
AcDbCircle
 10
-9.270051
 20
-272.434755
 30
0.0
 40
12.25226656379967
100
AcDbArc
 50
253.106235
 51
255.296047
  0
ARC
  5
519C
330
518E
100
AcDbEntity
  8
102
  6
DASHED
 62
     1
100
AcDbCircle
 10
-9.65084
 20
-273.688278
 30
0.0
 40
10.94218251646854
100
AcDbArc
 50
250.655478
 51
253.10668
  0
ARC
  5
519D
330
518E
100
AcDbEntity
  8
102
  6
DASHED
 62
     1
100
AcDbCircle
 10
-10.007292
 20
-274.703522
 30
0.0
 40
9.866181011603244
100
AcDbArc
 50
247.938085
 51
250.655656
  0
ARC
  5
519E
330
518E
100
AcDbEntity
  8
102
  6
DASHED
 62
     1
100
AcDbCircle
 10
-10.338703
 20
-275.521349
 30
0.0
 40
8.983756411658591
100
AcDbArc
 50
244.952609
 51
247.937845
  0
ARC
  5
519F
330
518E
100
AcDbEntity
  8
102
  6
DASHED
 62
     1
100
AcDbCircle
 10
-10.583601
 20
-276.04943
 30
0.0
 40
8.401655318985568
100
AcDbArc
 50
242.356089
 51
244.940978
  0
ARC
  5
51A0
330
518E
100
AcDbEntity
  8
102
  6
DASHED
 62
     1
100
AcDbCircle
 10
-10.773513
 20
-276.41177
 30
0.0
 40
7.992562002273507
100
AcDbArc
 50
239.63887
 51
242.356927
  0
ARC
  5
51A1
330
518E
100
AcDbEntity
  8
102
  6
DASHED
 62
     1
100
AcDbCircle
 10
-10.977816
 20
-276.760354
 30
0.0
 40
7.588519200629712
100
AcDbArc
 50
236.777532
 51
239.639572
  0
ARC
  5
51A2
330
518E
100
AcDbEntity
  8
102
  6
DASHED
 62
     1
100
AcDbCircle
 10
-11.190836
 20
-277.085486
 30
0.0
 40
7.199819196038246
100
AcDbArc
 50
233.762902
 51
236.778044
  0
ARC
  5
51A3
330
518E
100
AcDbEntity
  8
102
  6
DASHED
 62
     1
100
AcDbCircle
 10
-11.373947
 20
-277.336541
 30
0.0
 40
6.889081659760685
100
AcDbArc
 50
208.198347
 51
233.75698
  0
ARC
  5
51A4
330
518E
100
AcDbEntity
  8
102
  6
DASHED
 62
     1
100
AcDbCircle
 10
-10.304674
 20
-276.670611
 30
0.0
 40
8.146528633835391
100
AcDbArc
 50
206.446676
 51
208.772523
  0
ARC
  5
51A5
330
518E
100
AcDbEntity
  8
102
  6
DASHED
 62
     1
100
AcDbCircle
 10
-9.987933
 20
-276.512984
 30
0.0
 40
8.500323813340065
100
AcDbArc
 50
204.218754
 51
206.447118
  0
ARC
  5
51A6
330
518E
100
AcDbEntity
  8
102
  6
DASHED
 62
     1
100
AcDbCircle
 10
-9.594627
 20
-276.336544
 30
0.0
 40
8.9313923618684
100
AcDbArc
 50
202.0671649999999
 51
204.215987
  0
ARC
  5
51A7
330
518E
100
AcDbEntity
  8
102
  6
DASHED
 62
     1
100
AcDbCircle
 10
-9.07634
 20
-276.126451
 30
0.0
 40
9.490642492495045
100
AcDbArc
 50
200.045289
 51
202.067077
  0
ARC
  5
51A8
330
518E
100
AcDbEntity
  8
102
  6
DASHED
 62
     1
100
AcDbCircle
 10
-8.47839
 20
-275.908275
 30
0.0
 40
10.12715214932392
100
AcDbArc
 50
198.150285
 51
200.045314
  0
ARC
  5
51A9
330
518E
100
AcDbEntity
  8
102
  6
DASHED
 62
     1
100
AcDbCircle
 10
-7.79326
 20
-275.683652
 30
0.0
 40
10.84816456085701
100
AcDbArc
 50
196.380773
 51
198.150395
  0
ARC
  5
51AA
330
518E
100
AcDbEntity
  8
102
  6
DASHED
 62
     1
100
AcDbCircle
 10
-7.011346
 20
-275.45377
 30
0.0
 40
11.66317030935822
100
AcDbArc
 50
194.734584
 51
196.380946
  0
ARC
  5
51AB
330
518E
100
AcDbEntity
  8
102
  6
DASHED
 62
     1
100
AcDbCircle
 10
-6.759415
 20
-275.384149
 30
0.0
 40
11.9245251789378
100
AcDbArc
 50
189.805523
 51
194.750223
  0
ARC
  5
51AC
330
518E
100
AcDbEntity
  8
102
  6
DASHED
 62
     1
100
AcDbCircle
 10
-7.181701
 20
-275.46259
 30
0.0
 40
11.49505026163078
100
AcDbArc
 50
184.629392
 51
189.778719
  0
ARC
  5
51AD
330
518E
100
AcDbEntity
  8
102
  6
DASHED
 62
     1
100
AcDbCircle
 10
-2.665375
 20
-275.075144
 30
0.0
 40
16.02792768743403
100
AcDbArc
 50
183.463569
 51
184.706851
  0
ARC
  5
51AE
330
518E
100
AcDbEntity
  8
102
  6
DASHED
 62
     1
100
AcDbCircle
 10
3.76973
 20
-274.685653
 30
0.0
 40
22.47480909365261
100
AcDbArc
 50
182.576481
 51
183.463594
  0
ARC
  5
51AF
330
518E
100
AcDbEntity
  8
102
  6
DASHED
 62
     1
100
AcDbCircle
 10
18.799014
 20
-274.009309
 30
0.0
 40
37.51930396744923
100
AcDbArc
 50
182.044871
 51
182.576557
  0
ARC
  5
51B0
330
518E
100
AcDbEntity
  8
102
  6
DASHED
 62
     1
100
AcDbCircle
 10
93.901175
 20
-271.327684
 30
0.0
 40
112.669324974511
100
AcDbArc
 50
181.867815
 51
182.044927
  0
ENDBLK
  5
51B1
330
518E
100
AcDbEntity
  8
0
100
AcDbBlockEnd
  0
BLOCK
  5
526D
330
526C
100
AcDbEntity
  8
0
100
AcDbBlockBegin
  2
*D29
 70
     1
 10
0.0
 20
0.0
 30
0.0
  3
*D29
  1

  0
LINE
  5
526F
330
526C
100
AcDbEntity
  8
寸法
 62
     0
370
    -2
100
AcDbLine
 10
169.5237093085058
 20
354.9517354443373
 30
0.0
 11
169.5237093085058
 21
363.1756717404791
 31
0.0
  0
LINE
  5
5270
330
526C
100
AcDbEntity
  8
寸法
 62
     0
370
    -2
100
AcDbLine
 10
207.5237093085058
 20
354.9517354443373
 30
0.0
 11
207.5237093085058
 21
363.1756717404791
 31
0.0
  0
LINE
  5
5271
330
526C
100
AcDbEntity
  8
寸法
 62
     0
370
    -2
100
AcDbLine
 10
171.5237093085058
 20
363.1756717404791
 30
0.0
 11
205.5237093085058
 21
363.1756717404791
 31
0.0
  0
INSERT
  5
5272
330
526C
100
AcDbEntity
  8
寸法
 62
     0
370
    -2
100
AcDbBlockReference
  2
_DOT
 10
169.5237093085058
 20
363.1756717404791
 30
0.0
 41
2.0
 42
2.0
 43
2.0
 50
180.0
  0
INSERT
  5
5273
330
526C
100
AcDbEntity
  8
寸法
 62
     0
370
    -2
100
AcDbBlockReference
  2
_DOT
 10
207.5237093085058
 20
363.1756717404791
 30
0.0
 41
2.0
 42
2.0
 43
2.0
  0
MTEXT
  5
5274
330
526C
100
AcDbEntity
  8
寸法
 62
     0
100
AcDbMText
 10
188.5237093085058
 20
370.6756717404791
 30
0.0
 40
5.0
 41
0.0
 46
0.0
 71
     5
 72
     1
  1
\A1;38
  7
ＭＳ ゴシック
 73
     1
 44
1.0
  0
POINT
  5
5275
330
526C
100
AcDbEntity
  8
Defpoints
 62
     0
100
AcDbPoint
 10
169.5237093085058
 20
349.9517354443373
 30
0.0
  0
POINT
  5
5276
330
526C
100
AcDbEntity
  8
Defpoints
 62
     0
100
AcDbPoint
 10
207.5237093085058
 20
349.9517354443373
 30
0.0
  0
POINT
  5
5277
330
526C
100
AcDbEntity
  8
Defpoints
 62
     0
100
AcDbPoint
 10
207.5237093085058
 20
363.1756717404791
 30
0.0
  0
ENDBLK
  5
526E
330
526C
100
AcDbEntity
  8
0
100
AcDbBlockEnd
  0
BLOCK
  5
5279
330
5278
100
AcDbEntity
  8
0
100
AcDbBlockBegin
  2
*D30
 70
     1
 10
0.0
 20
0.0
 30
0.0
  3
*D30
  1

  0
LINE
  5
527B
330
5278
100
AcDbEntity
  8
寸法
 62
     0
370
    -2
100
AcDbLine
 10
161.0237093085059
 20
349.6087635329599
 30
0.0
 11
161.0237093085059
 21
378.5473272247522
 31
0.0
  0
LINE
  5
527C
330
5278
100
AcDbEntity
  8
寸法
 62
     0
370
    -2
100
AcDbLine
 10
216.0237093085059
 20
349.6087635329599
 30
0.0
 11
216.0237093085059
 21
378.5473272247522
 31
0.0
  0
LINE
  5
527D
330
5278
100
AcDbEntity
  8
寸法
 62
     0
370
    -2
100
AcDbLine
 10
163.0237093085059
 20
378.5473272247522
 30
0.0
 11
214.0237093085059
 21
378.5473272247522
 31
0.0
  0
INSERT
  5
527E
330
5278
100
AcDbEntity
  8
寸法
 62
     0
370
    -2
100
AcDbBlockReference
  2
_DOT
 10
161.0237093085059
 20
378.5473272247522
 30
0.0
 41
2.0
 42
2.0
 43
2.0
 50
180.0
  0
INSERT
  5
527F
330
5278
100
AcDbEntity
  8
寸法
 62
     0
370
    -2
100
AcDbBlockReference
  2
_DOT
 10
216.0237093085059
 20
378.5473272247522
 30
0.0
 41
2.0
 42
2.0
 43
2.0
  0
MTEXT
  5
5280
330
5278
100
AcDbEntity
  8
寸法
 62
     0
100
AcDbMText
 10
188.5237093085059
 20
386.0473272247522
 30
0.0
 40
5.0
 41
0.0
 46
0.0
 71
     5
 72
     1
  1
\A1;55
  7
ＭＳ ゴシック
 73
     1
 44
1.0
  0
POINT
  5
5281
330
5278
100
AcDbEntity
  8
Defpoints
 62
     0
100
AcDbPoint
 10
161.0237093085059
 20
344.6087635329599
 30
0.0
  0
POINT
  5
5282
330
5278
100
AcDbEntity
  8
Defpoints
 62
     0
100
AcDbPoint
 10
216.0237093085059
 20
344.6087635329599
 30
0.0
  0
POINT
  5
5283
330
5278
100
AcDbEntity
  8
Defpoints
 62
     0
100
AcDbPoint
 10
216.0237093085059
 20
378.5473272247522
 30
0.0
  0
ENDBLK
  5
527A
330
5278
100
AcDbEntity
  8
0
100
AcDbBlockEnd
  0
BLOCK
  5
5285
330
5284
100
AcDbEntity
  8
0
100
AcDbBlockBegin
  2
*D31
 70
     1
 10
0.0
 20
0.0
 30
0.0
  3
*D31
  1

  0
LINE
  5
5287
330
5284
100
AcDbEntity
  8
寸法
 62
     0
370
    -2
100
AcDbLine
 10
156.0237093085059
 20
337.6087635329599
 30
0.0
 11
144.7682148944726
 21
337.6087635329599
 31
0.0
  0
LINE
  5
5288
330
5284
100
AcDbEntity
  8
寸法
 62
     0
370
    -2
100
AcDbLine
 10
156.0237093085059
 20
344.6087635329599
 30
0.0
 11
144.7682148944726
 21
344.6087635329599
 31
0.0
  0
LINE
  5
5289
330
5284
100
AcDbEntity
  8
寸法
 62
     0
370
    -2
100
AcDbLine
 10
144.7682148944726
 20
339.6087635329599
 30
0.0
 11
144.7682148944726
 21
342.6087635329599
 31
0.0
  0
INSERT
  5
528A
330
5284
100
AcDbEntity
  8
寸法
 62
     0
370
    -2
100
AcDbBlockReference
  2
_DOT
 10
144.7682148944726
 20
337.6087635329599
 30
0.0
 41
2.0
 42
2.0
 43
2.0
 50
270.0
  0
INSERT
  5
528B
330
5284
100
AcDbEntity
  8
寸法
 62
     0
370
    -2
100
AcDbBlockReference
  2
_DOT
 10
144.7682148944726
 20
344.6087635329599
 30
0.0
 41
2.0
 42
2.0
 43
2.0
 50
90.0
  0
MTEXT
  5
528C
330
5284
100
AcDbEntity
  8
寸法
 62
     0
100
AcDbMText
 10
137.2682148944726
 20
341.1087635329598
 30
0.0
 40
5.0
 41
0.0
 46
0.0
 71
     5
 72
     1
  1
\A1;7
  7
ＭＳ ゴシック
 11
0.0
 21
1.0
 31
0.0
 73
     1
 44
1.0
  0
POINT
  5
528D
330
5284
100
AcDbEntity
  8
Defpoints
 62
     0
100
AcDbPoint
 10
161.0237093085059
 20
337.6087635329599
 30
0.0
  0
POINT
  5
528E
330
5284
100
AcDbEntity
  8
Defpoints
 62
     0
100
AcDbPoint
 10
161.0237093085059
 20
344.6087635329599
 30
0.0
  0
POINT
  5
528F
330
5284
100
AcDbEntity
  8
Defpoints
 62
     0
100
AcDbPoint
 10
144.7682148944726
 20
344.6087635329599
 30
0.0
  0
ENDBLK
  5
5286
330
5284
100
AcDbEntity
  8
0
100
AcDbBlockEnd
  0
BLOCK
  5
5291
330
5290
100
AcDbEntity
  8
0
100
AcDbBlockBegin
  2
*D32
 70
     1
 10
0.0
 20
0.0
 30
0.0
  3
*D32
  1

  0
LINE
  5
5293
330
5290
100
AcDbEntity
  8
寸法
 62
     0
370
    -2
100
AcDbLine
 10
693.3480841498555
 20
292.60876353296
 30
0.0
 11
676.0925897358221
 21
292.60876353296
 31
0.0
  0
LINE
  5
5294
330
5290
100
AcDbEntity
  8
寸法
 62
     0
370
    -2
100
AcDbLine
 10
687.3480841498555
 20
337.60876353296
 30
0.0
 11
676.0925897358221
 21
337.60876353296
 31
0.0
  0
LINE
  5
5295
330
5290
100
AcDbEntity
  8
寸法
 62
     0
370
    -2
100
AcDbLine
 10
676.0925897358221
 20
294.60876353296
 30
0.0
 11
676.0925897358221
 21
335.60876353296
 31
0.0
  0
INSERT
  5
5296
330
5290
100
AcDbEntity
  8
寸法
 62
     0
370
    -2
100
AcDbBlockReference
  2
_DOT
 10
676.0925897358221
 20
292.60876353296
 30
0.0
 41
2.0
 42
2.0
 43
2.0
 50
270.0
  0
INSERT
  5
5297
330
5290
100
AcDbEntity
  8
寸法
 62
     0
370
    -2
100
AcDbBlockReference
  2
_DOT
 10
676.0925897358221
 20
337.60876353296
 30
0.0
 41
2.0
 42
2.0
 43
2.0
 50
90.0
  0
MTEXT
  5
5298
330
5290
100
AcDbEntity
  8
寸法
 62
     0
100
AcDbMText
 10
668.5925897358221
 20
315.10876353296
 30
0.0
 40
5.0
 41
0.0
 46
0.0
 71
     5
 72
     1
  1
\A1;X
  7
ＭＳ ゴシック
 11
0.0
 21
1.0
 31
0.0
 73
     1
 44
1.0
  0
POINT
  5
5299
330
5290
100
AcDbEntity
  8
Defpoints
 62
     0
100
AcDbPoint
 10
698.3480841498555
 20
292.60876353296
 30
0.0
  0
POINT
  5
529A
330
5290
100
AcDbEntity
  8
Defpoints
 62
     0
100
AcDbPoint
 10
692.3480841498555
 20
337.60876353296
 30
0.0
  0
POINT
  5
529B
330
5290
100
AcDbEntity
  8
Defpoints
 62
     0
100
AcDbPoint
 10
676.0925897358221
 20
337.60876353296
 30
0.0
  0
ENDBLK
  5
5292
330
5290
100
AcDbEntity
  8
0
100
AcDbBlockEnd
  0
BLOCK
  5
52AE
330
52AD
100
AcDbEntity
  8
0
100
AcDbBlockBegin
  2
*D33
 70
     1
 10
0.0
 20
0.0
 30
0.0
  3
*D33
  1

  0
LINE
  5
52B0
330
52AD
100
AcDbEntity
  8
寸法
 62
     0
370
    -2
100
AcDbLine
 10
376.9335075793993
 20
177.4531603118751
 30
0.0
 11
376.9335075793993
 21
200.2397838893572
 31
0.0
  0
LINE
  5
52B1
330
52AD
100
AcDbEntity
  8
寸法
 62
     0
370
    -2
100
AcDbLine
 10
395.9335075793993
 20
191.6286728320841
 30
0.0
 11
395.9335075793993
 21
200.2397838893572
 31
0.0
  0
LINE
  5
52B2
330
52AD
100
AcDbEntity
  8
寸法
 62
     0
370
    -2
100
AcDbLine
 10
378.9335075793993
 20
200.2397838893572
 30
0.0
 11
393.9335075793993
 21
200.2397838893572
 31
0.0
  0
INSERT
  5
52B3
330
52AD
100
AcDbEntity
  8
寸法
 62
     0
370
    -2
100
AcDbBlockReference
  2
_DOT
 10
376.9335075793993
 20
200.2397838893572
 30
0.0
 41
2.0
 42
2.0
 43
2.0
 50
180.0
  0
INSERT
  5
52B4
330
52AD
100
AcDbEntity
  8
寸法
 62
     0
370
    -2
100
AcDbBlockReference
  2
_DOT
 10
395.9335075793993
 20
200.2397838893572
 30
0.0
 41
2.0
 42
2.0
 43
2.0
  0
MTEXT
  5
52B5
330
52AD
100
AcDbEntity
  8
寸法
 62
     0
100
AcDbMText
 10
386.4335075793993
 20
207.7397838893572
 30
0.0
 40
5.0
 41
0.0
 46
0.0
 71
     5
 72
     1
  1
\A1;19
  7
ＭＳ ゴシック
 73
     1
 44
1.0
  0
POINT
  5
52B6
330
52AD
100
AcDbEntity
  8
Defpoints
 62
     0
100
AcDbPoint
 10
376.9335075793993
 20
172.4531603118751
 30
0.0
  0
POINT
  5
52B7
330
52AD
100
AcDbEntity
  8
Defpoints
 62
     0
100
AcDbPoint
 10
395.9335075793993
 20
186.6286728320841
 30
0.0
  0
POINT
  5
52B8
330
52AD
100
AcDbEntity
  8
Defpoints
 62
     0
100
AcDbPoint
 10
395.9335075793993
 20
200.2397838893572
 30
0.0
  0
ENDBLK
  5
52AF
330
52AD
100
AcDbEntity
  8
0
100
AcDbBlockEnd
  0
BLOCK
  5
52BA
330
52B9
100
AcDbEntity
  8
0
100
AcDbBlockBegin
  2
*D34
 70
     1
 10
0.0
 20
0.0
 30
0.0
  3
*D34
  1

  0
LINE
  5
52BC
330
52B9
100
AcDbEntity
  8
寸法
 62
     0
370
    -2
100
AcDbLine
 10
395.9335075793993
 20
191.6286728320841
 30
0.0
 11
395.9335075793993
 21
200.2397838893572
 31
0.0
  0
LINE
  5
52BD
330
52B9
100
AcDbEntity
  8
寸法
 62
     0
370
    -2
100
AcDbLine
 10
414.9335075793993
 20
177.4531603118751
 30
0.0
 11
414.9335075793993
 21
200.2397838893572
 31
0.0
  0
LINE
  5
52BE
330
52B9
100
AcDbEntity
  8
寸法
 62
     0
370
    -2
100
AcDbLine
 10
397.9335075793993
 20
200.2397838893572
 30
0.0
 11
412.9335075793993
 21
200.2397838893572
 31
0.0
  0
INSERT
  5
52BF
330
52B9
100
AcDbEntity
  8
寸法
 62
     0
370
    -2
100
AcDbBlockReference
  2
_DOT
 10
395.9335075793993
 20
200.2397838893572
 30
0.0
 41
2.0
 42
2.0
 43
2.0
 50
180.0
  0
INSERT
  5
52C0
330
52B9
100
AcDbEntity
  8
寸法
 62
     0
370
    -2
100
AcDbBlockReference
  2
_DOT
 10
414.9335075793993
 20
200.2397838893572
 30
0.0
 41
2.0
 42
2.0
 43
2.0
  0
MTEXT
  5
52C1
330
52B9
100
AcDbEntity
  8
寸法
 62
     0
100
AcDbMText
 10
405.4335075793993
 20
207.7397838893572
 30
0.0
 40
5.0
 41
0.0
 46
0.0
 71
     5
 72
     1
  1
\A1;19
  7
ＭＳ ゴシック
 73
     1
 44
1.0
  0
POINT
  5
52C2
330
52B9
100
AcDbEntity
  8
Defpoints
 62
     0
100
AcDbPoint
 10
395.9335075793993
 20
186.6286728320841
 30
0.0
  0
POINT
  5
52C3
330
52B9
100
AcDbEntity
  8
Defpoints
 62
     0
100
AcDbPoint
 10
414.9335075793993
 20
172.4531603118751
 30
0.0
  0
POINT
  5
52C4
330
52B9
100
AcDbEntity
  8
Defpoints
 62
     0
100
AcDbPoint
 10
414.9335075793993
 20
200.2397838893572
 30
0.0
  0
ENDBLK
  5
52BB
330
52B9
100
AcDbEntity
  8
0
100
AcDbBlockEnd
  0
BLOCK
  5
52C6
330
52C5
100
AcDbEntity
  8
0
100
AcDbBlockBegin
  2
*D35
 70
     1
 10
0.0
 20
0.0
 30
0.0
  3
*D35
  1

  0
LINE
  5
52C8
330
52C5
100
AcDbEntity
  8
寸法
 62
     0
370
    -2
100
AcDbLine
 10
414.9335075793993
 20
158.3002972752911
 30
0.0
 11
414.9335075793993
 21
130.512389693598
 31
0.0
  0
LINE
  5
52C9
330
52C5
100
AcDbEntity
  8
寸法
 62
     0
370
    -2
100
AcDbLine
 10
376.9335075793993
 20
158.3002972752911
 30
0.0
 11
376.9335075793993
 21
130.512389693598
 31
0.0
  0
LINE
  5
52CA
330
52C5
100
AcDbEntity
  8
寸法
 62
     0
370
    -2
100
AcDbLine
 10
376.9335075793993
 20
130.512389693598
 30
0.0
 11
362.9435075793993
 21
130.512389693598
 31
0.0
  0
LINE
  5
52CB
330
52C5
100
AcDbEntity
  8
寸法
 62
     0
370
    -2
100
AcDbLine
 10
412.9335075793993
 20
130.512389693598
 30
0.0
 11
378.9335075793993
 21
130.512389693598
 31
0.0
  0
LINE
  5
52CC
330
52C5
100
AcDbEntity
  8
寸法
 62
     0
370
    -2
100
AcDbLine
 10
378.9335075793993
 20
130.512389693598
 30
0.0
 11
380.9335075793993
 21
130.512389693598
 31
0.0
  0
INSERT
  5
52CD
330
52C5
100
AcDbEntity
  8
寸法
 62
     0
370
    -2
100
AcDbBlockReference
  2
_DOT
 10
414.9335075793993
 20
130.512389693598
 30
0.0
 41
2.0
 42
2.0
 43
2.0
  0
INSERT
  5
52CE
330
52C5
100
AcDbEntity
  8
寸法
 62
     0
370
    -2
100
AcDbBlockReference
  2
_DOT
 10
376.9335075793993
 20
130.512389693598
 30
0.0
 41
2.0
 42
2.0
 43
2.0
 50
180.0
  0
MTEXT
  5
52CF
330
52C5
100
AcDbEntity
  8
寸法
 62
     0
100
AcDbMText
 10
367.9385075793993
 20
135.037389693598
 30
0.0
 40
5.0
 41
0.0
 46
0.0
 71
     5
 72
     1
  1
\A1;ø8
  7
ＭＳ ゴシック
 73
     1
 44
1.0
  0
POINT
  5
52D0
330
52C5
100
AcDbEntity
  8
Defpoints
 62
     0
100
AcDbPoint
 10
414.9335075793993
 20
163.3002972752911
 30
0.0
  0
POINT
  5
52D1
330
52C5
100
AcDbEntity
  8
Defpoints
 62
     0
100
AcDbPoint
 10
376.9335075793993
 20
163.3002972752911
 30
0.0
  0
POINT
  5
52D2
330
52C5
100
AcDbEntity
  8
Defpoints
 62
     0
100
AcDbPoint
 10
376.9335075793993
 20
130.512389693598
 30
0.0
  0
ENDBLK
  5
52C7
330
52C5
100
AcDbEntity
  8
0
100
AcDbBlockEnd
  0
BLOCK
  5
52DD
330
52DC
100
AcDbEntity
  8
0
100
AcDbBlockBegin
  2
*D36
 70
     1
 10
0.0
 20
0.0
 30
0.0
  3
*D36
  1

  0
LINE
  5
52DF
330
52DC
100
AcDbEntity
  8
寸法
 62
     0
370
    -2
100
AcDbLine
 10
846.6708507204606
 20
301.60876353296
 30
0.0
 11
846.6708507204606
 21
338.7624129389063
 31
0.0
  0
LINE
  5
52E0
330
52DC
100
AcDbEntity
  8
寸法
 62
     0
370
    -2
100
AcDbLine
 10
901.6708507204606
 20
301.60876353296
 30
0.0
 11
901.6708507204606
 21
338.7624129389063
 31
0.0
  0
LINE
  5
52E1
330
52DC
100
AcDbEntity
  8
寸法
 62
     0
370
    -2
100
AcDbLine
 10
848.6708507204606
 20
338.7624129389063
 30
0.0
 11
899.6708507204606
 21
338.7624129389063
 31
0.0
  0
INSERT
  5
52E2
330
52DC
100
AcDbEntity
  8
寸法
 62
     0
370
    -2
100
AcDbBlockReference
  2
_DOT
 10
846.6708507204606
 20
338.7624129389063
 30
0.0
 41
2.0
 42
2.0
 43
2.0
 50
180.0
  0
INSERT
  5
52E3
330
52DC
100
AcDbEntity
  8
寸法
 62
     0
370
    -2
100
AcDbBlockReference
  2
_DOT
 10
901.6708507204606
 20
338.7624129389063
 30
0.0
 41
2.0
 42
2.0
 43
2.0
  0
MTEXT
  5
52E4
330
52DC
100
AcDbEntity
  8
寸法
 62
     0
100
AcDbMText
 10
874.1708507204606
 20
346.2624129389063
 30
0.0
 40
5.0
 41
0.0
 46
0.0
 71
     5
 72
     1
  1
\A1;55
  7
ＭＳ ゴシック
 73
     1
 44
1.0
  0
POINT
  5
52E5
330
52DC
100
AcDbEntity
  8
Defpoints
 62
     0
100
AcDbPoint
 10
846.6708507204606
 20
296.60876353296
 30
0.0
  0
POINT
  5
52E6
330
52DC
100
AcDbEntity
  8
Defpoints
 62
     0
100
AcDbPoint
 10
901.6708507204606
 20
296.60876353296
 30
0.0
  0
POINT
  5
52E7
330
52DC
100
AcDbEntity
  8
Defpoints
 62
     0
100
AcDbPoint
 10
901.6708507204606
 20
338.7624129389063
 30
0.0
  0
ENDBLK
  5
52DE
330
52DC
100
AcDbEntity
  8
0
100
AcDbBlockEnd
  0
BLOCK
  5
52F0
330
52EF
100
AcDbEntity
  8
0
100
AcDbBlockBegin
  2
*D37
 70
     1
 10
0.0
 20
0.0
 30
0.0
  3
*D37
  1

  0
LINE
  5
52F2
330
52EF
100
AcDbEntity
  8
寸法
 62
     0
370
    -2
100
AcDbLine
 10
377.9346160877975
 20
342.6768788067351
 30
0.0
 11
349.13319909769
 21
342.6768788067351
 31
0.0
  0
LINE
  5
52F3
330
52EF
100
AcDbEntity
  8
寸法
 62
     0
370
    -2
100
AcDbLine
 10
377.9346160877975
 20
287.6768788067351
 30
0.0
 11
349.13319909769
 21
287.6768788067351
 31
0.0
  0
LINE
  5
52F4
330
52EF
100
AcDbEntity
  8
寸法
 62
     0
370
    -2
100
AcDbLine
 10
349.13319909769
 20
340.6768788067351
 30
0.0
 11
349.13319909769
 21
289.6768788067351
 31
0.0
  0
INSERT
  5
52F5
330
52EF
100
AcDbEntity
  8
寸法
 62
     0
370
    -2
100
AcDbBlockReference
  2
_DOT
 10
349.13319909769
 20
342.6768788067351
 30
0.0
 41
2.0
 42
2.0
 43
2.0
 50
90.0
  0
INSERT
  5
52F6
330
52EF
100
AcDbEntity
  8
寸法
 62
     0
370
    -2
100
AcDbBlockReference
  2
_DOT
 10
349.13319909769
 20
287.6768788067351
 30
0.0
 41
2.0
 42
2.0
 43
2.0
 50
270.0
  0
MTEXT
  5
52F7
330
52EF
100
AcDbEntity
  8
寸法
 62
     0
100
AcDbMText
 10
341.63319909769
 20
315.1768788067351
 30
0.0
 40
5.0
 41
0.0
 46
0.0
 71
     5
 72
     1
  1
\A1;55
  7
ＭＳ ゴシック
 11
0.0
 21
1.0
 31
0.0
 73
     1
 44
1.0
  0
POINT
  5
52F8
330
52EF
100
AcDbEntity
  8
Defpoints
 62
     0
100
AcDbPoint
 10
382.9346160877975
 20
342.6768788067351
 30
0.0
  0
POINT
  5
52F9
330
52EF
100
AcDbEntity
  8
Defpoints
 62
     0
100
AcDbPoint
 10
382.9346160877975
 20
287.6768788067351
 30
0.0
  0
POINT
  5
52FA
330
52EF
100
AcDbEntity
  8
Defpoints
 62
     0
100
AcDbPoint
 10
349.13319909769
 20
287.6768788067351
 30
0.0
  0
ENDBLK
  5
52F1
330
52EF
100
AcDbEntity
  8
0
100
AcDbBlockEnd
  0
BLOCK
  5
532C
330
532B
100
AcDbEntity
  8
0
100
AcDbBlockBegin
  2
*D38
 70
     1
 10
0.0
 20
0.0
 30
0.0
  3
*D38
  1

  0
LINE
  5
532D
330
532B
100
AcDbEntity
  8
寸法
 62
     0
370
    -2
100
AcDbLine
 10
38.56035812677101
 20
51.0
 30
0.0
 11
10.0
 21
51.0
 31
0.0
  0
LINE
  5
532E
330
532B
100
AcDbEntity
  8
寸法
 62
     0
370
    -2
100
AcDbLine
 10
38.56035812677101
 20
1.0
 30
0.0
 11
9.999999999999998
 21
1.0
 31
0.0
  0
LINE
  5
532F
330
532B
100
AcDbEntity
  8
寸法
 62
     0
370
    -2
100
AcDbLine
 10
10.0
 20
49.0
 30
0.0
 11
9.999999999999998
 21
3.0
 31
0.0
  0
INSERT
  5
5330
330
532B
100
AcDbEntity
  8
寸法
 62
     0
370
    -2
100
AcDbBlockReference
  2
_DOT
 10
10.0
 20
51.0
 30
0.0
 41
2.0
 42
2.0
 43
2.0
 50
90.0
  0
INSERT
  5
5331
330
532B
100
AcDbEntity
  8
寸法
 62
     0
370
    -2
100
AcDbBlockReference
  2
_DOT
 10
9.999999999999998
 20
1.0
 30
0.0
 41
2.0
 42
2.0
 43
2.0
 50
270.0
  0
MTEXT
  5
5332
330
532B
100
AcDbEntity
  8
寸法
 62
     0
100
AcDbMText
 10
2.5
 20
26.00000000000006
 30
0.0
 40
5.0
 41
0.0
 46
0.0
 71
     5
 72
     1
  1
\A1;50
  7
ＭＳ ゴシック
 11
7.105427357601002E-17
 21
1.0
 31
0.0
 73
     1
 44
1.0
  0
POINT
  5
5333
330
532B
100
AcDbEntity
  8
Defpoints
 62
     0
100
AcDbPoint
 10
43.56035812677101
 20
51.0
 30
0.0
  0
POINT
  5
5334
330
532B
100
AcDbEntity
  8
Defpoints
 62
     0
100
AcDbPoint
 10
43.56035812677101
 20
1.0
 30
0.0
  0
POINT
  5
5335
330
532B
100
AcDbEntity
  8
Defpoints
 62
     0
100
AcDbPoint
 10
10.0
 20
1.000000000000002
 30
0.0
  0
ENDBLK
  5
5336
330
532B
100
AcDbEntity
  8
0
100
AcDbBlockEnd
  0
BLOCK
  5
533C
330
533B
100
AcDbEntity
  8
0
100
AcDbBlockBegin
  2
*D39
 70
     1
 10
0.0
 20
0.0
 30
0.0
  3
*D39
  1

  0
LINE
  5
533E
330
533B
100
AcDbEntity
  8
寸法
 62
     0
370
    -2
100
AcDbLine
 10
272.981465402447
 20
261.177984821962
 30
0.0
 11
244.4211072756761
 21
261.177984821962
 31
0.0
  0
LINE
  5
533F
330
533B
100
AcDbEntity
  8
寸法
 62
     0
370
    -2
100
AcDbLine
 10
272.981465402447
 20
211.177984821962
 30
0.0
 11
244.4211072756761
 21
211.177984821962
 31
0.0
  0
LINE
  5
5340
330
533B
100
AcDbEntity
  8
寸法
 62
     0
370
    -2
100
AcDbLine
 10
244.4211072756761
 20
259.177984821962
 30
0.0
 11
244.4211072756761
 21
213.177984821962
 31
0.0
  0
INSERT
  5
5341
330
533B
100
AcDbEntity
  8
寸法
 62
     0
370
    -2
100
AcDbBlockReference
  2
_DOT
 10
244.4211072756761
 20
261.177984821962
 30
0.0
 41
2.0
 42
2.0
 43
2.0
 50
90.0
  0
INSERT
  5
5342
330
533B
100
AcDbEntity
  8
寸法
 62
     0
370
    -2
100
AcDbBlockReference
  2
_DOT
 10
244.4211072756761
 20
211.177984821962
 30
0.0
 41
2.0
 42
2.0
 43
2.0
 50
270.0
  0
MTEXT
  5
5343
330
533B
100
AcDbEntity
  8
寸法
 62
     0
100
AcDbMText
 10
236.9211072756761
 20
236.177984821962
 30
0.0
 40
5.0
 41
0.0
 46
0.0
 71
     5
 72
     1
  1
\A1;50
  7
ＭＳ ゴシック
 11
0.0
 21
1.0
 31
0.0
 73
     1
 44
1.0
  0
POINT
  5
5344
330
533B
100
AcDbEntity
  8
Defpoints
 62
     0
100
AcDbPoint
 10
277.981465402447
 20
261.177984821962
 30
0.0
  0
POINT
  5
5345
330
533B
100
AcDbEntity
  8
Defpoints
 62
     0
100
AcDbPoint
 10
277.981465402447
 20
211.177984821962
 30
0.0
  0
POINT
  5
5346
330
533B
100
AcDbEntity
  8
Defpoints
 62
     0
100
AcDbPoint
 10
244.4211072756761
 20
211.177984821962
 30
0.0
  0
ENDBLK
  5
533D
330
533B
100
AcDbEntity
  8
0
100
AcDbBlockEnd
  0
BLOCK
  5
534B
330
534A
100
AcDbEntity
  8
0
100
AcDbBlockBegin
  2
*D40
 70
     1
 10
0.0
 20
0.0
 30
0.0
  3
*D40
  1

  0
LINE
  5
534D
330
534A
100
AcDbEntity
  8
寸法
 62
     0
370
    -2
100
AcDbLine
 10
697.3480841498555
 20
288.60876353296
 30
0.0
 11
697.3480841498555
 21
263.3734484645178
 31
0.0
  0
LINE
  5
534E
330
534A
100
AcDbEntity
  8
寸法
 62
     0
370
    -2
100
AcDbLine
 10
741.3480841498555
 20
288.60876353296
 30
0.0
 11
741.3480841498555
 21
263.3734484645178
 31
0.0
  0
LINE
  5
534F
330
534A
100
AcDbEntity
  8
寸法
 62
     0
370
    -2
100
AcDbLine
 10
699.3480841498555
 20
263.3734484645178
 30
0.0
 11
739.3480841498555
 21
263.3734484645178
 31
0.0
  0
INSERT
  5
5350
330
534A
100
AcDbEntity
  8
寸法
 62
     0
370
    -2
100
AcDbBlockReference
  2
_DOT
 10
697.3480841498555
 20
263.3734484645178
 30
0.0
 41
2.0
 42
2.0
 43
2.0
 50
180.0
  0
INSERT
  5
5351
330
534A
100
AcDbEntity
  8
寸法
 62
     0
370
    -2
100
AcDbBlockReference
  2
_DOT
 10
741.3480841498555
 20
263.3734484645178
 30
0.0
 41
2.0
 42
2.0
 43
2.0
  0
MTEXT
  5
5352
330
534A
100
AcDbEntity
  8
寸法
 62
     0
100
AcDbMText
 10
719.3480841498555
 20
270.8734484645178
 30
0.0
 40
5.0
 41
0.0
 46
0.0
 71
     5
 72
     1
  1
\A1;44
  7
ＭＳ ゴシック
 73
     1
 44
1.0
  0
POINT
  5
5353
330
534A
100
AcDbEntity
  8
Defpoints
 62
     0
100
AcDbPoint
 10
697.3480841498555
 20
293.60876353296
 30
0.0
  0
POINT
  5
5354
330
534A
100
AcDbEntity
  8
Defpoints
 62
     0
100
AcDbPoint
 10
741.3480841498555
 20
293.60876353296
 30
0.0
  0
POINT
  5
5355
330
534A
100
AcDbEntity
  8
Defpoints
 62
     0
100
AcDbPoint
 10
741.3480841498555
 20
263.3734484645178
 30
0.0
  0
ENDBLK
  5
534C
330
534A
100
AcDbEntity
  8
0
100
AcDbBlockEnd
  0
BLOCK
  5
535B
330
535A
100
AcDbEntity
  8
0
100
AcDbBlockBegin
  2
*D41
 70
     1
 10
0.0
 20
0.0
 30
0.0
  3
*D41
  1

  0
LINE
  5
535D
330
535A
100
AcDbEntity
  8
寸法
 62
     0
370
    -2
100
AcDbLine
 10
166.0237093085059
 20
288.6087635329599
 30
0.0
 11
166.0237093085059
 21
268.8060731857735
 31
0.0
  0
LINE
  5
535E
330
535A
100
AcDbEntity
  8
寸法
 62
     0
370
    -2
100
AcDbLine
 10
211.0237093085059
 20
288.6087635329599
 30
0.0
 11
211.0237093085059
 21
268.8060731857735
 31
0.0
  0
LINE
  5
535F
330
535A
100
AcDbEntity
  8
寸法
 62
     0
370
    -2
100
AcDbLine
 10
168.0237093085059
 20
268.8060731857735
 30
0.0
 11
209.0237093085059
 21
268.8060731857735
 31
0.0
  0
INSERT
  5
5360
330
535A
100
AcDbEntity
  8
寸法
 62
     0
370
    -2
100
AcDbBlockReference
  2
_DOT
 10
166.0237093085059
 20
268.8060731857735
 30
0.0
 41
2.0
 42
2.0
 43
2.0
 50
180.0
  0
INSERT
  5
5361
330
535A
100
AcDbEntity
  8
寸法
 62
     0
370
    -2
100
AcDbBlockReference
  2
_DOT
 10
211.0237093085059
 20
268.8060731857735
 30
0.0
 41
2.0
 42
2.0
 43
2.0
  0
MTEXT
  5
5362
330
535A
100
AcDbEntity
  8
寸法
 62
     0
100
AcDbMText
 10
188.5237093085059
 20
276.3060731857735
 30
0.0
 40
5.0
 41
0.0
 46
0.0
 71
     5
 72
     1
  1
\A1;45
  7
ＭＳ ゴシック
 73
     1
 44
1.0
  0
POINT
  5
5363
330
535A
100
AcDbEntity
  8
Defpoints
 62
     0
100
AcDbPoint
 10
166.0237093085059
 20
293.6087635329599
 30
0.0
  0
POINT
  5
5364
330
535A
100
AcDbEntity
  8
Defpoints
 62
     0
100
AcDbPoint
 10
211.0237093085059
 20
293.6087635329599
 30
0.0
  0
POINT
  5
5365
330
535A
100
AcDbEntity
  8
Defpoints
 62
     0
100
AcDbPoint
 10
211.0237093085059
 20
268.8060731857735
 30
0.0
  0
ENDBLK
  5
535C
330
535A
100
AcDbEntity
  8
0
100
AcDbBlockEnd
  0
BLOCK
  5
536A
330
5369
100
AcDbEntity
  8
0
100
AcDbBlockBegin
  2
*D42
 70
     1
 10
0.0
 20
0.0
 30
0.0
  3
*D42
  1

  0
LINE
  5
536C
330
5369
100
AcDbEntity
  8
寸法
 62
     0
370
    -2
100
AcDbLine
 10
151.0237093085059
 20
337.6087635329599
 30
0.0
 11
144.7682148944726
 21
337.6087635329599
 31
0.0
  0
LINE
  5
536D
330
5369
100
AcDbEntity
  8
寸法
 62
     0
370
    -2
100
AcDbLine
 10
160.9768113411732
 20
292.6087635329599
 30
0.0
 11
144.7682148944726
 21
292.6087635329599
 31
0.0
  0
LINE
  5
536E
330
5369
100
AcDbEntity
  8
寸法
 62
     0
370
    -2
100
AcDbLine
 10
144.7682148944726
 20
335.6087635329599
 30
0.0
 11
144.7682148944726
 21
294.6087635329599
 31
0.0
  0
INSERT
  5
536F
330
5369
100
AcDbEntity
  8
寸法
 62
     0
370
    -2
100
AcDbBlockReference
  2
_DOT
 10
144.7682148944726
 20
337.6087635329599
 30
0.0
 41
2.0
 42
2.0
 43
2.0
 50
90.0
  0
INSERT
  5
5370
330
5369
100
AcDbEntity
  8
寸法
 62
     0
370
    -2
100
AcDbBlockReference
  2
_DOT
 10
144.7682148944726
 20
292.6087635329599
 30
0.0
 41
2.0
 42
2.0
 43
2.0
 50
270.0
  0
MTEXT
  5
5371
330
5369
100
AcDbEntity
  8
寸法
 62
     0
100
AcDbMText
 10
137.2682148944726
 20
315.1087635329599
 30
0.0
 40
5.0
 41
0.0
 46
0.0
 71
     5
 72
     1
  1
\A1;45
  7
ＭＳ ゴシック
 11
0.0
 21
1.0
 31
0.0
 73
     1
 44
1.0
  0
POINT
  5
5372
330
5369
100
AcDbEntity
  8
Defpoints
 62
     0
100
AcDbPoint
 10
156.0237093085059
 20
337.6087635329599
 30
0.0
  0
POINT
  5
5373
330
5369
100
AcDbEntity
  8
Defpoints
 62
     0
100
AcDbPoint
 10
165.9768113411732
 20
292.6087635329599
 30
0.0
  0
POINT
  5
5374
330
5369
100
AcDbEntity
  8
Defpoints
 62
     0
100
AcDbPoint
 10
144.7682148944726
 20
292.6087635329599
 30
0.0
  0
ENDBLK
  5
536B
330
5369
100
AcDbEntity
  8
0
100
AcDbBlockEnd
  0
BLOCK
  5
5438
330
5437
100
AcDbEntity
  8
0
100
AcDbBlockBegin
  2
*X43
 70
     1
 10
0.0
 20
0.0
 30
0.0
  3
*X43
  1

  0
TEXT
  5
5439
330
5437
100
AcDbEntity
  8
0
  6
Continuous
 62
     7
100
AcDbText
 10
124.835
 20
-176.333473
 30
0.0
 40
5.0
  1
Tuerknopf
  7
EXPLODED0
100
AcDbText
  0
TEXT
  5
543A
330
5437
100
AcDbEntity
  8
0
  6
Continuous
 62
     7
100
AcDbText
 10
124.795
 20
-183.333333
 30
0.0
 40
5.0
  1
23084400006-0
  7
EXPLODED0
100
AcDbText
  0
ENDBLK
  5
543B
330
5437
100
AcDbEntity
  8
0
100
AcDbBlockEnd
  0
BLOCK
  5
54AF
330
54AE
100
AcDbEntity
  8
0
100
AcDbBlockBegin
  2
*D44
 70
     1
 10
0.0
 20
0.0
 30
0.0
  3
*D44
  1

  0
LINE
  5
54B1
330
54AE
100
AcDbEntity
  8
寸法
 62
     0
370
    -2
100
AcDbLine
 10
155.5151852055706
 20
354.9517354443374
 30
0.0
 11
155.5151852055706
 21
363.1756717404792
 31
0.0
  0
LINE
  5
54B2
330
54AE
100
AcDbEntity
  8
寸法
 62
     0
370
    -2
100
AcDbLine
 10
193.5151852055706
 20
354.9517354443374
 30
0.0
 11
193.5151852055706
 21
363.1756717404792
 31
0.0
  0
LINE
  5
54B3
330
54AE
100
AcDbEntity
  8
寸法
 62
     0
370
    -2
100
AcDbLine
 10
157.5151852055706
 20
363.1756717404792
 30
0.0
 11
191.5151852055706
 21
363.1756717404792
 31
0.0
  0
INSERT
  5
54B4
330
54AE
100
AcDbEntity
  8
寸法
 62
     0
370
    -2
100
AcDbBlockReference
  2
_DOT
 10
155.5151852055706
 20
363.1756717404792
 30
0.0
 41
2.0
 42
2.0
 43
2.0
 50
180.0
  0
INSERT
  5
54B5
330
54AE
100
AcDbEntity
  8
寸法
 62
     0
370
    -2
100
AcDbBlockReference
  2
_DOT
 10
193.5151852055706
 20
363.1756717404792
 30
0.0
 41
2.0
 42
2.0
 43
2.0
  0
MTEXT
  5
54B6
330
54AE
100
AcDbEntity
  8
寸法
 62
     0
100
AcDbMText
 10
174.5151852055706
 20
370.6756717404792
 30
0.0
 40
5.0
 41
0.0
 46
0.0
 71
     5
 72
     1
  1
\A1;38
  7
ＭＳ ゴシック
 73
     1
 44
1.0
  0
POINT
  5
54B7
330
54AE
100
AcDbEntity
  8
Defpoints
 62
     0
100
AcDbPoint
 10
155.5151852055706
 20
349.9517354443374
 30
0.0
  0
POINT
  5
54B8
330
54AE
100
AcDbEntity
  8
Defpoints
 62
     0
100
AcDbPoint
 10
193.5151852055706
 20
349.9517354443374
 30
0.0
  0
POINT
  5
54B9
330
54AE
100
AcDbEntity
  8
Defpoints
 62
     0
100
AcDbPoint
 10
193.5151852055706
 20
363.1756717404792
 30
0.0
  0
ENDBLK
  5
54B0
330
54AE
100
AcDbEntity
  8
0
100
AcDbBlockEnd
  0
BLOCK
  5
54BB
330
54BA
100
AcDbEntity
  8
0
100
AcDbBlockBegin
  2
*D45
 70
     1
 10
0.0
 20
0.0
 30
0.0
  3
*D45
  1

  0
LINE
  5
54BD
330
54BA
100
AcDbEntity
  8
寸法
 62
     0
370
    -2
100
AcDbLine
 10
147.0151852055707
 20
349.60876353296
 30
0.0
 11
147.0151852055707
 21
378.5473272247523
 31
0.0
  0
LINE
  5
54BE
330
54BA
100
AcDbEntity
  8
寸法
 62
     0
370
    -2
100
AcDbLine
 10
202.0151852055707
 20
349.60876353296
 30
0.0
 11
202.0151852055707
 21
378.5473272247523
 31
0.0
  0
LINE
  5
54BF
330
54BA
100
AcDbEntity
  8
寸法
 62
     0
370
    -2
100
AcDbLine
 10
149.0151852055707
 20
378.5473272247523
 30
0.0
 11
200.0151852055707
 21
378.5473272247523
 31
0.0
  0
INSERT
  5
54C0
330
54BA
100
AcDbEntity
  8
寸法
 62
     0
370
    -2
100
AcDbBlockReference
  2
_DOT
 10
147.0151852055707
 20
378.5473272247523
 30
0.0
 41
2.0
 42
2.0
 43
2.0
 50
180.0
  0
INSERT
  5
54C1
330
54BA
100
AcDbEntity
  8
寸法
 62
     0
370
    -2
100
AcDbBlockReference
  2
_DOT
 10
202.0151852055707
 20
378.5473272247523
 30
0.0
 41
2.0
 42
2.0
 43
2.0
  0
MTEXT
  5
54C2
330
54BA
100
AcDbEntity
  8
寸法
 62
     0
100
AcDbMText
 10
174.5151852055707
 20
386.0473272247523
 30
0.0
 40
5.0
 41
0.0
 46
0.0
 71
     5
 72
     1
  1
\A1;55
  7
ＭＳ ゴシック
 73
     1
 44
1.0
  0
POINT
  5
54C3
330
54BA
100
AcDbEntity
  8
Defpoints
 62
     0
100
AcDbPoint
 10
147.0151852055707
 20
344.60876353296
 30
0.0
  0
POINT
  5
54C4
330
54BA
100
AcDbEntity
  8
Defpoints
 62
     0
100
AcDbPoint
 10
202.0151852055707
 20
344.60876353296
 30
0.0
  0
POINT
  5
54C5
330
54BA
100
AcDbEntity
  8
Defpoints
 62
     0
100
AcDbPoint
 10
202.0151852055707
 20
378.5473272247523
 30
0.0
  0
ENDBLK
  5
54BC
330
54BA
100
AcDbEntity
  8
0
100
AcDbBlockEnd
  0
BLOCK
  5
54C7
330
54C6
100
AcDbEntity
  8
0
100
AcDbBlockBegin
  2
*D46
 70
     1
 10
0.0
 20
0.0
 30
0.0
  3
*D46
  1

  0
LINE
  5
54C9
330
54C6
100
AcDbEntity
  8
寸法
 62
     0
370
    -2
100
AcDbLine
 10
88.77383073871192
 20
337.60876353296
 30
0.0
 11
77.51833632467867
 21
337.60876353296
 31
0.0
  0
LINE
  5
54CA
330
54C6
100
AcDbEntity
  8
寸法
 62
     0
370
    -2
100
AcDbLine
 10
88.77383073871192
 20
344.60876353296
 30
0.0
 11
77.51833632467867
 21
344.60876353296
 31
0.0
  0
LINE
  5
54CB
330
54C6
100
AcDbEntity
  8
寸法
 62
     0
370
    -2
100
AcDbLine
 10
77.51833632467867
 20
339.60876353296
 30
0.0
 11
77.51833632467867
 21
342.60876353296
 31
0.0
  0
INSERT
  5
54CC
330
54C6
100
AcDbEntity
  8
寸法
 62
     0
370
    -2
100
AcDbBlockReference
  2
_DOT
 10
77.51833632467867
 20
337.60876353296
 30
0.0
 41
2.0
 42
2.0
 43
2.0
 50
270.0
  0
INSERT
  5
54CD
330
54C6
100
AcDbEntity
  8
寸法
 62
     0
370
    -2
100
AcDbBlockReference
  2
_DOT
 10
77.51833632467867
 20
344.60876353296
 30
0.0
 41
2.0
 42
2.0
 43
2.0
 50
90.0
  0
MTEXT
  5
54CE
330
54C6
100
AcDbEntity
  8
寸法
 62
     0
100
AcDbMText
 10
70.01833632467867
 20
341.1087635329599
 30
0.0
 40
5.0
 41
0.0
 46
0.0
 71
     5
 72
     1
  1
\A1;7
  7
ＭＳ ゴシック
 11
0.0
 21
1.0
 31
0.0
 73
     1
 44
1.0
  0
POINT
  5
54CF
330
54C6
100
AcDbEntity
  8
Defpoints
 62
     0
100
AcDbPoint
 10
93.77383073871192
 20
337.60876353296
 30
0.0
  0
POINT
  5
54D0
330
54C6
100
AcDbEntity
  8
Defpoints
 62
     0
100
AcDbPoint
 10
93.77383073871192
 20
344.60876353296
 30
0.0
  0
POINT
  5
54D1
330
54C6
100
AcDbEntity
  8
Defpoints
 62
     0
100
AcDbPoint
 10
77.51833632467867
 20
344.60876353296
 30
0.0
  0
ENDBLK
  5
54C8
330
54C6
100
AcDbEntity
  8
0
100
AcDbBlockEnd
  0
BLOCK
  5
54D3
330
54D2
100
AcDbEntity
  8
0
100
AcDbBlockBegin
  2
*D47
 70
     1
 10
0.0
 20
0.0
 30
0.0
  3
*D47
  1

  0
LINE
  5
54D5
330
54D2
100
AcDbEntity
  8
寸法
 62
     0
370
    -2
100
AcDbLine
 10
83.77383073871192
 20
337.60876353296
 30
0.0
 11
77.51833632467867
 21
337.60876353296
 31
0.0
  0
LINE
  5
54D6
330
54D2
100
AcDbEntity
  8
寸法
 62
     0
370
    -2
100
AcDbLine
 10
106.5318974534097
 20
262.60876353296
 30
0.0
 11
77.51833632467867
 21
262.60876353296
 31
0.0
  0
LINE
  5
54D7
330
54D2
100
AcDbEntity
  8
寸法
 62
     0
370
    -2
100
AcDbLine
 10
77.51833632467867
 20
335.60876353296
 30
0.0
 11
77.51833632467867
 21
264.60876353296
 31
0.0
  0
INSERT
  5
54D8
330
54D2
100
AcDbEntity
  8
寸法
 62
     0
370
    -2
100
AcDbBlockReference
  2
_DOT
 10
77.51833632467867
 20
337.60876353296
 30
0.0
 41
2.0
 42
2.0
 43
2.0
 50
90.0
  0
INSERT
  5
54D9
330
54D2
100
AcDbEntity
  8
寸法
 62
     0
370
    -2
100
AcDbBlockReference
  2
_DOT
 10
77.51833632467867
 20
262.60876353296
 30
0.0
 41
2.0
 42
2.0
 43
2.0
 50
270.0
  0
MTEXT
  5
54DA
330
54D2
100
AcDbEntity
  8
寸法
 62
     0
100
AcDbMText
 10
70.01833632467867
 20
300.10876353296
 30
0.0
 40
5.0
 41
0.0
 46
0.0
 71
     5
 72
     1
  1
\A1;75
  7
ＭＳ ゴシック
 11
0.0
 21
1.0
 31
0.0
 73
     1
 44
1.0
  0
POINT
  5
54DB
330
54D2
100
AcDbEntity
  8
Defpoints
 62
     0
100
AcDbPoint
 10
88.77383073871192
 20
337.60876353296
 30
0.0
  0
POINT
  5
54DC
330
54D2
100
AcDbEntity
  8
Defpoints
 62
     0
100
AcDbPoint
 10
111.5318974534097
 20
262.60876353296
 30
0.0
  0
POINT
  5
54DD
330
54D2
100
AcDbEntity
  8
Defpoints
 62
     0
100
AcDbPoint
 10
77.51833632467867
 20
262.60876353296
 30
0.0
  0
ENDBLK
  5
54D4
330
54D2
100
AcDbEntity
  8
0
100
AcDbBlockEnd
  0
BLOCK
  5
54DF
330
54DE
100
AcDbEntity
  8
0
100
AcDbBlockBegin
  2
*D48
 70
     1
 10
0.0
 20
0.0
 30
0.0
  3
*D48
  1

  0
LINE
  5
54E1
330
54DE
100
AcDbEntity
  8
寸法
 62
     0
370
    -2
100
AcDbLine
 10
95.27383073871192
 20
267.80611223613
 30
0.0
 11
95.27383073871192
 21
245.1020962405285
 31
0.0
  0
LINE
  5
54E2
330
54DE
100
AcDbEntity
  8
寸法
 62
     0
370
    -2
100
AcDbLine
 10
147.2738307387119
 20
267.80611223613
 30
0.0
 11
147.2738307387119
 21
245.1020962405285
 31
0.0
  0
LINE
  5
54E3
330
54DE
100
AcDbEntity
  8
寸法
 62
     0
370
    -2
100
AcDbLine
 10
97.27383073871192
 20
245.1020962405285
 30
0.0
 11
145.2738307387119
 21
245.1020962405285
 31
0.0
  0
INSERT
  5
54E4
330
54DE
100
AcDbEntity
  8
寸法
 62
     0
370
    -2
100
AcDbBlockReference
  2
_DOT
 10
95.27383073871192
 20
245.1020962405285
 30
0.0
 41
2.0
 42
2.0
 43
2.0
 50
180.0
  0
INSERT
  5
54E5
330
54DE
100
AcDbEntity
  8
寸法
 62
     0
370
    -2
100
AcDbBlockReference
  2
_DOT
 10
147.2738307387119
 20
245.1020962405285
 30
0.0
 41
2.0
 42
2.0
 43
2.0
  0
MTEXT
  5
54E6
330
54DE
100
AcDbEntity
  8
寸法
 62
     0
100
AcDbMText
 10
121.2738307387119
 20
252.6020962405285
 30
0.0
 40
5.0
 41
0.0
 46
0.0
 71
     5
 72
     1
  1
\A1;52
  7
ＭＳ ゴシック
 73
     1
 44
1.0
  0
POINT
  5
54E7
330
54DE
100
AcDbEntity
  8
Defpoints
 62
     0
100
AcDbPoint
 10
95.27383073871192
 20
272.80611223613
 30
0.0
  0
POINT
  5
54E8
330
54DE
100
AcDbEntity
  8
Defpoints
 62
     0
100
AcDbPoint
 10
147.2738307387119
 20
272.80611223613
 30
0.0
  0
POINT
  5
54E9
330
54DE
100
AcDbEntity
  8
Defpoints
 62
     0
100
AcDbPoint
 10
147.2738307387119
 20
245.1020962405285
 30
0.0
  0
ENDBLK
  5
54E0
330
54DE
100
AcDbEntity
  8
0
100
AcDbBlockEnd
  0
BLOCK
  5
54EE
330
54ED
100
AcDbEntity
  8
0
100
AcDbBlockBegin
  2
*D49
 70
     1
 10
0.0
 20
0.0
 30
0.0
  3
*D49
  1

  0
LINE
  5
54F0
330
54ED
100
AcDbEntity
  8
モデル
 62
     0
370
    -2
100
AcDbLine
 10
108.0564520643603
 20
194.7002972752913
 30
0.0
 11
81.96347598655086
 21
194.7002972752913
 31
0.0
  0
LINE
  5
54F1
330
54ED
100
AcDbEntity
  8
モデル
 62
     0
370
    -2
100
AcDbLine
 10
108.0564520643603
 20
139.9002972752913
 30
0.0
 11
81.96347598655086
 21
139.9002972752913
 31
0.0
  0
LINE
  5
54F2
330
54ED
100
AcDbEntity
  8
モデル
 62
     0
370
    -2
100
AcDbLine
 10
81.96347598655086
 20
192.7002972752913
 30
0.0
 11
81.96347598655086
 21
141.9002972752913
 31
0.0
  0
INSERT
  5
54F3
330
54ED
100
AcDbEntity
  8
モデル
 62
     0
370
    -2
100
AcDbBlockReference
  2
_DOT
 10
81.96347598655086
 20
194.7002972752913
 30
0.0
 41
2.0
 42
2.0
 43
2.0
 50
90.0
  0
INSERT
  5
54F4
330
54ED
100
AcDbEntity
  8
モデル
 62
     0
370
    -2
100
AcDbBlockReference
  2
_DOT
 10
81.96347598655086
 20
139.9002972752913
 30
0.0
 41
2.0
 42
2.0
 43
2.0
 50
270.0
  0
MTEXT
  5
54F5
330
54ED
100
AcDbEntity
  8
モデル
 62
     0
100
AcDbMText
 10
74.46347598655086
 20
167.3002972752913
 30
0.0
 40
5.0
 41
0.0
 46
0.0
 71
     5
 72
     1
  1
\A1;55
  7
ＭＳ ゴシック
 11
0.0
 21
1.0
 31
0.0
 73
     1
 44
1.0
  0
POINT
  5
54F6
330
54ED
100
AcDbEntity
  8
Defpoints
 62
     0
100
AcDbPoint
 10
113.0564520643603
 20
194.7002972752913
 30
0.0
  0
POINT
  5
54F7
330
54ED
100
AcDbEntity
  8
Defpoints
 62
     0
100
AcDbPoint
 10
113.0564520643603
 20
139.9002972752913
 30
0.0
  0
POINT
  5
54F8
330
54ED
100
AcDbEntity
  8
Defpoints
 62
     0
100
AcDbPoint
 10
81.96347598655086
 20
139.9002972752913
 30
0.0
  0
ENDBLK
  5
54EF
330
54ED
100
AcDbEntity
  8
0
100
AcDbBlockEnd
  0
BLOCK
  5
5556
330
5555
100
AcDbEntity
  8
0
100
AcDbBlockBegin
  2
*D50
 70
     1
 10
0.0
 20
0.0
 30
0.0
  3
*D50
  1

  0
LINE
  5
5558
330
5555
100
AcDbEntity
  8
寸法
 62
     0
370
    -2
100
AcDbLine
 10
376.0969756369515
 20
177.4531603118752
 30
0.0
 11
376.0969756369515
 21
200.2397838893573
 31
0.0
  0
LINE
  5
5559
330
5555
100
AcDbEntity
  8
寸法
 62
     0
370
    -2
100
AcDbLine
 10
395.0969756369515
 20
191.6286728320842
 30
0.0
 11
395.0969756369515
 21
200.2397838893573
 31
0.0
  0
LINE
  5
555A
330
5555
100
AcDbEntity
  8
寸法
 62
     0
370
    -2
100
AcDbLine
 10
378.0969756369515
 20
200.2397838893573
 30
0.0
 11
393.0969756369515
 21
200.2397838893573
 31
0.0
  0
INSERT
  5
555B
330
5555
100
AcDbEntity
  8
寸法
 62
     0
370
    -2
100
AcDbBlockReference
  2
_DOT
 10
376.0969756369515
 20
200.2397838893573
 30
0.0
 41
2.0
 42
2.0
 43
2.0
 50
180.0
  0
INSERT
  5
555C
330
5555
100
AcDbEntity
  8
寸法
 62
     0
370
    -2
100
AcDbBlockReference
  2
_DOT
 10
395.0969756369515
 20
200.2397838893573
 30
0.0
 41
2.0
 42
2.0
 43
2.0
  0
MTEXT
  5
555D
330
5555
100
AcDbEntity
  8
寸法
 62
     0
100
AcDbMText
 10
385.5969756369515
 20
207.7397838893573
 30
0.0
 40
5.0
 41
0.0
 46
0.0
 71
     5
 72
     1
  1
\A1;19
  7
ＭＳ ゴシック
 73
     1
 44
1.0
  0
POINT
  5
555E
330
5555
100
AcDbEntity
  8
Defpoints
 62
     0
100
AcDbPoint
 10
376.0969756369515
 20
172.4531603118752
 30
0.0
  0
POINT
  5
555F
330
5555
100
AcDbEntity
  8
Defpoints
 62
     0
100
AcDbPoint
 10
395.0969756369515
 20
186.6286728320842
 30
0.0
  0
POINT
  5
5560
330
5555
100
AcDbEntity
  8
Defpoints
 62
     0
100
AcDbPoint
 10
395.0969756369515
 20
200.2397838893573
 30
0.0
  0
ENDBLK
  5
5557
330
5555
100
AcDbEntity
  8
0
100
AcDbBlockEnd
  0
BLOCK
  5
5562
330
5561
100
AcDbEntity
  8
0
100
AcDbBlockBegin
  2
*D51
 70
     1
 10
0.0
 20
0.0
 30
0.0
  3
*D51
  1

  0
LINE
  5
5564
330
5561
100
AcDbEntity
  8
寸法
 62
     0
370
    -2
100
AcDbLine
 10
395.0969756369515
 20
191.6286728320842
 30
0.0
 11
395.0969756369515
 21
200.2397838893573
 31
0.0
  0
LINE
  5
5565
330
5561
100
AcDbEntity
  8
寸法
 62
     0
370
    -2
100
AcDbLine
 10
414.0969756369515
 20
177.4531603118752
 30
0.0
 11
414.0969756369515
 21
200.2397838893573
 31
0.0
  0
LINE
  5
5566
330
5561
100
AcDbEntity
  8
寸法
 62
     0
370
    -2
100
AcDbLine
 10
397.0969756369515
 20
200.2397838893573
 30
0.0
 11
412.0969756369515
 21
200.2397838893573
 31
0.0
  0
INSERT
  5
5567
330
5561
100
AcDbEntity
  8
寸法
 62
     0
370
    -2
100
AcDbBlockReference
  2
_DOT
 10
395.0969756369515
 20
200.2397838893573
 30
0.0
 41
2.0
 42
2.0
 43
2.0
 50
180.0
  0
INSERT
  5
5568
330
5561
100
AcDbEntity
  8
寸法
 62
     0
370
    -2
100
AcDbBlockReference
  2
_DOT
 10
414.0969756369515
 20
200.2397838893573
 30
0.0
 41
2.0
 42
2.0
 43
2.0
  0
MTEXT
  5
5569
330
5561
100
AcDbEntity
  8
寸法
 62
     0
100
AcDbMText
 10
404.5969756369515
 20
207.7397838893573
 30
0.0
 40
5.0
 41
0.0
 46
0.0
 71
     5
 72
     1
  1
\A1;19
  7
ＭＳ ゴシック
 73
     1
 44
1.0
  0
POINT
  5
556A
330
5561
100
AcDbEntity
  8
Defpoints
 62
     0
100
AcDbPoint
 10
395.0969756369515
 20
186.6286728320842
 30
0.0
  0
POINT
  5
556B
330
5561
100
AcDbEntity
  8
Defpoints
 62
     0
100
AcDbPoint
 10
414.0969756369515
 20
172.4531603118752
 30
0.0
  0
POINT
  5
556C
330
5561
100
AcDbEntity
  8
Defpoints
 62
     0
100
AcDbPoint
 10
414.0969756369515
 20
200.2397838893573
 30
0.0
  0
ENDBLK
  5
5563
330
5561
100
AcDbEntity
  8
0
100
AcDbBlockEnd
  0
BLOCK
  5
556E
330
556D
100
AcDbEntity
  8
0
100
AcDbBlockBegin
  2
*D52
 70
     1
 10
0.0
 20
0.0
 30
0.0
  3
*D52
  1

  0
LINE
  5
5570
330
556D
100
AcDbEntity
  8
寸法
 62
     0
370
    -2
100
AcDbLine
 10
414.0969756369515
 20
158.3002972752912
 30
0.0
 11
414.0969756369515
 21
130.5123896935981
 31
0.0
  0
LINE
  5
5571
330
556D
100
AcDbEntity
  8
寸法
 62
     0
370
    -2
100
AcDbLine
 10
376.0969756369515
 20
158.3002972752912
 30
0.0
 11
376.0969756369515
 21
130.5123896935981
 31
0.0
  0
LINE
  5
5572
330
556D
100
AcDbEntity
  8
寸法
 62
     0
370
    -2
100
AcDbLine
 10
376.0969756369515
 20
130.5123896935981
 30
0.0
 11
362.1069756369515
 21
130.5123896935981
 31
0.0
  0
LINE
  5
5573
330
556D
100
AcDbEntity
  8
寸法
 62
     0
370
    -2
100
AcDbLine
 10
412.0969756369515
 20
130.5123896935981
 30
0.0
 11
378.0969756369515
 21
130.5123896935981
 31
0.0
  0
LINE
  5
5574
330
556D
100
AcDbEntity
  8
寸法
 62
     0
370
    -2
100
AcDbLine
 10
378.0969756369515
 20
130.5123896935981
 30
0.0
 11
380.0969756369515
 21
130.5123896935981
 31
0.0
  0
INSERT
  5
5575
330
556D
100
AcDbEntity
  8
寸法
 62
     0
370
    -2
100
AcDbBlockReference
  2
_DOT
 10
414.0969756369515
 20
130.5123896935981
 30
0.0
 41
2.0
 42
2.0
 43
2.0
  0
INSERT
  5
5576
330
556D
100
AcDbEntity
  8
寸法
 62
     0
370
    -2
100
AcDbBlockReference
  2
_DOT
 10
376.0969756369515
 20
130.5123896935981
 30
0.0
 41
2.0
 42
2.0
 43
2.0
 50
180.0
  0
MTEXT
  5
5577
330
556D
100
AcDbEntity
  8
寸法
 62
     0
100
AcDbMText
 10
367.1019756369515
 20
135.0373896935981
 30
0.0
 40
5.0
 41
0.0
 46
0.0
 71
     5
 72
     1
  1
\A1;ø8
  7
ＭＳ ゴシック
 73
     1
 44
1.0
  0
POINT
  5
5578
330
556D
100
AcDbEntity
  8
Defpoints
 62
     0
100
AcDbPoint
 10
414.0969756369515
 20
163.3002972752912
 30
0.0
  0
POINT
  5
5579
330
556D
100
AcDbEntity
  8
Defpoints
 62
     0
100
AcDbPoint
 10
376.0969756369515
 20
163.3002972752912
 30
0.0
  0
POINT
  5
557A
330
556D
100
AcDbEntity
  8
Defpoints
 62
     0
100
AcDbPoint
 10
376.0969756369515
 20
130.5123896935981
 30
0.0
  0
ENDBLK
  5
556F
330
556D
100
AcDbEntity
  8
0
100
AcDbBlockEnd
  0
BLOCK
  5
55E7
330
55E6
100
AcDbEntity
  8
0
100
AcDbBlockBegin
  2
*D53
 70
     1
 10
0.0
 20
0.0
 30
0.0
  3
*D53
  1

  0
LINE
  5
55E8
330
55E6
100
AcDbEntity
  8
寸法
 62
     0
370
    -2
100
AcDbLine
 10
21.25549441403328
 20
187.6547414593014
 30
0.0
 11
10.0
 21
187.6547414593014
 31
0.0
  0
LINE
  5
55E9
330
55E6
100
AcDbEntity
  8
寸法
 62
     0
370
    -2
100
AcDbLine
 10
21.25549441403328
 20
194.6547414593014
 30
0.0
 11
10.0
 21
194.6547414593014
 31
0.0
  0
LINE
  5
55EA
330
55E6
100
AcDbEntity
  8
寸法
 62
     0
370
    -2
100
AcDbLine
 10
10.0
 20
189.6547414593014
 30
0.0
 11
10.0
 21
192.6547414593014
 31
0.0
  0
INSERT
  5
55EB
330
55E6
100
AcDbEntity
  8
寸法
 62
     0
370
    -2
100
AcDbBlockReference
  2
_DOT
 10
10.0
 20
187.6547414593014
 30
0.0
 41
2.0
 42
2.0
 43
2.0
 50
270.0
  0
INSERT
  5
55EC
330
55E6
100
AcDbEntity
  8
寸法
 62
     0
370
    -2
100
AcDbBlockReference
  2
_DOT
 10
10.0
 20
194.6547414593014
 30
0.0
 41
2.0
 42
2.0
 43
2.0
 50
90.0
  0
MTEXT
  5
55ED
330
55E6
100
AcDbEntity
  8
寸法
 62
     0
100
AcDbMText
 10
2.5
 20
191.1547414593013
 30
0.0
 40
5.0
 41
0.0
 46
0.0
 71
     5
 72
     1
  1
\A1;7
  7
ＭＳ ゴシック
 11
0.0
 21
1.0
 31
0.0
 73
     1
 44
1.0
  0
POINT
  5
55EE
330
55E6
100
AcDbEntity
  8
Defpoints
 62
     0
100
AcDbPoint
 10
26.25549441403328
 20
187.6547414593014
 30
0.0
  0
POINT
  5
55EF
330
55E6
100
AcDbEntity
  8
Defpoints
 62
     0
100
AcDbPoint
 10
26.25549441403328
 20
194.6547414593014
 30
0.0
  0
POINT
  5
55F0
330
55E6
100
AcDbEntity
  8
Defpoints
 62
     0
100
AcDbPoint
 10
10.0
 20
194.6547414593014
 30
0.0
  0
ENDBLK
  5
55F1
330
55E6
100
AcDbEntity
  8
0
100
AcDbBlockEnd
  0
BLOCK
  5
55F6
330
55F5
100
AcDbEntity
  8
0
100
AcDbBlockBegin
  2
*D54
 70
     1
 10
0.0
 20
0.0
 30
0.0
  3
*D54
  1

  0
LINE
  5
55F7
330
55F5
100
AcDbEntity
  8
寸法
 62
     0
370
    -2
100
AcDbLine
 10
28.75549441403328
 20
142.8067099551483
 30
0.0
 11
28.75549441403328
 21
121.1575073831949
 31
0.0
  0
LINE
  5
55F8
330
55F5
100
AcDbEntity
  8
寸法
 62
     0
370
    -2
100
AcDbLine
 10
78.75549441403328
 20
142.8067099551483
 30
0.0
 11
78.75549441403328
 21
121.1575073831949
 31
0.0
  0
LINE
  5
55F9
330
55F5
100
AcDbEntity
  8
寸法
 62
     0
370
    -2
100
AcDbLine
 10
30.75549441403328
 20
121.1575073831949
 30
0.0
 11
76.75549441403328
 21
121.1575073831949
 31
0.0
  0
INSERT
  5
55FA
330
55F5
100
AcDbEntity
  8
寸法
 62
     0
370
    -2
100
AcDbBlockReference
  2
_DOT
 10
28.75549441403328
 20
121.1575073831949
 30
0.0
 41
2.0
 42
2.0
 43
2.0
 50
180.0
  0
INSERT
  5
55FB
330
55F5
100
AcDbEntity
  8
寸法
 62
     0
370
    -2
100
AcDbBlockReference
  2
_DOT
 10
78.75549441403328
 20
121.1575073831949
 30
0.0
 41
2.0
 42
2.0
 43
2.0
  0
MTEXT
  5
55FC
330
55F5
100
AcDbEntity
  8
寸法
 62
     0
100
AcDbMText
 10
53.75549441403328
 20
128.6575073831949
 30
0.0
 40
5.0
 41
0.0
 46
0.0
 71
     5
 72
     1
  1
\A1;%%cX
  7
ＭＳ ゴシック
 73
     1
 44
1.0
  0
POINT
  5
55FD
330
55F5
100
AcDbEntity
  8
Defpoints
 62
     0
100
AcDbPoint
 10
28.75549441403328
 20
147.8067099551483
 30
0.0
  0
POINT
  5
55FE
330
55F5
100
AcDbEntity
  8
Defpoints
 62
     0
100
AcDbPoint
 10
78.75549441403328
 20
147.8067099551483
 30
0.0
  0
POINT
  5
55FF
330
55F5
100
AcDbEntity
  8
Defpoints
 62
     0
100
AcDbPoint
 10
78.75549441403328
 20
121.1575073831949
 30
0.0
  0
ENDBLK
  5
5600
330
55F5
100
AcDbEntity
  8
0
100
AcDbBlockEnd
  0
BLOCK
  5
5603
330
5602
100
AcDbEntity
  8
0
100
AcDbBlockBegin
  2
*D55
 70
     1
 10
0.0
 20
0.0
 30
0.0
  3
*D55
  1

  0
LINE
  5
5604
330
5602
100
AcDbEntity
  8
寸法
 62
     0
370
    -2
100
AcDbLine
 10
42.94011873679989
 20
64.73412793685341
 30
0.0
 11
12.00164720553261
 21
64.73412793685341
 31
0.0
  0
LINE
  5
5605
330
5602
100
AcDbEntity
  8
寸法
 62
     0
370
    -2
100
AcDbLine
 10
42.94011873679989
 20
9.734127936853412
 30
0.0
 11
12.0016472055326
 21
9.734127936853412
 31
0.0
  0
LINE
  5
5606
330
5602
100
AcDbEntity
  8
寸法
 62
     0
370
    -2
100
AcDbLine
 10
12.00164720553261
 20
62.73412793685341
 30
0.0
 11
12.0016472055326
 21
11.73412793685341
 31
0.0
  0
INSERT
  5
5607
330
5602
100
AcDbEntity
  8
寸法
 62
     0
370
    -2
100
AcDbBlockReference
  2
_DOT
 10
12.00164720553261
 20
64.73412793685341
 30
0.0
 41
2.0
 42
2.0
 43
2.0
 50
90.0
  0
INSERT
  5
5608
330
5602
100
AcDbEntity
  8
寸法
 62
     0
370
    -2
100
AcDbBlockReference
  2
_DOT
 10
12.0016472055326
 20
9.734127936853412
 30
0.0
 41
2.0
 42
2.0
 43
2.0
 50
270.0
  0
MTEXT
  5
5609
330
5602
100
AcDbEntity
  8
寸法
 62
     0
100
AcDbMText
 10
4.501647205532606
 20
37.23412793685347
 30
0.0
 40
5.0
 41
0.0
 46
0.0
 71
     5
 72
     1
  1
\A1;55
  7
ＭＳ ゴシック
 11
6.459479416000910E-17
 21
1.0
 31
0.0
 73
     1
 44
1.0
  0
POINT
  5
560A
330
5602
100
AcDbEntity
  8
Defpoints
 62
     0
100
AcDbPoint
 10
47.94011873679989
 20
64.73412793685341
 30
0.0
  0
POINT
  5
560B
330
5602
100
AcDbEntity
  8
Defpoints
 62
     0
100
AcDbPoint
 10
47.94011873679989
 20
9.734127936853412
 30
0.0
  0
POINT
  5
560C
330
5602
100
AcDbEntity
  8
Defpoints
 62
     0
100
AcDbPoint
 10
12.00164720553261
 20
9.734127936853413
 30
0.0
  0
ENDBLK
  5
560D
330
5602
100
AcDbEntity
  8
0
100
AcDbBlockEnd
  0
BLOCK
  5
56D7
330
56D6
100
AcDbEntity
  8
0
100
AcDbBlockBegin
  2
*D56
 70
     1
 10
0.0
 20
0.0
 30
0.0
  3
*D56
  1

  0
LINE
  5
56D8
330
56D6
100
AcDbEntity
  8
寸法
 62
     0
370
    -2
100
AcDbLine
 10
86.25549441403331
 20
194.6547414593014
 30
0.0
 11
100.5056240485164
 21
194.6547414593014
 31
0.0
  0
LINE
  5
56D9
330
56D6
100
AcDbEntity
  8
寸法
 62
     0
370
    -2
100
AcDbLine
 10
83.75549441403328
 20
142.8067099551483
 30
0.0
 11
100.5056240485164
 21
142.8067099551483
 31
0.0
  0
LINE
  5
56DA
330
56D6
100
AcDbEntity
  8
寸法
 62
     0
370
    -2
100
AcDbLine
 10
100.5056240485164
 20
192.6547414593014
 30
0.0
 11
100.5056240485164
 21
144.8067099551483
 31
0.0
  0
INSERT
  5
56DB
330
56D6
100
AcDbEntity
  8
寸法
 62
     0
370
    -2
100
AcDbBlockReference
  2
_DOT
 10
100.5056240485164
 20
194.6547414593014
 30
0.0
 41
2.0
 42
2.0
 43
2.0
 50
90.0
  0
INSERT
  5
56DC
330
56D6
100
AcDbEntity
  8
寸法
 62
     0
370
    -2
100
AcDbBlockReference
  2
_DOT
 10
100.5056240485164
 20
142.8067099551483
 30
0.0
 41
2.0
 42
2.0
 43
2.0
 50
270.0
  0
MTEXT
  5
56DD
330
56D6
100
AcDbEntity
  8
寸法
 62
     0
100
AcDbMText
 10
93.00562404851644
 20
168.7307257072249
 30
0.0
 40
5.0
 41
0.0
 46
0.0
 71
     5
 72
     1
  1
\A1;52
  7
ＭＳ ゴシック
 11
0.0
 21
1.0
 31
0.0
 73
     1
 44
1.0
  0
POINT
  5
56DE
330
56D6
100
AcDbEntity
  8
Defpoints
 62
     0
100
AcDbPoint
 10
81.25549441403331
 20
194.6547414593014
 30
0.0
  0
POINT
  5
56DF
330
56D6
100
AcDbEntity
  8
Defpoints
 62
     0
100
AcDbPoint
 10
78.75549441403328
 20
142.8067099551483
 30
0.0
  0
POINT
  5
56E0
330
56D6
100
AcDbEntity
  8
Defpoints
 62
     0
100
AcDbPoint
 10
100.5056240485164
 20
142.8067099551483
 30
0.0
  0
ENDBLK
  5
56E1
330
56D6
100
AcDbEntity
  8
0
100
AcDbBlockEnd
  0
BLOCK
  5
56E5
330
56E4
100
AcDbEntity
  8
0
100
AcDbBlockBegin
  2
*D57
 70
     1
 10
0.0
 20
0.0
 30
0.0
  3
*D57
  1

  0
LINE
  5
56E6
330
56E4
100
AcDbEntity
  8
寸法
 62
     0
370
    -2
100
AcDbLine
 10
16.25549441403328
 20
187.6547414593014
 30
0.0
 11
10.0
 21
187.6547414593014
 31
0.0
  0
LINE
  5
56E7
330
56E4
100
AcDbEntity
  8
寸法
 62
     0
370
    -2
100
AcDbLine
 10
29.02826651962755
 20
142.6547414593014
 30
0.0
 11
10.0
 21
142.6547414593014
 31
0.0
  0
LINE
  5
56E8
330
56E4
100
AcDbEntity
  8
寸法
 62
     0
370
    -2
100
AcDbLine
 10
10.0
 20
185.6547414593014
 30
0.0
 11
10.0
 21
144.6547414593014
 31
0.0
  0
INSERT
  5
56E9
330
56E4
100
AcDbEntity
  8
寸法
 62
     0
370
    -2
100
AcDbBlockReference
  2
_DOT
 10
10.0
 20
187.6547414593014
 30
0.0
 41
2.0
 42
2.0
 43
2.0
 50
90.0
  0
INSERT
  5
56EA
330
56E4
100
AcDbEntity
  8
寸法
 62
     0
370
    -2
100
AcDbBlockReference
  2
_DOT
 10
10.0
 20
142.6547414593014
 30
0.0
 41
2.0
 42
2.0
 43
2.0
 50
270.0
  0
MTEXT
  5
56EB
330
56E4
100
AcDbEntity
  8
寸法
 62
     0
100
AcDbMText
 10
2.500000000000002
 20
165.1547414593014
 30
0.0
 40
5.0
 41
0.0
 46
0.0
 71
     5
 72
     1
  1
\A1;45
  7
ＭＳ ゴシック
 11
7.894919286223336E-17
 21
1.0
 31
0.0
 73
     1
 44
1.0
  0
POINT
  5
56EC
330
56E4
100
AcDbEntity
  8
Defpoints
 62
     0
100
AcDbPoint
 10
21.25549441403328
 20
187.6547414593014
 30
0.0
  0
POINT
  5
56ED
330
56E4
100
AcDbEntity
  8
Defpoints
 62
     0
100
AcDbPoint
 10
34.02826651962755
 20
142.6547414593014
 30
0.0
  0
POINT
  5
56EE
330
56E4
100
AcDbEntity
  8
Defpoints
 62
     0
100
AcDbPoint
 10
10.0
 20
142.6547414593014
 30
0.0
  0
ENDBLK
  5
56EF
330
56E4
100
AcDbEntity
  8
0
100
AcDbBlockEnd
  0
BLOCK
  5
57E4
330
57E3
100
AcDbEntity
  8
0
100
AcDbBlockBegin
  2
*D58
 70
     1
 10
0.0
 20
0.0
 30
0.0
  3
*D58
  1

  0
LINE
  5
57E6
330
57E3
100
AcDbEntity
  8
寸法
 62
     0
370
    -2
100
AcDbLine
 10
650.2635882192207
 20
313.4794699157856
 30
0.0
 11
639.0080938051874
 21
313.4794699157856
 31
0.0
  0
LINE
  5
57E7
330
57E3
100
AcDbEntity
  8
寸法
 62
     0
370
    -2
100
AcDbLine
 10
650.2635882192207
 20
320.4794699157856
 30
0.0
 11
639.0080938051874
 21
320.4794699157856
 31
0.0
  0
LINE
  5
57E8
330
57E3
100
AcDbEntity
  8
寸法
 62
     0
370
    -2
100
AcDbLine
 10
639.0080938051874
 20
315.4794699157856
 30
0.0
 11
639.0080938051874
 21
318.4794699157856
 31
0.0
  0
INSERT
  5
57E9
330
57E3
100
AcDbEntity
  8
寸法
 62
     0
370
    -2
100
AcDbBlockReference
  2
_DOT
 10
639.0080938051874
 20
313.4794699157856
 30
0.0
 41
2.0
 42
2.0
 43
2.0
 50
270.0
  0
INSERT
  5
57EA
330
57E3
100
AcDbEntity
  8
寸法
 62
     0
370
    -2
100
AcDbBlockReference
  2
_DOT
 10
639.0080938051874
 20
320.4794699157856
 30
0.0
 41
2.0
 42
2.0
 43
2.0
 50
90.0
  0
MTEXT
  5
57EB
330
57E3
100
AcDbEntity
  8
寸法
 62
     0
100
AcDbMText
 10
631.5080938051874
 20
316.9794699157855
 30
0.0
 40
5.0
 41
0.0
 46
0.0
 71
     5
 72
     1
  1
\A1;7
  7
ＭＳ ゴシック
 11
0.0
 21
1.0
 31
0.0
 73
     1
 44
1.0
  0
POINT
  5
57EC
330
57E3
100
AcDbEntity
  8
Defpoints
 62
     0
100
AcDbPoint
 10
655.2635882192207
 20
313.4794699157856
 30
0.0
  0
POINT
  5
57ED
330
57E3
100
AcDbEntity
  8
Defpoints
 62
     0
100
AcDbPoint
 10
655.2635882192207
 20
320.4794699157856
 30
0.0
  0
POINT
  5
57EE
330
57E3
100
AcDbEntity
  8
Defpoints
 62
     0
100
AcDbPoint
 10
639.0080938051874
 20
320.4794699157856
 30
0.0
  0
ENDBLK
  5
57E5
330
57E3
100
AcDbEntity
  8
0
100
AcDbBlockEnd
  0
BLOCK
  5
57F0
330
57EF
100
AcDbEntity
  8
0
100
AcDbBlockBegin
  2
*D59
 70
     1
 10
0.0
 20
0.0
 30
0.0
  3
*D59
  1

  0
LINE
  5
57F2
330
57EF
100
AcDbEntity
  8
寸法
 62
     0
370
    -2
100
AcDbLine
 10
657.7635882192207
 20
268.6314384116325
 30
0.0
 11
657.7635882192207
 21
246.9822358396791
 31
0.0
  0
LINE
  5
57F3
330
57EF
100
AcDbEntity
  8
寸法
 62
     0
370
    -2
100
AcDbLine
 10
707.7635882192207
 20
268.6314384116325
 30
0.0
 11
707.7635882192207
 21
246.9822358396791
 31
0.0
  0
LINE
  5
57F4
330
57EF
100
AcDbEntity
  8
寸法
 62
     0
370
    -2
100
AcDbLine
 10
659.7635882192207
 20
246.9822358396791
 30
0.0
 11
705.7635882192207
 21
246.9822358396791
 31
0.0
  0
INSERT
  5
57F5
330
57EF
100
AcDbEntity
  8
寸法
 62
     0
370
    -2
100
AcDbBlockReference
  2
_DOT
 10
657.7635882192207
 20
246.9822358396791
 30
0.0
 41
2.0
 42
2.0
 43
2.0
 50
180.0
  0
INSERT
  5
57F6
330
57EF
100
AcDbEntity
  8
寸法
 62
     0
370
    -2
100
AcDbBlockReference
  2
_DOT
 10
707.7635882192207
 20
246.9822358396791
 30
0.0
 41
2.0
 42
2.0
 43
2.0
  0
MTEXT
  5
57F7
330
57EF
100
AcDbEntity
  8
寸法
 62
     0
100
AcDbMText
 10
682.7635882192207
 20
254.4822358396791
 30
0.0
 40
5.0
 41
0.0
 46
0.0
 71
     5
 72
     1
  1
\A1;%%cX
  7
ＭＳ ゴシック
 73
     1
 44
1.0
  0
POINT
  5
57F8
330
57EF
100
AcDbEntity
  8
Defpoints
 62
     0
100
AcDbPoint
 10
657.7635882192207
 20
273.6314384116325
 30
0.0
  0
POINT
  5
57F9
330
57EF
100
AcDbEntity
  8
Defpoints
 62
     0
100
AcDbPoint
 10
707.7635882192207
 20
273.6314384116325
 30
0.0
  0
POINT
  5
57FA
330
57EF
100
AcDbEntity
  8
Defpoints
 62
     0
100
AcDbPoint
 10
707.7635882192207
 20
246.9822358396791
 30
0.0
  0
ENDBLK
  5
57F1
330
57EF
100
AcDbEntity
  8
0
100
AcDbBlockEnd
  0
BLOCK
  5
57FC
330
57FB
100
AcDbEntity
  8
0
100
AcDbBlockBegin
  2
*D60
 70
     1
 10
0.0
 20
0.0
 30
0.0
  3
*D60
  1

  0
LINE
  5
57FE
330
57FB
100
AcDbEntity
  8
寸法
 62
     0
370
    -2
100
AcDbLine
 10
671.9482125419872
 20
190.5588563933376
 30
0.0
 11
641.0097410107201
 21
190.5588563933376
 31
0.0
  0
LINE
  5
57FF
330
57FB
100
AcDbEntity
  8
寸法
 62
     0
370
    -2
100
AcDbLine
 10
671.9482125419872
 20
135.5588563933376
 30
0.0
 11
641.0097410107201
 21
135.5588563933376
 31
0.0
  0
LINE
  5
5800
330
57FB
100
AcDbEntity
  8
寸法
 62
     0
370
    -2
100
AcDbLine
 10
641.0097410107201
 20
188.5588563933376
 30
0.0
 11
641.0097410107201
 21
137.5588563933376
 31
0.0
  0
INSERT
  5
5801
330
57FB
100
AcDbEntity
  8
寸法
 62
     0
370
    -2
100
AcDbBlockReference
  2
_DOT
 10
641.0097410107201
 20
190.5588563933376
 30
0.0
 41
2.0
 42
2.0
 43
2.0
 50
90.0
  0
INSERT
  5
5802
330
57FB
100
AcDbEntity
  8
寸法
 62
     0
370
    -2
100
AcDbBlockReference
  2
_DOT
 10
641.0097410107201
 20
135.5588563933376
 30
0.0
 41
2.0
 42
2.0
 43
2.0
 50
270.0
  0
MTEXT
  5
5803
330
57FB
100
AcDbEntity
  8
寸法
 62
     0
100
AcDbMText
 10
633.5097410107201
 20
163.0588563933376
 30
0.0
 40
5.0
 41
0.0
 46
0.0
 71
     5
 72
     1
  1
\A1;55
  7
ＭＳ ゴシック
 11
0.0
 21
1.0
 31
0.0
 73
     1
 44
1.0
  0
POINT
  5
5804
330
57FB
100
AcDbEntity
  8
Defpoints
 62
     0
100
AcDbPoint
 10
676.9482125419872
 20
190.5588563933376
 30
0.0
  0
POINT
  5
5805
330
57FB
100
AcDbEntity
  8
Defpoints
 62
     0
100
AcDbPoint
 10
676.9482125419872
 20
135.5588563933376
 30
0.0
  0
POINT
  5
5806
330
57FB
100
AcDbEntity
  8
Defpoints
 62
     0
100
AcDbPoint
 10
641.00974101072
 20
135.5588563933376
 30
0.0
  0
ENDBLK
  5
57FD
330
57FB
100
AcDbEntity
  8
0
100
AcDbBlockEnd
  0
BLOCK
  5
5808
330
5807
100
AcDbEntity
  8
0
100
AcDbBlockBegin
  2
*D61
 70
     1
 10
0.0
 20
0.0
 30
0.0
  3
*D61
  1

  0
LINE
  5
580A
330
5807
100
AcDbEntity
  8
寸法
 62
     0
370
    -2
100
AcDbLine
 10
715.2635882192208
 20
320.4794699157856
 30
0.0
 11
729.5137178537038
 21
320.4794699157856
 31
0.0
  0
LINE
  5
580B
330
5807
100
AcDbEntity
  8
寸法
 62
     0
370
    -2
100
AcDbLine
 10
712.7635882192207
 20
268.6314384116325
 30
0.0
 11
729.5137178537038
 21
268.6314384116325
 31
0.0
  0
LINE
  5
580C
330
5807
100
AcDbEntity
  8
寸法
 62
     0
370
    -2
100
AcDbLine
 10
729.5137178537038
 20
318.4794699157856
 30
0.0
 11
729.5137178537038
 21
270.6314384116325
 31
0.0
  0
INSERT
  5
580D
330
5807
100
AcDbEntity
  8
寸法
 62
     0
370
    -2
100
AcDbBlockReference
  2
_DOT
 10
729.5137178537038
 20
320.4794699157856
 30
0.0
 41
2.0
 42
2.0
 43
2.0
 50
90.0
  0
INSERT
  5
580E
330
5807
100
AcDbEntity
  8
寸法
 62
     0
370
    -2
100
AcDbBlockReference
  2
_DOT
 10
729.5137178537038
 20
268.6314384116325
 30
0.0
 41
2.0
 42
2.0
 43
2.0
 50
270.0
  0
MTEXT
  5
580F
330
5807
100
AcDbEntity
  8
寸法
 62
     0
100
AcDbMText
 10
722.0137178537038
 20
294.555454163709
 30
0.0
 40
5.0
 41
0.0
 46
0.0
 71
     5
 72
     1
  1
\A1;52
  7
ＭＳ ゴシック
 11
0.0
 21
1.0
 31
0.0
 73
     1
 44
1.0
  0
POINT
  5
5810
330
5807
100
AcDbEntity
  8
Defpoints
 62
     0
100
AcDbPoint
 10
710.2635882192208
 20
320.4794699157856
 30
0.0
  0
POINT
  5
5811
330
5807
100
AcDbEntity
  8
Defpoints
 62
     0
100
AcDbPoint
 10
707.7635882192207
 20
268.6314384116325
 30
0.0
  0
POINT
  5
5812
330
5807
100
AcDbEntity
  8
Defpoints
 62
     0
100
AcDbPoint
 10
729.5137178537038
 20
268.6314384116325
 30
0.0
  0
ENDBLK
  5
5809
330
5807
100
AcDbEntity
  8
0
100
AcDbBlockEnd
  0
BLOCK
  5
5814
330
5813
100
AcDbEntity
  8
0
100
AcDbBlockBegin
  2
*D62
 70
     1
 10
0.0
 20
0.0
 30
0.0
  3
*D62
  1

  0
LINE
  5
5816
330
5813
100
AcDbEntity
  8
寸法
 62
     0
370
    -2
100
AcDbLine
 10
645.2635882192207
 20
313.4794699157856
 30
0.0
 11
639.0080938051874
 21
313.4794699157856
 31
0.0
  0
LINE
  5
5817
330
5813
100
AcDbEntity
  8
寸法
 62
     0
370
    -2
100
AcDbLine
 10
658.036360324815
 20
268.4794699157856
 30
0.0
 11
639.0080938051874
 21
268.4794699157856
 31
0.0
  0
LINE
  5
5818
330
5813
100
AcDbEntity
  8
寸法
 62
     0
370
    -2
100
AcDbLine
 10
639.0080938051874
 20
311.4794699157856
 30
0.0
 11
639.0080938051874
 21
270.4794699157856
 31
0.0
  0
INSERT
  5
5819
330
5813
100
AcDbEntity
  8
寸法
 62
     0
370
    -2
100
AcDbBlockReference
  2
_DOT
 10
639.0080938051874
 20
313.4794699157856
 30
0.0
 41
2.0
 42
2.0
 43
2.0
 50
90.0
  0
INSERT
  5
581A
330
5813
100
AcDbEntity
  8
寸法
 62
     0
370
    -2
100
AcDbBlockReference
  2
_DOT
 10
639.0080938051874
 20
268.4794699157856
 30
0.0
 41
2.0
 42
2.0
 43
2.0
 50
270.0
  0
MTEXT
  5
581B
330
5813
100
AcDbEntity
  8
寸法
 62
     0
100
AcDbMText
 10
631.5080938051874
 20
290.9794699157856
 30
0.0
 40
5.0
 41
0.0
 46
0.0
 71
     5
 72
     1
  1
\A1;45
  7
ＭＳ ゴシック
 11
0.0
 21
1.0
 31
0.0
 73
     1
 44
1.0
  0
POINT
  5
581C
330
5813
100
AcDbEntity
  8
Defpoints
 62
     0
100
AcDbPoint
 10
650.2635882192207
 20
313.4794699157856
 30
0.0
  0
POINT
  5
581D
330
5813
100
AcDbEntity
  8
Defpoints
 62
     0
100
AcDbPoint
 10
663.036360324815
 20
268.4794699157856
 30
0.0
  0
POINT
  5
581E
330
5813
100
AcDbEntity
  8
Defpoints
 62
     0
100
AcDbPoint
 10
639.0080938051874
 20
268.4794699157856
 30
0.0
  0
ENDBLK
  5
5815
330
5813
100
AcDbEntity
  8
0
100
AcDbBlockEnd
  0
BLOCK
  5
5828
330
5827
100
AcDbEntity
  8
0
100
AcDbBlockBegin
  2
*D63
 70
     1
 10
0.0
 20
0.0
 30
0.0
  3
*D63
  1

  0
LINE
  5
582A
330
5827
100
AcDbEntity
  8
寸法
 62
     0
370
    -2
100
AcDbLine
 10
153.7738307387119
 20
344.60876353296
 30
0.0
 11
173.5417867435158
 21
344.60876353296
 31
0.0
  0
LINE
  5
582B
330
5827
100
AcDbEntity
  8
寸法
 62
     0
370
    -2
100
AcDbLine
 10
137.2030386167147
 20
262.6087635329601
 30
0.0
 11
173.5417867435158
 21
262.6087635329601
 31
0.0
  0
LINE
  5
582C
330
5827
100
AcDbEntity
  8
寸法
 62
     0
370
    -2
100
AcDbLine
 10
173.5417867435158
 20
342.60876353296
 30
0.0
 11
173.5417867435158
 21
264.6087635329601
 31
0.0
  0
INSERT
  5
582D
330
5827
100
AcDbEntity
  8
寸法
 62
     0
370
    -2
100
AcDbBlockReference
  2
_DOT
 10
173.5417867435158
 20
344.60876353296
 30
0.0
 41
2.0
 42
2.0
 43
2.0
 50
90.0
  0
INSERT
  5
582E
330
5827
100
AcDbEntity
  8
寸法
 62
     0
370
    -2
100
AcDbBlockReference
  2
_DOT
 10
173.5417867435158
 20
262.6087635329601
 30
0.0
 41
2.0
 42
2.0
 43
2.0
 50
270.0
  0
MTEXT
  5
582F
330
5827
100
AcDbEntity
  8
寸法
 62
     0
100
AcDbMText
 10
166.0417867435158
 20
303.6087635329601
 30
0.0
 40
5.0
 41
0.0
 46
0.0
 71
     5
 72
     1
  1
\A1;82
  7
ＭＳ ゴシック
 11
0.0
 21
1.0
 31
0.0
 73
     1
 44
1.0
  0
POINT
  5
5830
330
5827
100
AcDbEntity
  8
Defpoints
 62
     0
100
AcDbPoint
 10
148.7738307387119
 20
344.60876353296
 30
0.0
  0
POINT
  5
5831
330
5827
100
AcDbEntity
  8
Defpoints
 62
     0
100
AcDbPoint
 10
132.2030386167147
 20
262.6087635329601
 30
0.0
  0
POINT
  5
5832
330
5827
100
AcDbEntity
  8
Defpoints
 62
     0
100
AcDbPoint
 10
173.5417867435158
 20
262.6087635329601
 30
0.0
  0
ENDBLK
  5
5829
330
5827
100
AcDbEntity
  8
0
100
AcDbBlockEnd
  0
ENDSEC
  0
SECTION
  2
ENTITIES
  0
LINE
  5
36CD
330
A
100
AcDbEntity
  8
PRINT BORDER
100
AcDbLine
 10
296.9999999999999
 20
0.0
 30
0.0
 11
296.9999999999999
 21
15.30952622855898
 31
0.0
  0
LINE
  5
36CE
330
A
100
AcDbEntity
  8
テンプレート
100
AcDbLine
 10
459.1755527377521
 20
38.27810890422097
 30
0.0
 11
15.30952622855898
 21
38.27810890422097
 31
0.0
  0
LINE
  5
36CF
330
A
100
AcDbEntity
  8
テンプレート
100
AcDbLine
 10
15.30952622855898
 20
26.22153683920783
 30
0.0
 11
578.6904737714407
 21
26.22153683920783
 31
0.0
  0
TEXT
  5
36D0
330
A
100
AcDbEntity
  8
テンプレート
100
AcDbText
 10
18.06121699514119
 20
32.16825981613692
 30
0.0
 40
3.5
  1
材質
  7
ＭＳ ゴシック
100
AcDbText
  0
TEXT
  5
36D3
330
A
100
AcDbEntity
  8
テンプレート
100
AcDbText
 10
18.06121699514119
 20
56.50959028673083
 30
0.0
 40
3.5
  1
品名
  7
ＭＳ ゴシック
100
AcDbText
  0
TEXT
  5
36D4
330
A
100
AcDbEntity
  8
テンプレート
100
AcDbText
 10
18.06121699514119
 20
44.65099339080098
 30
0.0
 40
3.5
  1
仕上げ
  7
ＭＳ ゴシック
100
AcDbText
  0
TEXT
  5
36D5
330
A
100
AcDbEntity
  8
テンプレート
100
AcDbText
 10
298.8233485179306
 20
56.58523052309898
 30
0.0
 40
3.5
  1
品番
  7
ＭＳ ゴシック
100
AcDbText
  0
TEXT
  5
36D6
330
A
100
AcDbEntity
  8
テンプレート
100
AcDbText
 10
36.7528253083583
 20
53.09440584367189
 30
0.0
 40
5.5
  1
ドアノブ(片面固定タイプ) - FSB -
  7
ＭＳ ゴシック
100
AcDbText
  0
TEXT
  5
36D7
330
A
100
AcDbEntity
  8
テンプレート
100
AcDbText
 10
314.0047862484983
 20
52.977080524553
 30
0.0
 40
5.5
  1
FSB11-0844A
  7
ＭＳ ゴシック
100
AcDbText
  0
LINE
  5
36D8
330
A
100
AcDbEntity
  8
テンプレート
100
AcDbLine
 10
459.1755527377521
 20
50.16496477419605
 30
0.0
 11
15.30952622855898
 21
50.16496477419605
 31
0.0
  0
LINE
  5
36D9
330
A
100
AcDbEntity
  8
テンプレート
100
AcDbLine
 10
578.6904737714411
 20
62.22153683920783
 30
0.0
 11
15.30952622855898
 21
62.22153683920783
 31
0.0
  0
LINE
  5
36DA
330
A
100
AcDbEntity
  8
PRINT BORDER
100
AcDbLine
 10
593.9999999999999
 20
210.0
 30
0.0
 11
578.6904737714411
 21
210.0
 31
0.0
  0
LINE
  5
36DB
330
A
100
AcDbEntity
  8
PRINT BORDER
100
AcDbLine
 10
0.0
 20
210.0
 30
0.0
 11
15.30952622855898
 21
210.0
 31
0.0
  0
LINE
  5
36DD
330
A
100
AcDbEntity
  8
テンプレート
100
AcDbLine
 10
578.6904737714411
 20
62.22153683920783
 30
0.0
 11
578.6904737714411
 21
26.22153683920783
 31
0.0
  0
LINE
  5
36DE
330
A
100
AcDbEntity
  8
テンプレート
100
AcDbLine
 10
15.30952622855898
 20
62.22153683920783
 30
0.0
 11
15.30952622855898
 21
26.22153683920783
 31
0.0
  0
TEXT
  5
36DF
330
A
100
AcDbEntity
  8
テンプレート
100
AcDbText
 10
461.264305205099
 20
56.585230523099
 30
0.0
 40
3.5
  1
備考
  7
ＭＳ ゴシック
100
AcDbText
  0
TEXT
  5
36E0
330
A
100
AcDbEntity
  8
テンプレート
100
AcDbText
 10
494.9733384955217
 20
16.51938390313694
 30
0.0
 40
5.5
  1
大洋金物株式会社  
  7
ＭＳ ゴシック
100
AcDbText
  0
LINE
  5
36E1
330
A
100
AcDbEntity
  8
テンプレート
100
AcDbLine
 10
459.1755527377521
 20
62.22153683920786
 30
0.0
 11
459.1755527377521
 21
26.22153683920786
 31
0.0
  0
LINE
  5
36E2
330
A
100
AcDbEntity
  8
テンプレート
100
AcDbLine
 10
296.9999999999999
 20
62.22153683920783
 30
0.0
 11
296.9999999999999
 21
26.22153683920783
 31
0.0
  0
INSERT
  5
36E3
330
A
100
AcDbEntity
  8
テンプレート
100
AcDbBlockReference
  2
名称未設定-1
 10
548.3945198859805
 20
-7.642344203993161
 30
0.0
 41
0.180975
 42
0.180975
 43
0.180975
  0
LINE
  5
36E5
330
A
100
AcDbEntity
  8
テンプレート
100
AcDbLine
 10
15.30952622855898
 20
210.0
 30
0.0
 11
15.30952622855898
 21
26.22153683920783
 31
0.0
  0
LINE
  5
36E6
330
A
100
AcDbEntity
  8
テンプレート
100
AcDbLine
 10
15.30952622855898
 20
210.0
 30
0.0
 11
15.30952622855898
 21
404.690473771441
 31
0.0
  0
LINE
  5
36E9
330
A
100
AcDbEntity
  8
テンプレート
100
AcDbLine
 10
578.6904737714411
 20
210.0
 30
0.0
 11
578.6904737714411
 21
404.690473771441
 31
0.0
  0
LINE
  5
36EA
330
A
100
AcDbEntity
  8
テンプレート
100
AcDbLine
 10
578.6904737714411
 20
210.0
 30
0.0
 11
578.6904737714411
 21
26.22153683920783
 31
0.0
  0
LWPOLYLINE
  5
36EB
330
A
100
AcDbEntity
  8
PRINT BORDER
  6
HIDDEN
 48
3.0
100
AcDbPolyline
 90
        4
 70
     1
 43
0.0
 10
0.0
 20
0.0
 10
0.0
 20
420.0
 10
593.9999999999999
 20
420.0
 10
593.9999999999999
 20
0.0
  0
TEXT
  5
36EC
330
A
100
AcDbEntity
  8
テンプレート
100
AcDbText
 10
298.7989156222221
 20
32.62405342819488
 30
0.0
 40
3.5
  1
縮尺
  7
ＭＳ ゴシック
100
AcDbText
  0
TEXT
  5
36ED
330
A
100
AcDbEntity
  8
テンプレート
100
AcDbText
 10
314.0047862484983
 20
28.29362070227194
 30
0.0
 40
5.5
  1
1/2
  7
ＭＳ ゴシック
100
AcDbText
  0
TEXT
  5
37DE
330
A
100
AcDbEntity
  8
テンプレート
100
AcDbText
 10
298.8233485179306
 20
44.52865845808583
 30
0.0
 40
3.5
  1
扉厚
  7
ＭＳ ゴシック
100
AcDbText
  0
TEXT
  5
4E0D
330
A
100
AcDbEntity
  8
テンプレート
100
AcDbText
 10
181.7507280995997
 20
96.8861054737735
 30
0.0
 40
5.0
  1
　 加工は現物合わせの上行って下さい。
  7
ＭＳ ゴシック
100
AcDbText
  0
TEXT
  5
4E0E
330
A
100
AcDbEntity
  8
テンプレート
100
AcDbText
 10
181.9229711818083
 20
104.9898895699137
 30
0.0
 40
5.0
  1
※ 輸入製品の為、国内製品と比べ製品寸法の個体差に幅が有ります。
  7
ＭＳ ゴシック
100
AcDbText
  0
TEXT
  5
4E0F
330
A
100
AcDbEntity
  8
テンプレート
100
AcDbText
 10
181.7507280995997
 20
87.514474169293
 30
0.0
 40
5.0
  1
※ ご注文の際は正確な扉厚の指示をしてください。
  7
ＭＳ ゴシック
100
AcDbText
  0
TEXT
  5
4E10
330
A
100
AcDbEntity
  8
テンプレート
100
AcDbText
 10
181.7507280995997
 20
78.81498553830707
 30
0.0
 40
5.0
  1
※ イモネジ・ビスのゆるみ止め防止のために金属製ネジ用ゆるみ止め剤(中強度タイプ)
  7
ＭＳ ゴシック
100
AcDbText
  0
TEXT
  5
4E11
330
A
100
AcDbEntity
  8
テンプレート
100
AcDbText
 10
177.9862824207493
 20
69.37411239193082
 30
0.0
 40
5.0
  1
　　を用意して塗布してください。(推奨商品　住友3M社TL42J等)
  7
ＭＳ ゴシック
100
AcDbText
  0
MTEXT
  5
4E13
102
{ACAD_XDICTIONARY
360
4E15
102
}
330
A
100
AcDbEntity
  8
TFORMLOGO
100
AcDbMText
 10
16.5085163356771
 20
23.69936259043238
 30
0.0
 40
4.0
 41
0.0
 46
4.0
 71
     1
 72
     1
  1
{20180521N}
  7
ＭＳ ゴシック
 73
     1
 44
1.0
1001
ACAD
1000
ACAD_MTEXT_DEFINED_HEIGHT_BEGIN
1070
    46
1040
4.0
1000
ACAD_MTEXT_DEFINED_HEIGHT_END
  0
LINE
  5
4E1F
330
A
100
AcDbEntity
  8
TFORMLOGO
100
AcDbLine
 10
33.63100153769663
 20
26.22153683920781
 30
0.0
 11
33.63100153769662
 21
50.16496477419603
 31
0.0
  0
LINE
  5
53AC
330
A
100
AcDbEntity
  8
テンプレート
100
AcDbLine
 10
15.30952622855898
 20
404.690473771441
 30
0.0
 11
578.6904737714411
 21
404.690473771441
 31
0.0
  0
CIRCLE
  5
5443
330
A
100
AcDbEntity
  8
モデル
  6
Continuous
100
AcDbCircle
 10
121.2738307387119
 20
167.3002972752913
 30
0.0
 40
27.4
  0
CIRCLE
  5
5444
330
A
100
AcDbEntity
  8
モデル
  6
Continuous
100
AcDbCircle
 10
121.2738307387119
 20
167.3002972752913
 30
0.0
 40
26.0
  0
ARC
  5
544C
330
A
100
AcDbEntity
  8
モデル
  6
Continuous
100
AcDbCircle
 10
63.77383073871192
 20
331.01584253296
 30
0.0
 40
45.00000000000003
100
AcDbArc
 50
329.9999999999998
 51
0.0
  0
ARC
  5
544D
330
A
100
AcDbEntity
  8
モデル
  6
Continuous
100
AcDbCircle
 10
121.2738307387119
 20
288.60876353296
 30
0.0
 40
26.0
100
AcDbArc
 50
150.0
 51
30.00000000000001
  0
ARC
  5
544E
330
A
100
AcDbEntity
  8
モデル
  6
Continuous
100
AcDbCircle
 10
178.7738307387119
 20
331.01584253296
 30
0.0
 40
44.99999999999997
100
AcDbArc
 50
180.0
 51
210.0
  0
ARC
  5
544F
330
A
100
AcDbEntity
  8
モデル
  6
Continuous
100
AcDbCircle
 10
215.3576562026887
 20
109.8002972752911
 30
0.0
 40
45.0
100
AcDbArc
 50
60.00000000000001
 51
90.0
  0
ARC
  5
5450
330
A
100
AcDbEntity
  8
モデル
  6
Continuous
100
AcDbCircle
 10
257.7647352026888
 20
167.3002972752911
 30
0.0
 40
26.0
100
AcDbArc
 50
240.0
 51
120.0
  0
ARC
  5
5451
330
A
100
AcDbEntity
  8
モデル
  6
Continuous
100
AcDbCircle
 10
215.3576562026887
 20
224.8002972752911
 30
0.0
 40
45.0
100
AcDbArc
 50
270.0
 51
300.0
  0
LINE
  5
5482
330
A
100
AcDbEntity
  8
モデル
  6
Continuous
100
AcDbLine
 10
98.75717073871192
 20
301.60876353296
 30
0.0
 11
102.7449737387119
 21
308.51584253296
 31
0.0
  0
LINE
  5
5483
330
A
100
AcDbEntity
  8
モデル
  6
Continuous
100
AcDbLine
 10
108.7738307387119
 20
331.01584253296
 30
0.0
 11
108.7738307387119
 21
337.60876353296
 31
0.0
  0
LINE
  5
5484
330
A
100
AcDbEntity
  8
モデル
  6
Continuous
100
AcDbLine
 10
139.8026877387119
 20
308.51584253296
 30
0.0
 11
143.7904907387119
 21
301.60876353296
 31
0.0
  0
LINE
  5
5485
330
A
100
AcDbEntity
  8
モデル
  6
Continuous
100
AcDbLine
 10
133.7738307387119
 20
337.60876353296
 30
0.0
 11
133.7738307387119
 21
331.01584253296
 31
0.0
  0
LINE
  5
5486
330
A
100
AcDbEntity
  8
モデル
  6
Continuous
100
AcDbLine
 10
244.7647352026888
 20
144.7836372752911
 30
0.0
 11
237.8576562026887
 21
148.7714402752911
 31
0.0
  0
LINE
  5
5487
330
A
100
AcDbEntity
  8
モデル
  6
Continuous
100
AcDbLine
 10
215.3576562026887
 20
154.8002972752911
 30
0.0
 11
208.7647352026888
 21
154.8002972752911
 31
0.0
  0
LINE
  5
5488
330
A
100
AcDbEntity
  8
モデル
  6
Continuous
100
AcDbLine
 10
237.8576562026887
 20
185.8291542752912
 30
0.0
 11
244.7647352026888
 21
189.8169572752911
 31
0.0
  0
LINE
  5
5489
330
A
100
AcDbEntity
  8
モデル
  6
Continuous
100
AcDbLine
 10
208.7647352026888
 20
179.8002972752911
 30
0.0
 11
215.3576562026887
 21
179.8002972752911
 31
0.0
  0
LINE
  5
548B
330
A
100
AcDbEntity
  8
モデル
100
AcDbLine
 10
208.7647352026888
 20
179.8002972752911
 30
0.0
 11
208.7647352026888
 21
154.8002972752911
 31
0.0
  0
LINE
  5
548F
330
A
100
AcDbEntity
  8
モデル
100
AcDbLine
 10
108.7738307387119
 20
337.60876353296
 30
0.0
 11
133.7738307387119
 21
337.60876353296
 31
0.0
  0
LINE
  5
5498
330
A
100
AcDbEntity
  8
モデル
100
AcDbLine
 10
133.2738307387119
 20
337.60876353296
 30
0.0
 11
109.2738307387119
 21
337.60876353296
 31
0.0
  0
DIMENSION
  5
54A6
330
A
100
AcDbEntity
  8
寸法
100
AcDbDimension
  2
*D46
 10
77.51833632467867
 20
344.60876353296
 30
0.0
 11
77.51833632467867
 21
341.1087635329599
 31
0.0
 70
   160
 71
     5
 42
7.0
 73
     0
 74
     0
 75
     0
  3
tfrom線あり
100
AcDbAlignedDimension
 13
93.77383073871192
 23
337.60876353296
 33
0.0
 14
93.77383073871192
 24
344.60876353296
 34
0.0
 50
90.0
100
AcDbRotatedDimension
1001
ACAD
1000
DSTYLE
1002
{
1070
   144
1040
1.0
1002
}
  0
DIMENSION
  5
54A9
330
A
100
AcDbEntity
  8
寸法
100
AcDbDimension
  2
*D47
 10
77.51833632467867
 20
262.60876353296
 30
0.0
 11
70.01833632467867
 21
300.10876353296
 31
0.0
 70
    32
 71
     5
 42
75.00000000000006
 73
     0
 74
     0
 75
     0
  3
tfrom線あり
100
AcDbAlignedDimension
 13
88.77383073871192
 23
337.60876353296
 33
0.0
 14
111.5318974534097
 24
262.60876353296
 34
0.0
 50
90.0
100
AcDbRotatedDimension
1001
ACAD
1000
DSTYLE
1002
{
1070
   144
1040
1.0
1002
}
  0
DIMENSION
  5
54AA
330
A
100
AcDbEntity
  8
寸法
100
AcDbDimension
  2
*D48
 10
147.2738307387119
 20
245.1020962405285
 30
0.0
 11
121.2738307387119
 21
252.6020962405285
 31
0.0
 70
    32
 71
     5
 42
52.0
 73
     0
 74
     0
 75
     0
  3
tfrom線あり
100
AcDbAlignedDimension
 13
95.27383073871192
 23
272.80611223613
 33
0.0
 14
147.2738307387119
 24
272.80611223613
 34
0.0
100
AcDbRotatedDimension
1001
ACAD
1000
DSTYLE
1002
{
1070
   144
1040
1.0
1002
}
  0
DIMENSION
  5
54EA
330
A
100
AcDbEntity
  8
モデル
100
AcDbDimension
  2
*D49
 10
81.96347598655086
 20
139.9002972752913
 30
0.0
 11
74.46347598655086
 21
167.3002972752913
 31
0.0
 70
    32
 71
     5
 42
54.79999999999995
 73
     0
 74
     0
 75
     0
  3
tfrom線あり
100
AcDbAlignedDimension
 13
113.0564520643603
 23
194.7002972752913
 33
0.0
 14
113.0564520643603
 24
139.9002972752913
 34
0.0
 50
90.0
100
AcDbRotatedDimension
1001
ACAD
1000
DSTYLE
1002
{
1070
   144
1040
1.0
1002
}
  0
LINE
  5
56F9
102
{ACAD_REACTORS
330
5820
102
}
330
A
100
AcDbEntity
  8
モデル
100
AcDbLine
 10
208.7647352026885
 20
179.3002972752911
 30
0.0
 11
208.7647352026885
 21
155.3002972752911
 31
0.0
  0
LINE
  5
56FF
102
{ACAD_REACTORS
330
581F
102
}
330
A
100
AcDbEntity
  8
モデル
100
AcDbLine
 10
133.2738307387118
 20
337.60876353296
 30
0.0
 11
109.2738307387118
 21
337.60876353296
 31
0.0
  0
LINE
  5
5718
102
{ACAD_REACTORS
330
5820
102
}
330
A
100
AcDbEntity
  8
モデル
100
AcDbLine
 10
208.7647352026888
 20
149.8002972752911
 30
0.0
 11
208.7647352026888
 21
184.8002972752911
 31
0.0
  0
LINE
  5
5719
102
{ACAD_REACTORS
330
581F
102
}
330
A
100
AcDbEntity
  8
モデル
100
AcDbLine
 10
98.77383073871192
 20
337.60876353296
 30
0.0
 11
143.7738307387119
 21
337.60876353296
 31
0.0
  0
LINE
  5
571A
102
{ACAD_REACTORS
330
581F
102
}
330
A
100
AcDbEntity
  8
モデル
100
AcDbLine
 10
133.2738307387119
 20
337.60876353296
 30
0.0
 11
109.2738307387119
 21
337.60876353296
 31
0.0
  0
LINE
  5
571B
102
{ACAD_REACTORS
330
581F
102
}
330
A
100
AcDbEntity
  8
モデル
100
AcDbLine
 10
133.2738307387119
 20
337.60876353296
 30
0.0
 11
109.2738307387119
 21
337.60876353296
 31
0.0
  0
LINE
  5
571C
102
{ACAD_REACTORS
330
5820
102
}
330
A
100
AcDbEntity
  8
モデル
100
AcDbLine
 10
208.7647352026888
 20
179.3002972752911
 30
0.0
 11
208.7647352026888
 21
155.3002972752911
 31
0.0
  0
LINE
  5
571D
102
{ACAD_REACTORS
330
581F
102
}
330
A
100
AcDbEntity
  8
モデル
100
AcDbLine
 10
93.77383073871192
 20
337.60876353296
 30
0.0
 11
148.7738307387119
 21
337.60876353296
 31
0.0
  0
LINE
  5
571E
102
{ACAD_REACTORS
330
581F
330
5826
102
}
330
A
100
AcDbEntity
  8
モデル
100
AcDbLine
 10
148.7738307387119
 20
337.60876353296
 30
0.0
 11
148.7738307387119
 21
344.60876353296
 31
0.0
  0
LINE
  5
571F
102
{ACAD_REACTORS
330
581F
102
}
330
A
100
AcDbEntity
  8
モデル
100
AcDbLine
 10
148.7738307387119
 20
344.60876353296
 30
0.0
 11
93.77383073871192
 21
344.60876353296
 31
0.0
  0
LINE
  5
5720
102
{ACAD_REACTORS
330
581F
102
}
330
A
100
AcDbEntity
  8
モデル
100
AcDbLine
 10
93.77383073871192
 20
344.60876353296
 30
0.0
 11
93.77383073871192
 21
337.60876353296
 31
0.0
  0
LINE
  5
5721
102
{ACAD_REACTORS
330
5820
102
}
330
A
100
AcDbEntity
  8
モデル
100
AcDbLine
 10
208.7647352026885
 20
139.8002972752911
 30
0.0
 11
208.7647352026888
 21
194.8002972752911
 31
0.0
  0
LINE
  5
5722
102
{ACAD_REACTORS
330
5820
102
}
330
A
100
AcDbEntity
  8
モデル
100
AcDbLine
 10
208.7647352026888
 20
194.8002972752911
 30
0.0
 11
201.7647352026888
 21
194.8002972752913
 31
0.0
  0
LINE
  5
5723
102
{ACAD_REACTORS
330
5820
102
}
330
A
100
AcDbEntity
  8
モデル
100
AcDbLine
 10
201.7647352026888
 20
194.8002972752913
 30
0.0
 11
201.7647352026885
 21
139.8002972752913
 31
0.0
  0
LINE
  5
5724
102
{ACAD_REACTORS
330
5820
102
}
330
A
100
AcDbEntity
  8
モデル
100
AcDbLine
 10
201.7647352026885
 20
139.8002972752913
 30
0.0
 11
208.7647352026885
 21
139.8002972752911
 31
0.0
  0
LINE
  5
5725
330
A
100
AcDbEntity
  8
モデル
100
AcDbLine
 10
501.0443158586046
 20
191.0588563933368
 30
0.0
 11
504.0443158586046
 21
191.0588563933368
 31
0.0
  0
LINE
  5
5726
330
A
100
AcDbEntity
  8
モデル
100
AcDbLine
 10
501.0443158586046
 20
144.0588563933368
 30
0.0
 11
504.0443158586046
 21
144.0588563933368
 31
0.0
  0
LINE
  5
5727
330
A
100
AcDbEntity
  8
モデル
100
AcDbLine
 10
501.0443158586046
 20
191.0588563933368
 30
0.0
 11
501.0443158586046
 21
144.0588563933368
 31
0.0
  0
LINE
  5
5728
330
A
100
AcDbEntity
  8
モデル
100
AcDbLine
 10
504.0443158586046
 20
191.0588563933368
 30
0.0
 11
504.0443158586046
 21
144.0588563933368
 31
0.0
  0
LINE
  5
5729
330
A
100
AcDbEntity
  8
モデル
100
AcDbLine
 10
506.8875633478514
 20
165.058856393337
 30
0.0
 11
506.8875633478514
 21
170.058856393337
 31
0.0
  0
LINE
  5
572A
330
A
100
AcDbEntity
  8
モデル
100
AcDbLine
 10
519.0443158586047
 20
172.0588563933368
 30
0.0
 11
528.0443158586047
 21
172.0588563933368
 31
0.0
  0
LINE
  5
572B
330
A
100
AcDbEntity
  8
モデル
100
AcDbLine
 10
514.5443158586047
 20
170.8088563933368
 30
0.0
 11
517.5443158586047
 21
170.8088563933368
 31
0.0
  0
LINE
  5
572C
330
A
100
AcDbEntity
  8
モデル
100
AcDbLine
 10
513.0443158586047
 20
172.0588563933368
 30
0.0
 11
514.5443158586047
 21
170.8088563933368
 31
0.0
  0
LINE
  5
572D
330
A
100
AcDbEntity
  8
モデル
100
AcDbLine
 10
517.5443158586047
 20
170.8088563933368
 30
0.0
 11
519.0443158586047
 21
172.0588563933368
 31
0.0
  0
LINE
  5
572E
330
A
100
AcDbEntity
  8
モデル
100
AcDbLine
 10
519.0443158586047
 20
163.0588563933368
 30
0.0
 11
528.0443158586047
 21
163.0588563933368
 31
0.0
  0
LINE
  5
572F
330
A
100
AcDbEntity
  8
モデル
100
AcDbLine
 10
514.5443158586047
 20
164.3088563933368
 30
0.0
 11
517.5443158586047
 21
164.3088563933368
 31
0.0
  0
LINE
  5
5730
330
A
100
AcDbEntity
  8
モデル
100
AcDbLine
 10
513.0443158586047
 20
163.0588563933368
 30
0.0
 11
514.5443158586047
 21
164.3088563933368
 31
0.0
  0
LINE
  5
5731
330
A
100
AcDbEntity
  8
モデル
100
AcDbLine
 10
517.5443158586047
 20
164.3088563933368
 30
0.0
 11
519.0443158586047
 21
163.0588563933368
 31
0.0
  0
LINE
  5
5732
330
A
100
AcDbEntity
  8
モデル
100
AcDbLine
 10
528.0443158586047
 20
172.0588563933368
 30
0.0
 11
528.0443158586047
 21
163.0588563933368
 31
0.0
  0
LINE
  5
5733
330
A
100
AcDbEntity
  8
モデル
100
AcDbLine
 10
504.0443158586046
 20
172.0588563933368
 30
0.0
 11
513.0443158586047
 21
172.0588563933368
 31
0.0
  0
LINE
  5
5734
330
A
100
AcDbEntity
  8
モデル
100
AcDbLine
 10
504.0443158586046
 20
163.0588563933368
 30
0.0
 11
513.0443158586047
 21
163.0588563933368
 31
0.0
  0
CIRCLE
  5
5735
330
A
100
AcDbEntity
  8
モデル
100
AcDbCircle
 10
406.6312932177145
 20
167.5588563933368
 30
0.0
 40
23.5
  0
CIRCLE
  5
5736
330
A
100
AcDbEntity
  8
モデル
100
AcDbCircle
 10
406.6312932177145
 20
167.5588563933368
 30
0.0
 40
4.0
  0
CIRCLE
  5
5737
330
A
100
AcDbEntity
  8
モデル
100
AcDbCircle
 10
406.6312932177145
 20
148.5588563933368
 30
0.0
 40
4.5
  0
CIRCLE
  5
5738
330
A
100
AcDbEntity
  8
モデル
100
AcDbCircle
 10
406.6312932177145
 20
148.5588563933368
 30
0.0
 40
2.5
  0
CIRCLE
  5
5739
330
A
100
AcDbEntity
  8
モデル
100
AcDbCircle
 10
417.1312932177145
 20
157.0588563933368
 30
0.0
 40
4.5
  0
CIRCLE
  5
573A
330
A
100
AcDbEntity
  8
モデル
100
AcDbCircle
 10
417.1312932177145
 20
157.0588563933368
 30
0.0
 40
2.5
  0
CIRCLE
  5
573B
330
A
100
AcDbEntity
  8
モデル
100
AcDbCircle
 10
396.1312932177145
 20
157.0588563933368
 30
0.0
 40
4.5
  0
CIRCLE
  5
573C
330
A
100
AcDbEntity
  8
モデル
100
AcDbCircle
 10
396.1312932177145
 20
157.0588563933368
 30
0.0
 40
2.5
  0
CIRCLE
  5
573D
330
A
100
AcDbEntity
  8
モデル
100
AcDbCircle
 10
417.1312932177145
 20
178.0588563933368
 30
0.0
 40
4.5
  0
CIRCLE
  5
573E
330
A
100
AcDbEntity
  8
モデル
100
AcDbCircle
 10
417.1312932177145
 20
178.0588563933368
 30
0.0
 40
2.5
  0
CIRCLE
  5
573F
330
A
100
AcDbEntity
  8
モデル
100
AcDbCircle
 10
396.1312932177145
 20
178.0588563933368
 30
0.0
 40
4.5
  0
CIRCLE
  5
5740
330
A
100
AcDbEntity
  8
モデル
100
AcDbCircle
 10
396.1312932177145
 20
178.0588563933368
 30
0.0
 40
2.5
  0
CIRCLE
  5
5741
330
A
100
AcDbEntity
  8
モデル
100
AcDbCircle
 10
406.6312932177145
 20
186.5588563933368
 30
0.0
 40
4.5
  0
CIRCLE
  5
5742
330
A
100
AcDbEntity
  8
モデル
100
AcDbCircle
 10
406.6312932177145
 20
186.5588563933368
 30
0.0
 40
2.5
  0
CIRCLE
  5
5743
330
A
100
AcDbEntity
  8
モデル
100
AcDbCircle
 10
425.6312932177145
 20
167.5588563933368
 30
0.0
 40
2.5
  0
CIRCLE
  5
5744
330
A
100
AcDbEntity
  8
モデル
100
AcDbCircle
 10
387.6312932177145
 20
167.5588563933368
 30
0.0
 40
2.5
  0
LINE
  5
5745
330
A
100
AcDbEntity
  8
モデル
100
AcDbLine
 10
430.1312932177145
 20
319.3112767894089
 30
0.0
 11
383.1312932177145
 21
319.3112767894089
 31
0.0
  0
LINE
  5
5746
330
A
100
AcDbEntity
  8
モデル
100
AcDbLine
 10
383.1312932177145
 20
322.3112767894089
 30
0.0
 11
383.1312932177145
 21
319.3112767894089
 31
0.0
  0
LINE
  5
5747
330
A
100
AcDbEntity
  8
モデル
100
AcDbLine
 10
430.1312932177145
 20
322.3112767894089
 30
0.0
 11
383.1312932177145
 21
322.3112767894089
 31
0.0
  0
LINE
  5
5748
330
A
100
AcDbEntity
  8
モデル
100
AcDbLine
 10
430.1312932177145
 20
322.3112767894089
 30
0.0
 11
430.1312932177145
 21
319.3112767894089
 31
0.0
  0
LINE
  5
5749
330
A
100
AcDbEntity
  8
モデル
100
AcDbLine
 10
399.6312932177145
 20
272.5156415283841
 30
0.0
 11
392.6312932177145
 21
272.5156415283841
 31
0.0
  0
LINE
  5
574A
330
A
100
AcDbEntity
  8
モデル
100
AcDbLine
 10
398.1312932177145
 20
274.5156415283841
 30
0.0
 11
394.1312932177145
 21
274.5156415283841
 31
0.0
  0
LINE
  5
574B
330
A
100
AcDbEntity
  8
モデル
100
AcDbLine
 10
399.6312932177145
 20
272.5156415283841
 30
0.0
 11
398.1312932177145
 21
274.5156415283841
 31
0.0
  0
LINE
  5
574C
330
A
100
AcDbEntity
  8
モデル
100
AcDbLine
 10
398.1312932177145
 20
274.5156415283841
 30
0.0
 11
397.6312932177145
 21
276.5156415283841
 31
0.0
  0
LINE
  5
574D
330
A
100
AcDbEntity
  8
モデル
100
AcDbLine
 10
397.6312932177145
 20
276.5156415283841
 30
0.0
 11
397.6312932177145
 21
285.5737688011876
 31
0.0
  0
LINE
  5
574E
330
A
100
AcDbEntity
  8
モデル
100
AcDbLine
 10
396.1312932177145
 20
287.5156415283841
 30
0.0
 11
397.6312932177145
 21
285.5737688011876
 31
0.0
  0
LINE
  5
574F
330
A
100
AcDbEntity
  8
モデル
100
AcDbLine
 10
394.1312932177145
 20
274.5156415283841
 30
0.0
 11
392.6312932177145
 21
272.5156415283841
 31
0.0
  0
LINE
  5
5750
330
A
100
AcDbEntity
  8
モデル
100
AcDbLine
 10
394.6312932177145
 20
276.5156415283841
 30
0.0
 11
394.1312932177145
 21
274.5156415283841
 31
0.0
  0
LINE
  5
5751
330
A
100
AcDbEntity
  8
モデル
100
AcDbLine
 10
394.6312932177145
 20
276.5156415283841
 30
0.0
 11
394.6312932177145
 21
285.5737688011876
 31
0.0
  0
LINE
  5
5752
330
A
100
AcDbEntity
  8
モデル
100
AcDbLine
 10
396.1312932177145
 20
287.5156415283841
 30
0.0
 11
394.6312932177145
 21
285.5737688011876
 31
0.0
  0
HATCH
  5
5753
330
A
100
AcDbEntity
  8
モデル
100
AcDbHatch
 10
0.0
 20
0.0
 30
0.0
210
0.0
220
0.0
230
1.0
  2
ANSI31
 70
     0
 71
     0
 91
        1
 92
        1
 93
        5
 72
     1
 10
397.6312932177145
 20
276.5156415283841
 11
397.6312932177145
 21
285.5737688011876
 72
     1
 10
396.1312932177145
 20
287.5156415283841
 11
397.6312932177145
 21
285.5737688011876
 72
     1
 10
396.1312932177145
 20
287.5156415283841
 11
394.6312932177145
 21
285.5737688011876
 72
     1
 10
394.6312932177145
 20
276.5156415283841
 11
394.6312932177145
 21
285.5737688011876
 72
     1
 10
397.6312932177145
 20
276.5156415283841
 11
394.6312932177145
 21
276.5156415283841
 97
        0
 75
     0
 76
     1
 52
180.0
 41
0.5
 77
     0
 78
     1
 53
225.0
 43
681.3684320937068
 44
552.1751206813135
 45
1.122532015133644
 46
-1.122532015133644
 79
     0
 98
        1
 10
681.3684320937068
 20
552.1751206813135
1001
ACAD
1010
0.0
1020
0.0
1030
0.0
  0
LINE
  5
5754
330
A
100
AcDbEntity
  8
寸法
  6
CENTER
100
AcDbLine
 10
396.1312932177145
 20
317.5729447333723
 30
0.0
 11
396.1312932177145
 21
289.2435468911982
 31
0.0
  0
LINE
  5
5755
330
A
100
AcDbEntity
  8
モデル
100
AcDbLine
 10
410.1312932177145
 20
272.5156415283841
 30
0.0
 11
403.1312932177145
 21
272.5156415283841
 31
0.0
  0
LINE
  5
5756
330
A
100
AcDbEntity
  8
モデル
100
AcDbLine
 10
408.6312932177145
 20
274.5156415283841
 30
0.0
 11
404.6312932177145
 21
274.5156415283841
 31
0.0
  0
LINE
  5
5757
330
A
100
AcDbEntity
  8
モデル
100
AcDbLine
 10
410.1312932177145
 20
272.5156415283841
 30
0.0
 11
408.6312932177145
 21
274.5156415283841
 31
0.0
  0
LINE
  5
5758
330
A
100
AcDbEntity
  8
モデル
100
AcDbLine
 10
408.6312932177145
 20
274.5156415283841
 30
0.0
 11
408.1312932177145
 21
276.5156415283841
 31
0.0
  0
LINE
  5
5759
330
A
100
AcDbEntity
  8
モデル
100
AcDbLine
 10
408.1312932177145
 20
276.5156415283841
 30
0.0
 11
408.1312932177145
 21
285.5737688011876
 31
0.0
  0
LINE
  5
575A
330
A
100
AcDbEntity
  8
モデル
100
AcDbLine
 10
406.6312932177145
 20
287.5156415283841
 30
0.0
 11
408.1312932177145
 21
285.5737688011876
 31
0.0
  0
LINE
  5
575B
330
A
100
AcDbEntity
  8
モデル
100
AcDbLine
 10
404.6312932177145
 20
274.5156415283841
 30
0.0
 11
403.1312932177145
 21
272.5156415283841
 31
0.0
  0
LINE
  5
575C
330
A
100
AcDbEntity
  8
モデル
100
AcDbLine
 10
405.1312932177145
 20
276.5156415283841
 30
0.0
 11
404.6312932177145
 21
274.5156415283841
 31
0.0
  0
LINE
  5
575D
330
A
100
AcDbEntity
  8
モデル
100
AcDbLine
 10
405.1312932177145
 20
276.5156415283841
 30
0.0
 11
405.1312932177145
 21
285.5737688011876
 31
0.0
  0
LINE
  5
575E
330
A
100
AcDbEntity
  8
モデル
100
AcDbLine
 10
406.6312932177145
 20
287.5156415283841
 30
0.0
 11
405.1312932177145
 21
285.5737688011876
 31
0.0
  0
HATCH
  5
575F
330
A
100
AcDbEntity
  8
モデル
100
AcDbHatch
 10
0.0
 20
0.0
 30
0.0
210
0.0
220
0.0
230
1.0
  2
ANSI31
 70
     0
 71
     0
 91
        1
 92
        1
 93
        5
 72
     1
 10
408.1312932177145
 20
276.5156415283841
 11
408.1312932177145
 21
285.5737688011876
 72
     1
 10
406.6312932177145
 20
287.5156415283841
 11
408.1312932177145
 21
285.5737688011876
 72
     1
 10
406.6312932177145
 20
287.5156415283841
 11
405.1312932177145
 21
285.5737688011876
 72
     1
 10
405.1312932177145
 20
276.5156415283841
 11
405.1312932177145
 21
285.5737688011876
 72
     1
 10
408.1312932177145
 20
276.5156415283841
 11
405.1312932177145
 21
276.5156415283841
 97
        0
 75
     0
 76
     1
 52
180.0
 41
0.5
 77
     0
 78
     1
 53
225.0
 43
691.8684320937068
 44
552.1751206813135
 45
1.122532015133644
 46
-1.122532015133644
 79
     0
 98
        1
 10
691.8684320937068
 20
552.1751206813135
1001
ACAD
1010
0.0
1020
0.0
1030
0.0
  0
LINE
  5
5760
330
A
100
AcDbEntity
  8
モデル
100
AcDbLine
 10
420.6312932177145
 20
272.5156415283841
 30
0.0
 11
413.6312932177145
 21
272.5156415283841
 31
0.0
  0
LINE
  5
5761
330
A
100
AcDbEntity
  8
モデル
100
AcDbLine
 10
419.1312932177145
 20
274.5156415283841
 30
0.0
 11
415.1312932177145
 21
274.5156415283841
 31
0.0
  0
LINE
  5
5762
330
A
100
AcDbEntity
  8
モデル
100
AcDbLine
 10
420.6312932177145
 20
272.5156415283841
 30
0.0
 11
419.1312932177145
 21
274.5156415283841
 31
0.0
  0
LINE
  5
5763
330
A
100
AcDbEntity
  8
モデル
100
AcDbLine
 10
419.1312932177145
 20
274.5156415283841
 30
0.0
 11
418.6312932177145
 21
276.5156415283841
 31
0.0
  0
LINE
  5
5764
330
A
100
AcDbEntity
  8
モデル
100
AcDbLine
 10
418.6312932177145
 20
276.5156415283841
 30
0.0
 11
418.6312932177145
 21
285.5737688011876
 31
0.0
  0
LINE
  5
5765
330
A
100
AcDbEntity
  8
モデル
100
AcDbLine
 10
417.1312932177145
 20
287.5156415283841
 30
0.0
 11
418.6312932177145
 21
285.5737688011876
 31
0.0
  0
LINE
  5
5766
330
A
100
AcDbEntity
  8
モデル
100
AcDbLine
 10
415.1312932177145
 20
274.5156415283841
 30
0.0
 11
413.6312932177145
 21
272.5156415283841
 31
0.0
  0
LINE
  5
5767
330
A
100
AcDbEntity
  8
モデル
100
AcDbLine
 10
415.6312932177145
 20
276.5156415283841
 30
0.0
 11
415.1312932177145
 21
274.5156415283841
 31
0.0
  0
LINE
  5
5768
330
A
100
AcDbEntity
  8
モデル
100
AcDbLine
 10
415.6312932177145
 20
276.5156415283841
 30
0.0
 11
415.6312932177145
 21
285.5737688011876
 31
0.0
  0
LINE
  5
5769
330
A
100
AcDbEntity
  8
モデル
100
AcDbLine
 10
417.1312932177145
 20
287.5156415283841
 30
0.0
 11
415.6312932177145
 21
285.5737688011876
 31
0.0
  0
HATCH
  5
576A
330
A
100
AcDbEntity
  8
モデル
100
AcDbHatch
 10
0.0
 20
0.0
 30
0.0
210
0.0
220
0.0
230
1.0
  2
ANSI31
 70
     0
 71
     0
 91
        1
 92
        1
 93
        5
 72
     1
 10
418.6312932177145
 20
276.5156415283841
 11
418.6312932177145
 21
285.5737688011876
 72
     1
 10
417.1312932177145
 20
287.5156415283841
 11
418.6312932177145
 21
285.5737688011876
 72
     1
 10
417.1312932177145
 20
287.5156415283841
 11
415.6312932177145
 21
285.5737688011876
 72
     1
 10
415.6312932177145
 20
276.5156415283841
 11
415.6312932177145
 21
285.5737688011876
 72
     1
 10
418.6312932177145
 20
276.5156415283841
 11
415.6312932177145
 21
276.5156415283841
 97
        0
 75
     0
 76
     1
 52
180.0
 41
0.5
 77
     0
 78
     1
 53
225.0
 43
702.3684320937068
 44
552.1751206813135
 45
1.122532015133644
 46
-1.122532015133644
 79
     0
 98
        1
 10
702.3684320937068
 20
552.1751206813135
1001
ACAD
1010
0.0
1020
0.0
1030
0.0
  0
LINE
  5
576B
330
A
100
AcDbEntity
  8
モデル
  6
HIDDEN
 48
0.5
100
AcDbLine
 39
0.005
 10
393.6312932177145
 20
322.3112767894089
 30
0.0
 11
391.6312932177145
 21
319.3112767894089
 31
0.0
  0
LINE
  5
576C
330
A
100
AcDbEntity
  8
モデル
  6
HIDDEN
 48
0.5
100
AcDbLine
 39
0.005
 10
398.6312932177145
 20
322.3112767894089
 30
0.0
 11
400.6312932177145
 21
319.3112767894089
 31
0.0
  0
LINE
  5
576D
330
A
100
AcDbEntity
  8
モデル
  6
HIDDEN
 48
0.5
100
AcDbLine
 39
0.005
 10
419.6312932177145
 20
322.3112767894089
 30
0.0
 11
421.6312932177145
 21
319.3112767894089
 31
0.0
  0
LINE
  5
576E
330
A
100
AcDbEntity
  8
モデル
  6
HIDDEN
 48
0.5
100
AcDbLine
 39
0.005
 10
414.6312932177145
 20
322.3112767894089
 30
0.0
 11
412.6312932177145
 21
319.3112767894089
 31
0.0
  0
LINE
  5
576F
330
A
100
AcDbEntity
  8
モデル
  6
HIDDEN
 48
0.5
100
AcDbLine
 39
0.005
 10
409.1312932177145
 20
322.3112767894089
 30
0.0
 11
411.1312932177145
 21
319.3112767894089
 31
0.0
  0
LINE
  5
5770
330
A
100
AcDbEntity
  8
モデル
  6
HIDDEN
 48
0.5
100
AcDbLine
 39
0.005
 10
404.1312932177145
 20
322.3112767894089
 30
0.0
 11
402.1312932177145
 21
319.3112767894089
 31
0.0
  0
LINE
  5
5771
330
A
100
AcDbEntity
  8
寸法
  6
CENTER
100
AcDbLine
 10
417.1312932177145
 20
317.5729447333723
 30
0.0
 11
417.1312932177145
 21
289.2435468911982
 31
0.0
  0
LINE
  5
5772
330
A
100
AcDbEntity
  8
寸法
  6
CENTER
100
AcDbLine
 10
406.6312932177145
 20
317.5729447333723
 30
0.0
 11
406.6312932177145
 21
289.2435468911982
 31
0.0
  0
LINE
  5
5773
330
A
100
AcDbEntity
  8
モデル
100
AcDbLine
 10
411.1312932177145
 20
304.3112767894089
 30
0.0
 11
411.1312932177145
 21
295.3112767894089
 31
0.0
  0
LINE
  5
5774
330
A
100
AcDbEntity
  8
モデル
100
AcDbLine
 10
409.8812932177145
 20
308.8112767894089
 30
0.0
 11
409.8812932177145
 21
305.8112767894089
 31
0.0
  0
LINE
  5
5775
330
A
100
AcDbEntity
  8
モデル
100
AcDbLine
 10
411.1312932177145
 20
310.3112767894089
 30
0.0
 11
409.8812932177145
 21
308.8112767894089
 31
0.0
  0
LINE
  5
5776
330
A
100
AcDbEntity
  8
モデル
100
AcDbLine
 10
409.8812932177145
 20
305.8112767894089
 30
0.0
 11
411.1312932177145
 21
304.3112767894089
 31
0.0
  0
LINE
  5
5777
330
A
100
AcDbEntity
  8
モデル
100
AcDbLine
 10
402.1312932177145
 20
304.3112767894089
 30
0.0
 11
402.1312932177145
 21
295.3112767894089
 31
0.0
  0
LINE
  5
5778
330
A
100
AcDbEntity
  8
モデル
100
AcDbLine
 10
403.3812932177145
 20
308.8112767894089
 30
0.0
 11
403.3812932177145
 21
305.8112767894089
 31
0.0
  0
LINE
  5
5779
330
A
100
AcDbEntity
  8
モデル
100
AcDbLine
 10
402.1312932177145
 20
310.3112767894089
 30
0.0
 11
403.3812932177145
 21
308.8112767894089
 31
0.0
  0
LINE
  5
577A
330
A
100
AcDbEntity
  8
モデル
100
AcDbLine
 10
403.3812932177145
 20
305.8112767894089
 30
0.0
 11
402.1312932177145
 21
304.3112767894089
 31
0.0
  0
LINE
  5
577B
330
A
100
AcDbEntity
  8
モデル
100
AcDbLine
 10
411.1312932177145
 20
295.3112767894089
 30
0.0
 11
402.1312932177145
 21
295.3112767894089
 31
0.0
  0
LINE
  5
577C
330
A
100
AcDbEntity
  8
モデル
100
AcDbLine
 10
402.1312932177145
 20
319.3112767894089
 30
0.0
 11
402.1312932177145
 21
310.3112767894089
 31
0.0
  0
LINE
  5
577D
330
A
100
AcDbEntity
  8
モデル
100
AcDbLine
 10
411.1312932177145
 20
319.3112767894089
 30
0.0
 11
411.1312932177145
 21
310.3112767894089
 31
0.0
  0
TEXT
  5
577E
330
A
100
AcDbEntity
  8
テンプレート
100
AcDbText
 10
387.9593399274192
 20
357.5694021581055
 30
0.0
 40
6.0
  1
<取付部品>
  7
ＭＳ ゴシック
100
AcDbText
  0
LINE
  5
577F
102
{ACAD_REACTORS
330
581F
102
}
330
A
100
AcDbEntity
  8
モデル
  6
HIDDEN
100
AcDbLine
 10
144.7738307387119
 20
341.60876353296
 30
0.0
 11
97.77383073871192
 21
341.60876353296
 31
0.0
  0
LINE
  5
5780
102
{ACAD_REACTORS
330
581F
102
}
330
A
100
AcDbEntity
  8
モデル
  6
HIDDEN
100
AcDbLine
 10
97.77383073871192
 20
344.60876353296
 30
0.0
 11
97.77383073871192
 21
341.60876353296
 31
0.0
  0
LINE
  5
5781
102
{ACAD_REACTORS
330
581F
102
}
330
A
100
AcDbEntity
  8
モデル
  6
HIDDEN
100
AcDbLine
 10
144.7738307387119
 20
344.60876353296
 30
0.0
 11
144.7738307387119
 21
341.60876353296
 31
0.0
  0
LINE
  5
5782
102
{ACAD_REACTORS
330
581F
102
}
330
A
100
AcDbEntity
  8
モデル
  6
HIDDEN
100
AcDbLine
 10
99.77383073871192
 20
338.7655160437133
 30
0.0
 11
104.7738307387119
 21
338.7655160437133
 31
0.0
  0
LINE
  5
5783
102
{ACAD_REACTORS
330
581F
102
}
330
A
100
AcDbEntity
  8
モデル
  6
HIDDEN
100
AcDbLine
 10
142.7738307387121
 20
338.7655160437133
 30
0.0
 11
137.7738307387121
 21
338.7655160437133
 31
0.0
  0
CIRCLE
  5
5784
102
{ACAD_REACTORS
330
581F
102
}
330
A
100
AcDbEntity
  8
モデル
  6
HIDDEN
 48
0.5
100
AcDbCircle
 10
121.2738307387119
 20
329.60876353296
 30
0.0
 40
2.0
  0
LINE
  5
5785
102
{ACAD_REACTORS
330
581F
102
}
330
A
100
AcDbEntity
  8
モデル
  6
HIDDEN
100
AcDbLine
 10
135.2738307387119
 20
341.60876353296
 30
0.0
 11
128.2738307387119
 21
341.60876353296
 31
0.0
  0
LINE
  5
5786
102
{ACAD_REACTORS
330
581F
102
}
330
A
100
AcDbEntity
  8
モデル
  6
HIDDEN
 48
0.5
100
AcDbLine
 10
133.7738307387119
 20
343.60876353296
 30
0.0
 11
129.7738307387119
 21
343.60876353296
 31
0.0
  0
LINE
  5
5787
102
{ACAD_REACTORS
330
581F
102
}
330
A
100
AcDbEntity
  8
モデル
  6
HIDDEN
 48
0.5
100
AcDbLine
 10
135.2738307387119
 20
341.60876353296
 30
0.0
 11
133.7738307387119
 21
343.60876353296
 31
0.0
  0
LINE
  5
5788
102
{ACAD_REACTORS
330
581F
102
}
330
A
100
AcDbEntity
  8
モデル
  6
HIDDEN
 48
0.5
100
AcDbLine
 10
133.7738307387119
 20
343.60876353296
 30
0.0
 11
133.2738307387119
 21
345.60876353296
 31
0.0
  0
LINE
  5
5789
102
{ACAD_REACTORS
330
581F
102
}
330
A
100
AcDbEntity
  8
モデル
100
AcDbLine
 10
133.2738307387119
 20
345.60876353296
 30
0.0
 11
133.2738307387119
 21
354.6668908057637
 31
0.0
  0
LINE
  5
578A
102
{ACAD_REACTORS
330
581F
102
}
330
A
100
AcDbEntity
  8
モデル
100
AcDbLine
 10
131.7738307387119
 20
356.60876353296
 30
0.0
 11
133.2738307387119
 21
354.6668908057637
 31
0.0
  0
LINE
  5
578B
102
{ACAD_REACTORS
330
581F
102
}
330
A
100
AcDbEntity
  8
モデル
  6
HIDDEN
 48
0.5
100
AcDbLine
 10
129.7738307387119
 20
343.60876353296
 30
0.0
 11
128.2738307387119
 21
341.60876353296
 31
0.0
  0
LINE
  5
578C
102
{ACAD_REACTORS
330
581F
102
}
330
A
100
AcDbEntity
  8
モデル
  6
HIDDEN
 48
0.5
100
AcDbLine
 10
130.2738307387119
 20
345.60876353296
 30
0.0
 11
129.7738307387119
 21
343.60876353296
 31
0.0
  0
LINE
  5
578D
102
{ACAD_REACTORS
330
581F
102
}
330
A
100
AcDbEntity
  8
モデル
100
AcDbLine
 10
130.2738307387119
 20
345.60876353296
 30
0.0
 11
130.2738307387119
 21
354.6668908057637
 31
0.0
  0
LINE
  5
578E
102
{ACAD_REACTORS
330
581F
102
}
330
A
100
AcDbEntity
  8
モデル
100
AcDbLine
 10
131.7738307387119
 20
356.60876353296
 30
0.0
 11
130.2738307387119
 21
354.6668908057637
 31
0.0
  0
HATCH
  5
578F
102
{ACAD_REACTORS
330
581F
102
}
330
A
100
AcDbEntity
  8
モデル
100
AcDbHatch
 10
0.0
 20
0.0
 30
0.0
210
0.0
220
0.0
230
1.0
  2
ANSI31
 70
     0
 71
     0
 91
        1
 92
        1
 93
        5
 72
     1
 10
133.2738307387119
 20
345.60876353296
 11
133.2738307387119
 21
354.6668908057637
 72
     1
 10
131.7738307387119
 20
356.60876353296
 11
133.2738307387119
 21
354.6668908057637
 72
     1
 10
131.7738307387119
 20
356.60876353296
 11
130.2738307387119
 21
354.6668908057637
 72
     1
 10
130.2738307387119
 20
345.60876353296
 11
130.2738307387119
 21
354.6668908057637
 72
     1
 10
133.2738307387119
 20
345.60876353296
 11
130.2738307387119
 21
345.60876353296
 97
        0
 75
     0
 76
     1
 52
180.0
 41
0.5
 77
     0
 78
     1
 53
225.0
 43
417.010969614704
 44
621.2682426858894
 45
1.122532015133644
 46
-1.122532015133644
 79
     0
 98
        1
 10
417.010969614704
 20
621.2682426858894
1001
ACAD
1010
0.0
1020
0.0
1030
0.0
  0
LINE
  5
5790
102
{ACAD_REACTORS
330
581F
102
}
330
A
100
AcDbEntity
  8
モデル
  6
HIDDEN
100
AcDbLine
 10
124.7738307387119
 20
341.60876353296
 30
0.0
 11
117.7738307387119
 21
341.60876353296
 31
0.0
  0
LINE
  5
5791
102
{ACAD_REACTORS
330
581F
102
}
330
A
100
AcDbEntity
  8
モデル
  6
HIDDEN
 48
0.5
100
AcDbLine
 10
123.2738307387119
 20
343.60876353296
 30
0.0
 11
119.2738307387119
 21
343.60876353296
 31
0.0
  0
LINE
  5
5792
102
{ACAD_REACTORS
330
581F
102
}
330
A
100
AcDbEntity
  8
モデル
  6
HIDDEN
 48
0.5
100
AcDbLine
 10
124.7738307387119
 20
341.60876353296
 30
0.0
 11
123.2738307387119
 21
343.60876353296
 31
0.0
  0
LINE
  5
5793
102
{ACAD_REACTORS
330
581F
102
}
330
A
100
AcDbEntity
  8
モデル
  6
HIDDEN
 48
0.5
100
AcDbLine
 10
123.2738307387119
 20
343.60876353296
 30
0.0
 11
122.7738307387119
 21
345.60876353296
 31
0.0
  0
LINE
  5
5794
102
{ACAD_REACTORS
330
581F
102
}
330
A
100
AcDbEntity
  8
モデル
100
AcDbLine
 10
122.7738307387119
 20
345.60876353296
 30
0.0
 11
122.7738307387119
 21
354.6668908057637
 31
0.0
  0
LINE
  5
5795
102
{ACAD_REACTORS
330
581F
102
}
330
A
100
AcDbEntity
  8
モデル
100
AcDbLine
 10
121.2738307387119
 20
356.60876353296
 30
0.0
 11
122.7738307387119
 21
354.6668908057637
 31
0.0
  0
LINE
  5
5796
102
{ACAD_REACTORS
330
581F
102
}
330
A
100
AcDbEntity
  8
モデル
  6
HIDDEN
 48
0.5
100
AcDbLine
 10
119.2738307387119
 20
343.60876353296
 30
0.0
 11
117.7738307387119
 21
341.60876353296
 31
0.0
  0
LINE
  5
5797
102
{ACAD_REACTORS
330
581F
102
}
330
A
100
AcDbEntity
  8
モデル
  6
HIDDEN
 48
0.5
100
AcDbLine
 10
119.7738307387119
 20
345.60876353296
 30
0.0
 11
119.2738307387119
 21
343.60876353296
 31
0.0
  0
LINE
  5
5798
102
{ACAD_REACTORS
330
581F
102
}
330
A
100
AcDbEntity
  8
モデル
100
AcDbLine
 10
119.7738307387119
 20
345.60876353296
 30
0.0
 11
119.7738307387119
 21
354.6668908057637
 31
0.0
  0
LINE
  5
5799
102
{ACAD_REACTORS
330
581F
102
}
330
A
100
AcDbEntity
  8
モデル
100
AcDbLine
 10
121.2738307387119
 20
356.60876353296
 30
0.0
 11
119.7738307387119
 21
354.6668908057637
 31
0.0
  0
HATCH
  5
579A
102
{ACAD_REACTORS
330
581F
102
}
330
A
100
AcDbEntity
  8
モデル
100
AcDbHatch
 10
0.0
 20
0.0
 30
0.0
210
0.0
220
0.0
230
1.0
  2
ANSI31
 70
     0
 71
     0
 91
        1
 92
        1
 93
        5
 72
     1
 10
122.7738307387119
 20
345.60876353296
 11
122.7738307387119
 21
354.6668908057637
 72
     1
 10
121.2738307387119
 20
356.60876353296
 11
122.7738307387119
 21
354.6668908057637
 72
     1
 10
121.2738307387119
 20
356.60876353296
 11
119.7738307387119
 21
354.6668908057637
 72
     1
 10
119.7738307387119
 20
345.60876353296
 11
119.7738307387119
 21
354.6668908057637
 72
     1
 10
122.7738307387119
 20
345.60876353296
 11
119.7738307387119
 21
345.60876353296
 97
        0
 75
     0
 76
     1
 52
180.0
 41
0.5
 77
     0
 78
     1
 53
225.0
 43
406.510969614704
 44
621.2682426858894
 45
1.122532015133644
 46
-1.122532015133644
 79
     0
 98
        1
 10
406.510969614704
 20
621.2682426858894
1001
ACAD
1010
0.0
1020
0.0
1030
0.0
  0
LINE
  5
579B
102
{ACAD_REACTORS
330
581F
102
}
330
A
100
AcDbEntity
  8
モデル
  6
HIDDEN
100
AcDbLine
 10
114.2738307387119
 20
341.60876353296
 30
0.0
 11
107.2738307387119
 21
341.60876353296
 31
0.0
  0
LINE
  5
579C
102
{ACAD_REACTORS
330
581F
102
}
330
A
100
AcDbEntity
  8
モデル
  6
HIDDEN
 48
0.5
100
AcDbLine
 10
112.7738307387119
 20
343.60876353296
 30
0.0
 11
108.7738307387119
 21
343.60876353296
 31
0.0
  0
LINE
  5
579D
102
{ACAD_REACTORS
330
581F
102
}
330
A
100
AcDbEntity
  8
モデル
  6
HIDDEN
 48
0.5
100
AcDbLine
 10
114.2738307387119
 20
341.60876353296
 30
0.0
 11
112.7738307387119
 21
343.60876353296
 31
0.0
  0
LINE
  5
579E
102
{ACAD_REACTORS
330
581F
102
}
330
A
100
AcDbEntity
  8
モデル
  6
HIDDEN
 48
0.5
100
AcDbLine
 10
112.7738307387119
 20
343.60876353296
 30
0.0
 11
112.2738307387119
 21
345.60876353296
 31
0.0
  0
LINE
  5
579F
102
{ACAD_REACTORS
330
581F
102
}
330
A
100
AcDbEntity
  8
モデル
100
AcDbLine
 10
112.2738307387119
 20
345.60876353296
 30
0.0
 11
112.2738307387119
 21
354.6668908057637
 31
0.0
  0
LINE
  5
57A0
102
{ACAD_REACTORS
330
581F
102
}
330
A
100
AcDbEntity
  8
モデル
100
AcDbLine
 10
110.7738307387119
 20
356.60876353296
 30
0.0
 11
112.2738307387119
 21
354.6668908057637
 31
0.0
  0
LINE
  5
57A1
102
{ACAD_REACTORS
330
581F
102
}
330
A
100
AcDbEntity
  8
モデル
  6
HIDDEN
 48
0.5
100
AcDbLine
 10
108.7738307387119
 20
343.60876353296
 30
0.0
 11
107.2738307387119
 21
341.60876353296
 31
0.0
  0
LINE
  5
57A2
102
{ACAD_REACTORS
330
581F
102
}
330
A
100
AcDbEntity
  8
モデル
  6
HIDDEN
 48
0.5
100
AcDbLine
 10
109.2738307387119
 20
345.60876353296
 30
0.0
 11
108.7738307387119
 21
343.60876353296
 31
0.0
  0
LINE
  5
57A3
102
{ACAD_REACTORS
330
581F
102
}
330
A
100
AcDbEntity
  8
モデル
100
AcDbLine
 10
109.2738307387119
 20
345.60876353296
 30
0.0
 11
109.2738307387119
 21
354.6668908057637
 31
0.0
  0
LINE
  5
57A4
102
{ACAD_REACTORS
330
581F
102
}
330
A
100
AcDbEntity
  8
モデル
100
AcDbLine
 10
110.7738307387119
 20
356.60876353296
 30
0.0
 11
109.2738307387119
 21
354.6668908057637
 31
0.0
  0
HATCH
  5
57A5
102
{ACAD_REACTORS
330
581F
102
}
330
A
100
AcDbEntity
  8
モデル
100
AcDbHatch
 10
0.0
 20
0.0
 30
0.0
210
0.0
220
0.0
230
1.0
  2
ANSI31
 70
     0
 71
     0
 91
        1
 92
        1
 93
        5
 72
     1
 10
112.2738307387119
 20
345.60876353296
 11
112.2738307387119
 21
354.6668908057637
 72
     1
 10
110.7738307387119
 20
356.60876353296
 11
112.2738307387119
 21
354.6668908057637
 72
     1
 10
110.7738307387119
 20
356.60876353296
 11
109.2738307387119
 21
354.6668908057637
 72
     1
 10
109.2738307387119
 20
345.60876353296
 11
109.2738307387119
 21
354.6668908057637
 72
     1
 10
112.2738307387119
 20
345.60876353296
 11
109.2738307387119
 21
345.60876353296
 97
        0
 75
     0
 76
     1
 52
180.0
 41
0.5
 77
     0
 78
     1
 53
225.0
 43
396.010969614704
 44
621.2682426858894
 45
1.122532015133644
 46
-1.122532015133644
 79
     0
 98
        1
 10
396.010969614704
 20
621.2682426858894
1001
ACAD
1010
0.0
1020
0.0
1030
0.0
  0
LINE
  5
57A6
102
{ACAD_REACTORS
330
581F
102
}
330
A
100
AcDbEntity
  8
モデル
  6
HIDDEN
100
AcDbLine
 10
125.7738307387119
 20
326.60876353296
 30
0.0
 11
125.7738307387119
 21
317.60876353296
 31
0.0
  0
LINE
  5
57A7
102
{ACAD_REACTORS
330
581F
102
}
330
A
100
AcDbEntity
  8
モデル
  6
HIDDEN
100
AcDbLine
 10
124.5238307387119
 20
331.10876353296
 30
0.0
 11
124.5238307387119
 21
328.10876353296
 31
0.0
  0
LINE
  5
57A8
102
{ACAD_REACTORS
330
581F
102
}
330
A
100
AcDbEntity
  8
モデル
  6
HIDDEN
100
AcDbLine
 10
125.7738307387119
 20
332.60876353296
 30
0.0
 11
124.5238307387119
 21
331.10876353296
 31
0.0
  0
LINE
  5
57A9
102
{ACAD_REACTORS
330
581F
102
}
330
A
100
AcDbEntity
  8
モデル
  6
HIDDEN
100
AcDbLine
 10
124.5238307387119
 20
328.10876353296
 30
0.0
 11
125.7738307387119
 21
326.60876353296
 31
0.0
  0
LINE
  5
57AA
102
{ACAD_REACTORS
330
581F
102
}
330
A
100
AcDbEntity
  8
モデル
  6
HIDDEN
100
AcDbLine
 10
116.7738307387119
 20
326.60876353296
 30
0.0
 11
116.7738307387119
 21
317.60876353296
 31
0.0
  0
LINE
  5
57AB
102
{ACAD_REACTORS
330
581F
102
}
330
A
100
AcDbEntity
  8
モデル
  6
HIDDEN
100
AcDbLine
 10
118.0238307387119
 20
331.10876353296
 30
0.0
 11
118.0238307387119
 21
328.10876353296
 31
0.0
  0
LINE
  5
57AC
102
{ACAD_REACTORS
330
581F
102
}
330
A
100
AcDbEntity
  8
モデル
  6
HIDDEN
100
AcDbLine
 10
116.7738307387119
 20
332.60876353296
 30
0.0
 11
118.0238307387119
 21
331.10876353296
 31
0.0
  0
LINE
  5
57AD
102
{ACAD_REACTORS
330
581F
102
}
330
A
100
AcDbEntity
  8
モデル
  6
HIDDEN
100
AcDbLine
 10
118.0238307387119
 20
328.10876353296
 30
0.0
 11
116.7738307387119
 21
326.60876353296
 31
0.0
  0
LINE
  5
57AE
102
{ACAD_REACTORS
330
581F
102
}
330
A
100
AcDbEntity
  8
モデル
  6
HIDDEN
100
AcDbLine
 10
125.7738307387119
 20
317.60876353296
 30
0.0
 11
116.7738307387119
 21
317.60876353296
 31
0.0
  0
LINE
  5
57AF
102
{ACAD_REACTORS
330
581F
102
}
330
A
100
AcDbEntity
  8
モデル
  6
HIDDEN
100
AcDbLine
 10
125.7738307387119
 20
341.60876353296
 30
0.0
 11
125.7738307387119
 21
332.60876353296
 31
0.0
  0
LINE
  5
57B0
102
{ACAD_REACTORS
330
581F
102
}
330
A
100
AcDbEntity
  8
モデル
  6
HIDDEN
100
AcDbLine
 10
116.7738307387119
 20
341.60876353296
 30
0.0
 11
116.7738307387119
 21
332.60876353296
 31
0.0
  0
LINE
  5
57B1
102
{ACAD_REACTORS
330
5820
102
}
330
A
100
AcDbEntity
  8
モデル
  6
HIDDEN
100
AcDbLine
 10
228.7647352026885
 20
171.8002972752913
 30
0.0
 11
228.7647352026885
 21
162.8002972752913
 31
0.0
  0
LINE
  5
57B2
102
{ACAD_REACTORS
330
5820
102
}
330
A
100
AcDbEntity
  8
モデル
  6
HIDDEN
100
AcDbLine
 10
219.7647352026885
 20
171.8002972752913
 30
0.0
 11
228.7647352026885
 21
171.8002972752913
 31
0.0
  0
LINE
  5
57B3
102
{ACAD_REACTORS
330
5820
102
}
330
A
100
AcDbEntity
  8
モデル
  6
HIDDEN
100
AcDbLine
 10
215.2647352026885
 20
170.5502972752913
 30
0.0
 11
218.2647352026885
 21
170.5502972752913
 31
0.0
  0
LINE
  5
57B4
102
{ACAD_REACTORS
330
5820
102
}
330
A
100
AcDbEntity
  8
モデル
  6
HIDDEN
100
AcDbLine
 10
218.2647352026885
 20
170.5502972752913
 30
0.0
 11
219.7647352026885
 21
171.8002972752913
 31
0.0
  0
LINE
  5
57B5
102
{ACAD_REACTORS
330
5820
102
}
330
A
100
AcDbEntity
  8
モデル
  6
HIDDEN
100
AcDbLine
 10
219.7647352026885
 20
162.8002972752913
 30
0.0
 11
228.7647352026885
 21
162.8002972752913
 31
0.0
  0
LINE
  5
57B6
102
{ACAD_REACTORS
330
5820
102
}
330
A
100
AcDbEntity
  8
モデル
  6
HIDDEN
100
AcDbLine
 10
215.2647352026885
 20
164.0502972752913
 30
0.0
 11
218.2647352026885
 21
164.0502972752913
 31
0.0
  0
LINE
  5
57B7
102
{ACAD_REACTORS
330
5820
102
}
330
A
100
AcDbEntity
  8
モデル
  6
HIDDEN
100
AcDbLine
 10
218.2647352026885
 20
164.0502972752913
 30
0.0
 11
219.7647352026885
 21
162.8002972752913
 31
0.0
  0
LINE
  5
57B8
102
{ACAD_REACTORS
330
5820
102
}
330
A
100
AcDbEntity
  8
モデル
  6
HIDDEN
100
AcDbLine
 10
204.7647352026885
 20
190.8002972752913
 30
0.0
 11
204.7647352026885
 21
143.8002972752913
 31
0.0
  0
LINE
  5
57B9
102
{ACAD_REACTORS
330
5820
102
}
330
A
100
AcDbEntity
  8
モデル
  6
HIDDEN
100
AcDbLine
 10
201.7647352026885
 20
143.8002972752913
 30
0.0
 11
204.7647352026885
 21
143.8002972752913
 31
0.0
  0
LINE
  5
57BA
102
{ACAD_REACTORS
330
5820
102
}
330
A
100
AcDbEntity
  8
モデル
  6
HIDDEN
100
AcDbLine
 10
201.7647352026885
 20
190.8002972752913
 30
0.0
 11
204.7647352026885
 21
190.8002972752913
 31
0.0
  0
LINE
  5
57BB
102
{ACAD_REACTORS
330
5820
102
}
330
A
100
AcDbEntity
  8
モデル
100
AcDbLine
 10
216.7647352026885
 20
135.9676201870736
 30
0.0
 11
215.3000622670031
 21
134.5440846112508
 31
0.0
  0
LINE
  5
57BC
102
{ACAD_REACTORS
330
5820
102
}
330
A
100
AcDbEntity
  8
モデル
100
AcDbLine
 10
215.3000622670031
 20
134.5440846112508
 30
0.0
 11
215.3000622670031
 21
130.0661693384379
 31
0.0
  0
LINE
  5
57BD
102
{ACAD_REACTORS
330
5820
102
}
330
A
100
AcDbEntity
  8
モデル
100
AcDbLine
 10
216.7647352026885
 20
135.9676201870736
 30
0.0
 11
218.2294081383743
 21
134.5440846112508
 31
0.0
  0
LINE
  5
57BE
102
{ACAD_REACTORS
330
5820
102
}
330
A
100
AcDbEntity
  8
モデル
100
AcDbLine
 10
218.2294081383743
 20
134.5440846112508
 30
0.0
 11
218.2294081383743
 21
130.0661693384379
 31
0.0
  0
LINE
  5
57BF
102
{ACAD_REACTORS
330
5820
102
}
330
A
100
AcDbEntity
  8
モデル
100
AcDbLine
 10
215.3000622670031
 20
130.0661693384379
 30
0.0
 11
218.2294081383743
 21
130.0661693384379
 31
0.0
  0
LINE
  5
57C0
102
{ACAD_REACTORS
330
5820
102
}
330
A
100
AcDbEntity
  8
寸法
100
AcDbLine
 10
215.3000622670031
 20
134.5440846112508
 30
0.0
 11
218.2294081383743
 21
134.5440846112508
 31
0.0
  0
HATCH
  5
57C1
102
{ACAD_REACTORS
330
5820
102
}
330
A
100
AcDbEntity
  8
寸法
100
AcDbHatch
 10
0.0
 20
0.0
 30
0.0
210
0.0
220
0.0
230
1.0
  2
ANSI31
 70
     0
 71
     0
 91
        1
 92
        1
 93
        4
 72
     1
 10
215.3000622670031
 20
134.5440846112508
 11
215.3000622670031
 21
130.0661693384378
 72
     1
 10
215.3000622670031
 20
130.0661693384379
 11
218.2294081383743
 21
130.0661693384379
 72
     1
 10
215.3000622670031
 20
134.5440846112508
 11
218.2294081383743
 21
134.5440846112508
 72
     1
 10
218.2294081383743
 20
134.5440846112508
 11
218.2294081383743
 21
130.0661693384378
 97
        0
 75
     0
 76
     1
 52
330.0000000000002
 41
0.4999999999999977
 77
     0
 78
     1
 53
14.99999999999995
 43
-63.44150109816752
 44
4.444401052962149
 45
-0.4108752341002508
 46
1.533407249233896
 79
     0
 98
        1
 10
-63.44150109816752
 20
4.444401052962149
1001
ACAD
1010
0.0
1020
0.0
1030
0.0
  0
LINE
  5
57C2
102
{ACAD_REACTORS
330
5820
102
}
330
A
100
AcDbEntity
  8
寸法
  6
CENTER
100
AcDbLine
 10
216.7647352026885
 20
137.4388318412222
 30
0.0
 11
216.7647352026885
 21
149.7170069815047
 31
0.0
  0
LINE
  5
57C3
102
{ACAD_REACTORS
330
5820
102
}
330
A
100
AcDbEntity
  8
モデル
  6
HIDDEN
100
AcDbLine
 10
213.7647352026885
 20
171.8002972752913
 30
0.0
 11
215.2647352026885
 21
170.5502972752913
 31
0.0
  0
LINE
  5
57C4
102
{ACAD_REACTORS
330
5820
102
}
330
A
100
AcDbEntity
  8
モデル
  6
HIDDEN
100
AcDbLine
 10
213.7647352026885
 20
162.8002972752913
 30
0.0
 11
215.2647352026885
 21
164.0502972752913
 31
0.0
  0
LINE
  5
57C5
102
{ACAD_REACTORS
330
5820
102
}
330
A
100
AcDbEntity
  8
モデル
  6
HIDDEN
100
AcDbLine
 10
204.7647352026885
 20
171.8002972752913
 30
0.0
 11
213.7647352026885
 21
171.8002972752913
 31
0.0
  0
LINE
  5
57C6
102
{ACAD_REACTORS
330
5820
102
}
330
A
100
AcDbEntity
  8
モデル
  6
HIDDEN
100
AcDbLine
 10
204.7647352026885
 20
162.8002972752913
 30
0.0
 11
213.7647352026885
 21
162.8002972752913
 31
0.0
  0
LINE
  5
57C7
102
{ACAD_REACTORS
330
581F
102
}
330
A
100
AcDbEntity
  8
モデル
  6
HIDDEN
100
AcDbLine
 10
144.7738307387119
 20
344.60876353296
 30
0.0
 11
97.77383073871192
 21
344.60876353296
 31
0.0
  0
LINE
  5
57C8
102
{ACAD_REACTORS
330
5820
102
}
330
A
100
AcDbEntity
  8
モデル
  6
HIDDEN
100
AcDbLine
 10
201.7647352026885
 20
190.8002972752913
 30
0.0
 11
201.7647352026885
 21
143.8002972752913
 31
0.0
  0
LINE
  5
57C9
102
{ACAD_REACTORS
330
581F
102
}
330
A
100
AcDbEntity
  8
モデル
  6
HIDDEN
100
AcDbLine
 10
137.7738307387119
 20
341.60876353296
 30
0.0
 11
137.7738307387119
 21
338.7655160437133
 31
0.0
  0
LINE
  5
57CA
102
{ACAD_REACTORS
330
581F
102
}
330
A
100
AcDbEntity
  8
モデル
  6
HIDDEN
100
AcDbLine
 10
142.7738307387119
 20
341.60876353296
 30
0.0
 11
142.7738307387119
 21
338.7655160437133
 31
0.0
  0
LINE
  5
57CB
102
{ACAD_REACTORS
330
581F
102
}
330
A
100
AcDbEntity
  8
モデル
  6
HIDDEN
100
AcDbLine
 10
99.77383073871192
 20
341.60876353296
 30
0.0
 11
99.77383073871192
 21
338.7655160437133
 31
0.0
  0
LINE
  5
57CC
102
{ACAD_REACTORS
330
581F
102
}
330
A
100
AcDbEntity
  8
モデル
  6
HIDDEN
100
AcDbLine
 10
104.7738307387119
 20
341.60876353296
 30
0.0
 11
104.7738307387119
 21
338.7655160437133
 31
0.0
  0
LINE
  5
57CD
102
{ACAD_REACTORS
330
5820
102
}
330
A
100
AcDbEntity
  8
モデル
  6
HIDDEN
100
AcDbLine
 10
204.7647352026885
 20
164.8002972752913
 30
0.0
 11
207.6079826919353
 21
164.8002972752913
 31
0.0
  0
LINE
  5
57CE
102
{ACAD_REACTORS
330
5820
102
}
330
A
100
AcDbEntity
  8
モデル
  6
HIDDEN
100
AcDbLine
 10
204.7647352026885
 20
169.8002972752913
 30
0.0
 11
207.6079826919351
 21
169.8002972752913
 31
0.0
  0
LINE
  5
57CF
330
A
100
AcDbEntity
  8
モデル
100
AcDbLine
 10
504.0443158586046
 20
170.0588563933368
 30
0.0
 11
506.8875633478512
 21
170.0588563933368
 31
0.0
  0
LINE
  5
57D0
330
A
100
AcDbEntity
  8
モデル
100
AcDbLine
 10
504.0443158586046
 20
165.0588563933368
 30
0.0
 11
506.8875633478514
 21
165.0588563933368
 31
0.0
  0
LINE
  5
57D1
330
A
100
AcDbEntity
  8
寸法
100
AcDbLine
 10
406.6312932177145
 20
322.3112767894089
 30
0.0
 11
406.6312932177145
 21
317.972398958081
 31
0.0
  0
LINE
  5
57D2
330
A
100
AcDbEntity
  8
モデル
100
AcDbLine
 10
423.1312932177145
 20
319.3112767894089
 30
0.0
 11
423.1312932177145
 21
316.4680293001621
 31
0.0
  0
LINE
  5
57D3
330
A
100
AcDbEntity
  8
モデル
100
AcDbLine
 10
428.1312932177145
 20
319.3112767894089
 30
0.0
 11
428.1312932177145
 21
316.4680293001624
 31
0.0
  0
LINE
  5
57D4
102
{ACAD_REACTORS
330
5820
102
}
330
A
100
AcDbEntity
  8
モデル
  6
HIDDEN
100
AcDbLine
 10
207.6079826919351
 20
169.8002972752915
 30
0.0
 11
207.6079826919353
 21
164.8002972752915
 31
0.0
  0
LINE
  5
57D5
330
A
100
AcDbEntity
  8
モデル
  6
HIDDEN
100
AcDbLine
 10
506.8875633478512
 20
170.058856393337
 30
0.0
 11
506.8875633478514
 21
165.058856393337
 31
0.0
  0
LINE
  5
57D6
330
A
100
AcDbEntity
  8
モデル
100
AcDbLine
 10
423.1312932177147
 20
316.4680293001621
 30
0.0
 11
428.1312932177147
 21
316.4680293001621
 31
0.0
  0
LINE
  5
57D7
330
A
100
AcDbEntity
  8
モデル
  6
HIDDEN
100
AcDbLine
 10
428.1312932177147
 20
316.4680293001624
 30
0.0
 11
423.1312932177147
 21
316.4680293001621
 31
0.0
  0
LINE
  5
57D8
330
A
100
AcDbEntity
  8
モデル
100
AcDbLine
 10
390.1312932177145
 20
319.3112767894089
 30
0.0
 11
390.1312932177145
 21
316.4680293001621
 31
0.0
  0
LINE
  5
57D9
330
A
100
AcDbEntity
  8
モデル
100
AcDbLine
 10
385.1312932177145
 20
319.3112767894089
 30
0.0
 11
385.1312932177145
 21
316.4680293001624
 31
0.0
  0
LINE
  5
57DA
330
A
100
AcDbEntity
  8
モデル
100
AcDbLine
 10
390.1312932177142
 20
316.4680293001621
 30
0.0
 11
385.1312932177142
 21
316.4680293001621
 31
0.0
  0
LINE
  5
57DB
330
A
100
AcDbEntity
  8
モデル
  6
HIDDEN
100
AcDbLine
 10
385.1312932177142
 20
316.4680293001624
 30
0.0
 11
390.1312932177142
 21
316.4680293001621
 31
0.0
  0
LINE
  5
57E1
102
{ACAD_REACTORS
330
5820
102
}
330
A
100
AcDbEntity
  8
モデル
  6
HIDDEN
370
     0
100
AcDbLine
 10
218.7647352026888
 20
163.3002972752913
 30
0.0
 11
218.7647352026888
 21
155.3002972752911
 31
0.0
  0
LINE
  5
57E2
102
{ACAD_REACTORS
330
5820
102
}
330
A
100
AcDbEntity
  8
モデル
  6
HIDDEN
370
     0
100
AcDbLine
 10
214.7647352026888
 20
163.3002972752913
 30
0.0
 11
214.7647352026888
 21
155.3002972752911
 31
0.0
  0
DIMENSION
  5
5824
102
{ACAD_REACTORS
330
5826
102
}
102
{ACAD_XDICTIONARY
360
5825
102
}
330
A
100
AcDbEntity
  8
寸法
100
AcDbDimension
  2
*D63
 10
173.5417867435158
 20
262.6087635329601
 30
0.0
 11
166.0417867435158
 21
303.6087635329601
 31
0.0
 70
    32
 71
     5
 42
81.99999999999994
 73
     0
 74
     0
 75
     0
  3
tfrom線あり
100
AcDbAlignedDimension
 13
148.7738307387119
 23
344.60876353296
 33
0.0
 14
132.2030386167147
 24
262.6087635329601
 34
0.0
 50
90.0
100
AcDbRotatedDimension
1001
ACAD
1000
DSTYLE
1002
{
1070
   144
1040
1.0
1002
}
  0
TEXT
  5
5878
330
A
100
AcDbEntity
  8
テンプレート
100
AcDbText
 10
474.416827089337
 20
53.34398162298608
 30
0.0
 40
5.5
  1
付属品
  7
ＭＳ ゴシック
100
AcDbText
  0
TEXT
  5
5879
330
A
100
AcDbEntity
  8
テンプレート
100
AcDbText
 10
474.416827089337
 20
44.96395684729868
 30
0.0
 40
5.5
  1
皿+木ネジ
  7
ＭＳ ゴシック
100
AcDbText
  0
TEXT
  5
587B
330
A
100
AcDbEntity
  8
テンプレート
100
AcDbText
 10
475.4602090468883
 20
36.65009422530521
 30
0.0
 40
5.5
  1
イモネジ
  7
ＭＳ ゴシック
100
AcDbText
  0
MTEXT
  5
58C7
330
A
100
AcDbEntity
  8
テンプレート
390
1D
100
AcDbMText
 10
35.02123153496908
 20
34.57354675141926
 30
0.0
 40
5.0
 41
0.0
 46
5.205
 71
     1
 72
     1
  1
{アルミ}
  7
ＭＳ ゴシック
 73
     1
 44
0.7828267384257843
1001
ACAD
1000
ACAD_MTEXT_DEFINED_HEIGHT_BEGIN
1070
    46
1040
5.205
1000
ACAD_MTEXT_DEFINED_HEIGHT_END
  0
MTEXT
  5
58C8
330
A
100
AcDbEntity
  8
テンプレート
390
1D
100
AcDbMText
 10
106.3295004125202
 20
34.57354675141926
 30
0.0
 40
5.0
 41
0.0
 46
5.075
 71
     1
 72
     1
  1
{ステンレス}
  7
ＭＳ ゴシック
 73
     1
 44
0.7828267384257843
1001
ACAD
1000
ACAD_MTEXT_DEFINED_HEIGHT_BEGIN
1070
    46
1040
5.075
1000
ACAD_MTEXT_DEFINED_HEIGHT_END
  0
MTEXT
  5
58CA
330
A
100
AcDbEntity
  8
テンプレート
390
1D
100
AcDbMText
 10
34.78893721489681
 20
48.77911613324934
 30
0.0
 40
3.0
 41
0.0
 46
3.168
 71
     1
 72
     1
  1
{ナチュラル}
  7
ＭＳ ゴシック
 73
     1
 44
0.7828267384257843
1001
ACAD
1000
ACAD_MTEXT_DEFINED_HEIGHT_BEGIN
1070
    46
1040
3.168
1000
ACAD_MTEXT_DEFINED_HEIGHT_END
  0
MTEXT
  5
58CF
330
A
100
AcDbEntity
  8
テンプレート
390
1D
100
AcDbMText
 10
70.14745962184355
 20
48.77911613324942
 30
0.0
 40
3.0
 41
0.0
 46
3.288
 71
     1
 72
     1
  1
{ブラック}
  7
ＭＳ ゴシック
 73
     1
 44
0.7828267384257843
1001
ACAD
1000
ACAD_MTEXT_DEFINED_HEIGHT_BEGIN
1070
    46
1040
3.288
1000
ACAD_MTEXT_DEFINED_HEIGHT_END
  0
LINE
  5
58D0
330
A
100
AcDbEntity
  8
テンプレート
  6
Continuous
100
AcDbLine
 10
67.78223654079596
 20
50.16496477419608
 30
0.0
 11
67.78223654079596
 21
38.278108904221
 31
0.0
  0
LINE
  5
58D3
330
A
100
AcDbEntity
  8
テンプレート
  6
Continuous
100
AcDbLine
 10
296.9999999999999
 20
44.22153683920783
 30
0.0
 11
33.63100153769662
 21
44.22153683920783
 31
0.0
  0
LINE
  5
58D4
330
A
100
AcDbEntity
  8
テンプレート
  6
Continuous
100
AcDbLine
 10
104.2820903752307
 20
50.16496477419611
 30
0.0
 11
104.2820903752307
 21
26.22153683920783
 31
0.0
  0
MTEXT
  5
58D5
330
A
100
AcDbEntity
  8
テンプレート
390
1D
100
AcDbMText
 10
106.6473134562783
 20
48.77911613324945
 30
0.0
 40
3.0
 41
0.0
 46
3.198
 71
     1
 72
     1
  1
{サテン}
  7
ＭＳ ゴシック
 73
     1
 44
0.7828267384257843
1001
ACAD
1000
ACAD_MTEXT_DEFINED_HEIGHT_BEGIN
1070
    46
1040
3.198
1000
ACAD_MTEXT_DEFINED_HEIGHT_END
  0
MTEXT
  5
58D6
330
A
100
AcDbEntity
  8
テンプレート
390
1D
100
AcDbMText
 10
106.6473134562783
 20
42.83568819826117
 30
0.0
 40
3.0
 41
0.0
 46
3.258
 71
     1
 72
     1
  1
{ポリッシュ}
  7
ＭＳ ゴシック
 73
     1
 44
0.7828267384257843
1001
ACAD
1000
ACAD_MTEXT_DEFINED_HEIGHT_BEGIN
1070
    46
1040
3.258
1000
ACAD_MTEXT_DEFINED_HEIGHT_END
  0
VIEWPORT
  5
349
330
B
100
AcDbEntity
 67
     1
  8
0
100
AcDbViewport
 10
202.5
 20
128.5
 30
0.0
 40
486.0
 41
308.4
 68
     1
 69
     1
 12
202.5
 22
128.5
 13
0.0
 23
0.0
 14
0.5
 24
0.5
 15
0.0
 25
0.0
 16
0.0
 26
0.0
 36
1.0
 17
0.0
 27
0.0
 37
0.0
 42
50.0
 43
0.0
 44
0.0
 45
308.4
 50
0.0
 51
0.0
 72
   100
 90
   557152
  1

281
     0
 71
     1
 74
     0
110
0.0
120
0.0
130
0.0
111
1.0
121
0.0
131
0.0
112
0.0
122
1.0
132
0.0
 79
     0
146
0.0
170
     0
 61
     5
348
26C
292
     1
282
     1
141
0.0
142
0.0
 63
   256
  0
VIEWPORT
  5
34A
330
B
100
AcDbEntity
 67
     1
  8
0
100
AcDbViewport
 10
202.5
 20
128.5
 30
0.0
 40
324.0
 41
205.6
 68
     2
 69
     2
 12
986.6781359294573
 22
1427.077061889956
 13
0.0
 23
0.0
 14
0.5
 24
0.5
 15
0.0
 25
0.0
 16
0.0
 26
0.0
 36
1.0
 17
0.0
 27
0.0
 37
0.0
 42
50.0
 43
0.0
 44
0.0
 45
2890.021615685494
 50
0.0
 51
0.0
 72
   100
 90
   557152
  1

281
     0
 71
     1
 74
     0
110
0.0
120
0.0
130
0.0
111
1.0
121
0.0
131
0.0
112
0.0
122
1.0
132
0.0
 79
     0
146
0.0
170
     0
 61
     5
348
26C
292
     1
282
     1
141
0.0
142
0.0
 63
   256
  0
ENDSEC
  0
SECTION
  2
OBJECTS
  0
DICTIONARY
  5
19
330
0
100
AcDbDictionary
281
     1
  3
ACAD_COLOR
350
674
  3
ACAD_DETAILVIEWSTYLE
350
12F4
  3
ACAD_FIELDLIST
350
4E17
  3
ACAD_GROUP
350
1A
  3
ACAD_IMAGE_VARS
350
27B
  3
ACAD_LAYOUT
350
1E
  3
ACAD_MATERIAL
350
263
  3
ACAD_MLEADERSTYLE
350
336
  3
ACAD_MLINESTYLE
350
1B
  3
ACAD_PLOTSETTINGS
350
22
  3
ACAD_PLOTSTYLENAME
350
1F
  3
ACAD_SCALELIST
350
241
  3
ACAD_SECTIONVIEWSTYLE
350
12F5
  3
ACAD_TABLESTYLE
350
278
  3
ACAD_VISUALSTYLE
350
267
  3
ACDB_RECOMPOSE_DATA
350
58FF
  3
AcDbVariableDictionary
350
330
  3
AcStStandard
350
12B9
  3
APPDATA
350
27A
  0
SUN
  5
10E8
330
15
100
AcDbSun
 90
        1
290
     0
 63
     7
421
 16777215
 40
1.0
291
     1
 91
  2455826
 92
 54000000
292
     0
 70
     2
 71
   256
280
     1
  0
DICTIONARY
  5
2E1
330
2
100
AcDbDictionary
280
     1
281
     1
  3
ACAD_LAYERSTATES
360
2E2
  3
ACLYDICTIONARY
360
5105
  0
DICTIONARY
  5
4CE1
330
A
100
AcDbDictionary
280
     1
281
     1
  3
ACAD_SORTENTS
360
4CE2
  0
DICTIONARY
  5
4E15
330
4E13
100
AcDbDictionary
280
     1
281
     1
  3
ACAD_FIELD
360
58DD
  0
DICTIONARY
  5
5825
330
5824
100
AcDbDictionary
280
     1
281
     1
  3
ACAD_DIMASSOC
360
5826
  0
DICTIONARY
  5
674
102
{ACAD_REACTORS
330
19
102
}
330
19
100
AcDbDictionary
281
     1
  0
DICTIONARY
  5
12F4
102
{ACAD_REACTORS
330
19
102
}
330
19
100
AcDbDictionary
281
     1
  0
FIELDLIST
  5
4E17
102
{ACAD_REACTORS
330
19
102
}
330
19
100
AcDbIdSet
 90
        2
330
4E18
330
4E14
100
AcDbFieldList
  0
DICTIONARY
  5
1A
102
{ACAD_REACTORS
330
19
102
}
330
19
100
AcDbDictionary
281
     1
  3
*A1
350
581F
  3
*A2
350
5820
  0
RASTERVARIABLES
  5
27B
102
{ACAD_REACTORS
330
19
102
}
330
19
100
AcDbRasterVariables
 90
        0
 70
     1
 71
     1
 72
     1
  0
DICTIONARY
  5
1E
102
{ACAD_REACTORS
330
19
102
}
330
19
100
AcDbDictionary
281
     1
  3
Layout1
350
21
  3
Layout2
350
12C4
  3
Model
350
20
  0
DICTIONARY
  5
263
102
{ACAD_REACTORS
330
19
102
}
330
19
100
AcDbDictionary
281
     1
  3
ByBlock
350
385B
  3
ByLayer
350
264
  3
Global
350
266
  0
DICTIONARY
  5
336
102
{ACAD_REACTORS
330
19
102
}
330
19
100
AcDbDictionary
281
     1
  3
Standard
350
4D73
  0
DICTIONARY
  5
1B
102
{ACAD_REACTORS
330
19
102
}
330
19
100
AcDbDictionary
281
     1
  3
Standard
350
1C
  0
DICTIONARY
  5
22
102
{ACAD_REACTORS
330
19
102
}
330
19
100
AcDbDictionary
281
     1
  0
ACDBDICTIONARYWDFLT
  5
1F
102
{ACAD_REACTORS
330
19
102
}
330
19
100
AcDbDictionary
281
     1
  3
Normal
350
1D
100
AcDbDictionaryWithDefault
340
1D
  0
DICTIONARY
  5
241
102
{ACAD_REACTORS
330
19
102
}
330
19
100
AcDbDictionary
281
     1
  3
A0
350
242
  3
A1
350
243
  3
A2
350
244
  3
A3
350
245
  3
A4
350
246
  3
A5
350
247
  3
A6
350
248
  3
A7
350
249
  3
A8
350
24A
  3
A9
350
24B
  3
B0
350
24C
  3
B1
350
24D
  3
B2
350
24E
  3
B3
350
24F
  3
B4
350
250
  3
B5
350
251
  3
B6
350
252
  3
B7
350
253
  3
B8
350
254
  3
B9
350
255
  3
C0
350
256
  3
C1
350
257
  3
C2
350
258
  3
C3
350
259
  3
C4
350
25A
  3
C5
350
25B
  3
C6
350
25C
  3
C7
350
25D
  3
C8
350
25E
  3
C9
350
25F
  3
D0
350
260
  3
D1
350
261
  3
D2
350
262
  0
DICTIONARY
  5
12F5
102
{ACAD_REACTORS
330
19
102
}
330
19
100
AcDbDictionary
281
     1
  0
DICTIONARY
  5
278
102
{ACAD_REACTORS
330
19
102
}
330
19
100
AcDbDictionary
281
     1
  3
Standard
350
279
  0
DICTIONARY
  5
267
102
{ACAD_REACTORS
330
19
102
}
330
19
100
AcDbDictionary
281
     1
  3
2dWireframe
350
26C
  3
3D Hidden
350
26E
  3
3dWireframe
350
26D
  3
Basic
350
26F
  3
Brighten
350
273
  3
ColorChange
350
277
  3
Conceptual
350
271
  3
Dim
350
272
  3
EdgeColorOff
350
10E2
  3
Facepattern
350
276
  3
Flat
350
268
  3
FlatWithEdges
350
269
  3
Gouraud
350
26A
  3
GouraudWithEdges
350
26B
  3
Hidden
350
10DF
  3
JitterOff
350
10E0
  3
Linepattern
350
275
  3
OverhangOff
350
10E1
  3
Realistic
350
270
  3
Shaded
350
10E7
  3
Shaded with edges
350
10E6
  3
Shades of Gray
350
10E3
  3
Sketchy
350
10E4
  3
Thicken
350
274
  3
Wireframe
350
10DE
  3
X-Ray
350
10E5
  0
XRECORD
  5
58FF
102
{ACAD_REACTORS
330
19
102
}
330
19
100
AcDbXrecord
280
     1
 90
        1
330
279
  0
DICTIONARY
  5
330
102
{ACAD_REACTORS
330
19
102
}
330
19
100
AcDbDictionary
281
     1
  3
CANNOSCALE
350
331
  3
CMLEADERSTYLE
350
4E1D
  3
CTABLESTYLE
350
335
  3
XCLIPFRAME
350
109E
  0
DICTIONARY
  5
12B9
102
{ACAD_REACTORS
330
19
102
}
330
19
100
AcDbDictionary
281
     1
  0
DICTIONARY
  5
27A
102
{ACAD_REACTORS
330
19
102
}
330
19
100
AcDbDictionary
281
     1
  0
DICTIONARY
  5
2E2
102
{ACAD_REACTORS
330
2E1
102
}
330
2E1
100
AcDbDictionary
281
     1
  0
DICTIONARY
  5
5105
102
{ACAD_REACTORS
330
2E1
102
}
330
2E1
100
AcDbDictionary
281
     1
1001
ACAD
1000
<All
  0
SORTENTSTABLE
  5
4CE2
102
{ACAD_REACTORS
330
4CE1
102
}
330
4CE1
100
AcDbSortentsTable
330
A
331
36CD
  5
36D9
331
36CE
  5
36DA
331
36CF
  5
36DB
331
36D0
  5
36DC
331
36D3
  5
36DD
331
36D4
  5
36DE
331
36D5
  5
36DF
331
36D6
  5
36E0
331
36D7
  5
36E1
331
36D8
  5
36E2
331
36D9
  5
36E3
331
36DA
  5
36E5
331
36DB
  5
36E7
331
36DD
  5
36E8
331
36DE
  5
36E9
331
36DF
  5
36EA
331
36E0
  5
36EB
331
36E1
  5
36EC
331
36E2
  5
36ED
331
36E3
  5
37DE
331
36E5
  5
4999
331
36E6
  5
499D
331
36E9
  5
4C5E
331
36EA
  5
4C60
331
36EB
  5
4DC0
331
36EC
  5
4DC1
331
36ED
  5
4DC2
331
37DE
  5
4DC3
331
4E0D
  5
4E8D
331
4E0E
  5
4E8E
331
4E0F
  5
4E8F
331
4E10
  5
4E90
331
4E11
  5
4E92
331
4E13
  5
51C0
331
4E1F
  5
51C1
331
53AC
  5
543F
331
5443
  5
5445
331
5444
  5
5446
331
544C
  5
544E
331
544D
  5
544F
331
544E
  5
5450
331
544F
  5
5451
331
5450
  5
5452
331
5451
  5
5453
331
5482
  5
5484
331
5483
  5
5485
331
5484
  5
5486
331
5485
  5
5487
331
5486
  5
5488
331
5487
  5
5489
331
5488
  5
548A
331
5489
  5
548B
331
548B
  5
5490
331
548F
  5
5491
331
5498
  5
549A
331
54A6
  5
54AA
331
54A9
  5
54EA
331
54AA
  5
54FC
331
54EA
  5
54FD
  0
DICTIONARY
  5
58DD
102
{ACAD_REACTORS
330
4E15
102
}
330
4E15
100
AcDbDictionary
280
     1
281
     1
  3
TEXT
360
4E14
  0
DIMASSOC
  5
5826
102
{ACAD_REACTORS
330
5825
102
}
330
5825
100
AcDbDimAssoc
330
5824
 90
        1
 70
     0
 71
     1
  1
AcDbOsnapPointRef
 72
     1
331
571E
 73
     0
 91
        0
 40
0.0
 10
0.0
 20
0.0
 30
0.0
 75
     0
  0
GROUP
  5
581F
102
{ACAD_REACTORS
330
1A
102
}
330
1A
100
AcDbGroup
300

 70
     1
 71
     1
340
56FF
340
5719
340
571A
340
571B
340
571D
340
571E
340
571F
340
5720
340
577F
340
5780
340
5781
340
5782
340
5783
340
5784
340
5785
340
5786
340
5787
340
5788
340
5789
340
578A
340
578B
340
578C
340
578D
340
578E
340
578F
340
5790
340
5791
340
5792
340
5793
340
5794
340
5795
340
5796
340
5797
340
5798
340
5799
340
579A
340
579B
340
579C
340
579D
340
579E
340
579F
340
57A0
340
57A1
340
57A2
340
57A3
340
57A4
340
57A5
340
57A6
340
57A7
340
57A8
340
57A9
340
57AA
340
57AB
340
57AC
340
57AD
340
57AE
340
57AF
340
57B0
340
57C7
340
57C9
340
57CA
340
57CB
340
57CC
  0
GROUP
  5
5820
102
{ACAD_REACTORS
330
1A
102
}
330
1A
100
AcDbGroup
300

 70
     1
 71
     1
340
56F9
340
5718
340
571C
340
5721
340
5722
340
5723
340
5724
340
57B1
340
57B2
340
57B3
340
57B4
340
57B5
340
57B6
340
57B7
340
57B8
340
57B9
340
57BA
340
57BB
340
57BC
340
57BD
340
57BE
340
57BF
340
57C0
340
57C1
340
57C2
340
57C3
340
57C4
340
57C5
340
57C6
340
57C8
340
57CD
340
57CE
340
57D4
340
57E1
340
57E2
  0
LAYOUT
  5
21
102
{ACAD_REACTORS
330
1E
102
}
330
1E
100
AcDbPlotSettings
  1

  2
none_device
  4
ISO_A3_(420.00_x_297.00_MM)
  6

 40
7.5
 41
20.0
 42
7.5
 43
20.0
 44
420.0
 45
297.0
 46
0.0
 47
0.0
 48
0.0
 49
0.0
140
0.0
141
0.0
142
1.0
143
1.0
 70
     0
 72
     1
 73
     0
 74
     0
  7

 75
     0
 76
     0
 77
     2
 78
   300
147
1.0
148
0.0
149
0.0
100
AcDbLayout
  1
Layout1
 70
     0
 71
     0
 10
-7.5
 20
-20.0
 11
412.5
 21
277.0
 12
0.0
 22
0.0
 32
0.0
 14
0.0
 24
0.0
 34
0.0
 15
0.0
 25
0.0
 35
0.0
146
0.0
 13
0.0
 23
0.0
 33
0.0
 16
0.0
 26
0.0
 36
0.0
 17
0.0
 27
0.0
 37
0.0
 76
     0
330
B
331
349
  0
LAYOUT
  5
12C4
102
{ACAD_REACTORS
330
1E
102
}
330
1E
100
AcDbPlotSettings
  1

  2
none_device
  4

  6

 40
0.0
 41
0.0
 42
0.0
 43
0.0
 44
0.0
 45
0.0
 46
0.0
 47
0.0
 48
0.0
 49
0.0
140
0.0
141
0.0
142
1.0
143
1.0
 70
   688
 72
     1
 73
     0
 74
     5
  7

 75
    16
 76
     0
 77
     2
 78
   300
147
1.0
148
0.0
149
0.0
100
AcDbLayout
  1
Layout2
 70
     1
 71
     2
 10
0.0
 20
0.0
 11
0.0
 21
0.0
 12
0.0
 22
0.0
 32
0.0
 14
0.0
 24
0.0
 34
0.0
 15
0.0
 25
0.0
 35
0.0
146
0.0
 13
0.0
 23
0.0
 33
0.0
 16
1.0
 26
0.0
 36
0.0
 17
0.0
 27
1.0
 37
0.0
 76
     0
330
12C3
  0
LAYOUT
  5
20
102
{ACAD_REACTORS
330
1E
102
}
330
1E
100
AcDbPlotSettings
  1

  2
none_device
  4
ISO_A3_(420.00_x_297.00_MM)
  6

 40
7.5
 41
20.0
 42
7.5
 43
20.0
 44
420.0
 45
297.0
 46
0.0
 47
0.0
 48
0.0
 49
0.0
140
0.0
141
0.0
142
1.0
143
1.0
 70
  1024
 72
     1
 73
     0
 74
     0
  7

 75
     0
 76
     0
 77
     2
 78
   300
147
1.0
148
0.0
149
0.0
100
AcDbLayout
  1
Model
 70
     0
 71
     1
 10
0.0
 20
0.0
 11
593.9999999999999
 21
420.0
 12
0.0
 22
0.0
 32
0.0
 14
0.0
 24
0.0
 34
0.0
 15
593.9999999999999
 25
420.0
 35
0.005
146
0.0
 13
0.0
 23
0.0
 33
0.0
 16
0.0
 26
0.0
 36
0.0
 17
0.0
 27
0.0
 37
0.0
 76
     0
330
A
331
15
  0
MATERIAL
  5
385B
102
{ACAD_REACTORS
330
263
102
}
330
263
100
AcDbMaterial
  1
ByBlock
 72
     1
 94
      127
  0
MATERIAL
  5
264
102
{ACAD_REACTORS
330
263
102
}
330
263
100
AcDbMaterial
  1
ByLayer
 72
     1
 94
      127
  0
MATERIAL
  5
266
102
{ACAD_REACTORS
330
263
102
}
330
263
100
AcDbMaterial
  1
Global
 72
     1
 94
      127
  0
MLEADERSTYLE
  5
4D73
102
{ACAD_REACTORS
330
336
102
}
330
336
100
AcDbMLeaderStyle
170
     2
171
     1
172
     0
 90
        2
 40
0.0
 41
0.0
173
     1
 91
-1056964608
340
11
 92
       -2
290
     1
 42
2.0
291
     1
 43
8.0
  3
Standard
341
0
 44
4.0
300

342
17
174
     1
178
     1
175
     1
176
     0
 93
-1056964608
 45
4.0
292
     0
297
     0
 46
4.0
343
0
 94
-1056964608
 47
1.0
 49
1.0
140
1.0
293
     1
141
0.0
294
     1
177
     0
142
1.0
295
     0
296
     0
143
3.75
1001
ACAD_MLEADERVER
1070
     2
  0
MLINESTYLE
  5
1C
102
{ACAD_REACTORS
330
1B
102
}
330
1B
100
AcDbMlineStyle
  2
Standard
 70
     0
  3

 62
     0
 51
90.0
 52
90.0
 71
     2
 49
0.5
 62
   256
  6
BYLAYER
 49
-0.5
 62
   256
  6
BYLAYER
  0
ACDBPLACEHOLDER
  5
1D
102
{ACAD_REACTORS
330
1F
102
}
330
1F
  0
SCALE
  5
242
102
{ACAD_REACTORS
330
241
102
}
330
241
100
AcDbScale
 70
     0
300
1:1
140
1.0
141
1.0
290
     1
  0
SCALE
  5
243
102
{ACAD_REACTORS
330
241
102
}
330
241
100
AcDbScale
 70
     0
300
1:2
140
1.0
141
2.0
290
     0
  0
SCALE
  5
244
102
{ACAD_REACTORS
330
241
102
}
330
241
100
AcDbScale
 70
     0
300
1:4
140
1.0
141
4.0
290
     0
  0
SCALE
  5
245
102
{ACAD_REACTORS
330
241
102
}
330
241
100
AcDbScale
 70
     0
300
1:5
140
1.0
141
5.0
290
     0
  0
SCALE
  5
246
102
{ACAD_REACTORS
330
241
102
}
330
241
100
AcDbScale
 70
     0
300
1:8
140
1.0
141
8.0
290
     0
  0
SCALE
  5
247
102
{ACAD_REACTORS
330
241
102
}
330
241
100
AcDbScale
 70
     0
300
1:10
140
1.0
141
10.0
290
     0
  0
SCALE
  5
248
102
{ACAD_REACTORS
330
241
102
}
330
241
100
AcDbScale
 70
     0
300
1:16
140
1.0
141
16.0
290
     0
  0
SCALE
  5
249
102
{ACAD_REACTORS
330
241
102
}
330
241
100
AcDbScale
 70
     0
300
1:20
140
1.0
141
20.0
290
     0
  0
SCALE
  5
24A
102
{ACAD_REACTORS
330
241
102
}
330
241
100
AcDbScale
 70
     0
300
1:30
140
1.0
141
30.0
290
     0
  0
SCALE
  5
24B
102
{ACAD_REACTORS
330
241
102
}
330
241
100
AcDbScale
 70
     0
300
1:40
140
1.0
141
40.0
290
     0
  0
SCALE
  5
24C
102
{ACAD_REACTORS
330
241
102
}
330
241
100
AcDbScale
 70
     0
300
1:50
140
1.0
141
50.0
290
     0
  0
SCALE
  5
24D
102
{ACAD_REACTORS
330
241
102
}
330
241
100
AcDbScale
 70
     0
300
1:100
140
1.0
141
100.0
290
     0
  0
SCALE
  5
24E
102
{ACAD_REACTORS
330
241
102
}
330
241
100
AcDbScale
 70
     0
300
2:1
140
2.0
141
1.0
290
     0
  0
SCALE
  5
24F
102
{ACAD_REACTORS
330
241
102
}
330
241
100
AcDbScale
 70
     0
300
4:1
140
4.0
141
1.0
290
     0
  0
SCALE
  5
250
102
{ACAD_REACTORS
330
241
102
}
330
241
100
AcDbScale
 70
     0
300
8:1
140
8.0
141
1.0
290
     0
  0
SCALE
  5
251
102
{ACAD_REACTORS
330
241
102
}
330
241
100
AcDbScale
 70
     0
300
10:1
140
10.0
141
1.0
290
     0
  0
SCALE
  5
252
102
{ACAD_REACTORS
330
241
102
}
330
241
100
AcDbScale
 70
     0
300
100:1
140
100.0
141
1.0
290
     0
  0
SCALE
  5
253
102
{ACAD_REACTORS
330
241
102
}
330
241
100
AcDbScale
 70
     0
300
1/128" = 1'-0"
140
0.0078125
141
12.0
290
     0
  0
SCALE
  5
254
102
{ACAD_REACTORS
330
241
102
}
330
241
100
AcDbScale
 70
     0
300
1/64" = 1'-0"
140
0.015625
141
12.0
290
     0
  0
SCALE
  5
255
102
{ACAD_REACTORS
330
241
102
}
330
241
100
AcDbScale
 70
     0
300
1/32" = 1'-0"
140
0.03125
141
12.0
290
     0
  0
SCALE
  5
256
102
{ACAD_REACTORS
330
241
102
}
330
241
100
AcDbScale
 70
     0
300
1/16" = 1'-0"
140
0.0625
141
12.0
290
     0
  0
SCALE
  5
257
102
{ACAD_REACTORS
330
241
102
}
330
241
100
AcDbScale
 70
     0
300
3/32" = 1'-0"
140
0.09375
141
12.0
290
     0
  0
SCALE
  5
258
102
{ACAD_REACTORS
330
241
102
}
330
241
100
AcDbScale
 70
     0
300
1/8" = 1'-0"
140
0.125
141
12.0
290
     0
  0
SCALE
  5
259
102
{ACAD_REACTORS
330
241
102
}
330
241
100
AcDbScale
 70
     0
300
3/16" = 1'-0"
140
0.1875
141
12.0
290
     0
  0
SCALE
  5
25A
102
{ACAD_REACTORS
330
241
102
}
330
241
100
AcDbScale
 70
     0
300
1/4" = 1'-0"
140
0.25
141
12.0
290
     0
  0
SCALE
  5
25B
102
{ACAD_REACTORS
330
241
102
}
330
241
100
AcDbScale
 70
     0
300
3/8" = 1'-0"
140
0.375
141
12.0
290
     0
  0
SCALE
  5
25C
102
{ACAD_REACTORS
330
241
102
}
330
241
100
AcDbScale
 70
     0
300
1/2" = 1'-0"
140
0.5
141
12.0
290
     0
  0
SCALE
  5
25D
102
{ACAD_REACTORS
330
241
102
}
330
241
100
AcDbScale
 70
     0
300
3/4" = 1'-0"
140
0.75
141
12.0
290
     0
  0
SCALE
  5
25E
102
{ACAD_REACTORS
330
241
102
}
330
241
100
AcDbScale
 70
     0
300
1" = 1'-0"
140
1.0
141
12.0
290
     0
  0
SCALE
  5
25F
102
{ACAD_REACTORS
330
241
102
}
330
241
100
AcDbScale
 70
     0
300
1-1/2" = 1'-0"
140
1.5
141
12.0
290
     0
  0
SCALE
  5
260
102
{ACAD_REACTORS
330
241
102
}
330
241
100
AcDbScale
 70
     0
300
3" = 1'-0"
140
3.0
141
12.0
290
     0
  0
SCALE
  5
261
102
{ACAD_REACTORS
330
241
102
}
330
241
100
AcDbScale
 70
     0
300
6" = 1'-0"
140
6.0
141
12.0
290
     0
  0
SCALE
  5
262
102
{ACAD_REACTORS
330
241
102
}
330
241
100
AcDbScale
 70
     0
300
1'-0" = 1'-0"
140
12.0
141
12.0
290
     0
  0
TABLESTYLE
  5
279
102
{ACAD_REACTORS
330
278
102
}
102
{ACAD_XDICTIONARY
360
58FD
102
}
330
278
100
AcDbTableStyle
  3
Standard
 70
     0
 71
     0
 40
0.06
 41
0.06
280
     0
281
     0
  7
Standard
140
4.5
170
     2
 62
     0
 63
   257
283
     0
 90
        4
 91
        0
  1

274
    -2
284
     1
 64
     0
275
    -2
285
     1
 65
     0
276
    -2
286
     1
 66
     0
277
    -2
287
     1
 67
     0
278
    -2
288
     1
 68
     0
279
    -2
289
     1
 69
     0
  7
Standard
140
6.0
170
     5
 62
     0
 63
   257
283
     0
 90
        4
 91
        0
  1

274
    -2
284
     1
 64
     0
275
    -2
285
     1
 65
     0
276
    -2
286
     1
 66
     0
277
    -2
287
     1
 67
     0
278
    -2
288
     1
 68
     0
279
    -2
289
     1
 69
     0
  7
Standard
140
4.5
170
     5
 62
     0
 63
   257
283
     0
 90
        4
 91
        0
  1

274
    -2
284
     1
 64
     0
275
    -2
285
     1
 65
     0
276
    -2
286
     1
 66
     0
277
    -2
287
     1
 67
     0
278
    -2
288
     1
 68
     0
279
    -2
289
     1
 69
     0
  0
VISUALSTYLE
  5
26C
102
{ACAD_REACTORS
330
267
102
}
330
267
100
AcDbVisualStyle
  2
2dWireframe
 70
     4
 71
     0
 72
     2
 73
     0
 90
        0
 40
-0.6
 41
-30.0
 62
     5
 63
     7
421
 16777215
 74
     1
 91
        4
 64
     7
 65
   257
 75
     1
175
     1
 42
1.0
 92
        0
 66
   257
 43
1.0
 76
     1
 77
     6
 78
     2
 67
     7
 79
     5
170
     0
171
     0
290
     0
174
     0
 93
        1
 44
0.0
173
     0
291
     0
 45
0.0
  0
VISUALSTYLE
  5
26E
102
{ACAD_REACTORS
330
267
102
}
330
267
100
AcDbVisualStyle
  2
3D Hidden
 70
     6
 71
     1
 72
     2
 73
     2
 90
        0
 40
-0.6
 41
-30.0
 62
     5
 63
     7
421
 16777215
 74
     2
 91
        2
 64
     7
 65
   257
 75
     2
175
     1
 42
40.0
 92
        0
 66
   257
 43
1.0
 76
     1
 77
     6
 78
     2
 67
     7
 79
     3
170
     0
171
     0
290
     0
174
     0
 93
        1
 44
0.0
173
     0
291
     0
 45
0.0
  0
VISUALSTYLE
  5
26D
102
{ACAD_REACTORS
330
267
102
}
330
267
100
AcDbVisualStyle
  2
3dWireframe
 70
     5
 71
     0
 72
     2
 73
     0
 90
        0
 40
-0.6
 41
-30.0
 62
     5
 63
     7
421
 16777215
 74
     1
 91
        4
 64
     7
 65
   257
 75
     1
175
     1
 42
1.0
 92
        0
 66
   257
 43
1.0
 76
     1
 77
     6
 78
     2
 67
     7
 79
     5
170
     0
171
     0
290
     0
174
     0
 93
        1
 44
0.0
173
     0
291
     0
 45
0.0
  0
VISUALSTYLE
  5
26F
102
{ACAD_REACTORS
330
267
102
}
330
267
100
AcDbVisualStyle
  2
Basic
 70
     7
 71
     1
 72
     0
 73
     1
 90
        0
 40
-0.6
 41
-30.0
 62
     5
 63
     7
421
 16777215
 74
     0
 91
        4
 64
     7
 65
   257
 75
     1
175
     1
 42
1.0
 92
        8
 66
     7
 43
1.0
 76
     1
 77
     6
 78
     2
 67
     7
 79
     5
170
     0
171
     0
290
     0
174
     0
 93
        1
 44
0.0
173
     0
291
     1
 45
0.0
  0
VISUALSTYLE
  5
273
102
{ACAD_REACTORS
330
267
102
}
330
267
100
AcDbVisualStyle
  2
Brighten
 70
    12
 71
     2
 72
     2
 73
     0
 90
        0
 40
-0.6
 41
-30.0
 62
     5
 63
     7
421
 16777215
 74
     1
 91
        4
 64
     7
 65
   257
 75
     1
175
     1
 42
1.0
 92
        8
 66
     7
 43
1.0
 76
     1
 77
     6
 78
     2
 67
     7
 79
     5
170
     0
171
     0
290
     0
174
     0
 93
        1
 44
50.0
173
     0
291
     1
 45
0.0
  0
VISUALSTYLE
  5
277
102
{ACAD_REACTORS
330
267
102
}
330
267
100
AcDbVisualStyle
  2
ColorChange
 70
    16
 71
     2
 72
     2
 73
     3
 90
        0
 40
-0.6
 41
-30.0
 62
     5
 63
     8
421
  8421504
 74
     1
 91
        4
 64
     7
 65
   257
 75
     1
175
     1
 42
1.0
 92
        8
 66
     8
424
  8421504
 43
1.0
 76
     1
 77
     6
 78
     2
 67
     7
 79
     5
170
     0
171
     0
290
     0
174
     0
 93
        1
 44
0.0
173
     0
291
     1
 45
0.0
  0
VISUALSTYLE
  5
271
102
{ACAD_REACTORS
330
267
102
}
330
267
100
AcDbVisualStyle
  2
Conceptual
 70
     9
 71
     3
 72
     2
 73
     0
 90
        0
 40
-0.6
 41
-30.0
 62
     5
 63
     7
421
 16777215
 74
     2
 91
        2
 64
     7
 65
   257
 75
     1
175
     1
 42
40.0
 92
        8
 66
     7
 43
1.0
 76
     1
 77
     6
 78
     2
 67
     7
 79
     3
170
     0
171
     0
290
     0
174
     0
 93
        1
 44
0.0
173
     0
291
     0
 45
0.0
  0
VISUALSTYLE
  5
272
102
{ACAD_REACTORS
330
267
102
}
330
267
100
AcDbVisualStyle
  2
Dim
 70
    11
 71
     2
 72
     2
 73
     0
 90
        0
 40
-0.6
 41
-30.0
 62
     5
 63
     7
421
 16777215
 74
     1
 91
        4
 64
     7
 65
   257
 75
     1
175
     1
 42
1.0
 92
        8
 66
     7
 43
1.0
 76
     1
 77
     6
 78
     2
 67
     7
 79
     5
170
     0
171
     0
290
     0
174
     0
 93
        1
 44
-50.0
173
     0
291
     1
 45
0.0
  0
VISUALSTYLE
  5
10E2
102
{ACAD_REACTORS
330
267
102
}
330
267
100
AcDbVisualStyle
  2
EdgeColorOff
 70
    22
 71
     2
 72
     2
 73
     0
 90
        0
 40
0.6
 41
30.0
 62
     5
 63
     7
421
 16777215
 74
     1
 91
        4
 64
     7
 65
   257
 75
     1
175
     1
 42
1.0
 92
        8
 66
     7
 43
1.0
 76
     1
 77
     6
 78
     2
 67
     7
 79
     5
170
     0
171
     0
290
     0
174
     0
 93
        1
 44
0.0
173
     0
291
     1
 45
0.0
  0
VISUALSTYLE
  5
276
102
{ACAD_REACTORS
330
267
102
}
330
267
100
AcDbVisualStyle
  2
Facepattern
 70
    15
 71
     2
 72
     2
 73
     0
 90
        0
 40
-0.6
 41
-30.0
 62
     5
 63
     7
421
 16777215
 74
     1
 91
        4
 64
     7
 65
   257
 75
     1
175
     1
 42
1.0
 92
        8
 66
     7
 43
1.0
 76
     1
 77
     6
 78
     2
 67
     7
 79
     5
170
     0
171
     0
290
     0
174
     0
 93
        1
 44
0.0
173
     0
291
     1
 45
0.0
  0
VISUALSTYLE
  5
268
102
{ACAD_REACTORS
330
267
102
}
330
267
100
AcDbVisualStyle
  2
Flat
 70
     0
 71
     2
 72
     1
 73
     1
 90
        2
 40
-0.6
 41
30.0
 62
     5
 63
     7
421
 16777215
 74
     0
 91
        4
 64
     7
 65
   257
 75
     1
175
     1
 42
1.0
 92
        8
 66
     7
 43
1.0
 76
     1
 77
     6
 78
     2
 67
     7
 79
     5
170
     0
171
     0
290
     0
174
     0
 93
       13
 44
0.0
173
     0
291
     1
 45
0.0
  0
VISUALSTYLE
  5
269
102
{ACAD_REACTORS
330
267
102
}
330
267
100
AcDbVisualStyle
  2
FlatWithEdges
 70
     1
 71
     2
 72
     1
 73
     1
 90
        2
 40
-0.6
 41
30.0
 62
     5
 63
     7
421
 16777215
 74
     1
 91
        4
 64
     7
 65
   257
 75
     1
175
     1
 42
1.0
 92
        0
 66
   257
 43
1.0
 76
     1
 77
     6
 78
     2
 67
     7
 79
     5
170
     0
171
     0
290
     0
174
     0
 93
       13
 44
0.0
173
     0
291
     1
 45
0.0
  0
VISUALSTYLE
  5
26A
102
{ACAD_REACTORS
330
267
102
}
330
267
100
AcDbVisualStyle
  2
Gouraud
 70
     2
 71
     2
 72
     2
 73
     1
 90
        2
 40
-0.6
 41
30.0
 62
     5
 63
     7
421
 16777215
 74
     0
 91
        4
 64
     7
 65
   257
 75
     1
175
     1
 42
1.0
 92
        0
 66
     7
 43
1.0
 76
     1
 77
     6
 78
     2
 67
     7
 79
     5
170
     0
171
     0
290
     0
174
     0
 93
       13
 44
0.0
173
     0
291
     1
 45
0.0
  0
VISUALSTYLE
  5
26B
102
{ACAD_REACTORS
330
267
102
}
330
267
100
AcDbVisualStyle
  2
GouraudWithEdges
 70
     3
 71
     2
 72
     2
 73
     1
 90
        2
 40
-0.6
 41
30.0
 62
     5
 63
     7
421
 16777215
 74
     1
 91
        4
 64
     7
 65
   257
 75
     1
175
     1
 42
1.0
 92
        0
 66
   257
 43
1.0
 76
     1
 77
     6
 78
     2
 67
     7
 79
     5
170
     0
171
     0
290
     0
174
     0
 93
       13
 44
0.0
173
     0
291
     1
 45
0.0
  0
VISUALSTYLE
  5
10DF
102
{ACAD_REACTORS
330
267
102
}
330
267
100
AcDbVisualStyle
  2
Hidden
 70
     6
 71
     1
 72
     2
 73
     2
 90
        0
 40
0.6
 41
30.0
 62
     5
 63
     7
421
 16777215
 74
     2
 91
        2
 64
     7
 65
   257
 75
     2
175
     1
 42
40.0
 92
        0
 66
   257
 43
1.0
 76
     1
 77
     6
 78
     2
 67
     7
 79
     3
170
     0
171
     0
290
     0
174
     0
 93
        1
 44
0.0
173
     0
291
     0
 45
0.0
  0
VISUALSTYLE
  5
10E0
102
{ACAD_REACTORS
330
267
102
}
330
267
100
AcDbVisualStyle
  2
JitterOff
 70
    20
 71
     2
 72
     2
 73
     0
 90
        0
 40
0.6
 41
30.0
 62
     5
 63
     7
421
 16777215
 74
     1
 91
        4
 64
     7
 65
   257
 75
     1
175
     1
 42
1.0
 92
       10
 66
     7
 43
1.0
 76
     1
 77
     6
 78
     2
 67
     7
 79
     5
170
     0
171
     0
290
     0
174
     0
 93
        1
 44
0.0
173
     0
291
     1
 45
0.0
  0
VISUALSTYLE
  5
275
102
{ACAD_REACTORS
330
267
102
}
330
267
100
AcDbVisualStyle
  2
Linepattern
 70
    14
 71
     2
 72
     2
 73
     0
 90
        0
 40
-0.6
 41
-30.0
 62
     5
 63
     7
421
 16777215
 74
     1
 91
        4
 64
     7
 65
   257
 75
     7
175
     7
 42
1.0
 92
        8
 66
     7
 43
1.0
 76
     1
 77
     6
 78
     2
 67
     7
 79
     5
170
     0
171
     0
290
     0
174
     0
 93
        1
 44
0.0
173
     0
291
     1
 45
0.0
  0
VISUALSTYLE
  5
10E1
102
{ACAD_REACTORS
330
267
102
}
330
267
100
AcDbVisualStyle
  2
OverhangOff
 70
    21
 71
     2
 72
     2
 73
     0
 90
        0
 40
0.6
 41
30.0
 62
     5
 63
     7
421
 16777215
 74
     1
 91
        4
 64
     7
 65
   257
 75
     1
175
     1
 42
1.0
 92
        9
 66
     7
 43
1.0
 76
     1
 77
     6
 78
     2
 67
     7
 79
     5
170
     0
171
     0
290
     0
174
     0
 93
        1
 44
0.0
173
     0
291
     1
 45
0.0
  0
VISUALSTYLE
  5
270
102
{ACAD_REACTORS
330
267
102
}
330
267
100
AcDbVisualStyle
  2
Realistic
 70
     8
 71
     2
 72
     2
 73
     0
 90
        0
 40
-0.6
 41
-30.0
 62
     5
 63
     7
421
 16777215
 74
     1
 91
        0
 64
     7
 65
   257
 75
     1
175
     1
 42
1.0
 92
        8
 66
     8
424
  7895160
 43
1.0
 76
     1
 77
     6
 78
     2
 67
     7
 79
     5
170
     0
171
     0
290
     0
174
     0
 93
       13
 44
0.0
173
     0
291
     0
 45
0.0
  0
VISUALSTYLE
  5
10E7
102
{ACAD_REACTORS
330
267
102
}
330
267
100
AcDbVisualStyle
  2
Shaded
 70
    27
 71
     2
 72
     2
 73
     1
 90
        2
 40
0.6
 41
30.0
 62
     5
 63
     7
421
 16777215
 74
     0
 91
        4
 64
     7
 65
   257
 75
     1
175
     1
 42
1.0
 92
        8
 66
   257
 43
1.0
 76
     1
 77
     6
 78
     2
 67
     8
425
  7895160
 79
     3
170
     0
171
     0
290
     0
174
     0
 93
        5
 44
0.0
173
     0
291
     0
 45
0.0
  0
VISUALSTYLE
  5
10E6
102
{ACAD_REACTORS
330
267
102
}
330
267
100
AcDbVisualStyle
  2
Shaded with edges
 70
    26
 71
     2
 72
     2
 73
     1
 90
        2
 40
0.6
 41
30.0
 62
     5
 63
     7
421
 16777215
 74
     1
 91
       10
 64
     7
 65
   257
 75
     2
175
     1
 42
1.0
 92
        8
 66
   257
 43
1.0
 76
     1
 77
     6
 78
     2
 67
     7
 79
     3
170
     0
171
     0
290
     0
174
     0
 93
        5
 44
0.0
173
     0
291
     0
 45
0.0
  0
VISUALSTYLE
  5
10E3
102
{ACAD_REACTORS
330
267
102
}
330
267
100
AcDbVisualStyle
  2
Shades of Gray
 70
    23
 71
     2
 72
     2
 73
     3
 90
        0
 40
0.6
 41
30.0
 62
     5
 63
     7
421
 16777215
 74
     2
 91
        2
 64
     7
 65
     7
 75
     1
175
     1
 42
40.0
 92
        8
 66
     7
 43
1.0
 76
     1
 77
     6
 78
     2
 67
     7
 79
     3
170
     0
171
     0
290
     0
174
     0
 93
        1
 44
0.0
173
     0
291
     0
 45
0.0
  0
VISUALSTYLE
  5
10E4
102
{ACAD_REACTORS
330
267
102
}
330
267
100
AcDbVisualStyle
  2
Sketchy
 70
    24
 71
     1
 72
     2
 73
     2
 90
        0
 40
0.6
 41
30.0
 62
     5
 63
     7
421
 16777215
 74
     2
 91
        2
 64
     7
 65
     7
 75
     1
175
     1
 42
40.0
 92
       11
 66
     7
 43
1.0
 76
     1
 77
     6
 78
     2
 67
     7
 79
     6
170
     0
171
     0
290
     0
174
     0
 93
        1
 44
0.0
173
     0
291
     0
 45
0.0
  0
VISUALSTYLE
  5
274
102
{ACAD_REACTORS
330
267
102
}
330
267
100
AcDbVisualStyle
  2
Thicken
 70
    13
 71
     2
 72
     2
 73
     0
 90
        0
 40
-0.6
 41
-30.0
 62
     5
 63
     7
421
 16777215
 74
     1
 91
        4
 64
     7
 65
   257
 75
     1
175
     1
 42
1.0
 92
       12
 66
     7
 43
1.0
 76
     1
 77
     6
 78
     2
 67
     7
 79
     5
170
     0
171
     0
290
     0
174
     0
 93
        1
 44
0.0
173
     0
291
     1
 45
0.0
  0
VISUALSTYLE
  5
10DE
102
{ACAD_REACTORS
330
267
102
}
330
267
100
AcDbVisualStyle
  2
Wireframe
 70
     5
 71
     0
 72
     2
 73
     0
 90
        0
 40
0.6
 41
30.0
 62
     5
 63
     7
421
 16777215
 74
     1
 91
        4
 64
     7
 65
   257
 75
     1
175
     1
 42
1.0
 92
        0
 66
   257
 43
1.0
 76
     1
 77
     6
 78
     2
 67
     7
 79
     3
170
     0
171
     0
290
     0
174
     0
 93
        1
 44
0.0
173
     0
291
     0
 45
0.0
  0
VISUALSTYLE
  5
10E5
102
{ACAD_REACTORS
330
267
102
}
330
267
100
AcDbVisualStyle
  2
X-Ray
 70
    25
 71
     2
 72
     2
 73
     1
 90
        1
 40
0.5
 41
30.0
 62
     5
 63
     7
421
 16777215
 74
     1
 91
        0
 64
     7
 65
   257
 75
     1
175
     1
 42
1.0
 92
        8
 66
     7
 43
1.0
 76
     1
 77
     6
 78
     2
 67
     7
 79
     3
170
     0
171
     0
290
     0
174
     0
 93
       13
 44
0.0
173
     0
291
     0
 45
0.0
  0
DICTIONARYVAR
  5
331
102
{ACAD_REACTORS
330
330
102
}
330
330
100
DictionaryVariables
280
     0
  1
1:1
  0
DICTIONARYVAR
  5
4E1D
102
{ACAD_REACTORS
330
330
102
}
330
330
100
DictionaryVariables
280
     0
  1
Standard
  0
DICTIONARYVAR
  5
335
102
{ACAD_REACTORS
330
330
102
}
330
330
100
DictionaryVariables
280
     0
  1
Standard
  0
DICTIONARYVAR
  5
109E
102
{ACAD_REACTORS
330
330
102
}
330
330
100
DictionaryVariables
280
     0
  1
0
  0
FIELD
  5
4E14
102
{ACAD_REACTORS
330
58DD
102
}
330
58DD
100
AcDbField
  1
_text
  2
{%<\_FldIdx 0>%N}
 90
        1
360
4E18
 97
        0
 91
       63
 92
        0
 94
       11
 95
        2
 96
        0
300

 93
        1
  6
ACFD_FIELDTEXT_CHECKSUM
 93
        2
 90
        2
140
4498.0
 94
        0
300

302

304
ACVALUE_END
  7
ACFD_FIELD_VALUE
 93
        6
 90
        4
  1
{20180521N}
 94
        0
300

302

304
ACVALUE_END
301
{20180521N}
 98
       11
  0
DICTIONARY
  5
58FD
330
279
100
AcDbDictionary
280
     1
281
     1
  3
ACAD_ROUNDTRIP_2008_TABLESTYLE_CELLSTYLEMAP
360
58FE
  0
FIELD
  5
4E18
330
4E14
100
AcDbField
  1
AcVar
  2
\AcVar Date \f "yyyyMMdd"
 90
        0
 97
        0
 91
       63
 92
        0
 94
       11
 95
       64
 96
        0
300
Variable not supported
 93
        1
  6
Variable
 93
        2
 90
        4
  1
Date
 94
        0
300

302

304
ACVALUE_END
  7
ACFD_FIELD_VALUE
 93
        6
 90
        8
 92
       16
310
E2070500000015000B00060026000000
 94
        0
300
yyyyMMdd
302

304
ACVALUE_END
301
20180521
 98
        8
  0
CELLSTYLEMAP
  5
58FE
102
{ACAD_REACTORS
330
58FD
102
}
330
58FD
100
AcDbCellStyleMap
 90
        3
300
CELLSTYLE
  1
TABLEFORMAT_BEGIN
 90
        5
170
     1
 91
        0
 92
    32768
 62
   257
 93
        1
300
CONTENTFORMAT
  1
CONTENTFORMAT_BEGIN
 90
        0
 91
        0
 92
        4
 93
        0
300

 40
0.0
140
1.0
 94
        5
 62
     0
340
17
144
6.0
309
CONTENTFORMAT_END
171
     1
301
MARGIN
  1
CELLMARGIN_BEGIN
 40
0.06
 40
0.06
 40
0.06
 40
0.06
 40
0.18
 40
0.18
309
CELLMARGIN_END
 94
        6
 95
        1
302
GRIDFORMAT
  1
GRIDFORMAT_BEGIN
 90
        0
 91
        1
 62
     0
 92
       -2
340
0
 93
        0
 40
0.045
309
GRIDFORMAT_END
 95
        2
302
GRIDFORMAT
  1
GRIDFORMAT_BEGIN
 90
        0
 91
        1
 62
     0
 92
       -2
340
0
 93
        0
 40
0.045
309
GRIDFORMAT_END
 95
        4
302
GRIDFORMAT
  1
GRIDFORMAT_BEGIN
 90
        0
 91
        1
 62
     0
 92
       -2
340
0
 93
        0
 40
0.045
309
GRIDFORMAT_END
 95
        8
302
GRIDFORMAT
  1
GRIDFORMAT_BEGIN
 90
        0
 91
        1
 62
     0
 92
       -2
340
0
 93
        0
 40
0.045
309
GRIDFORMAT_END
 95
       16
302
GRIDFORMAT
  1
GRIDFORMAT_BEGIN
 90
        0
 91
        1
 62
     0
 92
       -2
340
0
 93
        0
 40
0.045
309
GRIDFORMAT_END
 95
       32
302
GRIDFORMAT
  1
GRIDFORMAT_BEGIN
 90
        0
 91
        1
 62
     0
 92
       -2
340
0
 93
        0
 40
0.045
309
GRIDFORMAT_END
309
TABLEFORMAT_END
  1
CELLSTYLE_BEGIN
 90
        1
 91
        1
300
_TITLE
309
CELLSTYLE_END
300
CELLSTYLE
  1
TABLEFORMAT_BEGIN
 90
        5
170
     1
 91
        0
 92
        0
 62
   257
 93
        1
300
CONTENTFORMAT
  1
CONTENTFORMAT_BEGIN
 90
        0
 91
        0
 92
        4
 93
        0
300

 40
0.0
140
1.0
 94
        5
 62
     0
340
17
144
4.5
309
CONTENTFORMAT_END
171
     1
301
MARGIN
  1
CELLMARGIN_BEGIN
 40
0.06
 40
0.06
 40
0.06
 40
0.06
 40
0.18
 40
0.18
309
CELLMARGIN_END
 94
        6
 95
        1
302
GRIDFORMAT
  1
GRIDFORMAT_BEGIN
 90
        0
 91
        1
 62
     0
 92
       -2
340
0
 93
        0
 40
0.045
309
GRIDFORMAT_END
 95
        2
302
GRIDFORMAT
  1
GRIDFORMAT_BEGIN
 90
        0
 91
        1
 62
     0
 92
       -2
340
0
 93
        0
 40
0.045
309
GRIDFORMAT_END
 95
        4
302
GRIDFORMAT
  1
GRIDFORMAT_BEGIN
 90
        0
 91
        1
 62
     0
 92
       -2
340
0
 93
        0
 40
0.045
309
GRIDFORMAT_END
 95
        8
302
GRIDFORMAT
  1
GRIDFORMAT_BEGIN
 90
        0
 91
        1
 62
     0
 92
       -2
340
0
 93
        0
 40
0.045
309
GRIDFORMAT_END
 95
       16
302
GRIDFORMAT
  1
GRIDFORMAT_BEGIN
 90
        0
 91
        1
 62
     0
 92
       -2
340
0
 93
        0
 40
0.045
309
GRIDFORMAT_END
 95
       32
302
GRIDFORMAT
  1
GRIDFORMAT_BEGIN
 90
        0
 91
        1
 62
     0
 92
       -2
340
0
 93
        0
 40
0.045
309
GRIDFORMAT_END
309
TABLEFORMAT_END
  1
CELLSTYLE_BEGIN
 90
        2
 91
        1
300
_HEADER
309
CELLSTYLE_END
300
CELLSTYLE
  1
TABLEFORMAT_BEGIN
 90
        5
170
     1
 91
        0
 92
        0
 62
   257
 93
        1
300
CONTENTFORMAT
  1
CONTENTFORMAT_BEGIN
 90
        0
 91
        0
 92
        4
 93
        0
300

 40
0.0
140
1.0
 94
        2
 62
     0
340
17
144
4.5
309
CONTENTFORMAT_END
171
     1
301
MARGIN
  1
CELLMARGIN_BEGIN
 40
0.06
 40
0.06
 40
0.06
 40
0.06
 40
0.18
 40
0.18
309
CELLMARGIN_END
 94
        6
 95
        1
302
GRIDFORMAT
  1
GRIDFORMAT_BEGIN
 90
        0
 91
        1
 62
     0
 92
       -2
340
0
 93
        0
 40
0.045
309
GRIDFORMAT_END
 95
        2
302
GRIDFORMAT
  1
GRIDFORMAT_BEGIN
 90
        0
 91
        1
 62
     0
 92
       -2
340
0
 93
        0
 40
0.045
309
GRIDFORMAT_END
 95
        4
302
GRIDFORMAT
  1
GRIDFORMAT_BEGIN
 90
        0
 91
        1
 62
     0
 92
       -2
340
0
 93
        0
 40
0.045
309
GRIDFORMAT_END
 95
        8
302
GRIDFORMAT
  1
GRIDFORMAT_BEGIN
 90
        0
 91
        1
 62
     0
 92
       -2
340
0
 93
        0
 40
0.045
309
GRIDFORMAT_END
 95
       16
302
GRIDFORMAT
  1
GRIDFORMAT_BEGIN
 90
        0
 91
        1
 62
     0
 92
       -2
340
0
 93
        0
 40
0.045
309
GRIDFORMAT_END
 95
       32
302
GRIDFORMAT
  1
GRIDFORMAT_BEGIN
 90
        0
 91
        1
 62
     0
 92
       -2
340
0
 93
        0
 40
0.045
309
GRIDFORMAT_END
309
TABLEFORMAT_END
  1
CELLSTYLE_BEGIN
 90
        3
 91
        2
300
_DATA
309
CELLSTYLE_END
  0
ENDSEC
  0
EOF
