  0
SECTION
  2
HEADER
  9
$ACADVER
  1
AC1021
  9
$ACADMAINTVER
 70
    25
  9
$DWGCODEPAGE
  3
ANSI_932
  9
$LASTSAVEDBY
  1
tform
  9
$INSBASE
 10
0.0
 20
0.0
 30
0.0
  9
$EXTMIN
 10
0.0
 20
0.0
 30
0.0
  9
$EXTMAX
 10
593.9999999999999
 20
420.0
 30
0.0
  9
$LIMMIN
 10
0.0
 20
0.0
  9
$LIMMAX
 10
593.9999999999999
 20
420.0
  9
$ORTHOMODE
 70
     1
  9
$REGENMODE
 70
     1
  9
$FILLMODE
 70
     1
  9
$QTEXTMODE
 70
     0
  9
$MIRRTEXT
 70
     1
  9
$LTSCALE
 40
0.5
  9
$ATTMODE
 70
     1
  9
$TEXTSIZE
 40
2.5
  9
$TRACEWID
 40
1.0
  9
$TEXTSTYLE
  7
ＭＳ ゴシック
  9
$CLAYER
  8
モデル
  9
$CELTYPE
  6
ByLayer
  9
$CECOLOR
 62
   256
  9
$CELTSCALE
 40
1.0
  9
$DISPSILH
 70
     0
  9
$DIMSCALE
 40
1.0
  9
$DIMASZ
 40
1.0
  9
$DIMEXO
 40
5.0
  9
$DIMDLI
 40
0.9999999999999999
  9
$DIMRND
 40
0.0
  9
$DIMDLE
 40
0.0
  9
$DIMEXE
 40
0.0
  9
$DIMTP
 40
0.0
  9
$DIMTM
 40
0.0
  9
$DIMTXT
 40
5.0
  9
$DIMCEN
 40
0.0
  9
$DIMTSZ
 40
0.0
  9
$DIMTOL
 70
     0
  9
$DIMLIM
 70
     0
  9
$DIMTIH
 70
     0
  9
$DIMTOH
 70
     0
  9
$DIMSE1
 70
     0
  9
$DIMSE2
 70
     0
  9
$DIMTAD
 70
     1
  9
$DIMZIN
 70
    11
  9
$DIMBLK
  1
DOT
  9
$DIMASO
 70
     1
  9
$DIMSHO
 70
     1
  9
$DIMPOST
  1
<>
  9
$DIMAPOST
  1
[]
  9
$DIMALT
 70
     0
  9
$DIMALTD
 70
     1
  9
$DIMALTF
 40
1.0
  9
$DIMLFAC
 40
1.0
  9
$DIMTOFL
 70
     0
  9
$DIMTVP
 40
0.0
  9
$DIMTIX
 70
     1
  9
$DIMSOXD
 70
     0
  9
$DIMSAH
 70
     0
  9
$DIMBLK1
  1

  9
$DIMBLK2
  1

  9
$DIMSTYLE
  2
tfrom線あり
  9
$DIMCLRD
 70
     0
  9
$DIMCLRE
 70
     0
  9
$DIMCLRT
 70
     0
  9
$DIMTFAC
 40
1.0
  9
$DIMGAP
 40
1.0
  9
$DIMJUST
 70
     0
  9
$DIMSD1
 70
     0
  9
$DIMSD2
 70
     0
  9
$DIMTOLJ
 70
     1
  9
$DIMTZIN
 70
    11
  9
$DIMALTZ
 70
    11
  9
$DIMALTTZ
 70
    11
  9
$DIMUPT
 70
     0
  9
$DIMDEC
 70
     0
  9
$DIMTDEC
 70
     1
  9
$DIMALTU
 70
     2
  9
$DIMALTTD
 70
     2
  9
$DIMTXSTY
  7
ＭＳ ゴシック
  9
$DIMAUNIT
 70
     0
  9
$DIMADEC
 70
     2
  9
$DIMALTRND
 40
0.0
  9
$DIMAZIN
 70
     0
  9
$DIMDSEP
 70
    46
  9
$DIMATFIT
 70
     0
  9
$DIMFRAC
 70
     2
  9
$DIMLDRBLK
  1
DOT
  9
$DIMLUNIT
 70
     2
  9
$DIMLWD
 70
    -2
  9
$DIMLWE
 70
    -2
  9
$DIMTMOVE
 70
     0
  9
$DIMFXL
 40
1.0
  9
$DIMFXLON
 70
     0
  9
$DIMJOGANG
 40
0.7853981633974483
  9
$DIMTFILL
 70
     0
  9
$DIMTFILLCLR
 70
     0
  9
$DIMARCSYM
 70
     0
  9
$DIMLTYPE
  6

  9
$DIMLTEX1
  6

  9
$DIMLTEX2
  6

  9
$LUNITS
 70
     2
  9
$LUPREC
 70
     0
  9
$SKETCHINC
 40
0.1
  9
$FILLETRAD
 40
0.0
  9
$AUNITS
 70
     0
  9
$AUPREC
 70
     0
  9
$MENU
  1
acad
  9
$ELEVATION
 40
0.0
  9
$PELEVATION
 40
0.0
  9
$THICKNESS
 40
0.0
  9
$LIMCHECK
 70
     0
  9
$CHAMFERA
 40
0.0
  9
$CHAMFERB
 40
0.0
  9
$CHAMFERC
 40
0.0
  9
$CHAMFERD
 40
0.0
  9
$SKPOLY
 70
     0
  9
$TDCREATE
 40
2447893.375
  9
$TDUCREATE
 40
0.0
  9
$TDUPDATE
 40
2459726.681443808
  9
$TDUUPDATE
 40
2459726.306443808
  9
$TDINDWG
 40
0.0027904861
  9
$TDUSRTIMER
 40
0.0000387963
  9
$USRTIMER
 70
     1
  9
$ANGBASE
 50
0.0
  9
$ANGDIR
 70
     0
  9
$PDMODE
 70
     1
  9
$PDSIZE
 40
-2.0
  9
$PLINEWID
 40
0.0
  9
$SPLFRAME
 70
     0
  9
$SPLINETYPE
 70
     6
  9
$SPLINESEGS
 70
     8
  9
$HANDSEED
  5
6AEC
  9
$SURFTAB1
 70
     6
  9
$SURFTAB2
 70
     6
  9
$SURFTYPE
 70
     6
  9
$SURFU
 70
     6
  9
$SURFV
 70
     6
  9
$UCSBASE
  2

  9
$UCSNAME
  2

  9
$UCSORG
 10
0.0
 20
0.0
 30
0.0
  9
$UCSXDIR
 10
1.0
 20
0.0
 30
0.0
  9
$UCSYDIR
 10
0.0
 20
1.0
 30
0.0
  9
$UCSORTHOREF
  2

  9
$UCSORTHOVIEW
 70
     0
  9
$UCSORGTOP
 10
0.0
 20
0.0
 30
0.0
  9
$UCSORGBOTTOM
 10
0.0
 20
0.0
 30
0.0
  9
$UCSORGLEFT
 10
0.0
 20
0.0
 30
0.0
  9
$UCSORGRIGHT
 10
0.0
 20
0.0
 30
0.0
  9
$UCSORGFRONT
 10
0.0
 20
0.0
 30
0.0
  9
$UCSORGBACK
 10
0.0
 20
0.0
 30
0.0
  9
$PUCSBASE
  2

  9
$PUCSNAME
  2

  9
$PUCSORG
 10
0.0
 20
0.0
 30
0.0
  9
$PUCSXDIR
 10
1.0
 20
0.0
 30
0.0
  9
$PUCSYDIR
 10
0.0
 20
1.0
 30
0.0
  9
$PUCSORTHOREF
  2

  9
$PUCSORTHOVIEW
 70
     0
  9
$PUCSORGTOP
 10
0.0
 20
0.0
 30
0.0
  9
$PUCSORGBOTTOM
 10
0.0
 20
0.0
 30
0.0
  9
$PUCSORGLEFT
 10
0.0
 20
0.0
 30
0.0
  9
$PUCSORGRIGHT
 10
0.0
 20
0.0
 30
0.0
  9
$PUCSORGFRONT
 10
0.0
 20
0.0
 30
0.0
  9
$PUCSORGBACK
 10
0.0
 20
0.0
 30
0.0
  9
$USERI1
 70
     0
  9
$USERI2
 70
     0
  9
$USERI3
 70
     0
  9
$USERI4
 70
     0
  9
$USERI5
 70
     0
  9
$USERR1
 40
0.0
  9
$USERR2
 40
0.0
  9
$USERR3
 40
0.0
  9
$USERR4
 40
0.0
  9
$USERR5
 40
0.0
  9
$WORLDVIEW
 70
     1
  9
$SHADEDGE
 70
     3
  9
$SHADEDIF
 70
    70
  9
$TILEMODE
 70
     1
  9
$MAXACTVP
 70
    64
  9
$PINSBASE
 10
0.0
 20
0.0
 30
0.0
  9
$PLIMCHECK
 70
     0
  9
$PEXTMIN
 10
0.0
 20
0.0
 30
0.0
  9
$PEXTMAX
 10
0.0
 20
0.0
 30
0.0
  9
$PLIMMIN
 10
-7.5
 20
-20.0
  9
$PLIMMAX
 10
412.5
 20
277.0
  9
$UNITMODE
 70
     0
  9
$VISRETAIN
 70
     0
  9
$PLINEGEN
 70
     1
  9
$PSLTSCALE
 70
     0
  9
$TREEDEPTH
 70
  3020
  9
$CMLSTYLE
  2
Standard
  9
$CMLJUST
 70
     0
  9
$CMLSCALE
 40
1.0
  9
$PROXYGRAPHICS
 70
     0
  9
$MEASUREMENT
 70
     1
  9
$CELWEIGHT
370
    -1
  9
$ENDCAPS
280
     0
  9
$JOINSTYLE
280
     0
  9
$LWDISPLAY
290
     1
  9
$INSUNITS
 70
     4
  9
$HYPERLINKBASE
  1

  9
$STYLESHEET
  1

  9
$XEDIT
290
     1
  9
$CEPSNTYPE
380
     0
  9
$PSTYLEMODE
290
     1
  9
$FINGERPRINTGUID
  2

  9
$VERSIONGUID
  2

  9
$EXTNAMES
290
     1
  9
$PSVPSCALE
 40
0.0
  9
$OLESTARTUP
290
     0
  9
$SORTENTS
280
   127
  9
$INDEXCTL
280
     0
  9
$HIDETEXT
280
     1
  9
$XCLIPFRAME
290
     0
  9
$HALOGAP
280
     0
  9
$OBSCOLOR
 70
   257
  9
$OBSLTYPE
280
     0
  9
$INTERSECTIONDISPLAY
280
     0
  9
$INTERSECTIONCOLOR
 70
   257
  9
$DIMASSOC
280
     2
  9
$PROJECTNAME
  1

  9
$CAMERADISPLAY
290
     0
  9
$LENSLENGTH
 40
50.0
  9
$CAMERAHEIGHT
 40
0.0
  9
$STEPSPERSEC
 40
2.0
  9
$STEPSIZE
 40
6.0
  9
$3DDWFPREC
 40
2.0
  9
$PSOLWIDTH
 40
0.25
  9
$PSOLHEIGHT
 40
4.0
  9
$LOFTANG1
 40
1.570796326794897
  9
$LOFTANG2
 40
1.570796326794897
  9
$LOFTMAG1
 40
0.0
  9
$LOFTMAG2
 40
0.0
  9
$LOFTPARAM
 70
     7
  9
$LOFTNORMALS
280
     1
  9
$LATITUDE
 40
37.795
  9
$LONGITUDE
 40
-122.394
  9
$NORTHDIRECTION
 40
0.0
  9
$TIMEZONE
 70
 -8000
  9
$LIGHTGLYPHDISPLAY
280
     1
  9
$TILEMODELIGHTSYNCH
280
     1
  9
$SOLIDHIST
280
     1
  9
$SHOWHIST
280
     1
  9
$DWFFRAME
280
     2
  9
$DGNFRAME
280
     2
  9
$REALWORLDSCALE
290
     1
  9
$INTERFERECOLOR
 62
   256
  9
$CSHADOW
280
     0
  9
$SHADOWPLANELOCATION
 40
0.0
  0
ENDSEC
  0
SECTION
  2
CLASSES
  0
CLASS
  1
LWPOLYLINE
  2
AcDbPolyline
  3
ObjectDBX Classes
 90
        0
 91
        1
280
     0
281
     1
  0
CLASS
  1
IMAGE
  2
AcDbRasterImage
  3
ISM
 90
      127
 91
        4
280
     0
281
     1
  0
CLASS
  1
OLE2FRAME
  2
AcDbOle2Frame
  3
ObjectDBX Classes
 90
        0
 91
        1
280
     0
281
     1
  0
CLASS
  1
HATCH
  2
AcDbHatch
  3
ObjectDBX Classes
 90
        0
 91
        1
280
     0
281
     1
  0
CLASS
  1
DICTIONARYVAR
  2
AcDbDictionaryVar
  3
ObjectDBX Classes
 90
        0
 91
        3
280
     0
281
     0
  0
CLASS
  1
RASTERVARIABLES
  2
AcDbRasterVariables
  3
ISM
 90
        0
 91
        3
280
     0
281
     0
  0
CLASS
  1
IMAGEDEF
  2
AcDbRasterImageDef
  3
ISM
 90
        0
 91
        3
280
     0
281
     0
  0
CLASS
  1
IMAGEDEF_REACTOR
  2
AcDbRasterImageDefReactor
  3
ISM
 90
        1
 91
        3
280
     0
281
     0
  0
CLASS
  1
IDBUFFER
  2
AcDbIdBuffer
  3
ObjectDBX Classes
 90
        0
 91
        3
280
     0
281
     0
  0
CLASS
  1
SPATIAL_FILTER
  2
AcDbSpatialFilter
  3
ObjectDBX Classes
 90
        0
 91
        3
280
     0
281
     0
  0
CLASS
  1
XRECORD
  2
AcDbXrecord
  3
ObjectDBX Classes
 90
        0
 91
        1
280
     0
281
     0
  0
CLASS
  1
SORTENTSTABLE
  2
AcDbSortentsTable
  3
ObjectDBX Classes
 90
        0
 91
        3
280
     0
281
     0
  0
CLASS
  1
LAYER_INDEX
  2
AcDbLayerIndex
  3
ObjectDBX Classes
 90
        0
 91
        3
280
     0
281
     0
  0
CLASS
  1
SPATIAL_INDEX
  2
AcDbSpatialIndex
  3
AutoCAD 2000
 90
        0
 91
        3
280
     0
281
     0
  0
CLASS
  1
OBJECT_PTR
  2
CAseDLPNTableRecord
  3
ASE-LPNTableRecord
 90
        1
 91
        3
280
     0
281
     0
  0
CLASS
  1
LAYOUT
  2
AcDbLayout
  3
ObjectDBX Classes
 90
        0
 91
        1
280
     0
281
     0
  0
CLASS
  1
PLOTSETTINGS
  2
AcDbPlotSettings
  3
ObjectDBX Classes
 90
        0
 91
        3
280
     0
281
     0
  0
CLASS
  1
ACDBDICTIONARYWDFLT
  2
AcDbDictionaryWithDefault
  3
ObjectDBX Classes
 90
        0
 91
        3
280
     0
281
     0
  0
CLASS
  1
ACDBPLACEHOLDER
  2
AcDbPlaceHolder
  3
ObjectDBX Classes
 90
        0
 91
        1
280
     0
281
     0
  0
CLASS
  1
SCALE
  2
AcDbScale
  3
ObjectDBX Classes
 90
     1153
 91
        3
280
     0
281
     0
  0
CLASS
  1
MATERIAL
  2
AcDbMaterial
  3
ObjectDBX Classes
 90
     1153
 91
        3
280
     0
281
     0
  0
CLASS
  1
VISUALSTYLE
  2
AcDbVisualStyle
  3
ObjectDBX Classes
 90
     4095
 91
        3
280
     0
281
     0
  0
CLASS
  1
TABLESTYLE
  2
AcDbTableStyle
  3
ObjectDBX Classes
 90
     4095
 91
        3
280
     0
281
     0
  0
CLASS
  1
DIMASSOC
  2
AcDbDimAssoc
  3
"AcDbDimAssoc|Product Desc:     AcDim ARX App For Dimension|Company:          Autodesk, Inc.|WEB Address:      www.autodesk.com"
 90
        0
 91
        3
280
     0
281
     0
  0
CLASS
  1
CELLSTYLEMAP
  2
AcDbCellStyleMap
  3
ObjectDBX Classes
 90
     1152
 91
        3
280
     0
281
     0
  0
CLASS
  1
SUN
  2
AcDbSun
  3
SCENEOE
 90
     1153
 91
        3
280
     0
281
     0
  0
CLASS
  1
MLEADERSTYLE
  2
AcDbMLeaderStyle
  3
ACDB_MLEADERSTYLE_CLASS
 90
     4095
 91
        3
280
     0
281
     0
  0
ENDSEC
  0
SECTION
  2
TABLES
  0
TABLE
  2
VPORT
  5
7
330
0
100
AcDbSymbolTable
 70
     1
  0
VPORT
  5
15
330
7
100
AcDbSymbolTableRecord
100
AcDbViewportTableRecord
  2
*ACTIVE
 70
     0
 10
0.0
 20
0.0
 11
1.0
 21
1.0
 12
296.9999999999999
 22
210.0
 13
0.0
 23
0.0
 14
1.0
 24
1.0
 15
0.0
 25
0.0
 16
0.0
 26
0.0
 36
1.0
 17
0.0
 27
0.0
 37
0.0
 40
428.4
 41
2.338709677419355
 42
50.0
 43
0.0
 44
0.0
 50
0.0
 51
0.0
 71
    16
 72
  2000
 73
     1
 74
     1
 75
     0
 76
     0
 77
     0
 78
     1
281
     0
 65
     1
110
0.0
120
0.0
130
0.0
111
1.0
121
0.0
131
0.0
112
0.0
122
1.0
132
0.0
 79
     0
146
0.0
348
26C
 60
     3
 61
     5
292
     1
282
     1
141
0.0
142
0.0
 63
   256
361
10E8
  0
ENDTAB
  0
TABLE
  2
LTYPE
  5
4
330
0
100
AcDbSymbolTable
 70
     2
  0
LTYPE
  5
11
330
4
100
AcDbSymbolTableRecord
100
AcDbLinetypeTableRecord
  2
ByBlock
 70
     0
  3

 72
    65
 73
     0
 40
0.0
  0
LTYPE
  5
12
330
4
100
AcDbSymbolTableRecord
100
AcDbLinetypeTableRecord
  2
ByLayer
 70
     0
  3
Solid line
 72
    65
 73
     0
 40
0.0
  0
LTYPE
  5
13
330
4
100
AcDbSymbolTableRecord
100
AcDbLinetypeTableRecord
  2
Continuous
 70
     0
  3
Solid line
 72
    65
 73
     0
 40
0.0
  0
LTYPE
  5
12C7
330
4
100
AcDbSymbolTableRecord
100
AcDbLinetypeTableRecord
  2
HIDDEN
 70
     0
  3
Hidden _ _ _ _ _ _ _ _ _ _ _ _ _ _ _ _ _ _ _ _ 
 72
    65
 73
     2
 40
9.524999999999999
 49
6.35
 74
     0
 49
-3.175
 74
     0
  0
ENDTAB
  0
TABLE
  2
LAYER
  5
2
102
{ACAD_XDICTIONARY
360
2E1
102
}
330
0
100
AcDbSymbolTable
 70
     7
  0
LAYER
  5
14
330
2
100
AcDbSymbolTableRecord
100
AcDbLayerTableRecord
  2
0
 70
     0
 62
     7
  6
Continuous
370
    -3
390
1D
347
266
  0
LAYER
  5
4A
330
2
100
AcDbSymbolTableRecord
100
AcDbLayerTableRecord
  2
Defpoints
 70
     0
 62
     7
  6
Continuous
290
     0
370
    -3
390
1D
347
266
  0
LAYER
  5
12CE
330
2
100
AcDbSymbolTableRecord
100
AcDbLayerTableRecord
  2
寸法
 70
     0
 62
     3
  6
Continuous
370
    13
390
1D
347
266
1001
AcAecLayerStandard
1000

1000

  0
LAYER
  5
12CF
330
2
100
AcDbSymbolTableRecord
100
AcDbLayerTableRecord
  2
モデル
 70
     0
 62
     7
  6
Continuous
370
    20
390
1D
347
266
1001
AcAecLayerStandard
1000

1000

  0
LAYER
  5
142A
330
2
100
AcDbSymbolTableRecord
100
AcDbLayerTableRecord
  2
テンプレート
 70
     0
 62
     7
  6
Continuous
370
    20
390
1D
347
266
1001
AcAecLayerStandard
1000

1000

  0
LAYER
  5
1D5C
330
2
100
AcDbSymbolTableRecord
100
AcDbLayerTableRecord
  2
TFORMLOGO
 70
     0
 62
     7
  6
Continuous
370
    20
390
1D
347
266
  0
LAYER
  5
3848
330
2
100
AcDbSymbolTableRecord
100
AcDbLayerTableRecord
  2
PRINT BORDER
 70
     0
 62
     4
  6
Continuous
290
     0
370
    -3
390
1D
347
266
1001
AcAecLayerStandard
1000

1000

  0
ENDTAB
  0
TABLE
  2
STYLE
  5
3
330
0
100
AcDbSymbolTable
 70
     2
  0
STYLE
  5
17
330
3
100
AcDbSymbolTableRecord
100
AcDbTextStyleTableRecord
  2
Standard
 70
     0
 40
0.0
 41
1.0
 50
0.0
 71
     0
 42
2.5
  3
txt
  4
BIGFONT.SHX
  0
STYLE
  5
39
330
3
100
AcDbSymbolTableRecord
100
AcDbTextStyleTableRecord
  2
ＭＳ ゴシック
 70
     0
 40
0.0
 41
1.0
 50
0.0
 71
     0
 42
2.5
  3
msgothic.ttc
  4
ＭＳ ゴシック
1001
ACAD
1000
ＭＳ ゴシック
1071
        0
  0
ENDTAB
  0
TABLE
  2
VIEW
  5
5
330
0
100
AcDbSymbolTable
 70
     0
  0
ENDTAB
  0
TABLE
  2
UCS
  5
6
330
0
100
AcDbSymbolTable
 70
     0
  0
ENDTAB
  0
TABLE
  2
APPID
  5
8
330
0
100
AcDbSymbolTable
 70
     9
  0
APPID
  5
16
330
8
100
AcDbSymbolTableRecord
100
AcDbRegAppTableRecord
  2
ACAD
 70
     0
  0
APPID
  5
7AC
330
8
100
AcDbSymbolTableRecord
100
AcDbRegAppTableRecord
  2
AcAecLayerStandard
 70
     0
  0
APPID
  5
4890
330
8
100
AcDbSymbolTableRecord
100
AcDbRegAppTableRecord
  2
ACAD_DSTYLE_DIMJAG
 70
     0
  0
APPID
  5
4891
330
8
100
AcDbSymbolTableRecord
100
AcDbRegAppTableRecord
  2
ACAD_DSTYLE_DIMTALN
 70
     0
  0
APPID
  5
4892
330
8
100
AcDbSymbolTableRecord
100
AcDbRegAppTableRecord
  2
ACAD_NAV_VCDISPLAY
 70
     0
  0
APPID
  5
4893
330
8
100
AcDbSymbolTableRecord
100
AcDbRegAppTableRecord
  2
ACAD_PSEXT
 70
     0
  0
APPID
  5
4B40
330
8
100
AcDbSymbolTableRecord
100
AcDbRegAppTableRecord
  2
ACAD_MLEADERVER
 70
     0
  0
APPID
  5
5902
330
8
100
AcDbSymbolTableRecord
100
AcDbRegAppTableRecord
  2
HATCHBACKGROUNDCOLOR
 70
     0
  0
APPID
  5
5B26
330
8
100
AcDbSymbolTableRecord
100
AcDbRegAppTableRecord
  2
PLOTTRANSPARENCY
 70
     0
  0
ENDTAB
  0
TABLE
  2
DIMSTYLE
  5
9
330
0
100
AcDbSymbolTable
 70
     3
100
AcDbDimStyleTable
  0
DIMSTYLE
105
57
102
{ACAD_REACTORS
330
6078
330
670D
330
671C
330
672B
330
673A
330
674C
330
675B
330
67C6
330
67C7
330
67CA
330
67CD
330
67CE
330
67D1
330
67D4
330
687C
330
68ED
330
690D
330
6981
330
6A5D
330
6A6C
330
6A81
330
6A90
330
6AD1
102
}
330
9
100
AcDbSymbolTableRecord
100
AcDbDimStyleTableRecord
  2
tfrom線あり
 70
     0
  3
<>
  4
[]
 41
1.0
 42
5.0
 43
0.9999999999999999
 44
0.0
 73
     0
 74
     0
 77
     1
 78
    11
140
5.0
141
0.0
143
1.0
147
1.0
171
     1
174
     1
178
     0
179
     2
271
     0
272
     1
276
     2
284
    11
285
    11
286
    11
289
     0
340
39
341
4E
342
4E
  0
DIMSTYLE
105
692D
330
9
100
AcDbSymbolTableRecord
100
AcDbDimStyleTableRecord
  2
Standard
 70
     0
178
     0
340
17
  0
DIMSTYLE
105
692F
330
9
100
AcDbSymbolTableRecord
100
AcDbDimStyleTableRecord
  2
AM_JIS
 70
     0
  4
"
 41
1.0
 42
0.5
 43
7.0
 44
1.0
 47
0.1
 48
0.1
 73
     0
 74
     0
 77
     3
 78
     8
 79
     2
140
2.5
141
0.0
143
0.0393701
146
0.71
147
0.5
172
     1
176
   256
177
   256
178
     2
179
     4
283
     0
284
     8
340
17
341
6930
342
6930
371
    -1
372
    -1
1001
ACAD_DSTYLE_DIMJAG
1070
   388
1040
1.5
1001
ACAD_DSTYLE_DIMTALN
1070
   392
1070
     0
  0
ENDTAB
  0
TABLE
  2
BLOCK_RECORD
  5
1
330
0
100
AcDbSymbolTable
 70
    39
  0
BLOCK_RECORD
  5
A
102
{ACAD_XDICTIONARY
360
495A
102
}
330
1
100
AcDbSymbolTableRecord
100
AcDbBlockTableRecord
  2
*MODEL_SPACE
340
20
 70
     0
280
     1
281
     0
  0
BLOCK_RECORD
  5
B
330
1
100
AcDbSymbolTableRecord
100
AcDbBlockTableRecord
  2
*PAPER_SPACE
340
21
 70
     0
280
     1
281
     0
  0
BLOCK_RECORD
  5
4E
330
1
100
AcDbSymbolTableRecord
100
AcDbBlockTableRecord
  2
_DOT
340
0
102
{BLKREFS
331
60DF
331
60E0
331
60EB
331
60EC
331
66F8
331
66F9
331
6707
331
6708
331
6716
331
6717
331
6725
331
6726
331
6734
331
6735
331
6743
331
6744
331
6755
331
6756
331
6764
331
6765
331
67DD
331
67DE
331
67E9
331
67EA
331
67F5
331
67F6
331
6801
331
6802
331
680D
331
680E
331
6819
331
681A
331
6825
331
6826
331
6885
331
6886
331
68F6
331
68F7
331
6907
331
6908
331
6916
331
6917
331
6946
331
6947
331
6957
331
6958
331
696F
331
6970
331
697B
331
697C
331
698A
331
698B
331
6A66
331
6A67
331
6A75
331
6A76
331
6A8A
331
6A8B
331
6A99
331
6A9A
331
6AD8
331
6AD9
102
}
 70
     0
280
     1
281
     0
  0
BLOCK_RECORD
  5
12C3
330
1
100
AcDbSymbolTableRecord
100
AcDbBlockTableRecord
  2
*Paper_Space1
340
12C4
 70
     0
280
     1
281
     0
  0
BLOCK_RECORD
  5
1D88
330
1
100
AcDbSymbolTableRecord
100
AcDbBlockTableRecord
  2
名称未設定-1
340
0
102
{BLKREFS
331
52E6
102
}
 70
     1
280
     1
281
     0
  0
BLOCK_RECORD
  5
1D8B
330
1
100
AcDbSymbolTableRecord
100
AcDbBlockTableRecord
  2
block 2
340
0
102
{BLKREFS
331
1D8A
102
}
 70
     0
280
     1
281
     0
  0
BLOCK_RECORD
  5
1D8E
330
1
100
AcDbSymbolTableRecord
100
AcDbBlockTableRecord
  2
block 3
340
0
102
{BLKREFS
331
1D8D
102
}
 70
     0
280
     1
281
     0
  0
BLOCK_RECORD
  5
1D91
330
1
100
AcDbSymbolTableRecord
100
AcDbBlockTableRecord
  2
block 4
340
0
102
{BLKREFS
331
1D90
102
}
 70
     0
280
     1
281
     0
  0
BLOCK_RECORD
  5
1DA0
330
1
100
AcDbSymbolTableRecord
100
AcDbBlockTableRecord
  2
block 5
340
0
102
{BLKREFS
331
1D9F
102
}
 70
     0
280
     1
281
     0
  0
BLOCK_RECORD
  5
60D9
330
1
100
AcDbSymbolTableRecord
100
AcDbBlockTableRecord
  2
*D7
340
0
 70
     0
280
     1
281
     0
  0
BLOCK_RECORD
  5
60E5
330
1
100
AcDbSymbolTableRecord
100
AcDbBlockTableRecord
  2
*D8
340
0
 70
     0
280
     1
281
     0
  0
BLOCK_RECORD
  5
66F2
330
1
100
AcDbSymbolTableRecord
100
AcDbBlockTableRecord
  2
*D9
340
0
 70
     0
280
     1
281
     0
  0
BLOCK_RECORD
  5
6701
330
1
100
AcDbSymbolTableRecord
100
AcDbBlockTableRecord
  2
*D10
340
0
 70
     0
280
     1
281
     0
  0
BLOCK_RECORD
  5
6710
330
1
100
AcDbSymbolTableRecord
100
AcDbBlockTableRecord
  2
*D11
340
0
 70
     0
280
     1
281
     0
  0
BLOCK_RECORD
  5
671F
330
1
100
AcDbSymbolTableRecord
100
AcDbBlockTableRecord
  2
*D12
340
0
 70
     0
280
     1
281
     0
  0
BLOCK_RECORD
  5
672E
330
1
100
AcDbSymbolTableRecord
100
AcDbBlockTableRecord
  2
*D13
340
0
 70
     0
280
     1
281
     0
  0
BLOCK_RECORD
  5
673D
330
1
100
AcDbSymbolTableRecord
100
AcDbBlockTableRecord
  2
*D14
340
0
 70
     0
280
     1
281
     0
  0
BLOCK_RECORD
  5
674F
330
1
100
AcDbSymbolTableRecord
100
AcDbBlockTableRecord
  2
*D15
340
0
 70
     0
280
     1
281
     0
  0
BLOCK_RECORD
  5
675E
330
1
100
AcDbSymbolTableRecord
100
AcDbBlockTableRecord
  2
*D16
340
0
 70
     0
280
     1
281
     0
  0
BLOCK_RECORD
  5
67D7
330
1
100
AcDbSymbolTableRecord
100
AcDbBlockTableRecord
  2
*D17
340
0
 70
     0
280
     1
281
     0
  0
BLOCK_RECORD
  5
67E3
330
1
100
AcDbSymbolTableRecord
100
AcDbBlockTableRecord
  2
*D18
340
0
 70
     0
280
     1
281
     0
  0
BLOCK_RECORD
  5
67EF
330
1
100
AcDbSymbolTableRecord
100
AcDbBlockTableRecord
  2
*D19
340
0
 70
     0
280
     1
281
     0
  0
BLOCK_RECORD
  5
67FB
330
1
100
AcDbSymbolTableRecord
100
AcDbBlockTableRecord
  2
*D20
340
0
 70
     0
280
     1
281
     0
  0
BLOCK_RECORD
  5
6807
330
1
100
AcDbSymbolTableRecord
100
AcDbBlockTableRecord
  2
*D21
340
0
 70
     0
280
     1
281
     0
  0
BLOCK_RECORD
  5
6813
330
1
100
AcDbSymbolTableRecord
100
AcDbBlockTableRecord
  2
*D22
340
0
 70
     0
280
     1
281
     0
  0
BLOCK_RECORD
  5
681F
330
1
100
AcDbSymbolTableRecord
100
AcDbBlockTableRecord
  2
*D23
340
0
 70
     0
280
     1
281
     0
  0
BLOCK_RECORD
  5
687F
330
1
100
AcDbSymbolTableRecord
100
AcDbBlockTableRecord
  2
*D24
340
0
 70
     0
280
     1
281
     0
  0
BLOCK_RECORD
  5
68F0
330
1
100
AcDbSymbolTableRecord
100
AcDbBlockTableRecord
  2
*D25
340
0
 70
     0
280
     1
281
     0
  0
BLOCK_RECORD
  5
6901
330
1
100
AcDbSymbolTableRecord
100
AcDbBlockTableRecord
  2
*D26
340
0
 70
     0
280
     1
281
     0
  0
BLOCK_RECORD
  5
6910
330
1
100
AcDbSymbolTableRecord
100
AcDbBlockTableRecord
  2
*D27
340
0
 70
     0
280
     1
281
     0
  0
BLOCK_RECORD
  5
6930
330
1
100
AcDbSymbolTableRecord
100
AcDbBlockTableRecord
  2
_Open30
340
0
 70
     0
280
     1
281
     0
  0
BLOCK_RECORD
  5
6941
330
1
100
AcDbSymbolTableRecord
100
AcDbBlockTableRecord
  2
*D29
340
0
 70
     0
280
     1
281
     0
  0
BLOCK_RECORD
  5
6952
330
1
100
AcDbSymbolTableRecord
100
AcDbBlockTableRecord
  2
*D30
340
0
 70
     0
280
     1
281
     0
  0
BLOCK_RECORD
  5
6969
330
1
100
AcDbSymbolTableRecord
100
AcDbBlockTableRecord
  2
*D31
340
0
 70
     0
280
     1
281
     0
  0
BLOCK_RECORD
  5
6975
330
1
100
AcDbSymbolTableRecord
100
AcDbBlockTableRecord
  2
*D32
340
0
 70
     0
280
     1
281
     0
  0
BLOCK_RECORD
  5
6984
330
1
100
AcDbSymbolTableRecord
100
AcDbBlockTableRecord
  2
*D33
340
0
 70
     0
280
     1
281
     0
  0
BLOCK_RECORD
  5
6A60
330
1
100
AcDbSymbolTableRecord
100
AcDbBlockTableRecord
  2
*D34
340
0
 70
     0
280
     1
281
     0
  0
BLOCK_RECORD
  5
6A6F
330
1
100
AcDbSymbolTableRecord
100
AcDbBlockTableRecord
  2
*D35
340
0
 70
     0
280
     1
281
     0
  0
BLOCK_RECORD
  5
6A84
330
1
100
AcDbSymbolTableRecord
100
AcDbBlockTableRecord
  2
*D36
340
0
 70
     0
280
     1
281
     0
  0
BLOCK_RECORD
  5
6A93
330
1
100
AcDbSymbolTableRecord
100
AcDbBlockTableRecord
  2
*D37
340
0
 70
     0
280
     1
281
     0
  0
BLOCK_RECORD
  5
6AD4
330
1
100
AcDbSymbolTableRecord
100
AcDbBlockTableRecord
  2
*D38
340
0
 70
     0
280
     1
281
     0
  0
ENDTAB
  0
ENDSEC
  0
SECTION
  2
BLOCKS
  0
BLOCK
  5
D
330
A
100
AcDbEntity
  8
0
390
1D
100
AcDbBlockBegin
  2
*MODEL_SPACE
 70
     0
 10
0.0
 20
0.0
 30
0.0
  3
*MODEL_SPACE
  1
*MODEL_SPACE
  0
ENDBLK
  5
E
330
A
100
AcDbEntity
  8
0
390
1D
100
AcDbBlockEnd
  0
BLOCK
  5
F
330
B
100
AcDbEntity
 67
     1
  8
0
390
1D
100
AcDbBlockBegin
  2
*PAPER_SPACE
 70
     0
 10
0.0
 20
0.0
 30
0.0
  3
*PAPER_SPACE
  1
*PAPER_SPACE
  0
ENDBLK
  5
10
330
B
100
AcDbEntity
 67
     1
  8
0
390
1D
100
AcDbBlockEnd
  0
BLOCK
  5
596F
330
4E
100
AcDbEntity
  8
0
390
1D
100
AcDbBlockBegin
  2
_DOT
 70
     0
 10
0.0
 20
0.0
 30
0.0
  3
_DOT
  1
_DOT
  0
POLYLINE
  5
5971
330
4E
100
AcDbEntity
  8
0
  6
ByBlock
 62
     0
370
    -2
390
1D
100
AcDb2dPolyline
 66
     1
 10
0.0
 20
0.0
 30
0.0
 70
     1
 40
0.5
 41
0.5
  0
VERTEX
  5
5972
330
5971
100
AcDbEntity
  8
0
  6
ByBlock
 62
     0
370
    -2
390
1D
100
AcDbVertex
100
AcDb2dVertex
 10
-0.25
 20
0.0
 30
0.0
 42
1.0
  0
VERTEX
  5
5973
330
5971
100
AcDbEntity
  8
0
  6
ByBlock
 62
     0
370
    -2
390
1D
100
AcDbVertex
100
AcDb2dVertex
 10
0.25
 20
0.0
 30
0.0
 42
1.0
  0
SEQEND
  5
5974
330
5971
100
AcDbEntity
  8
0
390
1D
  0
LINE
  5
5975
330
4E
100
AcDbEntity
  8
0
  6
ByBlock
 62
     0
370
    -2
390
1D
100
AcDbLine
 10
-0.5
 20
0.0
 30
0.0
 11
-1.0
 21
0.0
 31
0.0
  0
ENDBLK
  5
5976
330
4E
100
AcDbEntity
  8
0
390
1D
100
AcDbBlockEnd
  0
BLOCK
  5
12C5
330
12C3
100
AcDbEntity
  8
0
100
AcDbBlockBegin
  2
*Paper_Space1
 70
     0
 10
0.0
 20
0.0
 30
0.0
  3
*Paper_Space1
  1
*Paper_Space83
  0
ENDBLK
  5
12C6
330
12C3
100
AcDbEntity
  8
0
100
AcDbBlockEnd
  0
BLOCK
  5
1D89
330
1D88
100
AcDbEntity
  8
0
100
AcDbBlockBegin
  2
名称未設定-1
 70
     0
 10
0.0
 20
0.0
 30
0.0
  3
名称未設定-1
  1
名称未設定-1
  0
INSERT
  5
1D8A
330
1D88
100
AcDbEntity
  8
TFORMLOGO
100
AcDbBlockReference
  2
block 2
 10
0.0
 20
0.0
 30
0.0
  0
ENDBLK
  5
1DAF
330
1D88
100
AcDbEntity
  8
0
100
AcDbBlockEnd
  0
BLOCK
  5
1D8C
330
1D8B
100
AcDbEntity
  8
0
100
AcDbBlockBegin
  2
block 2
 70
     0
 10
0.0
 20
0.0
 30
0.0
  3
block 2
  1
block 2
  0
INSERT
  5
1D8D
330
1D8B
100
AcDbEntity
  8
TFORMLOGO
100
AcDbBlockReference
  2
block 3
 10
0.0
 20
0.0
 30
0.0
  0
ENDBLK
  5
1DAE
330
1D8B
100
AcDbEntity
  8
0
100
AcDbBlockEnd
  0
BLOCK
  5
1D8F
330
1D8E
100
AcDbEntity
  8
0
100
AcDbBlockBegin
  2
block 3
 70
     0
 10
0.0
 20
0.0
 30
0.0
  3
block 3
  1
block 3
  0
INSERT
  5
1D90
330
1D8E
100
AcDbEntity
  8
TFORMLOGO
100
AcDbBlockReference
  2
block 4
 10
0.0
 20
0.0
 30
0.0
  0
ENDBLK
  5
1DAD
330
1D8E
100
AcDbEntity
  8
0
100
AcDbBlockEnd
  0
BLOCK
  5
1D92
330
1D91
100
AcDbEntity
  8
0
100
AcDbBlockBegin
  2
block 4
 70
     0
 10
0.0
 20
0.0
 30
0.0
  3
block 4
  1
block 4
  0
POLYLINE
  5
1D93
330
1D91
100
AcDbEntity
  8
TFORMLOGO
370
     0
100
AcDb2dPolyline
 66
     1
 10
0.0
 20
0.0
 30
0.0
  0
VERTEX
  5
1D94
330
1D93
100
AcDbEntity
  8
TFORMLOGO
370
     0
100
AcDbVertex
100
AcDb2dVertex
 10
83.79545727667795
 20
167.6444858234922
 30
0.0
  0
VERTEX
  5
1D95
330
1D93
100
AcDbEntity
  8
TFORMLOGO
370
     0
100
AcDbVertex
100
AcDb2dVertex
 10
83.79545727667795
 20
159.7968976406313
 30
0.0
  0
VERTEX
  5
1D96
330
1D93
100
AcDbEntity
  8
TFORMLOGO
370
     0
100
AcDbVertex
100
AcDb2dVertex
 10
71.3631329975216
 20
159.7968976406313
 30
0.0
  0
VERTEX
  5
1D97
330
1D93
100
AcDbEntity
  8
TFORMLOGO
370
     0
100
AcDbVertex
100
AcDb2dVertex
 10
71.3631329975216
 20
127.8027915271048
 30
0.0
  0
VERTEX
  5
1D98
330
1D93
100
AcDbEntity
  8
TFORMLOGO
370
     0
100
AcDbVertex
100
AcDb2dVertex
 10
60.43011526263018
 20
127.8027915271048
 30
0.0
  0
VERTEX
  5
1D99
330
1D93
100
AcDbEntity
  8
TFORMLOGO
370
     0
100
AcDbVertex
100
AcDb2dVertex
 10
60.43011526263018
 20
159.7968976406313
 30
0.0
  0
VERTEX
  5
1D9A
330
1D93
100
AcDbEntity
  8
TFORMLOGO
370
     0
100
AcDbVertex
100
AcDb2dVertex
 10
48.21793273020759
 20
159.7968976406313
 30
0.0
  0
VERTEX
  5
1D9B
330
1D93
100
AcDbEntity
  8
TFORMLOGO
370
     0
100
AcDbVertex
100
AcDb2dVertex
 10
48.21793273020759
 20
167.6444858234922
 30
0.0
  0
VERTEX
  5
1D9C
330
1D93
100
AcDbEntity
  8
TFORMLOGO
370
     0
100
AcDbVertex
100
AcDb2dVertex
 10
83.79545727667795
 20
167.6444858234922
 30
0.0
  0
SEQEND
  5
1D9D
330
1D93
100
AcDbEntity
  8
TFORMLOGO
370
     0
  0
HATCH
  5
1D9E
330
1D91
100
AcDbEntity
  8
TFORMLOGO
 62
   250
420
  2234388
100
AcDbHatch
 10
0.0
 20
0.0
 30
0.0
210
0.0
220
0.0
230
1.0
  2
SOLID
 70
     1
 71
     0
 91
        1
 92
        1
 93
        8
 72
     1
 10
83.79545727667795
 20
167.6444858234922
 11
83.79545727667795
 21
159.7968976406313
 72
     1
 10
83.79545727667795
 20
159.7968976406313
 11
71.3631329975216
 21
159.7968976406313
 72
     1
 10
71.3631329975216
 20
159.7968976406313
 11
71.3631329975216
 21
127.8027915271048
 72
     1
 10
71.3631329975216
 20
127.8027915271048
 11
60.43011526263018
 21
127.8027915271048
 72
     1
 10
60.43011526263018
 20
127.8027915271048
 11
60.43011526263018
 21
159.7968976406313
 72
     1
 10
60.43011526263018
 20
159.7968976406313
 11
48.21793273020759
 21
159.7968976406313
 72
     1
 10
48.21793273020759
 20
159.7968976406313
 11
48.21793273020759
 21
167.6444858234922
 72
     1
 10
48.21793273020759
 20
167.6444858234922
 11
83.79545727667795
 21
167.6444858234922
 97
        0
 75
     2
 76
     1
 98
        0
  0
INSERT
  5
1D9F
330
1D91
100
AcDbEntity
  8
TFORMLOGO
100
AcDbBlockReference
  2
block 5
 10
0.0
 20
0.0
 30
0.0
  0
ENDBLK
  5
1DAC
330
1D91
100
AcDbEntity
  8
0
100
AcDbBlockEnd
  0
BLOCK
  5
1DA1
330
1DA0
100
AcDbEntity
  8
0
100
AcDbBlockBegin
  2
block 5
 70
     0
 10
0.0
 20
0.0
 30
0.0
  3
block 5
  1
block 5
  0
SPLINE
  5
1DA2
330
1DA0
100
AcDbEntity
  8
TFORMLOGO
370
     0
100
AcDbSpline
210
0.0
220
0.0
230
1.0
 70
    11
 71
     3
 72
    56
 73
    52
 74
     0
 42
0.000000001
 43
0.0000000001
 40
0.0
 40
0.0
 40
0.0
 40
0.0
 40
1.0
 40
1.0
 40
1.0
 40
2.0
 40
2.0
 40
2.0
 40
3.0
 40
3.0
 40
3.0
 40
4.0
 40
4.0
 40
4.0
 40
5.0
 40
5.0
 40
5.0
 40
6.0
 40
6.0
 40
6.0
 40
7.0
 40
7.0
 40
7.0
 40
8.0
 40
8.0
 40
8.0
 40
9.0
 40
9.0
 40
9.0
 40
10.0
 40
10.0
 40
10.0
 40
11.0
 40
11.0
 40
11.0
 40
12.0
 40
12.0
 40
12.0
 40
13.0
 40
13.0
 40
13.0
 40
14.0
 40
14.0
 40
14.0
 40
15.0
 40
15.0
 40
15.0
 40
16.0
 40
16.0
 40
16.0
 40
17.0
 40
17.0
 40
17.0
 40
17.0
 10
100.4504378777679
 20
166.69157178364
 30
0.0
 10
101.9848844191641
 20
167.1313385124438
 30
0.0
 10
103.9637485713373
 20
166.7649523658846
 30
0.0
 10
103.9637485713373
 20
166.7649523658846
 30
0.0
 10
103.9637485713373
 20
166.7649523658846
 30
0.0
 10
103.0132460999156
 20
163.911205638077
 30
0.0
 10
103.0132460999156
 20
163.911205638077
 30
0.0
 10
103.0132460999156
 20
163.911205638077
 30
0.0
 10
101.0674548862189
 20
164.3601018759394
 30
0.0
 10
99.57090442016032
 20
163.1805004036133
 30
0.0
 10
98.40508333886608
 20
162.258247733807
 30
0.0
 10
97.65301849830304
 20
159.804132345923
 30
0.0
 10
97.3598406791005
 20
158.8699940888517
 30
0.0
 10
97.3598406791005
 20
158.8699940888517
 30
0.0
 10
96.07137411762282
 20
154.9119212747295
 30
0.0
 10
96.07137411762282
 20
154.9119212747295
 30
0.0
 10
96.07137411762282
 20
154.9119212747295
 30
0.0
 10
100.3012651448482
 20
154.9119212747295
 30
0.0
 10
100.3012651448482
 20
154.9119212747295
 30
0.0
 10
100.3012651448482
 20
154.9119212747295
 30
0.0
 10
99.64152892419852
 20
152.4199098115079
 30
0.0
 10
99.64152892419852
 20
152.4199098115079
 30
0.0
 10
99.64152892419852
 20
152.4199098115079
 30
0.0
 10
95.38097652692731
 20
152.4199098115079
 30
0.0
 10
95.38097652692731
 20
152.4199098115079
 30
0.0
 10
95.38097652692731
 20
152.4199098115079
 30
0.0
 10
87.75353009080013
 20
127.8027915271048
 30
0.0
 10
87.75353009080013
 20
127.8027915271048
 30
0.0
 10
87.75353009080013
 20
127.8027915271048
 30
0.0
 10
85.36538832498108
 20
127.8027915271048
 30
0.0
 10
85.36538832498108
 20
127.8027915271048
 30
0.0
 10
85.36538832498108
 20
127.8027915271048
 30
0.0
 10
93.00006946639998
 20
152.4199098115079
 30
0.0
 10
93.00006946639998
 20
152.4199098115079
 30
0.0
 10
93.00006946639998
 20
152.4199098115079
 30
0.0
 10
89.85297266450198
 20
152.4199098115079
 30
0.0
 10
89.85297266450198
 20
152.4199098115079
 30
0.0
 10
89.85297266450198
 20
152.4199098115079
 30
0.0
 10
90.51270888515164
 20
154.9119212747295
 30
0.0
 10
90.51270888515164
 20
154.9119212747295
 30
0.0
 10
90.51270888515164
 20
154.9119212747295
 30
0.0
 10
93.6904670570955
 20
154.9119212747295
 30
0.0
 10
93.6904670570955
 20
154.9119212747295
 30
0.0
 10
93.6904670570955
 20
154.9119212747295
 30
0.0
 10
94.81598049462158
 20
158.3616699146644
 30
0.0
 10
94.81598049462158
 20
158.3616699146644
 30
0.0
 10
95.7237637538445
 20
161.2605474231013
 30
0.0
 10
96.4968436907311
 20
162.8139420021662
 30
0.0
 10
97.15657991138076
 20
163.9844139654337
 30
0.0
 10
97.81183750494507
 20
165.1523021053827
 30
0.0
 10
99.1047826935081
 20
166.3084769129547
 30
0.0
 10
100.4504378777679
 20
166.69157178364
 30
0.0
  0
HATCH
  5
1DA3
330
1DA0
100
AcDbEntity
  8
TFORMLOGO
 62
   250
420
  2234388
100
AcDbHatch
 10
0.0
 20
0.0
 30
0.0
210
0.0
220
0.0
230
1.0
  2
SOLID
 70
     1
 71
     0
 91
        1
 92
        1
 93
        1
 72
     4
 94
        3
 73
     0
 74
     1
 95
       56
 96
       52
 40
0.0
 40
0.0
 40
0.0
 40
0.0
 40
1.0
 40
1.0
 40
1.0
 40
2.0
 40
2.0
 40
2.0
 40
3.0
 40
3.0
 40
3.0
 40
4.0
 40
4.0
 40
4.0
 40
5.0
 40
5.0
 40
5.0
 40
6.0
 40
6.0
 40
6.0
 40
7.0
 40
7.0
 40
7.0
 40
8.0
 40
8.0
 40
8.0
 40
9.0
 40
9.0
 40
9.0
 40
10.0
 40
10.0
 40
10.0
 40
11.0
 40
11.0
 40
11.0
 40
12.0
 40
12.0
 40
12.0
 40
13.0
 40
13.0
 40
13.0
 40
14.0
 40
14.0
 40
14.0
 40
15.0
 40
15.0
 40
15.0
 40
16.0
 40
16.0
 40
16.0
 40
17.0
 40
17.0
 40
17.0
 40
17.0
 10
100.4504378777679
 20
166.69157178364
 10
101.9848844191641
 20
167.1313385124438
 10
103.9637485713373
 20
166.7649523658846
 10
103.9637485713373
 20
166.7649523658846
 10
103.9637485713373
 20
166.7649523658846
 10
103.0132460999156
 20
163.911205638077
 10
103.0132460999156
 20
163.911205638077
 10
103.0132460999156
 20
163.911205638077
 10
101.0674548862189
 20
164.3601018759394
 10
99.57090442016032
 20
163.1805004036133
 10
98.40508333886608
 20
162.258247733807
 10
97.65301849830304
 20
159.804132345923
 10
97.3598406791005
 20
158.8699940888517
 10
97.3598406791005
 20
158.8699940888517
 10
96.07137411762282
 20
154.9119212747295
 10
96.07137411762282
 20
154.9119212747295
 10
96.07137411762282
 20
154.9119212747295
 10
100.3012651448482
 20
154.9119212747295
 10
100.3012651448482
 20
154.9119212747295
 10
100.3012651448482
 20
154.9119212747295
 10
99.64152892419852
 20
152.4199098115079
 10
99.64152892419852
 20
152.4199098115079
 10
99.64152892419852
 20
152.4199098115079
 10
95.38097652692731
 20
152.4199098115079
 10
95.38097652692731
 20
152.4199098115079
 10
95.38097652692731
 20
152.4199098115079
 10
87.75353009080013
 20
127.8027915271048
 10
87.75353009080013
 20
127.8027915271048
 10
87.75353009080013
 20
127.8027915271048
 10
85.36538832498108
 20
127.8027915271048
 10
85.36538832498108
 20
127.8027915271048
 10
85.36538832498108
 20
127.8027915271048
 10
93.00006946639998
 20
152.4199098115079
 10
93.00006946639998
 20
152.4199098115079
 10
93.00006946639998
 20
152.4199098115079
 10
89.85297266450198
 20
152.4199098115079
 10
89.85297266450198
 20
152.4199098115079
 10
89.85297266450198
 20
152.4199098115079
 10
90.51270888515164
 20
154.9119212747295
 10
90.51270888515164
 20
154.9119212747295
 10
90.51270888515164
 20
154.9119212747295
 10
93.6904670570955
 20
154.9119212747295
 10
93.6904670570955
 20
154.9119212747295
 10
93.6904670570955
 20
154.9119212747295
 10
94.81598049462158
 20
158.3616699146644
 10
94.81598049462158
 20
158.3616699146644
 10
95.7237637538445
 20
161.2605474231013
 10
96.4968436907311
 20
162.8139420021662
 10
97.15657991138076
 20
163.9844139654337
 10
97.81183750494507
 20
165.1523021053827
 10
99.1047826935081
 20
166.3084769129547
 10
100.4504378777679
 20
166.69157178364
 97
        0
 75
     2
 76
     1
 98
        0
  0
SPLINE
  5
1DA4
330
1DA0
100
AcDbEntity
  8
TFORMLOGO
370
     0
100
AcDbSpline
210
0.0
220
0.0
230
1.0
 70
    11
 71
     3
 72
    38
 73
    34
 74
     0
 42
0.000000001
 43
0.0000000001
 40
0.0
 40
0.0
 40
0.0
 40
0.0
 40
1.0
 40
1.0
 40
1.0
 40
2.0
 40
2.0
 40
2.0
 40
3.0
 40
3.0
 40
3.0
 40
4.0
 40
4.0
 40
4.0
 40
5.0
 40
5.0
 40
5.0
 40
6.0
 40
6.0
 40
6.0
 40
7.0
 40
7.0
 40
7.0
 40
8.0
 40
8.0
 40
8.0
 40
9.0
 40
9.0
 40
9.0
 40
10.0
 40
10.0
 40
10.0
 40
11.0
 40
11.0
 40
11.0
 40
11.0
 10
126.377554584636
 20
154.8151140277308
 30
0.0
 10
126.377554584636
 20
154.8151140277308
 30
0.0
 10
128.8311532078563
 20
154.8151140277308
 30
0.0
 10
128.8311532078563
 20
154.8151140277308
 30
0.0
 10
128.8311532078563
 20
154.8151140277308
 30
0.0
 10
127.7345785914971
 20
151.3062819612468
 30
0.0
 10
127.7345785914971
 20
151.3062819612468
 30
0.0
 10
128.571392836906
 20
152.2922689395754
 30
0.0
 10
129.8860421413442
 20
153.604506675583
 30
0.0
 10
131.0163787157314
 20
154.2664822097754
 30
0.0
 10
132.7044766171327
 20
155.2500576196734
 30
0.0
 10
133.6642808525008
 20
155.3847609420097
 30
0.0
 10
134.7284715499351
 20
155.3565111403944
 30
0.0
 10
134.7284715499351
 20
155.3565111403944
 30
0.0
 10
133.6877075172549
 20
152.0345756272799
 30
0.0
 10
133.6877075172549
 20
152.0345756272799
 30
0.0
 10
133.011434827367
 20
152.3184516825359
 30
0.0
 10
130.930940291334
 20
151.7768823149844
 30
0.0
 10
129.739280976855
 20
150.9162968950455
 30
0.0
 10
128.66613302525
 20
150.1454562717016
 30
0.0
 10
127.9192358313239
 20
149.4857200510519
 30
0.0
 10
127.0393578639405
 20
147.8282835196966
 30
0.0
 10
126.164647543194
 20
146.1699857139017
 30
0.0
 10
125.4742499524985
 20
143.5262176944419
 30
0.0
 10
124.2822461282437
 20
139.6959580071401
 30
0.0
 10
124.2822461282437
 20
139.6959580071401
 30
0.0
 10
120.5753209406769
 20
127.8027915271048
 30
0.0
 10
120.5753209406769
 20
127.8027915271048
 30
0.0
 10
120.5753209406769
 20
127.8027915271048
 30
0.0
 10
118.1964809388044
 20
127.8027915271048
 30
0.0
 10
118.1964809388044
 20
127.8027915271048
 30
0.0
 10
118.1964809388044
 20
127.8027915271048
 30
0.0
 10
126.377554584636
 20
154.8151140277308
 30
0.0
 10
126.377554584636
 20
154.8151140277308
 30
0.0
  0
HATCH
  5
1DA5
330
1DA0
100
AcDbEntity
  8
TFORMLOGO
 62
   250
420
  2234388
100
AcDbHatch
 10
0.0
 20
0.0
 30
0.0
210
0.0
220
0.0
230
1.0
  2
SOLID
 70
     1
 71
     0
 91
        1
 92
        1
 93
        1
 72
     4
 94
        3
 73
     0
 74
     1
 95
       38
 96
       34
 40
0.0
 40
0.0
 40
0.0
 40
0.0
 40
1.0
 40
1.0
 40
1.0
 40
2.0
 40
2.0
 40
2.0
 40
3.0
 40
3.0
 40
3.0
 40
4.0
 40
4.0
 40
4.0
 40
5.0
 40
5.0
 40
5.0
 40
6.0
 40
6.0
 40
6.0
 40
7.0
 40
7.0
 40
7.0
 40
8.0
 40
8.0
 40
8.0
 40
9.0
 40
9.0
 40
9.0
 40
10.0
 40
10.0
 40
10.0
 40
11.0
 40
11.0
 40
11.0
 40
11.0
 10
126.377554584636
 20
154.8151140277308
 10
126.377554584636
 20
154.8151140277308
 10
128.8311532078563
 20
154.8151140277308
 10
128.8311532078563
 20
154.8151140277308
 10
128.8311532078563
 20
154.8151140277308
 10
127.7345785914971
 20
151.3062819612468
 10
127.7345785914971
 20
151.3062819612468
 10
128.571392836906
 20
152.2922689395754
 10
129.8860421413442
 20
153.604506675583
 10
131.0163787157314
 20
154.2664822097754
 10
132.7044766171327
 20
155.2500576196734
 10
133.6642808525008
 20
155.3847609420097
 10
134.7284715499351
 20
155.3565111403944
 10
134.7284715499351
 20
155.3565111403944
 10
133.6877075172549
 20
152.0345756272799
 10
133.6877075172549
 20
152.0345756272799
 10
133.011434827367
 20
152.3184516825359
 10
130.930940291334
 20
151.7768823149844
 10
129.739280976855
 20
150.9162968950455
 10
128.66613302525
 20
150.1454562717016
 10
127.9192358313239
 20
149.4857200510519
 10
127.0393578639405
 20
147.8282835196966
 10
126.164647543194
 20
146.1699857139017
 10
125.4742499524985
 20
143.5262176944419
 10
124.2822461282437
 20
139.6959580071401
 10
124.2822461282437
 20
139.6959580071401
 10
120.5753209406769
 20
127.8027915271048
 10
120.5753209406769
 20
127.8027915271048
 10
120.5753209406769
 20
127.8027915271048
 10
118.1964809388044
 20
127.8027915271048
 10
118.1964809388044
 20
127.8027915271048
 10
118.1964809388044
 20
127.8027915271048
 10
126.377554584636
 20
154.8151140277308
 10
126.377554584636
 20
154.8151140277308
 97
        0
 75
     2
 76
     1
 98
        0
  0
SPLINE
  5
1DA6
330
1DA0
100
AcDbEntity
  8
TFORMLOGO
370
     0
100
AcDbSpline
210
0.0
220
0.0
230
1.0
 70
    11
 71
     3
 72
   104
 73
   100
 74
     0
 42
0.000000001
 43
0.0000000001
 40
0.0
 40
0.0
 40
0.0
 40
0.0
 40
1.0
 40
1.0
 40
1.0
 40
2.0
 40
2.0
 40
2.0
 40
3.0
 40
3.0
 40
3.0
 40
4.0
 40
4.0
 40
4.0
 40
5.0
 40
5.0
 40
5.0
 40
6.0
 40
6.0
 40
6.0
 40
7.0
 40
7.0
 40
7.0
 40
8.0
 40
8.0
 40
8.0
 40
9.0
 40
9.0
 40
9.0
 40
10.0
 40
10.0
 40
10.0
 40
11.0
 40
11.0
 40
11.0
 40
12.0
 40
12.0
 40
12.0
 40
13.0
 40
13.0
 40
13.0
 40
14.0
 40
14.0
 40
14.0
 40
15.0
 40
15.0
 40
15.0
 40
16.0
 40
16.0
 40
16.0
 40
17.0
 40
17.0
 40
17.0
 40
18.0
 40
18.0
 40
18.0
 40
19.0
 40
19.0
 40
19.0
 40
20.0
 40
20.0
 40
20.0
 40
21.0
 40
21.0
 40
21.0
 40
22.0
 40
22.0
 40
22.0
 40
23.0
 40
23.0
 40
23.0
 40
24.0
 40
24.0
 40
24.0
 40
25.0
 40
25.0
 40
25.0
 40
26.0
 40
26.0
 40
26.0
 40
27.0
 40
27.0
 40
27.0
 40
28.0
 40
28.0
 40
28.0
 40
29.0
 40
29.0
 40
29.0
 40
30.0
 40
30.0
 40
30.0
 40
31.0
 40
31.0
 40
31.0
 40
32.0
 40
32.0
 40
32.0
 40
33.0
 40
33.0
 40
33.0
 40
33.0
 10
139.8926730891197
 20
154.8294111834263
 30
0.0
 10
139.8926730891197
 20
154.8294111834263
 30
0.0
 10
142.0344903652445
 20
154.8294111834263
 30
0.0
 10
142.0344903652445
 20
154.8294111834263
 30
0.0
 10
142.0344903652445
 20
154.8294111834263
 30
0.0
 10
140.9516961399171
 20
151.3157559800812
 30
0.0
 10
140.9516961399171
 20
151.3157559800812
 30
0.0
 10
141.8928968473923
 20
152.7887075264977
 30
0.0
 10
142.7341897198865
 20
153.4484437471474
 30
0.0
 10
143.8552245303272
 20
154.2926649527359
 30
0.0
 10
144.9803934580775
 20
155.1296514530327
 30
0.0
 10
146.3139908001845
 20
155.3044901642492
 30
0.0
 10
147.241066606852
 20
155.3044901642492
 30
0.0
 10
148.3855280820469
 20
155.3044901642492
 30
0.0
 10
149.4969166187653
 20
155.0752189084569
 30
0.0
 10
150.0784491203092
 20
153.8172414621372
 30
0.0
 10
150.5228667310863
 20
152.833838307127
 30
0.0
 10
150.5414702589793
 20
152.7201500811143
 30
0.0
 10
150.4140016419347
 20
150.7765981809602
 30
0.0
 10
151.5818897818837
 20
152.7699317437168
 30
0.0
 10
152.4424752018226
 20
153.6256940267945
 30
0.0
 10
153.9038856707499
 20
154.4507949398263
 30
0.0
 10
155.4455669174378
 20
155.3044901642492
 30
0.0
 10
156.339225275853
 20
155.3659851592288
 30
0.0
 10
157.3748216618963
 20
155.2147453676543
 30
0.0
 10
158.911679771723
 20
154.9877134254046
 30
0.0
 10
159.8859534176746
 20
154.4390816074493
 30
0.0
 10
160.3965169054045
 20
152.7816450760939
 30
0.0
 10
160.9070803931344
 20
151.1219692311958
 30
0.0
 10
160.6328506116007
 20
150.2303779314354
 30
0.0
 10
159.9992971339115
 20
147.597634224801
 30
0.0
 10
159.7105979417943
 20
146.4014962832367
 30
0.0
 10
159.2947746424084
 20
144.9400858143094
 30
0.0
 10
158.7463150793409
 20
143.2092687007094
 30
0.0
 10
158.7463150793409
 20
143.2092687007094
 30
0.0
 10
153.9038856707499
 20
127.8027915271048
 30
0.0
 10
153.9038856707499
 20
127.8027915271048
 30
0.0
 10
153.9038856707499
 20
127.8027915271048
 30
0.0
 10
151.3882752878863
 20
127.8027915271048
 30
0.0
 10
151.3882752878863
 20
127.8027915271048
 30
0.0
 10
151.3882752878863
 20
127.8027915271048
 30
0.0
 10
155.6250565106276
 20
141.2751908193897
 30
0.0
 10
155.6250565106276
 20
141.2751908193897
 30
0.0
 10
156.5094131050963
 20
144.0936252951782
 30
0.0
 10
157.109893644309
 20
146.1506931664571
 30
0.0
 10
157.4220195011804
 20
147.4415712963654
 30
0.0
 10
157.8095929989511
 20
149.0530157726519
 30
0.0
 10
157.9656559273867
 20
149.5826995529385
 30
0.0
 10
157.7816877071116
 20
150.7529992613181
 30
0.0
 10
157.6111553680925
 20
151.8430281919372
 30
0.0
 10
157.0582171779396
 20
152.5547853887321
 30
0.0
 10
156.1170164704645
 20
152.5547853887321
 30
0.0
 10
155.1096698860365
 20
152.5547853887321
 30
0.0
 10
154.2962823053817
 20
152.4412694176073
 30
0.0
 10
153.156643967048
 20
151.2945686288697
 30
0.0
 10
152.0170056287143
 20
150.1476955852443
 30
0.0
 10
151.076149431015
 20
148.7930831468137
 30
0.0
 10
150.3337308641742
 20
147.2290087646991
 30
0.0
 10
149.5957909244188
 20
145.6683794803425
 30
0.0
 10
148.8530278478023
 20
143.6822806228776
 30
0.0
 10
148.0964843801539
 20
141.2751908193897
 30
0.0
 10
148.0964843801539
 20
141.2751908193897
 30
0.0
 10
143.8552245303272
 20
127.8027915271048
 30
0.0
 10
143.8552245303272
 20
127.8027915271048
 30
0.0
 10
143.8552245303272
 20
127.8027915271048
 30
0.0
 10
141.486030802177
 20
127.8027915271048
 30
0.0
 10
141.486030802177
 20
127.8027915271048
 30
0.0
 10
141.486030802177
 20
127.8027915271048
 30
0.0
 10
146.3329388378533
 20
143.2092687007094
 30
0.0
 10
146.3329388378533
 20
143.2092687007094
 30
0.0
 10
146.8483254624444
 20
144.8408669988801
 30
0.0
 10
147.2314203331297
 20
146.1837661049335
 30
0.0
 10
147.4867020769946
 20
147.224185627838
 30
0.0
 10
147.9169947869641
 20
149.0197705792876
 30
0.0
 10
148.0306830129768
 20
150.2400242051577
 30
0.0
 10
147.709255392159
 20
151.3157559800812
 30
0.0
 10
147.3874832615654
 20
152.3916600098926
 30
0.0
 10
146.8245542879144
 20
152.6683013598569
 30
0.0
 10
145.8840425999909
 20
152.6683013598569
 30
0.0
 10
145.0989048209514
 20
152.6683013598569
 30
0.0
 10
144.3282364524954
 20
152.3275811915945
 30
0.0
 10
143.4531816219731
 20
151.6538923250251
 30
0.0
 10
142.34627171234
 20
150.8074318058939
 30
0.0
 10
141.901854101563
 20
150.1097995099067
 30
0.0
 10
141.3578731655808
 20
149.289521733736
 30
0.0
 10
140.6299240093235
 20
148.192602607601
 30
0.0
 10
140.2850697237515
 20
147.455696197173
 30
0.0
 10
139.6652966370942
 20
145.8385673095858
 30
0.0
 10
139.0506911970739
 20
144.2214384219986
 30
0.0
 10
138.463991048893
 20
142.3252566160164
 30
0.0
 10
138.0571250036777
 20
141.0154304484394
 30
0.0
 10
138.0571250036777
 20
141.0154304484394
 30
0.0
 10
133.9009590684727
 20
127.8027915271048
 30
0.0
 10
133.9009590684727
 20
127.8027915271048
 30
0.0
 10
133.9009590684727
 20
127.8027915271048
 30
0.0
 10
131.4180771143097
 20
127.8027915271048
 30
0.0
 10
131.4180771143097
 20
127.8027915271048
 30
0.0
 10
131.4180771143097
 20
127.8027915271048
 30
0.0
 10
139.8926730891197
 20
154.8294111834263
 30
0.0
 10
139.8926730891197
 20
154.8294111834263
 30
0.0
  0
HATCH
  5
1DA7
330
1DA0
100
AcDbEntity
  8
TFORMLOGO
 62
   250
420
  2234388
100
AcDbHatch
 10
0.0
 20
0.0
 30
0.0
210
0.0
220
0.0
230
1.0
  2
SOLID
 70
     1
 71
     0
 91
        1
 92
        1
 93
        1
 72
     4
 94
        3
 73
     0
 74
     1
 95
      104
 96
      100
 40
0.0
 40
0.0
 40
0.0
 40
0.0
 40
1.0
 40
1.0
 40
1.0
 40
2.0
 40
2.0
 40
2.0
 40
3.0
 40
3.0
 40
3.0
 40
4.0
 40
4.0
 40
4.0
 40
5.0
 40
5.0
 40
5.0
 40
6.0
 40
6.0
 40
6.0
 40
7.0
 40
7.0
 40
7.0
 40
8.0
 40
8.0
 40
8.0
 40
9.0
 40
9.0
 40
9.0
 40
10.0
 40
10.0
 40
10.0
 40
11.0
 40
11.0
 40
11.0
 40
12.0
 40
12.0
 40
12.0
 40
13.0
 40
13.0
 40
13.0
 40
14.0
 40
14.0
 40
14.0
 40
15.0
 40
15.0
 40
15.0
 40
16.0
 40
16.0
 40
16.0
 40
17.0
 40
17.0
 40
17.0
 40
18.0
 40
18.0
 40
18.0
 40
19.0
 40
19.0
 40
19.0
 40
20.0
 40
20.0
 40
20.0
 40
21.0
 40
21.0
 40
21.0
 40
22.0
 40
22.0
 40
22.0
 40
23.0
 40
23.0
 40
23.0
 40
24.0
 40
24.0
 40
24.0
 40
25.0
 40
25.0
 40
25.0
 40
26.0
 40
26.0
 40
26.0
 40
27.0
 40
27.0
 40
27.0
 40
28.0
 40
28.0
 40
28.0
 40
29.0
 40
29.0
 40
29.0
 40
30.0
 40
30.0
 40
30.0
 40
31.0
 40
31.0
 40
31.0
 40
32.0
 40
32.0
 40
32.0
 40
33.0
 40
33.0
 40
33.0
 40
33.0
 10
139.8926730891197
 20
154.8294111834263
 10
139.8926730891197
 20
154.8294111834263
 10
142.0344903652445
 20
154.8294111834263
 10
142.0344903652445
 20
154.8294111834263
 10
142.0344903652445
 20
154.8294111834263
 10
140.9516961399171
 20
151.3157559800812
 10
140.9516961399171
 20
151.3157559800812
 10
141.8928968473923
 20
152.7887075264977
 10
142.7341897198865
 20
153.4484437471474
 10
143.8552245303272
 20
154.2926649527359
 10
144.9803934580775
 20
155.1296514530327
 10
146.3139908001845
 20
155.3044901642492
 10
147.241066606852
 20
155.3044901642492
 10
148.3855280820469
 20
155.3044901642492
 10
149.4969166187653
 20
155.0752189084569
 10
150.0784491203092
 20
153.8172414621372
 10
150.5228667310863
 20
152.833838307127
 10
150.5414702589793
 20
152.7201500811143
 10
150.4140016419347
 20
150.7765981809602
 10
151.5818897818837
 20
152.7699317437168
 10
152.4424752018226
 20
153.6256940267945
 10
153.9038856707499
 20
154.4507949398263
 10
155.4455669174378
 20
155.3044901642492
 10
156.339225275853
 20
155.3659851592288
 10
157.3748216618963
 20
155.2147453676543
 10
158.911679771723
 20
154.9877134254046
 10
159.8859534176746
 20
154.4390816074493
 10
160.3965169054045
 20
152.7816450760939
 10
160.9070803931344
 20
151.1219692311958
 10
160.6328506116007
 20
150.2303779314354
 10
159.9992971339115
 20
147.597634224801
 10
159.7105979417943
 20
146.4014962832367
 10
159.2947746424084
 20
144.9400858143094
 10
158.7463150793409
 20
143.2092687007094
 10
158.7463150793409
 20
143.2092687007094
 10
153.9038856707499
 20
127.8027915271048
 10
153.9038856707499
 20
127.8027915271048
 10
153.9038856707499
 20
127.8027915271048
 10
151.3882752878863
 20
127.8027915271048
 10
151.3882752878863
 20
127.8027915271048
 10
151.3882752878863
 20
127.8027915271048
 10
155.6250565106276
 20
141.2751908193897
 10
155.6250565106276
 20
141.2751908193897
 10
156.5094131050963
 20
144.0936252951782
 10
157.109893644309
 20
146.1506931664571
 10
157.4220195011804
 20
147.4415712963654
 10
157.8095929989511
 20
149.0530157726519
 10
157.9656559273867
 20
149.5826995529385
 10
157.7816877071116
 20
150.7529992613181
 10
157.6111553680925
 20
151.8430281919372
 10
157.0582171779396
 20
152.5547853887321
 10
156.1170164704645
 20
152.5547853887321
 10
155.1096698860365
 20
152.5547853887321
 10
154.2962823053817
 20
152.4412694176073
 10
153.156643967048
 20
151.2945686288697
 10
152.0170056287143
 20
150.1476955852443
 10
151.076149431015
 20
148.7930831468137
 10
150.3337308641742
 20
147.2290087646991
 10
149.5957909244188
 20
145.6683794803425
 10
148.8530278478023
 20
143.6822806228776
 10
148.0964843801539
 20
141.2751908193897
 10
148.0964843801539
 20
141.2751908193897
 10
143.8552245303272
 20
127.8027915271048
 10
143.8552245303272
 20
127.8027915271048
 10
143.8552245303272
 20
127.8027915271048
 10
141.486030802177
 20
127.8027915271048
 10
141.486030802177
 20
127.8027915271048
 10
141.486030802177
 20
127.8027915271048
 10
146.3329388378533
 20
143.2092687007094
 10
146.3329388378533
 20
143.2092687007094
 10
146.8483254624444
 20
144.8408669988801
 10
147.2314203331297
 20
146.1837661049335
 10
147.4867020769946
 20
147.224185627838
 10
147.9169947869641
 20
149.0197705792876
 10
148.0306830129768
 20
150.2400242051577
 10
147.709255392159
 20
151.3157559800812
 10
147.3874832615654
 20
152.3916600098926
 10
146.8245542879144
 20
152.6683013598569
 10
145.8840425999909
 20
152.6683013598569
 10
145.0989048209514
 20
152.6683013598569
 10
144.3282364524954
 20
152.3275811915945
 10
143.4531816219731
 20
151.6538923250251
 10
142.34627171234
 20
150.8074318058939
 10
141.901854101563
 20
150.1097995099067
 10
141.3578731655808
 20
149.289521733736
 10
140.6299240093235
 20
148.192602607601
 10
140.2850697237515
 20
147.455696197173
 10
139.6652966370942
 20
145.8385673095858
 10
139.0506911970739
 20
144.2214384219986
 10
138.463991048893
 20
142.3252566160164
 10
138.0571250036777
 20
141.0154304484394
 10
138.0571250036777
 20
141.0154304484394
 10
133.9009590684727
 20
127.8027915271048
 10
133.9009590684727
 20
127.8027915271048
 10
133.9009590684727
 20
127.8027915271048
 10
131.4180771143097
 20
127.8027915271048
 10
131.4180771143097
 20
127.8027915271048
 10
131.4180771143097
 20
127.8027915271048
 10
139.8926730891197
 20
154.8294111834263
 10
139.8926730891197
 20
154.8294111834263
 97
        0
 75
     2
 76
     1
 98
        0
  0
SPLINE
  5
1DA8
330
1DA0
100
AcDbEntity
  8
TFORMLOGO
370
     0
100
AcDbSpline
210
0.0
220
0.0
230
1.0
 70
    11
 71
     3
 72
    29
 73
    25
 74
     0
 42
0.000000001
 43
0.0000000001
 40
0.0
 40
0.0
 40
0.0
 40
0.0
 40
1.0
 40
1.0
 40
1.0
 40
2.0
 40
2.0
 40
2.0
 40
3.0
 40
3.0
 40
3.0
 40
4.0
 40
4.0
 40
4.0
 40
5.0
 40
5.0
 40
5.0
 40
6.0
 40
6.0
 40
6.0
 40
7.0
 40
7.0
 40
7.0
 40
8.0
 40
8.0
 40
8.0
 40
8.0
 10
101.6420971922469
 20
132.8388354296931
 30
0.0
 10
101.630039350094
 20
134.7164137077823
 30
0.0
 10
102.2236296937908
 20
138.0598810818841
 30
0.0
 10
103.7487744712405
 20
142.5378191476827
 30
0.0
 10
105.819967243327
 20
148.5896501242061
 30
0.0
 10
107.0602024361932
 20
150.8074318058939
 30
0.0
 10
108.1522984254671
 20
151.8833358357054
 30
0.0
 10
109.741177511439
 20
153.4532668840085
 30
0.0
 10
111.8740375333931
 20
153.5290590346837
 30
0.0
 10
112.5075910110823
 20
153.4532668840085
 30
0.0
 10
113.4012493694975
 20
153.3490526768302
 30
0.0
 10
114.6683563248758
 20
152.7580461564518
 30
0.0
 10
114.7493161221879
 20
150.7838328862519
 30
0.0
 10
114.8106388622796
 20
149.0909118479895
 30
0.0
 10
114.3186789024427
 20
145.9191825971221
 30
0.0
 10
112.6164561002338
 20
140.9489400617108
 30
0.0
 10
110.6444821435766
 20
135.1746117095912
 30
0.0
 10
109.4669477299053
 20
132.8960240524753
 30
0.0
 10
108.5212683953448
 20
131.9072809959403
 30
0.0
 10
106.7346406980658
 20
130.0538184021569
 30
0.0
 10
104.8222669326213
 20
130.2336525051225
 30
0.0
 10
104.5408024457958
 20
130.2336525051225
 30
0.0
 10
104.1721769856939
 20
130.2336525051225
 30
0.0
 10
101.6465758193322
 20
130.6305277668397
 30
0.0
 10
101.6420971922469
 20
132.8388354296931
 30
0.0
  0
SPLINE
  5
1DA9
330
1DA0
100
AcDbEntity
  8
TFORMLOGO
370
     0
100
AcDbSpline
210
0.0
220
0.0
230
1.0
 70
    11
 71
     3
 72
    32
 73
    28
 74
     0
 42
0.000000001
 43
0.0000000001
 40
0.0
 40
0.0
 40
0.0
 40
0.0
 40
1.0
 40
1.0
 40
1.0
 40
2.0
 40
2.0
 40
2.0
 40
3.0
 40
3.0
 40
3.0
 40
4.0
 40
4.0
 40
4.0
 40
5.0
 40
5.0
 40
5.0
 40
6.0
 40
6.0
 40
6.0
 40
7.0
 40
7.0
 40
7.0
 40
8.0
 40
8.0
 40
8.0
 40
9.0
 40
9.0
 40
9.0
 40
9.0
 10
106.2595617172429
 20
153.4105476718098
 30
0.0
 10
104.8222669326213
 20
151.5474388043041
 30
0.0
 10
103.7177685914188
 20
149.8758773721411
 30
0.0
 10
101.9232171692965
 20
144.6141795664062
 30
0.0
 10
100.2754269116635
 20
139.7999999594306
 30
0.0
 10
99.22777268346732
 20
136.3052927937542
 30
0.0
 10
99.06964269637689
 20
132.039572749846
 30
0.0
 10
98.94665270641765
 20
128.8673267343149
 30
0.0
 10
100.8807305877373
 20
127.8027915271048
 30
0.0
 10
103.7129454545577
 20
127.8027915271048
 30
0.0
 10
104.9352661390825
 20
127.8027915271048
 30
0.0
 10
108.0151835347002
 20
127.8827177950895
 30
0.0
 10
110.2045431598849
 20
130.5926316915021
 30
0.0
 10
111.7417457794874
 20
132.4984597712065
 30
0.0
 10
113.155269389579
 20
134.475256864725
 30
0.0
 10
115.0562743324223
 20
140.9489400617108
 30
0.0
 10
116.6361961642235
 20
146.3680788349845
 30
0.0
 10
117.7282921534974
 20
149.8639917848761
 30
0.0
 10
117.6480213757369
 20
151.8595646611754
 30
0.0
 10
117.6480213757369
 20
151.8595646611754
 30
0.0
 10
117.6480213757369
 20
151.8595646611754
 30
0.0
 10
117.6480213757369
 20
151.8595646611754
 30
0.0
 10
117.13229024137
 20
155.18150017429
 30
0.0
 10
114.7162431837115
 20
155.886194920681
 30
0.0
 10
113.3351034925446
 20
155.886194920681
 30
0.0
 10
111.9829026225447
 20
155.886194920681
 30
0.0
 10
108.3414342923792
 20
156.1251124501957
 30
0.0
 10
106.2595617172429
 20
153.4105476718098
 30
0.0
  0
HATCH
  5
1DAA
330
1DA0
100
AcDbEntity
  8
TFORMLOGO
 62
   250
420
  2234388
100
AcDbHatch
 10
0.0
 20
0.0
 30
0.0
210
0.0
220
0.0
230
1.0
  2
SOLID
 70
     1
 71
     0
 91
        2
 92
        1
 93
        1
 72
     4
 94
        3
 73
     0
 74
     1
 95
       29
 96
       25
 40
0.0
 40
0.0
 40
0.0
 40
0.0
 40
1.0
 40
1.0
 40
1.0
 40
2.0
 40
2.0
 40
2.0
 40
3.0
 40
3.0
 40
3.0
 40
4.0
 40
4.0
 40
4.0
 40
5.0
 40
5.0
 40
5.0
 40
6.0
 40
6.0
 40
6.0
 40
7.0
 40
7.0
 40
7.0
 40
8.0
 40
8.0
 40
8.0
 40
8.0
 10
101.6420971922469
 20
132.8388354296931
 10
101.630039350094
 20
134.7164137077823
 10
102.2236296937908
 20
138.0598810818841
 10
103.7487744712405
 20
142.5378191476827
 10
105.819967243327
 20
148.5896501242061
 10
107.0602024361932
 20
150.8074318058939
 10
108.1522984254671
 20
151.8833358357054
 10
109.741177511439
 20
153.4532668840085
 10
111.8740375333931
 20
153.5290590346837
 10
112.5075910110823
 20
153.4532668840085
 10
113.4012493694975
 20
153.3490526768302
 10
114.6683563248758
 20
152.7580461564518
 10
114.7493161221879
 20
150.7838328862519
 10
114.8106388622796
 20
149.0909118479895
 10
114.3186789024427
 20
145.9191825971221
 10
112.6164561002338
 20
140.9489400617108
 10
110.6444821435766
 20
135.1746117095912
 10
109.4669477299053
 20
132.8960240524753
 10
108.5212683953448
 20
131.9072809959403
 10
106.7346406980658
 20
130.0538184021569
 10
104.8222669326213
 20
130.2336525051225
 10
104.5408024457958
 20
130.2336525051225
 10
104.1721769856939
 20
130.2336525051225
 10
101.6465758193322
 20
130.6305277668397
 10
101.6420971922469
 20
132.8388354296931
 97
        0
 92
        1
 93
        1
 72
     4
 94
        3
 73
     0
 74
     1
 95
       32
 96
       28
 40
0.0
 40
0.0
 40
0.0
 40
0.0
 40
1.0
 40
1.0
 40
1.0
 40
2.0
 40
2.0
 40
2.0
 40
3.0
 40
3.0
 40
3.0
 40
4.0
 40
4.0
 40
4.0
 40
5.0
 40
5.0
 40
5.0
 40
6.0
 40
6.0
 40
6.0
 40
7.0
 40
7.0
 40
7.0
 40
8.0
 40
8.0
 40
8.0
 40
9.0
 40
9.0
 40
9.0
 40
9.0
 10
106.2595617172429
 20
153.4105476718098
 10
104.8222669326213
 20
151.5474388043041
 10
103.7177685914188
 20
149.8758773721411
 10
101.9232171692965
 20
144.6141795664062
 10
100.2754269116635
 20
139.7999999594306
 10
99.22777268346732
 20
136.3052927937542
 10
99.06964269637689
 20
132.039572749846
 10
98.94665270641765
 20
128.8673267343149
 10
100.8807305877373
 20
127.8027915271048
 10
103.7129454545577
 20
127.8027915271048
 10
104.9352661390825
 20
127.8027915271048
 10
108.0151835347002
 20
127.8827177950895
 10
110.2045431598849
 20
130.5926316915021
 10
111.7417457794874
 20
132.4984597712065
 10
113.155269389579
 20
134.475256864725
 10
115.0562743324223
 20
140.9489400617108
 10
116.6361961642235
 20
146.3680788349845
 10
117.7282921534974
 20
149.8639917848761
 10
117.6480213757369
 20
151.8595646611754
 10
117.6480213757369
 20
151.8595646611754
 10
117.6480213757369
 20
151.8595646611754
 10
117.6480213757369
 20
151.8595646611754
 10
117.13229024137
 20
155.18150017429
 10
114.7162431837115
 20
155.886194920681
 10
113.3351034925446
 20
155.886194920681
 10
111.9829026225447
 20
155.886194920681
 10
108.3414342923792
 20
156.1251124501957
 10
106.2595617172429
 20
153.4105476718098
 97
        0
 75
     2
 76
     1
 98
        0
  0
ENDBLK
  5
1DAB
330
1DA0
100
AcDbEntity
  8
0
100
AcDbBlockEnd
  0
BLOCK
  5
60DA
330
60D9
100
AcDbEntity
  8
0
100
AcDbBlockBegin
  2
*D7
 70
     1
 10
0.0
 20
0.0
 30
0.0
  3
*D7
  1

  0
LINE
  5
60DC
330
60D9
100
AcDbEntity
  8
モデル
  6
Continuous
 62
     0
370
    -2
100
AcDbLine
 10
313.7644519482335
 20
282.5634830899356
 30
0.0
 11
343.3801621040561
 21
282.5634830899356
 31
0.0
  0
LINE
  5
60DD
330
60D9
100
AcDbEntity
  8
モデル
  6
Continuous
 62
     0
370
    -2
100
AcDbLine
 10
325.2644519482334
 20
337.5657115037357
 30
0.0
 11
343.3801621040561
 21
337.5657115037357
 31
0.0
  0
LINE
  5
60DE
330
60D9
100
AcDbEntity
  8
モデル
  6
Continuous
 62
     0
370
    -2
100
AcDbLine
 10
343.3801621040561
 20
284.5634830899356
 30
0.0
 11
343.3801621040561
 21
335.5657115037357
 31
0.0
  0
INSERT
  5
60DF
330
60D9
100
AcDbEntity
  8
モデル
 62
     0
370
    -2
100
AcDbBlockReference
  2
_DOT
 10
343.3801621040561
 20
282.5634830899356
 30
0.0
 41
2.0
 42
2.0
 43
2.0
 50
270.0
  0
INSERT
  5
60E0
330
60D9
100
AcDbEntity
  8
モデル
 62
     0
370
    -2
100
AcDbBlockReference
  2
_DOT
 10
343.3801621040561
 20
337.5657115037357
 30
0.0
 41
2.0
 42
2.0
 43
2.0
 50
90.0
  0
MTEXT
  5
60E1
330
60D9
100
AcDbEntity
  8
モデル
 62
     0
100
AcDbMText
 10
339.8792242523617
 20
310.0645972968356
 30
0.0
 40
5.0
 41
0.0
 46
0.0
 71
     5
 72
     1
  1
\A1;55
  7
ＭＳ ゴシック
 11
0.0
 21
1.0
 31
0.0
 73
     1
 44
1.0
  0
POINT
  5
60E2
330
60D9
100
AcDbEntity
  8
Defpoints
 62
     0
100
AcDbPoint
 10
308.7644519482335
 20
282.5634830899356
 30
0.0
  0
POINT
  5
60E3
330
60D9
100
AcDbEntity
  8
Defpoints
 62
     0
100
AcDbPoint
 10
320.2644519482334
 20
337.5657115037357
 30
0.0
  0
POINT
  5
60E4
330
60D9
100
AcDbEntity
  8
Defpoints
 62
     0
100
AcDbPoint
 10
343.3801621040561
 20
337.5657115037357
 30
0.0
  0
ENDBLK
  5
60DB
330
60D9
100
AcDbEntity
  8
0
100
AcDbBlockEnd
  0
BLOCK
  5
60E6
330
60E5
100
AcDbEntity
  8
0
100
AcDbBlockBegin
  2
*D8
 70
     1
 10
0.0
 20
0.0
 30
0.0
  3
*D8
  1

  0
LINE
  5
60E8
330
60E5
100
AcDbEntity
  8
モデル
  6
Continuous
 62
     0
370
    -2
100
AcDbLine
 10
306.7743557839535
 20
372.2258248780292
 30
0.0
 11
306.7743557839535
 21
381.605450875208
 31
0.0
  0
LINE
  5
60E9
330
60E5
100
AcDbEntity
  8
モデル
  6
Continuous
 62
     0
370
    -2
100
AcDbLine
 10
317.9644519482333
 20
374.2410853761149
 30
0.0
 11
317.9644519482333
 21
381.605450875208
 31
0.0
  0
LINE
  5
60EA
330
60E5
100
AcDbEntity
  8
モデル
  6
Continuous
 62
     0
370
    -2
100
AcDbLine
 10
308.7743557839535
 20
381.605450875208
 30
0.0
 11
315.9644519482333
 21
381.605450875208
 31
0.0
  0
INSERT
  5
60EB
330
60E5
100
AcDbEntity
  8
モデル
 62
     0
370
    -2
100
AcDbBlockReference
  2
_DOT
 10
306.7743557839535
 20
381.605450875208
 30
0.0
 41
2.0
 42
2.0
 43
2.0
 50
180.0
  0
INSERT
  5
60EC
330
60E5
100
AcDbEntity
  8
モデル
 62
     0
370
    -2
100
AcDbBlockReference
  2
_DOT
 10
317.9644519482333
 20
381.605450875208
 30
0.0
 41
2.0
 42
2.0
 43
2.0
  0
MTEXT
  5
60ED
330
60E5
100
AcDbEntity
  8
モデル
 62
     0
100
AcDbMText
 10
312.3694038660934
 20
385.1063887269024
 30
0.0
 40
5.0
 41
0.0
 46
0.0
 71
     5
 72
     1
  1
\A1;11
  7
ＭＳ ゴシック
 73
     1
 44
1.0
  0
POINT
  5
60EE
330
60E5
100
AcDbEntity
  8
Defpoints
 62
     0
100
AcDbPoint
 10
306.7743557839535
 20
367.2258248780292
 30
0.0
  0
POINT
  5
60EF
330
60E5
100
AcDbEntity
  8
Defpoints
 62
     0
100
AcDbPoint
 10
317.9644519482333
 20
369.2410853761149
 30
0.0
  0
POINT
  5
60F0
330
60E5
100
AcDbEntity
  8
Defpoints
 62
     0
100
AcDbPoint
 10
317.9644519482333
 20
381.605450875208
 30
0.0
  0
ENDBLK
  5
60E7
330
60E5
100
AcDbEntity
  8
0
100
AcDbBlockEnd
  0
BLOCK
  5
66F3
330
66F2
100
AcDbEntity
  8
0
100
AcDbBlockBegin
  2
*D9
 70
     1
 10
0.0
 20
0.0
 30
0.0
  3
*D9
  1

  0
LINE
  5
66F5
330
66F2
100
AcDbEntity
  8
寸法
 62
     0
370
    -2
100
AcDbLine
 10
319.3893345701313
 20
106.3298418273324
 30
0.0
 11
319.3893345701313
 21
84.16828517179293
 31
0.0
  0
LINE
  5
66F6
330
66F2
100
AcDbEntity
  8
寸法
 62
     0
370
    -2
100
AcDbLine
 10
299.3893345701313
 20
139.7941511148051
 30
0.0
 11
299.3893345701313
 21
84.16828517179293
 31
0.0
  0
LINE
  5
66F7
330
66F2
100
AcDbEntity
  8
寸法
 62
     0
370
    -2
100
AcDbLine
 10
317.3893345701313
 20
84.16828517179293
 30
0.0
 11
301.3893345701313
 21
84.16828517179293
 31
0.0
  0
INSERT
  5
66F8
330
66F2
100
AcDbEntity
  8
寸法
 62
     0
370
    -2
100
AcDbBlockReference
  2
_DOT
 10
319.3893345701313
 20
84.16828517179293
 30
0.0
 41
2.0
 42
2.0
 43
2.0
  0
INSERT
  5
66F9
330
66F2
100
AcDbEntity
  8
寸法
 62
     0
370
    -2
100
AcDbBlockReference
  2
_DOT
 10
299.3893345701313
 20
84.16828517179293
 30
0.0
 41
2.0
 42
2.0
 43
2.0
 50
180.0
  0
MTEXT
  5
66FA
330
66F2
100
AcDbEntity
  8
寸法
 62
     0
100
AcDbMText
 10
309.3893345701313
 20
87.66922302348732
 30
0.0
 40
5.0
 41
0.0
 46
0.0
 71
     5
 72
     1
  1
\A1;20
  7
ＭＳ ゴシック
 73
     1
 44
1.0
  0
POINT
  5
66FB
330
66F2
100
AcDbEntity
  8
Defpoints
 62
     0
100
AcDbPoint
 10
319.3893345701313
 20
111.3298418273324
 30
0.0
  0
POINT
  5
66FC
330
66F2
100
AcDbEntity
  8
Defpoints
 62
     0
100
AcDbPoint
 10
299.3893345701313
 20
144.7941511148051
 30
0.0
  0
POINT
  5
66FD
330
66F2
100
AcDbEntity
  8
Defpoints
 62
     0
100
AcDbPoint
 10
299.3893345701313
 20
84.16828517179293
 30
0.0
  0
ENDBLK
  5
66F4
330
66F2
100
AcDbEntity
  8
0
100
AcDbBlockEnd
  0
BLOCK
  5
6702
330
6701
100
AcDbEntity
  8
0
100
AcDbBlockBegin
  2
*D10
 70
     1
 10
0.0
 20
0.0
 30
0.0
  3
*D10
  1

  0
LINE
  5
6704
330
6701
100
AcDbEntity
  8
モデル
 62
     0
370
    -2
100
AcDbLine
 10
442.0776293080049
 20
164.8524161748765
 30
0.0
 11
491.11790258573
 21
164.8524161748765
 31
0.0
  0
LINE
  5
6705
330
6701
100
AcDbEntity
  8
モデル
 62
     0
370
    -2
100
AcDbLine
 10
463.9091418529887
 20
123.2524161748765
 30
0.0
 11
491.11790258573
 21
123.2524161748765
 31
0.0
  0
LINE
  5
6706
330
6701
100
AcDbEntity
  8
モデル
 62
     0
370
    -2
100
AcDbLine
 10
491.11790258573
 20
162.8524161748765
 30
0.0
 11
491.11790258573
 21
125.2524161748765
 31
0.0
  0
INSERT
  5
6707
330
6701
100
AcDbEntity
  8
モデル
 62
     0
370
    -2
100
AcDbBlockReference
  2
_DOT
 10
491.11790258573
 20
164.8524161748765
 30
0.0
 41
2.0
 42
2.0
 43
2.0
 50
90.0
  0
INSERT
  5
6708
330
6701
100
AcDbEntity
  8
モデル
 62
     0
370
    -2
100
AcDbBlockReference
  2
_DOT
 10
491.11790258573
 20
123.2524161748765
 30
0.0
 41
2.0
 42
2.0
 43
2.0
 50
270.0
  0
MTEXT
  5
6709
330
6701
100
AcDbEntity
  8
モデル
 62
     0
100
AcDbMText
 10
487.6169647340356
 20
144.0524161748765
 30
0.0
 40
5.0
 41
0.0
 46
0.0
 71
     5
 72
     1
  1
\A1;42
  7
ＭＳ ゴシック
 11
0.0
 21
1.0
 31
0.0
 73
     1
 44
1.0
  0
POINT
  5
670A
330
6701
100
AcDbEntity
  8
Defpoints
 62
     0
100
AcDbPoint
 10
437.0776293080049
 20
164.8524161748765
 30
0.0
  0
POINT
  5
670B
330
6701
100
AcDbEntity
  8
Defpoints
 62
     0
100
AcDbPoint
 10
458.9091418529887
 20
123.2524161748765
 30
0.0
  0
POINT
  5
670C
330
6701
100
AcDbEntity
  8
Defpoints
 62
     0
100
AcDbPoint
 10
491.11790258573
 20
123.2524161748765
 30
0.0
  0
ENDBLK
  5
6703
330
6701
100
AcDbEntity
  8
0
100
AcDbBlockEnd
  0
BLOCK
  5
6711
330
6710
100
AcDbEntity
  8
0
100
AcDbBlockBegin
  2
*D11
 70
     1
 10
0.0
 20
0.0
 30
0.0
  3
*D11
  1

  0
LINE
  5
6713
330
6710
100
AcDbEntity
  8
モデル
 62
     0
370
    -2
100
AcDbLine
 10
426.0776293080049
 20
155.8524161748765
 30
0.0
 11
426.0776293080049
 21
96.09085951933706
 31
0.0
  0
LINE
  5
6714
330
6710
100
AcDbEntity
  8
モデル
 62
     0
370
    -2
100
AcDbLine
 10
371.0776293080049
 20
105.8555527362483
 30
0.0
 11
371.0776293080049
 21
96.09085951933706
 31
0.0
  0
LINE
  5
6715
330
6710
100
AcDbEntity
  8
モデル
 62
     0
370
    -2
100
AcDbLine
 10
424.0776293080049
 20
96.09085951933706
 30
0.0
 11
373.0776293080049
 21
96.09085951933706
 31
0.0
  0
INSERT
  5
6716
330
6710
100
AcDbEntity
  8
モデル
 62
     0
370
    -2
100
AcDbBlockReference
  2
_DOT
 10
426.0776293080049
 20
96.09085951933706
 30
0.0
 41
2.0
 42
2.0
 43
2.0
  0
INSERT
  5
6717
330
6710
100
AcDbEntity
  8
モデル
 62
     0
370
    -2
100
AcDbBlockReference
  2
_DOT
 10
371.0776293080049
 20
96.09085951933706
 30
0.0
 41
2.0
 42
2.0
 43
2.0
 50
180.0
  0
MTEXT
  5
6718
330
6710
100
AcDbEntity
  8
モデル
 62
     0
100
AcDbMText
 10
398.5776293080049
 20
99.59179737103145
 30
0.0
 40
5.0
 41
0.0
 46
0.0
 71
     5
 72
     1
  1
\A1;55
  7
ＭＳ ゴシック
 73
     1
 44
1.0
  0
POINT
  5
6719
330
6710
100
AcDbEntity
  8
Defpoints
 62
     0
100
AcDbPoint
 10
426.0776293080049
 20
160.8524161748765
 30
0.0
  0
POINT
  5
671A
330
6710
100
AcDbEntity
  8
Defpoints
 62
     0
100
AcDbPoint
 10
371.0776293080049
 20
110.8555527362483
 30
0.0
  0
POINT
  5
671B
330
6710
100
AcDbEntity
  8
Defpoints
 62
     0
100
AcDbPoint
 10
371.0776293080049
 20
96.09085951933706
 30
0.0
  0
ENDBLK
  5
6712
330
6710
100
AcDbEntity
  8
0
100
AcDbBlockEnd
  0
BLOCK
  5
6720
330
671F
100
AcDbEntity
  8
0
100
AcDbBlockBegin
  2
*D12
 70
     1
 10
0.0
 20
0.0
 30
0.0
  3
*D12
  1

  0
LINE
  5
6722
330
671F
100
AcDbEntity
  8
モデル
 62
     0
370
    -2
100
AcDbLine
 10
552.6587607549218
 20
123.2524161748765
 30
0.0
 11
521.8540717136248
 21
123.2524161748765
 31
0.0
  0
LINE
  5
6723
330
671F
100
AcDbEntity
  8
モデル
 62
     0
370
    -2
100
AcDbLine
 10
552.6587607549218
 20
206.4524161748765
 30
0.0
 11
521.8540717136248
 21
206.4524161748765
 31
0.0
  0
LINE
  5
6724
330
671F
100
AcDbEntity
  8
モデル
 62
     0
370
    -2
100
AcDbLine
 10
521.8540717136248
 20
125.2524161748765
 30
0.0
 11
521.8540717136248
 21
204.4524161748765
 31
0.0
  0
INSERT
  5
6725
330
671F
100
AcDbEntity
  8
モデル
 62
     0
370
    -2
100
AcDbBlockReference
  2
_DOT
 10
521.8540717136248
 20
123.2524161748765
 30
0.0
 41
2.0
 42
2.0
 43
2.0
 50
270.0
  0
INSERT
  5
6726
330
671F
100
AcDbEntity
  8
モデル
 62
     0
370
    -2
100
AcDbBlockReference
  2
_DOT
 10
521.8540717136248
 20
206.4524161748765
 30
0.0
 41
2.0
 42
2.0
 43
2.0
 50
90.0
  0
MTEXT
  5
6727
330
671F
100
AcDbEntity
  8
モデル
 62
     0
100
AcDbMText
 10
518.3531338619304
 20
164.8524161748765
 30
0.0
 40
5.0
 41
0.0
 46
0.0
 71
     5
 72
     1
  1
\A1;83.5
  7
ＭＳ ゴシック
 11
0.0
 21
1.0
 31
0.0
 73
     1
 44
1.0
  0
POINT
  5
6728
330
671F
100
AcDbEntity
  8
Defpoints
 62
     0
100
AcDbPoint
 10
557.6587607549218
 20
123.2524161748765
 30
0.0
  0
POINT
  5
6729
330
671F
100
AcDbEntity
  8
Defpoints
 62
     0
100
AcDbPoint
 10
557.6587607549218
 20
206.4524161748765
 30
0.0
  0
POINT
  5
672A
330
671F
100
AcDbEntity
  8
Defpoints
 62
     0
100
AcDbPoint
 10
521.8540717136248
 20
206.4524161748765
 30
0.0
  0
ENDBLK
  5
6721
330
671F
100
AcDbEntity
  8
0
100
AcDbBlockEnd
  0
BLOCK
  5
672F
330
672E
100
AcDbEntity
  8
0
100
AcDbBlockBegin
  2
*D13
 70
     1
 10
0.0
 20
0.0
 30
0.0
  3
*D13
  1

  0
LINE
  5
6731
330
672E
100
AcDbEntity
  8
モデル
 62
     0
370
    -2
100
AcDbLine
 10
551.8587607549216
 20
124.7739158234765
 30
0.0
 11
534.4064216590614
 21
124.7739158234765
 31
0.0
  0
LINE
  5
6732
330
672E
100
AcDbEntity
  8
モデル
 62
     0
370
    -2
100
AcDbLine
 10
551.8587607549216
 20
204.9309165262765
 30
0.0
 11
534.4064216590614
 21
204.9309165262765
 31
0.0
  0
LINE
  5
6733
330
672E
100
AcDbEntity
  8
モデル
 62
     0
370
    -2
100
AcDbLine
 10
534.4064216590614
 20
126.7739158234765
 30
0.0
 11
534.4064216590614
 21
202.9309165262765
 31
0.0
  0
INSERT
  5
6734
330
672E
100
AcDbEntity
  8
モデル
 62
     0
370
    -2
100
AcDbBlockReference
  2
_DOT
 10
534.4064216590614
 20
124.7739158234765
 30
0.0
 41
2.0
 42
2.0
 43
2.0
 50
270.0
  0
INSERT
  5
6735
330
672E
100
AcDbEntity
  8
モデル
 62
     0
370
    -2
100
AcDbBlockReference
  2
_DOT
 10
534.4064216590614
 20
204.9309165262765
 30
0.0
 41
2.0
 42
2.0
 43
2.0
 50
90.0
  0
MTEXT
  5
6736
330
672E
100
AcDbEntity
  8
モデル
 62
     0
100
AcDbMText
 10
530.9064216590614
 20
164.8524161748765
 30
0.0
 40
5.0
 41
0.0
 46
0.0
 71
     5
 72
     1
  1
\A1;80
  7
ＭＳ ゴシック
 11
0.0
 21
1.0
 31
0.0
 73
     1
 44
1.0
  0
POINT
  5
6737
330
672E
100
AcDbEntity
  8
Defpoints
 62
     0
100
AcDbPoint
 10
556.8587607549216
 20
124.7739158234765
 30
0.0
  0
POINT
  5
6738
330
672E
100
AcDbEntity
  8
Defpoints
 62
     0
100
AcDbPoint
 10
556.8587607549216
 20
204.9309165262765
 30
0.0
  0
POINT
  5
6739
330
672E
100
AcDbEntity
  8
Defpoints
 62
     0
100
AcDbPoint
 10
534.4064216590614
 20
204.9309165262765
 30
0.0
  0
ENDBLK
  5
6730
330
672E
100
AcDbEntity
  8
0
100
AcDbBlockEnd
  0
BLOCK
  5
673E
330
673D
100
AcDbEntity
  8
0
100
AcDbBlockBegin
  2
*D14
 70
     1
 10
0.0
 20
0.0
 30
0.0
  3
*D14
  1

  0
LINE
  5
6740
330
673D
100
AcDbEntity
  8
モデル
 62
     0
370
    -2
100
AcDbLine
 10
556.8587607549216
 20
119.7739158234765
 30
0.0
 11
556.8587607549216
 21
105.1077700974091
 31
0.0
  0
LINE
  5
6741
330
673D
100
AcDbEntity
  8
モデル
 62
     0
370
    -2
100
AcDbLine
 10
545.6587607549218
 20
120.7823993903914
 30
0.0
 11
545.6587607549218
 21
105.1077700974091
 31
0.0
  0
LINE
  5
6742
330
673D
100
AcDbEntity
  8
モデル
 62
     0
370
    -2
100
AcDbLine
 10
554.8587607549216
 20
105.1077700974091
 30
0.0
 11
547.6587607549218
 21
105.1077700974091
 31
0.0
  0
INSERT
  5
6743
330
673D
100
AcDbEntity
  8
モデル
 62
     0
370
    -2
100
AcDbBlockReference
  2
_DOT
 10
556.8587607549216
 20
105.1077700974091
 30
0.0
 41
2.0
 42
2.0
 43
2.0
  0
INSERT
  5
6744
330
673D
100
AcDbEntity
  8
モデル
 62
     0
370
    -2
100
AcDbBlockReference
  2
_DOT
 10
545.6587607549218
 20
105.1077700974091
 30
0.0
 41
2.0
 42
2.0
 43
2.0
 50
180.0
  0
MTEXT
  5
6745
330
673D
100
AcDbEntity
  8
モデル
 62
     0
100
AcDbMText
 10
551.6587607549218
 20
108.358614163934
 30
0.0
 40
4.5
 41
0.0
 46
0.0
 71
     5
 72
     1
  1
\A1;11
  7
ＭＳ ゴシック
 73
     1
 44
1.0
  0
POINT
  5
6746
330
673D
100
AcDbEntity
  8
Defpoints
 62
     0
100
AcDbPoint
 10
556.8587607549216
 20
124.7739158234765
 30
0.0
  0
POINT
  5
6747
330
673D
100
AcDbEntity
  8
Defpoints
 62
     0
100
AcDbPoint
 10
545.6587607549218
 20
125.7823993903914
 30
0.0
  0
POINT
  5
6748
330
673D
100
AcDbEntity
  8
Defpoints
 62
     0
100
AcDbPoint
 10
545.6587607549218
 20
105.1077700974091
 30
0.0
  0
ENDBLK
  5
673F
330
673D
100
AcDbEntity
  8
0
100
AcDbBlockEnd
  0
BLOCK
  5
6750
330
674F
100
AcDbEntity
  8
0
100
AcDbBlockBegin
  2
*D15
 70
     1
 10
0.0
 20
0.0
 30
0.0
  3
*D15
  1

  0
LINE
  5
6752
330
674F
100
AcDbEntity
  8
モデル
 62
     0
370
    -2
100
AcDbLine
 10
384.477629308005
 20
324.5660637775917
 30
0.0
 11
384.477629308005
 21
304.2074844481683
 31
0.0
  0
LINE
  5
6753
330
674F
100
AcDbEntity
  8
モデル
 62
     0
370
    -2
100
AcDbLine
 10
467.677629308005
 20
324.5660637775916
 30
0.0
 11
467.677629308005
 21
304.2074844481683
 31
0.0
  0
LINE
  5
6754
330
674F
100
AcDbEntity
  8
モデル
 62
     0
370
    -2
100
AcDbLine
 10
386.477629308005
 20
304.2074844481683
 30
0.0
 11
465.677629308005
 21
304.2074844481683
 31
0.0
  0
INSERT
  5
6755
330
674F
100
AcDbEntity
  8
モデル
 62
     0
370
    -2
100
AcDbBlockReference
  2
_DOT
 10
384.477629308005
 20
304.2074844481683
 30
0.0
 41
2.0
 42
2.0
 43
2.0
 50
180.0
  0
INSERT
  5
6756
330
674F
100
AcDbEntity
  8
モデル
 62
     0
370
    -2
100
AcDbBlockReference
  2
_DOT
 10
467.677629308005
 20
304.2074844481683
 30
0.0
 41
2.0
 42
2.0
 43
2.0
  0
MTEXT
  5
6757
330
674F
100
AcDbEntity
  8
モデル
 62
     0
100
AcDbMText
 10
426.077629308005
 20
307.7084222998627
 30
0.0
 40
5.0
 41
0.0
 46
0.0
 71
     5
 72
     1
  1
\A1;83.5
  7
ＭＳ ゴシック
 73
     1
 44
1.0
  0
POINT
  5
6758
330
674F
100
AcDbEntity
  8
Defpoints
 62
     0
100
AcDbPoint
 10
384.477629308005
 20
329.5660637775917
 30
0.0
  0
POINT
  5
6759
330
674F
100
AcDbEntity
  8
Defpoints
 62
     0
100
AcDbPoint
 10
467.677629308005
 20
329.5660637775916
 30
0.0
  0
POINT
  5
675A
330
674F
100
AcDbEntity
  8
Defpoints
 62
     0
100
AcDbPoint
 10
467.677629308005
 20
304.2074844481683
 30
0.0
  0
ENDBLK
  5
6751
330
674F
100
AcDbEntity
  8
0
100
AcDbBlockEnd
  0
BLOCK
  5
675F
330
675E
100
AcDbEntity
  8
0
100
AcDbBlockBegin
  2
*D16
 70
     1
 10
0.0
 20
0.0
 30
0.0
  3
*D16
  1

  0
LINE
  5
6761
330
675E
100
AcDbEntity
  8
モデル
 62
     0
370
    -2
100
AcDbLine
 10
385.9991289566051
 20
336.8660637775916
 30
0.0
 11
385.9991289566051
 21
365.1940208148804
 31
0.0
  0
LINE
  5
6762
330
675E
100
AcDbEntity
  8
モデル
 62
     0
370
    -2
100
AcDbLine
 10
466.1561296594051
 20
336.8660637775916
 30
0.0
 11
466.1561296594051
 21
365.1940208148804
 31
0.0
  0
LINE
  5
6763
330
675E
100
AcDbEntity
  8
モデル
 62
     0
370
    -2
100
AcDbLine
 10
387.9991289566051
 20
365.1940208148804
 30
0.0
 11
464.1561296594051
 21
365.1940208148804
 31
0.0
  0
INSERT
  5
6764
330
675E
100
AcDbEntity
  8
モデル
 62
     0
370
    -2
100
AcDbBlockReference
  2
_DOT
 10
385.9991289566051
 20
365.1940208148804
 30
0.0
 41
2.0
 42
2.0
 43
2.0
 50
180.0
  0
INSERT
  5
6765
330
675E
100
AcDbEntity
  8
モデル
 62
     0
370
    -2
100
AcDbBlockReference
  2
_DOT
 10
466.1561296594051
 20
365.1940208148804
 30
0.0
 41
2.0
 42
2.0
 43
2.0
  0
MTEXT
  5
6766
330
675E
100
AcDbEntity
  8
モデル
 62
     0
100
AcDbMText
 10
426.0776293080051
 20
368.6940208148804
 30
0.0
 40
5.0
 41
0.0
 46
0.0
 71
     5
 72
     1
  1
\A1;80
  7
ＭＳ ゴシック
 73
     1
 44
1.0
  0
POINT
  5
6767
330
675E
100
AcDbEntity
  8
Defpoints
 62
     0
100
AcDbPoint
 10
385.9991289566051
 20
331.8660637775916
 30
0.0
  0
POINT
  5
6768
330
675E
100
AcDbEntity
  8
Defpoints
 62
     0
100
AcDbPoint
 10
466.1561296594051
 20
331.8660637775916
 30
0.0
  0
POINT
  5
6769
330
675E
100
AcDbEntity
  8
Defpoints
 62
     0
100
AcDbPoint
 10
466.1561296594051
 20
365.1940208148804
 30
0.0
  0
ENDBLK
  5
6760
330
675E
100
AcDbEntity
  8
0
100
AcDbBlockEnd
  0
BLOCK
  5
67D8
330
67D7
100
AcDbEntity
  8
0
100
AcDbBlockBegin
  2
*D17
 70
     1
 10
0.0
 20
0.0
 30
0.0
  3
*D17
  1

  0
LINE
  5
67DA
330
67D7
100
AcDbEntity
  8
モデル
 62
     0
370
    -2
100
AcDbLine
 10
156.7010398322577
 20
164.8524161748765
 30
0.0
 11
107.6607665545327
 21
164.8524161748765
 31
0.0
  0
LINE
  5
67DB
330
67D7
100
AcDbEntity
  8
モデル
 62
     0
370
    -2
100
AcDbLine
 10
134.8695272872739
 20
123.2524161748765
 30
0.0
 11
107.6607665545327
 21
123.2524161748765
 31
0.0
  0
LINE
  5
67DC
330
67D7
100
AcDbEntity
  8
モデル
 62
     0
370
    -2
100
AcDbLine
 10
107.6607665545327
 20
162.8524161748765
 30
0.0
 11
107.6607665545327
 21
125.2524161748765
 31
0.0
  0
INSERT
  5
67DD
330
67D7
100
AcDbEntity
  8
モデル
 62
     0
370
    -2
100
AcDbBlockReference
  2
_DOT
 10
107.6607665545327
 20
164.8524161748765
 30
0.0
 41
2.0
 42
2.0
 43
2.0
 50
90.00000000000001
  0
INSERT
  5
67DE
330
67D7
100
AcDbEntity
  8
モデル
 62
     0
370
    -2
100
AcDbBlockReference
  2
_DOT
 10
107.6607665545327
 20
123.2524161748765
 30
0.0
 41
2.0
 42
2.0
 43
2.0
 50
270.0
  0
MTEXT
  5
67DF
330
67D7
100
AcDbEntity
  8
モデル
 62
     0
100
AcDbMText
 10
104.1598287028383
 20
144.0524161748765
 30
0.0
 40
5.0
 41
0.0
 46
0.0
 71
     5
 72
     1
  1
\A1;41.75
  7
ＭＳ ゴシック
 11
-3.416070845000482E-16
 21
1.0
 31
0.0
 73
     1
 44
1.0
  0
POINT
  5
67E0
330
67D7
100
AcDbEntity
  8
Defpoints
 62
     0
100
AcDbPoint
 10
161.7010398322577
 20
164.8524161748765
 30
0.0
  0
POINT
  5
67E1
330
67D7
100
AcDbEntity
  8
Defpoints
 62
     0
100
AcDbPoint
 10
139.8695272872739
 20
123.2524161748765
 30
0.0
  0
POINT
  5
67E2
330
67D7
100
AcDbEntity
  8
Defpoints
 62
     0
100
AcDbPoint
 10
107.6607665545327
 20
123.2524161748765
 30
0.0
  0
ENDBLK
  5
67D9
330
67D7
100
AcDbEntity
  8
0
100
AcDbBlockEnd
  0
BLOCK
  5
67E4
330
67E3
100
AcDbEntity
  8
0
100
AcDbBlockBegin
  2
*D18
 70
     1
 10
0.0
 20
0.0
 30
0.0
  3
*D18
  1

  0
LINE
  5
67E6
330
67E3
100
AcDbEntity
  8
モデル
 62
     0
370
    -2
100
AcDbLine
 10
172.7010398322577
 20
155.8524161748765
 30
0.0
 11
172.7010398322577
 21
96.09085951933706
 31
0.0
  0
LINE
  5
67E7
330
67E3
100
AcDbEntity
  8
モデル
 62
     0
370
    -2
100
AcDbLine
 10
227.7010398322577
 20
105.8555527362483
 30
0.0
 11
227.7010398322577
 21
96.09085951933706
 31
0.0
  0
LINE
  5
67E8
330
67E3
100
AcDbEntity
  8
モデル
 62
     0
370
    -2
100
AcDbLine
 10
174.7010398322577
 20
96.09085951933706
 30
0.0
 11
225.7010398322577
 21
96.09085951933706
 31
0.0
  0
INSERT
  5
67E9
330
67E3
100
AcDbEntity
  8
モデル
 62
     0
370
    -2
100
AcDbBlockReference
  2
_DOT
 10
172.7010398322577
 20
96.09085951933706
 30
0.0
 41
2.0
 42
2.0
 43
2.0
 50
180.0
  0
INSERT
  5
67EA
330
67E3
100
AcDbEntity
  8
モデル
 62
     0
370
    -2
100
AcDbBlockReference
  2
_DOT
 10
227.7010398322577
 20
96.09085951933706
 30
0.0
 41
2.0
 42
2.0
 43
2.0
  0
MTEXT
  5
67EB
330
67E3
100
AcDbEntity
  8
モデル
 62
     0
100
AcDbMText
 10
200.2010398322577
 20
99.59179737103145
 30
0.0
 40
5.0
 41
0.0
 46
0.0
 71
     5
 72
     1
  1
\A1;55
  7
ＭＳ ゴシック
 73
     1
 44
1.0
  0
POINT
  5
67EC
330
67E3
100
AcDbEntity
  8
Defpoints
 62
     0
100
AcDbPoint
 10
172.7010398322577
 20
160.8524161748765
 30
0.0
  0
POINT
  5
67ED
330
67E3
100
AcDbEntity
  8
Defpoints
 62
     0
100
AcDbPoint
 10
227.7010398322577
 20
110.8555527362483
 30
0.0
  0
POINT
  5
67EE
330
67E3
100
AcDbEntity
  8
Defpoints
 62
     0
100
AcDbPoint
 10
227.7010398322577
 20
96.09085951933706
 30
0.0
  0
ENDBLK
  5
67E5
330
67E3
100
AcDbEntity
  8
0
100
AcDbBlockEnd
  0
BLOCK
  5
67F0
330
67EF
100
AcDbEntity
  8
0
100
AcDbBlockBegin
  2
*D19
 70
     1
 10
0.0
 20
0.0
 30
0.0
  3
*D19
  1

  0
LINE
  5
67F2
330
67EF
100
AcDbEntity
  8
モデル
 62
     0
370
    -2
100
AcDbLine
 10
46.11990838534086
 20
123.2524161748765
 30
0.0
 11
76.9245974266379
 21
123.2524161748765
 31
0.0
  0
LINE
  5
67F3
330
67EF
100
AcDbEntity
  8
モデル
 62
     0
370
    -2
100
AcDbLine
 10
46.11990838534086
 20
206.4524161748765
 30
0.0
 11
76.92459742663787
 21
206.4524161748765
 31
0.0
  0
LINE
  5
67F4
330
67EF
100
AcDbEntity
  8
モデル
 62
     0
370
    -2
100
AcDbLine
 10
76.9245974266379
 20
125.2524161748765
 30
0.0
 11
76.92459742663787
 21
204.4524161748765
 31
0.0
  0
INSERT
  5
67F5
330
67EF
100
AcDbEntity
  8
モデル
 62
     0
370
    -2
100
AcDbBlockReference
  2
_DOT
 10
76.9245974266379
 20
123.2524161748765
 30
0.0
 41
2.0
 42
2.0
 43
2.0
 50
270.0
  0
INSERT
  5
67F6
330
67EF
100
AcDbEntity
  8
モデル
 62
     0
370
    -2
100
AcDbBlockReference
  2
_DOT
 10
76.92459742663787
 20
206.4524161748765
 30
0.0
 41
2.0
 42
2.0
 43
2.0
 50
90.00000000000001
  0
MTEXT
  5
67F7
330
67EF
100
AcDbEntity
  8
モデル
 62
     0
100
AcDbMText
 10
73.42365957494351
 20
164.8524161748765
 30
0.0
 40
5.0
 41
0.0
 46
0.0
 71
     5
 72
     1
  1
\A1;83.5
  7
ＭＳ ゴシック
 11
-3.416070845000481E-16
 21
1.0
 31
0.0
 73
     1
 44
1.0
  0
POINT
  5
67F8
330
67EF
100
AcDbEntity
  8
Defpoints
 62
     0
100
AcDbPoint
 10
41.11990838534086
 20
123.2524161748765
 30
0.0
  0
POINT
  5
67F9
330
67EF
100
AcDbEntity
  8
Defpoints
 62
     0
100
AcDbPoint
 10
41.11990838534086
 20
206.4524161748765
 30
0.0
  0
POINT
  5
67FA
330
67EF
100
AcDbEntity
  8
Defpoints
 62
     0
100
AcDbPoint
 10
76.92459742663787
 20
206.4524161748765
 30
0.0
  0
ENDBLK
  5
67F1
330
67EF
100
AcDbEntity
  8
0
100
AcDbBlockEnd
  0
BLOCK
  5
67FC
330
67FB
100
AcDbEntity
  8
0
100
AcDbBlockBegin
  2
*D20
 70
     1
 10
0.0
 20
0.0
 30
0.0
  3
*D20
  1

  0
LINE
  5
67FE
330
67FB
100
AcDbEntity
  8
モデル
 62
     0
370
    -2
100
AcDbLine
 10
46.91990838534105
 20
124.7739158234765
 30
0.0
 11
64.3722474812013
 21
124.7739158234765
 31
0.0
  0
LINE
  5
67FF
330
67FB
100
AcDbEntity
  8
モデル
 62
     0
370
    -2
100
AcDbLine
 10
46.91990838534105
 20
204.9309165262765
 30
0.0
 11
64.37224748120127
 21
204.9309165262765
 31
0.0
  0
LINE
  5
6800
330
67FB
100
AcDbEntity
  8
モデル
 62
     0
370
    -2
100
AcDbLine
 10
64.3722474812013
 20
126.7739158234765
 30
0.0
 11
64.37224748120127
 21
202.9309165262765
 31
0.0
  0
INSERT
  5
6801
330
67FB
100
AcDbEntity
  8
モデル
 62
     0
370
    -2
100
AcDbBlockReference
  2
_DOT
 10
64.3722474812013
 20
124.7739158234765
 30
0.0
 41
2.0
 42
2.0
 43
2.0
 50
270.0
  0
INSERT
  5
6802
330
67FB
100
AcDbEntity
  8
モデル
 62
     0
370
    -2
100
AcDbBlockReference
  2
_DOT
 10
64.37224748120127
 20
204.9309165262765
 30
0.0
 41
2.0
 42
2.0
 43
2.0
 50
90.00000000000001
  0
MTEXT
  5
6803
330
67FB
100
AcDbEntity
  8
モデル
 62
     0
100
AcDbMText
 10
60.87224748120128
 20
164.8524161748765
 30
0.0
 40
5.0
 41
0.0
 46
0.0
 71
     5
 72
     1
  1
\A1;80
  7
ＭＳ ゴシック
 11
-3.545755103260894E-16
 21
1.0
 31
0.0
 73
     1
 44
1.0
  0
POINT
  5
6804
330
67FB
100
AcDbEntity
  8
Defpoints
 62
     0
100
AcDbPoint
 10
41.91990838534105
 20
124.7739158234765
 30
0.0
  0
POINT
  5
6805
330
67FB
100
AcDbEntity
  8
Defpoints
 62
     0
100
AcDbPoint
 10
41.91990838534105
 20
204.9309165262765
 30
0.0
  0
POINT
  5
6806
330
67FB
100
AcDbEntity
  8
Defpoints
 62
     0
100
AcDbPoint
 10
64.37224748120127
 20
204.9309165262765
 30
0.0
  0
ENDBLK
  5
67FD
330
67FB
100
AcDbEntity
  8
0
100
AcDbBlockEnd
  0
BLOCK
  5
6808
330
6807
100
AcDbEntity
  8
0
100
AcDbBlockBegin
  2
*D21
 70
     1
 10
0.0
 20
0.0
 30
0.0
  3
*D21
  1

  0
LINE
  5
680A
330
6807
100
AcDbEntity
  8
モデル
 62
     0
370
    -2
100
AcDbLine
 10
41.91990838534105
 20
119.7739158234765
 30
0.0
 11
41.91990838534105
 21
105.1077700974091
 31
0.0
  0
LINE
  5
680B
330
6807
100
AcDbEntity
  8
モデル
 62
     0
370
    -2
100
AcDbLine
 10
53.11990838534086
 20
120.7823993903914
 30
0.0
 11
53.11990838534086
 21
105.1077700974091
 31
0.0
  0
LINE
  5
680C
330
6807
100
AcDbEntity
  8
モデル
 62
     0
370
    -2
100
AcDbLine
 10
43.91990838534105
 20
105.1077700974091
 30
0.0
 11
51.11990838534086
 21
105.1077700974091
 31
0.0
  0
INSERT
  5
680D
330
6807
100
AcDbEntity
  8
モデル
 62
     0
370
    -2
100
AcDbBlockReference
  2
_DOT
 10
41.91990838534105
 20
105.1077700974091
 30
0.0
 41
2.0
 42
2.0
 43
2.0
 50
180.0
  0
INSERT
  5
680E
330
6807
100
AcDbEntity
  8
モデル
 62
     0
370
    -2
100
AcDbBlockReference
  2
_DOT
 10
53.11990838534086
 20
105.1077700974091
 30
0.0
 41
2.0
 42
2.0
 43
2.0
  0
MTEXT
  5
680F
330
6807
100
AcDbEntity
  8
モデル
 62
     0
100
AcDbMText
 10
47.11990838534086
 20
108.358614163934
 30
0.0
 40
4.5
 41
0.0
 46
0.0
 71
     5
 72
     1
  1
\A1;11
  7
ＭＳ ゴシック
 73
     1
 44
1.0
  0
POINT
  5
6810
330
6807
100
AcDbEntity
  8
Defpoints
 62
     0
100
AcDbPoint
 10
41.91990838534105
 20
124.7739158234765
 30
0.0
  0
POINT
  5
6811
330
6807
100
AcDbEntity
  8
Defpoints
 62
     0
100
AcDbPoint
 10
53.11990838534086
 20
125.7823993903914
 30
0.0
  0
POINT
  5
6812
330
6807
100
AcDbEntity
  8
Defpoints
 62
     0
100
AcDbPoint
 10
53.11990838534086
 20
105.1077700974091
 30
0.0
  0
ENDBLK
  5
6809
330
6807
100
AcDbEntity
  8
0
100
AcDbBlockEnd
  0
BLOCK
  5
6814
330
6813
100
AcDbEntity
  8
0
100
AcDbBlockBegin
  2
*D22
 70
     1
 10
0.0
 20
0.0
 30
0.0
  3
*D22
  1

  0
LINE
  5
6816
330
6813
100
AcDbEntity
  8
モデル
 62
     0
370
    -2
100
AcDbLine
 10
214.3010398322576
 20
324.5660637775917
 30
0.0
 11
214.3010398322576
 21
304.2074844481683
 31
0.0
  0
LINE
  5
6817
330
6813
100
AcDbEntity
  8
モデル
 62
     0
370
    -2
100
AcDbLine
 10
131.1010398322576
 20
324.5660637775916
 30
0.0
 11
131.1010398322576
 21
304.2074844481683
 31
0.0
  0
LINE
  5
6818
330
6813
100
AcDbEntity
  8
モデル
 62
     0
370
    -2
100
AcDbLine
 10
212.3010398322576
 20
304.2074844481683
 30
0.0
 11
133.1010398322576
 21
304.2074844481683
 31
0.0
  0
INSERT
  5
6819
330
6813
100
AcDbEntity
  8
モデル
 62
     0
370
    -2
100
AcDbBlockReference
  2
_DOT
 10
214.3010398322576
 20
304.2074844481683
 30
0.0
 41
2.0
 42
2.0
 43
2.0
  0
INSERT
  5
681A
330
6813
100
AcDbEntity
  8
モデル
 62
     0
370
    -2
100
AcDbBlockReference
  2
_DOT
 10
131.1010398322576
 20
304.2074844481683
 30
0.0
 41
2.0
 42
2.0
 43
2.0
 50
180.0
  0
MTEXT
  5
681B
330
6813
100
AcDbEntity
  8
モデル
 62
     0
100
AcDbMText
 10
172.7010398322576
 20
307.7084222998627
 30
0.0
 40
5.0
 41
0.0
 46
0.0
 71
     5
 72
     1
  1
\A1;83.5
  7
ＭＳ ゴシック
 73
     1
 44
1.0
  0
POINT
  5
681C
330
6813
100
AcDbEntity
  8
Defpoints
 62
     0
100
AcDbPoint
 10
214.3010398322576
 20
329.5660637775917
 30
0.0
  0
POINT
  5
681D
330
6813
100
AcDbEntity
  8
Defpoints
 62
     0
100
AcDbPoint
 10
131.1010398322576
 20
329.5660637775916
 30
0.0
  0
POINT
  5
681E
330
6813
100
AcDbEntity
  8
Defpoints
 62
     0
100
AcDbPoint
 10
131.1010398322576
 20
304.2074844481683
 30
0.0
  0
ENDBLK
  5
6815
330
6813
100
AcDbEntity
  8
0
100
AcDbBlockEnd
  0
BLOCK
  5
6820
330
681F
100
AcDbEntity
  8
0
100
AcDbBlockBegin
  2
*D23
 70
     1
 10
0.0
 20
0.0
 30
0.0
  3
*D23
  1

  0
LINE
  5
6822
330
681F
100
AcDbEntity
  8
モデル
 62
     0
370
    -2
100
AcDbLine
 10
212.7795401836575
 20
336.8660637775916
 30
0.0
 11
212.7795401836575
 21
365.1940208148804
 31
0.0
  0
LINE
  5
6823
330
681F
100
AcDbEntity
  8
モデル
 62
     0
370
    -2
100
AcDbLine
 10
132.9635386608888
 20
337.000386926782
 30
0.0
 11
132.9635386608888
 21
365.1940208148804
 31
0.0
  0
LINE
  5
6824
330
681F
100
AcDbEntity
  8
モデル
 62
     0
370
    -2
100
AcDbLine
 10
210.7795401836575
 20
365.1940208148804
 30
0.0
 11
134.9635386608888
 21
365.1940208148804
 31
0.0
  0
INSERT
  5
6825
330
681F
100
AcDbEntity
  8
モデル
 62
     0
370
    -2
100
AcDbBlockReference
  2
_DOT
 10
212.7795401836575
 20
365.1940208148804
 30
0.0
 41
2.0
 42
2.0
 43
2.0
  0
INSERT
  5
6826
330
681F
100
AcDbEntity
  8
モデル
 62
     0
370
    -2
100
AcDbBlockReference
  2
_DOT
 10
132.9635386608888
 20
365.1940208148804
 30
0.0
 41
2.0
 42
2.0
 43
2.0
 50
180.0
  0
MTEXT
  5
6827
330
681F
100
AcDbEntity
  8
モデル
 62
     0
100
AcDbMText
 10
172.8715394222732
 20
368.6940208148804
 30
0.0
 40
5.0
 41
0.0
 46
0.0
 71
     5
 72
     1
  1
\A1;80
  7
ＭＳ ゴシック
 73
     1
 44
1.0
  0
POINT
  5
6828
330
681F
100
AcDbEntity
  8
Defpoints
 62
     0
100
AcDbPoint
 10
212.7795401836575
 20
331.8660637775916
 30
0.0
  0
POINT
  5
6829
330
681F
100
AcDbEntity
  8
Defpoints
 62
     0
100
AcDbPoint
 10
132.9635386608888
 20
332.000386926782
 30
0.0
  0
POINT
  5
682A
330
681F
100
AcDbEntity
  8
Defpoints
 62
     0
100
AcDbPoint
 10
132.9635386608888
 20
365.1940208148804
 30
0.0
  0
ENDBLK
  5
6821
330
681F
100
AcDbEntity
  8
0
100
AcDbBlockEnd
  0
BLOCK
  5
6880
330
687F
100
AcDbEntity
  8
0
100
AcDbBlockBegin
  2
*D24
 70
     1
 10
0.0
 20
0.0
 30
0.0
  3
*D24
  1

  0
LINE
  5
6882
330
687F
100
AcDbEntity
  8
モデル
 62
     0
370
    -2
100
AcDbLine
 10
278.7644519482334
 20
119.0401733665765
 30
0.0
 11
278.7644519482334
 21
96.09085951933706
 31
0.0
  0
LINE
  5
6883
330
687F
100
AcDbEntity
  8
モデル
 62
     0
370
    -2
100
AcDbLine
 10
318.7644519482335
 20
119.0401733665765
 30
0.0
 11
318.7644519482335
 21
96.09085951933706
 31
0.0
  0
LINE
  5
6884
330
687F
100
AcDbEntity
  8
モデル
 62
     0
370
    -2
100
AcDbLine
 10
280.7644519482334
 20
96.09085951933706
 30
0.0
 11
316.7644519482335
 21
96.09085951933706
 31
0.0
  0
INSERT
  5
6885
330
687F
100
AcDbEntity
  8
モデル
 62
     0
370
    -2
100
AcDbBlockReference
  2
_DOT
 10
278.7644519482334
 20
96.09085951933706
 30
0.0
 41
2.0
 42
2.0
 43
2.0
 50
180.0
  0
INSERT
  5
6886
330
687F
100
AcDbEntity
  8
モデル
 62
     0
370
    -2
100
AcDbBlockReference
  2
_DOT
 10
318.7644519482335
 20
96.09085951933706
 30
0.0
 41
2.0
 42
2.0
 43
2.0
  0
MTEXT
  5
6887
330
687F
100
AcDbEntity
  8
モデル
 62
     0
100
AcDbMText
 10
298.7644519482334
 20
99.341703585862
 30
0.0
 40
4.5
 41
0.0
 46
0.0
 71
     5
 72
     1
  1
\A1;DT40-50
  7
ＭＳ ゴシック
 73
     1
 44
1.0
  0
POINT
  5
6888
330
687F
100
AcDbEntity
  8
Defpoints
 62
     0
100
AcDbPoint
 10
278.7644519482334
 20
124.0401733665765
 30
0.0
  0
POINT
  5
6889
330
687F
100
AcDbEntity
  8
Defpoints
 62
     0
100
AcDbPoint
 10
318.7644519482335
 20
124.0401733665765
 30
0.0
  0
POINT
  5
688A
330
687F
100
AcDbEntity
  8
Defpoints
 62
     0
100
AcDbPoint
 10
318.7644519482335
 20
96.09085951933706
 30
0.0
  0
ENDBLK
  5
6881
330
687F
100
AcDbEntity
  8
0
100
AcDbBlockEnd
  0
BLOCK
  5
68F1
330
68F0
100
AcDbEntity
  8
0
100
AcDbBlockBegin
  2
*D25
 70
     1
 10
0.0
 20
0.0
 30
0.0
  3
*D25
  1

  0
LINE
  5
68F3
330
68F0
100
AcDbEntity
  8
モデル
 62
     0
370
    -2
100
AcDbLine
 10
559.1587607549218
 20
119.9561967664591
 30
0.0
 11
559.1587607549218
 21
94.92545214839562
 31
0.0
  0
LINE
  5
68F4
330
68F0
100
AcDbEntity
  8
モデル
 62
     0
370
    -2
100
AcDbLine
 10
545.6966023936345
 20
122.5011699831949
 30
0.0
 11
545.6966023936345
 21
94.92545214839562
 31
0.0
  0
LINE
  5
68F5
330
68F0
100
AcDbEntity
  8
モデル
 62
     0
370
    -2
100
AcDbLine
 10
557.1587607549218
 20
94.92545214839562
 30
0.0
 11
547.6966023936345
 21
94.92545214839562
 31
0.0
  0
INSERT
  5
68F6
330
68F0
100
AcDbEntity
  8
モデル
 62
     0
370
    -2
100
AcDbBlockReference
  2
_DOT
 10
559.1587607549218
 20
94.92545214839562
 30
0.0
 41
2.0
 42
2.0
 43
2.0
  0
INSERT
  5
68F7
330
68F0
100
AcDbEntity
  8
モデル
 62
     0
370
    -2
100
AcDbBlockReference
  2
_DOT
 10
545.6966023936345
 20
94.92545214839562
 30
0.0
 41
2.0
 42
2.0
 43
2.0
 50
180.0
  0
MTEXT
  5
68F8
330
68F0
100
AcDbEntity
  8
モデル
 62
     0
100
AcDbMText
 10
552.4276815742782
 20
98.42639000009001
 30
0.0
 40
5.0
 41
0.0
 46
0.0
 71
     5
 72
     1
  1
\A1;14
  7
ＭＳ ゴシック
 73
     1
 44
1.0
  0
POINT
  5
68F9
330
68F0
100
AcDbEntity
  8
Defpoints
 62
     0
100
AcDbPoint
 10
559.1587607549218
 20
124.9561967664591
 30
0.0
  0
POINT
  5
68FA
330
68F0
100
AcDbEntity
  8
Defpoints
 62
     0
100
AcDbPoint
 10
545.6966023936345
 20
127.5011699831949
 30
0.0
  0
POINT
  5
68FB
330
68F0
100
AcDbEntity
  8
Defpoints
 62
     0
100
AcDbPoint
 10
545.6966023936345
 20
94.92545214839562
 30
0.0
  0
ENDBLK
  5
68F2
330
68F0
100
AcDbEntity
  8
0
100
AcDbBlockEnd
  0
BLOCK
  5
6902
330
6901
100
AcDbEntity
  8
0
100
AcDbBlockBegin
  2
*D26
 70
     1
 10
0.0
 20
0.0
 30
0.0
  3
*D26
  1

  0
LINE
  5
6904
330
6901
100
AcDbEntity
  8
モデル
 62
     0
370
    -2
100
AcDbLine
 10
320.2644519482333
 20
374.2410853761149
 30
0.0
 11
320.2644519482333
 21
389.90988759134
 31
0.0
  0
LINE
  5
6905
330
6901
100
AcDbEntity
  8
モデル
 62
     0
370
    -2
100
AcDbLine
 10
306.7644519482333
 20
372.0270353991358
 30
0.0
 11
306.7644519482333
 21
389.90988759134
 31
0.0
  0
LINE
  5
6906
330
6901
100
AcDbEntity
  8
モデル
 62
     0
370
    -2
100
AcDbLine
 10
318.2644519482333
 20
389.90988759134
 30
0.0
 11
308.7644519482333
 21
389.90988759134
 31
0.0
  0
INSERT
  5
6907
330
6901
100
AcDbEntity
  8
モデル
 62
     0
370
    -2
100
AcDbBlockReference
  2
_DOT
 10
320.2644519482333
 20
389.90988759134
 30
0.0
 41
2.0
 42
2.0
 43
2.0
  0
INSERT
  5
6908
330
6901
100
AcDbEntity
  8
モデル
 62
     0
370
    -2
100
AcDbBlockReference
  2
_DOT
 10
306.7644519482333
 20
389.90988759134
 30
0.0
 41
2.0
 42
2.0
 43
2.0
 50
180.0
  0
MTEXT
  5
6909
330
6901
100
AcDbEntity
  8
モデル
 62
     0
100
AcDbMText
 10
313.5144519482333
 20
393.4108254430344
 30
0.0
 40
5.0
 41
0.0
 46
0.0
 71
     5
 72
     1
  1
\A1;14
  7
ＭＳ ゴシック
 73
     1
 44
1.0
  0
POINT
  5
690A
330
6901
100
AcDbEntity
  8
Defpoints
 62
     0
100
AcDbPoint
 10
320.2644519482333
 20
369.2410853761149
 30
0.0
  0
POINT
  5
690B
330
6901
100
AcDbEntity
  8
Defpoints
 62
     0
100
AcDbPoint
 10
306.7644519482333
 20
367.0270353991358
 30
0.0
  0
POINT
  5
690C
330
6901
100
AcDbEntity
  8
Defpoints
 62
     0
100
AcDbPoint
 10
306.7644519482333
 20
389.90988759134
 30
0.0
  0
ENDBLK
  5
6903
330
6901
100
AcDbEntity
  8
0
100
AcDbBlockEnd
  0
BLOCK
  5
6911
330
6910
100
AcDbEntity
  8
0
100
AcDbBlockBegin
  2
*D27
 70
     1
 10
0.0
 20
0.0
 30
0.0
  3
*D27
  1

  0
LINE
  5
6913
330
6910
100
AcDbEntity
  8
モデル
 62
     0
370
    -2
100
AcDbLine
 10
39.61990838534086
 20
120.5042151242766
 30
0.0
 11
39.61990838534086
 21
95.18274846391931
 31
0.0
  0
LINE
  5
6914
330
6910
100
AcDbEntity
  8
モデル
 62
     0
370
    -2
100
AcDbLine
 10
53.07922133412593
 20
122.4870201961533
 30
0.0
 11
53.07922133412593
 21
95.18274846391931
 31
0.0
  0
LINE
  5
6915
330
6910
100
AcDbEntity
  8
モデル
 62
     0
370
    -2
100
AcDbLine
 10
41.61990838534086
 20
95.18274846391931
 30
0.0
 11
51.07922133412593
 21
95.18274846391931
 31
0.0
  0
INSERT
  5
6916
330
6910
100
AcDbEntity
  8
モデル
 62
     0
370
    -2
100
AcDbBlockReference
  2
_DOT
 10
39.61990838534086
 20
95.18274846391931
 30
0.0
 41
2.0
 42
2.0
 43
2.0
 50
180.0
  0
INSERT
  5
6917
330
6910
100
AcDbEntity
  8
モデル
 62
     0
370
    -2
100
AcDbBlockReference
  2
_DOT
 10
53.07922133412593
 20
95.18274846391931
 30
0.0
 41
2.0
 42
2.0
 43
2.0
  0
MTEXT
  5
6918
330
6910
100
AcDbEntity
  8
モデル
 62
     0
100
AcDbMText
 10
46.34956485973339
 20
98.6836863156137
 30
0.0
 40
5.0
 41
0.0
 46
0.0
 71
     5
 72
     1
  1
\A1;14
  7
ＭＳ ゴシック
 73
     1
 44
1.0
  0
POINT
  5
6919
330
6910
100
AcDbEntity
  8
Defpoints
 62
     0
100
AcDbPoint
 10
39.61990838534086
 20
125.5042151242766
 30
0.0
  0
POINT
  5
691A
330
6910
100
AcDbEntity
  8
Defpoints
 62
     0
100
AcDbPoint
 10
53.07922133412593
 20
127.4870201961533
 30
0.0
  0
POINT
  5
691B
330
6910
100
AcDbEntity
  8
Defpoints
 62
     0
100
AcDbPoint
 10
53.07922133412593
 20
95.18274846391931
 30
0.0
  0
ENDBLK
  5
6912
330
6910
100
AcDbEntity
  8
0
100
AcDbBlockEnd
  0
BLOCK
  5
6931
330
6930
100
AcDbEntity
  8
0
100
AcDbBlockBegin
  2
_Open30
 70
     0
 10
0.0
 20
0.0
 30
0.0
  3
_Open30
  1
_Open30
  0
LINE
  5
6932
330
6930
100
AcDbEntity
  8
0
  6
ByBlock
 62
     0
370
    -2
100
AcDbLine
 10
-1.0
 20
0.26794919
 30
0.0
 11
0.0
 21
0.0
 31
0.0
  0
LINE
  5
6933
330
6930
100
AcDbEntity
  8
0
  6
ByBlock
 62
     0
370
    -2
100
AcDbLine
 10
0.0
 20
0.0
 30
0.0
 11
-1.0
 21
-0.26794919
 31
0.0
  0
LINE
  5
6934
330
6930
100
AcDbEntity
  8
0
  6
ByBlock
 62
     0
370
    -2
100
AcDbLine
 10
0.0
 20
0.0
 30
0.0
 11
-1.0
 21
0.0
 31
0.0
  0
ENDBLK
  5
6935
330
6930
100
AcDbEntity
  8
0
100
AcDbBlockEnd
  0
BLOCK
  5
6942
330
6941
100
AcDbEntity
  8
0
100
AcDbBlockBegin
  2
*D29
 70
     1
 10
0.0
 20
0.0
 30
0.0
  3
*D29
  1

  0
LINE
  5
6943
330
6941
100
AcDbEntity
  8
モデル
 62
     0
370
    -2
100
AcDbLine
 10
78.9431504072669
 20
42.59999999999999
 30
0.0
 11
82.71749921247704
 21
42.59999999999999
 31
0.0
  0
LINE
  5
6944
330
6941
100
AcDbEntity
  8
モデル
 62
     0
370
    -2
100
AcDbLine
 10
65.25277050111532
 20
1.0
 30
0.0
 11
82.71749921247704
 21
1.0
 31
0.0
  0
LINE
  5
6945
330
6941
100
AcDbEntity
  8
モデル
 62
     0
370
    -2
100
AcDbLine
 10
82.71749921247704
 20
40.59999999999999
 30
0.0
 11
82.71749921247704
 21
3.0
 31
0.0
  0
INSERT
  5
6946
330
6941
100
AcDbEntity
  8
モデル
 62
     0
370
    -2
100
AcDbBlockReference
  2
_DOT
 10
82.71749921247704
 20
42.59999999999999
 30
0.0
 41
2.0
 42
2.0
 43
2.0
 50
90.0
  0
INSERT
  5
6947
330
6941
100
AcDbEntity
  8
モデル
 62
     0
370
    -2
100
AcDbBlockReference
  2
_DOT
 10
82.71749921247704
 20
1.0
 30
0.0
 41
2.0
 42
2.0
 43
2.0
 50
270.0
  0
MTEXT
  5
6948
330
6941
100
AcDbEntity
  8
モデル
 62
     0
100
AcDbMText
 10
79.21656136078265
 20
21.79999999999998
 30
0.0
 40
5.0
 41
0.0
 46
0.0
 71
     5
 72
     1
  1
\A1;42
  7
ＭＳ ゴシック
 11
0.0
 21
1.0
 31
0.0
 73
     1
 44
1.0
  0
POINT
  5
6949
330
6941
100
AcDbEntity
  8
Defpoints
 62
     0
100
AcDbPoint
 10
83.9431504072669
 20
42.59999999999999
 30
0.0
  0
POINT
  5
694A
330
6941
100
AcDbEntity
  8
Defpoints
 62
     0
100
AcDbPoint
 10
60.25277050111532
 20
1.0
 30
0.0
  0
POINT
  5
694B
330
6941
100
AcDbEntity
  8
Defpoints
 62
     0
100
AcDbPoint
 10
82.71749921247704
 20
0.9999999999999987
 30
0.0
  0
ENDBLK
  5
694C
330
6941
100
AcDbEntity
  8
0
100
AcDbBlockEnd
  0
BLOCK
  5
6953
330
6952
100
AcDbEntity
  8
0
100
AcDbBlockBegin
  2
*D30
 70
     1
 10
0.0
 20
0.0
 30
0.0
  3
*D30
  1

  0
LINE
  5
6954
330
6952
100
AcDbEntity
  8
モデル
 62
     0
370
    -2
100
AcDbLine
 10
3.96246921072003
 20
63.6031365613716
 30
0.0
 11
6.002813555083095
 21
63.6031365613716
 31
0.0
  0
LINE
  5
6955
330
6952
100
AcDbEntity
  8
モデル
 62
     0
370
    -2
100
AcDbLine
 10
3.96246921072003
 20
42.59999999999999
 30
0.0
 11
6.002813555083094
 21
42.59999999999999
 31
0.0
  0
LINE
  5
6956
330
6952
100
AcDbEntity
  8
モデル
 62
     0
370
    -2
100
AcDbLine
 10
6.002813555083095
 20
61.6031365613716
 30
0.0
 11
6.002813555083094
 21
44.59999999999999
 31
0.0
  0
INSERT
  5
6957
330
6952
100
AcDbEntity
  8
モデル
 62
     0
370
    -2
100
AcDbBlockReference
  2
_DOT
 10
6.002813555083095
 20
63.6031365613716
 30
0.0
 41
2.0
 42
2.0
 43
2.0
 50
90.0
  0
INSERT
  5
6958
330
6952
100
AcDbEntity
  8
モデル
 62
     0
370
    -2
100
AcDbBlockReference
  2
_DOT
 10
6.002813555083094
 20
42.59999999999999
 30
0.0
 41
2.0
 42
2.0
 43
2.0
 50
270.0
  0
MTEXT
  5
6959
330
6952
100
AcDbEntity
  8
モデル
 62
     0
100
AcDbMText
 10
2.501875703388706
 20
53.1015682806858
 30
0.0
 40
5.0
 41
0.0
 46
0.0
 71
     5
 72
     1
  1
\A1;21
  7
ＭＳ ゴシック
 11
4.228789433925020E-17
 21
1.0
 31
0.0
 73
     1
 44
1.0
  0
POINT
  5
695A
330
6952
100
AcDbEntity
  8
Defpoints
 62
     0
100
AcDbPoint
 10
8.96246921072003
 20
63.6031365613716
 30
0.0
  0
POINT
  5
695B
330
6952
100
AcDbEntity
  8
Defpoints
 62
     0
100
AcDbPoint
 10
8.96246921072003
 20
42.59999999999999
 30
0.0
  0
POINT
  5
695C
330
6952
100
AcDbEntity
  8
Defpoints
 62
     0
100
AcDbPoint
 10
6.002813555083094
 20
42.59999999999999
 30
0.0
  0
ENDBLK
  5
695D
330
6952
100
AcDbEntity
  8
0
100
AcDbBlockEnd
  0
BLOCK
  5
696A
330
6969
100
AcDbEntity
  8
0
100
AcDbBlockBegin
  2
*D31
 70
     1
 10
0.0
 20
0.0
 30
0.0
  3
*D31
  1

  0
LINE
  5
696C
330
6969
100
AcDbEntity
  8
モデル
 62
     0
370
    -2
100
AcDbLine
 10
484.5759919651894
 20
164.5962782529593
 30
0.0
 11
480.1672090378127
 21
164.5962782529593
 31
0.0
  0
LINE
  5
696D
330
6969
100
AcDbEntity
  8
モデル
 62
     0
370
    -2
100
AcDbLine
 10
470.8856120590378
 20
122.9962782529593
 30
0.0
 11
480.1672090378127
 21
122.9962782529593
 31
0.0
  0
LINE
  5
696E
330
6969
100
AcDbEntity
  8
モデル
 62
     0
370
    -2
100
AcDbLine
 10
480.1672090378127
 20
162.5962782529593
 30
0.0
 11
480.1672090378127
 21
124.9962782529593
 31
0.0
  0
INSERT
  5
696F
330
6969
100
AcDbEntity
  8
モデル
 62
     0
370
    -2
100
AcDbBlockReference
  2
_DOT
 10
480.1672090378127
 20
164.5962782529593
 30
0.0
 41
2.0
 42
2.0
 43
2.0
 50
90.0
  0
INSERT
  5
6970
330
6969
100
AcDbEntity
  8
モデル
 62
     0
370
    -2
100
AcDbBlockReference
  2
_DOT
 10
480.1672090378127
 20
122.9962782529593
 30
0.0
 41
2.0
 42
2.0
 43
2.0
 50
270.0
  0
MTEXT
  5
6971
330
6969
100
AcDbEntity
  8
モデル
 62
     0
100
AcDbMText
 10
476.6662711861183
 20
143.7962782529593
 30
0.0
 40
5.0
 41
0.0
 46
0.0
 71
     5
 72
     1
  1
\A1;42
  7
ＭＳ ゴシック
 11
0.0
 21
1.0
 31
0.0
 73
     1
 44
1.0
  0
POINT
  5
6972
330
6969
100
AcDbEntity
  8
Defpoints
 62
     0
100
AcDbPoint
 10
489.5759919651894
 20
164.5962782529593
 30
0.0
  0
POINT
  5
6973
330
6969
100
AcDbEntity
  8
Defpoints
 62
     0
100
AcDbPoint
 10
465.8856120590378
 20
122.9962782529593
 30
0.0
  0
POINT
  5
6974
330
6969
100
AcDbEntity
  8
Defpoints
 62
     0
100
AcDbPoint
 10
480.1672090378127
 20
122.9962782529593
 30
0.0
  0
ENDBLK
  5
696B
330
6969
100
AcDbEntity
  8
0
100
AcDbBlockEnd
  0
BLOCK
  5
6976
330
6975
100
AcDbEntity
  8
0
100
AcDbBlockBegin
  2
*D32
 70
     1
 10
0.0
 20
0.0
 30
0.0
  3
*D32
  1

  0
LINE
  5
6978
330
6975
100
AcDbEntity
  8
モデル
 62
     0
370
    -2
100
AcDbLine
 10
419.312706685745
 20
185.8555527362481
 30
0.0
 11
477.6170219767739
 21
185.8555527362481
 31
0.0
  0
LINE
  5
6979
330
6975
100
AcDbEntity
  8
モデル
 62
     0
370
    -2
100
AcDbLine
 10
419.312706685745
 20
164.8524161748765
 30
0.0
 11
477.6170219767739
 21
164.8524161748765
 31
0.0
  0
LINE
  5
697A
330
6975
100
AcDbEntity
  8
モデル
 62
     0
370
    -2
100
AcDbLine
 10
477.6170219767739
 20
183.8555527362481
 30
0.0
 11
477.6170219767739
 21
166.8524161748765
 31
0.0
  0
INSERT
  5
697B
330
6975
100
AcDbEntity
  8
モデル
 62
     0
370
    -2
100
AcDbBlockReference
  2
_DOT
 10
477.6170219767739
 20
185.8555527362481
 30
0.0
 41
2.0
 42
2.0
 43
2.0
 50
90.0
  0
INSERT
  5
697C
330
6975
100
AcDbEntity
  8
モデル
 62
     0
370
    -2
100
AcDbBlockReference
  2
_DOT
 10
477.6170219767739
 20
164.8524161748765
 30
0.0
 41
2.0
 42
2.0
 43
2.0
 50
270.0
  0
MTEXT
  5
697D
330
6975
100
AcDbEntity
  8
モデル
 62
     0
100
AcDbMText
 10
474.1160841250795
 20
175.3539844555623
 30
0.0
 40
5.0
 41
0.0
 46
0.0
 71
     5
 72
     1
  1
\A1;21
  7
ＭＳ ゴシック
 11
0.0
 21
1.0
 31
0.0
 73
     1
 44
1.0
  0
POINT
  5
697E
330
6975
100
AcDbEntity
  8
Defpoints
 62
     0
100
AcDbPoint
 10
414.312706685745
 20
185.8555527362481
 30
0.0
  0
POINT
  5
697F
330
6975
100
AcDbEntity
  8
Defpoints
 62
     0
100
AcDbPoint
 10
414.312706685745
 20
164.8524161748765
 30
0.0
  0
POINT
  5
6980
330
6975
100
AcDbEntity
  8
Defpoints
 62
     0
100
AcDbPoint
 10
477.6170219767739
 20
164.8524161748765
 30
0.0
  0
ENDBLK
  5
6977
330
6975
100
AcDbEntity
  8
0
100
AcDbBlockEnd
  0
BLOCK
  5
6985
330
6984
100
AcDbEntity
  8
0
100
AcDbBlockBegin
  2
*D33
 70
     1
 10
0.0
 20
0.0
 30
0.0
  3
*D33
  1

  0
LINE
  5
6987
330
6984
100
AcDbEntity
  8
モデル
 62
     0
370
    -2
100
AcDbLine
 10
461.677629308005
 20
123.2524161748765
 30
0.0
 11
477.6170219767739
 21
123.2524161748765
 31
0.0
  0
LINE
  5
6988
330
6984
100
AcDbEntity
  8
モデル
 62
     0
370
    -2
100
AcDbLine
 10
474.8151804909575
 20
164.8524161748765
 30
0.0
 11
477.6170219767739
 21
164.8524161748765
 31
0.0
  0
LINE
  5
6989
330
6984
100
AcDbEntity
  8
モデル
 62
     0
370
    -2
100
AcDbLine
 10
477.6170219767739
 20
125.2524161748765
 30
0.0
 11
477.6170219767739
 21
162.8524161748765
 31
0.0
  0
INSERT
  5
698A
330
6984
100
AcDbEntity
  8
モデル
 62
     0
370
    -2
100
AcDbBlockReference
  2
_DOT
 10
477.6170219767739
 20
123.2524161748765
 30
0.0
 41
2.0
 42
2.0
 43
2.0
 50
270.0
  0
INSERT
  5
698B
330
6984
100
AcDbEntity
  8
モデル
 62
     0
370
    -2
100
AcDbBlockReference
  2
_DOT
 10
477.6170219767739
 20
164.8524161748765
 30
0.0
 41
2.0
 42
2.0
 43
2.0
 50
90.0
  0
MTEXT
  5
698C
330
6984
100
AcDbEntity
  8
モデル
 62
     0
100
AcDbMText
 10
474.1160841250795
 20
144.0524161748765
 30
0.0
 40
5.0
 41
0.0
 46
0.0
 71
     5
 72
     1
  1
\A1;41.75
  7
ＭＳ ゴシック
 11
0.0
 21
1.0
 31
0.0
 73
     1
 44
1.0
  0
POINT
  5
698D
330
6984
100
AcDbEntity
  8
Defpoints
 62
     0
100
AcDbPoint
 10
456.677629308005
 20
123.2524161748765
 30
0.0
  0
POINT
  5
698E
330
6984
100
AcDbEntity
  8
Defpoints
 62
     0
100
AcDbPoint
 10
479.8151804909575
 20
164.8524161748765
 30
0.0
  0
POINT
  5
698F
330
6984
100
AcDbEntity
  8
Defpoints
 62
     0
100
AcDbPoint
 10
477.6170219767739
 20
164.8524161748765
 30
0.0
  0
ENDBLK
  5
6986
330
6984
100
AcDbEntity
  8
0
100
AcDbBlockEnd
  0
BLOCK
  5
6A61
330
6A60
100
AcDbEntity
  8
0
100
AcDbBlockBegin
  2
*D34
 70
     1
 10
0.0
 20
0.0
 30
0.0
  3
*D34
  1

  0
LINE
  5
6A63
330
6A60
100
AcDbEntity
  8
モデル
 62
     0
370
    -2
100
AcDbLine
 10
470.8255317001294
 20
329.5660637775916
 30
0.0
 11
496.6697775225919
 21
329.5660637775916
 31
0.0
  0
LINE
  5
6A64
330
6A60
100
AcDbEntity
  8
モデル
 62
     0
370
    -2
100
AcDbLine
 10
467.5927984826658
 20
343.0660637775916
 30
0.0
 11
496.6697775225919
 21
343.0660637775916
 31
0.0
  0
LINE
  5
6A65
330
6A60
100
AcDbEntity
  8
モデル
 62
     0
370
    -2
100
AcDbLine
 10
496.6697775225919
 20
331.5660637775916
 30
0.0
 11
496.6697775225919
 21
341.0660637775916
 31
0.0
  0
INSERT
  5
6A66
330
6A60
100
AcDbEntity
  8
モデル
 62
     0
370
    -2
100
AcDbBlockReference
  2
_DOT
 10
496.6697775225919
 20
329.5660637775916
 30
0.0
 41
2.0
 42
2.0
 43
2.0
 50
270.0
  0
INSERT
  5
6A67
330
6A60
100
AcDbEntity
  8
モデル
 62
     0
370
    -2
100
AcDbBlockReference
  2
_DOT
 10
496.6697775225919
 20
343.0660637775916
 30
0.0
 41
2.0
 42
2.0
 43
2.0
 50
90.0
  0
MTEXT
  5
6A68
330
6A60
100
AcDbEntity
  8
モデル
 62
     0
100
AcDbMText
 10
493.1688396708975
 20
336.3160637775916
 30
0.0
 40
5.0
 41
0.0
 46
0.0
 71
     5
 72
     1
  1
\A1;14
  7
ＭＳ ゴシック
 11
0.0
 21
1.0
 31
0.0
 73
     1
 44
1.0
  0
POINT
  5
6A69
330
6A60
100
AcDbEntity
  8
Defpoints
 62
     0
100
AcDbPoint
 10
465.8255317001294
 20
329.5660637775916
 30
0.0
  0
POINT
  5
6A6A
330
6A60
100
AcDbEntity
  8
Defpoints
 62
     0
100
AcDbPoint
 10
462.5927984826658
 20
343.0660637775916
 30
0.0
  0
POINT
  5
6A6B
330
6A60
100
AcDbEntity
  8
Defpoints
 62
     0
100
AcDbPoint
 10
496.6697775225919
 20
343.0660637775916
 30
0.0
  0
ENDBLK
  5
6A62
330
6A60
100
AcDbEntity
  8
0
100
AcDbBlockEnd
  0
BLOCK
  5
6A70
330
6A6F
100
AcDbEntity
  8
0
100
AcDbBlockBegin
  2
*D35
 70
     1
 10
0.0
 20
0.0
 30
0.0
  3
*D35
  1

  0
LINE
  5
6A72
330
6A6F
100
AcDbEntity
  8
モデル
 62
     0
370
    -2
100
AcDbLine
 10
471.1561296594051
 20
331.8660637775916
 30
0.0
 11
485.8834769109375
 21
331.8660637775916
 31
0.0
  0
LINE
  5
6A73
330
6A6F
100
AcDbEntity
  8
モデル
 62
     0
370
    -2
100
AcDbLine
 10
467.5927984826658
 20
343.0660637775916
 30
0.0
 11
485.8834769109375
 21
343.0660637775916
 31
0.0
  0
LINE
  5
6A74
330
6A6F
100
AcDbEntity
  8
モデル
 62
     0
370
    -2
100
AcDbLine
 10
485.8834769109375
 20
333.8660637775916
 30
0.0
 11
485.8834769109375
 21
341.0660637775916
 31
0.0
  0
INSERT
  5
6A75
330
6A6F
100
AcDbEntity
  8
モデル
 62
     0
370
    -2
100
AcDbBlockReference
  2
_DOT
 10
485.8834769109375
 20
331.8660637775916
 30
0.0
 41
2.0
 42
2.0
 43
2.0
 50
270.0
  0
INSERT
  5
6A76
330
6A6F
100
AcDbEntity
  8
モデル
 62
     0
370
    -2
100
AcDbBlockReference
  2
_DOT
 10
485.8834769109375
 20
343.0660637775916
 30
0.0
 41
2.0
 42
2.0
 43
2.0
 50
90.0
  0
MTEXT
  5
6A77
330
6A6F
100
AcDbEntity
  8
モデル
 62
     0
100
AcDbMText
 10
482.3825390592431
 20
337.4660637775916
 30
0.0
 40
5.0
 41
0.0
 46
0.0
 71
     5
 72
     1
  1
\A1;11
  7
ＭＳ ゴシック
 11
0.0
 21
1.0
 31
0.0
 73
     1
 44
1.0
  0
POINT
  5
6A78
330
6A6F
100
AcDbEntity
  8
Defpoints
 62
     0
100
AcDbPoint
 10
466.1561296594051
 20
331.8660637775916
 30
0.0
  0
POINT
  5
6A79
330
6A6F
100
AcDbEntity
  8
Defpoints
 62
     0
100
AcDbPoint
 10
462.5927984826658
 20
343.0660637775916
 30
0.0
  0
POINT
  5
6A7A
330
6A6F
100
AcDbEntity
  8
Defpoints
 62
     0
100
AcDbPoint
 10
485.8834769109375
 20
343.0660637775916
 30
0.0
  0
ENDBLK
  5
6A71
330
6A6F
100
AcDbEntity
  8
0
100
AcDbBlockEnd
  0
BLOCK
  5
6A85
330
6A84
100
AcDbEntity
  8
0
100
AcDbBlockBegin
  2
*D36
 70
     1
 10
0.0
 20
0.0
 30
0.0
  3
*D36
  1

  0
LINE
  5
6A87
330
6A84
100
AcDbEntity
  8
モデル
 62
     0
370
    -2
100
AcDbLine
 10
127.9886971137275
 20
329.5660637775916
 30
0.0
 11
103.1774080629643
 21
329.5660637775916
 31
0.0
  0
LINE
  5
6A88
330
6A84
100
AcDbEntity
  8
モデル
 62
     0
370
    -2
100
AcDbLine
 10
131.459058822934
 20
343.0660637775916
 30
0.0
 11
103.1774080629643
 21
343.0660637775916
 31
0.0
  0
LINE
  5
6A89
330
6A84
100
AcDbEntity
  8
モデル
 62
     0
370
    -2
100
AcDbLine
 10
103.1774080629643
 20
331.5660637775916
 30
0.0
 11
103.1774080629643
 21
341.0660637775916
 31
0.0
  0
INSERT
  5
6A8A
330
6A84
100
AcDbEntity
  8
モデル
 62
     0
370
    -2
100
AcDbBlockReference
  2
_DOT
 10
103.1774080629643
 20
329.5660637775916
 30
0.0
 41
2.0
 42
2.0
 43
2.0
 50
270.0
  0
INSERT
  5
6A8B
330
6A84
100
AcDbEntity
  8
モデル
 62
     0
370
    -2
100
AcDbBlockReference
  2
_DOT
 10
103.1774080629643
 20
343.0660637775916
 30
0.0
 41
2.0
 42
2.0
 43
2.0
 50
90.0
  0
MTEXT
  5
6A8C
330
6A84
100
AcDbEntity
  8
モデル
 62
     0
100
AcDbMText
 10
99.67647021126993
 20
336.3160637775916
 30
0.0
 40
5.0
 41
0.0
 46
0.0
 71
     5
 72
     1
  1
\A1;14
  7
ＭＳ ゴシック
 11
0.0
 21
1.0
 31
0.0
 73
     1
 44
1.0
  0
POINT
  5
6A8D
330
6A84
100
AcDbEntity
  8
Defpoints
 62
     0
100
AcDbPoint
 10
132.9886971137275
 20
329.5660637775916
 30
0.0
  0
POINT
  5
6A8E
330
6A84
100
AcDbEntity
  8
Defpoints
 62
     0
100
AcDbPoint
 10
136.459058822934
 20
343.0660637775916
 30
0.0
  0
POINT
  5
6A8F
330
6A84
100
AcDbEntity
  8
Defpoints
 62
     0
100
AcDbPoint
 10
103.1774080629643
 20
343.0660637775916
 30
0.0
  0
ENDBLK
  5
6A86
330
6A84
100
AcDbEntity
  8
0
100
AcDbBlockEnd
  0
BLOCK
  5
6A94
330
6A93
100
AcDbEntity
  8
0
100
AcDbBlockBegin
  2
*D37
 70
     1
 10
0.0
 20
0.0
 30
0.0
  3
*D37
  1

  0
LINE
  5
6A96
330
6A93
100
AcDbEntity
  8
モデル
 62
     0
370
    -2
100
AcDbLine
 10
127.9635386608888
 20
332.000386926782
 30
0.0
 11
111.3281835839493
 21
332.000386926782
 31
0.0
  0
LINE
  5
6A97
330
6A93
100
AcDbEntity
  8
モデル
 62
     0
370
    -2
100
AcDbLine
 10
132.1392647669655
 20
343.0660637775916
 30
0.0
 11
111.3281835839493
 21
343.0660637775916
 31
0.0
  0
LINE
  5
6A98
330
6A93
100
AcDbEntity
  8
モデル
 62
     0
370
    -2
100
AcDbLine
 10
111.3281835839493
 20
334.000386926782
 30
0.0
 11
111.3281835839493
 21
341.0660637775916
 31
0.0
  0
INSERT
  5
6A99
330
6A93
100
AcDbEntity
  8
モデル
 62
     0
370
    -2
100
AcDbBlockReference
  2
_DOT
 10
111.3281835839493
 20
332.000386926782
 30
0.0
 41
2.0
 42
2.0
 43
2.0
 50
270.0
  0
INSERT
  5
6A9A
330
6A93
100
AcDbEntity
  8
モデル
 62
     0
370
    -2
100
AcDbBlockReference
  2
_DOT
 10
111.3281835839493
 20
343.0660637775916
 30
0.0
 41
2.0
 42
2.0
 43
2.0
 50
90.0
  0
MTEXT
  5
6A9B
330
6A93
100
AcDbEntity
  8
モデル
 62
     0
100
AcDbMText
 10
107.8272457322549
 20
337.5332253521868
 30
0.0
 40
5.0
 41
0.0
 46
0.0
 71
     5
 72
     1
  1
\A1;11
  7
ＭＳ ゴシック
 11
0.0
 21
1.0
 31
0.0
 73
     1
 44
1.0
  0
POINT
  5
6A9C
330
6A93
100
AcDbEntity
  8
Defpoints
 62
     0
100
AcDbPoint
 10
132.9635386608888
 20
332.000386926782
 30
0.0
  0
POINT
  5
6A9D
330
6A93
100
AcDbEntity
  8
Defpoints
 62
     0
100
AcDbPoint
 10
137.1392647669655
 20
343.0660637775916
 30
0.0
  0
POINT
  5
6A9E
330
6A93
100
AcDbEntity
  8
Defpoints
 62
     0
100
AcDbPoint
 10
111.3281835839493
 20
343.0660637775916
 30
0.0
  0
ENDBLK
  5
6A95
330
6A93
100
AcDbEntity
  8
0
100
AcDbBlockEnd
  0
BLOCK
  5
6AD5
330
6AD4
100
AcDbEntity
  8
0
100
AcDbBlockBegin
  2
*D38
 70
     1
 10
0.0
 20
0.0
 30
0.0
  3
*D38
  1

  0
LINE
  5
6AD7
330
6AD4
100
AcDbEntity
  8
モデル
 62
     0
370
    -2
100
AcDbLine
 10
477.6170219767739
 20
166.8524161748765
 30
0.0
 11
477.6170219767739
 21
183.8555527362481
 31
0.0
  0
INSERT
  5
6AD8
330
6AD4
100
AcDbEntity
  8
モデル
 62
     0
370
    -2
100
AcDbBlockReference
  2
_DOT
 10
477.6170219767739
 20
164.8524161748765
 30
0.0
 41
2.0
 42
2.0
 43
2.0
 50
270.0
  0
INSERT
  5
6AD9
330
6AD4
100
AcDbEntity
  8
モデル
 62
     0
370
    -2
100
AcDbBlockReference
  2
_DOT
 10
477.6170219767739
 20
185.8555527362481
 30
0.0
 41
2.0
 42
2.0
 43
2.0
 50
90.0
  0
MTEXT
  5
6ADA
330
6AD4
100
AcDbEntity
  8
モデル
 62
     0
100
AcDbMText
 10
474.1160841250795
 20
175.3539844555623
 30
0.0
 40
5.0
 41
0.0
 46
0.0
 71
     5
 72
     1
  1
\A1;21
  7
ＭＳ ゴシック
 11
0.0
 21
1.0
 31
0.0
 73
     1
 44
1.0
  0
POINT
  5
6ADB
330
6AD4
100
AcDbEntity
  8
Defpoints
 62
     0
100
AcDbPoint
 10
477.6170219767739
 20
164.8524161748765
 30
0.0
  0
POINT
  5
6ADC
330
6AD4
100
AcDbEntity
  8
Defpoints
 62
     0
100
AcDbPoint
 10
477.6170219767739
 20
185.8555527362481
 30
0.0
  0
POINT
  5
6ADD
330
6AD4
100
AcDbEntity
  8
Defpoints
 62
     0
100
AcDbPoint
 10
477.6170219767739
 20
185.8555527362481
 30
0.0
  0
ENDBLK
  5
6AD6
330
6AD4
100
AcDbEntity
  8
0
100
AcDbBlockEnd
  0
ENDSEC
  0
SECTION
  2
ENTITIES
  0
LINE
  5
52D6
330
A
100
AcDbEntity
  8
PRINT BORDER
100
AcDbLine
 10
297.0
 20
0.0
 30
0.0
 11
297.0
 21
15.30952622855898
 31
0.0
  0
LINE
  5
52D7
330
A
100
AcDbEntity
  8
テンプレート
100
AcDbLine
 10
437.9999999999999
 20
38.27810890422097
 30
0.0
 11
15.30952622855875
 21
38.27810890422097
 31
0.0
  0
LINE
  5
52D8
330
A
100
AcDbEntity
  8
テンプレート
100
AcDbLine
 10
15.30952622855875
 20
26.22153683920783
 30
0.0
 11
578.6904737714409
 21
26.22153683920783
 31
0.0
  0
LINE
  5
52DB
330
A
100
AcDbEntity
  8
テンプレート
100
AcDbLine
 10
437.9999999999999
 20
50.16496477419605
 30
0.0
 11
15.30952622855875
 21
50.16496477419605
 31
0.0
  0
LINE
  5
52DC
330
A
100
AcDbEntity
  8
テンプレート
100
AcDbLine
 10
578.6904737714409
 20
62.22153683920783
 30
0.0
 11
15.30952622855875
 21
62.22153683920783
 31
0.0
  0
LINE
  5
52DD
330
A
100
AcDbEntity
  8
PRINT BORDER
100
AcDbLine
 10
593.9999999999999
 20
210.0
 30
0.0
 11
578.6904737714409
 21
210.0
 31
0.0
  0
LINE
  5
52DE
330
A
100
AcDbEntity
  8
PRINT BORDER
100
AcDbLine
 10
0.0
 20
210.0
 30
0.0
 11
15.30952622855875
 21
210.0
 31
0.0
  0
LINE
  5
52DF
330
A
100
AcDbEntity
  8
PRINT BORDER
100
AcDbLine
 10
297.0
 20
420.0
 30
0.0
 11
297.0
 21
404.690473771441
 31
0.0
  0
LINE
  5
52E0
330
A
100
AcDbEntity
  8
テンプレート
100
AcDbLine
 10
578.6904737714409
 20
62.22153683920783
 30
0.0
 11
578.6904737714409
 21
26.22153683920783
 31
0.0
  0
LINE
  5
52E1
330
A
100
AcDbEntity
  8
テンプレート
100
AcDbLine
 10
15.30952622855875
 20
62.22153683920783
 30
0.0
 11
15.30952622855875
 21
26.22153683920783
 31
0.0
  0
TEXT
  5
52E3
330
A
100
AcDbEntity
  8
テンプレート
100
AcDbText
 10
494.9733384955219
 20
16.51938390313694
 30
0.0
 40
5.5
  1
大洋金物株式会社  
  7
ＭＳ ゴシック
100
AcDbText
  0
LINE
  5
52E4
330
A
100
AcDbEntity
  8
テンプレート
100
AcDbLine
 10
437.9999999999999
 20
62.22153683920783
 30
0.0
 11
437.9999999999999
 21
26.22153683920783
 31
0.0
  0
LINE
  5
52E5
330
A
100
AcDbEntity
  8
テンプレート
100
AcDbLine
 10
297.0
 20
62.22153683920783
 30
0.0
 11
297.0
 21
26.22153683920783
 31
0.0
  0
INSERT
  5
52E6
330
A
100
AcDbEntity
  8
テンプレート
100
AcDbBlockReference
  2
名称未設定-1
 10
548.3945198859809
 20
-7.642344203993161
 30
0.0
 41
0.180975
 42
0.180975
 43
0.180975
  0
TEXT
  5
52E7
330
A
100
AcDbEntity
  8
テンプレート
100
AcDbText
 10
18.42255191974346
 20
18.90483678917599
 30
0.0
 40
4.0
  1
20220302M
  7
ＭＳ ゴシック
100
AcDbText
  0
LINE
  5
52E8
330
A
100
AcDbEntity
  8
テンプレート
100
AcDbLine
 10
15.30952622855875
 20
210.0
 30
0.0
 11
15.30952622855875
 21
26.22153683920783
 31
0.0
  0
LINE
  5
52E9
330
A
100
AcDbEntity
  8
テンプレート
100
AcDbLine
 10
15.30952622855875
 20
210.0
 30
0.0
 11
15.30952622855875
 21
404.690473771441
 31
0.0
  0
LINE
  5
52EA
330
A
100
AcDbEntity
  8
テンプレート
100
AcDbLine
 10
297.0
 20
404.690473771441
 30
0.0
 11
15.30952622855875
 21
404.690473771441
 31
0.0
  0
LINE
  5
52EB
330
A
100
AcDbEntity
  8
テンプレート
100
AcDbLine
 10
297.0
 20
404.690473771441
 30
0.0
 11
578.6904737714409
 21
404.690473771441
 31
0.0
  0
LINE
  5
52EC
330
A
100
AcDbEntity
  8
テンプレート
100
AcDbLine
 10
578.6904737714409
 20
210.0
 30
0.0
 11
578.6904737714409
 21
404.690473771441
 31
0.0
  0
LINE
  5
52ED
330
A
100
AcDbEntity
  8
テンプレート
100
AcDbLine
 10
578.6904737714409
 20
210.0
 30
0.0
 11
578.6904737714409
 21
26.22153683920783
 31
0.0
  0
LWPOLYLINE
  5
52EE
330
A
100
AcDbEntity
  8
PRINT BORDER
  6
HIDDEN
 48
3.0
100
AcDbPolyline
 90
        4
 70
     1
 43
0.0
 10
0.0
 20
0.0
 10
0.0
 20
420.0
 10
593.9999999999999
 20
420.0
 10
593.9999999999999
 20
0.0
  0
TEXT
  5
5F97
330
A
100
AcDbEntity
  8
テンプレート
100
AcDbText
 10
17.11905019860153
 20
56.80348882321775
 30
0.0
 40
3.5
  1
品名
  7
ＭＳ ゴシック
100
AcDbText
  0
TEXT
  5
5F98
330
A
100
AcDbEntity
  8
テンプレート
100
AcDbText
 10
297.8811817213915
 20
56.87912905958589
 30
0.0
 40
3.5
  1
品番
  7
ＭＳ ゴシック
100
AcDbText
  0
TEXT
  5
5F99
330
A
100
AcDbEntity
  8
テンプレート
100
AcDbText
 10
439.1465856708076
 20
56.87912905958589
 30
0.0
 40
3.5
  1
備考
  7
ＭＳ ゴシック
100
AcDbText
  0
TEXT
  5
5F9A
330
A
100
AcDbEntity
  8
テンプレート
100
AcDbText
 10
297.8567488256826
 20
32.91795196468179
 30
0.0
 40
3.5
  1
縮尺
  7
ＭＳ ゴシック
100
AcDbText
  0
TEXT
  5
5F9B
330
A
100
AcDbEntity
  8
テンプレート
100
AcDbText
 10
312.074953745907
 20
28.58751923875886
 30
0.0
 40
5.5
  1
1/2
  7
ＭＳ ゴシック
100
AcDbText
  0
TEXT
  5
5F9C
330
A
100
AcDbEntity
  8
テンプレート
100
AcDbText
 10
312.3769506891749
 20
53.54218539362975
 30
0.0
 40
5.5
  1
FSB17-4263W
  7
ＭＳ ゴシック
100
AcDbText
  0
LWPOLYLINE
  5
5F9D
330
A
100
AcDbEntity
  8
モデル
 62
   251
370
    20
100
AcDbPolyline
 90
        4
 70
     1
 43
0.0
 10
288.7644519482335
 20
110.8555527362482
 10
288.7644519482335
 20
260.8555527362483
 10
308.7644519482335
 20
260.8555527362483
 10
308.7644519482335
 20
110.8555527362482
  0
LINE
  5
5F9E
330
A
100
AcDbEntity
  8
モデル
 62
   251
370
    20
100
AcDbLine
 10
303.7644519482335
 20
185.909229916202
 30
0.0
 11
303.7644519482335
 21
212.8555527362481
 31
0.0
  0
LINE
  5
5F9F
330
A
100
AcDbEntity
  8
モデル
 62
   251
370
    20
100
AcDbLine
 10
293.7644519482335
 20
212.8555527362481
 30
0.0
 11
293.7644519482335
 21
185.909229916202
 31
0.0
  0
LINE
  5
5FA0
330
A
100
AcDbEntity
  8
モデル
 62
   251
370
    20
100
AcDbLine
 10
303.7644519482335
 20
212.8555527362481
 30
0.0
 11
293.7644519482335
 21
212.8555527362481
 31
0.0
  0
LINE
  5
5FA1
330
A
100
AcDbEntity
  8
モデル
 62
   251
370
    20
100
AcDbLine
 10
303.7644519482335
 20
185.909229916202
 30
0.0
 11
293.7644519482335
 21
185.909229916202
 31
0.0
  0
LINE
  5
5FA2
330
A
100
AcDbEntity
  8
モデル
100
AcDbLine
 10
371.0776293080049
 20
198.8555527362484
 30
0.0
 11
371.0776293080049
 21
172.8555527362484
 31
0.0
  0
LINE
  5
5FA3
330
A
100
AcDbEntity
  8
モデル
100
AcDbLine
 10
371.0776293080049
 20
172.8555527362484
 30
0.0
 11
371.0776293080049
 21
140.8555527362482
 31
0.0
  0
LINE
  5
5FA4
330
A
100
AcDbEntity
  8
モデル
 62
   251
370
    20
100
AcDbLine
 10
371.0776293080049
 20
110.8555527362483
 30
0.0
 11
371.0776293080049
 21
260.8555527362483
 31
0.0
  0
LINE
  5
5FA5
102
{ACAD_REACTORS
330
670F
102
}
330
A
100
AcDbEntity
  8
モデル
 62
   251
370
    20
100
AcDbLine
 10
371.0776293080049
 20
110.8555527362483
 30
0.0
 11
374.0776293080049
 21
110.8555527362483
 31
0.0
  0
LINE
  5
5FA6
330
A
100
AcDbEntity
  8
モデル
 62
   251
370
    20
100
AcDbLine
 10
374.0776293080049
 20
110.8555527362483
 30
0.0
 11
374.0776293080049
 21
260.8555527362483
 31
0.0
  0
LINE
  5
5FA7
330
A
100
AcDbEntity
  8
モデル
  6
HIDDEN
 62
   251
 48
0.6
370
    20
100
AcDbLine
 10
384.477629308005
 20
140.8555527362483
 30
0.0
 11
452.468064456372
 21
140.8555527362483
 31
0.0
  0
LINE
  5
5FA8
330
A
100
AcDbEntity
  8
モデル
 62
   251
370
    20
100
AcDbLine
 10
391.977629308005
 20
230.8555527362483
 30
0.0
 11
374.0776293080049
 21
230.8555527362483
 31
0.0
  0
LINE
  5
5FA9
330
A
100
AcDbEntity
  8
モデル
 62
   251
370
    20
100
AcDbLine
 10
374.0776293080049
 20
260.8555527362483
 30
0.0
 11
371.0776293080049
 21
260.8555527362483
 31
0.0
  0
LINE
  5
5FAA
330
A
100
AcDbEntity
  8
モデル
  6
HIDDEN
 62
   251
 48
0.6
370
    20
100
AcDbLine
 10
456.0776293080049
 20
144.5791967537109
 30
0.0
 11
456.0776293080049
 21
206.4524161748765
 31
0.0
  0
TEXT
  5
5FAB
330
A
100
AcDbEntity
  8
テンプレート
100
AcDbText
 10
31.7727482505483
 20
53.54218539362975
 30
0.0
 40
5.5
  1
引手付き鎌錠セット(両面)
  7
ＭＳ ゴシック
100
AcDbText
  0
LINE
  5
5FAD
330
A
100
AcDbEntity
  8
モデル
 48
0.3
100
AcDbLine
 10
422.0776293080049
 20
160.8524161748765
 30
0.0
 11
422.0776293080049
 21
168.8524161748765
 31
0.0
  0
LINE
  5
5FAE
330
A
100
AcDbEntity
  8
モデル
 48
0.3
100
AcDbLine
 10
422.0776293080049
 20
168.8524161748765
 30
0.0
 11
430.0776293080049
 21
168.8524161748765
 31
0.0
  0
LINE
  5
5FAF
330
A
100
AcDbEntity
  8
モデル
 48
0.3
100
AcDbLine
 10
430.0776293080049
 20
168.8524161748765
 30
0.0
 11
430.0776293080049
 21
160.8524161748765
 31
0.0
  0
LINE
  5
5FB0
102
{ACAD_REACTORS
330
670F
102
}
330
A
100
AcDbEntity
  8
モデル
 48
0.3
100
AcDbLine
 10
422.0776293080049
 20
160.8524161748765
 30
0.0
 11
430.0776293080049
 21
160.8524161748765
 31
0.0
  0
MTEXT
  5
5FB1
330
A
100
AcDbEntity
  8
モデル
100
AcDbMText
 10
290.4348510515946
 20
78.54359966337913
 30
0.0
 40
4.666666666666666
 41
296.0447974826269
 46
5.187851694385394
 71
     1
 72
     5
  1
{輸入製品の為国内製品と比べ製品寸法の個体差に幅があります。加工は現物合わせの上行って下さい。}
  7
ＭＳ ゴシック
 73
     1
 44
1.0
1001
ACAD
1000
ACAD_MTEXT_DEFINED_HEIGHT_BEGIN
1070
    46
1040
5.187851694385394
1000
ACAD_MTEXT_DEFINED_HEIGHT_END
  0
LINE
  5
5FB2
330
A
100
AcDbEntity
  8
モデル
100
AcDbLine
 10
282.7144570647927
 20
73.17116115903019
 30
0.0
 11
287.7092603436896
 21
73.17116115903019
 31
0.0
  0
LINE
  5
5FB3
330
A
100
AcDbEntity
  8
モデル
100
AcDbLine
 10
282.7144570647927
 20
73.17116115903019
 30
0.0
 11
285.2118587042404
 21
78.16596443792679
 31
0.0
  0
LINE
  5
5FB4
330
A
100
AcDbEntity
  8
モデル
100
AcDbLine
 10
285.2118587042404
 20
78.16596443792679
 30
0.0
 11
287.7092603436896
 21
73.17116115903019
 31
0.0
  0
MTEXT
  5
5FB5
330
A
100
AcDbEntity
  8
モデル
100
AcDbMText
 10
284.8548541498757
 20
76.79101998343481
 30
0.0
 40
3.822185138629192
 41
1.35758065535774
 46
15.0
 71
     1
 72
     5
  1
{\fTimes New Roman|b1|i0|c0|p0;\H0.8x;!}
  7
ＭＳ ゴシック
 73
     1
 44
1.0
1001
ACAD
1000
ACAD_MTEXT_DEFINED_HEIGHT_BEGIN
1070
    46
1040
15.0
1000
ACAD_MTEXT_DEFINED_HEIGHT_END
  0
LINE
  5
5FB6
330
A
100
AcDbEntity
  8
モデル
 62
   251
370
    20
100
AcDbLine
 10
349.0776293080049
 20
194.2481133133744
 30
0.0
 11
355.4149119121831
 21
185.909229916202
 31
0.0
  0
ARC
  5
5FB7
330
A
100
AcDbEntity
  8
モデル
 62
   251
370
    20
100
AcDbCircle
 10
387.8514815881398
 20
170.7141740499907
 30
0.0
 40
45.35700516893012
100
AcDbArc
 50
111.7044141724678
 51
148.7441811622483
  0
ARC
  5
5FB8
330
A
100
AcDbEntity
  8
モデル
 62
   251
370
    20
100
AcDbCircle
 10
406.8614581455672
 20
159.918143884184
 30
0.0
 40
57.63925461408635
100
AcDbArc
 50
128.3763275388926
 51
153.1968364093262
  0
LINE
  5
5FB9
330
A
100
AcDbEntity
  8
モデル
 62
   251
370
    20
100
AcDbLine
 10
303.7644519482335
 20
194.2481133133743
 30
0.0
 11
293.7644519482335
 21
194.2481133133743
 31
0.0
  0
LINE
  5
5FBA
330
A
100
AcDbEntity
  8
モデル
 62
   251
 48
0.6
370
    20
100
AcDbLine
 10
452.468064456372
 20
230.8555527362483
 30
0.0
 11
456.0776293080049
 21
227.1319087187857
 31
0.0
  0
LINE
  5
5FBB
330
A
100
AcDbEntity
  8
モデル
  6
HIDDEN
 62
   251
 48
0.6
370
    20
100
AcDbLine
 10
452.468064456372
 20
140.8555527362483
 30
0.0
 11
456.0776293080049
 21
144.5791967537109
 31
0.0
  0
LINE
  5
6033
330
A
100
AcDbEntity
  8
モデル
 62
   251
370
    20
100
AcDbLine
 10
291.7644519482333
 20
367.5634830899355
 30
0.0
 11
305.7644519482333
 21
367.5634830899356
 31
0.0
  0
LINE
  5
6034
330
A
100
AcDbEntity
  8
モデル
 62
   251
370
    20
100
AcDbLine
 10
288.7644519482335
 20
285.5634830899356
 30
0.0
 11
308.7644519482335
 21
285.5634830899356
 31
0.0
  0
LINE
  5
6035
330
A
100
AcDbEntity
  8
モデル
 62
   251
370
    20
100
AcDbLine
 10
288.7644519482335
 20
282.5634830899356
 30
0.0
 11
308.7644519482335
 21
282.5634830899356
 31
0.0
  0
LINE
  5
6036
330
A
100
AcDbEntity
  8
モデル
 62
   251
370
    20
100
AcDbLine
 10
288.7644519482335
 20
285.5634830899356
 30
0.0
 11
288.7644519482335
 21
282.5634830899356
 31
0.0
  0
LINE
  5
6037
102
{ACAD_REACTORS
330
607A
102
}
330
A
100
AcDbEntity
  8
モデル
 62
   251
370
    20
100
AcDbLine
 10
308.7644519482335
 20
285.5634830899356
 30
0.0
 11
308.7644519482335
 21
282.5634830899356
 31
0.0
  0
LINE
  5
6038
330
A
100
AcDbEntity
  8
モデル
 62
   251
370
    20
100
AcDbLine
 10
291.7644519482335
 20
285.5634830899356
 30
0.0
 11
291.7644519482333
 21
367.5634830899355
 31
0.0
  0
LINE
  5
6039
330
A
100
AcDbEntity
  8
モデル
 62
   251
370
    20
100
AcDbLine
 10
305.7644519482335
 20
285.5634830899356
 30
0.0
 11
305.7644519482333
 21
367.5634830899356
 31
0.0
  0
LINE
  5
603D
330
A
100
AcDbEntity
  8
0
  6
Continuous
 62
     7
370
    25
100
AcDbLine
 10
306.7644519482333
 20
345.0134830899356
 30
0.0
 11
306.2644519482333
 21
345.0134830899356
 31
0.0
  0
LINE
  5
603E
330
A
100
AcDbEntity
  8
0
  6
Continuous
 62
     7
370
    25
100
AcDbLine
 10
306.2644519482334
 20
330.1134830899358
 30
0.0
 11
306.7644519482334
 21
330.1134830899358
 31
0.0
  0
ARC
  5
603F
330
A
100
AcDbEntity
  8
0
  6
Continuous
 62
     7
370
    25
100
AcDbCircle
 10
306.2644519482334
 20
330.6134830899358
 30
0.0
 40
0.5
100
AcDbArc
 50
180.0
 51
270.0
  0
ARC
  5
6040
330
A
100
AcDbEntity
  8
0
  6
Continuous
 62
     7
370
    25
100
AcDbCircle
 10
306.2644519482333
 20
344.5134830899356
 30
0.0
 40
0.5
100
AcDbArc
 50
90.0
 51
180.0
  0
LINE
  5
6041
330
A
100
AcDbEntity
  8
0
  6
Continuous
 62
     7
370
    25
100
AcDbLine
 10
292.6439615388356
 20
341.5534830899358
 30
0.0
 11
304.8849423576311
 21
341.5534830899358
 31
0.0
  0
LINE
  5
6042
330
A
100
AcDbEntity
  8
0
  6
Continuous
 62
     7
370
    25
100
AcDbLine
 10
292.6439615388355
 20
333.5734830899357
 30
0.0
 11
304.8849423576312
 21
333.5734830899357
 31
0.0
  0
LINE
  5
6044
102
{ACAD_REACTORS
330
607A
102
}
330
A
100
AcDbEntity
  8
0
  6
Continuous
 62
     7
370
    25
100
AcDbLine
 10
320.2669977608334
 20
331.5679404578356
 30
0.0
 11
320.2644519482334
 21
337.5657115037357
 31
0.0
  0
LINE
  5
6045
330
A
100
AcDbEntity
  8
0
  6
Continuous
 62
     7
370
    25
100
AcDbLine
 10
320.2688441607335
 20
327.2179408496357
 30
0.0
 11
320.2644519482334
 21
327.2179389853356
 31
0.0
  0
LINE
  5
6046
330
A
100
AcDbEntity
  8
0
  6
Continuous
 62
     7
370
    25
100
AcDbLine
 10
320.2688441607335
 20
327.2179408496357
 30
0.0
 11
320.2669977608334
 21
331.5679404578356
 31
0.0
  0
LINE
  5
6047
330
A
100
AcDbEntity
  8
0
  6
Continuous
 62
     7
370
    25
100
AcDbLine
 10
305.7644519482334
 20
330.6134830899358
 30
0.0
 11
305.7644519482333
 21
344.5134830892358
 31
0.0
  0
LINE
  5
6048
330
A
100
AcDbEntity
  8
0
  6
Continuous
 62
     7
370
    25
100
AcDbLine
 10
317.9644519482333
 20
370.8752458652358
 30
0.0
 11
318.7644519482333
 21
370.8752458652358
 31
0.0
  0
LINE
  5
6049
330
A
100
AcDbEntity
  8
0
  6
Continuous
 62
     7
370
    25
100
AcDbLine
 10
317.9644519482333
 20
370.8752458652358
 30
0.0
 11
317.9644519482333
 21
360.7634830899359
 31
0.0
  0
LINE
  5
604A
330
A
100
AcDbEntity
  8
0
  6
Continuous
 62
     7
370
    25
100
AcDbLine
 10
317.9644519482333
 20
360.7634830899359
 30
0.0
 11
317.9644519482335
 21
314.3634830899358
 31
0.0
  0
LINE
  5
604B
330
A
100
AcDbEntity
  8
0
  6
Continuous
 62
     7
370
    25
100
AcDbLine
 10
317.9644519482335
 20
304.2517203146358
 30
0.0
 11
318.7644519482335
 21
304.2517203146358
 31
0.0
  0
LINE
  5
604C
330
A
100
AcDbEntity
  8
0
  6
Continuous
 62
     7
370
    25
100
AcDbLine
 10
317.9644519482335
 20
314.3634830899358
 30
0.0
 11
317.9644519482335
 21
304.2517203146358
 31
0.0
  0
ARC
  5
604D
330
A
100
AcDbEntity
  8
0
  6
Continuous
 62
     7
370
    25
100
AcDbCircle
 10
317.4644519482333
 20
370.1415034082357
 30
0.0
 40
0.5000000000000003
100
AcDbArc
 50
273.9999999999964
 51
0.0
  0
ARC
  5
604E
330
A
100
AcDbEntity
  8
0
  6
Continuous
 62
     7
370
    25
100
AcDbCircle
 10
317.4644519482335
 20
304.9854627716358
 30
0.0
 40
0.5000000000000003
100
AcDbArc
 50
0.0
 51
86.0000000000035
  0
LINE
  5
604F
330
A
100
AcDbEntity
  8
0
  6
Continuous
 62
     7
370
    25
100
AcDbLine
 10
308.6249390007336
 20
306.1048026802358
 30
0.0
 11
317.4993301851335
 21
305.4842447967357
 31
0.0
  0
LINE
  5
6050
330
A
100
AcDbEntity
  8
0
  6
Continuous
 62
     7
370
    25
100
AcDbLine
 10
308.6249390007333
 20
369.0221634996359
 30
0.0
 11
317.4993301851333
 21
369.6427213831357
 31
0.0
  0
LINE
  5
6051
330
A
100
AcDbEntity
  8
0
  6
Continuous
 62
     7
370
    25
100
AcDbLine
 10
306.7644519482334
 20
314.3634830899358
 30
0.0
 11
306.7644519482333
 21
360.7634830899359
 31
0.0
  0
LINE
  5
6052
330
A
100
AcDbEntity
  8
0
  6
Continuous
 62
     7
370
    25
100
AcDbLine
 10
306.7644519482333
 20
360.7634830899359
 30
0.0
 11
306.7644519482333
 21
367.0270353991358
 31
0.0
  0
ARC
  5
6053
330
A
100
AcDbEntity
  8
0
  6
Continuous
 62
     7
370
    25
100
AcDbCircle
 10
308.7644519482333
 20
367.0270353991358
 30
0.0
 40
2.000000000000001
100
AcDbArc
 50
93.99999999999979
 51
180.0
  0
LINE
  5
6054
330
A
100
AcDbEntity
  8
0
  6
Continuous
 62
     7
370
    25
100
AcDbLine
 10
306.7644519482334
 20
308.0999307807358
 30
0.0
 11
306.7644519482334
 21
314.3634830899358
 31
0.0
  0
ARC
  5
6055
330
A
100
AcDbEntity
  8
0
  6
Continuous
 62
     7
370
    25
100
AcDbCircle
 10
308.7644519482334
 20
308.0999307807358
 30
0.0
 40
2.000000000000001
100
AcDbArc
 50
180.0
 51
266.0000000000002
  0
LINE
  5
6056
330
A
100
AcDbEntity
  8
0
  6
Continuous
 62
     7
370
    25
100
AcDbLine
 10
320.2644519482333
 20
360.6634830899357
 30
0.0
 11
320.2644519482334
 21
314.4634830899357
 31
0.0
  0
LINE
  5
6057
330
A
100
AcDbEntity
  8
0
  6
Continuous
 62
     7
370
    25
100
AcDbLine
 10
318.7644519482333
 20
360.6634830899357
 30
0.0
 11
318.7644519482334
 21
314.4634830899357
 31
0.0
  0
LINE
  5
6058
330
A
100
AcDbEntity
  8
0
  6
Continuous
 62
     7
370
    25
100
AcDbLine
 10
320.2644519482334
 20
314.4634830899357
 30
0.0
 11
320.2644519482335
 21
303.4634830899357
 31
0.0
  0
LINE
  5
6059
330
A
100
AcDbEntity
  8
0
  6
Continuous
 62
     7
370
    25
100
AcDbLine
 10
320.2644519482335
 20
303.4634830899357
 30
0.0
 11
318.7644519482335
 21
303.4634830899357
 31
0.0
  0
LINE
  5
605A
330
A
100
AcDbEntity
  8
0
  6
Continuous
 62
     7
370
    25
100
AcDbLine
 10
318.7644519482334
 20
314.4634830899357
 30
0.0
 11
318.7644519482335
 21
303.4634830899357
 31
0.0
  0
LINE
  5
605B
330
A
100
AcDbEntity
  8
0
  6
Continuous
 62
     7
370
    25
100
AcDbLine
 10
320.2644519482333
 20
371.6634830899357
 30
0.0
 11
318.7644519482333
 21
371.6634830899357
 31
0.0
  0
LINE
  5
605C
330
A
100
AcDbEntity
  8
0
  6
Continuous
 62
     7
370
    25
100
AcDbLine
 10
320.2644519482333
 20
371.6634830899357
 30
0.0
 11
320.2644519482333
 21
360.6634830899357
 31
0.0
  0
LINE
  5
605D
330
A
100
AcDbEntity
  8
0
  6
Continuous
 62
     7
370
    25
100
AcDbLine
 10
318.7644519482333
 20
371.6634830899357
 30
0.0
 11
318.7644519482333
 21
360.6634830899357
 31
0.0
  0
LINE
  5
605E
330
A
100
AcDbEntity
  8
モデル
 62
   251
 48
0.6
370
    20
100
AcDbLine
 10
391.977629308005
 20
230.8555527362483
 30
0.0
 11
452.468064456372
 21
230.8555527362483
 31
0.0
  0
LINE
  5
605F
330
A
100
AcDbEntity
  8
モデル
 62
   251
370
    20
100
AcDbLine
 10
384.477629308005
 20
140.8555527362483
 30
0.0
 11
374.0776293080049
 21
140.8555527362483
 31
0.0
  0
DIMENSION
  5
6078
102
{ACAD_REACTORS
330
607A
102
}
102
{ACAD_XDICTIONARY
360
6079
102
}
330
A
100
AcDbEntity
  8
モデル
  6
Continuous
100
AcDbDimension
  2
*D7
 10
343.3801621040561
 20
337.5657115037357
 30
0.0
 11
339.8792242523617
 21
310.0645972968356
 31
0.0
 70
    32
 71
     5
 42
55.00222841380014
 73
     0
 74
     0
 75
     0
  3
tfrom線あり
100
AcDbAlignedDimension
 13
308.7644519482335
 23
282.5634830899356
 33
0.0
 14
320.2644519482334
 24
337.5657115037357
 34
0.0
 50
90.0
100
AcDbRotatedDimension
1001
ACAD
1000
DSTYLE
1002
{
1070
    41
1040
2.0
1002
}
  0
MTEXT
  5
6084
330
A
100
AcDbEntity
  8
モデル
100
AcDbMText
 10
448.9168733503386
 20
52.43106585902275
 30
0.0
 40
4.666666666666666
 41
117.3770917223399
 46
13.41773651230322
 71
     1
 72
     5
  1
{引手は接着剤による取り付け\P（接着剤は付属されていません）}
  7
ＭＳ ゴシック
 73
     1
 44
1.0
1001
ACAD
1000
ACAD_MTEXT_DEFINED_HEIGHT_BEGIN
1070
    46
1040
13.41773651230322
1000
ACAD_MTEXT_DEFINED_HEIGHT_END
  0
TEXT
  5
6085
330
A
100
AcDbEntity
  8
テンプレート
100
AcDbText
 10
51.87880631763976
 20
41.55613863503734
 30
0.0
 40
4.5
  1
シルバー
  7
ＭＳ ゴシック
100
AcDbText
  0
TEXT
  5
6086
330
A
100
AcDbEntity
  8
テンプレート
100
AcDbText
 10
87.28880412496677
 20
41.71982579921646
 30
0.0
 40
4.5
  1
シルバー/ブラック
  7
ＭＳ ゴシック
100
AcDbText
  0
TEXT
  5
6087
330
A
100
AcDbEntity
  8
テンプレート
100
AcDbText
 10
154.1607843848311
 20
41.47209271655701
 30
0.0
 40
4.5
  1
ブラック
  7
ＭＳ ゴシック
100
AcDbText
  0
TEXT
  5
6088
330
A
100
AcDbEntity
  8
テンプレート
100
AcDbText
 10
188.5486897777212
 20
41.61381603943352
 30
0.0
 40
4.5
  1
ホワイト
  7
ＭＳ ゴシック
100
AcDbText
  0
TEXT
  5
6089
330
A
100
AcDbEntity
  8
テンプレート
100
AcDbText
 10
223.6569079769071
 20
41.72958750646197
 30
0.0
 40
4.5
  1
サテン
  7
ＭＳ ゴシック
100
AcDbText
  0
TEXT
  5
608A
330
A
100
AcDbEntity
  8
テンプレート
100
AcDbText
 10
51.90489522428607
 20
30.28111230724345
 30
0.0
 40
4.5
  1
アルミ
  7
ＭＳ ゴシック
100
AcDbText
  0
TEXT
  5
608B
330
A
100
AcDbEntity
  8
テンプレート
100
AcDbText
 10
224.5145632423399
 20
29.84045455675229
 30
0.0
 40
4.5
  1
ステンレス
  7
ＭＳ ゴシック
100
AcDbText
  0
LINE
  5
608C
330
A
100
AcDbEntity
  8
モデル
  6
Continuous
100
AcDbLine
 10
84.17162165461266
 20
50.16496477419605
 30
0.0
 11
84.17162165461264
 21
38.27810890422097
 31
0.0
  0
LINE
  5
608D
330
A
100
AcDbEntity
  8
モデル
  6
Continuous
100
AcDbLine
 10
151.8246131949936
 20
50.16496477419605
 30
0.0
 11
151.8246131949937
 21
38.57200744070789
 31
0.0
  0
LINE
  5
608E
330
A
100
AcDbEntity
  8
モデル
  6
Continuous
100
AcDbLine
 10
186.0155899534483
 20
50.16496477419605
 30
0.0
 11
186.0155899534483
 21
38.57200744070789
 31
0.0
  0
TEXT
  5
608F
330
A
100
AcDbEntity
  8
テンプレート
100
AcDbText
 10
17.11905019860153
 20
41.94669819172437
 30
0.0
 40
4.5
  1
仕上げ
  7
ＭＳ ゴシック
100
AcDbText
  0
TEXT
  5
6090
330
A
100
AcDbEntity
  8
テンプレート
100
AcDbText
 10
17.11905019860153
 20
30.52549828337
 30
0.0
 40
4.5
  1
材質
  7
ＭＳ ゴシック
100
AcDbText
  0
LINE
  5
6109
330
A
100
AcDbEntity
  8
モデル
100
AcDbLine
 10
47.01972433470515
 20
50.24982287171508
 30
0.0
 11
47.01972433470515
 21
26.30639493672686
 31
0.0
  0
LINE
  5
610A
330
A
100
AcDbEntity
  8
モデル
100
AcDbLine
 10
219.7459910908929
 20
50.16496477419605
 30
0.0
 11
219.7459910908929
 21
26.22153683920783
 31
0.0
  0
LINE
  5
610B
330
A
100
AcDbEntity
  8
モデル
100
AcDbLine
 10
256.7966764733949
 20
50.16496477419605
 30
0.0
 11
256.7966764733949
 21
38.27810890422097
 31
0.0
  0
ARC
  5
6219
330
A
100
AcDbEntity
  8
0
  6
Continuous
 62
     7
370
    25
100
AcDbCircle
 10
395.477629308005
 20
134.2524161748765
 30
0.0
 40
11.00000000000003
100
AcDbArc
 50
180.0
 51
270.0
  0
ARC
  5
621A
330
A
100
AcDbEntity
  8
0
  6
Continuous
 62
     7
370
    25
100
AcDbCircle
 10
456.677629308005
 20
134.2524161748765
 30
0.0
 40
11.00000000000003
100
AcDbArc
 50
270.0
 51
0.0
  0
LINE
  5
621B
330
A
100
AcDbEntity
  8
0
  6
Continuous
 62
     7
370
    25
100
AcDbLine
 10
456.677629308005
 20
123.2524161748765
 30
0.0
 11
426.0776293080049
 21
123.2524161748765
 31
0.0
  0
LINE
  5
621C
330
A
100
AcDbEntity
  8
0
  6
Continuous
 62
     7
370
    25
100
AcDbLine
 10
426.0776293080049
 20
123.2524161748765
 30
0.0
 11
395.477629308005
 21
123.2524161748765
 31
0.0
  0
LINE
  5
621D
330
A
100
AcDbEntity
  8
0
  6
Continuous
 62
     7
370
    25
100
AcDbLine
 10
384.477629308005
 20
134.2524161748765
 30
0.0
 11
384.477629308005
 21
195.4524161748765
 31
0.0
  0
LINE
  5
621E
330
A
100
AcDbEntity
  8
0
  6
Continuous
 62
     7
370
    25
100
AcDbLine
 10
467.677629308005
 20
195.4524161748765
 30
0.0
 11
467.677629308005
 21
134.2524161748765
 31
0.0
  0
ARC
  5
621F
330
A
100
AcDbEntity
  8
0
  6
Continuous
 62
     7
370
    25
100
AcDbCircle
 10
456.677629308005
 20
195.4524161748765
 30
0.0
 40
11.00000000000001
100
AcDbArc
 50
0.0
 51
90.0
  0
ARC
  5
6220
330
A
100
AcDbEntity
  8
0
  6
Continuous
 62
     7
370
    25
100
AcDbCircle
 10
395.477629308005
 20
195.4524161748765
 30
0.0
 40
11.00000000000001
100
AcDbArc
 50
90.0
 51
180.0
  0
LINE
  5
6221
330
A
100
AcDbEntity
  8
0
  6
Continuous
 62
     7
370
    25
100
AcDbLine
 10
395.477629308005
 20
206.4524161748765
 30
0.0
 11
456.677629308005
 21
206.4524161748765
 31
0.0
  0
LINE
  5
6272
330
A
100
AcDbEntity
  8
0
  6
Continuous
 62
     7
370
    25
100
AcDbLine
 10
318.7644519482335
 20
205.6646589832764
 30
0.0
 11
317.9644519482335
 21
205.6646589832764
 31
0.0
  0
LINE
  5
6273
330
A
100
AcDbEntity
  8
0
  6
Continuous
 62
     7
370
    25
100
AcDbLine
 10
317.9644519482335
 20
205.6646589832764
 30
0.0
 11
317.9644519482335
 21
195.4524161748764
 31
0.0
  0
LINE
  5
6274
330
A
100
AcDbEntity
  8
0
  6
Continuous
 62
     7
370
    25
100
AcDbLine
 10
317.9644519482335
 20
195.4524161748764
 30
0.0
 11
317.9644519482335
 21
134.2524161748765
 31
0.0
  0
LINE
  5
6275
330
A
100
AcDbEntity
  8
0
  6
Continuous
 62
     7
370
    25
100
AcDbLine
 10
318.7644519482335
 20
124.0401733665765
 30
0.0
 11
317.9644519482335
 21
124.0401733665765
 31
0.0
  0
LINE
  5
6276
330
A
100
AcDbEntity
  8
0
  6
Continuous
 62
     7
370
    25
100
AcDbLine
 10
317.9644519482335
 20
134.2524161748765
 30
0.0
 11
317.9644519482335
 21
124.0401733665765
 31
0.0
  0
ARC
  5
62A1
330
A
100
AcDbEntity
  8
0
  6
Continuous
 62
     7
370
    25
100
AcDbCircle
 10
317.4644519482335
 20
204.9309165262765
 30
0.0
 40
0.5
100
AcDbArc
 50
273.9999999999964
 51
0.0
  0
ARC
  5
62A2
330
A
100
AcDbEntity
  8
0
  6
Continuous
 62
     7
370
    25
100
AcDbCircle
 10
317.4644519482335
 20
124.7739158234765
 30
0.0
 40
0.5
100
AcDbArc
 50
0.0
 51
86.0000000000035
  0
LINE
  5
62A9
330
A
100
AcDbEntity
  8
0
  6
Continuous
 62
     7
370
    25
100
AcDbLine
 10
317.4993301851335
 20
204.4321345011764
 30
0.0
 11
310.2644519482335
 21
203.9262225312418
 31
0.0
  0
LINE
  5
62AA
330
A
100
AcDbEntity
  8
0
  6
Continuous
 62
     7
370
    25
100
AcDbLine
 10
317.4993301851335
 20
125.2726978486765
 30
0.0
 11
310.2644519482335
 21
125.7786098185296
 31
0.0
  0
LINE
  5
62DF
330
A
100
AcDbEntity
  8
0
  6
Continuous
 62
     7
370
    25
100
AcDbLine
 10
320.2644519482335
 20
123.2524161748765
 30
0.0
 11
320.2644519482335
 21
134.2524161748765
 31
0.0
  0
LINE
  5
62E0
330
A
100
AcDbEntity
  8
0
  6
Continuous
 62
     7
370
    25
100
AcDbLine
 10
320.2644519482335
 20
123.2524161748765
 30
0.0
 11
318.7644519482335
 21
123.2524161748765
 31
0.0
  0
LINE
  5
62E1
330
A
100
AcDbEntity
  8
0
  6
Continuous
 62
     7
370
    25
100
AcDbLine
 10
318.7644519482335
 20
123.2524161748765
 30
0.0
 11
318.7644519482335
 21
134.2524161748765
 31
0.0
  0
LINE
  5
62E2
330
A
100
AcDbEntity
  8
0
  6
Continuous
 62
     7
370
    25
100
AcDbLine
 10
320.2644519482335
 20
206.4524161748764
 30
0.0
 11
318.7644519482335
 21
206.4524161748764
 31
0.0
  0
LINE
  5
62E3
330
A
100
AcDbEntity
  8
0
  6
Continuous
 62
     7
370
    25
100
AcDbLine
 10
320.2644519482335
 20
195.4524161748764
 30
0.0
 11
320.2644519482335
 21
206.4524161748764
 31
0.0
  0
LINE
  5
62E4
330
A
100
AcDbEntity
  8
0
  6
Continuous
 62
     7
370
    25
100
AcDbLine
 10
318.7644519482335
 20
195.4524161748764
 30
0.0
 11
318.7644519482335
 21
206.4524161748764
 31
0.0
  0
LINE
  5
62E5
330
A
100
AcDbEntity
  8
0
  6
Continuous
 62
     7
370
    25
100
AcDbLine
 10
320.2644519482335
 20
134.2524161748765
 30
0.0
 11
320.2644519482335
 21
195.4524161748764
 31
0.0
  0
LINE
  5
62E6
330
A
100
AcDbEntity
  8
0
  6
Continuous
 62
     7
370
    25
100
AcDbLine
 10
318.7644519482335
 20
134.2524161748765
 30
0.0
 11
318.7644519482335
 21
195.4524161748764
 31
0.0
  0
ARC
  5
6322
330
A
100
AcDbEntity
  8
0
  6
Continuous
 62
     7
370
    25
100
AcDbCircle
 10
306.2644519482335
 20
157.9024161748765
 30
0.0
 40
0.5
100
AcDbArc
 50
180.0
 51
270.0
  0
ARC
  5
6323
330
A
100
AcDbEntity
  8
0
  6
Continuous
 62
     7
370
    25
100
AcDbCircle
 10
306.2644519482335
 20
171.8024161748764
 30
0.0
 40
0.5
100
AcDbArc
 50
90.0
 51
180.0
  0
LINE
  5
6324
330
A
100
AcDbEntity
  8
0
  6
Continuous
 62
     7
370
    25
100
AcDbLine
 10
306.7644519482335
 20
172.3024161748764
 30
0.0
 11
306.2644519482335
 21
172.3024161748764
 31
0.0
  0
LINE
  5
6325
330
A
100
AcDbEntity
  8
0
  6
Continuous
 62
     7
370
    25
100
AcDbLine
 10
306.2644519482335
 20
157.4024161748765
 30
0.0
 11
306.7644519482335
 21
157.4024161748765
 31
0.0
  0
LINE
  5
632B
330
A
100
AcDbEntity
  8
0
  6
Continuous
 62
     7
370
    25
100
AcDbLine
 10
305.7644519482335
 20
164.8524161748765
 30
0.0
 11
305.7644519482335
 21
171.8024161748764
 31
0.0
  0
LINE
  5
632C
330
A
100
AcDbEntity
  8
0
  6
Continuous
 62
     7
370
    25
100
AcDbLine
 10
305.7644519482335
 20
157.9024161748765
 30
0.0
 11
305.7644519482335
 21
164.8524161748765
 31
0.0
  0
LINE
  5
6393
330
A
100
AcDbEntity
  8
0
  6
Continuous
 62
     7
370
    25
100
AcDbLine
 10
557.6587607549218
 20
205.6646589832765
 30
0.0
 11
556.8587607549216
 21
205.6646589832765
 31
0.0
  0
LINE
  5
6394
330
A
100
AcDbEntity
  8
0
  6
Continuous
 62
     7
370
    25
100
AcDbLine
 10
556.8587607549216
 20
205.6646589832765
 30
0.0
 11
556.8587607549216
 21
195.4524161748765
 31
0.0
  0
LINE
  5
6395
330
A
100
AcDbEntity
  8
0
  6
Continuous
 62
     7
370
    25
100
AcDbLine
 10
556.8587607549216
 20
195.4524161748765
 30
0.0
 11
556.8587607549216
 21
134.2524161748765
 31
0.0
  0
LINE
  5
6396
330
A
100
AcDbEntity
  8
0
  6
Continuous
 62
     7
370
    25
100
AcDbLine
 10
557.6587607549218
 20
124.0401733665765
 30
0.0
 11
556.8587607549216
 21
124.0401733665765
 31
0.0
  0
LINE
  5
6397
330
A
100
AcDbEntity
  8
0
  6
Continuous
 62
     7
370
    25
100
AcDbLine
 10
556.8587607549216
 20
134.2524161748765
 30
0.0
 11
556.8587607549216
 21
124.0401733665765
 31
0.0
  0
ARC
  5
6398
330
A
100
AcDbEntity
  8
0
  6
Continuous
 62
     7
370
    25
100
AcDbCircle
 10
556.3587607549216
 20
204.9309165262765
 30
0.0
 40
0.5
100
AcDbArc
 50
274.0000000000094
 51
0.0
  0
ARC
  5
6399
330
A
100
AcDbEntity
  8
0
  6
Continuous
 62
     7
370
    25
100
AcDbCircle
 10
556.3587607549216
 20
124.7739158234765
 30
0.0
 40
0.5
100
AcDbArc
 50
0.0
 51
85.99999999999051
  0
LINE
  5
639A
330
A
100
AcDbEntity
  8
0
  6
Continuous
 62
     7
370
    25
100
AcDbLine
 10
556.3936389918217
 20
204.4321345011765
 30
0.0
 11
547.5192478074216
 21
203.8115766176765
 31
0.0
  0
LINE
  5
639B
330
A
100
AcDbEntity
  8
0
  6
Continuous
 62
     7
370
    25
100
AcDbLine
 10
556.3936389918217
 20
125.2726978486765
 30
0.0
 11
547.5192478074216
 21
125.8932557320765
 31
0.0
  0
LINE
  5
639C
330
A
100
AcDbEntity
  8
0
  6
Continuous
 62
     7
370
    25
100
AcDbLine
 10
545.6587607549218
 20
134.2524161748765
 30
0.0
 11
545.6587607549218
 21
195.4524161748765
 31
0.0
  0
LINE
  5
639D
330
A
100
AcDbEntity
  8
0
  6
Continuous
 62
     7
370
    25
100
AcDbLine
 10
545.6587607549218
 20
195.4524161748765
 30
0.0
 11
545.6587607549218
 21
201.8164485171765
 31
0.0
  0
ARC
  5
639E
330
A
100
AcDbEntity
  8
0
  6
Continuous
 62
     7
370
    25
100
AcDbCircle
 10
547.6587607549218
 20
201.8164485171765
 30
0.0
 40
2.000000000000032
100
AcDbArc
 50
94.00000000000297
 51
180.0
  0
ARC
  5
639F
102
{ACAD_REACTORS
330
68EF
102
}
330
A
100
AcDbEntity
  8
0
  6
Continuous
 62
     7
370
    25
100
AcDbCircle
 10
547.6587607549218
 20
127.8883838326765
 30
0.0
 40
2.000000000000004
100
AcDbArc
 50
180.0
 51
265.999999999997
  0
LINE
  5
63A0
330
A
100
AcDbEntity
  8
0
  6
Continuous
 62
     7
370
    25
100
AcDbLine
 10
545.6587607549218
 20
127.8883838326765
 30
0.0
 11
545.6587607549218
 21
134.2524161748765
 31
0.0
  0
LINE
  5
63A1
330
A
100
AcDbEntity
  8
0
  6
Continuous
 62
     7
370
    25
100
AcDbLine
 10
559.1587607549218
 20
123.2524161748765
 30
0.0
 11
559.1587607549218
 21
134.2524161748765
 31
0.0
  0
LINE
  5
63A2
330
A
100
AcDbEntity
  8
0
  6
Continuous
 62
     7
370
    25
100
AcDbLine
 10
559.1587607549218
 20
123.2524161748765
 30
0.0
 11
557.6587607549218
 21
123.2524161748765
 31
0.0
  0
LINE
  5
63A3
102
{ACAD_REACTORS
330
671E
102
}
330
A
100
AcDbEntity
  8
0
  6
Continuous
 62
     7
370
    25
100
AcDbLine
 10
557.6587607549218
 20
123.2524161748765
 30
0.0
 11
557.6587607549218
 21
134.2524161748765
 31
0.0
  0
LINE
  5
63A4
330
A
100
AcDbEntity
  8
0
  6
Continuous
 62
     7
370
    25
100
AcDbLine
 10
559.1587607549218
 20
206.4524161748765
 30
0.0
 11
557.6587607549218
 21
206.4524161748765
 31
0.0
  0
LINE
  5
63A5
330
A
100
AcDbEntity
  8
0
  6
Continuous
 62
     7
370
    25
100
AcDbLine
 10
559.1587607549218
 20
195.4524161748765
 30
0.0
 11
559.1587607549218
 21
206.4524161748765
 31
0.0
  0
LINE
  5
63A6
102
{ACAD_REACTORS
330
671E
102
}
330
A
100
AcDbEntity
  8
0
  6
Continuous
 62
     7
370
    25
100
AcDbLine
 10
557.6587607549218
 20
195.4524161748765
 30
0.0
 11
557.6587607549218
 21
206.4524161748765
 31
0.0
  0
LINE
  5
63A7
330
A
100
AcDbEntity
  8
0
  6
Continuous
 62
     7
370
    25
100
AcDbLine
 10
559.1587607549218
 20
134.2524161748765
 30
0.0
 11
559.1587607549218
 21
195.4524161748765
 31
0.0
  0
LINE
  5
63A8
330
A
100
AcDbEntity
  8
0
  6
Continuous
 62
     7
370
    25
100
AcDbLine
 10
557.6587607549218
 20
134.2524161748765
 30
0.0
 11
557.6587607549218
 21
195.4524161748765
 31
0.0
  0
LINE
  5
63BE
330
A
100
AcDbEntity
  8
0
  6
Continuous
 62
     7
370
    25
100
AcDbLine
 10
466.8898721164051
 20
331.0660637775916
 30
0.0
 11
466.8898721164051
 21
331.8660637775916
 31
0.0
  0
LINE
  5
63BF
330
A
100
AcDbEntity
  8
0
  6
Continuous
 62
     7
370
    25
100
AcDbLine
 10
466.8898721164051
 20
331.8660637775916
 30
0.0
 11
456.677629308005
 21
331.8660637775916
 31
0.0
  0
LINE
  5
63C0
330
A
100
AcDbEntity
  8
0
  6
Continuous
 62
     7
370
    25
100
AcDbLine
 10
456.677629308005
 20
331.8660637775916
 30
0.0
 11
395.4776293080052
 21
331.8660637775916
 31
0.0
  0
LINE
  5
63C1
330
A
100
AcDbEntity
  8
0
  6
Continuous
 62
     7
370
    25
100
AcDbLine
 10
385.2653864997051
 20
331.0660637775917
 30
0.0
 11
385.2653864997051
 21
331.8660637775916
 31
0.0
  0
LINE
  5
63C2
330
A
100
AcDbEntity
  8
0
  6
Continuous
 62
     7
370
    25
100
AcDbLine
 10
395.4776293080052
 20
331.8660637775916
 30
0.0
 11
385.2653864997051
 21
331.8660637775916
 31
0.0
  0
ARC
  5
63C3
102
{ACAD_REACTORS
330
6A6E
102
}
330
A
100
AcDbEntity
  8
0
  6
Continuous
 62
     7
370
    25
100
AcDbCircle
 10
466.1561296594051
 20
332.3660637775916
 30
0.0
 40
0.5
100
AcDbArc
 50
183.9999999999965
 51
270.0
  0
ARC
  5
63C4
330
A
100
AcDbEntity
  8
0
  6
Continuous
 62
     7
370
    25
100
AcDbCircle
 10
385.9991289566051
 20
332.3660637775916
 30
0.0
 40
0.5
100
AcDbArc
 50
270.0
 51
356.0000000000035
  0
LINE
  5
63C5
330
A
100
AcDbEntity
  8
0
  6
Continuous
 62
     7
370
    25
100
AcDbLine
 10
465.6573476343052
 20
332.3311855406916
 30
0.0
 11
465.0367897508052
 21
341.2055767250916
 31
0.0
  0
LINE
  5
63C6
330
A
100
AcDbEntity
  8
0
  6
Continuous
 62
     7
370
    25
100
AcDbLine
 10
386.4979109818051
 20
332.3311855406916
 30
0.0
 11
387.1184688652052
 21
341.2055767250916
 31
0.0
  0
LINE
  5
63C7
330
A
100
AcDbEntity
  8
0
  6
Continuous
 62
     7
370
    25
100
AcDbLine
 10
395.4776293080052
 20
343.0660637775917
 30
0.0
 11
456.677629308005
 21
343.0660637775916
 31
0.0
  0
LINE
  5
63C8
102
{ACAD_REACTORS
330
6A5F
102
}
330
A
100
AcDbEntity
  8
0
  6
Continuous
 62
     7
370
    25
100
AcDbLine
 10
456.677629308005
 20
343.0660637775916
 30
0.0
 11
463.0416616503051
 21
343.0660637775916
 31
0.0
  0
ARC
  5
63C9
330
A
100
AcDbEntity
  8
0
  6
Continuous
 62
     7
370
    25
100
AcDbCircle
 10
463.0416616503051
 20
341.0660637775916
 30
0.0
 40
2.000000000000032
100
AcDbArc
 50
4.00000000000301
 51
90.0
  0
ARC
  5
63CA
330
A
100
AcDbEntity
  8
0
  6
Continuous
 62
     7
370
    25
100
AcDbCircle
 10
389.1135969658051
 20
341.0660637775917
 30
0.0
 40
2.000000000000004
100
AcDbArc
 50
90.0
 51
175.999999999997
  0
LINE
  5
63CB
330
A
100
AcDbEntity
  8
0
  6
Continuous
 62
     7
370
    25
100
AcDbLine
 10
389.1135969658051
 20
343.0660637775917
 30
0.0
 11
395.4776293080052
 21
343.0660637775917
 31
0.0
  0
LINE
  5
63CC
330
A
100
AcDbEntity
  8
0
  6
Continuous
 62
     7
370
    25
100
AcDbLine
 10
384.477629308005
 20
329.5660637775917
 30
0.0
 11
395.4776293080052
 21
329.5660637775917
 31
0.0
  0
LINE
  5
63CD
102
{ACAD_REACTORS
330
674E
102
}
330
A
100
AcDbEntity
  8
0
  6
Continuous
 62
     7
370
    25
100
AcDbLine
 10
384.477629308005
 20
329.5660637775917
 30
0.0
 11
384.477629308005
 21
331.0660637775917
 31
0.0
  0
LINE
  5
63CE
330
A
100
AcDbEntity
  8
0
  6
Continuous
 62
     7
370
    25
100
AcDbLine
 10
384.477629308005
 20
331.0660637775917
 30
0.0
 11
395.4776293080052
 21
331.0660637775917
 31
0.0
  0
LINE
  5
63CF
330
A
100
AcDbEntity
  8
0
  6
Continuous
 62
     7
370
    25
100
AcDbLine
 10
467.677629308005
 20
329.5660637775916
 30
0.0
 11
467.677629308005
 21
331.0660637775916
 31
0.0
  0
LINE
  5
63D0
102
{ACAD_REACTORS
330
674E
102
}
330
A
100
AcDbEntity
  8
0
  6
Continuous
 62
     7
370
    25
100
AcDbLine
 10
456.677629308005
 20
329.5660637775916
 30
0.0
 11
467.677629308005
 21
329.5660637775916
 31
0.0
  0
LINE
  5
63D1
330
A
100
AcDbEntity
  8
0
  6
Continuous
 62
     7
370
    25
100
AcDbLine
 10
456.677629308005
 20
331.0660637775916
 30
0.0
 11
467.677629308005
 21
331.0660637775916
 31
0.0
  0
LINE
  5
63D2
330
A
100
AcDbEntity
  8
0
  6
Continuous
 62
     7
370
    25
100
AcDbLine
 10
395.4776293080052
 20
329.5660637775917
 30
0.0
 11
456.677629308005
 21
329.5660637775916
 31
0.0
  0
LINE
  5
63D3
330
A
100
AcDbEntity
  8
0
  6
Continuous
 62
     7
370
    25
100
AcDbLine
 10
395.4776293080052
 20
331.0660637775917
 30
0.0
 11
456.677629308005
 21
331.0660637775916
 31
0.0
  0
SPLINE
  5
6418
330
A
100
AcDbEntity
  8
モデル
  6
HIDDEN
 48
0.5
100
AcDbSpline
210
0.0
220
0.0
230
1.0
 70
  1064
 71
     3
 72
    41
 73
    37
 74
    35
 42
0.000000001
 43
0.0000000001
 44
0.0
 40
0.0
 40
0.0
 40
0.0
 40
0.0
 40
0.5851455292744817
 40
1.290026392028616
 40
1.703801671943753
 40
2.283265376226843
 40
2.697395641562778
 40
3.000549473240526
 40
3.275842724286455
 40
3.661605862991802
 40
4.023135575674803
 40
4.359919367780816
 40
5.002478737846749
 40
5.798299623099259
 40
13.29384555292025
 40
21.73021775601116
 40
31.02940075259985
 40
45.18588895702876
 40
56.75394478096387
 40
67.71483745391907
 40
76.31447237706516
 40
78.24119662557126
 40
78.71028707721034
 40
79.14044147077935
 40
79.51173887629072
 40
79.88829581428747
 40
80.40929244322014
 40
80.77283221201864
 40
81.03621067906225
 40
81.31351029898424
 40
81.56550671367035
 40
82.08160716373521
 40
82.52567863229089
 40
82.86169792912264
 40
83.08013968977838
 40
83.20902318469138
 40
83.20902318469138
 40
83.20902318469138
 40
83.20902318469138
 10
310.2644519482335
 20
125.7786098185296
 30
0.0
 10
310.0698561858452
 20
125.7918449984093
 30
0.0
 10
309.6408455266181
 20
125.8210236052582
 30
0.0
 10
309.0746609395168
 20
125.8667004893544
 30
0.0
 10
308.5090009744105
 20
125.8896404165924
 30
0.0
 10
308.0456766621855
 20
125.9981798818979
 30
0.0
 10
307.6629223824519
 20
126.2063155011371
 30
0.0
 10
307.4033826488311
 20
126.413370532215
 30
0.0
 10
307.1831896746181
 20
126.6488095669853
 30
0.0
 10
306.9931894143068
 20
126.9345742087368
 30
0.0
 10
306.852111261504
 20
127.2691639963494
 30
0.0
 10
306.7511761301936
 20
127.7075208094557
 30
0.0
 10
306.7697973969606
 20
128.302952153468
 30
0.0
 10
306.7471809980997
 20
131.2764215133425
 30
0.0
 10
306.772826143849
 20
136.8574472591056
 30
0.0
 10
306.7619118810789
 20
145.265622758965
 30
0.0
 10
306.7653366503051
 20
155.8970694869618
 30
0.0
 10
306.7656483507353
 20
167.571259015563
 30
0.0
 10
306.7602324812757
 20
179.8001289479639
 30
0.0
 10
306.7782191748363
 20
190.175307811636
 30
0.0
 10
306.7376984938116
 20
197.3399697313872
 30
0.0
 10
306.7785284207395
 20
201.0028614940298
 30
0.0
 10
306.7534775201684
 20
201.9462365311291
 30
0.0
 10
306.8272447106023
 20
202.3669816883825
 30
0.0
 10
306.9741162061832
 20
202.7336120196962
 30
0.0
 10
307.2022330714921
 20
203.0924887658743
 30
0.0
 10
307.5051475308229
 20
203.3914906931066
 30
0.0
 10
307.8316055559131
 20
203.5950270576883
 30
0.0
 10
308.109953013428
 20
203.712509323615
 30
0.0
 10
308.3656767958844
 20
203.7833385217526
 30
0.0
 10
308.7124537148053
 20
203.8234773922529
 30
0.0
 10
309.1159208609185
 20
203.844210564802
 30
0.0
 10
309.5468255638786
 20
203.8763585546325
 30
0.0
 10
309.8788781964624
 20
203.899213697905
 30
0.0
 10
310.1061021012599
 20
203.9151547468011
 30
0.0
 10
310.2215953613349
 20
203.9232270912416
 30
0.0
 10
310.2644519482335
 20
203.9262225312418
 30
0.0
 11
310.2644519482335
 21
125.7786098185296
 31
0.0
 11
309.6807318040587
 21
125.8194275072747
 31
0.0
 11
308.9775679956587
 21
125.8685975106651
 31
0.0
 11
308.5648650384146
 21
125.8983674846459
 31
0.0
 11
308.0027531115684
 21
126.0391096825778
 31
0.0
 11
307.6382199907893
 21
126.2356280799921
 31
0.0
 11
307.4013587916582
 21
126.4248343642616
 31
0.0
 11
307.2132968035128
 21
126.6258792912959
 31
0.0
 11
306.9997720765487
 21
126.9471585937085
 31
0.0
 11
306.8591592746112
 21
127.2802228113662
 31
0.0
 11
306.7841265988272
 21
127.6085418942566
 31
0.0
 11
306.7644519482335
 21
128.2507999827098
 31
0.0
 11
306.7644519482335
 21
129.0466208679623
 31
0.0
 11
306.7644519482335
 21
136.5421667977833
 31
0.0
 11
306.7644519482335
 21
144.9785390008742
 31
0.0
 11
306.7644519482335
 21
154.2777219974629
 31
0.0
 11
306.7644519482335
 21
168.4342102018918
 31
0.0
 11
306.7644519482335
 21
180.0022660258269
 31
0.0
 11
306.7644519482335
 21
190.9631586987821
 31
0.0
 11
306.7644519482335
 21
199.5627936219282
 31
0.0
 11
306.7644519482335
 21
201.4895178704343
 31
0.0
 11
306.7695087563494
 21
201.9585810650154
 31
0.0
 11
306.8460421923638
 21
202.3818722596776
 31
0.0
 11
306.9836185868112
 21
202.7267410739104
 31
0.0
 11
307.185810133221
 21
203.0444102510647
 31
0.0
 11
307.5565299358143
 21
203.4104762496557
 31
0.0
 11
307.8650320759172
 21
203.6027978372375
 31
0.0
 11
308.1075634393034
 21
203.7054952309545
 31
0.0
 11
308.3751632093732
 21
203.7781962781785
 31
0.0
 11
308.6249390007335
 21
203.8115766176765
 31
0.0
 11
309.139782256041
 21
203.8475779651728
 31
0.0
 11
309.5827719888181
 21
203.8785548249113
 31
0.0
 11
309.9179727595309
 21
203.9019943461696
 31
0.0
 11
310.1358824070365
 21
203.9172320731123
 31
0.0
 11
310.2644519482335
 21
203.9262225312418
 31
0.0
  0
LINE
  5
641D
330
A
100
AcDbEntity
  8
モデル
 62
   251
370
    20
100
AcDbLine
 10
456.0776293080049
 20
227.1319087187857
 30
0.0
 11
456.0776293080049
 21
206.4524161748765
 31
0.0
  0
DIMENSION
  5
670D
102
{ACAD_REACTORS
330
670F
102
}
102
{ACAD_XDICTIONARY
360
670E
102
}
330
A
100
AcDbEntity
  8
モデル
100
AcDbDimension
  2
*D11
 10
371.0776293080049
 20
96.09085951933706
 30
0.0
 11
398.5776293080049
 21
99.59179737103145
 31
0.0
 70
    32
 71
     5
 42
55.0
 73
     0
 74
     0
 75
     0
  3
tfrom線あり
100
AcDbAlignedDimension
 13
426.0776293080049
 23
160.8524161748765
 33
0.0
 14
371.0776293080049
 24
110.8555527362483
 34
0.0
100
AcDbRotatedDimension
1001
ACAD
1000
DSTYLE
1002
{
1070
    41
1040
2.0
1002
}
  0
DIMENSION
  5
671C
102
{ACAD_REACTORS
330
671E
102
}
102
{ACAD_XDICTIONARY
360
671D
102
}
330
A
100
AcDbEntity
  8
モデル
100
AcDbDimension
  2
*D12
 10
521.8540717136248
 20
206.4524161748765
 30
0.0
 11
521.8540717136248
 21
164.8524161748765
 31
0.0
 70
   160
  1
83.5
 71
     5
 42
83.2
 73
     0
 74
     0
 75
     0
  3
tfrom線あり
100
AcDbAlignedDimension
 13
557.6587607549218
 23
123.2524161748765
 33
0.0
 14
557.6587607549218
 24
206.4524161748765
 34
0.0
 50
90.0
100
AcDbRotatedDimension
1001
ACAD
1000
DSTYLE
1002
{
1070
    41
1040
2.0
1002
}
  0
DIMENSION
  5
672B
330
A
100
AcDbEntity
  8
モデル
100
AcDbDimension
  2
*D13
 10
534.4064216590614
 20
204.9309165262765
 30
0.0
 11
530.9064216590614
 21
164.8524161748765
 31
0.0
 70
    32
 71
     5
 42
80.15700070279999
 73
     0
 74
     0
 75
     0
  3
tfrom線あり
100
AcDbAlignedDimension
 13
556.8587607549216
 23
124.7739158234765
 33
0.0
 14
556.8587607549216
 24
204.9309165262765
 34
0.0
 50
90.0
100
AcDbRotatedDimension
1001
ACAD
1000
DSTYLE
1002
{
1070
    41
1040
2.0
1002
}
  0
DIMENSION
  5
673A
330
A
100
AcDbEntity
  8
モデル
100
AcDbDimension
  2
*D14
 10
545.6587607549218
 20
105.1077700974091
 30
0.0
 11
551.6587607549218
 21
105.1077700974091
 31
0.0
 70
   160
 71
     5
 42
11.19999999999982
 73
     0
 74
     0
 75
     0
  3
tfrom線あり
100
AcDbAlignedDimension
 13
556.8587607549216
 23
124.7739158234765
 33
0.0
 14
545.6587607549218
 24
125.7823993903914
 34
0.0
100
AcDbRotatedDimension
1001
ACAD
1000
DSTYLE
1002
{
1070
    41
1040
2.0
1070
   172
1070
     1
1070
   140
1040
4.5
1002
}
  0
DIMENSION
  5
674C
102
{ACAD_REACTORS
330
674E
102
}
102
{ACAD_XDICTIONARY
360
674D
102
}
330
A
100
AcDbEntity
  8
モデル
100
AcDbDimension
  2
*D15
 10
467.677629308005
 20
304.2074844481683
 30
0.0
 11
426.077629308005
 21
307.7084222998627
 31
0.0
 70
    32
  1
83.5
 71
     5
 42
83.19999999999999
 73
     0
 74
     0
 75
     0
  3
tfrom線あり
100
AcDbAlignedDimension
 13
384.477629308005
 23
329.5660637775917
 33
0.0
 14
467.677629308005
 24
329.5660637775916
 34
0.0
100
AcDbRotatedDimension
1001
ACAD
1000
DSTYLE
1002
{
1070
    41
1040
2.0
1002
}
  0
DIMENSION
  5
675B
330
A
100
AcDbEntity
  8
モデル
100
AcDbDimension
  2
*D16
 10
466.1561296594051
 20
365.1940208148804
 30
0.0
 11
426.0776293080051
 21
368.6940208148804
 31
0.0
 70
    32
 71
     5
 42
80.15700070280002
 73
     0
 74
     0
 75
     0
  3
tfrom線あり
100
AcDbAlignedDimension
 13
385.9991289566051
 23
331.8660637775916
 33
0.0
 14
466.1561296594051
 24
331.8660637775916
 34
0.0
100
AcDbRotatedDimension
1001
ACAD
1000
DSTYLE
1002
{
1070
    41
1040
2.0
1002
}
  0
LINE
  5
6773
330
A
100
AcDbEntity
  8
モデル
100
AcDbLine
 10
227.7010398322577
 20
198.8555527362484
 30
0.0
 11
227.7010398322577
 21
172.8555527362484
 31
0.0
  0
LINE
  5
6774
330
A
100
AcDbEntity
  8
モデル
100
AcDbLine
 10
227.7010398322577
 20
172.8555527362484
 30
0.0
 11
227.7010398322577
 21
140.8555527362482
 31
0.0
  0
LINE
  5
6775
330
A
100
AcDbEntity
  8
モデル
 62
   251
370
    20
100
AcDbLine
 10
227.7010398322577
 20
110.8555527362483
 30
0.0
 11
227.7010398322577
 21
260.8555527362483
 31
0.0
  0
LINE
  5
6776
102
{ACAD_REACTORS
330
67C9
102
}
330
A
100
AcDbEntity
  8
モデル
 62
   251
370
    20
100
AcDbLine
 10
227.7010398322577
 20
110.8555527362483
 30
0.0
 11
224.7010398322577
 21
110.8555527362483
 31
0.0
  0
LINE
  5
6777
330
A
100
AcDbEntity
  8
モデル
 62
   251
370
    20
100
AcDbLine
 10
224.7010398322577
 20
110.8555527362483
 30
0.0
 11
224.7010398322577
 21
260.8555527362483
 31
0.0
  0
LINE
  5
6778
330
A
100
AcDbEntity
  8
モデル
  6
HIDDEN
 62
   251
 48
0.6
370
    20
100
AcDbLine
 10
214.3010398322577
 20
140.8555527362483
 30
0.0
 11
146.3106046838907
 21
140.8555527362483
 31
0.0
  0
LINE
  5
6779
330
A
100
AcDbEntity
  8
モデル
 62
   251
370
    20
100
AcDbLine
 10
206.8010398322577
 20
230.8555527362483
 30
0.0
 11
224.7010398322577
 21
230.8555527362483
 31
0.0
  0
LINE
  5
677A
330
A
100
AcDbEntity
  8
モデル
 62
   251
370
    20
100
AcDbLine
 10
224.7010398322577
 20
260.8555527362483
 30
0.0
 11
227.7010398322577
 21
260.8555527362483
 31
0.0
  0
LINE
  5
677B
330
A
100
AcDbEntity
  8
モデル
  6
HIDDEN
 62
   251
 48
0.6
370
    20
100
AcDbLine
 10
142.7010398322577
 20
144.5791967537109
 30
0.0
 11
142.7010398322577
 21
206.4524161748765
 31
0.0
  0
LINE
  5
6781
330
A
100
AcDbEntity
  8
モデル
 62
   251
370
    20
100
AcDbLine
 10
249.7010398322577
 20
194.2481133133744
 30
0.0
 11
243.3637572280795
 21
185.909229916202
 31
0.0
  0
ARC
  5
6782
330
A
100
AcDbEntity
  8
モデル
 62
   251
370
    20
100
AcDbCircle
 10
210.9271875521228
 20
170.7141740499907
 30
0.0
 40
45.35700516893012
100
AcDbArc
 50
31.25581883775171
 51
68.29558582753224
  0
ARC
  5
6783
330
A
100
AcDbEntity
  8
モデル
 62
   251
370
    20
100
AcDbCircle
 10
191.9172109946955
 20
159.918143884184
 30
0.0
 40
57.63925461408635
100
AcDbArc
 50
26.80316359067378
 51
51.62367246110743
  0
LINE
  5
6784
330
A
100
AcDbEntity
  8
モデル
 62
   251
 48
0.6
370
    20
100
AcDbLine
 10
146.3106046838906
 20
230.8555527362483
 30
0.0
 11
142.7010398322577
 21
227.1319087187857
 31
0.0
  0
LINE
  5
6785
330
A
100
AcDbEntity
  8
モデル
  6
HIDDEN
 62
   251
 48
0.6
370
    20
100
AcDbLine
 10
146.3106046838906
 20
140.8555527362483
 30
0.0
 11
142.7010398322577
 21
144.5791967537109
 31
0.0
  0
LINE
  5
6786
330
A
100
AcDbEntity
  8
モデル
 62
   251
 48
0.6
370
    20
100
AcDbLine
 10
206.8010398322577
 20
230.8555527362483
 30
0.0
 11
146.3106046838906
 21
230.8555527362483
 31
0.0
  0
LINE
  5
6787
330
A
100
AcDbEntity
  8
モデル
 62
   251
370
    20
100
AcDbLine
 10
214.3010398322577
 20
140.8555527362483
 30
0.0
 11
224.7010398322577
 21
140.8555527362483
 31
0.0
  0
ARC
  5
6790
330
A
100
AcDbEntity
  8
0
  6
Continuous
 62
     7
370
    25
100
AcDbCircle
 10
203.3010398322577
 20
134.2524161748765
 30
0.0
 40
11.00000000000003
100
AcDbArc
 50
270.0
 51
0.0
  0
ARC
  5
6791
330
A
100
AcDbEntity
  8
0
  6
Continuous
 62
     7
370
    25
100
AcDbCircle
 10
142.1010398322576
 20
134.2524161748765
 30
0.0
 40
11.00000000000003
100
AcDbArc
 50
180.0
 51
270.0
  0
LINE
  5
6792
330
A
100
AcDbEntity
  8
0
  6
Continuous
 62
     7
370
    25
100
AcDbLine
 10
142.1010398322576
 20
123.2524161748765
 30
0.0
 11
172.7010398322577
 21
123.2524161748765
 31
0.0
  0
LINE
  5
6793
330
A
100
AcDbEntity
  8
0
  6
Continuous
 62
     7
370
    25
100
AcDbLine
 10
172.7010398322577
 20
123.2524161748765
 30
0.0
 11
203.3010398322577
 21
123.2524161748765
 31
0.0
  0
LINE
  5
6794
330
A
100
AcDbEntity
  8
0
  6
Continuous
 62
     7
370
    25
100
AcDbLine
 10
214.3010398322577
 20
134.2524161748765
 30
0.0
 11
214.3010398322577
 21
195.4524161748765
 31
0.0
  0
LINE
  5
6795
330
A
100
AcDbEntity
  8
0
  6
Continuous
 62
     7
370
    25
100
AcDbLine
 10
131.1010398322576
 20
195.4524161748765
 30
0.0
 11
131.1010398322576
 21
134.2524161748765
 31
0.0
  0
ARC
  5
6796
330
A
100
AcDbEntity
  8
0
  6
Continuous
 62
     7
370
    25
100
AcDbCircle
 10
142.1010398322576
 20
195.4524161748765
 30
0.0
 40
11.00000000000001
100
AcDbArc
 50
90.0
 51
180.0
  0
ARC
  5
6797
330
A
100
AcDbEntity
  8
0
  6
Continuous
 62
     7
370
    25
100
AcDbCircle
 10
203.3010398322577
 20
195.4524161748765
 30
0.0
 40
11.00000000000001
100
AcDbArc
 50
0.0
 51
90.0
  0
LINE
  5
6798
330
A
100
AcDbEntity
  8
0
  6
Continuous
 62
     7
370
    25
100
AcDbLine
 10
203.3010398322577
 20
206.4524161748765
 30
0.0
 11
142.1010398322576
 21
206.4524161748765
 31
0.0
  0
LINE
  5
6799
330
A
100
AcDbEntity
  8
0
  6
Continuous
 62
     7
370
    25
100
AcDbLine
 10
41.11990838534086
 20
205.6646589832765
 30
0.0
 11
41.91990838534105
 21
205.6646589832765
 31
0.0
  0
LINE
  5
679A
330
A
100
AcDbEntity
  8
0
  6
Continuous
 62
     7
370
    25
100
AcDbLine
 10
41.91990838534105
 20
205.6646589832765
 30
0.0
 11
41.91990838534105
 21
195.4524161748765
 31
0.0
  0
LINE
  5
679B
330
A
100
AcDbEntity
  8
0
  6
Continuous
 62
     7
370
    25
100
AcDbLine
 10
41.91990838534105
 20
195.4524161748765
 30
0.0
 11
41.91990838534105
 21
134.2524161748765
 31
0.0
  0
LINE
  5
679C
330
A
100
AcDbEntity
  8
0
  6
Continuous
 62
     7
370
    25
100
AcDbLine
 10
41.11990838534086
 20
124.0401733665765
 30
0.0
 11
41.91990838534105
 21
124.0401733665765
 31
0.0
  0
LINE
  5
679D
330
A
100
AcDbEntity
  8
0
  6
Continuous
 62
     7
370
    25
100
AcDbLine
 10
41.91990838534105
 20
134.2524161748765
 30
0.0
 11
41.91990838534105
 21
124.0401733665765
 31
0.0
  0
ARC
  5
679E
330
A
100
AcDbEntity
  8
0
  6
Continuous
 62
     7
370
    25
100
AcDbCircle
 10
42.41990838534105
 20
204.9309165262765
 30
0.0
 40
0.5
100
AcDbArc
 50
180.0
 51
265.9999999999906
  0
ARC
  5
679F
330
A
100
AcDbEntity
  8
0
  6
Continuous
 62
     7
370
    25
100
AcDbCircle
 10
42.41990838534105
 20
124.7739158234765
 30
0.0
 40
0.5
100
AcDbArc
 50
94.00000000000952
 51
180.0
  0
LINE
  5
67A0
330
A
100
AcDbEntity
  8
0
  6
Continuous
 62
     7
370
    25
100
AcDbLine
 10
42.38503014844093
 20
204.4321345011765
 30
0.0
 11
51.25942133284104
 21
203.8115766176765
 31
0.0
  0
LINE
  5
67A1
330
A
100
AcDbEntity
  8
0
  6
Continuous
 62
     7
370
    25
100
AcDbLine
 10
42.38503014844093
 20
125.2726978486765
 30
0.0
 11
51.25942133284104
 21
125.8932557320765
 31
0.0
  0
LINE
  5
67A2
330
A
100
AcDbEntity
  8
0
  6
Continuous
 62
     7
370
    25
100
AcDbLine
 10
53.11990838534086
 20
134.2524161748765
 30
0.0
 11
53.11990838534086
 21
195.4524161748765
 31
0.0
  0
LINE
  5
67A3
330
A
100
AcDbEntity
  8
0
  6
Continuous
 62
     7
370
    25
100
AcDbLine
 10
53.11990838534086
 20
195.4524161748765
 30
0.0
 11
53.11990838534086
 21
201.8164485171765
 31
0.0
  0
ARC
  5
67A4
330
A
100
AcDbEntity
  8
0
  6
Continuous
 62
     7
370
    25
100
AcDbCircle
 10
51.11990838534086
 20
201.8164485171765
 30
0.0
 40
2.000000000000032
100
AcDbArc
 50
0.0
 51
85.99999999999707
  0
ARC
  5
67A5
102
{ACAD_REACTORS
330
690F
102
}
330
A
100
AcDbEntity
  8
0
  6
Continuous
 62
     7
370
    25
100
AcDbCircle
 10
51.11990838534086
 20
127.8883838326765
 30
0.0
 40
2.000000000000004
100
AcDbArc
 50
274.000000000003
 51
0.0
  0
LINE
  5
67A6
330
A
100
AcDbEntity
  8
0
  6
Continuous
 62
     7
370
    25
100
AcDbLine
 10
53.11990838534086
 20
127.8883838326765
 30
0.0
 11
53.11990838534086
 21
134.2524161748765
 31
0.0
  0
LINE
  5
67A7
102
{ACAD_REACTORS
330
690F
102
}
330
A
100
AcDbEntity
  8
0
  6
Continuous
 62
     7
370
    25
100
AcDbLine
 10
39.61990838534086
 20
123.2524161748765
 30
0.0
 11
39.61990838534086
 21
134.2524161748765
 31
0.0
  0
LINE
  5
67A8
330
A
100
AcDbEntity
  8
0
  6
Continuous
 62
     7
370
    25
100
AcDbLine
 10
39.61990838534086
 20
123.2524161748765
 30
0.0
 11
41.11990838534086
 21
123.2524161748765
 31
0.0
  0
LINE
  5
67A9
102
{ACAD_REACTORS
330
67CC
102
}
330
A
100
AcDbEntity
  8
0
  6
Continuous
 62
     7
370
    25
100
AcDbLine
 10
41.11990838534086
 20
123.2524161748765
 30
0.0
 11
41.11990838534086
 21
134.2524161748765
 31
0.0
  0
LINE
  5
67AA
330
A
100
AcDbEntity
  8
0
  6
Continuous
 62
     7
370
    25
100
AcDbLine
 10
39.61990838534086
 20
206.4524161748765
 30
0.0
 11
41.11990838534086
 21
206.4524161748765
 31
0.0
  0
LINE
  5
67AB
330
A
100
AcDbEntity
  8
0
  6
Continuous
 62
     7
370
    25
100
AcDbLine
 10
39.61990838534086
 20
195.4524161748765
 30
0.0
 11
39.61990838534086
 21
206.4524161748765
 31
0.0
  0
LINE
  5
67AC
102
{ACAD_REACTORS
330
67CC
102
}
330
A
100
AcDbEntity
  8
0
  6
Continuous
 62
     7
370
    25
100
AcDbLine
 10
41.11990838534086
 20
195.4524161748765
 30
0.0
 11
41.11990838534086
 21
206.4524161748765
 31
0.0
  0
LINE
  5
67AD
330
A
100
AcDbEntity
  8
0
  6
Continuous
 62
     7
370
    25
100
AcDbLine
 10
39.61990838534086
 20
134.2524161748765
 30
0.0
 11
39.61990838534086
 21
195.4524161748765
 31
0.0
  0
LINE
  5
67AE
330
A
100
AcDbEntity
  8
0
  6
Continuous
 62
     7
370
    25
100
AcDbLine
 10
41.11990838534086
 20
134.2524161748765
 30
0.0
 11
41.11990838534086
 21
195.4524161748765
 31
0.0
  0
LINE
  5
67AF
330
A
100
AcDbEntity
  8
0
  6
Continuous
 62
     7
370
    25
100
AcDbLine
 10
131.8887970238575
 20
331.0660637775916
 30
0.0
 11
131.8887970238575
 21
331.8660637775916
 31
0.0
  0
LINE
  5
67B0
330
A
100
AcDbEntity
  8
0
  6
Continuous
 62
     7
370
    25
100
AcDbLine
 10
131.8887970238575
 20
331.8660637775916
 30
0.0
 11
142.1010398322576
 21
331.8660637775916
 31
0.0
  0
LINE
  5
67B1
330
A
100
AcDbEntity
  8
0
  6
Continuous
 62
     7
370
    25
100
AcDbLine
 10
142.1010398322576
 20
331.8660637775916
 30
0.0
 11
203.3010398322574
 21
331.8660637775916
 31
0.0
  0
LINE
  5
67B2
330
A
100
AcDbEntity
  8
0
  6
Continuous
 62
     7
370
    25
100
AcDbLine
 10
213.5132826405575
 20
331.0660637775917
 30
0.0
 11
213.5132826405575
 21
331.8660637775916
 31
0.0
  0
LINE
  5
67B3
330
A
100
AcDbEntity
  8
0
  6
Continuous
 62
     7
370
    25
100
AcDbLine
 10
203.3010398322574
 20
331.8660637775916
 30
0.0
 11
213.5132826405575
 21
331.8660637775916
 31
0.0
  0
ARC
  5
67B4
330
A
100
AcDbEntity
  8
0
  6
Continuous
 62
     7
370
    25
100
AcDbCircle
 10
132.6225394808576
 20
332.3660637775916
 30
0.0
 40
0.5
100
AcDbArc
 50
270.0
 51
356.0000000000035
  0
ARC
  5
67B5
330
A
100
AcDbEntity
  8
0
  6
Continuous
 62
     7
370
    25
100
AcDbCircle
 10
212.7795401836575
 20
332.3660637775916
 30
0.0
 40
0.5
100
AcDbArc
 50
183.9999999999965
 51
270.0
  0
LINE
  5
67B6
330
A
100
AcDbEntity
  8
0
  6
Continuous
 62
     7
370
    25
100
AcDbLine
 10
133.1213215059575
 20
332.3311855406916
 30
0.0
 11
133.7418793894575
 21
341.2055767250916
 31
0.0
  0
LINE
  5
67B7
330
A
100
AcDbEntity
  8
0
  6
Continuous
 62
     7
370
    25
100
AcDbLine
 10
212.2807581584575
 20
332.3311855406916
 30
0.0
 11
211.6602002750575
 21
341.2055767250916
 31
0.0
  0
LINE
  5
67B8
330
A
100
AcDbEntity
  8
0
  6
Continuous
 62
     7
370
    25
100
AcDbLine
 10
203.3010398322574
 20
343.0660637775917
 30
0.0
 11
142.1010398322576
 21
343.0660637775916
 31
0.0
  0
LINE
  5
67B9
102
{ACAD_REACTORS
330
6A83
330
6A92
102
}
330
A
100
AcDbEntity
  8
0
  6
Continuous
 62
     7
370
    25
100
AcDbLine
 10
142.1010398322576
 20
343.0660637775916
 30
0.0
 11
135.7370074899575
 21
343.0660637775916
 31
0.0
  0
ARC
  5
67BA
330
A
100
AcDbEntity
  8
0
  6
Continuous
 62
     7
370
    25
100
AcDbCircle
 10
135.7370074899575
 20
341.0660637775916
 30
0.0
 40
2.000000000000032
100
AcDbArc
 50
90.0
 51
175.999999999997
  0
ARC
  5
67BB
330
A
100
AcDbEntity
  8
0
  6
Continuous
 62
     7
370
    25
100
AcDbCircle
 10
209.6650721744575
 20
341.0660637775917
 30
0.0
 40
2.000000000000004
100
AcDbArc
 50
4.00000000000301
 51
90.0
  0
LINE
  5
67BC
330
A
100
AcDbEntity
  8
0
  6
Continuous
 62
     7
370
    25
100
AcDbLine
 10
209.6650721744575
 20
343.0660637775917
 30
0.0
 11
203.3010398322574
 21
343.0660637775917
 31
0.0
  0
LINE
  5
67BD
330
A
100
AcDbEntity
  8
0
  6
Continuous
 62
     7
370
    25
100
AcDbLine
 10
214.3010398322576
 20
329.5660637775917
 30
0.0
 11
203.3010398322574
 21
329.5660637775917
 31
0.0
  0
LINE
  5
67BE
102
{ACAD_REACTORS
330
67D3
102
}
330
A
100
AcDbEntity
  8
0
  6
Continuous
 62
     7
370
    25
100
AcDbLine
 10
214.3010398322576
 20
329.5660637775917
 30
0.0
 11
214.3010398322576
 21
331.0660637775917
 31
0.0
  0
LINE
  5
67BF
330
A
100
AcDbEntity
  8
0
  6
Continuous
 62
     7
370
    25
100
AcDbLine
 10
214.3010398322576
 20
331.0660637775917
 30
0.0
 11
203.3010398322574
 21
331.0660637775917
 31
0.0
  0
LINE
  5
67C0
330
A
100
AcDbEntity
  8
0
  6
Continuous
 62
     7
370
    25
100
AcDbLine
 10
131.1010398322576
 20
329.5660637775916
 30
0.0
 11
131.1010398322576
 21
331.0660637775916
 31
0.0
  0
LINE
  5
67C1
102
{ACAD_REACTORS
330
67D3
102
}
330
A
100
AcDbEntity
  8
0
  6
Continuous
 62
     7
370
    25
100
AcDbLine
 10
142.1010398322576
 20
329.5660637775916
 30
0.0
 11
131.1010398322576
 21
329.5660637775916
 31
0.0
  0
LINE
  5
67C2
330
A
100
AcDbEntity
  8
0
  6
Continuous
 62
     7
370
    25
100
AcDbLine
 10
142.1010398322576
 20
331.0660637775916
 30
0.0
 11
131.1010398322576
 21
331.0660637775916
 31
0.0
  0
LINE
  5
67C3
330
A
100
AcDbEntity
  8
0
  6
Continuous
 62
     7
370
    25
100
AcDbLine
 10
203.3010398322574
 20
329.5660637775917
 30
0.0
 11
142.1010398322576
 21
329.5660637775916
 31
0.0
  0
LINE
  5
67C4
330
A
100
AcDbEntity
  8
0
  6
Continuous
 62
     7
370
    25
100
AcDbLine
 10
203.3010398322574
 20
331.0660637775917
 30
0.0
 11
142.1010398322576
 21
331.0660637775916
 31
0.0
  0
LINE
  5
67C5
330
A
100
AcDbEntity
  8
モデル
 62
   251
370
    20
100
AcDbLine
 10
142.7010398322577
 20
227.1319087187857
 30
0.0
 11
142.7010398322577
 21
206.4524161748765
 31
0.0
  0
DIMENSION
  5
67C6
330
A
100
AcDbEntity
  8
モデル
100
AcDbDimension
  2
*D17
 10
107.6607665545327
 20
123.2524161748765
 30
0.0
 11
104.1598287028383
 21
144.0524161748765
 31
0.0
 70
    32
  1
41.75
 71
     5
 42
41.6
 73
     0
 74
     0
 75
     0
 52
-90.0
  3
tfrom線あり
100
AcDbAlignedDimension
 13
161.7010398322577
 23
164.8524161748765
 33
0.0
 14
139.8695272872739
 24
123.2524161748765
 34
0.0
 50
90.00000000000001
100
AcDbRotatedDimension
1001
ACAD
1000
DSTYLE
1002
{
1070
    41
1040
2.0
1002
}
  0
DIMENSION
  5
67C7
102
{ACAD_REACTORS
330
67C9
102
}
102
{ACAD_XDICTIONARY
360
67C8
102
}
330
A
100
AcDbEntity
  8
モデル
100
AcDbDimension
  2
*D18
 10
227.7010398322577
 20
96.09085951933706
 30
0.0
 11
200.2010398322577
 21
99.59179737103145
 31
0.0
 70
    32
 71
     5
 42
55.00000000000001
 73
     0
 74
     0
 75
     0
 52
-89.99999999999999
  3
tfrom線あり
100
AcDbAlignedDimension
 13
172.7010398322577
 23
160.8524161748765
 33
0.0
 14
227.7010398322577
 24
110.8555527362483
 34
0.0
 50
180.0
100
AcDbRotatedDimension
1001
ACAD
1000
DSTYLE
1002
{
1070
    41
1040
2.0
1002
}
  0
DIMENSION
  5
67CA
102
{ACAD_REACTORS
330
67CC
102
}
102
{ACAD_XDICTIONARY
360
67CB
102
}
330
A
100
AcDbEntity
  8
モデル
100
AcDbDimension
  2
*D19
 10
76.92459742663787
 20
206.4524161748765
 30
0.0
 11
76.92459742663789
 21
164.8524161748765
 31
0.0
 70
   160
  1
83.5
 71
     5
 42
83.2
 73
     0
 74
     0
 75
     0
 52
-90.0
  3
tfrom線あり
100
AcDbAlignedDimension
 13
41.11990838534086
 23
123.2524161748765
 33
0.0
 14
41.11990838534086
 24
206.4524161748765
 34
0.0
 50
90.00000000000001
100
AcDbRotatedDimension
1001
ACAD
1000
DSTYLE
1002
{
1070
    41
1040
2.0
1002
}
  0
DIMENSION
  5
67CD
330
A
100
AcDbEntity
  8
モデル
100
AcDbDimension
  2
*D20
 10
64.37224748120127
 20
204.9309165262765
 30
0.0
 11
60.87224748120128
 21
164.8524161748765
 31
0.0
 70
    32
 71
     5
 42
80.15700070279999
 73
     0
 74
     0
 75
     0
 52
-90.0
  3
tfrom線あり
100
AcDbAlignedDimension
 13
41.91990838534105
 23
124.7739158234765
 33
0.0
 14
41.91990838534105
 24
204.9309165262765
 34
0.0
 50
90.00000000000001
100
AcDbRotatedDimension
1001
ACAD
1000
DSTYLE
1002
{
1070
    41
1040
2.0
1002
}
  0
DIMENSION
  5
67CE
330
A
100
AcDbEntity
  8
モデル
100
AcDbDimension
  2
*D21
 10
53.11990838534086
 20
105.1077700974091
 30
0.0
 11
47.11990838534086
 21
105.1077700974091
 31
0.0
 70
   160
 71
     5
 42
11.1999999999998
 73
     0
 74
     0
 75
     0
 52
-89.99999999999999
  3
tfrom線あり
100
AcDbAlignedDimension
 13
41.91990838534105
 23
124.7739158234765
 33
0.0
 14
53.11990838534086
 24
125.7823993903914
 34
0.0
 50
180.0
100
AcDbRotatedDimension
1001
ACAD
1000
DSTYLE
1002
{
1070
    41
1040
2.0
1070
   172
1070
     1
1070
   140
1040
4.5
1002
}
  0
DIMENSION
  5
67D1
102
{ACAD_REACTORS
330
67D3
102
}
102
{ACAD_XDICTIONARY
360
67D2
102
}
330
A
100
AcDbEntity
  8
モデル
100
AcDbDimension
  2
*D22
 10
131.1010398322576
 20
304.2074844481683
 30
0.0
 11
172.7010398322576
 21
307.7084222998627
 31
0.0
 70
    32
  1
83.5
 71
     5
 42
83.19999999999999
 73
     0
 74
     0
 75
     0
 52
-89.99999999999999
  3
tfrom線あり
100
AcDbAlignedDimension
 13
214.3010398322576
 23
329.5660637775917
 33
0.0
 14
131.1010398322576
 24
329.5660637775916
 34
0.0
 50
180.0
100
AcDbRotatedDimension
1001
ACAD
1000
DSTYLE
1002
{
1070
    41
1040
2.0
1002
}
  0
DIMENSION
  5
67D4
330
A
100
AcDbEntity
  8
モデル
100
AcDbDimension
  2
*D23
 10
132.9635386608888
 20
365.1940208148804
 30
0.0
 11
172.8715394222732
 21
368.6940208148804
 31
0.0
 70
    32
 71
     5
 42
79.81600152276866
 73
     0
 74
     0
 75
     0
 52
-89.99999999999999
  3
tfrom線あり
100
AcDbAlignedDimension
 13
212.7795401836575
 23
331.8660637775916
 33
0.0
 14
132.9635386608888
 24
332.000386926782
 34
0.0
 50
180.0
100
AcDbRotatedDimension
1001
ACAD
1000
DSTYLE
1002
{
1070
    41
1040
2.0
1002
}
  0
LINE
  5
682B
330
A
100
AcDbEntity
  8
0
  6
Continuous
 62
     7
370
    25
100
AcDbLine
 10
290.7644519482334
 20
345.0134830899356
 30
0.0
 11
291.2644519482334
 21
345.0134830899356
 31
0.0
  0
LINE
  5
682C
330
A
100
AcDbEntity
  8
0
  6
Continuous
 62
     7
370
    25
100
AcDbLine
 10
291.2644519482333
 20
330.1134830899357
 30
0.0
 11
290.7644519482333
 21
330.1134830899357
 31
0.0
  0
ARC
  5
682D
330
A
100
AcDbEntity
  8
0
  6
Continuous
 62
     7
370
    25
100
AcDbCircle
 10
291.2644519482333
 20
330.6134830899357
 30
0.0
 40
0.5
100
AcDbArc
 50
270.0
 51
0.0
  0
ARC
  5
682E
330
A
100
AcDbEntity
  8
0
  6
Continuous
 62
     7
370
    25
100
AcDbCircle
 10
291.2644519482334
 20
344.5134830899356
 30
0.0
 40
0.5
100
AcDbArc
 50
0.0
 51
90.0
  0
LINE
  5
682F
102
{ACAD_REACTORS
330
607A
102
}
330
A
100
AcDbEntity
  8
0
  6
Continuous
 62
     7
370
    25
100
AcDbLine
 10
277.2619061356334
 20
331.5679404578354
 30
0.0
 11
277.2644519482333
 21
337.5657115037355
 31
0.0
  0
LINE
  5
6830
330
A
100
AcDbEntity
  8
0
  6
Continuous
 62
     7
370
    25
100
AcDbLine
 10
277.2600597357333
 20
327.2179408496356
 30
0.0
 11
277.2644519482333
 21
327.2179389853356
 31
0.0
  0
LINE
  5
6831
330
A
100
AcDbEntity
  8
0
  6
Continuous
 62
     7
370
    25
100
AcDbLine
 10
277.2600597357333
 20
327.2179408496356
 30
0.0
 11
277.2619061356334
 21
331.5679404578354
 31
0.0
  0
LINE
  5
6832
330
A
100
AcDbEntity
  8
0
  6
Continuous
 62
     7
370
    25
100
AcDbLine
 10
291.7644519482333
 20
330.6134830899357
 30
0.0
 11
291.7644519482334
 21
344.5134830892357
 31
0.0
  0
LINE
  5
6833
330
A
100
AcDbEntity
  8
0
  6
Continuous
 62
     7
370
    25
100
AcDbLine
 10
279.5644519482333
 20
370.8752458652357
 30
0.0
 11
278.7644519482333
 21
370.8752458652357
 31
0.0
  0
LINE
  5
6834
330
A
100
AcDbEntity
  8
0
  6
Continuous
 62
     7
370
    25
100
AcDbLine
 10
279.5644519482333
 20
370.8752458652357
 30
0.0
 11
279.5644519482333
 21
360.7634830899358
 31
0.0
  0
LINE
  5
6835
330
A
100
AcDbEntity
  8
0
  6
Continuous
 62
     7
370
    25
100
AcDbLine
 10
279.5644519482333
 20
360.7634830899358
 30
0.0
 11
279.5644519482333
 21
314.3634830899357
 31
0.0
  0
LINE
  5
6836
330
A
100
AcDbEntity
  8
0
  6
Continuous
 62
     7
370
    25
100
AcDbLine
 10
279.5644519482333
 20
304.2517203146357
 30
0.0
 11
278.7644519482334
 21
304.2517203146357
 31
0.0
  0
LINE
  5
6837
330
A
100
AcDbEntity
  8
0
  6
Continuous
 62
     7
370
    25
100
AcDbLine
 10
279.5644519482333
 20
314.3634830899357
 30
0.0
 11
279.5644519482333
 21
304.2517203146357
 31
0.0
  0
ARC
  5
6838
330
A
100
AcDbEntity
  8
0
  6
Continuous
 62
     7
370
    25
100
AcDbCircle
 10
280.0644519482333
 20
370.1415034082356
 30
0.0
 40
0.5000000000000003
100
AcDbArc
 50
180.0
 51
266.0000000000035
  0
ARC
  5
6839
330
A
100
AcDbEntity
  8
0
  6
Continuous
 62
     7
370
    25
100
AcDbCircle
 10
280.0644519482333
 20
304.9854627716356
 30
0.0
 40
0.5000000000000003
100
AcDbArc
 50
93.99999999999653
 51
180.0
  0
LINE
  5
683A
330
A
100
AcDbEntity
  8
0
  6
Continuous
 62
     7
370
    25
100
AcDbLine
 10
288.9039648957333
 20
306.1048026802357
 30
0.0
 11
280.0295737113333
 21
305.4842447967357
 31
0.0
  0
LINE
  5
683B
330
A
100
AcDbEntity
  8
0
  6
Continuous
 62
     7
370
    25
100
AcDbLine
 10
288.9039648957333
 20
369.0221634996358
 30
0.0
 11
280.0295737113333
 21
369.6427213831356
 31
0.0
  0
LINE
  5
683C
330
A
100
AcDbEntity
  8
0
  6
Continuous
 62
     7
370
    25
100
AcDbLine
 10
290.7644519482334
 20
314.3634830899357
 30
0.0
 11
290.7644519482333
 21
360.7634830899358
 31
0.0
  0
LINE
  5
683D
330
A
100
AcDbEntity
  8
0
  6
Continuous
 62
     7
370
    25
100
AcDbLine
 10
290.7644519482333
 20
360.7634830899358
 30
0.0
 11
290.7644519482333
 21
367.0270353991357
 31
0.0
  0
ARC
  5
683E
330
A
100
AcDbEntity
  8
0
  6
Continuous
 62
     7
370
    25
100
AcDbCircle
 10
288.7644519482333
 20
367.0270353991357
 30
0.0
 40
2.000000000000001
100
AcDbArc
 50
0.0
 51
86.00000000000023
  0
LINE
  5
683F
330
A
100
AcDbEntity
  8
0
  6
Continuous
 62
     7
370
    25
100
AcDbLine
 10
290.7644519482334
 20
308.0999307807357
 30
0.0
 11
290.7644519482334
 21
314.3634830899357
 31
0.0
  0
ARC
  5
6840
330
A
100
AcDbEntity
  8
0
  6
Continuous
 62
     7
370
    25
100
AcDbCircle
 10
288.7644519482334
 20
308.0999307807357
 30
0.0
 40
2.000000000000001
100
AcDbArc
 50
273.9999999999998
 51
0.0
  0
LINE
  5
6841
330
A
100
AcDbEntity
  8
0
  6
Continuous
 62
     7
370
    25
100
AcDbLine
 10
277.2644519482333
 20
360.6634830899357
 30
0.0
 11
277.2644519482334
 21
314.4634830899356
 31
0.0
  0
LINE
  5
6842
330
A
100
AcDbEntity
  8
0
  6
Continuous
 62
     7
370
    25
100
AcDbLine
 10
278.7644519482333
 20
360.6634830899357
 30
0.0
 11
278.7644519482334
 21
314.4634830899356
 31
0.0
  0
LINE
  5
6843
330
A
100
AcDbEntity
  8
0
  6
Continuous
 62
     7
370
    25
100
AcDbLine
 10
277.2644519482334
 20
314.4634830899356
 30
0.0
 11
277.2644519482334
 21
303.4634830899356
 31
0.0
  0
LINE
  5
6844
330
A
100
AcDbEntity
  8
0
  6
Continuous
 62
     7
370
    25
100
AcDbLine
 10
277.2644519482334
 20
303.4634830899356
 30
0.0
 11
278.7644519482334
 21
303.4634830899356
 31
0.0
  0
LINE
  5
6845
330
A
100
AcDbEntity
  8
0
  6
Continuous
 62
     7
370
    25
100
AcDbLine
 10
278.7644519482334
 20
314.4634830899356
 30
0.0
 11
278.7644519482334
 21
303.4634830899356
 31
0.0
  0
LINE
  5
6846
330
A
100
AcDbEntity
  8
0
  6
Continuous
 62
     7
370
    25
100
AcDbLine
 10
277.2644519482333
 20
371.6634830899357
 30
0.0
 11
278.7644519482333
 21
371.6634830899357
 31
0.0
  0
LINE
  5
6847
330
A
100
AcDbEntity
  8
0
  6
Continuous
 62
     7
370
    25
100
AcDbLine
 10
277.2644519482333
 20
371.6634830899357
 30
0.0
 11
277.2644519482333
 21
360.6634830899357
 31
0.0
  0
LINE
  5
6848
330
A
100
AcDbEntity
  8
0
  6
Continuous
 62
     7
370
    25
100
AcDbLine
 10
278.7644519482333
 20
371.6634830899357
 30
0.0
 11
278.7644519482333
 21
360.6634830899357
 31
0.0
  0
LINE
  5
6850
330
A
100
AcDbEntity
  8
0
  6
Continuous
 62
     7
370
    25
100
AcDbLine
 10
278.7644519482334
 20
205.6646589832764
 30
0.0
 11
279.5644519482334
 21
205.6646589832764
 31
0.0
  0
LINE
  5
6851
330
A
100
AcDbEntity
  8
0
  6
Continuous
 62
     7
370
    25
100
AcDbLine
 10
279.5644519482334
 20
205.6646589832764
 30
0.0
 11
279.5644519482334
 21
195.4524161748764
 31
0.0
  0
LINE
  5
6852
330
A
100
AcDbEntity
  8
0
  6
Continuous
 62
     7
370
    25
100
AcDbLine
 10
279.5644519482334
 20
195.4524161748764
 30
0.0
 11
279.5644519482334
 21
134.2524161748765
 31
0.0
  0
LINE
  5
6853
330
A
100
AcDbEntity
  8
0
  6
Continuous
 62
     7
370
    25
100
AcDbLine
 10
278.7644519482334
 20
124.0401733665765
 30
0.0
 11
279.5644519482334
 21
124.0401733665765
 31
0.0
  0
LINE
  5
6854
330
A
100
AcDbEntity
  8
0
  6
Continuous
 62
     7
370
    25
100
AcDbLine
 10
279.5644519482334
 20
134.2524161748765
 30
0.0
 11
279.5644519482334
 21
124.0401733665765
 31
0.0
  0
ARC
  5
6855
330
A
100
AcDbEntity
  8
0
  6
Continuous
 62
     7
370
    25
100
AcDbCircle
 10
280.0644519482334
 20
204.9309165262765
 30
0.0
 40
0.5
100
AcDbArc
 50
180.0
 51
266.0000000000035
  0
ARC
  5
6856
330
A
100
AcDbEntity
  8
0
  6
Continuous
 62
     7
370
    25
100
AcDbCircle
 10
280.0644519482334
 20
124.7739158234765
 30
0.0
 40
0.5
100
AcDbArc
 50
93.99999999999653
 51
180.0
  0
LINE
  5
6857
330
A
100
AcDbEntity
  8
0
  6
Continuous
 62
     7
370
    25
100
AcDbLine
 10
280.0295737113334
 20
204.4321345011764
 30
0.0
 11
287.2644519482334
 21
203.9262225312418
 31
0.0
  0
LINE
  5
6858
330
A
100
AcDbEntity
  8
0
  6
Continuous
 62
     7
370
    25
100
AcDbLine
 10
280.0295737113334
 20
125.2726978486765
 30
0.0
 11
287.2644519482334
 21
125.7786098185296
 31
0.0
  0
LINE
  5
6859
330
A
100
AcDbEntity
  8
0
  6
Continuous
 62
     7
370
    25
100
AcDbLine
 10
277.2644519482334
 20
123.2524161748765
 30
0.0
 11
277.2644519482334
 21
134.2524161748765
 31
0.0
  0
LINE
  5
685A
330
A
100
AcDbEntity
  8
0
  6
Continuous
 62
     7
370
    25
100
AcDbLine
 10
277.2644519482334
 20
123.2524161748765
 30
0.0
 11
278.7644519482334
 21
123.2524161748765
 31
0.0
  0
LINE
  5
685B
330
A
100
AcDbEntity
  8
0
  6
Continuous
 62
     7
370
    25
100
AcDbLine
 10
278.7644519482334
 20
123.2524161748765
 30
0.0
 11
278.7644519482334
 21
134.2524161748765
 31
0.0
  0
LINE
  5
685C
330
A
100
AcDbEntity
  8
0
  6
Continuous
 62
     7
370
    25
100
AcDbLine
 10
277.2644519482334
 20
206.4524161748764
 30
0.0
 11
278.7644519482334
 21
206.4524161748764
 31
0.0
  0
LINE
  5
685D
330
A
100
AcDbEntity
  8
0
  6
Continuous
 62
     7
370
    25
100
AcDbLine
 10
277.2644519482334
 20
195.4524161748764
 30
0.0
 11
277.2644519482334
 21
206.4524161748764
 31
0.0
  0
LINE
  5
685E
330
A
100
AcDbEntity
  8
0
  6
Continuous
 62
     7
370
    25
100
AcDbLine
 10
278.7644519482334
 20
195.4524161748764
 30
0.0
 11
278.7644519482334
 21
206.4524161748764
 31
0.0
  0
LINE
  5
685F
330
A
100
AcDbEntity
  8
0
  6
Continuous
 62
     7
370
    25
100
AcDbLine
 10
277.2644519482334
 20
134.2524161748765
 30
0.0
 11
277.2644519482334
 21
195.4524161748764
 31
0.0
  0
LINE
  5
6860
330
A
100
AcDbEntity
  8
0
  6
Continuous
 62
     7
370
    25
100
AcDbLine
 10
278.7644519482334
 20
134.2524161748765
 30
0.0
 11
278.7644519482334
 21
195.4524161748764
 31
0.0
  0
ARC
  5
6861
330
A
100
AcDbEntity
  8
0
  6
Continuous
 62
     7
370
    25
100
AcDbCircle
 10
291.2644519482334
 20
157.9024161748765
 30
0.0
 40
0.5
100
AcDbArc
 50
270.0
 51
0.0
  0
ARC
  5
6862
330
A
100
AcDbEntity
  8
0
  6
Continuous
 62
     7
370
    25
100
AcDbCircle
 10
291.2644519482334
 20
171.8024161748764
 30
0.0
 40
0.5
100
AcDbArc
 50
0.0
 51
90.0
  0
LINE
  5
6863
330
A
100
AcDbEntity
  8
0
  6
Continuous
 62
     7
370
    25
100
AcDbLine
 10
290.7644519482334
 20
172.3024161748764
 30
0.0
 11
291.2644519482334
 21
172.3024161748764
 31
0.0
  0
LINE
  5
6864
330
A
100
AcDbEntity
  8
0
  6
Continuous
 62
     7
370
    25
100
AcDbLine
 10
291.2644519482334
 20
157.4024161748765
 30
0.0
 11
290.7644519482334
 21
157.4024161748765
 31
0.0
  0
LINE
  5
6865
330
A
100
AcDbEntity
  8
0
  6
Continuous
 62
     7
370
    25
100
AcDbLine
 10
291.7644519482334
 20
164.8524161748765
 30
0.0
 11
291.7644519482334
 21
171.8024161748764
 31
0.0
  0
LINE
  5
6866
330
A
100
AcDbEntity
  8
0
  6
Continuous
 62
     7
370
    25
100
AcDbLine
 10
291.7644519482334
 20
157.9024161748765
 30
0.0
 11
291.7644519482334
 21
164.8524161748765
 31
0.0
  0
SPLINE
  5
6869
330
A
100
AcDbEntity
  8
モデル
  6
HIDDEN
 48
0.5
100
AcDbSpline
210
0.0
220
0.0
230
1.0
 70
  1064
 71
     3
 72
    41
 73
    37
 74
    35
 42
0.000000001
 43
0.0000000001
 44
0.0
 40
0.0
 40
0.0
 40
0.0
 40
0.0
 40
0.5851455292745384
 40
1.290026392028673
 40
1.703801671943753
 40
2.283265376226843
 40
2.697395641562778
 40
3.000549473240526
 40
3.275842724286455
 40
3.661605862991802
 40
4.023135575674825
 40
4.359919367780826
 40
5.002478737846759
 40
5.798299623099269
 40
13.29384555292026
 40
21.73021775601117
 40
31.02940075259986
 40
45.18588895702877
 40
56.75394478096388
 40
67.71483745391907
 40
76.31447237706516
 40
78.24119662557126
 40
78.71028707721034
 40
79.14044147077934
 40
79.51173887629072
 40
79.88829581428745
 40
80.40929244322015
 40
80.77283221201866
 40
81.03621067906221
 40
81.3135102989842
 40
81.56550671367035
 40
82.08160716373521
 40
82.52567863229089
 40
82.86169792912258
 40
83.08013968977838
 40
83.20902318469138
 40
83.20902318469138
 40
83.20902318469138
 40
83.20902318469138
 10
287.2644519482334
 20
125.7786098185296
 30
0.0
 10
287.4590477106216
 20
125.7918449984093
 30
0.0
 10
287.8880583698488
 20
125.8210236052582
 30
0.0
 10
288.4542429569502
 20
125.8667004893544
 30
0.0
 10
289.0199029220563
 20
125.8896404165924
 30
0.0
 10
289.4832272342815
 20
125.9981798818978
 30
0.0
 10
289.8659815140148
 20
126.2063155011371
 30
0.0
 10
290.1255212476358
 20
126.413370532215
 30
0.0
 10
290.3457142218489
 20
126.6488095669853
 30
0.0
 10
290.5357144821601
 20
126.9345742087368
 30
0.0
 10
290.6767926349629
 20
127.2691639963494
 30
0.0
 10
290.7777277662734
 20
127.7075208094557
 30
0.0
 10
290.7591064995062
 20
128.302952153468
 30
0.0
 10
290.7817228983676
 20
131.2764215133425
 30
0.0
 10
290.7560777526178
 20
136.8574472591057
 30
0.0
 10
290.7669920153879
 20
145.265622758965
 30
0.0
 10
290.7635672461618
 20
155.8970694869618
 30
0.0
 10
290.7632555457316
 20
167.571259015563
 30
0.0
 10
290.7686714151913
 20
179.8001289479639
 30
0.0
 10
290.7506847216304
 20
190.175307811636
 30
0.0
 10
290.7912054026555
 20
197.3399697313872
 30
0.0
 10
290.7503754757273
 20
201.0028614940299
 30
0.0
 10
290.7754263762985
 20
201.9462365311291
 30
0.0
 10
290.7016591858647
 20
202.3669816883825
 30
0.0
 10
290.5547876902835
 20
202.7336120196961
 30
0.0
 10
290.3266708249751
 20
203.0924887658744
 30
0.0
 10
290.023756365644
 20
203.3914906931066
 30
0.0
 10
289.6972983405538
 20
203.5950270576883
 30
0.0
 10
289.4189508830389
 20
203.7125093236151
 30
0.0
 10
289.1632271005824
 20
203.7833385217526
 30
0.0
 10
288.8164501816617
 20
203.823477392253
 30
0.0
 10
288.4129830355483
 20
203.844210564802
 30
0.0
 10
287.9820783325883
 20
203.8763585546324
 30
0.0
 10
287.6500257000043
 20
203.8992136979051
 30
0.0
 10
287.422801795207
 20
203.915154746801
 30
0.0
 10
287.307308535132
 20
203.9232270912415
 30
0.0
 10
287.2644519482334
 20
203.9262225312418
 30
0.0
 11
287.2644519482334
 21
125.7786098185296
 31
0.0
 11
287.8481720924082
 21
125.8194275072747
 31
0.0
 11
288.5513359008082
 21
125.8685975106651
 31
0.0
 11
288.9640388580523
 21
125.8983674846459
 31
0.0
 11
289.5261507848985
 21
126.0391096825778
 31
0.0
 11
289.8906839056776
 21
126.2356280799921
 31
0.0
 11
290.1275451048087
 21
126.4248343642616
 31
0.0
 11
290.3156070929541
 21
126.6258792912959
 31
0.0
 11
290.5291318199182
 21
126.9471585937085
 31
0.0
 11
290.6697446218557
 21
127.2802228113662
 31
0.0
 11
290.7447772976397
 21
127.6085418942566
 31
0.0
 11
290.7644519482334
 21
128.2507999827098
 31
0.0
 11
290.7644519482334
 21
129.0466208679623
 31
0.0
 11
290.7644519482334
 21
136.5421667977833
 31
0.0
 11
290.7644519482334
 21
144.9785390008742
 31
0.0
 11
290.7644519482334
 21
154.2777219974629
 31
0.0
 11
290.7644519482334
 21
168.4342102018918
 31
0.0
 11
290.7644519482334
 21
180.0022660258269
 31
0.0
 11
290.7644519482334
 21
190.9631586987821
 31
0.0
 11
290.7644519482334
 21
199.5627936219282
 31
0.0
 11
290.7644519482334
 21
201.4895178704343
 31
0.0
 11
290.7593951401175
 21
201.9585810650154
 31
0.0
 11
290.6828617041031
 21
202.3818722596776
 31
0.0
 11
290.5452853096557
 21
202.7267410739104
 31
0.0
 11
290.3430937632459
 21
203.0444102510647
 31
0.0
 11
289.9723739606526
 21
203.4104762496557
 31
0.0
 11
289.6638718205497
 21
203.6027978372375
 31
0.0
 11
289.4213404571635
 21
203.7054952309545
 31
0.0
 11
289.1537406870937
 21
203.7781962781785
 31
0.0
 11
288.9039648957334
 21
203.8115766176765
 31
0.0
 11
288.3891216404259
 21
203.8475779651728
 31
0.0
 11
287.9461319076488
 21
203.8785548249113
 31
0.0
 11
287.610931136936
 21
203.9019943461696
 31
0.0
 11
287.3930214894304
 21
203.9172320731123
 31
0.0
 11
287.2644519482334
 21
203.9262225312418
 31
0.0
  0
DIMENSION
  5
687C
330
A
100
AcDbEntity
  8
モデル
100
AcDbDimension
  2
*D24
 10
318.7644519482335
 20
96.09085951933706
 30
0.0
 11
298.7644519482334
 21
99.341703585862
 31
0.0
 70
    32
  1
DT40-50
 71
     5
 42
40.00000000000011
 73
     0
 74
     0
 75
     0
  3
tfrom線あり
100
AcDbAlignedDimension
 13
278.7644519482334
 23
124.0401733665765
 33
0.0
 14
318.7644519482335
 24
124.0401733665765
 34
0.0
100
AcDbRotatedDimension
1001
ACAD
1000
DSTYLE
1002
{
1070
    41
1040
2.0
1070
   140
1040
4.5
1002
}
  0
LINE
  5
68A6
330
A
100
AcDbEntity
  8
モデル
100
AcDbLine
 10
304.8849423576311
 20
341.5534830899358
 30
0.0
 11
316.8849423576311
 21
341.5534830899358
 31
0.0
  0
LINE
  5
68A7
330
A
100
AcDbEntity
  8
モデル
100
AcDbLine
 10
304.8849423576312
 20
333.5734830899357
 30
0.0
 11
316.8849423576312
 21
333.5734830899357
 31
0.0
  0
LINE
  5
68A9
330
A
100
AcDbEntity
  8
モデル
100
AcDbLine
 10
316.8849423576311
 20
341.5534830899358
 30
0.0
 11
316.8849423576312
 21
333.5734830899357
 31
0.0
  0
LINE
  5
68AA
102
{ACAD_REACTORS
330
607A
102
}
330
A
100
AcDbEntity
  8
0
  6
Continuous
 62
     7
370
    25
100
AcDbLine
 10
277.2619061356334
 20
331.5679404578356
 30
0.0
 11
277.2644519482334
 21
337.5657115037357
 31
0.0
  0
LINE
  5
68AB
330
A
100
AcDbEntity
  8
モデル
100
AcDbLine
 10
292.6439615388357
 20
341.5534830899358
 30
0.0
 11
280.6439615388357
 21
341.5534830899358
 31
0.0
  0
LINE
  5
68AC
330
A
100
AcDbEntity
  8
モデル
100
AcDbLine
 10
292.6439615388356
 20
333.5734830899357
 30
0.0
 11
280.6439615388356
 21
333.5734830899357
 31
0.0
  0
LINE
  5
68AD
330
A
100
AcDbEntity
  8
モデル
100
AcDbLine
 10
280.6439615388357
 20
341.5534830899358
 30
0.0
 11
280.6439615388356
 21
333.5734830899357
 31
0.0
  0
LINE
  5
68C1
330
A
100
AcDbEntity
  8
0
  6
Continuous
 62
     7
370
    25
100
AcDbLine
 10
292.6439615388358
 20
168.8424161748765
 30
0.0
 11
304.8849423576312
 21
168.8424161748765
 31
0.0
  0
LINE
  5
68C2
330
A
100
AcDbEntity
  8
0
  6
Continuous
 62
     7
370
    25
100
AcDbLine
 10
292.6439615388357
 20
160.8624161748764
 30
0.0
 11
304.8849423576314
 21
160.8624161748764
 31
0.0
  0
LINE
  5
68C3
330
A
100
AcDbEntity
  8
モデル
100
AcDbLine
 10
304.8849423576312
 20
168.8424161748765
 30
0.0
 11
316.8849423576312
 21
168.8424161748765
 31
0.0
  0
LINE
  5
68C4
330
A
100
AcDbEntity
  8
モデル
100
AcDbLine
 10
304.8849423576314
 20
160.8624161748764
 30
0.0
 11
316.8849423576314
 21
160.8624161748765
 31
0.0
  0
LINE
  5
68C5
330
A
100
AcDbEntity
  8
モデル
100
AcDbLine
 10
316.8849423576312
 20
168.8424161748765
 30
0.0
 11
316.8849423576314
 21
160.8624161748765
 31
0.0
  0
LINE
  5
68C6
330
A
100
AcDbEntity
  8
モデル
100
AcDbLine
 10
292.6439615388359
 20
168.8424161748765
 30
0.0
 11
280.6439615388359
 21
168.8424161748765
 31
0.0
  0
LINE
  5
68C7
330
A
100
AcDbEntity
  8
モデル
100
AcDbLine
 10
292.6439615388358
 20
160.8624161748764
 30
0.0
 11
280.6439615388358
 21
160.8624161748765
 31
0.0
  0
LINE
  5
68C8
330
A
100
AcDbEntity
  8
モデル
100
AcDbLine
 10
280.6439615388359
 20
168.8424161748765
 30
0.0
 11
280.6439615388358
 21
160.8624161748765
 31
0.0
  0
LINE
  5
68D0
330
A
100
AcDbEntity
  8
モデル
 48
0.3
100
AcDbLine
 10
168.6922536554534
 20
160.8524161748765
 30
0.0
 11
168.6922536554534
 21
168.8524161748765
 31
0.0
  0
LINE
  5
68D1
330
A
100
AcDbEntity
  8
モデル
 48
0.3
100
AcDbLine
 10
168.6922536554534
 20
168.8524161748765
 30
0.0
 11
176.6922536554534
 21
168.8524161748765
 31
0.0
  0
LINE
  5
68D2
330
A
100
AcDbEntity
  8
モデル
 48
0.3
100
AcDbLine
 10
176.6922536554534
 20
168.8524161748765
 30
0.0
 11
176.6922536554534
 21
160.8524161748765
 31
0.0
  0
LINE
  5
68D3
102
{ACAD_REACTORS
330
670F
102
}
330
A
100
AcDbEntity
  8
モデル
 48
0.3
100
AcDbLine
 10
168.6922536554534
 20
160.8524161748765
 30
0.0
 11
176.6922536554534
 21
160.8524161748765
 31
0.0
  0
MTEXT
  5
68E8
330
A
100
AcDbEntity
  8
モデル
100
AcDbMText
 10
290.4348510515946
 20
70.06178669522059
 30
0.0
 40
4.666666666666666
 41
296.0447974826269
 46
5.21287149347672
 71
     1
 72
     5
  1
{ご注文の際は正確な扉厚の指示をして下さい。(対応扉厚:DT40-50mm)}
  7
ＭＳ ゴシック
 73
     1
 44
1.0
1001
ACAD
1000
ACAD_MTEXT_DEFINED_HEIGHT_BEGIN
1070
    46
1040
5.21287149347672
1000
ACAD_MTEXT_DEFINED_HEIGHT_END
  0
LINE
  5
68E9
330
A
100
AcDbEntity
  8
モデル
100
AcDbLine
 10
282.7144570647927
 20
64.92574446908345
 30
0.0
 11
287.7092603436896
 21
64.92574446908345
 31
0.0
  0
LINE
  5
68EA
330
A
100
AcDbEntity
  8
モデル
100
AcDbLine
 10
282.7144570647927
 20
64.92574446908345
 30
0.0
 11
285.2118587042404
 21
69.92054774798005
 31
0.0
  0
LINE
  5
68EB
330
A
100
AcDbEntity
  8
モデル
100
AcDbLine
 10
285.2118587042404
 20
69.92054774798005
 30
0.0
 11
287.7092603436896
 21
64.92574446908345
 31
0.0
  0
MTEXT
  5
68EC
330
A
100
AcDbEntity
  8
モデル
100
AcDbMText
 10
284.8548541498757
 20
68.54560329348807
 30
0.0
 40
3.822185138629192
 41
1.35758065535774
 46
15.0
 71
     1
 72
     5
  1
{\fTimes New Roman|b1|i0|c0|p0;\H0.8x;!}
  7
ＭＳ ゴシック
 73
     1
 44
1.0
1001
ACAD
1000
ACAD_MTEXT_DEFINED_HEIGHT_BEGIN
1070
    46
1040
15.0
1000
ACAD_MTEXT_DEFINED_HEIGHT_END
  0
DIMENSION
  5
68ED
102
{ACAD_REACTORS
330
68EF
102
}
102
{ACAD_XDICTIONARY
360
68EE
102
}
330
A
100
AcDbEntity
  8
モデル
100
AcDbDimension
  2
*D25
 10
545.6966023936345
 20
94.92545214839562
 30
0.0
 11
552.4276815742782
 21
98.42639000009001
 31
0.0
 70
    32
  1
14
 71
     5
 42
13.46215836128727
 73
     0
 74
     0
 75
     0
  3
tfrom線あり
100
AcDbAlignedDimension
 13
559.1587607549218
 23
124.9561967664591
 33
0.0
 14
545.6966023936345
 24
127.5011699831949
 34
0.0
100
AcDbRotatedDimension
1001
ACAD
1000
DSTYLE
1002
{
1070
    41
1040
2.0
1002
}
  0
DIMENSION
  5
690D
102
{ACAD_REACTORS
330
690F
102
}
102
{ACAD_XDICTIONARY
360
690E
102
}
330
A
100
AcDbEntity
  8
モデル
100
AcDbDimension
  2
*D27
 10
53.07922133412593
 20
95.18274846391931
 30
0.0
 11
46.34956485973339
 21
98.6836863156137
 31
0.0
 70
    32
  1
14
 71
     5
 42
13.45931294878508
 73
     0
 74
     0
 75
     0
  3
tfrom線あり
100
AcDbAlignedDimension
 13
39.61990838534086
 23
125.5042151242766
 33
0.0
 14
53.07922133412593
 24
127.4870201961533
 34
0.0
100
AcDbRotatedDimension
1001
ACAD
1000
DSTYLE
1002
{
1070
    41
1040
2.0
1002
}
  0
LINE
  5
6962
102
{ACAD_REACTORS
330
6AD3
102
}
330
A
100
AcDbEntity
  8
モデル
  6
HIDDEN
100
AcDbLine
 10
413.202833888994
 20
185.8555527362481
 30
0.0
 11
505.7724339593445
 21
185.8555527362481
 31
0.0
  0
TEXT
  5
6963
330
A
100
AcDbEntity
  8
テンプレート
100
AcDbText
 10
479.9576596296227
 20
187.3669605870816
 30
0.0
 40
3.0
  1
ケースセンター
  7
ＭＳ ゴシック
100
AcDbText
  0
LINE
  5
6964
102
{ACAD_REACTORS
102
}
330
A
100
AcDbEntity
  8
モデル
  6
HIDDEN
100
AcDbLine
 10
413.2982590910471
 20
164.8524161748765
 30
0.0
 11
505.7724339593445
 21
164.8524161748765
 31
0.0
  0
TEXT
  5
6965
330
A
100
AcDbEntity
  8
テンプレート
100
AcDbText
 10
483.5450126301463
 20
171.0137085072141
 30
0.0
 40
3.0
  1
角芯センター
  7
ＭＳ ゴシック
100
AcDbText
  0
DIMENSION
  5
6981
330
A
100
AcDbEntity
  8
モデル
100
AcDbDimension
  2
*D33
 10
477.6170219767739
 20
164.8524161748765
 30
0.0
 11
477.6170219767739
 21
144.0524161748765
 31
0.0
 70
   160
  1
41.75
 71
     5
 42
41.60000000000001
 73
     0
 74
     0
 75
     0
  3
tfrom線あり
100
AcDbAlignedDimension
 13
456.677629308005
 23
123.2524161748765
 33
0.0
 14
479.8151804909575
 24
164.8524161748765
 34
0.0
 50
90.0
100
AcDbRotatedDimension
1001
ACAD
1000
DSTYLE
1002
{
1070
    41
1040
2.0
1070
   271
1070
     0
1002
}
  0
MTEXT
  5
69B4
330
A
100
AcDbEntity
  8
モデル
100
AcDbMText
 10
446.0911282225475
 20
109.731786366203
 30
0.0
 40
4.666666666666666
 41
296.0447974826268
 46
13.30479485362566
 71
     1
 72
     5
  1
{切欠寸法:w80×h80×d12\P四角(R=10)}
  7
ＭＳ ゴシック
 73
     1
 44
1.0
1001
ACAD
1000
ACAD_MTEXT_DEFINED_HEIGHT_BEGIN
1070
    46
1040
13.30479485362566
1000
ACAD_MTEXT_DEFINED_HEIGHT_END
  0
LINE
  5
69F2
102
{ACAD_REACTORS
330
6A07
102
}
330
A
100
AcDbEntity
  8
0
  6
Continuous
 62
     7
370
    25
100
AcDbLine
 10
137.2922536554534
 20
170.8524161748766
 30
0.0
 11
137.2922536554534
 21
158.8524161748766
 31
0.0
  0
ARC
  5
69F3
102
{ACAD_REACTORS
330
6A07
102
}
330
A
100
AcDbEntity
  8
0
  6
Continuous
 62
     7
370
    25
100
AcDbCircle
 10
142.2922536554534
 20
170.8524161748766
 30
0.0
 40
5.0
100
AcDbArc
 50
89.99999999989969
 51
180.0
  0
LINE
  5
69F4
102
{ACAD_REACTORS
330
6A07
102
}
330
A
100
AcDbEntity
  8
0
  6
Continuous
 62
     7
370
    25
100
AcDbLine
 10
203.0922536554534
 20
175.8524161748765
 30
0.0
 11
142.2922536554534
 21
175.8524161748766
 31
0.0
  0
ARC
  5
69F5
102
{ACAD_REACTORS
330
6A07
102
}
330
A
100
AcDbEntity
  8
0
  6
Continuous
 62
     7
370
    25
100
AcDbCircle
 10
203.0922536554534
 20
170.8524161748765
 30
0.0
 40
5.0
100
AcDbArc
 50
0.0
 51
90.00000000010031
  0
LINE
  5
69F6
102
{ACAD_REACTORS
330
6A07
102
}
330
A
100
AcDbEntity
  8
0
  6
Continuous
 62
     7
370
    25
100
AcDbLine
 10
208.0922536554534
 20
158.8524161748765
 30
0.0
 11
208.0922536554534
 21
170.8524161748765
 31
0.0
  0
ARC
  5
69F7
102
{ACAD_REACTORS
330
6A07
102
}
330
A
100
AcDbEntity
  8
0
  6
Continuous
 62
     7
370
    25
100
AcDbCircle
 10
203.0922536554534
 20
158.8524161748765
 30
0.0
 40
5.0
100
AcDbArc
 50
269.9999999998997
 51
0.0
  0
LINE
  5
69F8
102
{ACAD_REACTORS
330
6A07
102
}
330
A
100
AcDbEntity
  8
0
  6
Continuous
 62
     7
370
    25
100
AcDbLine
 10
142.2922536554534
 20
153.8524161748766
 30
0.0
 11
203.0922536554534
 21
153.8524161748765
 31
0.0
  0
ARC
  5
69F9
102
{ACAD_REACTORS
330
6A07
102
}
330
A
100
AcDbEntity
  8
0
  6
Continuous
 62
     7
370
    25
100
AcDbCircle
 10
142.2922536554534
 20
158.8524161748766
 30
0.0
 40
5.0
100
AcDbArc
 50
180.0
 51
270.0000000001002
  0
LINE
  5
69FA
102
{ACAD_REACTORS
330
6A07
102
}
330
A
100
AcDbEntity
  8
0
  6
HIDDEN
 62
     7
370
    25
100
AcDbLine
 10
178.6922536554534
 20
200.2524161748765
 30
0.0
 11
166.6922536554534
 21
200.2524161748765
 31
0.0
  0
LINE
  5
69FB
102
{ACAD_REACTORS
330
6A07
102
}
330
A
100
AcDbEntity
  8
0
  6
HIDDEN
 62
     7
370
    25
100
AcDbLine
 10
166.6922536554534
 20
129.4524161748765
 30
0.0
 11
178.6922536554534
 21
129.4524161748765
 31
0.0
  0
ARC
  5
69FC
102
{ACAD_REACTORS
330
6A07
102
}
330
A
100
AcDbEntity
  8
0
  6
HIDDEN
 62
     7
370
    25
100
AcDbCircle
 10
166.6922536554534
 20
134.4524161748765
 30
0.0
 40
5.0
100
AcDbArc
 50
179.9999999998997
 51
252.3375749107575
  0
ARC
  5
69FD
102
{ACAD_REACTORS
330
6A07
102
}
330
A
100
AcDbEntity
  8
0
  6
HIDDEN
 62
     7
370
    25
100
AcDbCircle
 10
166.6922536554534
 20
134.4524161748765
 30
0.0
 40
5.0
100
AcDbArc
 50
267.7888236096136
 51
270.0
  0
LINE
  5
69FE
102
{ACAD_REACTORS
330
6A07
102
}
330
A
100
AcDbEntity
  8
0
  6
HIDDEN
 62
     7
370
    25
100
AcDbLine
 10
161.6922536554534
 20
195.2524161748765
 30
0.0
 11
161.6922536554534
 21
135.9307508143444
 31
0.0
  0
LINE
  5
69FF
102
{ACAD_REACTORS
330
6A07
102
}
330
A
100
AcDbEntity
  8
0
  6
HIDDEN
 62
     7
370
    25
100
AcDbLine
 10
161.6922536554534
 20
134.4845101155089
 30
0.0
 11
161.6922536554534
 21
134.4524161748765
 31
0.0
  0
ARC
  5
6A00
102
{ACAD_REACTORS
330
6A07
102
}
330
A
100
AcDbEntity
  8
0
  6
HIDDEN
 62
     7
370
    25
100
AcDbCircle
 10
166.6922536554535
 20
195.2524161748765
 30
0.0
 40
5.000000000000057
100
AcDbArc
 50
104.5069704976729
 51
167.2075084721705
  0
ARC
  5
6A01
102
{ACAD_REACTORS
330
6A07
102
}
330
A
100
AcDbEntity
  8
0
  6
HIDDEN
 62
     7
370
    25
100
AcDbCircle
 10
166.6922536554534
 20
195.2524161748765
 30
0.0
 40
5.0
100
AcDbArc
 50
179.6921499453507
 51
180.0000000000997
  0
ARC
  5
6A02
102
{ACAD_REACTORS
330
6A07
102
}
330
A
100
AcDbEntity
  8
0
  6
HIDDEN
 62
     7
370
    25
100
AcDbCircle
 10
178.6922536554534
 20
134.4524161748765
 30
0.0
 40
5.0
100
AcDbArc
 50
287.6624250892425
 51
0.0000000001003122
  0
LINE
  5
6A03
102
{ACAD_REACTORS
330
6A07
102
}
330
A
100
AcDbEntity
  8
0
  6
HIDDEN
 62
     7
370
    25
100
AcDbLine
 10
183.6922536554534
 20
195.2524161748765
 30
0.0
 11
183.6922536554534
 21
135.9307508143444
 31
0.0
  0
LINE
  5
6A04
102
{ACAD_REACTORS
330
6A07
102
}
330
A
100
AcDbEntity
  8
0
  6
HIDDEN
 62
     7
370
    25
100
AcDbLine
 10
183.6922536554534
 20
134.4845101155089
 30
0.0
 11
183.6922536554534
 21
134.4524161748765
 31
0.0
  0
ARC
  5
6A05
102
{ACAD_REACTORS
330
6A07
102
}
330
A
100
AcDbEntity
  8
0
  6
HIDDEN
 62
     7
370
    25
100
AcDbCircle
 10
178.6922536554534
 20
195.2524161748765
 30
0.0
 40
5.000000000000057
100
AcDbArc
 50
12.79249152782941
 51
75.49302950232706
  0
ARC
  5
6A06
102
{ACAD_REACTORS
330
6A07
102
}
330
A
100
AcDbEntity
  8
0
  6
HIDDEN
 62
     7
370
    25
100
AcDbCircle
 10
178.6922536554534
 20
195.2524161748765
 30
0.0
 40
5.0
100
AcDbArc
 50
359.9999999999004
 51
0.3078500546492641
  0
LINE
  5
6A41
102
{ACAD_REACTORS
330
6A56
102
}
330
A
100
AcDbEntity
  8
0
  6
Continuous
 62
     7
370
    25
100
AcDbLine
 10
390.6776293080048
 20
170.8524161748766
 30
0.0
 11
390.6776293080048
 21
158.8524161748766
 31
0.0
  0
ARC
  5
6A42
102
{ACAD_REACTORS
330
6A56
102
}
330
A
100
AcDbEntity
  8
0
  6
Continuous
 62
     7
370
    25
100
AcDbCircle
 10
395.6776293080048
 20
170.8524161748766
 30
0.0
 40
5.0
100
AcDbArc
 50
89.99999999989969
 51
180.0
  0
LINE
  5
6A43
102
{ACAD_REACTORS
330
6A56
102
}
330
A
100
AcDbEntity
  8
0
  6
Continuous
 62
     7
370
    25
100
AcDbLine
 10
456.4776293080049
 20
175.8524161748765
 30
0.0
 11
395.6776293080048
 21
175.8524161748766
 31
0.0
  0
ARC
  5
6A44
102
{ACAD_REACTORS
330
6A56
102
}
330
A
100
AcDbEntity
  8
0
  6
Continuous
 62
     7
370
    25
100
AcDbCircle
 10
456.4776293080049
 20
170.8524161748765
 30
0.0
 40
5.0
100
AcDbArc
 50
0.0
 51
90.00000000010031
  0
LINE
  5
6A45
102
{ACAD_REACTORS
330
6A56
102
}
330
A
100
AcDbEntity
  8
0
  6
Continuous
 62
     7
370
    25
100
AcDbLine
 10
461.4776293080049
 20
158.8524161748765
 30
0.0
 11
461.4776293080049
 21
170.8524161748765
 31
0.0
  0
ARC
  5
6A46
102
{ACAD_REACTORS
330
6A56
102
}
330
A
100
AcDbEntity
  8
0
  6
Continuous
 62
     7
370
    25
100
AcDbCircle
 10
456.4776293080049
 20
158.8524161748765
 30
0.0
 40
5.0
100
AcDbArc
 50
269.9999999998997
 51
0.0
  0
LINE
  5
6A47
102
{ACAD_REACTORS
330
6A56
102
}
330
A
100
AcDbEntity
  8
0
  6
Continuous
 62
     7
370
    25
100
AcDbLine
 10
395.6776293080048
 20
153.8524161748766
 30
0.0
 11
456.4776293080049
 21
153.8524161748765
 31
0.0
  0
ARC
  5
6A48
102
{ACAD_REACTORS
330
6A56
102
}
330
A
100
AcDbEntity
  8
0
  6
Continuous
 62
     7
370
    25
100
AcDbCircle
 10
395.6776293080048
 20
158.8524161748766
 30
0.0
 40
5.0
100
AcDbArc
 50
180.0
 51
270.0000000001002
  0
LINE
  5
6A49
102
{ACAD_REACTORS
330
6A56
102
}
330
A
100
AcDbEntity
  8
0
  6
HIDDEN
 62
     7
370
    25
100
AcDbLine
 10
432.0776293080049
 20
200.2524161748765
 30
0.0
 11
420.0776293080049
 21
200.2524161748765
 31
0.0
  0
LINE
  5
6A4A
102
{ACAD_REACTORS
330
6A56
102
}
330
A
100
AcDbEntity
  8
0
  6
HIDDEN
 62
     7
370
    25
100
AcDbLine
 10
420.0776293080049
 20
129.4524161748765
 30
0.0
 11
432.0776293080049
 21
129.4524161748765
 31
0.0
  0
ARC
  5
6A4B
102
{ACAD_REACTORS
330
6A56
102
}
330
A
100
AcDbEntity
  8
0
  6
HIDDEN
 62
     7
370
    25
100
AcDbCircle
 10
420.0776293080049
 20
134.4524161748765
 30
0.0
 40
5.0
100
AcDbArc
 50
179.9999999998997
 51
252.3375749107575
  0
LINE
  5
6A4D
102
{ACAD_REACTORS
330
6A56
102
}
330
A
100
AcDbEntity
  8
0
  6
HIDDEN
 62
     7
370
    25
100
AcDbLine
 10
415.0776293080049
 20
195.2524161748765
 30
0.0
 11
415.0776293080049
 21
135.9307508143444
 31
0.0
  0
LINE
  5
6A4E
102
{ACAD_REACTORS
330
6A56
102
}
330
A
100
AcDbEntity
  8
0
  6
HIDDEN
 62
     7
370
    25
100
AcDbLine
 10
415.0776293080049
 20
134.4845101155089
 30
0.0
 11
415.0776293080049
 21
134.4524161748765
 31
0.0
  0
ARC
  5
6A4F
102
{ACAD_REACTORS
330
6A56
102
}
330
A
100
AcDbEntity
  8
0
  6
HIDDEN
 62
     7
370
    25
100
AcDbCircle
 10
420.077629308005
 20
195.2524161748765
 30
0.0
 40
5.000000000000057
100
AcDbArc
 50
104.5069704976729
 51
167.2075084721705
  0
ARC
  5
6A50
102
{ACAD_REACTORS
330
6A56
102
}
330
A
100
AcDbEntity
  8
0
  6
HIDDEN
 62
     7
370
    25
100
AcDbCircle
 10
420.0776293080049
 20
195.2524161748765
 30
0.0
 40
5.0
100
AcDbArc
 50
179.6921499453501
 51
180.000000000099
  0
ARC
  5
6A51
102
{ACAD_REACTORS
330
6A56
102
}
330
A
100
AcDbEntity
  8
0
  6
HIDDEN
 62
     7
370
    25
100
AcDbCircle
 10
432.0776293080049
 20
134.4524161748765
 30
0.0
 40
5.0
100
AcDbArc
 50
287.6624250892425
 51
0.0000000001003122
  0
LINE
  5
6A52
102
{ACAD_REACTORS
330
6A56
102
}
330
A
100
AcDbEntity
  8
0
  6
HIDDEN
 62
     7
370
    25
100
AcDbLine
 10
437.0776293080049
 20
195.2524161748765
 30
0.0
 11
437.0776293080049
 21
135.9307508143444
 31
0.0
  0
LINE
  5
6A53
102
{ACAD_REACTORS
330
6A56
102
}
330
A
100
AcDbEntity
  8
0
  6
HIDDEN
 62
     7
370
    25
100
AcDbLine
 10
437.0776293080049
 20
134.4845101155089
 30
0.0
 11
437.0776293080049
 21
134.4524161748765
 31
0.0
  0
ARC
  5
6A54
102
{ACAD_REACTORS
330
6A56
102
}
330
A
100
AcDbEntity
  8
0
  6
HIDDEN
 62
     7
370
    25
100
AcDbCircle
 10
432.0776293080049
 20
195.2524161748765
 30
0.0
 40
5.000000000000057
100
AcDbArc
 50
12.79249152782948
 51
75.49302950232706
  0
ARC
  5
6A55
102
{ACAD_REACTORS
330
6A56
102
}
330
A
100
AcDbEntity
  8
0
  6
HIDDEN
 62
     7
370
    25
100
AcDbCircle
 10
432.0776293080049
 20
195.2524161748765
 30
0.0
 40
5.0
100
AcDbArc
 50
359.999999999901
 51
0.3078500546499154
  0
DIMENSION
  5
6A5D
102
{ACAD_REACTORS
330
6A5F
102
}
102
{ACAD_XDICTIONARY
360
6A5E
102
}
330
A
100
AcDbEntity
  8
モデル
100
AcDbDimension
  2
*D34
 10
496.6697775225919
 20
343.0660637775916
 30
0.0
 11
496.6697775225919
 21
336.3160637775916
 31
0.0
 70
   160
 71
     5
 42
13.5
 73
     0
 74
     0
 75
     0
  3
tfrom線あり
100
AcDbAlignedDimension
 13
465.8255317001294
 23
329.5660637775916
 33
0.0
 14
462.5927984826658
 24
343.0660637775916
 34
0.0
 50
90.0
100
AcDbRotatedDimension
1001
ACAD
1000
DSTYLE
1002
{
1070
    41
1040
2.0
1002
}
  0
DIMENSION
  5
6A6C
102
{ACAD_REACTORS
330
6A6E
102
}
102
{ACAD_XDICTIONARY
360
6A6D
102
}
330
A
100
AcDbEntity
  8
モデル
100
AcDbDimension
  2
*D35
 10
485.8834769109375
 20
343.0660637775916
 30
0.0
 11
485.8834769109375
 21
337.4660637775916
 31
0.0
 70
   160
 71
     5
 42
11.19999999999999
 73
     0
 74
     0
 75
     0
  3
tfrom線あり
100
AcDbAlignedDimension
 13
466.1561296594051
 23
331.8660637775916
 33
0.0
 14
462.5927984826658
 24
343.0660637775916
 34
0.0
 50
90.0
100
AcDbRotatedDimension
1001
ACAD
1000
DSTYLE
1002
{
1070
    41
1040
2.0
1002
}
  0
DIMENSION
  5
6A81
102
{ACAD_REACTORS
330
6A83
102
}
102
{ACAD_XDICTIONARY
360
6A82
102
}
330
A
100
AcDbEntity
  8
モデル
100
AcDbDimension
  2
*D36
 10
103.1774080629643
 20
343.0660637775916
 30
0.0
 11
103.1774080629643
 21
336.3160637775916
 31
0.0
 70
   160
 71
     5
 42
13.5
 73
     0
 74
     0
 75
     0
  3
tfrom線あり
100
AcDbAlignedDimension
 13
132.9886971137275
 23
329.5660637775916
 33
0.0
 14
136.459058822934
 24
343.0660637775916
 34
0.0
 50
90.0
100
AcDbRotatedDimension
1001
ACAD
1000
DSTYLE
1002
{
1070
    41
1040
2.0
1002
}
  0
DIMENSION
  5
6A90
102
{ACAD_REACTORS
330
6A92
102
}
102
{ACAD_XDICTIONARY
360
6A91
102
}
330
A
100
AcDbEntity
  8
モデル
100
AcDbDimension
  2
*D37
 10
111.3281835839493
 20
343.0660637775916
 30
0.0
 11
111.3281835839493
 21
337.5332253521868
 31
0.0
 70
   160
 71
     5
 42
11.06567685080955
 73
     0
 74
     0
 75
     0
  3
tfrom線あり
100
AcDbAlignedDimension
 13
132.9635386608888
 23
332.000386926782
 33
0.0
 14
137.1392647669655
 24
343.0660637775916
 34
0.0
 50
90.0
100
AcDbRotatedDimension
1001
ACAD
1000
DSTYLE
1002
{
1070
    41
1040
2.0
1002
}
  0
TEXT
  5
6AD0
330
A
100
AcDbEntity
  8
テンプレート
100
AcDbText
 10
483.7772839854465
 20
166.1098642872961
 30
0.0
 40
3.0
  1
引手センター
  7
ＭＳ ゴシック
100
AcDbText
  0
DIMENSION
  5
6AD1
102
{ACAD_REACTORS
330
6AD3
102
}
102
{ACAD_XDICTIONARY
360
6AD2
102
}
330
A
100
AcDbEntity
  8
モデル
100
AcDbDimension
  2
*D38
 10
477.6170219767739
 20
185.8555527362481
 30
0.0
 11
474.1160841250795
 21
175.3539844555623
 31
0.0
 70
    32
 71
     5
 42
21.00313656137158
 73
     0
 74
     0
 75
     0
  3
tfrom線あり
100
AcDbAlignedDimension
 13
477.6170219767739
 23
164.8524161748765
 33
0.0
 14
477.6170219767739
 24
185.8555527362481
 34
0.0
 50
90.0
100
AcDbRotatedDimension
1001
ACAD
1000
DSTYLE
1002
{
1070
    75
1070
     1
1070
    76
1070
     1
1070
    41
1040
2.0
1070
   147
1040
1.0
1002
}
  0
VIEWPORT
  5
349
330
B
100
AcDbEntity
 67
     1
  8
0
100
AcDbViewport
 10
202.5
 20
128.5
 30
0.0
 40
486.0
 41
308.4
 68
     1
 69
     1
 12
202.5
 22
128.5
 13
0.0
 23
0.0
 14
0.5
 24
0.5
 15
0.0
 25
0.0
 16
0.0
 26
0.0
 36
1.0
 17
0.0
 27
0.0
 37
0.0
 42
50.0
 43
0.0
 44
0.0
 45
308.4
 50
0.0
 51
0.0
 72
   100
 90
   557152
  1

281
     0
 71
     1
 74
     0
110
0.0
120
0.0
130
0.0
111
1.0
121
0.0
131
0.0
112
0.0
122
1.0
132
0.0
 79
     0
146
0.0
170
     0
 61
     5
348
26C
292
     1
282
     1
141
0.0
142
0.0
 63
   256
  0
VIEWPORT
  5
34A
330
B
100
AcDbEntity
 67
     1
  8
0
100
AcDbViewport
 10
202.5
 20
128.5
 30
0.0
 40
324.0
 41
205.6
 68
     2
 69
     2
 12
986.6781359294573
 22
1427.077061889956
 13
0.0
 23
0.0
 14
0.5
 24
0.5
 15
0.0
 25
0.0
 16
0.0
 26
0.0
 36
1.0
 17
0.0
 27
0.0
 37
0.0
 42
50.0
 43
0.0
 44
0.0
 45
2890.021615685494
 50
0.0
 51
0.0
 72
   100
 90
   557152
  1

281
     0
 71
     1
 74
     0
110
0.0
120
0.0
130
0.0
111
1.0
121
0.0
131
0.0
112
0.0
122
1.0
132
0.0
 79
     0
146
0.0
170
     0
 61
     5
348
26C
292
     1
282
     1
141
0.0
142
0.0
 63
   256
  0
ENDSEC
  0
SECTION
  2
OBJECTS
  0
DICTIONARY
  5
19
330
0
100
AcDbDictionary
281
     1
  3
ACAD_COLOR
350
674
  3
ACAD_DETAILVIEWSTYLE
350
12F4
  3
ACAD_GROUP
350
1A
  3
ACAD_IMAGE_VARS
350
27B
  3
ACAD_LAYOUT
350
1E
  3
ACAD_MATERIAL
350
263
  3
ACAD_MLEADERSTYLE
350
336
  3
ACAD_MLINESTYLE
350
1B
  3
ACAD_PLOTSETTINGS
350
22
  3
ACAD_PLOTSTYLENAME
350
1F
  3
ACAD_SCALELIST
350
241
  3
ACAD_SECTIONVIEWSTYLE
350
12F5
  3
ACAD_TABLESTYLE
350
278
  3
ACAD_VISUALSTYLE
350
267
  3
AcadDim
350
453F
  3
ACDB_RECOMPOSE_DATA
350
6AEB
  3
AcDbVariableDictionary
350
330
  3
AcStStandard
350
12B9
  3
APPDATA
350
27A
  0
SUN
  5
10E8
330
15
100
AcDbSun
 90
        1
290
     0
 63
     7
421
 16777215
 40
1.0
291
     1
 91
  2455826
 92
 54000000
292
     0
 70
     2
 71
   256
280
     1
  0
DICTIONARY
  5
2E1
330
2
100
AcDbDictionary
280
     1
281
     1
  3
ACAD_LAYERSTATES
360
2E2
  3
ACLYDICTIONARY
360
5A30
  0
DICTIONARY
  5
495A
330
A
100
AcDbDictionary
280
     1
281
     1
  3
ACAD_SORTENTS
360
495B
  0
DICTIONARY
  5
6079
330
6078
100
AcDbDictionary
280
     1
281
     1
  3
ACAD_DIMASSOC
360
607A
  0
DICTIONARY
  5
670E
330
670D
100
AcDbDictionary
280
     1
281
     1
  3
ACAD_DIMASSOC
360
670F
  0
DICTIONARY
  5
671D
330
671C
100
AcDbDictionary
280
     1
281
     1
  3
ACAD_DIMASSOC
360
671E
  0
DICTIONARY
  5
674D
330
674C
100
AcDbDictionary
280
     1
281
     1
  3
ACAD_DIMASSOC
360
674E
  0
DICTIONARY
  5
67C8
330
67C7
100
AcDbDictionary
280
     1
281
     1
  3
ACAD_DIMASSOC
360
67C9
  0
DICTIONARY
  5
67CB
330
67CA
100
AcDbDictionary
280
     1
281
     1
  3
ACAD_DIMASSOC
360
67CC
  0
DICTIONARY
  5
67D2
330
67D1
100
AcDbDictionary
280
     1
281
     1
  3
ACAD_DIMASSOC
360
67D3
  0
DICTIONARY
  5
68EE
330
68ED
100
AcDbDictionary
280
     1
281
     1
  3
ACAD_DIMASSOC
360
68EF
  0
DICTIONARY
  5
690E
330
690D
100
AcDbDictionary
280
     1
281
     1
  3
ACAD_DIMASSOC
360
690F
  0
DICTIONARY
  5
6A5E
330
6A5D
100
AcDbDictionary
280
     1
281
     1
  3
ACAD_DIMASSOC
360
6A5F
  0
DICTIONARY
  5
6A6D
330
6A6C
100
AcDbDictionary
280
     1
281
     1
  3
ACAD_DIMASSOC
360
6A6E
  0
DICTIONARY
  5
6A82
330
6A81
100
AcDbDictionary
280
     1
281
     1
  3
ACAD_DIMASSOC
360
6A83
  0
DICTIONARY
  5
6A91
330
6A90
100
AcDbDictionary
280
     1
281
     1
  3
ACAD_DIMASSOC
360
6A92
  0
DICTIONARY
  5
6AD2
330
6AD1
100
AcDbDictionary
280
     1
281
     1
  3
ACAD_DIMASSOC
360
6AD3
  0
DICTIONARY
  5
674
102
{ACAD_REACTORS
330
19
102
}
330
19
100
AcDbDictionary
281
     1
  0
DICTIONARY
  5
12F4
102
{ACAD_REACTORS
330
19
102
}
330
19
100
AcDbDictionary
281
     1
  0
DICTIONARY
  5
1A
102
{ACAD_REACTORS
330
19
102
}
330
19
100
AcDbDictionary
281
     1
  3
*A1
350
6A07
  3
*A2
350
6A56
  0
RASTERVARIABLES
  5
27B
102
{ACAD_REACTORS
330
19
102
}
330
19
100
AcDbRasterVariables
 90
        0
 70
     1
 71
     1
 72
     1
  0
DICTIONARY
  5
1E
102
{ACAD_REACTORS
330
19
102
}
330
19
100
AcDbDictionary
281
     1
  3
Layout1
350
21
  3
Layout2
350
12C4
  3
Model
350
20
  0
DICTIONARY
  5
263
102
{ACAD_REACTORS
330
19
102
}
330
19
100
AcDbDictionary
281
     1
  3
ByBlock
350
385B
  3
ByLayer
350
264
  3
Global
350
266
  0
DICTIONARY
  5
336
102
{ACAD_REACTORS
330
19
102
}
330
19
100
AcDbDictionary
281
     1
  3
Standard
350
4B3A
  0
DICTIONARY
  5
1B
102
{ACAD_REACTORS
330
19
102
}
330
19
100
AcDbDictionary
281
     1
  3
Standard
350
1C
  0
DICTIONARY
  5
22
102
{ACAD_REACTORS
330
19
102
}
330
19
100
AcDbDictionary
281
     1
  0
ACDBDICTIONARYWDFLT
  5
1F
102
{ACAD_REACTORS
330
19
102
}
330
19
100
AcDbDictionary
281
     1
  3
Normal
350
1D
100
AcDbDictionaryWithDefault
340
1D
  0
DICTIONARY
  5
241
102
{ACAD_REACTORS
330
19
102
}
330
19
100
AcDbDictionary
281
     1
  3
A0
350
242
  3
A1
350
243
  3
A2
350
244
  3
A3
350
245
  3
A4
350
246
  3
A5
350
247
  3
A6
350
248
  3
A7
350
249
  3
A8
350
24A
  3
A9
350
24B
  3
B0
350
24C
  3
B1
350
24D
  3
B2
350
24E
  3
B3
350
24F
  3
B4
350
250
  3
B5
350
251
  3
B6
350
252
  3
B7
350
253
  3
B8
350
254
  3
B9
350
255
  3
C0
350
256
  3
C1
350
257
  3
C2
350
258
  3
C3
350
259
  3
C4
350
25A
  3
C5
350
25B
  3
C6
350
25C
  3
C7
350
25D
  3
C8
350
25E
  3
C9
350
25F
  3
D0
350
260
  3
D1
350
261
  3
D2
350
262
  0
DICTIONARY
  5
12F5
102
{ACAD_REACTORS
330
19
102
}
330
19
100
AcDbDictionary
281
     1
  0
DICTIONARY
  5
278
102
{ACAD_REACTORS
330
19
102
}
330
19
100
AcDbDictionary
281
     1
  3
Standard
350
279
  0
DICTIONARY
  5
267
102
{ACAD_REACTORS
330
19
102
}
330
19
100
AcDbDictionary
281
     1
  3
2dWireframe
350
26C
  3
3D Hidden
350
26E
  3
3dWireframe
350
26D
  3
Basic
350
26F
  3
Brighten
350
273
  3
ColorChange
350
277
  3
Conceptual
350
271
  3
Dim
350
272
  3
EdgeColorOff
350
10E2
  3
Facepattern
350
276
  3
Flat
350
268
  3
FlatWithEdges
350
269
  3
Gouraud
350
26A
  3
GouraudWithEdges
350
26B
  3
Hidden
350
10DF
  3
JitterOff
350
10E0
  3
Linepattern
350
275
  3
OverhangOff
350
10E1
  3
Realistic
350
270
  3
Shaded
350
10E7
  3
Shaded with edges
350
10E6
  3
Shades of Gray
350
10E3
  3
Sketchy
350
10E4
  3
Thicken
350
274
  3
Wireframe
350
10DE
  3
X-Ray
350
10E5
  0
XRECORD
  5
453F
102
{ACAD_REACTORS
330
19
102
}
330
19
100
AcDbXrecord
280
     1
340
0
 72
     0
 71
     0
 70
     0
 69
     0
 68
     1
 67
     3
 66
     0
 65
     0
 64
     0
 63
     3
 62
     1
 61
     0
 60
     0
 40
0.0
  0
XRECORD
  5
6AEB
102
{ACAD_REACTORS
330
19
102
}
330
19
100
AcDbXrecord
280
     1
 90
        1
330
279
  0
DICTIONARY
  5
330
102
{ACAD_REACTORS
330
19
102
}
330
19
100
AcDbDictionary
281
     1
  3
CANNOSCALE
350
331
  3
CMLEADERSTYLE
350
4B3B
  3
CTABLESTYLE
350
335
  3
HPTRANSPARENCY
350
4569
  3
XCLIPFRAME
350
109E
  0
DICTIONARY
  5
12B9
102
{ACAD_REACTORS
330
19
102
}
330
19
100
AcDbDictionary
281
     1
  0
DICTIONARY
  5
27A
102
{ACAD_REACTORS
330
19
102
}
330
19
100
AcDbDictionary
281
     1
  0
DICTIONARY
  5
2E2
102
{ACAD_REACTORS
330
2E1
102
}
330
2E1
100
AcDbDictionary
281
     1
  0
DICTIONARY
  5
5A30
102
{ACAD_REACTORS
330
2E1
102
}
330
2E1
100
AcDbDictionary
281
     1
1001
ACAD
1000
<All
  0
SORTENTSTABLE
  5
495B
102
{ACAD_REACTORS
330
495A
102
}
330
495A
100
AcDbSortentsTable
330
A
331
52D6
  5
52D8
331
52D7
  5
52D9
331
52D8
  5
52DA
331
52DB
  5
52DD
331
52DC
  5
52DE
331
52DD
  5
52DF
331
52DE
  5
52E0
331
52DF
  5
52E1
331
52E0
  5
52E2
331
52E1
  5
52E3
331
52E3
  5
52E5
331
52E4
  5
52E6
331
52E5
  5
52E7
331
52E6
  5
52E8
331
52E7
  5
52E9
331
52E8
  5
52EA
331
52E9
  5
52EB
331
52EA
  5
52EC
331
52EB
  5
52ED
331
52EC
  5
52EE
331
52ED
  5
52EF
331
52EE
  5
52F0
331
6041
  5
6047
331
6042
  5
6048
331
6044
  5
6049
331
6045
  5
604A
331
6046
  5
604B
331
6047
  5
604C
331
6048
  5
604D
331
6049
  5
604E
331
604A
  5
604F
331
604B
  5
6050
331
604C
  5
6051
331
604D
  5
6052
331
604E
  5
6053
331
604F
  5
6054
331
6050
  5
6055
331
6051
  5
6056
331
6052
  5
6057
331
6053
  5
6058
331
6054
  5
6059
331
6055
  5
605A
331
6056
  5
605B
331
6057
  5
605C
331
6058
  5
605D
331
6059
  5
605E
331
605A
  5
605F
331
605B
  5
6066
331
605C
  5
6078
331
605D
  5
607B
331
605E
  5
6084
331
605F
  5
6085
331
6078
  5
6087
331
6084
  5
6089
331
6085
  5
608A
331
6086
  5
608B
331
6087
  5
608C
331
6088
  5
608D
331
6089
  5
608E
331
608A
  5
608F
331
608B
  5
6090
331
608C
  5
6109
331
608D
  5
610A
331
608E
  5
610B
331
608F
  5
6211
331
6090
  5
6212
331
6109
  5
6213
331
610A
  5
6214
331
610B
  5
6215
331
6219
  5
621E
331
621A
  5
621F
331
621B
  5
6220
331
621C
  5
6221
331
621D
  5
6272
331
621E
  5
6273
331
621F
  5
6274
331
6220
  5
6275
331
6221
  5
6276
331
6272
  5
62A1
331
6273
  5
62A2
331
6274
  5
62A9
331
6275
  5
62AA
331
6276
  5
62DF
331
62A1
  5
62E0
331
62A2
  5
62E1
331
62A9
  5
62E2
331
62AA
  5
62E3
331
62DF
  5
62E4
331
62E0
  5
62E5
331
62E1
  5
62E6
331
62E2
  5
6320
331
62E3
  5
6321
331
62E4
  5
6322
331
62E5
  5
6325
331
62E6
  5
6326
331
6322
  5
6327
331
6323
  5
6328
331
6324
  5
632E
331
6325
  5
632F
331
632B
  5
6330
331
632C
  5
63A2
331
6393
  5
63BE
331
6394
  5
63BF
331
6395
  5
63C0
331
6396
  5
63C1
331
6397
  5
63C2
331
6398
  5
63C3
331
6399
  5
63C4
331
639A
  5
63C5
331
639B
  5
63C6
331
639C
  5
63C7
331
639D
  5
63C8
331
639E
  5
63C9
331
639F
  5
63CA
331
63A0
  5
63CB
331
63A1
  5
63CC
331
63A2
  5
63CD
331
63A3
  5
63CE
331
63A4
  5
63CF
331
63A5
  5
63D0
331
63A6
  5
63D1
331
63A7
  5
63D2
331
63A8
  5
63D3
331
63BE
  5
6418
331
63BF
  5
641D
331
63C0
  5
66EF
331
63C1
  5
66FE
331
63C2
  5
670D
331
63C3
  5
671C
331
63C4
  5
672B
331
63C5
  5
673A
331
63C6
  5
674C
331
63C7
  5
675B
331
63C8
  5
6773
331
63C9
  5
6774
331
63CA
  5
6775
331
63CB
  5
6776
331
63CC
  5
6777
331
63CD
  5
6778
331
63CE
  5
6779
331
63CF
  5
677A
331
63D0
  5
677B
331
63D1
  5
677C
331
63D2
  5
677D
331
63D3
  5
677E
331
6418
  5
6780
331
641D
  5
6781
331
670D
  5
6783
331
671C
  5
6784
331
672B
  5
6785
331
673A
  5
6786
331
674C
  5
6787
331
675B
  5
6788
331
6773
  5
6789
331
6774
  5
678A
331
6775
  5
678B
331
6776
  5
678C
331
6777
  5
678D
331
6778
  5
678E
331
6779
  5
678F
331
677A
  5
6795
331
677B
  5
6796
331
6781
  5
6797
331
6782
  5
6798
331
6783
  5
6799
331
6784
  5
679A
331
6785
  5
679B
331
6786
  5
679C
331
6787
  5
679D
331
6790
  5
67A6
331
6791
  5
67A7
331
6792
  5
67A8
331
6793
  5
67A9
331
6794
  5
67AA
331
6795
  5
67AB
331
6796
  5
67AC
331
6797
  5
67AD
331
6798
  5
67AE
331
6799
  5
67AF
331
679A
  5
67B0
331
679B
  5
67B1
331
679C
  5
67B2
331
679D
  5
67B3
331
679E
  5
67B4
331
679F
  5
67B5
331
67A0
  5
67B6
331
67A1
  5
67B7
331
67A2
  5
67B8
331
67A3
  5
67B9
331
67A4
  5
67BA
331
67A5
  5
67BB
331
67A6
  5
67BC
331
67A7
  5
67BD
331
67A8
  5
67BE
331
67A9
  5
67BF
331
67AA
  5
67C0
331
67AB
  5
67C1
331
67AC
  5
67C2
331
67AD
  5
67C3
331
67AE
  5
67C4
331
67AF
  5
67C5
331
67B0
  5
67C6
331
67B1
  5
67C7
331
67B2
  5
67CA
331
67B3
  5
67CD
331
67B4
  5
67CE
331
67B5
  5
67D1
331
67B6
  5
67D4
331
67B7
  5
682B
331
67B8
  5
682C
331
67B9
  5
682D
331
67BA
  5
682E
331
67BB
  5
682F
331
67BC
  5
6830
331
67BD
  5
6831
331
67BE
  5
6832
331
67BF
  5
6833
331
67C0
  5
6834
331
67C1
  5
6835
331
67C2
  5
6836
331
67C3
  5
6837
331
67C4
  5
6838
331
67C5
  5
6839
331
67C6
  5
683A
331
67C7
  5
683B
331
67CA
  5
683C
331
67CD
  5
683D
331
67CE
  5
683E
331
67D1
  5
683F
331
67D4
  5
6840
331
682B
  5
6841
331
682C
  5
6842
331
682D
  5
6843
331
682E
  5
6844
331
682F
  5
6845
331
6830
  5
6846
331
6831
  5
6847
331
6832
  5
6848
331
6833
  5
6849
331
6834
  5
684A
331
6835
  5
684B
331
6836
  5
684C
331
6837
  5
684D
331
6838
  5
684E
331
6839
  5
684F
331
683A
  5
6850
331
683B
  5
6851
331
683C
  5
6852
331
683D
  5
6853
331
683E
  5
6854
331
683F
  5
6855
331
6840
  5
6856
331
6841
  5
6857
331
6842
  5
6858
331
6843
  5
6859
331
6844
  5
685A
331
6845
  5
685B
331
6846
  5
685C
331
6847
  5
685D
331
6848
  5
685E
331
6850
  5
6863
331
6851
  5
6864
331
6852
  5
6865
331
6853
  5
6866
331
6854
  5
6867
331
6855
  5
6868
331
6856
  5
6869
331
6857
  5
686A
331
6858
  5
686B
331
6859
  5
686C
331
685A
  5
686D
331
685B
  5
686E
331
685C
  5
686F
331
685D
  5
6870
331
685E
  5
6871
331
685F
  5
6872
331
6860
  5
6873
331
6861
  5
6874
331
6862
  5
6875
331
6863
  5
6876
331
6864
  5
6877
331
6865
  5
6878
331
6866
  5
6879
331
6869
  5
68A6
331
687C
  5
68A7
331
68A6
  5
68A8
331
68A7
  5
68A9
331
68A9
  5
68AB
331
68AA
  5
68AC
331
68AB
  5
68AD
331
68AC
  5
68AE
331
68AD
  5
68AF
  0
DIMASSOC
  5
607A
102
{ACAD_REACTORS
330
6079
102
}
330
6079
100
AcDbDimAssoc
330
6078
 90
        3
 70
     0
 71
     1
  1
AcDbOsnapPointRef
 72
     1
331
6037
 73
     0
 91
        0
 40
0.0
 10
0.0
 20
0.0
 30
0.0
 75
     0
  1
AcDbOsnapPointRef
 72
     1
331
6044
 73
     0
 91
        0
 40
0.0
 10
0.0
 20
0.0
 30
0.0
 75
     0
  0
DIMASSOC
  5
670F
102
{ACAD_REACTORS
330
670E
102
}
330
670E
100
AcDbDimAssoc
330
670D
 90
        3
 70
     0
 71
     1
  1
AcDbOsnapPointRef
 72
     2
331
5FB0
 73
     0
 91
        0
 40
0.5
 10
0.0
 20
0.0
 30
0.0
 75
     0
  1
AcDbOsnapPointRef
 72
    13
331
5FA5
 73
     0
 91
        0
 40
0.0
 10
0.0
 20
0.0
 30
0.0
 75
     0
  0
DIMASSOC
  5
671E
102
{ACAD_REACTORS
330
671D
102
}
330
671D
100
AcDbDimAssoc
330
671C
 90
        3
 70
     0
 71
     1
  1
AcDbOsnapPointRef
 72
    13
331
63A3
 73
     0
 91
        0
 40
0.0
 10
0.0
 20
0.0
 30
0.0
 75
     0
  1
AcDbOsnapPointRef
 72
     1
331
63A6
 73
     0
 91
        0
 40
0.0
 10
0.0
 20
0.0
 30
0.0
 75
     0
  0
DIMASSOC
  5
674E
102
{ACAD_REACTORS
330
674D
102
}
330
674D
100
AcDbDimAssoc
330
674C
 90
        3
 70
     0
 71
     1
  1
AcDbOsnapPointRef
 72
    13
331
63CD
 73
     0
 91
        0
 40
0.0
 10
0.0
 20
0.0
 30
0.0
 75
     0
  1
AcDbOsnapPointRef
 72
     1
331
63D0
 73
     0
 91
        0
 40
0.0
 10
0.0
 20
0.0
 30
0.0
 75
     0
  0
DIMASSOC
  5
67C9
102
{ACAD_REACTORS
330
67C8
102
}
330
67C8
100
AcDbDimAssoc
330
67C7
 90
        2
 70
     0
 71
     1
  1
AcDbOsnapPointRef
 72
    13
331
6776
 73
     0
 91
        0
 40
0.0
 10
0.0
 20
0.0
 30
0.0
 75
     0
  0
DIMASSOC
  5
67CC
102
{ACAD_REACTORS
330
67CB
102
}
330
67CB
100
AcDbDimAssoc
330
67CA
 90
        3
 70
     0
 71
     1
  1
AcDbOsnapPointRef
 72
    13
331
67A9
 73
     0
 91
        0
 40
0.0
 10
0.0
 20
0.0
 30
0.0
 75
     0
  1
AcDbOsnapPointRef
 72
     1
331
67AC
 73
     0
 91
        0
 40
0.0
 10
0.0
 20
0.0
 30
0.0
 75
     0
  0
DIMASSOC
  5
67D3
102
{ACAD_REACTORS
330
67D2
102
}
330
67D2
100
AcDbDimAssoc
330
67D1
 90
        3
 70
     0
 71
     1
  1
AcDbOsnapPointRef
 72
    13
331
67BE
 73
     0
 91
        0
 40
0.0
 10
0.0
 20
0.0
 30
0.0
 75
     0
  1
AcDbOsnapPointRef
 72
     1
331
67C1
 73
     0
 91
        0
 40
0.0
 10
0.0
 20
0.0
 30
0.0
 75
     0
  0
DIMASSOC
  5
68EF
102
{ACAD_REACTORS
330
68EE
102
}
330
68EE
100
AcDbDimAssoc
330
68ED
 90
        2
 70
     0
 71
     1
  1
AcDbOsnapPointRef
 72
    10
331
639F
 73
     0
 91
        0
 40
3.336429962557586
 10
0.0
 20
0.0
 30
0.0
 75
     0
  0
DIMASSOC
  5
690F
102
{ACAD_REACTORS
330
690E
102
}
330
690E
100
AcDbDimAssoc
330
690D
 90
        3
 70
     0
 71
     1
  1
AcDbOsnapPointRef
 72
    10
331
67A7
 73
     0
 91
        0
 40
0.2047089954000052
 10
0.0
 20
0.0
 30
0.0
 75
     0
  1
AcDbOsnapPointRef
 72
    10
331
67A5
 73
     0
 91
        0
 40
6.081131459053627
 10
0.0
 20
0.0
 30
0.0
 75
     0
  0
DIMASSOC
  5
6A5F
102
{ACAD_REACTORS
330
6A5E
102
}
330
6A5E
100
AcDbDimAssoc
330
6A5D
 90
        2
 70
     0
 71
     1
  1
AcDbOsnapPointRef
 72
    10
331
63C8
 73
     0
 91
        0
 40
0.9294687481935233
 10
0.0
 20
0.0
 30
0.0
 75
     0
  0
DIMASSOC
  5
6A6E
102
{ACAD_REACTORS
330
6A6D
102
}
330
6A6D
100
AcDbDimAssoc
330
6A6C
 90
        1
 70
     0
 71
     1
  1
AcDbOsnapPointRef
 72
     1
331
63C3
 73
     0
 91
        0
 40
0.0
 10
0.0
 20
0.0
 30
0.0
 75
     0
  0
DIMASSOC
  5
6A83
102
{ACAD_REACTORS
330
6A82
102
}
330
6A82
100
AcDbDimAssoc
330
6A81
 90
        2
 70
     0
 71
     1
  1
AcDbOsnapPointRef
 72
    10
331
67B9
 73
     0
 91
        0
 40
0.8865418504904239
 10
0.0
 20
0.0
 30
0.0
 75
     0
  0
DIMASSOC
  5
6A92
102
{ACAD_REACTORS
330
6A91
102
}
330
6A91
100
AcDbDimAssoc
330
6A90
 90
        2
 70
     0
 71
     1
  1
AcDbOsnapPointRef
 72
    10
331
67B9
 73
     0
 91
        0
 40
0.7796589958087445
 10
0.0
 20
0.0
 30
0.0
 75
     0
  0
DIMASSOC
  5
6AD3
102
{ACAD_REACTORS
330
6AD2
102
}
330
6AD2
100
AcDbDimAssoc
330
6AD1
 90
        2
 70
     0
 71
     1
  1
AcDbOsnapPointRef
 72
     8
331
6962
 73
     0
 91
        0
 40
0.6958460233038363
 10
0.0
 20
0.0
 30
0.0
 75
     1
  1
AcDbOsnapPointRef
 72
     1
331
6981
331
6988
 73
     0
 91
        0
 40
0.0
 10
0.0
 20
0.0
 30
0.0
 75
     0
  0
GROUP
  5
6A07
102
{ACAD_REACTORS
330
1A
102
}
330
1A
100
AcDbGroup
300

 70
     1
 71
     1
340
69F2
340
69F3
340
69F4
340
69F5
340
69F6
340
69F7
340
69F8
340
69F9
340
69FA
340
69FB
340
69FC
340
69FD
340
69FE
340
69FF
340
6A00
340
6A01
340
6A02
340
6A03
340
6A04
340
6A05
340
6A06
  0
GROUP
  5
6A56
102
{ACAD_REACTORS
330
1A
102
}
330
1A
100
AcDbGroup
300

 70
     1
 71
     1
340
6A44
340
6A46
340
6A4B
340
6A51
340
6A49
340
6A43
340
6A47
340
6A41
340
6A4D
340
6A4E
340
6A52
340
6A53
340
6A54
340
6A4F
340
6A42
340
6A48
340
6A50
340
6A55
340
6A45
340
6A4A
  0
LAYOUT
  5
21
102
{ACAD_REACTORS
330
1E
102
}
330
1E
100
AcDbPlotSettings
  1

  2
none_device
  4
ISO_A3_(420.00_x_297.00_MM)
  6

 40
7.5
 41
20.0
 42
7.5
 43
20.0
 44
420.0
 45
297.0
 46
0.0
 47
0.0
 48
0.0
 49
0.0
140
0.0
141
0.0
142
1.0
143
1.0
 70
     0
 72
     1
 73
     0
 74
     0
  7

 75
     0
 76
     0
 77
     2
 78
   300
147
1.0
148
0.0
149
0.0
100
AcDbLayout
  1
Layout1
 70
     0
 71
     0
 10
-7.5
 20
-20.0
 11
412.5
 21
277.0
 12
0.0
 22
0.0
 32
0.0
 14
0.0
 24
0.0
 34
0.0
 15
0.0
 25
0.0
 35
0.0
146
0.0
 13
0.0
 23
0.0
 33
0.0
 16
0.0
 26
0.0
 36
0.0
 17
0.0
 27
0.0
 37
0.0
 76
     0
330
B
331
349
  0
LAYOUT
  5
12C4
102
{ACAD_REACTORS
330
1E
102
}
330
1E
100
AcDbPlotSettings
  1

  2
none_device
  4

  6

 40
0.0
 41
0.0
 42
0.0
 43
0.0
 44
0.0
 45
0.0
 46
0.0
 47
0.0
 48
0.0
 49
0.0
140
0.0
141
0.0
142
1.0
143
1.0
 70
   688
 72
     1
 73
     0
 74
     5
  7

 75
    16
 76
     0
 77
     2
 78
   300
147
1.0
148
0.0
149
0.0
100
AcDbLayout
  1
Layout2
 70
     1
 71
     2
 10
0.0
 20
0.0
 11
0.0
 21
0.0
 12
0.0
 22
0.0
 32
0.0
 14
0.0
 24
0.0
 34
0.0
 15
0.0
 25
0.0
 35
0.0
146
0.0
 13
0.0
 23
0.0
 33
0.0
 16
1.0
 26
0.0
 36
0.0
 17
0.0
 27
1.0
 37
0.0
 76
     0
330
12C3
  0
LAYOUT
  5
20
102
{ACAD_REACTORS
330
1E
102
}
330
1E
100
AcDbPlotSettings
  1

  2
none_device
  4
ISO_A3_(420.00_x_297.00_MM)
  6

 40
7.5
 41
20.0
 42
7.5
 43
20.0
 44
420.0
 45
297.0
 46
0.0
 47
0.0
 48
0.0
 49
0.0
140
0.0
141
0.0
142
1.0
143
1.0
 70
  1024
 72
     1
 73
     0
 74
     0
  7

 75
     0
 76
     0
 77
     2
 78
   300
147
1.0
148
0.0
149
0.0
100
AcDbLayout
  1
Model
 70
     0
 71
     1
 10
0.0
 20
0.0
 11
593.9999999999999
 21
420.0
 12
0.0
 22
0.0
 32
0.0
 14
0.0
 24
0.0
 34
0.0
 15
593.9999999999999
 25
420.0
 35
0.0
146
0.0
 13
0.0
 23
0.0
 33
0.0
 16
0.0
 26
0.0
 36
0.0
 17
0.0
 27
0.0
 37
0.0
 76
     0
330
A
331
15
  0
MATERIAL
  5
385B
102
{ACAD_REACTORS
330
263
102
}
330
263
100
AcDbMaterial
  1
ByBlock
 72
     1
 94
      127
  0
MATERIAL
  5
264
102
{ACAD_REACTORS
330
263
102
}
330
263
100
AcDbMaterial
  1
ByLayer
 72
     1
 94
      127
  0
MATERIAL
  5
266
102
{ACAD_REACTORS
330
263
102
}
330
263
100
AcDbMaterial
  1
Global
 72
     1
 94
      127
  0
MLEADERSTYLE
  5
4B3A
102
{ACAD_REACTORS
330
336
102
}
330
336
100
AcDbMLeaderStyle
170
     2
171
     1
172
     0
 90
        2
 40
0.0
 41
0.0
173
     1
 91
-1056964608
340
11
 92
       -2
290
     1
 42
2.0
291
     1
 43
8.0
  3
Standard
341
0
 44
4.0
300

342
17
174
     1
178
     6
175
     1
176
     0
 93
-1056964608
 45
4.0
292
     0
297
     0
 46
4.0
343
0
 94
-1056964608
 47
1.0
 49
1.0
140
1.0
293
     1
141
0.0
294
     1
177
     0
142
1.0
295
     0
296
     0
143
3.75
1001
ACAD_MLEADERVER
1070
     2
  0
MLINESTYLE
  5
1C
102
{ACAD_REACTORS
330
1B
102
}
330
1B
100
AcDbMlineStyle
  2
Standard
 70
     0
  3

 62
     0
 51
90.0
 52
90.0
 71
     2
 49
0.5
 62
   256
  6
BYLAYER
 49
-0.5
 62
   256
  6
BYLAYER
  0
ACDBPLACEHOLDER
  5
1D
102
{ACAD_REACTORS
330
1F
102
}
330
1F
  0
SCALE
  5
242
102
{ACAD_REACTORS
330
241
102
}
330
241
100
AcDbScale
 70
     0
300
1:1
140
1.0
141
1.0
290
     1
  0
SCALE
  5
243
102
{ACAD_REACTORS
330
241
102
}
330
241
100
AcDbScale
 70
     0
300
1:2
140
1.0
141
2.0
290
     0
  0
SCALE
  5
244
102
{ACAD_REACTORS
330
241
102
}
330
241
100
AcDbScale
 70
     0
300
1:4
140
1.0
141
4.0
290
     0
  0
SCALE
  5
245
102
{ACAD_REACTORS
330
241
102
}
330
241
100
AcDbScale
 70
     0
300
1:5
140
1.0
141
5.0
290
     0
  0
SCALE
  5
246
102
{ACAD_REACTORS
330
241
102
}
330
241
100
AcDbScale
 70
     0
300
1:8
140
1.0
141
8.0
290
     0
  0
SCALE
  5
247
102
{ACAD_REACTORS
330
241
102
}
330
241
100
AcDbScale
 70
     0
300
1:10
140
1.0
141
10.0
290
     0
  0
SCALE
  5
248
102
{ACAD_REACTORS
330
241
102
}
330
241
100
AcDbScale
 70
     0
300
1:16
140
1.0
141
16.0
290
     0
  0
SCALE
  5
249
102
{ACAD_REACTORS
330
241
102
}
330
241
100
AcDbScale
 70
     0
300
1:20
140
1.0
141
20.0
290
     0
  0
SCALE
  5
24A
102
{ACAD_REACTORS
330
241
102
}
330
241
100
AcDbScale
 70
     0
300
1:30
140
1.0
141
30.0
290
     0
  0
SCALE
  5
24B
102
{ACAD_REACTORS
330
241
102
}
330
241
100
AcDbScale
 70
     0
300
1:40
140
1.0
141
40.0
290
     0
  0
SCALE
  5
24C
102
{ACAD_REACTORS
330
241
102
}
330
241
100
AcDbScale
 70
     0
300
1:50
140
1.0
141
50.0
290
     0
  0
SCALE
  5
24D
102
{ACAD_REACTORS
330
241
102
}
330
241
100
AcDbScale
 70
     0
300
1:100
140
1.0
141
100.0
290
     0
  0
SCALE
  5
24E
102
{ACAD_REACTORS
330
241
102
}
330
241
100
AcDbScale
 70
     0
300
2:1
140
2.0
141
1.0
290
     0
  0
SCALE
  5
24F
102
{ACAD_REACTORS
330
241
102
}
330
241
100
AcDbScale
 70
     0
300
4:1
140
4.0
141
1.0
290
     0
  0
SCALE
  5
250
102
{ACAD_REACTORS
330
241
102
}
330
241
100
AcDbScale
 70
     0
300
8:1
140
8.0
141
1.0
290
     0
  0
SCALE
  5
251
102
{ACAD_REACTORS
330
241
102
}
330
241
100
AcDbScale
 70
     0
300
10:1
140
10.0
141
1.0
290
     0
  0
SCALE
  5
252
102
{ACAD_REACTORS
330
241
102
}
330
241
100
AcDbScale
 70
     0
300
100:1
140
100.0
141
1.0
290
     0
  0
SCALE
  5
253
102
{ACAD_REACTORS
330
241
102
}
330
241
100
AcDbScale
 70
     0
300
1/128" = 1'-0"
140
0.0078125
141
12.0
290
     0
  0
SCALE
  5
254
102
{ACAD_REACTORS
330
241
102
}
330
241
100
AcDbScale
 70
     0
300
1/64" = 1'-0"
140
0.015625
141
12.0
290
     0
  0
SCALE
  5
255
102
{ACAD_REACTORS
330
241
102
}
330
241
100
AcDbScale
 70
     0
300
1/32" = 1'-0"
140
0.03125
141
12.0
290
     0
  0
SCALE
  5
256
102
{ACAD_REACTORS
330
241
102
}
330
241
100
AcDbScale
 70
     0
300
1/16" = 1'-0"
140
0.0625
141
12.0
290
     0
  0
SCALE
  5
257
102
{ACAD_REACTORS
330
241
102
}
330
241
100
AcDbScale
 70
     0
300
3/32" = 1'-0"
140
0.09375
141
12.0
290
     0
  0
SCALE
  5
258
102
{ACAD_REACTORS
330
241
102
}
330
241
100
AcDbScale
 70
     0
300
1/8" = 1'-0"
140
0.125
141
12.0
290
     0
  0
SCALE
  5
259
102
{ACAD_REACTORS
330
241
102
}
330
241
100
AcDbScale
 70
     0
300
3/16" = 1'-0"
140
0.1875
141
12.0
290
     0
  0
SCALE
  5
25A
102
{ACAD_REACTORS
330
241
102
}
330
241
100
AcDbScale
 70
     0
300
1/4" = 1'-0"
140
0.25
141
12.0
290
     0
  0
SCALE
  5
25B
102
{ACAD_REACTORS
330
241
102
}
330
241
100
AcDbScale
 70
     0
300
3/8" = 1'-0"
140
0.375
141
12.0
290
     0
  0
SCALE
  5
25C
102
{ACAD_REACTORS
330
241
102
}
330
241
100
AcDbScale
 70
     0
300
1/2" = 1'-0"
140
0.5
141
12.0
290
     0
  0
SCALE
  5
25D
102
{ACAD_REACTORS
330
241
102
}
330
241
100
AcDbScale
 70
     0
300
3/4" = 1'-0"
140
0.75
141
12.0
290
     0
  0
SCALE
  5
25E
102
{ACAD_REACTORS
330
241
102
}
330
241
100
AcDbScale
 70
     0
300
1" = 1'-0"
140
1.0
141
12.0
290
     0
  0
SCALE
  5
25F
102
{ACAD_REACTORS
330
241
102
}
330
241
100
AcDbScale
 70
     0
300
1-1/2" = 1'-0"
140
1.5
141
12.0
290
     0
  0
SCALE
  5
260
102
{ACAD_REACTORS
330
241
102
}
330
241
100
AcDbScale
 70
     0
300
3" = 1'-0"
140
3.0
141
12.0
290
     0
  0
SCALE
  5
261
102
{ACAD_REACTORS
330
241
102
}
330
241
100
AcDbScale
 70
     0
300
6" = 1'-0"
140
6.0
141
12.0
290
     0
  0
SCALE
  5
262
102
{ACAD_REACTORS
330
241
102
}
330
241
100
AcDbScale
 70
     0
300
1'-0" = 1'-0"
140
12.0
141
12.0
290
     0
  0
TABLESTYLE
  5
279
102
{ACAD_REACTORS
330
278
102
}
102
{ACAD_XDICTIONARY
360
6AE9
102
}
330
278
100
AcDbTableStyle
  3
Standard
 70
     0
 71
     0
 40
0.06
 41
0.06
280
     0
281
     0
  7
Standard
140
4.5
170
     2
 62
     0
 63
   257
283
     0
 90
        4
 91
        0
  1

274
    -2
284
     1
 64
     0
275
    -2
285
     1
 65
     0
276
    -2
286
     1
 66
     0
277
    -2
287
     1
 67
     0
278
    -2
288
     1
 68
     0
279
    -2
289
     1
 69
     0
  7
Standard
140
6.0
170
     5
 62
     0
 63
   257
283
     0
 90
        4
 91
        0
  1

274
    -2
284
     1
 64
     0
275
    -2
285
     1
 65
     0
276
    -2
286
     1
 66
     0
277
    -2
287
     1
 67
     0
278
    -2
288
     1
 68
     0
279
    -2
289
     1
 69
     0
  7
Standard
140
4.5
170
     5
 62
     0
 63
   257
283
     0
 90
        4
 91
        0
  1

274
    -2
284
     1
 64
     0
275
    -2
285
     1
 65
     0
276
    -2
286
     1
 66
     0
277
    -2
287
     1
 67
     0
278
    -2
288
     1
 68
     0
279
    -2
289
     1
 69
     0
  0
VISUALSTYLE
  5
26C
102
{ACAD_REACTORS
330
267
102
}
330
267
100
AcDbVisualStyle
  2
2dWireframe
 70
     4
 71
     0
 72
     2
 73
     0
 90
        0
 40
-0.6
 41
-30.0
 62
     5
 63
     7
421
 16777215
 74
     1
 91
        4
 64
     7
 65
   257
 75
     1
175
     1
 42
1.0
 92
        0
 66
   257
 43
1.0
 76
     1
 77
     6
 78
     2
 67
     7
 79
     5
170
     0
171
     0
290
     0
174
     0
 93
        1
 44
0.0
173
     0
291
     0
 45
0.0
  0
VISUALSTYLE
  5
26E
102
{ACAD_REACTORS
330
267
102
}
330
267
100
AcDbVisualStyle
  2
3D Hidden
 70
     6
 71
     1
 72
     2
 73
     2
 90
        0
 40
-0.6
 41
-30.0
 62
     5
 63
     7
421
 16777215
 74
     2
 91
        2
 64
     7
 65
   257
 75
     2
175
     1
 42
40.0
 92
        0
 66
   257
 43
1.0
 76
     1
 77
     6
 78
     2
 67
     7
 79
     3
170
     0
171
     0
290
     0
174
     0
 93
        1
 44
0.0
173
     0
291
     0
 45
0.0
  0
VISUALSTYLE
  5
26D
102
{ACAD_REACTORS
330
267
102
}
330
267
100
AcDbVisualStyle
  2
3dWireframe
 70
     5
 71
     0
 72
     2
 73
     0
 90
        0
 40
-0.6
 41
-30.0
 62
     5
 63
     7
421
 16777215
 74
     1
 91
        4
 64
     7
 65
   257
 75
     1
175
     1
 42
1.0
 92
        0
 66
   257
 43
1.0
 76
     1
 77
     6
 78
     2
 67
     7
 79
     5
170
     0
171
     0
290
     0
174
     0
 93
        1
 44
0.0
173
     0
291
     0
 45
0.0
  0
VISUALSTYLE
  5
26F
102
{ACAD_REACTORS
330
267
102
}
330
267
100
AcDbVisualStyle
  2
Basic
 70
     7
 71
     1
 72
     0
 73
     1
 90
        0
 40
-0.6
 41
-30.0
 62
     5
 63
     7
421
 16777215
 74
     0
 91
        4
 64
     7
 65
   257
 75
     1
175
     1
 42
1.0
 92
        8
 66
     7
 43
1.0
 76
     1
 77
     6
 78
     2
 67
     7
 79
     5
170
     0
171
     0
290
     0
174
     0
 93
        1
 44
0.0
173
     0
291
     1
 45
0.0
  0
VISUALSTYLE
  5
273
102
{ACAD_REACTORS
330
267
102
}
330
267
100
AcDbVisualStyle
  2
Brighten
 70
    12
 71
     2
 72
     2
 73
     0
 90
        0
 40
-0.6
 41
-30.0
 62
     5
 63
     7
421
 16777215
 74
     1
 91
        4
 64
     7
 65
   257
 75
     1
175
     1
 42
1.0
 92
        8
 66
     7
 43
1.0
 76
     1
 77
     6
 78
     2
 67
     7
 79
     5
170
     0
171
     0
290
     0
174
     0
 93
        1
 44
50.0
173
     0
291
     1
 45
0.0
  0
VISUALSTYLE
  5
277
102
{ACAD_REACTORS
330
267
102
}
330
267
100
AcDbVisualStyle
  2
ColorChange
 70
    16
 71
     2
 72
     2
 73
     3
 90
        0
 40
-0.6
 41
-30.0
 62
     5
 63
     8
421
  8421504
 74
     1
 91
        4
 64
     7
 65
   257
 75
     1
175
     1
 42
1.0
 92
        8
 66
     8
424
  8421504
 43
1.0
 76
     1
 77
     6
 78
     2
 67
     7
 79
     5
170
     0
171
     0
290
     0
174
     0
 93
        1
 44
0.0
173
     0
291
     1
 45
0.0
  0
VISUALSTYLE
  5
271
102
{ACAD_REACTORS
330
267
102
}
330
267
100
AcDbVisualStyle
  2
Conceptual
 70
     9
 71
     3
 72
     2
 73
     0
 90
        0
 40
-0.6
 41
-30.0
 62
     5
 63
     7
421
 16777215
 74
     2
 91
        2
 64
     7
 65
   257
 75
     1
175
     1
 42
40.0
 92
        8
 66
     7
 43
1.0
 76
     1
 77
     6
 78
     2
 67
     7
 79
     3
170
     0
171
     0
290
     0
174
     0
 93
        1
 44
0.0
173
     0
291
     0
 45
0.0
  0
VISUALSTYLE
  5
272
102
{ACAD_REACTORS
330
267
102
}
330
267
100
AcDbVisualStyle
  2
Dim
 70
    11
 71
     2
 72
     2
 73
     0
 90
        0
 40
-0.6
 41
-30.0
 62
     5
 63
     7
421
 16777215
 74
     1
 91
        4
 64
     7
 65
   257
 75
     1
175
     1
 42
1.0
 92
        8
 66
     7
 43
1.0
 76
     1
 77
     6
 78
     2
 67
     7
 79
     5
170
     0
171
     0
290
     0
174
     0
 93
        1
 44
-50.0
173
     0
291
     1
 45
0.0
  0
VISUALSTYLE
  5
10E2
102
{ACAD_REACTORS
330
267
102
}
330
267
100
AcDbVisualStyle
  2
EdgeColorOff
 70
    22
 71
     2
 72
     2
 73
     0
 90
        0
 40
0.6
 41
30.0
 62
     5
 63
     7
421
 16777215
 74
     1
 91
        4
 64
     7
 65
   257
 75
     1
175
     1
 42
1.0
 92
        8
 66
     7
 43
1.0
 76
     1
 77
     6
 78
     2
 67
     7
 79
     5
170
     0
171
     0
290
     0
174
     0
 93
        1
 44
0.0
173
     0
291
     1
 45
0.0
  0
VISUALSTYLE
  5
276
102
{ACAD_REACTORS
330
267
102
}
330
267
100
AcDbVisualStyle
  2
Facepattern
 70
    15
 71
     2
 72
     2
 73
     0
 90
        0
 40
-0.6
 41
-30.0
 62
     5
 63
     7
421
 16777215
 74
     1
 91
        4
 64
     7
 65
   257
 75
     1
175
     1
 42
1.0
 92
        8
 66
     7
 43
1.0
 76
     1
 77
     6
 78
     2
 67
     7
 79
     5
170
     0
171
     0
290
     0
174
     0
 93
        1
 44
0.0
173
     0
291
     1
 45
0.0
  0
VISUALSTYLE
  5
268
102
{ACAD_REACTORS
330
267
102
}
330
267
100
AcDbVisualStyle
  2
Flat
 70
     0
 71
     2
 72
     1
 73
     1
 90
        2
 40
-0.6
 41
30.0
 62
     5
 63
     7
421
 16777215
 74
     0
 91
        4
 64
     7
 65
   257
 75
     1
175
     1
 42
1.0
 92
        8
 66
     7
 43
1.0
 76
     1
 77
     6
 78
     2
 67
     7
 79
     5
170
     0
171
     0
290
     0
174
     0
 93
       13
 44
0.0
173
     0
291
     1
 45
0.0
  0
VISUALSTYLE
  5
269
102
{ACAD_REACTORS
330
267
102
}
330
267
100
AcDbVisualStyle
  2
FlatWithEdges
 70
     1
 71
     2
 72
     1
 73
     1
 90
        2
 40
-0.6
 41
30.0
 62
     5
 63
     7
421
 16777215
 74
     1
 91
        4
 64
     7
 65
   257
 75
     1
175
     1
 42
1.0
 92
        0
 66
   257
 43
1.0
 76
     1
 77
     6
 78
     2
 67
     7
 79
     5
170
     0
171
     0
290
     0
174
     0
 93
       13
 44
0.0
173
     0
291
     1
 45
0.0
  0
VISUALSTYLE
  5
26A
102
{ACAD_REACTORS
330
267
102
}
330
267
100
AcDbVisualStyle
  2
Gouraud
 70
     2
 71
     2
 72
     2
 73
     1
 90
        2
 40
-0.6
 41
30.0
 62
     5
 63
     7
421
 16777215
 74
     0
 91
        4
 64
     7
 65
   257
 75
     1
175
     1
 42
1.0
 92
        0
 66
     7
 43
1.0
 76
     1
 77
     6
 78
     2
 67
     7
 79
     5
170
     0
171
     0
290
     0
174
     0
 93
       13
 44
0.0
173
     0
291
     1
 45
0.0
  0
VISUALSTYLE
  5
26B
102
{ACAD_REACTORS
330
267
102
}
330
267
100
AcDbVisualStyle
  2
GouraudWithEdges
 70
     3
 71
     2
 72
     2
 73
     1
 90
        2
 40
-0.6
 41
30.0
 62
     5
 63
     7
421
 16777215
 74
     1
 91
        4
 64
     7
 65
   257
 75
     1
175
     1
 42
1.0
 92
        0
 66
   257
 43
1.0
 76
     1
 77
     6
 78
     2
 67
     7
 79
     5
170
     0
171
     0
290
     0
174
     0
 93
       13
 44
0.0
173
     0
291
     1
 45
0.0
  0
VISUALSTYLE
  5
10DF
102
{ACAD_REACTORS
330
267
102
}
330
267
100
AcDbVisualStyle
  2
Hidden
 70
     6
 71
     1
 72
     2
 73
     2
 90
        0
 40
0.6
 41
30.0
 62
     5
 63
     7
421
 16777215
 74
     2
 91
        2
 64
     7
 65
   257
 75
     2
175
     1
 42
40.0
 92
        0
 66
   257
 43
1.0
 76
     1
 77
     6
 78
     2
 67
     7
 79
     3
170
     0
171
     0
290
     0
174
     0
 93
        1
 44
0.0
173
     0
291
     0
 45
0.0
  0
VISUALSTYLE
  5
10E0
102
{ACAD_REACTORS
330
267
102
}
330
267
100
AcDbVisualStyle
  2
JitterOff
 70
    20
 71
     2
 72
     2
 73
     0
 90
        0
 40
0.6
 41
30.0
 62
     5
 63
     7
421
 16777215
 74
     1
 91
        4
 64
     7
 65
   257
 75
     1
175
     1
 42
1.0
 92
       10
 66
     7
 43
1.0
 76
     1
 77
     6
 78
     2
 67
     7
 79
     5
170
     0
171
     0
290
     0
174
     0
 93
        1
 44
0.0
173
     0
291
     1
 45
0.0
  0
VISUALSTYLE
  5
275
102
{ACAD_REACTORS
330
267
102
}
330
267
100
AcDbVisualStyle
  2
Linepattern
 70
    14
 71
     2
 72
     2
 73
     0
 90
        0
 40
-0.6
 41
-30.0
 62
     5
 63
     7
421
 16777215
 74
     1
 91
        4
 64
     7
 65
   257
 75
     7
175
     7
 42
1.0
 92
        8
 66
     7
 43
1.0
 76
     1
 77
     6
 78
     2
 67
     7
 79
     5
170
     0
171
     0
290
     0
174
     0
 93
        1
 44
0.0
173
     0
291
     1
 45
0.0
  0
VISUALSTYLE
  5
10E1
102
{ACAD_REACTORS
330
267
102
}
330
267
100
AcDbVisualStyle
  2
OverhangOff
 70
    21
 71
     2
 72
     2
 73
     0
 90
        0
 40
0.6
 41
30.0
 62
     5
 63
     7
421
 16777215
 74
     1
 91
        4
 64
     7
 65
   257
 75
     1
175
     1
 42
1.0
 92
        9
 66
     7
 43
1.0
 76
     1
 77
     6
 78
     2
 67
     7
 79
     5
170
     0
171
     0
290
     0
174
     0
 93
        1
 44
0.0
173
     0
291
     1
 45
0.0
  0
VISUALSTYLE
  5
270
102
{ACAD_REACTORS
330
267
102
}
330
267
100
AcDbVisualStyle
  2
Realistic
 70
     8
 71
     2
 72
     2
 73
     0
 90
        0
 40
-0.6
 41
-30.0
 62
     5
 63
     7
421
 16777215
 74
     1
 91
        0
 64
     7
 65
   257
 75
     1
175
     1
 42
1.0
 92
        8
 66
     8
424
  7895160
 43
1.0
 76
     1
 77
     6
 78
     2
 67
     7
 79
     5
170
     0
171
     0
290
     0
174
     0
 93
       13
 44
0.0
173
     0
291
     0
 45
0.0
  0
VISUALSTYLE
  5
10E7
102
{ACAD_REACTORS
330
267
102
}
330
267
100
AcDbVisualStyle
  2
Shaded
 70
    27
 71
     2
 72
     2
 73
     1
 90
        2
 40
0.6
 41
30.0
 62
     5
 63
     7
421
 16777215
 74
     0
 91
        4
 64
     7
 65
   257
 75
     1
175
     1
 42
1.0
 92
        8
 66
   257
 43
1.0
 76
     1
 77
     6
 78
     2
 67
     8
425
  7895160
 79
     3
170
     0
171
     0
290
     0
174
     0
 93
        5
 44
0.0
173
     0
291
     0
 45
0.0
  0
VISUALSTYLE
  5
10E6
102
{ACAD_REACTORS
330
267
102
}
330
267
100
AcDbVisualStyle
  2
Shaded with edges
 70
    26
 71
     2
 72
     2
 73
     1
 90
        2
 40
0.6
 41
30.0
 62
     5
 63
     7
421
 16777215
 74
     1
 91
       10
 64
     7
 65
   257
 75
     2
175
     1
 42
1.0
 92
        8
 66
   257
 43
1.0
 76
     1
 77
     6
 78
     2
 67
     7
 79
     3
170
     0
171
     0
290
     0
174
     0
 93
        5
 44
0.0
173
     0
291
     0
 45
0.0
  0
VISUALSTYLE
  5
10E3
102
{ACAD_REACTORS
330
267
102
}
330
267
100
AcDbVisualStyle
  2
Shades of Gray
 70
    23
 71
     2
 72
     2
 73
     3
 90
        0
 40
0.6
 41
30.0
 62
     5
 63
     7
421
 16777215
 74
     2
 91
        2
 64
     7
 65
     7
 75
     1
175
     1
 42
40.0
 92
        8
 66
     7
 43
1.0
 76
     1
 77
     6
 78
     2
 67
     7
 79
     3
170
     0
171
     0
290
     0
174
     0
 93
        1
 44
0.0
173
     0
291
     0
 45
0.0
  0
VISUALSTYLE
  5
10E4
102
{ACAD_REACTORS
330
267
102
}
330
267
100
AcDbVisualStyle
  2
Sketchy
 70
    24
 71
     1
 72
     2
 73
     2
 90
        0
 40
0.6
 41
30.0
 62
     5
 63
     7
421
 16777215
 74
     2
 91
        2
 64
     7
 65
     7
 75
     1
175
     1
 42
40.0
 92
       11
 66
     7
 43
1.0
 76
     1
 77
     6
 78
     2
 67
     7
 79
     6
170
     0
171
     0
290
     0
174
     0
 93
        1
 44
0.0
173
     0
291
     0
 45
0.0
  0
VISUALSTYLE
  5
274
102
{ACAD_REACTORS
330
267
102
}
330
267
100
AcDbVisualStyle
  2
Thicken
 70
    13
 71
     2
 72
     2
 73
     0
 90
        0
 40
-0.6
 41
-30.0
 62
     5
 63
     7
421
 16777215
 74
     1
 91
        4
 64
     7
 65
   257
 75
     1
175
     1
 42
1.0
 92
       12
 66
     7
 43
1.0
 76
     1
 77
     6
 78
     2
 67
     7
 79
     5
170
     0
171
     0
290
     0
174
     0
 93
        1
 44
0.0
173
     0
291
     1
 45
0.0
  0
VISUALSTYLE
  5
10DE
102
{ACAD_REACTORS
330
267
102
}
330
267
100
AcDbVisualStyle
  2
Wireframe
 70
     5
 71
     0
 72
     2
 73
     0
 90
        0
 40
0.6
 41
30.0
 62
     5
 63
     7
421
 16777215
 74
     1
 91
        4
 64
     7
 65
   257
 75
     1
175
     1
 42
1.0
 92
        0
 66
   257
 43
1.0
 76
     1
 77
     6
 78
     2
 67
     7
 79
     3
170
     0
171
     0
290
     0
174
     0
 93
        1
 44
0.0
173
     0
291
     0
 45
0.0
  0
VISUALSTYLE
  5
10E5
102
{ACAD_REACTORS
330
267
102
}
330
267
100
AcDbVisualStyle
  2
X-Ray
 70
    25
 71
     2
 72
     2
 73
     1
 90
        1
 40
0.5
 41
30.0
 62
     5
 63
     7
421
 16777215
 74
     1
 91
        0
 64
     7
 65
   257
 75
     1
175
     1
 42
1.0
 92
        8
 66
     7
 43
1.0
 76
     1
 77
     6
 78
     2
 67
     7
 79
     3
170
     0
171
     0
290
     0
174
     0
 93
       13
 44
0.0
173
     0
291
     0
 45
0.0
  0
DICTIONARYVAR
  5
331
102
{ACAD_REACTORS
330
330
102
}
330
330
100
DictionaryVariables
280
     0
  1
1:1
  0
DICTIONARYVAR
  5
4B3B
102
{ACAD_REACTORS
330
330
102
}
330
330
100
DictionaryVariables
280
     0
  1
Standard
  0
DICTIONARYVAR
  5
335
102
{ACAD_REACTORS
330
330
102
}
330
330
100
DictionaryVariables
280
     0
  1
Standard
  0
DICTIONARYVAR
  5
4569
102
{ACAD_REACTORS
330
330
102
}
330
330
100
DictionaryVariables
280
     0
  1
ByLayer
  0
DICTIONARYVAR
  5
109E
102
{ACAD_REACTORS
330
330
102
}
330
330
100
DictionaryVariables
280
     0
  1
0
  0
DICTIONARY
  5
6AE9
330
279
100
AcDbDictionary
280
     1
281
     1
  3
ACAD_ROUNDTRIP_2008_TABLESTYLE_CELLSTYLEMAP
360
6AEA
  0
CELLSTYLEMAP
  5
6AEA
102
{ACAD_REACTORS
330
6AE9
102
}
330
6AE9
100
AcDbCellStyleMap
 90
        3
300
CELLSTYLE
  1
TABLEFORMAT_BEGIN
 90
        5
170
     1
 91
        0
 92
    32768
 62
   257
 93
        1
300
CONTENTFORMAT
  1
CONTENTFORMAT_BEGIN
 90
        0
 91
        0
 92
        4
 93
        0
300

 40
0.0
140
1.0
 94
        5
 62
     0
340
17
144
6.0
309
CONTENTFORMAT_END
171
     1
301
MARGIN
  1
CELLMARGIN_BEGIN
 40
0.06
 40
0.06
 40
0.06
 40
0.06
 40
0.18
 40
0.18
309
CELLMARGIN_END
 94
        6
 95
        1
302
GRIDFORMAT
  1
GRIDFORMAT_BEGIN
 90
        0
 91
        1
 62
     0
 92
       -2
340
0
 93
        0
 40
0.045
309
GRIDFORMAT_END
 95
        2
302
GRIDFORMAT
  1
GRIDFORMAT_BEGIN
 90
        0
 91
        1
 62
     0
 92
       -2
340
0
 93
        0
 40
0.045
309
GRIDFORMAT_END
 95
        4
302
GRIDFORMAT
  1
GRIDFORMAT_BEGIN
 90
        0
 91
        1
 62
     0
 92
       -2
340
0
 93
        0
 40
0.045
309
GRIDFORMAT_END
 95
        8
302
GRIDFORMAT
  1
GRIDFORMAT_BEGIN
 90
        0
 91
        1
 62
     0
 92
       -2
340
0
 93
        0
 40
0.045
309
GRIDFORMAT_END
 95
       16
302
GRIDFORMAT
  1
GRIDFORMAT_BEGIN
 90
        0
 91
        1
 62
     0
 92
       -2
340
0
 93
        0
 40
0.045
309
GRIDFORMAT_END
 95
       32
302
GRIDFORMAT
  1
GRIDFORMAT_BEGIN
 90
        0
 91
        1
 62
     0
 92
       -2
340
0
 93
        0
 40
0.045
309
GRIDFORMAT_END
309
TABLEFORMAT_END
  1
CELLSTYLE_BEGIN
 90
        1
 91
        1
300
_TITLE
309
CELLSTYLE_END
300
CELLSTYLE
  1
TABLEFORMAT_BEGIN
 90
        5
170
     1
 91
        0
 92
        0
 62
   257
 93
        1
300
CONTENTFORMAT
  1
CONTENTFORMAT_BEGIN
 90
        0
 91
        0
 92
        4
 93
        0
300

 40
0.0
140
1.0
 94
        5
 62
     0
340
17
144
4.5
309
CONTENTFORMAT_END
171
     1
301
MARGIN
  1
CELLMARGIN_BEGIN
 40
0.06
 40
0.06
 40
0.06
 40
0.06
 40
0.18
 40
0.18
309
CELLMARGIN_END
 94
        6
 95
        1
302
GRIDFORMAT
  1
GRIDFORMAT_BEGIN
 90
        0
 91
        1
 62
     0
 92
       -2
340
0
 93
        0
 40
0.045
309
GRIDFORMAT_END
 95
        2
302
GRIDFORMAT
  1
GRIDFORMAT_BEGIN
 90
        0
 91
        1
 62
     0
 92
       -2
340
0
 93
        0
 40
0.045
309
GRIDFORMAT_END
 95
        4
302
GRIDFORMAT
  1
GRIDFORMAT_BEGIN
 90
        0
 91
        1
 62
     0
 92
       -2
340
0
 93
        0
 40
0.045
309
GRIDFORMAT_END
 95
        8
302
GRIDFORMAT
  1
GRIDFORMAT_BEGIN
 90
        0
 91
        1
 62
     0
 92
       -2
340
0
 93
        0
 40
0.045
309
GRIDFORMAT_END
 95
       16
302
GRIDFORMAT
  1
GRIDFORMAT_BEGIN
 90
        0
 91
        1
 62
     0
 92
       -2
340
0
 93
        0
 40
0.045
309
GRIDFORMAT_END
 95
       32
302
GRIDFORMAT
  1
GRIDFORMAT_BEGIN
 90
        0
 91
        1
 62
     0
 92
       -2
340
0
 93
        0
 40
0.045
309
GRIDFORMAT_END
309
TABLEFORMAT_END
  1
CELLSTYLE_BEGIN
 90
        2
 91
        1
300
_HEADER
309
CELLSTYLE_END
300
CELLSTYLE
  1
TABLEFORMAT_BEGIN
 90
        5
170
     1
 91
        0
 92
        0
 62
   257
 93
        1
300
CONTENTFORMAT
  1
CONTENTFORMAT_BEGIN
 90
        0
 91
        0
 92
        4
 93
        0
300

 40
0.0
140
1.0
 94
        2
 62
     0
340
17
144
4.5
309
CONTENTFORMAT_END
171
     1
301
MARGIN
  1
CELLMARGIN_BEGIN
 40
0.06
 40
0.06
 40
0.06
 40
0.06
 40
0.18
 40
0.18
309
CELLMARGIN_END
 94
        6
 95
        1
302
GRIDFORMAT
  1
GRIDFORMAT_BEGIN
 90
        0
 91
        1
 62
     0
 92
       -2
340
0
 93
        0
 40
0.045
309
GRIDFORMAT_END
 95
        2
302
GRIDFORMAT
  1
GRIDFORMAT_BEGIN
 90
        0
 91
        1
 62
     0
 92
       -2
340
0
 93
        0
 40
0.045
309
GRIDFORMAT_END
 95
        4
302
GRIDFORMAT
  1
GRIDFORMAT_BEGIN
 90
        0
 91
        1
 62
     0
 92
       -2
340
0
 93
        0
 40
0.045
309
GRIDFORMAT_END
 95
        8
302
GRIDFORMAT
  1
GRIDFORMAT_BEGIN
 90
        0
 91
        1
 62
     0
 92
       -2
340
0
 93
        0
 40
0.045
309
GRIDFORMAT_END
 95
       16
302
GRIDFORMAT
  1
GRIDFORMAT_BEGIN
 90
        0
 91
        1
 62
     0
 92
       -2
340
0
 93
        0
 40
0.045
309
GRIDFORMAT_END
 95
       32
302
GRIDFORMAT
  1
GRIDFORMAT_BEGIN
 90
        0
 91
        1
 62
     0
 92
       -2
340
0
 93
        0
 40
0.045
309
GRIDFORMAT_END
309
TABLEFORMAT_END
  1
CELLSTYLE_BEGIN
 90
        3
 91
        2
300
_DATA
309
CELLSTYLE_END
  0
ENDSEC
  0
EOF
