  0
SECTION
  2
HEADER
  9
$ACADVER
  1
AC1021
  9
$ACADMAINTVER
 70
    25
  9
$DWGCODEPAGE
  3
ANSI_932
  9
$LASTSAVEDBY
  1
tform
  9
$INSBASE
 10
0.0
 20
0.0
 30
0.0
  9
$EXTMIN
 10
0.0
 20
0.0
 30
0.0
  9
$EXTMAX
 10
593.9999999999999
 20
420.0
 30
0.0
  9
$LIMMIN
 10
0.0
 20
0.0
  9
$LIMMAX
 10
593.9999999999999
 20
420.0
  9
$ORTHOMODE
 70
     1
  9
$REGENMODE
 70
     1
  9
$FILLMODE
 70
     1
  9
$QTEXTMODE
 70
     0
  9
$MIRRTEXT
 70
     1
  9
$LTSCALE
 40
0.5
  9
$ATTMODE
 70
     1
  9
$TEXTSIZE
 40
2.5
  9
$TRACEWID
 40
1.0
  9
$TEXTSTYLE
  7
ＭＳ ゴシック
  9
$CLAYER
  8
モデル
  9
$CELTYPE
  6
ByLayer
  9
$CECOLOR
 62
   256
  9
$CELTSCALE
 40
1.0
  9
$DISPSILH
 70
     0
  9
$DIMSCALE
 40
1.0
  9
$DIMASZ
 40
1.0
  9
$DIMEXO
 40
5.0
  9
$DIMDLI
 40
0.9999999999999999
  9
$DIMRND
 40
0.0
  9
$DIMDLE
 40
0.0
  9
$DIMEXE
 40
0.0
  9
$DIMTP
 40
0.0
  9
$DIMTM
 40
0.0
  9
$DIMTXT
 40
5.0
  9
$DIMCEN
 40
0.0
  9
$DIMTSZ
 40
0.0
  9
$DIMTOL
 70
     0
  9
$DIMLIM
 70
     0
  9
$DIMTIH
 70
     0
  9
$DIMTOH
 70
     0
  9
$DIMSE1
 70
     0
  9
$DIMSE2
 70
     0
  9
$DIMTAD
 70
     1
  9
$DIMZIN
 70
    11
  9
$DIMBLK
  1
DOT
  9
$DIMASO
 70
     1
  9
$DIMSHO
 70
     1
  9
$DIMPOST
  1
<>
  9
$DIMAPOST
  1
[]
  9
$DIMALT
 70
     0
  9
$DIMALTD
 70
     1
  9
$DIMALTF
 40
1.0
  9
$DIMLFAC
 40
1.0
  9
$DIMTOFL
 70
     0
  9
$DIMTVP
 40
0.0
  9
$DIMTIX
 70
     1
  9
$DIMSOXD
 70
     0
  9
$DIMSAH
 70
     0
  9
$DIMBLK1
  1

  9
$DIMBLK2
  1

  9
$DIMSTYLE
  2
tfrom線あり
  9
$DIMCLRD
 70
     0
  9
$DIMCLRE
 70
     0
  9
$DIMCLRT
 70
     0
  9
$DIMTFAC
 40
1.0
  9
$DIMGAP
 40
1.0
  9
$DIMJUST
 70
     0
  9
$DIMSD1
 70
     0
  9
$DIMSD2
 70
     0
  9
$DIMTOLJ
 70
     1
  9
$DIMTZIN
 70
    11
  9
$DIMALTZ
 70
    11
  9
$DIMALTTZ
 70
    11
  9
$DIMUPT
 70
     0
  9
$DIMDEC
 70
     0
  9
$DIMTDEC
 70
     1
  9
$DIMALTU
 70
     2
  9
$DIMALTTD
 70
     2
  9
$DIMTXSTY
  7
ＭＳ ゴシック
  9
$DIMAUNIT
 70
     0
  9
$DIMADEC
 70
     2
  9
$DIMALTRND
 40
0.0
  9
$DIMAZIN
 70
     0
  9
$DIMDSEP
 70
    46
  9
$DIMATFIT
 70
     0
  9
$DIMFRAC
 70
     2
  9
$DIMLDRBLK
  1
DOT
  9
$DIMLUNIT
 70
     2
  9
$DIMLWD
 70
    -2
  9
$DIMLWE
 70
    -2
  9
$DIMTMOVE
 70
     0
  9
$DIMFXL
 40
1.0
  9
$DIMFXLON
 70
     0
  9
$DIMJOGANG
 40
0.7853981633974483
  9
$DIMTFILL
 70
     0
  9
$DIMTFILLCLR
 70
     0
  9
$DIMARCSYM
 70
     0
  9
$DIMLTYPE
  6

  9
$DIMLTEX1
  6

  9
$DIMLTEX2
  6

  9
$LUNITS
 70
     2
  9
$LUPREC
 70
     0
  9
$SKETCHINC
 40
0.1
  9
$FILLETRAD
 40
0.0
  9
$AUNITS
 70
     0
  9
$AUPREC
 70
     0
  9
$MENU
  1
acad
  9
$ELEVATION
 40
0.0
  9
$PELEVATION
 40
0.0
  9
$THICKNESS
 40
0.0
  9
$LIMCHECK
 70
     0
  9
$CHAMFERA
 40
0.0
  9
$CHAMFERB
 40
0.0
  9
$CHAMFERC
 40
0.0
  9
$CHAMFERD
 40
0.0
  9
$SKPOLY
 70
     0
  9
$TDCREATE
 40
2447893.375
  9
$TDUCREATE
 40
0.0
  9
$TDUPDATE
 40
2459726.681462234
  9
$TDUUPDATE
 40
2459726.306462234
  9
$TDINDWG
 40
0.0004627778
  9
$TDUSRTIMER
 40
0.0000162731
  9
$USRTIMER
 70
     1
  9
$ANGBASE
 50
0.0
  9
$ANGDIR
 70
     0
  9
$PDMODE
 70
     1
  9
$PDSIZE
 40
-2.0
  9
$PLINEWID
 40
0.0
  9
$SPLFRAME
 70
     0
  9
$SPLINETYPE
 70
     6
  9
$SPLINESEGS
 70
     8
  9
$HANDSEED
  5
6D24
  9
$SURFTAB1
 70
     6
  9
$SURFTAB2
 70
     6
  9
$SURFTYPE
 70
     6
  9
$SURFU
 70
     6
  9
$SURFV
 70
     6
  9
$UCSBASE
  2

  9
$UCSNAME
  2

  9
$UCSORG
 10
0.0
 20
0.0
 30
0.0
  9
$UCSXDIR
 10
1.0
 20
0.0
 30
0.0
  9
$UCSYDIR
 10
0.0
 20
1.0
 30
0.0
  9
$UCSORTHOREF
  2

  9
$UCSORTHOVIEW
 70
     0
  9
$UCSORGTOP
 10
0.0
 20
0.0
 30
0.0
  9
$UCSORGBOTTOM
 10
0.0
 20
0.0
 30
0.0
  9
$UCSORGLEFT
 10
0.0
 20
0.0
 30
0.0
  9
$UCSORGRIGHT
 10
0.0
 20
0.0
 30
0.0
  9
$UCSORGFRONT
 10
0.0
 20
0.0
 30
0.0
  9
$UCSORGBACK
 10
0.0
 20
0.0
 30
0.0
  9
$PUCSBASE
  2

  9
$PUCSNAME
  2

  9
$PUCSORG
 10
0.0
 20
0.0
 30
0.0
  9
$PUCSXDIR
 10
1.0
 20
0.0
 30
0.0
  9
$PUCSYDIR
 10
0.0
 20
1.0
 30
0.0
  9
$PUCSORTHOREF
  2

  9
$PUCSORTHOVIEW
 70
     0
  9
$PUCSORGTOP
 10
0.0
 20
0.0
 30
0.0
  9
$PUCSORGBOTTOM
 10
0.0
 20
0.0
 30
0.0
  9
$PUCSORGLEFT
 10
0.0
 20
0.0
 30
0.0
  9
$PUCSORGRIGHT
 10
0.0
 20
0.0
 30
0.0
  9
$PUCSORGFRONT
 10
0.0
 20
0.0
 30
0.0
  9
$PUCSORGBACK
 10
0.0
 20
0.0
 30
0.0
  9
$USERI1
 70
     0
  9
$USERI2
 70
     0
  9
$USERI3
 70
     0
  9
$USERI4
 70
     0
  9
$USERI5
 70
     0
  9
$USERR1
 40
0.0
  9
$USERR2
 40
0.0
  9
$USERR3
 40
0.0
  9
$USERR4
 40
0.0
  9
$USERR5
 40
0.0
  9
$WORLDVIEW
 70
     1
  9
$SHADEDGE
 70
     3
  9
$SHADEDIF
 70
    70
  9
$TILEMODE
 70
     1
  9
$MAXACTVP
 70
    64
  9
$PINSBASE
 10
0.0
 20
0.0
 30
0.0
  9
$PLIMCHECK
 70
     0
  9
$PEXTMIN
 10
0.0
 20
0.0
 30
0.0
  9
$PEXTMAX
 10
0.0
 20
0.0
 30
0.0
  9
$PLIMMIN
 10
-7.5
 20
-20.0
  9
$PLIMMAX
 10
412.5
 20
277.0
  9
$UNITMODE
 70
     0
  9
$VISRETAIN
 70
     0
  9
$PLINEGEN
 70
     1
  9
$PSLTSCALE
 70
     0
  9
$TREEDEPTH
 70
  3020
  9
$CMLSTYLE
  2
Standard
  9
$CMLJUST
 70
     0
  9
$CMLSCALE
 40
1.0
  9
$PROXYGRAPHICS
 70
     0
  9
$MEASUREMENT
 70
     1
  9
$CELWEIGHT
370
    -1
  9
$ENDCAPS
280
     0
  9
$JOINSTYLE
280
     0
  9
$LWDISPLAY
290
     1
  9
$INSUNITS
 70
     4
  9
$HYPERLINKBASE
  1

  9
$STYLESHEET
  1

  9
$XEDIT
290
     1
  9
$CEPSNTYPE
380
     0
  9
$PSTYLEMODE
290
     1
  9
$FINGERPRINTGUID
  2

  9
$VERSIONGUID
  2

  9
$EXTNAMES
290
     1
  9
$PSVPSCALE
 40
0.0
  9
$OLESTARTUP
290
     0
  9
$SORTENTS
280
   127
  9
$INDEXCTL
280
     0
  9
$HIDETEXT
280
     1
  9
$XCLIPFRAME
290
     0
  9
$HALOGAP
280
     0
  9
$OBSCOLOR
 70
   257
  9
$OBSLTYPE
280
     0
  9
$INTERSECTIONDISPLAY
280
     0
  9
$INTERSECTIONCOLOR
 70
   257
  9
$DIMASSOC
280
     2
  9
$PROJECTNAME
  1

  9
$CAMERADISPLAY
290
     0
  9
$LENSLENGTH
 40
50.0
  9
$CAMERAHEIGHT
 40
0.0
  9
$STEPSPERSEC
 40
2.0
  9
$STEPSIZE
 40
6.0
  9
$3DDWFPREC
 40
2.0
  9
$PSOLWIDTH
 40
0.25
  9
$PSOLHEIGHT
 40
4.0
  9
$LOFTANG1
 40
1.570796326794897
  9
$LOFTANG2
 40
1.570796326794897
  9
$LOFTMAG1
 40
0.0
  9
$LOFTMAG2
 40
0.0
  9
$LOFTPARAM
 70
     7
  9
$LOFTNORMALS
280
     1
  9
$LATITUDE
 40
37.795
  9
$LONGITUDE
 40
-122.394
  9
$NORTHDIRECTION
 40
0.0
  9
$TIMEZONE
 70
 -8000
  9
$LIGHTGLYPHDISPLAY
280
     1
  9
$TILEMODELIGHTSYNCH
280
     1
  9
$SOLIDHIST
280
     1
  9
$SHOWHIST
280
     1
  9
$DWFFRAME
280
     2
  9
$DGNFRAME
280
     2
  9
$REALWORLDSCALE
290
     1
  9
$INTERFERECOLOR
 62
   256
  9
$CSHADOW
280
     0
  9
$SHADOWPLANELOCATION
 40
0.0
  0
ENDSEC
  0
SECTION
  2
CLASSES
  0
CLASS
  1
LWPOLYLINE
  2
AcDbPolyline
  3
ObjectDBX Classes
 90
        0
 91
        1
280
     0
281
     1
  0
CLASS
  1
IMAGE
  2
AcDbRasterImage
  3
ISM
 90
      127
 91
        4
280
     0
281
     1
  0
CLASS
  1
OLE2FRAME
  2
AcDbOle2Frame
  3
ObjectDBX Classes
 90
        0
 91
        1
280
     0
281
     1
  0
CLASS
  1
HATCH
  2
AcDbHatch
  3
ObjectDBX Classes
 90
        0
 91
        1
280
     0
281
     1
  0
CLASS
  1
DICTIONARYVAR
  2
AcDbDictionaryVar
  3
ObjectDBX Classes
 90
        0
 91
        3
280
     0
281
     0
  0
CLASS
  1
RASTERVARIABLES
  2
AcDbRasterVariables
  3
ISM
 90
        0
 91
        3
280
     0
281
     0
  0
CLASS
  1
IMAGEDEF
  2
AcDbRasterImageDef
  3
ISM
 90
        0
 91
        3
280
     0
281
     0
  0
CLASS
  1
IMAGEDEF_REACTOR
  2
AcDbRasterImageDefReactor
  3
ISM
 90
        1
 91
        3
280
     0
281
     0
  0
CLASS
  1
IDBUFFER
  2
AcDbIdBuffer
  3
ObjectDBX Classes
 90
        0
 91
        3
280
     0
281
     0
  0
CLASS
  1
SPATIAL_FILTER
  2
AcDbSpatialFilter
  3
ObjectDBX Classes
 90
        0
 91
        3
280
     0
281
     0
  0
CLASS
  1
XRECORD
  2
AcDbXrecord
  3
ObjectDBX Classes
 90
        0
 91
        1
280
     0
281
     0
  0
CLASS
  1
SORTENTSTABLE
  2
AcDbSortentsTable
  3
ObjectDBX Classes
 90
        0
 91
        3
280
     0
281
     0
  0
CLASS
  1
LAYER_INDEX
  2
AcDbLayerIndex
  3
ObjectDBX Classes
 90
        0
 91
        3
280
     0
281
     0
  0
CLASS
  1
SPATIAL_INDEX
  2
AcDbSpatialIndex
  3
AutoCAD 2000
 90
        0
 91
        3
280
     0
281
     0
  0
CLASS
  1
OBJECT_PTR
  2
CAseDLPNTableRecord
  3
ASE-LPNTableRecord
 90
        1
 91
        3
280
     0
281
     0
  0
CLASS
  1
LAYOUT
  2
AcDbLayout
  3
ObjectDBX Classes
 90
        0
 91
        1
280
     0
281
     0
  0
CLASS
  1
PLOTSETTINGS
  2
AcDbPlotSettings
  3
ObjectDBX Classes
 90
        0
 91
        3
280
     0
281
     0
  0
CLASS
  1
ACDBDICTIONARYWDFLT
  2
AcDbDictionaryWithDefault
  3
ObjectDBX Classes
 90
        0
 91
        3
280
     0
281
     0
  0
CLASS
  1
ACDBPLACEHOLDER
  2
AcDbPlaceHolder
  3
ObjectDBX Classes
 90
        0
 91
        1
280
     0
281
     0
  0
CLASS
  1
SCALE
  2
AcDbScale
  3
ObjectDBX Classes
 90
     1153
 91
        3
280
     0
281
     0
  0
CLASS
  1
MATERIAL
  2
AcDbMaterial
  3
ObjectDBX Classes
 90
     1153
 91
        3
280
     0
281
     0
  0
CLASS
  1
VISUALSTYLE
  2
AcDbVisualStyle
  3
ObjectDBX Classes
 90
     4095
 91
        3
280
     0
281
     0
  0
CLASS
  1
TABLESTYLE
  2
AcDbTableStyle
  3
ObjectDBX Classes
 90
     4095
 91
        3
280
     0
281
     0
  0
CLASS
  1
DIMASSOC
  2
AcDbDimAssoc
  3
"AcDbDimAssoc|Product Desc:     AcDim ARX App For Dimension|Company:          Autodesk, Inc.|WEB Address:      www.autodesk.com"
 90
        0
 91
        3
280
     0
281
     0
  0
CLASS
  1
CELLSTYLEMAP
  2
AcDbCellStyleMap
  3
ObjectDBX Classes
 90
     1152
 91
        3
280
     0
281
     0
  0
CLASS
  1
SUN
  2
AcDbSun
  3
SCENEOE
 90
     1153
 91
        3
280
     0
281
     0
  0
CLASS
  1
MLEADERSTYLE
  2
AcDbMLeaderStyle
  3
ACDB_MLEADERSTYLE_CLASS
 90
     4095
 91
        3
280
     0
281
     0
  0
ENDSEC
  0
SECTION
  2
TABLES
  0
TABLE
  2
VPORT
  5
7
330
0
100
AcDbSymbolTable
 70
     1
  0
VPORT
  5
15
330
7
100
AcDbSymbolTableRecord
100
AcDbViewportTableRecord
  2
*ACTIVE
 70
     0
 10
0.0
 20
0.0
 11
1.0
 21
1.0
 12
296.9999999999999
 22
210.0
 13
0.0
 23
0.0
 14
1.0
 24
1.0
 15
0.0
 25
0.0
 16
0.0
 26
0.0
 36
1.0
 17
0.0
 27
0.0
 37
0.0
 40
428.4
 41
2.338709677419355
 42
50.0
 43
0.0
 44
0.0
 50
0.0
 51
0.0
 71
    16
 72
  2000
 73
     1
 74
     1
 75
     0
 76
     0
 77
     0
 78
     1
281
     0
 65
     1
110
0.0
120
0.0
130
0.0
111
1.0
121
0.0
131
0.0
112
0.0
122
1.0
132
0.0
 79
     0
146
0.0
348
26C
 60
     3
 61
     5
292
     1
282
     1
141
0.0
142
0.0
 63
   256
361
10E8
  0
ENDTAB
  0
TABLE
  2
LTYPE
  5
4
330
0
100
AcDbSymbolTable
 70
     2
  0
LTYPE
  5
11
330
4
100
AcDbSymbolTableRecord
100
AcDbLinetypeTableRecord
  2
ByBlock
 70
     0
  3

 72
    65
 73
     0
 40
0.0
  0
LTYPE
  5
12
330
4
100
AcDbSymbolTableRecord
100
AcDbLinetypeTableRecord
  2
ByLayer
 70
     0
  3
Solid line
 72
    65
 73
     0
 40
0.0
  0
LTYPE
  5
13
330
4
100
AcDbSymbolTableRecord
100
AcDbLinetypeTableRecord
  2
Continuous
 70
     0
  3
Solid line
 72
    65
 73
     0
 40
0.0
  0
LTYPE
  5
12C7
330
4
100
AcDbSymbolTableRecord
100
AcDbLinetypeTableRecord
  2
HIDDEN
 70
     0
  3
Hidden _ _ _ _ _ _ _ _ _ _ _ _ _ _ _ _ _ _ _ _ 
 72
    65
 73
     2
 40
9.524999999999999
 49
6.35
 74
     0
 49
-3.175
 74
     0
  0
ENDTAB
  0
TABLE
  2
LAYER
  5
2
102
{ACAD_XDICTIONARY
360
2E1
102
}
330
0
100
AcDbSymbolTable
 70
     7
  0
LAYER
  5
14
330
2
100
AcDbSymbolTableRecord
100
AcDbLayerTableRecord
  2
0
 70
     0
 62
     7
  6
Continuous
370
    -3
390
1D
347
266
  0
LAYER
  5
4A
330
2
100
AcDbSymbolTableRecord
100
AcDbLayerTableRecord
  2
Defpoints
 70
     0
 62
     7
  6
Continuous
290
     0
370
    -3
390
1D
347
266
  0
LAYER
  5
12CE
330
2
100
AcDbSymbolTableRecord
100
AcDbLayerTableRecord
  2
寸法
 70
     0
 62
     3
  6
Continuous
370
    13
390
1D
347
266
1001
AcAecLayerStandard
1000

1000

  0
LAYER
  5
12CF
330
2
100
AcDbSymbolTableRecord
100
AcDbLayerTableRecord
  2
モデル
 70
     0
 62
     7
  6
Continuous
370
    20
390
1D
347
266
1001
AcAecLayerStandard
1000

1000

  0
LAYER
  5
142A
330
2
100
AcDbSymbolTableRecord
100
AcDbLayerTableRecord
  2
テンプレート
 70
     0
 62
     7
  6
Continuous
370
    20
390
1D
347
266
1001
AcAecLayerStandard
1000

1000

  0
LAYER
  5
1D5C
330
2
100
AcDbSymbolTableRecord
100
AcDbLayerTableRecord
  2
TFORMLOGO
 70
     0
 62
     7
  6
Continuous
370
    20
390
1D
347
266
  0
LAYER
  5
3848
330
2
100
AcDbSymbolTableRecord
100
AcDbLayerTableRecord
  2
PRINT BORDER
 70
     0
 62
     4
  6
Continuous
290
     0
370
    -3
390
1D
347
266
1001
AcAecLayerStandard
1000

1000

  0
ENDTAB
  0
TABLE
  2
STYLE
  5
3
330
0
100
AcDbSymbolTable
 70
     2
  0
STYLE
  5
17
330
3
100
AcDbSymbolTableRecord
100
AcDbTextStyleTableRecord
  2
Standard
 70
     0
 40
0.0
 41
1.0
 50
0.0
 71
     0
 42
2.5
  3
txt
  4
BIGFONT.SHX
  0
STYLE
  5
39
330
3
100
AcDbSymbolTableRecord
100
AcDbTextStyleTableRecord
  2
ＭＳ ゴシック
 70
     0
 40
0.0
 41
1.0
 50
0.0
 71
     0
 42
2.5
  3
msgothic.ttc
  4
ＭＳ ゴシック
1001
ACAD
1000
ＭＳ ゴシック
1071
        0
  0
ENDTAB
  0
TABLE
  2
VIEW
  5
5
330
0
100
AcDbSymbolTable
 70
     0
  0
ENDTAB
  0
TABLE
  2
UCS
  5
6
330
0
100
AcDbSymbolTable
 70
     0
  0
ENDTAB
  0
TABLE
  2
APPID
  5
8
330
0
100
AcDbSymbolTable
 70
     9
  0
APPID
  5
16
330
8
100
AcDbSymbolTableRecord
100
AcDbRegAppTableRecord
  2
ACAD
 70
     0
  0
APPID
  5
7AC
330
8
100
AcDbSymbolTableRecord
100
AcDbRegAppTableRecord
  2
AcAecLayerStandard
 70
     0
  0
APPID
  5
4890
330
8
100
AcDbSymbolTableRecord
100
AcDbRegAppTableRecord
  2
ACAD_DSTYLE_DIMJAG
 70
     0
  0
APPID
  5
4891
330
8
100
AcDbSymbolTableRecord
100
AcDbRegAppTableRecord
  2
ACAD_DSTYLE_DIMTALN
 70
     0
  0
APPID
  5
4892
330
8
100
AcDbSymbolTableRecord
100
AcDbRegAppTableRecord
  2
ACAD_NAV_VCDISPLAY
 70
     0
  0
APPID
  5
4893
330
8
100
AcDbSymbolTableRecord
100
AcDbRegAppTableRecord
  2
ACAD_PSEXT
 70
     0
  0
APPID
  5
4B40
330
8
100
AcDbSymbolTableRecord
100
AcDbRegAppTableRecord
  2
ACAD_MLEADERVER
 70
     0
  0
APPID
  5
5902
330
8
100
AcDbSymbolTableRecord
100
AcDbRegAppTableRecord
  2
HATCHBACKGROUNDCOLOR
 70
     0
  0
APPID
  5
5B26
330
8
100
AcDbSymbolTableRecord
100
AcDbRegAppTableRecord
  2
PLOTTRANSPARENCY
 70
     0
  0
ENDTAB
  0
TABLE
  2
DIMSTYLE
  5
9
330
0
100
AcDbSymbolTable
 70
     4
100
AcDbDimStyleTable
  0
DIMSTYLE
105
57
102
{ACAD_REACTORS
330
6078
330
66EF
330
66FE
330
670D
330
671C
330
672B
330
673A
330
674C
330
675B
330
6B34
330
6BA2
330
6BB1
330
6D0F
102
}
330
9
100
AcDbSymbolTableRecord
100
AcDbDimStyleTableRecord
  2
tfrom線あり
 70
     0
  3
<>
  4
[]
 41
1.0
 42
5.0
 43
0.9999999999999999
 44
0.0
 73
     0
 74
     0
 77
     1
 78
    11
140
5.0
141
0.0
143
1.0
147
1.0
171
     1
174
     1
178
     0
179
     2
271
     0
272
     1
276
     2
284
    11
285
    11
286
    11
289
     0
340
39
341
4E
342
4E
  0
DIMSTYLE
105
6774
330
9
100
AcDbSymbolTableRecord
100
AcDbDimStyleTableRecord
  2
ISO-25
 70
     0
 41
2.5
 42
0.625
 43
3.75
 44
1.25
 73
     0
 74
     0
 77
     1
 78
     8
140
2.5
141
2.5
143
0.0393700787
147
0.625
171
     3
172
     1
178
     0
271
     2
272
     2
274
     3
278
    44
283
     0
284
     8
340
17
  0
DIMSTYLE
105
6AE8
330
9
100
AcDbSymbolTableRecord
100
AcDbDimStyleTableRecord
  2
Standard
 70
     0
178
     0
340
17
  0
DIMSTYLE
105
6AF4
330
9
100
AcDbSymbolTableRecord
100
AcDbDimStyleTableRecord
  2
AM_JIS
 70
     0
  4
"
 41
1.0
 42
0.5
 43
7.0
 44
1.0
 47
0.1
 48
0.1
 73
     0
 74
     0
 77
     3
 78
     8
 79
     2
140
2.5
141
0.0
143
0.0393701
146
0.71
147
0.5
172
     1
176
   256
177
   256
178
     2
179
     4
283
     0
284
     8
340
17
341
6AF5
342
6AF5
371
    -1
372
    -1
1001
ACAD_DSTYLE_DIMJAG
1070
   388
1040
1.5
1001
ACAD_DSTYLE_DIMTALN
1070
   392
1070
     0
  0
ENDTAB
  0
TABLE
  2
BLOCK_RECORD
  5
1
330
0
100
AcDbSymbolTable
 70
    25
  0
BLOCK_RECORD
  5
A
102
{ACAD_XDICTIONARY
360
495A
102
}
330
1
100
AcDbSymbolTableRecord
100
AcDbBlockTableRecord
  2
*MODEL_SPACE
340
20
 70
     0
280
     1
281
     0
  0
BLOCK_RECORD
  5
B
330
1
100
AcDbSymbolTableRecord
100
AcDbBlockTableRecord
  2
*PAPER_SPACE
340
21
 70
     0
280
     1
281
     0
  0
BLOCK_RECORD
  5
4E
330
1
100
AcDbSymbolTableRecord
100
AcDbBlockTableRecord
  2
_DOT
340
0
102
{BLKREFS
331
60DF
331
60E0
331
60EB
331
60EC
331
66F8
331
66F9
331
6707
331
6708
331
6716
331
6717
331
6725
331
6726
331
6734
331
6735
331
6743
331
6744
331
6755
331
6756
331
6764
331
6765
331
6B3D
331
6B3E
331
6B4E
331
6B4F
331
6BAB
331
6BAC
331
6BBA
331
6BBB
331
6C8D
331
6C8E
331
6CA4
331
6CA5
331
0
331
0
331
6D17
331
6D16
102
}
 70
     0
280
     1
281
     0
  0
BLOCK_RECORD
  5
12C3
330
1
100
AcDbSymbolTableRecord
100
AcDbBlockTableRecord
  2
*Paper_Space1
340
12C4
 70
     0
280
     1
281
     0
  0
BLOCK_RECORD
  5
1D88
330
1
100
AcDbSymbolTableRecord
100
AcDbBlockTableRecord
  2
名称未設定-1
340
0
102
{BLKREFS
331
52E6
102
}
 70
     1
280
     1
281
     0
  0
BLOCK_RECORD
  5
1D8B
330
1
100
AcDbSymbolTableRecord
100
AcDbBlockTableRecord
  2
block 2
340
0
102
{BLKREFS
331
1D8A
102
}
 70
     0
280
     1
281
     0
  0
BLOCK_RECORD
  5
1D8E
330
1
100
AcDbSymbolTableRecord
100
AcDbBlockTableRecord
  2
block 3
340
0
102
{BLKREFS
331
1D8D
102
}
 70
     0
280
     1
281
     0
  0
BLOCK_RECORD
  5
1D91
330
1
100
AcDbSymbolTableRecord
100
AcDbBlockTableRecord
  2
block 4
340
0
102
{BLKREFS
331
1D90
102
}
 70
     0
280
     1
281
     0
  0
BLOCK_RECORD
  5
1DA0
330
1
100
AcDbSymbolTableRecord
100
AcDbBlockTableRecord
  2
block 5
340
0
102
{BLKREFS
331
1D9F
102
}
 70
     0
280
     1
281
     0
  0
BLOCK_RECORD
  5
60D9
330
1
100
AcDbSymbolTableRecord
100
AcDbBlockTableRecord
  2
*D7
340
0
 70
     0
280
     1
281
     0
  0
BLOCK_RECORD
  5
60E5
330
1
100
AcDbSymbolTableRecord
100
AcDbBlockTableRecord
  2
*D8
340
0
 70
     0
280
     1
281
     0
  0
BLOCK_RECORD
  5
66F2
330
1
100
AcDbSymbolTableRecord
100
AcDbBlockTableRecord
  2
*D9
340
0
 70
     0
280
     1
281
     0
  0
BLOCK_RECORD
  5
6701
330
1
100
AcDbSymbolTableRecord
100
AcDbBlockTableRecord
  2
*D10
340
0
 70
     0
280
     1
281
     0
  0
BLOCK_RECORD
  5
6710
330
1
100
AcDbSymbolTableRecord
100
AcDbBlockTableRecord
  2
*D11
340
0
 70
     0
280
     1
281
     0
  0
BLOCK_RECORD
  5
671F
330
1
100
AcDbSymbolTableRecord
100
AcDbBlockTableRecord
  2
*D12
340
0
 70
     0
280
     1
281
     0
  0
BLOCK_RECORD
  5
672E
330
1
100
AcDbSymbolTableRecord
100
AcDbBlockTableRecord
  2
*D13
340
0
 70
     0
280
     1
281
     0
  0
BLOCK_RECORD
  5
673D
330
1
100
AcDbSymbolTableRecord
100
AcDbBlockTableRecord
  2
*D14
340
0
 70
     0
280
     1
281
     0
  0
BLOCK_RECORD
  5
674F
330
1
100
AcDbSymbolTableRecord
100
AcDbBlockTableRecord
  2
*D15
340
0
 70
     0
280
     1
281
     0
  0
BLOCK_RECORD
  5
675E
330
1
100
AcDbSymbolTableRecord
100
AcDbBlockTableRecord
  2
*D16
340
0
 70
     0
280
     1
281
     0
  0
BLOCK_RECORD
  5
6AF5
330
1
100
AcDbSymbolTableRecord
100
AcDbBlockTableRecord
  2
_Open30
340
0
 70
     0
280
     1
281
     0
  0
BLOCK_RECORD
  5
6B37
330
1
100
AcDbSymbolTableRecord
100
AcDbBlockTableRecord
  2
*D18
340
0
 70
     0
280
     1
281
     0
  0
BLOCK_RECORD
  5
6B48
330
1
100
AcDbSymbolTableRecord
100
AcDbBlockTableRecord
  2
*D19
340
0
 70
     0
280
     1
281
     0
  0
BLOCK_RECORD
  5
6BA5
330
1
100
AcDbSymbolTableRecord
100
AcDbBlockTableRecord
  2
*D20
340
0
 70
     0
280
     1
281
     0
  0
BLOCK_RECORD
  5
6BB4
330
1
100
AcDbSymbolTableRecord
100
AcDbBlockTableRecord
  2
*D21
340
0
 70
     0
280
     1
281
     0
  0
BLOCK_RECORD
  5
6C88
330
1
100
AcDbSymbolTableRecord
100
AcDbBlockTableRecord
  2
*D22
340
0
 70
     0
280
     1
281
     0
  0
BLOCK_RECORD
  5
6C9E
330
1
100
AcDbSymbolTableRecord
100
AcDbBlockTableRecord
  2
*D23
340
0
 70
     0
280
     1
281
     0
  0
BLOCK_RECORD
  5
6D12
330
1
100
AcDbSymbolTableRecord
100
AcDbBlockTableRecord
  2
*D25
340
0
 70
     0
280
     1
281
     0
  0
ENDTAB
  0
ENDSEC
  0
SECTION
  2
BLOCKS
  0
BLOCK
  5
D
330
A
100
AcDbEntity
  8
0
390
1D
100
AcDbBlockBegin
  2
*MODEL_SPACE
 70
     0
 10
0.0
 20
0.0
 30
0.0
  3
*MODEL_SPACE
  1
*MODEL_SPACE
  0
ENDBLK
  5
E
330
A
100
AcDbEntity
  8
0
390
1D
100
AcDbBlockEnd
  0
BLOCK
  5
F
330
B
100
AcDbEntity
 67
     1
  8
0
390
1D
100
AcDbBlockBegin
  2
*PAPER_SPACE
 70
     0
 10
0.0
 20
0.0
 30
0.0
  3
*PAPER_SPACE
  1
*PAPER_SPACE
  0
ENDBLK
  5
10
330
B
100
AcDbEntity
 67
     1
  8
0
390
1D
100
AcDbBlockEnd
  0
BLOCK
  5
596F
330
4E
100
AcDbEntity
  8
0
390
1D
100
AcDbBlockBegin
  2
_DOT
 70
     0
 10
0.0
 20
0.0
 30
0.0
  3
_DOT
  1
_DOT
  0
POLYLINE
  5
5971
330
4E
100
AcDbEntity
  8
0
  6
ByBlock
 62
     0
370
    -2
390
1D
100
AcDb2dPolyline
 66
     1
 10
0.0
 20
0.0
 30
0.0
 70
     1
 40
0.5
 41
0.5
  0
VERTEX
  5
5972
330
5971
100
AcDbEntity
  8
0
  6
ByBlock
 62
     0
370
    -2
390
1D
100
AcDbVertex
100
AcDb2dVertex
 10
-0.25
 20
0.0
 30
0.0
 42
1.0
  0
VERTEX
  5
5973
330
5971
100
AcDbEntity
  8
0
  6
ByBlock
 62
     0
370
    -2
390
1D
100
AcDbVertex
100
AcDb2dVertex
 10
0.25
 20
0.0
 30
0.0
 42
1.0
  0
SEQEND
  5
5974
330
5971
100
AcDbEntity
  8
0
390
1D
  0
LINE
  5
5975
330
4E
100
AcDbEntity
  8
0
  6
ByBlock
 62
     0
370
    -2
390
1D
100
AcDbLine
 10
-0.5
 20
0.0
 30
0.0
 11
-1.0
 21
0.0
 31
0.0
  0
ENDBLK
  5
5976
330
4E
100
AcDbEntity
  8
0
390
1D
100
AcDbBlockEnd
  0
BLOCK
  5
12C5
330
12C3
100
AcDbEntity
  8
0
100
AcDbBlockBegin
  2
*Paper_Space1
 70
     0
 10
0.0
 20
0.0
 30
0.0
  3
*Paper_Space1
  1
*Paper_Space83
  0
ENDBLK
  5
12C6
330
12C3
100
AcDbEntity
  8
0
100
AcDbBlockEnd
  0
BLOCK
  5
1D89
330
1D88
100
AcDbEntity
  8
0
100
AcDbBlockBegin
  2
名称未設定-1
 70
     0
 10
0.0
 20
0.0
 30
0.0
  3
名称未設定-1
  1
名称未設定-1
  0
INSERT
  5
1D8A
330
1D88
100
AcDbEntity
  8
TFORMLOGO
100
AcDbBlockReference
  2
block 2
 10
0.0
 20
0.0
 30
0.0
  0
ENDBLK
  5
1DAF
330
1D88
100
AcDbEntity
  8
0
100
AcDbBlockEnd
  0
BLOCK
  5
1D8C
330
1D8B
100
AcDbEntity
  8
0
100
AcDbBlockBegin
  2
block 2
 70
     0
 10
0.0
 20
0.0
 30
0.0
  3
block 2
  1
block 2
  0
INSERT
  5
1D8D
330
1D8B
100
AcDbEntity
  8
TFORMLOGO
100
AcDbBlockReference
  2
block 3
 10
0.0
 20
0.0
 30
0.0
  0
ENDBLK
  5
1DAE
330
1D8B
100
AcDbEntity
  8
0
100
AcDbBlockEnd
  0
BLOCK
  5
1D8F
330
1D8E
100
AcDbEntity
  8
0
100
AcDbBlockBegin
  2
block 3
 70
     0
 10
0.0
 20
0.0
 30
0.0
  3
block 3
  1
block 3
  0
INSERT
  5
1D90
330
1D8E
100
AcDbEntity
  8
TFORMLOGO
100
AcDbBlockReference
  2
block 4
 10
0.0
 20
0.0
 30
0.0
  0
ENDBLK
  5
1DAD
330
1D8E
100
AcDbEntity
  8
0
100
AcDbBlockEnd
  0
BLOCK
  5
1D92
330
1D91
100
AcDbEntity
  8
0
100
AcDbBlockBegin
  2
block 4
 70
     0
 10
0.0
 20
0.0
 30
0.0
  3
block 4
  1
block 4
  0
POLYLINE
  5
1D93
330
1D91
100
AcDbEntity
  8
TFORMLOGO
370
     0
100
AcDb2dPolyline
 66
     1
 10
0.0
 20
0.0
 30
0.0
  0
VERTEX
  5
1D94
330
1D93
100
AcDbEntity
  8
TFORMLOGO
370
     0
100
AcDbVertex
100
AcDb2dVertex
 10
83.79545727667795
 20
167.6444858234922
 30
0.0
  0
VERTEX
  5
1D95
330
1D93
100
AcDbEntity
  8
TFORMLOGO
370
     0
100
AcDbVertex
100
AcDb2dVertex
 10
83.79545727667795
 20
159.7968976406313
 30
0.0
  0
VERTEX
  5
1D96
330
1D93
100
AcDbEntity
  8
TFORMLOGO
370
     0
100
AcDbVertex
100
AcDb2dVertex
 10
71.3631329975216
 20
159.7968976406313
 30
0.0
  0
VERTEX
  5
1D97
330
1D93
100
AcDbEntity
  8
TFORMLOGO
370
     0
100
AcDbVertex
100
AcDb2dVertex
 10
71.3631329975216
 20
127.8027915271048
 30
0.0
  0
VERTEX
  5
1D98
330
1D93
100
AcDbEntity
  8
TFORMLOGO
370
     0
100
AcDbVertex
100
AcDb2dVertex
 10
60.43011526263018
 20
127.8027915271048
 30
0.0
  0
VERTEX
  5
1D99
330
1D93
100
AcDbEntity
  8
TFORMLOGO
370
     0
100
AcDbVertex
100
AcDb2dVertex
 10
60.43011526263018
 20
159.7968976406313
 30
0.0
  0
VERTEX
  5
1D9A
330
1D93
100
AcDbEntity
  8
TFORMLOGO
370
     0
100
AcDbVertex
100
AcDb2dVertex
 10
48.21793273020759
 20
159.7968976406313
 30
0.0
  0
VERTEX
  5
1D9B
330
1D93
100
AcDbEntity
  8
TFORMLOGO
370
     0
100
AcDbVertex
100
AcDb2dVertex
 10
48.21793273020759
 20
167.6444858234922
 30
0.0
  0
VERTEX
  5
1D9C
330
1D93
100
AcDbEntity
  8
TFORMLOGO
370
     0
100
AcDbVertex
100
AcDb2dVertex
 10
83.79545727667795
 20
167.6444858234922
 30
0.0
  0
SEQEND
  5
1D9D
330
1D93
100
AcDbEntity
  8
TFORMLOGO
370
     0
  0
HATCH
  5
1D9E
330
1D91
100
AcDbEntity
  8
TFORMLOGO
 62
   250
420
  2234388
100
AcDbHatch
 10
0.0
 20
0.0
 30
0.0
210
0.0
220
0.0
230
1.0
  2
SOLID
 70
     1
 71
     0
 91
        1
 92
        1
 93
        8
 72
     1
 10
83.79545727667795
 20
167.6444858234922
 11
83.79545727667795
 21
159.7968976406313
 72
     1
 10
83.79545727667795
 20
159.7968976406313
 11
71.3631329975216
 21
159.7968976406313
 72
     1
 10
71.3631329975216
 20
159.7968976406313
 11
71.3631329975216
 21
127.8027915271048
 72
     1
 10
71.3631329975216
 20
127.8027915271048
 11
60.43011526263018
 21
127.8027915271048
 72
     1
 10
60.43011526263018
 20
127.8027915271048
 11
60.43011526263018
 21
159.7968976406313
 72
     1
 10
60.43011526263018
 20
159.7968976406313
 11
48.21793273020759
 21
159.7968976406313
 72
     1
 10
48.21793273020759
 20
159.7968976406313
 11
48.21793273020759
 21
167.6444858234922
 72
     1
 10
48.21793273020759
 20
167.6444858234922
 11
83.79545727667795
 21
167.6444858234922
 97
        0
 75
     2
 76
     1
 98
        0
  0
INSERT
  5
1D9F
330
1D91
100
AcDbEntity
  8
TFORMLOGO
100
AcDbBlockReference
  2
block 5
 10
0.0
 20
0.0
 30
0.0
  0
ENDBLK
  5
1DAC
330
1D91
100
AcDbEntity
  8
0
100
AcDbBlockEnd
  0
BLOCK
  5
1DA1
330
1DA0
100
AcDbEntity
  8
0
100
AcDbBlockBegin
  2
block 5
 70
     0
 10
0.0
 20
0.0
 30
0.0
  3
block 5
  1
block 5
  0
SPLINE
  5
1DA2
330
1DA0
100
AcDbEntity
  8
TFORMLOGO
370
     0
100
AcDbSpline
210
0.0
220
0.0
230
1.0
 70
    11
 71
     3
 72
    56
 73
    52
 74
     0
 42
0.000000001
 43
0.0000000001
 40
0.0
 40
0.0
 40
0.0
 40
0.0
 40
1.0
 40
1.0
 40
1.0
 40
2.0
 40
2.0
 40
2.0
 40
3.0
 40
3.0
 40
3.0
 40
4.0
 40
4.0
 40
4.0
 40
5.0
 40
5.0
 40
5.0
 40
6.0
 40
6.0
 40
6.0
 40
7.0
 40
7.0
 40
7.0
 40
8.0
 40
8.0
 40
8.0
 40
9.0
 40
9.0
 40
9.0
 40
10.0
 40
10.0
 40
10.0
 40
11.0
 40
11.0
 40
11.0
 40
12.0
 40
12.0
 40
12.0
 40
13.0
 40
13.0
 40
13.0
 40
14.0
 40
14.0
 40
14.0
 40
15.0
 40
15.0
 40
15.0
 40
16.0
 40
16.0
 40
16.0
 40
17.0
 40
17.0
 40
17.0
 40
17.0
 10
100.4504378777679
 20
166.69157178364
 30
0.0
 10
101.9848844191641
 20
167.1313385124438
 30
0.0
 10
103.9637485713373
 20
166.7649523658846
 30
0.0
 10
103.9637485713373
 20
166.7649523658846
 30
0.0
 10
103.9637485713373
 20
166.7649523658846
 30
0.0
 10
103.0132460999156
 20
163.911205638077
 30
0.0
 10
103.0132460999156
 20
163.911205638077
 30
0.0
 10
103.0132460999156
 20
163.911205638077
 30
0.0
 10
101.0674548862189
 20
164.3601018759394
 30
0.0
 10
99.57090442016032
 20
163.1805004036133
 30
0.0
 10
98.40508333886608
 20
162.258247733807
 30
0.0
 10
97.65301849830304
 20
159.804132345923
 30
0.0
 10
97.3598406791005
 20
158.8699940888517
 30
0.0
 10
97.3598406791005
 20
158.8699940888517
 30
0.0
 10
96.07137411762282
 20
154.9119212747295
 30
0.0
 10
96.07137411762282
 20
154.9119212747295
 30
0.0
 10
96.07137411762282
 20
154.9119212747295
 30
0.0
 10
100.3012651448482
 20
154.9119212747295
 30
0.0
 10
100.3012651448482
 20
154.9119212747295
 30
0.0
 10
100.3012651448482
 20
154.9119212747295
 30
0.0
 10
99.64152892419852
 20
152.4199098115079
 30
0.0
 10
99.64152892419852
 20
152.4199098115079
 30
0.0
 10
99.64152892419852
 20
152.4199098115079
 30
0.0
 10
95.38097652692731
 20
152.4199098115079
 30
0.0
 10
95.38097652692731
 20
152.4199098115079
 30
0.0
 10
95.38097652692731
 20
152.4199098115079
 30
0.0
 10
87.75353009080013
 20
127.8027915271048
 30
0.0
 10
87.75353009080013
 20
127.8027915271048
 30
0.0
 10
87.75353009080013
 20
127.8027915271048
 30
0.0
 10
85.36538832498108
 20
127.8027915271048
 30
0.0
 10
85.36538832498108
 20
127.8027915271048
 30
0.0
 10
85.36538832498108
 20
127.8027915271048
 30
0.0
 10
93.00006946639998
 20
152.4199098115079
 30
0.0
 10
93.00006946639998
 20
152.4199098115079
 30
0.0
 10
93.00006946639998
 20
152.4199098115079
 30
0.0
 10
89.85297266450198
 20
152.4199098115079
 30
0.0
 10
89.85297266450198
 20
152.4199098115079
 30
0.0
 10
89.85297266450198
 20
152.4199098115079
 30
0.0
 10
90.51270888515164
 20
154.9119212747295
 30
0.0
 10
90.51270888515164
 20
154.9119212747295
 30
0.0
 10
90.51270888515164
 20
154.9119212747295
 30
0.0
 10
93.6904670570955
 20
154.9119212747295
 30
0.0
 10
93.6904670570955
 20
154.9119212747295
 30
0.0
 10
93.6904670570955
 20
154.9119212747295
 30
0.0
 10
94.81598049462158
 20
158.3616699146644
 30
0.0
 10
94.81598049462158
 20
158.3616699146644
 30
0.0
 10
95.7237637538445
 20
161.2605474231013
 30
0.0
 10
96.4968436907311
 20
162.8139420021662
 30
0.0
 10
97.15657991138076
 20
163.9844139654337
 30
0.0
 10
97.81183750494507
 20
165.1523021053827
 30
0.0
 10
99.1047826935081
 20
166.3084769129547
 30
0.0
 10
100.4504378777679
 20
166.69157178364
 30
0.0
  0
HATCH
  5
1DA3
330
1DA0
100
AcDbEntity
  8
TFORMLOGO
 62
   250
420
  2234388
100
AcDbHatch
 10
0.0
 20
0.0
 30
0.0
210
0.0
220
0.0
230
1.0
  2
SOLID
 70
     1
 71
     0
 91
        1
 92
        1
 93
        1
 72
     4
 94
        3
 73
     0
 74
     1
 95
       56
 96
       52
 40
0.0
 40
0.0
 40
0.0
 40
0.0
 40
1.0
 40
1.0
 40
1.0
 40
2.0
 40
2.0
 40
2.0
 40
3.0
 40
3.0
 40
3.0
 40
4.0
 40
4.0
 40
4.0
 40
5.0
 40
5.0
 40
5.0
 40
6.0
 40
6.0
 40
6.0
 40
7.0
 40
7.0
 40
7.0
 40
8.0
 40
8.0
 40
8.0
 40
9.0
 40
9.0
 40
9.0
 40
10.0
 40
10.0
 40
10.0
 40
11.0
 40
11.0
 40
11.0
 40
12.0
 40
12.0
 40
12.0
 40
13.0
 40
13.0
 40
13.0
 40
14.0
 40
14.0
 40
14.0
 40
15.0
 40
15.0
 40
15.0
 40
16.0
 40
16.0
 40
16.0
 40
17.0
 40
17.0
 40
17.0
 40
17.0
 10
100.4504378777679
 20
166.69157178364
 10
101.9848844191641
 20
167.1313385124438
 10
103.9637485713373
 20
166.7649523658846
 10
103.9637485713373
 20
166.7649523658846
 10
103.9637485713373
 20
166.7649523658846
 10
103.0132460999156
 20
163.911205638077
 10
103.0132460999156
 20
163.911205638077
 10
103.0132460999156
 20
163.911205638077
 10
101.0674548862189
 20
164.3601018759394
 10
99.57090442016032
 20
163.1805004036133
 10
98.40508333886608
 20
162.258247733807
 10
97.65301849830304
 20
159.804132345923
 10
97.3598406791005
 20
158.8699940888517
 10
97.3598406791005
 20
158.8699940888517
 10
96.07137411762282
 20
154.9119212747295
 10
96.07137411762282
 20
154.9119212747295
 10
96.07137411762282
 20
154.9119212747295
 10
100.3012651448482
 20
154.9119212747295
 10
100.3012651448482
 20
154.9119212747295
 10
100.3012651448482
 20
154.9119212747295
 10
99.64152892419852
 20
152.4199098115079
 10
99.64152892419852
 20
152.4199098115079
 10
99.64152892419852
 20
152.4199098115079
 10
95.38097652692731
 20
152.4199098115079
 10
95.38097652692731
 20
152.4199098115079
 10
95.38097652692731
 20
152.4199098115079
 10
87.75353009080013
 20
127.8027915271048
 10
87.75353009080013
 20
127.8027915271048
 10
87.75353009080013
 20
127.8027915271048
 10
85.36538832498108
 20
127.8027915271048
 10
85.36538832498108
 20
127.8027915271048
 10
85.36538832498108
 20
127.8027915271048
 10
93.00006946639998
 20
152.4199098115079
 10
93.00006946639998
 20
152.4199098115079
 10
93.00006946639998
 20
152.4199098115079
 10
89.85297266450198
 20
152.4199098115079
 10
89.85297266450198
 20
152.4199098115079
 10
89.85297266450198
 20
152.4199098115079
 10
90.51270888515164
 20
154.9119212747295
 10
90.51270888515164
 20
154.9119212747295
 10
90.51270888515164
 20
154.9119212747295
 10
93.6904670570955
 20
154.9119212747295
 10
93.6904670570955
 20
154.9119212747295
 10
93.6904670570955
 20
154.9119212747295
 10
94.81598049462158
 20
158.3616699146644
 10
94.81598049462158
 20
158.3616699146644
 10
95.7237637538445
 20
161.2605474231013
 10
96.4968436907311
 20
162.8139420021662
 10
97.15657991138076
 20
163.9844139654337
 10
97.81183750494507
 20
165.1523021053827
 10
99.1047826935081
 20
166.3084769129547
 10
100.4504378777679
 20
166.69157178364
 97
        0
 75
     2
 76
     1
 98
        0
  0
SPLINE
  5
1DA4
330
1DA0
100
AcDbEntity
  8
TFORMLOGO
370
     0
100
AcDbSpline
210
0.0
220
0.0
230
1.0
 70
    11
 71
     3
 72
    38
 73
    34
 74
     0
 42
0.000000001
 43
0.0000000001
 40
0.0
 40
0.0
 40
0.0
 40
0.0
 40
1.0
 40
1.0
 40
1.0
 40
2.0
 40
2.0
 40
2.0
 40
3.0
 40
3.0
 40
3.0
 40
4.0
 40
4.0
 40
4.0
 40
5.0
 40
5.0
 40
5.0
 40
6.0
 40
6.0
 40
6.0
 40
7.0
 40
7.0
 40
7.0
 40
8.0
 40
8.0
 40
8.0
 40
9.0
 40
9.0
 40
9.0
 40
10.0
 40
10.0
 40
10.0
 40
11.0
 40
11.0
 40
11.0
 40
11.0
 10
126.377554584636
 20
154.8151140277308
 30
0.0
 10
126.377554584636
 20
154.8151140277308
 30
0.0
 10
128.8311532078563
 20
154.8151140277308
 30
0.0
 10
128.8311532078563
 20
154.8151140277308
 30
0.0
 10
128.8311532078563
 20
154.8151140277308
 30
0.0
 10
127.7345785914971
 20
151.3062819612468
 30
0.0
 10
127.7345785914971
 20
151.3062819612468
 30
0.0
 10
128.571392836906
 20
152.2922689395754
 30
0.0
 10
129.8860421413442
 20
153.604506675583
 30
0.0
 10
131.0163787157314
 20
154.2664822097754
 30
0.0
 10
132.7044766171327
 20
155.2500576196734
 30
0.0
 10
133.6642808525008
 20
155.3847609420097
 30
0.0
 10
134.7284715499351
 20
155.3565111403944
 30
0.0
 10
134.7284715499351
 20
155.3565111403944
 30
0.0
 10
133.6877075172549
 20
152.0345756272799
 30
0.0
 10
133.6877075172549
 20
152.0345756272799
 30
0.0
 10
133.011434827367
 20
152.3184516825359
 30
0.0
 10
130.930940291334
 20
151.7768823149844
 30
0.0
 10
129.739280976855
 20
150.9162968950455
 30
0.0
 10
128.66613302525
 20
150.1454562717016
 30
0.0
 10
127.9192358313239
 20
149.4857200510519
 30
0.0
 10
127.0393578639405
 20
147.8282835196966
 30
0.0
 10
126.164647543194
 20
146.1699857139017
 30
0.0
 10
125.4742499524985
 20
143.5262176944419
 30
0.0
 10
124.2822461282437
 20
139.6959580071401
 30
0.0
 10
124.2822461282437
 20
139.6959580071401
 30
0.0
 10
120.5753209406769
 20
127.8027915271048
 30
0.0
 10
120.5753209406769
 20
127.8027915271048
 30
0.0
 10
120.5753209406769
 20
127.8027915271048
 30
0.0
 10
118.1964809388044
 20
127.8027915271048
 30
0.0
 10
118.1964809388044
 20
127.8027915271048
 30
0.0
 10
118.1964809388044
 20
127.8027915271048
 30
0.0
 10
126.377554584636
 20
154.8151140277308
 30
0.0
 10
126.377554584636
 20
154.8151140277308
 30
0.0
  0
HATCH
  5
1DA5
330
1DA0
100
AcDbEntity
  8
TFORMLOGO
 62
   250
420
  2234388
100
AcDbHatch
 10
0.0
 20
0.0
 30
0.0
210
0.0
220
0.0
230
1.0
  2
SOLID
 70
     1
 71
     0
 91
        1
 92
        1
 93
        1
 72
     4
 94
        3
 73
     0
 74
     1
 95
       38
 96
       34
 40
0.0
 40
0.0
 40
0.0
 40
0.0
 40
1.0
 40
1.0
 40
1.0
 40
2.0
 40
2.0
 40
2.0
 40
3.0
 40
3.0
 40
3.0
 40
4.0
 40
4.0
 40
4.0
 40
5.0
 40
5.0
 40
5.0
 40
6.0
 40
6.0
 40
6.0
 40
7.0
 40
7.0
 40
7.0
 40
8.0
 40
8.0
 40
8.0
 40
9.0
 40
9.0
 40
9.0
 40
10.0
 40
10.0
 40
10.0
 40
11.0
 40
11.0
 40
11.0
 40
11.0
 10
126.377554584636
 20
154.8151140277308
 10
126.377554584636
 20
154.8151140277308
 10
128.8311532078563
 20
154.8151140277308
 10
128.8311532078563
 20
154.8151140277308
 10
128.8311532078563
 20
154.8151140277308
 10
127.7345785914971
 20
151.3062819612468
 10
127.7345785914971
 20
151.3062819612468
 10
128.571392836906
 20
152.2922689395754
 10
129.8860421413442
 20
153.604506675583
 10
131.0163787157314
 20
154.2664822097754
 10
132.7044766171327
 20
155.2500576196734
 10
133.6642808525008
 20
155.3847609420097
 10
134.7284715499351
 20
155.3565111403944
 10
134.7284715499351
 20
155.3565111403944
 10
133.6877075172549
 20
152.0345756272799
 10
133.6877075172549
 20
152.0345756272799
 10
133.011434827367
 20
152.3184516825359
 10
130.930940291334
 20
151.7768823149844
 10
129.739280976855
 20
150.9162968950455
 10
128.66613302525
 20
150.1454562717016
 10
127.9192358313239
 20
149.4857200510519
 10
127.0393578639405
 20
147.8282835196966
 10
126.164647543194
 20
146.1699857139017
 10
125.4742499524985
 20
143.5262176944419
 10
124.2822461282437
 20
139.6959580071401
 10
124.2822461282437
 20
139.6959580071401
 10
120.5753209406769
 20
127.8027915271048
 10
120.5753209406769
 20
127.8027915271048
 10
120.5753209406769
 20
127.8027915271048
 10
118.1964809388044
 20
127.8027915271048
 10
118.1964809388044
 20
127.8027915271048
 10
118.1964809388044
 20
127.8027915271048
 10
126.377554584636
 20
154.8151140277308
 10
126.377554584636
 20
154.8151140277308
 97
        0
 75
     2
 76
     1
 98
        0
  0
SPLINE
  5
1DA6
330
1DA0
100
AcDbEntity
  8
TFORMLOGO
370
     0
100
AcDbSpline
210
0.0
220
0.0
230
1.0
 70
    11
 71
     3
 72
   104
 73
   100
 74
     0
 42
0.000000001
 43
0.0000000001
 40
0.0
 40
0.0
 40
0.0
 40
0.0
 40
1.0
 40
1.0
 40
1.0
 40
2.0
 40
2.0
 40
2.0
 40
3.0
 40
3.0
 40
3.0
 40
4.0
 40
4.0
 40
4.0
 40
5.0
 40
5.0
 40
5.0
 40
6.0
 40
6.0
 40
6.0
 40
7.0
 40
7.0
 40
7.0
 40
8.0
 40
8.0
 40
8.0
 40
9.0
 40
9.0
 40
9.0
 40
10.0
 40
10.0
 40
10.0
 40
11.0
 40
11.0
 40
11.0
 40
12.0
 40
12.0
 40
12.0
 40
13.0
 40
13.0
 40
13.0
 40
14.0
 40
14.0
 40
14.0
 40
15.0
 40
15.0
 40
15.0
 40
16.0
 40
16.0
 40
16.0
 40
17.0
 40
17.0
 40
17.0
 40
18.0
 40
18.0
 40
18.0
 40
19.0
 40
19.0
 40
19.0
 40
20.0
 40
20.0
 40
20.0
 40
21.0
 40
21.0
 40
21.0
 40
22.0
 40
22.0
 40
22.0
 40
23.0
 40
23.0
 40
23.0
 40
24.0
 40
24.0
 40
24.0
 40
25.0
 40
25.0
 40
25.0
 40
26.0
 40
26.0
 40
26.0
 40
27.0
 40
27.0
 40
27.0
 40
28.0
 40
28.0
 40
28.0
 40
29.0
 40
29.0
 40
29.0
 40
30.0
 40
30.0
 40
30.0
 40
31.0
 40
31.0
 40
31.0
 40
32.0
 40
32.0
 40
32.0
 40
33.0
 40
33.0
 40
33.0
 40
33.0
 10
139.8926730891197
 20
154.8294111834263
 30
0.0
 10
139.8926730891197
 20
154.8294111834263
 30
0.0
 10
142.0344903652445
 20
154.8294111834263
 30
0.0
 10
142.0344903652445
 20
154.8294111834263
 30
0.0
 10
142.0344903652445
 20
154.8294111834263
 30
0.0
 10
140.9516961399171
 20
151.3157559800812
 30
0.0
 10
140.9516961399171
 20
151.3157559800812
 30
0.0
 10
141.8928968473923
 20
152.7887075264977
 30
0.0
 10
142.7341897198865
 20
153.4484437471474
 30
0.0
 10
143.8552245303272
 20
154.2926649527359
 30
0.0
 10
144.9803934580775
 20
155.1296514530327
 30
0.0
 10
146.3139908001845
 20
155.3044901642492
 30
0.0
 10
147.241066606852
 20
155.3044901642492
 30
0.0
 10
148.3855280820469
 20
155.3044901642492
 30
0.0
 10
149.4969166187653
 20
155.0752189084569
 30
0.0
 10
150.0784491203092
 20
153.8172414621372
 30
0.0
 10
150.5228667310863
 20
152.833838307127
 30
0.0
 10
150.5414702589793
 20
152.7201500811143
 30
0.0
 10
150.4140016419347
 20
150.7765981809602
 30
0.0
 10
151.5818897818837
 20
152.7699317437168
 30
0.0
 10
152.4424752018226
 20
153.6256940267945
 30
0.0
 10
153.9038856707499
 20
154.4507949398263
 30
0.0
 10
155.4455669174378
 20
155.3044901642492
 30
0.0
 10
156.339225275853
 20
155.3659851592288
 30
0.0
 10
157.3748216618963
 20
155.2147453676543
 30
0.0
 10
158.911679771723
 20
154.9877134254046
 30
0.0
 10
159.8859534176746
 20
154.4390816074493
 30
0.0
 10
160.3965169054045
 20
152.7816450760939
 30
0.0
 10
160.9070803931344
 20
151.1219692311958
 30
0.0
 10
160.6328506116007
 20
150.2303779314354
 30
0.0
 10
159.9992971339115
 20
147.597634224801
 30
0.0
 10
159.7105979417943
 20
146.4014962832367
 30
0.0
 10
159.2947746424084
 20
144.9400858143094
 30
0.0
 10
158.7463150793409
 20
143.2092687007094
 30
0.0
 10
158.7463150793409
 20
143.2092687007094
 30
0.0
 10
153.9038856707499
 20
127.8027915271048
 30
0.0
 10
153.9038856707499
 20
127.8027915271048
 30
0.0
 10
153.9038856707499
 20
127.8027915271048
 30
0.0
 10
151.3882752878863
 20
127.8027915271048
 30
0.0
 10
151.3882752878863
 20
127.8027915271048
 30
0.0
 10
151.3882752878863
 20
127.8027915271048
 30
0.0
 10
155.6250565106276
 20
141.2751908193897
 30
0.0
 10
155.6250565106276
 20
141.2751908193897
 30
0.0
 10
156.5094131050963
 20
144.0936252951782
 30
0.0
 10
157.109893644309
 20
146.1506931664571
 30
0.0
 10
157.4220195011804
 20
147.4415712963654
 30
0.0
 10
157.8095929989511
 20
149.0530157726519
 30
0.0
 10
157.9656559273867
 20
149.5826995529385
 30
0.0
 10
157.7816877071116
 20
150.7529992613181
 30
0.0
 10
157.6111553680925
 20
151.8430281919372
 30
0.0
 10
157.0582171779396
 20
152.5547853887321
 30
0.0
 10
156.1170164704645
 20
152.5547853887321
 30
0.0
 10
155.1096698860365
 20
152.5547853887321
 30
0.0
 10
154.2962823053817
 20
152.4412694176073
 30
0.0
 10
153.156643967048
 20
151.2945686288697
 30
0.0
 10
152.0170056287143
 20
150.1476955852443
 30
0.0
 10
151.076149431015
 20
148.7930831468137
 30
0.0
 10
150.3337308641742
 20
147.2290087646991
 30
0.0
 10
149.5957909244188
 20
145.6683794803425
 30
0.0
 10
148.8530278478023
 20
143.6822806228776
 30
0.0
 10
148.0964843801539
 20
141.2751908193897
 30
0.0
 10
148.0964843801539
 20
141.2751908193897
 30
0.0
 10
143.8552245303272
 20
127.8027915271048
 30
0.0
 10
143.8552245303272
 20
127.8027915271048
 30
0.0
 10
143.8552245303272
 20
127.8027915271048
 30
0.0
 10
141.486030802177
 20
127.8027915271048
 30
0.0
 10
141.486030802177
 20
127.8027915271048
 30
0.0
 10
141.486030802177
 20
127.8027915271048
 30
0.0
 10
146.3329388378533
 20
143.2092687007094
 30
0.0
 10
146.3329388378533
 20
143.2092687007094
 30
0.0
 10
146.8483254624444
 20
144.8408669988801
 30
0.0
 10
147.2314203331297
 20
146.1837661049335
 30
0.0
 10
147.4867020769946
 20
147.224185627838
 30
0.0
 10
147.9169947869641
 20
149.0197705792876
 30
0.0
 10
148.0306830129768
 20
150.2400242051577
 30
0.0
 10
147.709255392159
 20
151.3157559800812
 30
0.0
 10
147.3874832615654
 20
152.3916600098926
 30
0.0
 10
146.8245542879144
 20
152.6683013598569
 30
0.0
 10
145.8840425999909
 20
152.6683013598569
 30
0.0
 10
145.0989048209514
 20
152.6683013598569
 30
0.0
 10
144.3282364524954
 20
152.3275811915945
 30
0.0
 10
143.4531816219731
 20
151.6538923250251
 30
0.0
 10
142.34627171234
 20
150.8074318058939
 30
0.0
 10
141.901854101563
 20
150.1097995099067
 30
0.0
 10
141.3578731655808
 20
149.289521733736
 30
0.0
 10
140.6299240093235
 20
148.192602607601
 30
0.0
 10
140.2850697237515
 20
147.455696197173
 30
0.0
 10
139.6652966370942
 20
145.8385673095858
 30
0.0
 10
139.0506911970739
 20
144.2214384219986
 30
0.0
 10
138.463991048893
 20
142.3252566160164
 30
0.0
 10
138.0571250036777
 20
141.0154304484394
 30
0.0
 10
138.0571250036777
 20
141.0154304484394
 30
0.0
 10
133.9009590684727
 20
127.8027915271048
 30
0.0
 10
133.9009590684727
 20
127.8027915271048
 30
0.0
 10
133.9009590684727
 20
127.8027915271048
 30
0.0
 10
131.4180771143097
 20
127.8027915271048
 30
0.0
 10
131.4180771143097
 20
127.8027915271048
 30
0.0
 10
131.4180771143097
 20
127.8027915271048
 30
0.0
 10
139.8926730891197
 20
154.8294111834263
 30
0.0
 10
139.8926730891197
 20
154.8294111834263
 30
0.0
  0
HATCH
  5
1DA7
330
1DA0
100
AcDbEntity
  8
TFORMLOGO
 62
   250
420
  2234388
100
AcDbHatch
 10
0.0
 20
0.0
 30
0.0
210
0.0
220
0.0
230
1.0
  2
SOLID
 70
     1
 71
     0
 91
        1
 92
        1
 93
        1
 72
     4
 94
        3
 73
     0
 74
     1
 95
      104
 96
      100
 40
0.0
 40
0.0
 40
0.0
 40
0.0
 40
1.0
 40
1.0
 40
1.0
 40
2.0
 40
2.0
 40
2.0
 40
3.0
 40
3.0
 40
3.0
 40
4.0
 40
4.0
 40
4.0
 40
5.0
 40
5.0
 40
5.0
 40
6.0
 40
6.0
 40
6.0
 40
7.0
 40
7.0
 40
7.0
 40
8.0
 40
8.0
 40
8.0
 40
9.0
 40
9.0
 40
9.0
 40
10.0
 40
10.0
 40
10.0
 40
11.0
 40
11.0
 40
11.0
 40
12.0
 40
12.0
 40
12.0
 40
13.0
 40
13.0
 40
13.0
 40
14.0
 40
14.0
 40
14.0
 40
15.0
 40
15.0
 40
15.0
 40
16.0
 40
16.0
 40
16.0
 40
17.0
 40
17.0
 40
17.0
 40
18.0
 40
18.0
 40
18.0
 40
19.0
 40
19.0
 40
19.0
 40
20.0
 40
20.0
 40
20.0
 40
21.0
 40
21.0
 40
21.0
 40
22.0
 40
22.0
 40
22.0
 40
23.0
 40
23.0
 40
23.0
 40
24.0
 40
24.0
 40
24.0
 40
25.0
 40
25.0
 40
25.0
 40
26.0
 40
26.0
 40
26.0
 40
27.0
 40
27.0
 40
27.0
 40
28.0
 40
28.0
 40
28.0
 40
29.0
 40
29.0
 40
29.0
 40
30.0
 40
30.0
 40
30.0
 40
31.0
 40
31.0
 40
31.0
 40
32.0
 40
32.0
 40
32.0
 40
33.0
 40
33.0
 40
33.0
 40
33.0
 10
139.8926730891197
 20
154.8294111834263
 10
139.8926730891197
 20
154.8294111834263
 10
142.0344903652445
 20
154.8294111834263
 10
142.0344903652445
 20
154.8294111834263
 10
142.0344903652445
 20
154.8294111834263
 10
140.9516961399171
 20
151.3157559800812
 10
140.9516961399171
 20
151.3157559800812
 10
141.8928968473923
 20
152.7887075264977
 10
142.7341897198865
 20
153.4484437471474
 10
143.8552245303272
 20
154.2926649527359
 10
144.9803934580775
 20
155.1296514530327
 10
146.3139908001845
 20
155.3044901642492
 10
147.241066606852
 20
155.3044901642492
 10
148.3855280820469
 20
155.3044901642492
 10
149.4969166187653
 20
155.0752189084569
 10
150.0784491203092
 20
153.8172414621372
 10
150.5228667310863
 20
152.833838307127
 10
150.5414702589793
 20
152.7201500811143
 10
150.4140016419347
 20
150.7765981809602
 10
151.5818897818837
 20
152.7699317437168
 10
152.4424752018226
 20
153.6256940267945
 10
153.9038856707499
 20
154.4507949398263
 10
155.4455669174378
 20
155.3044901642492
 10
156.339225275853
 20
155.3659851592288
 10
157.3748216618963
 20
155.2147453676543
 10
158.911679771723
 20
154.9877134254046
 10
159.8859534176746
 20
154.4390816074493
 10
160.3965169054045
 20
152.7816450760939
 10
160.9070803931344
 20
151.1219692311958
 10
160.6328506116007
 20
150.2303779314354
 10
159.9992971339115
 20
147.597634224801
 10
159.7105979417943
 20
146.4014962832367
 10
159.2947746424084
 20
144.9400858143094
 10
158.7463150793409
 20
143.2092687007094
 10
158.7463150793409
 20
143.2092687007094
 10
153.9038856707499
 20
127.8027915271048
 10
153.9038856707499
 20
127.8027915271048
 10
153.9038856707499
 20
127.8027915271048
 10
151.3882752878863
 20
127.8027915271048
 10
151.3882752878863
 20
127.8027915271048
 10
151.3882752878863
 20
127.8027915271048
 10
155.6250565106276
 20
141.2751908193897
 10
155.6250565106276
 20
141.2751908193897
 10
156.5094131050963
 20
144.0936252951782
 10
157.109893644309
 20
146.1506931664571
 10
157.4220195011804
 20
147.4415712963654
 10
157.8095929989511
 20
149.0530157726519
 10
157.9656559273867
 20
149.5826995529385
 10
157.7816877071116
 20
150.7529992613181
 10
157.6111553680925
 20
151.8430281919372
 10
157.0582171779396
 20
152.5547853887321
 10
156.1170164704645
 20
152.5547853887321
 10
155.1096698860365
 20
152.5547853887321
 10
154.2962823053817
 20
152.4412694176073
 10
153.156643967048
 20
151.2945686288697
 10
152.0170056287143
 20
150.1476955852443
 10
151.076149431015
 20
148.7930831468137
 10
150.3337308641742
 20
147.2290087646991
 10
149.5957909244188
 20
145.6683794803425
 10
148.8530278478023
 20
143.6822806228776
 10
148.0964843801539
 20
141.2751908193897
 10
148.0964843801539
 20
141.2751908193897
 10
143.8552245303272
 20
127.8027915271048
 10
143.8552245303272
 20
127.8027915271048
 10
143.8552245303272
 20
127.8027915271048
 10
141.486030802177
 20
127.8027915271048
 10
141.486030802177
 20
127.8027915271048
 10
141.486030802177
 20
127.8027915271048
 10
146.3329388378533
 20
143.2092687007094
 10
146.3329388378533
 20
143.2092687007094
 10
146.8483254624444
 20
144.8408669988801
 10
147.2314203331297
 20
146.1837661049335
 10
147.4867020769946
 20
147.224185627838
 10
147.9169947869641
 20
149.0197705792876
 10
148.0306830129768
 20
150.2400242051577
 10
147.709255392159
 20
151.3157559800812
 10
147.3874832615654
 20
152.3916600098926
 10
146.8245542879144
 20
152.6683013598569
 10
145.8840425999909
 20
152.6683013598569
 10
145.0989048209514
 20
152.6683013598569
 10
144.3282364524954
 20
152.3275811915945
 10
143.4531816219731
 20
151.6538923250251
 10
142.34627171234
 20
150.8074318058939
 10
141.901854101563
 20
150.1097995099067
 10
141.3578731655808
 20
149.289521733736
 10
140.6299240093235
 20
148.192602607601
 10
140.2850697237515
 20
147.455696197173
 10
139.6652966370942
 20
145.8385673095858
 10
139.0506911970739
 20
144.2214384219986
 10
138.463991048893
 20
142.3252566160164
 10
138.0571250036777
 20
141.0154304484394
 10
138.0571250036777
 20
141.0154304484394
 10
133.9009590684727
 20
127.8027915271048
 10
133.9009590684727
 20
127.8027915271048
 10
133.9009590684727
 20
127.8027915271048
 10
131.4180771143097
 20
127.8027915271048
 10
131.4180771143097
 20
127.8027915271048
 10
131.4180771143097
 20
127.8027915271048
 10
139.8926730891197
 20
154.8294111834263
 10
139.8926730891197
 20
154.8294111834263
 97
        0
 75
     2
 76
     1
 98
        0
  0
SPLINE
  5
1DA8
330
1DA0
100
AcDbEntity
  8
TFORMLOGO
370
     0
100
AcDbSpline
210
0.0
220
0.0
230
1.0
 70
    11
 71
     3
 72
    29
 73
    25
 74
     0
 42
0.000000001
 43
0.0000000001
 40
0.0
 40
0.0
 40
0.0
 40
0.0
 40
1.0
 40
1.0
 40
1.0
 40
2.0
 40
2.0
 40
2.0
 40
3.0
 40
3.0
 40
3.0
 40
4.0
 40
4.0
 40
4.0
 40
5.0
 40
5.0
 40
5.0
 40
6.0
 40
6.0
 40
6.0
 40
7.0
 40
7.0
 40
7.0
 40
8.0
 40
8.0
 40
8.0
 40
8.0
 10
101.6420971922469
 20
132.8388354296931
 30
0.0
 10
101.630039350094
 20
134.7164137077823
 30
0.0
 10
102.2236296937908
 20
138.0598810818841
 30
0.0
 10
103.7487744712405
 20
142.5378191476827
 30
0.0
 10
105.819967243327
 20
148.5896501242061
 30
0.0
 10
107.0602024361932
 20
150.8074318058939
 30
0.0
 10
108.1522984254671
 20
151.8833358357054
 30
0.0
 10
109.741177511439
 20
153.4532668840085
 30
0.0
 10
111.8740375333931
 20
153.5290590346837
 30
0.0
 10
112.5075910110823
 20
153.4532668840085
 30
0.0
 10
113.4012493694975
 20
153.3490526768302
 30
0.0
 10
114.6683563248758
 20
152.7580461564518
 30
0.0
 10
114.7493161221879
 20
150.7838328862519
 30
0.0
 10
114.8106388622796
 20
149.0909118479895
 30
0.0
 10
114.3186789024427
 20
145.9191825971221
 30
0.0
 10
112.6164561002338
 20
140.9489400617108
 30
0.0
 10
110.6444821435766
 20
135.1746117095912
 30
0.0
 10
109.4669477299053
 20
132.8960240524753
 30
0.0
 10
108.5212683953448
 20
131.9072809959403
 30
0.0
 10
106.7346406980658
 20
130.0538184021569
 30
0.0
 10
104.8222669326213
 20
130.2336525051225
 30
0.0
 10
104.5408024457958
 20
130.2336525051225
 30
0.0
 10
104.1721769856939
 20
130.2336525051225
 30
0.0
 10
101.6465758193322
 20
130.6305277668397
 30
0.0
 10
101.6420971922469
 20
132.8388354296931
 30
0.0
  0
SPLINE
  5
1DA9
330
1DA0
100
AcDbEntity
  8
TFORMLOGO
370
     0
100
AcDbSpline
210
0.0
220
0.0
230
1.0
 70
    11
 71
     3
 72
    32
 73
    28
 74
     0
 42
0.000000001
 43
0.0000000001
 40
0.0
 40
0.0
 40
0.0
 40
0.0
 40
1.0
 40
1.0
 40
1.0
 40
2.0
 40
2.0
 40
2.0
 40
3.0
 40
3.0
 40
3.0
 40
4.0
 40
4.0
 40
4.0
 40
5.0
 40
5.0
 40
5.0
 40
6.0
 40
6.0
 40
6.0
 40
7.0
 40
7.0
 40
7.0
 40
8.0
 40
8.0
 40
8.0
 40
9.0
 40
9.0
 40
9.0
 40
9.0
 10
106.2595617172429
 20
153.4105476718098
 30
0.0
 10
104.8222669326213
 20
151.5474388043041
 30
0.0
 10
103.7177685914188
 20
149.8758773721411
 30
0.0
 10
101.9232171692965
 20
144.6141795664062
 30
0.0
 10
100.2754269116635
 20
139.7999999594306
 30
0.0
 10
99.22777268346732
 20
136.3052927937542
 30
0.0
 10
99.06964269637689
 20
132.039572749846
 30
0.0
 10
98.94665270641765
 20
128.8673267343149
 30
0.0
 10
100.8807305877373
 20
127.8027915271048
 30
0.0
 10
103.7129454545577
 20
127.8027915271048
 30
0.0
 10
104.9352661390825
 20
127.8027915271048
 30
0.0
 10
108.0151835347002
 20
127.8827177950895
 30
0.0
 10
110.2045431598849
 20
130.5926316915021
 30
0.0
 10
111.7417457794874
 20
132.4984597712065
 30
0.0
 10
113.155269389579
 20
134.475256864725
 30
0.0
 10
115.0562743324223
 20
140.9489400617108
 30
0.0
 10
116.6361961642235
 20
146.3680788349845
 30
0.0
 10
117.7282921534974
 20
149.8639917848761
 30
0.0
 10
117.6480213757369
 20
151.8595646611754
 30
0.0
 10
117.6480213757369
 20
151.8595646611754
 30
0.0
 10
117.6480213757369
 20
151.8595646611754
 30
0.0
 10
117.6480213757369
 20
151.8595646611754
 30
0.0
 10
117.13229024137
 20
155.18150017429
 30
0.0
 10
114.7162431837115
 20
155.886194920681
 30
0.0
 10
113.3351034925446
 20
155.886194920681
 30
0.0
 10
111.9829026225447
 20
155.886194920681
 30
0.0
 10
108.3414342923792
 20
156.1251124501957
 30
0.0
 10
106.2595617172429
 20
153.4105476718098
 30
0.0
  0
HATCH
  5
1DAA
330
1DA0
100
AcDbEntity
  8
TFORMLOGO
 62
   250
420
  2234388
100
AcDbHatch
 10
0.0
 20
0.0
 30
0.0
210
0.0
220
0.0
230
1.0
  2
SOLID
 70
     1
 71
     0
 91
        2
 92
        1
 93
        1
 72
     4
 94
        3
 73
     0
 74
     1
 95
       29
 96
       25
 40
0.0
 40
0.0
 40
0.0
 40
0.0
 40
1.0
 40
1.0
 40
1.0
 40
2.0
 40
2.0
 40
2.0
 40
3.0
 40
3.0
 40
3.0
 40
4.0
 40
4.0
 40
4.0
 40
5.0
 40
5.0
 40
5.0
 40
6.0
 40
6.0
 40
6.0
 40
7.0
 40
7.0
 40
7.0
 40
8.0
 40
8.0
 40
8.0
 40
8.0
 10
101.6420971922469
 20
132.8388354296931
 10
101.630039350094
 20
134.7164137077823
 10
102.2236296937908
 20
138.0598810818841
 10
103.7487744712405
 20
142.5378191476827
 10
105.819967243327
 20
148.5896501242061
 10
107.0602024361932
 20
150.8074318058939
 10
108.1522984254671
 20
151.8833358357054
 10
109.741177511439
 20
153.4532668840085
 10
111.8740375333931
 20
153.5290590346837
 10
112.5075910110823
 20
153.4532668840085
 10
113.4012493694975
 20
153.3490526768302
 10
114.6683563248758
 20
152.7580461564518
 10
114.7493161221879
 20
150.7838328862519
 10
114.8106388622796
 20
149.0909118479895
 10
114.3186789024427
 20
145.9191825971221
 10
112.6164561002338
 20
140.9489400617108
 10
110.6444821435766
 20
135.1746117095912
 10
109.4669477299053
 20
132.8960240524753
 10
108.5212683953448
 20
131.9072809959403
 10
106.7346406980658
 20
130.0538184021569
 10
104.8222669326213
 20
130.2336525051225
 10
104.5408024457958
 20
130.2336525051225
 10
104.1721769856939
 20
130.2336525051225
 10
101.6465758193322
 20
130.6305277668397
 10
101.6420971922469
 20
132.8388354296931
 97
        0
 92
        1
 93
        1
 72
     4
 94
        3
 73
     0
 74
     1
 95
       32
 96
       28
 40
0.0
 40
0.0
 40
0.0
 40
0.0
 40
1.0
 40
1.0
 40
1.0
 40
2.0
 40
2.0
 40
2.0
 40
3.0
 40
3.0
 40
3.0
 40
4.0
 40
4.0
 40
4.0
 40
5.0
 40
5.0
 40
5.0
 40
6.0
 40
6.0
 40
6.0
 40
7.0
 40
7.0
 40
7.0
 40
8.0
 40
8.0
 40
8.0
 40
9.0
 40
9.0
 40
9.0
 40
9.0
 10
106.2595617172429
 20
153.4105476718098
 10
104.8222669326213
 20
151.5474388043041
 10
103.7177685914188
 20
149.8758773721411
 10
101.9232171692965
 20
144.6141795664062
 10
100.2754269116635
 20
139.7999999594306
 10
99.22777268346732
 20
136.3052927937542
 10
99.06964269637689
 20
132.039572749846
 10
98.94665270641765
 20
128.8673267343149
 10
100.8807305877373
 20
127.8027915271048
 10
103.7129454545577
 20
127.8027915271048
 10
104.9352661390825
 20
127.8027915271048
 10
108.0151835347002
 20
127.8827177950895
 10
110.2045431598849
 20
130.5926316915021
 10
111.7417457794874
 20
132.4984597712065
 10
113.155269389579
 20
134.475256864725
 10
115.0562743324223
 20
140.9489400617108
 10
116.6361961642235
 20
146.3680788349845
 10
117.7282921534974
 20
149.8639917848761
 10
117.6480213757369
 20
151.8595646611754
 10
117.6480213757369
 20
151.8595646611754
 10
117.6480213757369
 20
151.8595646611754
 10
117.6480213757369
 20
151.8595646611754
 10
117.13229024137
 20
155.18150017429
 10
114.7162431837115
 20
155.886194920681
 10
113.3351034925446
 20
155.886194920681
 10
111.9829026225447
 20
155.886194920681
 10
108.3414342923792
 20
156.1251124501957
 10
106.2595617172429
 20
153.4105476718098
 97
        0
 75
     2
 76
     1
 98
        0
  0
ENDBLK
  5
1DAB
330
1DA0
100
AcDbEntity
  8
0
100
AcDbBlockEnd
  0
BLOCK
  5
60DA
330
60D9
100
AcDbEntity
  8
0
100
AcDbBlockBegin
  2
*D7
 70
     1
 10
0.0
 20
0.0
 30
0.0
  3
*D7
  1

  0
LINE
  5
60DC
330
60D9
100
AcDbEntity
  8
モデル
 62
     0
370
    -2
100
AcDbLine
 10
162.9061832874426
 20
288.8063497955859
 30
0.0
 11
192.5218934432652
 21
288.8063497955859
 31
0.0
  0
LINE
  5
60DD
330
60D9
100
AcDbEntity
  8
モデル
 62
     0
370
    -2
100
AcDbLine
 10
174.4061832874425
 20
343.8085782093859
 30
0.0
 11
192.5218934432652
 21
343.8085782093859
 31
0.0
  0
LINE
  5
60DE
330
60D9
100
AcDbEntity
  8
モデル
 62
     0
370
    -2
100
AcDbLine
 10
192.5218934432652
 20
290.8063497955859
 30
0.0
 11
192.5218934432652
 21
341.8085782093859
 31
0.0
  0
INSERT
  5
60DF
330
60D9
100
AcDbEntity
  8
モデル
 62
     0
370
    -2
100
AcDbBlockReference
  2
_DOT
 10
192.5218934432652
 20
288.8063497955859
 30
0.0
 41
2.0
 42
2.0
 43
2.0
 50
270.0
  0
INSERT
  5
60E0
330
60D9
100
AcDbEntity
  8
モデル
 62
     0
370
    -2
100
AcDbBlockReference
  2
_DOT
 10
192.5218934432652
 20
343.8085782093859
 30
0.0
 41
2.0
 42
2.0
 43
2.0
 50
90.0
  0
MTEXT
  5
60E1
330
60D9
100
AcDbEntity
  8
モデル
 62
     0
100
AcDbMText
 10
189.0209555915708
 20
316.3074640024859
 30
0.0
 40
5.0
 41
0.0
 46
0.0
 71
     5
 72
     1
  1
\A1;55
  7
ＭＳ ゴシック
 11
0.0
 21
1.0
 31
0.0
 73
     1
 44
1.0
  0
POINT
  5
60E2
330
60D9
100
AcDbEntity
  8
Defpoints
 62
     0
100
AcDbPoint
 10
157.9061832874426
 20
288.8063497955859
 30
0.0
  0
POINT
  5
60E3
330
60D9
100
AcDbEntity
  8
Defpoints
 62
     0
100
AcDbPoint
 10
169.4061832874425
 20
343.8085782093859
 30
0.0
  0
POINT
  5
60E4
330
60D9
100
AcDbEntity
  8
Defpoints
 62
     0
100
AcDbPoint
 10
192.5218934432652
 20
343.8085782093859
 30
0.0
  0
ENDBLK
  5
60DB
330
60D9
100
AcDbEntity
  8
0
100
AcDbBlockEnd
  0
BLOCK
  5
60E6
330
60E5
100
AcDbEntity
  8
0
100
AcDbBlockBegin
  2
*D8
 70
     1
 10
0.0
 20
0.0
 30
0.0
  3
*D8
  1

  0
LINE
  5
60E8
330
60E5
100
AcDbEntity
  8
モデル
 62
     0
370
    -2
100
AcDbLine
 10
155.9160871231625
 20
364.5451626627361
 30
0.0
 11
155.9160871231625
 21
373.9247886599151
 31
0.0
  0
LINE
  5
60E9
330
60E5
100
AcDbEntity
  8
モデル
 62
     0
370
    -2
100
AcDbLine
 10
167.1061832874424
 20
367.4608411929428
 30
0.0
 11
167.1061832874424
 21
373.9247886599151
 31
0.0
  0
LINE
  5
60EA
330
60E5
100
AcDbEntity
  8
モデル
 62
     0
370
    -2
100
AcDbLine
 10
157.9160871231625
 20
373.9247886599151
 30
0.0
 11
165.1061832874424
 21
373.9247886599151
 31
0.0
  0
INSERT
  5
60EB
330
60E5
100
AcDbEntity
  8
モデル
 62
     0
370
    -2
100
AcDbBlockReference
  2
_DOT
 10
155.9160871231625
 20
373.9247886599151
 30
0.0
 41
2.0
 42
2.0
 43
2.0
 50
180.0
  0
INSERT
  5
60EC
330
60E5
100
AcDbEntity
  8
モデル
 62
     0
370
    -2
100
AcDbBlockReference
  2
_DOT
 10
167.1061832874424
 20
373.9247886599151
 30
0.0
 41
2.0
 42
2.0
 43
2.0
  0
MTEXT
  5
60ED
330
60E5
100
AcDbEntity
  8
モデル
 62
     0
100
AcDbMText
 10
161.5111352053024
 20
377.4257265116095
 30
0.0
 40
5.0
 41
0.0
 46
0.0
 71
     5
 72
     1
  1
\A1;11
  7
ＭＳ ゴシック
 73
     1
 44
1.0
  0
POINT
  5
60EE
330
60E5
100
AcDbEntity
  8
Defpoints
 62
     0
100
AcDbPoint
 10
155.9160871231625
 20
359.5451626627361
 30
0.0
  0
POINT
  5
60EF
330
60E5
100
AcDbEntity
  8
Defpoints
 62
     0
100
AcDbPoint
 10
167.1061832874424
 20
362.4608411929428
 30
0.0
  0
POINT
  5
60F0
330
60E5
100
AcDbEntity
  8
Defpoints
 62
     0
100
AcDbPoint
 10
167.1061832874424
 20
373.9247886599151
 30
0.0
  0
ENDBLK
  5
60E7
330
60E5
100
AcDbEntity
  8
0
100
AcDbBlockEnd
  0
BLOCK
  5
66F3
330
66F2
100
AcDbEntity
  8
0
100
AcDbBlockBegin
  2
*D9
 70
     1
 10
0.0
 20
0.0
 30
0.0
  3
*D9
  1

  0
LINE
  5
66F5
330
66F2
100
AcDbEntity
  8
モデル
 62
     0
370
    -2
100
AcDbLine
 10
167.9061832874426
 20
124.4952828805268
 30
0.0
 11
167.9061832874426
 21
102.3337262249872
 31
0.0
  0
LINE
  5
66F6
330
66F2
100
AcDbEntity
  8
モデル
 62
     0
370
    -2
100
AcDbLine
 10
147.9061832874426
 20
157.9677084269983
 30
0.0
 11
147.9061832874426
 21
102.3337262249872
 31
0.0
  0
LINE
  5
66F7
330
66F2
100
AcDbEntity
  8
モデル
 62
     0
370
    -2
100
AcDbLine
 10
165.9061832874426
 20
102.3337262249872
 30
0.0
 11
149.9061832874426
 21
102.3337262249872
 31
0.0
  0
INSERT
  5
66F8
330
66F2
100
AcDbEntity
  8
モデル
 62
     0
370
    -2
100
AcDbBlockReference
  2
_DOT
 10
167.9061832874426
 20
102.3337262249872
 30
0.0
 41
2.0
 42
2.0
 43
2.0
  0
INSERT
  5
66F9
330
66F2
100
AcDbEntity
  8
モデル
 62
     0
370
    -2
100
AcDbBlockReference
  2
_DOT
 10
147.9061832874426
 20
102.3337262249872
 30
0.0
 41
2.0
 42
2.0
 43
2.0
 50
180.0
  0
MTEXT
  5
66FA
330
66F2
100
AcDbEntity
  8
モデル
 62
     0
100
AcDbMText
 10
157.9061832874426
 20
105.8346640766816
 30
0.0
 40
5.0
 41
0.0
 46
0.0
 71
     5
 72
     1
  1
\A1;20
  7
ＭＳ ゴシック
 73
     1
 44
1.0
  0
POINT
  5
66FB
330
66F2
100
AcDbEntity
  8
Defpoints
 62
     0
100
AcDbPoint
 10
167.9061832874426
 20
129.4952828805268
 30
0.0
  0
POINT
  5
66FC
330
66F2
100
AcDbEntity
  8
Defpoints
 62
     0
100
AcDbPoint
 10
147.9061832874426
 20
162.9677084269983
 30
0.0
  0
POINT
  5
66FD
330
66F2
100
AcDbEntity
  8
Defpoints
 62
     0
100
AcDbPoint
 10
147.9061832874426
 20
102.3337262249872
 30
0.0
  0
ENDBLK
  5
66F4
330
66F2
100
AcDbEntity
  8
0
100
AcDbBlockEnd
  0
BLOCK
  5
6702
330
6701
100
AcDbEntity
  8
0
100
AcDbBlockBegin
  2
*D10
 70
     1
 10
0.0
 20
0.0
 30
0.0
  3
*D10
  1

  0
LINE
  5
6704
330
6701
100
AcDbEntity
  8
モデル
 62
     0
370
    -2
100
AcDbLine
 10
349.7028295691093
 20
171.0952828805268
 30
0.0
 11
347.1900057401195
 21
171.0952828805268
 31
0.0
  0
LINE
  5
6705
330
6701
100
AcDbEntity
  8
モデル
 62
     0
370
    -2
100
AcDbLine
 10
314.5777151164007
 20
129.4952828805268
 30
0.0
 11
347.1900057401195
 21
129.4952828805268
 31
0.0
  0
LINE
  5
6706
330
6701
100
AcDbEntity
  8
モデル
 62
     0
370
    -2
100
AcDbLine
 10
347.1900057401195
 20
169.0952828805268
 30
0.0
 11
347.1900057401195
 21
131.4952828805268
 31
0.0
  0
INSERT
  5
6707
330
6701
100
AcDbEntity
  8
モデル
 62
     0
370
    -2
100
AcDbBlockReference
  2
_DOT
 10
347.1900057401195
 20
171.0952828805268
 30
0.0
 41
2.0
 42
2.0
 43
2.0
 50
90.0
  0
INSERT
  5
6708
330
6701
100
AcDbEntity
  8
モデル
 62
     0
370
    -2
100
AcDbBlockReference
  2
_DOT
 10
347.1900057401195
 20
129.4952828805268
 30
0.0
 41
2.0
 42
2.0
 43
2.0
 50
270.0
  0
MTEXT
  5
6709
330
6701
100
AcDbEntity
  8
モデル
 62
     0
100
AcDbMText
 10
343.6890678884251
 20
150.2952828805268
 30
0.0
 40
5.0
 41
0.0
 46
0.0
 71
     5
 72
     1
  1
\A1;41.75
  7
ＭＳ ゴシック
 11
0.0
 21
1.0
 31
0.0
 73
     1
 44
1.0
  0
POINT
  5
670A
330
6701
100
AcDbEntity
  8
Defpoints
 62
     0
100
AcDbPoint
 10
354.7028295691093
 20
171.0952828805268
 30
0.0
  0
POINT
  5
670B
330
6701
100
AcDbEntity
  8
Defpoints
 62
     0
100
AcDbPoint
 10
309.5777151164007
 20
129.4952828805268
 30
0.0
  0
POINT
  5
670C
330
6701
100
AcDbEntity
  8
Defpoints
 62
     0
100
AcDbPoint
 10
347.1900057401195
 20
129.4952828805268
 30
0.0
  0
ENDBLK
  5
6703
330
6701
100
AcDbEntity
  8
0
100
AcDbBlockEnd
  0
BLOCK
  5
6711
330
6710
100
AcDbEntity
  8
0
100
AcDbBlockBegin
  2
*D11
 70
     1
 10
0.0
 20
0.0
 30
0.0
  3
*D11
  1

  0
LINE
  5
6713
330
6710
100
AcDbEntity
  8
モデル
 62
     0
370
    -2
100
AcDbLine
 10
292.3993733572578
 20
162.0952828805268
 30
0.0
 11
292.3993733572578
 21
102.3337262249873
 31
0.0
  0
LINE
  5
6714
330
6710
100
AcDbEntity
  8
モデル
 62
     0
370
    -2
100
AcDbLine
 10
237.3993733572578
 20
112.0984194418985
 30
0.0
 11
237.3993733572578
 21
102.3337262249873
 31
0.0
  0
LINE
  5
6715
330
6710
100
AcDbEntity
  8
モデル
 62
     0
370
    -2
100
AcDbLine
 10
290.3993733572578
 20
102.3337262249873
 30
0.0
 11
239.3993733572578
 21
102.3337262249873
 31
0.0
  0
INSERT
  5
6716
330
6710
100
AcDbEntity
  8
モデル
 62
     0
370
    -2
100
AcDbBlockReference
  2
_DOT
 10
292.3993733572578
 20
102.3337262249873
 30
0.0
 41
2.0
 42
2.0
 43
2.0
  0
INSERT
  5
6717
330
6710
100
AcDbEntity
  8
モデル
 62
     0
370
    -2
100
AcDbBlockReference
  2
_DOT
 10
237.3993733572578
 20
102.3337262249873
 30
0.0
 41
2.0
 42
2.0
 43
2.0
 50
180.0
  0
MTEXT
  5
6718
330
6710
100
AcDbEntity
  8
モデル
 62
     0
100
AcDbMText
 10
264.8993733572578
 20
105.8346640766817
 30
0.0
 40
5.0
 41
0.0
 46
0.0
 71
     5
 72
     1
  1
\A1;55
  7
ＭＳ ゴシック
 73
     1
 44
1.0
  0
POINT
  5
6719
330
6710
100
AcDbEntity
  8
Defpoints
 62
     0
100
AcDbPoint
 10
292.3993733572578
 20
167.0952828805268
 30
0.0
  0
POINT
  5
671A
330
6710
100
AcDbEntity
  8
Defpoints
 62
     0
100
AcDbPoint
 10
237.3993733572578
 20
117.0984194418985
 30
0.0
  0
POINT
  5
671B
330
6710
100
AcDbEntity
  8
Defpoints
 62
     0
100
AcDbPoint
 10
237.3993733572578
 20
102.3337262249873
 30
0.0
  0
ENDBLK
  5
6712
330
6710
100
AcDbEntity
  8
0
100
AcDbBlockEnd
  0
BLOCK
  5
6720
330
671F
100
AcDbEntity
  8
0
100
AcDbBlockBegin
  2
*D12
 70
     1
 10
0.0
 20
0.0
 30
0.0
  3
*D12
  1

  0
LINE
  5
6722
330
671F
100
AcDbEntity
  8
モデル
 62
     0
370
    -2
100
AcDbLine
 10
426.7195722564937
 20
129.4952828805268
 30
0.0
 11
395.9148832151969
 21
129.4952828805268
 31
0.0
  0
LINE
  5
6723
330
671F
100
AcDbEntity
  8
モデル
 62
     0
370
    -2
100
AcDbLine
 10
426.7195722564937
 20
212.6952828805267
 30
0.0
 11
395.9148832151969
 21
212.6952828805267
 31
0.0
  0
LINE
  5
6724
330
671F
100
AcDbEntity
  8
モデル
 62
     0
370
    -2
100
AcDbLine
 10
395.9148832151969
 20
131.4952828805268
 30
0.0
 11
395.9148832151969
 21
210.6952828805267
 31
0.0
  0
INSERT
  5
6725
330
671F
100
AcDbEntity
  8
モデル
 62
     0
370
    -2
100
AcDbBlockReference
  2
_DOT
 10
395.9148832151969
 20
129.4952828805268
 30
0.0
 41
2.0
 42
2.0
 43
2.0
 50
270.0
  0
INSERT
  5
6726
330
671F
100
AcDbEntity
  8
モデル
 62
     0
370
    -2
100
AcDbBlockReference
  2
_DOT
 10
395.9148832151969
 20
212.6952828805267
 30
0.0
 41
2.0
 42
2.0
 43
2.0
 50
90.0
  0
MTEXT
  5
6727
330
671F
100
AcDbEntity
  8
モデル
 62
     0
100
AcDbMText
 10
392.4139453635025
 20
171.0952828805268
 30
0.0
 40
5.0
 41
0.0
 46
0.0
 71
     5
 72
     1
  1
\A1;83.5
  7
ＭＳ ゴシック
 11
0.0
 21
1.0
 31
0.0
 73
     1
 44
1.0
  0
POINT
  5
6728
330
671F
100
AcDbEntity
  8
Defpoints
 62
     0
100
AcDbPoint
 10
431.7195722564937
 20
129.4952828805268
 30
0.0
  0
POINT
  5
6729
330
671F
100
AcDbEntity
  8
Defpoints
 62
     0
100
AcDbPoint
 10
431.7195722564937
 20
212.6952828805267
 30
0.0
  0
POINT
  5
672A
330
671F
100
AcDbEntity
  8
Defpoints
 62
     0
100
AcDbPoint
 10
395.9148832151969
 20
212.6952828805267
 30
0.0
  0
ENDBLK
  5
6721
330
671F
100
AcDbEntity
  8
0
100
AcDbBlockEnd
  0
BLOCK
  5
672F
330
672E
100
AcDbEntity
  8
0
100
AcDbBlockBegin
  2
*D13
 70
     1
 10
0.0
 20
0.0
 30
0.0
  3
*D13
  1

  0
LINE
  5
6731
330
672E
100
AcDbEntity
  8
モデル
 62
     0
370
    -2
100
AcDbLine
 10
425.9195722564938
 20
131.0167825291267
 30
0.0
 11
408.4672331606334
 21
131.0167825291267
 31
0.0
  0
LINE
  5
6732
330
672E
100
AcDbEntity
  8
モデル
 62
     0
370
    -2
100
AcDbLine
 10
425.9195722564938
 20
211.1737832319267
 30
0.0
 11
408.4672331606334
 21
211.1737832319267
 31
0.0
  0
LINE
  5
6733
330
672E
100
AcDbEntity
  8
モデル
 62
     0
370
    -2
100
AcDbLine
 10
408.4672331606334
 20
133.0167825291267
 30
0.0
 11
408.4672331606334
 21
209.1737832319267
 31
0.0
  0
INSERT
  5
6734
330
672E
100
AcDbEntity
  8
モデル
 62
     0
370
    -2
100
AcDbBlockReference
  2
_DOT
 10
408.4672331606334
 20
131.0167825291267
 30
0.0
 41
2.0
 42
2.0
 43
2.0
 50
270.0
  0
INSERT
  5
6735
330
672E
100
AcDbEntity
  8
モデル
 62
     0
370
    -2
100
AcDbBlockReference
  2
_DOT
 10
408.4672331606334
 20
211.1737832319267
 30
0.0
 41
2.0
 42
2.0
 43
2.0
 50
90.0
  0
MTEXT
  5
6736
330
672E
100
AcDbEntity
  8
モデル
 62
     0
100
AcDbMText
 10
404.9672331606334
 20
171.0952828805267
 30
0.0
 40
5.0
 41
0.0
 46
0.0
 71
     5
 72
     1
  1
\A1;80
  7
ＭＳ ゴシック
 11
0.0
 21
1.0
 31
0.0
 73
     1
 44
1.0
  0
POINT
  5
6737
330
672E
100
AcDbEntity
  8
Defpoints
 62
     0
100
AcDbPoint
 10
430.9195722564938
 20
131.0167825291267
 30
0.0
  0
POINT
  5
6738
330
672E
100
AcDbEntity
  8
Defpoints
 62
     0
100
AcDbPoint
 10
430.9195722564938
 20
211.1737832319267
 30
0.0
  0
POINT
  5
6739
330
672E
100
AcDbEntity
  8
Defpoints
 62
     0
100
AcDbPoint
 10
408.4672331606334
 20
211.1737832319267
 30
0.0
  0
ENDBLK
  5
6730
330
672E
100
AcDbEntity
  8
0
100
AcDbBlockEnd
  0
BLOCK
  5
673E
330
673D
100
AcDbEntity
  8
0
100
AcDbBlockBegin
  2
*D14
 70
     1
 10
0.0
 20
0.0
 30
0.0
  3
*D14
  1

  0
LINE
  5
6740
330
673D
100
AcDbEntity
  8
モデル
 62
     0
370
    -2
100
AcDbLine
 10
430.9195722564938
 20
126.0167825291267
 30
0.0
 11
430.9195722564938
 21
111.3506368030593
 31
0.0
  0
LINE
  5
6741
330
673D
100
AcDbEntity
  8
モデル
 62
     0
370
    -2
100
AcDbLine
 10
419.7195722564937
 20
127.0252660960417
 30
0.0
 11
419.7195722564937
 21
111.3506368030593
 31
0.0
  0
LINE
  5
6742
330
673D
100
AcDbEntity
  8
モデル
 62
     0
370
    -2
100
AcDbLine
 10
428.9195722564938
 20
111.3506368030593
 30
0.0
 11
421.7195722564937
 21
111.3506368030593
 31
0.0
  0
INSERT
  5
6743
330
673D
100
AcDbEntity
  8
モデル
 62
     0
370
    -2
100
AcDbBlockReference
  2
_DOT
 10
430.9195722564938
 20
111.3506368030593
 30
0.0
 41
2.0
 42
2.0
 43
2.0
  0
INSERT
  5
6744
330
673D
100
AcDbEntity
  8
モデル
 62
     0
370
    -2
100
AcDbBlockReference
  2
_DOT
 10
419.7195722564937
 20
111.3506368030593
 30
0.0
 41
2.0
 42
2.0
 43
2.0
 50
180.0
  0
MTEXT
  5
6745
330
673D
100
AcDbEntity
  8
モデル
 62
     0
100
AcDbMText
 10
425.7195722564937
 20
114.6014808695843
 30
0.0
 40
4.5
 41
0.0
 46
0.0
 71
     5
 72
     1
  1
\A1;11
  7
ＭＳ ゴシック
 73
     1
 44
1.0
  0
POINT
  5
6746
330
673D
100
AcDbEntity
  8
Defpoints
 62
     0
100
AcDbPoint
 10
430.9195722564938
 20
131.0167825291267
 30
0.0
  0
POINT
  5
6747
330
673D
100
AcDbEntity
  8
Defpoints
 62
     0
100
AcDbPoint
 10
419.7195722564937
 20
132.0252660960417
 30
0.0
  0
POINT
  5
6748
330
673D
100
AcDbEntity
  8
Defpoints
 62
     0
100
AcDbPoint
 10
419.7195722564937
 20
111.3506368030593
 30
0.0
  0
ENDBLK
  5
673F
330
673D
100
AcDbEntity
  8
0
100
AcDbBlockEnd
  0
BLOCK
  5
6750
330
674F
100
AcDbEntity
  8
0
100
AcDbBlockBegin
  2
*D15
 70
     1
 10
0.0
 20
0.0
 30
0.0
  3
*D15
  1

  0
LINE
  5
6752
330
674F
100
AcDbEntity
  8
モデル
 62
     0
370
    -2
100
AcDbLine
 10
250.7993733572578
 20
330.8089304832419
 30
0.0
 11
250.7993733572578
 21
310.4503511538186
 31
0.0
  0
LINE
  5
6753
330
674F
100
AcDbEntity
  8
モデル
 62
     0
370
    -2
100
AcDbLine
 10
333.9993733572578
 20
330.8089304832417
 30
0.0
 11
333.9993733572578
 21
310.4503511538186
 31
0.0
  0
LINE
  5
6754
330
674F
100
AcDbEntity
  8
モデル
 62
     0
370
    -2
100
AcDbLine
 10
252.7993733572578
 20
310.4503511538186
 30
0.0
 11
331.9993733572578
 21
310.4503511538186
 31
0.0
  0
INSERT
  5
6755
330
674F
100
AcDbEntity
  8
モデル
 62
     0
370
    -2
100
AcDbBlockReference
  2
_DOT
 10
250.7993733572578
 20
310.4503511538186
 30
0.0
 41
2.0
 42
2.0
 43
2.0
 50
180.0
  0
INSERT
  5
6756
330
674F
100
AcDbEntity
  8
モデル
 62
     0
370
    -2
100
AcDbBlockReference
  2
_DOT
 10
333.9993733572578
 20
310.4503511538186
 30
0.0
 41
2.0
 42
2.0
 43
2.0
  0
MTEXT
  5
6757
330
674F
100
AcDbEntity
  8
モデル
 62
     0
100
AcDbMText
 10
292.3993733572578
 20
313.951289005513
 30
0.0
 40
5.0
 41
0.0
 46
0.0
 71
     5
 72
     1
  1
\A1;83.5
  7
ＭＳ ゴシック
 73
     1
 44
1.0
  0
POINT
  5
6758
330
674F
100
AcDbEntity
  8
Defpoints
 62
     0
100
AcDbPoint
 10
250.7993733572578
 20
335.8089304832419
 30
0.0
  0
POINT
  5
6759
330
674F
100
AcDbEntity
  8
Defpoints
 62
     0
100
AcDbPoint
 10
333.9993733572578
 20
335.8089304832417
 30
0.0
  0
POINT
  5
675A
330
674F
100
AcDbEntity
  8
Defpoints
 62
     0
100
AcDbPoint
 10
333.9993733572578
 20
310.4503511538186
 30
0.0
  0
ENDBLK
  5
6751
330
674F
100
AcDbEntity
  8
0
100
AcDbBlockEnd
  0
BLOCK
  5
675F
330
675E
100
AcDbEntity
  8
0
100
AcDbBlockBegin
  2
*D16
 70
     1
 10
0.0
 20
0.0
 30
0.0
  3
*D16
  1

  0
LINE
  5
6761
330
675E
100
AcDbEntity
  8
モデル
 62
     0
370
    -2
100
AcDbLine
 10
252.320873005858
 20
343.1089304832419
 30
0.0
 11
252.320873005858
 21
371.4368875205307
 31
0.0
  0
LINE
  5
6762
330
675E
100
AcDbEntity
  8
モデル
 62
     0
370
    -2
100
AcDbLine
 10
332.4778737086579
 20
343.1089304832419
 30
0.0
 11
332.4778737086579
 21
371.4368875205307
 31
0.0
  0
LINE
  5
6763
330
675E
100
AcDbEntity
  8
モデル
 62
     0
370
    -2
100
AcDbLine
 10
254.320873005858
 20
371.4368875205307
 30
0.0
 11
330.4778737086579
 21
371.4368875205307
 31
0.0
  0
INSERT
  5
6764
330
675E
100
AcDbEntity
  8
モデル
 62
     0
370
    -2
100
AcDbBlockReference
  2
_DOT
 10
252.320873005858
 20
371.4368875205307
 30
0.0
 41
2.0
 42
2.0
 43
2.0
 50
180.0
  0
INSERT
  5
6765
330
675E
100
AcDbEntity
  8
モデル
 62
     0
370
    -2
100
AcDbBlockReference
  2
_DOT
 10
332.4778737086579
 20
371.4368875205307
 30
0.0
 41
2.0
 42
2.0
 43
2.0
  0
MTEXT
  5
6766
330
675E
100
AcDbEntity
  8
モデル
 62
     0
100
AcDbMText
 10
292.3993733572579
 20
374.9368875205307
 30
0.0
 40
5.0
 41
0.0
 46
0.0
 71
     5
 72
     1
  1
\A1;80
  7
ＭＳ ゴシック
 73
     1
 44
1.0
  0
POINT
  5
6767
330
675E
100
AcDbEntity
  8
Defpoints
 62
     0
100
AcDbPoint
 10
252.320873005858
 20
338.1089304832419
 30
0.0
  0
POINT
  5
6768
330
675E
100
AcDbEntity
  8
Defpoints
 62
     0
100
AcDbPoint
 10
332.4778737086579
 20
338.1089304832419
 30
0.0
  0
POINT
  5
6769
330
675E
100
AcDbEntity
  8
Defpoints
 62
     0
100
AcDbPoint
 10
332.4778737086579
 20
371.4368875205307
 30
0.0
  0
ENDBLK
  5
6760
330
675E
100
AcDbEntity
  8
0
100
AcDbBlockEnd
  0
BLOCK
  5
6AF6
330
6AF5
100
AcDbEntity
  8
0
100
AcDbBlockBegin
  2
_Open30
 70
     0
 10
0.0
 20
0.0
 30
0.0
  3
_Open30
  1
_Open30
  0
LINE
  5
6AF7
330
6AF5
100
AcDbEntity
  8
0
  6
ByBlock
 62
     0
370
    -2
100
AcDbLine
 10
-1.0
 20
0.26794919
 30
0.0
 11
0.0
 21
0.0
 31
0.0
  0
LINE
  5
6AF8
330
6AF5
100
AcDbEntity
  8
0
  6
ByBlock
 62
     0
370
    -2
100
AcDbLine
 10
0.0
 20
0.0
 30
0.0
 11
-1.0
 21
-0.26794919
 31
0.0
  0
LINE
  5
6AF9
330
6AF5
100
AcDbEntity
  8
0
  6
ByBlock
 62
     0
370
    -2
100
AcDbLine
 10
0.0
 20
0.0
 30
0.0
 11
-1.0
 21
0.0
 31
0.0
  0
ENDBLK
  5
6AFA
330
6AF5
100
AcDbEntity
  8
0
100
AcDbBlockEnd
  0
BLOCK
  5
6B38
330
6B37
100
AcDbEntity
  8
0
100
AcDbBlockBegin
  2
*D18
 70
     1
 10
0.0
 20
0.0
 30
0.0
  3
*D18
  1

  0
LINE
  5
6B3A
330
6B37
100
AcDbEntity
  8
モデル
 62
     0
370
    -2
100
AcDbLine
 10
419.7195722564937
 20
127.408907419734
 30
0.0
 11
419.7195722564937
 21
101.5411021962658
 31
0.0
  0
LINE
  5
6B3B
330
6B37
100
AcDbEntity
  8
モデル
 62
     0
370
    -2
100
AcDbLine
 10
433.2195722564937
 20
125.8550050605089
 30
0.0
 11
433.2195722564937
 21
101.5411021962658
 31
0.0
  0
LINE
  5
6B3C
330
6B37
100
AcDbEntity
  8
モデル
 62
     0
370
    -2
100
AcDbLine
 10
421.7195722564937
 20
101.5411021962658
 30
0.0
 11
431.2195722564937
 21
101.5411021962658
 31
0.0
  0
INSERT
  5
6B3D
330
6B37
100
AcDbEntity
  8
モデル
 62
     0
370
    -2
100
AcDbBlockReference
  2
_DOT
 10
419.7195722564937
 20
101.5411021962658
 30
0.0
 41
2.0
 42
2.0
 43
2.0
 50
180.0
  0
INSERT
  5
6B3E
330
6B37
100
AcDbEntity
  8
モデル
 62
     0
370
    -2
100
AcDbBlockReference
  2
_DOT
 10
433.2195722564937
 20
101.5411021962658
 30
0.0
 41
2.0
 42
2.0
 43
2.0
  0
MTEXT
  5
6B3F
330
6B37
100
AcDbEntity
  8
モデル
 62
     0
100
AcDbMText
 10
426.4695722564937
 20
105.0420400479602
 30
0.0
 40
5.0
 41
0.0
 46
0.0
 71
     5
 72
     1
  1
\A1;14
  7
ＭＳ ゴシック
 73
     1
 44
1.0
  0
POINT
  5
6B40
330
6B37
100
AcDbEntity
  8
Defpoints
 62
     0
100
AcDbPoint
 10
419.7195722564937
 20
132.408907419734
 30
0.0
  0
POINT
  5
6B41
330
6B37
100
AcDbEntity
  8
Defpoints
 62
     0
100
AcDbPoint
 10
433.2195722564937
 20
130.8550050605089
 30
0.0
  0
POINT
  5
6B42
330
6B37
100
AcDbEntity
  8
Defpoints
 62
     0
100
AcDbPoint
 10
433.2195722564937
 20
101.5411021962658
 30
0.0
  0
ENDBLK
  5
6B39
330
6B37
100
AcDbEntity
  8
0
100
AcDbBlockEnd
  0
BLOCK
  5
6B49
330
6B48
100
AcDbEntity
  8
0
100
AcDbBlockBegin
  2
*D19
 70
     1
 10
0.0
 20
0.0
 30
0.0
  3
*D19
  1

  0
LINE
  5
6B4B
330
6B48
100
AcDbEntity
  8
モデル
 62
     0
370
    -2
100
AcDbLine
 10
169.4061832874424
 20
367.622933043926
 30
0.0
 11
169.4061832874424
 21
383.2102648994734
 31
0.0
  0
LINE
  5
6B4C
330
6B48
100
AcDbEntity
  8
モデル
 62
     0
370
    -2
100
AcDbLine
 10
155.9061832874424
 20
363.316063969525
 30
0.0
 11
155.9061832874424
 21
383.2102648994734
 31
0.0
  0
LINE
  5
6B4D
330
6B48
100
AcDbEntity
  8
モデル
 62
     0
370
    -2
100
AcDbLine
 10
167.4061832874424
 20
383.2102648994734
 30
0.0
 11
157.9061832874424
 21
383.2102648994734
 31
0.0
  0
INSERT
  5
6B4E
330
6B48
100
AcDbEntity
  8
モデル
 62
     0
370
    -2
100
AcDbBlockReference
  2
_DOT
 10
169.4061832874424
 20
383.2102648994734
 30
0.0
 41
2.0
 42
2.0
 43
2.0
  0
INSERT
  5
6B4F
330
6B48
100
AcDbEntity
  8
モデル
 62
     0
370
    -2
100
AcDbBlockReference
  2
_DOT
 10
155.9061832874424
 20
383.2102648994734
 30
0.0
 41
2.0
 42
2.0
 43
2.0
 50
180.0
  0
MTEXT
  5
6B50
330
6B48
100
AcDbEntity
  8
モデル
 62
     0
100
AcDbMText
 10
162.6561832874424
 20
386.7112027511678
 30
0.0
 40
5.0
 41
0.0
 46
0.0
 71
     5
 72
     1
  1
\A1;14
  7
ＭＳ ゴシック
 73
     1
 44
1.0
  0
POINT
  5
6B51
330
6B48
100
AcDbEntity
  8
Defpoints
 62
     0
100
AcDbPoint
 10
169.4061832874424
 20
362.622933043926
 30
0.0
  0
POINT
  5
6B52
330
6B48
100
AcDbEntity
  8
Defpoints
 62
     0
100
AcDbPoint
 10
155.9061832874424
 20
358.316063969525
 30
0.0
  0
POINT
  5
6B53
330
6B48
100
AcDbEntity
  8
Defpoints
 62
     0
100
AcDbPoint
 10
155.9061832874424
 20
383.2102648994734
 30
0.0
  0
ENDBLK
  5
6B4A
330
6B48
100
AcDbEntity
  8
0
100
AcDbBlockEnd
  0
BLOCK
  5
6BA6
330
6BA5
100
AcDbEntity
  8
0
100
AcDbBlockBegin
  2
*D20
 70
     1
 10
0.0
 20
0.0
 30
0.0
  3
*D20
  1

  0
LINE
  5
6BA8
330
6BA5
100
AcDbEntity
  8
モデル
 62
     0
370
    -2
100
AcDbLine
 10
337.7192694478902
 20
335.8089304832417
 30
0.0
 11
365.1953669509809
 21
335.8089304832417
 31
0.0
  0
LINE
  5
6BA9
330
6BA5
100
AcDbEntity
  8
モデル
 62
     0
370
    -2
100
AcDbLine
 10
333.8130501434549
 20
349.3089304832417
 30
0.0
 11
365.1953669509809
 21
349.3089304832417
 31
0.0
  0
LINE
  5
6BAA
330
6BA5
100
AcDbEntity
  8
モデル
 62
     0
370
    -2
100
AcDbLine
 10
365.1953669509809
 20
337.8089304832417
 30
0.0
 11
365.1953669509809
 21
347.3089304832417
 31
0.0
  0
INSERT
  5
6BAB
330
6BA5
100
AcDbEntity
  8
モデル
 62
     0
370
    -2
100
AcDbBlockReference
  2
_DOT
 10
365.1953669509809
 20
335.8089304832417
 30
0.0
 41
2.0
 42
2.0
 43
2.0
 50
270.0
  0
INSERT
  5
6BAC
330
6BA5
100
AcDbEntity
  8
モデル
 62
     0
370
    -2
100
AcDbBlockReference
  2
_DOT
 10
365.1953669509809
 20
349.3089304832417
 30
0.0
 41
2.0
 42
2.0
 43
2.0
 50
90.0
  0
MTEXT
  5
6BAD
330
6BA5
100
AcDbEntity
  8
モデル
 62
     0
100
AcDbMText
 10
361.6944290992865
 20
342.5589304832417
 30
0.0
 40
5.0
 41
0.0
 46
0.0
 71
     5
 72
     1
  1
\A1;14
  7
ＭＳ ゴシック
 11
0.0
 21
1.0
 31
0.0
 73
     1
 44
1.0
  0
POINT
  5
6BAE
330
6BA5
100
AcDbEntity
  8
Defpoints
 62
     0
100
AcDbPoint
 10
332.7192694478902
 20
335.8089304832417
 30
0.0
  0
POINT
  5
6BAF
330
6BA5
100
AcDbEntity
  8
Defpoints
 62
     0
100
AcDbPoint
 10
328.8130501434549
 20
349.3089304832417
 30
0.0
  0
POINT
  5
6BB0
330
6BA5
100
AcDbEntity
  8
Defpoints
 62
     0
100
AcDbPoint
 10
365.1953669509809
 20
349.3089304832417
 30
0.0
  0
ENDBLK
  5
6BA7
330
6BA5
100
AcDbEntity
  8
0
100
AcDbBlockEnd
  0
BLOCK
  5
6BB5
330
6BB4
100
AcDbEntity
  8
0
100
AcDbBlockBegin
  2
*D21
 70
     1
 10
0.0
 20
0.0
 30
0.0
  3
*D21
  1

  0
LINE
  5
6BB7
330
6BB4
100
AcDbEntity
  8
モデル
 62
     0
370
    -2
100
AcDbLine
 10
337.4778737086579
 20
338.1089304832419
 30
0.0
 11
354.9600195991799
 21
338.1089304832419
 31
0.0
  0
LINE
  5
6BB8
330
6BB4
100
AcDbEntity
  8
モデル
 62
     0
370
    -2
100
AcDbLine
 10
334.3634056995579
 20
349.3089304832417
 30
0.0
 11
354.9600195991799
 21
349.3089304832417
 31
0.0
  0
LINE
  5
6BB9
330
6BB4
100
AcDbEntity
  8
モデル
 62
     0
370
    -2
100
AcDbLine
 10
354.9600195991799
 20
340.1089304832419
 30
0.0
 11
354.9600195991799
 21
347.3089304832417
 31
0.0
  0
INSERT
  5
6BBA
330
6BB4
100
AcDbEntity
  8
モデル
 62
     0
370
    -2
100
AcDbBlockReference
  2
_DOT
 10
354.9600195991799
 20
338.1089304832419
 30
0.0
 41
2.0
 42
2.0
 43
2.0
 50
270.0
  0
INSERT
  5
6BBB
330
6BB4
100
AcDbEntity
  8
モデル
 62
     0
370
    -2
100
AcDbBlockReference
  2
_DOT
 10
354.9600195991799
 20
349.3089304832417
 30
0.0
 41
2.0
 42
2.0
 43
2.0
 50
90.0
  0
MTEXT
  5
6BBC
330
6BB4
100
AcDbEntity
  8
モデル
 62
     0
100
AcDbMText
 10
351.4590817474855
 20
343.7089304832418
 30
0.0
 40
5.0
 41
0.0
 46
0.0
 71
     5
 72
     1
  1
\A1;11
  7
ＭＳ ゴシック
 11
0.0
 21
1.0
 31
0.0
 73
     1
 44
1.0
  0
POINT
  5
6BBD
330
6BB4
100
AcDbEntity
  8
Defpoints
 62
     0
100
AcDbPoint
 10
332.4778737086579
 20
338.1089304832419
 30
0.0
  0
POINT
  5
6BBE
330
6BB4
100
AcDbEntity
  8
Defpoints
 62
     0
100
AcDbPoint
 10
329.3634056995579
 20
349.3089304832417
 30
0.0
  0
POINT
  5
6BBF
330
6BB4
100
AcDbEntity
  8
Defpoints
 62
     0
100
AcDbPoint
 10
354.9600195991799
 20
349.3089304832417
 30
0.0
  0
ENDBLK
  5
6BB6
330
6BB4
100
AcDbEntity
  8
0
100
AcDbBlockEnd
  0
BLOCK
  5
6C89
330
6C88
100
AcDbEntity
  8
0
100
AcDbBlockBegin
  2
*D22
 70
     1
 10
0.0
 20
0.0
 30
0.0
  3
*D22
  1

  0
LINE
  5
6C8A
330
6C88
100
AcDbEntity
  8
モデル
 62
     0
370
    -2
100
AcDbLine
 10
3.96246921072003
 20
22.00313656137155
 30
0.0
 11
6.002813555083152
 21
22.00313656137155
 31
0.0
  0
LINE
  5
6C8B
330
6C88
100
AcDbEntity
  8
モデル
 62
     0
370
    -2
100
AcDbLine
 10
3.96246921072003
 20
1.0
 30
0.0
 11
6.002813555083151
 21
1.0
 31
0.0
  0
LINE
  5
6C8C
330
6C88
100
AcDbEntity
  8
モデル
 62
     0
370
    -2
100
AcDbLine
 10
6.002813555083152
 20
20.00313656137155
 30
0.0
 11
6.002813555083151
 21
3.0
 31
0.0
  0
INSERT
  5
6C8D
330
6C88
100
AcDbEntity
  8
モデル
 62
     0
370
    -2
100
AcDbBlockReference
  2
_DOT
 10
6.002813555083152
 20
22.00313656137155
 30
0.0
 41
2.0
 42
2.0
 43
2.0
 50
90.0
  0
INSERT
  5
6C8E
330
6C88
100
AcDbEntity
  8
モデル
 62
     0
370
    -2
100
AcDbBlockReference
  2
_DOT
 10
6.002813555083151
 20
1.0
 30
0.0
 41
2.0
 42
2.0
 43
2.0
 50
270.0
  0
MTEXT
  5
6C8F
330
6C88
100
AcDbEntity
  8
モデル
 62
     0
100
AcDbMText
 10
2.501875703388766
 20
11.50156828068577
 30
0.0
 40
5.0
 41
0.0
 46
0.0
 71
     5
 72
     1
  1
\A1;21
  7
ＭＳ ゴシック
 11
4.228789433925032E-17
 21
1.0
 31
0.0
 73
     1
 44
1.0
  0
POINT
  5
6C90
330
6C88
100
AcDbEntity
  8
Defpoints
 62
     0
100
AcDbPoint
 10
8.96246921072003
 20
22.00313656137155
 30
0.0
  0
POINT
  5
6C91
330
6C88
100
AcDbEntity
  8
Defpoints
 62
     0
100
AcDbPoint
 10
8.96246921072003
 20
1.0
 30
0.0
  0
POINT
  5
6C92
330
6C88
100
AcDbEntity
  8
Defpoints
 62
     0
100
AcDbPoint
 10
6.002813555083151
 20
1.0
 30
0.0
  0
ENDBLK
  5
6C93
330
6C88
100
AcDbEntity
  8
0
100
AcDbBlockEnd
  0
BLOCK
  5
6C9F
330
6C9E
100
AcDbEntity
  8
0
100
AcDbBlockBegin
  2
*D23
 70
     1
 10
0.0
 20
0.0
 30
0.0
  3
*D23
  1

  0
LINE
  5
6CA1
330
6C9E
100
AcDbEntity
  8
モデル
 62
     0
370
    -2
100
AcDbLine
 10
269.2016608379632
 20
192.0984194418982
 30
0.0
 11
271.2420051823263
 21
192.0984194418982
 31
0.0
  0
LINE
  5
6CA2
330
6C9E
100
AcDbEntity
  8
モデル
 62
     0
370
    -2
100
AcDbLine
 10
269.2016608379632
 20
171.0952828805267
 30
0.0
 11
271.2420051823263
 21
171.0952828805267
 31
0.0
  0
LINE
  5
6CA3
330
6C9E
100
AcDbEntity
  8
モデル
 62
     0
370
    -2
100
AcDbLine
 10
271.2420051823263
 20
190.0984194418982
 30
0.0
 11
271.2420051823263
 21
173.0952828805267
 31
0.0
  0
INSERT
  5
6CA4
330
6C9E
100
AcDbEntity
  8
モデル
 62
     0
370
    -2
100
AcDbBlockReference
  2
_DOT
 10
271.2420051823263
 20
192.0984194418982
 30
0.0
 41
2.0
 42
2.0
 43
2.0
 50
90.0
  0
INSERT
  5
6CA5
330
6C9E
100
AcDbEntity
  8
モデル
 62
     0
370
    -2
100
AcDbBlockReference
  2
_DOT
 10
271.2420051823263
 20
171.0952828805267
 30
0.0
 41
2.0
 42
2.0
 43
2.0
 50
270.0
  0
MTEXT
  5
6CA6
330
6C9E
100
AcDbEntity
  8
モデル
 62
     0
100
AcDbMText
 10
267.7410673306319
 20
181.5968511612125
 30
0.0
 40
5.0
 41
0.0
 46
0.0
 71
     5
 72
     1
  1
\A1;21
  7
ＭＳ ゴシック
 11
0.0
 21
1.0
 31
0.0
 73
     1
 44
1.0
  0
POINT
  5
6CA7
330
6C9E
100
AcDbEntity
  8
Defpoints
 62
     0
100
AcDbPoint
 10
274.2016608379632
 20
192.0984194418982
 30
0.0
  0
POINT
  5
6CA8
330
6C9E
100
AcDbEntity
  8
Defpoints
 62
     0
100
AcDbPoint
 10
274.2016608379632
 20
171.0952828805267
 30
0.0
  0
POINT
  5
6CA9
330
6C9E
100
AcDbEntity
  8
Defpoints
 62
     0
100
AcDbPoint
 10
271.2420051823263
 20
171.0952828805267
 30
0.0
  0
ENDBLK
  5
6CA0
330
6C9E
100
AcDbEntity
  8
0
100
AcDbBlockEnd
  0
BLOCK
  5
6D13
330
6D12
100
AcDbEntity
  8
0
100
AcDbBlockBegin
  2
*D25
 70
     1
 10
0.0
 20
0.0
 30
0.0
  3
*D25
  1

  0
LINE
  5
6D15
330
6D12
100
AcDbEntity
  8
モデル
 62
     0
370
    -2
100
AcDbLine
 10
347.1900057401195
 20
173.0952828805268
 30
0.0
 11
347.1900057401195
 21
190.0984194418983
 31
0.0
  0
INSERT
  5
6D16
330
6D12
100
AcDbEntity
  8
モデル
 62
     0
370
    -2
100
AcDbBlockReference
  2
_DOT
 10
347.1900057401195
 20
171.0952828805268
 30
0.0
 41
2.0
 42
2.0
 43
2.0
 50
270.0
  0
INSERT
  5
6D17
330
6D12
100
AcDbEntity
  8
モデル
 62
     0
370
    -2
100
AcDbBlockReference
  2
_DOT
 10
347.1900057401195
 20
192.0984194418983
 30
0.0
 41
2.0
 42
2.0
 43
2.0
 50
90.0
  0
MTEXT
  5
6D18
330
6D12
100
AcDbEntity
  8
モデル
 62
     0
100
AcDbMText
 10
343.6890678884251
 20
181.5968511612126
 30
0.0
 40
5.0
 41
0.0
 46
0.0
 71
     5
 72
     1
  1
\A1;21
  7
ＭＳ ゴシック
 11
0.0
 21
1.0
 31
0.0
 73
     1
 44
1.0
  0
POINT
  5
6D19
330
6D12
100
AcDbEntity
  8
Defpoints
 62
     0
100
AcDbPoint
 10
347.1900057401195
 20
171.0952828805268
 30
0.0
  0
POINT
  5
6D1A
330
6D12
100
AcDbEntity
  8
Defpoints
 62
     0
100
AcDbPoint
 10
347.1900057401194
 20
192.0984194418983
 30
0.0
  0
POINT
  5
6D1B
330
6D12
100
AcDbEntity
  8
Defpoints
 62
     0
100
AcDbPoint
 10
347.1900057401195
 20
192.0984194418983
 30
0.0
  0
ENDBLK
  5
6D14
330
6D12
100
AcDbEntity
  8
0
100
AcDbBlockEnd
  0
ENDSEC
  0
SECTION
  2
ENTITIES
  0
LINE
  5
52D6
330
A
100
AcDbEntity
  8
PRINT BORDER
100
AcDbLine
 10
297.0
 20
0.0
 30
0.0
 11
297.0
 21
15.30952622855898
 31
0.0
  0
LINE
  5
52D7
330
A
100
AcDbEntity
  8
テンプレート
100
AcDbLine
 10
437.9999999999999
 20
38.27810890422097
 30
0.0
 11
15.30952622855875
 21
38.27810890422097
 31
0.0
  0
LINE
  5
52D8
330
A
100
AcDbEntity
  8
テンプレート
100
AcDbLine
 10
15.30952622855875
 20
26.22153683920783
 30
0.0
 11
578.6904737714409
 21
26.22153683920783
 31
0.0
  0
LINE
  5
52DB
330
A
100
AcDbEntity
  8
テンプレート
100
AcDbLine
 10
437.9999999999999
 20
50.16496477419605
 30
0.0
 11
15.30952622855875
 21
50.16496477419605
 31
0.0
  0
LINE
  5
52DC
330
A
100
AcDbEntity
  8
テンプレート
100
AcDbLine
 10
578.6904737714409
 20
62.22153683920783
 30
0.0
 11
15.30952622855875
 21
62.22153683920783
 31
0.0
  0
LINE
  5
52DD
330
A
100
AcDbEntity
  8
PRINT BORDER
100
AcDbLine
 10
593.9999999999999
 20
210.0
 30
0.0
 11
578.6904737714409
 21
210.0
 31
0.0
  0
LINE
  5
52DE
330
A
100
AcDbEntity
  8
PRINT BORDER
100
AcDbLine
 10
0.0
 20
210.0
 30
0.0
 11
15.30952622855875
 21
210.0
 31
0.0
  0
LINE
  5
52DF
330
A
100
AcDbEntity
  8
PRINT BORDER
100
AcDbLine
 10
297.0
 20
420.0
 30
0.0
 11
297.0
 21
404.690473771441
 31
0.0
  0
LINE
  5
52E0
330
A
100
AcDbEntity
  8
テンプレート
100
AcDbLine
 10
578.6904737714409
 20
62.22153683920783
 30
0.0
 11
578.6904737714409
 21
26.22153683920783
 31
0.0
  0
LINE
  5
52E1
330
A
100
AcDbEntity
  8
テンプレート
100
AcDbLine
 10
15.30952622855875
 20
62.22153683920783
 30
0.0
 11
15.30952622855875
 21
26.22153683920783
 31
0.0
  0
TEXT
  5
52E3
330
A
100
AcDbEntity
  8
テンプレート
100
AcDbText
 10
494.9733384955219
 20
16.51938390313694
 30
0.0
 40
5.5
  1
大洋金物株式会社  
  7
ＭＳ ゴシック
100
AcDbText
  0
LINE
  5
52E4
330
A
100
AcDbEntity
  8
テンプレート
100
AcDbLine
 10
437.9999999999999
 20
62.22153683920783
 30
0.0
 11
437.9999999999999
 21
26.22153683920783
 31
0.0
  0
LINE
  5
52E5
330
A
100
AcDbEntity
  8
テンプレート
100
AcDbLine
 10
297.0
 20
62.22153683920783
 30
0.0
 11
297.0
 21
26.22153683920783
 31
0.0
  0
INSERT
  5
52E6
330
A
100
AcDbEntity
  8
テンプレート
100
AcDbBlockReference
  2
名称未設定-1
 10
548.3945198859809
 20
-7.642344203993161
 30
0.0
 41
0.180975
 42
0.180975
 43
0.180975
  0
TEXT
  5
52E7
330
A
100
AcDbEntity
  8
テンプレート
100
AcDbText
 10
18.42255191974346
 20
18.90483678917599
 30
0.0
 40
4.0
  1
20220302M
  7
ＭＳ ゴシック
100
AcDbText
  0
LINE
  5
52E8
330
A
100
AcDbEntity
  8
テンプレート
100
AcDbLine
 10
15.30952622855875
 20
210.0
 30
0.0
 11
15.30952622855875
 21
26.22153683920783
 31
0.0
  0
LINE
  5
52E9
330
A
100
AcDbEntity
  8
テンプレート
100
AcDbLine
 10
15.30952622855875
 20
210.0
 30
0.0
 11
15.30952622855875
 21
404.690473771441
 31
0.0
  0
LINE
  5
52EA
330
A
100
AcDbEntity
  8
テンプレート
100
AcDbLine
 10
297.0
 20
404.690473771441
 30
0.0
 11
15.30952622855875
 21
404.690473771441
 31
0.0
  0
LINE
  5
52EB
330
A
100
AcDbEntity
  8
テンプレート
100
AcDbLine
 10
297.0
 20
404.690473771441
 30
0.0
 11
578.6904737714409
 21
404.690473771441
 31
0.0
  0
LINE
  5
52EC
330
A
100
AcDbEntity
  8
テンプレート
100
AcDbLine
 10
578.6904737714409
 20
210.0
 30
0.0
 11
578.6904737714409
 21
404.690473771441
 31
0.0
  0
LINE
  5
52ED
330
A
100
AcDbEntity
  8
テンプレート
100
AcDbLine
 10
578.6904737714409
 20
210.0
 30
0.0
 11
578.6904737714409
 21
26.22153683920783
 31
0.0
  0
LWPOLYLINE
  5
52EE
330
A
100
AcDbEntity
  8
PRINT BORDER
  6
HIDDEN
 48
3.0
100
AcDbPolyline
 90
        4
 70
     1
 43
0.0
 10
0.0
 20
0.0
 10
0.0
 20
420.0
 10
593.9999999999999
 20
420.0
 10
593.9999999999999
 20
0.0
  0
TEXT
  5
5F97
330
A
100
AcDbEntity
  8
テンプレート
100
AcDbText
 10
17.11905019860153
 20
56.80348882321775
 30
0.0
 40
3.5
  1
品名
  7
ＭＳ ゴシック
100
AcDbText
  0
TEXT
  5
5F98
330
A
100
AcDbEntity
  8
テンプレート
100
AcDbText
 10
297.8811817213915
 20
56.87912905958589
 30
0.0
 40
3.5
  1
品番
  7
ＭＳ ゴシック
100
AcDbText
  0
TEXT
  5
5F99
330
A
100
AcDbEntity
  8
テンプレート
100
AcDbText
 10
439.1465856708076
 20
56.87912905958589
 30
0.0
 40
3.5
  1
備考
  7
ＭＳ ゴシック
100
AcDbText
  0
TEXT
  5
5F9A
330
A
100
AcDbEntity
  8
テンプレート
100
AcDbText
 10
297.8567488256826
 20
32.91795196468179
 30
0.0
 40
3.5
  1
縮尺
  7
ＭＳ ゴシック
100
AcDbText
  0
TEXT
  5
5F9B
330
A
100
AcDbEntity
  8
テンプレート
100
AcDbText
 10
312.074953745907
 20
28.58751923875886
 30
0.0
 40
5.5
  1
1/2
  7
ＭＳ ゴシック
100
AcDbText
  0
TEXT
  5
5F9C
330
A
100
AcDbEntity
  8
テンプレート
100
AcDbText
 10
312.3769506891749
 20
53.54218539362975
 30
0.0
 40
5.5
  1
FSB17-4264S
  7
ＭＳ ゴシック
100
AcDbText
  0
LWPOLYLINE
  5
5F9D
330
A
100
AcDbEntity
  8
モデル
 62
   251
370
    20
100
AcDbPolyline
 90
        4
 70
     1
 43
0.0
 10
137.9061832874426
 20
117.0984194418984
 10
137.9061832874426
 20
267.0984194418986
 10
157.9061832874426
 20
267.0984194418986
 10
157.9061832874426
 20
117.0984194418984
  0
LINE
  5
5F9E
330
A
100
AcDbEntity
  8
モデル
 62
   251
370
    20
100
AcDbLine
 10
152.9061832874426
 20
192.1520966218523
 30
0.0
 11
152.9061832874426
 21
219.0984194418983
 31
0.0
  0
LINE
  5
5F9F
330
A
100
AcDbEntity
  8
モデル
 62
   251
370
    20
100
AcDbLine
 10
142.9061832874426
 20
219.0984194418983
 30
0.0
 11
142.9061832874426
 21
192.1520966218523
 31
0.0
  0
LINE
  5
5FA0
330
A
100
AcDbEntity
  8
モデル
 62
   251
370
    20
100
AcDbLine
 10
152.9061832874426
 20
219.0984194418983
 30
0.0
 11
142.9061832874426
 21
219.0984194418983
 31
0.0
  0
LINE
  5
5FA1
330
A
100
AcDbEntity
  8
モデル
 62
   251
370
    20
100
AcDbLine
 10
152.9061832874426
 20
192.1520966218523
 30
0.0
 11
142.9061832874426
 21
192.1520966218523
 31
0.0
  0
LINE
  5
5FA2
330
A
100
AcDbEntity
  8
モデル
100
AcDbLine
 10
237.3993733572578
 20
205.0984194418986
 30
0.0
 11
237.3993733572578
 21
179.0984194418986
 31
0.0
  0
LINE
  5
5FA3
330
A
100
AcDbEntity
  8
モデル
100
AcDbLine
 10
237.3993733572578
 20
179.0984194418986
 30
0.0
 11
237.3993733572578
 21
147.0984194418984
 31
0.0
  0
LINE
  5
5FA4
330
A
100
AcDbEntity
  8
モデル
 62
   251
370
    20
100
AcDbLine
 10
237.3993733572578
 20
117.0984194418985
 30
0.0
 11
237.3993733572578
 21
267.0984194418986
 31
0.0
  0
LINE
  5
5FA5
102
{ACAD_REACTORS
330
670F
102
}
330
A
100
AcDbEntity
  8
モデル
 62
   251
370
    20
100
AcDbLine
 10
237.3993733572578
 20
117.0984194418985
 30
0.0
 11
240.3993733572578
 21
117.0984194418985
 31
0.0
  0
LINE
  5
5FA6
330
A
100
AcDbEntity
  8
モデル
 62
   251
370
    20
100
AcDbLine
 10
240.3993733572578
 20
117.0984194418985
 30
0.0
 11
240.3993733572578
 21
267.0984194418986
 31
0.0
  0
LINE
  5
5FA7
330
A
100
AcDbEntity
  8
モデル
  6
HIDDEN
 62
   251
 48
0.6
370
    20
100
AcDbLine
 10
258.4183412200812
 20
147.0984194418986
 30
0.0
 11
318.7898085056248
 21
147.0984194418986
 31
0.0
  0
LINE
  5
5FA8
330
A
100
AcDbEntity
  8
モデル
 62
   251
370
    20
100
AcDbLine
 10
258.2993733572578
 20
237.0984194418986
 30
0.0
 11
240.3993733572578
 21
237.0984194418986
 31
0.0
  0
LINE
  5
5FA9
330
A
100
AcDbEntity
  8
モデル
 62
   251
370
    20
100
AcDbLine
 10
240.3993733572578
 20
267.0984194418986
 30
0.0
 11
237.3993733572578
 21
267.0984194418986
 31
0.0
  0
LINE
  5
5FAA
330
A
100
AcDbEntity
  8
モデル
  6
HIDDEN
 62
   251
 48
0.6
370
    20
100
AcDbLine
 10
322.3993733572578
 20
150.8220634593611
 30
0.0
 11
322.3993733572578
 21
199.9147207653988
 31
0.0
  0
TEXT
  5
5FAB
330
A
100
AcDbEntity
  8
テンプレート
100
AcDbText
 10
31.7727482505483
 20
53.54218539362975
 30
0.0
 40
5.5
  1
引手付き鎌錠セット(片面)
  7
ＭＳ ゴシック
100
AcDbText
  0
LINE
  5
5FAD
330
A
100
AcDbEntity
  8
モデル
 48
0.3
100
AcDbLine
 10
288.3993733572578
 20
167.0952828805268
 30
0.0
 11
288.3993733572578
 21
175.0952828805268
 31
0.0
  0
LINE
  5
5FAE
330
A
100
AcDbEntity
  8
モデル
 48
0.3
100
AcDbLine
 10
288.3993733572578
 20
175.0952828805268
 30
0.0
 11
296.3993733572578
 21
175.0952828805268
 31
0.0
  0
LINE
  5
5FAF
330
A
100
AcDbEntity
  8
モデル
 48
0.3
100
AcDbLine
 10
296.3993733572578
 20
175.0952828805268
 30
0.0
 11
296.3993733572578
 21
167.0952828805268
 31
0.0
  0
LINE
  5
5FB0
102
{ACAD_REACTORS
330
670F
102
}
330
A
100
AcDbEntity
  8
モデル
 48
0.3
100
AcDbLine
 10
288.3993733572578
 20
167.0952828805268
 30
0.0
 11
296.3993733572578
 21
167.0952828805268
 31
0.0
  0
LINE
  5
5FB6
330
A
100
AcDbEntity
  8
モデル
 62
   251
370
    20
100
AcDbLine
 10
215.3993733572578
 20
200.4909800190246
 30
0.0
 11
221.736655961436
 21
192.1520966218523
 31
0.0
  0
ARC
  5
5FB7
330
A
100
AcDbEntity
  8
モデル
 62
   251
370
    20
100
AcDbCircle
 10
254.1732256373927
 20
176.9570407556409
 30
0.0
 40
45.35700516893012
100
AcDbArc
 50
111.7044141724678
 51
148.7441811622483
  0
ARC
  5
5FB8
330
A
100
AcDbEntity
  8
モデル
 62
   251
370
    20
100
AcDbCircle
 10
273.18320219482
 20
166.1610105898342
 30
0.0
 40
57.63925461408635
100
AcDbArc
 50
128.3763275388926
 51
153.1968364093262
  0
LINE
  5
5FB9
330
A
100
AcDbEntity
  8
モデル
 62
   251
370
    20
100
AcDbLine
 10
152.9061832874426
 20
200.4909800190245
 30
0.0
 11
142.9061832874426
 21
200.4909800190245
 31
0.0
  0
LINE
  5
5FBA
330
A
100
AcDbEntity
  8
モデル
 62
   251
 48
0.6
370
    20
100
AcDbLine
 10
318.7898085056248
 20
237.0984194418986
 30
0.0
 11
322.3993733572578
 21
233.3747754244359
 31
0.0
  0
LINE
  5
5FBB
330
A
100
AcDbEntity
  8
モデル
  6
HIDDEN
 62
   251
 48
0.6
370
    20
100
AcDbLine
 10
318.7898085056248
 20
147.0984194418986
 30
0.0
 11
322.3993733572578
 21
150.8220634593611
 31
0.0
  0
LINE
  5
6033
330
A
100
AcDbEntity
  8
モデル
 62
   251
370
    20
100
AcDbLine
 10
140.9061832874424
 20
373.8063497955858
 30
0.0
 11
154.9061832874424
 21
373.8063497955859
 31
0.0
  0
LINE
  5
6034
330
A
100
AcDbEntity
  8
モデル
 62
   251
370
    20
100
AcDbLine
 10
137.9061832874426
 20
291.8063497955859
 30
0.0
 11
157.9061832874426
 21
291.8063497955859
 31
0.0
  0
LINE
  5
6035
330
A
100
AcDbEntity
  8
モデル
 62
   251
370
    20
100
AcDbLine
 10
137.9061832874426
 20
288.8063497955859
 30
0.0
 11
157.9061832874426
 21
288.8063497955859
 31
0.0
  0
LINE
  5
6036
330
A
100
AcDbEntity
  8
モデル
 62
   251
370
    20
100
AcDbLine
 10
137.9061832874426
 20
291.8063497955859
 30
0.0
 11
137.9061832874426
 21
288.8063497955859
 31
0.0
  0
LINE
  5
6037
102
{ACAD_REACTORS
330
607A
102
}
330
A
100
AcDbEntity
  8
モデル
 62
   251
370
    20
100
AcDbLine
 10
157.9061832874426
 20
291.8063497955859
 30
0.0
 11
157.9061832874426
 21
288.8063497955859
 31
0.0
  0
LINE
  5
6038
330
A
100
AcDbEntity
  8
モデル
 62
   251
370
    20
100
AcDbLine
 10
140.9061832874426
 20
291.8063497955859
 30
0.0
 11
140.9061832874424
 21
373.8063497955858
 31
0.0
  0
LINE
  5
6039
330
A
100
AcDbEntity
  8
モデル
 62
   251
370
    20
100
AcDbLine
 10
154.9061832874426
 20
291.8063497955859
 30
0.0
 11
154.9061832874424
 21
373.8063497955859
 31
0.0
  0
LINE
  5
603D
330
A
100
AcDbEntity
  8
0
  6
Continuous
 62
     7
370
    25
100
AcDbLine
 10
155.9061832874424
 20
351.2563497955858
 30
0.0
 11
155.4061832874424
 21
351.2563497955858
 31
0.0
  0
LINE
  5
603E
330
A
100
AcDbEntity
  8
0
  6
Continuous
 62
     7
370
    25
100
AcDbLine
 10
155.4061832874425
 20
336.3563497955861
 30
0.0
 11
155.9061832874425
 21
336.3563497955861
 31
0.0
  0
ARC
  5
603F
330
A
100
AcDbEntity
  8
0
  6
Continuous
 62
     7
370
    25
100
AcDbCircle
 10
155.4061832874425
 20
336.8563497955861
 30
0.0
 40
0.5
100
AcDbArc
 50
180.0
 51
270.0
  0
ARC
  5
6040
330
A
100
AcDbEntity
  8
0
  6
Continuous
 62
     7
370
    25
100
AcDbCircle
 10
155.4061832874424
 20
350.7563497955858
 30
0.0
 40
0.5
100
AcDbArc
 50
90.0
 51
180.0
  0
LINE
  5
6044
102
{ACAD_REACTORS
330
607A
102
}
330
A
100
AcDbEntity
  8
0
  6
Continuous
 62
     7
370
    25
100
AcDbLine
 10
169.4087291000425
 20
337.8108071634858
 30
0.0
 11
169.4061832874425
 21
343.8085782093859
 31
0.0
  0
LINE
  5
6045
330
A
100
AcDbEntity
  8
0
  6
Continuous
 62
     7
370
    25
100
AcDbLine
 10
169.4105754999425
 20
333.460807555286
 30
0.0
 11
169.4061832874425
 21
333.4608056909859
 31
0.0
  0
LINE
  5
6046
330
A
100
AcDbEntity
  8
0
  6
Continuous
 62
     7
370
    25
100
AcDbLine
 10
169.4105754999425
 20
333.460807555286
 30
0.0
 11
169.4087291000425
 21
337.8108071634858
 31
0.0
  0
LINE
  5
6047
330
A
100
AcDbEntity
  8
0
  6
Continuous
 62
     7
370
    25
100
AcDbLine
 10
154.9061832874425
 20
336.8563497955861
 30
0.0
 11
154.9061832874424
 21
350.7563497948861
 31
0.0
  0
LINE
  5
6048
330
A
100
AcDbEntity
  8
0
  6
Continuous
 62
     7
370
    25
100
AcDbLine
 10
167.1061832874424
 20
377.118112570886
 30
0.0
 11
167.9061832874424
 21
377.118112570886
 31
0.0
  0
LINE
  5
6049
330
A
100
AcDbEntity
  8
0
  6
Continuous
 62
     7
370
    25
100
AcDbLine
 10
167.1061832874424
 20
377.118112570886
 30
0.0
 11
167.1061832874424
 21
367.0063497955861
 31
0.0
  0
LINE
  5
604A
330
A
100
AcDbEntity
  8
0
  6
Continuous
 62
     7
370
    25
100
AcDbLine
 10
167.1061832874424
 20
367.0063497955861
 30
0.0
 11
167.1061832874426
 21
320.6063497955861
 31
0.0
  0
LINE
  5
604B
330
A
100
AcDbEntity
  8
0
  6
Continuous
 62
     7
370
    25
100
AcDbLine
 10
167.1061832874426
 20
310.494587020286
 30
0.0
 11
167.9061832874426
 21
310.494587020286
 31
0.0
  0
LINE
  5
604C
330
A
100
AcDbEntity
  8
0
  6
Continuous
 62
     7
370
    25
100
AcDbLine
 10
167.1061832874426
 20
320.6063497955861
 30
0.0
 11
167.1061832874426
 21
310.494587020286
 31
0.0
  0
ARC
  5
604D
330
A
100
AcDbEntity
  8
0
  6
Continuous
 62
     7
370
    25
100
AcDbCircle
 10
166.6061832874424
 20
376.384370113886
 30
0.0
 40
0.5000000000000003
100
AcDbArc
 50
273.9999999999964
 51
0.0
  0
ARC
  5
604E
330
A
100
AcDbEntity
  8
0
  6
Continuous
 62
     7
370
    25
100
AcDbCircle
 10
166.6061832874426
 20
311.228329477286
 30
0.0
 40
0.5000000000000003
100
AcDbArc
 50
0.0
 51
86.0000000000035
  0
LINE
  5
604F
330
A
100
AcDbEntity
  8
0
  6
Continuous
 62
     7
370
    25
100
AcDbLine
 10
157.7666703399426
 20
312.3476693858861
 30
0.0
 11
166.6410615243426
 21
311.7271115023859
 31
0.0
  0
LINE
  5
6050
330
A
100
AcDbEntity
  8
0
  6
Continuous
 62
     7
370
    25
100
AcDbLine
 10
157.7666703399424
 20
375.2650302052861
 30
0.0
 11
166.6410615243424
 21
375.885588088786
 31
0.0
  0
LINE
  5
6051
330
A
100
AcDbEntity
  8
0
  6
Continuous
 62
     7
370
    25
100
AcDbLine
 10
155.9061832874425
 20
320.6063497955861
 30
0.0
 11
155.9061832874424
 21
367.0063497955861
 31
0.0
  0
LINE
  5
6052
330
A
100
AcDbEntity
  8
0
  6
Continuous
 62
     7
370
    25
100
AcDbLine
 10
155.9061832874424
 20
367.0063497955861
 30
0.0
 11
155.9061832874424
 21
373.269902104786
 31
0.0
  0
ARC
  5
6053
330
A
100
AcDbEntity
  8
0
  6
Continuous
 62
     7
370
    25
100
AcDbCircle
 10
157.9061832874424
 20
373.269902104786
 30
0.0
 40
2.000000000000001
100
AcDbArc
 50
93.99999999999979
 51
180.0
  0
LINE
  5
6054
330
A
100
AcDbEntity
  8
0
  6
Continuous
 62
     7
370
    25
100
AcDbLine
 10
155.9061832874425
 20
314.342797486386
 30
0.0
 11
155.9061832874425
 21
320.6063497955861
 31
0.0
  0
ARC
  5
6055
330
A
100
AcDbEntity
  8
0
  6
Continuous
 62
     7
370
    25
100
AcDbCircle
 10
157.9061832874425
 20
314.342797486386
 30
0.0
 40
2.000000000000001
100
AcDbArc
 50
180.0
 51
266.0000000000002
  0
LINE
  5
6056
330
A
100
AcDbEntity
  8
0
  6
Continuous
 62
     7
370
    25
100
AcDbLine
 10
169.4061832874424
 20
366.9063497955859
 30
0.0
 11
169.4061832874425
 21
320.706349795586
 31
0.0
  0
LINE
  5
6057
330
A
100
AcDbEntity
  8
0
  6
Continuous
 62
     7
370
    25
100
AcDbLine
 10
167.9061832874424
 20
366.9063497955859
 30
0.0
 11
167.9061832874425
 21
320.706349795586
 31
0.0
  0
LINE
  5
6058
330
A
100
AcDbEntity
  8
0
  6
Continuous
 62
     7
370
    25
100
AcDbLine
 10
169.4061832874425
 20
320.706349795586
 30
0.0
 11
169.4061832874426
 21
309.706349795586
 31
0.0
  0
LINE
  5
6059
330
A
100
AcDbEntity
  8
0
  6
Continuous
 62
     7
370
    25
100
AcDbLine
 10
169.4061832874426
 20
309.706349795586
 30
0.0
 11
167.9061832874426
 21
309.706349795586
 31
0.0
  0
LINE
  5
605A
330
A
100
AcDbEntity
  8
0
  6
Continuous
 62
     7
370
    25
100
AcDbLine
 10
167.9061832874425
 20
320.706349795586
 30
0.0
 11
167.9061832874426
 21
309.706349795586
 31
0.0
  0
LINE
  5
605B
330
A
100
AcDbEntity
  8
0
  6
Continuous
 62
     7
370
    25
100
AcDbLine
 10
169.4061832874424
 20
377.9063497955859
 30
0.0
 11
167.9061832874424
 21
377.9063497955859
 31
0.0
  0
LINE
  5
605C
330
A
100
AcDbEntity
  8
0
  6
Continuous
 62
     7
370
    25
100
AcDbLine
 10
169.4061832874424
 20
377.9063497955859
 30
0.0
 11
169.4061832874424
 21
366.9063497955859
 31
0.0
  0
LINE
  5
605D
330
A
100
AcDbEntity
  8
0
  6
Continuous
 62
     7
370
    25
100
AcDbLine
 10
167.9061832874424
 20
377.9063497955859
 30
0.0
 11
167.9061832874424
 21
366.9063497955859
 31
0.0
  0
LINE
  5
605E
330
A
100
AcDbEntity
  8
モデル
 62
   251
 48
0.6
370
    20
100
AcDbLine
 10
258.2993733572578
 20
237.0984194418986
 30
0.0
 11
318.7898085056248
 21
237.0984194418986
 31
0.0
  0
LINE
  5
605F
330
A
100
AcDbEntity
  8
モデル
 62
   251
370
    20
100
AcDbLine
 10
258.4183412200812
 20
147.0984194418986
 30
0.0
 11
240.3993733572578
 21
147.0984194418986
 31
0.0
  0
DIMENSION
  5
6078
102
{ACAD_REACTORS
330
607A
102
}
102
{ACAD_XDICTIONARY
360
6079
102
}
330
A
100
AcDbEntity
  8
モデル
100
AcDbDimension
  2
*D7
 10
192.5218934432652
 20
343.8085782093859
 30
0.0
 11
189.0209555915708
 21
316.3074640024859
 31
0.0
 70
    32
 71
     5
 42
55.00222841380003
 73
     0
 74
     0
 75
     0
  3
tfrom線あり
100
AcDbAlignedDimension
 13
157.9061832874426
 23
288.8063497955859
 33
0.0
 14
169.4061832874425
 24
343.8085782093859
 34
0.0
 50
90.0
100
AcDbRotatedDimension
1001
ACAD
1000
DSTYLE
1002
{
1070
    41
1040
2.0
1002
}
  0
MTEXT
  5
6084
330
A
100
AcDbEntity
  8
モデル
100
AcDbMText
 10
448.9168733503386
 20
52.43106585902275
 30
0.0
 40
4.666666666666666
 41
117.3770917223399
 46
13.41773651230322
 71
     1
 72
     5
  1
{引手は接着剤による取り付け\P（接着剤は付属されていません）}
  7
ＭＳ ゴシック
 73
     1
 44
1.0
1001
ACAD
1000
ACAD_MTEXT_DEFINED_HEIGHT_BEGIN
1070
    46
1040
13.41773651230322
1000
ACAD_MTEXT_DEFINED_HEIGHT_END
  0
TEXT
  5
6085
330
A
100
AcDbEntity
  8
テンプレート
100
AcDbText
 10
51.87880631763976
 20
41.55613863503734
 30
0.0
 40
4.5
  1
シルバー
  7
ＭＳ ゴシック
100
AcDbText
  0
TEXT
  5
6086
330
A
100
AcDbEntity
  8
テンプレート
100
AcDbText
 10
87.28880412496677
 20
41.71982579921646
 30
0.0
 40
4.5
  1
シルバー/ブラック
  7
ＭＳ ゴシック
100
AcDbText
  0
TEXT
  5
6087
330
A
100
AcDbEntity
  8
テンプレート
100
AcDbText
 10
154.1607843848311
 20
41.47209271655701
 30
0.0
 40
4.5
  1
ブラック
  7
ＭＳ ゴシック
100
AcDbText
  0
TEXT
  5
6088
330
A
100
AcDbEntity
  8
テンプレート
100
AcDbText
 10
188.5486897777212
 20
41.61381603943352
 30
0.0
 40
4.5
  1
ホワイト
  7
ＭＳ ゴシック
100
AcDbText
  0
TEXT
  5
6089
330
A
100
AcDbEntity
  8
テンプレート
100
AcDbText
 10
223.6569079769071
 20
41.72958750646197
 30
0.0
 40
4.5
  1
サテン
  7
ＭＳ ゴシック
100
AcDbText
  0
TEXT
  5
608A
330
A
100
AcDbEntity
  8
テンプレート
100
AcDbText
 10
51.90489522428607
 20
30.28111230724345
 30
0.0
 40
4.5
  1
アルミ
  7
ＭＳ ゴシック
100
AcDbText
  0
TEXT
  5
608B
330
A
100
AcDbEntity
  8
テンプレート
100
AcDbText
 10
224.5145632423399
 20
29.84045455675229
 30
0.0
 40
4.5
  1
ステンレス
  7
ＭＳ ゴシック
100
AcDbText
  0
LINE
  5
608C
330
A
100
AcDbEntity
  8
モデル
  6
Continuous
100
AcDbLine
 10
84.17162165461266
 20
50.16496477419605
 30
0.0
 11
84.17162165461264
 21
38.27810890422097
 31
0.0
  0
LINE
  5
608D
330
A
100
AcDbEntity
  8
モデル
  6
Continuous
100
AcDbLine
 10
151.8246131949936
 20
50.16496477419605
 30
0.0
 11
151.8246131949937
 21
38.57200744070789
 31
0.0
  0
LINE
  5
608E
330
A
100
AcDbEntity
  8
モデル
  6
Continuous
100
AcDbLine
 10
186.0155899534483
 20
50.16496477419605
 30
0.0
 11
186.0155899534483
 21
38.57200744070789
 31
0.0
  0
TEXT
  5
608F
330
A
100
AcDbEntity
  8
テンプレート
100
AcDbText
 10
17.11905019860153
 20
41.94669819172437
 30
0.0
 40
4.5
  1
仕上げ
  7
ＭＳ ゴシック
100
AcDbText
  0
TEXT
  5
6090
330
A
100
AcDbEntity
  8
テンプレート
100
AcDbText
 10
17.11905019860153
 20
30.52549828337
 30
0.0
 40
4.5
  1
材質
  7
ＭＳ ゴシック
100
AcDbText
  0
LINE
  5
6109
330
A
100
AcDbEntity
  8
モデル
100
AcDbLine
 10
47.01972433470515
 20
50.24982287171508
 30
0.0
 11
47.01972433470515
 21
26.30639493672686
 31
0.0
  0
LINE
  5
610A
330
A
100
AcDbEntity
  8
モデル
100
AcDbLine
 10
219.7459910908929
 20
50.16496477419605
 30
0.0
 11
219.7459910908929
 21
26.22153683920783
 31
0.0
  0
LINE
  5
610B
330
A
100
AcDbEntity
  8
モデル
100
AcDbLine
 10
256.7966764733949
 20
50.16496477419605
 30
0.0
 11
256.7966764733949
 21
38.27810890422097
 31
0.0
  0
LINE
  5
6272
330
A
100
AcDbEntity
  8
0
  6
Continuous
 62
     7
370
    25
100
AcDbLine
 10
167.9061832874426
 20
211.9075256889267
 30
0.0
 11
167.1061832874426
 21
211.9075256889267
 31
0.0
  0
LINE
  5
6273
330
A
100
AcDbEntity
  8
0
  6
Continuous
 62
     7
370
    25
100
AcDbLine
 10
167.1061832874426
 20
211.9075256889267
 30
0.0
 11
167.1061832874426
 21
201.6952828805266
 31
0.0
  0
LINE
  5
6274
330
A
100
AcDbEntity
  8
0
  6
Continuous
 62
     7
370
    25
100
AcDbLine
 10
167.1061832874426
 20
201.6952828805266
 30
0.0
 11
167.1061832874426
 21
140.4952828805268
 31
0.0
  0
LINE
  5
6275
330
A
100
AcDbEntity
  8
0
  6
Continuous
 62
     7
370
    25
100
AcDbLine
 10
167.9061832874426
 20
130.2830400722268
 30
0.0
 11
167.1061832874426
 21
130.2830400722268
 31
0.0
  0
LINE
  5
6276
330
A
100
AcDbEntity
  8
0
  6
Continuous
 62
     7
370
    25
100
AcDbLine
 10
167.1061832874426
 20
140.4952828805268
 30
0.0
 11
167.1061832874426
 21
130.2830400722268
 31
0.0
  0
ARC
  5
62A1
330
A
100
AcDbEntity
  8
0
  6
Continuous
 62
     7
370
    25
100
AcDbCircle
 10
166.6061832874426
 20
211.1737832319267
 30
0.0
 40
0.5
100
AcDbArc
 50
273.9999999999964
 51
0.0
  0
ARC
  5
62A2
330
A
100
AcDbEntity
  8
0
  6
Continuous
 62
     7
370
    25
100
AcDbCircle
 10
166.6061832874426
 20
131.0167825291267
 30
0.0
 40
0.5
100
AcDbArc
 50
0.0
 51
86.0000000000035
  0
LINE
  5
62A9
330
A
100
AcDbEntity
  8
0
  6
Continuous
 62
     7
370
    25
100
AcDbLine
 10
166.6410615243426
 20
210.6750012068266
 30
0.0
 11
159.4061832874426
 21
210.169089236892
 31
0.0
  0
LINE
  5
62AA
330
A
100
AcDbEntity
  8
0
  6
Continuous
 62
     7
370
    25
100
AcDbLine
 10
166.6410615243426
 20
131.5155645543267
 30
0.0
 11
159.4061832874426
 21
132.0214765241798
 31
0.0
  0
LINE
  5
62DF
330
A
100
AcDbEntity
  8
0
  6
Continuous
 62
     7
370
    25
100
AcDbLine
 10
169.4061832874426
 20
129.4952828805268
 30
0.0
 11
169.4061832874426
 21
140.4952828805268
 31
0.0
  0
LINE
  5
62E0
330
A
100
AcDbEntity
  8
0
  6
Continuous
 62
     7
370
    25
100
AcDbLine
 10
169.4061832874426
 20
129.4952828805268
 30
0.0
 11
167.9061832874426
 21
129.4952828805268
 31
0.0
  0
LINE
  5
62E1
330
A
100
AcDbEntity
  8
0
  6
Continuous
 62
     7
370
    25
100
AcDbLine
 10
167.9061832874426
 20
129.4952828805268
 30
0.0
 11
167.9061832874426
 21
140.4952828805268
 31
0.0
  0
LINE
  5
62E2
330
A
100
AcDbEntity
  8
0
  6
Continuous
 62
     7
370
    25
100
AcDbLine
 10
169.4061832874426
 20
212.6952828805266
 30
0.0
 11
167.9061832874426
 21
212.6952828805266
 31
0.0
  0
LINE
  5
62E3
330
A
100
AcDbEntity
  8
0
  6
Continuous
 62
     7
370
    25
100
AcDbLine
 10
169.4061832874426
 20
201.6952828805266
 30
0.0
 11
169.4061832874426
 21
212.6952828805266
 31
0.0
  0
LINE
  5
62E4
330
A
100
AcDbEntity
  8
0
  6
Continuous
 62
     7
370
    25
100
AcDbLine
 10
167.9061832874426
 20
201.6952828805266
 30
0.0
 11
167.9061832874426
 21
212.6952828805266
 31
0.0
  0
LINE
  5
62E5
330
A
100
AcDbEntity
  8
0
  6
Continuous
 62
     7
370
    25
100
AcDbLine
 10
169.4061832874426
 20
140.4952828805268
 30
0.0
 11
169.4061832874426
 21
201.6952828805266
 31
0.0
  0
LINE
  5
62E6
330
A
100
AcDbEntity
  8
0
  6
Continuous
 62
     7
370
    25
100
AcDbLine
 10
167.9061832874426
 20
140.4952828805268
 30
0.0
 11
167.9061832874426
 21
201.6952828805266
 31
0.0
  0
ARC
  5
6322
330
A
100
AcDbEntity
  8
0
  6
Continuous
 62
     7
370
    25
100
AcDbCircle
 10
155.4061832874426
 20
164.1452828805267
 30
0.0
 40
0.5
100
AcDbArc
 50
180.0
 51
270.0
  0
ARC
  5
6323
330
A
100
AcDbEntity
  8
0
  6
Continuous
 62
     7
370
    25
100
AcDbCircle
 10
155.4061832874426
 20
178.0452828805267
 30
0.0
 40
0.5
100
AcDbArc
 50
90.0
 51
180.0
  0
LINE
  5
6324
330
A
100
AcDbEntity
  8
0
  6
Continuous
 62
     7
370
    25
100
AcDbLine
 10
155.9061832874426
 20
178.5452828805267
 30
0.0
 11
155.4061832874426
 21
178.5452828805267
 31
0.0
  0
LINE
  5
6325
330
A
100
AcDbEntity
  8
0
  6
Continuous
 62
     7
370
    25
100
AcDbLine
 10
155.4061832874426
 20
163.6452828805267
 30
0.0
 11
155.9061832874426
 21
163.6452828805267
 31
0.0
  0
LINE
  5
632B
330
A
100
AcDbEntity
  8
0
  6
Continuous
 62
     7
370
    25
100
AcDbLine
 10
154.9061832874426
 20
171.0952828805268
 30
0.0
 11
154.9061832874426
 21
178.0452828805267
 31
0.0
  0
LINE
  5
632C
330
A
100
AcDbEntity
  8
0
  6
Continuous
 62
     7
370
    25
100
AcDbLine
 10
154.9061832874426
 20
164.1452828805267
 30
0.0
 11
154.9061832874426
 21
171.0952828805268
 31
0.0
  0
LINE
  5
632D
330
A
100
AcDbEntity
  8
モデル
  6
Continuous
100
AcDbLine
 10
154.9061832874426
 20
175.0852828805267
 30
0.0
 11
154.9061832874426
 21
167.1052828805266
 31
0.0
  0
LINE
  5
6393
330
A
100
AcDbEntity
  8
0
  6
Continuous
 62
     7
370
    25
100
AcDbLine
 10
431.7195722564937
 20
211.9075256889267
 30
0.0
 11
430.9195722564938
 21
211.9075256889267
 31
0.0
  0
LINE
  5
6394
330
A
100
AcDbEntity
  8
0
  6
Continuous
 62
     7
370
    25
100
AcDbLine
 10
430.9195722564938
 20
211.9075256889267
 30
0.0
 11
430.9195722564938
 21
201.6952828805267
 31
0.0
  0
LINE
  5
6395
330
A
100
AcDbEntity
  8
0
  6
Continuous
 62
     7
370
    25
100
AcDbLine
 10
430.9195722564938
 20
201.6952828805267
 30
0.0
 11
430.9195722564938
 21
140.4952828805268
 31
0.0
  0
LINE
  5
6396
330
A
100
AcDbEntity
  8
0
  6
Continuous
 62
     7
370
    25
100
AcDbLine
 10
431.7195722564937
 20
130.2830400722268
 30
0.0
 11
430.9195722564938
 21
130.2830400722268
 31
0.0
  0
LINE
  5
6397
330
A
100
AcDbEntity
  8
0
  6
Continuous
 62
     7
370
    25
100
AcDbLine
 10
430.9195722564938
 20
140.4952828805268
 30
0.0
 11
430.9195722564938
 21
130.2830400722268
 31
0.0
  0
ARC
  5
6398
330
A
100
AcDbEntity
  8
0
  6
Continuous
 62
     7
370
    25
100
AcDbCircle
 10
430.4195722564938
 20
211.1737832319267
 30
0.0
 40
0.5
100
AcDbArc
 50
273.9999999999965
 51
0.0
  0
ARC
  5
6399
330
A
100
AcDbEntity
  8
0
  6
Continuous
 62
     7
370
    25
100
AcDbCircle
 10
430.4195722564938
 20
131.0167825291267
 30
0.0
 40
0.5
100
AcDbArc
 50
0.0
 51
86.0000000000035
  0
LINE
  5
639A
330
A
100
AcDbEntity
  8
0
  6
Continuous
 62
     7
370
    25
100
AcDbLine
 10
430.4544504933938
 20
210.6750012068267
 30
0.0
 11
421.5800593089938
 21
210.0544433233268
 31
0.0
  0
LINE
  5
639B
330
A
100
AcDbEntity
  8
0
  6
Continuous
 62
     7
370
    25
100
AcDbLine
 10
430.4544504933938
 20
131.5155645543267
 30
0.0
 11
421.5800593089938
 21
132.1361224377267
 31
0.0
  0
LINE
  5
639C
330
A
100
AcDbEntity
  8
0
  6
Continuous
 62
     7
370
    25
100
AcDbLine
 10
419.7195722564937
 20
140.4952828805268
 30
0.0
 11
419.7195722564937
 21
201.6952828805267
 31
0.0
  0
LINE
  5
639D
330
A
100
AcDbEntity
  8
0
  6
Continuous
 62
     7
370
    25
100
AcDbLine
 10
419.7195722564937
 20
201.6952828805267
 30
0.0
 11
419.7195722564937
 21
208.0593152228267
 31
0.0
  0
ARC
  5
639E
330
A
100
AcDbEntity
  8
0
  6
Continuous
 62
     7
370
    25
100
AcDbCircle
 10
421.7195722564937
 20
208.0593152228267
 30
0.0
 40
2.000000000000032
100
AcDbArc
 50
94.00000000000297
 51
180.0
  0
ARC
  5
639F
330
A
100
AcDbEntity
  8
0
  6
Continuous
 62
     7
370
    25
100
AcDbCircle
 10
421.7195722564937
 20
134.1312505383268
 30
0.0
 40
2.000000000000004
100
AcDbArc
 50
180.0
 51
265.999999999997
  0
LINE
  5
63A0
330
A
100
AcDbEntity
  8
0
  6
Continuous
 62
     7
370
    25
100
AcDbLine
 10
419.7195722564937
 20
134.1312505383268
 30
0.0
 11
419.7195722564937
 21
140.4952828805268
 31
0.0
  0
LINE
  5
63A1
102
{ACAD_REACTORS
330
6B36
102
}
330
A
100
AcDbEntity
  8
0
  6
Continuous
 62
     7
370
    25
100
AcDbLine
 10
433.2195722564937
 20
129.4952828805268
 30
0.0
 11
433.2195722564937
 21
140.4952828805268
 31
0.0
  0
LINE
  5
63A2
330
A
100
AcDbEntity
  8
0
  6
Continuous
 62
     7
370
    25
100
AcDbLine
 10
433.2195722564937
 20
129.4952828805268
 30
0.0
 11
431.7195722564937
 21
129.4952828805268
 31
0.0
  0
LINE
  5
63A3
102
{ACAD_REACTORS
330
671E
102
}
330
A
100
AcDbEntity
  8
0
  6
Continuous
 62
     7
370
    25
100
AcDbLine
 10
431.7195722564937
 20
129.4952828805268
 30
0.0
 11
431.7195722564937
 21
140.4952828805268
 31
0.0
  0
LINE
  5
63A4
330
A
100
AcDbEntity
  8
0
  6
Continuous
 62
     7
370
    25
100
AcDbLine
 10
433.2195722564937
 20
212.6952828805267
 30
0.0
 11
431.7195722564937
 21
212.6952828805267
 31
0.0
  0
LINE
  5
63A5
330
A
100
AcDbEntity
  8
0
  6
Continuous
 62
     7
370
    25
100
AcDbLine
 10
433.2195722564937
 20
201.6952828805267
 30
0.0
 11
433.2195722564937
 21
212.6952828805267
 31
0.0
  0
LINE
  5
63A6
102
{ACAD_REACTORS
330
671E
102
}
330
A
100
AcDbEntity
  8
0
  6
Continuous
 62
     7
370
    25
100
AcDbLine
 10
431.7195722564937
 20
201.6952828805267
 30
0.0
 11
431.7195722564937
 21
212.6952828805267
 31
0.0
  0
LINE
  5
63A7
330
A
100
AcDbEntity
  8
0
  6
Continuous
 62
     7
370
    25
100
AcDbLine
 10
433.2195722564937
 20
140.4952828805268
 30
0.0
 11
433.2195722564937
 21
201.6952828805267
 31
0.0
  0
LINE
  5
63A8
330
A
100
AcDbEntity
  8
0
  6
Continuous
 62
     7
370
    25
100
AcDbLine
 10
431.7195722564937
 20
140.4952828805268
 30
0.0
 11
431.7195722564937
 21
201.6952828805267
 31
0.0
  0
LINE
  5
63BE
330
A
100
AcDbEntity
  8
0
  6
Continuous
 62
     7
370
    25
100
AcDbLine
 10
333.2116161656579
 20
337.3089304832417
 30
0.0
 11
333.2116161656579
 21
338.1089304832419
 31
0.0
  0
LINE
  5
63BF
330
A
100
AcDbEntity
  8
0
  6
Continuous
 62
     7
370
    25
100
AcDbLine
 10
333.2116161656579
 20
338.1089304832419
 30
0.0
 11
322.9993733572578
 21
338.1089304832419
 31
0.0
  0
LINE
  5
63C0
330
A
100
AcDbEntity
  8
0
  6
Continuous
 62
     7
370
    25
100
AcDbLine
 10
322.9993733572578
 20
338.1089304832419
 30
0.0
 11
261.7993733572581
 21
338.1089304832419
 31
0.0
  0
LINE
  5
63C1
330
A
100
AcDbEntity
  8
0
  6
Continuous
 62
     7
370
    25
100
AcDbLine
 10
251.587130548958
 20
337.3089304832419
 30
0.0
 11
251.587130548958
 21
338.1089304832419
 31
0.0
  0
LINE
  5
63C2
330
A
100
AcDbEntity
  8
0
  6
Continuous
 62
     7
370
    25
100
AcDbLine
 10
261.7993733572581
 20
338.1089304832419
 30
0.0
 11
251.587130548958
 21
338.1089304832419
 31
0.0
  0
ARC
  5
63C3
102
{ACAD_REACTORS
330
6BB3
102
}
330
A
100
AcDbEntity
  8
0
  6
Continuous
 62
     7
370
    25
100
AcDbCircle
 10
332.4778737086579
 20
338.6089304832419
 30
0.0
 40
0.5
100
AcDbArc
 50
183.9999999999965
 51
270.0
  0
ARC
  5
63C4
330
A
100
AcDbEntity
  8
0
  6
Continuous
 62
     7
370
    25
100
AcDbCircle
 10
252.320873005858
 20
338.6089304832419
 30
0.0
 40
0.5
100
AcDbArc
 50
270.0
 51
356.0000000000035
  0
LINE
  5
63C5
330
A
100
AcDbEntity
  8
0
  6
Continuous
 62
     7
370
    25
100
AcDbLine
 10
331.979091683558
 20
338.5740522463419
 30
0.0
 11
331.358533800058
 21
347.4484434307419
 31
0.0
  0
LINE
  5
63C6
330
A
100
AcDbEntity
  8
0
  6
Continuous
 62
     7
370
    25
100
AcDbLine
 10
252.819655031058
 20
338.5740522463419
 30
0.0
 11
253.440212914458
 21
347.4484434307419
 31
0.0
  0
LINE
  5
63C7
330
A
100
AcDbEntity
  8
0
  6
Continuous
 62
     7
370
    25
100
AcDbLine
 10
261.7993733572581
 20
349.3089304832419
 30
0.0
 11
322.9993733572578
 21
349.3089304832417
 31
0.0
  0
LINE
  5
63C8
102
{ACAD_REACTORS
330
6BA4
102
}
330
A
100
AcDbEntity
  8
0
  6
Continuous
 62
     7
370
    25
100
AcDbLine
 10
322.9993733572578
 20
349.3089304832417
 30
0.0
 11
329.3634056995579
 21
349.3089304832417
 31
0.0
  0
ARC
  5
63C9
102
{ACAD_REACTORS
330
6BB3
102
}
330
A
100
AcDbEntity
  8
0
  6
Continuous
 62
     7
370
    25
100
AcDbCircle
 10
329.3634056995579
 20
347.3089304832417
 30
0.0
 40
2.000000000000032
100
AcDbArc
 50
4.00000000000301
 51
90.0
  0
ARC
  5
63CA
330
A
100
AcDbEntity
  8
0
  6
Continuous
 62
     7
370
    25
100
AcDbCircle
 10
255.435341015058
 20
347.3089304832419
 30
0.0
 40
2.000000000000004
100
AcDbArc
 50
90.0
 51
175.999999999997
  0
LINE
  5
63CB
330
A
100
AcDbEntity
  8
0
  6
Continuous
 62
     7
370
    25
100
AcDbLine
 10
255.435341015058
 20
349.3089304832419
 30
0.0
 11
261.7993733572581
 21
349.3089304832419
 31
0.0
  0
LINE
  5
63CC
330
A
100
AcDbEntity
  8
0
  6
Continuous
 62
     7
370
    25
100
AcDbLine
 10
250.7993733572578
 20
335.8089304832419
 30
0.0
 11
261.7993733572581
 21
335.8089304832419
 31
0.0
  0
LINE
  5
63CD
102
{ACAD_REACTORS
330
674E
102
}
330
A
100
AcDbEntity
  8
0
  6
Continuous
 62
     7
370
    25
100
AcDbLine
 10
250.7993733572578
 20
335.8089304832419
 30
0.0
 11
250.7993733572578
 21
337.3089304832419
 31
0.0
  0
LINE
  5
63CE
330
A
100
AcDbEntity
  8
0
  6
Continuous
 62
     7
370
    25
100
AcDbLine
 10
250.7993733572578
 20
337.3089304832419
 30
0.0
 11
261.7993733572581
 21
337.3089304832419
 31
0.0
  0
LINE
  5
63CF
330
A
100
AcDbEntity
  8
0
  6
Continuous
 62
     7
370
    25
100
AcDbLine
 10
333.9993733572578
 20
335.8089304832417
 30
0.0
 11
333.9993733572578
 21
337.3089304832417
 31
0.0
  0
LINE
  5
63D0
102
{ACAD_REACTORS
330
674E
330
6BA4
102
}
330
A
100
AcDbEntity
  8
0
  6
Continuous
 62
     7
370
    25
100
AcDbLine
 10
322.9993733572578
 20
335.8089304832417
 30
0.0
 11
333.9993733572578
 21
335.8089304832417
 31
0.0
  0
LINE
  5
63D1
330
A
100
AcDbEntity
  8
0
  6
Continuous
 62
     7
370
    25
100
AcDbLine
 10
322.9993733572578
 20
337.3089304832417
 30
0.0
 11
333.9993733572578
 21
337.3089304832417
 31
0.0
  0
LINE
  5
63D2
330
A
100
AcDbEntity
  8
0
  6
Continuous
 62
     7
370
    25
100
AcDbLine
 10
261.7993733572581
 20
335.8089304832419
 30
0.0
 11
322.9993733572578
 21
335.8089304832417
 31
0.0
  0
LINE
  5
63D3
330
A
100
AcDbEntity
  8
0
  6
Continuous
 62
     7
370
    25
100
AcDbLine
 10
261.7993733572581
 20
337.3089304832419
 30
0.0
 11
322.9993733572578
 21
337.3089304832417
 31
0.0
  0
SPLINE
  5
6418
330
A
100
AcDbEntity
  8
モデル
  6
HIDDEN
 48
0.5
100
AcDbSpline
210
0.0
220
0.0
230
1.0
 70
  1064
 71
     3
 72
    41
 73
    37
 74
    35
 42
0.000000001
 43
0.0000000001
 44
0.0
 40
0.0
 40
0.0
 40
0.0
 40
0.0
 40
0.5851455292744827
 40
1.290026392028617
 40
1.703801671943838
 40
2.283265376226818
 40
2.697395641562784
 40
3.000549473240572
 40
3.275842724286418
 40
3.661605862991876
 40
4.023135575674758
 40
4.359919367780765
 40
5.002478737846728
 40
5.79829962309921
 40
13.29384555292023
 40
21.73021775601123
 40
31.02940075259983
 40
45.18588895702871
 40
56.75394478096393
 40
67.71483745391913
 40
76.31447237706513
 40
78.24119662557123
 40
78.7102870772104
 40
79.14044147077941
 40
79.51173887629068
 40
79.88829581428742
 40
80.40929244322012
 40
80.7728322120186
 40
81.03621067906224
 40
81.3135102989842
 40
81.56550671367035
 40
82.0816071637352
 40
82.52567863229088
 40
82.8616979291226
 40
83.08013968977836
 40
83.20902318469133
 40
83.20902318469133
 40
83.20902318469133
 40
83.20902318469133
 10
159.4061832874426
 20
132.0214765241798
 30
0.0
 10
159.2115875250543
 20
132.0347117040595
 30
0.0
 10
158.7825768658272
 20
132.0638903109083
 30
0.0
 10
158.2163922787258
 20
132.1095671950047
 30
0.0
 10
157.6507323136197
 20
132.1325071222426
 30
0.0
 10
157.1874080013945
 20
132.2410465875481
 30
0.0
 10
156.804653721661
 20
132.4491822067872
 30
0.0
 10
156.5451139880403
 20
132.6562372378653
 30
0.0
 10
156.3249210138271
 20
132.8916762726355
 30
0.0
 10
156.134920753516
 20
133.1774409143871
 30
0.0
 10
155.9938426007131
 20
133.5120307019997
 30
0.0
 10
155.8929074694026
 20
133.9503875151059
 30
0.0
 10
155.9115287361697
 20
134.5458188591182
 30
0.0
 10
155.8889123373086
 20
137.5192882189928
 30
0.0
 10
155.9145574830582
 20
143.1003139647558
 30
0.0
 10
155.9036432202879
 20
151.5084894646152
 30
0.0
 10
155.9070679895142
 20
162.1399361926121
 30
0.0
 10
155.9073796899444
 20
173.8141257212133
 30
0.0
 10
155.9019638204847
 20
186.0429956536141
 30
0.0
 10
155.9199505140456
 20
196.4181745172863
 30
0.0
 10
155.8794298330204
 20
203.5828364370373
 30
0.0
 10
155.9202597599488
 20
207.2457281996802
 30
0.0
 10
155.8952088593774
 20
208.1891032367793
 30
0.0
 10
155.9689760498114
 20
208.6098483940328
 30
0.0
 10
156.1158475453924
 20
208.9764787253464
 30
0.0
 10
156.343964410701
 20
209.3353554715245
 30
0.0
 10
156.646878870032
 20
209.6343573987568
 30
0.0
 10
156.9733368951223
 20
209.8378937633386
 30
0.0
 10
157.251684352637
 20
209.9553760292653
 30
0.0
 10
157.5074081350935
 20
210.026205227403
 30
0.0
 10
157.8541850540144
 20
210.0663440979033
 30
0.0
 10
158.2576522001277
 20
210.0870772704521
 30
0.0
 10
158.6885569030877
 20
210.1192252602827
 30
0.0
 10
159.0206095356717
 20
210.1420804035553
 30
0.0
 10
159.247833440469
 20
210.1580214524512
 30
0.0
 10
159.363326700544
 20
210.1660937968917
 30
0.0
 10
159.4061832874426
 20
210.169089236892
 30
0.0
 11
159.4061832874426
 21
132.0214765241798
 31
0.0
 11
158.8224631432678
 21
132.0622942129249
 31
0.0
 11
158.1192993348678
 21
132.1114642163153
 31
0.0
 11
157.7065963776236
 21
132.1412341902961
 31
0.0
 11
157.1444844507775
 21
132.281976388228
 31
0.0
 11
156.7799513299984
 21
132.4784947856423
 31
0.0
 11
156.5430901308673
 21
132.6677010699119
 31
0.0
 11
156.3550281427219
 21
132.8687459969461
 31
0.0
 11
156.1415034157578
 21
133.1900252993588
 31
0.0
 11
156.0008906138203
 21
133.5230895170164
 31
0.0
 11
155.9258579380363
 21
133.8514085999068
 31
0.0
 11
155.9061832874426
 21
134.49366668836
 31
0.0
 11
155.9061832874426
 21
135.2894875736125
 31
0.0
 11
155.9061832874426
 21
142.7850335034335
 31
0.0
 11
155.9061832874426
 21
151.2214057065245
 31
0.0
 11
155.9061832874426
 21
160.5205887031131
 31
0.0
 11
155.9061832874426
 21
174.677076907542
 31
0.0
 11
155.9061832874426
 21
186.2451327314772
 31
0.0
 11
155.9061832874426
 21
197.2060254044324
 31
0.0
 11
155.9061832874426
 21
205.8056603275784
 31
0.0
 11
155.9061832874426
 21
207.7323845760845
 31
0.0
 11
155.9112400955585
 21
208.2014477706657
 31
0.0
 11
155.9877735315729
 21
208.6247389653279
 31
0.0
 11
156.1253499260203
 21
208.9696077795606
 31
0.0
 11
156.3275414724301
 21
209.2872769567149
 31
0.0
 11
156.6982612750234
 21
209.6533429553059
 31
0.0
 11
157.0067634151263
 21
209.8456645428877
 31
0.0
 11
157.2492947785125
 21
209.9483619366048
 31
0.0
 11
157.5168945485823
 21
210.0210629838288
 31
0.0
 11
157.7666703399426
 21
210.0544433233268
 31
0.0
 11
158.2815135952501
 21
210.090444670823
 31
0.0
 11
158.7245033280272
 21
210.1214215305615
 31
0.0
 11
159.05970409874
 21
210.1448610518198
 31
0.0
 11
159.2776137462456
 21
210.1600987787625
 31
0.0
 11
159.4061832874426
 21
210.169089236892
 31
0.0
  0
LINE
  5
641D
330
A
100
AcDbEntity
  8
モデル
 62
   251
370
    20
100
AcDbLine
 10
322.3993733572578
 20
233.3747754244359
 30
0.0
 11
322.3993733572578
 21
199.9147207653988
 31
0.0
  0
DIMENSION
  5
66EF
330
A
100
AcDbEntity
  8
モデル
100
AcDbDimension
  2
*D9
 10
147.9061832874426
 20
102.3337262249872
 30
0.0
 11
157.9061832874426
 21
105.8346640766816
 31
0.0
 70
    32
  1
20
 71
     5
 42
20.0
 73
     0
 74
     0
 75
     0
  3
tfrom線あり
100
AcDbAlignedDimension
 13
167.9061832874426
 23
129.4952828805268
 33
0.0
 14
147.9061832874426
 24
162.9677084269983
 34
0.0
100
AcDbRotatedDimension
1001
ACAD
1000
DSTYLE
1002
{
1070
    41
1040
2.0
1002
}
  0
DIMENSION
  5
66FE
330
A
100
AcDbEntity
  8
モデル
100
AcDbDimension
  2
*D10
 10
347.1900057401195
 20
129.4952828805268
 30
0.0
 11
347.1900057401195
 21
150.2952828805268
 31
0.0
 70
   160
  1
41.75
 71
     5
 42
41.60000000000002
 73
     0
 74
     0
 75
     0
  3
tfrom線あり
100
AcDbAlignedDimension
 13
354.7028295691093
 23
171.0952828805268
 33
0.0
 14
309.5777151164007
 24
129.4952828805268
 34
0.0
 50
90.0
100
AcDbRotatedDimension
1001
ACAD
1000
DSTYLE
1002
{
1070
    41
1040
2.0
1002
}
  0
DIMENSION
  5
670D
102
{ACAD_REACTORS
330
670F
102
}
102
{ACAD_XDICTIONARY
360
670E
102
}
330
A
100
AcDbEntity
  8
モデル
100
AcDbDimension
  2
*D11
 10
237.3993733572578
 20
102.3337262249873
 30
0.0
 11
264.8993733572578
 21
105.8346640766817
 31
0.0
 70
    32
 71
     5
 42
55.00000000000003
 73
     0
 74
     0
 75
     0
  3
tfrom線あり
100
AcDbAlignedDimension
 13
292.3993733572578
 23
167.0952828805268
 33
0.0
 14
237.3993733572578
 24
117.0984194418985
 34
0.0
100
AcDbRotatedDimension
1001
ACAD
1000
DSTYLE
1002
{
1070
    41
1040
2.0
1002
}
  0
DIMENSION
  5
671C
102
{ACAD_REACTORS
330
671E
102
}
102
{ACAD_XDICTIONARY
360
671D
102
}
330
A
100
AcDbEntity
  8
モデル
100
AcDbDimension
  2
*D12
 10
395.9148832151969
 20
212.6952828805267
 30
0.0
 11
395.9148832151969
 21
171.0952828805268
 31
0.0
 70
   160
  1
83.5
 71
     5
 42
83.1999999999999
 73
     0
 74
     0
 75
     0
  3
tfrom線あり
100
AcDbAlignedDimension
 13
431.7195722564937
 23
129.4952828805268
 33
0.0
 14
431.7195722564937
 24
212.6952828805267
 34
0.0
 50
90.0
100
AcDbRotatedDimension
1001
ACAD
1000
DSTYLE
1002
{
1070
    41
1040
2.0
1002
}
  0
DIMENSION
  5
672B
330
A
100
AcDbEntity
  8
モデル
100
AcDbDimension
  2
*D13
 10
408.4672331606334
 20
211.1737832319267
 30
0.0
 11
404.9672331606334
 21
171.0952828805267
 31
0.0
 70
    32
 71
     5
 42
80.15700070280002
 73
     0
 74
     0
 75
     0
  3
tfrom線あり
100
AcDbAlignedDimension
 13
430.9195722564938
 23
131.0167825291267
 33
0.0
 14
430.9195722564938
 24
211.1737832319267
 34
0.0
 50
90.0
100
AcDbRotatedDimension
1001
ACAD
1000
DSTYLE
1002
{
1070
    41
1040
2.0
1002
}
  0
DIMENSION
  5
673A
330
A
100
AcDbEntity
  8
モデル
100
AcDbDimension
  2
*D14
 10
419.7195722564937
 20
111.3506368030593
 30
0.0
 11
425.7195722564937
 21
111.3506368030593
 31
0.0
 70
   160
 71
     5
 42
11.20000000000005
 73
     0
 74
     0
 75
     0
  3
tfrom線あり
100
AcDbAlignedDimension
 13
430.9195722564938
 23
131.0167825291267
 33
0.0
 14
419.7195722564937
 24
132.0252660960417
 34
0.0
100
AcDbRotatedDimension
1001
ACAD
1000
DSTYLE
1002
{
1070
    41
1040
2.0
1070
   172
1070
     1
1070
   140
1040
4.5
1002
}
  0
DIMENSION
  5
674C
102
{ACAD_REACTORS
330
674E
102
}
102
{ACAD_XDICTIONARY
360
674D
102
}
330
A
100
AcDbEntity
  8
モデル
100
AcDbDimension
  2
*D15
 10
333.9993733572578
 20
310.4503511538186
 30
0.0
 11
292.3993733572578
 21
313.951289005513
 31
0.0
 70
    32
  1
83.5
 71
     5
 42
83.19999999999996
 73
     0
 74
     0
 75
     0
  3
tfrom線あり
100
AcDbAlignedDimension
 13
250.7993733572578
 23
335.8089304832419
 33
0.0
 14
333.9993733572578
 24
335.8089304832417
 34
0.0
100
AcDbRotatedDimension
1001
ACAD
1000
DSTYLE
1002
{
1070
    41
1040
2.0
1002
}
  0
DIMENSION
  5
675B
330
A
100
AcDbEntity
  8
モデル
100
AcDbDimension
  2
*D16
 10
332.4778737086579
 20
371.4368875205307
 30
0.0
 11
292.3993733572579
 21
374.9368875205307
 31
0.0
 70
    32
 71
     5
 42
80.15700070279988
 73
     0
 74
     0
 75
     0
  3
tfrom線あり
100
AcDbAlignedDimension
 13
252.320873005858
 23
338.1089304832419
 33
0.0
 14
332.4778737086579
 24
338.1089304832419
 34
0.0
100
AcDbRotatedDimension
1001
ACAD
1000
DSTYLE
1002
{
1070
    41
1040
2.0
1002
}
  0
LINE
  5
6913
330
A
100
AcDbEntity
  8
0
  6
HIDDEN
 62
     7
370
    25
100
AcDbLine
 10
303.3993733572578
 20
146.6952828805267
 30
0.0
 11
303.3993733572578
 21
195.4952828805267
 31
0.0
  0
ARC
  5
6914
330
A
100
AcDbEntity
  8
0
  6
HIDDEN
 62
     7
370
    25
100
AcDbCircle
 10
292.3993733572578
 20
146.6952828805267
 30
0.0
 40
11.00000000000001
100
AcDbArc
 50
180.0
 51
0.0
  0
LINE
  5
6915
330
A
100
AcDbEntity
  8
0
  6
HIDDEN
 62
     7
370
    25
100
AcDbLine
 10
281.3993733572578
 20
195.4952828805267
 30
0.0
 11
281.3993733572578
 21
146.6952828805267
 31
0.0
  0
ARC
  5
6916
330
A
100
AcDbEntity
  8
0
  6
HIDDEN
 62
     7
370
    25
100
AcDbCircle
 10
292.3993733572578
 20
195.4952828805267
 30
0.0
 40
11.00000000000002
100
AcDbArc
 50
0.0
 51
180.0
  0
CIRCLE
  5
6917
330
A
100
AcDbEntity
  8
0
  6
Continuous
 62
     7
370
    25
100
AcDbCircle
 10
292.3993733572578
 20
171.0952828805268
 30
0.0
 40
41.60000000000002
  0
LINE
  5
6B11
330
A
100
AcDbEntity
  8
0
  6
Continuous
 62
     7
370
    25
100
AcDbLine
 10
140.9861832874425
 20
347.7963497952362
 30
0.0
 11
140.4861832874425
 21
347.2963497952362
 31
0.0
  0
LINE
  5
6B12
330
A
100
AcDbEntity
  8
0
  6
Continuous
 62
     7
370
    25
100
AcDbLine
 10
140.4861832874425
 20
340.3163497952361
 30
0.0
 11
140.9861832874425
 21
339.8163497952361
 31
0.0
  0
LINE
  5
6B13
330
A
100
AcDbEntity
  8
0
  6
Continuous
 62
     7
370
    25
100
AcDbLine
 10
140.9861832874425
 20
347.7963497952362
 30
0.0
 11
154.9081864386425
 21
347.7963497952363
 31
0.0
  0
LINE
  5
6B14
330
A
100
AcDbEntity
  8
0
  6
Continuous
 62
     7
370
    25
100
AcDbLine
 10
140.9861832874425
 20
339.8163497952361
 30
0.0
 11
154.9081864386426
 21
339.8163497952362
 31
0.0
  0
LINE
  5
6B15
330
A
100
AcDbEntity
  8
0
  6
Continuous
 62
     7
370
    25
100
AcDbLine
 10
140.4861832874425
 20
347.2963497952362
 30
0.0
 11
140.4861832874425
 21
340.3163497952361
 31
0.0
  0
LINE
  5
6B16
330
A
100
AcDbEntity
  8
モデル
100
AcDbLine
 10
154.9081864386426
 20
339.8163497952362
 30
0.0
 11
166.9081864386426
 21
339.8163497952362
 31
0.0
  0
LINE
  5
6B17
330
A
100
AcDbEntity
  8
モデル
100
AcDbLine
 10
154.9081864386425
 20
347.7963497952363
 30
0.0
 11
166.9081864386425
 21
347.7963497952363
 31
0.0
  0
LINE
  5
6B18
330
A
100
AcDbEntity
  8
モデル
100
AcDbLine
 10
166.9081864386425
 20
347.7963497952363
 30
0.0
 11
166.9081864386426
 21
339.8163497952362
 31
0.0
  0
LINE
  5
6B1C
330
A
100
AcDbEntity
  8
0
  6
Continuous
 62
     7
370
    25
100
AcDbLine
 10
140.9861832874426
 20
175.0852828805267
 30
0.0
 11
140.4861832874426
 21
174.5852828805267
 31
0.0
  0
LINE
  5
6B1D
330
A
100
AcDbEntity
  8
0
  6
Continuous
 62
     7
370
    25
100
AcDbLine
 10
140.4861832874427
 20
167.6052828805267
 30
0.0
 11
140.9861832874427
 21
167.1052828805267
 31
0.0
  0
LINE
  5
6B1E
330
A
100
AcDbEntity
  8
0
  6
Continuous
 62
     7
370
    25
100
AcDbLine
 10
140.9861832874426
 20
175.0852828805267
 30
0.0
 11
154.9081864386426
 21
175.0852828805268
 31
0.0
  0
LINE
  5
6B1F
330
A
100
AcDbEntity
  8
0
  6
Continuous
 62
     7
370
    25
100
AcDbLine
 10
140.9861832874427
 20
167.1052828805267
 30
0.0
 11
154.9081864386427
 21
167.1052828805268
 31
0.0
  0
LINE
  5
6B20
330
A
100
AcDbEntity
  8
0
  6
Continuous
 62
     7
370
    25
100
AcDbLine
 10
140.4861832874426
 20
174.5852828805267
 30
0.0
 11
140.4861832874427
 21
167.6052828805267
 31
0.0
  0
LINE
  5
6B21
330
A
100
AcDbEntity
  8
モデル
100
AcDbLine
 10
154.9081864386427
 20
167.1052828805268
 30
0.0
 11
166.9081864386427
 21
167.1052828805268
 31
0.0
  0
LINE
  5
6B22
330
A
100
AcDbEntity
  8
モデル
100
AcDbLine
 10
154.9081864386426
 20
175.0852828805268
 30
0.0
 11
166.9081864386426
 21
175.0852828805268
 31
0.0
  0
LINE
  5
6B23
330
A
100
AcDbEntity
  8
モデル
100
AcDbLine
 10
166.9081864386426
 20
175.0852828805268
 30
0.0
 11
166.9081864386427
 21
167.1052828805268
 31
0.0
  0
DIMENSION
  5
6B34
102
{ACAD_REACTORS
330
6B36
102
}
102
{ACAD_XDICTIONARY
360
6B35
102
}
330
A
100
AcDbEntity
  8
モデル
100
AcDbDimension
  2
*D18
 10
433.2195722564937
 20
101.5411021962658
 30
0.0
 11
426.4695722564937
 21
105.0420400479602
 31
0.0
 70
    32
 71
     5
 42
13.5
 73
     0
 74
     0
 75
     0
  3
tfrom線あり
100
AcDbAlignedDimension
 13
419.7195722564937
 23
132.408907419734
 33
0.0
 14
433.2195722564937
 24
130.8550050605089
 34
0.0
100
AcDbRotatedDimension
1001
ACAD
1000
DSTYLE
1002
{
1070
    41
1040
2.0
1002
}
  0
MTEXT
  5
6B78
330
A
100
AcDbEntity
  8
モデル
100
AcDbMText
 10
315.841119351588
 20
107.0245323338213
 30
0.0
 40
4.666666666666666
 41
296.0447974826269
 46
4.80883456296111
 71
     1
 72
     5
  1
{切欠寸法:Ø80×d12　}
  7
ＭＳ ゴシック
 73
     1
 44
1.0
1001
ACAD
1000
ACAD_MTEXT_DEFINED_HEIGHT_BEGIN
1070
    46
1040
4.80883456296111
1000
ACAD_MTEXT_DEFINED_HEIGHT_END
  0
DIMENSION
  5
6BA2
102
{ACAD_REACTORS
330
6BA4
102
}
102
{ACAD_XDICTIONARY
360
6BA3
102
}
330
A
100
AcDbEntity
  8
モデル
100
AcDbDimension
  2
*D20
 10
365.1953669509809
 20
349.3089304832417
 30
0.0
 11
365.1953669509809
 21
342.5589304832417
 31
0.0
 70
   160
 71
     5
 42
13.5
 73
     0
 74
     0
 75
     0
  3
tfrom線あり
100
AcDbAlignedDimension
 13
332.7192694478902
 23
335.8089304832417
 33
0.0
 14
328.8130501434549
 24
349.3089304832417
 34
0.0
 50
90.0
100
AcDbRotatedDimension
1001
ACAD
1000
DSTYLE
1002
{
1070
    41
1040
2.0
1002
}
  0
DIMENSION
  5
6BB1
102
{ACAD_REACTORS
330
6BB3
102
}
102
{ACAD_XDICTIONARY
360
6BB2
102
}
330
A
100
AcDbEntity
  8
モデル
100
AcDbDimension
  2
*D21
 10
354.9600195991799
 20
349.3089304832417
 30
0.0
 11
354.9600195991799
 21
343.7089304832418
 31
0.0
 70
   160
 71
     5
 42
11.19999999999982
 73
     0
 74
     0
 75
     0
  3
tfrom線あり
100
AcDbAlignedDimension
 13
332.4778737086579
 23
338.1089304832419
 33
0.0
 14
329.3634056995579
 24
349.3089304832417
 34
0.0
 50
90.0
100
AcDbRotatedDimension
1001
ACAD
1000
DSTYLE
1002
{
1070
    41
1040
2.0
1002
}
  0
MTEXT
  5
6BEE
330
A
100
AcDbEntity
  8
モデル
100
AcDbMText
 10
296.8997104258555
 20
80.99883168270529
 30
0.0
 40
4.666666666666666
 41
296.0447974826269
 46
5.187851694385394
 71
     1
 72
     5
  1
{輸入製品の為国内製品と比べ製品寸法の個体差に幅があります。加工は現物合わせの上行って下さい。}
  7
ＭＳ ゴシック
 73
     1
 44
1.0
1001
ACAD
1000
ACAD_MTEXT_DEFINED_HEIGHT_BEGIN
1070
    46
1040
5.187851694385394
1000
ACAD_MTEXT_DEFINED_HEIGHT_END
  0
LINE
  5
6BEF
330
A
100
AcDbEntity
  8
モデル
100
AcDbLine
 10
289.1793164390536
 20
75.62639317835635
 30
0.0
 11
294.1741197179505
 21
75.62639317835635
 31
0.0
  0
LINE
  5
6BF0
330
A
100
AcDbEntity
  8
モデル
100
AcDbLine
 10
289.1793164390536
 20
75.62639317835635
 30
0.0
 11
291.6767180785013
 21
80.62119645725295
 31
0.0
  0
LINE
  5
6BF1
330
A
100
AcDbEntity
  8
モデル
100
AcDbLine
 10
291.6767180785013
 20
80.62119645725295
 30
0.0
 11
294.1741197179505
 21
75.62639317835635
 31
0.0
  0
MTEXT
  5
6BF2
330
A
100
AcDbEntity
  8
モデル
100
AcDbMText
 10
291.3197135241365
 20
79.24625200276097
 30
0.0
 40
3.822185138629192
 41
1.35758065535774
 46
15.0
 71
     1
 72
     5
  1
{\fTimes New Roman|b1|i0|c0|p0;\H0.8x;!}
  7
ＭＳ ゴシック
 73
     1
 44
1.0
1001
ACAD
1000
ACAD_MTEXT_DEFINED_HEIGHT_BEGIN
1070
    46
1040
15.0
1000
ACAD_MTEXT_DEFINED_HEIGHT_END
  0
LINE
  5
6C52
102
{ACAD_REACTORS
330
6C58
102
}
330
A
100
AcDbEntity
  8
0
  6
Continuous
 62
     7
370
    25
100
AcDbLine
 10
267.9993733572578
 20
160.0952828805267
 30
0.0
 11
316.7993733572578
 21
160.0952828805267
 31
0.0
  0
ARC
  5
6C53
102
{ACAD_REACTORS
330
6C58
102
}
330
A
100
AcDbEntity
  8
0
  6
Continuous
 62
     7
370
    25
100
AcDbCircle
 10
267.9993733572578
 20
171.0952828805267
 30
0.0
 40
11.00000000000001
100
AcDbArc
 50
90.0
 51
270.0
  0
LINE
  5
6C54
102
{ACAD_REACTORS
330
6C58
102
}
330
A
100
AcDbEntity
  8
0
  6
Continuous
 62
     7
370
    25
100
AcDbLine
 10
316.7993733572578
 20
182.0952828805267
 30
0.0
 11
267.9993733572578
 21
182.0952828805267
 31
0.0
  0
ARC
  5
6C55
102
{ACAD_REACTORS
330
6C58
102
}
330
A
100
AcDbEntity
  8
0
  6
Continuous
 62
     7
370
    25
100
AcDbCircle
 10
316.7993733572578
 20
171.0952828805267
 30
0.0
 40
11.00000000000002
100
AcDbArc
 50
270.0
 51
90.0
  0
LINE
  5
6C97
102
{ACAD_REACTORS
330
6D11
102
}
330
A
100
AcDbEntity
  8
モデル
  6
HIDDEN
100
AcDbLine
 10
273.0917880412122
 20
192.0984194418982
 30
0.0
 11
376.3489834911906
 21
192.0984194418983
 31
0.0
  0
TEXT
  5
6C98
330
A
100
AcDbEntity
  8
テンプレート
100
AcDbText
 10
352.5052877520704
 20
193.6098272927318
 30
0.0
 40
3.0
  1
ケースセンター
  7
ＭＳ ゴシック
100
AcDbText
  0
LINE
  5
6C99
102
{ACAD_REACTORS
102
}
330
A
100
AcDbEntity
  8
モデル
  6
HIDDEN
100
AcDbLine
 10
273.1872132432653
 20
171.0952828805267
 30
0.0
 11
376.6124497424517
 21
171.0952828805267
 31
0.0
  0
MTEXT
  5
6CD9
330
A
100
AcDbEntity
  8
モデル
100
AcDbMText
 10
297.2664575106443
 20
71.30031734146002
 30
0.0
 40
4.666666666666666
 41
317.6678586698716
 46
5.21287149347672
 71
     1
 72
     5
  1
{対応扉厚:40mm(センター取付け時) ※40mm以外は偏芯対応(図面要確認)}
  7
ＭＳ ゴシック
 73
     1
 44
1.0
1001
ACAD
1000
ACAD_MTEXT_DEFINED_HEIGHT_BEGIN
1070
    46
1040
5.21287149347672
1000
ACAD_MTEXT_DEFINED_HEIGHT_END
  0
LINE
  5
6CDA
330
A
100
AcDbEntity
  8
モデル
100
AcDbLine
 10
289.3011941200585
 20
66.09998241981089
 30
0.0
 11
294.2959973989554
 21
66.09998241981089
 31
0.0
  0
LINE
  5
6CDB
330
A
100
AcDbEntity
  8
モデル
100
AcDbLine
 10
289.3011941200585
 20
66.09998241981089
 30
0.0
 11
291.7985957595063
 21
71.09478569870745
 31
0.0
  0
LINE
  5
6CDC
330
A
100
AcDbEntity
  8
モデル
100
AcDbLine
 10
291.7985957595063
 20
71.09478569870745
 30
0.0
 11
294.2959973989554
 21
66.09998241981089
 31
0.0
  0
MTEXT
  5
6CDD
330
A
100
AcDbEntity
  8
モデル
100
AcDbMText
 10
291.4415912051415
 20
69.71984124421544
 30
0.0
 40
3.822185138629192
 41
1.35758065535774
 46
15.0
 71
     1
 72
     5
  1
{\fTimes New Roman|b1|i0|c0|p0;\H0.8x;!}
  7
ＭＳ ゴシック
 73
     1
 44
1.0
1001
ACAD
1000
ACAD_MTEXT_DEFINED_HEIGHT_BEGIN
1070
    46
1040
15.0
1000
ACAD_MTEXT_DEFINED_HEIGHT_END
  0
TEXT
  5
6D0D
330
A
100
AcDbEntity
  8
テンプレート
100
AcDbText
 10
352.9329525263994
 20
177.3725909460458
 30
0.0
 40
3.0
  1
角芯センター
  7
ＭＳ ゴシック
100
AcDbText
  0
TEXT
  5
6D0E
330
A
100
AcDbEntity
  8
テンプレート
100
AcDbText
 10
353.1652238816997
 20
172.4687467261278
 30
0.0
 40
3.0
  1
引手センター
  7
ＭＳ ゴシック
100
AcDbText
  0
DIMENSION
  5
6D0F
102
{ACAD_REACTORS
330
6D11
102
}
102
{ACAD_XDICTIONARY
360
6D10
102
}
330
A
100
AcDbEntity
  8
モデル
100
AcDbDimension
  2
*D25
 10
347.1900057401195
 20
192.0984194418983
 30
0.0
 11
343.6890678884251
 21
181.5968511612126
 31
0.0
 70
    32
 71
     5
 42
21.00313656137146
 73
     0
 74
     0
 75
     0
  3
tfrom線あり
100
AcDbAlignedDimension
 13
347.1900057401195
 23
171.0952828805268
 33
0.0
 14
347.1900057401194
 24
192.0984194418983
 34
0.0
 50
90.0
100
AcDbRotatedDimension
1001
ACAD
1000
DSTYLE
1002
{
1070
    75
1070
     1
1070
    76
1070
     1
1070
    41
1040
2.0
1002
}
  0
VIEWPORT
  5
349
330
B
100
AcDbEntity
 67
     1
  8
0
100
AcDbViewport
 10
202.5
 20
128.5
 30
0.0
 40
486.0
 41
308.4
 68
     1
 69
     1
 12
202.5
 22
128.5
 13
0.0
 23
0.0
 14
0.5
 24
0.5
 15
0.0
 25
0.0
 16
0.0
 26
0.0
 36
1.0
 17
0.0
 27
0.0
 37
0.0
 42
50.0
 43
0.0
 44
0.0
 45
308.4
 50
0.0
 51
0.0
 72
   100
 90
   557152
  1

281
     0
 71
     1
 74
     0
110
0.0
120
0.0
130
0.0
111
1.0
121
0.0
131
0.0
112
0.0
122
1.0
132
0.0
 79
     0
146
0.0
170
     0
 61
     5
348
26C
292
     1
282
     1
141
0.0
142
0.0
 63
   256
  0
VIEWPORT
  5
34A
330
B
100
AcDbEntity
 67
     1
  8
0
100
AcDbViewport
 10
202.5
 20
128.5
 30
0.0
 40
324.0
 41
205.6
 68
     2
 69
     2
 12
986.6781359294573
 22
1427.077061889956
 13
0.0
 23
0.0
 14
0.5
 24
0.5
 15
0.0
 25
0.0
 16
0.0
 26
0.0
 36
1.0
 17
0.0
 27
0.0
 37
0.0
 42
50.0
 43
0.0
 44
0.0
 45
2890.021615685494
 50
0.0
 51
0.0
 72
   100
 90
   557152
  1

281
     0
 71
     1
 74
     0
110
0.0
120
0.0
130
0.0
111
1.0
121
0.0
131
0.0
112
0.0
122
1.0
132
0.0
 79
     0
146
0.0
170
     0
 61
     5
348
26C
292
     1
282
     1
141
0.0
142
0.0
 63
   256
  0
ENDSEC
  0
SECTION
  2
OBJECTS
  0
DICTIONARY
  5
19
330
0
100
AcDbDictionary
281
     1
  3
ACAD_COLOR
350
674
  3
ACAD_DETAILVIEWSTYLE
350
12F4
  3
ACAD_GROUP
350
1A
  3
ACAD_IMAGE_VARS
350
27B
  3
ACAD_LAYOUT
350
1E
  3
ACAD_MATERIAL
350
263
  3
ACAD_MLEADERSTYLE
350
336
  3
ACAD_MLINESTYLE
350
1B
  3
ACAD_PLOTSETTINGS
350
22
  3
ACAD_PLOTSTYLENAME
350
1F
  3
ACAD_SCALELIST
350
241
  3
ACAD_SECTIONVIEWSTYLE
350
12F5
  3
ACAD_TABLESTYLE
350
278
  3
ACAD_VISUALSTYLE
350
267
  3
AcadDim
350
453F
  3
ACDB_RECOMPOSE_DATA
350
6D23
  3
AcDbVariableDictionary
350
330
  3
AcStStandard
350
12B9
  3
APPDATA
350
27A
  0
SUN
  5
10E8
330
15
100
AcDbSun
 90
        1
290
     0
 63
     7
421
 16777215
 40
1.0
291
     1
 91
  2455826
 92
 54000000
292
     0
 70
     2
 71
   256
280
     1
  0
DICTIONARY
  5
2E1
330
2
100
AcDbDictionary
280
     1
281
     1
  3
ACAD_LAYERSTATES
360
2E2
  3
ACLYDICTIONARY
360
5A30
  0
DICTIONARY
  5
495A
330
A
100
AcDbDictionary
280
     1
281
     1
  3
ACAD_SORTENTS
360
495B
  0
DICTIONARY
  5
6079
330
6078
100
AcDbDictionary
280
     1
281
     1
  3
ACAD_DIMASSOC
360
607A
  0
DICTIONARY
  5
670E
330
670D
100
AcDbDictionary
280
     1
281
     1
  3
ACAD_DIMASSOC
360
670F
  0
DICTIONARY
  5
671D
330
671C
100
AcDbDictionary
280
     1
281
     1
  3
ACAD_DIMASSOC
360
671E
  0
DICTIONARY
  5
674D
330
674C
100
AcDbDictionary
280
     1
281
     1
  3
ACAD_DIMASSOC
360
674E
  0
DICTIONARY
  5
6B35
330
6B34
100
AcDbDictionary
280
     1
281
     1
  3
ACAD_DIMASSOC
360
6B36
  0
DICTIONARY
  5
6BA3
330
6BA2
100
AcDbDictionary
280
     1
281
     1
  3
ACAD_DIMASSOC
360
6BA4
  0
DICTIONARY
  5
6BB2
330
6BB1
100
AcDbDictionary
280
     1
281
     1
  3
ACAD_DIMASSOC
360
6BB3
  0
DICTIONARY
  5
6D10
330
6D0F
100
AcDbDictionary
280
     1
281
     1
  3
ACAD_DIMASSOC
360
6D11
  0
DICTIONARY
  5
674
102
{ACAD_REACTORS
330
19
102
}
330
19
100
AcDbDictionary
281
     1
  0
DICTIONARY
  5
12F4
102
{ACAD_REACTORS
330
19
102
}
330
19
100
AcDbDictionary
281
     1
  0
DICTIONARY
  5
1A
102
{ACAD_REACTORS
330
19
102
}
330
19
100
AcDbDictionary
281
     1
  3
*A1
350
6C58
  0
RASTERVARIABLES
  5
27B
102
{ACAD_REACTORS
330
19
102
}
330
19
100
AcDbRasterVariables
 90
        0
 70
     1
 71
     1
 72
     1
  0
DICTIONARY
  5
1E
102
{ACAD_REACTORS
330
19
102
}
330
19
100
AcDbDictionary
281
     1
  3
Layout1
350
21
  3
Layout2
350
12C4
  3
Model
350
20
  0
DICTIONARY
  5
263
102
{ACAD_REACTORS
330
19
102
}
330
19
100
AcDbDictionary
281
     1
  3
ByBlock
350
385B
  3
ByLayer
350
264
  3
Global
350
266
  0
DICTIONARY
  5
336
102
{ACAD_REACTORS
330
19
102
}
330
19
100
AcDbDictionary
281
     1
  3
Standard
350
4B3A
  0
DICTIONARY
  5
1B
102
{ACAD_REACTORS
330
19
102
}
330
19
100
AcDbDictionary
281
     1
  3
Standard
350
1C
  0
DICTIONARY
  5
22
102
{ACAD_REACTORS
330
19
102
}
330
19
100
AcDbDictionary
281
     1
  0
ACDBDICTIONARYWDFLT
  5
1F
102
{ACAD_REACTORS
330
19
102
}
330
19
100
AcDbDictionary
281
     1
  3
Normal
350
1D
100
AcDbDictionaryWithDefault
340
1D
  0
DICTIONARY
  5
241
102
{ACAD_REACTORS
330
19
102
}
330
19
100
AcDbDictionary
281
     1
  3
A0
350
242
  3
A1
350
243
  3
A2
350
244
  3
A3
350
245
  3
A4
350
246
  3
A5
350
247
  3
A6
350
248
  3
A7
350
249
  3
A8
350
24A
  3
A9
350
24B
  3
B0
350
24C
  3
B1
350
24D
  3
B2
350
24E
  3
B3
350
24F
  3
B4
350
250
  3
B5
350
251
  3
B6
350
252
  3
B7
350
253
  3
B8
350
254
  3
B9
350
255
  3
C0
350
256
  3
C1
350
257
  3
C2
350
258
  3
C3
350
259
  3
C4
350
25A
  3
C5
350
25B
  3
C6
350
25C
  3
C7
350
25D
  3
C8
350
25E
  3
C9
350
25F
  3
D0
350
260
  3
D1
350
261
  3
D2
350
262
  0
DICTIONARY
  5
12F5
102
{ACAD_REACTORS
330
19
102
}
330
19
100
AcDbDictionary
281
     1
  0
DICTIONARY
  5
278
102
{ACAD_REACTORS
330
19
102
}
330
19
100
AcDbDictionary
281
     1
  3
Standard
350
279
  0
DICTIONARY
  5
267
102
{ACAD_REACTORS
330
19
102
}
330
19
100
AcDbDictionary
281
     1
  3
2dWireframe
350
26C
  3
3D Hidden
350
26E
  3
3dWireframe
350
26D
  3
Basic
350
26F
  3
Brighten
350
273
  3
ColorChange
350
277
  3
Conceptual
350
271
  3
Dim
350
272
  3
EdgeColorOff
350
10E2
  3
Facepattern
350
276
  3
Flat
350
268
  3
FlatWithEdges
350
269
  3
Gouraud
350
26A
  3
GouraudWithEdges
350
26B
  3
Hidden
350
10DF
  3
JitterOff
350
10E0
  3
Linepattern
350
275
  3
OverhangOff
350
10E1
  3
Realistic
350
270
  3
Shaded
350
10E7
  3
Shaded with edges
350
10E6
  3
Shades of Gray
350
10E3
  3
Sketchy
350
10E4
  3
Thicken
350
274
  3
Wireframe
350
10DE
  3
X-Ray
350
10E5
  0
XRECORD
  5
453F
102
{ACAD_REACTORS
330
19
102
}
330
19
100
AcDbXrecord
280
     1
340
0
 72
     0
 71
     0
 70
     0
 69
     0
 68
     1
 67
     3
 66
     0
 65
     0
 64
     0
 63
     3
 62
     1
 61
     0
 60
     0
 40
0.0
  0
XRECORD
  5
6D23
102
{ACAD_REACTORS
330
19
102
}
330
19
100
AcDbXrecord
280
     1
 90
        1
330
279
  0
DICTIONARY
  5
330
102
{ACAD_REACTORS
330
19
102
}
330
19
100
AcDbDictionary
281
     1
  3
CANNOSCALE
350
331
  3
CMLEADERSTYLE
350
4B3B
  3
CTABLESTYLE
350
335
  3
HPTRANSPARENCY
350
4569
  3
XCLIPFRAME
350
109E
  0
DICTIONARY
  5
12B9
102
{ACAD_REACTORS
330
19
102
}
330
19
100
AcDbDictionary
281
     1
  0
DICTIONARY
  5
27A
102
{ACAD_REACTORS
330
19
102
}
330
19
100
AcDbDictionary
281
     1
  0
DICTIONARY
  5
2E2
102
{ACAD_REACTORS
330
2E1
102
}
330
2E1
100
AcDbDictionary
281
     1
  0
DICTIONARY
  5
5A30
102
{ACAD_REACTORS
330
2E1
102
}
330
2E1
100
AcDbDictionary
281
     1
1001
ACAD
1000
<All
  0
SORTENTSTABLE
  5
495B
102
{ACAD_REACTORS
330
495A
102
}
330
495A
100
AcDbSortentsTable
330
A
331
52D6
  5
52D8
331
52D7
  5
52D9
331
52D8
  5
52DA
331
52DB
  5
52DD
331
52DC
  5
52DE
331
52DD
  5
52DF
331
52DE
  5
52E0
331
52DF
  5
52E1
331
52E0
  5
52E2
331
52E1
  5
52E3
331
52E3
  5
52E5
331
52E4
  5
52E6
331
52E5
  5
52E7
331
52E6
  5
52E8
331
52E7
  5
52E9
331
52E8
  5
52EA
331
52E9
  5
52EB
331
52EA
  5
52EC
331
52EB
  5
52ED
331
52EC
  5
52EE
331
52ED
  5
52EF
331
52EE
  5
52F0
  0
DIMASSOC
  5
607A
102
{ACAD_REACTORS
330
6079
102
}
330
6079
100
AcDbDimAssoc
330
6078
 90
        3
 70
     0
 71
     1
  1
AcDbOsnapPointRef
 72
     1
331
6037
 73
     0
 91
        0
 40
0.0
 10
0.0
 20
0.0
 30
0.0
 75
     0
  1
AcDbOsnapPointRef
 72
     1
331
6044
 73
     0
 91
        0
 40
0.0
 10
0.0
 20
0.0
 30
0.0
 75
     0
  0
DIMASSOC
  5
670F
102
{ACAD_REACTORS
330
670E
102
}
330
670E
100
AcDbDimAssoc
330
670D
 90
        3
 70
     0
 71
     1
  1
AcDbOsnapPointRef
 72
     2
331
5FB0
 73
     0
 91
        0
 40
0.5
 10
0.0
 20
0.0
 30
0.0
 75
     0
  1
AcDbOsnapPointRef
 72
    13
331
5FA5
 73
     0
 91
        0
 40
0.0
 10
0.0
 20
0.0
 30
0.0
 75
     0
  0
DIMASSOC
  5
671E
102
{ACAD_REACTORS
330
671D
102
}
330
671D
100
AcDbDimAssoc
330
671C
 90
        3
 70
     0
 71
     1
  1
AcDbOsnapPointRef
 72
    13
331
63A3
 73
     0
 91
        0
 40
0.0
 10
0.0
 20
0.0
 30
0.0
 75
     0
  1
AcDbOsnapPointRef
 72
     1
331
63A6
 73
     0
 91
        0
 40
0.0
 10
0.0
 20
0.0
 30
0.0
 75
     0
  0
DIMASSOC
  5
674E
102
{ACAD_REACTORS
330
674D
102
}
330
674D
100
AcDbDimAssoc
330
674C
 90
        3
 70
     0
 71
     1
  1
AcDbOsnapPointRef
 72
    13
331
63CD
 73
     0
 91
        0
 40
0.0
 10
0.0
 20
0.0
 30
0.0
 75
     0
  1
AcDbOsnapPointRef
 72
     1
331
63D0
 73
     0
 91
        0
 40
0.0
 10
0.0
 20
0.0
 30
0.0
 75
     0
  0
DIMASSOC
  5
6B36
102
{ACAD_REACTORS
330
6B35
102
}
330
6B35
100
AcDbDimAssoc
330
6B34
 90
        2
 70
     0
 71
     1
  1
AcDbOsnapPointRef
 72
    10
331
63A1
 73
     0
 91
        0
 40
0.1236111072711026
 10
0.0
 20
0.0
 30
0.0
 75
     0
  0
DIMASSOC
  5
6BA4
102
{ACAD_REACTORS
330
6BA3
102
}
330
6BA3
100
AcDbDimAssoc
330
6BA2
 90
        3
 70
     0
 71
     1
  1
AcDbOsnapPointRef
 72
    10
331
63D0
 73
     0
 91
        0
 40
0.8836269173302133
 10
0.0
 20
0.0
 30
0.0
 75
     0
  1
AcDbOsnapPointRef
 72
    10
331
63C8
 73
     0
 91
        0
 40
0.9135209366481489
 10
0.0
 20
0.0
 30
0.0
 75
     0
  0
DIMASSOC
  5
6BB3
102
{ACAD_REACTORS
330
6BB2
102
}
330
6BB2
100
AcDbDimAssoc
330
6BB1
 90
        3
 70
     0
 71
     1
  1
AcDbOsnapPointRef
 72
     1
331
63C3
 73
     0
 91
        0
 40
0.0
 10
0.0
 20
0.0
 30
0.0
 75
     0
  1
AcDbOsnapPointRef
 72
     1
331
63C9
 73
     0
 91
        0
 40
0.0
 10
0.0
 20
0.0
 30
0.0
 75
     0
  0
DIMASSOC
  5
6D11
102
{ACAD_REACTORS
330
6D10
102
}
330
6D10
100
AcDbDimAssoc
330
6D0F
 90
        2
 70
     0
 71
     1
  1
AcDbOsnapPointRef
 72
     8
331
6C97
 73
     0
 91
        0
 40
0.8004595206481879
 10
0.0
 20
0.0
 30
0.0
 75
     1
  1
AcDbOsnapPointRef
 72
     1
331
66FE
331
6704
 73
     0
 91
        0
 40
0.0
 10
0.0
 20
0.0
 30
0.0
 75
     0
  0
GROUP
  5
6C58
102
{ACAD_REACTORS
330
1A
102
}
330
1A
100
AcDbGroup
300

 70
     1
 71
     1
340
6C52
340
6C53
340
6C54
340
6C55
  0
LAYOUT
  5
21
102
{ACAD_REACTORS
330
1E
102
}
330
1E
100
AcDbPlotSettings
  1

  2
none_device
  4
ISO_A3_(420.00_x_297.00_MM)
  6

 40
7.5
 41
20.0
 42
7.5
 43
20.0
 44
420.0
 45
297.0
 46
0.0
 47
0.0
 48
0.0
 49
0.0
140
0.0
141
0.0
142
1.0
143
1.0
 70
     0
 72
     1
 73
     0
 74
     0
  7

 75
     0
 76
     0
 77
     2
 78
   300
147
1.0
148
0.0
149
0.0
100
AcDbLayout
  1
Layout1
 70
     0
 71
     0
 10
-7.5
 20
-20.0
 11
412.5
 21
277.0
 12
0.0
 22
0.0
 32
0.0
 14
0.0
 24
0.0
 34
0.0
 15
0.0
 25
0.0
 35
0.0
146
0.0
 13
0.0
 23
0.0
 33
0.0
 16
0.0
 26
0.0
 36
0.0
 17
0.0
 27
0.0
 37
0.0
 76
     0
330
B
331
349
  0
LAYOUT
  5
12C4
102
{ACAD_REACTORS
330
1E
102
}
330
1E
100
AcDbPlotSettings
  1

  2
none_device
  4

  6

 40
0.0
 41
0.0
 42
0.0
 43
0.0
 44
0.0
 45
0.0
 46
0.0
 47
0.0
 48
0.0
 49
0.0
140
0.0
141
0.0
142
1.0
143
1.0
 70
   688
 72
     1
 73
     0
 74
     5
  7

 75
    16
 76
     0
 77
     2
 78
   300
147
1.0
148
0.0
149
0.0
100
AcDbLayout
  1
Layout2
 70
     1
 71
     2
 10
0.0
 20
0.0
 11
0.0
 21
0.0
 12
0.0
 22
0.0
 32
0.0
 14
0.0
 24
0.0
 34
0.0
 15
0.0
 25
0.0
 35
0.0
146
0.0
 13
0.0
 23
0.0
 33
0.0
 16
1.0
 26
0.0
 36
0.0
 17
0.0
 27
1.0
 37
0.0
 76
     0
330
12C3
  0
LAYOUT
  5
20
102
{ACAD_REACTORS
330
1E
102
}
330
1E
100
AcDbPlotSettings
  1

  2
none_device
  4
ISO_A3_(420.00_x_297.00_MM)
  6

 40
7.5
 41
20.0
 42
7.5
 43
20.0
 44
420.0
 45
297.0
 46
0.0
 47
0.0
 48
0.0
 49
0.0
140
0.0
141
0.0
142
1.0
143
1.0
 70
  1024
 72
     1
 73
     0
 74
     0
  7

 75
     0
 76
     0
 77
     2
 78
   300
147
1.0
148
0.0
149
0.0
100
AcDbLayout
  1
Model
 70
     0
 71
     1
 10
0.0
 20
0.0
 11
593.9999999999999
 21
420.0
 12
0.0
 22
0.0
 32
0.0
 14
0.0
 24
0.0
 34
0.0
 15
593.9999999999999
 25
420.0
 35
0.0
146
0.0
 13
0.0
 23
0.0
 33
0.0
 16
0.0
 26
0.0
 36
0.0
 17
0.0
 27
0.0
 37
0.0
 76
     0
330
A
331
15
  0
MATERIAL
  5
385B
102
{ACAD_REACTORS
330
263
102
}
330
263
100
AcDbMaterial
  1
ByBlock
 72
     1
 94
      127
  0
MATERIAL
  5
264
102
{ACAD_REACTORS
330
263
102
}
330
263
100
AcDbMaterial
  1
ByLayer
 72
     1
 94
      127
  0
MATERIAL
  5
266
102
{ACAD_REACTORS
330
263
102
}
330
263
100
AcDbMaterial
  1
Global
 72
     1
 94
      127
  0
MLEADERSTYLE
  5
4B3A
102
{ACAD_REACTORS
330
336
102
}
330
336
100
AcDbMLeaderStyle
170
     2
171
     1
172
     0
 90
        2
 40
0.0
 41
0.0
173
     1
 91
-1056964608
340
11
 92
       -2
290
     1
 42
2.0
291
     1
 43
8.0
  3
Standard
341
0
 44
4.0
300

342
17
174
     1
178
     6
175
     1
176
     0
 93
-1056964608
 45
4.0
292
     0
297
     0
 46
4.0
343
0
 94
-1056964608
 47
1.0
 49
1.0
140
1.0
293
     1
141
0.0
294
     1
177
     0
142
1.0
295
     0
296
     0
143
3.75
1001
ACAD_MLEADERVER
1070
     2
  0
MLINESTYLE
  5
1C
102
{ACAD_REACTORS
330
1B
102
}
330
1B
100
AcDbMlineStyle
  2
Standard
 70
     0
  3

 62
     0
 51
90.0
 52
90.0
 71
     2
 49
0.5
 62
   256
  6
BYLAYER
 49
-0.5
 62
   256
  6
BYLAYER
  0
ACDBPLACEHOLDER
  5
1D
102
{ACAD_REACTORS
330
1F
102
}
330
1F
  0
SCALE
  5
242
102
{ACAD_REACTORS
330
241
102
}
330
241
100
AcDbScale
 70
     0
300
1:1
140
1.0
141
1.0
290
     1
  0
SCALE
  5
243
102
{ACAD_REACTORS
330
241
102
}
330
241
100
AcDbScale
 70
     0
300
1:2
140
1.0
141
2.0
290
     0
  0
SCALE
  5
244
102
{ACAD_REACTORS
330
241
102
}
330
241
100
AcDbScale
 70
     0
300
1:4
140
1.0
141
4.0
290
     0
  0
SCALE
  5
245
102
{ACAD_REACTORS
330
241
102
}
330
241
100
AcDbScale
 70
     0
300
1:5
140
1.0
141
5.0
290
     0
  0
SCALE
  5
246
102
{ACAD_REACTORS
330
241
102
}
330
241
100
AcDbScale
 70
     0
300
1:8
140
1.0
141
8.0
290
     0
  0
SCALE
  5
247
102
{ACAD_REACTORS
330
241
102
}
330
241
100
AcDbScale
 70
     0
300
1:10
140
1.0
141
10.0
290
     0
  0
SCALE
  5
248
102
{ACAD_REACTORS
330
241
102
}
330
241
100
AcDbScale
 70
     0
300
1:16
140
1.0
141
16.0
290
     0
  0
SCALE
  5
249
102
{ACAD_REACTORS
330
241
102
}
330
241
100
AcDbScale
 70
     0
300
1:20
140
1.0
141
20.0
290
     0
  0
SCALE
  5
24A
102
{ACAD_REACTORS
330
241
102
}
330
241
100
AcDbScale
 70
     0
300
1:30
140
1.0
141
30.0
290
     0
  0
SCALE
  5
24B
102
{ACAD_REACTORS
330
241
102
}
330
241
100
AcDbScale
 70
     0
300
1:40
140
1.0
141
40.0
290
     0
  0
SCALE
  5
24C
102
{ACAD_REACTORS
330
241
102
}
330
241
100
AcDbScale
 70
     0
300
1:50
140
1.0
141
50.0
290
     0
  0
SCALE
  5
24D
102
{ACAD_REACTORS
330
241
102
}
330
241
100
AcDbScale
 70
     0
300
1:100
140
1.0
141
100.0
290
     0
  0
SCALE
  5
24E
102
{ACAD_REACTORS
330
241
102
}
330
241
100
AcDbScale
 70
     0
300
2:1
140
2.0
141
1.0
290
     0
  0
SCALE
  5
24F
102
{ACAD_REACTORS
330
241
102
}
330
241
100
AcDbScale
 70
     0
300
4:1
140
4.0
141
1.0
290
     0
  0
SCALE
  5
250
102
{ACAD_REACTORS
330
241
102
}
330
241
100
AcDbScale
 70
     0
300
8:1
140
8.0
141
1.0
290
     0
  0
SCALE
  5
251
102
{ACAD_REACTORS
330
241
102
}
330
241
100
AcDbScale
 70
     0
300
10:1
140
10.0
141
1.0
290
     0
  0
SCALE
  5
252
102
{ACAD_REACTORS
330
241
102
}
330
241
100
AcDbScale
 70
     0
300
100:1
140
100.0
141
1.0
290
     0
  0
SCALE
  5
253
102
{ACAD_REACTORS
330
241
102
}
330
241
100
AcDbScale
 70
     0
300
1/128" = 1'-0"
140
0.0078125
141
12.0
290
     0
  0
SCALE
  5
254
102
{ACAD_REACTORS
330
241
102
}
330
241
100
AcDbScale
 70
     0
300
1/64" = 1'-0"
140
0.015625
141
12.0
290
     0
  0
SCALE
  5
255
102
{ACAD_REACTORS
330
241
102
}
330
241
100
AcDbScale
 70
     0
300
1/32" = 1'-0"
140
0.03125
141
12.0
290
     0
  0
SCALE
  5
256
102
{ACAD_REACTORS
330
241
102
}
330
241
100
AcDbScale
 70
     0
300
1/16" = 1'-0"
140
0.0625
141
12.0
290
     0
  0
SCALE
  5
257
102
{ACAD_REACTORS
330
241
102
}
330
241
100
AcDbScale
 70
     0
300
3/32" = 1'-0"
140
0.09375
141
12.0
290
     0
  0
SCALE
  5
258
102
{ACAD_REACTORS
330
241
102
}
330
241
100
AcDbScale
 70
     0
300
1/8" = 1'-0"
140
0.125
141
12.0
290
     0
  0
SCALE
  5
259
102
{ACAD_REACTORS
330
241
102
}
330
241
100
AcDbScale
 70
     0
300
3/16" = 1'-0"
140
0.1875
141
12.0
290
     0
  0
SCALE
  5
25A
102
{ACAD_REACTORS
330
241
102
}
330
241
100
AcDbScale
 70
     0
300
1/4" = 1'-0"
140
0.25
141
12.0
290
     0
  0
SCALE
  5
25B
102
{ACAD_REACTORS
330
241
102
}
330
241
100
AcDbScale
 70
     0
300
3/8" = 1'-0"
140
0.375
141
12.0
290
     0
  0
SCALE
  5
25C
102
{ACAD_REACTORS
330
241
102
}
330
241
100
AcDbScale
 70
     0
300
1/2" = 1'-0"
140
0.5
141
12.0
290
     0
  0
SCALE
  5
25D
102
{ACAD_REACTORS
330
241
102
}
330
241
100
AcDbScale
 70
     0
300
3/4" = 1'-0"
140
0.75
141
12.0
290
     0
  0
SCALE
  5
25E
102
{ACAD_REACTORS
330
241
102
}
330
241
100
AcDbScale
 70
     0
300
1" = 1'-0"
140
1.0
141
12.0
290
     0
  0
SCALE
  5
25F
102
{ACAD_REACTORS
330
241
102
}
330
241
100
AcDbScale
 70
     0
300
1-1/2" = 1'-0"
140
1.5
141
12.0
290
     0
  0
SCALE
  5
260
102
{ACAD_REACTORS
330
241
102
}
330
241
100
AcDbScale
 70
     0
300
3" = 1'-0"
140
3.0
141
12.0
290
     0
  0
SCALE
  5
261
102
{ACAD_REACTORS
330
241
102
}
330
241
100
AcDbScale
 70
     0
300
6" = 1'-0"
140
6.0
141
12.0
290
     0
  0
SCALE
  5
262
102
{ACAD_REACTORS
330
241
102
}
330
241
100
AcDbScale
 70
     0
300
1'-0" = 1'-0"
140
12.0
141
12.0
290
     0
  0
TABLESTYLE
  5
279
102
{ACAD_REACTORS
330
278
102
}
102
{ACAD_XDICTIONARY
360
6D21
102
}
330
278
100
AcDbTableStyle
  3
Standard
 70
     0
 71
     0
 40
0.06
 41
0.06
280
     0
281
     0
  7
Standard
140
4.5
170
     2
 62
     0
 63
   257
283
     0
 90
        4
 91
        0
  1

274
    -2
284
     1
 64
     0
275
    -2
285
     1
 65
     0
276
    -2
286
     1
 66
     0
277
    -2
287
     1
 67
     0
278
    -2
288
     1
 68
     0
279
    -2
289
     1
 69
     0
  7
Standard
140
6.0
170
     5
 62
     0
 63
   257
283
     0
 90
        4
 91
        0
  1

274
    -2
284
     1
 64
     0
275
    -2
285
     1
 65
     0
276
    -2
286
     1
 66
     0
277
    -2
287
     1
 67
     0
278
    -2
288
     1
 68
     0
279
    -2
289
     1
 69
     0
  7
Standard
140
4.5
170
     5
 62
     0
 63
   257
283
     0
 90
        4
 91
        0
  1

274
    -2
284
     1
 64
     0
275
    -2
285
     1
 65
     0
276
    -2
286
     1
 66
     0
277
    -2
287
     1
 67
     0
278
    -2
288
     1
 68
     0
279
    -2
289
     1
 69
     0
  0
VISUALSTYLE
  5
26C
102
{ACAD_REACTORS
330
267
102
}
330
267
100
AcDbVisualStyle
  2
2dWireframe
 70
     4
 71
     0
 72
     2
 73
     0
 90
        0
 40
-0.6
 41
-30.0
 62
     5
 63
     7
421
 16777215
 74
     1
 91
        4
 64
     7
 65
   257
 75
     1
175
     1
 42
1.0
 92
        0
 66
   257
 43
1.0
 76
     1
 77
     6
 78
     2
 67
     7
 79
     5
170
     0
171
     0
290
     0
174
     0
 93
        1
 44
0.0
173
     0
291
     0
 45
0.0
  0
VISUALSTYLE
  5
26E
102
{ACAD_REACTORS
330
267
102
}
330
267
100
AcDbVisualStyle
  2
3D Hidden
 70
     6
 71
     1
 72
     2
 73
     2
 90
        0
 40
-0.6
 41
-30.0
 62
     5
 63
     7
421
 16777215
 74
     2
 91
        2
 64
     7
 65
   257
 75
     2
175
     1
 42
40.0
 92
        0
 66
   257
 43
1.0
 76
     1
 77
     6
 78
     2
 67
     7
 79
     3
170
     0
171
     0
290
     0
174
     0
 93
        1
 44
0.0
173
     0
291
     0
 45
0.0
  0
VISUALSTYLE
  5
26D
102
{ACAD_REACTORS
330
267
102
}
330
267
100
AcDbVisualStyle
  2
3dWireframe
 70
     5
 71
     0
 72
     2
 73
     0
 90
        0
 40
-0.6
 41
-30.0
 62
     5
 63
     7
421
 16777215
 74
     1
 91
        4
 64
     7
 65
   257
 75
     1
175
     1
 42
1.0
 92
        0
 66
   257
 43
1.0
 76
     1
 77
     6
 78
     2
 67
     7
 79
     5
170
     0
171
     0
290
     0
174
     0
 93
        1
 44
0.0
173
     0
291
     0
 45
0.0
  0
VISUALSTYLE
  5
26F
102
{ACAD_REACTORS
330
267
102
}
330
267
100
AcDbVisualStyle
  2
Basic
 70
     7
 71
     1
 72
     0
 73
     1
 90
        0
 40
-0.6
 41
-30.0
 62
     5
 63
     7
421
 16777215
 74
     0
 91
        4
 64
     7
 65
   257
 75
     1
175
     1
 42
1.0
 92
        8
 66
     7
 43
1.0
 76
     1
 77
     6
 78
     2
 67
     7
 79
     5
170
     0
171
     0
290
     0
174
     0
 93
        1
 44
0.0
173
     0
291
     1
 45
0.0
  0
VISUALSTYLE
  5
273
102
{ACAD_REACTORS
330
267
102
}
330
267
100
AcDbVisualStyle
  2
Brighten
 70
    12
 71
     2
 72
     2
 73
     0
 90
        0
 40
-0.6
 41
-30.0
 62
     5
 63
     7
421
 16777215
 74
     1
 91
        4
 64
     7
 65
   257
 75
     1
175
     1
 42
1.0
 92
        8
 66
     7
 43
1.0
 76
     1
 77
     6
 78
     2
 67
     7
 79
     5
170
     0
171
     0
290
     0
174
     0
 93
        1
 44
50.0
173
     0
291
     1
 45
0.0
  0
VISUALSTYLE
  5
277
102
{ACAD_REACTORS
330
267
102
}
330
267
100
AcDbVisualStyle
  2
ColorChange
 70
    16
 71
     2
 72
     2
 73
     3
 90
        0
 40
-0.6
 41
-30.0
 62
     5
 63
     8
421
  8421504
 74
     1
 91
        4
 64
     7
 65
   257
 75
     1
175
     1
 42
1.0
 92
        8
 66
     8
424
  8421504
 43
1.0
 76
     1
 77
     6
 78
     2
 67
     7
 79
     5
170
     0
171
     0
290
     0
174
     0
 93
        1
 44
0.0
173
     0
291
     1
 45
0.0
  0
VISUALSTYLE
  5
271
102
{ACAD_REACTORS
330
267
102
}
330
267
100
AcDbVisualStyle
  2
Conceptual
 70
     9
 71
     3
 72
     2
 73
     0
 90
        0
 40
-0.6
 41
-30.0
 62
     5
 63
     7
421
 16777215
 74
     2
 91
        2
 64
     7
 65
   257
 75
     1
175
     1
 42
40.0
 92
        8
 66
     7
 43
1.0
 76
     1
 77
     6
 78
     2
 67
     7
 79
     3
170
     0
171
     0
290
     0
174
     0
 93
        1
 44
0.0
173
     0
291
     0
 45
0.0
  0
VISUALSTYLE
  5
272
102
{ACAD_REACTORS
330
267
102
}
330
267
100
AcDbVisualStyle
  2
Dim
 70
    11
 71
     2
 72
     2
 73
     0
 90
        0
 40
-0.6
 41
-30.0
 62
     5
 63
     7
421
 16777215
 74
     1
 91
        4
 64
     7
 65
   257
 75
     1
175
     1
 42
1.0
 92
        8
 66
     7
 43
1.0
 76
     1
 77
     6
 78
     2
 67
     7
 79
     5
170
     0
171
     0
290
     0
174
     0
 93
        1
 44
-50.0
173
     0
291
     1
 45
0.0
  0
VISUALSTYLE
  5
10E2
102
{ACAD_REACTORS
330
267
102
}
330
267
100
AcDbVisualStyle
  2
EdgeColorOff
 70
    22
 71
     2
 72
     2
 73
     0
 90
        0
 40
0.6
 41
30.0
 62
     5
 63
     7
421
 16777215
 74
     1
 91
        4
 64
     7
 65
   257
 75
     1
175
     1
 42
1.0
 92
        8
 66
     7
 43
1.0
 76
     1
 77
     6
 78
     2
 67
     7
 79
     5
170
     0
171
     0
290
     0
174
     0
 93
        1
 44
0.0
173
     0
291
     1
 45
0.0
  0
VISUALSTYLE
  5
276
102
{ACAD_REACTORS
330
267
102
}
330
267
100
AcDbVisualStyle
  2
Facepattern
 70
    15
 71
     2
 72
     2
 73
     0
 90
        0
 40
-0.6
 41
-30.0
 62
     5
 63
     7
421
 16777215
 74
     1
 91
        4
 64
     7
 65
   257
 75
     1
175
     1
 42
1.0
 92
        8
 66
     7
 43
1.0
 76
     1
 77
     6
 78
     2
 67
     7
 79
     5
170
     0
171
     0
290
     0
174
     0
 93
        1
 44
0.0
173
     0
291
     1
 45
0.0
  0
VISUALSTYLE
  5
268
102
{ACAD_REACTORS
330
267
102
}
330
267
100
AcDbVisualStyle
  2
Flat
 70
     0
 71
     2
 72
     1
 73
     1
 90
        2
 40
-0.6
 41
30.0
 62
     5
 63
     7
421
 16777215
 74
     0
 91
        4
 64
     7
 65
   257
 75
     1
175
     1
 42
1.0
 92
        8
 66
     7
 43
1.0
 76
     1
 77
     6
 78
     2
 67
     7
 79
     5
170
     0
171
     0
290
     0
174
     0
 93
       13
 44
0.0
173
     0
291
     1
 45
0.0
  0
VISUALSTYLE
  5
269
102
{ACAD_REACTORS
330
267
102
}
330
267
100
AcDbVisualStyle
  2
FlatWithEdges
 70
     1
 71
     2
 72
     1
 73
     1
 90
        2
 40
-0.6
 41
30.0
 62
     5
 63
     7
421
 16777215
 74
     1
 91
        4
 64
     7
 65
   257
 75
     1
175
     1
 42
1.0
 92
        0
 66
   257
 43
1.0
 76
     1
 77
     6
 78
     2
 67
     7
 79
     5
170
     0
171
     0
290
     0
174
     0
 93
       13
 44
0.0
173
     0
291
     1
 45
0.0
  0
VISUALSTYLE
  5
26A
102
{ACAD_REACTORS
330
267
102
}
330
267
100
AcDbVisualStyle
  2
Gouraud
 70
     2
 71
     2
 72
     2
 73
     1
 90
        2
 40
-0.6
 41
30.0
 62
     5
 63
     7
421
 16777215
 74
     0
 91
        4
 64
     7
 65
   257
 75
     1
175
     1
 42
1.0
 92
        0
 66
     7
 43
1.0
 76
     1
 77
     6
 78
     2
 67
     7
 79
     5
170
     0
171
     0
290
     0
174
     0
 93
       13
 44
0.0
173
     0
291
     1
 45
0.0
  0
VISUALSTYLE
  5
26B
102
{ACAD_REACTORS
330
267
102
}
330
267
100
AcDbVisualStyle
  2
GouraudWithEdges
 70
     3
 71
     2
 72
     2
 73
     1
 90
        2
 40
-0.6
 41
30.0
 62
     5
 63
     7
421
 16777215
 74
     1
 91
        4
 64
     7
 65
   257
 75
     1
175
     1
 42
1.0
 92
        0
 66
   257
 43
1.0
 76
     1
 77
     6
 78
     2
 67
     7
 79
     5
170
     0
171
     0
290
     0
174
     0
 93
       13
 44
0.0
173
     0
291
     1
 45
0.0
  0
VISUALSTYLE
  5
10DF
102
{ACAD_REACTORS
330
267
102
}
330
267
100
AcDbVisualStyle
  2
Hidden
 70
     6
 71
     1
 72
     2
 73
     2
 90
        0
 40
0.6
 41
30.0
 62
     5
 63
     7
421
 16777215
 74
     2
 91
        2
 64
     7
 65
   257
 75
     2
175
     1
 42
40.0
 92
        0
 66
   257
 43
1.0
 76
     1
 77
     6
 78
     2
 67
     7
 79
     3
170
     0
171
     0
290
     0
174
     0
 93
        1
 44
0.0
173
     0
291
     0
 45
0.0
  0
VISUALSTYLE
  5
10E0
102
{ACAD_REACTORS
330
267
102
}
330
267
100
AcDbVisualStyle
  2
JitterOff
 70
    20
 71
     2
 72
     2
 73
     0
 90
        0
 40
0.6
 41
30.0
 62
     5
 63
     7
421
 16777215
 74
     1
 91
        4
 64
     7
 65
   257
 75
     1
175
     1
 42
1.0
 92
       10
 66
     7
 43
1.0
 76
     1
 77
     6
 78
     2
 67
     7
 79
     5
170
     0
171
     0
290
     0
174
     0
 93
        1
 44
0.0
173
     0
291
     1
 45
0.0
  0
VISUALSTYLE
  5
275
102
{ACAD_REACTORS
330
267
102
}
330
267
100
AcDbVisualStyle
  2
Linepattern
 70
    14
 71
     2
 72
     2
 73
     0
 90
        0
 40
-0.6
 41
-30.0
 62
     5
 63
     7
421
 16777215
 74
     1
 91
        4
 64
     7
 65
   257
 75
     7
175
     7
 42
1.0
 92
        8
 66
     7
 43
1.0
 76
     1
 77
     6
 78
     2
 67
     7
 79
     5
170
     0
171
     0
290
     0
174
     0
 93
        1
 44
0.0
173
     0
291
     1
 45
0.0
  0
VISUALSTYLE
  5
10E1
102
{ACAD_REACTORS
330
267
102
}
330
267
100
AcDbVisualStyle
  2
OverhangOff
 70
    21
 71
     2
 72
     2
 73
     0
 90
        0
 40
0.6
 41
30.0
 62
     5
 63
     7
421
 16777215
 74
     1
 91
        4
 64
     7
 65
   257
 75
     1
175
     1
 42
1.0
 92
        9
 66
     7
 43
1.0
 76
     1
 77
     6
 78
     2
 67
     7
 79
     5
170
     0
171
     0
290
     0
174
     0
 93
        1
 44
0.0
173
     0
291
     1
 45
0.0
  0
VISUALSTYLE
  5
270
102
{ACAD_REACTORS
330
267
102
}
330
267
100
AcDbVisualStyle
  2
Realistic
 70
     8
 71
     2
 72
     2
 73
     0
 90
        0
 40
-0.6
 41
-30.0
 62
     5
 63
     7
421
 16777215
 74
     1
 91
        0
 64
     7
 65
   257
 75
     1
175
     1
 42
1.0
 92
        8
 66
     8
424
  7895160
 43
1.0
 76
     1
 77
     6
 78
     2
 67
     7
 79
     5
170
     0
171
     0
290
     0
174
     0
 93
       13
 44
0.0
173
     0
291
     0
 45
0.0
  0
VISUALSTYLE
  5
10E7
102
{ACAD_REACTORS
330
267
102
}
330
267
100
AcDbVisualStyle
  2
Shaded
 70
    27
 71
     2
 72
     2
 73
     1
 90
        2
 40
0.6
 41
30.0
 62
     5
 63
     7
421
 16777215
 74
     0
 91
        4
 64
     7
 65
   257
 75
     1
175
     1
 42
1.0
 92
        8
 66
   257
 43
1.0
 76
     1
 77
     6
 78
     2
 67
     8
425
  7895160
 79
     3
170
     0
171
     0
290
     0
174
     0
 93
        5
 44
0.0
173
     0
291
     0
 45
0.0
  0
VISUALSTYLE
  5
10E6
102
{ACAD_REACTORS
330
267
102
}
330
267
100
AcDbVisualStyle
  2
Shaded with edges
 70
    26
 71
     2
 72
     2
 73
     1
 90
        2
 40
0.6
 41
30.0
 62
     5
 63
     7
421
 16777215
 74
     1
 91
       10
 64
     7
 65
   257
 75
     2
175
     1
 42
1.0
 92
        8
 66
   257
 43
1.0
 76
     1
 77
     6
 78
     2
 67
     7
 79
     3
170
     0
171
     0
290
     0
174
     0
 93
        5
 44
0.0
173
     0
291
     0
 45
0.0
  0
VISUALSTYLE
  5
10E3
102
{ACAD_REACTORS
330
267
102
}
330
267
100
AcDbVisualStyle
  2
Shades of Gray
 70
    23
 71
     2
 72
     2
 73
     3
 90
        0
 40
0.6
 41
30.0
 62
     5
 63
     7
421
 16777215
 74
     2
 91
        2
 64
     7
 65
     7
 75
     1
175
     1
 42
40.0
 92
        8
 66
     7
 43
1.0
 76
     1
 77
     6
 78
     2
 67
     7
 79
     3
170
     0
171
     0
290
     0
174
     0
 93
        1
 44
0.0
173
     0
291
     0
 45
0.0
  0
VISUALSTYLE
  5
10E4
102
{ACAD_REACTORS
330
267
102
}
330
267
100
AcDbVisualStyle
  2
Sketchy
 70
    24
 71
     1
 72
     2
 73
     2
 90
        0
 40
0.6
 41
30.0
 62
     5
 63
     7
421
 16777215
 74
     2
 91
        2
 64
     7
 65
     7
 75
     1
175
     1
 42
40.0
 92
       11
 66
     7
 43
1.0
 76
     1
 77
     6
 78
     2
 67
     7
 79
     6
170
     0
171
     0
290
     0
174
     0
 93
        1
 44
0.0
173
     0
291
     0
 45
0.0
  0
VISUALSTYLE
  5
274
102
{ACAD_REACTORS
330
267
102
}
330
267
100
AcDbVisualStyle
  2
Thicken
 70
    13
 71
     2
 72
     2
 73
     0
 90
        0
 40
-0.6
 41
-30.0
 62
     5
 63
     7
421
 16777215
 74
     1
 91
        4
 64
     7
 65
   257
 75
     1
175
     1
 42
1.0
 92
       12
 66
     7
 43
1.0
 76
     1
 77
     6
 78
     2
 67
     7
 79
     5
170
     0
171
     0
290
     0
174
     0
 93
        1
 44
0.0
173
     0
291
     1
 45
0.0
  0
VISUALSTYLE
  5
10DE
102
{ACAD_REACTORS
330
267
102
}
330
267
100
AcDbVisualStyle
  2
Wireframe
 70
     5
 71
     0
 72
     2
 73
     0
 90
        0
 40
0.6
 41
30.0
 62
     5
 63
     7
421
 16777215
 74
     1
 91
        4
 64
     7
 65
   257
 75
     1
175
     1
 42
1.0
 92
        0
 66
   257
 43
1.0
 76
     1
 77
     6
 78
     2
 67
     7
 79
     3
170
     0
171
     0
290
     0
174
     0
 93
        1
 44
0.0
173
     0
291
     0
 45
0.0
  0
VISUALSTYLE
  5
10E5
102
{ACAD_REACTORS
330
267
102
}
330
267
100
AcDbVisualStyle
  2
X-Ray
 70
    25
 71
     2
 72
     2
 73
     1
 90
        1
 40
0.5
 41
30.0
 62
     5
 63
     7
421
 16777215
 74
     1
 91
        0
 64
     7
 65
   257
 75
     1
175
     1
 42
1.0
 92
        8
 66
     7
 43
1.0
 76
     1
 77
     6
 78
     2
 67
     7
 79
     3
170
     0
171
     0
290
     0
174
     0
 93
       13
 44
0.0
173
     0
291
     0
 45
0.0
  0
DICTIONARYVAR
  5
331
102
{ACAD_REACTORS
330
330
102
}
330
330
100
DictionaryVariables
280
     0
  1
1:1
  0
DICTIONARYVAR
  5
4B3B
102
{ACAD_REACTORS
330
330
102
}
330
330
100
DictionaryVariables
280
     0
  1
Standard
  0
DICTIONARYVAR
  5
335
102
{ACAD_REACTORS
330
330
102
}
330
330
100
DictionaryVariables
280
     0
  1
Standard
  0
DICTIONARYVAR
  5
4569
102
{ACAD_REACTORS
330
330
102
}
330
330
100
DictionaryVariables
280
     0
  1
ByLayer
  0
DICTIONARYVAR
  5
109E
102
{ACAD_REACTORS
330
330
102
}
330
330
100
DictionaryVariables
280
     0
  1
0
  0
DICTIONARY
  5
6D21
330
279
100
AcDbDictionary
280
     1
281
     1
  3
ACAD_ROUNDTRIP_2008_TABLESTYLE_CELLSTYLEMAP
360
6D22
  0
CELLSTYLEMAP
  5
6D22
102
{ACAD_REACTORS
330
6D21
102
}
330
6D21
100
AcDbCellStyleMap
 90
        3
300
CELLSTYLE
  1
TABLEFORMAT_BEGIN
 90
        5
170
     1
 91
        0
 92
    32768
 62
   257
 93
        1
300
CONTENTFORMAT
  1
CONTENTFORMAT_BEGIN
 90
        0
 91
        0
 92
        4
 93
        0
300

 40
0.0
140
1.0
 94
        5
 62
     0
340
17
144
6.0
309
CONTENTFORMAT_END
171
     1
301
MARGIN
  1
CELLMARGIN_BEGIN
 40
0.06
 40
0.06
 40
0.06
 40
0.06
 40
0.18
 40
0.18
309
CELLMARGIN_END
 94
        6
 95
        1
302
GRIDFORMAT
  1
GRIDFORMAT_BEGIN
 90
        0
 91
        1
 62
     0
 92
       -2
340
0
 93
        0
 40
0.045
309
GRIDFORMAT_END
 95
        2
302
GRIDFORMAT
  1
GRIDFORMAT_BEGIN
 90
        0
 91
        1
 62
     0
 92
       -2
340
0
 93
        0
 40
0.045
309
GRIDFORMAT_END
 95
        4
302
GRIDFORMAT
  1
GRIDFORMAT_BEGIN
 90
        0
 91
        1
 62
     0
 92
       -2
340
0
 93
        0
 40
0.045
309
GRIDFORMAT_END
 95
        8
302
GRIDFORMAT
  1
GRIDFORMAT_BEGIN
 90
        0
 91
        1
 62
     0
 92
       -2
340
0
 93
        0
 40
0.045
309
GRIDFORMAT_END
 95
       16
302
GRIDFORMAT
  1
GRIDFORMAT_BEGIN
 90
        0
 91
        1
 62
     0
 92
       -2
340
0
 93
        0
 40
0.045
309
GRIDFORMAT_END
 95
       32
302
GRIDFORMAT
  1
GRIDFORMAT_BEGIN
 90
        0
 91
        1
 62
     0
 92
       -2
340
0
 93
        0
 40
0.045
309
GRIDFORMAT_END
309
TABLEFORMAT_END
  1
CELLSTYLE_BEGIN
 90
        1
 91
        1
300
_TITLE
309
CELLSTYLE_END
300
CELLSTYLE
  1
TABLEFORMAT_BEGIN
 90
        5
170
     1
 91
        0
 92
        0
 62
   257
 93
        1
300
CONTENTFORMAT
  1
CONTENTFORMAT_BEGIN
 90
        0
 91
        0
 92
        4
 93
        0
300

 40
0.0
140
1.0
 94
        5
 62
     0
340
17
144
4.5
309
CONTENTFORMAT_END
171
     1
301
MARGIN
  1
CELLMARGIN_BEGIN
 40
0.06
 40
0.06
 40
0.06
 40
0.06
 40
0.18
 40
0.18
309
CELLMARGIN_END
 94
        6
 95
        1
302
GRIDFORMAT
  1
GRIDFORMAT_BEGIN
 90
        0
 91
        1
 62
     0
 92
       -2
340
0
 93
        0
 40
0.045
309
GRIDFORMAT_END
 95
        2
302
GRIDFORMAT
  1
GRIDFORMAT_BEGIN
 90
        0
 91
        1
 62
     0
 92
       -2
340
0
 93
        0
 40
0.045
309
GRIDFORMAT_END
 95
        4
302
GRIDFORMAT
  1
GRIDFORMAT_BEGIN
 90
        0
 91
        1
 62
     0
 92
       -2
340
0
 93
        0
 40
0.045
309
GRIDFORMAT_END
 95
        8
302
GRIDFORMAT
  1
GRIDFORMAT_BEGIN
 90
        0
 91
        1
 62
     0
 92
       -2
340
0
 93
        0
 40
0.045
309
GRIDFORMAT_END
 95
       16
302
GRIDFORMAT
  1
GRIDFORMAT_BEGIN
 90
        0
 91
        1
 62
     0
 92
       -2
340
0
 93
        0
 40
0.045
309
GRIDFORMAT_END
 95
       32
302
GRIDFORMAT
  1
GRIDFORMAT_BEGIN
 90
        0
 91
        1
 62
     0
 92
       -2
340
0
 93
        0
 40
0.045
309
GRIDFORMAT_END
309
TABLEFORMAT_END
  1
CELLSTYLE_BEGIN
 90
        2
 91
        1
300
_HEADER
309
CELLSTYLE_END
300
CELLSTYLE
  1
TABLEFORMAT_BEGIN
 90
        5
170
     1
 91
        0
 92
        0
 62
   257
 93
        1
300
CONTENTFORMAT
  1
CONTENTFORMAT_BEGIN
 90
        0
 91
        0
 92
        4
 93
        0
300

 40
0.0
140
1.0
 94
        2
 62
     0
340
17
144
4.5
309
CONTENTFORMAT_END
171
     1
301
MARGIN
  1
CELLMARGIN_BEGIN
 40
0.06
 40
0.06
 40
0.06
 40
0.06
 40
0.18
 40
0.18
309
CELLMARGIN_END
 94
        6
 95
        1
302
GRIDFORMAT
  1
GRIDFORMAT_BEGIN
 90
        0
 91
        1
 62
     0
 92
       -2
340
0
 93
        0
 40
0.045
309
GRIDFORMAT_END
 95
        2
302
GRIDFORMAT
  1
GRIDFORMAT_BEGIN
 90
        0
 91
        1
 62
     0
 92
       -2
340
0
 93
        0
 40
0.045
309
GRIDFORMAT_END
 95
        4
302
GRIDFORMAT
  1
GRIDFORMAT_BEGIN
 90
        0
 91
        1
 62
     0
 92
       -2
340
0
 93
        0
 40
0.045
309
GRIDFORMAT_END
 95
        8
302
GRIDFORMAT
  1
GRIDFORMAT_BEGIN
 90
        0
 91
        1
 62
     0
 92
       -2
340
0
 93
        0
 40
0.045
309
GRIDFORMAT_END
 95
       16
302
GRIDFORMAT
  1
GRIDFORMAT_BEGIN
 90
        0
 91
        1
 62
     0
 92
       -2
340
0
 93
        0
 40
0.045
309
GRIDFORMAT_END
 95
       32
302
GRIDFORMAT
  1
GRIDFORMAT_BEGIN
 90
        0
 91
        1
 62
     0
 92
       -2
340
0
 93
        0
 40
0.045
309
GRIDFORMAT_END
309
TABLEFORMAT_END
  1
CELLSTYLE_BEGIN
 90
        3
 91
        2
300
_DATA
309
CELLSTYLE_END
  0
ENDSEC
  0
EOF
