  0
SECTION
  2
HEADER
  9
$ACADVER
  1
AC1021
  9
$ACADMAINTVER
 70
    25
  9
$DWGCODEPAGE
  3
ANSI_932
  9
$LASTSAVEDBY
  1
howeNelson
  9
$INSBASE
 10
0.0
 20
0.0
 30
0.0
  9
$EXTMIN
 10
0.0
 20
0.0
 30
0.0
  9
$EXTMAX
 10
593.9999999999999
 20
420.0
 30
0.0
  9
$LIMMIN
 10
0.0
 20
0.0
  9
$LIMMAX
 10
593.9999999999999
 20
420.0
  9
$ORTHOMODE
 70
     0
  9
$REGENMODE
 70
     1
  9
$FILLMODE
 70
     1
  9
$QTEXTMODE
 70
     0
  9
$MIRRTEXT
 70
     1
  9
$LTSCALE
 40
0.5
  9
$ATTMODE
 70
     1
  9
$TEXTSIZE
 40
136.139079520063
  9
$TRACEWID
 40
1.0
  9
$TEXTSTYLE
  7
ＭＳ ゴシック
  9
$CLAYER
  8
寸法
  9
$CELTYPE
  6
ByLayer
  9
$CECOLOR
 62
   256
  9
$CELTSCALE
 40
1.0
  9
$DISPSILH
 70
     0
  9
$DIMSCALE
 40
1.0
  9
$DIMASZ
 40
2.0
  9
$DIMEXO
 40
5.0
  9
$DIMDLI
 40
0.9999999999999999
  9
$DIMRND
 40
0.0
  9
$DIMDLE
 40
0.0
  9
$DIMEXE
 40
0.0
  9
$DIMTP
 40
0.0
  9
$DIMTM
 40
0.0
  9
$DIMTXT
 40
5.0
  9
$DIMCEN
 40
0.0
  9
$DIMTSZ
 40
0.0
  9
$DIMTOL
 70
     0
  9
$DIMLIM
 70
     0
  9
$DIMTIH
 70
     0
  9
$DIMTOH
 70
     0
  9
$DIMSE1
 70
     0
  9
$DIMSE2
 70
     0
  9
$DIMTAD
 70
     1
  9
$DIMZIN
 70
    11
  9
$DIMBLK
  1
DOT
  9
$DIMASO
 70
     1
  9
$DIMSHO
 70
     1
  9
$DIMPOST
  1
<>
  9
$DIMAPOST
  1
[]
  9
$DIMALT
 70
     0
  9
$DIMALTD
 70
     1
  9
$DIMALTF
 40
1.0
  9
$DIMLFAC
 40
1.0
  9
$DIMTOFL
 70
     0
  9
$DIMTVP
 40
0.0
  9
$DIMTIX
 70
     1
  9
$DIMSOXD
 70
     0
  9
$DIMSAH
 70
     0
  9
$DIMBLK1
  1

  9
$DIMBLK2
  1

  9
$DIMSTYLE
  2
tfrom線あり
  9
$DIMCLRD
 70
     0
  9
$DIMCLRE
 70
     0
  9
$DIMCLRT
 70
     0
  9
$DIMTFAC
 40
1.0
  9
$DIMGAP
 40
5.0
  9
$DIMJUST
 70
     0
  9
$DIMSD1
 70
     0
  9
$DIMSD2
 70
     0
  9
$DIMTOLJ
 70
     1
  9
$DIMTZIN
 70
    11
  9
$DIMALTZ
 70
    11
  9
$DIMALTTZ
 70
    11
  9
$DIMUPT
 70
     0
  9
$DIMDEC
 70
     0
  9
$DIMTDEC
 70
     1
  9
$DIMALTU
 70
     2
  9
$DIMALTTD
 70
     2
  9
$DIMTXSTY
  7
ＭＳ ゴシック
  9
$DIMAUNIT
 70
     0
  9
$DIMADEC
 70
     2
  9
$DIMALTRND
 40
0.0
  9
$DIMAZIN
 70
     0
  9
$DIMDSEP
 70
    46
  9
$DIMATFIT
 70
     0
  9
$DIMFRAC
 70
     2
  9
$DIMLDRBLK
  1
DOT
  9
$DIMLUNIT
 70
     2
  9
$DIMLWD
 70
    -2
  9
$DIMLWE
 70
    -2
  9
$DIMTMOVE
 70
     0
  9
$DIMFXL
 40
1.0
  9
$DIMFXLON
 70
     0
  9
$DIMJOGANG
 40
0.7853981633974483
  9
$DIMTFILL
 70
     0
  9
$DIMTFILLCLR
 70
     0
  9
$DIMARCSYM
 70
     0
  9
$DIMLTYPE
  6

  9
$DIMLTEX1
  6

  9
$DIMLTEX2
  6

  9
$LUNITS
 70
     2
  9
$LUPREC
 70
     0
  9
$SKETCHINC
 40
0.1
  9
$FILLETRAD
 40
0.0
  9
$AUNITS
 70
     0
  9
$AUPREC
 70
     0
  9
$MENU
  1
acad
  9
$ELEVATION
 40
0.0
  9
$PELEVATION
 40
0.0
  9
$THICKNESS
 40
0.0
  9
$LIMCHECK
 70
     0
  9
$CHAMFERA
 40
0.0
  9
$CHAMFERB
 40
0.0
  9
$CHAMFERC
 40
0.0
  9
$CHAMFERD
 40
0.0
  9
$SKPOLY
 70
     0
  9
$TDCREATE
 40
2447893.375
  9
$TDUCREATE
 40
0.0
  9
$TDUPDATE
 40
2458442.661465717
  9
$TDUUPDATE
 40
2458442.286465717
  9
$TDINDWG
 40
0.1401500579
  9
$TDUSRTIMER
 40
0.0008513889
  9
$USRTIMER
 70
     1
  9
$ANGBASE
 50
0.0
  9
$ANGDIR
 70
     0
  9
$PDMODE
 70
     1
  9
$PDSIZE
 40
-2.0
  9
$PLINEWID
 40
0.0
  9
$SPLFRAME
 70
     0
  9
$SPLINETYPE
 70
     6
  9
$SPLINESEGS
 70
     8
  9
$HANDSEED
  5
5F3D
  9
$SURFTAB1
 70
     6
  9
$SURFTAB2
 70
     6
  9
$SURFTYPE
 70
     6
  9
$SURFU
 70
     6
  9
$SURFV
 70
     6
  9
$UCSBASE
  2

  9
$UCSNAME
  2

  9
$UCSORG
 10
0.0
 20
0.0
 30
0.0
  9
$UCSXDIR
 10
1.0
 20
0.0
 30
0.0
  9
$UCSYDIR
 10
0.0
 20
1.0
 30
0.0
  9
$UCSORTHOREF
  2

  9
$UCSORTHOVIEW
 70
     1
  9
$UCSORGTOP
 10
0.0
 20
0.0
 30
0.0
  9
$UCSORGBOTTOM
 10
0.0
 20
0.0
 30
0.0
  9
$UCSORGLEFT
 10
0.0
 20
0.0
 30
0.0
  9
$UCSORGRIGHT
 10
0.0
 20
0.0
 30
0.0
  9
$UCSORGFRONT
 10
0.0
 20
0.0
 30
0.0
  9
$UCSORGBACK
 10
0.0
 20
0.0
 30
0.0
  9
$PUCSBASE
  2

  9
$PUCSNAME
  2

  9
$PUCSORG
 10
0.0
 20
0.0
 30
0.0
  9
$PUCSXDIR
 10
1.0
 20
0.0
 30
0.0
  9
$PUCSYDIR
 10
0.0
 20
1.0
 30
0.0
  9
$PUCSORTHOREF
  2

  9
$PUCSORTHOVIEW
 70
     0
  9
$PUCSORGTOP
 10
0.0
 20
0.0
 30
0.0
  9
$PUCSORGBOTTOM
 10
0.0
 20
0.0
 30
0.0
  9
$PUCSORGLEFT
 10
0.0
 20
0.0
 30
0.0
  9
$PUCSORGRIGHT
 10
0.0
 20
0.0
 30
0.0
  9
$PUCSORGFRONT
 10
0.0
 20
0.0
 30
0.0
  9
$PUCSORGBACK
 10
0.0
 20
0.0
 30
0.0
  9
$USERI1
 70
     0
  9
$USERI2
 70
     0
  9
$USERI3
 70
     0
  9
$USERI4
 70
     0
  9
$USERI5
 70
     0
  9
$USERR1
 40
0.0
  9
$USERR2
 40
0.0
  9
$USERR3
 40
0.0
  9
$USERR4
 40
0.0
  9
$USERR5
 40
0.0
  9
$WORLDVIEW
 70
     1
  9
$SHADEDGE
 70
     3
  9
$SHADEDIF
 70
    70
  9
$TILEMODE
 70
     1
  9
$MAXACTVP
 70
    64
  9
$PINSBASE
 10
0.0
 20
0.0
 30
0.0
  9
$PLIMCHECK
 70
     0
  9
$PEXTMIN
 10
0.0
 20
0.0
 30
0.0
  9
$PEXTMAX
 10
0.0
 20
0.0
 30
0.0
  9
$PLIMMIN
 10
-7.5
 20
-20.0
  9
$PLIMMAX
 10
412.5
 20
277.0
  9
$UNITMODE
 70
     0
  9
$VISRETAIN
 70
     0
  9
$PLINEGEN
 70
     1
  9
$PSLTSCALE
 70
     0
  9
$TREEDEPTH
 70
  3020
  9
$CMLSTYLE
  2
Standard
  9
$CMLJUST
 70
     0
  9
$CMLSCALE
 40
1.0
  9
$PROXYGRAPHICS
 70
     0
  9
$MEASUREMENT
 70
     1
  9
$CELWEIGHT
370
    -1
  9
$ENDCAPS
280
     0
  9
$JOINSTYLE
280
     0
  9
$LWDISPLAY
290
     1
  9
$INSUNITS
 70
     4
  9
$HYPERLINKBASE
  1

  9
$STYLESHEET
  1

  9
$XEDIT
290
     1
  9
$CEPSNTYPE
380
     0
  9
$PSTYLEMODE
290
     1
  9
$FINGERPRINTGUID
  2

  9
$VERSIONGUID
  2

  9
$EXTNAMES
290
     1
  9
$PSVPSCALE
 40
0.0
  9
$OLESTARTUP
290
     0
  9
$SORTENTS
280
   127
  9
$INDEXCTL
280
     0
  9
$HIDETEXT
280
     1
  9
$XCLIPFRAME
290
     0
  9
$HALOGAP
280
     0
  9
$OBSCOLOR
 70
   257
  9
$OBSLTYPE
280
     0
  9
$INTERSECTIONDISPLAY
280
     0
  9
$INTERSECTIONCOLOR
 70
   257
  9
$DIMASSOC
280
     2
  9
$PROJECTNAME
  1

  9
$CAMERADISPLAY
290
     0
  9
$LENSLENGTH
 40
50.0
  9
$CAMERAHEIGHT
 40
0.0
  9
$STEPSPERSEC
 40
2.0
  9
$STEPSIZE
 40
6.0
  9
$3DDWFPREC
 40
2.0
  9
$PSOLWIDTH
 40
0.25
  9
$PSOLHEIGHT
 40
4.0
  9
$LOFTANG1
 40
1.570796326794897
  9
$LOFTANG2
 40
1.570796326794897
  9
$LOFTMAG1
 40
0.0
  9
$LOFTMAG2
 40
0.0
  9
$LOFTPARAM
 70
     7
  9
$LOFTNORMALS
280
     1
  9
$LATITUDE
 40
37.795
  9
$LONGITUDE
 40
-122.394
  9
$NORTHDIRECTION
 40
0.0
  9
$TIMEZONE
 70
 -8000
  9
$LIGHTGLYPHDISPLAY
280
     1
  9
$TILEMODELIGHTSYNCH
280
     1
  9
$SOLIDHIST
280
     1
  9
$SHOWHIST
280
     1
  9
$DWFFRAME
280
     2
  9
$DGNFRAME
280
     2
  9
$REALWORLDSCALE
290
     1
  9
$INTERFERECOLOR
 62
   256
  9
$CSHADOW
280
     0
  9
$SHADOWPLANELOCATION
 40
0.0
  0
ENDSEC
  0
SECTION
  2
CLASSES
  0
CLASS
  1
LWPOLYLINE
  2
AcDbPolyline
  3
ObjectDBX Classes
 90
        0
 91
        1
280
     0
281
     1
  0
CLASS
  1
IMAGE
  2
AcDbRasterImage
  3
ISM
 90
      127
 91
        5
280
     0
281
     1
  0
CLASS
  1
OLE2FRAME
  2
AcDbOle2Frame
  3
ObjectDBX Classes
 90
        0
 91
        1
280
     0
281
     1
  0
CLASS
  1
HATCH
  2
AcDbHatch
  3
ObjectDBX Classes
 90
        0
 91
        1
280
     0
281
     1
  0
CLASS
  1
DICTIONARYVAR
  2
AcDbDictionaryVar
  3
ObjectDBX Classes
 90
        0
 91
        4
280
     0
281
     0
  0
CLASS
  1
RASTERVARIABLES
  2
AcDbRasterVariables
  3
ISM
 90
        0
 91
        4
280
     0
281
     0
  0
CLASS
  1
IMAGEDEF
  2
AcDbRasterImageDef
  3
ISM
 90
        0
 91
        4
280
     0
281
     0
  0
CLASS
  1
IMAGEDEF_REACTOR
  2
AcDbRasterImageDefReactor
  3
ISM
 90
        1
 91
        4
280
     0
281
     0
  0
CLASS
  1
IDBUFFER
  2
AcDbIdBuffer
  3
ObjectDBX Classes
 90
        0
 91
        4
280
     0
281
     0
  0
CLASS
  1
SPATIAL_FILTER
  2
AcDbSpatialFilter
  3
ObjectDBX Classes
 90
        0
 91
        4
280
     0
281
     0
  0
CLASS
  1
XRECORD
  2
AcDbXrecord
  3
ObjectDBX Classes
 90
        0
 91
        1
280
     0
281
     0
  0
CLASS
  1
SORTENTSTABLE
  2
AcDbSortentsTable
  3
ObjectDBX Classes
 90
        0
 91
        4
280
     0
281
     0
  0
CLASS
  1
LAYER_INDEX
  2
AcDbLayerIndex
  3
ObjectDBX Classes
 90
        0
 91
        4
280
     0
281
     0
  0
CLASS
  1
SPATIAL_INDEX
  2
AcDbSpatialIndex
  3
AutoCAD 2000
 90
        0
 91
        4
280
     0
281
     0
  0
CLASS
  1
OBJECT_PTR
  2
CAseDLPNTableRecord
  3
ASE-LPNTableRecord
 90
        1
 91
        4
280
     0
281
     0
  0
CLASS
  1
LAYOUT
  2
AcDbLayout
  3
ObjectDBX Classes
 90
        0
 91
        1
280
     0
281
     0
  0
CLASS
  1
PLOTSETTINGS
  2
AcDbPlotSettings
  3
ObjectDBX Classes
 90
        0
 91
        4
280
     0
281
     0
  0
CLASS
  1
ACDBDICTIONARYWDFLT
  2
AcDbDictionaryWithDefault
  3
ObjectDBX Classes
 90
        0
 91
        4
280
     0
281
     0
  0
CLASS
  1
ACDBPLACEHOLDER
  2
AcDbPlaceHolder
  3
ObjectDBX Classes
 90
        0
 91
        1
280
     0
281
     0
  0
CLASS
  1
SCALE
  2
AcDbScale
  3
ObjectDBX Classes
 90
     1153
 91
        4
280
     0
281
     0
  0
CLASS
  1
MATERIAL
  2
AcDbMaterial
  3
ObjectDBX Classes
 90
     1153
 91
        4
280
     0
281
     0
  0
CLASS
  1
VISUALSTYLE
  2
AcDbVisualStyle
  3
ObjectDBX Classes
 90
     4095
 91
        4
280
     0
281
     0
  0
CLASS
  1
TABLESTYLE
  2
AcDbTableStyle
  3
ObjectDBX Classes
 90
     4095
 91
        4
280
     0
281
     0
  0
CLASS
  1
DIMASSOC
  2
AcDbDimAssoc
  3
"AcDbDimAssoc|Product Desc:     AcDim ARX App For Dimension|Company:          Autodesk, Inc.|WEB Address:      www.autodesk.com"
 90
        0
 91
        4
280
     0
281
     0
  0
CLASS
  1
CELLSTYLEMAP
  2
AcDbCellStyleMap
  3
ObjectDBX Classes
 90
     1152
 91
        4
280
     0
281
     0
  0
CLASS
  1
SUN
  2
AcDbSun
  3
SCENEOE
 90
     1153
 91
        4
280
     0
281
     0
  0
CLASS
  1
MLEADERSTYLE
  2
AcDbMLeaderStyle
  3
ACDB_MLEADERSTYLE_CLASS
 90
     4095
 91
        4
280
     0
281
     0
  0
CLASS
  1
FIELD
  2
AcDbField
  3
ObjectDBX Classes
 90
     1152
 91
        4
280
     0
281
     0
  0
CLASS
  1
FIELDLIST
  2
AcDbFieldList
  3
ObjectDBX Classes
 90
     1152
 91
        4
280
     0
281
     0
  0
ENDSEC
  0
SECTION
  2
TABLES
  0
TABLE
  2
VPORT
  5
7
330
0
100
AcDbSymbolTable
 70
     1
  0
VPORT
  5
15
330
7
100
AcDbSymbolTableRecord
100
AcDbViewportTableRecord
  2
*ACTIVE
 70
     0
 10
0.0
 20
0.0
 11
1.0
 21
1.0
 12
296.9999999999999
 22
210.0
 13
0.0
 23
0.0
 14
1.0
 24
1.0
 15
0.0
 25
0.0
 16
0.0
 26
0.0
 36
1.0
 17
0.0
 27
0.0
 37
0.0
 40
428.4
 41
2.419452887537993
 42
50.0
 43
0.0
 44
0.0
 50
0.0
 51
0.0
 71
    16
 72
  2000
 73
     1
 74
     1
 75
     0
 76
     0
 77
     0
 78
     0
281
     0
 65
     0
110
0.0
120
0.0
130
0.0
111
1.0
121
0.0
131
0.0
112
0.0
122
1.0
132
0.0
 79
     0
146
0.0
348
26C
 60
     3
 61
     5
292
     1
282
     1
141
0.0
142
0.0
 63
   256
361
10E8
  0
ENDTAB
  0
TABLE
  2
LTYPE
  5
4
330
0
100
AcDbSymbolTable
 70
     5
  0
LTYPE
  5
11
330
4
100
AcDbSymbolTableRecord
100
AcDbLinetypeTableRecord
  2
ByBlock
 70
     0
  3

 72
    65
 73
     0
 40
0.0
  0
LTYPE
  5
12
330
4
100
AcDbSymbolTableRecord
100
AcDbLinetypeTableRecord
  2
ByLayer
 70
     0
  3
Solid line
 72
    65
 73
     0
 40
0.0
  0
LTYPE
  5
13
330
4
100
AcDbSymbolTableRecord
100
AcDbLinetypeTableRecord
  2
Continuous
 70
     0
  3
Solid line
 72
    65
 73
     0
 40
0.0
  0
LTYPE
  5
12C7
330
4
100
AcDbSymbolTableRecord
100
AcDbLinetypeTableRecord
  2
HIDDEN
 70
     0
  3
Hidden _ _ _ _ _ _ _ _ _ _ _ _ _ _ _ _ _ _ _ _ 
 72
    65
 73
     2
 40
9.524999999999999
 49
6.35
 74
     0
 49
-3.175
 74
     0
  0
LTYPE
  5
4E2F
330
4
100
AcDbSymbolTableRecord
100
AcDbLinetypeTableRecord
  2
HIDDEN2
 70
     0
  3
Hidden (.5x) _ _ _ _ _ _ _ _ _ _ _ _ _ _ _ _ _ 
 72
    65
 73
     2
 40
4.7625
 49
3.175
 74
     0
 49
-1.5875
 74
     0
  0
LTYPE
  5
4E30
330
4
100
AcDbSymbolTableRecord
100
AcDbLinetypeTableRecord
  2
DASHDOT
 70
     0
  3
Dash dot __ . __ . __ . __ . __ . __ . __ . __
 72
    65
 73
     4
 40
25.4
 49
12.7
 74
     0
 49
-6.35
 74
     0
 49
0.0
 74
     0
 49
-6.35
 74
     0
  0
LTYPE
  5
53C6
330
4
100
AcDbSymbolTableRecord
100
AcDbLinetypeTableRecord
  2
CENTER
 70
     0
  3
----------  --  ----------  --  
 72
    65
 73
     4
 40
20.0
 49
12.5
 74
     0
 49
-2.5
 74
     0
 49
2.5
 74
     0
 49
-2.5
 74
     0
  0
ENDTAB
  0
TABLE
  2
LAYER
  5
2
102
{ACAD_XDICTIONARY
360
2E1
102
}
330
0
100
AcDbSymbolTable
 70
    12
  0
LAYER
  5
14
330
2
100
AcDbSymbolTableRecord
100
AcDbLayerTableRecord
  2
0
 70
     0
 62
     7
  6
Continuous
370
    -3
390
1D
347
266
  0
LAYER
  5
4A
330
2
100
AcDbSymbolTableRecord
100
AcDbLayerTableRecord
  2
Defpoints
 70
     0
 62
     7
  6
Continuous
290
     0
370
    -3
390
1D
347
266
  0
LAYER
  5
12CE
330
2
100
AcDbSymbolTableRecord
100
AcDbLayerTableRecord
  2
寸法
 70
     0
 62
     3
  6
Continuous
370
    13
390
1D
347
266
1001
AcAecLayerStandard
1000

1000

  0
LAYER
  5
12CF
330
2
100
AcDbSymbolTableRecord
100
AcDbLayerTableRecord
  2
モデル
 70
     0
 62
     7
  6
Continuous
370
    20
390
1D
347
266
1001
AcAecLayerStandard
1000

1000

  0
LAYER
  5
142A
330
2
100
AcDbSymbolTableRecord
100
AcDbLayerTableRecord
  2
テンプレート
 70
     0
 62
     7
  6
Continuous
370
    20
390
1D
347
266
1001
AcAecLayerStandard
1000

1000

  0
LAYER
  5
1D5C
330
2
100
AcDbSymbolTableRecord
100
AcDbLayerTableRecord
  2
TFORMLOGO
 70
     0
 62
     7
  6
Continuous
370
    20
390
1D
347
266
  0
LAYER
  5
3848
330
2
100
AcDbSymbolTableRecord
100
AcDbLayerTableRecord
  2
PRINT BORDER
 70
     0
 62
     4
  6
Continuous
290
     0
370
    -3
390
1D
347
266
1001
AcAecLayerStandard
1000

1000

  0
LAYER
  5
4BF9
330
2
100
AcDbSymbolTableRecord
100
AcDbLayerTableRecord
  2
CutoutOverlay
 70
     0
 62
     7
  6
Continuous
370
    20
390
1D
347
266
1001
AcAecLayerStandard
1000

1000

  0
LAYER
  5
4BFA
330
2
100
AcDbSymbolTableRecord
100
AcDbLayerTableRecord
  2
CutoutUnderlay
 70
     0
 62
   254
  6
Continuous
370
    20
390
1D
347
266
1001
AcAecLayerStandard
1000

1000

  0
LAYER
  5
4E2D
330
2
100
AcDbSymbolTableRecord
100
AcDbLayerTableRecord
  2
102
 70
     0
 62
     1
  6
Continuous
370
    -3
390
1D
347
266
  0
LAYER
  5
58A1
330
2
100
AcDbSymbolTableRecord
100
AcDbLayerTableRecord
  2
108
 70
     0
 62
     7
  6
Continuous
370
    -3
390
1D
347
266
  0
LAYER
  5
5AE5
330
2
100
AcDbSymbolTableRecord
100
AcDbLayerTableRecord
  2
HIDDEN
 70
     0
 62
     7
  6
HIDDEN
370
    20
390
1D
347
266
1001
AcAecLayerStandard
1000

1000

  0
ENDTAB
  0
TABLE
  2
STYLE
  5
3
330
0
100
AcDbSymbolTable
 70
     4
  0
STYLE
  5
17
330
3
100
AcDbSymbolTableRecord
100
AcDbTextStyleTableRecord
  2
Standard
 70
     0
 40
0.0
 41
1.0
 50
0.0
 71
     0
 42
2.5
  3
txt
  4
BIGFONT.SHX
  0
STYLE
  5
39
330
3
100
AcDbSymbolTableRecord
100
AcDbTextStyleTableRecord
  2
ＭＳ ゴシック
 70
     0
 40
0.0
 41
1.0
 50
0.0
 71
     0
 42
136.139079520063
  3
msgothic.ttc
  4
ＭＳ ゴシック
1001
ACAD
1000
ＭＳ ゴシック
1071
        0
  0
STYLE
  5
5119
330
3
100
AcDbSymbolTableRecord
100
AcDbTextStyleTableRecord
  2
EXPLODED0
 70
     0
 40
0.2
 41
1.0
 50
0.0
 71
     0
 42
136.139079520063
  3

  4

  0
STYLE
  5
58A7
330
3
100
AcDbSymbolTableRecord
100
AcDbTextStyleTableRecord
  2
FSB
 70
     0
 40
0.0
 41
1.0
 50
0.0
 71
     0
 42
136.139079520063
  3
txt_____.ttf
  4

1001
ACAD
1000
txt
1071
        0
  0
ENDTAB
  0
TABLE
  2
VIEW
  5
5
330
0
100
AcDbSymbolTable
 70
     0
  0
ENDTAB
  0
TABLE
  2
UCS
  5
6
330
0
100
AcDbSymbolTable
 70
     0
  0
ENDTAB
  0
TABLE
  2
APPID
  5
8
330
0
100
AcDbSymbolTable
 70
     3
  0
APPID
  5
16
330
8
100
AcDbSymbolTableRecord
100
AcDbRegAppTableRecord
  2
ACAD
 70
     0
  0
APPID
  5
7AC
330
8
100
AcDbSymbolTableRecord
100
AcDbRegAppTableRecord
  2
AcAecLayerStandard
 70
     0
  0
APPID
  5
4E28
330
8
100
AcDbSymbolTableRecord
100
AcDbRegAppTableRecord
  2
ACAD_MLEADERVER
 70
     0
  0
ENDTAB
  0
TABLE
  2
DIMSTYLE
  5
9
330
0
100
AcDbSymbolTable
 70
     3
100
AcDbDimStyleTable
  0
DIMSTYLE
105
18
330
9
100
AcDbSymbolTableRecord
100
AcDbDimStyleTableRecord
  2
Standard
 70
     0
178
     0
340
17
  0
DIMSTYLE
105
57
102
{ACAD_REACTORS
330
5AA0
330
5D2B
330
5D65
330
5D84
330
5D95
330
5DA7
330
5DB6
102
}
330
9
100
AcDbSymbolTableRecord
100
AcDbDimStyleTableRecord
  2
tfrom線あり
 70
     0
  3
<>
  4
[]
 41
2.0
 42
5.0
 43
0.9999999999999999
 44
0.0
 73
     0
 74
     0
 77
     1
 78
    11
140
5.0
141
0.0
143
1.0
147
5.0
171
     1
174
     1
178
     0
179
     2
271
     0
272
     1
276
     2
284
    11
285
    11
286
    11
289
     0
340
39
341
4E
342
4E
  0
DIMSTYLE
105
4E31
330
9
100
AcDbSymbolTableRecord
100
AcDbDimStyleTableRecord
  2
ISO-25
 70
     0
 41
2.5
 42
0.625
 43
3.75
 44
1.25
 73
     0
 74
     0
 77
     1
 78
     8
140
2.5
141
2.5
143
0.03937
147
0.625
171
     3
172
     1
178
     0
271
     2
272
     2
274
     3
283
     0
284
     8
340
17
  0
ENDTAB
  0
TABLE
  2
BLOCK_RECORD
  5
1
330
0
100
AcDbSymbolTable
 70
    80
  0
BLOCK_RECORD
  5
A
102
{ACAD_XDICTIONARY
360
4CE1
102
}
330
1
100
AcDbSymbolTableRecord
100
AcDbBlockTableRecord
  2
*MODEL_SPACE
340
20
 70
     0
280
     1
281
     0
  0
BLOCK_RECORD
  5
B
330
1
100
AcDbSymbolTableRecord
100
AcDbBlockTableRecord
  2
*PAPER_SPACE
340
21
 70
     0
280
     1
281
     0
  0
BLOCK_RECORD
  5
4E
330
1
100
AcDbSymbolTableRecord
100
AcDbBlockTableRecord
  2
_DOT
340
0
102
{BLKREFS
331
49DD
331
49DE
331
49EC
331
49ED
331
4A3B
331
4A3C
331
4A67
331
4A68
331
4A79
331
4A7A
331
4A89
331
4A8A
331
4C78
331
4C79
331
4C84
331
4C85
331
4C91
331
4C92
331
4EE8
331
4EE9
331
4FC4
331
4FC5
331
5000
331
5001
331
5011
331
5012
331
5020
331
5021
331
5032
331
5033
331
5052
331
5053
331
5076
331
5077
331
5082
331
5083
331
5090
331
5091
331
50F7
331
50F8
331
5210
331
5211
331
521C
331
521D
331
5228
331
5229
331
5234
331
5235
331
5249
331
524A
331
526A
331
526B
331
52BC
331
52BD
331
52C8
331
52C9
331
52D6
331
52D7
331
5466
331
5467
331
5474
331
5475
331
5481
331
5482
331
548E
331
548F
331
54F9
331
54FA
331
55B3
331
55B4
331
55BF
331
55C0
331
55CB
331
55CC
331
55D7
331
55D8
331
55E3
331
55E4
331
566A
331
566B
331
56F7
331
56F8
331
5709
331
570A
331
574B
331
574C
331
577F
331
5780
331
5794
331
5795
331
57A6
331
57A7
331
57B8
331
57B9
331
57CA
331
57CB
331
57DD
331
57DE
331
5A46
331
5A47
331
5A55
331
5A56
331
5A64
331
5A65
331
5A74
331
5A75
331
5A83
331
5A84
331
5A92
331
5A93
331
5AA9
331
5AAA
331
5AB8
331
5AB9
331
5AC7
331
5AC8
331
5B18
331
5B19
331
5D34
331
5D35
331
5D5C
331
5D5D
331
5D6E
331
5D6F
331
5D7E
331
5D7F
331
5D8D
331
5D8E
331
5D9E
331
5D9F
331
5DB0
331
5DB1
331
5DBF
331
5DC0
331
5F00
331
5F01
102
}
 70
     0
280
     1
281
     0
  0
BLOCK_RECORD
  5
12C3
330
1
100
AcDbSymbolTableRecord
100
AcDbBlockTableRecord
  2
*Paper_Space1
340
12C4
 70
     0
280
     1
281
     0
  0
BLOCK_RECORD
  5
1D88
330
1
100
AcDbSymbolTableRecord
100
AcDbBlockTableRecord
  2
名称未設定-1
340
0
102
{BLKREFS
331
36E3
102
}
 70
     1
280
     1
281
     0
  0
BLOCK_RECORD
  5
1D8B
330
1
100
AcDbSymbolTableRecord
100
AcDbBlockTableRecord
  2
block 2
340
0
102
{BLKREFS
331
1D8A
102
}
 70
     0
280
     1
281
     0
  0
BLOCK_RECORD
  5
1D8E
330
1
100
AcDbSymbolTableRecord
100
AcDbBlockTableRecord
  2
block 3
340
0
102
{BLKREFS
331
1D8D
102
}
 70
     0
280
     1
281
     0
  0
BLOCK_RECORD
  5
1D91
330
1
100
AcDbSymbolTableRecord
100
AcDbBlockTableRecord
  2
block 4
340
0
102
{BLKREFS
331
1D90
102
}
 70
     0
280
     1
281
     0
  0
BLOCK_RECORD
  5
1DA0
330
1
100
AcDbSymbolTableRecord
100
AcDbBlockTableRecord
  2
block 5
340
0
102
{BLKREFS
331
1D9F
102
}
 70
     0
280
     1
281
     0
  0
BLOCK_RECORD
  5
49D7
330
1
100
AcDbSymbolTableRecord
100
AcDbBlockTableRecord
  2
*D7
340
0
 70
     0
280
     1
281
     0
  0
BLOCK_RECORD
  5
49E6
330
1
100
AcDbSymbolTableRecord
100
AcDbBlockTableRecord
  2
*D8
340
0
 70
     0
280
     1
281
     0
  0
BLOCK_RECORD
  5
4A35
330
1
100
AcDbSymbolTableRecord
100
AcDbBlockTableRecord
  2
*D9
340
0
 70
     0
280
     1
281
     0
  0
BLOCK_RECORD
  5
4A61
330
1
100
AcDbSymbolTableRecord
100
AcDbBlockTableRecord
  2
*D10
340
0
 70
     0
280
     1
281
     0
  0
BLOCK_RECORD
  5
4A73
330
1
100
AcDbSymbolTableRecord
100
AcDbBlockTableRecord
  2
*D11
340
0
 70
     0
280
     1
281
     0
  0
BLOCK_RECORD
  5
4A83
330
1
100
AcDbSymbolTableRecord
100
AcDbBlockTableRecord
  2
*D12
340
0
 70
     0
280
     1
281
     0
  0
BLOCK_RECORD
  5
4C72
330
1
100
AcDbSymbolTableRecord
100
AcDbBlockTableRecord
  2
*D13
340
0
 70
     0
280
     1
281
     0
  0
BLOCK_RECORD
  5
4C7E
330
1
100
AcDbSymbolTableRecord
100
AcDbBlockTableRecord
  2
*D14
340
0
 70
     0
280
     1
281
     0
  0
BLOCK_RECORD
  5
4C8A
330
1
100
AcDbSymbolTableRecord
100
AcDbBlockTableRecord
  2
*D15
340
0
 70
     0
280
     1
281
     0
  0
BLOCK_RECORD
  5
4EE2
330
1
100
AcDbSymbolTableRecord
100
AcDbBlockTableRecord
  2
*D16
340
0
 70
     0
280
     1
281
     0
  0
BLOCK_RECORD
  5
4FBE
330
1
100
AcDbSymbolTableRecord
100
AcDbBlockTableRecord
  2
*D17
340
0
 70
     0
280
     1
281
     0
  0
BLOCK_RECORD
  5
4FFB
330
1
100
AcDbSymbolTableRecord
100
AcDbBlockTableRecord
  2
*D18
340
0
 70
     0
280
     1
281
     0
  0
BLOCK_RECORD
  5
500B
330
1
100
AcDbSymbolTableRecord
100
AcDbBlockTableRecord
  2
*D19
340
0
 70
     0
280
     1
281
     0
  0
BLOCK_RECORD
  5
501A
330
1
100
AcDbSymbolTableRecord
100
AcDbBlockTableRecord
  2
*D20
340
0
 70
     0
280
     1
281
     0
  0
BLOCK_RECORD
  5
502C
330
1
100
AcDbSymbolTableRecord
100
AcDbBlockTableRecord
  2
*D21
340
0
 70
     0
280
     1
281
     0
  0
BLOCK_RECORD
  5
504C
330
1
100
AcDbSymbolTableRecord
100
AcDbBlockTableRecord
  2
*D22
340
0
 70
     0
280
     1
281
     0
  0
BLOCK_RECORD
  5
5070
330
1
100
AcDbSymbolTableRecord
100
AcDbBlockTableRecord
  2
*D23
340
0
 70
     0
280
     1
281
     0
  0
BLOCK_RECORD
  5
507C
330
1
100
AcDbSymbolTableRecord
100
AcDbBlockTableRecord
  2
*D24
340
0
 70
     0
280
     1
281
     0
  0
BLOCK_RECORD
  5
5088
330
1
100
AcDbSymbolTableRecord
100
AcDbBlockTableRecord
  2
*D25
340
0
 70
     0
280
     1
281
     0
  0
BLOCK_RECORD
  5
50F1
330
1
100
AcDbSymbolTableRecord
100
AcDbBlockTableRecord
  2
*D26
340
0
 70
     0
280
     1
281
     0
  0
BLOCK_RECORD
  5
516A
330
1
100
AcDbSymbolTableRecord
100
AcDbBlockTableRecord
  2
*X27
340
0
 70
     0
280
     1
281
     0
  0
BLOCK_RECORD
  5
5172
330
1
100
AcDbSymbolTableRecord
100
AcDbBlockTableRecord
  2
*D28
340
0
 70
     0
280
     1
281
     0
  0
BLOCK_RECORD
  5
5181
330
1
100
AcDbSymbolTableRecord
100
AcDbBlockTableRecord
  2
*D29
340
0
 70
     0
280
     1
281
     0
  0
BLOCK_RECORD
  5
51C8
330
1
100
AcDbSymbolTableRecord
100
AcDbBlockTableRecord
  2
*D30
340
0
 70
     0
280
     1
281
     0
  0
BLOCK_RECORD
  5
51D4
330
1
100
AcDbSymbolTableRecord
100
AcDbBlockTableRecord
  2
*D31
340
0
 70
     0
280
     1
281
     0
  0
BLOCK_RECORD
  5
520A
330
1
100
AcDbSymbolTableRecord
100
AcDbBlockTableRecord
  2
*D32
340
0
 70
     0
280
     1
281
     0
  0
BLOCK_RECORD
  5
5216
330
1
100
AcDbSymbolTableRecord
100
AcDbBlockTableRecord
  2
*D33
340
0
 70
     0
280
     1
281
     0
  0
BLOCK_RECORD
  5
5222
330
1
100
AcDbSymbolTableRecord
100
AcDbBlockTableRecord
  2
*D34
340
0
 70
     0
280
     1
281
     0
  0
BLOCK_RECORD
  5
522E
330
1
100
AcDbSymbolTableRecord
100
AcDbBlockTableRecord
  2
*D35
340
0
 70
     0
280
     1
281
     0
  0
BLOCK_RECORD
  5
5243
330
1
100
AcDbSymbolTableRecord
100
AcDbBlockTableRecord
  2
*D36
340
0
 70
     0
280
     1
281
     0
  0
BLOCK_RECORD
  5
5264
330
1
100
AcDbSymbolTableRecord
100
AcDbBlockTableRecord
  2
*D37
340
0
 70
     0
280
     1
281
     0
  0
BLOCK_RECORD
  5
52B6
330
1
100
AcDbSymbolTableRecord
100
AcDbBlockTableRecord
  2
*D38
340
0
 70
     0
280
     1
281
     0
  0
BLOCK_RECORD
  5
52C2
330
1
100
AcDbSymbolTableRecord
100
AcDbBlockTableRecord
  2
*D39
340
0
 70
     0
280
     1
281
     0
  0
BLOCK_RECORD
  5
52CE
330
1
100
AcDbSymbolTableRecord
100
AcDbBlockTableRecord
  2
*D40
340
0
 70
     0
280
     1
281
     0
  0
BLOCK_RECORD
  5
5461
330
1
100
AcDbSymbolTableRecord
100
AcDbBlockTableRecord
  2
*D41
340
0
 70
     0
280
     1
281
     0
  0
BLOCK_RECORD
  5
546F
330
1
100
AcDbSymbolTableRecord
100
AcDbBlockTableRecord
  2
*D42
340
0
 70
     0
280
     1
281
     0
  0
BLOCK_RECORD
  5
547C
330
1
100
AcDbSymbolTableRecord
100
AcDbBlockTableRecord
  2
*D43
340
0
 70
     0
280
     1
281
     0
  0
BLOCK_RECORD
  5
5489
330
1
100
AcDbSymbolTableRecord
100
AcDbBlockTableRecord
  2
*D44
340
0
 70
     0
280
     1
281
     0
  0
BLOCK_RECORD
  5
54F4
330
1
100
AcDbSymbolTableRecord
100
AcDbBlockTableRecord
  2
*D45
340
0
 70
     0
280
     1
281
     0
  0
BLOCK_RECORD
  5
55AD
330
1
100
AcDbSymbolTableRecord
100
AcDbBlockTableRecord
  2
*D46
340
0
 70
     0
280
     1
281
     0
  0
BLOCK_RECORD
  5
55B9
330
1
100
AcDbSymbolTableRecord
100
AcDbBlockTableRecord
  2
*D47
340
0
 70
     0
280
     1
281
     0
  0
BLOCK_RECORD
  5
55C5
330
1
100
AcDbSymbolTableRecord
100
AcDbBlockTableRecord
  2
*D48
340
0
 70
     0
280
     1
281
     0
  0
BLOCK_RECORD
  5
55D1
330
1
100
AcDbSymbolTableRecord
100
AcDbBlockTableRecord
  2
*D49
340
0
 70
     0
280
     1
281
     0
  0
BLOCK_RECORD
  5
55DD
330
1
100
AcDbSymbolTableRecord
100
AcDbBlockTableRecord
  2
*D50
340
0
 70
     0
280
     1
281
     0
  0
BLOCK_RECORD
  5
5664
330
1
100
AcDbSymbolTableRecord
100
AcDbBlockTableRecord
  2
*D51
340
0
 70
     0
280
     1
281
     0
  0
BLOCK_RECORD
  5
56F1
330
1
100
AcDbSymbolTableRecord
100
AcDbBlockTableRecord
  2
*D52
340
0
 70
     0
280
     1
281
     0
  0
BLOCK_RECORD
  5
5703
330
1
100
AcDbSymbolTableRecord
100
AcDbBlockTableRecord
  2
*D53
340
0
 70
     0
280
     1
281
     0
  0
BLOCK_RECORD
  5
5744
330
1
100
AcDbSymbolTableRecord
100
AcDbBlockTableRecord
  2
*D54
340
0
 70
     0
280
     1
281
     0
  0
BLOCK_RECORD
  5
5779
330
1
100
AcDbSymbolTableRecord
100
AcDbBlockTableRecord
  2
*D55
340
0
 70
     0
280
     1
281
     0
  0
BLOCK_RECORD
  5
578E
330
1
100
AcDbSymbolTableRecord
100
AcDbBlockTableRecord
  2
*D56
340
0
 70
     0
280
     1
281
     0
  0
BLOCK_RECORD
  5
57A0
330
1
100
AcDbSymbolTableRecord
100
AcDbBlockTableRecord
  2
*D57
340
0
 70
     0
280
     1
281
     0
  0
BLOCK_RECORD
  5
57B2
330
1
100
AcDbSymbolTableRecord
100
AcDbBlockTableRecord
  2
*D58
340
0
 70
     0
280
     1
281
     0
  0
BLOCK_RECORD
  5
57C4
330
1
100
AcDbSymbolTableRecord
100
AcDbBlockTableRecord
  2
*D59
340
0
 70
     0
280
     1
281
     0
  0
BLOCK_RECORD
  5
57D7
330
1
100
AcDbSymbolTableRecord
100
AcDbBlockTableRecord
  2
*D60
340
0
 70
     0
280
     1
281
     0
  0
BLOCK_RECORD
  5
5A40
330
1
100
AcDbSymbolTableRecord
100
AcDbBlockTableRecord
  2
*D61
340
0
 70
     0
280
     1
281
     0
  0
BLOCK_RECORD
  5
5A4F
330
1
100
AcDbSymbolTableRecord
100
AcDbBlockTableRecord
  2
*D62
340
0
 70
     0
280
     1
281
     0
  0
BLOCK_RECORD
  5
5A5E
330
1
100
AcDbSymbolTableRecord
100
AcDbBlockTableRecord
  2
*D63
340
0
 70
     0
280
     1
281
     0
  0
BLOCK_RECORD
  5
5A6E
330
1
100
AcDbSymbolTableRecord
100
AcDbBlockTableRecord
  2
*D64
340
0
 70
     0
280
     1
281
     0
  0
BLOCK_RECORD
  5
5A7D
330
1
100
AcDbSymbolTableRecord
100
AcDbBlockTableRecord
  2
*D65
340
0
 70
     0
280
     1
281
     0
  0
BLOCK_RECORD
  5
5A8C
330
1
100
AcDbSymbolTableRecord
100
AcDbBlockTableRecord
  2
*D66
340
0
 70
     0
280
     1
281
     0
  0
BLOCK_RECORD
  5
5AA3
330
1
100
AcDbSymbolTableRecord
100
AcDbBlockTableRecord
  2
*D67
340
0
 70
     0
280
     1
281
     0
  0
BLOCK_RECORD
  5
5AB2
330
1
100
AcDbSymbolTableRecord
100
AcDbBlockTableRecord
  2
*D68
340
0
 70
     0
280
     1
281
     0
  0
BLOCK_RECORD
  5
5AC1
330
1
100
AcDbSymbolTableRecord
100
AcDbBlockTableRecord
  2
*D69
340
0
 70
     0
280
     1
281
     0
  0
BLOCK_RECORD
  5
5B11
330
1
100
AcDbSymbolTableRecord
100
AcDbBlockTableRecord
  2
*D70
340
0
 70
     0
280
     1
281
     0
  0
BLOCK_RECORD
  5
5D2E
330
1
100
AcDbSymbolTableRecord
100
AcDbBlockTableRecord
  2
*D71
340
0
 70
     0
280
     1
281
     0
  0
BLOCK_RECORD
  5
5D56
330
1
100
AcDbSymbolTableRecord
100
AcDbBlockTableRecord
  2
*D72
340
0
 70
     0
280
     1
281
     0
  0
BLOCK_RECORD
  5
5D68
330
1
100
AcDbSymbolTableRecord
100
AcDbBlockTableRecord
  2
*D73
340
0
 70
     0
280
     1
281
     0
  0
BLOCK_RECORD
  5
5D77
330
1
100
AcDbSymbolTableRecord
100
AcDbBlockTableRecord
  2
*D74
340
0
 70
     0
280
     1
281
     0
  0
BLOCK_RECORD
  5
5D87
330
1
100
AcDbSymbolTableRecord
100
AcDbBlockTableRecord
  2
*D75
340
0
 70
     0
280
     1
281
     0
  0
BLOCK_RECORD
  5
5D98
330
1
100
AcDbSymbolTableRecord
100
AcDbBlockTableRecord
  2
*D76
340
0
 70
     0
280
     1
281
     0
  0
BLOCK_RECORD
  5
5DAA
330
1
100
AcDbSymbolTableRecord
100
AcDbBlockTableRecord
  2
*D77
340
0
 70
     0
280
     1
281
     0
  0
BLOCK_RECORD
  5
5DB9
330
1
100
AcDbSymbolTableRecord
100
AcDbBlockTableRecord
  2
*D78
340
0
 70
     0
280
     1
281
     0
  0
BLOCK_RECORD
  5
5EF9
330
1
100
AcDbSymbolTableRecord
100
AcDbBlockTableRecord
  2
*D79
340
0
 70
     0
280
     1
281
     0
  0
ENDTAB
  0
ENDSEC
  0
SECTION
  2
BLOCKS
  0
BLOCK
  5
D
330
A
100
AcDbEntity
  8
0
390
1D
100
AcDbBlockBegin
  2
*MODEL_SPACE
 70
     0
 10
0.0
 20
0.0
 30
0.0
  3
*MODEL_SPACE
  1
*MODEL_SPACE
  0
ENDBLK
  5
E
330
A
100
AcDbEntity
  8
0
390
1D
100
AcDbBlockEnd
  0
BLOCK
  5
F
330
B
100
AcDbEntity
 67
     1
  8
0
390
1D
100
AcDbBlockBegin
  2
*PAPER_SPACE
 70
     0
 10
0.0
 20
0.0
 30
0.0
  3
*PAPER_SPACE
  1
*PAPER_SPACE
  0
ENDBLK
  5
10
330
B
100
AcDbEntity
 67
     1
  8
0
390
1D
100
AcDbBlockEnd
  0
BLOCK
  5
1066
330
4E
100
AcDbEntity
  8
0
390
1D
100
AcDbBlockBegin
  2
_DOT
 70
     0
 10
0.0
 20
0.0
 30
0.0
  3
_DOT
  1
_DOT
  0
POLYLINE
  5
1068
330
4E
100
AcDbEntity
  8
0
  6
ByBlock
 62
     0
370
    -2
390
1D
100
AcDb2dPolyline
 66
     1
 10
0.0
 20
0.0
 30
0.0
 70
     1
 40
0.5
 41
0.5
  0
VERTEX
  5
1069
330
1068
100
AcDbEntity
  8
0
  6
ByBlock
 62
     0
370
    -2
390
1D
100
AcDbVertex
100
AcDb2dVertex
 10
-0.25
 20
0.0
 30
0.0
 42
1.0
  0
VERTEX
  5
106A
330
1068
100
AcDbEntity
  8
0
  6
ByBlock
 62
     0
370
    -2
390
1D
100
AcDbVertex
100
AcDb2dVertex
 10
0.25
 20
0.0
 30
0.0
 42
1.0
  0
SEQEND
  5
106B
330
1068
100
AcDbEntity
  8
0
390
1D
  0
LINE
  5
106C
330
4E
100
AcDbEntity
  8
0
  6
ByBlock
 62
     0
370
    -2
390
1D
100
AcDbLine
 10
-0.5
 20
0.0
 30
0.0
 11
-1.0
 21
0.0
 31
0.0
  0
ENDBLK
  5
106D
330
4E
100
AcDbEntity
  8
0
390
1D
100
AcDbBlockEnd
  0
BLOCK
  5
12C5
330
12C3
100
AcDbEntity
  8
0
100
AcDbBlockBegin
  2
*Paper_Space1
 70
     0
 10
0.0
 20
0.0
 30
0.0
  3
*Paper_Space1
  1
*Paper_Space83
  0
ENDBLK
  5
12C6
330
12C3
100
AcDbEntity
  8
0
100
AcDbBlockEnd
  0
BLOCK
  5
1D89
330
1D88
100
AcDbEntity
  8
0
100
AcDbBlockBegin
  2
名称未設定-1
 70
     0
 10
0.0
 20
0.0
 30
0.0
  3
名称未設定-1
  1
名称未設定-1
  0
INSERT
  5
1D8A
330
1D88
100
AcDbEntity
  8
TFORMLOGO
100
AcDbBlockReference
  2
block 2
 10
0.0
 20
0.0
 30
0.0
  0
ENDBLK
  5
1DAF
330
1D88
100
AcDbEntity
  8
0
100
AcDbBlockEnd
  0
BLOCK
  5
1D8C
330
1D8B
100
AcDbEntity
  8
0
100
AcDbBlockBegin
  2
block 2
 70
     0
 10
0.0
 20
0.0
 30
0.0
  3
block 2
  1
block 2
  0
INSERT
  5
1D8D
330
1D8B
100
AcDbEntity
  8
TFORMLOGO
100
AcDbBlockReference
  2
block 3
 10
0.0
 20
0.0
 30
0.0
  0
ENDBLK
  5
1DAE
330
1D8B
100
AcDbEntity
  8
0
100
AcDbBlockEnd
  0
BLOCK
  5
1D8F
330
1D8E
100
AcDbEntity
  8
0
100
AcDbBlockBegin
  2
block 3
 70
     0
 10
0.0
 20
0.0
 30
0.0
  3
block 3
  1
block 3
  0
INSERT
  5
1D90
330
1D8E
100
AcDbEntity
  8
TFORMLOGO
100
AcDbBlockReference
  2
block 4
 10
0.0
 20
0.0
 30
0.0
  0
ENDBLK
  5
1DAD
330
1D8E
100
AcDbEntity
  8
0
100
AcDbBlockEnd
  0
BLOCK
  5
1D92
330
1D91
100
AcDbEntity
  8
0
100
AcDbBlockBegin
  2
block 4
 70
     0
 10
0.0
 20
0.0
 30
0.0
  3
block 4
  1
block 4
  0
POLYLINE
  5
1D93
330
1D91
100
AcDbEntity
  8
TFORMLOGO
370
     0
100
AcDb2dPolyline
 66
     1
 10
0.0
 20
0.0
 30
0.0
  0
VERTEX
  5
1D94
330
1D93
100
AcDbEntity
  8
TFORMLOGO
370
     0
100
AcDbVertex
100
AcDb2dVertex
 10
83.79545727667795
 20
167.6444858234922
 30
0.0
  0
VERTEX
  5
1D95
330
1D93
100
AcDbEntity
  8
TFORMLOGO
370
     0
100
AcDbVertex
100
AcDb2dVertex
 10
83.79545727667795
 20
159.7968976406313
 30
0.0
  0
VERTEX
  5
1D96
330
1D93
100
AcDbEntity
  8
TFORMLOGO
370
     0
100
AcDbVertex
100
AcDb2dVertex
 10
71.3631329975216
 20
159.7968976406313
 30
0.0
  0
VERTEX
  5
1D97
330
1D93
100
AcDbEntity
  8
TFORMLOGO
370
     0
100
AcDbVertex
100
AcDb2dVertex
 10
71.3631329975216
 20
127.8027915271048
 30
0.0
  0
VERTEX
  5
1D98
330
1D93
100
AcDbEntity
  8
TFORMLOGO
370
     0
100
AcDbVertex
100
AcDb2dVertex
 10
60.43011526263018
 20
127.8027915271048
 30
0.0
  0
VERTEX
  5
1D99
330
1D93
100
AcDbEntity
  8
TFORMLOGO
370
     0
100
AcDbVertex
100
AcDb2dVertex
 10
60.43011526263018
 20
159.7968976406313
 30
0.0
  0
VERTEX
  5
1D9A
330
1D93
100
AcDbEntity
  8
TFORMLOGO
370
     0
100
AcDbVertex
100
AcDb2dVertex
 10
48.21793273020759
 20
159.7968976406313
 30
0.0
  0
VERTEX
  5
1D9B
330
1D93
100
AcDbEntity
  8
TFORMLOGO
370
     0
100
AcDbVertex
100
AcDb2dVertex
 10
48.21793273020759
 20
167.6444858234922
 30
0.0
  0
VERTEX
  5
1D9C
330
1D93
100
AcDbEntity
  8
TFORMLOGO
370
     0
100
AcDbVertex
100
AcDb2dVertex
 10
83.79545727667795
 20
167.6444858234922
 30
0.0
  0
SEQEND
  5
1D9D
330
1D93
100
AcDbEntity
  8
TFORMLOGO
370
     0
  0
HATCH
  5
1D9E
330
1D91
100
AcDbEntity
  8
TFORMLOGO
 62
   250
420
  2234388
100
AcDbHatch
 10
0.0
 20
0.0
 30
0.0
210
0.0
220
0.0
230
1.0
  2
SOLID
 70
     1
 71
     0
 91
        1
 92
        1
 93
        8
 72
     1
 10
83.79545727667795
 20
167.6444858234922
 11
83.79545727667795
 21
159.7968976406313
 72
     1
 10
83.79545727667795
 20
159.7968976406313
 11
71.3631329975216
 21
159.7968976406313
 72
     1
 10
71.3631329975216
 20
159.7968976406313
 11
71.3631329975216
 21
127.8027915271048
 72
     1
 10
71.3631329975216
 20
127.8027915271048
 11
60.43011526263018
 21
127.8027915271048
 72
     1
 10
60.43011526263018
 20
127.8027915271048
 11
60.43011526263018
 21
159.7968976406313
 72
     1
 10
60.43011526263018
 20
159.7968976406313
 11
48.21793273020759
 21
159.7968976406313
 72
     1
 10
48.21793273020759
 20
159.7968976406313
 11
48.21793273020759
 21
167.6444858234922
 72
     1
 10
48.21793273020759
 20
167.6444858234922
 11
83.79545727667795
 21
167.6444858234922
 97
        0
 75
     2
 76
     1
 98
        0
  0
INSERT
  5
1D9F
330
1D91
100
AcDbEntity
  8
TFORMLOGO
100
AcDbBlockReference
  2
block 5
 10
0.0
 20
0.0
 30
0.0
  0
ENDBLK
  5
1DAC
330
1D91
100
AcDbEntity
  8
0
100
AcDbBlockEnd
  0
BLOCK
  5
1DA1
330
1DA0
100
AcDbEntity
  8
0
100
AcDbBlockBegin
  2
block 5
 70
     0
 10
0.0
 20
0.0
 30
0.0
  3
block 5
  1
block 5
  0
SPLINE
  5
1DA2
330
1DA0
100
AcDbEntity
  8
TFORMLOGO
370
     0
100
AcDbSpline
210
0.0
220
0.0
230
1.0
 70
    11
 71
     3
 72
    56
 73
    52
 74
     0
 42
0.000000001
 43
0.0000000001
 40
0.0
 40
0.0
 40
0.0
 40
0.0
 40
1.0
 40
1.0
 40
1.0
 40
2.0
 40
2.0
 40
2.0
 40
3.0
 40
3.0
 40
3.0
 40
4.0
 40
4.0
 40
4.0
 40
5.0
 40
5.0
 40
5.0
 40
6.0
 40
6.0
 40
6.0
 40
7.0
 40
7.0
 40
7.0
 40
8.0
 40
8.0
 40
8.0
 40
9.0
 40
9.0
 40
9.0
 40
10.0
 40
10.0
 40
10.0
 40
11.0
 40
11.0
 40
11.0
 40
12.0
 40
12.0
 40
12.0
 40
13.0
 40
13.0
 40
13.0
 40
14.0
 40
14.0
 40
14.0
 40
15.0
 40
15.0
 40
15.0
 40
16.0
 40
16.0
 40
16.0
 40
17.0
 40
17.0
 40
17.0
 40
17.0
 10
100.4504378777679
 20
166.69157178364
 30
0.0
 10
101.9848844191641
 20
167.1313385124438
 30
0.0
 10
103.9637485713373
 20
166.7649523658846
 30
0.0
 10
103.9637485713373
 20
166.7649523658846
 30
0.0
 10
103.9637485713373
 20
166.7649523658846
 30
0.0
 10
103.0132460999156
 20
163.911205638077
 30
0.0
 10
103.0132460999156
 20
163.911205638077
 30
0.0
 10
103.0132460999156
 20
163.911205638077
 30
0.0
 10
101.0674548862189
 20
164.3601018759394
 30
0.0
 10
99.57090442016032
 20
163.1805004036133
 30
0.0
 10
98.40508333886608
 20
162.258247733807
 30
0.0
 10
97.65301849830304
 20
159.804132345923
 30
0.0
 10
97.3598406791005
 20
158.8699940888517
 30
0.0
 10
97.3598406791005
 20
158.8699940888517
 30
0.0
 10
96.07137411762282
 20
154.9119212747295
 30
0.0
 10
96.07137411762282
 20
154.9119212747295
 30
0.0
 10
96.07137411762282
 20
154.9119212747295
 30
0.0
 10
100.3012651448482
 20
154.9119212747295
 30
0.0
 10
100.3012651448482
 20
154.9119212747295
 30
0.0
 10
100.3012651448482
 20
154.9119212747295
 30
0.0
 10
99.64152892419852
 20
152.4199098115079
 30
0.0
 10
99.64152892419852
 20
152.4199098115079
 30
0.0
 10
99.64152892419852
 20
152.4199098115079
 30
0.0
 10
95.38097652692731
 20
152.4199098115079
 30
0.0
 10
95.38097652692731
 20
152.4199098115079
 30
0.0
 10
95.38097652692731
 20
152.4199098115079
 30
0.0
 10
87.75353009080013
 20
127.8027915271048
 30
0.0
 10
87.75353009080013
 20
127.8027915271048
 30
0.0
 10
87.75353009080013
 20
127.8027915271048
 30
0.0
 10
85.36538832498108
 20
127.8027915271048
 30
0.0
 10
85.36538832498108
 20
127.8027915271048
 30
0.0
 10
85.36538832498108
 20
127.8027915271048
 30
0.0
 10
93.00006946639998
 20
152.4199098115079
 30
0.0
 10
93.00006946639998
 20
152.4199098115079
 30
0.0
 10
93.00006946639998
 20
152.4199098115079
 30
0.0
 10
89.85297266450198
 20
152.4199098115079
 30
0.0
 10
89.85297266450198
 20
152.4199098115079
 30
0.0
 10
89.85297266450198
 20
152.4199098115079
 30
0.0
 10
90.51270888515164
 20
154.9119212747295
 30
0.0
 10
90.51270888515164
 20
154.9119212747295
 30
0.0
 10
90.51270888515164
 20
154.9119212747295
 30
0.0
 10
93.6904670570955
 20
154.9119212747295
 30
0.0
 10
93.6904670570955
 20
154.9119212747295
 30
0.0
 10
93.6904670570955
 20
154.9119212747295
 30
0.0
 10
94.81598049462158
 20
158.3616699146644
 30
0.0
 10
94.81598049462158
 20
158.3616699146644
 30
0.0
 10
95.7237637538445
 20
161.2605474231013
 30
0.0
 10
96.4968436907311
 20
162.8139420021662
 30
0.0
 10
97.15657991138076
 20
163.9844139654337
 30
0.0
 10
97.81183750494507
 20
165.1523021053827
 30
0.0
 10
99.1047826935081
 20
166.3084769129547
 30
0.0
 10
100.4504378777679
 20
166.69157178364
 30
0.0
  0
HATCH
  5
1DA3
330
1DA0
100
AcDbEntity
  8
TFORMLOGO
 62
   250
420
  2234388
100
AcDbHatch
 10
0.0
 20
0.0
 30
0.0
210
0.0
220
0.0
230
1.0
  2
SOLID
 70
     1
 71
     0
 91
        1
 92
        1
 93
        1
 72
     4
 94
        3
 73
     0
 74
     1
 95
       56
 96
       52
 40
0.0
 40
0.0
 40
0.0
 40
0.0
 40
1.0
 40
1.0
 40
1.0
 40
2.0
 40
2.0
 40
2.0
 40
3.0
 40
3.0
 40
3.0
 40
4.0
 40
4.0
 40
4.0
 40
5.0
 40
5.0
 40
5.0
 40
6.0
 40
6.0
 40
6.0
 40
7.0
 40
7.0
 40
7.0
 40
8.0
 40
8.0
 40
8.0
 40
9.0
 40
9.0
 40
9.0
 40
10.0
 40
10.0
 40
10.0
 40
11.0
 40
11.0
 40
11.0
 40
12.0
 40
12.0
 40
12.0
 40
13.0
 40
13.0
 40
13.0
 40
14.0
 40
14.0
 40
14.0
 40
15.0
 40
15.0
 40
15.0
 40
16.0
 40
16.0
 40
16.0
 40
17.0
 40
17.0
 40
17.0
 40
17.0
 10
100.4504378777679
 20
166.69157178364
 10
101.9848844191641
 20
167.1313385124438
 10
103.9637485713373
 20
166.7649523658846
 10
103.9637485713373
 20
166.7649523658846
 10
103.9637485713373
 20
166.7649523658846
 10
103.0132460999156
 20
163.911205638077
 10
103.0132460999156
 20
163.911205638077
 10
103.0132460999156
 20
163.911205638077
 10
101.0674548862189
 20
164.3601018759394
 10
99.57090442016032
 20
163.1805004036133
 10
98.40508333886608
 20
162.258247733807
 10
97.65301849830304
 20
159.804132345923
 10
97.3598406791005
 20
158.8699940888517
 10
97.3598406791005
 20
158.8699940888517
 10
96.07137411762282
 20
154.9119212747295
 10
96.07137411762282
 20
154.9119212747295
 10
96.07137411762282
 20
154.9119212747295
 10
100.3012651448482
 20
154.9119212747295
 10
100.3012651448482
 20
154.9119212747295
 10
100.3012651448482
 20
154.9119212747295
 10
99.64152892419852
 20
152.4199098115079
 10
99.64152892419852
 20
152.4199098115079
 10
99.64152892419852
 20
152.4199098115079
 10
95.38097652692731
 20
152.4199098115079
 10
95.38097652692731
 20
152.4199098115079
 10
95.38097652692731
 20
152.4199098115079
 10
87.75353009080013
 20
127.8027915271048
 10
87.75353009080013
 20
127.8027915271048
 10
87.75353009080013
 20
127.8027915271048
 10
85.36538832498108
 20
127.8027915271048
 10
85.36538832498108
 20
127.8027915271048
 10
85.36538832498108
 20
127.8027915271048
 10
93.00006946639998
 20
152.4199098115079
 10
93.00006946639998
 20
152.4199098115079
 10
93.00006946639998
 20
152.4199098115079
 10
89.85297266450198
 20
152.4199098115079
 10
89.85297266450198
 20
152.4199098115079
 10
89.85297266450198
 20
152.4199098115079
 10
90.51270888515164
 20
154.9119212747295
 10
90.51270888515164
 20
154.9119212747295
 10
90.51270888515164
 20
154.9119212747295
 10
93.6904670570955
 20
154.9119212747295
 10
93.6904670570955
 20
154.9119212747295
 10
93.6904670570955
 20
154.9119212747295
 10
94.81598049462158
 20
158.3616699146644
 10
94.81598049462158
 20
158.3616699146644
 10
95.7237637538445
 20
161.2605474231013
 10
96.4968436907311
 20
162.8139420021662
 10
97.15657991138076
 20
163.9844139654337
 10
97.81183750494507
 20
165.1523021053827
 10
99.1047826935081
 20
166.3084769129547
 10
100.4504378777679
 20
166.69157178364
 97
        0
 75
     2
 76
     1
 98
        0
  0
SPLINE
  5
1DA4
330
1DA0
100
AcDbEntity
  8
TFORMLOGO
370
     0
100
AcDbSpline
210
0.0
220
0.0
230
1.0
 70
    11
 71
     3
 72
    38
 73
    34
 74
     0
 42
0.000000001
 43
0.0000000001
 40
0.0
 40
0.0
 40
0.0
 40
0.0
 40
1.0
 40
1.0
 40
1.0
 40
2.0
 40
2.0
 40
2.0
 40
3.0
 40
3.0
 40
3.0
 40
4.0
 40
4.0
 40
4.0
 40
5.0
 40
5.0
 40
5.0
 40
6.0
 40
6.0
 40
6.0
 40
7.0
 40
7.0
 40
7.0
 40
8.0
 40
8.0
 40
8.0
 40
9.0
 40
9.0
 40
9.0
 40
10.0
 40
10.0
 40
10.0
 40
11.0
 40
11.0
 40
11.0
 40
11.0
 10
126.377554584636
 20
154.8151140277308
 30
0.0
 10
126.377554584636
 20
154.8151140277308
 30
0.0
 10
128.8311532078563
 20
154.8151140277308
 30
0.0
 10
128.8311532078563
 20
154.8151140277308
 30
0.0
 10
128.8311532078563
 20
154.8151140277308
 30
0.0
 10
127.7345785914971
 20
151.3062819612468
 30
0.0
 10
127.7345785914971
 20
151.3062819612468
 30
0.0
 10
128.571392836906
 20
152.2922689395754
 30
0.0
 10
129.8860421413442
 20
153.604506675583
 30
0.0
 10
131.0163787157314
 20
154.2664822097754
 30
0.0
 10
132.7044766171327
 20
155.2500576196734
 30
0.0
 10
133.6642808525008
 20
155.3847609420097
 30
0.0
 10
134.7284715499351
 20
155.3565111403944
 30
0.0
 10
134.7284715499351
 20
155.3565111403944
 30
0.0
 10
133.6877075172549
 20
152.0345756272799
 30
0.0
 10
133.6877075172549
 20
152.0345756272799
 30
0.0
 10
133.011434827367
 20
152.3184516825359
 30
0.0
 10
130.930940291334
 20
151.7768823149844
 30
0.0
 10
129.739280976855
 20
150.9162968950455
 30
0.0
 10
128.66613302525
 20
150.1454562717016
 30
0.0
 10
127.9192358313239
 20
149.4857200510519
 30
0.0
 10
127.0393578639405
 20
147.8282835196966
 30
0.0
 10
126.164647543194
 20
146.1699857139017
 30
0.0
 10
125.4742499524985
 20
143.5262176944419
 30
0.0
 10
124.2822461282437
 20
139.6959580071401
 30
0.0
 10
124.2822461282437
 20
139.6959580071401
 30
0.0
 10
120.5753209406769
 20
127.8027915271048
 30
0.0
 10
120.5753209406769
 20
127.8027915271048
 30
0.0
 10
120.5753209406769
 20
127.8027915271048
 30
0.0
 10
118.1964809388044
 20
127.8027915271048
 30
0.0
 10
118.1964809388044
 20
127.8027915271048
 30
0.0
 10
118.1964809388044
 20
127.8027915271048
 30
0.0
 10
126.377554584636
 20
154.8151140277308
 30
0.0
 10
126.377554584636
 20
154.8151140277308
 30
0.0
  0
HATCH
  5
1DA5
330
1DA0
100
AcDbEntity
  8
TFORMLOGO
 62
   250
420
  2234388
100
AcDbHatch
 10
0.0
 20
0.0
 30
0.0
210
0.0
220
0.0
230
1.0
  2
SOLID
 70
     1
 71
     0
 91
        1
 92
        1
 93
        1
 72
     4
 94
        3
 73
     0
 74
     1
 95
       38
 96
       34
 40
0.0
 40
0.0
 40
0.0
 40
0.0
 40
1.0
 40
1.0
 40
1.0
 40
2.0
 40
2.0
 40
2.0
 40
3.0
 40
3.0
 40
3.0
 40
4.0
 40
4.0
 40
4.0
 40
5.0
 40
5.0
 40
5.0
 40
6.0
 40
6.0
 40
6.0
 40
7.0
 40
7.0
 40
7.0
 40
8.0
 40
8.0
 40
8.0
 40
9.0
 40
9.0
 40
9.0
 40
10.0
 40
10.0
 40
10.0
 40
11.0
 40
11.0
 40
11.0
 40
11.0
 10
126.377554584636
 20
154.8151140277308
 10
126.377554584636
 20
154.8151140277308
 10
128.8311532078563
 20
154.8151140277308
 10
128.8311532078563
 20
154.8151140277308
 10
128.8311532078563
 20
154.8151140277308
 10
127.7345785914971
 20
151.3062819612468
 10
127.7345785914971
 20
151.3062819612468
 10
128.571392836906
 20
152.2922689395754
 10
129.8860421413442
 20
153.604506675583
 10
131.0163787157314
 20
154.2664822097754
 10
132.7044766171327
 20
155.2500576196734
 10
133.6642808525008
 20
155.3847609420097
 10
134.7284715499351
 20
155.3565111403944
 10
134.7284715499351
 20
155.3565111403944
 10
133.6877075172549
 20
152.0345756272799
 10
133.6877075172549
 20
152.0345756272799
 10
133.011434827367
 20
152.3184516825359
 10
130.930940291334
 20
151.7768823149844
 10
129.739280976855
 20
150.9162968950455
 10
128.66613302525
 20
150.1454562717016
 10
127.9192358313239
 20
149.4857200510519
 10
127.0393578639405
 20
147.8282835196966
 10
126.164647543194
 20
146.1699857139017
 10
125.4742499524985
 20
143.5262176944419
 10
124.2822461282437
 20
139.6959580071401
 10
124.2822461282437
 20
139.6959580071401
 10
120.5753209406769
 20
127.8027915271048
 10
120.5753209406769
 20
127.8027915271048
 10
120.5753209406769
 20
127.8027915271048
 10
118.1964809388044
 20
127.8027915271048
 10
118.1964809388044
 20
127.8027915271048
 10
118.1964809388044
 20
127.8027915271048
 10
126.377554584636
 20
154.8151140277308
 10
126.377554584636
 20
154.8151140277308
 97
        0
 75
     2
 76
     1
 98
        0
  0
SPLINE
  5
1DA6
330
1DA0
100
AcDbEntity
  8
TFORMLOGO
370
     0
100
AcDbSpline
210
0.0
220
0.0
230
1.0
 70
    11
 71
     3
 72
   104
 73
   100
 74
     0
 42
0.000000001
 43
0.0000000001
 40
0.0
 40
0.0
 40
0.0
 40
0.0
 40
1.0
 40
1.0
 40
1.0
 40
2.0
 40
2.0
 40
2.0
 40
3.0
 40
3.0
 40
3.0
 40
4.0
 40
4.0
 40
4.0
 40
5.0
 40
5.0
 40
5.0
 40
6.0
 40
6.0
 40
6.0
 40
7.0
 40
7.0
 40
7.0
 40
8.0
 40
8.0
 40
8.0
 40
9.0
 40
9.0
 40
9.0
 40
10.0
 40
10.0
 40
10.0
 40
11.0
 40
11.0
 40
11.0
 40
12.0
 40
12.0
 40
12.0
 40
13.0
 40
13.0
 40
13.0
 40
14.0
 40
14.0
 40
14.0
 40
15.0
 40
15.0
 40
15.0
 40
16.0
 40
16.0
 40
16.0
 40
17.0
 40
17.0
 40
17.0
 40
18.0
 40
18.0
 40
18.0
 40
19.0
 40
19.0
 40
19.0
 40
20.0
 40
20.0
 40
20.0
 40
21.0
 40
21.0
 40
21.0
 40
22.0
 40
22.0
 40
22.0
 40
23.0
 40
23.0
 40
23.0
 40
24.0
 40
24.0
 40
24.0
 40
25.0
 40
25.0
 40
25.0
 40
26.0
 40
26.0
 40
26.0
 40
27.0
 40
27.0
 40
27.0
 40
28.0
 40
28.0
 40
28.0
 40
29.0
 40
29.0
 40
29.0
 40
30.0
 40
30.0
 40
30.0
 40
31.0
 40
31.0
 40
31.0
 40
32.0
 40
32.0
 40
32.0
 40
33.0
 40
33.0
 40
33.0
 40
33.0
 10
139.8926730891197
 20
154.8294111834263
 30
0.0
 10
139.8926730891197
 20
154.8294111834263
 30
0.0
 10
142.0344903652445
 20
154.8294111834263
 30
0.0
 10
142.0344903652445
 20
154.8294111834263
 30
0.0
 10
142.0344903652445
 20
154.8294111834263
 30
0.0
 10
140.9516961399171
 20
151.3157559800812
 30
0.0
 10
140.9516961399171
 20
151.3157559800812
 30
0.0
 10
141.8928968473923
 20
152.7887075264977
 30
0.0
 10
142.7341897198865
 20
153.4484437471474
 30
0.0
 10
143.8552245303272
 20
154.2926649527359
 30
0.0
 10
144.9803934580775
 20
155.1296514530327
 30
0.0
 10
146.3139908001845
 20
155.3044901642492
 30
0.0
 10
147.241066606852
 20
155.3044901642492
 30
0.0
 10
148.3855280820469
 20
155.3044901642492
 30
0.0
 10
149.4969166187653
 20
155.0752189084569
 30
0.0
 10
150.0784491203092
 20
153.8172414621372
 30
0.0
 10
150.5228667310863
 20
152.833838307127
 30
0.0
 10
150.5414702589793
 20
152.7201500811143
 30
0.0
 10
150.4140016419347
 20
150.7765981809602
 30
0.0
 10
151.5818897818837
 20
152.7699317437168
 30
0.0
 10
152.4424752018226
 20
153.6256940267945
 30
0.0
 10
153.9038856707499
 20
154.4507949398263
 30
0.0
 10
155.4455669174378
 20
155.3044901642492
 30
0.0
 10
156.339225275853
 20
155.3659851592288
 30
0.0
 10
157.3748216618963
 20
155.2147453676543
 30
0.0
 10
158.911679771723
 20
154.9877134254046
 30
0.0
 10
159.8859534176746
 20
154.4390816074493
 30
0.0
 10
160.3965169054045
 20
152.7816450760939
 30
0.0
 10
160.9070803931344
 20
151.1219692311958
 30
0.0
 10
160.6328506116007
 20
150.2303779314354
 30
0.0
 10
159.9992971339115
 20
147.597634224801
 30
0.0
 10
159.7105979417943
 20
146.4014962832367
 30
0.0
 10
159.2947746424084
 20
144.9400858143094
 30
0.0
 10
158.7463150793409
 20
143.2092687007094
 30
0.0
 10
158.7463150793409
 20
143.2092687007094
 30
0.0
 10
153.9038856707499
 20
127.8027915271048
 30
0.0
 10
153.9038856707499
 20
127.8027915271048
 30
0.0
 10
153.9038856707499
 20
127.8027915271048
 30
0.0
 10
151.3882752878863
 20
127.8027915271048
 30
0.0
 10
151.3882752878863
 20
127.8027915271048
 30
0.0
 10
151.3882752878863
 20
127.8027915271048
 30
0.0
 10
155.6250565106276
 20
141.2751908193897
 30
0.0
 10
155.6250565106276
 20
141.2751908193897
 30
0.0
 10
156.5094131050963
 20
144.0936252951782
 30
0.0
 10
157.109893644309
 20
146.1506931664571
 30
0.0
 10
157.4220195011804
 20
147.4415712963654
 30
0.0
 10
157.8095929989511
 20
149.0530157726519
 30
0.0
 10
157.9656559273867
 20
149.5826995529385
 30
0.0
 10
157.7816877071116
 20
150.7529992613181
 30
0.0
 10
157.6111553680925
 20
151.8430281919372
 30
0.0
 10
157.0582171779396
 20
152.5547853887321
 30
0.0
 10
156.1170164704645
 20
152.5547853887321
 30
0.0
 10
155.1096698860365
 20
152.5547853887321
 30
0.0
 10
154.2962823053817
 20
152.4412694176073
 30
0.0
 10
153.156643967048
 20
151.2945686288697
 30
0.0
 10
152.0170056287143
 20
150.1476955852443
 30
0.0
 10
151.076149431015
 20
148.7930831468137
 30
0.0
 10
150.3337308641742
 20
147.2290087646991
 30
0.0
 10
149.5957909244188
 20
145.6683794803425
 30
0.0
 10
148.8530278478023
 20
143.6822806228776
 30
0.0
 10
148.0964843801539
 20
141.2751908193897
 30
0.0
 10
148.0964843801539
 20
141.2751908193897
 30
0.0
 10
143.8552245303272
 20
127.8027915271048
 30
0.0
 10
143.8552245303272
 20
127.8027915271048
 30
0.0
 10
143.8552245303272
 20
127.8027915271048
 30
0.0
 10
141.486030802177
 20
127.8027915271048
 30
0.0
 10
141.486030802177
 20
127.8027915271048
 30
0.0
 10
141.486030802177
 20
127.8027915271048
 30
0.0
 10
146.3329388378533
 20
143.2092687007094
 30
0.0
 10
146.3329388378533
 20
143.2092687007094
 30
0.0
 10
146.8483254624444
 20
144.8408669988801
 30
0.0
 10
147.2314203331297
 20
146.1837661049335
 30
0.0
 10
147.4867020769946
 20
147.224185627838
 30
0.0
 10
147.9169947869641
 20
149.0197705792876
 30
0.0
 10
148.0306830129768
 20
150.2400242051577
 30
0.0
 10
147.709255392159
 20
151.3157559800812
 30
0.0
 10
147.3874832615654
 20
152.3916600098926
 30
0.0
 10
146.8245542879144
 20
152.6683013598569
 30
0.0
 10
145.8840425999909
 20
152.6683013598569
 30
0.0
 10
145.0989048209514
 20
152.6683013598569
 30
0.0
 10
144.3282364524954
 20
152.3275811915945
 30
0.0
 10
143.4531816219731
 20
151.6538923250251
 30
0.0
 10
142.34627171234
 20
150.8074318058939
 30
0.0
 10
141.901854101563
 20
150.1097995099067
 30
0.0
 10
141.3578731655808
 20
149.289521733736
 30
0.0
 10
140.6299240093235
 20
148.192602607601
 30
0.0
 10
140.2850697237515
 20
147.455696197173
 30
0.0
 10
139.6652966370942
 20
145.8385673095858
 30
0.0
 10
139.0506911970739
 20
144.2214384219986
 30
0.0
 10
138.463991048893
 20
142.3252566160164
 30
0.0
 10
138.0571250036777
 20
141.0154304484394
 30
0.0
 10
138.0571250036777
 20
141.0154304484394
 30
0.0
 10
133.9009590684727
 20
127.8027915271048
 30
0.0
 10
133.9009590684727
 20
127.8027915271048
 30
0.0
 10
133.9009590684727
 20
127.8027915271048
 30
0.0
 10
131.4180771143097
 20
127.8027915271048
 30
0.0
 10
131.4180771143097
 20
127.8027915271048
 30
0.0
 10
131.4180771143097
 20
127.8027915271048
 30
0.0
 10
139.8926730891197
 20
154.8294111834263
 30
0.0
 10
139.8926730891197
 20
154.8294111834263
 30
0.0
  0
HATCH
  5
1DA7
330
1DA0
100
AcDbEntity
  8
TFORMLOGO
 62
   250
420
  2234388
100
AcDbHatch
 10
0.0
 20
0.0
 30
0.0
210
0.0
220
0.0
230
1.0
  2
SOLID
 70
     1
 71
     0
 91
        1
 92
        1
 93
        1
 72
     4
 94
        3
 73
     0
 74
     1
 95
      104
 96
      100
 40
0.0
 40
0.0
 40
0.0
 40
0.0
 40
1.0
 40
1.0
 40
1.0
 40
2.0
 40
2.0
 40
2.0
 40
3.0
 40
3.0
 40
3.0
 40
4.0
 40
4.0
 40
4.0
 40
5.0
 40
5.0
 40
5.0
 40
6.0
 40
6.0
 40
6.0
 40
7.0
 40
7.0
 40
7.0
 40
8.0
 40
8.0
 40
8.0
 40
9.0
 40
9.0
 40
9.0
 40
10.0
 40
10.0
 40
10.0
 40
11.0
 40
11.0
 40
11.0
 40
12.0
 40
12.0
 40
12.0
 40
13.0
 40
13.0
 40
13.0
 40
14.0
 40
14.0
 40
14.0
 40
15.0
 40
15.0
 40
15.0
 40
16.0
 40
16.0
 40
16.0
 40
17.0
 40
17.0
 40
17.0
 40
18.0
 40
18.0
 40
18.0
 40
19.0
 40
19.0
 40
19.0
 40
20.0
 40
20.0
 40
20.0
 40
21.0
 40
21.0
 40
21.0
 40
22.0
 40
22.0
 40
22.0
 40
23.0
 40
23.0
 40
23.0
 40
24.0
 40
24.0
 40
24.0
 40
25.0
 40
25.0
 40
25.0
 40
26.0
 40
26.0
 40
26.0
 40
27.0
 40
27.0
 40
27.0
 40
28.0
 40
28.0
 40
28.0
 40
29.0
 40
29.0
 40
29.0
 40
30.0
 40
30.0
 40
30.0
 40
31.0
 40
31.0
 40
31.0
 40
32.0
 40
32.0
 40
32.0
 40
33.0
 40
33.0
 40
33.0
 40
33.0
 10
139.8926730891197
 20
154.8294111834263
 10
139.8926730891197
 20
154.8294111834263
 10
142.0344903652445
 20
154.8294111834263
 10
142.0344903652445
 20
154.8294111834263
 10
142.0344903652445
 20
154.8294111834263
 10
140.9516961399171
 20
151.3157559800812
 10
140.9516961399171
 20
151.3157559800812
 10
141.8928968473923
 20
152.7887075264977
 10
142.7341897198865
 20
153.4484437471474
 10
143.8552245303272
 20
154.2926649527359
 10
144.9803934580775
 20
155.1296514530327
 10
146.3139908001845
 20
155.3044901642492
 10
147.241066606852
 20
155.3044901642492
 10
148.3855280820469
 20
155.3044901642492
 10
149.4969166187653
 20
155.0752189084569
 10
150.0784491203092
 20
153.8172414621372
 10
150.5228667310863
 20
152.833838307127
 10
150.5414702589793
 20
152.7201500811143
 10
150.4140016419347
 20
150.7765981809602
 10
151.5818897818837
 20
152.7699317437168
 10
152.4424752018226
 20
153.6256940267945
 10
153.9038856707499
 20
154.4507949398263
 10
155.4455669174378
 20
155.3044901642492
 10
156.339225275853
 20
155.3659851592288
 10
157.3748216618963
 20
155.2147453676543
 10
158.911679771723
 20
154.9877134254046
 10
159.8859534176746
 20
154.4390816074493
 10
160.3965169054045
 20
152.7816450760939
 10
160.9070803931344
 20
151.1219692311958
 10
160.6328506116007
 20
150.2303779314354
 10
159.9992971339115
 20
147.597634224801
 10
159.7105979417943
 20
146.4014962832367
 10
159.2947746424084
 20
144.9400858143094
 10
158.7463150793409
 20
143.2092687007094
 10
158.7463150793409
 20
143.2092687007094
 10
153.9038856707499
 20
127.8027915271048
 10
153.9038856707499
 20
127.8027915271048
 10
153.9038856707499
 20
127.8027915271048
 10
151.3882752878863
 20
127.8027915271048
 10
151.3882752878863
 20
127.8027915271048
 10
151.3882752878863
 20
127.8027915271048
 10
155.6250565106276
 20
141.2751908193897
 10
155.6250565106276
 20
141.2751908193897
 10
156.5094131050963
 20
144.0936252951782
 10
157.109893644309
 20
146.1506931664571
 10
157.4220195011804
 20
147.4415712963654
 10
157.8095929989511
 20
149.0530157726519
 10
157.9656559273867
 20
149.5826995529385
 10
157.7816877071116
 20
150.7529992613181
 10
157.6111553680925
 20
151.8430281919372
 10
157.0582171779396
 20
152.5547853887321
 10
156.1170164704645
 20
152.5547853887321
 10
155.1096698860365
 20
152.5547853887321
 10
154.2962823053817
 20
152.4412694176073
 10
153.156643967048
 20
151.2945686288697
 10
152.0170056287143
 20
150.1476955852443
 10
151.076149431015
 20
148.7930831468137
 10
150.3337308641742
 20
147.2290087646991
 10
149.5957909244188
 20
145.6683794803425
 10
148.8530278478023
 20
143.6822806228776
 10
148.0964843801539
 20
141.2751908193897
 10
148.0964843801539
 20
141.2751908193897
 10
143.8552245303272
 20
127.8027915271048
 10
143.8552245303272
 20
127.8027915271048
 10
143.8552245303272
 20
127.8027915271048
 10
141.486030802177
 20
127.8027915271048
 10
141.486030802177
 20
127.8027915271048
 10
141.486030802177
 20
127.8027915271048
 10
146.3329388378533
 20
143.2092687007094
 10
146.3329388378533
 20
143.2092687007094
 10
146.8483254624444
 20
144.8408669988801
 10
147.2314203331297
 20
146.1837661049335
 10
147.4867020769946
 20
147.224185627838
 10
147.9169947869641
 20
149.0197705792876
 10
148.0306830129768
 20
150.2400242051577
 10
147.709255392159
 20
151.3157559800812
 10
147.3874832615654
 20
152.3916600098926
 10
146.8245542879144
 20
152.6683013598569
 10
145.8840425999909
 20
152.6683013598569
 10
145.0989048209514
 20
152.6683013598569
 10
144.3282364524954
 20
152.3275811915945
 10
143.4531816219731
 20
151.6538923250251
 10
142.34627171234
 20
150.8074318058939
 10
141.901854101563
 20
150.1097995099067
 10
141.3578731655808
 20
149.289521733736
 10
140.6299240093235
 20
148.192602607601
 10
140.2850697237515
 20
147.455696197173
 10
139.6652966370942
 20
145.8385673095858
 10
139.0506911970739
 20
144.2214384219986
 10
138.463991048893
 20
142.3252566160164
 10
138.0571250036777
 20
141.0154304484394
 10
138.0571250036777
 20
141.0154304484394
 10
133.9009590684727
 20
127.8027915271048
 10
133.9009590684727
 20
127.8027915271048
 10
133.9009590684727
 20
127.8027915271048
 10
131.4180771143097
 20
127.8027915271048
 10
131.4180771143097
 20
127.8027915271048
 10
131.4180771143097
 20
127.8027915271048
 10
139.8926730891197
 20
154.8294111834263
 10
139.8926730891197
 20
154.8294111834263
 97
        0
 75
     2
 76
     1
 98
        0
  0
SPLINE
  5
1DA8
330
1DA0
100
AcDbEntity
  8
TFORMLOGO
370
     0
100
AcDbSpline
210
0.0
220
0.0
230
1.0
 70
    11
 71
     3
 72
    29
 73
    25
 74
     0
 42
0.000000001
 43
0.0000000001
 40
0.0
 40
0.0
 40
0.0
 40
0.0
 40
1.0
 40
1.0
 40
1.0
 40
2.0
 40
2.0
 40
2.0
 40
3.0
 40
3.0
 40
3.0
 40
4.0
 40
4.0
 40
4.0
 40
5.0
 40
5.0
 40
5.0
 40
6.0
 40
6.0
 40
6.0
 40
7.0
 40
7.0
 40
7.0
 40
8.0
 40
8.0
 40
8.0
 40
8.0
 10
101.6420971922469
 20
132.8388354296931
 30
0.0
 10
101.630039350094
 20
134.7164137077823
 30
0.0
 10
102.2236296937908
 20
138.0598810818841
 30
0.0
 10
103.7487744712405
 20
142.5378191476827
 30
0.0
 10
105.819967243327
 20
148.5896501242061
 30
0.0
 10
107.0602024361932
 20
150.8074318058939
 30
0.0
 10
108.1522984254671
 20
151.8833358357054
 30
0.0
 10
109.741177511439
 20
153.4532668840085
 30
0.0
 10
111.8740375333931
 20
153.5290590346837
 30
0.0
 10
112.5075910110823
 20
153.4532668840085
 30
0.0
 10
113.4012493694975
 20
153.3490526768302
 30
0.0
 10
114.6683563248758
 20
152.7580461564518
 30
0.0
 10
114.7493161221879
 20
150.7838328862519
 30
0.0
 10
114.8106388622796
 20
149.0909118479895
 30
0.0
 10
114.3186789024427
 20
145.9191825971221
 30
0.0
 10
112.6164561002338
 20
140.9489400617108
 30
0.0
 10
110.6444821435766
 20
135.1746117095912
 30
0.0
 10
109.4669477299053
 20
132.8960240524753
 30
0.0
 10
108.5212683953448
 20
131.9072809959403
 30
0.0
 10
106.7346406980658
 20
130.0538184021569
 30
0.0
 10
104.8222669326213
 20
130.2336525051225
 30
0.0
 10
104.5408024457958
 20
130.2336525051225
 30
0.0
 10
104.1721769856939
 20
130.2336525051225
 30
0.0
 10
101.6465758193322
 20
130.6305277668397
 30
0.0
 10
101.6420971922469
 20
132.8388354296931
 30
0.0
  0
SPLINE
  5
1DA9
330
1DA0
100
AcDbEntity
  8
TFORMLOGO
370
     0
100
AcDbSpline
210
0.0
220
0.0
230
1.0
 70
    11
 71
     3
 72
    32
 73
    28
 74
     0
 42
0.000000001
 43
0.0000000001
 40
0.0
 40
0.0
 40
0.0
 40
0.0
 40
1.0
 40
1.0
 40
1.0
 40
2.0
 40
2.0
 40
2.0
 40
3.0
 40
3.0
 40
3.0
 40
4.0
 40
4.0
 40
4.0
 40
5.0
 40
5.0
 40
5.0
 40
6.0
 40
6.0
 40
6.0
 40
7.0
 40
7.0
 40
7.0
 40
8.0
 40
8.0
 40
8.0
 40
9.0
 40
9.0
 40
9.0
 40
9.0
 10
106.2595617172429
 20
153.4105476718098
 30
0.0
 10
104.8222669326213
 20
151.5474388043041
 30
0.0
 10
103.7177685914188
 20
149.8758773721411
 30
0.0
 10
101.9232171692965
 20
144.6141795664062
 30
0.0
 10
100.2754269116635
 20
139.7999999594306
 30
0.0
 10
99.22777268346732
 20
136.3052927937542
 30
0.0
 10
99.06964269637689
 20
132.039572749846
 30
0.0
 10
98.94665270641765
 20
128.8673267343149
 30
0.0
 10
100.8807305877373
 20
127.8027915271048
 30
0.0
 10
103.7129454545577
 20
127.8027915271048
 30
0.0
 10
104.9352661390825
 20
127.8027915271048
 30
0.0
 10
108.0151835347002
 20
127.8827177950895
 30
0.0
 10
110.2045431598849
 20
130.5926316915021
 30
0.0
 10
111.7417457794874
 20
132.4984597712065
 30
0.0
 10
113.155269389579
 20
134.475256864725
 30
0.0
 10
115.0562743324223
 20
140.9489400617108
 30
0.0
 10
116.6361961642235
 20
146.3680788349845
 30
0.0
 10
117.7282921534974
 20
149.8639917848761
 30
0.0
 10
117.6480213757369
 20
151.8595646611754
 30
0.0
 10
117.6480213757369
 20
151.8595646611754
 30
0.0
 10
117.6480213757369
 20
151.8595646611754
 30
0.0
 10
117.6480213757369
 20
151.8595646611754
 30
0.0
 10
117.13229024137
 20
155.18150017429
 30
0.0
 10
114.7162431837115
 20
155.886194920681
 30
0.0
 10
113.3351034925446
 20
155.886194920681
 30
0.0
 10
111.9829026225447
 20
155.886194920681
 30
0.0
 10
108.3414342923792
 20
156.1251124501957
 30
0.0
 10
106.2595617172429
 20
153.4105476718098
 30
0.0
  0
HATCH
  5
1DAA
330
1DA0
100
AcDbEntity
  8
TFORMLOGO
 62
   250
420
  2234388
100
AcDbHatch
 10
0.0
 20
0.0
 30
0.0
210
0.0
220
0.0
230
1.0
  2
SOLID
 70
     1
 71
     0
 91
        2
 92
        1
 93
        1
 72
     4
 94
        3
 73
     0
 74
     1
 95
       29
 96
       25
 40
0.0
 40
0.0
 40
0.0
 40
0.0
 40
1.0
 40
1.0
 40
1.0
 40
2.0
 40
2.0
 40
2.0
 40
3.0
 40
3.0
 40
3.0
 40
4.0
 40
4.0
 40
4.0
 40
5.0
 40
5.0
 40
5.0
 40
6.0
 40
6.0
 40
6.0
 40
7.0
 40
7.0
 40
7.0
 40
8.0
 40
8.0
 40
8.0
 40
8.0
 10
101.6420971922469
 20
132.8388354296931
 10
101.630039350094
 20
134.7164137077823
 10
102.2236296937908
 20
138.0598810818841
 10
103.7487744712405
 20
142.5378191476827
 10
105.819967243327
 20
148.5896501242061
 10
107.0602024361932
 20
150.8074318058939
 10
108.1522984254671
 20
151.8833358357054
 10
109.741177511439
 20
153.4532668840085
 10
111.8740375333931
 20
153.5290590346837
 10
112.5075910110823
 20
153.4532668840085
 10
113.4012493694975
 20
153.3490526768302
 10
114.6683563248758
 20
152.7580461564518
 10
114.7493161221879
 20
150.7838328862519
 10
114.8106388622796
 20
149.0909118479895
 10
114.3186789024427
 20
145.9191825971221
 10
112.6164561002338
 20
140.9489400617108
 10
110.6444821435766
 20
135.1746117095912
 10
109.4669477299053
 20
132.8960240524753
 10
108.5212683953448
 20
131.9072809959403
 10
106.7346406980658
 20
130.0538184021569
 10
104.8222669326213
 20
130.2336525051225
 10
104.5408024457958
 20
130.2336525051225
 10
104.1721769856939
 20
130.2336525051225
 10
101.6465758193322
 20
130.6305277668397
 10
101.6420971922469
 20
132.8388354296931
 97
        0
 92
        1
 93
        1
 72
     4
 94
        3
 73
     0
 74
     1
 95
       32
 96
       28
 40
0.0
 40
0.0
 40
0.0
 40
0.0
 40
1.0
 40
1.0
 40
1.0
 40
2.0
 40
2.0
 40
2.0
 40
3.0
 40
3.0
 40
3.0
 40
4.0
 40
4.0
 40
4.0
 40
5.0
 40
5.0
 40
5.0
 40
6.0
 40
6.0
 40
6.0
 40
7.0
 40
7.0
 40
7.0
 40
8.0
 40
8.0
 40
8.0
 40
9.0
 40
9.0
 40
9.0
 40
9.0
 10
106.2595617172429
 20
153.4105476718098
 10
104.8222669326213
 20
151.5474388043041
 10
103.7177685914188
 20
149.8758773721411
 10
101.9232171692965
 20
144.6141795664062
 10
100.2754269116635
 20
139.7999999594306
 10
99.22777268346732
 20
136.3052927937542
 10
99.06964269637689
 20
132.039572749846
 10
98.94665270641765
 20
128.8673267343149
 10
100.8807305877373
 20
127.8027915271048
 10
103.7129454545577
 20
127.8027915271048
 10
104.9352661390825
 20
127.8027915271048
 10
108.0151835347002
 20
127.8827177950895
 10
110.2045431598849
 20
130.5926316915021
 10
111.7417457794874
 20
132.4984597712065
 10
113.155269389579
 20
134.475256864725
 10
115.0562743324223
 20
140.9489400617108
 10
116.6361961642235
 20
146.3680788349845
 10
117.7282921534974
 20
149.8639917848761
 10
117.6480213757369
 20
151.8595646611754
 10
117.6480213757369
 20
151.8595646611754
 10
117.6480213757369
 20
151.8595646611754
 10
117.6480213757369
 20
151.8595646611754
 10
117.13229024137
 20
155.18150017429
 10
114.7162431837115
 20
155.886194920681
 10
113.3351034925446
 20
155.886194920681
 10
111.9829026225447
 20
155.886194920681
 10
108.3414342923792
 20
156.1251124501957
 10
106.2595617172429
 20
153.4105476718098
 97
        0
 75
     2
 76
     1
 98
        0
  0
ENDBLK
  5
1DAB
330
1DA0
100
AcDbEntity
  8
0
100
AcDbBlockEnd
  0
BLOCK
  5
49D8
330
49D7
100
AcDbEntity
  8
0
100
AcDbBlockBegin
  2
*D7
 70
     1
 10
0.0
 20
0.0
 30
0.0
  3
*D7
  1
*D89
  0
LINE
  5
49DA
330
49D7
100
AcDbEntity
  8
寸法
 62
     0
370
    -2
100
AcDbLine
 10
377.4580110333714
 20
322.6433672898764
 30
0.0
 11
348.2503067484663
 21
322.6433672898764
 31
0.0
  0
LINE
  5
49DB
330
49D7
100
AcDbEntity
  8
寸法
 62
     0
370
    -2
100
AcDbLine
 10
377.4580110333714
 20
270.5741597760435
 30
0.0
 11
348.2503067484663
 21
270.5741597760435
 31
0.0
  0
LINE
  5
49DC
330
49D7
100
AcDbEntity
  8
寸法
 62
     0
370
    -2
100
AcDbLine
 10
348.2503067484663
 20
320.6433672898764
 30
0.0
 11
348.2503067484663
 21
272.5741597760435
 31
0.0
  0
INSERT
  5
49DD
330
49D7
100
AcDbEntity
  8
寸法
 62
     0
370
    -2
100
AcDbBlockReference
  2
_DOT
 10
348.2503067484663
 20
322.6433672898764
 30
0.0
 41
2.0
 42
2.0
 43
2.0
 50
90.0
  0
INSERT
  5
49DE
330
49D7
100
AcDbEntity
  8
寸法
 62
     0
370
    -2
100
AcDbBlockReference
  2
_DOT
 10
348.2503067484663
 20
270.5741597760435
 30
0.0
 41
2.0
 42
2.0
 43
2.0
 50
270.0
  0
MTEXT
  5
49DF
330
49D7
100
AcDbEntity
  8
寸法
 62
     0
100
AcDbMText
 10
340.7503067484663
 20
296.60876353296
 30
0.0
 40
5.0
 41
0.0
 46
0.0
 71
     5
 72
     1
  1
\A1;52
  7
ＭＳ ゴシック
 11
0.0
 21
1.0
 31
0.0
 73
     1
 44
1.0
  0
POINT
  5
49E0
330
49D7
100
AcDbEntity
  8
Defpoints
 62
     0
100
AcDbPoint
 10
382.4580110333714
 20
322.6433672898764
 30
0.0
  0
POINT
  5
49E1
330
49D7
100
AcDbEntity
  8
Defpoints
 62
     0
100
AcDbPoint
 10
382.4580110333714
 20
270.5741597760435
 30
0.0
  0
POINT
  5
49E2
330
49D7
100
AcDbEntity
  8
Defpoints
 62
     0
100
AcDbPoint
 10
348.2503067484663
 20
270.5741597760435
 30
0.0
  0
ENDBLK
  5
49D9
330
49D7
100
AcDbEntity
  8
0
100
AcDbBlockEnd
  0
BLOCK
  5
49E7
330
49E6
100
AcDbEntity
  8
0
100
AcDbBlockBegin
  2
*D8
 70
     1
 10
0.0
 20
0.0
 30
0.0
  3
*D8
  1
*D90
  0
LINE
  5
49E9
330
49E6
100
AcDbEntity
  8
寸法
 62
     0
370
    -2
100
AcDbLine
 10
172.8809483580591
 20
262.1859061310873
 30
0.0
 11
172.8809483580591
 21
246.4811791365413
 31
0.0
  0
LINE
  5
49EA
330
49E6
100
AcDbEntity
  8
寸法
 62
     0
370
    -2
100
AcDbLine
 10
224.5281313965421
 20
262.1859061310873
 30
0.0
 11
224.5281313965421
 21
246.4811791365413
 31
0.0
  0
LINE
  5
49EB
330
49E6
100
AcDbEntity
  8
寸法
 62
     0
370
    -2
100
AcDbLine
 10
174.8809483580591
 20
246.4811791365413
 30
0.0
 11
222.5281313965421
 21
246.4811791365413
 31
0.0
  0
INSERT
  5
49EC
330
49E6
100
AcDbEntity
  8
寸法
 62
     0
370
    -2
100
AcDbBlockReference
  2
_DOT
 10
172.8809483580591
 20
246.4811791365413
 30
0.0
 41
2.0
 42
2.0
 43
2.0
 50
180.0
  0
INSERT
  5
49ED
330
49E6
100
AcDbEntity
  8
寸法
 62
     0
370
    -2
100
AcDbBlockReference
  2
_DOT
 10
224.5281313965421
 20
246.4811791365413
 30
0.0
 41
2.0
 42
2.0
 43
2.0
  0
MTEXT
  5
49EE
330
49E6
100
AcDbEntity
  8
寸法
 62
     0
100
AcDbMText
 10
198.7045398773006
 20
253.9811791365413
 30
0.0
 40
5.0
 41
0.0
 46
0.0
 71
     5
 72
     1
  1
\A1;52
  7
ＭＳ ゴシック
 73
     1
 44
1.0
  0
POINT
  5
49EF
330
49E6
100
AcDbEntity
  8
Defpoints
 62
     0
100
AcDbPoint
 10
172.8809483580591
 20
267.1859061310873
 30
0.0
  0
POINT
  5
49F0
330
49E6
100
AcDbEntity
  8
Defpoints
 62
     0
100
AcDbPoint
 10
224.5281313965421
 20
267.1859061310873
 30
0.0
  0
POINT
  5
49F1
330
49E6
100
AcDbEntity
  8
Defpoints
 62
     0
100
AcDbPoint
 10
224.5281313965421
 20
246.4811791365413
 30
0.0
  0
ENDBLK
  5
49E8
330
49E6
100
AcDbEntity
  8
0
100
AcDbBlockEnd
  0
BLOCK
  5
4A36
330
4A35
100
AcDbEntity
  8
0
100
AcDbBlockBegin
  2
*D9
 70
     1
 10
0.0
 20
0.0
 30
0.0
  3
*D9
  1
*D93
  0
LINE
  5
4A38
330
4A35
100
AcDbEntity
  8
寸法
 62
     0
370
    -2
100
AcDbLine
 10
179.7045398773006
 20
327.533685554482
 30
0.0
 11
179.7045398773006
 21
335.7576218506239
 31
0.0
  0
LINE
  5
4A39
330
4A35
100
AcDbEntity
  8
寸法
 62
     0
370
    -2
100
AcDbLine
 10
217.7045398773006
 20
327.533685554482
 30
0.0
 11
217.7045398773006
 21
335.7576218506239
 31
0.0
  0
LINE
  5
4A3A
330
4A35
100
AcDbEntity
  8
寸法
 62
     0
370
    -2
100
AcDbLine
 10
181.7045398773006
 20
335.7576218506239
 30
0.0
 11
215.7045398773006
 21
335.7576218506239
 31
0.0
  0
INSERT
  5
4A3B
330
4A35
100
AcDbEntity
  8
寸法
 62
     0
370
    -2
100
AcDbBlockReference
  2
_DOT
 10
179.7045398773006
 20
335.7576218506239
 30
0.0
 41
2.0
 42
2.0
 43
2.0
 50
180.0
  0
INSERT
  5
4A3C
330
4A35
100
AcDbEntity
  8
寸法
 62
     0
370
    -2
100
AcDbBlockReference
  2
_DOT
 10
217.7045398773006
 20
335.7576218506239
 30
0.0
 41
2.0
 42
2.0
 43
2.0
  0
MTEXT
  5
4A3D
330
4A35
100
AcDbEntity
  8
寸法
 62
     0
100
AcDbMText
 10
198.7045398773006
 20
343.2576218506239
 30
0.0
 40
5.0
 41
0.0
 46
0.0
 71
     5
 72
     1
  1
\A1;38
  7
ＭＳ ゴシック
 73
     1
 44
1.0
  0
POINT
  5
4A3E
330
4A35
100
AcDbEntity
  8
Defpoints
 62
     0
100
AcDbPoint
 10
179.7045398773006
 20
322.533685554482
 30
0.0
  0
POINT
  5
4A3F
330
4A35
100
AcDbEntity
  8
Defpoints
 62
     0
100
AcDbPoint
 10
217.7045398773006
 20
322.533685554482
 30
0.0
  0
POINT
  5
4A40
330
4A35
100
AcDbEntity
  8
Defpoints
 62
     0
100
AcDbPoint
 10
217.7045398773006
 20
335.7576218506239
 30
0.0
  0
ENDBLK
  5
4A37
330
4A35
100
AcDbEntity
  8
0
100
AcDbBlockEnd
  0
BLOCK
  5
4A62
330
4A61
100
AcDbEntity
  8
0
100
AcDbBlockBegin
  2
*D10
 70
     1
 10
0.0
 20
0.0
 30
0.0
  3
*D10
  1
*D96
  0
LINE
  5
4A64
330
4A61
100
AcDbEntity
  8
寸法
 62
     0
370
    -2
100
AcDbLine
 10
229.5281313965421
 20
322.6433672898764
 30
0.0
 11
250.574189629303
 21
322.6433672898764
 31
0.0
  0
LINE
  5
4A65
330
4A61
100
AcDbEntity
  8
寸法
 62
     0
370
    -2
100
AcDbLine
 10
229.5281313965421
 20
266.6433672898764
 30
0.0
 11
250.574189629303
 21
266.6433672898764
 31
0.0
  0
LINE
  5
4A66
330
4A61
100
AcDbEntity
  8
寸法
 62
     0
370
    -2
100
AcDbLine
 10
250.574189629303
 20
320.6433672898764
 30
0.0
 11
250.574189629303
 21
268.6433672898764
 31
0.0
  0
INSERT
  5
4A67
330
4A61
100
AcDbEntity
  8
寸法
 62
     0
370
    -2
100
AcDbBlockReference
  2
_DOT
 10
250.574189629303
 20
322.6433672898764
 30
0.0
 41
2.0
 42
2.0
 43
2.0
 50
90.0
  0
INSERT
  5
4A68
330
4A61
100
AcDbEntity
  8
寸法
 62
     0
370
    -2
100
AcDbBlockReference
  2
_DOT
 10
250.574189629303
 20
266.6433672898764
 30
0.0
 41
2.0
 42
2.0
 43
2.0
 50
270.0
  0
MTEXT
  5
4A69
330
4A61
100
AcDbEntity
  8
寸法
 62
     0
100
AcDbMText
 10
243.074189629303
 20
294.6433672898764
 30
0.0
 40
5.0
 41
0.0
 46
0.0
 71
     5
 72
     1
  1
\A1;56
  7
ＭＳ ゴシック
 11
0.0
 21
1.0
 31
0.0
 73
     1
 44
1.0
  0
POINT
  5
4A6A
330
4A61
100
AcDbEntity
  8
Defpoints
 62
     0
100
AcDbPoint
 10
224.5281313965421
 20
322.6433672898764
 30
0.0
  0
POINT
  5
4A6B
330
4A61
100
AcDbEntity
  8
Defpoints
 62
     0
100
AcDbPoint
 10
224.5281313965421
 20
266.6433672898764
 30
0.0
  0
POINT
  5
4A6C
330
4A61
100
AcDbEntity
  8
Defpoints
 62
     0
100
AcDbPoint
 10
250.574189629303
 20
266.6433672898764
 30
0.0
  0
ENDBLK
  5
4A63
330
4A61
100
AcDbEntity
  8
0
100
AcDbBlockEnd
  0
BLOCK
  5
4A74
330
4A73
100
AcDbEntity
  8
0
100
AcDbBlockBegin
  2
*D11
 70
     1
 10
0.0
 20
0.0
 30
0.0
  3
*D11
  1
*D97
  0
LINE
  5
4A76
330
4A73
100
AcDbEntity
  8
寸法
 62
     0
370
    -2
100
AcDbLine
 10
167.8809483580591
 20
322.6433672898764
 30
0.0
 11
157.1609807423958
 21
322.6433672898764
 31
0.0
  0
LINE
  5
4A77
330
4A73
100
AcDbEntity
  8
寸法
 62
     0
370
    -2
100
AcDbLine
 10
168.3046953822887
 20
316.7160765973034
 30
0.0
 11
157.1609807423958
 21
316.7160765973034
 31
0.0
  0
LINE
  5
4A78
330
4A73
100
AcDbEntity
  8
寸法
 62
     0
370
    -2
100
AcDbLine
 10
157.1609807423958
 20
320.6433672898764
 30
0.0
 11
157.1609807423958
 21
318.7160765973034
 31
0.0
  0
INSERT
  5
4A79
330
4A73
100
AcDbEntity
  8
寸法
 62
     0
370
    -2
100
AcDbBlockReference
  2
_DOT
 10
157.1609807423958
 20
322.6433672898764
 30
0.0
 41
2.0
 42
2.0
 43
2.0
 50
90.0
  0
INSERT
  5
4A7A
330
4A73
100
AcDbEntity
  8
寸法
 62
     0
370
    -2
100
AcDbBlockReference
  2
_DOT
 10
157.1609807423958
 20
316.7160765973034
 30
0.0
 41
2.0
 42
2.0
 43
2.0
 50
270.0
  0
MTEXT
  5
4A7B
330
4A73
100
AcDbEntity
  8
寸法
 62
     0
100
AcDbMText
 10
149.6609807423958
 20
319.6797219435899
 30
0.0
 40
5.0
 41
0.0
 46
0.0
 71
     5
 72
     1
  1
\A1;6
  7
ＭＳ ゴシック
 11
0.0
 21
1.0
 31
0.0
 73
     1
 44
1.0
  0
POINT
  5
4A7C
330
4A73
100
AcDbEntity
  8
Defpoints
 62
     0
100
AcDbPoint
 10
172.8809483580591
 20
322.6433672898764
 30
0.0
  0
POINT
  5
4A7D
330
4A73
100
AcDbEntity
  8
Defpoints
 62
     0
100
AcDbPoint
 10
173.3046953822887
 20
316.7160765973034
 30
0.0
  0
POINT
  5
4A7E
330
4A73
100
AcDbEntity
  8
Defpoints
 62
     0
100
AcDbPoint
 10
157.1609807423958
 20
316.7160765973034
 30
0.0
  0
ENDBLK
  5
4A75
330
4A73
100
AcDbEntity
  8
0
100
AcDbBlockEnd
  0
BLOCK
  5
4A84
330
4A83
100
AcDbEntity
  8
0
100
AcDbBlockBegin
  2
*D12
 70
     1
 10
0.0
 20
0.0
 30
0.0
  3
*D12
  1
*D98
  0
LINE
  5
4A86
330
4A83
100
AcDbEntity
  8
寸法
 62
     0
370
    -2
100
AcDbLine
 10
167.8809483580591
 20
266.6433672898764
 30
0.0
 11
157.1609807423958
 21
266.6433672898764
 31
0.0
  0
LINE
  5
4A87
330
4A83
100
AcDbEntity
  8
寸法
 62
     0
370
    -2
100
AcDbLine
 10
163.3046953822887
 20
316.7160765973034
 30
0.0
 11
157.1609807423958
 21
316.7160765973034
 31
0.0
  0
LINE
  5
4A88
330
4A83
100
AcDbEntity
  8
寸法
 62
     0
370
    -2
100
AcDbLine
 10
157.1609807423958
 20
268.6433672898764
 30
0.0
 11
157.1609807423958
 21
314.7160765973034
 31
0.0
  0
INSERT
  5
4A89
330
4A83
100
AcDbEntity
  8
寸法
 62
     0
370
    -2
100
AcDbBlockReference
  2
_DOT
 10
157.1609807423958
 20
266.6433672898764
 30
0.0
 41
2.0
 42
2.0
 43
2.0
 50
270.0
  0
INSERT
  5
4A8A
330
4A83
100
AcDbEntity
  8
寸法
 62
     0
370
    -2
100
AcDbBlockReference
  2
_DOT
 10
157.1609807423958
 20
316.7160765973034
 30
0.0
 41
2.0
 42
2.0
 43
2.0
 50
90.0
  0
MTEXT
  5
4A8B
330
4A83
100
AcDbEntity
  8
寸法
 62
     0
100
AcDbMText
 10
149.6609807423958
 20
291.6797219435899
 30
0.0
 40
5.0
 41
0.0
 46
0.0
 71
     5
 72
     1
  1
\A1;50
  7
ＭＳ ゴシック
 11
0.0
 21
1.0
 31
0.0
 73
     1
 44
1.0
  0
POINT
  5
4A8C
330
4A83
100
AcDbEntity
  8
Defpoints
 62
     0
100
AcDbPoint
 10
172.8809483580591
 20
266.6433672898764
 30
0.0
  0
POINT
  5
4A8D
330
4A83
100
AcDbEntity
  8
Defpoints
 62
     0
100
AcDbPoint
 10
168.3046953822887
 20
316.7160765973034
 30
0.0
  0
POINT
  5
4A8E
330
4A83
100
AcDbEntity
  8
Defpoints
 62
     0
100
AcDbPoint
 10
157.1609807423958
 20
316.7160765973034
 30
0.0
  0
ENDBLK
  5
4A85
330
4A83
100
AcDbEntity
  8
0
100
AcDbBlockEnd
  0
BLOCK
  5
4C73
330
4C72
100
AcDbEntity
  8
0
100
AcDbBlockBegin
  2
*D13
 70
     1
 10
0.0
 20
0.0
 30
0.0
  3
*D13
  1
*D103
  0
LINE
  5
4C75
330
4C72
100
AcDbEntity
  8
寸法
 62
     0
370
    -2
100
AcDbLine
 10
374.3313019164257
 20
177.4531603118752
 30
0.0
 11
374.3313019164257
 21
200.2397838893573
 31
0.0
  0
LINE
  5
4C76
330
4C72
100
AcDbEntity
  8
寸法
 62
     0
370
    -2
100
AcDbLine
 10
393.3313019164257
 20
191.6286728320842
 30
0.0
 11
393.3313019164257
 21
200.2397838893573
 31
0.0
  0
LINE
  5
4C77
330
4C72
100
AcDbEntity
  8
寸法
 62
     0
370
    -2
100
AcDbLine
 10
376.3313019164257
 20
200.2397838893573
 30
0.0
 11
391.3313019164257
 21
200.2397838893573
 31
0.0
  0
INSERT
  5
4C78
330
4C72
100
AcDbEntity
  8
寸法
 62
     0
370
    -2
100
AcDbBlockReference
  2
_DOT
 10
374.3313019164257
 20
200.2397838893573
 30
0.0
 41
2.0
 42
2.0
 43
2.0
 50
180.0
  0
INSERT
  5
4C79
330
4C72
100
AcDbEntity
  8
寸法
 62
     0
370
    -2
100
AcDbBlockReference
  2
_DOT
 10
393.3313019164257
 20
200.2397838893573
 30
0.0
 41
2.0
 42
2.0
 43
2.0
  0
MTEXT
  5
4C7A
330
4C72
100
AcDbEntity
  8
寸法
 62
     0
100
AcDbMText
 10
383.8313019164257
 20
207.7397838893573
 30
0.0
 40
5.0
 41
0.0
 46
0.0
 71
     5
 72
     1
  1
\A1;19
  7
ＭＳ ゴシック
 73
     1
 44
1.0
  0
POINT
  5
4C7B
330
4C72
100
AcDbEntity
  8
Defpoints
 62
     0
100
AcDbPoint
 10
374.3313019164257
 20
172.4531603118752
 30
0.0
  0
POINT
  5
4C7C
330
4C72
100
AcDbEntity
  8
Defpoints
 62
     0
100
AcDbPoint
 10
393.3313019164257
 20
186.6286728320842
 30
0.0
  0
POINT
  5
4C7D
330
4C72
100
AcDbEntity
  8
Defpoints
 62
     0
100
AcDbPoint
 10
393.3313019164257
 20
200.2397838893573
 30
0.0
  0
ENDBLK
  5
4C74
330
4C72
100
AcDbEntity
  8
0
100
AcDbBlockEnd
  0
BLOCK
  5
4C7F
330
4C7E
100
AcDbEntity
  8
0
100
AcDbBlockBegin
  2
*D14
 70
     1
 10
0.0
 20
0.0
 30
0.0
  3
*D14
  1
*D104
  0
LINE
  5
4C81
330
4C7E
100
AcDbEntity
  8
寸法
 62
     0
370
    -2
100
AcDbLine
 10
393.3313019164257
 20
191.6286728320842
 30
0.0
 11
393.3313019164257
 21
200.2397838893573
 31
0.0
  0
LINE
  5
4C82
330
4C7E
100
AcDbEntity
  8
寸法
 62
     0
370
    -2
100
AcDbLine
 10
412.3313019164257
 20
177.4531603118752
 30
0.0
 11
412.3313019164257
 21
200.2397838893573
 31
0.0
  0
LINE
  5
4C83
330
4C7E
100
AcDbEntity
  8
寸法
 62
     0
370
    -2
100
AcDbLine
 10
395.3313019164257
 20
200.2397838893573
 30
0.0
 11
410.3313019164257
 21
200.2397838893573
 31
0.0
  0
INSERT
  5
4C84
330
4C7E
100
AcDbEntity
  8
寸法
 62
     0
370
    -2
100
AcDbBlockReference
  2
_DOT
 10
393.3313019164257
 20
200.2397838893573
 30
0.0
 41
2.0
 42
2.0
 43
2.0
 50
180.0
  0
INSERT
  5
4C85
330
4C7E
100
AcDbEntity
  8
寸法
 62
     0
370
    -2
100
AcDbBlockReference
  2
_DOT
 10
412.3313019164257
 20
200.2397838893573
 30
0.0
 41
2.0
 42
2.0
 43
2.0
  0
MTEXT
  5
4C86
330
4C7E
100
AcDbEntity
  8
寸法
 62
     0
100
AcDbMText
 10
402.8313019164257
 20
207.7397838893573
 30
0.0
 40
5.0
 41
0.0
 46
0.0
 71
     5
 72
     1
  1
\A1;19
  7
ＭＳ ゴシック
 73
     1
 44
1.0
  0
POINT
  5
4C87
330
4C7E
100
AcDbEntity
  8
Defpoints
 62
     0
100
AcDbPoint
 10
393.3313019164257
 20
186.6286728320842
 30
0.0
  0
POINT
  5
4C88
330
4C7E
100
AcDbEntity
  8
Defpoints
 62
     0
100
AcDbPoint
 10
412.3313019164257
 20
172.4531603118752
 30
0.0
  0
POINT
  5
4C89
330
4C7E
100
AcDbEntity
  8
Defpoints
 62
     0
100
AcDbPoint
 10
412.3313019164257
 20
200.2397838893573
 30
0.0
  0
ENDBLK
  5
4C80
330
4C7E
100
AcDbEntity
  8
0
100
AcDbBlockEnd
  0
BLOCK
  5
4C8B
330
4C8A
100
AcDbEntity
  8
0
100
AcDbBlockBegin
  2
*D15
 70
     1
 10
0.0
 20
0.0
 30
0.0
  3
*D15
  1
*D105
  0
LINE
  5
4C8D
330
4C8A
100
AcDbEntity
  8
寸法
 62
     0
370
    -2
100
AcDbLine
 10
412.3313019164257
 20
158.3002972752912
 30
0.0
 11
412.3313019164257
 21
130.5123896935981
 31
0.0
  0
LINE
  5
4C8E
330
4C8A
100
AcDbEntity
  8
寸法
 62
     0
370
    -2
100
AcDbLine
 10
374.3313019164257
 20
158.3002972752912
 30
0.0
 11
374.3313019164257
 21
130.5123896935981
 31
0.0
  0
LINE
  5
4C8F
330
4C8A
100
AcDbEntity
  8
寸法
 62
     0
370
    -2
100
AcDbLine
 10
374.3313019164257
 20
130.5123896935981
 30
0.0
 11
360.3413019164257
 21
130.5123896935981
 31
0.0
  0
LINE
  5
4C90
330
4C8A
100
AcDbEntity
  8
寸法
 62
     0
370
    -2
100
AcDbLine
 10
410.3313019164257
 20
130.5123896935981
 30
0.0
 11
376.3313019164257
 21
130.5123896935981
 31
0.0
  0
INSERT
  5
4C91
330
4C8A
100
AcDbEntity
  8
寸法
 62
     0
370
    -2
100
AcDbBlockReference
  2
_DOT
 10
412.3313019164257
 20
130.5123896935981
 30
0.0
 41
2.0
 42
2.0
 43
2.0
  0
INSERT
  5
4C92
330
4C8A
100
AcDbEntity
  8
寸法
 62
     0
370
    -2
100
AcDbBlockReference
  2
_DOT
 10
374.3313019164257
 20
130.5123896935981
 30
0.0
 41
2.0
 42
2.0
 43
2.0
 50
180.0
  0
MTEXT
  5
4C93
330
4C8A
100
AcDbEntity
  8
寸法
 62
     0
100
AcDbMText
 10
365.3363019164257
 20
135.0373896935981
 30
0.0
 40
5.0
 41
0.0
 46
0.0
 71
     5
 72
     1
  1
\A1;ø8
  7
ＭＳ ゴシック
 73
     1
 44
1.0
  0
POINT
  5
4C94
330
4C8A
100
AcDbEntity
  8
Defpoints
 62
     0
100
AcDbPoint
 10
412.3313019164257
 20
163.3002972752912
 30
0.0
  0
POINT
  5
4C95
330
4C8A
100
AcDbEntity
  8
Defpoints
 62
     0
100
AcDbPoint
 10
374.3313019164257
 20
163.3002972752912
 30
0.0
  0
POINT
  5
4C96
330
4C8A
100
AcDbEntity
  8
Defpoints
 62
     0
100
AcDbPoint
 10
374.3313019164257
 20
130.5123896935981
 30
0.0
  0
ENDBLK
  5
4C8C
330
4C8A
100
AcDbEntity
  8
0
100
AcDbBlockEnd
  0
BLOCK
  5
4EE3
330
4EE2
100
AcDbEntity
  8
0
100
AcDbBlockBegin
  2
*D16
 70
     1
 10
0.0
 20
0.0
 30
0.0
  3
*D16
  1

  0
LINE
  5
4EE5
330
4EE2
100
AcDbEntity
  8
モデル
 62
     0
370
    -2
100
AcDbLine
 10
749.5828985262247
 20
415.1968756195965
 30
0.0
 11
749.5828985262247
 21
421.0690997118156
 31
0.0
  0
LINE
  5
4EE6
330
4EE2
100
AcDbEntity
  8
モデル
 62
     0
370
    -2
100
AcDbLine
 10
787.5828985262247
 20
415.1968756195965
 30
0.0
 11
787.5828985262247
 21
421.0690997118156
 31
0.0
  0
LINE
  5
4EE7
330
4EE2
100
AcDbEntity
  8
モデル
 62
     0
370
    -2
100
AcDbLine
 10
751.5828985262247
 20
421.0690997118156
 30
0.0
 11
785.5828985262247
 21
421.0690997118156
 31
0.0
  0
INSERT
  5
4EE8
330
4EE2
100
AcDbEntity
  8
モデル
 62
     0
370
    -2
100
AcDbBlockReference
  2
_DOT
 10
749.5828985262247
 20
421.0690997118156
 30
0.0
 41
2.0
 42
2.0
 43
2.0
 50
180.0
  0
INSERT
  5
4EE9
330
4EE2
100
AcDbEntity
  8
モデル
 62
     0
370
    -2
100
AcDbBlockReference
  2
_DOT
 10
787.5828985262247
 20
421.0690997118156
 30
0.0
 41
2.0
 42
2.0
 43
2.0
  0
MTEXT
  5
4EEA
330
4EE2
100
AcDbEntity
  8
モデル
 62
     0
100
AcDbMText
 10
768.5828985262247
 20
428.5690997118156
 30
0.0
 40
5.0
 41
0.0
 46
0.0
 71
     5
 72
     1
  1
\A1;38
  7
ＭＳ ゴシック
 73
     1
 44
1.0
  0
POINT
  5
4EEB
330
4EE2
100
AcDbEntity
  8
Defpoints
 62
     0
100
AcDbPoint
 10
749.5828985262247
 20
410.1968756195965
 30
0.0
  0
POINT
  5
4EEC
330
4EE2
100
AcDbEntity
  8
Defpoints
 62
     0
100
AcDbPoint
 10
787.5828985262247
 20
410.1968756195965
 30
0.0
  0
POINT
  5
4EED
330
4EE2
100
AcDbEntity
  8
Defpoints
 62
     0
100
AcDbPoint
 10
787.5828985262247
 20
421.0690997118156
 30
0.0
  0
ENDBLK
  5
4EE4
330
4EE2
100
AcDbEntity
  8
0
100
AcDbBlockEnd
  0
BLOCK
  5
4FBF
330
4FBE
100
AcDbEntity
  8
0
100
AcDbBlockBegin
  2
*D17
 70
     1
 10
0.0
 20
0.0
 30
0.0
  3
*D17
  1

  0
LINE
  5
4FC1
330
4FBE
100
AcDbEntity
  8
寸法
 62
     0
370
    -2
100
AcDbLine
 10
168.8577572373189
 20
337.6087635329599
 30
0.0
 11
157.6022628232855
 21
337.6087635329599
 31
0.0
  0
LINE
  5
4FC2
330
4FBE
100
AcDbEntity
  8
寸法
 62
     0
370
    -2
100
AcDbLine
 10
168.8577572373189
 20
344.6087635329599
 30
0.0
 11
157.6022628232855
 21
344.6087635329599
 31
0.0
  0
LINE
  5
4FC3
330
4FBE
100
AcDbEntity
  8
寸法
 62
     0
370
    -2
100
AcDbLine
 10
157.6022628232855
 20
339.6087635329599
 30
0.0
 11
157.6022628232855
 21
342.6087635329599
 31
0.0
  0
INSERT
  5
4FC4
330
4FBE
100
AcDbEntity
  8
寸法
 62
     0
370
    -2
100
AcDbBlockReference
  2
_DOT
 10
157.6022628232855
 20
337.6087635329599
 30
0.0
 41
2.0
 42
2.0
 43
2.0
 50
270.0
  0
INSERT
  5
4FC5
330
4FBE
100
AcDbEntity
  8
寸法
 62
     0
370
    -2
100
AcDbBlockReference
  2
_DOT
 10
157.6022628232855
 20
344.6087635329599
 30
0.0
 41
2.0
 42
2.0
 43
2.0
 50
90.0
  0
MTEXT
  5
4FC6
330
4FBE
100
AcDbEntity
  8
寸法
 62
     0
100
AcDbMText
 10
150.1022628232855
 20
341.1087635329598
 30
0.0
 40
5.0
 41
0.0
 46
0.0
 71
     5
 72
     1
  1
\A1;7
  7
ＭＳ ゴシック
 11
0.0
 21
1.0
 31
0.0
 73
     1
 44
1.0
  0
POINT
  5
4FC7
330
4FBE
100
AcDbEntity
  8
Defpoints
 62
     0
100
AcDbPoint
 10
173.8577572373189
 20
337.6087635329599
 30
0.0
  0
POINT
  5
4FC8
330
4FBE
100
AcDbEntity
  8
Defpoints
 62
     0
100
AcDbPoint
 10
173.8577572373189
 20
344.6087635329599
 30
0.0
  0
POINT
  5
4FC9
330
4FBE
100
AcDbEntity
  8
Defpoints
 62
     0
100
AcDbPoint
 10
157.6022628232855
 20
344.6087635329599
 30
0.0
  0
ENDBLK
  5
4FC0
330
4FBE
100
AcDbEntity
  8
0
100
AcDbBlockEnd
  0
BLOCK
  5
4FFC
330
4FFB
100
AcDbEntity
  8
0
100
AcDbBlockBegin
  2
*D18
 70
     1
 10
0.0
 20
0.0
 30
0.0
  3
*D18
  1
*D93
  0
LINE
  5
4FFD
330
4FFB
100
AcDbEntity
  8
寸法
 62
     0
370
    -2
100
AcDbLine
 10
1.0
 20
5.0
 30
0.0
 11
1.0
 21
13.22393629614186
 31
0.0
  0
LINE
  5
4FFE
330
4FFB
100
AcDbEntity
  8
寸法
 62
     0
370
    -2
100
AcDbLine
 10
39.0
 20
5.0
 30
0.0
 11
39.0
 21
13.22393629614186
 31
0.0
  0
LINE
  5
4FFF
330
4FFB
100
AcDbEntity
  8
寸法
 62
     0
370
    -2
100
AcDbLine
 10
3.0
 20
13.22393629614186
 30
0.0
 11
37.0
 21
13.22393629614186
 31
0.0
  0
INSERT
  5
5000
330
4FFB
100
AcDbEntity
  8
寸法
 62
     0
370
    -2
100
AcDbBlockReference
  2
_DOT
 10
1.0
 20
13.22393629614186
 30
0.0
 41
2.0
 42
2.0
 43
2.0
 50
180.0
  0
INSERT
  5
5001
330
4FFB
100
AcDbEntity
  8
寸法
 62
     0
370
    -2
100
AcDbBlockReference
  2
_DOT
 10
39.0
 20
13.22393629614186
 30
0.0
 41
2.0
 42
2.0
 43
2.0
  0
MTEXT
  5
5002
330
4FFB
100
AcDbEntity
  8
寸法
 62
     0
100
AcDbMText
 10
20.0
 20
20.72393629614186
 30
0.0
 40
5.0
 41
0.0
 46
0.0
 71
     5
 72
     1
  1
\A1;38
  7
ＭＳ ゴシック
 73
     1
 44
1.0
  0
POINT
  5
5003
330
4FFB
100
AcDbEntity
  8
Defpoints
 62
     0
100
AcDbPoint
 10
1.0
 20
0.0
 30
0.0
  0
POINT
  5
5004
330
4FFB
100
AcDbEntity
  8
Defpoints
 62
     0
100
AcDbPoint
 10
39.0
 20
0.0
 30
0.0
  0
POINT
  5
5005
330
4FFB
100
AcDbEntity
  8
Defpoints
 62
     0
100
AcDbPoint
 10
39.0
 20
13.22393629614186
 30
0.0
  0
ENDBLK
  5
5006
330
4FFB
100
AcDbEntity
  8
0
100
AcDbBlockEnd
  0
BLOCK
  5
500C
330
500B
100
AcDbEntity
  8
0
100
AcDbBlockBegin
  2
*D19
 70
     1
 10
0.0
 20
0.0
 30
0.0
  3
*D19
  1

  0
LINE
  5
500E
330
500B
100
AcDbEntity
  8
寸法
 62
     0
370
    -2
100
AcDbLine
 10
182.3577572373188
 20
354.9517354443373
 30
0.0
 11
182.3577572373188
 21
363.1756717404792
 31
0.0
  0
LINE
  5
500F
330
500B
100
AcDbEntity
  8
寸法
 62
     0
370
    -2
100
AcDbLine
 10
220.3577572373188
 20
354.9517354443373
 30
0.0
 11
220.3577572373188
 21
363.1756717404792
 31
0.0
  0
LINE
  5
5010
330
500B
100
AcDbEntity
  8
寸法
 62
     0
370
    -2
100
AcDbLine
 10
184.3577572373188
 20
363.1756717404792
 30
0.0
 11
218.3577572373188
 21
363.1756717404792
 31
0.0
  0
INSERT
  5
5011
330
500B
100
AcDbEntity
  8
寸法
 62
     0
370
    -2
100
AcDbBlockReference
  2
_DOT
 10
182.3577572373188
 20
363.1756717404792
 30
0.0
 41
2.0
 42
2.0
 43
2.0
 50
180.0
  0
INSERT
  5
5012
330
500B
100
AcDbEntity
  8
寸法
 62
     0
370
    -2
100
AcDbBlockReference
  2
_DOT
 10
220.3577572373188
 20
363.1756717404792
 30
0.0
 41
2.0
 42
2.0
 43
2.0
  0
MTEXT
  5
5013
330
500B
100
AcDbEntity
  8
寸法
 62
     0
100
AcDbMText
 10
201.3577572373188
 20
370.6756717404792
 30
0.0
 40
5.0
 41
0.0
 46
0.0
 71
     5
 72
     1
  1
\A1;38
  7
ＭＳ ゴシック
 73
     1
 44
1.0
  0
POINT
  5
5014
330
500B
100
AcDbEntity
  8
Defpoints
 62
     0
100
AcDbPoint
 10
182.3577572373188
 20
349.9517354443373
 30
0.0
  0
POINT
  5
5015
330
500B
100
AcDbEntity
  8
Defpoints
 62
     0
100
AcDbPoint
 10
220.3577572373188
 20
349.9517354443373
 30
0.0
  0
POINT
  5
5016
330
500B
100
AcDbEntity
  8
Defpoints
 62
     0
100
AcDbPoint
 10
220.3577572373188
 20
363.1756717404792
 30
0.0
  0
ENDBLK
  5
500D
330
500B
100
AcDbEntity
  8
0
100
AcDbBlockEnd
  0
BLOCK
  5
501B
330
501A
100
AcDbEntity
  8
0
100
AcDbBlockBegin
  2
*D20
 70
     1
 10
0.0
 20
0.0
 30
0.0
  3
*D20
  1

  0
LINE
  5
501D
330
501A
100
AcDbEntity
  8
寸法
 62
     0
370
    -2
100
AcDbLine
 10
173.8577572373189
 20
349.6087635329599
 30
0.0
 11
173.8577572373189
 21
378.5473272247522
 31
0.0
  0
LINE
  5
501E
330
501A
100
AcDbEntity
  8
寸法
 62
     0
370
    -2
100
AcDbLine
 10
228.8577572373189
 20
349.6087635329599
 30
0.0
 11
228.8577572373189
 21
378.5473272247522
 31
0.0
  0
LINE
  5
501F
330
501A
100
AcDbEntity
  8
寸法
 62
     0
370
    -2
100
AcDbLine
 10
175.8577572373189
 20
378.5473272247522
 30
0.0
 11
226.8577572373189
 21
378.5473272247522
 31
0.0
  0
INSERT
  5
5020
330
501A
100
AcDbEntity
  8
寸法
 62
     0
370
    -2
100
AcDbBlockReference
  2
_DOT
 10
173.8577572373189
 20
378.5473272247522
 30
0.0
 41
2.0
 42
2.0
 43
2.0
 50
180.0
  0
INSERT
  5
5021
330
501A
100
AcDbEntity
  8
寸法
 62
     0
370
    -2
100
AcDbBlockReference
  2
_DOT
 10
228.8577572373189
 20
378.5473272247522
 30
0.0
 41
2.0
 42
2.0
 43
2.0
  0
MTEXT
  5
5022
330
501A
100
AcDbEntity
  8
寸法
 62
     0
100
AcDbMText
 10
201.3577572373189
 20
386.0473272247522
 30
0.0
 40
5.0
 41
0.0
 46
0.0
 71
     5
 72
     1
  1
\A1;55
  7
ＭＳ ゴシック
 73
     1
 44
1.0
  0
POINT
  5
5023
330
501A
100
AcDbEntity
  8
Defpoints
 62
     0
100
AcDbPoint
 10
173.8577572373189
 20
344.6087635329599
 30
0.0
  0
POINT
  5
5024
330
501A
100
AcDbEntity
  8
Defpoints
 62
     0
100
AcDbPoint
 10
228.8577572373189
 20
344.6087635329599
 30
0.0
  0
POINT
  5
5025
330
501A
100
AcDbEntity
  8
Defpoints
 62
     0
100
AcDbPoint
 10
228.8577572373189
 20
378.5473272247522
 30
0.0
  0
ENDBLK
  5
501C
330
501A
100
AcDbEntity
  8
0
100
AcDbBlockEnd
  0
BLOCK
  5
502D
330
502C
100
AcDbEntity
  8
0
100
AcDbBlockBegin
  2
*D21
 70
     1
 10
0.0
 20
0.0
 30
0.0
  3
*D21
  1

  0
LINE
  5
502F
330
502C
100
AcDbEntity
  8
寸法
 62
     0
370
    -2
100
AcDbLine
 10
184.3447072878696
 20
271.6087635329599
 30
0.0
 11
157.6022628232855
 21
271.6087635329599
 31
0.0
  0
LINE
  5
5030
330
502C
100
AcDbEntity
  8
寸法
 62
     0
370
    -2
100
AcDbLine
 10
168.8577572373189
 20
337.6087635329599
 30
0.0
 11
157.6022628232855
 21
337.6087635329599
 31
0.0
  0
LINE
  5
5031
330
502C
100
AcDbEntity
  8
寸法
 62
     0
370
    -2
100
AcDbLine
 10
157.6022628232855
 20
273.6087635329599
 30
0.0
 11
157.6022628232855
 21
335.6087635329599
 31
0.0
  0
INSERT
  5
5032
330
502C
100
AcDbEntity
  8
寸法
 62
     0
370
    -2
100
AcDbBlockReference
  2
_DOT
 10
157.6022628232855
 20
271.6087635329599
 30
0.0
 41
2.0
 42
2.0
 43
2.0
 50
270.0
  0
INSERT
  5
5033
330
502C
100
AcDbEntity
  8
寸法
 62
     0
370
    -2
100
AcDbBlockReference
  2
_DOT
 10
157.6022628232855
 20
337.6087635329599
 30
0.0
 41
2.0
 42
2.0
 43
2.0
 50
90.0
  0
MTEXT
  5
5034
330
502C
100
AcDbEntity
  8
寸法
 62
     0
100
AcDbMText
 10
150.1022628232855
 20
304.6087635329599
 30
0.0
 40
5.0
 41
0.0
 46
0.0
 71
     5
 72
     1
  1
\A1;X
  7
ＭＳ ゴシック
 11
0.0
 21
1.0
 31
0.0
 73
     1
 44
1.0
  0
POINT
  5
5035
330
502C
100
AcDbEntity
  8
Defpoints
 62
     0
100
AcDbPoint
 10
189.3447072878696
 20
271.6087635329599
 30
0.0
  0
POINT
  5
5036
330
502C
100
AcDbEntity
  8
Defpoints
 62
     0
100
AcDbPoint
 10
173.8577572373189
 20
337.6087635329599
 30
0.0
  0
POINT
  5
5037
330
502C
100
AcDbEntity
  8
Defpoints
 62
     0
100
AcDbPoint
 10
157.6022628232855
 20
337.6087635329599
 30
0.0
  0
ENDBLK
  5
502E
330
502C
100
AcDbEntity
  8
0
100
AcDbBlockEnd
  0
BLOCK
  5
504D
330
504C
100
AcDbEntity
  8
0
100
AcDbBlockBegin
  2
*D22
 70
     1
 10
0.0
 20
0.0
 30
0.0
  3
*D22
  1

  0
LINE
  5
504F
330
504C
100
AcDbEntity
  8
寸法
 62
     0
370
    -2
100
AcDbLine
 10
381.4193843151289
 20
321.6087635329599
 30
0.0
 11
352.8590261883579
 21
321.6087635329599
 31
0.0
  0
LINE
  5
5050
330
504C
100
AcDbEntity
  8
寸法
 62
     0
370
    -2
100
AcDbLine
 10
381.4193843151289
 20
271.6087635329599
 30
0.0
 11
352.8590261883579
 21
271.6087635329599
 31
0.0
  0
LINE
  5
5051
330
504C
100
AcDbEntity
  8
寸法
 62
     0
370
    -2
100
AcDbLine
 10
352.8590261883579
 20
319.6087635329599
 30
0.0
 11
352.8590261883579
 21
273.6087635329599
 31
0.0
  0
INSERT
  5
5052
330
504C
100
AcDbEntity
  8
寸法
 62
     0
370
    -2
100
AcDbBlockReference
  2
_DOT
 10
352.8590261883579
 20
321.6087635329599
 30
0.0
 41
2.0
 42
2.0
 43
2.0
 50
90.0
  0
INSERT
  5
5053
330
504C
100
AcDbEntity
  8
寸法
 62
     0
370
    -2
100
AcDbBlockReference
  2
_DOT
 10
352.8590261883579
 20
271.6087635329599
 30
0.0
 41
2.0
 42
2.0
 43
2.0
 50
270.0
  0
MTEXT
  5
5054
330
504C
100
AcDbEntity
  8
寸法
 62
     0
100
AcDbMText
 10
345.3590261883579
 20
296.60876353296
 30
0.0
 40
5.0
 41
0.0
 46
0.0
 71
     5
 72
     1
  1
\A1;50
  7
ＭＳ ゴシック
 11
0.0
 21
1.0
 31
0.0
 73
     1
 44
1.0
  0
POINT
  5
5055
330
504C
100
AcDbEntity
  8
Defpoints
 62
     0
100
AcDbPoint
 10
386.4193843151289
 20
321.6087635329599
 30
0.0
  0
POINT
  5
5056
330
504C
100
AcDbEntity
  8
Defpoints
 62
     0
100
AcDbPoint
 10
386.4193843151289
 20
271.6087635329599
 30
0.0
  0
POINT
  5
5057
330
504C
100
AcDbEntity
  8
Defpoints
 62
     0
100
AcDbPoint
 10
352.8590261883579
 20
271.6087635329599
 30
0.0
  0
ENDBLK
  5
504E
330
504C
100
AcDbEntity
  8
0
100
AcDbBlockEnd
  0
BLOCK
  5
5071
330
5070
100
AcDbEntity
  8
0
100
AcDbBlockBegin
  2
*D23
 70
     1
 10
0.0
 20
0.0
 30
0.0
  3
*D23
  1

  0
LINE
  5
5073
330
5070
100
AcDbEntity
  8
寸法
 62
     0
370
    -2
100
AcDbLine
 10
374.2966981595092
 20
177.4531603118752
 30
0.0
 11
374.2966981595092
 21
200.2397838893573
 31
0.0
  0
LINE
  5
5074
330
5070
100
AcDbEntity
  8
寸法
 62
     0
370
    -2
100
AcDbLine
 10
393.2966981595092
 20
191.6286728320842
 30
0.0
 11
393.2966981595092
 21
200.2397838893573
 31
0.0
  0
LINE
  5
5075
330
5070
100
AcDbEntity
  8
寸法
 62
     0
370
    -2
100
AcDbLine
 10
376.2966981595092
 20
200.2397838893573
 30
0.0
 11
391.2966981595092
 21
200.2397838893573
 31
0.0
  0
INSERT
  5
5076
330
5070
100
AcDbEntity
  8
寸法
 62
     0
370
    -2
100
AcDbBlockReference
  2
_DOT
 10
374.2966981595092
 20
200.2397838893573
 30
0.0
 41
2.0
 42
2.0
 43
2.0
 50
180.0
  0
INSERT
  5
5077
330
5070
100
AcDbEntity
  8
寸法
 62
     0
370
    -2
100
AcDbBlockReference
  2
_DOT
 10
393.2966981595092
 20
200.2397838893573
 30
0.0
 41
2.0
 42
2.0
 43
2.0
  0
MTEXT
  5
5078
330
5070
100
AcDbEntity
  8
寸法
 62
     0
100
AcDbMText
 10
383.7966981595092
 20
207.7397838893573
 30
0.0
 40
5.0
 41
0.0
 46
0.0
 71
     5
 72
     1
  1
\A1;19
  7
ＭＳ ゴシック
 73
     1
 44
1.0
  0
POINT
  5
5079
330
5070
100
AcDbEntity
  8
Defpoints
 62
     0
100
AcDbPoint
 10
374.2966981595092
 20
172.4531603118752
 30
0.0
  0
POINT
  5
507A
330
5070
100
AcDbEntity
  8
Defpoints
 62
     0
100
AcDbPoint
 10
393.2966981595092
 20
186.6286728320842
 30
0.0
  0
POINT
  5
507B
330
5070
100
AcDbEntity
  8
Defpoints
 62
     0
100
AcDbPoint
 10
393.2966981595092
 20
200.2397838893573
 30
0.0
  0
ENDBLK
  5
5072
330
5070
100
AcDbEntity
  8
0
100
AcDbBlockEnd
  0
BLOCK
  5
507D
330
507C
100
AcDbEntity
  8
0
100
AcDbBlockBegin
  2
*D24
 70
     1
 10
0.0
 20
0.0
 30
0.0
  3
*D24
  1

  0
LINE
  5
507F
330
507C
100
AcDbEntity
  8
寸法
 62
     0
370
    -2
100
AcDbLine
 10
393.2966981595092
 20
191.6286728320842
 30
0.0
 11
393.2966981595092
 21
200.2397838893573
 31
0.0
  0
LINE
  5
5080
330
507C
100
AcDbEntity
  8
寸法
 62
     0
370
    -2
100
AcDbLine
 10
412.2966981595092
 20
177.4531603118752
 30
0.0
 11
412.2966981595092
 21
200.2397838893573
 31
0.0
  0
LINE
  5
5081
330
507C
100
AcDbEntity
  8
寸法
 62
     0
370
    -2
100
AcDbLine
 10
395.2966981595092
 20
200.2397838893573
 30
0.0
 11
410.2966981595092
 21
200.2397838893573
 31
0.0
  0
INSERT
  5
5082
330
507C
100
AcDbEntity
  8
寸法
 62
     0
370
    -2
100
AcDbBlockReference
  2
_DOT
 10
393.2966981595092
 20
200.2397838893573
 30
0.0
 41
2.0
 42
2.0
 43
2.0
 50
180.0
  0
INSERT
  5
5083
330
507C
100
AcDbEntity
  8
寸法
 62
     0
370
    -2
100
AcDbBlockReference
  2
_DOT
 10
412.2966981595092
 20
200.2397838893573
 30
0.0
 41
2.0
 42
2.0
 43
2.0
  0
MTEXT
  5
5084
330
507C
100
AcDbEntity
  8
寸法
 62
     0
100
AcDbMText
 10
402.7966981595092
 20
207.7397838893573
 30
0.0
 40
5.0
 41
0.0
 46
0.0
 71
     5
 72
     1
  1
\A1;19
  7
ＭＳ ゴシック
 73
     1
 44
1.0
  0
POINT
  5
5085
330
507C
100
AcDbEntity
  8
Defpoints
 62
     0
100
AcDbPoint
 10
393.2966981595092
 20
186.6286728320842
 30
0.0
  0
POINT
  5
5086
330
507C
100
AcDbEntity
  8
Defpoints
 62
     0
100
AcDbPoint
 10
412.2966981595092
 20
172.4531603118752
 30
0.0
  0
POINT
  5
5087
330
507C
100
AcDbEntity
  8
Defpoints
 62
     0
100
AcDbPoint
 10
412.2966981595092
 20
200.2397838893573
 30
0.0
  0
ENDBLK
  5
507E
330
507C
100
AcDbEntity
  8
0
100
AcDbBlockEnd
  0
BLOCK
  5
5089
330
5088
100
AcDbEntity
  8
0
100
AcDbBlockBegin
  2
*D25
 70
     1
 10
0.0
 20
0.0
 30
0.0
  3
*D25
  1

  0
LINE
  5
508B
330
5088
100
AcDbEntity
  8
寸法
 62
     0
370
    -2
100
AcDbLine
 10
412.2966981595092
 20
158.3002972752912
 30
0.0
 11
412.2966981595092
 21
130.5123896935981
 31
0.0
  0
LINE
  5
508C
330
5088
100
AcDbEntity
  8
寸法
 62
     0
370
    -2
100
AcDbLine
 10
374.2966981595092
 20
158.3002972752912
 30
0.0
 11
374.2966981595092
 21
130.5123896935981
 31
0.0
  0
LINE
  5
508D
330
5088
100
AcDbEntity
  8
寸法
 62
     0
370
    -2
100
AcDbLine
 10
374.2966981595092
 20
130.5123896935981
 30
0.0
 11
360.3066981595092
 21
130.5123896935981
 31
0.0
  0
LINE
  5
508E
330
5088
100
AcDbEntity
  8
寸法
 62
     0
370
    -2
100
AcDbLine
 10
410.2966981595092
 20
130.5123896935981
 30
0.0
 11
376.2966981595092
 21
130.5123896935981
 31
0.0
  0
LINE
  5
508F
330
5088
100
AcDbEntity
  8
寸法
 62
     0
370
    -2
100
AcDbLine
 10
376.2966981595092
 20
130.5123896935981
 30
0.0
 11
378.2966981595092
 21
130.5123896935981
 31
0.0
  0
INSERT
  5
5090
330
5088
100
AcDbEntity
  8
寸法
 62
     0
370
    -2
100
AcDbBlockReference
  2
_DOT
 10
412.2966981595092
 20
130.5123896935981
 30
0.0
 41
2.0
 42
2.0
 43
2.0
  0
INSERT
  5
5091
330
5088
100
AcDbEntity
  8
寸法
 62
     0
370
    -2
100
AcDbBlockReference
  2
_DOT
 10
374.2966981595092
 20
130.5123896935981
 30
0.0
 41
2.0
 42
2.0
 43
2.0
 50
180.0
  0
MTEXT
  5
5092
330
5088
100
AcDbEntity
  8
寸法
 62
     0
100
AcDbMText
 10
365.3016981595092
 20
135.0373896935981
 30
0.0
 40
5.0
 41
0.0
 46
0.0
 71
     5
 72
     1
  1
\A1;ø8
  7
ＭＳ ゴシック
 73
     1
 44
1.0
  0
POINT
  5
5093
330
5088
100
AcDbEntity
  8
Defpoints
 62
     0
100
AcDbPoint
 10
412.2966981595092
 20
163.3002972752912
 30
0.0
  0
POINT
  5
5094
330
5088
100
AcDbEntity
  8
Defpoints
 62
     0
100
AcDbPoint
 10
374.2966981595092
 20
163.3002972752912
 30
0.0
  0
POINT
  5
5095
330
5088
100
AcDbEntity
  8
Defpoints
 62
     0
100
AcDbPoint
 10
374.2966981595092
 20
130.5123896935981
 30
0.0
  0
ENDBLK
  5
508A
330
5088
100
AcDbEntity
  8
0
100
AcDbBlockEnd
  0
BLOCK
  5
50F2
330
50F1
100
AcDbEntity
  8
0
100
AcDbBlockBegin
  2
*D26
 70
     1
 10
0.0
 20
0.0
 30
0.0
  3
*D26
  1

  0
LINE
  5
50F4
330
50F1
100
AcDbEntity
  8
寸法
 62
     0
370
    -2
100
AcDbLine
 10
233.8577572373189
 20
344.6087635329599
 30
0.0
 11
253.8390086455331
 21
344.6087635329599
 31
0.0
  0
LINE
  5
50F5
330
50F1
100
AcDbEntity
  8
寸法
 62
     0
370
    -2
100
AcDbLine
 10
206.3577572373189
 20
271.6087635329599
 30
0.0
 11
253.8390086455331
 21
271.6087635329599
 31
0.0
  0
LINE
  5
50F6
330
50F1
100
AcDbEntity
  8
寸法
 62
     0
370
    -2
100
AcDbLine
 10
253.8390086455331
 20
342.6087635329599
 30
0.0
 11
253.8390086455331
 21
273.6087635329599
 31
0.0
  0
INSERT
  5
50F7
330
50F1
100
AcDbEntity
  8
寸法
 62
     0
370
    -2
100
AcDbBlockReference
  2
_DOT
 10
253.8390086455331
 20
344.6087635329599
 30
0.0
 41
2.0
 42
2.0
 43
2.0
 50
90.0
  0
INSERT
  5
50F8
330
50F1
100
AcDbEntity
  8
寸法
 62
     0
370
    -2
100
AcDbBlockReference
  2
_DOT
 10
253.8390086455331
 20
271.6087635329599
 30
0.0
 41
2.0
 42
2.0
 43
2.0
 50
270.0
  0
MTEXT
  5
50F9
330
50F1
100
AcDbEntity
  8
寸法
 62
     0
100
AcDbMText
 10
246.3390086455331
 20
308.1087635329599
 30
0.0
 40
5.0
 41
0.0
 46
0.0
 71
     5
 72
     1
  1
\A1;73
  7
ＭＳ ゴシック
 11
0.0
 21
1.0
 31
0.0
 73
     1
 44
1.0
  0
POINT
  5
50FA
330
50F1
100
AcDbEntity
  8
Defpoints
 62
     0
100
AcDbPoint
 10
228.8577572373189
 20
344.6087635329599
 30
0.0
  0
POINT
  5
50FB
330
50F1
100
AcDbEntity
  8
Defpoints
 62
     0
100
AcDbPoint
 10
201.3577572373189
 20
271.6087635329599
 30
0.0
  0
POINT
  5
50FC
330
50F1
100
AcDbEntity
  8
Defpoints
 62
     0
100
AcDbPoint
 10
253.8390086455331
 20
271.6087635329599
 30
0.0
  0
ENDBLK
  5
50F3
330
50F1
100
AcDbEntity
  8
0
100
AcDbBlockEnd
  0
BLOCK
  5
516B
330
516A
100
AcDbEntity
  8
0
100
AcDbBlockBegin
  2
*X27
 70
     1
 10
0.0
 20
0.0
 30
0.0
  3
*X27
  1

  0
TEXT
  5
516C
330
516A
100
AcDbEntity
  8
102
 62
     7
100
AcDbText
 10
124.835
 20
-176.333473
 30
0.0
 40
5.0
  1
Tuerknopf
  7
EXPLODED0
100
AcDbText
  0
TEXT
  5
516D
330
516A
100
AcDbEntity
  8
102
 62
     7
100
AcDbText
 10
124.795
 20
-183.333333
 30
0.0
 40
5.0
  1
23082900006-0
  7
EXPLODED0
100
AcDbText
  0
ENDBLK
  5
516E
330
516A
100
AcDbEntity
  8
0
100
AcDbBlockEnd
  0
BLOCK
  5
5173
330
5172
100
AcDbEntity
  8
0
100
AcDbBlockBegin
  2
*D28
 70
     1
 10
0.0
 20
0.0
 30
0.0
  3
*D28
  1

  0
LINE
  5
5174
330
5172
100
AcDbEntity
  8
0
 62
     0
370
    -2
100
AcDbLine
 10
4.089620000000025
 20
298.888977
 30
0.0
 11
4.089620000000025
 21
256.6441190589049
 31
0.0
  0
LINE
  5
5175
330
5172
100
AcDbEntity
  8
0
 62
     0
370
    -2
100
AcDbLine
 10
54.08962000000002
 20
298.888977
 30
0.0
 11
54.08962000000002
 21
256.6441190589049
 31
0.0
  0
LINE
  5
5176
330
5172
100
AcDbEntity
  8
0
 62
     0
370
    -2
100
AcDbLine
 10
6.589620000000025
 20
257.8941190589049
 30
0.0
 11
51.58962000000002
 21
257.8941190589049
 31
0.0
  0
SOLID
  5
5177
330
5172
100
AcDbEntity
  8
0
 62
     0
100
AcDbTrace
 10
6.589620000000025
 20
258.3107857255716
 30
0.0
 11
6.589620000000025
 21
257.4774523922382
 31
0.0
 12
4.089620000000025
 22
257.8941190589049
 32
0.0
 13
4.089620000000025
 23
257.8941190589049
 33
0.0
  0
SOLID
  5
5178
330
5172
100
AcDbEntity
  8
0
 62
     0
100
AcDbTrace
 10
51.58962000000002
 20
257.4774523922382
 30
0.0
 11
51.58962000000002
 21
258.3107857255716
 31
0.0
 12
54.08962000000002
 22
257.8941190589049
 32
0.0
 13
54.08962000000002
 23
257.8941190589049
 33
0.0
  0
MTEXT
  5
5179
330
5172
100
AcDbEntity
  8
0
 62
     0
100
AcDbMText
 10
29.08962000000002
 20
259.2341190589049
 30
0.0
 40
2.5
 41
0.0
 46
0.0
 71
     5
 72
     1
  1
\A1;50
 73
     1
 44
1.0
  0
POINT
  5
517A
330
5172
100
AcDbEntity
  8
Defpoints
 62
     0
100
AcDbPoint
 10
4.089620000000025
 20
299.513977
 30
0.0
  0
POINT
  5
517B
330
5172
100
AcDbEntity
  8
Defpoints
 62
     0
100
AcDbPoint
 10
54.08962000000002
 20
299.513977
 30
0.0
  0
POINT
  5
517C
330
5172
100
AcDbEntity
  8
Defpoints
 62
     0
100
AcDbPoint
 10
54.08962000000002
 20
257.8941190589049
 30
0.0
  0
ENDBLK
  5
517D
330
5172
100
AcDbEntity
  8
0
100
AcDbBlockEnd
  0
BLOCK
  5
5182
330
5181
100
AcDbEntity
  8
0
100
AcDbBlockBegin
  2
*D29
 70
     1
 10
0.0
 20
0.0
 30
0.0
  3
*D29
  1

  0
LINE
  5
5183
330
5181
100
AcDbEntity
  8
0
 62
     0
370
    -2
100
AcDbLine
 10
17.08962000000002
 20
50.13897700000001
 30
0.0
 11
17.08962000000002
 21
80.51902631769451
 31
0.0
  0
LINE
  5
5184
330
5181
100
AcDbEntity
  8
0
 62
     0
370
    -2
100
AcDbLine
 10
41.08962000000002
 20
50.13897700000001
 30
0.0
 11
41.08962000000002
 21
80.51902631769451
 31
0.0
  0
LINE
  5
5185
330
5181
100
AcDbEntity
  8
0
 62
     0
370
    -2
100
AcDbLine
 10
19.58962000000002
 20
79.26902631769451
 30
0.0
 11
38.58962000000002
 21
79.26902631769451
 31
0.0
  0
SOLID
  5
5186
330
5181
100
AcDbEntity
  8
0
 62
     0
100
AcDbTrace
 10
19.58962000000002
 20
79.68569298436118
 30
0.0
 11
19.58962000000002
 21
78.85235965102784
 31
0.0
 12
17.08962000000002
 22
79.26902631769451
 32
0.0
 13
17.08962000000002
 23
79.26902631769451
 33
0.0
  0
SOLID
  5
5187
330
5181
100
AcDbEntity
  8
0
 62
     0
100
AcDbTrace
 10
38.58962000000002
 20
78.85235965102784
 30
0.0
 11
38.58962000000002
 21
79.68569298436118
 31
0.0
 12
41.08962000000002
 22
79.26902631769451
 32
0.0
 13
41.08962000000002
 23
79.26902631769451
 33
0.0
  0
MTEXT
  5
5188
330
5181
100
AcDbEntity
  8
0
 62
     0
100
AcDbMText
 10
29.08962000000002
 20
80.60902631769451
 30
0.0
 40
2.5
 41
0.0
 46
0.0
 71
     5
 72
     1
  1
\A1;24
 73
     1
 44
1.0
  0
POINT
  5
5189
330
5181
100
AcDbEntity
  8
Defpoints
 62
     0
100
AcDbPoint
 10
17.08962000000002
 20
49.51397700000001
 30
0.0
  0
POINT
  5
518A
330
5181
100
AcDbEntity
  8
Defpoints
 62
     0
100
AcDbPoint
 10
41.08962000000002
 20
49.51397700000001
 30
0.0
  0
POINT
  5
518B
330
5181
100
AcDbEntity
  8
Defpoints
 62
     0
100
AcDbPoint
 10
41.08962000000002
 20
79.26902631769451
 30
0.0
  0
ENDBLK
  5
518C
330
5181
100
AcDbEntity
  8
0
100
AcDbBlockEnd
  0
BLOCK
  5
51C9
330
51C8
100
AcDbEntity
  8
0
100
AcDbBlockBegin
  2
*D30
 70
     1
 10
0.0
 20
0.0
 30
0.0
  3
*D30
  1

  0
LINE
  5
51CB
330
51C8
100
AcDbEntity
  8
0
 62
     0
370
    -2
100
AcDbLine
 10
664.9827035734868
 20
344.5352306023054
 30
0.0
 11
664.9827035734868
 21
302.2903726612103
 31
0.0
  0
LINE
  5
51CC
330
51C8
100
AcDbEntity
  8
0
 62
     0
370
    -2
100
AcDbLine
 10
714.9827035734868
 20
344.5352306023054
 30
0.0
 11
714.9827035734868
 21
302.2903726612103
 31
0.0
  0
LINE
  5
51CD
330
51C8
100
AcDbEntity
  8
0
 62
     0
370
    -2
100
AcDbLine
 10
667.4827035734868
 20
303.5403726612103
 30
0.0
 11
712.4827035734868
 21
303.5403726612103
 31
0.0
  0
SOLID
  5
51CE
330
51C8
100
AcDbEntity
  8
0
 62
     0
100
AcDbTrace
 10
667.4827035734868
 20
303.957039327877
 30
0.0
 11
667.4827035734868
 21
303.1237059945436
 31
0.0
 12
664.9827035734868
 22
303.5403726612103
 32
0.0
 13
664.9827035734868
 23
303.5403726612103
 33
0.0
  0
SOLID
  5
51CF
330
51C8
100
AcDbEntity
  8
0
 62
     0
100
AcDbTrace
 10
712.4827035734868
 20
303.1237059945436
 30
0.0
 11
712.4827035734868
 21
303.957039327877
 31
0.0
 12
714.9827035734868
 22
303.5403726612103
 32
0.0
 13
714.9827035734868
 23
303.5403726612103
 33
0.0
  0
MTEXT
  5
51D0
330
51C8
100
AcDbEntity
  8
0
 62
     0
100
AcDbMText
 10
689.9827035734868
 20
304.8803726612103
 30
0.0
 40
2.5
 41
0.0
 46
0.0
 71
     5
 72
     1
  1
\A1;50
 73
     1
 44
1.0
  0
POINT
  5
51D1
330
51C8
100
AcDbEntity
  8
Defpoints
 62
     0
100
AcDbPoint
 10
664.9827035734868
 20
345.1602306023054
 30
0.0
  0
POINT
  5
51D2
330
51C8
100
AcDbEntity
  8
Defpoints
 62
     0
100
AcDbPoint
 10
714.9827035734868
 20
345.1602306023054
 30
0.0
  0
POINT
  5
51D3
330
51C8
100
AcDbEntity
  8
Defpoints
 62
     0
100
AcDbPoint
 10
714.9827035734868
 20
303.5403726612103
 30
0.0
  0
ENDBLK
  5
51CA
330
51C8
100
AcDbEntity
  8
0
100
AcDbBlockEnd
  0
BLOCK
  5
51D5
330
51D4
100
AcDbEntity
  8
0
100
AcDbBlockBegin
  2
*D31
 70
     1
 10
0.0
 20
0.0
 30
0.0
  3
*D31
  1

  0
LINE
  5
51D7
330
51D4
100
AcDbEntity
  8
0
 62
     0
370
    -2
100
AcDbLine
 10
677.9827035734868
 20
95.78523060230543
 30
0.0
 11
677.9827035734868
 21
126.1652799199999
 31
0.0
  0
LINE
  5
51D8
330
51D4
100
AcDbEntity
  8
0
 62
     0
370
    -2
100
AcDbLine
 10
701.9827035734868
 20
95.78523060230543
 30
0.0
 11
701.9827035734868
 21
126.1652799199999
 31
0.0
  0
LINE
  5
51D9
330
51D4
100
AcDbEntity
  8
0
 62
     0
370
    -2
100
AcDbLine
 10
680.4827035734868
 20
124.9152799199999
 30
0.0
 11
699.4827035734868
 21
124.9152799199999
 31
0.0
  0
SOLID
  5
51DA
330
51D4
100
AcDbEntity
  8
0
 62
     0
100
AcDbTrace
 10
680.4827035734868
 20
125.3319465866666
 30
0.0
 11
680.4827035734868
 21
124.4986132533333
 31
0.0
 12
677.9827035734868
 22
124.9152799199999
 32
0.0
 13
677.9827035734868
 23
124.9152799199999
 33
0.0
  0
SOLID
  5
51DB
330
51D4
100
AcDbEntity
  8
0
 62
     0
100
AcDbTrace
 10
699.4827035734868
 20
124.4986132533333
 30
0.0
 11
699.4827035734868
 21
125.3319465866666
 31
0.0
 12
701.9827035734868
 22
124.9152799199999
 32
0.0
 13
701.9827035734868
 23
124.9152799199999
 33
0.0
  0
MTEXT
  5
51DC
330
51D4
100
AcDbEntity
  8
0
 62
     0
100
AcDbMText
 10
689.9827035734868
 20
126.2552799199999
 30
0.0
 40
2.5
 41
0.0
 46
0.0
 71
     5
 72
     1
  1
\A1;24
 73
     1
 44
1.0
  0
POINT
  5
51DD
330
51D4
100
AcDbEntity
  8
Defpoints
 62
     0
100
AcDbPoint
 10
677.9827035734868
 20
95.16023060230543
 30
0.0
  0
POINT
  5
51DE
330
51D4
100
AcDbEntity
  8
Defpoints
 62
     0
100
AcDbPoint
 10
701.9827035734868
 20
95.16023060230543
 30
0.0
  0
POINT
  5
51DF
330
51D4
100
AcDbEntity
  8
Defpoints
 62
     0
100
AcDbPoint
 10
701.9827035734868
 20
124.9152799199999
 30
0.0
  0
ENDBLK
  5
51D6
330
51D4
100
AcDbEntity
  8
0
100
AcDbBlockEnd
  0
BLOCK
  5
520B
330
520A
100
AcDbEntity
  8
0
100
AcDbBlockBegin
  2
*D32
 70
     1
 10
0.0
 20
0.0
 30
0.0
  3
*D32
  1

  0
LINE
  5
520D
330
520A
100
AcDbEntity
  8
寸法
 62
     0
370
    -2
100
AcDbLine
 10
86.57963848504485
 20
301.7542180784144
 30
0.0
 11
75.32414407101157
 21
301.7542180784144
 31
0.0
  0
LINE
  5
520E
330
520A
100
AcDbEntity
  8
寸法
 62
     0
370
    -2
100
AcDbLine
 10
86.57963848504485
 20
308.7542180784144
 30
0.0
 11
75.32414407101157
 21
308.7542180784144
 31
0.0
  0
LINE
  5
520F
330
520A
100
AcDbEntity
  8
寸法
 62
     0
370
    -2
100
AcDbLine
 10
75.32414407101157
 20
303.7542180784144
 30
0.0
 11
75.32414407101157
 21
306.7542180784144
 31
0.0
  0
INSERT
  5
5210
330
520A
100
AcDbEntity
  8
寸法
 62
     0
370
    -2
100
AcDbBlockReference
  2
_DOT
 10
75.32414407101157
 20
301.7542180784144
 30
0.0
 41
2.0
 42
2.0
 43
2.0
 50
270.0
  0
INSERT
  5
5211
330
520A
100
AcDbEntity
  8
寸法
 62
     0
370
    -2
100
AcDbBlockReference
  2
_DOT
 10
75.32414407101157
 20
308.7542180784144
 30
0.0
 41
2.0
 42
2.0
 43
2.0
 50
90.0
  0
MTEXT
  5
5212
330
520A
100
AcDbEntity
  8
寸法
 62
     0
100
AcDbMText
 10
67.82414407101157
 20
305.2542180784143
 30
0.0
 40
5.0
 41
0.0
 46
0.0
 71
     5
 72
     1
  1
\A1;7
  7
ＭＳ ゴシック
 11
0.0
 21
1.0
 31
0.0
 73
     1
 44
1.0
  0
POINT
  5
5213
330
520A
100
AcDbEntity
  8
Defpoints
 62
     0
100
AcDbPoint
 10
91.57963848504485
 20
301.7542180784144
 30
0.0
  0
POINT
  5
5214
330
520A
100
AcDbEntity
  8
Defpoints
 62
     0
100
AcDbPoint
 10
91.57963848504485
 20
308.7542180784144
 30
0.0
  0
POINT
  5
5215
330
520A
100
AcDbEntity
  8
Defpoints
 62
     0
100
AcDbPoint
 10
75.32414407101157
 20
308.7542180784144
 30
0.0
  0
ENDBLK
  5
520C
330
520A
100
AcDbEntity
  8
0
100
AcDbBlockEnd
  0
BLOCK
  5
5217
330
5216
100
AcDbEntity
  8
0
100
AcDbBlockBegin
  2
*D33
 70
     1
 10
0.0
 20
0.0
 30
0.0
  3
*D33
  1

  0
LINE
  5
5219
330
5216
100
AcDbEntity
  8
寸法
 62
     0
370
    -2
100
AcDbLine
 10
192.7296384850448
 20
354.9517354443373
 30
0.0
 11
192.7296384850448
 21
363.1756717404792
 31
0.0
  0
LINE
  5
521A
330
5216
100
AcDbEntity
  8
寸法
 62
     0
370
    -2
100
AcDbLine
 10
230.7296384850448
 20
354.9517354443373
 30
0.0
 11
230.7296384850448
 21
363.1756717404792
 31
0.0
  0
LINE
  5
521B
330
5216
100
AcDbEntity
  8
寸法
 62
     0
370
    -2
100
AcDbLine
 10
194.7296384850448
 20
363.1756717404792
 30
0.0
 11
228.7296384850448
 21
363.1756717404792
 31
0.0
  0
INSERT
  5
521C
330
5216
100
AcDbEntity
  8
寸法
 62
     0
370
    -2
100
AcDbBlockReference
  2
_DOT
 10
192.7296384850448
 20
363.1756717404792
 30
0.0
 41
2.0
 42
2.0
 43
2.0
 50
180.0
  0
INSERT
  5
521D
330
5216
100
AcDbEntity
  8
寸法
 62
     0
370
    -2
100
AcDbBlockReference
  2
_DOT
 10
230.7296384850448
 20
363.1756717404792
 30
0.0
 41
2.0
 42
2.0
 43
2.0
  0
MTEXT
  5
521E
330
5216
100
AcDbEntity
  8
寸法
 62
     0
100
AcDbMText
 10
211.7296384850448
 20
370.6756717404792
 30
0.0
 40
5.0
 41
0.0
 46
0.0
 71
     5
 72
     1
  1
\A1;38
  7
ＭＳ ゴシック
 73
     1
 44
1.0
  0
POINT
  5
521F
330
5216
100
AcDbEntity
  8
Defpoints
 62
     0
100
AcDbPoint
 10
192.7296384850448
 20
349.9517354443373
 30
0.0
  0
POINT
  5
5220
330
5216
100
AcDbEntity
  8
Defpoints
 62
     0
100
AcDbPoint
 10
230.7296384850448
 20
349.9517354443373
 30
0.0
  0
POINT
  5
5221
330
5216
100
AcDbEntity
  8
Defpoints
 62
     0
100
AcDbPoint
 10
230.7296384850448
 20
363.1756717404792
 30
0.0
  0
ENDBLK
  5
5218
330
5216
100
AcDbEntity
  8
0
100
AcDbBlockEnd
  0
BLOCK
  5
5223
330
5222
100
AcDbEntity
  8
0
100
AcDbBlockBegin
  2
*D34
 70
     1
 10
0.0
 20
0.0
 30
0.0
  3
*D34
  1

  0
LINE
  5
5225
330
5222
100
AcDbEntity
  8
寸法
 62
     0
370
    -2
100
AcDbLine
 10
184.2296384850449
 20
349.6087635329599
 30
0.0
 11
184.2296384850449
 21
378.5473272247522
 31
0.0
  0
LINE
  5
5226
330
5222
100
AcDbEntity
  8
寸法
 62
     0
370
    -2
100
AcDbLine
 10
239.2296384850449
 20
349.6087635329599
 30
0.0
 11
239.2296384850449
 21
378.5473272247522
 31
0.0
  0
LINE
  5
5227
330
5222
100
AcDbEntity
  8
寸法
 62
     0
370
    -2
100
AcDbLine
 10
186.2296384850449
 20
378.5473272247522
 30
0.0
 11
237.2296384850449
 21
378.5473272247522
 31
0.0
  0
INSERT
  5
5228
330
5222
100
AcDbEntity
  8
寸法
 62
     0
370
    -2
100
AcDbBlockReference
  2
_DOT
 10
184.2296384850449
 20
378.5473272247522
 30
0.0
 41
2.0
 42
2.0
 43
2.0
 50
180.0
  0
INSERT
  5
5229
330
5222
100
AcDbEntity
  8
寸法
 62
     0
370
    -2
100
AcDbBlockReference
  2
_DOT
 10
239.2296384850449
 20
378.5473272247522
 30
0.0
 41
2.0
 42
2.0
 43
2.0
  0
MTEXT
  5
522A
330
5222
100
AcDbEntity
  8
寸法
 62
     0
100
AcDbMText
 10
211.7296384850449
 20
386.0473272247522
 30
0.0
 40
5.0
 41
0.0
 46
0.0
 71
     5
 72
     1
  1
\A1;55
  7
ＭＳ ゴシック
 73
     1
 44
1.0
  0
POINT
  5
522B
330
5222
100
AcDbEntity
  8
Defpoints
 62
     0
100
AcDbPoint
 10
184.2296384850449
 20
344.6087635329599
 30
0.0
  0
POINT
  5
522C
330
5222
100
AcDbEntity
  8
Defpoints
 62
     0
100
AcDbPoint
 10
239.2296384850449
 20
344.6087635329599
 30
0.0
  0
POINT
  5
522D
330
5222
100
AcDbEntity
  8
Defpoints
 62
     0
100
AcDbPoint
 10
239.2296384850449
 20
378.5473272247522
 30
0.0
  0
ENDBLK
  5
5224
330
5222
100
AcDbEntity
  8
0
100
AcDbBlockEnd
  0
BLOCK
  5
522F
330
522E
100
AcDbEntity
  8
0
100
AcDbBlockBegin
  2
*D35
 70
     1
 10
0.0
 20
0.0
 30
0.0
  3
*D35
  1

  0
LINE
  5
5231
330
522E
100
AcDbEntity
  8
寸法
 62
     0
370
    -2
100
AcDbLine
 10
92.42744383298106
 20
257.8049069944266
 30
0.0
 11
75.32414407101157
 21
257.8049069944266
 31
0.0
  0
LINE
  5
5232
330
522E
100
AcDbEntity
  8
寸法
 62
     0
370
    -2
100
AcDbLine
 10
86.57963848504485
 20
301.7542180784144
 30
0.0
 11
75.32414407101157
 21
301.7542180784144
 31
0.0
  0
LINE
  5
5233
330
522E
100
AcDbEntity
  8
寸法
 62
     0
370
    -2
100
AcDbLine
 10
75.32414407101157
 20
259.8049069944266
 30
0.0
 11
75.32414407101157
 21
299.7542180784144
 31
0.0
  0
INSERT
  5
5234
330
522E
100
AcDbEntity
  8
寸法
 62
     0
370
    -2
100
AcDbBlockReference
  2
_DOT
 10
75.32414407101157
 20
257.8049069944266
 30
0.0
 41
2.0
 42
2.0
 43
2.0
 50
270.0
  0
INSERT
  5
5235
330
522E
100
AcDbEntity
  8
寸法
 62
     0
370
    -2
100
AcDbBlockReference
  2
_DOT
 10
75.32414407101157
 20
301.7542180784144
 30
0.0
 41
2.0
 42
2.0
 43
2.0
 50
90.0
  0
MTEXT
  5
5236
330
522E
100
AcDbEntity
  8
寸法
 62
     0
100
AcDbMText
 10
67.82414407101157
 20
279.7795625364205
 30
0.0
 40
5.0
 41
0.0
 46
0.0
 71
     5
 72
     1
  1
\A1;44
  7
ＭＳ ゴシック
 11
0.0
 21
1.0
 31
0.0
 73
     1
 44
1.0
  0
POINT
  5
5237
330
522E
100
AcDbEntity
  8
Defpoints
 62
     0
100
AcDbPoint
 10
97.42744383298106
 20
257.8049069944266
 30
0.0
  0
POINT
  5
5238
330
522E
100
AcDbEntity
  8
Defpoints
 62
     0
100
AcDbPoint
 10
91.57963848504485
 20
301.7542180784144
 30
0.0
  0
POINT
  5
5239
330
522E
100
AcDbEntity
  8
Defpoints
 62
     0
100
AcDbPoint
 10
75.32414407101157
 20
301.7542180784144
 30
0.0
  0
ENDBLK
  5
5230
330
522E
100
AcDbEntity
  8
0
100
AcDbBlockEnd
  0
BLOCK
  5
5244
330
5243
100
AcDbEntity
  8
0
100
AcDbBlockBegin
  2
*D36
 70
     1
 10
0.0
 20
0.0
 30
0.0
  3
*D36
  1

  0
LINE
  5
5246
330
5243
100
AcDbEntity
  8
寸法
 62
     0
370
    -2
100
AcDbLine
 10
94.07963848504485
 20
256.9061865742613
 30
0.0
 11
94.07963848504485
 21
235.2569840023079
 31
0.0
  0
LINE
  5
5247
330
5243
100
AcDbEntity
  8
寸法
 62
     0
370
    -2
100
AcDbLine
 10
144.0796384850449
 20
256.9061865742613
 30
0.0
 11
144.0796384850449
 21
235.2569840023079
 31
0.0
  0
LINE
  5
5248
330
5243
100
AcDbEntity
  8
寸法
 62
     0
370
    -2
100
AcDbLine
 10
96.07963848504485
 20
235.2569840023079
 30
0.0
 11
142.0796384850449
 21
235.2569840023079
 31
0.0
  0
INSERT
  5
5249
330
5243
100
AcDbEntity
  8
寸法
 62
     0
370
    -2
100
AcDbBlockReference
  2
_DOT
 10
94.07963848504485
 20
235.2569840023079
 30
0.0
 41
2.0
 42
2.0
 43
2.0
 50
180.0
  0
INSERT
  5
524A
330
5243
100
AcDbEntity
  8
寸法
 62
     0
370
    -2
100
AcDbBlockReference
  2
_DOT
 10
144.0796384850449
 20
235.2569840023079
 30
0.0
 41
2.0
 42
2.0
 43
2.0
  0
MTEXT
  5
524B
330
5243
100
AcDbEntity
  8
寸法
 62
     0
100
AcDbMText
 10
119.0796384850449
 20
242.7569840023079
 30
0.0
 40
5.0
 41
0.0
 46
0.0
 71
     5
 72
     1
  1
\A1;%%cX
  7
ＭＳ ゴシック
 73
     1
 44
1.0
  0
POINT
  5
524C
330
5243
100
AcDbEntity
  8
Defpoints
 62
     0
100
AcDbPoint
 10
94.07963848504485
 20
261.9061865742613
 30
0.0
  0
POINT
  5
524D
330
5243
100
AcDbEntity
  8
Defpoints
 62
     0
100
AcDbPoint
 10
144.0796384850449
 20
261.9061865742613
 30
0.0
  0
POINT
  5
524E
330
5243
100
AcDbEntity
  8
Defpoints
 62
     0
100
AcDbPoint
 10
144.0796384850449
 20
235.2569840023079
 30
0.0
  0
ENDBLK
  5
5245
330
5243
100
AcDbEntity
  8
0
100
AcDbBlockEnd
  0
BLOCK
  5
5265
330
5264
100
AcDbEntity
  8
0
100
AcDbBlockBegin
  2
*D37
 70
     1
 10
0.0
 20
0.0
 30
0.0
  3
*D37
  1

  0
LINE
  5
5267
330
5264
100
AcDbEntity
  8
寸法
 62
     0
370
    -2
100
AcDbLine
 10
108.2642628078119
 20
194.8002972752915
 30
0.0
 11
77.32579127654463
 21
194.8002972752915
 31
0.0
  0
LINE
  5
5268
330
5264
100
AcDbEntity
  8
寸法
 62
     0
370
    -2
100
AcDbLine
 10
108.2642628078119
 20
139.8002972752915
 30
0.0
 11
77.32579127654463
 21
139.8002972752915
 31
0.0
  0
LINE
  5
5269
330
5264
100
AcDbEntity
  8
寸法
 62
     0
370
    -2
100
AcDbLine
 10
77.32579127654463
 20
192.8002972752915
 30
0.0
 11
77.32579127654463
 21
141.8002972752915
 31
0.0
  0
INSERT
  5
526A
330
5264
100
AcDbEntity
  8
寸法
 62
     0
370
    -2
100
AcDbBlockReference
  2
_DOT
 10
77.32579127654463
 20
194.8002972752915
 30
0.0
 41
2.0
 42
2.0
 43
2.0
 50
90.0
  0
INSERT
  5
526B
330
5264
100
AcDbEntity
  8
寸法
 62
     0
370
    -2
100
AcDbBlockReference
  2
_DOT
 10
77.32579127654463
 20
139.8002972752915
 30
0.0
 41
2.0
 42
2.0
 43
2.0
 50
270.0
  0
MTEXT
  5
526C
330
5264
100
AcDbEntity
  8
寸法
 62
     0
100
AcDbMText
 10
69.82579127654463
 20
167.3002972752916
 30
0.0
 40
5.0
 41
0.0
 46
0.0
 71
     5
 72
     1
  1
\A1;55
  7
ＭＳ ゴシック
 11
0.0
 21
1.0
 31
0.0
 73
     1
 44
1.0
  0
POINT
  5
526D
330
5264
100
AcDbEntity
  8
Defpoints
 62
     0
100
AcDbPoint
 10
113.2642628078119
 20
194.8002972752915
 30
0.0
  0
POINT
  5
526E
330
5264
100
AcDbEntity
  8
Defpoints
 62
     0
100
AcDbPoint
 10
113.2642628078119
 20
139.8002972752915
 30
0.0
  0
POINT
  5
526F
330
5264
100
AcDbEntity
  8
Defpoints
 62
     0
100
AcDbPoint
 10
77.32579127654463
 20
139.8002972752915
 30
0.0
  0
ENDBLK
  5
5266
330
5264
100
AcDbEntity
  8
0
100
AcDbBlockEnd
  0
BLOCK
  5
52B7
330
52B6
100
AcDbEntity
  8
0
100
AcDbBlockBegin
  2
*D38
 70
     1
 10
0.0
 20
0.0
 30
0.0
  3
*D38
  1

  0
LINE
  5
52B9
330
52B6
100
AcDbEntity
  8
寸法
 62
     0
370
    -2
100
AcDbLine
 10
374.2966981595092
 20
177.4531603118752
 30
0.0
 11
374.2966981595092
 21
200.2397838893573
 31
0.0
  0
LINE
  5
52BA
330
52B6
100
AcDbEntity
  8
寸法
 62
     0
370
    -2
100
AcDbLine
 10
393.2966981595092
 20
191.6286728320842
 30
0.0
 11
393.2966981595092
 21
200.2397838893573
 31
0.0
  0
LINE
  5
52BB
330
52B6
100
AcDbEntity
  8
寸法
 62
     0
370
    -2
100
AcDbLine
 10
376.2966981595092
 20
200.2397838893573
 30
0.0
 11
391.2966981595092
 21
200.2397838893573
 31
0.0
  0
INSERT
  5
52BC
330
52B6
100
AcDbEntity
  8
寸法
 62
     0
370
    -2
100
AcDbBlockReference
  2
_DOT
 10
374.2966981595092
 20
200.2397838893573
 30
0.0
 41
2.0
 42
2.0
 43
2.0
 50
180.0
  0
INSERT
  5
52BD
330
52B6
100
AcDbEntity
  8
寸法
 62
     0
370
    -2
100
AcDbBlockReference
  2
_DOT
 10
393.2966981595092
 20
200.2397838893573
 30
0.0
 41
2.0
 42
2.0
 43
2.0
  0
MTEXT
  5
52BE
330
52B6
100
AcDbEntity
  8
寸法
 62
     0
100
AcDbMText
 10
383.7966981595092
 20
207.7397838893573
 30
0.0
 40
5.0
 41
0.0
 46
0.0
 71
     5
 72
     1
  1
\A1;19
  7
ＭＳ ゴシック
 73
     1
 44
1.0
  0
POINT
  5
52BF
330
52B6
100
AcDbEntity
  8
Defpoints
 62
     0
100
AcDbPoint
 10
374.2966981595092
 20
172.4531603118752
 30
0.0
  0
POINT
  5
52C0
330
52B6
100
AcDbEntity
  8
Defpoints
 62
     0
100
AcDbPoint
 10
393.2966981595092
 20
186.6286728320842
 30
0.0
  0
POINT
  5
52C1
330
52B6
100
AcDbEntity
  8
Defpoints
 62
     0
100
AcDbPoint
 10
393.2966981595092
 20
200.2397838893573
 30
0.0
  0
ENDBLK
  5
52B8
330
52B6
100
AcDbEntity
  8
0
100
AcDbBlockEnd
  0
BLOCK
  5
52C3
330
52C2
100
AcDbEntity
  8
0
100
AcDbBlockBegin
  2
*D39
 70
     1
 10
0.0
 20
0.0
 30
0.0
  3
*D39
  1

  0
LINE
  5
52C5
330
52C2
100
AcDbEntity
  8
寸法
 62
     0
370
    -2
100
AcDbLine
 10
393.2966981595092
 20
191.6286728320842
 30
0.0
 11
393.2966981595092
 21
200.2397838893573
 31
0.0
  0
LINE
  5
52C6
330
52C2
100
AcDbEntity
  8
寸法
 62
     0
370
    -2
100
AcDbLine
 10
412.2966981595092
 20
177.4531603118752
 30
0.0
 11
412.2966981595092
 21
200.2397838893573
 31
0.0
  0
LINE
  5
52C7
330
52C2
100
AcDbEntity
  8
寸法
 62
     0
370
    -2
100
AcDbLine
 10
395.2966981595092
 20
200.2397838893573
 30
0.0
 11
410.2966981595092
 21
200.2397838893573
 31
0.0
  0
INSERT
  5
52C8
330
52C2
100
AcDbEntity
  8
寸法
 62
     0
370
    -2
100
AcDbBlockReference
  2
_DOT
 10
393.2966981595092
 20
200.2397838893573
 30
0.0
 41
2.0
 42
2.0
 43
2.0
 50
180.0
  0
INSERT
  5
52C9
330
52C2
100
AcDbEntity
  8
寸法
 62
     0
370
    -2
100
AcDbBlockReference
  2
_DOT
 10
412.2966981595092
 20
200.2397838893573
 30
0.0
 41
2.0
 42
2.0
 43
2.0
  0
MTEXT
  5
52CA
330
52C2
100
AcDbEntity
  8
寸法
 62
     0
100
AcDbMText
 10
402.7966981595092
 20
207.7397838893573
 30
0.0
 40
5.0
 41
0.0
 46
0.0
 71
     5
 72
     1
  1
\A1;19
  7
ＭＳ ゴシック
 73
     1
 44
1.0
  0
POINT
  5
52CB
330
52C2
100
AcDbEntity
  8
Defpoints
 62
     0
100
AcDbPoint
 10
393.2966981595092
 20
186.6286728320842
 30
0.0
  0
POINT
  5
52CC
330
52C2
100
AcDbEntity
  8
Defpoints
 62
     0
100
AcDbPoint
 10
412.2966981595092
 20
172.4531603118752
 30
0.0
  0
POINT
  5
52CD
330
52C2
100
AcDbEntity
  8
Defpoints
 62
     0
100
AcDbPoint
 10
412.2966981595092
 20
200.2397838893573
 30
0.0
  0
ENDBLK
  5
52C4
330
52C2
100
AcDbEntity
  8
0
100
AcDbBlockEnd
  0
BLOCK
  5
52CF
330
52CE
100
AcDbEntity
  8
0
100
AcDbBlockBegin
  2
*D40
 70
     1
 10
0.0
 20
0.0
 30
0.0
  3
*D40
  1

  0
LINE
  5
52D1
330
52CE
100
AcDbEntity
  8
寸法
 62
     0
370
    -2
100
AcDbLine
 10
412.2966981595092
 20
158.3002972752912
 30
0.0
 11
412.2966981595092
 21
130.5123896935981
 31
0.0
  0
LINE
  5
52D2
330
52CE
100
AcDbEntity
  8
寸法
 62
     0
370
    -2
100
AcDbLine
 10
374.2966981595092
 20
158.3002972752912
 30
0.0
 11
374.2966981595092
 21
130.5123896935981
 31
0.0
  0
LINE
  5
52D3
330
52CE
100
AcDbEntity
  8
寸法
 62
     0
370
    -2
100
AcDbLine
 10
374.2966981595092
 20
130.5123896935981
 30
0.0
 11
360.3066981595092
 21
130.5123896935981
 31
0.0
  0
LINE
  5
52D4
330
52CE
100
AcDbEntity
  8
寸法
 62
     0
370
    -2
100
AcDbLine
 10
410.2966981595092
 20
130.5123896935981
 30
0.0
 11
376.2966981595092
 21
130.5123896935981
 31
0.0
  0
LINE
  5
52D5
330
52CE
100
AcDbEntity
  8
寸法
 62
     0
370
    -2
100
AcDbLine
 10
376.2966981595092
 20
130.5123896935981
 30
0.0
 11
378.2966981595092
 21
130.5123896935981
 31
0.0
  0
INSERT
  5
52D6
330
52CE
100
AcDbEntity
  8
寸法
 62
     0
370
    -2
100
AcDbBlockReference
  2
_DOT
 10
412.2966981595092
 20
130.5123896935981
 30
0.0
 41
2.0
 42
2.0
 43
2.0
  0
INSERT
  5
52D7
330
52CE
100
AcDbEntity
  8
寸法
 62
     0
370
    -2
100
AcDbBlockReference
  2
_DOT
 10
374.2966981595092
 20
130.5123896935981
 30
0.0
 41
2.0
 42
2.0
 43
2.0
 50
180.0
  0
MTEXT
  5
52D8
330
52CE
100
AcDbEntity
  8
寸法
 62
     0
100
AcDbMText
 10
365.3016981595092
 20
135.0373896935981
 30
0.0
 40
5.0
 41
0.0
 46
0.0
 71
     5
 72
     1
  1
\A1;ø8
  7
ＭＳ ゴシック
 73
     1
 44
1.0
  0
POINT
  5
52D9
330
52CE
100
AcDbEntity
  8
Defpoints
 62
     0
100
AcDbPoint
 10
412.2966981595092
 20
163.3002972752912
 30
0.0
  0
POINT
  5
52DA
330
52CE
100
AcDbEntity
  8
Defpoints
 62
     0
100
AcDbPoint
 10
374.2966981595092
 20
163.3002972752912
 30
0.0
  0
POINT
  5
52DB
330
52CE
100
AcDbEntity
  8
Defpoints
 62
     0
100
AcDbPoint
 10
374.2966981595092
 20
130.5123896935981
 30
0.0
  0
ENDBLK
  5
52D0
330
52CE
100
AcDbEntity
  8
0
100
AcDbBlockEnd
  0
BLOCK
  5
5462
330
5461
100
AcDbEntity
  8
0
100
AcDbBlockBegin
  2
*D41
 70
     1
 10
0.0
 20
0.0
 30
0.0
  3
*D41
  1

  0
LINE
  5
5463
330
5461
100
AcDbEntity
  8
寸法
 62
     0
370
    -2
100
AcDbLine
 10
97.61532576121792
 20
301.0441778909092
 30
0.0
 11
86.35983134718464
 21
301.0441778909092
 31
0.0
  0
LINE
  5
5464
330
5461
100
AcDbEntity
  8
寸法
 62
     0
370
    -2
100
AcDbLine
 10
97.61532576121792
 20
308.0441778909092
 30
0.0
 11
86.35983134718464
 21
308.0441778909092
 31
0.0
  0
LINE
  5
5465
330
5461
100
AcDbEntity
  8
寸法
 62
     0
370
    -2
100
AcDbLine
 10
86.35983134718464
 20
303.0441778909092
 30
0.0
 11
86.35983134718464
 21
306.0441778909092
 31
0.0
  0
INSERT
  5
5466
330
5461
100
AcDbEntity
  8
寸法
 62
     0
370
    -2
100
AcDbBlockReference
  2
_DOT
 10
86.35983134718464
 20
301.0441778909092
 30
0.0
 41
2.0
 42
2.0
 43
2.0
 50
270.0
  0
INSERT
  5
5467
330
5461
100
AcDbEntity
  8
寸法
 62
     0
370
    -2
100
AcDbBlockReference
  2
_DOT
 10
86.35983134718464
 20
308.0441778909092
 30
0.0
 41
2.0
 42
2.0
 43
2.0
 50
90.0
  0
MTEXT
  5
5468
330
5461
100
AcDbEntity
  8
寸法
 62
     0
100
AcDbMText
 10
78.85983134718464
 20
304.5441778909091
 30
0.0
 40
5.0
 41
0.0
 46
0.0
 71
     5
 72
     1
  1
\A1;7
  7
ＭＳ ゴシック
 11
0.0
 21
1.0
 31
0.0
 73
     1
 44
1.0
  0
POINT
  5
5469
330
5461
100
AcDbEntity
  8
Defpoints
 62
     0
100
AcDbPoint
 10
102.6153257612179
 20
301.0441778909092
 30
0.0
  0
POINT
  5
546A
330
5461
100
AcDbEntity
  8
Defpoints
 62
     0
100
AcDbPoint
 10
102.6153257612179
 20
308.0441778909092
 30
0.0
  0
POINT
  5
546B
330
5461
100
AcDbEntity
  8
Defpoints
 62
     0
100
AcDbPoint
 10
86.35983134718464
 20
308.0441778909092
 30
0.0
  0
ENDBLK
  5
546C
330
5461
100
AcDbEntity
  8
0
100
AcDbBlockEnd
  0
BLOCK
  5
5470
330
546F
100
AcDbEntity
  8
0
100
AcDbBlockBegin
  2
*D42
 70
     1
 10
0.0
 20
0.0
 30
0.0
  3
*D42
  1

  0
LINE
  5
5471
330
546F
100
AcDbEntity
  8
寸法
 62
     0
370
    -2
100
AcDbLine
 10
112.1164342696158
 20
194.8002972752911
 30
0.0
 11
83.31501727950831
 21
194.8002972752911
 31
0.0
  0
LINE
  5
5472
330
546F
100
AcDbEntity
  8
寸法
 62
     0
370
    -2
100
AcDbLine
 10
112.1164342696158
 20
139.8002972752911
 30
0.0
 11
83.31501727950831
 21
139.8002972752911
 31
0.0
  0
LINE
  5
5473
330
546F
100
AcDbEntity
  8
寸法
 62
     0
370
    -2
100
AcDbLine
 10
83.31501727950831
 20
192.8002972752911
 30
0.0
 11
83.31501727950831
 21
141.8002972752911
 31
0.0
  0
INSERT
  5
5474
330
546F
100
AcDbEntity
  8
寸法
 62
     0
370
    -2
100
AcDbBlockReference
  2
_DOT
 10
83.31501727950831
 20
194.8002972752911
 30
0.0
 41
2.0
 42
2.0
 43
2.0
 50
90.0
  0
INSERT
  5
5475
330
546F
100
AcDbEntity
  8
寸法
 62
     0
370
    -2
100
AcDbBlockReference
  2
_DOT
 10
83.31501727950831
 20
139.8002972752911
 30
0.0
 41
2.0
 42
2.0
 43
2.0
 50
270.0
  0
MTEXT
  5
5476
330
546F
100
AcDbEntity
  8
寸法
 62
     0
100
AcDbMText
 10
75.81501727950831
 20
167.3002972752911
 30
0.0
 40
5.0
 41
0.0
 46
0.0
 71
     5
 72
     1
  1
\A1;55
  7
ＭＳ ゴシック
 11
0.0
 21
1.0
 31
0.0
 73
     1
 44
1.0
  0
POINT
  5
5477
330
546F
100
AcDbEntity
  8
Defpoints
 62
     0
100
AcDbPoint
 10
117.1164342696158
 20
194.8002972752911
 30
0.0
  0
POINT
  5
5478
330
546F
100
AcDbEntity
  8
Defpoints
 62
     0
100
AcDbPoint
 10
117.1164342696158
 20
139.8002972752911
 30
0.0
  0
POINT
  5
5479
330
546F
100
AcDbEntity
  8
Defpoints
 62
     0
100
AcDbPoint
 10
83.31501727950831
 20
139.8002972752911
 30
0.0
  0
ENDBLK
  5
547A
330
546F
100
AcDbEntity
  8
0
100
AcDbBlockEnd
  0
BLOCK
  5
547D
330
547C
100
AcDbEntity
  8
0
100
AcDbBlockBegin
  2
*D43
 70
     1
 10
0.0
 20
0.0
 30
0.0
  3
*D43
  1

  0
LINE
  5
547E
330
547C
100
AcDbEntity
  8
寸法
 62
     0
370
    -2
100
AcDbLine
 10
107.6153257612179
 20
252.0441778909092
 30
0.0
 11
107.6153257612179
 21
232.2414875437228
 31
0.0
  0
LINE
  5
547F
330
547C
100
AcDbEntity
  8
寸法
 62
     0
370
    -2
100
AcDbLine
 10
152.6153257612179
 20
252.0441778909092
 30
0.0
 11
152.6153257612179
 21
232.2414875437228
 31
0.0
  0
LINE
  5
5480
330
547C
100
AcDbEntity
  8
寸法
 62
     0
370
    -2
100
AcDbLine
 10
109.6153257612179
 20
232.2414875437228
 30
0.0
 11
150.6153257612179
 21
232.2414875437228
 31
0.0
  0
INSERT
  5
5481
330
547C
100
AcDbEntity
  8
寸法
 62
     0
370
    -2
100
AcDbBlockReference
  2
_DOT
 10
107.6153257612179
 20
232.2414875437228
 30
0.0
 41
2.0
 42
2.0
 43
2.0
 50
180.0
  0
INSERT
  5
5482
330
547C
100
AcDbEntity
  8
寸法
 62
     0
370
    -2
100
AcDbBlockReference
  2
_DOT
 10
152.6153257612179
 20
232.2414875437228
 30
0.0
 41
2.0
 42
2.0
 43
2.0
  0
MTEXT
  5
5483
330
547C
100
AcDbEntity
  8
寸法
 62
     0
100
AcDbMText
 10
130.1153257612179
 20
239.7414875437228
 30
0.0
 40
5.0
 41
0.0
 46
0.0
 71
     5
 72
     1
  1
\A1;45
  7
ＭＳ ゴシック
 73
     1
 44
1.0
  0
POINT
  5
5484
330
547C
100
AcDbEntity
  8
Defpoints
 62
     0
100
AcDbPoint
 10
107.6153257612179
 20
257.0441778909092
 30
0.0
  0
POINT
  5
5485
330
547C
100
AcDbEntity
  8
Defpoints
 62
     0
100
AcDbPoint
 10
152.6153257612179
 20
257.0441778909092
 30
0.0
  0
POINT
  5
5486
330
547C
100
AcDbEntity
  8
Defpoints
 62
     0
100
AcDbPoint
 10
152.6153257612179
 20
232.2414875437228
 30
0.0
  0
ENDBLK
  5
5487
330
547C
100
AcDbEntity
  8
0
100
AcDbBlockEnd
  0
BLOCK
  5
548A
330
5489
100
AcDbEntity
  8
0
100
AcDbBlockBegin
  2
*D44
 70
     1
 10
0.0
 20
0.0
 30
0.0
  3
*D44
  1

  0
LINE
  5
548B
330
5489
100
AcDbEntity
  8
寸法
 62
     0
370
    -2
100
AcDbLine
 10
92.61532576121792
 20
301.0441778909092
 30
0.0
 11
86.35983134718464
 21
301.0441778909092
 31
0.0
  0
LINE
  5
548C
330
5489
100
AcDbEntity
  8
寸法
 62
     0
370
    -2
100
AcDbLine
 10
102.5684277938852
 20
256.0441778909092
 30
0.0
 11
86.35983134718464
 21
256.0441778909092
 31
0.0
  0
LINE
  5
548D
330
5489
100
AcDbEntity
  8
寸法
 62
     0
370
    -2
100
AcDbLine
 10
86.35983134718464
 20
299.0441778909092
 30
0.0
 11
86.35983134718464
 21
258.0441778909092
 31
0.0
  0
INSERT
  5
548E
330
5489
100
AcDbEntity
  8
寸法
 62
     0
370
    -2
100
AcDbBlockReference
  2
_DOT
 10
86.35983134718464
 20
301.0441778909092
 30
0.0
 41
2.0
 42
2.0
 43
2.0
 50
90.0
  0
INSERT
  5
548F
330
5489
100
AcDbEntity
  8
寸法
 62
     0
370
    -2
100
AcDbBlockReference
  2
_DOT
 10
86.35983134718464
 20
256.0441778909092
 30
0.0
 41
2.0
 42
2.0
 43
2.0
 50
270.0
  0
MTEXT
  5
5490
330
5489
100
AcDbEntity
  8
寸法
 62
     0
100
AcDbMText
 10
78.85983134718464
 20
278.5441778909092
 30
0.0
 40
5.0
 41
0.0
 46
0.0
 71
     5
 72
     1
  1
\A1;45
  7
ＭＳ ゴシック
 11
0.0
 21
1.0
 31
0.0
 73
     1
 44
1.0
  0
POINT
  5
5491
330
5489
100
AcDbEntity
  8
Defpoints
 62
     0
100
AcDbPoint
 10
97.61532576121792
 20
301.0441778909092
 30
0.0
  0
POINT
  5
5492
330
5489
100
AcDbEntity
  8
Defpoints
 62
     0
100
AcDbPoint
 10
107.5684277938852
 20
256.0441778909092
 30
0.0
  0
POINT
  5
5493
330
5489
100
AcDbEntity
  8
Defpoints
 62
     0
100
AcDbPoint
 10
86.35983134718464
 20
256.0441778909092
 30
0.0
  0
ENDBLK
  5
5494
330
5489
100
AcDbEntity
  8
0
100
AcDbBlockEnd
  0
BLOCK
  5
54F5
330
54F4
100
AcDbEntity
  8
0
100
AcDbBlockBegin
  2
*D45
 70
     1
 10
0.0
 20
0.0
 30
0.0
  3
*D45
  1

  0
LINE
  5
54F6
330
54F4
100
AcDbEntity
  8
寸法
 62
     0
370
    -2
100
AcDbLine
 10
426.9539137163637
 20
287.0437448145454
 30
0.0
 11
420.559586443636
 21
287.0437448145454
 31
0.0
  0
LINE
  5
54F7
330
54F4
100
AcDbEntity
  8
寸法
 62
     0
370
    -2
100
AcDbLine
 10
426.9539137163637
 20
279.0437448145454
 30
0.0
 11
420.559586443636
 21
279.0437448145454
 31
0.0
  0
LINE
  5
54F8
330
54F4
100
AcDbEntity
  8
寸法
 62
     0
370
    -2
100
AcDbLine
 10
420.559586443636
 20
285.0437448145454
 30
0.0
 11
420.559586443636
 21
281.0437448145454
 31
0.0
  0
INSERT
  5
54F9
330
54F4
100
AcDbEntity
  8
寸法
 62
     0
370
    -2
100
AcDbBlockReference
  2
_DOT
 10
420.559586443636
 20
287.0437448145454
 30
0.0
 41
2.0
 42
2.0
 43
2.0
 50
90.0
  0
INSERT
  5
54FA
330
54F4
100
AcDbEntity
  8
寸法
 62
     0
370
    -2
100
AcDbBlockReference
  2
_DOT
 10
420.559586443636
 20
279.0437448145454
 30
0.0
 41
2.0
 42
2.0
 43
2.0
 50
270.0
  0
MTEXT
  5
54FB
330
54F4
100
AcDbEntity
  8
寸法
 62
     0
100
AcDbMText
 10
413.059586443636
 20
283.0437448145454
 30
0.0
 40
5.0
 41
0.0
 46
0.0
 71
     5
 72
     1
  1
\A1;8
  7
ＭＳ ゴシック
 11
0.0
 21
1.0
 31
0.0
 73
     1
 44
1.0
  0
POINT
  5
54FC
330
54F4
100
AcDbEntity
  8
Defpoints
 62
     0
100
AcDbPoint
 10
431.9539137163637
 20
287.0437448145454
 30
0.0
  0
POINT
  5
54FD
330
54F4
100
AcDbEntity
  8
Defpoints
 62
     0
100
AcDbPoint
 10
431.9539137163637
 20
279.0437448145454
 30
0.0
  0
POINT
  5
54FE
330
54F4
100
AcDbEntity
  8
Defpoints
 62
     0
100
AcDbPoint
 10
420.559586443636
 20
279.0437448145454
 30
0.0
  0
ENDBLK
  5
54FF
330
54F4
100
AcDbEntity
  8
0
100
AcDbBlockEnd
  0
BLOCK
  5
55AE
330
55AD
100
AcDbEntity
  8
0
100
AcDbBlockBegin
  2
*D46
 70
     1
 10
0.0
 20
0.0
 30
0.0
  3
*D46
  1

  0
LINE
  5
55B0
330
55AD
100
AcDbEntity
  8
寸法
 62
     0
370
    -2
100
AcDbLine
 10
719.7016893975814
 20
301.8669051636367
 30
0.0
 11
708.4461949835481
 21
301.8669051636367
 31
0.0
  0
LINE
  5
55B1
330
55AD
100
AcDbEntity
  8
寸法
 62
     0
370
    -2
100
AcDbLine
 10
719.7016893975814
 20
308.8669051636367
 30
0.0
 11
708.4461949835481
 21
308.8669051636367
 31
0.0
  0
LINE
  5
55B2
330
55AD
100
AcDbEntity
  8
寸法
 62
     0
370
    -2
100
AcDbLine
 10
708.4461949835481
 20
303.8669051636367
 30
0.0
 11
708.4461949835481
 21
306.8669051636367
 31
0.0
  0
INSERT
  5
55B3
330
55AD
100
AcDbEntity
  8
寸法
 62
     0
370
    -2
100
AcDbBlockReference
  2
_DOT
 10
708.4461949835481
 20
301.8669051636367
 30
0.0
 41
2.0
 42
2.0
 43
2.0
 50
270.0
  0
INSERT
  5
55B4
330
55AD
100
AcDbEntity
  8
寸法
 62
     0
370
    -2
100
AcDbBlockReference
  2
_DOT
 10
708.4461949835481
 20
308.8669051636367
 30
0.0
 41
2.0
 42
2.0
 43
2.0
 50
90.0
  0
MTEXT
  5
55B5
330
55AD
100
AcDbEntity
  8
寸法
 62
     0
100
AcDbMText
 10
700.9461949835481
 20
305.3669051636366
 30
0.0
 40
5.0
 41
0.0
 46
0.0
 71
     5
 72
     1
  1
\A1;7
  7
ＭＳ ゴシック
 11
0.0
 21
1.0
 31
0.0
 73
     1
 44
1.0
  0
POINT
  5
55B6
330
55AD
100
AcDbEntity
  8
Defpoints
 62
     0
100
AcDbPoint
 10
724.7016893975814
 20
301.8669051636367
 30
0.0
  0
POINT
  5
55B7
330
55AD
100
AcDbEntity
  8
Defpoints
 62
     0
100
AcDbPoint
 10
724.7016893975814
 20
308.8669051636367
 30
0.0
  0
POINT
  5
55B8
330
55AD
100
AcDbEntity
  8
Defpoints
 62
     0
100
AcDbPoint
 10
708.4461949835481
 20
308.8669051636367
 30
0.0
  0
ENDBLK
  5
55AF
330
55AD
100
AcDbEntity
  8
0
100
AcDbBlockEnd
  0
BLOCK
  5
55BA
330
55B9
100
AcDbEntity
  8
0
100
AcDbBlockBegin
  2
*D47
 70
     1
 10
0.0
 20
0.0
 30
0.0
  3
*D47
  1

  0
LINE
  5
55BC
330
55B9
100
AcDbEntity
  8
寸法
 62
     0
370
    -2
100
AcDbLine
 10
734.2027979059792
 20
195.6230245480185
 30
0.0
 11
705.4013809158718
 21
195.6230245480185
 31
0.0
  0
LINE
  5
55BD
330
55B9
100
AcDbEntity
  8
寸法
 62
     0
370
    -2
100
AcDbLine
 10
734.2027979059792
 20
140.6230245480185
 30
0.0
 11
705.4013809158718
 21
140.6230245480185
 31
0.0
  0
LINE
  5
55BE
330
55B9
100
AcDbEntity
  8
寸法
 62
     0
370
    -2
100
AcDbLine
 10
705.4013809158718
 20
193.6230245480185
 30
0.0
 11
705.4013809158718
 21
142.6230245480185
 31
0.0
  0
INSERT
  5
55BF
330
55B9
100
AcDbEntity
  8
寸法
 62
     0
370
    -2
100
AcDbBlockReference
  2
_DOT
 10
705.4013809158718
 20
195.6230245480185
 30
0.0
 41
2.0
 42
2.0
 43
2.0
 50
90.0
  0
INSERT
  5
55C0
330
55B9
100
AcDbEntity
  8
寸法
 62
     0
370
    -2
100
AcDbBlockReference
  2
_DOT
 10
705.4013809158718
 20
140.6230245480185
 30
0.0
 41
2.0
 42
2.0
 43
2.0
 50
270.0
  0
MTEXT
  5
55C1
330
55B9
100
AcDbEntity
  8
寸法
 62
     0
100
AcDbMText
 10
697.9013809158718
 20
168.1230245480185
 30
0.0
 40
5.0
 41
0.0
 46
0.0
 71
     5
 72
     1
  1
\A1;55
  7
ＭＳ ゴシック
 11
0.0
 21
1.0
 31
0.0
 73
     1
 44
1.0
  0
POINT
  5
55C2
330
55B9
100
AcDbEntity
  8
Defpoints
 62
     0
100
AcDbPoint
 10
739.2027979059792
 20
195.6230245480185
 30
0.0
  0
POINT
  5
55C3
330
55B9
100
AcDbEntity
  8
Defpoints
 62
     0
100
AcDbPoint
 10
739.2027979059792
 20
140.6230245480185
 30
0.0
  0
POINT
  5
55C4
330
55B9
100
AcDbEntity
  8
Defpoints
 62
     0
100
AcDbPoint
 10
705.4013809158718
 20
140.6230245480185
 30
0.0
  0
ENDBLK
  5
55BB
330
55B9
100
AcDbEntity
  8
0
100
AcDbBlockEnd
  0
BLOCK
  5
55C6
330
55C5
100
AcDbEntity
  8
0
100
AcDbBlockBegin
  2
*D48
 70
     1
 10
0.0
 20
0.0
 30
0.0
  3
*D48
  1

  0
LINE
  5
55C8
330
55C5
100
AcDbEntity
  8
寸法
 62
     0
370
    -2
100
AcDbLine
 10
729.7016893975814
 20
252.8669051636366
 30
0.0
 11
729.7016893975814
 21
233.0642148164502
 31
0.0
  0
LINE
  5
55C9
330
55C5
100
AcDbEntity
  8
寸法
 62
     0
370
    -2
100
AcDbLine
 10
774.7016893975814
 20
252.8669051636366
 30
0.0
 11
774.7016893975814
 21
233.0642148164502
 31
0.0
  0
LINE
  5
55CA
330
55C5
100
AcDbEntity
  8
寸法
 62
     0
370
    -2
100
AcDbLine
 10
731.7016893975814
 20
233.0642148164502
 30
0.0
 11
772.7016893975814
 21
233.0642148164502
 31
0.0
  0
INSERT
  5
55CB
330
55C5
100
AcDbEntity
  8
寸法
 62
     0
370
    -2
100
AcDbBlockReference
  2
_DOT
 10
729.7016893975814
 20
233.0642148164502
 30
0.0
 41
2.0
 42
2.0
 43
2.0
 50
180.0
  0
INSERT
  5
55CC
330
55C5
100
AcDbEntity
  8
寸法
 62
     0
370
    -2
100
AcDbBlockReference
  2
_DOT
 10
774.7016893975814
 20
233.0642148164502
 30
0.0
 41
2.0
 42
2.0
 43
2.0
  0
MTEXT
  5
55CD
330
55C5
100
AcDbEntity
  8
寸法
 62
     0
100
AcDbMText
 10
752.2016893975814
 20
240.5642148164502
 30
0.0
 40
5.0
 41
0.0
 46
0.0
 71
     5
 72
     1
  1
\A1;45
  7
ＭＳ ゴシック
 73
     1
 44
1.0
  0
POINT
  5
55CE
330
55C5
100
AcDbEntity
  8
Defpoints
 62
     0
100
AcDbPoint
 10
729.7016893975814
 20
257.8669051636366
 30
0.0
  0
POINT
  5
55CF
330
55C5
100
AcDbEntity
  8
Defpoints
 62
     0
100
AcDbPoint
 10
774.7016893975814
 20
257.8669051636366
 30
0.0
  0
POINT
  5
55D0
330
55C5
100
AcDbEntity
  8
Defpoints
 62
     0
100
AcDbPoint
 10
774.7016893975814
 20
233.0642148164502
 30
0.0
  0
ENDBLK
  5
55C7
330
55C5
100
AcDbEntity
  8
0
100
AcDbBlockEnd
  0
BLOCK
  5
55D2
330
55D1
100
AcDbEntity
  8
0
100
AcDbBlockBegin
  2
*D49
 70
     1
 10
0.0
 20
0.0
 30
0.0
  3
*D49
  1

  0
LINE
  5
55D4
330
55D1
100
AcDbEntity
  8
寸法
 62
     0
370
    -2
100
AcDbLine
 10
714.7016893975814
 20
301.8669051636367
 30
0.0
 11
708.4461949835481
 21
301.8669051636367
 31
0.0
  0
LINE
  5
55D5
330
55D1
100
AcDbEntity
  8
寸法
 62
     0
370
    -2
100
AcDbLine
 10
724.6547914302487
 20
256.8669051636366
 30
0.0
 11
708.4461949835481
 21
256.8669051636366
 31
0.0
  0
LINE
  5
55D6
330
55D1
100
AcDbEntity
  8
寸法
 62
     0
370
    -2
100
AcDbLine
 10
708.4461949835481
 20
299.8669051636367
 30
0.0
 11
708.4461949835481
 21
258.8669051636366
 31
0.0
  0
INSERT
  5
55D7
330
55D1
100
AcDbEntity
  8
寸法
 62
     0
370
    -2
100
AcDbBlockReference
  2
_DOT
 10
708.4461949835481
 20
301.8669051636367
 30
0.0
 41
2.0
 42
2.0
 43
2.0
 50
90.0
  0
INSERT
  5
55D8
330
55D1
100
AcDbEntity
  8
寸法
 62
     0
370
    -2
100
AcDbBlockReference
  2
_DOT
 10
708.4461949835481
 20
256.8669051636366
 30
0.0
 41
2.0
 42
2.0
 43
2.0
 50
270.0
  0
MTEXT
  5
55D9
330
55D1
100
AcDbEntity
  8
寸法
 62
     0
100
AcDbMText
 10
700.9461949835481
 20
279.3669051636367
 30
0.0
 40
5.0
 41
0.0
 46
0.0
 71
     5
 72
     1
  1
\A1;45
  7
ＭＳ ゴシック
 11
0.0
 21
1.0
 31
0.0
 73
     1
 44
1.0
  0
POINT
  5
55DA
330
55D1
100
AcDbEntity
  8
Defpoints
 62
     0
100
AcDbPoint
 10
719.7016893975814
 20
301.8669051636367
 30
0.0
  0
POINT
  5
55DB
330
55D1
100
AcDbEntity
  8
Defpoints
 62
     0
100
AcDbPoint
 10
729.6547914302487
 20
256.8669051636366
 30
0.0
  0
POINT
  5
55DC
330
55D1
100
AcDbEntity
  8
Defpoints
 62
     0
100
AcDbPoint
 10
708.4461949835481
 20
256.8669051636366
 30
0.0
  0
ENDBLK
  5
55D3
330
55D1
100
AcDbEntity
  8
0
100
AcDbBlockEnd
  0
BLOCK
  5
55DE
330
55DD
100
AcDbEntity
  8
0
100
AcDbBlockBegin
  2
*D50
 70
     1
 10
0.0
 20
0.0
 30
0.0
  3
*D50
  1

  0
LINE
  5
55E0
330
55DD
100
AcDbEntity
  8
寸法
 62
     0
370
    -2
100
AcDbLine
 10
1049.040277352727
 20
287.8664720872729
 30
0.0
 11
1042.645950079999
 21
287.8664720872729
 31
0.0
  0
LINE
  5
55E1
330
55DD
100
AcDbEntity
  8
寸法
 62
     0
370
    -2
100
AcDbLine
 10
1049.040277352727
 20
279.8664720872729
 30
0.0
 11
1042.645950079999
 21
279.8664720872729
 31
0.0
  0
LINE
  5
55E2
330
55DD
100
AcDbEntity
  8
寸法
 62
     0
370
    -2
100
AcDbLine
 10
1042.645950079999
 20
285.8664720872729
 30
0.0
 11
1042.645950079999
 21
281.8664720872729
 31
0.0
  0
INSERT
  5
55E3
330
55DD
100
AcDbEntity
  8
寸法
 62
     0
370
    -2
100
AcDbBlockReference
  2
_DOT
 10
1042.645950079999
 20
287.8664720872729
 30
0.0
 41
2.0
 42
2.0
 43
2.0
 50
90.0
  0
INSERT
  5
55E4
330
55DD
100
AcDbEntity
  8
寸法
 62
     0
370
    -2
100
AcDbBlockReference
  2
_DOT
 10
1042.645950079999
 20
279.8664720872729
 30
0.0
 41
2.0
 42
2.0
 43
2.0
 50
270.0
  0
MTEXT
  5
55E5
330
55DD
100
AcDbEntity
  8
寸法
 62
     0
100
AcDbMText
 10
1035.145950079999
 20
283.8664720872729
 30
0.0
 40
5.0
 41
0.0
 46
0.0
 71
     5
 72
     1
  1
\A1;8
  7
ＭＳ ゴシック
 11
0.0
 21
1.0
 31
0.0
 73
     1
 44
1.0
  0
POINT
  5
55E6
330
55DD
100
AcDbEntity
  8
Defpoints
 62
     0
100
AcDbPoint
 10
1054.040277352727
 20
287.8664720872729
 30
0.0
  0
POINT
  5
55E7
330
55DD
100
AcDbEntity
  8
Defpoints
 62
     0
100
AcDbPoint
 10
1054.040277352727
 20
279.8664720872729
 30
0.0
  0
POINT
  5
55E8
330
55DD
100
AcDbEntity
  8
Defpoints
 62
     0
100
AcDbPoint
 10
1042.645950079999
 20
279.8664720872729
 30
0.0
  0
ENDBLK
  5
55DF
330
55DD
100
AcDbEntity
  8
0
100
AcDbBlockEnd
  0
BLOCK
  5
5665
330
5664
100
AcDbEntity
  8
0
100
AcDbBlockBegin
  2
*D51
 70
     1
 10
0.0
 20
0.0
 30
0.0
  3
*D51
  1

  0
LINE
  5
5667
330
5664
100
AcDbEntity
  8
寸法
 62
     0
370
    -2
100
AcDbLine
 10
426.9539137163637
 20
287.0437448145454
 30
0.0
 11
420.559586443636
 21
287.0437448145454
 31
0.0
  0
LINE
  5
5668
330
5664
100
AcDbEntity
  8
寸法
 62
     0
370
    -2
100
AcDbLine
 10
426.9539137163637
 20
279.0437448145454
 30
0.0
 11
420.559586443636
 21
279.0437448145454
 31
0.0
  0
LINE
  5
5669
330
5664
100
AcDbEntity
  8
寸法
 62
     0
370
    -2
100
AcDbLine
 10
420.559586443636
 20
285.0437448145454
 30
0.0
 11
420.559586443636
 21
281.0437448145454
 31
0.0
  0
INSERT
  5
566A
330
5664
100
AcDbEntity
  8
寸法
 62
     0
370
    -2
100
AcDbBlockReference
  2
_DOT
 10
420.559586443636
 20
287.0437448145454
 30
0.0
 41
2.0
 42
2.0
 43
2.0
 50
90.0
  0
INSERT
  5
566B
330
5664
100
AcDbEntity
  8
寸法
 62
     0
370
    -2
100
AcDbBlockReference
  2
_DOT
 10
420.559586443636
 20
279.0437448145454
 30
0.0
 41
2.0
 42
2.0
 43
2.0
 50
270.0
  0
MTEXT
  5
566C
330
5664
100
AcDbEntity
  8
寸法
 62
     0
100
AcDbMText
 10
413.059586443636
 20
283.0437448145454
 30
0.0
 40
5.0
 41
0.0
 46
0.0
 71
     5
 72
     1
  1
\A1;8
  7
ＭＳ ゴシック
 11
0.0
 21
1.0
 31
0.0
 73
     1
 44
1.0
  0
POINT
  5
566D
330
5664
100
AcDbEntity
  8
Defpoints
 62
     0
100
AcDbPoint
 10
431.9539137163637
 20
287.0437448145454
 30
0.0
  0
POINT
  5
566E
330
5664
100
AcDbEntity
  8
Defpoints
 62
     0
100
AcDbPoint
 10
431.9539137163637
 20
279.0437448145454
 30
0.0
  0
POINT
  5
566F
330
5664
100
AcDbEntity
  8
Defpoints
 62
     0
100
AcDbPoint
 10
420.559586443636
 20
279.0437448145454
 30
0.0
  0
ENDBLK
  5
5666
330
5664
100
AcDbEntity
  8
0
100
AcDbBlockEnd
  0
BLOCK
  5
56F2
330
56F1
100
AcDbEntity
  8
0
100
AcDbBlockBegin
  2
*D52
 70
     1
 10
0.0
 20
0.0
 30
0.0
  3
*D52
  1

  0
LINE
  5
56F4
330
56F1
100
AcDbEntity
  8
寸法
 62
     0
370
    -2
100
AcDbLine
 10
107.0796384850449
 20
291.5763083636363
 30
0.0
 11
107.0796384850449
 21
296.0969018181817
 31
0.0
  0
LINE
  5
56F5
330
56F1
100
AcDbEntity
  8
寸法
 62
     0
370
    -2
100
AcDbLine
 10
131.0796384850449
 20
289.9557818181817
 30
0.0
 11
131.0796384850449
 21
296.0969018181817
 31
0.0
  0
LINE
  5
56F6
330
56F1
100
AcDbEntity
  8
寸法
 62
     0
370
    -2
100
AcDbLine
 10
109.0796384850449
 20
296.0969018181817
 30
0.0
 11
129.0796384850449
 21
296.0969018181817
 31
0.0
  0
INSERT
  5
56F7
330
56F1
100
AcDbEntity
  8
寸法
 62
     0
370
    -2
100
AcDbBlockReference
  2
_DOT
 10
107.0796384850449
 20
296.0969018181817
 30
0.0
 41
2.0
 42
2.0
 43
2.0
 50
180.0
  0
INSERT
  5
56F8
330
56F1
100
AcDbEntity
  8
寸法
 62
     0
370
    -2
100
AcDbBlockReference
  2
_DOT
 10
131.0796384850449
 20
296.0969018181817
 30
0.0
 41
2.0
 42
2.0
 43
2.0
  0
MTEXT
  5
56F9
330
56F1
100
AcDbEntity
  8
寸法
 62
     0
100
AcDbMText
 10
119.0796384850449
 20
303.5969018181817
 30
0.0
 40
5.0
 41
0.0
 46
0.0
 71
     5
 72
     1
  1
\A1;24
  7
ＭＳ ゴシック
 73
     1
 44
1.0
  0
POINT
  5
56FA
330
56F1
100
AcDbEntity
  8
Defpoints
 62
     0
100
AcDbPoint
 10
107.0796384850449
 20
286.5763083636363
 30
0.0
  0
POINT
  5
56FB
330
56F1
100
AcDbEntity
  8
Defpoints
 62
     0
100
AcDbPoint
 10
131.0796384850449
 20
284.9557818181817
 30
0.0
  0
POINT
  5
56FC
330
56F1
100
AcDbEntity
  8
Defpoints
 62
     0
100
AcDbPoint
 10
131.0796384850449
 20
296.0969018181817
 30
0.0
  0
ENDBLK
  5
56F3
330
56F1
100
AcDbEntity
  8
0
100
AcDbBlockEnd
  0
BLOCK
  5
5704
330
5703
100
AcDbEntity
  8
0
100
AcDbBlockBegin
  2
*D53
 70
     1
 10
0.0
 20
0.0
 30
0.0
  3
*D53
  1

  0
LINE
  5
5706
330
5703
100
AcDbEntity
  8
寸法
 62
     0
370
    -2
100
AcDbLine
 10
149.7168748486812
 20
272.7542180784144
 30
0.0
 11
162.2662836363636
 21
272.7542180784144
 31
0.0
  0
LINE
  5
5707
330
5703
100
AcDbEntity
  8
寸法
 62
     0
370
    -2
100
AcDbLine
 10
149.7168748486817
 20
257.7542180784145
 30
0.0
 11
162.2662836363636
 21
257.7542180784145
 31
0.0
  0
LINE
  5
5708
330
5703
100
AcDbEntity
  8
寸法
 62
     0
370
    -2
100
AcDbLine
 10
162.2662836363636
 20
270.7542180784144
 30
0.0
 11
162.2662836363636
 21
259.7542180784145
 31
0.0
  0
INSERT
  5
5709
330
5703
100
AcDbEntity
  8
寸法
 62
     0
370
    -2
100
AcDbBlockReference
  2
_DOT
 10
162.2662836363636
 20
272.7542180784144
 30
0.0
 41
2.0
 42
2.0
 43
2.0
 50
90.0
  0
INSERT
  5
570A
330
5703
100
AcDbEntity
  8
寸法
 62
     0
370
    -2
100
AcDbBlockReference
  2
_DOT
 10
162.2662836363636
 20
257.7542180784145
 30
0.0
 41
2.0
 42
2.0
 43
2.0
 50
270.0
  0
MTEXT
  5
570B
330
5703
100
AcDbEntity
  8
寸法
 62
     0
100
AcDbMText
 10
154.7662836363636
 20
265.2542180784145
 30
0.0
 40
5.0
 41
0.0
 46
0.0
 71
     5
 72
     1
  1
\A1;15
  7
ＭＳ ゴシック
 11
0.0
 21
1.0
 31
0.0
 73
     1
 44
1.0
  0
POINT
  5
570C
330
5703
100
AcDbEntity
  8
Defpoints
 62
     0
100
AcDbPoint
 10
144.7168748486812
 20
272.7542180784144
 30
0.0
  0
POINT
  5
570D
330
5703
100
AcDbEntity
  8
Defpoints
 62
     0
100
AcDbPoint
 10
144.7168748486817
 20
257.7542180784145
 30
0.0
  0
POINT
  5
570E
330
5703
100
AcDbEntity
  8
Defpoints
 62
     0
100
AcDbPoint
 10
162.2662836363636
 20
257.7542180784145
 30
0.0
  0
ENDBLK
  5
5705
330
5703
100
AcDbEntity
  8
0
100
AcDbBlockEnd
  0
BLOCK
  5
5745
330
5744
100
AcDbEntity
  8
0
100
AcDbBlockBegin
  2
*D54
 70
     1
 10
0.0
 20
0.0
 30
0.0
  3
*D54
  1

  0
LINE
  5
5747
330
5744
100
AcDbEntity
  8
寸法
 62
     0
370
    -2
100
AcDbLine
 10
840.7666909090905
 20
285.1859927272727
 30
0.0
 11
840.7666909090905
 21
285.4021936589729
 31
0.0
  0
LINE
  5
5748
330
5744
100
AcDbEntity
  8
寸法
 62
     0
370
    -2
100
AcDbLine
 10
836.7666909090908
 20
285.1859927272727
 30
0.0
 11
836.7666909090908
 21
285.4021936589729
 31
0.0
  0
LINE
  5
5749
330
5744
100
AcDbEntity
  8
寸法
 62
     0
370
    -2
100
AcDbLine
 10
842.7666909090905
 20
285.4021936589729
 30
0.0
 11
844.7666909090905
 21
285.4021936589729
 31
0.0
  0
LINE
  5
574A
330
5744
100
AcDbEntity
  8
寸法
 62
     0
370
    -2
100
AcDbLine
 10
834.7666909090908
 20
285.4021936589729
 30
0.0
 11
832.7666909090908
 21
285.4021936589729
 31
0.0
  0
INSERT
  5
574B
330
5744
100
AcDbEntity
  8
寸法
 62
     0
370
    -2
100
AcDbBlockReference
  2
_DOT
 10
840.7666909090905
 20
285.4021936589729
 30
0.0
 41
2.0
 42
2.0
 43
2.0
 50
180.0
  0
INSERT
  5
574C
330
5744
100
AcDbEntity
  8
寸法
 62
     0
370
    -2
100
AcDbBlockReference
  2
_DOT
 10
836.7666909090908
 20
285.4021936589729
 30
0.0
 41
2.0
 42
2.0
 43
2.0
  0
MTEXT
  5
574D
330
5744
100
AcDbEntity
  8
寸法
 62
     0
100
AcDbMText
 10
838.7666909090906
 20
292.9021936589729
 30
0.0
 40
5.0
 41
0.0
 46
0.0
 71
     5
 72
     1
  1
\A1;4
  7
ＭＳ ゴシック
 73
     1
 44
1.0
  0
POINT
  5
574E
330
5744
100
AcDbEntity
  8
Defpoints
 62
     0
100
AcDbPoint
 10
840.7666909090905
 20
280.1859927272727
 30
0.0
  0
POINT
  5
574F
330
5744
100
AcDbEntity
  8
Defpoints
 62
     0
100
AcDbPoint
 10
836.7666909090908
 20
280.1859927272727
 30
0.0
  0
POINT
  5
5750
330
5744
100
AcDbEntity
  8
Defpoints
 62
     0
100
AcDbPoint
 10
836.7666909090908
 20
285.4021936589729
 30
0.0
  0
ENDBLK
  5
5746
330
5744
100
AcDbEntity
  8
0
100
AcDbBlockEnd
  0
BLOCK
  5
577A
330
5779
100
AcDbEntity
  8
0
100
AcDbBlockBegin
  2
*D55
 70
     1
 10
0.0
 20
0.0
 30
0.0
  3
*D55
  1

  0
LINE
  5
577C
330
5779
100
AcDbEntity
  8
寸法
 62
     0
370
    -2
100
AcDbLine
 10
836.7666909090908
 20
285.1859927272727
 30
0.0
 11
836.7666909090908
 21
295.4280457677729
 31
0.0
  0
LINE
  5
577D
330
5779
100
AcDbEntity
  8
寸法
 62
     0
370
    -2
100
AcDbLine
 10
852.7666909090904
 20
285.1859927272727
 30
0.0
 11
852.7666909090904
 21
295.4280457677729
 31
0.0
  0
LINE
  5
577E
330
5779
100
AcDbEntity
  8
寸法
 62
     0
370
    -2
100
AcDbLine
 10
838.7666909090908
 20
295.4280457677729
 30
0.0
 11
850.7666909090904
 21
295.4280457677729
 31
0.0
  0
INSERT
  5
577F
330
5779
100
AcDbEntity
  8
寸法
 62
     0
370
    -2
100
AcDbBlockReference
  2
_DOT
 10
836.7666909090908
 20
295.4280457677729
 30
0.0
 41
2.0
 42
2.0
 43
2.0
 50
180.0
  0
INSERT
  5
5780
330
5779
100
AcDbEntity
  8
寸法
 62
     0
370
    -2
100
AcDbBlockReference
  2
_DOT
 10
852.7666909090904
 20
295.4280457677729
 30
0.0
 41
2.0
 42
2.0
 43
2.0
  0
MTEXT
  5
5781
330
5779
100
AcDbEntity
  8
寸法
 62
     0
100
AcDbMText
 10
844.7666909090906
 20
302.9280457677729
 30
0.0
 40
5.0
 41
0.0
 46
0.0
 71
     5
 72
     1
  1
\A1;16
  7
ＭＳ ゴシック
 73
     1
 44
1.0
  0
POINT
  5
5782
330
5779
100
AcDbEntity
  8
Defpoints
 62
     0
100
AcDbPoint
 10
836.7666909090908
 20
280.1859927272727
 30
0.0
  0
POINT
  5
5783
330
5779
100
AcDbEntity
  8
Defpoints
 62
     0
100
AcDbPoint
 10
852.7666909090904
 20
280.1859927272727
 30
0.0
  0
POINT
  5
5784
330
5779
100
AcDbEntity
  8
Defpoints
 62
     0
100
AcDbPoint
 10
852.7666909090904
 20
295.4280457677729
 30
0.0
  0
ENDBLK
  5
577B
330
5779
100
AcDbEntity
  8
0
100
AcDbBlockEnd
  0
BLOCK
  5
578F
330
578E
100
AcDbEntity
  8
0
100
AcDbBlockBegin
  2
*D56
 70
     1
 10
0.0
 20
0.0
 30
0.0
  3
*D56
  1

  0
LINE
  5
5791
330
578E
100
AcDbEntity
  8
寸法
 62
     0
370
    -2
100
AcDbLine
 10
291.0280545454545
 20
619.6320154545454
 30
0.0
 11
291.0280545454545
 21
630.0766343132273
 31
0.0
  0
LINE
  5
5792
330
578E
100
AcDbEntity
  8
寸法
 62
     0
370
    -2
100
AcDbLine
 10
307.0280545454541
 20
619.6320154545454
 30
0.0
 11
307.0280545454541
 21
630.0766343132273
 31
0.0
  0
LINE
  5
5793
330
578E
100
AcDbEntity
  8
寸法
 62
     0
370
    -2
100
AcDbLine
 10
293.0280545454545
 20
630.0766343132273
 30
0.0
 11
305.0280545454541
 21
630.0766343132273
 31
0.0
  0
INSERT
  5
5794
330
578E
100
AcDbEntity
  8
寸法
 62
     0
370
    -2
100
AcDbBlockReference
  2
_DOT
 10
291.0280545454545
 20
630.0766343132273
 30
0.0
 41
2.0
 42
2.0
 43
2.0
 50
180.0
  0
INSERT
  5
5795
330
578E
100
AcDbEntity
  8
寸法
 62
     0
370
    -2
100
AcDbBlockReference
  2
_DOT
 10
307.0280545454541
 20
630.0766343132273
 30
0.0
 41
2.0
 42
2.0
 43
2.0
  0
MTEXT
  5
5796
330
578E
100
AcDbEntity
  8
寸法
 62
     0
100
AcDbMText
 10
299.0280545454543
 20
637.5766343132273
 30
0.0
 40
5.0
 41
0.0
 46
0.0
 71
     5
 72
     1
  1
\A1;A
  7
ＭＳ ゴシック
 73
     1
 44
1.0
  0
POINT
  5
5797
330
578E
100
AcDbEntity
  8
Defpoints
 62
     0
100
AcDbPoint
 10
291.0280545454545
 20
614.6320154545454
 30
0.0
  0
POINT
  5
5798
330
578E
100
AcDbEntity
  8
Defpoints
 62
     0
100
AcDbPoint
 10
307.0280545454541
 20
614.6320154545454
 30
0.0
  0
POINT
  5
5799
330
578E
100
AcDbEntity
  8
Defpoints
 62
     0
100
AcDbPoint
 10
307.0280545454541
 20
630.0766343132273
 30
0.0
  0
ENDBLK
  5
5790
330
578E
100
AcDbEntity
  8
0
100
AcDbBlockEnd
  0
BLOCK
  5
57A1
330
57A0
100
AcDbEntity
  8
0
100
AcDbBlockBegin
  2
*D57
 70
     1
 10
0.0
 20
0.0
 30
0.0
  3
*D57
  1

  0
LINE
  5
57A3
330
57A0
100
AcDbEntity
  8
寸法
 62
     0
370
    -2
100
AcDbLine
 10
163.4203454545455
 20
614.6320154545454
 30
0.0
 11
124.8598536109614
 21
614.6320154545454
 31
0.0
  0
LINE
  5
57A4
330
57A0
100
AcDbEntity
  8
寸法
 62
     0
370
    -2
100
AcDbLine
 10
163.4203454545455
 20
539.6320154545452
 30
0.0
 11
124.8598536109614
 21
539.6320154545452
 31
0.0
  0
LINE
  5
57A5
330
57A0
100
AcDbEntity
  8
寸法
 62
     0
370
    -2
100
AcDbLine
 10
124.8598536109614
 20
612.6320154545454
 30
0.0
 11
124.8598536109614
 21
541.6320154545452
 31
0.0
  0
INSERT
  5
57A6
330
57A0
100
AcDbEntity
  8
寸法
 62
     0
370
    -2
100
AcDbBlockReference
  2
_DOT
 10
124.8598536109614
 20
614.6320154545454
 30
0.0
 41
2.0
 42
2.0
 43
2.0
 50
90.0
  0
INSERT
  5
57A7
330
57A0
100
AcDbEntity
  8
寸法
 62
     0
370
    -2
100
AcDbBlockReference
  2
_DOT
 10
124.8598536109614
 20
539.6320154545452
 30
0.0
 41
2.0
 42
2.0
 43
2.0
 50
270.0
  0
MTEXT
  5
57A8
330
57A0
100
AcDbEntity
  8
寸法
 62
     0
100
AcDbMText
 10
117.3598536109614
 20
577.1320154545454
 30
0.0
 40
5.0
 41
0.0
 46
0.0
 71
     5
 72
     1
  1
\A1;%%c75
  7
ＭＳ ゴシック
 11
0.0
 21
1.0
 31
0.0
 73
     1
 44
1.0
  0
POINT
  5
57A9
330
57A0
100
AcDbEntity
  8
Defpoints
 62
     0
100
AcDbPoint
 10
168.4203454545455
 20
614.6320154545454
 30
0.0
  0
POINT
  5
57AA
330
57A0
100
AcDbEntity
  8
Defpoints
 62
     0
100
AcDbPoint
 10
168.4203454545455
 20
539.6320154545452
 30
0.0
  0
POINT
  5
57AB
330
57A0
100
AcDbEntity
  8
Defpoints
 62
     0
100
AcDbPoint
 10
124.8598536109614
 20
539.6320154545452
 30
0.0
  0
ENDBLK
  5
57A2
330
57A0
100
AcDbEntity
  8
0
100
AcDbBlockEnd
  0
BLOCK
  5
57B3
330
57B2
100
AcDbEntity
  8
0
100
AcDbBlockBegin
  2
*D58
 70
     1
 10
0.0
 20
0.0
 30
0.0
  3
*D58
  1

  0
LINE
  5
57B5
330
57B2
100
AcDbEntity
  8
寸法
 62
     0
370
    -2
100
AcDbLine
 10
196.9179803636364
 20
601.1320154545452
 30
0.0
 11
237.891580156416
 21
601.1320154545452
 31
0.0
  0
LINE
  5
57B6
330
57B2
100
AcDbEntity
  8
寸法
 62
     0
370
    -2
100
AcDbLine
 10
196.9179803636364
 20
553.1320154545452
 30
0.0
 11
237.891580156416
 21
553.1320154545452
 31
0.0
  0
LINE
  5
57B7
330
57B2
100
AcDbEntity
  8
寸法
 62
     0
370
    -2
100
AcDbLine
 10
237.891580156416
 20
599.1320154545452
 30
0.0
 11
237.891580156416
 21
555.1320154545452
 31
0.0
  0
INSERT
  5
57B8
330
57B2
100
AcDbEntity
  8
寸法
 62
     0
370
    -2
100
AcDbBlockReference
  2
_DOT
 10
237.891580156416
 20
601.1320154545452
 30
0.0
 41
2.0
 42
2.0
 43
2.0
 50
90.0
  0
INSERT
  5
57B9
330
57B2
100
AcDbEntity
  8
寸法
 62
     0
370
    -2
100
AcDbBlockReference
  2
_DOT
 10
237.891580156416
 20
553.1320154545452
 30
0.0
 41
2.0
 42
2.0
 43
2.0
 50
270.0
  0
MTEXT
  5
57BA
330
57B2
100
AcDbEntity
  8
寸法
 62
     0
100
AcDbMText
 10
230.391580156416
 20
577.1320154545452
 30
0.0
 40
5.0
 41
0.0
 46
0.0
 71
     5
 72
     1
  1
\A1;%%c48
  7
ＭＳ ゴシック
 11
0.0
 21
1.0
 31
0.0
 73
     1
 44
1.0
  0
POINT
  5
57BB
330
57B2
100
AcDbEntity
  8
Defpoints
 62
     0
100
AcDbPoint
 10
191.9179803636364
 20
601.1320154545452
 30
0.0
  0
POINT
  5
57BC
330
57B2
100
AcDbEntity
  8
Defpoints
 62
     0
100
AcDbPoint
 10
191.9179803636364
 20
553.1320154545452
 30
0.0
  0
POINT
  5
57BD
330
57B2
100
AcDbEntity
  8
Defpoints
 62
     0
100
AcDbPoint
 10
237.891580156416
 20
553.1320154545452
 30
0.0
  0
ENDBLK
  5
57B4
330
57B2
100
AcDbEntity
  8
0
100
AcDbBlockEnd
  0
BLOCK
  5
57C5
330
57C4
100
AcDbEntity
  8
0
100
AcDbBlockBegin
  2
*D59
 70
     1
 10
0.0
 20
0.0
 30
0.0
  3
*D59
  1

  0
LINE
  5
57C7
330
57C4
100
AcDbEntity
  8
寸法
 62
     0
370
    -2
100
AcDbLine
 10
295.0280545454553
 20
534.6320154545452
 30
0.0
 11
295.0280545454553
 21
520.6910924950455
 31
0.0
  0
LINE
  5
57C8
330
57C4
100
AcDbEntity
  8
寸法
 62
     0
370
    -2
100
AcDbLine
 10
303.0280545454553
 20
534.6320154545455
 30
0.0
 11
303.0280545454553
 21
520.6910924950455
 31
0.0
  0
LINE
  5
57C9
330
57C4
100
AcDbEntity
  8
寸法
 62
     0
370
    -2
100
AcDbLine
 10
297.0280545454553
 20
520.6910924950455
 30
0.0
 11
301.0280545454553
 21
520.6910924950455
 31
0.0
  0
INSERT
  5
57CA
330
57C4
100
AcDbEntity
  8
寸法
 62
     0
370
    -2
100
AcDbBlockReference
  2
_DOT
 10
295.0280545454553
 20
520.6910924950455
 30
0.0
 41
2.0
 42
2.0
 43
2.0
 50
180.0
  0
INSERT
  5
57CB
330
57C4
100
AcDbEntity
  8
寸法
 62
     0
370
    -2
100
AcDbBlockReference
  2
_DOT
 10
303.0280545454553
 20
520.6910924950455
 30
0.0
 41
2.0
 42
2.0
 43
2.0
  0
MTEXT
  5
57CC
330
57C4
100
AcDbEntity
  8
寸法
 62
     0
100
AcDbMText
 10
299.0280545454553
 20
528.1910924950455
 30
0.0
 40
5.0
 41
0.0
 46
0.0
 71
     5
 72
     1
  1
\A1;B
  7
ＭＳ ゴシック
 73
     1
 44
1.0
  0
POINT
  5
57CD
330
57C4
100
AcDbEntity
  8
Defpoints
 62
     0
100
AcDbPoint
 10
295.0280545454553
 20
539.6320154545452
 30
0.0
  0
POINT
  5
57CE
330
57C4
100
AcDbEntity
  8
Defpoints
 62
     0
100
AcDbPoint
 10
303.0280545454553
 20
539.6320154545455
 30
0.0
  0
POINT
  5
57CF
330
57C4
100
AcDbEntity
  8
Defpoints
 62
     0
100
AcDbPoint
 10
303.0280545454553
 20
520.6910924950455
 30
0.0
  0
ENDBLK
  5
57C6
330
57C4
100
AcDbEntity
  8
0
100
AcDbBlockEnd
  0
BLOCK
  5
57D8
330
57D7
100
AcDbEntity
  8
0
100
AcDbBlockBegin
  2
*D60
 70
     1
 10
0.0
 20
0.0
 30
0.0
  3
*D60
  1

  0
LINE
  5
57DA
330
57D7
100
AcDbEntity
  8
寸法
 62
     0
370
    -2
100
AcDbLine
 10
307.028054545454
 20
534.6320154545452
 30
0.0
 11
307.028054545454
 21
520.6910924950455
 31
0.0
  0
LINE
  5
57DB
330
57D7
100
AcDbEntity
  8
寸法
 62
     0
370
    -2
100
AcDbLine
 10
303.0280545454553
 20
534.6320154545455
 30
0.0
 11
303.0280545454553
 21
520.6910924950455
 31
0.0
  0
LINE
  5
57DC
330
57D7
100
AcDbEntity
  8
寸法
 62
     0
370
    -2
100
AcDbLine
 10
305.028054545454
 20
520.6910924950455
 30
0.0
 11
305.0280545454553
 21
520.6910924950455
 31
0.0
  0
INSERT
  5
57DD
330
57D7
100
AcDbEntity
  8
寸法
 62
     0
370
    -2
100
AcDbBlockReference
  2
_DOT
 10
307.028054545454
 20
520.6910924950455
 30
0.0
 41
2.0
 42
2.0
 43
2.0
  0
INSERT
  5
57DE
330
57D7
100
AcDbEntity
  8
寸法
 62
     0
370
    -2
100
AcDbBlockReference
  2
_DOT
 10
303.0280545454553
 20
520.6910924950455
 30
0.0
 41
2.0
 42
2.0
 43
2.0
 50
180.0
  0
MTEXT
  5
57DF
330
57D7
100
AcDbEntity
  8
寸法
 62
     0
100
AcDbMText
 10
305.0280545454553
 20
528.1910924950455
 30
0.0
 40
5.0
 41
0.0
 46
0.0
 71
     5
 72
     1
  1
\A1;4
  7
ＭＳ ゴシック
 73
     1
 44
1.0
  0
POINT
  5
57E0
330
57D7
100
AcDbEntity
  8
Defpoints
 62
     0
100
AcDbPoint
 10
307.028054545454
 20
539.6320154545452
 30
0.0
  0
POINT
  5
57E1
330
57D7
100
AcDbEntity
  8
Defpoints
 62
     0
100
AcDbPoint
 10
303.0280545454553
 20
539.6320154545455
 30
0.0
  0
POINT
  5
57E2
330
57D7
100
AcDbEntity
  8
Defpoints
 62
     0
100
AcDbPoint
 10
303.0280545454553
 20
520.6910924950455
 30
0.0
  0
ENDBLK
  5
57D9
330
57D7
100
AcDbEntity
  8
0
100
AcDbBlockEnd
  0
BLOCK
  5
5A41
330
5A40
100
AcDbEntity
  8
0
100
AcDbBlockBegin
  2
*D61
 70
     1
 10
0.0
 20
0.0
 30
0.0
  3
*D61
  1

  0
LINE
  5
5A43
330
5A40
100
AcDbEntity
  8
寸法
 62
     0
370
    -2
100
AcDbLine
 10
897.4515752813165
 20
610.1454545454546
 30
0.0
 11
928.850120735862
 21
610.1454545454546
 31
0.0
  0
LINE
  5
5A44
330
5A40
100
AcDbEntity
  8
寸法
 62
     0
370
    -2
100
AcDbLine
 10
897.4515752813165
 20
450.1454545454546
 30
0.0
 11
928.850120735862
 21
450.1454545454546
 31
0.0
  0
LINE
  5
5A45
330
5A40
100
AcDbEntity
  8
寸法
 62
     0
370
    -2
100
AcDbLine
 10
928.850120735862
 20
608.1454545454546
 30
0.0
 11
928.850120735862
 21
452.1454545454546
 31
0.0
  0
INSERT
  5
5A46
330
5A40
100
AcDbEntity
  8
寸法
 62
     0
370
    -2
100
AcDbBlockReference
  2
_DOT
 10
928.850120735862
 20
610.1454545454546
 30
0.0
 41
2.0
 42
2.0
 43
2.0
 50
90.0
  0
INSERT
  5
5A47
330
5A40
100
AcDbEntity
  8
寸法
 62
     0
370
    -2
100
AcDbBlockReference
  2
_DOT
 10
928.850120735862
 20
450.1454545454546
 30
0.0
 41
2.0
 42
2.0
 43
2.0
 50
270.0
  0
MTEXT
  5
5A48
330
5A40
100
AcDbEntity
  8
寸法
 62
     0
100
AcDbMText
 10
921.350120735862
 20
530.1454545454546
 30
0.0
 40
5.0
 41
0.0
 46
0.0
 71
     5
 72
     1
  1
\A1;160
  7
ＭＳ ゴシック
 11
0.0
 21
1.0
 31
0.0
 73
     1
 44
1.0
  0
POINT
  5
5A49
330
5A40
100
AcDbEntity
  8
Defpoints
 62
     0
100
AcDbPoint
 10
892.4515752813165
 20
610.1454545454546
 30
0.0
  0
POINT
  5
5A4A
330
5A40
100
AcDbEntity
  8
Defpoints
 62
     0
100
AcDbPoint
 10
892.4515752813165
 20
450.1454545454546
 30
0.0
  0
POINT
  5
5A4B
330
5A40
100
AcDbEntity
  8
Defpoints
 62
     0
100
AcDbPoint
 10
928.850120735862
 20
450.1454545454546
 30
0.0
  0
ENDBLK
  5
5A42
330
5A40
100
AcDbEntity
  8
0
100
AcDbBlockEnd
  0
BLOCK
  5
5A50
330
5A4F
100
AcDbEntity
  8
0
100
AcDbBlockBegin
  2
*D62
 70
     1
 10
0.0
 20
0.0
 30
0.0
  3
*D62
  1

  0
LINE
  5
5A52
330
5A4F
100
AcDbEntity
  8
寸法
 62
     0
370
    -2
100
AcDbLine
 10
693.8963951363638
 20
317.4859090909093
 30
0.0
 11
693.8963951363638
 21
302.5928744307945
 31
0.0
  0
LINE
  5
5A53
330
5A4F
100
AcDbEntity
  8
寸法
 62
     0
370
    -2
100
AcDbLine
 10
873.8963951363638
 20
317.4859090909093
 30
0.0
 11
873.8963951363638
 21
302.5928744307945
 31
0.0
  0
LINE
  5
5A54
330
5A4F
100
AcDbEntity
  8
寸法
 62
     0
370
    -2
100
AcDbLine
 10
695.8963951363638
 20
302.5928744307945
 30
0.0
 11
871.8963951363638
 21
302.5928744307945
 31
0.0
  0
INSERT
  5
5A55
330
5A4F
100
AcDbEntity
  8
寸法
 62
     0
370
    -2
100
AcDbBlockReference
  2
_DOT
 10
693.8963951363638
 20
302.5928744307945
 30
0.0
 41
2.0
 42
2.0
 43
2.0
 50
180.0
  0
INSERT
  5
5A56
330
5A4F
100
AcDbEntity
  8
寸法
 62
     0
370
    -2
100
AcDbBlockReference
  2
_DOT
 10
873.8963951363638
 20
302.5928744307945
 30
0.0
 41
2.0
 42
2.0
 43
2.0
  0
MTEXT
  5
5A57
330
5A4F
100
AcDbEntity
  8
寸法
 62
     0
100
AcDbMText
 10
783.8963951363638
 20
310.0928744307945
 30
0.0
 40
5.0
 41
0.0
 46
0.0
 71
     5
 72
     1
  1
\A1;180
  7
ＭＳ ゴシック
 73
     1
 44
1.0
  0
POINT
  5
5A58
330
5A4F
100
AcDbEntity
  8
Defpoints
 62
     0
100
AcDbPoint
 10
693.8963951363638
 20
322.4859090909093
 30
0.0
  0
POINT
  5
5A59
330
5A4F
100
AcDbEntity
  8
Defpoints
 62
     0
100
AcDbPoint
 10
873.8963951363638
 20
322.4859090909093
 30
0.0
  0
POINT
  5
5A5A
330
5A4F
100
AcDbEntity
  8
Defpoints
 62
     0
100
AcDbPoint
 10
873.8963951363638
 20
302.5928744307945
 30
0.0
  0
ENDBLK
  5
5A51
330
5A4F
100
AcDbEntity
  8
0
100
AcDbBlockEnd
  0
BLOCK
  5
5A5F
330
5A5E
100
AcDbEntity
  8
0
100
AcDbBlockBegin
  2
*D63
 70
     1
 10
0.0
 20
0.0
 30
0.0
  3
*D63
  1

  0
LINE
  5
5A61
330
5A5E
100
AcDbEntity
  8
寸法
 62
     0
370
    -2
100
AcDbLine
 10
878.8963951363638
 20
332.4859090909093
 30
0.0
 11
896.2861860767721
 21
332.4859090909093
 31
0.0
  0
LINE
  5
5A62
330
5A5E
100
AcDbEntity
  8
寸法
 62
     0
370
    -2
100
AcDbLine
 10
878.8963951363638
 20
322.4859090909093
 30
0.0
 11
896.2861860767721
 21
322.4859090909093
 31
0.0
  0
LINE
  5
5A63
330
5A5E
100
AcDbEntity
  8
寸法
 62
     0
370
    -2
100
AcDbLine
 10
896.2861860767721
 20
330.4859090909093
 30
0.0
 11
896.2861860767721
 21
324.4859090909093
 31
0.0
  0
INSERT
  5
5A64
330
5A5E
100
AcDbEntity
  8
寸法
 62
     0
370
    -2
100
AcDbBlockReference
  2
_DOT
 10
896.2861860767721
 20
332.4859090909093
 30
0.0
 41
2.0
 42
2.0
 43
2.0
 50
90.0
  0
INSERT
  5
5A65
330
5A5E
100
AcDbEntity
  8
寸法
 62
     0
370
    -2
100
AcDbBlockReference
  2
_DOT
 10
896.2861860767721
 20
322.4859090909093
 30
0.0
 41
2.0
 42
2.0
 43
2.0
 50
270.0
  0
MTEXT
  5
5A66
330
5A5E
100
AcDbEntity
  8
寸法
 62
     0
100
AcDbMText
 10
888.7861860767721
 20
327.4859090909094
 30
0.0
 40
5.0
 41
0.0
 46
0.0
 71
     5
 72
     1
  1
\A1;x
  7
ＭＳ ゴシック
 11
0.0
 21
1.0
 31
0.0
 73
     1
 44
1.0
  0
POINT
  5
5A67
330
5A5E
100
AcDbEntity
  8
Defpoints
 62
     0
100
AcDbPoint
 10
873.8963951363638
 20
332.4859090909093
 30
0.0
  0
POINT
  5
5A68
330
5A5E
100
AcDbEntity
  8
Defpoints
 62
     0
100
AcDbPoint
 10
873.8963951363638
 20
322.4859090909093
 30
0.0
  0
POINT
  5
5A69
330
5A5E
100
AcDbEntity
  8
Defpoints
 62
     0
100
AcDbPoint
 10
896.2861860767721
 20
322.4859090909093
 30
0.0
  0
ENDBLK
  5
5A60
330
5A5E
100
AcDbEntity
  8
0
100
AcDbBlockEnd
  0
BLOCK
  5
5A6F
330
5A6E
100
AcDbEntity
  8
0
100
AcDbBlockBegin
  2
*D64
 70
     1
 10
0.0
 20
0.0
 30
0.0
  3
*D64
  1

  0
LINE
  5
5A71
330
5A6E
100
AcDbEntity
  8
寸法
 62
     0
370
    -2
100
AcDbLine
 10
733.8963951363638
 20
377.4859090909093
 30
0.0
 11
896.2861860767721
 21
377.4859090909093
 31
0.0
  0
LINE
  5
5A72
330
5A6E
100
AcDbEntity
  8
寸法
 62
     0
370
    -2
100
AcDbLine
 10
883.8963951363638
 20
332.4859090909093
 30
0.0
 11
896.2861860767721
 21
332.4859090909093
 31
0.0
  0
LINE
  5
5A73
330
5A6E
100
AcDbEntity
  8
寸法
 62
     0
370
    -2
100
AcDbLine
 10
896.2861860767721
 20
375.4859090909093
 30
0.0
 11
896.2861860767721
 21
334.4859090909093
 31
0.0
  0
INSERT
  5
5A74
330
5A6E
100
AcDbEntity
  8
寸法
 62
     0
370
    -2
100
AcDbBlockReference
  2
_DOT
 10
896.2861860767721
 20
377.4859090909093
 30
0.0
 41
2.0
 42
2.0
 43
2.0
 50
90.0
  0
INSERT
  5
5A75
330
5A6E
100
AcDbEntity
  8
寸法
 62
     0
370
    -2
100
AcDbBlockReference
  2
_DOT
 10
896.2861860767721
 20
332.4859090909093
 30
0.0
 41
2.0
 42
2.0
 43
2.0
 50
270.0
  0
MTEXT
  5
5A76
330
5A6E
100
AcDbEntity
  8
寸法
 62
     0
100
AcDbMText
 10
888.7861860767721
 20
354.9859090909093
 30
0.0
 40
5.0
 41
0.0
 46
0.0
 71
     5
 72
     1
  1
\A1;45
  7
ＭＳ ゴシック
 11
0.0
 21
1.0
 31
0.0
 73
     1
 44
1.0
  0
POINT
  5
5A77
330
5A6E
100
AcDbEntity
  8
Defpoints
 62
     0
100
AcDbPoint
 10
728.8963951363638
 20
377.4859090909093
 30
0.0
  0
POINT
  5
5A78
330
5A6E
100
AcDbEntity
  8
Defpoints
 62
     0
100
AcDbPoint
 10
878.8963951363638
 20
332.4859090909093
 30
0.0
  0
POINT
  5
5A79
330
5A6E
100
AcDbEntity
  8
Defpoints
 62
     0
100
AcDbPoint
 10
896.2861860767721
 20
332.4859090909093
 30
0.0
  0
ENDBLK
  5
5A70
330
5A6E
100
AcDbEntity
  8
0
100
AcDbBlockEnd
  0
BLOCK
  5
5A7E
330
5A7D
100
AcDbEntity
  8
0
100
AcDbBlockBegin
  2
*D65
 70
     1
 10
0.0
 20
0.0
 30
0.0
  3
*D65
  1

  0
LINE
  5
5A80
330
5A7D
100
AcDbEntity
  8
寸法
 62
     0
370
    -2
100
AcDbLine
 10
688.8963951363638
 20
322.4859090909093
 30
0.0
 11
673.2264042585904
 21
322.4859090909093
 31
0.0
  0
LINE
  5
5A81
330
5A7D
100
AcDbEntity
  8
寸法
 62
     0
370
    -2
100
AcDbLine
 10
688.8963951363638
 20
377.4859090909093
 30
0.0
 11
673.2264042585904
 21
377.4859090909093
 31
0.0
  0
LINE
  5
5A82
330
5A7D
100
AcDbEntity
  8
寸法
 62
     0
370
    -2
100
AcDbLine
 10
673.2264042585904
 20
324.4859090909093
 30
0.0
 11
673.2264042585904
 21
375.4859090909093
 31
0.0
  0
INSERT
  5
5A83
330
5A7D
100
AcDbEntity
  8
寸法
 62
     0
370
    -2
100
AcDbBlockReference
  2
_DOT
 10
673.2264042585904
 20
322.4859090909093
 30
0.0
 41
2.0
 42
2.0
 43
2.0
 50
270.0
  0
INSERT
  5
5A84
330
5A7D
100
AcDbEntity
  8
寸法
 62
     0
370
    -2
100
AcDbBlockReference
  2
_DOT
 10
673.2264042585904
 20
377.4859090909093
 30
0.0
 41
2.0
 42
2.0
 43
2.0
 50
90.0
  0
MTEXT
  5
5A85
330
5A7D
100
AcDbEntity
  8
寸法
 62
     0
100
AcDbMText
 10
665.7264042585904
 20
349.9859090909093
 30
0.0
 40
5.0
 41
0.0
 46
0.0
 71
     5
 72
     1
  1
\A1;55
  7
ＭＳ ゴシック
 11
0.0
 21
1.0
 31
0.0
 73
     1
 44
1.0
  0
POINT
  5
5A86
330
5A7D
100
AcDbEntity
  8
Defpoints
 62
     0
100
AcDbPoint
 10
693.8963951363638
 20
322.4859090909093
 30
0.0
  0
POINT
  5
5A87
330
5A7D
100
AcDbEntity
  8
Defpoints
 62
     0
100
AcDbPoint
 10
693.8963951363638
 20
377.4859090909093
 30
0.0
  0
POINT
  5
5A88
330
5A7D
100
AcDbEntity
  8
Defpoints
 62
     0
100
AcDbPoint
 10
673.2264042585904
 20
377.4859090909093
 30
0.0
  0
ENDBLK
  5
5A7F
330
5A7D
100
AcDbEntity
  8
0
100
AcDbBlockEnd
  0
BLOCK
  5
5A8D
330
5A8C
100
AcDbEntity
  8
0
100
AcDbBlockBegin
  2
*D66
 70
     1
 10
0.0
 20
0.0
 30
0.0
  3
*D66
  1

  0
LINE
  5
5A8F
330
5A8C
100
AcDbEntity
  8
寸法
 62
     0
370
    -2
100
AcDbLine
 10
693.8963951363638
 20
382.4859090909093
 30
0.0
 11
693.8963951363638
 21
388.3602546780672
 31
0.0
  0
LINE
  5
5A90
330
5A8C
100
AcDbEntity
  8
寸法
 62
     0
370
    -2
100
AcDbLine
 10
728.8963951363638
 20
382.4859090909093
 30
0.0
 11
728.8963951363638
 21
388.3602546780672
 31
0.0
  0
LINE
  5
5A91
330
5A8C
100
AcDbEntity
  8
寸法
 62
     0
370
    -2
100
AcDbLine
 10
695.8963951363638
 20
388.3602546780672
 30
0.0
 11
726.8963951363638
 21
388.3602546780672
 31
0.0
  0
INSERT
  5
5A92
330
5A8C
100
AcDbEntity
  8
寸法
 62
     0
370
    -2
100
AcDbBlockReference
  2
_DOT
 10
693.8963951363638
 20
388.3602546780672
 30
0.0
 41
2.0
 42
2.0
 43
2.0
 50
180.0
  0
INSERT
  5
5A93
330
5A8C
100
AcDbEntity
  8
寸法
 62
     0
370
    -2
100
AcDbBlockReference
  2
_DOT
 10
728.8963951363638
 20
388.3602546780672
 30
0.0
 41
2.0
 42
2.0
 43
2.0
  0
MTEXT
  5
5A94
330
5A8C
100
AcDbEntity
  8
寸法
 62
     0
100
AcDbMText
 10
711.3963951363638
 20
395.8602546780672
 30
0.0
 40
5.0
 41
0.0
 46
0.0
 71
     5
 72
     1
  1
\A1;35
  7
ＭＳ ゴシック
 73
     1
 44
1.0
  0
POINT
  5
5A95
330
5A8C
100
AcDbEntity
  8
Defpoints
 62
     0
100
AcDbPoint
 10
693.8963951363638
 20
377.4859090909093
 30
0.0
  0
POINT
  5
5A96
330
5A8C
100
AcDbEntity
  8
Defpoints
 62
     0
100
AcDbPoint
 10
728.8963951363638
 20
377.4859090909093
 30
0.0
  0
POINT
  5
5A97
330
5A8C
100
AcDbEntity
  8
Defpoints
 62
     0
100
AcDbPoint
 10
728.8963951363638
 20
388.3602546780672
 30
0.0
  0
ENDBLK
  5
5A8E
330
5A8C
100
AcDbEntity
  8
0
100
AcDbBlockEnd
  0
BLOCK
  5
5AA4
330
5AA3
100
AcDbEntity
  8
0
100
AcDbBlockBegin
  2
*D67
 70
     1
 10
0.0
 20
0.0
 30
0.0
  3
*D67
  1

  0
LINE
  5
5AA6
330
5AA3
100
AcDbEntity
  8
寸法
 62
     0
370
    -2
100
AcDbLine
 10
523.7899562980429
 20
274.2511926994464
 30
0.0
 11
545.4386722958163
 21
274.2511926994464
 31
0.0
  0
LINE
  5
5AA7
330
5AA3
100
AcDbEntity
  8
寸法
 62
     0
370
    -2
100
AcDbLine
 10
523.7899562980429
 20
174.2511926994463
 30
0.0
 11
545.4386722958163
 21
174.2511926994463
 31
0.0
  0
LINE
  5
5AA8
330
5AA3
100
AcDbEntity
  8
寸法
 62
     0
370
    -2
100
AcDbLine
 10
545.4386722958163
 20
272.2511926994464
 30
0.0
 11
545.4386722958163
 21
176.2511926994463
 31
0.0
  0
INSERT
  5
5AA9
330
5AA3
100
AcDbEntity
  8
寸法
 62
     0
370
    -2
100
AcDbBlockReference
  2
_DOT
 10
545.4386722958163
 20
274.2511926994464
 30
0.0
 41
2.0
 42
2.0
 43
2.0
 50
90.0
  0
INSERT
  5
5AAA
330
5AA3
100
AcDbEntity
  8
寸法
 62
     0
370
    -2
100
AcDbBlockReference
  2
_DOT
 10
545.4386722958163
 20
174.2511926994463
 30
0.0
 41
2.0
 42
2.0
 43
2.0
 50
270.0
  0
MTEXT
  5
5AAB
330
5AA3
100
AcDbEntity
  8
寸法
 62
     0
100
AcDbMText
 10
537.9386722958163
 20
224.2511926994464
 30
0.0
 40
5.0
 41
0.0
 46
0.0
 71
     5
 72
     1
  1
\A1;100
  7
ＭＳ ゴシック
 11
0.0
 21
1.0
 31
0.0
 73
     1
 44
1.0
  0
POINT
  5
5AAC
330
5AA3
100
AcDbEntity
  8
Defpoints
 62
     0
100
AcDbPoint
 10
518.7899562980429
 20
274.2511926994464
 30
0.0
  0
POINT
  5
5AAD
330
5AA3
100
AcDbEntity
  8
Defpoints
 62
     0
100
AcDbPoint
 10
518.7899562980429
 20
174.2511926994463
 30
0.0
  0
POINT
  5
5AAE
330
5AA3
100
AcDbEntity
  8
Defpoints
 62
     0
100
AcDbPoint
 10
545.4386722958163
 20
174.2511926994463
 30
0.0
  0
ENDBLK
  5
5AA5
330
5AA3
100
AcDbEntity
  8
0
100
AcDbBlockEnd
  0
BLOCK
  5
5AB3
330
5AB2
100
AcDbEntity
  8
0
100
AcDbBlockBegin
  2
*D68
 70
     1
 10
0.0
 20
0.0
 30
0.0
  3
*D68
  1

  0
LINE
  5
5AB5
330
5AB2
100
AcDbEntity
  8
寸法
 62
     0
370
    -2
100
AcDbLine
 10
884.2047587727272
 20
293.5687500000005
 30
0.0
 11
899.0006885931357
 21
293.5687500000005
 31
0.0
  0
LINE
  5
5AB6
330
5AB2
100
AcDbEntity
  8
寸法
 62
     0
370
    -2
100
AcDbLine
 10
880.8661431385901
 20
133.5687500000004
 30
0.0
 11
899.0006885931357
 21
133.5687500000004
 31
0.0
  0
LINE
  5
5AB7
330
5AB2
100
AcDbEntity
  8
寸法
 62
     0
370
    -2
100
AcDbLine
 10
899.0006885931357
 20
291.5687500000005
 30
0.0
 11
899.0006885931357
 21
135.5687500000004
 31
0.0
  0
INSERT
  5
5AB8
330
5AB2
100
AcDbEntity
  8
寸法
 62
     0
370
    -2
100
AcDbBlockReference
  2
_DOT
 10
899.0006885931357
 20
293.5687500000005
 30
0.0
 41
2.0
 42
2.0
 43
2.0
 50
90.0
  0
INSERT
  5
5AB9
330
5AB2
100
AcDbEntity
  8
寸法
 62
     0
370
    -2
100
AcDbBlockReference
  2
_DOT
 10
899.0006885931357
 20
133.5687500000004
 30
0.0
 41
2.0
 42
2.0
 43
2.0
 50
270.0
  0
MTEXT
  5
5ABA
330
5AB2
100
AcDbEntity
  8
寸法
 62
     0
100
AcDbMText
 10
891.5006885931357
 20
213.5687500000005
 30
0.0
 40
5.0
 41
0.0
 46
0.0
 71
     5
 72
     1
  1
\A1;160
  7
ＭＳ ゴシック
 11
0.0
 21
1.0
 31
0.0
 73
     1
 44
1.0
  0
POINT
  5
5ABB
330
5AB2
100
AcDbEntity
  8
Defpoints
 62
     0
100
AcDbPoint
 10
879.2047587727272
 20
293.5687500000005
 30
0.0
  0
POINT
  5
5ABC
330
5AB2
100
AcDbEntity
  8
Defpoints
 62
     0
100
AcDbPoint
 10
875.8661431385901
 20
133.5687500000004
 30
0.0
  0
POINT
  5
5ABD
330
5AB2
100
AcDbEntity
  8
Defpoints
 62
     0
100
AcDbPoint
 10
899.0006885931357
 20
133.5687500000004
 30
0.0
  0
ENDBLK
  5
5AB4
330
5AB2
100
AcDbEntity
  8
0
100
AcDbBlockEnd
  0
BLOCK
  5
5AC2
330
5AC1
100
AcDbEntity
  8
0
100
AcDbBlockBegin
  2
*D69
 70
     1
 10
0.0
 20
0.0
 30
0.0
  3
*D69
  1

  0
LINE
  5
5AC4
330
5AC1
100
AcDbEntity
  8
寸法
 62
     0
370
    -2
100
AcDbLine
 10
711.3963951363637
 20
147.4271206119693
 30
0.0
 11
711.3963951363637
 21
114.4414737035219
 31
0.0
  0
LINE
  5
5AC5
330
5AC1
100
AcDbEntity
  8
寸法
 62
     0
370
    -2
100
AcDbLine
 10
693.8963951363637
 20
133.3442402489765
 30
0.0
 11
693.8963951363637
 21
114.4414737035219
 31
0.0
  0
LINE
  5
5AC6
330
5AC1
100
AcDbEntity
  8
寸法
 62
     0
370
    -2
100
AcDbLine
 10
709.3963951363637
 20
114.4414737035219
 30
0.0
 11
695.8963951363637
 21
114.4414737035219
 31
0.0
  0
INSERT
  5
5AC7
330
5AC1
100
AcDbEntity
  8
寸法
 62
     0
370
    -2
100
AcDbBlockReference
  2
_DOT
 10
711.3963951363637
 20
114.4414737035219
 30
0.0
 41
2.0
 42
2.0
 43
2.0
  0
INSERT
  5
5AC8
330
5AC1
100
AcDbEntity
  8
寸法
 62
     0
370
    -2
100
AcDbBlockReference
  2
_DOT
 10
693.8963951363637
 20
114.4414737035219
 30
0.0
 41
2.0
 42
2.0
 43
2.0
 50
180.0
  0
MTEXT
  5
5AC9
330
5AC1
100
AcDbEntity
  8
寸法
 62
     0
100
AcDbMText
 10
702.6463951363637
 20
121.9414737035219
 30
0.0
 40
5.0
 41
0.0
 46
0.0
 71
     5
 72
     1
  1
\A1;17.5
  7
ＭＳ ゴシック
 73
     1
 44
1.0
  0
POINT
  5
5ACA
330
5AC1
100
AcDbEntity
  8
Defpoints
 62
     0
100
AcDbPoint
 10
711.3963951363637
 20
152.4271206119693
 30
0.0
  0
POINT
  5
5ACB
330
5AC1
100
AcDbEntity
  8
Defpoints
 62
     0
100
AcDbPoint
 10
693.8963951363637
 20
138.3442402489765
 30
0.0
  0
POINT
  5
5ACC
330
5AC1
100
AcDbEntity
  8
Defpoints
 62
     0
100
AcDbPoint
 10
693.8963951363637
 20
114.4414737035219
 30
0.0
  0
ENDBLK
  5
5AC3
330
5AC1
100
AcDbEntity
  8
0
100
AcDbBlockEnd
  0
BLOCK
  5
5B12
330
5B11
100
AcDbEntity
  8
0
100
AcDbBlockBegin
  2
*D70
 70
     1
 10
0.0
 20
0.0
 30
0.0
  3
*D70
  1

  0
LINE
  5
5B14
330
5B11
100
AcDbEntity
  8
寸法
 62
     0
370
    -2
100
AcDbLine
 10
853.072496158188
 20
323.8539274774217
 30
0.0
 11
900.3814688052107
 21
323.8539274774217
 31
0.0
  0
LINE
  5
5B15
330
5B11
100
AcDbEntity
  8
寸法
 62
     0
370
    -2
100
AcDbLine
 10
853.072496158188
 20
329.8539274774217
 30
0.0
 11
900.3814688052107
 21
329.8539274774217
 31
0.0
  0
LINE
  5
5B16
330
5B11
100
AcDbEntity
  8
寸法
 62
     0
370
    -2
100
AcDbLine
 10
900.3814688052107
 20
321.8539274774217
 30
0.0
 11
900.3814688052107
 21
319.8539274774217
 31
0.0
  0
LINE
  5
5B17
330
5B11
100
AcDbEntity
  8
寸法
 62
     0
370
    -2
100
AcDbLine
 10
900.3814688052107
 20
331.8539274774217
 30
0.0
 11
900.3814688052107
 21
333.8539274774217
 31
0.0
  0
INSERT
  5
5B18
330
5B11
100
AcDbEntity
  8
寸法
 62
     0
370
    -2
100
AcDbBlockReference
  2
_DOT
 10
900.3814688052107
 20
323.8539274774217
 30
0.0
 41
2.0
 42
2.0
 43
2.0
 50
90.0
  0
INSERT
  5
5B19
330
5B11
100
AcDbEntity
  8
寸法
 62
     0
370
    -2
100
AcDbBlockReference
  2
_DOT
 10
900.3814688052107
 20
329.8539274774217
 30
0.0
 41
2.0
 42
2.0
 43
2.0
 50
270.0
  0
MTEXT
  5
5B1A
330
5B11
100
AcDbEntity
  8
寸法
 62
     0
100
AcDbMText
 10
892.8814688052107
 20
326.8539274774217
 30
0.0
 40
5.0
 41
0.0
 46
0.0
 71
     5
 72
     1
  1
\A1;6
  7
ＭＳ ゴシック
 11
0.0
 21
1.0
 31
0.0
 73
     1
 44
1.0
  0
POINT
  5
5B1B
330
5B11
100
AcDbEntity
  8
Defpoints
 62
     0
100
AcDbPoint
 10
848.072496158188
 20
323.8539274774217
 30
0.0
  0
POINT
  5
5B1C
330
5B11
100
AcDbEntity
  8
Defpoints
 62
     0
100
AcDbPoint
 10
848.072496158188
 20
329.8539274774217
 30
0.0
  0
POINT
  5
5B1D
330
5B11
100
AcDbEntity
  8
Defpoints
 62
     0
100
AcDbPoint
 10
900.3814688052107
 20
329.8539274774217
 30
0.0
  0
ENDBLK
  5
5B13
330
5B11
100
AcDbEntity
  8
0
100
AcDbBlockEnd
  0
BLOCK
  5
5D2F
330
5D2E
100
AcDbEntity
  8
0
100
AcDbBlockBegin
  2
*D71
 70
     1
 10
0.0
 20
0.0
 30
0.0
  3
*D71
  1

  0
LINE
  5
5D31
330
5D2E
100
AcDbEntity
  8
寸法
 62
     0
370
    -2
100
AcDbLine
 10
186.6228566327154
 20
151.6771590141578
 30
0.0
 11
215.6785163324409
 21
151.6771590141578
 31
0.0
  0
LINE
  5
5D32
330
5D2E
100
AcDbEntity
  8
寸法
 62
     0
370
    -2
100
AcDbLine
 10
186.6228566327154
 20
296.6771590141578
 30
0.0
 11
215.6785163324409
 21
296.6771590141578
 31
0.0
  0
LINE
  5
5D33
330
5D2E
100
AcDbEntity
  8
寸法
 62
     0
370
    -2
100
AcDbLine
 10
215.6785163324409
 20
153.6771590141578
 30
0.0
 11
215.6785163324409
 21
294.6771590141578
 31
0.0
  0
INSERT
  5
5D34
330
5D2E
100
AcDbEntity
  8
寸法
 62
     0
370
    -2
100
AcDbBlockReference
  2
_DOT
 10
215.6785163324409
 20
151.6771590141578
 30
0.0
 41
2.0
 42
2.0
 43
2.0
 50
270.0
  0
INSERT
  5
5D35
330
5D2E
100
AcDbEntity
  8
寸法
 62
     0
370
    -2
100
AcDbBlockReference
  2
_DOT
 10
215.6785163324409
 20
296.6771590141578
 30
0.0
 41
2.0
 42
2.0
 43
2.0
 50
90.00000000000001
  0
MTEXT
  5
5D36
330
5D2E
100
AcDbEntity
  8
寸法
 62
     0
100
AcDbMText
 10
208.1785163324409
 20
224.1771590141578
 30
0.0
 40
5.0
 41
0.0
 46
0.0
 71
     5
 72
     1
  1
\A1;145
  7
ＭＳ ゴシック
 11
-1.960117891752000E-16
 21
1.0
 31
0.0
 73
     1
 44
1.0
  0
POINT
  5
5D37
330
5D2E
100
AcDbEntity
  8
Defpoints
 62
     0
100
AcDbPoint
 10
181.6228566327154
 20
151.6771590141578
 30
0.0
  0
POINT
  5
5D38
330
5D2E
100
AcDbEntity
  8
Defpoints
 62
     0
100
AcDbPoint
 10
181.6228566327154
 20
296.6771590141578
 30
0.0
  0
POINT
  5
5D39
330
5D2E
100
AcDbEntity
  8
Defpoints
 62
     0
100
AcDbPoint
 10
215.6785163324409
 20
296.6771590141578
 30
0.0
  0
ENDBLK
  5
5D30
330
5D2E
100
AcDbEntity
  8
0
100
AcDbBlockEnd
  0
BLOCK
  5
5D57
330
5D56
100
AcDbEntity
  8
0
100
AcDbBlockBegin
  2
*D72
 70
     1
 10
0.0
 20
0.0
 30
0.0
  3
*D72
  1

  0
LINE
  5
5D59
330
5D56
100
AcDbEntity
  8
寸法
 62
     0
370
    -2
100
AcDbLine
 10
1504.397449287131
 20
279.4832158760217
 30
0.0
 11
1622.539267468802
 21
279.4832158760217
 31
0.0
  0
LINE
  5
5D5A
330
5D56
100
AcDbEntity
  8
寸法
 62
     0
370
    -2
100
AcDbLine
 10
1622.850638591445
 20
298.2339179128647
 30
0.0
 11
1622.539267468802
 21
298.2339179128647
 31
0.0
  0
LINE
  5
5D5B
330
5D56
100
AcDbEntity
  8
寸法
 62
     0
370
    -2
100
AcDbLine
 10
1622.539267468802
 20
281.4832158760217
 30
0.0
 11
1622.539267468802
 21
296.2339179128647
 31
0.0
  0
INSERT
  5
5D5C
330
5D56
100
AcDbEntity
  8
寸法
 62
     0
370
    -2
100
AcDbBlockReference
  2
_DOT
 10
1622.539267468802
 20
279.4832158760217
 30
0.0
 41
2.0
 42
2.0
 43
2.0
 50
270.0
  0
INSERT
  5
5D5D
330
5D56
100
AcDbEntity
  8
寸法
 62
     0
370
    -2
100
AcDbBlockReference
  2
_DOT
 10
1622.539267468802
 20
298.2339179128647
 30
0.0
 41
2.0
 42
2.0
 43
2.0
 50
90.0
  0
MTEXT
  5
5D5E
330
5D56
100
AcDbEntity
  8
寸法
 62
     0
100
AcDbMText
 10
1615.039267468802
 20
288.8585668944432
 30
0.0
 40
5.0
 41
0.0
 46
0.0
 71
     5
 72
     1
  1
\A1;19
  7
ＭＳ ゴシック
 11
0.0
 21
1.0
 31
0.0
 73
     1
 44
1.0
  0
POINT
  5
5D5F
330
5D56
100
AcDbEntity
  8
Defpoints
 62
     0
100
AcDbPoint
 10
1499.397449287131
 20
279.4832158760217
 30
0.0
  0
POINT
  5
5D60
330
5D56
100
AcDbEntity
  8
Defpoints
 62
     0
100
AcDbPoint
 10
1617.850638591445
 20
298.2339179128647
 30
0.0
  0
POINT
  5
5D61
330
5D56
100
AcDbEntity
  8
Defpoints
 62
     0
100
AcDbPoint
 10
1622.539267468802
 20
298.2339179128647
 30
0.0
  0
ENDBLK
  5
5D58
330
5D56
100
AcDbEntity
  8
0
100
AcDbBlockEnd
  0
BLOCK
  5
5D69
330
5D68
100
AcDbEntity
  8
0
100
AcDbBlockBegin
  2
*D73
 70
     1
 10
0.0
 20
0.0
 30
0.0
  3
*D73
  1

  0
LINE
  5
5D6B
330
5D68
100
AcDbEntity
  8
寸法
 62
     0
370
    -2
100
AcDbLine
 10
64.0155645433475
 20
376.2985022658676
 30
0.0
 11
53.21694996880206
 21
376.2985022658676
 31
0.0
  0
LINE
  5
5D6C
330
5D68
100
AcDbEntity
  8
寸法
 62
     0
370
    -2
100
AcDbLine
 10
145.9745048429838
 20
308.2606578570713
 30
0.0
 11
53.21694996880206
 21
308.2606578570713
 31
0.0
  0
LINE
  5
5D6D
330
5D68
100
AcDbEntity
  8
寸法
 62
     0
370
    -2
100
AcDbLine
 10
53.21694996880206
 20
374.2985022658676
 30
0.0
 11
53.21694996880206
 21
310.2606578570713
 31
0.0
  0
INSERT
  5
5D6E
330
5D68
100
AcDbEntity
  8
寸法
 62
     0
370
    -2
100
AcDbBlockReference
  2
_DOT
 10
53.21694996880206
 20
376.2985022658676
 30
0.0
 41
2.0
 42
2.0
 43
2.0
 50
90.0
  0
INSERT
  5
5D6F
330
5D68
100
AcDbEntity
  8
寸法
 62
     0
370
    -2
100
AcDbBlockReference
  2
_DOT
 10
53.21694996880206
 20
308.2606578570713
 30
0.0
 41
2.0
 42
2.0
 43
2.0
 50
270.0
  0
MTEXT
  5
5D70
330
5D68
100
AcDbEntity
  8
寸法
 62
     0
100
AcDbMText
 10
45.71694996880206
 20
342.2795800614695
 30
0.0
 40
5.0
 41
0.0
 46
0.0
 71
     5
 72
     1
  1
\A1;68
  7
ＭＳ ゴシック
 11
1.044334578695497E-16
 21
1.0
 31
0.0
 73
     1
 44
1.0
  0
POINT
  5
5D71
330
5D68
100
AcDbEntity
  8
Defpoints
 62
     0
100
AcDbPoint
 10
69.0155645433475
 20
376.2985022658676
 30
0.0
  0
POINT
  5
5D72
330
5D68
100
AcDbEntity
  8
Defpoints
 62
     0
100
AcDbPoint
 10
150.9745048429838
 20
308.2606578570713
 30
0.0
  0
POINT
  5
5D73
330
5D68
100
AcDbEntity
  8
Defpoints
 62
     0
100
AcDbPoint
 10
53.21694996880206
 20
308.2606578570713
 30
0.0
  0
ENDBLK
  5
5D6A
330
5D68
100
AcDbEntity
  8
0
100
AcDbBlockEnd
  0
BLOCK
  5
5D78
330
5D77
100
AcDbEntity
  8
0
100
AcDbBlockBegin
  2
*D74
 70
     1
 10
0.0
 20
0.0
 30
0.0
  3
*D74
  1

  0
LINE
  5
5D7A
330
5D77
100
AcDbEntity
  8
寸法
 62
     0
370
    -2
100
AcDbLine
 10
76.57299789079279
 20
384.7266961449354
 30
0.0
 11
109.1713511813149
 21
384.7266961449354
 31
0.0
  0
LINE
  5
5D7B
330
5D77
100
AcDbEntity
  8
寸法
 62
     0
370
    -2
100
AcDbLine
 10
114.0438372579209
 20
384.4211185528516
 30
0.0
 11
109.1713511813149
 21
384.4211185528516
 31
0.0
  0
LINE
  5
5D7C
330
5D77
100
AcDbEntity
  8
寸法
 62
     0
370
    -2
100
AcDbLine
 10
109.1713511813149
 20
386.7266961449354
 30
0.0
 11
109.1713511813149
 21
388.7266961449354
 31
0.0
  0
LINE
  5
5D7D
330
5D77
100
AcDbEntity
  8
寸法
 62
     0
370
    -2
100
AcDbLine
 10
109.1713511813149
 20
382.4211185528516
 30
0.0
 11
109.1713511813149
 21
380.4211185528516
 31
0.0
  0
INSERT
  5
5D7E
330
5D77
100
AcDbEntity
  8
寸法
 62
     0
370
    -2
100
AcDbBlockReference
  2
_DOT
 10
109.1713511813149
 20
384.7266961449354
 30
0.0
 41
2.0
 42
2.0
 43
2.0
 50
270.0
  0
INSERT
  5
5D7F
330
5D77
100
AcDbEntity
  8
寸法
 62
     0
370
    -2
100
AcDbBlockReference
  2
_DOT
 10
109.1713511813149
 20
384.4211185528516
 30
0.0
 41
2.0
 42
2.0
 43
2.0
 50
90.0
  0
MTEXT
  5
5D80
330
5D77
100
AcDbEntity
  8
寸法
 62
     0
100
AcDbMText
 10
101.6713511813149
 20
384.5739073488935
 30
0.0
 40
5.0
 41
0.0
 46
0.0
 71
     5
 72
     1
  1
\A1;0
  7
ＭＳ ゴシック
 11
0.0
 21
1.0
 31
0.0
 73
     1
 44
1.0
  0
POINT
  5
5D81
330
5D77
100
AcDbEntity
  8
Defpoints
 62
     0
100
AcDbPoint
 10
71.57299789079279
 20
384.7266961449354
 30
0.0
  0
POINT
  5
5D82
330
5D77
100
AcDbEntity
  8
Defpoints
 62
     0
100
AcDbPoint
 10
109.0438372579209
 20
384.4211185528516
 30
0.0
  0
POINT
  5
5D83
330
5D77
100
AcDbEntity
  8
Defpoints
 62
     0
100
AcDbPoint
 10
109.1713511813149
 20
384.4211185528516
 30
0.0
  0
ENDBLK
  5
5D79
330
5D77
100
AcDbEntity
  8
0
100
AcDbBlockEnd
  0
BLOCK
  5
5D88
330
5D87
100
AcDbEntity
  8
0
100
AcDbBlockBegin
  2
*D75
 70
     1
 10
0.0
 20
0.0
 30
0.0
  3
*D75
  1

  0
LINE
  5
5D8A
330
5D87
100
AcDbEntity
  8
寸法
 62
     0
370
    -2
100
AcDbLine
 10
71.60104674406107
 20
379.9575436418751
 30
0.0
 11
71.60104674406107
 21
389.1230326130188
 31
0.0
  0
LINE
  5
5D8B
330
5D87
100
AcDbEntity
  8
寸法
 62
     0
370
    -2
100
AcDbLine
 10
109.206244935264
 20
379.8210401485396
 30
0.0
 11
109.206244935264
 21
389.1230326130188
 31
0.0
  0
LINE
  5
5D8C
330
5D87
100
AcDbEntity
  8
寸法
 62
     0
370
    -2
100
AcDbLine
 10
73.60104674406107
 20
389.1230326130188
 30
0.0
 11
107.206244935264
 21
389.1230326130188
 31
0.0
  0
INSERT
  5
5D8D
330
5D87
100
AcDbEntity
  8
寸法
 62
     0
370
    -2
100
AcDbBlockReference
  2
_DOT
 10
71.60104674406107
 20
389.1230326130188
 30
0.0
 41
2.0
 42
2.0
 43
2.0
 50
180.0
  0
INSERT
  5
5D8E
330
5D87
100
AcDbEntity
  8
寸法
 62
     0
370
    -2
100
AcDbBlockReference
  2
_DOT
 10
109.206244935264
 20
389.1230326130188
 30
0.0
 41
2.0
 42
2.0
 43
2.0
  0
MTEXT
  5
5D8F
330
5D87
100
AcDbEntity
  8
寸法
 62
     0
100
AcDbMText
 10
90.40364583966254
 20
396.6230326130188
 30
0.0
 40
5.0
 41
0.0
 46
0.0
 71
     5
 72
     1
  1
\A1;38
  7
ＭＳ ゴシック
 73
     1
 44
1.0
  0
POINT
  5
5D90
330
5D87
100
AcDbEntity
  8
Defpoints
 62
     0
100
AcDbPoint
 10
71.60104674406107
 20
374.9575436418751
 30
0.0
  0
POINT
  5
5D91
330
5D87
100
AcDbEntity
  8
Defpoints
 62
     0
100
AcDbPoint
 10
109.206244935264
 20
374.8210401485396
 30
0.0
  0
POINT
  5
5D92
330
5D87
100
AcDbEntity
  8
Defpoints
 62
     0
100
AcDbPoint
 10
109.206244935264
 20
389.1230326130188
 30
0.0
  0
ENDBLK
  5
5D89
330
5D87
100
AcDbEntity
  8
0
100
AcDbBlockEnd
  0
BLOCK
  5
5D99
330
5D98
100
AcDbEntity
  8
0
100
AcDbBlockBegin
  2
*D76
 70
     1
 10
0.0
 20
0.0
 30
0.0
  3
*D76
  1

  0
LINE
  5
5D9B
330
5D98
100
AcDbEntity
  8
寸法
 62
     0
370
    -2
100
AcDbLine
 10
90.63228797240596
 20
160.6386280728821
 30
0.0
 11
90.63228797240596
 21
132.6576718197912
 31
0.0
  0
LINE
  5
5D9C
330
5D98
100
AcDbEntity
  8
寸法
 62
     0
370
    -2
100
AcDbLine
 10
71.63228797240595
 20
146.5002613305672
 30
0.0
 11
71.63228797240595
 21
132.6576718197912
 31
0.0
  0
LINE
  5
5D9D
330
5D98
100
AcDbEntity
  8
寸法
 62
     0
370
    -2
100
AcDbLine
 10
88.63228797240596
 20
132.6576718197912
 30
0.0
 11
73.63228797240595
 21
132.6576718197912
 31
0.0
  0
INSERT
  5
5D9E
330
5D98
100
AcDbEntity
  8
寸法
 62
     0
370
    -2
100
AcDbBlockReference
  2
_DOT
 10
90.63228797240596
 20
132.6576718197912
 30
0.0
 41
2.0
 42
2.0
 43
2.0
  0
INSERT
  5
5D9F
330
5D98
100
AcDbEntity
  8
寸法
 62
     0
370
    -2
100
AcDbBlockReference
  2
_DOT
 10
71.63228797240595
 20
132.6576718197912
 30
0.0
 41
2.0
 42
2.0
 43
2.0
 50
180.0
  0
MTEXT
  5
5DA0
330
5D98
100
AcDbEntity
  8
寸法
 62
     0
100
AcDbMText
 10
81.13228797240595
 20
140.1576718197912
 30
0.0
 40
5.0
 41
0.0
 46
0.0
 71
     5
 72
     1
  1
\A1;19
  7
ＭＳ ゴシック
 73
     1
 44
1.0
  0
POINT
  5
5DA1
330
5D98
100
AcDbEntity
  8
Defpoints
 62
     0
100
AcDbPoint
 10
90.63228797240596
 20
165.6386280728821
 30
0.0
  0
POINT
  5
5DA2
330
5D98
100
AcDbEntity
  8
Defpoints
 62
     0
100
AcDbPoint
 10
71.63228797240595
 20
151.5002613305672
 30
0.0
  0
POINT
  5
5DA3
330
5D98
100
AcDbEntity
  8
Defpoints
 62
     0
100
AcDbPoint
 10
71.63228797240595
 20
132.6576718197912
 30
0.0
  0
ENDBLK
  5
5D9A
330
5D98
100
AcDbEntity
  8
0
100
AcDbBlockEnd
  0
BLOCK
  5
5DAB
330
5DAA
100
AcDbEntity
  8
0
100
AcDbBlockBegin
  2
*D77
 70
     1
 10
0.0
 20
0.0
 30
0.0
  3
*D77
  1

  0
LINE
  5
5DAD
330
5DAA
100
AcDbEntity
  8
寸法
 62
     0
370
    -2
100
AcDbLine
 10
78.7504704146204
 20
274.2511926994455
 30
0.0
 11
49.30493163622311
 21
274.2511926994455
 31
0.0
  0
LINE
  5
5DAE
330
5DAA
100
AcDbEntity
  8
寸法
 62
     0
370
    -2
100
AcDbLine
 10
78.7504704146204
 20
174.0947554896208
 30
0.0
 11
49.3049316362231
 21
174.0947554896208
 31
0.0
  0
LINE
  5
5DAF
330
5DAA
100
AcDbEntity
  8
寸法
 62
     0
370
    -2
100
AcDbLine
 10
49.30493163622311
 20
272.2511926994455
 30
0.0
 11
49.3049316362231
 21
176.0947554896208
 31
0.0
  0
INSERT
  5
5DB0
330
5DAA
100
AcDbEntity
  8
寸法
 62
     0
370
    -2
100
AcDbBlockReference
  2
_DOT
 10
49.30493163622311
 20
274.2511926994455
 30
0.0
 41
2.0
 42
2.0
 43
2.0
 50
90.0
  0
INSERT
  5
5DB1
330
5DAA
100
AcDbEntity
  8
寸法
 62
     0
370
    -2
100
AcDbBlockReference
  2
_DOT
 10
49.3049316362231
 20
174.0947554896208
 30
0.0
 41
2.0
 42
2.0
 43
2.0
 50
270.0
  0
MTEXT
  5
5DB2
330
5DAA
100
AcDbEntity
  8
寸法
 62
     0
100
AcDbMText
 10
41.8049316362231
 20
224.1729740945331
 30
0.0
 40
5.0
 41
0.0
 46
0.0
 71
     5
 72
     1
  1
\A1;100
  7
ＭＳ ゴシック
 11
7.094329186965128E-17
 21
1.0
 31
0.0
 73
     1
 44
1.0
  0
POINT
  5
5DB3
330
5DAA
100
AcDbEntity
  8
Defpoints
 62
     0
100
AcDbPoint
 10
83.7504704146204
 20
274.2511926994455
 30
0.0
  0
POINT
  5
5DB4
330
5DAA
100
AcDbEntity
  8
Defpoints
 62
     0
100
AcDbPoint
 10
83.7504704146204
 20
174.0947554896208
 30
0.0
  0
POINT
  5
5DB5
330
5DAA
100
AcDbEntity
  8
Defpoints
 62
     0
100
AcDbPoint
 10
49.3049316362231
 20
174.0947554896208
 30
0.0
  0
ENDBLK
  5
5DAC
330
5DAA
100
AcDbEntity
  8
0
100
AcDbBlockEnd
  0
BLOCK
  5
5DBA
330
5DB9
100
AcDbEntity
  8
0
100
AcDbBlockBegin
  2
*D78
 70
     1
 10
0.0
 20
0.0
 30
0.0
  3
*D78
  1

  0
LINE
  5
5DBC
330
5DB9
100
AcDbEntity
  8
寸法
 62
     0
370
    -2
100
AcDbLine
 10
71.63228797240595
 20
138.6375747492457
 30
0.0
 11
71.63228797240595
 21
115.9430292947003
 31
0.0
  0
LINE
  5
5DBD
330
5DB9
100
AcDbEntity
  8
寸法
 62
     0
370
    -2
100
AcDbLine
 10
190.6322879724059
 20
138.6375747492457
 30
0.0
 11
190.6322879724059
 21
115.9430292947003
 31
0.0
  0
LINE
  5
5DBE
330
5DB9
100
AcDbEntity
  8
寸法
 62
     0
370
    -2
100
AcDbLine
 10
73.63228797240595
 20
115.9430292947003
 30
0.0
 11
188.6322879724059
 21
115.9430292947003
 31
0.0
  0
INSERT
  5
5DBF
330
5DB9
100
AcDbEntity
  8
寸法
 62
     0
370
    -2
100
AcDbBlockReference
  2
_DOT
 10
71.63228797240595
 20
115.9430292947003
 30
0.0
 41
2.0
 42
2.0
 43
2.0
 50
180.0
  0
INSERT
  5
5DC0
330
5DB9
100
AcDbEntity
  8
寸法
 62
     0
370
    -2
100
AcDbBlockReference
  2
_DOT
 10
190.6322879724059
 20
115.9430292947003
 30
0.0
 41
2.0
 42
2.0
 43
2.0
  0
MTEXT
  5
5DC1
330
5DB9
100
AcDbEntity
  8
寸法
 62
     0
100
AcDbMText
 10
131.1322879724059
 20
123.4430292947003
 30
0.0
 40
5.0
 41
0.0
 46
0.0
 71
     5
 72
     1
  1
\A1;119
  7
ＭＳ ゴシック
 73
     1
 44
1.0
  0
POINT
  5
5DC2
330
5DB9
100
AcDbEntity
  8
Defpoints
 62
     0
100
AcDbPoint
 10
71.63228797240595
 20
143.6375747492457
 30
0.0
  0
POINT
  5
5DC3
330
5DB9
100
AcDbEntity
  8
Defpoints
 62
     0
100
AcDbPoint
 10
190.6322879724059
 20
143.6375747492457
 30
0.0
  0
POINT
  5
5DC4
330
5DB9
100
AcDbEntity
  8
Defpoints
 62
     0
100
AcDbPoint
 10
190.6322879724059
 20
115.9430292947003
 30
0.0
  0
ENDBLK
  5
5DBB
330
5DB9
100
AcDbEntity
  8
0
100
AcDbBlockEnd
  0
BLOCK
  5
5EFA
330
5EF9
100
AcDbEntity
  8
0
100
AcDbBlockBegin
  2
*D79
 70
     1
 10
0.0
 20
0.0
 30
0.0
  3
*D79
  1

  0
LINE
  5
5EFC
330
5EF9
100
AcDbEntity
  8
寸法
 62
     0
370
    -2
100
AcDbLine
 10
433.0545454545459
 20
166.5687500000004
 30
0.0
 11
432.8454248727272
 21
166.5687500000004
 31
0.0
  0
LINE
  5
5EFD
330
5EF9
100
AcDbEntity
  8
寸法
 62
     0
370
    -2
100
AcDbLine
 10
433.054545454546
 20
160.5687500000004
 30
0.0
 11
432.8454248727272
 21
160.5687500000004
 31
0.0
  0
LINE
  5
5EFE
330
5EF9
100
AcDbEntity
  8
寸法
 62
     0
370
    -2
100
AcDbLine
 10
432.8454248727272
 20
168.5687500000004
 30
0.0
 11
432.8454248727272
 21
170.5687500000004
 31
0.0
  0
LINE
  5
5EFF
330
5EF9
100
AcDbEntity
  8
寸法
 62
     0
370
    -2
100
AcDbLine
 10
432.8454248727272
 20
158.5687500000004
 30
0.0
 11
432.8454248727272
 21
156.5687500000004
 31
0.0
  0
INSERT
  5
5F00
330
5EF9
100
AcDbEntity
  8
寸法
 62
     0
370
    -2
100
AcDbBlockReference
  2
_DOT
 10
432.8454248727272
 20
166.5687500000004
 30
0.0
 41
2.0
 42
2.0
 43
2.0
 50
270.0
  0
INSERT
  5
5F01
330
5EF9
100
AcDbEntity
  8
寸法
 62
     0
370
    -2
100
AcDbBlockReference
  2
_DOT
 10
432.8454248727272
 20
160.5687500000004
 30
0.0
 41
2.0
 42
2.0
 43
2.0
 50
90.0
  0
MTEXT
  5
5F02
330
5EF9
100
AcDbEntity
  8
寸法
 62
     0
100
AcDbMText
 10
425.3454248727272
 20
163.5687500000004
 30
0.0
 40
5.0
 41
0.0
 46
0.0
 71
     5
 72
     1
  1
\A1;6
  7
ＭＳ ゴシック
 11
0.0
 21
1.0
 31
0.0
 73
     1
 44
1.0
  0
POINT
  5
5F03
330
5EF9
100
AcDbEntity
  8
Defpoints
 62
     0
100
AcDbPoint
 10
428.0545454545459
 20
166.5687500000004
 30
0.0
  0
POINT
  5
5F04
330
5EF9
100
AcDbEntity
  8
Defpoints
 62
     0
100
AcDbPoint
 10
428.054545454546
 20
160.5687500000004
 30
0.0
  0
POINT
  5
5F05
330
5EF9
100
AcDbEntity
  8
Defpoints
 62
     0
100
AcDbPoint
 10
432.8454248727272
 20
160.5687500000004
 30
0.0
  0
ENDBLK
  5
5EFB
330
5EF9
100
AcDbEntity
  8
0
100
AcDbBlockEnd
  0
ENDSEC
  0
SECTION
  2
ENTITIES
  0
LINE
  5
36CD
330
A
100
AcDbEntity
  8
PRINT BORDER
100
AcDbLine
 10
296.9999999999999
 20
0.0
 30
0.0
 11
296.9999999999999
 21
15.30952622855898
 31
0.0
  0
LINE
  5
36CE
330
A
100
AcDbEntity
  8
テンプレート
100
AcDbLine
 10
459.1755527377521
 20
38.27810890422097
 30
0.0
 11
15.30952622855898
 21
38.27810890422097
 31
0.0
  0
LINE
  5
36CF
330
A
100
AcDbEntity
  8
テンプレート
100
AcDbLine
 10
15.30952622855898
 20
26.22153683920783
 30
0.0
 11
578.6904737714407
 21
26.22153683920783
 31
0.0
  0
TEXT
  5
36D0
330
A
100
AcDbEntity
  8
テンプレート
100
AcDbText
 10
18.06121699514119
 20
32.16825981613692
 30
0.0
 40
3.5
  1
材質
  7
ＭＳ ゴシック
100
AcDbText
  0
TEXT
  5
36D3
330
A
100
AcDbEntity
  8
テンプレート
100
AcDbText
 10
18.06121699514119
 20
56.50959028673083
 30
0.0
 40
3.5
  1
品名
  7
ＭＳ ゴシック
100
AcDbText
  0
TEXT
  5
36D4
330
A
100
AcDbEntity
  8
テンプレート
100
AcDbText
 10
18.06121699514119
 20
44.65099339080098
 30
0.0
 40
3.5
  1
仕上げ
  7
ＭＳ ゴシック
100
AcDbText
  0
TEXT
  5
36D5
330
A
100
AcDbEntity
  8
テンプレート
100
AcDbText
 10
357.0269946210344
 20
56.58523052309893
 30
0.0
 40
3.5
  1
品番
  7
ＭＳ ゴシック
100
AcDbText
  0
TEXT
  5
36D6
330
A
100
AcDbEntity
  8
テンプレート
100
AcDbText
 10
33.3092063992674
 20
53.09440584367189
 30
0.0
 40
5.5
  1
ドアハンドル(片面ウッドアンカータイプ) - FSB -
  7
ＭＳ ゴシック
100
AcDbText
  0
TEXT
  5
36D7
330
A
100
AcDbEntity
  8
テンプレート
100
AcDbText
 10
372.2084323516021
 20
52.97708052455295
 30
0.0
 40
5.5
  1
FSB31-6112C
  7
ＭＳ ゴシック
100
AcDbText
  0
LINE
  5
36D8
330
A
100
AcDbEntity
  8
テンプレート
100
AcDbLine
 10
459.1755527377521
 20
50.16496477419605
 30
0.0
 11
15.30952622855898
 21
50.16496477419605
 31
0.0
  0
LINE
  5
36D9
330
A
100
AcDbEntity
  8
テンプレート
100
AcDbLine
 10
578.6904737714411
 20
62.22153683920783
 30
0.0
 11
15.30952622855898
 21
62.22153683920783
 31
0.0
  0
LINE
  5
36DA
330
A
100
AcDbEntity
  8
PRINT BORDER
100
AcDbLine
 10
593.9999999999999
 20
210.0
 30
0.0
 11
578.6904737714411
 21
210.0
 31
0.0
  0
LINE
  5
36DB
330
A
100
AcDbEntity
  8
PRINT BORDER
100
AcDbLine
 10
0.0
 20
210.0
 30
0.0
 11
15.30952622855898
 21
210.0
 31
0.0
  0
LINE
  5
36DC
330
A
100
AcDbEntity
  8
PRINT BORDER
100
AcDbLine
 10
296.9999999999999
 20
420.0
 30
0.0
 11
296.9999999999999
 21
404.690473771441
 31
0.0
  0
LINE
  5
36DD
330
A
100
AcDbEntity
  8
テンプレート
100
AcDbLine
 10
578.6904737714411
 20
62.22153683920783
 30
0.0
 11
578.6904737714411
 21
26.22153683920783
 31
0.0
  0
LINE
  5
36DE
330
A
100
AcDbEntity
  8
テンプレート
100
AcDbLine
 10
15.30952622855898
 20
62.22153683920783
 30
0.0
 11
15.30952622855898
 21
26.22153683920783
 31
0.0
  0
TEXT
  5
36DF
330
A
100
AcDbEntity
  8
テンプレート
100
AcDbText
 10
461.264305205099
 20
56.585230523099
 30
0.0
 40
3.5
  1
備考
  7
ＭＳ ゴシック
100
AcDbText
  0
TEXT
  5
36E0
330
A
100
AcDbEntity
  8
テンプレート
100
AcDbText
 10
494.9733384955217
 20
16.51938390313694
 30
0.0
 40
5.5
  1
大洋金物株式会社  
  7
ＭＳ ゴシック
100
AcDbText
  0
LINE
  5
36E1
330
A
100
AcDbEntity
  8
テンプレート
100
AcDbLine
 10
459.1755527377521
 20
62.22153683920786
 30
0.0
 11
459.1755527377521
 21
26.22153683920786
 31
0.0
  0
LINE
  5
36E2
330
A
100
AcDbEntity
  8
テンプレート
100
AcDbLine
 10
355.2036461031037
 20
62.22153683920778
 30
0.0
 11
355.2036461031037
 21
26.22153683920778
 31
0.0
  0
INSERT
  5
36E3
330
A
100
AcDbEntity
  8
テンプレート
100
AcDbBlockReference
  2
名称未設定-1
 10
548.3945198859805
 20
-7.642344203993161
 30
0.0
 41
0.180975
 42
0.180975
 43
0.180975
  0
LINE
  5
36E5
330
A
100
AcDbEntity
  8
テンプレート
100
AcDbLine
 10
15.30952622855898
 20
210.0
 30
0.0
 11
15.30952622855898
 21
26.22153683920783
 31
0.0
  0
LINE
  5
36E6
330
A
100
AcDbEntity
  8
テンプレート
100
AcDbLine
 10
15.30952622855898
 20
210.0
 30
0.0
 11
15.30952622855898
 21
404.690473771441
 31
0.0
  0
LINE
  5
36E7
330
A
100
AcDbEntity
  8
テンプレート
100
AcDbLine
 10
296.9999999999999
 20
404.690473771441
 30
0.0
 11
15.30952622855887
 21
404.690473771441
 31
0.0
  0
LINE
  5
36E8
330
A
100
AcDbEntity
  8
テンプレート
100
AcDbLine
 10
296.9999999999999
 20
404.690473771441
 30
0.0
 11
578.6904737714411
 21
404.690473771441
 31
0.0
  0
LINE
  5
36E9
330
A
100
AcDbEntity
  8
テンプレート
100
AcDbLine
 10
578.6904737714411
 20
210.0
 30
0.0
 11
578.6904737714411
 21
404.690473771441
 31
0.0
  0
LINE
  5
36EA
330
A
100
AcDbEntity
  8
テンプレート
100
AcDbLine
 10
578.6904737714411
 20
210.0
 30
0.0
 11
578.6904737714411
 21
26.22153683920783
 31
0.0
  0
LWPOLYLINE
  5
36EB
330
A
100
AcDbEntity
  8
PRINT BORDER
  6
HIDDEN
 48
3.0
100
AcDbPolyline
 90
        4
 70
     1
 43
0.0
 10
0.0
 20
0.0
 10
0.0
 20
420.0
 10
593.9999999999999
 20
420.0
 10
593.9999999999999
 20
0.0
  0
TEXT
  5
36EC
330
A
100
AcDbEntity
  8
テンプレート
100
AcDbText
 10
357.0025617253259
 20
32.62405342819483
 30
0.0
 40
3.5
  1
縮尺
  7
ＭＳ ゴシック
100
AcDbText
  0
TEXT
  5
36ED
330
A
100
AcDbEntity
  8
テンプレート
100
AcDbText
 10
372.2084323516021
 20
28.29362070227189
 30
0.0
 40
5.5
  1
1/2
  7
ＭＳ ゴシック
100
AcDbText
  0
TEXT
  5
37DE
330
A
100
AcDbEntity
  8
テンプレート
100
AcDbText
 10
357.0269946210344
 20
44.52865845808578
 30
0.0
 40
3.5
  1
扉厚
  7
ＭＳ ゴシック
100
AcDbText
  0
MTEXT
  5
4E13
102
{ACAD_XDICTIONARY
360
4E15
102
}
330
A
100
AcDbEntity
  8
TFORMLOGO
100
AcDbMText
 10
16.5085163356771
 20
23.69936259043238
 30
0.0
 40
4.0
 41
0.0
 46
4.0
 71
     1
 72
     1
  1
{20180928N}
  7
ＭＳ ゴシック
 73
     1
 44
1.0
1001
ACAD
1000
ACAD_MTEXT_DEFINED_HEIGHT_BEGIN
1070
    46
1040
4.0
1000
ACAD_MTEXT_DEFINED_HEIGHT_END
  0
LINE
  5
4E1F
330
A
100
AcDbEntity
  8
TFORMLOGO
100
AcDbLine
 10
34.39354323042302
 20
26.22153683920783
 30
0.0
 11
34.39354323042301
 21
50.16496477419605
 31
0.0
  0
MTEXT
  5
56D8
330
A
100
AcDbEntity
  8
テンプレート
390
1D
100
AcDbMText
 10
35.78377322769549
 20
34.57354675141925
 30
0.0
 40
5.0
 41
0.0
 46
5.205
 71
     1
 72
     1
  1
{アルミ}
  7
ＭＳ ゴシック
 73
     1
 44
0.7828267384257843
1001
ACAD
1000
ACAD_MTEXT_DEFINED_HEIGHT_BEGIN
1070
    46
1040
5.205
1000
ACAD_MTEXT_DEFINED_HEIGHT_END
  0
MTEXT
  5
56DF
330
A
100
AcDbEntity
  8
テンプレート
390
1D
100
AcDbMText
 10
35.55147890762323
 20
47.07373149027578
 30
0.0
 40
5.0
 41
0.0
 46
5.28
 71
     1
 72
     1
  1
{ナチュラル}
  7
ＭＳ ゴシック
 73
     1
 44
0.7828267384257843
1001
ACAD
1000
ACAD_MTEXT_DEFINED_HEIGHT_BEGIN
1070
    46
1040
5.28
1000
ACAD_MTEXT_DEFINED_HEIGHT_END
  0
LINE
  5
5959
330
A
100
AcDbEntity
  8
CutoutOverlay
  6
CENTER
 62
     3
100
AcDbLine
 10
492.9576600807061
 20
274.2511926994464
 30
0.0
 11
518.516218080706
 21
274.2511926994464
 31
0.0
  0
DIMENSION
  5
5AA0
330
A
100
AcDbEntity
  8
寸法
100
AcDbDimension
  2
*D67
 10
545.4386722958163
 20
174.2511926994463
 30
0.0
 11
545.4386722958163
 21
224.2511926994464
 31
0.0
 70
   160
 71
     5
 42
100.0000000000001
 73
     0
 74
     0
 75
     0
 52
-90.0
  3
tfrom線あり
100
AcDbAlignedDimension
 13
518.7899562980429
 23
274.2511926994464
 33
0.0
 14
518.7899562980429
 24
174.2511926994463
 34
0.0
 50
90.00000000000001
100
AcDbRotatedDimension
1001
ACAD
1000
DSTYLE
1002
{
1070
   144
1040
1.0
1002
}
  0
TEXT
  5
5AFC
330
A
100
AcDbEntity
  8
テンプレート
100
AcDbText
 10
471.5644258917908
 20
50.46527169909879
 30
0.0
 40
5.5
  1
付属品
  7
ＭＳ ゴシック
100
AcDbText
  0
TEXT
  5
5AFD
330
A
100
AcDbEntity
  8
テンプレート
100
AcDbText
 10
471.5644258917908
 20
41.25530600576666
 30
0.0
 40
5.5
  1
M6ボルト
  7
ＭＳ ゴシック
100
AcDbText
  0
TEXT
  5
5AFE
330
A
100
AcDbEntity
  8
テンプレート
100
AcDbText
 10
471.5644258917908
 20
33.16169979041423
 30
0.0
 40
5.5
  1
タイコ、ウッドアンカー
  7
ＭＳ ゴシック
100
AcDbText
  0
CIRCLE
  5
5B64
102
{ACAD_REACTORS
330
5B68
102
}
330
A
100
AcDbEntity
  8
CutoutOverlay
100
AcDbCircle
 10
505.7369390807061
 20
274.2511926994464
 30
0.0
 40
6.5
  0
LINE
  5
5B66
330
A
100
AcDbEntity
  8
CutoutOverlay
  6
CENTER
 62
     3
100
AcDbLine
 10
505.7369390807061
 20
287.0304716994463
 30
0.0
 11
505.7369390807061
 21
261.4719136994465
 31
0.0
  0
HATCH
  5
5B68
330
A
100
AcDbEntity
  8
CutoutOverlay
 62
     3
100
AcDbHatch
 10
0.0
 20
0.0
 30
0.0
210
0.0
220
0.0
230
1.0
  2
ANSI31
 70
     0
 71
     1
 91
        1
 92
        1
 93
        1
 72
     2
 10
505.7369390807061
 20
274.2511926994464
 40
6.5
 50
0.0
 51
360.0
 73
     1
 97
        1
330
5B64
 75
     0
 76
     1
 52
0.0
 41
0.5
 77
     0
 78
     1
 53
45.0
 43
13.84727272727264
 44
26.13698815399144
 45
-1.122532015133644
 46
1.122532015133644
 79
     0
 98
        1
 10
13.84727272727264
 20
26.13698815399144
1001
ACAD
1010
0.0
1020
0.0
1030
0.0
  0
TEXT
  5
5BD6
330
A
100
AcDbEntity
  8
テンプレート
100
AcDbText
 10
490.144390824699
 20
307.7532973128508
 30
0.0
 40
5.5
  1
<切欠図>
  7
ＭＳ ゴシック
100
AcDbText
  0
LINE
  5
5BDB
330
A
100
AcDbEntity
  8
CutoutOverlay
  6
CENTER
 62
     3
100
AcDbLine
 10
492.9576600807061
 20
174.2511926994464
 30
0.0
 11
518.516218080706
 21
174.2511926994464
 31
0.0
  0
HATCH
  5
5BDC
330
A
100
AcDbEntity
  8
CutoutOverlay
 62
     3
100
AcDbHatch
 10
0.0
 20
0.0
 30
0.0
210
0.0
220
0.0
230
1.0
  2
ANSI31
 70
     0
 71
     1
 91
        1
 92
        1
 93
        1
 72
     2
 10
505.7369390807061
 20
174.2511926994464
 40
6.5
 50
0.0
 51
360.0
 73
     1
 97
        1
330
5BDD
 75
     0
 76
     1
 52
0.0
 41
0.5
 77
     0
 78
     1
 53
45.0
 43
13.84727272727264
 44
-73.86301184600856
 45
-1.122532015133644
 46
1.122532015133644
 79
     0
 98
        1
 10
13.84727272727264
 20
-73.86301184600856
1001
ACAD
1010
0.0
1020
0.0
1030
0.0
  0
CIRCLE
  5
5BDD
102
{ACAD_REACTORS
330
5BDC
102
}
330
A
100
AcDbEntity
  8
CutoutOverlay
100
AcDbCircle
 10
505.7369390807061
 20
174.2511926994464
 30
0.0
 40
6.5
  0
LINE
  5
5BDE
330
A
100
AcDbEntity
  8
CutoutOverlay
  6
CENTER
 62
     3
100
AcDbLine
 10
505.7369390807061
 20
187.0304716994464
 30
0.0
 11
505.7369390807061
 21
161.4719136994465
 31
0.0
  0
TEXT
  5
5CB0
330
A
100
AcDbEntity
  8
モデル
100
AcDbText
 10
206.8938290041825
 20
80.63306725954634
 30
0.0
 40
4.546093750000002
  1
　 加工は現物合わせの上行って下さい。
  7
ＭＳ ゴシック
100
AcDbText
  0
TEXT
  5
5CB1
330
A
100
AcDbEntity
  8
モデル
100
AcDbText
 10
207.0112839841088
 20
88.27274336259808
 30
0.0
 40
4.546093750000002
  1
※ 輸入製品の為、国内製品と比べ製品寸法の個体差に幅が有ります。
  7
ＭＳ ゴシック
100
AcDbText
  0
TEXT
  5
5CB2
330
A
100
AcDbEntity
  8
モデル
100
AcDbText
 10
207.0112839841088
 20
70.97392791758168
 30
0.0
 40
4.546093750000002
  1
※ ご注文の際は、正確な扉厚の指示をしてください。
  7
ＭＳ ゴシック
100
AcDbText
  0
TEXT
  5
5CB3
330
A
100
AcDbEntity
  8
モデル
100
AcDbText
 10
207.0112839841088
 20
98.59003590076686
 30
0.0
 40
4.546093750000002
  1
　 下穴に対して、まっすぐにウッドアンカーを取り付けてください。
  7
ＭＳ ゴシック
100
AcDbText
  0
TEXT
  5
5CB4
330
A
100
AcDbEntity
  8
モデル
100
AcDbText
 10
207.1287389640348
 20
105.9006132475085
 30
0.0
 40
4.546093750000002
  1
※ ドアハンドルが取りつかなくなる為、
  7
ＭＳ ゴシック
100
AcDbText
  0
TEXT
  5
5CB5
330
A
100
AcDbEntity
  8
モデル
100
AcDbText
 10
207.1287389640348
 20
116.0971848747557
 30
0.0
 40
4.546093750000002
  1
※ 木割れ防止の為、下穴のふちに面取り加工を必ずして下さい。
  7
ＭＳ ゴシック
100
AcDbText
  0
SPLINE
  5
5D1F
330
A
100
AcDbEntity
  8
モデル
370
    -3
100
AcDbSpline
210
0.0
220
0.0
230
1.0
 70
     8
 71
     3
 72
    11
 73
     7
 74
     0
 42
0.000000001
 43
0.0000000001
 40
0.0
 40
0.0
 40
0.0
 40
0.0
 40
1.0
 40
1.0
 40
1.0
 40
2.0
 40
2.0
 40
2.0
 40
2.0
 10
162.6977349670642
 20
315.2982089704754
 30
0.0
 10
165.4380655796149
 20
319.3985253550792
 30
0.0
 10
170.9209889234319
 20
321.7773693968145
 30
0.0
 10
177.3752660438952
 20
321.4407661318752
 30
0.0
 10
183.0129183078861
 20
321.1480479700261
 30
0.0
 10
187.8886889883313
 20
318.3167801850927
 30
0.0
 10
190.7172422308054
 20
314.7874225644048
 30
0.0
  0
SPLINE
  5
5D20
102
{ACAD_REACTORS
330
5D86
102
}
330
A
100
AcDbEntity
  8
モデル
370
    -3
100
AcDbSpline
210
0.0
220
0.0
230
1.0
 70
    11
 71
     3
 72
    35
 73
    31
 74
     0
 42
0.000000001
 43
0.0000000001
 40
0.0
 40
0.0
 40
0.0
 40
0.0
 40
1.0
 40
1.0
 40
1.0
 40
2.0
 40
2.0
 40
2.0
 40
3.0
 40
3.0
 40
3.0
 40
4.0
 40
4.0
 40
4.0
 40
5.0
 40
5.0
 40
5.0
 40
6.0
 40
6.0
 40
6.0
 40
7.0
 40
7.0
 40
7.0
 40
8.0
 40
8.0
 40
8.0
 40
9.0
 40
9.0
 40
9.0
 40
10.0
 40
10.0
 40
10.0
 40
10.0
 10
105.6439339835888
 20
368.287887468803
 30
0.0
 10
105.6439339835888
 20
368.287887468803
 30
0.0
 10
109.2201174616976
 20
374.6041753475909
 30
0.0
 10
109.2201174616976
 20
374.6041753475909
 30
0.0
 10
109.2201174616976
 20
375.5393352247812
 30
0.0
 10
108.4557475475644
 20
376.2985022658676
 30
0.0
 10
107.5061101105916
 20
376.2985022658676
 30
0.0
 10
107.5061101105916
 20
376.2985022658676
 30
0.0
 10
72.97735624158872
 20
376.2985022658676
 30
0.0
 10
72.97735624158872
 20
376.2985022658676
 30
0.0
 10
72.02817122835927
 20
376.2985022658676
 30
0.0
 10
71.57280673083051
 20
375.5008792066094
 30
0.0
 10
71.57280673083051
 20
374.5652669056759
 30
0.0
 10
71.57280673083051
 20
374.5652669056759
 30
0.0
 10
73.53768304753953
 20
370.2826237525632
 30
0.0
 10
73.53768304753953
 20
370.2826237525632
 30
0.0
 10
77.23534230069708
 20
363.7043825264636
 30
0.0
 10
88.66763786756837
 20
342.6802511800506
 30
0.0
 10
118.2489118928293
 20
324.3824253101489
 30
0.0
 10
132.311146678911
 20
315.6872933896257
 30
0.0
 10
159.9438316422179
 20
305.4249656226645
 30
0.0
 10
190.7172422308054
 20
308.96246687073
 30
0.0
 10
190.7172422308054
 20
308.96246687073
 30
0.0
 10
190.7172422308054
 20
314.7874225644048
 30
0.0
 10
190.7172422308054
 20
314.7874225644048
 30
0.0
 10
156.7510772864691
 20
310.9133180514
 30
0.0
 10
117.4098920610686
 20
325.049750331366
 30
0.0
 10
105.6439339835888
 20
344.1759640750633
 30
0.0
 10
98.56553830938356
 20
355.6797425933599
 30
0.0
 10
102.2385404685369
 20
363.2904148014374
 30
0.0
 10
105.6439339835888
 20
368.287887468803
 30
0.0
  0
SPLINE
  5
5D21
102
{ACAD_REACTORS
330
5D97
102
}
330
A
100
AcDbEntity
  8
モデル
370
    -3
100
AcDbSpline
210
0.0
220
0.0
230
1.0
 70
    11
 71
     3
 72
    23
 73
    19
 74
     0
 42
0.000000001
 43
0.0000000001
 40
0.0
 40
0.0
 40
0.0
 40
0.0
 40
1.0
 40
1.0
 40
1.0
 40
2.0
 40
2.0
 40
2.0
 40
3.0
 40
3.0
 40
3.0
 40
4.0
 40
4.0
 40
4.0
 40
5.0
 40
5.0
 40
5.0
 40
6.0
 40
6.0
 40
6.0
 40
6.0
 10
71.57280673083051
 20
296.6771590141577
 30
0.0
 10
71.57280673083051
 20
296.6771590141577
 30
0.0
 10
171.7104683553125
 20
296.6771590141577
 30
0.0
 10
171.7104683553125
 20
296.6771590141577
 30
0.0
 10
182.2066991975071
 20
296.6771590141577
 30
0.0
 10
190.7199567732646
 20
288.2828888828612
 30
0.0
 10
190.7199567732646
 20
277.9266831891864
 30
0.0
 10
190.7199567732646
 20
277.9266831891864
 30
0.0
 10
190.7199567732646
 20
170.2509633674102
 30
0.0
 10
190.7199567732646
 20
170.2509633674102
 30
0.0
 10
190.7199567732646
 20
159.8947576737354
 30
0.0
 10
182.2066991975071
 20
151.5002613305672
 30
0.0
 10
171.7104683553125
 20
151.5002613305672
 30
0.0
 10
171.7104683553125
 20
151.5002613305672
 30
0.0
 10
71.57280673083051
 20
151.5002613305672
 30
0.0
 10
71.57280673083051
 20
151.5002613305672
 30
0.0
 10
71.57280673083051
 20
151.5002613305672
 30
0.0
 10
71.57280673083051
 20
296.6771590141577
 30
0.0
 10
71.57280673083051
 20
296.6771590141577
 30
0.0
  0
SPLINE
  5
5D22
102
{ACAD_REACTORS
330
5DA9
102
}
330
A
100
AcDbEntity
  8
HIDDEN
370
    -3
100
AcDbSpline
210
0.0
220
0.0
230
1.0
 70
    11
 71
     3
 72
    17
 73
    13
 74
     0
 42
0.000000001
 43
0.0000000001
 40
0.0
 40
0.0
 40
0.0
 40
0.0
 40
1.0
 40
1.0
 40
1.0
 40
2.0
 40
2.0
 40
2.0
 40
3.0
 40
3.0
 40
3.0
 40
4.0
 40
4.0
 40
4.0
 40
4.0
 10
83.7504704146204
 20
174.0947554896208
 30
0.0
 10
83.7504704146204
 20
177.9331185269129
 30
0.0
 10
86.9016017859949
 20
181.0428531257847
 30
0.0
 10
90.79516051995734
 20
181.0428531257847
 30
0.0
 10
94.686230923332
 20
181.0428531257847
 30
0.0
 10
97.83442154037562
 20
177.9331185269129
 30
0.0
 10
97.83442154037562
 20
174.0947554896208
 30
0.0
 10
97.83442154037562
 20
170.256166240457
 30
0.0
 10
94.686230923332
 20
167.1491461840444
 30
0.0
 10
90.79516051995734
 20
167.1491461840444
 30
0.0
 10
86.9016017859949
 20
167.1491461840444
 30
0.0
 10
83.7504704146204
 20
170.256166240457
 30
0.0
 10
83.7504704146204
 20
174.0947554896208
 30
0.0
  0
SPLINE
  5
5D23
102
{ACAD_REACTORS
330
5DA9
102
}
330
A
100
AcDbEntity
  8
HIDDEN
370
    -3
100
AcDbSpline
210
0.0
220
0.0
230
1.0
 70
    11
 71
     3
 72
    17
 73
    13
 74
     0
 42
0.000000001
 43
0.0000000001
 40
0.0
 40
0.0
 40
0.0
 40
0.0
 40
1.0
 40
1.0
 40
1.0
 40
2.0
 40
2.0
 40
2.0
 40
3.0
 40
3.0
 40
3.0
 40
4.0
 40
4.0
 40
4.0
 40
4.0
 10
83.7504704146204
 20
274.2511926994455
 30
0.0
 10
83.7504704146204
 20
278.0839004399477
 30
0.0
 10
86.9016017859949
 20
281.1940874625627
 30
0.0
 10
90.79516051995734
 20
281.1940874625627
 30
0.0
 10
94.686230923332
 20
281.1940874625627
 30
0.0
 10
97.83442154037562
 20
278.0839004399477
 30
0.0
 10
97.83442154037562
 20
274.2511926994455
 30
0.0
 10
97.83442154037562
 20
270.4101151196941
 30
0.0
 10
94.686230923332
 20
267.3030950632815
 30
0.0
 10
90.79516051995734
 20
267.3030950632815
 30
0.0
 10
86.9016017859949
 20
267.3030950632815
 30
0.0
 10
83.7504704146204
 20
270.4101151196941
 30
0.0
 10
83.7504704146204
 20
274.2511926994455
 30
0.0
  0
POLYLINE
  5
5D24
330
A
100
AcDbEntity
  8
HIDDEN
370
    -3
100
AcDb2dPolyline
 66
     1
 10
0.0
 20
0.0
 30
0.0
  0
VERTEX
  5
5D25
330
5D24
100
AcDbEntity
  8
HIDDEN
370
    -3
100
AcDbVertex
100
AcDb2dVertex
 10
109.6917692139814
 20
296.6771590141577
 30
0.0
  0
VERTEX
  5
5D26
330
5D24
100
AcDbEntity
  8
HIDDEN
370
    -3
100
AcDbVertex
100
AcDb2dVertex
 10
109.6917692139814
 20
151.6771590141577
 30
0.0
  0
SEQEND
  5
5D27
330
5D24
100
AcDbEntity
  8
HIDDEN
370
    -3
  0
DIMENSION
  5
5D2B
330
A
100
AcDbEntity
  8
寸法
100
AcDbDimension
  2
*D71
 10
215.6785163324409
 20
296.6771590141578
 30
0.0
 11
215.6785163324409
 21
224.1771590141578
 31
0.0
 70
   160
 71
     5
 42
145.0
 73
     0
 74
     0
 75
     0
 52
-90.0
  3
tfrom線あり
100
AcDbAlignedDimension
 13
181.6228566327154
 23
151.6771590141578
 33
0.0
 14
181.6228566327154
 24
296.6771590141578
 34
0.0
 50
90.00000000000001
100
AcDbRotatedDimension
1001
ACAD
1000
DSTYLE
1002
{
1070
   271
1070
     8
1070
   144
1040
1.0
1002
}
  0
LINE
  5
5D3F
330
A
100
AcDbEntity
  8
モデル
100
AcDbLine
 10
327.4171468901203
 20
296.6771590141578
 30
0.0
 11
259.364586078753
 21
296.6771590141578
 31
0.0
  0
LINE
  5
5D40
330
A
100
AcDbEntity
  8
モデル
100
AcDbLine
 10
327.4171468901201
 20
151.5002613305673
 30
0.0
 11
259.364586078753
 21
151.5002613305673
 31
0.0
  0
LINE
  5
5D41
330
A
100
AcDbEntity
  8
モデル
100
AcDbLine
 10
327.4171468901203
 20
296.6771590141578
 30
0.0
 11
327.4171468901201
 21
151.5002613305672
 31
0.0
  0
LINE
  5
5D42
330
A
100
AcDbEntity
  8
モデル
100
AcDbLine
 10
259.364586078753
 20
296.6771590141578
 30
0.0
 11
259.364586078753
 21
151.5002613305673
 31
0.0
  0
LINE
  5
5D49
330
A
100
AcDbEntity
  8
HIDDEN
100
AcDbLine
 10
272.5594107561272
 20
296.6771590141578
 30
0.0
 11
272.559410756127
 21
151.5002613305673
 31
0.0
  0
DIMENSION
  5
5D65
330
A
100
AcDbEntity
  8
寸法
100
AcDbDimension
  2
*D73
 10
53.21694996880206
 20
308.2606578570713
 30
0.0
 11
45.71694996880206
 21
342.2795800614695
 31
0.0
 70
    32
 71
     5
 42
68.03784440879627
 73
     0
 74
     0
 75
     0
  3
tfrom線あり
100
AcDbAlignedDimension
 13
69.0155645433475
 23
376.2985022658676
 33
0.0
 14
150.9745048429838
 24
308.2606578570713
 34
0.0
 50
90.0
100
AcDbRotatedDimension
1001
ACAD
1000
DSTYLE
1002
{
1070
   144
1040
1.0
1002
}
  0
DIMENSION
  5
5D84
102
{ACAD_REACTORS
330
5D86
102
}
102
{ACAD_XDICTIONARY
360
5D85
102
}
330
A
100
AcDbEntity
  8
寸法
100
AcDbDimension
  2
*D75
 10
109.206244935264
 20
389.1230326130188
 30
0.0
 11
90.40364583966254
 21
396.6230326130188
 31
0.0
 70
    32
 71
     5
 42
37.60519819120294
 73
     0
 74
     0
 75
     0
  3
tfrom線あり
100
AcDbAlignedDimension
 13
71.60104674406107
 23
374.9575436418751
 33
0.0
 14
109.206244935264
 24
374.8210401485396
 34
0.0
100
AcDbRotatedDimension
1001
ACAD
1000
DSTYLE
1002
{
1070
   144
1040
1.0
1002
}
  0
DIMENSION
  5
5D95
102
{ACAD_REACTORS
330
5D97
102
}
102
{ACAD_XDICTIONARY
360
5D96
102
}
330
A
100
AcDbEntity
  8
寸法
100
AcDbDimension
  2
*D76
 10
71.63228797240595
 20
132.6576718197912
 30
0.0
 11
81.13228797240595
 21
140.1576718197912
 31
0.0
 70
    32
 71
     5
 42
19.00000000000001
 73
     0
 74
     0
 75
     0
  3
tfrom線あり
100
AcDbAlignedDimension
 13
90.63228797240596
 23
165.6386280728821
 33
0.0
 14
71.63228797240595
 24
151.5002613305672
 34
0.0
100
AcDbRotatedDimension
1001
ACAD
1000
DSTYLE
1002
{
1070
   144
1040
1.0
1002
}
  0
DIMENSION
  5
5DA7
102
{ACAD_REACTORS
330
5DA9
102
}
102
{ACAD_XDICTIONARY
360
5DA8
102
}
330
A
100
AcDbEntity
  8
寸法
100
AcDbDimension
  2
*D77
 10
49.3049316362231
 20
174.0947554896208
 30
0.0
 11
41.8049316362231
 21
224.1729740945331
 31
0.0
 70
    32
 71
     5
 42
100.1564372098248
 73
     0
 74
     0
 75
     0
  3
tfrom線あり
100
AcDbAlignedDimension
 13
83.7504704146204
 23
274.2511926994455
 33
0.0
 14
83.7504704146204
 24
174.0947554896208
 34
0.0
 50
90.0
100
AcDbRotatedDimension
1001
ACAD
1000
DSTYLE
1002
{
1070
   144
1040
1.0
1002
}
  0
DIMENSION
  5
5DB6
330
A
100
AcDbEntity
  8
寸法
100
AcDbDimension
  2
*D78
 10
190.6322879724059
 20
115.9430292947003
 30
0.0
 11
131.1322879724059
 21
123.4430292947003
 31
0.0
 70
    32
 71
     5
 42
119.0
 73
     0
 74
     0
 75
     0
  3
tfrom線あり
100
AcDbAlignedDimension
 13
71.63228797240595
 23
143.6375747492457
 33
0.0
 14
190.6322879724059
 24
143.6375747492457
 34
0.0
100
AcDbRotatedDimension
1001
ACAD
1000
DSTYLE
1002
{
1070
   144
1040
1.0
1002
}
  0
LINE
  5
5E62
330
A
100
AcDbEntity
  8
モデル
 48
0.7
100
AcDbLine
 10
355.7708470610454
 20
270.6134865670593
 30
0.0
 11
358.493798369054
 21
269.0979182849011
 31
0.0
  0
LINE
  5
5E63
330
A
100
AcDbEntity
  8
モデル
 48
0.7
100
AcDbLine
 10
363.8619024042265
 20
269.0979182849011
 30
0.0
 11
358.493798369054
 21
269.0979182849011
 31
0.0
  0
LINE
  5
5E64
330
A
100
AcDbEntity
  8
モデル
 48
0.7
100
AcDbLine
 10
355.7708470610454
 20
270.6134865670593
 30
0.0
 11
353.0478957530363
 21
269.0979182849019
 31
0.0
  0
LINE
  5
5E65
330
A
100
AcDbEntity
  8
モデル
 48
0.7
100
AcDbLine
 10
348.1414734442438
 20
269.0979182849038
 30
0.0
 11
353.0478957530374
 21
269.0979182849024
 31
0.0
  0
LINE
  5
5E66
330
A
100
AcDbEntity
  8
モデル
 48
0.7
100
AcDbLine
 10
348.1414734442452
 20
274.2511926994461
 30
0.0
 11
348.1414734442438
 21
269.0979182849038
 31
0.0
  0
LINE
  5
5E67
330
A
100
AcDbEntity
  8
モデル
 48
0.7
100
AcDbLine
 10
348.1414734442454
 20
274.2511926994461
 30
0.0
 11
348.1414734442454
 21
269.0979182849006
 31
0.0
  0
LINE
  5
5E68
330
A
100
AcDbEntity
  8
モデル
 48
0.7
100
AcDbLine
 10
363.8619024042263
 20
274.2511926994464
 30
0.0
 11
363.8619024042265
 21
269.0979182849011
 31
0.0
  0
LINE
  5
5E69
330
A
100
AcDbEntity
  8
モデル
 48
0.7
100
AcDbLine
 10
355.7708470610454
 20
277.8888988318334
 30
0.0
 11
358.4937983690539
 21
279.4044671139918
 31
0.0
  0
LINE
  5
5E6A
330
A
100
AcDbEntity
  8
モデル
 48
0.7
100
AcDbLine
 10
363.8619024042263
 20
279.4044671139918
 30
0.0
 11
358.4937983690539
 21
279.4044671139918
 31
0.0
  0
LINE
  5
5E6B
330
A
100
AcDbEntity
  8
モデル
 48
0.7
100
AcDbLine
 10
355.7708470610454
 20
277.8888988318326
 30
0.0
 11
353.0478957530362
 21
279.4044671139902
 31
0.0
  0
LINE
  5
5E6C
330
A
100
AcDbEntity
  8
モデル
 48
0.7
100
AcDbLine
 10
348.1414734442438
 20
279.4044671139883
 30
0.0
 11
353.0478957530371
 21
279.4044671139898
 31
0.0
  0
LINE
  5
5E6D
330
A
100
AcDbEntity
  8
モデル
 48
0.7
100
AcDbLine
 10
348.1414734442452
 20
274.2511926994461
 30
0.0
 11
348.1414734442438
 21
279.4044671139883
 31
0.0
  0
LINE
  5
5E6E
330
A
100
AcDbEntity
  8
モデル
 48
0.7
100
AcDbLine
 10
348.1414734442454
 20
274.2511926994461
 30
0.0
 11
348.1414734442452
 21
279.4044671139915
 31
0.0
  0
LINE
  5
5E6F
330
A
100
AcDbEntity
  8
モデル
 48
0.7
100
AcDbLine
 10
363.8619024042263
 20
274.2511926994464
 30
0.0
 11
363.8619024042263
 21
279.4044671139918
 31
0.0
  0
LINE
  5
5E70
330
A
100
AcDbEntity
  8
モデル
100
AcDbLine
 10
439.2037496806112
 20
283.1098755433583
 30
0.0
 11
439.2037496806108
 21
274.2511926994465
 31
0.0
  0
LINE
  5
5E71
330
A
100
AcDbEntity
  8
モデル
100
AcDbLine
 10
439.2037496806112
 20
283.1098755433583
 30
0.0
 11
441.1478513256171
 21
283.1098755433583
 31
0.0
  0
LINE
  5
5E72
330
A
100
AcDbEntity
  8
モデル
100
AcDbLine
 10
441.1478513256171
 20
283.1098755433583
 30
0.0
 11
441.1478513256171
 21
274.2511926994465
 31
0.0
  0
LINE
  5
5E73
330
A
100
AcDbEntity
  8
モデル
100
AcDbLine
 10
441.1478513256171
 20
280.2512071720339
 30
0.0
 11
473.0340121945609
 21
280.2512071720341
 31
0.0
  0
LINE
  5
5E74
330
A
100
AcDbEntity
  8
モデル
100
AcDbLine
 10
473.0340121945609
 20
280.2512071720341
 30
0.0
 11
477.2037496806112
 21
278.0505123877298
 31
0.0
  0
LINE
  5
5E75
330
A
100
AcDbEntity
  8
モデル
100
AcDbLine
 10
477.2037496806112
 20
278.0505123877298
 30
0.0
 11
477.2037496806112
 21
275.8163307196571
 31
0.0
  0
LINE
  5
5E76
330
A
100
AcDbEntity
  8
モデル
100
AcDbLine
 10
477.2037496806112
 20
275.8163307196571
 30
0.0
 11
473.0340121945609
 21
275.8163307196571
 31
0.0
  0
LINE
  5
5E77
330
A
100
AcDbEntity
  8
モデル
100
AcDbLine
 10
473.0340121945609
 20
280.2512071720341
 30
0.0
 11
473.0340121945609
 21
274.2511926994468
 31
0.0
  0
LINE
  5
5E78
330
A
100
AcDbEntity
  8
モデル
100
AcDbLine
 10
441.1478513256172
 20
268.251178226859
 30
0.0
 11
473.0340121945609
 21
268.2511782268592
 31
0.0
  0
LINE
  5
5E79
330
A
100
AcDbEntity
  8
モデル
100
AcDbLine
 10
473.0340121945609
 20
268.2511782268592
 30
0.0
 11
477.2037496806112
 21
270.4518730111637
 31
0.0
  0
LINE
  5
5E7A
330
A
100
AcDbEntity
  8
モデル
100
AcDbLine
 10
477.2037496806112
 20
272.6860546792365
 30
0.0
 11
473.0340121945609
 21
272.6860546792365
 31
0.0
  0
LINE
  5
5E7B
330
A
100
AcDbEntity
  8
モデル
100
AcDbLine
 10
473.0340121945609
 20
268.2511782268592
 30
0.0
 11
473.0340121945609
 21
274.2511926994468
 31
0.0
  0
LINE
  5
5E7C
330
A
100
AcDbEntity
  8
モデル
100
AcDbLine
 10
477.2037496806112
 20
270.4518730111637
 30
0.0
 11
477.2037496806112
 21
272.6860546792365
 31
0.0
  0
LINE
  5
5E7D
330
A
100
AcDbEntity
  8
モデル
100
AcDbLine
 10
439.2037496806112
 20
265.3925098555345
 30
0.0
 11
441.1478513256172
 21
265.3925098555345
 31
0.0
  0
LINE
  5
5E7E
330
A
100
AcDbEntity
  8
モデル
100
AcDbLine
 10
441.1478513256172
 20
265.3925098555345
 30
0.0
 11
441.1478513256171
 21
274.2511926994465
 31
0.0
  0
LINE
  5
5E7F
330
A
100
AcDbEntity
  8
モデル
100
AcDbLine
 10
439.2037496806112
 20
265.3925098555345
 30
0.0
 11
439.2037496806108
 21
274.2511926994465
 31
0.0
  0
LINE
  5
5E84
330
A
100
AcDbEntity
  8
モデル
100
AcDbLine
 10
363.8619024042263
 20
279.4044671139918
 30
0.0
 11
363.8619024042263
 21
282.7005557591995
 31
0.0
  0
LINE
  5
5E85
330
A
100
AcDbEntity
  8
モデル
100
AcDbLine
 10
363.8619024042263
 20
282.7005557591995
 30
0.0
 11
365.1821833973653
 21
282.7005557591995
 31
0.0
  0
LINE
  5
5E86
330
A
100
AcDbEntity
  8
モデル
100
AcDbLine
 10
365.1821833973653
 20
282.7005557591995
 30
0.0
 11
365.1821833973653
 21
274.2511926994464
 31
0.0
  0
LINE
  5
5E87
330
A
100
AcDbEntity
  8
モデル
100
AcDbLine
 10
355.7708470610454
 20
277.8888988318326
 30
0.0
 11
355.7708470610454
 21
270.6134865670593
 31
0.0
  0
LINE
  5
5E88
330
A
100
AcDbEntity
  8
モデル
100
AcDbLine
 10
358.4937983690539
 20
279.4044671139918
 30
0.0
 11
358.493798369054
 21
269.0979182849011
 31
0.0
  0
LINE
  5
5E89
330
A
100
AcDbEntity
  8
モデル
100
AcDbLine
 10
353.0478957530362
 20
279.4044671139902
 30
0.0
 11
353.0478957530363
 21
269.0979182849019
 31
0.0
  0
LINE
  5
5E8A
330
A
100
AcDbEntity
  8
モデル
100
AcDbLine
 10
348.1414734442453
 20
276.1028553764189
 30
0.0
 11
350.1273314252315
 21
276.1028553764189
 31
0.0
  0
LINE
  5
5E8B
330
A
100
AcDbEntity
  8
モデル
100
AcDbLine
 10
350.1273314252315
 20
276.1028553764189
 30
0.0
 11
350.1273314252315
 21
274.2511926994464
 31
0.0
  0
LINE
  5
5E8C
330
A
100
AcDbEntity
  8
モデル
100
AcDbLine
 10
348.1414734442454
 20
272.399530022474
 30
0.0
 11
350.1273314252315
 21
272.399530022474
 31
0.0
  0
LINE
  5
5E8D
330
A
100
AcDbEntity
  8
モデル
100
AcDbLine
 10
350.1273314252315
 20
272.399530022474
 30
0.0
 11
350.1273314252315
 21
274.2511926994464
 31
0.0
  0
LINE
  5
5E8E
330
A
100
AcDbEntity
  8
モデル
100
AcDbLine
 10
363.8619024042263
 20
269.0979182849011
 30
0.0
 11
363.8619024042263
 21
265.8018296396936
 31
0.0
  0
LINE
  5
5E8F
330
A
100
AcDbEntity
  8
モデル
100
AcDbLine
 10
363.8619024042263
 20
265.8018296396936
 30
0.0
 11
365.1821833973653
 21
265.8018296396936
 31
0.0
  0
LINE
  5
5E90
330
A
100
AcDbEntity
  8
モデル
100
AcDbLine
 10
365.1821833973653
 20
265.8018296396936
 30
0.0
 11
365.1821833973653
 21
274.2511926994464
 31
0.0
  0
LINE
  5
5E91
330
A
100
AcDbEntity
  8
モデル
 48
0.7
100
AcDbLine
 10
355.7708470610459
 20
177.8888988318338
 30
0.0
 11
358.4937983690546
 21
179.4044671139921
 31
0.0
  0
LINE
  5
5E92
330
A
100
AcDbEntity
  8
モデル
 48
0.7
100
AcDbLine
 10
355.7708470610459
 20
177.8888988318338
 30
0.0
 11
353.0478957530369
 21
179.4044671139913
 31
0.0
  0
LINE
  5
5E93
330
A
100
AcDbEntity
  8
モデル
 48
0.7
100
AcDbLine
 10
348.1414734442458
 20
174.251192699447
 30
0.0
 11
348.1414734442444
 21
179.4044671139892
 31
0.0
  0
LINE
  5
5E94
330
A
100
AcDbEntity
  8
モデル
 48
0.7
100
AcDbLine
 10
348.1414734442459
 20
174.251192699447
 30
0.0
 11
348.1414734442459
 21
179.4044671139924
 31
0.0
  0
LINE
  5
5E95
330
A
100
AcDbEntity
  8
モデル
 48
0.7
100
AcDbLine
 10
363.861902404227
 20
174.2511926994465
 30
0.0
 11
363.8619024042272
 21
179.4044671139921
 31
0.0
  0
LINE
  5
5E96
330
A
100
AcDbEntity
  8
モデル
 48
0.7
100
AcDbLine
 10
355.7708470610459
 20
170.6134865670597
 30
0.0
 11
358.4937983690545
 21
169.0979182849012
 31
0.0
  0
LINE
  5
5E97
330
A
100
AcDbEntity
  8
モデル
 48
0.7
100
AcDbLine
 10
355.7708470610459
 20
170.6134865670604
 30
0.0
 11
353.0478957530369
 21
169.0979182849028
 31
0.0
  0
LINE
  5
5E98
330
A
100
AcDbEntity
  8
モデル
 48
0.7
100
AcDbLine
 10
348.1414734442458
 20
174.251192699447
 30
0.0
 11
348.1414734442444
 21
169.0979182849049
 31
0.0
  0
LINE
  5
5E99
330
A
100
AcDbEntity
  8
モデル
 48
0.7
100
AcDbLine
 10
348.1414734442459
 20
174.251192699447
 30
0.0
 11
348.1414734442458
 21
169.0979182849017
 31
0.0
  0
LINE
  5
5E9A
330
A
100
AcDbEntity
  8
モデル
 48
0.7
100
AcDbLine
 10
363.861902404227
 20
174.2511926994465
 30
0.0
 11
363.861902404227
 21
169.0979182849012
 31
0.0
  0
LINE
  5
5E9B
330
A
100
AcDbEntity
  8
モデル
100
AcDbLine
 10
439.2037496806116
 20
165.3925098555347
 30
0.0
 11
439.2037496806114
 21
174.2511926994464
 31
0.0
  0
LINE
  5
5E9C
330
A
100
AcDbEntity
  8
モデル
100
AcDbLine
 10
439.2037496806116
 20
165.3925098555347
 30
0.0
 11
441.1478513256176
 21
165.3925098555347
 31
0.0
  0
LINE
  5
5E9D
330
A
100
AcDbEntity
  8
モデル
100
AcDbLine
 10
441.1478513256176
 20
165.3925098555347
 30
0.0
 11
441.1478513256176
 21
174.2511926994464
 31
0.0
  0
LINE
  5
5E9E
330
A
100
AcDbEntity
  8
モデル
100
AcDbLine
 10
473.0340121945615
 20
168.2511782268587
 30
0.0
 11
477.2037496806116
 21
170.451873011163
 31
0.0
  0
LINE
  5
5E9F
330
A
100
AcDbEntity
  8
モデル
100
AcDbLine
 10
477.2037496806116
 20
170.451873011163
 30
0.0
 11
477.2037496806116
 21
172.6860546792358
 31
0.0
  0
LINE
  5
5EA0
330
A
100
AcDbEntity
  8
モデル
100
AcDbLine
 10
477.2037496806116
 20
172.6860546792358
 30
0.0
 11
473.0340121945615
 21
172.6860546792358
 31
0.0
  0
LINE
  5
5EA1
330
A
100
AcDbEntity
  8
モデル
100
AcDbLine
 10
473.0340121945615
 20
168.2511782268587
 30
0.0
 11
473.0340121945615
 21
174.251192699446
 31
0.0
  0
LINE
  5
5EA2
330
A
100
AcDbEntity
  8
モデル
100
AcDbLine
 10
473.0340121945615
 20
180.2512071720336
 30
0.0
 11
477.2037496806116
 21
178.050512387729
 31
0.0
  0
LINE
  5
5EA3
330
A
100
AcDbEntity
  8
モデル
100
AcDbLine
 10
477.2037496806116
 20
175.8163307196563
 30
0.0
 11
473.0340121945615
 21
175.8163307196563
 31
0.0
  0
LINE
  5
5EA4
330
A
100
AcDbEntity
  8
モデル
100
AcDbLine
 10
473.0340121945615
 20
180.2512071720336
 30
0.0
 11
473.0340121945615
 21
174.251192699446
 31
0.0
  0
LINE
  5
5EA5
330
A
100
AcDbEntity
  8
モデル
100
AcDbLine
 10
477.2037496806116
 20
178.050512387729
 30
0.0
 11
477.2037496806116
 21
175.8163307196563
 31
0.0
  0
LINE
  5
5EA6
330
A
100
AcDbEntity
  8
モデル
100
AcDbLine
 10
439.2037496806116
 20
183.1098755433584
 30
0.0
 11
441.1478513256178
 21
183.1098755433584
 31
0.0
  0
LINE
  5
5EA7
330
A
100
AcDbEntity
  8
モデル
100
AcDbLine
 10
441.1478513256178
 20
183.1098755433584
 30
0.0
 11
441.1478513256176
 21
174.2511926994464
 31
0.0
  0
LINE
  5
5EA8
330
A
100
AcDbEntity
  8
モデル
100
AcDbLine
 10
439.2037496806116
 20
183.1098755433584
 30
0.0
 11
439.2037496806114
 21
174.2511926994464
 31
0.0
  0
LINE
  5
5EA9
330
A
100
AcDbEntity
  8
モデル
100
AcDbLine
 10
441.1478513256178
 20
180.2512071720338
 30
0.0
 11
473.0340121945615
 21
180.2512071720336
 31
0.0
  0
LINE
  5
5EAA
330
A
100
AcDbEntity
  8
モデル
100
AcDbLine
 10
441.1478513256176
 20
168.2511782268589
 30
0.0
 11
473.0340121945615
 21
168.2511782268587
 31
0.0
  0
LINE
  5
5EAB
330
A
100
AcDbEntity
  8
モデル
100
AcDbLine
 10
428.0545454545459
 20
177.2511926994464
 30
0.0
 11
428.054545454546
 21
171.2511926994464
 31
0.0
  0
LINE
  5
5EAC
330
A
100
AcDbEntity
  8
モデル
100
AcDbLine
 10
378.054545454546
 20
171.2511926994465
 30
0.0
 11
378.054545454546
 21
177.2511926994465
 31
0.0
  0
LINE
  5
5EAD
330
A
100
AcDbEntity
  8
モデル
100
AcDbLine
 10
378.054545454546
 20
177.2511926994465
 30
0.0
 11
428.0545454545459
 21
177.2511926994464
 31
0.0
  0
LINE
  5
5EAE
330
A
100
AcDbEntity
  8
モデル
100
AcDbLine
 10
428.054545454546
 20
171.2511926994464
 30
0.0
 11
378.054545454546
 21
171.2511926994465
 31
0.0
  0
LINE
  5
5EAF
330
A
100
AcDbEntity
  8
モデル
100
AcDbLine
 10
363.861902404227
 20
169.0979182849011
 30
0.0
 11
363.861902404227
 21
165.8018296396937
 31
0.0
  0
LINE
  5
5EB0
330
A
100
AcDbEntity
  8
モデル
100
AcDbLine
 10
355.7708470610459
 20
170.6134865670604
 30
0.0
 11
355.7708470610459
 21
177.8888988318338
 31
0.0
  0
LINE
  5
5EB1
330
A
100
AcDbEntity
  8
モデル
100
AcDbLine
 10
358.4937983690545
 20
169.0979182849012
 30
0.0
 11
358.4937983690546
 21
179.4044671139921
 31
0.0
  0
LINE
  5
5EB2
330
A
100
AcDbEntity
  8
モデル
100
AcDbLine
 10
353.0478957530369
 20
169.0979182849028
 30
0.0
 11
353.0478957530369
 21
179.4044671139913
 31
0.0
  0
LINE
  5
5EB3
330
A
100
AcDbEntity
  8
モデル
100
AcDbLine
 10
348.1414734442459
 20
172.3995300224741
 30
0.0
 11
350.1273314252321
 21
172.3995300224741
 31
0.0
  0
LINE
  5
5EB4
330
A
100
AcDbEntity
  8
モデル
100
AcDbLine
 10
350.1273314252321
 20
172.3995300224741
 30
0.0
 11
350.1273314252321
 21
174.2511926994466
 31
0.0
  0
LINE
  5
5EB5
330
A
100
AcDbEntity
  8
モデル
100
AcDbLine
 10
348.1414734442459
 20
176.1028553764192
 30
0.0
 11
350.1273314252321
 21
176.1028553764191
 31
0.0
  0
LINE
  5
5EB6
330
A
100
AcDbEntity
  8
モデル
100
AcDbLine
 10
350.1273314252321
 20
176.1028553764191
 30
0.0
 11
350.1273314252321
 21
174.2511926994466
 31
0.0
  0
LINE
  5
5EB7
330
A
100
AcDbEntity
  8
モデル
 48
0.7
100
AcDbLine
 10
348.1414734442444
 20
179.4044671139892
 30
0.0
 11
353.047895753038
 21
179.4044671139906
 31
0.0
  0
LINE
  5
5EB8
330
A
100
AcDbEntity
  8
モデル
 48
0.7
100
AcDbLine
 10
348.1414734442444
 20
169.0979182849049
 30
0.0
 11
353.0478957530378
 21
169.0979182849034
 31
0.0
  0
LINE
  5
5EB9
330
A
100
AcDbEntity
  8
モデル
 48
0.7
100
AcDbLine
 10
363.861902404227
 20
169.0979182849011
 30
0.0
 11
358.4937983690545
 21
169.0979182849012
 31
0.0
  0
LINE
  5
5EBA
330
A
100
AcDbEntity
  8
モデル
 48
0.7
100
AcDbLine
 10
363.8619024042272
 20
179.404467113992
 30
0.0
 11
358.4937983690546
 21
179.4044671139921
 31
0.0
  0
LINE
  5
5EBB
330
A
100
AcDbEntity
  8
モデル
100
AcDbLine
 10
365.182183397366
 20
165.8018296396937
 30
0.0
 11
365.182183397366
 21
174.2511926994465
 31
0.0
  0
LINE
  5
5EBC
330
A
100
AcDbEntity
  8
モデル
100
AcDbLine
 10
363.861902404227
 20
179.404467113992
 30
0.0
 11
363.861902404227
 21
182.7005557591995
 31
0.0
  0
LINE
  5
5EBD
330
A
100
AcDbEntity
  8
モデル
100
AcDbLine
 10
365.182183397366
 20
182.7005557591995
 30
0.0
 11
365.182183397366
 21
174.2511926994465
 31
0.0
  0
LINE
  5
5EBE
330
A
100
AcDbEntity
  8
モデル
100
AcDbLine
 10
363.861902404227
 20
182.7005557591995
 30
0.0
 11
365.182183397366
 21
182.7005557591995
 31
0.0
  0
LINE
  5
5EBF
330
A
100
AcDbEntity
  8
モデル
100
AcDbLine
 10
363.861902404227
 20
165.8018296396937
 30
0.0
 11
365.182183397366
 21
165.8018296396937
 31
0.0
  0
TEXT
  5
5EF5
330
A
100
AcDbEntity
  8
CutoutOverlay
 62
     3
100
AcDbText
 10
487.6001818181816
 20
140.8182154267187
 30
0.0
 40
5.5
  1
木製用下穴 %%c12.5
  7
ＭＳ ゴシック
100
AcDbText
  0
LINE
  5
5F06
330
A
100
AcDbEntity
  8
モデル
100
AcDbLine
 10
428.0545454545456
 20
277.2511926994454
 30
0.0
 11
378.0545454545456
 21
277.2511926994449
 31
0.0
  0
LINE
  5
5F07
330
A
100
AcDbEntity
  8
モデル
100
AcDbLine
 10
428.0545454545456
 20
271.2511926994454
 30
0.0
 11
428.0545454545456
 21
277.2511926994454
 31
0.0
  0
LINE
  5
5F08
330
A
100
AcDbEntity
  8
モデル
100
AcDbLine
 10
378.0545454545456
 20
277.2511926994449
 30
0.0
 11
378.0545454545457
 21
271.2511926994449
 31
0.0
  0
LINE
  5
5F09
330
A
100
AcDbEntity
  8
モデル
100
AcDbLine
 10
378.0545454545457
 20
271.2511926994449
 30
0.0
 11
428.0545454545456
 21
271.2511926994454
 31
0.0
  0
TEXT
  5
5F33
330
A
100
AcDbEntity
  8
テンプレート
100
AcDbText
 10
372.2084323516021
 20
40.92050845954122
 30
0.0
 40
5.5
  1
木製扉厚50mm以上
  7
ＭＳ ゴシック
100
AcDbText
  0
VIEWPORT
  5
349
330
B
100
AcDbEntity
 67
     1
  8
0
100
AcDbViewport
 10
202.5
 20
128.5
 30
0.0
 40
486.0
 41
308.4
 68
     1
 69
     1
 12
202.5
 22
128.5
 13
0.0
 23
0.0
 14
0.5
 24
0.5
 15
0.0
 25
0.0
 16
0.0
 26
0.0
 36
1.0
 17
0.0
 27
0.0
 37
0.0
 42
50.0
 43
0.0
 44
0.0
 45
308.4
 50
0.0
 51
0.0
 72
   100
 90
   557152
  1

281
     0
 71
     1
 74
     0
110
0.0
120
0.0
130
0.0
111
1.0
121
0.0
131
0.0
112
0.0
122
1.0
132
0.0
 79
     0
146
0.0
170
     0
 61
     5
348
26C
292
     1
282
     1
141
0.0
142
0.0
 63
   256
  0
VIEWPORT
  5
34A
330
B
100
AcDbEntity
 67
     1
  8
0
100
AcDbViewport
 10
202.5
 20
128.5
 30
0.0
 40
324.0
 41
205.6
 68
     2
 69
     2
 12
986.6781359294573
 22
1427.077061889956
 13
0.0
 23
0.0
 14
0.5
 24
0.5
 15
0.0
 25
0.0
 16
0.0
 26
0.0
 36
1.0
 17
0.0
 27
0.0
 37
0.0
 42
50.0
 43
0.0
 44
0.0
 45
2890.021615685494
 50
0.0
 51
0.0
 72
   100
 90
   557152
  1

281
     0
 71
     1
 74
     0
110
0.0
120
0.0
130
0.0
111
1.0
121
0.0
131
0.0
112
0.0
122
1.0
132
0.0
 79
     0
146
0.0
170
     0
 61
     5
348
26C
292
     1
282
     1
141
0.0
142
0.0
 63
   256
  0
ENDSEC
  0
SECTION
  2
OBJECTS
  0
DICTIONARY
  5
19
330
0
100
AcDbDictionary
281
     1
  3
ACAD_COLOR
350
674
  3
ACAD_DETAILVIEWSTYLE
350
12F4
  3
ACAD_FIELDLIST
350
4E17
  3
ACAD_GROUP
350
1A
  3
ACAD_IMAGE_VARS
350
27B
  3
ACAD_LAYOUT
350
1E
  3
ACAD_MATERIAL
350
263
  3
ACAD_MLEADERSTYLE
350
336
  3
ACAD_MLINESTYLE
350
1B
  3
ACAD_PLOTSETTINGS
350
22
  3
ACAD_PLOTSTYLENAME
350
1F
  3
ACAD_SCALELIST
350
241
  3
ACAD_SECTIONVIEWSTYLE
350
12F5
  3
ACAD_TABLESTYLE
350
278
  3
ACAD_VISUALSTYLE
350
267
  3
ACDB_RECOMPOSE_DATA
350
5F3C
  3
AcDbVariableDictionary
350
330
  3
AcStStandard
350
12B9
  3
APPDATA
350
27A
  0
SUN
  5
10E8
330
15
100
AcDbSun
 90
        1
290
     0
 63
     7
421
 16777215
 40
1.0
291
     1
 91
  2455826
 92
 54000000
292
     0
 70
     2
 71
   256
280
     1
  0
DICTIONARY
  5
2E1
330
2
100
AcDbDictionary
280
     1
281
     1
  3
ACAD_LAYERSTATES
360
2E2
  3
ACLYDICTIONARY
360
5AE6
  0
DICTIONARY
  5
4CE1
330
A
100
AcDbDictionary
280
     1
281
     1
  3
ACAD_SORTENTS
360
4CE2
  0
DICTIONARY
  5
4E15
330
4E13
100
AcDbDictionary
280
     1
281
     1
  3
ACAD_FIELD
360
5F1B
  0
DICTIONARY
  5
5D85
330
5D84
100
AcDbDictionary
280
     1
281
     1
  3
ACAD_DIMASSOC
360
5D86
  0
DICTIONARY
  5
5D96
330
5D95
100
AcDbDictionary
280
     1
281
     1
  3
ACAD_DIMASSOC
360
5D97
  0
DICTIONARY
  5
5DA8
330
5DA7
100
AcDbDictionary
280
     1
281
     1
  3
ACAD_DIMASSOC
360
5DA9
  0
DICTIONARY
  5
674
102
{ACAD_REACTORS
330
19
102
}
330
19
100
AcDbDictionary
281
     1
  0
DICTIONARY
  5
12F4
102
{ACAD_REACTORS
330
19
102
}
330
19
100
AcDbDictionary
281
     1
  0
FIELDLIST
  5
4E17
102
{ACAD_REACTORS
330
19
102
}
330
19
100
AcDbIdSet
 90
        2
330
4E18
330
4E14
100
AcDbFieldList
  0
DICTIONARY
  5
1A
102
{ACAD_REACTORS
330
19
102
}
330
19
100
AcDbDictionary
281
     1
  0
RASTERVARIABLES
  5
27B
102
{ACAD_REACTORS
330
19
102
}
330
19
100
AcDbRasterVariables
 90
        0
 70
     1
 71
     1
 72
     1
  0
DICTIONARY
  5
1E
102
{ACAD_REACTORS
330
19
102
}
330
19
100
AcDbDictionary
281
     1
  3
Layout1
350
21
  3
Layout2
350
12C4
  3
Model
350
20
  0
DICTIONARY
  5
263
102
{ACAD_REACTORS
330
19
102
}
330
19
100
AcDbDictionary
281
     1
  3
ByBlock
350
385B
  3
ByLayer
350
264
  3
Global
350
266
  0
DICTIONARY
  5
336
102
{ACAD_REACTORS
330
19
102
}
330
19
100
AcDbDictionary
281
     1
  3
Standard
350
4D73
  0
DICTIONARY
  5
1B
102
{ACAD_REACTORS
330
19
102
}
330
19
100
AcDbDictionary
281
     1
  3
Standard
350
1C
  0
DICTIONARY
  5
22
102
{ACAD_REACTORS
330
19
102
}
330
19
100
AcDbDictionary
281
     1
  0
ACDBDICTIONARYWDFLT
  5
1F
102
{ACAD_REACTORS
330
19
102
}
330
19
100
AcDbDictionary
281
     1
  3
Normal
350
1D
100
AcDbDictionaryWithDefault
340
1D
  0
DICTIONARY
  5
241
102
{ACAD_REACTORS
330
19
102
}
330
19
100
AcDbDictionary
281
     1
  3
A0
350
242
  3
A1
350
243
  3
A2
350
244
  3
A3
350
245
  3
A4
350
246
  3
A5
350
247
  3
A6
350
248
  3
A7
350
249
  3
A8
350
24A
  3
A9
350
24B
  3
B0
350
24C
  3
B1
350
24D
  3
B2
350
24E
  3
B3
350
24F
  3
B4
350
250
  3
B5
350
251
  3
B6
350
252
  3
B7
350
253
  3
B8
350
254
  3
B9
350
255
  3
C0
350
256
  3
C1
350
257
  3
C2
350
258
  3
C3
350
259
  3
C4
350
25A
  3
C5
350
25B
  3
C6
350
25C
  3
C7
350
25D
  3
C8
350
25E
  3
C9
350
25F
  3
D0
350
260
  3
D1
350
261
  3
D2
350
262
  0
DICTIONARY
  5
12F5
102
{ACAD_REACTORS
330
19
102
}
330
19
100
AcDbDictionary
281
     1
  0
DICTIONARY
  5
278
102
{ACAD_REACTORS
330
19
102
}
330
19
100
AcDbDictionary
281
     1
  3
Standard
350
279
  0
DICTIONARY
  5
267
102
{ACAD_REACTORS
330
19
102
}
330
19
100
AcDbDictionary
281
     1
  3
2dWireframe
350
26C
  3
3D Hidden
350
26E
  3
3dWireframe
350
26D
  3
Basic
350
26F
  3
Brighten
350
273
  3
ColorChange
350
277
  3
Conceptual
350
271
  3
Dim
350
272
  3
EdgeColorOff
350
10E2
  3
Facepattern
350
276
  3
Flat
350
268
  3
FlatWithEdges
350
269
  3
Gouraud
350
26A
  3
GouraudWithEdges
350
26B
  3
Hidden
350
10DF
  3
JitterOff
350
10E0
  3
Linepattern
350
275
  3
OverhangOff
350
10E1
  3
Realistic
350
270
  3
Shaded
350
10E7
  3
Shaded with edges
350
10E6
  3
Shades of Gray
350
10E3
  3
Sketchy
350
10E4
  3
Thicken
350
274
  3
Wireframe
350
10DE
  3
X-Ray
350
10E5
  0
XRECORD
  5
5F3C
102
{ACAD_REACTORS
330
19
102
}
330
19
100
AcDbXrecord
280
     1
 90
        1
330
279
  0
DICTIONARY
  5
330
102
{ACAD_REACTORS
330
19
102
}
330
19
100
AcDbDictionary
281
     1
  3
CANNOSCALE
350
331
  3
CMLEADERSTYLE
350
4E1D
  3
CTABLESTYLE
350
335
  3
XCLIPFRAME
350
109E
  0
DICTIONARY
  5
12B9
102
{ACAD_REACTORS
330
19
102
}
330
19
100
AcDbDictionary
281
     1
  0
DICTIONARY
  5
27A
102
{ACAD_REACTORS
330
19
102
}
330
19
100
AcDbDictionary
281
     1
  0
DICTIONARY
  5
2E2
102
{ACAD_REACTORS
330
2E1
102
}
330
2E1
100
AcDbDictionary
281
     1
  0
DICTIONARY
  5
5AE6
102
{ACAD_REACTORS
330
2E1
102
}
330
2E1
100
AcDbDictionary
281
     1
1001
ACAD
1000
<All
  0
SORTENTSTABLE
  5
4CE2
102
{ACAD_REACTORS
330
4CE1
102
}
330
4CE1
100
AcDbSortentsTable
330
A
331
0
  5
4E0F
331
36CD
  5
36D1
331
36CE
  5
36D2
331
36CF
  5
36D5
331
36D0
  5
36D6
331
36D3
  5
36D7
331
36D4
  5
36D8
331
36D5
  5
36D9
331
36D6
  5
36DA
331
36D7
  5
36DB
331
36D8
  5
36DC
331
36D9
  5
36DD
331
36DA
  5
36DE
331
36DB
  5
36DF
331
36DC
  5
36E0
331
36DD
  5
36E1
331
36DE
  5
36E2
331
36DF
  5
36E3
331
36E0
  5
36E4
331
36E1
  5
36E5
331
36E2
  5
36E7
331
36E3
  5
36E8
331
36E5
  5
36E9
331
36E6
  5
36EA
331
36E7
  5
36EB
331
36E8
  5
36EC
331
36E9
  5
36ED
331
36EA
  5
37DE
331
36EB
  5
3FFF
331
36EC
  5
4998
331
36ED
  5
4999
331
37DE
  5
499D
331
4E13
  5
4E8B
331
4E1F
  5
4E8D
331
5B64
  5
5B66
331
5B66
  5
5B68
331
5B68
  5
5B65
  0
DICTIONARY
  5
5F1B
102
{ACAD_REACTORS
330
4E15
102
}
330
4E15
100
AcDbDictionary
280
     1
281
     1
  3
TEXT
360
4E14
  0
DIMASSOC
  5
5D86
102
{ACAD_REACTORS
330
5D85
102
}
330
5D85
100
AcDbDimAssoc
330
5D84
 90
        3
 70
     0
 71
     1
  1
AcDbOsnapPointRef
 72
    10
331
5D20
 73
     0
 91
        0
 40
3.856511567519224
 10
0.0
 20
0.0
 30
0.0
 75
     0
  1
AcDbOsnapPointRef
 72
    10
331
5D20
 73
     0
 91
        0
 40
1.078562796076895
 10
0.0
 20
0.0
 30
0.0
 75
     0
  0
DIMASSOC
  5
5D97
102
{ACAD_REACTORS
330
5D96
102
}
330
5D96
100
AcDbDimAssoc
330
5D95
 90
        2
 70
     0
 71
     1
  1
AcDbOsnapPointRef
 72
    10
331
5D21
 73
     0
 91
        0
 40
4.985862030205745
 10
0.0
 20
0.0
 30
0.0
 75
     0
  0
DIMASSOC
  5
5DA9
102
{ACAD_REACTORS
330
5DA8
102
}
330
5DA8
100
AcDbDimAssoc
330
5DA7
 90
        3
 70
     0
 71
     1
  1
AcDbOsnapPointRef
 72
    13
331
5D23
 73
     0
 91
        0
 40
0.0
 10
0.0
 20
0.0
 30
0.0
 75
     0
  1
AcDbOsnapPointRef
 72
    13
331
5D22
 73
     0
 91
        0
 40
0.0
 10
0.0
 20
0.0
 30
0.0
 75
     0
  0
LAYOUT
  5
21
102
{ACAD_REACTORS
330
1E
102
}
330
1E
100
AcDbPlotSettings
  1

  2
none_device
  4
ISO_A3_(420.00_x_297.00_MM)
  6

 40
7.5
 41
20.0
 42
7.5
 43
20.0
 44
420.0
 45
297.0
 46
0.0
 47
0.0
 48
0.0
 49
0.0
140
0.0
141
0.0
142
1.0
143
1.0
 70
     0
 72
     1
 73
     0
 74
     0
  7

 75
     0
 76
     0
 77
     2
 78
   300
147
1.0
148
0.0
149
0.0
100
AcDbLayout
  1
Layout1
 70
     0
 71
     0
 10
-7.5
 20
-20.0
 11
412.5
 21
277.0
 12
0.0
 22
0.0
 32
0.0
 14
0.0
 24
0.0
 34
0.0
 15
0.0
 25
0.0
 35
0.0
146
0.0
 13
0.0
 23
0.0
 33
0.0
 16
0.0
 26
0.0
 36
0.0
 17
0.0
 27
0.0
 37
0.0
 76
     0
330
B
331
349
  0
LAYOUT
  5
12C4
102
{ACAD_REACTORS
330
1E
102
}
330
1E
100
AcDbPlotSettings
  1

  2
none_device
  4

  6

 40
0.0
 41
0.0
 42
0.0
 43
0.0
 44
0.0
 45
0.0
 46
0.0
 47
0.0
 48
0.0
 49
0.0
140
0.0
141
0.0
142
1.0
143
1.0
 70
   688
 72
     1
 73
     0
 74
     5
  7

 75
    16
 76
     0
 77
     2
 78
   300
147
1.0
148
0.0
149
0.0
100
AcDbLayout
  1
Layout2
 70
     1
 71
     2
 10
0.0
 20
0.0
 11
0.0
 21
0.0
 12
0.0
 22
0.0
 32
0.0
 14
0.0
 24
0.0
 34
0.0
 15
0.0
 25
0.0
 35
0.0
146
0.0
 13
0.0
 23
0.0
 33
0.0
 16
1.0
 26
0.0
 36
0.0
 17
0.0
 27
1.0
 37
0.0
 76
     0
330
12C3
  0
LAYOUT
  5
20
102
{ACAD_REACTORS
330
1E
102
}
330
1E
100
AcDbPlotSettings
  1

  2
none_device
  4
ISO_A3_(420.00_x_297.00_MM)
  6

 40
7.5
 41
20.0
 42
7.5
 43
20.0
 44
420.0
 45
297.0
 46
0.0
 47
0.0
 48
0.0
 49
0.0
140
0.0
141
0.0
142
1.0
143
1.0
 70
  1024
 72
     1
 73
     0
 74
     0
  7

 75
     0
 76
     0
 77
     2
 78
   300
147
1.0
148
0.0
149
0.0
100
AcDbLayout
  1
Model
 70
     0
 71
     1
 10
0.0
 20
0.0
 11
593.9999999999999
 21
420.0
 12
0.0
 22
0.0
 32
0.0
 14
0.0
 24
0.0
 34
0.0
 15
593.9999999999999
 25
420.0
 35
0.0
146
0.0
 13
0.0
 23
0.0
 33
0.0
 16
0.0
 26
0.0
 36
0.0
 17
0.0
 27
0.0
 37
0.0
 76
     0
330
A
331
15
  0
MATERIAL
  5
385B
102
{ACAD_REACTORS
330
263
102
}
330
263
100
AcDbMaterial
  1
ByBlock
 72
     1
 94
      127
  0
MATERIAL
  5
264
102
{ACAD_REACTORS
330
263
102
}
330
263
100
AcDbMaterial
  1
ByLayer
 72
     1
 94
      127
  0
MATERIAL
  5
266
102
{ACAD_REACTORS
330
263
102
}
330
263
100
AcDbMaterial
  1
Global
 72
     1
 94
      127
  0
MLEADERSTYLE
  5
4D73
102
{ACAD_REACTORS
330
336
102
}
330
336
100
AcDbMLeaderStyle
170
     2
171
     1
172
     0
 90
        2
 40
0.0
 41
0.0
173
     1
 91
-1056964608
340
11
 92
       -2
290
     1
 42
2.0
291
     1
 43
8.0
  3
Standard
341
0
 44
4.0
300

342
17
174
     1
178
     1
175
     1
176
     0
 93
-1056964608
 45
4.0
292
     0
297
     0
 46
4.0
343
0
 94
-1056964608
 47
1.0
 49
1.0
140
1.0
293
     1
141
0.0
294
     1
177
     0
142
1.0
295
     0
296
     0
143
3.75
1001
ACAD_MLEADERVER
1070
     2
  0
MLINESTYLE
  5
1C
102
{ACAD_REACTORS
330
1B
102
}
330
1B
100
AcDbMlineStyle
  2
Standard
 70
     0
  3

 62
     0
 51
90.0
 52
90.0
 71
     2
 49
0.5
 62
   256
  6
BYLAYER
 49
-0.5
 62
   256
  6
BYLAYER
  0
ACDBPLACEHOLDER
  5
1D
102
{ACAD_REACTORS
330
1F
102
}
330
1F
  0
SCALE
  5
242
102
{ACAD_REACTORS
330
241
102
}
330
241
100
AcDbScale
 70
     0
300
1:1
140
1.0
141
1.0
290
     1
  0
SCALE
  5
243
102
{ACAD_REACTORS
330
241
102
}
330
241
100
AcDbScale
 70
     0
300
1:2
140
1.0
141
2.0
290
     0
  0
SCALE
  5
244
102
{ACAD_REACTORS
330
241
102
}
330
241
100
AcDbScale
 70
     0
300
1:4
140
1.0
141
4.0
290
     0
  0
SCALE
  5
245
102
{ACAD_REACTORS
330
241
102
}
330
241
100
AcDbScale
 70
     0
300
1:5
140
1.0
141
5.0
290
     0
  0
SCALE
  5
246
102
{ACAD_REACTORS
330
241
102
}
330
241
100
AcDbScale
 70
     0
300
1:8
140
1.0
141
8.0
290
     0
  0
SCALE
  5
247
102
{ACAD_REACTORS
330
241
102
}
330
241
100
AcDbScale
 70
     0
300
1:10
140
1.0
141
10.0
290
     0
  0
SCALE
  5
248
102
{ACAD_REACTORS
330
241
102
}
330
241
100
AcDbScale
 70
     0
300
1:16
140
1.0
141
16.0
290
     0
  0
SCALE
  5
249
102
{ACAD_REACTORS
330
241
102
}
330
241
100
AcDbScale
 70
     0
300
1:20
140
1.0
141
20.0
290
     0
  0
SCALE
  5
24A
102
{ACAD_REACTORS
330
241
102
}
330
241
100
AcDbScale
 70
     0
300
1:30
140
1.0
141
30.0
290
     0
  0
SCALE
  5
24B
102
{ACAD_REACTORS
330
241
102
}
330
241
100
AcDbScale
 70
     0
300
1:40
140
1.0
141
40.0
290
     0
  0
SCALE
  5
24C
102
{ACAD_REACTORS
330
241
102
}
330
241
100
AcDbScale
 70
     0
300
1:50
140
1.0
141
50.0
290
     0
  0
SCALE
  5
24D
102
{ACAD_REACTORS
330
241
102
}
330
241
100
AcDbScale
 70
     0
300
1:100
140
1.0
141
100.0
290
     0
  0
SCALE
  5
24E
102
{ACAD_REACTORS
330
241
102
}
330
241
100
AcDbScale
 70
     0
300
2:1
140
2.0
141
1.0
290
     0
  0
SCALE
  5
24F
102
{ACAD_REACTORS
330
241
102
}
330
241
100
AcDbScale
 70
     0
300
4:1
140
4.0
141
1.0
290
     0
  0
SCALE
  5
250
102
{ACAD_REACTORS
330
241
102
}
330
241
100
AcDbScale
 70
     0
300
8:1
140
8.0
141
1.0
290
     0
  0
SCALE
  5
251
102
{ACAD_REACTORS
330
241
102
}
330
241
100
AcDbScale
 70
     0
300
10:1
140
10.0
141
1.0
290
     0
  0
SCALE
  5
252
102
{ACAD_REACTORS
330
241
102
}
330
241
100
AcDbScale
 70
     0
300
100:1
140
100.0
141
1.0
290
     0
  0
SCALE
  5
253
102
{ACAD_REACTORS
330
241
102
}
330
241
100
AcDbScale
 70
     0
300
1/128" = 1'-0"
140
0.0078125
141
12.0
290
     0
  0
SCALE
  5
254
102
{ACAD_REACTORS
330
241
102
}
330
241
100
AcDbScale
 70
     0
300
1/64" = 1'-0"
140
0.015625
141
12.0
290
     0
  0
SCALE
  5
255
102
{ACAD_REACTORS
330
241
102
}
330
241
100
AcDbScale
 70
     0
300
1/32" = 1'-0"
140
0.03125
141
12.0
290
     0
  0
SCALE
  5
256
102
{ACAD_REACTORS
330
241
102
}
330
241
100
AcDbScale
 70
     0
300
1/16" = 1'-0"
140
0.0625
141
12.0
290
     0
  0
SCALE
  5
257
102
{ACAD_REACTORS
330
241
102
}
330
241
100
AcDbScale
 70
     0
300
3/32" = 1'-0"
140
0.09375
141
12.0
290
     0
  0
SCALE
  5
258
102
{ACAD_REACTORS
330
241
102
}
330
241
100
AcDbScale
 70
     0
300
1/8" = 1'-0"
140
0.125
141
12.0
290
     0
  0
SCALE
  5
259
102
{ACAD_REACTORS
330
241
102
}
330
241
100
AcDbScale
 70
     0
300
3/16" = 1'-0"
140
0.1875
141
12.0
290
     0
  0
SCALE
  5
25A
102
{ACAD_REACTORS
330
241
102
}
330
241
100
AcDbScale
 70
     0
300
1/4" = 1'-0"
140
0.25
141
12.0
290
     0
  0
SCALE
  5
25B
102
{ACAD_REACTORS
330
241
102
}
330
241
100
AcDbScale
 70
     0
300
3/8" = 1'-0"
140
0.375
141
12.0
290
     0
  0
SCALE
  5
25C
102
{ACAD_REACTORS
330
241
102
}
330
241
100
AcDbScale
 70
     0
300
1/2" = 1'-0"
140
0.5
141
12.0
290
     0
  0
SCALE
  5
25D
102
{ACAD_REACTORS
330
241
102
}
330
241
100
AcDbScale
 70
     0
300
3/4" = 1'-0"
140
0.75
141
12.0
290
     0
  0
SCALE
  5
25E
102
{ACAD_REACTORS
330
241
102
}
330
241
100
AcDbScale
 70
     0
300
1" = 1'-0"
140
1.0
141
12.0
290
     0
  0
SCALE
  5
25F
102
{ACAD_REACTORS
330
241
102
}
330
241
100
AcDbScale
 70
     0
300
1-1/2" = 1'-0"
140
1.5
141
12.0
290
     0
  0
SCALE
  5
260
102
{ACAD_REACTORS
330
241
102
}
330
241
100
AcDbScale
 70
     0
300
3" = 1'-0"
140
3.0
141
12.0
290
     0
  0
SCALE
  5
261
102
{ACAD_REACTORS
330
241
102
}
330
241
100
AcDbScale
 70
     0
300
6" = 1'-0"
140
6.0
141
12.0
290
     0
  0
SCALE
  5
262
102
{ACAD_REACTORS
330
241
102
}
330
241
100
AcDbScale
 70
     0
300
1'-0" = 1'-0"
140
12.0
141
12.0
290
     0
  0
TABLESTYLE
  5
279
102
{ACAD_REACTORS
330
278
102
}
102
{ACAD_XDICTIONARY
360
5F3A
102
}
330
278
100
AcDbTableStyle
  3
Standard
 70
     0
 71
     0
 40
0.06
 41
0.06
280
     0
281
     0
  7
Standard
140
4.5
170
     2
 62
     0
 63
   257
283
     0
 90
        4
 91
        0
  1

274
    -2
284
     1
 64
     0
275
    -2
285
     1
 65
     0
276
    -2
286
     1
 66
     0
277
    -2
287
     1
 67
     0
278
    -2
288
     1
 68
     0
279
    -2
289
     1
 69
     0
  7
Standard
140
6.0
170
     5
 62
     0
 63
   257
283
     0
 90
        4
 91
        0
  1

274
    -2
284
     1
 64
     0
275
    -2
285
     1
 65
     0
276
    -2
286
     1
 66
     0
277
    -2
287
     1
 67
     0
278
    -2
288
     1
 68
     0
279
    -2
289
     1
 69
     0
  7
Standard
140
4.5
170
     5
 62
     0
 63
   257
283
     0
 90
        4
 91
        0
  1

274
    -2
284
     1
 64
     0
275
    -2
285
     1
 65
     0
276
    -2
286
     1
 66
     0
277
    -2
287
     1
 67
     0
278
    -2
288
     1
 68
     0
279
    -2
289
     1
 69
     0
  0
VISUALSTYLE
  5
26C
102
{ACAD_REACTORS
330
267
102
}
330
267
100
AcDbVisualStyle
  2
2dWireframe
 70
     4
 71
     0
 72
     2
 73
     0
 90
        0
 40
-0.6
 41
-30.0
 62
     5
 63
     7
421
 16777215
 74
     1
 91
        4
 64
     7
 65
   257
 75
     1
175
     1
 42
1.0
 92
        0
 66
   257
 43
1.0
 76
     1
 77
     6
 78
     2
 67
     7
 79
     5
170
     0
171
     0
290
     0
174
     0
 93
        1
 44
0.0
173
     0
291
     0
 45
0.0
  0
VISUALSTYLE
  5
26E
102
{ACAD_REACTORS
330
267
102
}
330
267
100
AcDbVisualStyle
  2
3D Hidden
 70
     6
 71
     1
 72
     2
 73
     2
 90
        0
 40
-0.6
 41
-30.0
 62
     5
 63
     7
421
 16777215
 74
     2
 91
        2
 64
     7
 65
   257
 75
     2
175
     1
 42
40.0
 92
        0
 66
   257
 43
1.0
 76
     1
 77
     6
 78
     2
 67
     7
 79
     3
170
     0
171
     0
290
     0
174
     0
 93
        1
 44
0.0
173
     0
291
     0
 45
0.0
  0
VISUALSTYLE
  5
26D
102
{ACAD_REACTORS
330
267
102
}
330
267
100
AcDbVisualStyle
  2
3dWireframe
 70
     5
 71
     0
 72
     2
 73
     0
 90
        0
 40
-0.6
 41
-30.0
 62
     5
 63
     7
421
 16777215
 74
     1
 91
        4
 64
     7
 65
   257
 75
     1
175
     1
 42
1.0
 92
        0
 66
   257
 43
1.0
 76
     1
 77
     6
 78
     2
 67
     7
 79
     5
170
     0
171
     0
290
     0
174
     0
 93
        1
 44
0.0
173
     0
291
     0
 45
0.0
  0
VISUALSTYLE
  5
26F
102
{ACAD_REACTORS
330
267
102
}
330
267
100
AcDbVisualStyle
  2
Basic
 70
     7
 71
     1
 72
     0
 73
     1
 90
        0
 40
-0.6
 41
-30.0
 62
     5
 63
     7
421
 16777215
 74
     0
 91
        4
 64
     7
 65
   257
 75
     1
175
     1
 42
1.0
 92
        8
 66
     7
 43
1.0
 76
     1
 77
     6
 78
     2
 67
     7
 79
     5
170
     0
171
     0
290
     0
174
     0
 93
        1
 44
0.0
173
     0
291
     1
 45
0.0
  0
VISUALSTYLE
  5
273
102
{ACAD_REACTORS
330
267
102
}
330
267
100
AcDbVisualStyle
  2
Brighten
 70
    12
 71
     2
 72
     2
 73
     0
 90
        0
 40
-0.6
 41
-30.0
 62
     5
 63
     7
421
 16777215
 74
     1
 91
        4
 64
     7
 65
   257
 75
     1
175
     1
 42
1.0
 92
        8
 66
     7
 43
1.0
 76
     1
 77
     6
 78
     2
 67
     7
 79
     5
170
     0
171
     0
290
     0
174
     0
 93
        1
 44
50.0
173
     0
291
     1
 45
0.0
  0
VISUALSTYLE
  5
277
102
{ACAD_REACTORS
330
267
102
}
330
267
100
AcDbVisualStyle
  2
ColorChange
 70
    16
 71
     2
 72
     2
 73
     3
 90
        0
 40
-0.6
 41
-30.0
 62
     5
 63
     8
421
  8421504
 74
     1
 91
        4
 64
     7
 65
   257
 75
     1
175
     1
 42
1.0
 92
        8
 66
     8
424
  8421504
 43
1.0
 76
     1
 77
     6
 78
     2
 67
     7
 79
     5
170
     0
171
     0
290
     0
174
     0
 93
        1
 44
0.0
173
     0
291
     1
 45
0.0
  0
VISUALSTYLE
  5
271
102
{ACAD_REACTORS
330
267
102
}
330
267
100
AcDbVisualStyle
  2
Conceptual
 70
     9
 71
     3
 72
     2
 73
     0
 90
        0
 40
-0.6
 41
-30.0
 62
     5
 63
     7
421
 16777215
 74
     2
 91
        2
 64
     7
 65
   257
 75
     1
175
     1
 42
40.0
 92
        8
 66
     7
 43
1.0
 76
     1
 77
     6
 78
     2
 67
     7
 79
     3
170
     0
171
     0
290
     0
174
     0
 93
        1
 44
0.0
173
     0
291
     0
 45
0.0
  0
VISUALSTYLE
  5
272
102
{ACAD_REACTORS
330
267
102
}
330
267
100
AcDbVisualStyle
  2
Dim
 70
    11
 71
     2
 72
     2
 73
     0
 90
        0
 40
-0.6
 41
-30.0
 62
     5
 63
     7
421
 16777215
 74
     1
 91
        4
 64
     7
 65
   257
 75
     1
175
     1
 42
1.0
 92
        8
 66
     7
 43
1.0
 76
     1
 77
     6
 78
     2
 67
     7
 79
     5
170
     0
171
     0
290
     0
174
     0
 93
        1
 44
-50.0
173
     0
291
     1
 45
0.0
  0
VISUALSTYLE
  5
10E2
102
{ACAD_REACTORS
330
267
102
}
330
267
100
AcDbVisualStyle
  2
EdgeColorOff
 70
    22
 71
     2
 72
     2
 73
     0
 90
        0
 40
0.6
 41
30.0
 62
     5
 63
     7
421
 16777215
 74
     1
 91
        4
 64
     7
 65
   257
 75
     1
175
     1
 42
1.0
 92
        8
 66
     7
 43
1.0
 76
     1
 77
     6
 78
     2
 67
     7
 79
     5
170
     0
171
     0
290
     0
174
     0
 93
        1
 44
0.0
173
     0
291
     1
 45
0.0
  0
VISUALSTYLE
  5
276
102
{ACAD_REACTORS
330
267
102
}
330
267
100
AcDbVisualStyle
  2
Facepattern
 70
    15
 71
     2
 72
     2
 73
     0
 90
        0
 40
-0.6
 41
-30.0
 62
     5
 63
     7
421
 16777215
 74
     1
 91
        4
 64
     7
 65
   257
 75
     1
175
     1
 42
1.0
 92
        8
 66
     7
 43
1.0
 76
     1
 77
     6
 78
     2
 67
     7
 79
     5
170
     0
171
     0
290
     0
174
     0
 93
        1
 44
0.0
173
     0
291
     1
 45
0.0
  0
VISUALSTYLE
  5
268
102
{ACAD_REACTORS
330
267
102
}
330
267
100
AcDbVisualStyle
  2
Flat
 70
     0
 71
     2
 72
     1
 73
     1
 90
        2
 40
-0.6
 41
30.0
 62
     5
 63
     7
421
 16777215
 74
     0
 91
        4
 64
     7
 65
   257
 75
     1
175
     1
 42
1.0
 92
        8
 66
     7
 43
1.0
 76
     1
 77
     6
 78
     2
 67
     7
 79
     5
170
     0
171
     0
290
     0
174
     0
 93
       13
 44
0.0
173
     0
291
     1
 45
0.0
  0
VISUALSTYLE
  5
269
102
{ACAD_REACTORS
330
267
102
}
330
267
100
AcDbVisualStyle
  2
FlatWithEdges
 70
     1
 71
     2
 72
     1
 73
     1
 90
        2
 40
-0.6
 41
30.0
 62
     5
 63
     7
421
 16777215
 74
     1
 91
        4
 64
     7
 65
   257
 75
     1
175
     1
 42
1.0
 92
        0
 66
   257
 43
1.0
 76
     1
 77
     6
 78
     2
 67
     7
 79
     5
170
     0
171
     0
290
     0
174
     0
 93
       13
 44
0.0
173
     0
291
     1
 45
0.0
  0
VISUALSTYLE
  5
26A
102
{ACAD_REACTORS
330
267
102
}
330
267
100
AcDbVisualStyle
  2
Gouraud
 70
     2
 71
     2
 72
     2
 73
     1
 90
        2
 40
-0.6
 41
30.0
 62
     5
 63
     7
421
 16777215
 74
     0
 91
        4
 64
     7
 65
   257
 75
     1
175
     1
 42
1.0
 92
        0
 66
     7
 43
1.0
 76
     1
 77
     6
 78
     2
 67
     7
 79
     5
170
     0
171
     0
290
     0
174
     0
 93
       13
 44
0.0
173
     0
291
     1
 45
0.0
  0
VISUALSTYLE
  5
26B
102
{ACAD_REACTORS
330
267
102
}
330
267
100
AcDbVisualStyle
  2
GouraudWithEdges
 70
     3
 71
     2
 72
     2
 73
     1
 90
        2
 40
-0.6
 41
30.0
 62
     5
 63
     7
421
 16777215
 74
     1
 91
        4
 64
     7
 65
   257
 75
     1
175
     1
 42
1.0
 92
        0
 66
   257
 43
1.0
 76
     1
 77
     6
 78
     2
 67
     7
 79
     5
170
     0
171
     0
290
     0
174
     0
 93
       13
 44
0.0
173
     0
291
     1
 45
0.0
  0
VISUALSTYLE
  5
10DF
102
{ACAD_REACTORS
330
267
102
}
330
267
100
AcDbVisualStyle
  2
Hidden
 70
     6
 71
     1
 72
     2
 73
     2
 90
        0
 40
0.6
 41
30.0
 62
     5
 63
     7
421
 16777215
 74
     2
 91
        2
 64
     7
 65
   257
 75
     2
175
     1
 42
40.0
 92
        0
 66
   257
 43
1.0
 76
     1
 77
     6
 78
     2
 67
     7
 79
     3
170
     0
171
     0
290
     0
174
     0
 93
        1
 44
0.0
173
     0
291
     0
 45
0.0
  0
VISUALSTYLE
  5
10E0
102
{ACAD_REACTORS
330
267
102
}
330
267
100
AcDbVisualStyle
  2
JitterOff
 70
    20
 71
     2
 72
     2
 73
     0
 90
        0
 40
0.6
 41
30.0
 62
     5
 63
     7
421
 16777215
 74
     1
 91
        4
 64
     7
 65
   257
 75
     1
175
     1
 42
1.0
 92
       10
 66
     7
 43
1.0
 76
     1
 77
     6
 78
     2
 67
     7
 79
     5
170
     0
171
     0
290
     0
174
     0
 93
        1
 44
0.0
173
     0
291
     1
 45
0.0
  0
VISUALSTYLE
  5
275
102
{ACAD_REACTORS
330
267
102
}
330
267
100
AcDbVisualStyle
  2
Linepattern
 70
    14
 71
     2
 72
     2
 73
     0
 90
        0
 40
-0.6
 41
-30.0
 62
     5
 63
     7
421
 16777215
 74
     1
 91
        4
 64
     7
 65
   257
 75
     7
175
     7
 42
1.0
 92
        8
 66
     7
 43
1.0
 76
     1
 77
     6
 78
     2
 67
     7
 79
     5
170
     0
171
     0
290
     0
174
     0
 93
        1
 44
0.0
173
     0
291
     1
 45
0.0
  0
VISUALSTYLE
  5
10E1
102
{ACAD_REACTORS
330
267
102
}
330
267
100
AcDbVisualStyle
  2
OverhangOff
 70
    21
 71
     2
 72
     2
 73
     0
 90
        0
 40
0.6
 41
30.0
 62
     5
 63
     7
421
 16777215
 74
     1
 91
        4
 64
     7
 65
   257
 75
     1
175
     1
 42
1.0
 92
        9
 66
     7
 43
1.0
 76
     1
 77
     6
 78
     2
 67
     7
 79
     5
170
     0
171
     0
290
     0
174
     0
 93
        1
 44
0.0
173
     0
291
     1
 45
0.0
  0
VISUALSTYLE
  5
270
102
{ACAD_REACTORS
330
267
102
}
330
267
100
AcDbVisualStyle
  2
Realistic
 70
     8
 71
     2
 72
     2
 73
     0
 90
        0
 40
-0.6
 41
-30.0
 62
     5
 63
     7
421
 16777215
 74
     1
 91
        0
 64
     7
 65
   257
 75
     1
175
     1
 42
1.0
 92
        8
 66
     8
424
  7895160
 43
1.0
 76
     1
 77
     6
 78
     2
 67
     7
 79
     5
170
     0
171
     0
290
     0
174
     0
 93
       13
 44
0.0
173
     0
291
     0
 45
0.0
  0
VISUALSTYLE
  5
10E7
102
{ACAD_REACTORS
330
267
102
}
330
267
100
AcDbVisualStyle
  2
Shaded
 70
    27
 71
     2
 72
     2
 73
     1
 90
        2
 40
0.6
 41
30.0
 62
     5
 63
     7
421
 16777215
 74
     0
 91
        4
 64
     7
 65
   257
 75
     1
175
     1
 42
1.0
 92
        8
 66
   257
 43
1.0
 76
     1
 77
     6
 78
     2
 67
     8
425
  7895160
 79
     3
170
     0
171
     0
290
     0
174
     0
 93
        5
 44
0.0
173
     0
291
     0
 45
0.0
  0
VISUALSTYLE
  5
10E6
102
{ACAD_REACTORS
330
267
102
}
330
267
100
AcDbVisualStyle
  2
Shaded with edges
 70
    26
 71
     2
 72
     2
 73
     1
 90
        2
 40
0.6
 41
30.0
 62
     5
 63
     7
421
 16777215
 74
     1
 91
       10
 64
     7
 65
   257
 75
     2
175
     1
 42
1.0
 92
        8
 66
   257
 43
1.0
 76
     1
 77
     6
 78
     2
 67
     7
 79
     3
170
     0
171
     0
290
     0
174
     0
 93
        5
 44
0.0
173
     0
291
     0
 45
0.0
  0
VISUALSTYLE
  5
10E3
102
{ACAD_REACTORS
330
267
102
}
330
267
100
AcDbVisualStyle
  2
Shades of Gray
 70
    23
 71
     2
 72
     2
 73
     3
 90
        0
 40
0.6
 41
30.0
 62
     5
 63
     7
421
 16777215
 74
     2
 91
        2
 64
     7
 65
     7
 75
     1
175
     1
 42
40.0
 92
        8
 66
     7
 43
1.0
 76
     1
 77
     6
 78
     2
 67
     7
 79
     3
170
     0
171
     0
290
     0
174
     0
 93
        1
 44
0.0
173
     0
291
     0
 45
0.0
  0
VISUALSTYLE
  5
10E4
102
{ACAD_REACTORS
330
267
102
}
330
267
100
AcDbVisualStyle
  2
Sketchy
 70
    24
 71
     1
 72
     2
 73
     2
 90
        0
 40
0.6
 41
30.0
 62
     5
 63
     7
421
 16777215
 74
     2
 91
        2
 64
     7
 65
     7
 75
     1
175
     1
 42
40.0
 92
       11
 66
     7
 43
1.0
 76
     1
 77
     6
 78
     2
 67
     7
 79
     6
170
     0
171
     0
290
     0
174
     0
 93
        1
 44
0.0
173
     0
291
     0
 45
0.0
  0
VISUALSTYLE
  5
274
102
{ACAD_REACTORS
330
267
102
}
330
267
100
AcDbVisualStyle
  2
Thicken
 70
    13
 71
     2
 72
     2
 73
     0
 90
        0
 40
-0.6
 41
-30.0
 62
     5
 63
     7
421
 16777215
 74
     1
 91
        4
 64
     7
 65
   257
 75
     1
175
     1
 42
1.0
 92
       12
 66
     7
 43
1.0
 76
     1
 77
     6
 78
     2
 67
     7
 79
     5
170
     0
171
     0
290
     0
174
     0
 93
        1
 44
0.0
173
     0
291
     1
 45
0.0
  0
VISUALSTYLE
  5
10DE
102
{ACAD_REACTORS
330
267
102
}
330
267
100
AcDbVisualStyle
  2
Wireframe
 70
     5
 71
     0
 72
     2
 73
     0
 90
        0
 40
0.6
 41
30.0
 62
     5
 63
     7
421
 16777215
 74
     1
 91
        4
 64
     7
 65
   257
 75
     1
175
     1
 42
1.0
 92
        0
 66
   257
 43
1.0
 76
     1
 77
     6
 78
     2
 67
     7
 79
     3
170
     0
171
     0
290
     0
174
     0
 93
        1
 44
0.0
173
     0
291
     0
 45
0.0
  0
VISUALSTYLE
  5
10E5
102
{ACAD_REACTORS
330
267
102
}
330
267
100
AcDbVisualStyle
  2
X-Ray
 70
    25
 71
     2
 72
     2
 73
     1
 90
        1
 40
0.5
 41
30.0
 62
     5
 63
     7
421
 16777215
 74
     1
 91
        0
 64
     7
 65
   257
 75
     1
175
     1
 42
1.0
 92
        8
 66
     7
 43
1.0
 76
     1
 77
     6
 78
     2
 67
     7
 79
     3
170
     0
171
     0
290
     0
174
     0
 93
       13
 44
0.0
173
     0
291
     0
 45
0.0
  0
DICTIONARYVAR
  5
331
102
{ACAD_REACTORS
330
330
102
}
330
330
100
DictionaryVariables
280
     0
  1
1:1
  0
DICTIONARYVAR
  5
4E1D
102
{ACAD_REACTORS
330
330
102
}
330
330
100
DictionaryVariables
280
     0
  1
Standard
  0
DICTIONARYVAR
  5
335
102
{ACAD_REACTORS
330
330
102
}
330
330
100
DictionaryVariables
280
     0
  1
Standard
  0
DICTIONARYVAR
  5
109E
102
{ACAD_REACTORS
330
330
102
}
330
330
100
DictionaryVariables
280
     0
  1
0
  0
FIELD
  5
4E14
102
{ACAD_REACTORS
330
5F1B
102
}
330
5F1B
100
AcDbField
  1
_text
  2
{%<\_FldIdx 0>%N}
 90
        1
360
4E18
 97
        0
 91
       63
 92
        0
 94
       11
 95
        2
 96
        0
300

 93
        1
  6
ACFD_FIELDTEXT_CHECKSUM
 93
        2
 90
        2
140
4589.0
 94
        0
300

302

304
ACVALUE_END
  7
ACFD_FIELD_VALUE
 93
        6
 90
        4
  1
{20180928N}
 94
        0
300

302

304
ACVALUE_END
301
{20180928N}
 98
       11
  0
DICTIONARY
  5
5F3A
330
279
100
AcDbDictionary
280
     1
281
     1
  3
ACAD_ROUNDTRIP_2008_TABLESTYLE_CELLSTYLEMAP
360
5F3B
  0
FIELD
  5
4E18
330
4E14
100
AcDbField
  1
AcVar
  2
\AcVar Date \f "yyyyMMdd"
 90
        0
 97
        0
 91
       63
 92
        0
 94
       11
 95
       64
 96
        0
300
Variable not supported
 93
        1
  6
Variable
 93
        2
 90
        4
  1
Date
 94
        0
300

302

304
ACVALUE_END
  7
ACFD_FIELD_VALUE
 93
        6
 90
        8
 92
       16
310
E207090000001B00100034002C000000
 94
        0
300
yyyyMMdd
302

304
ACVALUE_END
301
20180928
 98
        8
  0
CELLSTYLEMAP
  5
5F3B
102
{ACAD_REACTORS
330
5F3A
102
}
330
5F3A
100
AcDbCellStyleMap
 90
        3
300
CELLSTYLE
  1
TABLEFORMAT_BEGIN
 90
        5
170
     1
 91
        0
 92
    32768
 62
   257
 93
        1
300
CONTENTFORMAT
  1
CONTENTFORMAT_BEGIN
 90
        0
 91
        0
 92
        4
 93
        0
300

 40
0.0
140
1.0
 94
        5
 62
     0
340
17
144
6.0
309
CONTENTFORMAT_END
171
     1
301
MARGIN
  1
CELLMARGIN_BEGIN
 40
0.06
 40
0.06
 40
0.06
 40
0.06
 40
0.18
 40
0.18
309
CELLMARGIN_END
 94
        6
 95
        1
302
GRIDFORMAT
  1
GRIDFORMAT_BEGIN
 90
        0
 91
        1
 62
     0
 92
       -2
340
0
 93
        0
 40
0.045
309
GRIDFORMAT_END
 95
        2
302
GRIDFORMAT
  1
GRIDFORMAT_BEGIN
 90
        0
 91
        1
 62
     0
 92
       -2
340
0
 93
        0
 40
0.045
309
GRIDFORMAT_END
 95
        4
302
GRIDFORMAT
  1
GRIDFORMAT_BEGIN
 90
        0
 91
        1
 62
     0
 92
       -2
340
0
 93
        0
 40
0.045
309
GRIDFORMAT_END
 95
        8
302
GRIDFORMAT
  1
GRIDFORMAT_BEGIN
 90
        0
 91
        1
 62
     0
 92
       -2
340
0
 93
        0
 40
0.045
309
GRIDFORMAT_END
 95
       16
302
GRIDFORMAT
  1
GRIDFORMAT_BEGIN
 90
        0
 91
        1
 62
     0
 92
       -2
340
0
 93
        0
 40
0.045
309
GRIDFORMAT_END
 95
       32
302
GRIDFORMAT
  1
GRIDFORMAT_BEGIN
 90
        0
 91
        1
 62
     0
 92
       -2
340
0
 93
        0
 40
0.045
309
GRIDFORMAT_END
309
TABLEFORMAT_END
  1
CELLSTYLE_BEGIN
 90
        1
 91
        1
300
_TITLE
309
CELLSTYLE_END
300
CELLSTYLE
  1
TABLEFORMAT_BEGIN
 90
        5
170
     1
 91
        0
 92
        0
 62
   257
 93
        1
300
CONTENTFORMAT
  1
CONTENTFORMAT_BEGIN
 90
        0
 91
        0
 92
        4
 93
        0
300

 40
0.0
140
1.0
 94
        5
 62
     0
340
17
144
4.5
309
CONTENTFORMAT_END
171
     1
301
MARGIN
  1
CELLMARGIN_BEGIN
 40
0.06
 40
0.06
 40
0.06
 40
0.06
 40
0.18
 40
0.18
309
CELLMARGIN_END
 94
        6
 95
        1
302
GRIDFORMAT
  1
GRIDFORMAT_BEGIN
 90
        0
 91
        1
 62
     0
 92
       -2
340
0
 93
        0
 40
0.045
309
GRIDFORMAT_END
 95
        2
302
GRIDFORMAT
  1
GRIDFORMAT_BEGIN
 90
        0
 91
        1
 62
     0
 92
       -2
340
0
 93
        0
 40
0.045
309
GRIDFORMAT_END
 95
        4
302
GRIDFORMAT
  1
GRIDFORMAT_BEGIN
 90
        0
 91
        1
 62
     0
 92
       -2
340
0
 93
        0
 40
0.045
309
GRIDFORMAT_END
 95
        8
302
GRIDFORMAT
  1
GRIDFORMAT_BEGIN
 90
        0
 91
        1
 62
     0
 92
       -2
340
0
 93
        0
 40
0.045
309
GRIDFORMAT_END
 95
       16
302
GRIDFORMAT
  1
GRIDFORMAT_BEGIN
 90
        0
 91
        1
 62
     0
 92
       -2
340
0
 93
        0
 40
0.045
309
GRIDFORMAT_END
 95
       32
302
GRIDFORMAT
  1
GRIDFORMAT_BEGIN
 90
        0
 91
        1
 62
     0
 92
       -2
340
0
 93
        0
 40
0.045
309
GRIDFORMAT_END
309
TABLEFORMAT_END
  1
CELLSTYLE_BEGIN
 90
        2
 91
        1
300
_HEADER
309
CELLSTYLE_END
300
CELLSTYLE
  1
TABLEFORMAT_BEGIN
 90
        5
170
     1
 91
        0
 92
        0
 62
   257
 93
        1
300
CONTENTFORMAT
  1
CONTENTFORMAT_BEGIN
 90
        0
 91
        0
 92
        4
 93
        0
300

 40
0.0
140
1.0
 94
        2
 62
     0
340
17
144
4.5
309
CONTENTFORMAT_END
171
     1
301
MARGIN
  1
CELLMARGIN_BEGIN
 40
0.06
 40
0.06
 40
0.06
 40
0.06
 40
0.18
 40
0.18
309
CELLMARGIN_END
 94
        6
 95
        1
302
GRIDFORMAT
  1
GRIDFORMAT_BEGIN
 90
        0
 91
        1
 62
     0
 92
       -2
340
0
 93
        0
 40
0.045
309
GRIDFORMAT_END
 95
        2
302
GRIDFORMAT
  1
GRIDFORMAT_BEGIN
 90
        0
 91
        1
 62
     0
 92
       -2
340
0
 93
        0
 40
0.045
309
GRIDFORMAT_END
 95
        4
302
GRIDFORMAT
  1
GRIDFORMAT_BEGIN
 90
        0
 91
        1
 62
     0
 92
       -2
340
0
 93
        0
 40
0.045
309
GRIDFORMAT_END
 95
        8
302
GRIDFORMAT
  1
GRIDFORMAT_BEGIN
 90
        0
 91
        1
 62
     0
 92
       -2
340
0
 93
        0
 40
0.045
309
GRIDFORMAT_END
 95
       16
302
GRIDFORMAT
  1
GRIDFORMAT_BEGIN
 90
        0
 91
        1
 62
     0
 92
       -2
340
0
 93
        0
 40
0.045
309
GRIDFORMAT_END
 95
       32
302
GRIDFORMAT
  1
GRIDFORMAT_BEGIN
 90
        0
 91
        1
 62
     0
 92
       -2
340
0
 93
        0
 40
0.045
309
GRIDFORMAT_END
309
TABLEFORMAT_END
  1
CELLSTYLE_BEGIN
 90
        3
 91
        2
300
_DATA
309
CELLSTYLE_END
  0
ENDSEC
  0
EOF
