  0
SECTION
  2
HEADER
  9
$ACADVER
  1
AC1021
  9
$ACADMAINTVER
 70
    25
  9
$DWGCODEPAGE
  3
ANSI_932
  9
$LASTSAVEDBY
  1
howeNelson
  9
$INSBASE
 10
0.0
 20
0.0
 30
0.0
  9
$EXTMIN
 10
0.0
 20
0.0
 30
0.0
  9
$EXTMAX
 10
593.9999999999999
 20
420.0
 30
0.0
  9
$LIMMIN
 10
0.0
 20
0.0
  9
$LIMMAX
 10
593.9999999999999
 20
420.0
  9
$ORTHOMODE
 70
     0
  9
$REGENMODE
 70
     1
  9
$FILLMODE
 70
     1
  9
$QTEXTMODE
 70
     0
  9
$MIRRTEXT
 70
     1
  9
$LTSCALE
 40
0.5
  9
$ATTMODE
 70
     1
  9
$TEXTSIZE
 40
2.5
  9
$TRACEWID
 40
1.0
  9
$TEXTSTYLE
  7
ＭＳ ゴシック
  9
$CLAYER
  8
寸法
  9
$CELTYPE
  6
ByLayer
  9
$CECOLOR
 62
   256
  9
$CELTSCALE
 40
1.0
  9
$DISPSILH
 70
     0
  9
$DIMSCALE
 40
1.0
  9
$DIMASZ
 40
2.0
  9
$DIMEXO
 40
5.0
  9
$DIMDLI
 40
0.9999999999999999
  9
$DIMRND
 40
0.0
  9
$DIMDLE
 40
0.0
  9
$DIMEXE
 40
0.0
  9
$DIMTP
 40
0.0
  9
$DIMTM
 40
0.0
  9
$DIMTXT
 40
5.0
  9
$DIMCEN
 40
0.0
  9
$DIMTSZ
 40
0.0
  9
$DIMTOL
 70
     0
  9
$DIMLIM
 70
     0
  9
$DIMTIH
 70
     0
  9
$DIMTOH
 70
     0
  9
$DIMSE1
 70
     0
  9
$DIMSE2
 70
     0
  9
$DIMTAD
 70
     1
  9
$DIMZIN
 70
    11
  9
$DIMBLK
  1
DOT
  9
$DIMASO
 70
     1
  9
$DIMSHO
 70
     1
  9
$DIMPOST
  1
<>
  9
$DIMAPOST
  1
[]
  9
$DIMALT
 70
     0
  9
$DIMALTD
 70
     1
  9
$DIMALTF
 40
1.0
  9
$DIMLFAC
 40
1.0
  9
$DIMTOFL
 70
     0
  9
$DIMTVP
 40
0.0
  9
$DIMTIX
 70
     1
  9
$DIMSOXD
 70
     0
  9
$DIMSAH
 70
     0
  9
$DIMBLK1
  1

  9
$DIMBLK2
  1

  9
$DIMSTYLE
  2
tfrom線あり
  9
$DIMCLRD
 70
     0
  9
$DIMCLRE
 70
     0
  9
$DIMCLRT
 70
     0
  9
$DIMTFAC
 40
1.0
  9
$DIMGAP
 40
3.0
  9
$DIMJUST
 70
     0
  9
$DIMSD1
 70
     0
  9
$DIMSD2
 70
     0
  9
$DIMTOLJ
 70
     1
  9
$DIMTZIN
 70
    11
  9
$DIMALTZ
 70
    11
  9
$DIMALTTZ
 70
    11
  9
$DIMUPT
 70
     0
  9
$DIMDEC
 70
     0
  9
$DIMTDEC
 70
     1
  9
$DIMALTU
 70
     2
  9
$DIMALTTD
 70
     2
  9
$DIMTXSTY
  7
ＭＳ ゴシック
  9
$DIMAUNIT
 70
     0
  9
$DIMADEC
 70
     2
  9
$DIMALTRND
 40
0.0
  9
$DIMAZIN
 70
     0
  9
$DIMDSEP
 70
    46
  9
$DIMATFIT
 70
     0
  9
$DIMFRAC
 70
     2
  9
$DIMLDRBLK
  1
DOT
  9
$DIMLUNIT
 70
     2
  9
$DIMLWD
 70
    -2
  9
$DIMLWE
 70
    -2
  9
$DIMTMOVE
 70
     0
  9
$DIMFXL
 40
1.0
  9
$DIMFXLON
 70
     0
  9
$DIMJOGANG
 40
0.7853981633974483
  9
$DIMTFILL
 70
     0
  9
$DIMTFILLCLR
 70
     0
  9
$DIMARCSYM
 70
     0
  9
$DIMLTYPE
  6

  9
$DIMLTEX1
  6

  9
$DIMLTEX2
  6

  9
$LUNITS
 70
     2
  9
$LUPREC
 70
     0
  9
$SKETCHINC
 40
0.1
  9
$FILLETRAD
 40
1.0
  9
$AUNITS
 70
     0
  9
$AUPREC
 70
     0
  9
$MENU
  1
acad
  9
$ELEVATION
 40
0.0
  9
$PELEVATION
 40
0.0
  9
$THICKNESS
 40
0.0
  9
$LIMCHECK
 70
     0
  9
$CHAMFERA
 40
0.0
  9
$CHAMFERB
 40
0.0
  9
$CHAMFERC
 40
0.0
  9
$CHAMFERD
 40
0.0
  9
$SKPOLY
 70
     0
  9
$TDCREATE
 40
2447893.375
  9
$TDUCREATE
 40
0.0
  9
$TDUPDATE
 40
2458338.633671852
  9
$TDUUPDATE
 40
2458338.258671852
  9
$TDINDWG
 40
0.0181227431
  9
$TDUSRTIMER
 40
0.0026275926
  9
$USRTIMER
 70
     1
  9
$ANGBASE
 50
0.0
  9
$ANGDIR
 70
     0
  9
$PDMODE
 70
     1
  9
$PDSIZE
 40
-2.0
  9
$PLINEWID
 40
0.0
  9
$SPLFRAME
 70
     0
  9
$SPLINETYPE
 70
     6
  9
$SPLINESEGS
 70
     8
  9
$HANDSEED
  5
6478
  9
$SURFTAB1
 70
     6
  9
$SURFTAB2
 70
     6
  9
$SURFTYPE
 70
     6
  9
$SURFU
 70
     6
  9
$SURFV
 70
     6
  9
$UCSBASE
  2

  9
$UCSNAME
  2

  9
$UCSORG
 10
0.0
 20
0.0
 30
0.0
  9
$UCSXDIR
 10
1.0
 20
0.0
 30
0.0
  9
$UCSYDIR
 10
0.0
 20
1.0
 30
0.0
  9
$UCSORTHOREF
  2

  9
$UCSORTHOVIEW
 70
     0
  9
$UCSORGTOP
 10
0.0
 20
0.0
 30
0.0
  9
$UCSORGBOTTOM
 10
0.0
 20
0.0
 30
0.0
  9
$UCSORGLEFT
 10
0.0
 20
0.0
 30
0.0
  9
$UCSORGRIGHT
 10
0.0
 20
0.0
 30
0.0
  9
$UCSORGFRONT
 10
0.0
 20
0.0
 30
0.0
  9
$UCSORGBACK
 10
0.0
 20
0.0
 30
0.0
  9
$PUCSBASE
  2

  9
$PUCSNAME
  2

  9
$PUCSORG
 10
0.0
 20
0.0
 30
0.0
  9
$PUCSXDIR
 10
1.0
 20
0.0
 30
0.0
  9
$PUCSYDIR
 10
0.0
 20
1.0
 30
0.0
  9
$PUCSORTHOREF
  2

  9
$PUCSORTHOVIEW
 70
     0
  9
$PUCSORGTOP
 10
0.0
 20
0.0
 30
0.0
  9
$PUCSORGBOTTOM
 10
0.0
 20
0.0
 30
0.0
  9
$PUCSORGLEFT
 10
0.0
 20
0.0
 30
0.0
  9
$PUCSORGRIGHT
 10
0.0
 20
0.0
 30
0.0
  9
$PUCSORGFRONT
 10
0.0
 20
0.0
 30
0.0
  9
$PUCSORGBACK
 10
0.0
 20
0.0
 30
0.0
  9
$USERI1
 70
     0
  9
$USERI2
 70
     0
  9
$USERI3
 70
     0
  9
$USERI4
 70
     0
  9
$USERI5
 70
     0
  9
$USERR1
 40
0.0
  9
$USERR2
 40
0.0
  9
$USERR3
 40
0.0
  9
$USERR4
 40
0.0
  9
$USERR5
 40
0.0
  9
$WORLDVIEW
 70
     1
  9
$SHADEDGE
 70
     3
  9
$SHADEDIF
 70
    70
  9
$TILEMODE
 70
     1
  9
$MAXACTVP
 70
    64
  9
$PINSBASE
 10
0.0
 20
0.0
 30
0.0
  9
$PLIMCHECK
 70
     0
  9
$PEXTMIN
 10
0.0
 20
0.0
 30
0.0
  9
$PEXTMAX
 10
0.0
 20
0.0
 30
0.0
  9
$PLIMMIN
 10
-7.5
 20
-20.0
  9
$PLIMMAX
 10
412.5
 20
277.0
  9
$UNITMODE
 70
     0
  9
$VISRETAIN
 70
     0
  9
$PLINEGEN
 70
     1
  9
$PSLTSCALE
 70
     0
  9
$TREEDEPTH
 70
  3020
  9
$CMLSTYLE
  2
Standard
  9
$CMLJUST
 70
     0
  9
$CMLSCALE
 40
1.0
  9
$PROXYGRAPHICS
 70
     0
  9
$MEASUREMENT
 70
     1
  9
$CELWEIGHT
370
    -1
  9
$ENDCAPS
280
     0
  9
$JOINSTYLE
280
     0
  9
$LWDISPLAY
290
     1
  9
$INSUNITS
 70
     4
  9
$HYPERLINKBASE
  1

  9
$STYLESHEET
  1

  9
$XEDIT
290
     1
  9
$CEPSNTYPE
380
     0
  9
$PSTYLEMODE
290
     1
  9
$FINGERPRINTGUID
  2

  9
$VERSIONGUID
  2

  9
$EXTNAMES
290
     1
  9
$PSVPSCALE
 40
0.0
  9
$OLESTARTUP
290
     0
  9
$SORTENTS
280
   127
  9
$INDEXCTL
280
     0
  9
$HIDETEXT
280
     1
  9
$XCLIPFRAME
290
     0
  9
$HALOGAP
280
     0
  9
$OBSCOLOR
 70
   257
  9
$OBSLTYPE
280
     0
  9
$INTERSECTIONDISPLAY
280
     0
  9
$INTERSECTIONCOLOR
 70
   257
  9
$DIMASSOC
280
     2
  9
$PROJECTNAME
  1

  9
$CAMERADISPLAY
290
     0
  9
$LENSLENGTH
 40
50.0
  9
$CAMERAHEIGHT
 40
0.0
  9
$STEPSPERSEC
 40
2.0
  9
$STEPSIZE
 40
6.0
  9
$3DDWFPREC
 40
2.0
  9
$PSOLWIDTH
 40
0.25
  9
$PSOLHEIGHT
 40
4.0
  9
$LOFTANG1
 40
1.570796326794897
  9
$LOFTANG2
 40
1.570796326794897
  9
$LOFTMAG1
 40
0.0
  9
$LOFTMAG2
 40
0.0
  9
$LOFTPARAM
 70
     7
  9
$LOFTNORMALS
280
     1
  9
$LATITUDE
 40
37.795
  9
$LONGITUDE
 40
-122.394
  9
$NORTHDIRECTION
 40
0.0
  9
$TIMEZONE
 70
 -8000
  9
$LIGHTGLYPHDISPLAY
280
     1
  9
$TILEMODELIGHTSYNCH
280
     1
  9
$SOLIDHIST
280
     1
  9
$SHOWHIST
280
     1
  9
$DWFFRAME
280
     2
  9
$DGNFRAME
280
     2
  9
$REALWORLDSCALE
290
     1
  9
$INTERFERECOLOR
 62
   256
  9
$CSHADOW
280
     0
  9
$SHADOWPLANELOCATION
 40
0.0
  0
ENDSEC
  0
SECTION
  2
CLASSES
  0
CLASS
  1
LWPOLYLINE
  2
AcDbPolyline
  3
ObjectDBX Classes
 90
        0
 91
        1
280
     0
281
     1
  0
CLASS
  1
IMAGE
  2
AcDbRasterImage
  3
ISM
 90
      127
 91
        5
280
     0
281
     1
  0
CLASS
  1
OLE2FRAME
  2
AcDbOle2Frame
  3
ObjectDBX Classes
 90
        0
 91
        1
280
     0
281
     1
  0
CLASS
  1
HATCH
  2
AcDbHatch
  3
ObjectDBX Classes
 90
        0
 91
        1
280
     0
281
     1
  0
CLASS
  1
DICTIONARYVAR
  2
AcDbDictionaryVar
  3
ObjectDBX Classes
 90
        0
 91
        4
280
     0
281
     0
  0
CLASS
  1
RASTERVARIABLES
  2
AcDbRasterVariables
  3
ISM
 90
        0
 91
        4
280
     0
281
     0
  0
CLASS
  1
IMAGEDEF
  2
AcDbRasterImageDef
  3
ISM
 90
        0
 91
        4
280
     0
281
     0
  0
CLASS
  1
IMAGEDEF_REACTOR
  2
AcDbRasterImageDefReactor
  3
ISM
 90
        1
 91
        4
280
     0
281
     0
  0
CLASS
  1
IDBUFFER
  2
AcDbIdBuffer
  3
ObjectDBX Classes
 90
        0
 91
        4
280
     0
281
     0
  0
CLASS
  1
SPATIAL_FILTER
  2
AcDbSpatialFilter
  3
ObjectDBX Classes
 90
        0
 91
        4
280
     0
281
     0
  0
CLASS
  1
XRECORD
  2
AcDbXrecord
  3
ObjectDBX Classes
 90
        0
 91
        1
280
     0
281
     0
  0
CLASS
  1
SORTENTSTABLE
  2
AcDbSortentsTable
  3
ObjectDBX Classes
 90
        0
 91
        4
280
     0
281
     0
  0
CLASS
  1
LAYER_INDEX
  2
AcDbLayerIndex
  3
ObjectDBX Classes
 90
        0
 91
        4
280
     0
281
     0
  0
CLASS
  1
SPATIAL_INDEX
  2
AcDbSpatialIndex
  3
AutoCAD 2000
 90
        0
 91
        4
280
     0
281
     0
  0
CLASS
  1
OBJECT_PTR
  2
CAseDLPNTableRecord
  3
ASE-LPNTableRecord
 90
        1
 91
        4
280
     0
281
     0
  0
CLASS
  1
LAYOUT
  2
AcDbLayout
  3
ObjectDBX Classes
 90
        0
 91
        1
280
     0
281
     0
  0
CLASS
  1
PLOTSETTINGS
  2
AcDbPlotSettings
  3
ObjectDBX Classes
 90
        0
 91
        4
280
     0
281
     0
  0
CLASS
  1
ACDBDICTIONARYWDFLT
  2
AcDbDictionaryWithDefault
  3
ObjectDBX Classes
 90
        0
 91
        4
280
     0
281
     0
  0
CLASS
  1
ACDBPLACEHOLDER
  2
AcDbPlaceHolder
  3
ObjectDBX Classes
 90
        0
 91
        1
280
     0
281
     0
  0
CLASS
  1
SCALE
  2
AcDbScale
  3
ObjectDBX Classes
 90
     1153
 91
        4
280
     0
281
     0
  0
CLASS
  1
MATERIAL
  2
AcDbMaterial
  3
ObjectDBX Classes
 90
     1153
 91
        4
280
     0
281
     0
  0
CLASS
  1
VISUALSTYLE
  2
AcDbVisualStyle
  3
ObjectDBX Classes
 90
     4095
 91
        4
280
     0
281
     0
  0
CLASS
  1
TABLESTYLE
  2
AcDbTableStyle
  3
ObjectDBX Classes
 90
     4095
 91
        4
280
     0
281
     0
  0
CLASS
  1
DIMASSOC
  2
AcDbDimAssoc
  3
"AcDbDimAssoc|Product Desc:     AcDim ARX App For Dimension|Company:          Autodesk, Inc.|WEB Address:      www.autodesk.com"
 90
        0
 91
        4
280
     0
281
     0
  0
CLASS
  1
CELLSTYLEMAP
  2
AcDbCellStyleMap
  3
ObjectDBX Classes
 90
     1152
 91
        4
280
     0
281
     0
  0
CLASS
  1
SUN
  2
AcDbSun
  3
SCENEOE
 90
     1153
 91
        4
280
     0
281
     0
  0
CLASS
  1
MLEADERSTYLE
  2
AcDbMLeaderStyle
  3
ACDB_MLEADERSTYLE_CLASS
 90
     4095
 91
        4
280
     0
281
     0
  0
CLASS
  1
FIELD
  2
AcDbField
  3
ObjectDBX Classes
 90
     1152
 91
        4
280
     0
281
     0
  0
CLASS
  1
FIELDLIST
  2
AcDbFieldList
  3
ObjectDBX Classes
 90
     1152
 91
        4
280
     0
281
     0
  0
ENDSEC
  0
SECTION
  2
TABLES
  0
TABLE
  2
VPORT
  5
7
330
0
100
AcDbSymbolTable
 70
     1
  0
VPORT
  5
15
330
7
100
AcDbSymbolTableRecord
100
AcDbViewportTableRecord
  2
*ACTIVE
 70
     0
 10
0.0
 20
0.0
 11
1.0
 21
1.0
 12
296.9999999999999
 22
210.0
 13
0.0
 23
0.0
 14
1.0
 24
1.0
 15
0.0
 25
0.0
 16
0.0
 26
0.0
 36
1.0
 17
0.0
 27
0.0
 37
0.0
 40
428.4
 41
2.214386459802539
 42
50.0
 43
0.0
 44
0.0
 50
0.0
 51
0.0
 71
    16
 72
  2000
 73
     1
 74
     1
 75
     0
 76
     0
 77
     0
 78
     0
281
     0
 65
     1
110
0.0
120
0.0
130
0.0
111
1.0
121
0.0
131
0.0
112
0.0
122
1.0
132
0.0
 79
     0
146
0.0
348
26C
 60
     3
 61
     5
292
     1
282
     1
141
0.0
142
0.0
 63
   256
361
10E8
  0
ENDTAB
  0
TABLE
  2
LTYPE
  5
4
330
0
100
AcDbSymbolTable
 70
     2
  0
LTYPE
  5
11
330
4
100
AcDbSymbolTableRecord
100
AcDbLinetypeTableRecord
  2
ByBlock
 70
     0
  3

 72
    65
 73
     0
 40
0.0
  0
LTYPE
  5
12
330
4
100
AcDbSymbolTableRecord
100
AcDbLinetypeTableRecord
  2
ByLayer
 70
     0
  3
Solid line
 72
    65
 73
     0
 40
0.0
  0
LTYPE
  5
13
330
4
100
AcDbSymbolTableRecord
100
AcDbLinetypeTableRecord
  2
Continuous
 70
     0
  3
Solid line
 72
    65
 73
     0
 40
0.0
  0
LTYPE
  5
12C7
330
4
100
AcDbSymbolTableRecord
100
AcDbLinetypeTableRecord
  2
HIDDEN
 70
     0
  3
Hidden _ _ _ _ _ _ _ _ _ _ _ _ _ _ _ _ _ _ _ _ 
 72
    65
 73
     2
 40
9.524999999999999
 49
6.35
 74
     0
 49
-3.175
 74
     0
  0
ENDTAB
  0
TABLE
  2
LAYER
  5
2
102
{ACAD_XDICTIONARY
360
2E1
102
}
330
0
100
AcDbSymbolTable
 70
     7
  0
LAYER
  5
14
330
2
100
AcDbSymbolTableRecord
100
AcDbLayerTableRecord
  2
0
 70
     0
 62
     7
  6
Continuous
370
    -3
390
1D
347
266
  0
LAYER
  5
4A
330
2
100
AcDbSymbolTableRecord
100
AcDbLayerTableRecord
  2
Defpoints
 70
     0
 62
     7
  6
Continuous
290
     0
370
    -3
390
1D
347
266
  0
LAYER
  5
12CE
330
2
100
AcDbSymbolTableRecord
100
AcDbLayerTableRecord
  2
寸法
 70
     0
 62
     3
  6
Continuous
370
    13
390
1D
347
266
1001
AcAecLayerStandard
1000

1000

  0
LAYER
  5
12CF
330
2
100
AcDbSymbolTableRecord
100
AcDbLayerTableRecord
  2
モデル
 70
     0
 62
     7
  6
Continuous
370
    20
390
1D
347
266
1001
AcAecLayerStandard
1000

1000

  0
LAYER
  5
142A
330
2
100
AcDbSymbolTableRecord
100
AcDbLayerTableRecord
  2
テンプレート
 70
     0
 62
     7
  6
Continuous
370
    20
390
1D
347
266
1001
AcAecLayerStandard
1000

1000

  0
LAYER
  5
1D5C
330
2
100
AcDbSymbolTableRecord
100
AcDbLayerTableRecord
  2
TFORMLOGO
 70
     0
 62
     7
  6
Continuous
370
    20
390
1D
347
266
  0
LAYER
  5
3848
330
2
100
AcDbSymbolTableRecord
100
AcDbLayerTableRecord
  2
PRINT BORDER
 70
     0
 62
     4
  6
Continuous
290
     0
370
    -3
390
1D
347
266
1001
AcAecLayerStandard
1000

1000

  0
ENDTAB
  0
TABLE
  2
STYLE
  5
3
330
0
100
AcDbSymbolTable
 70
     2
  0
STYLE
  5
17
330
3
100
AcDbSymbolTableRecord
100
AcDbTextStyleTableRecord
  2
Standard
 70
     0
 40
0.0
 41
1.0
 50
0.0
 71
     0
 42
2.5
  3
txt
  4
BIGFONT.SHX
  0
STYLE
  5
39
330
3
100
AcDbSymbolTableRecord
100
AcDbTextStyleTableRecord
  2
ＭＳ ゴシック
 70
     0
 40
0.0
 41
1.0
 50
0.0
 71
     0
 42
2.5
  3
msgothic.ttc
  4
ＭＳ ゴシック
1001
ACAD
1000
ＭＳ ゴシック
1071
        0
  0
ENDTAB
  0
TABLE
  2
VIEW
  5
5
330
0
100
AcDbSymbolTable
 70
     0
  0
ENDTAB
  0
TABLE
  2
UCS
  5
6
330
0
100
AcDbSymbolTable
 70
     0
  0
ENDTAB
  0
TABLE
  2
APPID
  5
8
330
0
100
AcDbSymbolTable
 70
     3
  0
APPID
  5
16
330
8
100
AcDbSymbolTableRecord
100
AcDbRegAppTableRecord
  2
ACAD
 70
     0
  0
APPID
  5
7AC
330
8
100
AcDbSymbolTableRecord
100
AcDbRegAppTableRecord
  2
AcAecLayerStandard
 70
     0
  0
APPID
  5
43A3
330
8
100
AcDbSymbolTableRecord
100
AcDbRegAppTableRecord
  2
ACAD_MLEADERVER
 70
     0
  0
ENDTAB
  0
TABLE
  2
DIMSTYLE
  5
9
330
0
100
AcDbSymbolTable
 70
     2
100
AcDbDimStyleTable
  0
DIMSTYLE
105
18
330
9
100
AcDbSymbolTableRecord
100
AcDbDimStyleTableRecord
  2
Standard
 70
     0
178
     0
340
17
  0
DIMSTYLE
105
57
102
{ACAD_REACTORS
330
63FF
330
640C
102
}
330
9
100
AcDbSymbolTableRecord
100
AcDbDimStyleTableRecord
  2
tfrom線あり
 70
     0
  3
<>
  4
[]
 41
2.0
 42
5.0
 43
0.9999999999999999
 44
0.0
 73
     0
 74
     0
 77
     1
 78
    11
140
5.0
141
0.0
143
1.0
147
3.0
171
     1
174
     1
178
     0
179
     2
271
     0
272
     1
276
     2
284
    11
285
    11
286
    11
289
     0
340
39
341
4E
342
4E
  0
ENDTAB
  0
TABLE
  2
BLOCK_RECORD
  5
1
330
0
100
AcDbSymbolTable
 70
    14
  0
BLOCK_RECORD
  5
A
330
1
100
AcDbSymbolTableRecord
100
AcDbBlockTableRecord
  2
*MODEL_SPACE
340
20
 70
     0
280
     1
281
     0
  0
BLOCK_RECORD
  5
B
330
1
100
AcDbSymbolTableRecord
100
AcDbBlockTableRecord
  2
*PAPER_SPACE
340
21
 70
     0
280
     1
281
     0
  0
BLOCK_RECORD
  5
4E
330
1
100
AcDbSymbolTableRecord
100
AcDbBlockTableRecord
  2
_DOT
340
0
102
{BLKREFS
331
565F
331
5660
331
566E
331
566F
331
5683
331
5684
331
63ED
331
63EE
331
6406
331
6407
331
6415
331
6416
331
6427
331
6428
102
}
 70
     0
280
     1
281
     0
  0
BLOCK_RECORD
  5
12C3
330
1
100
AcDbSymbolTableRecord
100
AcDbBlockTableRecord
  2
*Paper_Space1
340
12C4
 70
     0
280
     1
281
     0
  0
BLOCK_RECORD
  5
1D88
330
1
100
AcDbSymbolTableRecord
100
AcDbBlockTableRecord
  2
名称未設定-1
340
0
102
{BLKREFS
331
36E3
102
}
 70
     1
280
     1
281
     0
  0
BLOCK_RECORD
  5
1D8B
330
1
100
AcDbSymbolTableRecord
100
AcDbBlockTableRecord
  2
block 2
340
0
102
{BLKREFS
331
1D8A
102
}
 70
     0
280
     1
281
     0
  0
BLOCK_RECORD
  5
1D8E
330
1
100
AcDbSymbolTableRecord
100
AcDbBlockTableRecord
  2
block 3
340
0
102
{BLKREFS
331
1D8D
102
}
 70
     0
280
     1
281
     0
  0
BLOCK_RECORD
  5
1D91
330
1
100
AcDbSymbolTableRecord
100
AcDbBlockTableRecord
  2
block 4
340
0
102
{BLKREFS
331
1D90
102
}
 70
     0
280
     1
281
     0
  0
BLOCK_RECORD
  5
1DA0
330
1
100
AcDbSymbolTableRecord
100
AcDbBlockTableRecord
  2
block 5
340
0
102
{BLKREFS
331
1D9F
102
}
 70
     0
280
     1
281
     0
  0
BLOCK_RECORD
  5
5659
330
1
100
AcDbSymbolTableRecord
100
AcDbBlockTableRecord
  2
*D7
340
0
 70
     0
280
     1
281
     0
  0
BLOCK_RECORD
  5
5668
330
1
100
AcDbSymbolTableRecord
100
AcDbBlockTableRecord
  2
*D8
340
0
 70
     0
280
     1
281
     0
  0
BLOCK_RECORD
  5
567D
330
1
100
AcDbSymbolTableRecord
100
AcDbBlockTableRecord
  2
*D9
340
0
 70
     0
280
     1
281
     0
  0
BLOCK_RECORD
  5
63E7
330
1
100
AcDbSymbolTableRecord
100
AcDbBlockTableRecord
  2
*D10
340
0
 70
     0
280
     1
281
     0
  0
BLOCK_RECORD
  5
6400
330
1
100
AcDbSymbolTableRecord
100
AcDbBlockTableRecord
  2
*D11
340
0
 70
     0
280
     1
281
     0
  0
BLOCK_RECORD
  5
640F
330
1
100
AcDbSymbolTableRecord
100
AcDbBlockTableRecord
  2
*D12
340
0
 70
     0
280
     1
281
     0
  0
BLOCK_RECORD
  5
6421
330
1
100
AcDbSymbolTableRecord
100
AcDbBlockTableRecord
  2
*D13
340
0
 70
     0
280
     1
281
     0
  0
ENDTAB
  0
ENDSEC
  0
SECTION
  2
BLOCKS
  0
BLOCK
  5
D
330
A
100
AcDbEntity
  8
0
390
1D
100
AcDbBlockBegin
  2
*MODEL_SPACE
 70
     0
 10
0.0
 20
0.0
 30
0.0
  3
*MODEL_SPACE
  1
*MODEL_SPACE
  0
ENDBLK
  5
E
330
A
100
AcDbEntity
  8
0
390
1D
100
AcDbBlockEnd
  0
BLOCK
  5
F
330
B
100
AcDbEntity
 67
     1
  8
0
390
1D
100
AcDbBlockBegin
  2
*PAPER_SPACE
 70
     0
 10
0.0
 20
0.0
 30
0.0
  3
*PAPER_SPACE
  1
*PAPER_SPACE
  0
ENDBLK
  5
10
330
B
100
AcDbEntity
 67
     1
  8
0
390
1D
100
AcDbBlockEnd
  0
BLOCK
  5
5320
330
4E
100
AcDbEntity
  8
0
390
1D
100
AcDbBlockBegin
  2
_DOT
 70
     0
 10
0.0
 20
0.0
 30
0.0
  3
_DOT
  1
_DOT
  0
POLYLINE
  5
5322
330
4E
100
AcDbEntity
  8
0
  6
ByBlock
 62
     0
370
    -2
390
1D
100
AcDb2dPolyline
 66
     1
 10
0.0
 20
0.0
 30
0.0
 70
     1
 40
0.5
 41
0.5
  0
VERTEX
  5
5323
330
5322
100
AcDbEntity
  8
0
  6
ByBlock
 62
     0
370
    -2
390
1D
100
AcDbVertex
100
AcDb2dVertex
 10
-0.25
 20
0.0
 30
0.0
 42
1.0
  0
VERTEX
  5
5324
330
5322
100
AcDbEntity
  8
0
  6
ByBlock
 62
     0
370
    -2
390
1D
100
AcDbVertex
100
AcDb2dVertex
 10
0.25
 20
0.0
 30
0.0
 42
1.0
  0
SEQEND
  5
5325
330
5322
100
AcDbEntity
  8
0
390
1D
  0
LINE
  5
5326
330
4E
100
AcDbEntity
  8
0
  6
ByBlock
 62
     0
370
    -2
390
1D
100
AcDbLine
 10
-0.5
 20
0.0
 30
0.0
 11
-1.0
 21
0.0
 31
0.0
  0
ENDBLK
  5
5327
330
4E
100
AcDbEntity
  8
0
390
1D
100
AcDbBlockEnd
  0
BLOCK
  5
12C5
330
12C3
100
AcDbEntity
  8
0
100
AcDbBlockBegin
  2
*Paper_Space1
 70
     0
 10
0.0
 20
0.0
 30
0.0
  3
*Paper_Space1
  1
*Paper_Space83
  0
ENDBLK
  5
12C6
330
12C3
100
AcDbEntity
  8
0
100
AcDbBlockEnd
  0
BLOCK
  5
1D89
330
1D88
100
AcDbEntity
  8
0
100
AcDbBlockBegin
  2
名称未設定-1
 70
     0
 10
0.0
 20
0.0
 30
0.0
  3
名称未設定-1
  1
名称未設定-1
  0
INSERT
  5
1D8A
330
1D88
100
AcDbEntity
  8
TFORMLOGO
100
AcDbBlockReference
  2
block 2
 10
0.0
 20
0.0
 30
0.0
  0
ENDBLK
  5
1DAF
330
1D88
100
AcDbEntity
  8
0
100
AcDbBlockEnd
  0
BLOCK
  5
1D8C
330
1D8B
100
AcDbEntity
  8
0
100
AcDbBlockBegin
  2
block 2
 70
     0
 10
0.0
 20
0.0
 30
0.0
  3
block 2
  1
block 2
  0
INSERT
  5
1D8D
330
1D8B
100
AcDbEntity
  8
TFORMLOGO
100
AcDbBlockReference
  2
block 3
 10
0.0
 20
0.0
 30
0.0
  0
ENDBLK
  5
1DAE
330
1D8B
100
AcDbEntity
  8
0
100
AcDbBlockEnd
  0
BLOCK
  5
1D8F
330
1D8E
100
AcDbEntity
  8
0
100
AcDbBlockBegin
  2
block 3
 70
     0
 10
0.0
 20
0.0
 30
0.0
  3
block 3
  1
block 3
  0
INSERT
  5
1D90
330
1D8E
100
AcDbEntity
  8
TFORMLOGO
100
AcDbBlockReference
  2
block 4
 10
0.0
 20
0.0
 30
0.0
  0
ENDBLK
  5
1DAD
330
1D8E
100
AcDbEntity
  8
0
100
AcDbBlockEnd
  0
BLOCK
  5
1D92
330
1D91
100
AcDbEntity
  8
0
100
AcDbBlockBegin
  2
block 4
 70
     0
 10
0.0
 20
0.0
 30
0.0
  3
block 4
  1
block 4
  0
POLYLINE
  5
1D93
330
1D91
100
AcDbEntity
  8
TFORMLOGO
370
     0
100
AcDb2dPolyline
 66
     1
 10
0.0
 20
0.0
 30
0.0
  0
VERTEX
  5
1D94
330
1D93
100
AcDbEntity
  8
TFORMLOGO
370
     0
100
AcDbVertex
100
AcDb2dVertex
 10
83.79545727667795
 20
167.6444858234922
 30
0.0
  0
VERTEX
  5
1D95
330
1D93
100
AcDbEntity
  8
TFORMLOGO
370
     0
100
AcDbVertex
100
AcDb2dVertex
 10
83.79545727667795
 20
159.7968976406313
 30
0.0
  0
VERTEX
  5
1D96
330
1D93
100
AcDbEntity
  8
TFORMLOGO
370
     0
100
AcDbVertex
100
AcDb2dVertex
 10
71.3631329975216
 20
159.7968976406313
 30
0.0
  0
VERTEX
  5
1D97
330
1D93
100
AcDbEntity
  8
TFORMLOGO
370
     0
100
AcDbVertex
100
AcDb2dVertex
 10
71.3631329975216
 20
127.8027915271048
 30
0.0
  0
VERTEX
  5
1D98
330
1D93
100
AcDbEntity
  8
TFORMLOGO
370
     0
100
AcDbVertex
100
AcDb2dVertex
 10
60.43011526263018
 20
127.8027915271048
 30
0.0
  0
VERTEX
  5
1D99
330
1D93
100
AcDbEntity
  8
TFORMLOGO
370
     0
100
AcDbVertex
100
AcDb2dVertex
 10
60.43011526263018
 20
159.7968976406313
 30
0.0
  0
VERTEX
  5
1D9A
330
1D93
100
AcDbEntity
  8
TFORMLOGO
370
     0
100
AcDbVertex
100
AcDb2dVertex
 10
48.21793273020759
 20
159.7968976406313
 30
0.0
  0
VERTEX
  5
1D9B
330
1D93
100
AcDbEntity
  8
TFORMLOGO
370
     0
100
AcDbVertex
100
AcDb2dVertex
 10
48.21793273020759
 20
167.6444858234922
 30
0.0
  0
VERTEX
  5
1D9C
330
1D93
100
AcDbEntity
  8
TFORMLOGO
370
     0
100
AcDbVertex
100
AcDb2dVertex
 10
83.79545727667795
 20
167.6444858234922
 30
0.0
  0
SEQEND
  5
1D9D
330
1D93
100
AcDbEntity
  8
TFORMLOGO
370
     0
  0
HATCH
  5
1D9E
330
1D91
100
AcDbEntity
  8
TFORMLOGO
 62
   250
420
  2234388
100
AcDbHatch
 10
0.0
 20
0.0
 30
0.0
210
0.0
220
0.0
230
1.0
  2
SOLID
 70
     1
 71
     0
 91
        1
 92
        1
 93
        8
 72
     1
 10
83.79545727667795
 20
167.6444858234922
 11
83.79545727667795
 21
159.7968976406313
 72
     1
 10
83.79545727667795
 20
159.7968976406313
 11
71.3631329975216
 21
159.7968976406313
 72
     1
 10
71.3631329975216
 20
159.7968976406313
 11
71.3631329975216
 21
127.8027915271048
 72
     1
 10
71.3631329975216
 20
127.8027915271048
 11
60.43011526263018
 21
127.8027915271048
 72
     1
 10
60.43011526263018
 20
127.8027915271048
 11
60.43011526263018
 21
159.7968976406313
 72
     1
 10
60.43011526263018
 20
159.7968976406313
 11
48.21793273020759
 21
159.7968976406313
 72
     1
 10
48.21793273020759
 20
159.7968976406313
 11
48.21793273020759
 21
167.6444858234922
 72
     1
 10
48.21793273020759
 20
167.6444858234922
 11
83.79545727667795
 21
167.6444858234922
 97
        0
 75
     2
 76
     1
 98
        0
  0
INSERT
  5
1D9F
330
1D91
100
AcDbEntity
  8
TFORMLOGO
100
AcDbBlockReference
  2
block 5
 10
0.0
 20
0.0
 30
0.0
  0
ENDBLK
  5
1DAC
330
1D91
100
AcDbEntity
  8
0
100
AcDbBlockEnd
  0
BLOCK
  5
1DA1
330
1DA0
100
AcDbEntity
  8
0
100
AcDbBlockBegin
  2
block 5
 70
     0
 10
0.0
 20
0.0
 30
0.0
  3
block 5
  1
block 5
  0
SPLINE
  5
1DA2
330
1DA0
100
AcDbEntity
  8
TFORMLOGO
370
     0
100
AcDbSpline
210
0.0
220
0.0
230
1.0
 70
    11
 71
     3
 72
    56
 73
    52
 74
     0
 42
0.000000001
 43
0.0000000001
 40
0.0
 40
0.0
 40
0.0
 40
0.0
 40
1.0
 40
1.0
 40
1.0
 40
2.0
 40
2.0
 40
2.0
 40
3.0
 40
3.0
 40
3.0
 40
4.0
 40
4.0
 40
4.0
 40
5.0
 40
5.0
 40
5.0
 40
6.0
 40
6.0
 40
6.0
 40
7.0
 40
7.0
 40
7.0
 40
8.0
 40
8.0
 40
8.0
 40
9.0
 40
9.0
 40
9.0
 40
10.0
 40
10.0
 40
10.0
 40
11.0
 40
11.0
 40
11.0
 40
12.0
 40
12.0
 40
12.0
 40
13.0
 40
13.0
 40
13.0
 40
14.0
 40
14.0
 40
14.0
 40
15.0
 40
15.0
 40
15.0
 40
16.0
 40
16.0
 40
16.0
 40
17.0
 40
17.0
 40
17.0
 40
17.0
 10
100.4504378777679
 20
166.69157178364
 30
0.0
 10
101.9848844191641
 20
167.1313385124438
 30
0.0
 10
103.9637485713373
 20
166.7649523658846
 30
0.0
 10
103.9637485713373
 20
166.7649523658846
 30
0.0
 10
103.9637485713373
 20
166.7649523658846
 30
0.0
 10
103.0132460999156
 20
163.911205638077
 30
0.0
 10
103.0132460999156
 20
163.911205638077
 30
0.0
 10
103.0132460999156
 20
163.911205638077
 30
0.0
 10
101.0674548862189
 20
164.3601018759394
 30
0.0
 10
99.57090442016032
 20
163.1805004036133
 30
0.0
 10
98.40508333886608
 20
162.258247733807
 30
0.0
 10
97.65301849830304
 20
159.804132345923
 30
0.0
 10
97.3598406791005
 20
158.8699940888517
 30
0.0
 10
97.3598406791005
 20
158.8699940888517
 30
0.0
 10
96.07137411762282
 20
154.9119212747295
 30
0.0
 10
96.07137411762282
 20
154.9119212747295
 30
0.0
 10
96.07137411762282
 20
154.9119212747295
 30
0.0
 10
100.3012651448482
 20
154.9119212747295
 30
0.0
 10
100.3012651448482
 20
154.9119212747295
 30
0.0
 10
100.3012651448482
 20
154.9119212747295
 30
0.0
 10
99.64152892419852
 20
152.4199098115079
 30
0.0
 10
99.64152892419852
 20
152.4199098115079
 30
0.0
 10
99.64152892419852
 20
152.4199098115079
 30
0.0
 10
95.38097652692731
 20
152.4199098115079
 30
0.0
 10
95.38097652692731
 20
152.4199098115079
 30
0.0
 10
95.38097652692731
 20
152.4199098115079
 30
0.0
 10
87.75353009080013
 20
127.8027915271048
 30
0.0
 10
87.75353009080013
 20
127.8027915271048
 30
0.0
 10
87.75353009080013
 20
127.8027915271048
 30
0.0
 10
85.36538832498108
 20
127.8027915271048
 30
0.0
 10
85.36538832498108
 20
127.8027915271048
 30
0.0
 10
85.36538832498108
 20
127.8027915271048
 30
0.0
 10
93.00006946639998
 20
152.4199098115079
 30
0.0
 10
93.00006946639998
 20
152.4199098115079
 30
0.0
 10
93.00006946639998
 20
152.4199098115079
 30
0.0
 10
89.85297266450198
 20
152.4199098115079
 30
0.0
 10
89.85297266450198
 20
152.4199098115079
 30
0.0
 10
89.85297266450198
 20
152.4199098115079
 30
0.0
 10
90.51270888515164
 20
154.9119212747295
 30
0.0
 10
90.51270888515164
 20
154.9119212747295
 30
0.0
 10
90.51270888515164
 20
154.9119212747295
 30
0.0
 10
93.6904670570955
 20
154.9119212747295
 30
0.0
 10
93.6904670570955
 20
154.9119212747295
 30
0.0
 10
93.6904670570955
 20
154.9119212747295
 30
0.0
 10
94.81598049462158
 20
158.3616699146644
 30
0.0
 10
94.81598049462158
 20
158.3616699146644
 30
0.0
 10
95.7237637538445
 20
161.2605474231013
 30
0.0
 10
96.4968436907311
 20
162.8139420021662
 30
0.0
 10
97.15657991138076
 20
163.9844139654337
 30
0.0
 10
97.81183750494507
 20
165.1523021053827
 30
0.0
 10
99.1047826935081
 20
166.3084769129547
 30
0.0
 10
100.4504378777679
 20
166.69157178364
 30
0.0
  0
HATCH
  5
1DA3
330
1DA0
100
AcDbEntity
  8
TFORMLOGO
 62
   250
420
  2234388
100
AcDbHatch
 10
0.0
 20
0.0
 30
0.0
210
0.0
220
0.0
230
1.0
  2
SOLID
 70
     1
 71
     0
 91
        1
 92
        1
 93
        1
 72
     4
 94
        3
 73
     0
 74
     1
 95
       56
 96
       52
 40
0.0
 40
0.0
 40
0.0
 40
0.0
 40
1.0
 40
1.0
 40
1.0
 40
2.0
 40
2.0
 40
2.0
 40
3.0
 40
3.0
 40
3.0
 40
4.0
 40
4.0
 40
4.0
 40
5.0
 40
5.0
 40
5.0
 40
6.0
 40
6.0
 40
6.0
 40
7.0
 40
7.0
 40
7.0
 40
8.0
 40
8.0
 40
8.0
 40
9.0
 40
9.0
 40
9.0
 40
10.0
 40
10.0
 40
10.0
 40
11.0
 40
11.0
 40
11.0
 40
12.0
 40
12.0
 40
12.0
 40
13.0
 40
13.0
 40
13.0
 40
14.0
 40
14.0
 40
14.0
 40
15.0
 40
15.0
 40
15.0
 40
16.0
 40
16.0
 40
16.0
 40
17.0
 40
17.0
 40
17.0
 40
17.0
 10
100.4504378777679
 20
166.69157178364
 10
101.9848844191641
 20
167.1313385124438
 10
103.9637485713373
 20
166.7649523658846
 10
103.9637485713373
 20
166.7649523658846
 10
103.9637485713373
 20
166.7649523658846
 10
103.0132460999156
 20
163.911205638077
 10
103.0132460999156
 20
163.911205638077
 10
103.0132460999156
 20
163.911205638077
 10
101.0674548862189
 20
164.3601018759394
 10
99.57090442016032
 20
163.1805004036133
 10
98.40508333886608
 20
162.258247733807
 10
97.65301849830304
 20
159.804132345923
 10
97.3598406791005
 20
158.8699940888517
 10
97.3598406791005
 20
158.8699940888517
 10
96.07137411762282
 20
154.9119212747295
 10
96.07137411762282
 20
154.9119212747295
 10
96.07137411762282
 20
154.9119212747295
 10
100.3012651448482
 20
154.9119212747295
 10
100.3012651448482
 20
154.9119212747295
 10
100.3012651448482
 20
154.9119212747295
 10
99.64152892419852
 20
152.4199098115079
 10
99.64152892419852
 20
152.4199098115079
 10
99.64152892419852
 20
152.4199098115079
 10
95.38097652692731
 20
152.4199098115079
 10
95.38097652692731
 20
152.4199098115079
 10
95.38097652692731
 20
152.4199098115079
 10
87.75353009080013
 20
127.8027915271048
 10
87.75353009080013
 20
127.8027915271048
 10
87.75353009080013
 20
127.8027915271048
 10
85.36538832498108
 20
127.8027915271048
 10
85.36538832498108
 20
127.8027915271048
 10
85.36538832498108
 20
127.8027915271048
 10
93.00006946639998
 20
152.4199098115079
 10
93.00006946639998
 20
152.4199098115079
 10
93.00006946639998
 20
152.4199098115079
 10
89.85297266450198
 20
152.4199098115079
 10
89.85297266450198
 20
152.4199098115079
 10
89.85297266450198
 20
152.4199098115079
 10
90.51270888515164
 20
154.9119212747295
 10
90.51270888515164
 20
154.9119212747295
 10
90.51270888515164
 20
154.9119212747295
 10
93.6904670570955
 20
154.9119212747295
 10
93.6904670570955
 20
154.9119212747295
 10
93.6904670570955
 20
154.9119212747295
 10
94.81598049462158
 20
158.3616699146644
 10
94.81598049462158
 20
158.3616699146644
 10
95.7237637538445
 20
161.2605474231013
 10
96.4968436907311
 20
162.8139420021662
 10
97.15657991138076
 20
163.9844139654337
 10
97.81183750494507
 20
165.1523021053827
 10
99.1047826935081
 20
166.3084769129547
 10
100.4504378777679
 20
166.69157178364
 97
        0
 75
     2
 76
     1
 98
        0
  0
SPLINE
  5
1DA4
330
1DA0
100
AcDbEntity
  8
TFORMLOGO
370
     0
100
AcDbSpline
210
0.0
220
0.0
230
1.0
 70
    11
 71
     3
 72
    38
 73
    34
 74
     0
 42
0.000000001
 43
0.0000000001
 40
0.0
 40
0.0
 40
0.0
 40
0.0
 40
1.0
 40
1.0
 40
1.0
 40
2.0
 40
2.0
 40
2.0
 40
3.0
 40
3.0
 40
3.0
 40
4.0
 40
4.0
 40
4.0
 40
5.0
 40
5.0
 40
5.0
 40
6.0
 40
6.0
 40
6.0
 40
7.0
 40
7.0
 40
7.0
 40
8.0
 40
8.0
 40
8.0
 40
9.0
 40
9.0
 40
9.0
 40
10.0
 40
10.0
 40
10.0
 40
11.0
 40
11.0
 40
11.0
 40
11.0
 10
126.377554584636
 20
154.8151140277308
 30
0.0
 10
126.377554584636
 20
154.8151140277308
 30
0.0
 10
128.8311532078563
 20
154.8151140277308
 30
0.0
 10
128.8311532078563
 20
154.8151140277308
 30
0.0
 10
128.8311532078563
 20
154.8151140277308
 30
0.0
 10
127.7345785914971
 20
151.3062819612468
 30
0.0
 10
127.7345785914971
 20
151.3062819612468
 30
0.0
 10
128.571392836906
 20
152.2922689395754
 30
0.0
 10
129.8860421413442
 20
153.604506675583
 30
0.0
 10
131.0163787157314
 20
154.2664822097754
 30
0.0
 10
132.7044766171327
 20
155.2500576196734
 30
0.0
 10
133.6642808525008
 20
155.3847609420097
 30
0.0
 10
134.7284715499351
 20
155.3565111403944
 30
0.0
 10
134.7284715499351
 20
155.3565111403944
 30
0.0
 10
133.6877075172549
 20
152.0345756272799
 30
0.0
 10
133.6877075172549
 20
152.0345756272799
 30
0.0
 10
133.011434827367
 20
152.3184516825359
 30
0.0
 10
130.930940291334
 20
151.7768823149844
 30
0.0
 10
129.739280976855
 20
150.9162968950455
 30
0.0
 10
128.66613302525
 20
150.1454562717016
 30
0.0
 10
127.9192358313239
 20
149.4857200510519
 30
0.0
 10
127.0393578639405
 20
147.8282835196966
 30
0.0
 10
126.164647543194
 20
146.1699857139017
 30
0.0
 10
125.4742499524985
 20
143.5262176944419
 30
0.0
 10
124.2822461282437
 20
139.6959580071401
 30
0.0
 10
124.2822461282437
 20
139.6959580071401
 30
0.0
 10
120.5753209406769
 20
127.8027915271048
 30
0.0
 10
120.5753209406769
 20
127.8027915271048
 30
0.0
 10
120.5753209406769
 20
127.8027915271048
 30
0.0
 10
118.1964809388044
 20
127.8027915271048
 30
0.0
 10
118.1964809388044
 20
127.8027915271048
 30
0.0
 10
118.1964809388044
 20
127.8027915271048
 30
0.0
 10
126.377554584636
 20
154.8151140277308
 30
0.0
 10
126.377554584636
 20
154.8151140277308
 30
0.0
  0
HATCH
  5
1DA5
330
1DA0
100
AcDbEntity
  8
TFORMLOGO
 62
   250
420
  2234388
100
AcDbHatch
 10
0.0
 20
0.0
 30
0.0
210
0.0
220
0.0
230
1.0
  2
SOLID
 70
     1
 71
     0
 91
        1
 92
        1
 93
        1
 72
     4
 94
        3
 73
     0
 74
     1
 95
       38
 96
       34
 40
0.0
 40
0.0
 40
0.0
 40
0.0
 40
1.0
 40
1.0
 40
1.0
 40
2.0
 40
2.0
 40
2.0
 40
3.0
 40
3.0
 40
3.0
 40
4.0
 40
4.0
 40
4.0
 40
5.0
 40
5.0
 40
5.0
 40
6.0
 40
6.0
 40
6.0
 40
7.0
 40
7.0
 40
7.0
 40
8.0
 40
8.0
 40
8.0
 40
9.0
 40
9.0
 40
9.0
 40
10.0
 40
10.0
 40
10.0
 40
11.0
 40
11.0
 40
11.0
 40
11.0
 10
126.377554584636
 20
154.8151140277308
 10
126.377554584636
 20
154.8151140277308
 10
128.8311532078563
 20
154.8151140277308
 10
128.8311532078563
 20
154.8151140277308
 10
128.8311532078563
 20
154.8151140277308
 10
127.7345785914971
 20
151.3062819612468
 10
127.7345785914971
 20
151.3062819612468
 10
128.571392836906
 20
152.2922689395754
 10
129.8860421413442
 20
153.604506675583
 10
131.0163787157314
 20
154.2664822097754
 10
132.7044766171327
 20
155.2500576196734
 10
133.6642808525008
 20
155.3847609420097
 10
134.7284715499351
 20
155.3565111403944
 10
134.7284715499351
 20
155.3565111403944
 10
133.6877075172549
 20
152.0345756272799
 10
133.6877075172549
 20
152.0345756272799
 10
133.011434827367
 20
152.3184516825359
 10
130.930940291334
 20
151.7768823149844
 10
129.739280976855
 20
150.9162968950455
 10
128.66613302525
 20
150.1454562717016
 10
127.9192358313239
 20
149.4857200510519
 10
127.0393578639405
 20
147.8282835196966
 10
126.164647543194
 20
146.1699857139017
 10
125.4742499524985
 20
143.5262176944419
 10
124.2822461282437
 20
139.6959580071401
 10
124.2822461282437
 20
139.6959580071401
 10
120.5753209406769
 20
127.8027915271048
 10
120.5753209406769
 20
127.8027915271048
 10
120.5753209406769
 20
127.8027915271048
 10
118.1964809388044
 20
127.8027915271048
 10
118.1964809388044
 20
127.8027915271048
 10
118.1964809388044
 20
127.8027915271048
 10
126.377554584636
 20
154.8151140277308
 10
126.377554584636
 20
154.8151140277308
 97
        0
 75
     2
 76
     1
 98
        0
  0
SPLINE
  5
1DA6
330
1DA0
100
AcDbEntity
  8
TFORMLOGO
370
     0
100
AcDbSpline
210
0.0
220
0.0
230
1.0
 70
    11
 71
     3
 72
   104
 73
   100
 74
     0
 42
0.000000001
 43
0.0000000001
 40
0.0
 40
0.0
 40
0.0
 40
0.0
 40
1.0
 40
1.0
 40
1.0
 40
2.0
 40
2.0
 40
2.0
 40
3.0
 40
3.0
 40
3.0
 40
4.0
 40
4.0
 40
4.0
 40
5.0
 40
5.0
 40
5.0
 40
6.0
 40
6.0
 40
6.0
 40
7.0
 40
7.0
 40
7.0
 40
8.0
 40
8.0
 40
8.0
 40
9.0
 40
9.0
 40
9.0
 40
10.0
 40
10.0
 40
10.0
 40
11.0
 40
11.0
 40
11.0
 40
12.0
 40
12.0
 40
12.0
 40
13.0
 40
13.0
 40
13.0
 40
14.0
 40
14.0
 40
14.0
 40
15.0
 40
15.0
 40
15.0
 40
16.0
 40
16.0
 40
16.0
 40
17.0
 40
17.0
 40
17.0
 40
18.0
 40
18.0
 40
18.0
 40
19.0
 40
19.0
 40
19.0
 40
20.0
 40
20.0
 40
20.0
 40
21.0
 40
21.0
 40
21.0
 40
22.0
 40
22.0
 40
22.0
 40
23.0
 40
23.0
 40
23.0
 40
24.0
 40
24.0
 40
24.0
 40
25.0
 40
25.0
 40
25.0
 40
26.0
 40
26.0
 40
26.0
 40
27.0
 40
27.0
 40
27.0
 40
28.0
 40
28.0
 40
28.0
 40
29.0
 40
29.0
 40
29.0
 40
30.0
 40
30.0
 40
30.0
 40
31.0
 40
31.0
 40
31.0
 40
32.0
 40
32.0
 40
32.0
 40
33.0
 40
33.0
 40
33.0
 40
33.0
 10
139.8926730891197
 20
154.8294111834263
 30
0.0
 10
139.8926730891197
 20
154.8294111834263
 30
0.0
 10
142.0344903652445
 20
154.8294111834263
 30
0.0
 10
142.0344903652445
 20
154.8294111834263
 30
0.0
 10
142.0344903652445
 20
154.8294111834263
 30
0.0
 10
140.9516961399171
 20
151.3157559800812
 30
0.0
 10
140.9516961399171
 20
151.3157559800812
 30
0.0
 10
141.8928968473923
 20
152.7887075264977
 30
0.0
 10
142.7341897198865
 20
153.4484437471474
 30
0.0
 10
143.8552245303272
 20
154.2926649527359
 30
0.0
 10
144.9803934580775
 20
155.1296514530327
 30
0.0
 10
146.3139908001845
 20
155.3044901642492
 30
0.0
 10
147.241066606852
 20
155.3044901642492
 30
0.0
 10
148.3855280820469
 20
155.3044901642492
 30
0.0
 10
149.4969166187653
 20
155.0752189084569
 30
0.0
 10
150.0784491203092
 20
153.8172414621372
 30
0.0
 10
150.5228667310863
 20
152.833838307127
 30
0.0
 10
150.5414702589793
 20
152.7201500811143
 30
0.0
 10
150.4140016419347
 20
150.7765981809602
 30
0.0
 10
151.5818897818837
 20
152.7699317437168
 30
0.0
 10
152.4424752018226
 20
153.6256940267945
 30
0.0
 10
153.9038856707499
 20
154.4507949398263
 30
0.0
 10
155.4455669174378
 20
155.3044901642492
 30
0.0
 10
156.339225275853
 20
155.3659851592288
 30
0.0
 10
157.3748216618963
 20
155.2147453676543
 30
0.0
 10
158.911679771723
 20
154.9877134254046
 30
0.0
 10
159.8859534176746
 20
154.4390816074493
 30
0.0
 10
160.3965169054045
 20
152.7816450760939
 30
0.0
 10
160.9070803931344
 20
151.1219692311958
 30
0.0
 10
160.6328506116007
 20
150.2303779314354
 30
0.0
 10
159.9992971339115
 20
147.597634224801
 30
0.0
 10
159.7105979417943
 20
146.4014962832367
 30
0.0
 10
159.2947746424084
 20
144.9400858143094
 30
0.0
 10
158.7463150793409
 20
143.2092687007094
 30
0.0
 10
158.7463150793409
 20
143.2092687007094
 30
0.0
 10
153.9038856707499
 20
127.8027915271048
 30
0.0
 10
153.9038856707499
 20
127.8027915271048
 30
0.0
 10
153.9038856707499
 20
127.8027915271048
 30
0.0
 10
151.3882752878863
 20
127.8027915271048
 30
0.0
 10
151.3882752878863
 20
127.8027915271048
 30
0.0
 10
151.3882752878863
 20
127.8027915271048
 30
0.0
 10
155.6250565106276
 20
141.2751908193897
 30
0.0
 10
155.6250565106276
 20
141.2751908193897
 30
0.0
 10
156.5094131050963
 20
144.0936252951782
 30
0.0
 10
157.109893644309
 20
146.1506931664571
 30
0.0
 10
157.4220195011804
 20
147.4415712963654
 30
0.0
 10
157.8095929989511
 20
149.0530157726519
 30
0.0
 10
157.9656559273867
 20
149.5826995529385
 30
0.0
 10
157.7816877071116
 20
150.7529992613181
 30
0.0
 10
157.6111553680925
 20
151.8430281919372
 30
0.0
 10
157.0582171779396
 20
152.5547853887321
 30
0.0
 10
156.1170164704645
 20
152.5547853887321
 30
0.0
 10
155.1096698860365
 20
152.5547853887321
 30
0.0
 10
154.2962823053817
 20
152.4412694176073
 30
0.0
 10
153.156643967048
 20
151.2945686288697
 30
0.0
 10
152.0170056287143
 20
150.1476955852443
 30
0.0
 10
151.076149431015
 20
148.7930831468137
 30
0.0
 10
150.3337308641742
 20
147.2290087646991
 30
0.0
 10
149.5957909244188
 20
145.6683794803425
 30
0.0
 10
148.8530278478023
 20
143.6822806228776
 30
0.0
 10
148.0964843801539
 20
141.2751908193897
 30
0.0
 10
148.0964843801539
 20
141.2751908193897
 30
0.0
 10
143.8552245303272
 20
127.8027915271048
 30
0.0
 10
143.8552245303272
 20
127.8027915271048
 30
0.0
 10
143.8552245303272
 20
127.8027915271048
 30
0.0
 10
141.486030802177
 20
127.8027915271048
 30
0.0
 10
141.486030802177
 20
127.8027915271048
 30
0.0
 10
141.486030802177
 20
127.8027915271048
 30
0.0
 10
146.3329388378533
 20
143.2092687007094
 30
0.0
 10
146.3329388378533
 20
143.2092687007094
 30
0.0
 10
146.8483254624444
 20
144.8408669988801
 30
0.0
 10
147.2314203331297
 20
146.1837661049335
 30
0.0
 10
147.4867020769946
 20
147.224185627838
 30
0.0
 10
147.9169947869641
 20
149.0197705792876
 30
0.0
 10
148.0306830129768
 20
150.2400242051577
 30
0.0
 10
147.709255392159
 20
151.3157559800812
 30
0.0
 10
147.3874832615654
 20
152.3916600098926
 30
0.0
 10
146.8245542879144
 20
152.6683013598569
 30
0.0
 10
145.8840425999909
 20
152.6683013598569
 30
0.0
 10
145.0989048209514
 20
152.6683013598569
 30
0.0
 10
144.3282364524954
 20
152.3275811915945
 30
0.0
 10
143.4531816219731
 20
151.6538923250251
 30
0.0
 10
142.34627171234
 20
150.8074318058939
 30
0.0
 10
141.901854101563
 20
150.1097995099067
 30
0.0
 10
141.3578731655808
 20
149.289521733736
 30
0.0
 10
140.6299240093235
 20
148.192602607601
 30
0.0
 10
140.2850697237515
 20
147.455696197173
 30
0.0
 10
139.6652966370942
 20
145.8385673095858
 30
0.0
 10
139.0506911970739
 20
144.2214384219986
 30
0.0
 10
138.463991048893
 20
142.3252566160164
 30
0.0
 10
138.0571250036777
 20
141.0154304484394
 30
0.0
 10
138.0571250036777
 20
141.0154304484394
 30
0.0
 10
133.9009590684727
 20
127.8027915271048
 30
0.0
 10
133.9009590684727
 20
127.8027915271048
 30
0.0
 10
133.9009590684727
 20
127.8027915271048
 30
0.0
 10
131.4180771143097
 20
127.8027915271048
 30
0.0
 10
131.4180771143097
 20
127.8027915271048
 30
0.0
 10
131.4180771143097
 20
127.8027915271048
 30
0.0
 10
139.8926730891197
 20
154.8294111834263
 30
0.0
 10
139.8926730891197
 20
154.8294111834263
 30
0.0
  0
HATCH
  5
1DA7
330
1DA0
100
AcDbEntity
  8
TFORMLOGO
 62
   250
420
  2234388
100
AcDbHatch
 10
0.0
 20
0.0
 30
0.0
210
0.0
220
0.0
230
1.0
  2
SOLID
 70
     1
 71
     0
 91
        1
 92
        1
 93
        1
 72
     4
 94
        3
 73
     0
 74
     1
 95
      104
 96
      100
 40
0.0
 40
0.0
 40
0.0
 40
0.0
 40
1.0
 40
1.0
 40
1.0
 40
2.0
 40
2.0
 40
2.0
 40
3.0
 40
3.0
 40
3.0
 40
4.0
 40
4.0
 40
4.0
 40
5.0
 40
5.0
 40
5.0
 40
6.0
 40
6.0
 40
6.0
 40
7.0
 40
7.0
 40
7.0
 40
8.0
 40
8.0
 40
8.0
 40
9.0
 40
9.0
 40
9.0
 40
10.0
 40
10.0
 40
10.0
 40
11.0
 40
11.0
 40
11.0
 40
12.0
 40
12.0
 40
12.0
 40
13.0
 40
13.0
 40
13.0
 40
14.0
 40
14.0
 40
14.0
 40
15.0
 40
15.0
 40
15.0
 40
16.0
 40
16.0
 40
16.0
 40
17.0
 40
17.0
 40
17.0
 40
18.0
 40
18.0
 40
18.0
 40
19.0
 40
19.0
 40
19.0
 40
20.0
 40
20.0
 40
20.0
 40
21.0
 40
21.0
 40
21.0
 40
22.0
 40
22.0
 40
22.0
 40
23.0
 40
23.0
 40
23.0
 40
24.0
 40
24.0
 40
24.0
 40
25.0
 40
25.0
 40
25.0
 40
26.0
 40
26.0
 40
26.0
 40
27.0
 40
27.0
 40
27.0
 40
28.0
 40
28.0
 40
28.0
 40
29.0
 40
29.0
 40
29.0
 40
30.0
 40
30.0
 40
30.0
 40
31.0
 40
31.0
 40
31.0
 40
32.0
 40
32.0
 40
32.0
 40
33.0
 40
33.0
 40
33.0
 40
33.0
 10
139.8926730891197
 20
154.8294111834263
 10
139.8926730891197
 20
154.8294111834263
 10
142.0344903652445
 20
154.8294111834263
 10
142.0344903652445
 20
154.8294111834263
 10
142.0344903652445
 20
154.8294111834263
 10
140.9516961399171
 20
151.3157559800812
 10
140.9516961399171
 20
151.3157559800812
 10
141.8928968473923
 20
152.7887075264977
 10
142.7341897198865
 20
153.4484437471474
 10
143.8552245303272
 20
154.2926649527359
 10
144.9803934580775
 20
155.1296514530327
 10
146.3139908001845
 20
155.3044901642492
 10
147.241066606852
 20
155.3044901642492
 10
148.3855280820469
 20
155.3044901642492
 10
149.4969166187653
 20
155.0752189084569
 10
150.0784491203092
 20
153.8172414621372
 10
150.5228667310863
 20
152.833838307127
 10
150.5414702589793
 20
152.7201500811143
 10
150.4140016419347
 20
150.7765981809602
 10
151.5818897818837
 20
152.7699317437168
 10
152.4424752018226
 20
153.6256940267945
 10
153.9038856707499
 20
154.4507949398263
 10
155.4455669174378
 20
155.3044901642492
 10
156.339225275853
 20
155.3659851592288
 10
157.3748216618963
 20
155.2147453676543
 10
158.911679771723
 20
154.9877134254046
 10
159.8859534176746
 20
154.4390816074493
 10
160.3965169054045
 20
152.7816450760939
 10
160.9070803931344
 20
151.1219692311958
 10
160.6328506116007
 20
150.2303779314354
 10
159.9992971339115
 20
147.597634224801
 10
159.7105979417943
 20
146.4014962832367
 10
159.2947746424084
 20
144.9400858143094
 10
158.7463150793409
 20
143.2092687007094
 10
158.7463150793409
 20
143.2092687007094
 10
153.9038856707499
 20
127.8027915271048
 10
153.9038856707499
 20
127.8027915271048
 10
153.9038856707499
 20
127.8027915271048
 10
151.3882752878863
 20
127.8027915271048
 10
151.3882752878863
 20
127.8027915271048
 10
151.3882752878863
 20
127.8027915271048
 10
155.6250565106276
 20
141.2751908193897
 10
155.6250565106276
 20
141.2751908193897
 10
156.5094131050963
 20
144.0936252951782
 10
157.109893644309
 20
146.1506931664571
 10
157.4220195011804
 20
147.4415712963654
 10
157.8095929989511
 20
149.0530157726519
 10
157.9656559273867
 20
149.5826995529385
 10
157.7816877071116
 20
150.7529992613181
 10
157.6111553680925
 20
151.8430281919372
 10
157.0582171779396
 20
152.5547853887321
 10
156.1170164704645
 20
152.5547853887321
 10
155.1096698860365
 20
152.5547853887321
 10
154.2962823053817
 20
152.4412694176073
 10
153.156643967048
 20
151.2945686288697
 10
152.0170056287143
 20
150.1476955852443
 10
151.076149431015
 20
148.7930831468137
 10
150.3337308641742
 20
147.2290087646991
 10
149.5957909244188
 20
145.6683794803425
 10
148.8530278478023
 20
143.6822806228776
 10
148.0964843801539
 20
141.2751908193897
 10
148.0964843801539
 20
141.2751908193897
 10
143.8552245303272
 20
127.8027915271048
 10
143.8552245303272
 20
127.8027915271048
 10
143.8552245303272
 20
127.8027915271048
 10
141.486030802177
 20
127.8027915271048
 10
141.486030802177
 20
127.8027915271048
 10
141.486030802177
 20
127.8027915271048
 10
146.3329388378533
 20
143.2092687007094
 10
146.3329388378533
 20
143.2092687007094
 10
146.8483254624444
 20
144.8408669988801
 10
147.2314203331297
 20
146.1837661049335
 10
147.4867020769946
 20
147.224185627838
 10
147.9169947869641
 20
149.0197705792876
 10
148.0306830129768
 20
150.2400242051577
 10
147.709255392159
 20
151.3157559800812
 10
147.3874832615654
 20
152.3916600098926
 10
146.8245542879144
 20
152.6683013598569
 10
145.8840425999909
 20
152.6683013598569
 10
145.0989048209514
 20
152.6683013598569
 10
144.3282364524954
 20
152.3275811915945
 10
143.4531816219731
 20
151.6538923250251
 10
142.34627171234
 20
150.8074318058939
 10
141.901854101563
 20
150.1097995099067
 10
141.3578731655808
 20
149.289521733736
 10
140.6299240093235
 20
148.192602607601
 10
140.2850697237515
 20
147.455696197173
 10
139.6652966370942
 20
145.8385673095858
 10
139.0506911970739
 20
144.2214384219986
 10
138.463991048893
 20
142.3252566160164
 10
138.0571250036777
 20
141.0154304484394
 10
138.0571250036777
 20
141.0154304484394
 10
133.9009590684727
 20
127.8027915271048
 10
133.9009590684727
 20
127.8027915271048
 10
133.9009590684727
 20
127.8027915271048
 10
131.4180771143097
 20
127.8027915271048
 10
131.4180771143097
 20
127.8027915271048
 10
131.4180771143097
 20
127.8027915271048
 10
139.8926730891197
 20
154.8294111834263
 10
139.8926730891197
 20
154.8294111834263
 97
        0
 75
     2
 76
     1
 98
        0
  0
SPLINE
  5
1DA8
330
1DA0
100
AcDbEntity
  8
TFORMLOGO
370
     0
100
AcDbSpline
210
0.0
220
0.0
230
1.0
 70
    11
 71
     3
 72
    29
 73
    25
 74
     0
 42
0.000000001
 43
0.0000000001
 40
0.0
 40
0.0
 40
0.0
 40
0.0
 40
1.0
 40
1.0
 40
1.0
 40
2.0
 40
2.0
 40
2.0
 40
3.0
 40
3.0
 40
3.0
 40
4.0
 40
4.0
 40
4.0
 40
5.0
 40
5.0
 40
5.0
 40
6.0
 40
6.0
 40
6.0
 40
7.0
 40
7.0
 40
7.0
 40
8.0
 40
8.0
 40
8.0
 40
8.0
 10
101.6420971922469
 20
132.8388354296931
 30
0.0
 10
101.630039350094
 20
134.7164137077823
 30
0.0
 10
102.2236296937908
 20
138.0598810818841
 30
0.0
 10
103.7487744712405
 20
142.5378191476827
 30
0.0
 10
105.819967243327
 20
148.5896501242061
 30
0.0
 10
107.0602024361932
 20
150.8074318058939
 30
0.0
 10
108.1522984254671
 20
151.8833358357054
 30
0.0
 10
109.741177511439
 20
153.4532668840085
 30
0.0
 10
111.8740375333931
 20
153.5290590346837
 30
0.0
 10
112.5075910110823
 20
153.4532668840085
 30
0.0
 10
113.4012493694975
 20
153.3490526768302
 30
0.0
 10
114.6683563248758
 20
152.7580461564518
 30
0.0
 10
114.7493161221879
 20
150.7838328862519
 30
0.0
 10
114.8106388622796
 20
149.0909118479895
 30
0.0
 10
114.3186789024427
 20
145.9191825971221
 30
0.0
 10
112.6164561002338
 20
140.9489400617108
 30
0.0
 10
110.6444821435766
 20
135.1746117095912
 30
0.0
 10
109.4669477299053
 20
132.8960240524753
 30
0.0
 10
108.5212683953448
 20
131.9072809959403
 30
0.0
 10
106.7346406980658
 20
130.0538184021569
 30
0.0
 10
104.8222669326213
 20
130.2336525051225
 30
0.0
 10
104.5408024457958
 20
130.2336525051225
 30
0.0
 10
104.1721769856939
 20
130.2336525051225
 30
0.0
 10
101.6465758193322
 20
130.6305277668397
 30
0.0
 10
101.6420971922469
 20
132.8388354296931
 30
0.0
  0
SPLINE
  5
1DA9
330
1DA0
100
AcDbEntity
  8
TFORMLOGO
370
     0
100
AcDbSpline
210
0.0
220
0.0
230
1.0
 70
    11
 71
     3
 72
    32
 73
    28
 74
     0
 42
0.000000001
 43
0.0000000001
 40
0.0
 40
0.0
 40
0.0
 40
0.0
 40
1.0
 40
1.0
 40
1.0
 40
2.0
 40
2.0
 40
2.0
 40
3.0
 40
3.0
 40
3.0
 40
4.0
 40
4.0
 40
4.0
 40
5.0
 40
5.0
 40
5.0
 40
6.0
 40
6.0
 40
6.0
 40
7.0
 40
7.0
 40
7.0
 40
8.0
 40
8.0
 40
8.0
 40
9.0
 40
9.0
 40
9.0
 40
9.0
 10
106.2595617172429
 20
153.4105476718098
 30
0.0
 10
104.8222669326213
 20
151.5474388043041
 30
0.0
 10
103.7177685914188
 20
149.8758773721411
 30
0.0
 10
101.9232171692965
 20
144.6141795664062
 30
0.0
 10
100.2754269116635
 20
139.7999999594306
 30
0.0
 10
99.22777268346732
 20
136.3052927937542
 30
0.0
 10
99.06964269637689
 20
132.039572749846
 30
0.0
 10
98.94665270641765
 20
128.8673267343149
 30
0.0
 10
100.8807305877373
 20
127.8027915271048
 30
0.0
 10
103.7129454545577
 20
127.8027915271048
 30
0.0
 10
104.9352661390825
 20
127.8027915271048
 30
0.0
 10
108.0151835347002
 20
127.8827177950895
 30
0.0
 10
110.2045431598849
 20
130.5926316915021
 30
0.0
 10
111.7417457794874
 20
132.4984597712065
 30
0.0
 10
113.155269389579
 20
134.475256864725
 30
0.0
 10
115.0562743324223
 20
140.9489400617108
 30
0.0
 10
116.6361961642235
 20
146.3680788349845
 30
0.0
 10
117.7282921534974
 20
149.8639917848761
 30
0.0
 10
117.6480213757369
 20
151.8595646611754
 30
0.0
 10
117.6480213757369
 20
151.8595646611754
 30
0.0
 10
117.6480213757369
 20
151.8595646611754
 30
0.0
 10
117.6480213757369
 20
151.8595646611754
 30
0.0
 10
117.13229024137
 20
155.18150017429
 30
0.0
 10
114.7162431837115
 20
155.886194920681
 30
0.0
 10
113.3351034925446
 20
155.886194920681
 30
0.0
 10
111.9829026225447
 20
155.886194920681
 30
0.0
 10
108.3414342923792
 20
156.1251124501957
 30
0.0
 10
106.2595617172429
 20
153.4105476718098
 30
0.0
  0
HATCH
  5
1DAA
330
1DA0
100
AcDbEntity
  8
TFORMLOGO
 62
   250
420
  2234388
100
AcDbHatch
 10
0.0
 20
0.0
 30
0.0
210
0.0
220
0.0
230
1.0
  2
SOLID
 70
     1
 71
     0
 91
        2
 92
        1
 93
        1
 72
     4
 94
        3
 73
     0
 74
     1
 95
       29
 96
       25
 40
0.0
 40
0.0
 40
0.0
 40
0.0
 40
1.0
 40
1.0
 40
1.0
 40
2.0
 40
2.0
 40
2.0
 40
3.0
 40
3.0
 40
3.0
 40
4.0
 40
4.0
 40
4.0
 40
5.0
 40
5.0
 40
5.0
 40
6.0
 40
6.0
 40
6.0
 40
7.0
 40
7.0
 40
7.0
 40
8.0
 40
8.0
 40
8.0
 40
8.0
 10
101.6420971922469
 20
132.8388354296931
 10
101.630039350094
 20
134.7164137077823
 10
102.2236296937908
 20
138.0598810818841
 10
103.7487744712405
 20
142.5378191476827
 10
105.819967243327
 20
148.5896501242061
 10
107.0602024361932
 20
150.8074318058939
 10
108.1522984254671
 20
151.8833358357054
 10
109.741177511439
 20
153.4532668840085
 10
111.8740375333931
 20
153.5290590346837
 10
112.5075910110823
 20
153.4532668840085
 10
113.4012493694975
 20
153.3490526768302
 10
114.6683563248758
 20
152.7580461564518
 10
114.7493161221879
 20
150.7838328862519
 10
114.8106388622796
 20
149.0909118479895
 10
114.3186789024427
 20
145.9191825971221
 10
112.6164561002338
 20
140.9489400617108
 10
110.6444821435766
 20
135.1746117095912
 10
109.4669477299053
 20
132.8960240524753
 10
108.5212683953448
 20
131.9072809959403
 10
106.7346406980658
 20
130.0538184021569
 10
104.8222669326213
 20
130.2336525051225
 10
104.5408024457958
 20
130.2336525051225
 10
104.1721769856939
 20
130.2336525051225
 10
101.6465758193322
 20
130.6305277668397
 10
101.6420971922469
 20
132.8388354296931
 97
        0
 92
        1
 93
        1
 72
     4
 94
        3
 73
     0
 74
     1
 95
       32
 96
       28
 40
0.0
 40
0.0
 40
0.0
 40
0.0
 40
1.0
 40
1.0
 40
1.0
 40
2.0
 40
2.0
 40
2.0
 40
3.0
 40
3.0
 40
3.0
 40
4.0
 40
4.0
 40
4.0
 40
5.0
 40
5.0
 40
5.0
 40
6.0
 40
6.0
 40
6.0
 40
7.0
 40
7.0
 40
7.0
 40
8.0
 40
8.0
 40
8.0
 40
9.0
 40
9.0
 40
9.0
 40
9.0
 10
106.2595617172429
 20
153.4105476718098
 10
104.8222669326213
 20
151.5474388043041
 10
103.7177685914188
 20
149.8758773721411
 10
101.9232171692965
 20
144.6141795664062
 10
100.2754269116635
 20
139.7999999594306
 10
99.22777268346732
 20
136.3052927937542
 10
99.06964269637689
 20
132.039572749846
 10
98.94665270641765
 20
128.8673267343149
 10
100.8807305877373
 20
127.8027915271048
 10
103.7129454545577
 20
127.8027915271048
 10
104.9352661390825
 20
127.8027915271048
 10
108.0151835347002
 20
127.8827177950895
 10
110.2045431598849
 20
130.5926316915021
 10
111.7417457794874
 20
132.4984597712065
 10
113.155269389579
 20
134.475256864725
 10
115.0562743324223
 20
140.9489400617108
 10
116.6361961642235
 20
146.3680788349845
 10
117.7282921534974
 20
149.8639917848761
 10
117.6480213757369
 20
151.8595646611754
 10
117.6480213757369
 20
151.8595646611754
 10
117.6480213757369
 20
151.8595646611754
 10
117.6480213757369
 20
151.8595646611754
 10
117.13229024137
 20
155.18150017429
 10
114.7162431837115
 20
155.886194920681
 10
113.3351034925446
 20
155.886194920681
 10
111.9829026225447
 20
155.886194920681
 10
108.3414342923792
 20
156.1251124501957
 10
106.2595617172429
 20
153.4105476718098
 97
        0
 75
     2
 76
     1
 98
        0
  0
ENDBLK
  5
1DAB
330
1DA0
100
AcDbEntity
  8
0
100
AcDbBlockEnd
  0
BLOCK
  5
565A
330
5659
100
AcDbEntity
  8
0
100
AcDbBlockBegin
  2
*D7
 70
     1
 10
0.0
 20
0.0
 30
0.0
  3
*D7
  1

  0
LINE
  5
565C
330
5659
100
AcDbEntity
  8
寸法
 62
     0
370
    -2
100
AcDbLine
 10
285.4906186949426
 20
355.4348797046977
 30
0.0
 11
258.251372605973
 21
355.4348797046977
 31
0.0
  0
LINE
  5
565D
330
5659
100
AcDbEntity
  8
寸法
 62
     0
370
    -2
100
AcDbLine
 10
285.4906186949426
 20
307.4348797046977
 30
0.0
 11
258.251372605973
 21
307.4348797046977
 31
0.0
  0
LINE
  5
565E
330
5659
100
AcDbEntity
  8
寸法
 62
     0
370
    -2
100
AcDbLine
 10
258.251372605973
 20
353.4348797046977
 30
0.0
 11
258.251372605973
 21
309.4348797046977
 31
0.0
  0
INSERT
  5
565F
330
5659
100
AcDbEntity
  8
寸法
 62
     0
370
    -2
100
AcDbBlockReference
  2
_DOT
 10
258.251372605973
 20
355.4348797046977
 30
0.0
 41
2.0
 42
2.0
 43
2.0
 50
90.0
  0
INSERT
  5
5660
330
5659
100
AcDbEntity
  8
寸法
 62
     0
370
    -2
100
AcDbBlockReference
  2
_DOT
 10
258.251372605973
 20
307.4348797046977
 30
0.0
 41
2.0
 42
2.0
 43
2.0
 50
270.0
  0
MTEXT
  5
5661
330
5659
100
AcDbEntity
  8
寸法
 62
     0
100
AcDbMText
 10
252.751372605973
 20
331.4348797046978
 30
0.0
 40
5.0
 41
0.0
 46
0.0
 71
     5
 72
     1
  1
\A1;%%c48
  7
ＭＳ ゴシック
 11
0.0
 21
1.0
 31
0.0
 73
     1
 44
1.0
  0
POINT
  5
5662
330
5659
100
AcDbEntity
  8
Defpoints
 62
     0
100
AcDbPoint
 10
290.4906186949426
 20
355.4348797046977
 30
0.0
  0
POINT
  5
5663
330
5659
100
AcDbEntity
  8
Defpoints
 62
     0
100
AcDbPoint
 10
290.4906186949426
 20
307.4348797046977
 30
0.0
  0
POINT
  5
5664
330
5659
100
AcDbEntity
  8
Defpoints
 62
     0
100
AcDbPoint
 10
258.251372605973
 20
307.4348797046977
 30
0.0
  0
ENDBLK
  5
565B
330
5659
100
AcDbEntity
  8
0
100
AcDbBlockEnd
  0
BLOCK
  5
5669
330
5668
100
AcDbEntity
  8
0
100
AcDbBlockBegin
  2
*D8
 70
     1
 10
0.0
 20
0.0
 30
0.0
  3
*D8
  1

  0
LINE
  5
566B
330
5668
100
AcDbEntity
  8
寸法
 62
     0
370
    -2
100
AcDbLine
 10
308.6270120040336
 20
348.9348797046976
 30
0.0
 11
334.4211843877913
 21
348.9348797046976
 31
0.0
  0
LINE
  5
566C
330
5668
100
AcDbEntity
  8
寸法
 62
     0
370
    -2
100
AcDbLine
 10
308.6270120040336
 20
313.9348797046978
 30
0.0
 11
334.4211843877913
 21
313.9348797046978
 31
0.0
  0
LINE
  5
566D
330
5668
100
AcDbEntity
  8
寸法
 62
     0
370
    -2
100
AcDbLine
 10
334.4211843877913
 20
346.9348797046976
 30
0.0
 11
334.4211843877913
 21
315.9348797046978
 31
0.0
  0
INSERT
  5
566E
330
5668
100
AcDbEntity
  8
寸法
 62
     0
370
    -2
100
AcDbBlockReference
  2
_DOT
 10
334.4211843877913
 20
348.9348797046976
 30
0.0
 41
2.0
 42
2.0
 43
2.0
 50
90.0
  0
INSERT
  5
566F
330
5668
100
AcDbEntity
  8
寸法
 62
     0
370
    -2
100
AcDbBlockReference
  2
_DOT
 10
334.4211843877913
 20
313.9348797046978
 30
0.0
 41
2.0
 42
2.0
 43
2.0
 50
270.0
  0
MTEXT
  5
5670
330
5668
100
AcDbEntity
  8
寸法
 62
     0
100
AcDbMText
 10
328.9211843877913
 20
331.4348797046977
 30
0.0
 40
5.0
 41
0.0
 46
0.0
 71
     5
 72
     1
  1
\A1;%%c35
  7
ＭＳ ゴシック
 11
0.0
 21
1.0
 31
0.0
 73
     1
 44
1.0
  0
POINT
  5
5671
330
5668
100
AcDbEntity
  8
Defpoints
 62
     0
100
AcDbPoint
 10
303.6270120040336
 20
348.9348797046976
 30
0.0
  0
POINT
  5
5672
330
5668
100
AcDbEntity
  8
Defpoints
 62
     0
100
AcDbPoint
 10
303.6270120040336
 20
313.9348797046978
 30
0.0
  0
POINT
  5
5673
330
5668
100
AcDbEntity
  8
Defpoints
 62
     0
100
AcDbPoint
 10
334.4211843877913
 20
313.9348797046978
 30
0.0
  0
ENDBLK
  5
566A
330
5668
100
AcDbEntity
  8
0
100
AcDbBlockEnd
  0
BLOCK
  5
567E
330
567D
100
AcDbEntity
  8
0
100
AcDbBlockBegin
  2
*D9
 70
     1
 10
0.0
 20
0.0
 30
0.0
  3
*D9
  1

  0
LINE
  5
5680
330
567D
100
AcDbEntity
  8
寸法
 62
     0
370
    -2
100
AcDbLine
 10
263.5162768767609
 20
222.9043979221059
 30
0.0
 11
253.986412605973
 21
222.9043979221059
 31
0.0
  0
LINE
  5
5681
330
567D
100
AcDbEntity
  8
寸法
 62
     0
370
    -2
100
AcDbLine
 10
273.8007253332457
 20
246.8546591383257
 30
0.0
 11
253.986412605973
 21
246.8546591383257
 31
0.0
  0
LINE
  5
5682
330
567D
100
AcDbEntity
  8
寸法
 62
     0
370
    -2
100
AcDbLine
 10
253.986412605973
 20
224.9043979221059
 30
0.0
 11
253.986412605973
 21
244.8546591383257
 31
0.0
  0
INSERT
  5
5683
330
567D
100
AcDbEntity
  8
寸法
 62
     0
370
    -2
100
AcDbBlockReference
  2
_DOT
 10
253.986412605973
 20
222.9043979221059
 30
0.0
 41
2.0
 42
2.0
 43
2.0
 50
270.0
  0
INSERT
  5
5684
330
567D
100
AcDbEntity
  8
寸法
 62
     0
370
    -2
100
AcDbBlockReference
  2
_DOT
 10
253.986412605973
 20
246.8546591383257
 30
0.0
 41
2.0
 42
2.0
 43
2.0
 50
90.0
  0
MTEXT
  5
5685
330
567D
100
AcDbEntity
  8
寸法
 62
     0
100
AcDbMText
 10
248.486412605973
 20
234.8795285302158
 30
0.0
 40
5.0
 41
0.0
 46
0.0
 71
     5
 72
     1
  1
\A1;24
  7
ＭＳ ゴシック
 11
0.0
 21
1.0
 31
0.0
 73
     1
 44
1.0
  0
POINT
  5
5686
330
567D
100
AcDbEntity
  8
Defpoints
 62
     0
100
AcDbPoint
 10
268.5162768767609
 20
222.9043979221059
 30
0.0
  0
POINT
  5
5687
330
567D
100
AcDbEntity
  8
Defpoints
 62
     0
100
AcDbPoint
 10
278.8007253332457
 20
246.8546591383257
 30
0.0
  0
POINT
  5
5688
330
567D
100
AcDbEntity
  8
Defpoints
 62
     0
100
AcDbPoint
 10
253.986412605973
 20
246.8546591383257
 30
0.0
  0
ENDBLK
  5
567F
330
567D
100
AcDbEntity
  8
0
100
AcDbBlockEnd
  0
BLOCK
  5
63E8
330
63E7
100
AcDbEntity
  8
0
100
AcDbBlockBegin
  2
*D10
 70
     1
 10
0.0
 20
0.0
 30
0.0
  3
*D10
  1

  0
LINE
  5
63EA
330
63E7
100
AcDbEntity
  8
モデル
 62
     0
370
    -2
100
AcDbLine
 10
924.3301007199343
 20
321.0953794361313
 30
0.0
 11
924.3301007199343
 21
340.5976603907122
 31
0.0
  0
LINE
  5
63EB
330
63E7
100
AcDbEntity
  8
モデル
 62
     0
370
    -2
100
AcDbLine
 10
969.3301007199343
 20
321.0953794361313
 30
0.0
 11
969.3301007199343
 21
340.5976603907122
 31
0.0
  0
LINE
  5
63EC
330
63E7
100
AcDbEntity
  8
モデル
 62
     0
370
    -2
100
AcDbLine
 10
926.3301007199343
 20
340.5976603907122
 30
0.0
 11
967.3301007199343
 21
340.5976603907122
 31
0.0
  0
INSERT
  5
63ED
330
63E7
100
AcDbEntity
  8
モデル
 62
     0
370
    -2
100
AcDbBlockReference
  2
_DOT
 10
924.3301007199343
 20
340.5976603907122
 30
0.0
 41
2.0
 42
2.0
 43
2.0
 50
180.0
  0
INSERT
  5
63EE
330
63E7
100
AcDbEntity
  8
モデル
 62
     0
370
    -2
100
AcDbBlockReference
  2
_DOT
 10
969.3301007199343
 20
340.5976603907122
 30
0.0
 41
2.0
 42
2.0
 43
2.0
  0
MTEXT
  5
63EF
330
63E7
100
AcDbEntity
  8
モデル
 62
     0
100
AcDbMText
 10
946.8301007199343
 20
346.0976603907122
 30
0.0
 40
5.0
 41
0.0
 46
0.0
 71
     5
 72
     1
  1
\A1;45
  7
ＭＳ ゴシック
 73
     1
 44
1.0
  0
POINT
  5
63F0
330
63E7
100
AcDbEntity
  8
Defpoints
 62
     0
100
AcDbPoint
 10
924.3301007199343
 20
316.0953794361313
 30
0.0
  0
POINT
  5
63F1
330
63E7
100
AcDbEntity
  8
Defpoints
 62
     0
100
AcDbPoint
 10
969.3301007199343
 20
316.0953794361313
 30
0.0
  0
POINT
  5
63F2
330
63E7
100
AcDbEntity
  8
Defpoints
 62
     0
100
AcDbPoint
 10
969.3301007199343
 20
340.5976603907122
 30
0.0
  0
ENDBLK
  5
63E9
330
63E7
100
AcDbEntity
  8
0
100
AcDbBlockEnd
  0
BLOCK
  5
6401
330
6400
100
AcDbEntity
  8
0
100
AcDbBlockBegin
  2
*D11
 70
     1
 10
0.0
 20
0.0
 30
0.0
  3
*D11
  1

  0
LINE
  5
6403
330
6400
100
AcDbEntity
  8
寸法
 62
     0
370
    -2
100
AcDbLine
 10
284.7446935434476
 20
317.3515843753733
 30
0.0
 11
255.2698425214287
 21
317.3515843753738
 31
0.0
  0
LINE
  5
6404
330
6400
100
AcDbEntity
  8
寸法
 62
     0
370
    -2
100
AcDbLine
 10
283.1779377022862
 20
362.3515843753734
 30
0.0
 11
255.2698425214294
 21
362.3515843753739
 31
0.0
  0
LINE
  5
6405
330
6400
100
AcDbEntity
  8
寸法
 62
     0
370
    -2
100
AcDbLine
 10
255.2698425214287
 20
319.3515843753738
 30
0.0
 11
255.2698425214294
 21
360.3515843753739
 31
0.0
  0
INSERT
  5
6406
330
6400
100
AcDbEntity
  8
寸法
 62
     0
370
    -2
100
AcDbBlockReference
  2
_DOT
 10
255.2698425214287
 20
317.3515843753738
 30
0.0
 41
2.0
 42
2.0
 43
2.0
 50
269.9999999999991
  0
INSERT
  5
6407
330
6400
100
AcDbEntity
  8
寸法
 62
     0
370
    -2
100
AcDbBlockReference
  2
_DOT
 10
255.2698425214294
 20
362.3515843753739
 30
0.0
 41
2.0
 42
2.0
 43
2.0
 50
89.99999999999913
  0
MTEXT
  5
6408
330
6400
100
AcDbEntity
  8
寸法
 62
     0
100
AcDbMText
 10
249.769842521429
 20
339.8515843753739
 30
0.0
 40
5.0
 41
0.0
 46
0.0
 71
     5
 72
     1
  1
\A1;%%c45
  7
ＭＳ ゴシック
 11
1.515824502954877E-14
 21
1.0
 31
0.0
 73
     1
 44
1.0
  0
POINT
  5
6409
330
6400
100
AcDbEntity
  8
Defpoints
 62
     0
100
AcDbPoint
 10
289.7446935434476
 20
317.3515843753732
 30
0.0
  0
POINT
  5
640A
330
6400
100
AcDbEntity
  8
Defpoints
 62
     0
100
AcDbPoint
 10
288.1779377022862
 20
362.3515843753734
 30
0.0
  0
POINT
  5
640B
330
6400
100
AcDbEntity
  8
Defpoints
 62
     0
100
AcDbPoint
 10
255.2698425214294
 20
362.3515843753739
 30
0.0
  0
ENDBLK
  5
6402
330
6400
100
AcDbEntity
  8
0
100
AcDbBlockEnd
  0
BLOCK
  5
6410
330
640F
100
AcDbEntity
  8
0
100
AcDbBlockBegin
  2
*D12
 70
     1
 10
0.0
 20
0.0
 30
0.0
  3
*D12
  1

  0
LINE
  5
6412
330
640F
100
AcDbEntity
  8
寸法
 62
     0
370
    -2
100
AcDbLine
 10
277.0375050006667
 20
221.4996692583369
 30
0.0
 11
255.2698425214287
 21
221.4996692583369
 31
0.0
  0
LINE
  5
6413
330
640F
100
AcDbEntity
  8
寸法
 62
     0
370
    -2
100
AcDbLine
 10
279.8503800506734
 20
255.499952629453
 30
0.0
 11
255.2698425214287
 21
255.499952629453
 31
0.0
  0
LINE
  5
6414
330
640F
100
AcDbEntity
  8
寸法
 62
     0
370
    -2
100
AcDbLine
 10
255.2698425214287
 20
223.4996692583369
 30
0.0
 11
255.2698425214287
 21
253.499952629453
 31
0.0
  0
INSERT
  5
6415
330
640F
100
AcDbEntity
  8
寸法
 62
     0
370
    -2
100
AcDbBlockReference
  2
_DOT
 10
255.2698425214287
 20
221.4996692583369
 30
0.0
 41
2.0
 42
2.0
 43
2.0
 50
270.0
  0
INSERT
  5
6416
330
640F
100
AcDbEntity
  8
寸法
 62
     0
370
    -2
100
AcDbBlockReference
  2
_DOT
 10
255.2698425214287
 20
255.499952629453
 30
0.0
 41
2.0
 42
2.0
 43
2.0
 50
90.0
  0
MTEXT
  5
6417
330
640F
100
AcDbEntity
  8
寸法
 62
     0
100
AcDbMText
 10
249.7698425214287
 20
238.4998109438949
 30
0.0
 40
5.0
 41
0.0
 46
0.0
 71
     5
 72
     1
  1
\A1;34
  7
ＭＳ ゴシック
 11
0.0
 21
1.0
 31
0.0
 73
     1
 44
1.0
  0
POINT
  5
6418
330
640F
100
AcDbEntity
  8
Defpoints
 62
     0
100
AcDbPoint
 10
282.0375050006667
 20
221.4996692583369
 30
0.0
  0
POINT
  5
6419
330
640F
100
AcDbEntity
  8
Defpoints
 62
     0
100
AcDbPoint
 10
284.8503800506734
 20
255.499952629453
 30
0.0
  0
POINT
  5
641A
330
640F
100
AcDbEntity
  8
Defpoints
 62
     0
100
AcDbPoint
 10
255.2698425214287
 20
255.499952629453
 30
0.0
  0
ENDBLK
  5
6411
330
640F
100
AcDbEntity
  8
0
100
AcDbBlockEnd
  0
BLOCK
  5
6422
330
6421
100
AcDbEntity
  8
0
100
AcDbBlockBegin
  2
*D13
 70
     1
 10
0.0
 20
0.0
 30
0.0
  3
*D13
  1

  0
LINE
  5
6424
330
6421
100
AcDbEntity
  8
寸法
 62
     0
370
    -2
100
AcDbLine
 10
951.8301007199343
 20
427.9889189018584
 30
0.0
 11
991.9869541608546
 21
427.9889189018584
 31
0.0
  0
LINE
  5
6425
330
6421
100
AcDbEntity
  8
寸法
 62
     0
370
    -2
100
AcDbLine
 10
951.8301007199343
 20
403.6896790032054
 30
0.0
 11
991.9869541608546
 21
403.6896790032054
 31
0.0
  0
LINE
  5
6426
330
6421
100
AcDbEntity
  8
寸法
 62
     0
370
    -2
100
AcDbLine
 10
991.9869541608546
 20
425.9889189018584
 30
0.0
 11
991.9869541608546
 21
405.6896790032054
 31
0.0
  0
INSERT
  5
6427
330
6421
100
AcDbEntity
  8
寸法
 62
     0
370
    -2
100
AcDbBlockReference
  2
_DOT
 10
991.9869541608546
 20
427.9889189018584
 30
0.0
 41
2.0
 42
2.0
 43
2.0
 50
90.0
  0
INSERT
  5
6428
330
6421
100
AcDbEntity
  8
寸法
 62
     0
370
    -2
100
AcDbBlockReference
  2
_DOT
 10
991.9869541608546
 20
403.6896790032054
 30
0.0
 41
2.0
 42
2.0
 43
2.0
 50
270.0
  0
MTEXT
  5
6429
330
6421
100
AcDbEntity
  8
寸法
 62
     0
100
AcDbMText
 10
986.4869541608546
 20
415.8392989525319
 30
0.0
 40
5.0
 41
0.0
 46
0.0
 71
     5
 72
     1
  1
\A1;24
  7
ＭＳ ゴシック
 11
0.0
 21
1.0
 31
0.0
 73
     1
 44
1.0
  0
POINT
  5
642A
330
6421
100
AcDbEntity
  8
Defpoints
 62
     0
100
AcDbPoint
 10
946.8301007199343
 20
427.9889189018584
 30
0.0
  0
POINT
  5
642B
330
6421
100
AcDbEntity
  8
Defpoints
 62
     0
100
AcDbPoint
 10
946.8301007199343
 20
403.6896790032054
 30
0.0
  0
POINT
  5
642C
330
6421
100
AcDbEntity
  8
Defpoints
 62
     0
100
AcDbPoint
 10
991.9869541608546
 20
403.6896790032054
 30
0.0
  0
ENDBLK
  5
6423
330
6421
100
AcDbEntity
  8
0
100
AcDbBlockEnd
  0
ENDSEC
  0
SECTION
  2
ENTITIES
  0
LINE
  5
36CD
330
A
100
AcDbEntity
  8
PRINT BORDER
100
AcDbLine
 10
296.9999999999999
 20
0.0
 30
0.0
 11
296.9999999999999
 21
15.30952622855898
 31
0.0
  0
LINE
  5
36CE
330
A
100
AcDbEntity
  8
テンプレート
100
AcDbLine
 10
461.9272435043344
 20
38.27810890422097
 30
0.0
 11
15.30952622855898
 21
38.27810890422097
 31
0.0
  0
LINE
  5
36CF
330
A
100
AcDbEntity
  8
テンプレート
100
AcDbLine
 10
15.30952622855898
 20
26.22153683920783
 30
0.0
 11
578.6904737714407
 21
26.22153683920783
 31
0.0
  0
TEXT
  5
36D0
330
A
100
AcDbEntity
  8
テンプレート
100
AcDbText
 10
18.06121699514119
 20
32.16825981613692
 30
0.0
 40
3.5
  1
材質
  7
ＭＳ ゴシック
100
AcDbText
  0
TEXT
  5
36D3
330
A
100
AcDbEntity
  8
テンプレート
100
AcDbText
 10
18.06121699514119
 20
56.50959028673083
 30
0.0
 40
3.5
  1
品名
  7
ＭＳ ゴシック
100
AcDbText
  0
TEXT
  5
36D4
330
A
100
AcDbEntity
  8
テンプレート
100
AcDbText
 10
18.06121699514119
 20
44.65099339080098
 30
0.0
 40
3.5
  1
仕上げ
  7
ＭＳ ゴシック
100
AcDbText
  0
TEXT
  5
36D5
330
A
100
AcDbEntity
  8
テンプレート
100
AcDbText
 10
373.1087493822859
 20
56.58523052309896
 30
0.0
 40
3.5
  1
品番
  7
ＭＳ ゴシック
100
AcDbText
  0
TEXT
  5
36D6
330
A
100
AcDbEntity
  8
テンプレート
100
AcDbText
 10
36.7528253083583
 20
53.09440584367189
 30
0.0
 40
5.5
  1
戸当り - FSB -
  7
ＭＳ ゴシック
100
AcDbText
  0
TEXT
  5
36D7
330
A
100
AcDbEntity
  8
テンプレート
100
AcDbText
 10
387.3025214068017
 20
52.97708052455299
 30
0.0
 40
5.5
  1
FSB34-3881
  7
ＭＳ ゴシック
100
AcDbText
  0
LINE
  5
36D8
330
A
100
AcDbEntity
  8
テンプレート
100
AcDbLine
 10
461.9272435043344
 20
50.16496477419605
 30
0.0
 11
15.30952622855898
 21
50.16496477419605
 31
0.0
  0
LINE
  5
36D9
330
A
100
AcDbEntity
  8
テンプレート
100
AcDbLine
 10
578.6904737714411
 20
62.22153683920783
 30
0.0
 11
15.30952622855898
 21
62.22153683920783
 31
0.0
  0
LINE
  5
36DA
330
A
100
AcDbEntity
  8
PRINT BORDER
100
AcDbLine
 10
593.9999999999999
 20
210.0
 30
0.0
 11
578.6904737714411
 21
210.0
 31
0.0
  0
LINE
  5
36DB
330
A
100
AcDbEntity
  8
PRINT BORDER
100
AcDbLine
 10
0.0
 20
210.0
 30
0.0
 11
15.30952622855898
 21
210.0
 31
0.0
  0
LINE
  5
36DC
330
A
100
AcDbEntity
  8
PRINT BORDER
100
AcDbLine
 10
296.9999999999999
 20
420.0
 30
0.0
 11
296.9999999999999
 21
404.690473771441
 31
0.0
  0
LINE
  5
36DD
330
A
100
AcDbEntity
  8
テンプレート
100
AcDbLine
 10
578.6904737714411
 20
62.22153683920783
 30
0.0
 11
578.6904737714411
 21
26.22153683920783
 31
0.0
  0
LINE
  5
36DE
330
A
100
AcDbEntity
  8
テンプレート
100
AcDbLine
 10
15.30952622855898
 20
62.22153683920783
 30
0.0
 11
15.30952622855898
 21
26.22153683920783
 31
0.0
  0
TEXT
  5
36DF
330
A
100
AcDbEntity
  8
テンプレート
100
AcDbText
 10
464.0159959716813
 20
56.58523052309897
 30
0.0
 40
3.5
  1
備考
  7
ＭＳ ゴシック
100
AcDbText
  0
TEXT
  5
36E0
330
A
100
AcDbEntity
  8
テンプレート
100
AcDbText
 10
494.9733384955217
 20
16.51938390313694
 30
0.0
 40
5.5
  1
大洋金物株式会社  
  7
ＭＳ ゴシック
100
AcDbText
  0
LINE
  5
36E1
330
A
100
AcDbEntity
  8
テンプレート
100
AcDbLine
 10
461.9272435043343
 20
62.22153683920783
 30
0.0
 11
461.9272435043343
 21
26.22153683920783
 31
0.0
  0
LINE
  5
36E2
330
A
100
AcDbEntity
  8
テンプレート
100
AcDbLine
 10
369.8413281370825
 20
62.22153683920781
 30
0.0
 11
369.8413281370825
 21
26.22153683920781
 31
0.0
  0
INSERT
  5
36E3
330
A
100
AcDbEntity
  8
テンプレート
100
AcDbBlockReference
  2
名称未設定-1
 10
548.3945198859805
 20
-7.642344203993161
 30
0.0
 41
0.180975
 42
0.180975
 43
0.180975
  0
LINE
  5
36E5
330
A
100
AcDbEntity
  8
テンプレート
100
AcDbLine
 10
15.30952622855898
 20
210.0
 30
0.0
 11
15.30952622855898
 21
26.22153683920783
 31
0.0
  0
LINE
  5
36E6
330
A
100
AcDbEntity
  8
テンプレート
100
AcDbLine
 10
15.30952622855898
 20
210.0
 30
0.0
 11
15.30952622855898
 21
404.690473771441
 31
0.0
  0
LINE
  5
36E7
330
A
100
AcDbEntity
  8
テンプレート
100
AcDbLine
 10
296.9999999999999
 20
404.690473771441
 30
0.0
 11
15.30952622855887
 21
404.690473771441
 31
0.0
  0
LINE
  5
36E8
330
A
100
AcDbEntity
  8
テンプレート
100
AcDbLine
 10
296.9999999999999
 20
404.690473771441
 30
0.0
 11
578.6904737714411
 21
404.690473771441
 31
0.0
  0
LINE
  5
36E9
330
A
100
AcDbEntity
  8
テンプレート
100
AcDbLine
 10
578.6904737714411
 20
210.0
 30
0.0
 11
578.6904737714411
 21
404.690473771441
 31
0.0
  0
LINE
  5
36EA
330
A
100
AcDbEntity
  8
テンプレート
100
AcDbLine
 10
578.6904737714411
 20
210.0
 30
0.0
 11
578.6904737714411
 21
26.22153683920783
 31
0.0
  0
LWPOLYLINE
  5
36EB
330
A
100
AcDbEntity
  8
PRINT BORDER
  6
HIDDEN
 48
3.0
100
AcDbPolyline
 90
        4
 70
     1
 43
0.0
 10
0.0
 20
0.0
 10
0.0
 20
420.0
 10
593.9999999999999
 20
420.0
 10
593.9999999999999
 20
0.0
  0
TEXT
  5
36EC
330
A
100
AcDbEntity
  8
テンプレート
100
AcDbText
 10
373.0843164865775
 20
32.62405342819486
 30
0.0
 40
3.5
  1
縮尺
  7
ＭＳ ゴシック
100
AcDbText
  0
TEXT
  5
36ED
330
A
100
AcDbEntity
  8
テンプレート
100
AcDbText
 10
387.3025214068017
 20
28.29362070227193
 30
0.0
 40
5.5
  1
1/2
  7
ＭＳ ゴシック
100
AcDbText
  0
TEXT
  5
37DE
330
A
100
AcDbEntity
  8
テンプレート
100
AcDbText
 10
373.1087493822859
 20
44.52865845808581
 30
0.0
 40
3.5
  1
扉厚
  7
ＭＳ ゴシック
100
AcDbText
  0
TEXT
  5
41FC
330
A
100
AcDbEntity
  8
テンプレート
100
AcDbText
 10
192.6640855805966
 20
77.17630111113886
 30
0.0
 40
5.0
  1
　 加工は現物合わせの上行って下さい。
  7
ＭＳ ゴシック
100
AcDbText
  0
TEXT
  5
41FD
330
A
100
AcDbEntity
  8
テンプレート
100
AcDbText
 10
192.8363286628052
 20
85.28008520727872
 30
0.0
 40
5.0
  1
※ 輸入製品の為、国内製品と比べ製品寸法の個体差に幅が有ります。
  7
ＭＳ ゴシック
100
AcDbText
  0
LINE
  5
47CB
330
A
100
AcDbEntity
  8
モデル
100
AcDbLine
 10
461.9272435043344
 20
26.22153683920786
 30
0.0
 11
461.9272435043344
 21
62.22153683920782
 31
0.0
  0
LINE
  5
480C
330
A
100
AcDbEntity
  8
TFORMLOGO
100
AcDbLine
 10
34.39354323042302
 20
26.22153683920783
 30
0.0
 11
34.39354323042301
 21
50.16496477419605
 31
0.0
  0
MTEXT
  5
543D
330
A
100
AcDbEntity
  8
テンプレート
390
1D
100
AcDbMText
 10
35.78377322769549
 20
34.57354675141925
 30
0.0
 40
5.0
 41
0.0
 46
5.205
 71
     1
 72
     1
  1
{アルミ}
  7
ＭＳ ゴシック
 73
     1
 44
0.7828267384257843
1001
ACAD
1000
ACAD_MTEXT_DEFINED_HEIGHT_BEGIN
1070
    46
1040
5.205
1000
ACAD_MTEXT_DEFINED_HEIGHT_END
  0
MTEXT
  5
5440
330
A
100
AcDbEntity
  8
テンプレート
390
1D
100
AcDbMText
 10
35.55147890762322
 20
48.77911613324933
 30
0.0
 40
3.0
 41
0.0
 46
4.224
 71
     1
 72
     1
  1
{アルミナチュラル}
  7
ＭＳ ゴシック
 73
     1
 44
0.7828267384257843
1001
ACAD
1000
ACAD_MTEXT_DEFINED_HEIGHT_BEGIN
1070
    46
1040
4.224
1000
ACAD_MTEXT_DEFINED_HEIGHT_END
  0
LINE
  5
5449
330
A
100
AcDbEntity
  8
テンプレート
  6
Continuous
100
AcDbLine
 10
88.07689833318682
 20
50.16496477419616
 30
0.0
 11
88.07689833318682
 21
38.27810890422097
 31
0.0
  0
MTEXT
  5
544A
330
A
100
AcDbEntity
  8
テンプレート
390
1D
100
AcDbMText
 10
141.5552322932293
 20
48.86397423076843
 30
0.0
 40
3.0
 41
0.0
 46
3.351
 71
     1
 72
     1
  1
{ミディアムブロンズ(アルミ)}
  7
ＭＳ ゴシック
 73
     1
 44
0.7828267384257843
1001
ACAD
1000
ACAD_MTEXT_DEFINED_HEIGHT_BEGIN
1070
    46
1040
3.351
1000
ACAD_MTEXT_DEFINED_HEIGHT_END
  0
MTEXT
  5
544B
330
A
100
AcDbEntity
  8
テンプレート
390
1D
100
AcDbMText
 10
141.5552322932293
 20
42.92054629578013
 30
0.0
 40
3.0
 41
0.0
 46
3.351
 71
     1
 72
     1
  1
{\fＭＳ ゴシック|b0|i0|c1|p0;ダークブロンズ(アルミ)}
  7
ＭＳ ゴシック
 73
     1
 44
0.7828267384257843
1001
ACAD
1000
ACAD_MTEXT_DEFINED_HEIGHT_BEGIN
1070
    46
1040
3.351
1000
ACAD_MTEXT_DEFINED_HEIGHT_END
  0
LINE
  5
5452
330
A
100
AcDbEntity
  8
テンプレート
  6
Continuous
100
AcDbLine
 10
193.3660672948608
 20
50.16496477419605
 30
0.0
 11
193.3660672948608
 21
38.27810890422097
 31
0.0
  0
LINE
  5
5455
330
A
100
AcDbEntity
  8
テンプレート
  6
Continuous
100
AcDbLine
 10
369.8413281370825
 20
44.22153683920781
 30
0.0
 11
34.39354323042301
 21
44.30639493672683
 31
0.0
  0
MTEXT
  5
5456
102
{ACAD_XDICTIONARY
360
5458
102
}
330
A
100
AcDbEntity
  8
テンプレート
100
AcDbMText
 10
16.39605047595663
 20
23.95351003077555
 30
0.0
 40
4.0
 41
0.0
 46
4.0
 71
     1
 72
     1
  1
{20180808N}
  7
ＭＳ ゴシック
 73
     1
 44
1.0
1001
ACAD
1000
ACAD_MTEXT_DEFINED_HEIGHT_BEGIN
1070
    46
1040
4.0
1000
ACAD_MTEXT_DEFINED_HEIGHT_END
  0
MTEXT
  5
560F
330
A
100
AcDbEntity
  8
テンプレート
390
1D
100
AcDbMText
 10
195.1773015202933
 20
48.83020664728468
 30
0.0
 40
3.0
 41
0.0
 46
3.351
 71
     1
 72
     1
  1
{ブラックブラスト(アルミ)}
  7
ＭＳ ゴシック
 73
     1
 44
0.7828267384257843
1001
ACAD
1000
ACAD_MTEXT_DEFINED_HEIGHT_BEGIN
1070
    46
1040
3.351
1000
ACAD_MTEXT_DEFINED_HEIGHT_END
  0
TEXT
  5
6032
330
A
100
AcDbEntity
  8
テンプレート
100
AcDbText
 10
477.0543206562563
 20
49.99012599597117
 30
0.0
 40
5.5
  1
ビス・アンカー付
  7
ＭＳ ゴシック
100
AcDbText
  0
POLYLINE
  5
622D
330
A
100
AcDbEntity
  8
モデル
100
AcDb2dPolyline
 66
     1
 10
0.0
 20
0.0
 30
0.0
  0
VERTEX
  5
622E
330
622D
100
AcDbEntity
  8
モデル
100
AcDbVertex
100
AcDb2dVertex
 10
291.940075343379
 20
165.0775213052765
 30
0.0
  0
VERTEX
  5
622F
330
622D
100
AcDbEntity
  8
モデル
100
AcDbVertex
100
AcDb2dVertex
 10
302.0581744232563
 20
165.0775213052765
 30
0.0
  0
SEQEND
  5
6230
330
622D
100
AcDbEntity
  8
モデル
  0
POLYLINE
  5
6231
330
A
100
AcDbEntity
  8
モデル
100
AcDb2dPolyline
 66
     1
 10
0.0
 20
0.0
 30
0.0
  0
VERTEX
  5
6232
330
6231
100
AcDbEntity
  8
モデル
100
AcDbVertex
100
AcDb2dVertex
 10
287.9337911721562
 20
151.0101456551898
 30
0.0
  0
VERTEX
  5
6233
330
6231
100
AcDbEntity
  8
モデル
100
AcDbVertex
100
AcDb2dVertex
 10
293.0132184291239
 20
144.9448369473621
 30
0.0
  0
SEQEND
  5
6234
330
6231
100
AcDbEntity
  8
モデル
  0
POLYLINE
  5
6235
330
A
100
AcDbEntity
  8
モデル
100
AcDb2dPolyline
 66
     1
 10
0.0
 20
0.0
 30
0.0
  0
VERTEX
  5
6236
330
6235
100
AcDbEntity
  8
モデル
100
AcDbVertex
100
AcDb2dVertex
 10
297.6658387785037
 20
127.079454896422
 30
0.0
  0
VERTEX
  5
6237
330
6235
100
AcDbEntity
  8
モデル
100
AcDbVertex
100
AcDb2dVertex
 10
300.990282037605
 20
127.079454896422
 30
0.0
  0
SEQEND
  5
6238
330
6235
100
AcDbEntity
  8
モデル
  0
POLYLINE
  5
6239
330
A
100
AcDbEntity
  8
モデル
100
AcDb2dPolyline
 66
     1
 10
0.0
 20
0.0
 30
0.0
  0
VERTEX
  5
623A
330
6239
100
AcDbEntity
  8
モデル
100
AcDbVertex
100
AcDb2dVertex
 10
299.6603547139617
 20
145.428901489301
 30
0.0
  0
VERTEX
  5
623B
330
6239
100
AcDbEntity
  8
モデル
100
AcDbVertex
100
AcDb2dVertex
 10
305.0483231097479
 20
151.8692602037963
 30
0.0
  0
SEQEND
  5
623C
330
6239
100
AcDbEntity
  8
モデル
  0
POLYLINE
  5
623D
330
A
100
AcDbEntity
  8
モデル
100
AcDb2dPolyline
 66
     1
 10
0.0
 20
0.0
 30
0.0
  0
VERTEX
  5
623E
330
623D
100
AcDbEntity
  8
モデル
100
AcDbVertex
100
AcDb2dVertex
 10
305.0483231097479
 20
151.8692602037963
 30
0.0
  0
VERTEX
  5
623F
330
623D
100
AcDbEntity
  8
モデル
100
AcDbVertex
100
AcDb2dVertex
 10
306.0682090945459
 20
151.0101456551898
 30
0.0
  0
SEQEND
  5
6240
330
623D
100
AcDbEntity
  8
モデル
  0
POLYLINE
  5
6241
330
A
100
AcDbEntity
  8
モデル
100
AcDb2dPolyline
 66
     1
 10
0.0
 20
0.0
 30
0.0
  0
VERTEX
  5
6242
330
6241
100
AcDbEntity
  8
モデル
100
AcDbVertex
100
AcDb2dVertex
 10
300.990282037605
 20
144.9448369473621
 30
0.0
  0
VERTEX
  5
6243
330
6241
100
AcDbEntity
  8
モデル
100
AcDbVertex
100
AcDb2dVertex
 10
306.0682090945459
 20
151.0101456551898
 30
0.0
  0
SEQEND
  5
6244
330
6241
100
AcDbEntity
  8
モデル
  0
POLYLINE
  5
6245
330
A
100
AcDbEntity
  8
モデル
100
AcDb2dPolyline
 66
     1
 10
0.0
 20
0.0
 30
0.0
  0
VERTEX
  5
6246
330
6245
100
AcDbEntity
  8
モデル
100
AcDbVertex
100
AcDb2dVertex
 10
297.6658387785037
 20
125.0796882608706
 30
0.0
  0
VERTEX
  5
6247
330
6245
100
AcDbEntity
  8
モデル
100
AcDbVertex
100
AcDb2dVertex
 10
299.8413788505133
 20
125.0796882608706
 30
0.0
  0
SEQEND
  5
6248
330
6245
100
AcDbEntity
  8
モデル
  0
POLYLINE
  5
6249
330
A
100
AcDbEntity
  8
モデル
100
AcDb2dPolyline
 66
     1
 10
0.0
 20
0.0
 30
0.0
  0
VERTEX
  5
624A
330
6249
100
AcDbEntity
  8
モデル
100
AcDbVertex
100
AcDb2dVertex
 10
297.6658387785037
 20
125.0796882608706
 30
0.0
  0
VERTEX
  5
624B
330
6249
100
AcDbEntity
  8
モデル
100
AcDbVertex
100
AcDb2dVertex
 10
297.6658387785037
 20
157.0784547630709
 30
0.0
  0
SEQEND
  5
624C
330
6249
100
AcDbEntity
  8
モデル
  0
POLYLINE
  5
624D
330
A
100
AcDbEntity
  8
モデル
100
AcDb2dPolyline
 66
     1
 10
0.0
 20
0.0
 30
0.0
  0
VERTEX
  5
624E
330
624D
100
AcDbEntity
  8
モデル
100
AcDbVertex
100
AcDb2dVertex
 10
300.990282037605
 20
127.079454896422
 30
0.0
  0
VERTEX
  5
624F
330
624D
100
AcDbEntity
  8
モデル
100
AcDbVertex
100
AcDb2dVertex
 10
300.990282037605
 20
129.7458104104905
 30
0.0
  0
SEQEND
  5
6250
330
624D
100
AcDbEntity
  8
モデル
  0
POLYLINE
  5
6251
330
A
100
AcDbEntity
  8
モデル
100
AcDb2dPolyline
 66
     1
 10
0.0
 20
0.0
 30
0.0
  0
VERTEX
  5
6252
330
6251
100
AcDbEntity
  8
モデル
100
AcDbVertex
100
AcDb2dVertex
 10
299.8413788505133
 20
125.0796882608706
 30
0.0
  0
VERTEX
  5
6253
330
6251
100
AcDbEntity
  8
モデル
100
AcDbVertex
100
AcDb2dVertex
 10
300.990282037605
 20
127.079454896422
 30
0.0
  0
SEQEND
  5
6254
330
6251
100
AcDbEntity
  8
モデル
  0
POLYLINE
  5
6255
330
A
100
AcDbEntity
  8
モデル
100
AcDb2dPolyline
 66
     1
 10
0.0
 20
0.0
 30
0.0
  0
VERTEX
  5
6256
330
6255
100
AcDbEntity
  8
モデル
100
AcDbVertex
100
AcDb2dVertex
 10
300.990282037605
 20
131.9816085169047
 30
0.0
  0
VERTEX
  5
6257
330
6255
100
AcDbEntity
  8
モデル
100
AcDbVertex
100
AcDb2dVertex
 10
300.990282037605
 20
134.8114858338803
 30
0.0
  0
SEQEND
  5
6258
330
6255
100
AcDbEntity
  8
モデル
  0
POLYLINE
  5
6259
330
A
100
AcDbEntity
  8
モデル
100
AcDb2dPolyline
 66
     1
 10
0.0
 20
0.0
 30
0.0
  0
VERTEX
  5
625A
330
6259
100
AcDbEntity
  8
モデル
100
AcDbVertex
100
AcDb2dVertex
 10
300.990282037605
 20
137.0492842069967
 30
0.0
  0
VERTEX
  5
625B
330
6259
100
AcDbEntity
  8
モデル
100
AcDbVertex
100
AcDb2dVertex
 10
300.990282037605
 20
139.8776613239457
 30
0.0
  0
SEQEND
  5
625C
330
6259
100
AcDbEntity
  8
モデル
  0
POLYLINE
  5
625D
330
A
100
AcDbEntity
  8
モデル
100
AcDb2dPolyline
 66
     1
 10
0.0
 20
0.0
 30
0.0
  0
VERTEX
  5
625E
330
625D
100
AcDbEntity
  8
モデル
100
AcDbVertex
100
AcDb2dVertex
 10
300.990282037605
 20
142.1149596303865
 30
0.0
  0
VERTEX
  5
625F
330
625D
100
AcDbEntity
  8
モデル
100
AcDbVertex
100
AcDb2dVertex
 10
300.990282037605
 20
144.9448369473621
 30
0.0
  0
SEQEND
  5
6260
330
625D
100
AcDbEntity
  8
モデル
  0
POLYLINE
  5
6261
330
A
100
AcDbEntity
  8
モデル
100
AcDb2dPolyline
 66
     1
 10
0.0
 20
0.0
 30
0.0
  0
VERTEX
  5
6262
330
6261
100
AcDbEntity
  8
モデル
100
AcDbVertex
100
AcDb2dVertex
 10
299.6603547139617
 20
146.4125326401211
 30
0.0
  0
VERTEX
  5
6263
330
6261
100
AcDbEntity
  8
モデル
100
AcDbVertex
100
AcDb2dVertex
 10
300.990282037605
 20
147.1806350537763
 30
0.0
  0
SEQEND
  5
6264
330
6261
100
AcDbEntity
  8
モデル
  0
POLYLINE
  5
6265
330
A
100
AcDbEntity
  8
モデル
100
AcDb2dPolyline
 66
     1
 10
0.0
 20
0.0
 30
0.0
  0
VERTEX
  5
6266
330
6265
100
AcDbEntity
  8
モデル
100
AcDbVertex
100
AcDb2dVertex
 10
299.6603547139617
 20
144.9448369473621
 30
0.0
  0
VERTEX
  5
6267
330
6265
100
AcDbEntity
  8
モデル
100
AcDbVertex
100
AcDb2dVertex
 10
299.6603547139617
 20
146.4125326401211
 30
0.0
  0
SEQEND
  5
6268
330
6265
100
AcDbEntity
  8
モデル
  0
POLYLINE
  5
6269
330
A
100
AcDbEntity
  8
モデル
100
AcDb2dPolyline
 66
     1
 10
0.0
 20
0.0
 30
0.0
  0
VERTEX
  5
626A
330
6269
100
AcDbEntity
  8
モデル
100
AcDbVertex
100
AcDb2dVertex
 10
299.6603547139617
 20
144.9448369473621
 30
0.0
  0
VERTEX
  5
626B
330
6269
100
AcDbEntity
  8
モデル
100
AcDbVertex
100
AcDb2dVertex
 10
300.990282037605
 20
144.9448369473621
 30
0.0
  0
SEQEND
  5
626C
330
6269
100
AcDbEntity
  8
モデル
  0
POLYLINE
  5
626D
330
A
100
AcDbEntity
  8
モデル
100
AcDb2dPolyline
 66
     1
 10
0.0
 20
0.0
 30
0.0
  0
VERTEX
  5
626E
330
626D
100
AcDbEntity
  8
モデル
100
AcDbVertex
100
AcDb2dVertex
 10
299.6603547139617
 20
141.3448569500291
 30
0.0
  0
VERTEX
  5
626F
330
626D
100
AcDbEntity
  8
モデル
100
AcDbVertex
100
AcDb2dVertex
 10
300.990282037605
 20
142.1149596303865
 30
0.0
  0
SEQEND
  5
6270
330
626D
100
AcDbEntity
  8
モデル
  0
POLYLINE
  5
6271
330
A
100
AcDbEntity
  8
モデル
100
AcDb2dPolyline
 66
     1
 10
0.0
 20
0.0
 30
0.0
  0
VERTEX
  5
6272
330
6271
100
AcDbEntity
  8
モデル
100
AcDbVertex
100
AcDb2dVertex
 10
299.6603547139617
 20
139.8776613239457
 30
0.0
  0
VERTEX
  5
6273
330
6271
100
AcDbEntity
  8
モデル
100
AcDbVertex
100
AcDb2dVertex
 10
299.6603547139617
 20
141.3448569500291
 30
0.0
  0
SEQEND
  5
6274
330
6271
100
AcDbEntity
  8
モデル
  0
POLYLINE
  5
6275
330
A
100
AcDbEntity
  8
モデル
100
AcDb2dPolyline
 66
     1
 10
0.0
 20
0.0
 30
0.0
  0
VERTEX
  5
6276
330
6275
100
AcDbEntity
  8
モデル
100
AcDbVertex
100
AcDb2dVertex
 10
299.6603547139617
 20
139.8776613239457
 30
0.0
  0
VERTEX
  5
6277
330
6275
100
AcDbEntity
  8
モデル
100
AcDbVertex
100
AcDb2dVertex
 10
300.990282037605
 20
139.8776613239457
 30
0.0
  0
SEQEND
  5
6278
330
6275
100
AcDbEntity
  8
モデル
  0
POLYLINE
  5
6279
330
A
100
AcDbEntity
  8
モデル
100
AcDb2dPolyline
 66
     1
 10
0.0
 20
0.0
 30
0.0
  0
VERTEX
  5
627A
330
6279
100
AcDbEntity
  8
モデル
100
AcDbVertex
100
AcDb2dVertex
 10
299.6603547139617
 20
136.2791815266393
 30
0.0
  0
VERTEX
  5
627B
330
6279
100
AcDbEntity
  8
モデル
100
AcDbVertex
100
AcDb2dVertex
 10
300.990282037605
 20
137.0492842069967
 30
0.0
  0
SEQEND
  5
627C
330
6279
100
AcDbEntity
  8
モデル
  0
POLYLINE
  5
627D
330
A
100
AcDbEntity
  8
モデル
100
AcDb2dPolyline
 66
     1
 10
0.0
 20
0.0
 30
0.0
  0
VERTEX
  5
627E
330
627D
100
AcDbEntity
  8
モデル
100
AcDbVertex
100
AcDb2dVertex
 10
299.6603547139617
 20
134.8114858338803
 30
0.0
  0
VERTEX
  5
627F
330
627D
100
AcDbEntity
  8
モデル
100
AcDbVertex
100
AcDb2dVertex
 10
299.6603547139617
 20
136.2791815266393
 30
0.0
  0
SEQEND
  5
6280
330
627D
100
AcDbEntity
  8
モデル
  0
POLYLINE
  5
6281
330
A
100
AcDbEntity
  8
モデル
100
AcDb2dPolyline
 66
     1
 10
0.0
 20
0.0
 30
0.0
  0
VERTEX
  5
6282
330
6281
100
AcDbEntity
  8
モデル
100
AcDbVertex
100
AcDb2dVertex
 10
299.6603547139617
 20
134.8114858338803
 30
0.0
  0
VERTEX
  5
6283
330
6281
100
AcDbEntity
  8
モデル
100
AcDbVertex
100
AcDb2dVertex
 10
300.990282037605
 20
134.8114858338803
 30
0.0
  0
SEQEND
  5
6284
330
6281
100
AcDbEntity
  8
モデル
  0
POLYLINE
  5
6285
330
A
100
AcDbEntity
  8
モデル
100
AcDb2dPolyline
 66
     1
 10
0.0
 20
0.0
 30
0.0
  0
VERTEX
  5
6286
330
6285
100
AcDbEntity
  8
モデル
100
AcDbVertex
100
AcDb2dVertex
 10
299.6603547139617
 20
131.2135061032496
 30
0.0
  0
VERTEX
  5
6287
330
6285
100
AcDbEntity
  8
モデル
100
AcDbVertex
100
AcDb2dVertex
 10
300.990282037605
 20
131.9816085169047
 30
0.0
  0
SEQEND
  5
6288
330
6285
100
AcDbEntity
  8
モデル
  0
POLYLINE
  5
6289
330
A
100
AcDbEntity
  8
モデル
100
AcDb2dPolyline
 66
     1
 10
0.0
 20
0.0
 30
0.0
  0
VERTEX
  5
628A
330
6289
100
AcDbEntity
  8
モデル
100
AcDbVertex
100
AcDb2dVertex
 10
299.6603547139617
 20
129.7458104104905
 30
0.0
  0
VERTEX
  5
628B
330
6289
100
AcDbEntity
  8
モデル
100
AcDbVertex
100
AcDb2dVertex
 10
299.6603547139617
 20
131.2135061032496
 30
0.0
  0
SEQEND
  5
628C
330
6289
100
AcDbEntity
  8
モデル
  0
POLYLINE
  5
628D
330
A
100
AcDbEntity
  8
モデル
100
AcDb2dPolyline
 66
     1
 10
0.0
 20
0.0
 30
0.0
  0
VERTEX
  5
628E
330
628D
100
AcDbEntity
  8
モデル
100
AcDbVertex
100
AcDb2dVertex
 10
299.6603547139617
 20
129.7458104104905
 30
0.0
  0
VERTEX
  5
628F
330
628D
100
AcDbEntity
  8
モデル
100
AcDbVertex
100
AcDb2dVertex
 10
300.990282037605
 20
129.7458104104905
 30
0.0
  0
SEQEND
  5
6290
330
628D
100
AcDbEntity
  8
モデル
  0
POLYLINE
  5
6291
330
A
100
AcDbEntity
  8
モデル
100
AcDb2dPolyline
 66
     1
 10
0.0
 20
0.0
 30
0.0
  0
VERTEX
  5
6292
330
6291
100
AcDbEntity
  8
モデル
100
AcDbVertex
100
AcDb2dVertex
 10
293.0132184291239
 20
127.079454896422
 30
0.0
  0
VERTEX
  5
6293
330
6291
100
AcDbEntity
  8
モデル
100
AcDbVertex
100
AcDb2dVertex
 10
296.3359114548606
 20
127.079454896422
 30
0.0
  0
SEQEND
  5
6294
330
6291
100
AcDbEntity
  8
モデル
  0
POLYLINE
  5
6295
330
A
100
AcDbEntity
  8
モデル
100
AcDb2dPolyline
 66
     1
 10
0.0
 20
0.0
 30
0.0
  0
VERTEX
  5
6296
330
6295
100
AcDbEntity
  8
モデル
100
AcDbVertex
100
AcDb2dVertex
 10
288.9534271236164
 20
151.8692602037963
 30
0.0
  0
VERTEX
  5
6297
330
6295
100
AcDbEntity
  8
モデル
100
AcDbVertex
100
AcDb2dVertex
 10
294.3413955194025
 20
145.428901489301
 30
0.0
  0
SEQEND
  5
6298
330
6295
100
AcDbEntity
  8
モデル
  0
POLYLINE
  5
6299
330
A
100
AcDbEntity
  8
モデル
100
AcDb2dPolyline
 66
     1
 10
0.0
 20
0.0
 30
0.0
  0
VERTEX
  5
629A
330
6299
100
AcDbEntity
  8
モデル
100
AcDbVertex
100
AcDb2dVertex
 10
294.1621216162154
 20
125.0796882608706
 30
0.0
  0
VERTEX
  5
629B
330
6299
100
AcDbEntity
  8
モデル
100
AcDbVertex
100
AcDb2dVertex
 10
296.3359114548606
 20
125.0796882608706
 30
0.0
  0
SEQEND
  5
629C
330
6299
100
AcDbEntity
  8
モデル
  0
POLYLINE
  5
629D
330
A
100
AcDbEntity
  8
モデル
100
AcDb2dPolyline
 66
     1
 10
0.0
 20
0.0
 30
0.0
  0
VERTEX
  5
629E
330
629D
100
AcDbEntity
  8
モデル
100
AcDbVertex
100
AcDb2dVertex
 10
296.3359114548606
 20
157.0784547630709
 30
0.0
  0
VERTEX
  5
629F
330
629D
100
AcDbEntity
  8
モデル
100
AcDbVertex
100
AcDb2dVertex
 10
297.6658387785037
 20
157.0784547630709
 30
0.0
  0
SEQEND
  5
62A0
330
629D
100
AcDbEntity
  8
モデル
  0
POLYLINE
  5
62A1
330
A
100
AcDbEntity
  8
モデル
100
AcDb2dPolyline
 66
     1
 10
0.0
 20
0.0
 30
0.0
  0
VERTEX
  5
62A2
330
62A1
100
AcDbEntity
  8
モデル
100
AcDbVertex
100
AcDb2dVertex
 10
296.3359114548606
 20
125.0796882608706
 30
0.0
  0
VERTEX
  5
62A3
330
62A1
100
AcDbEntity
  8
モデル
100
AcDbVertex
100
AcDb2dVertex
 10
296.3359114548606
 20
157.0784547630709
 30
0.0
  0
SEQEND
  5
62A4
330
62A1
100
AcDbEntity
  8
モデル
  0
POLYLINE
  5
62A5
330
A
100
AcDbEntity
  8
モデル
100
AcDb2dPolyline
 66
     1
 10
0.0
 20
0.0
 30
0.0
  0
VERTEX
  5
62A6
330
62A5
100
AcDbEntity
  8
モデル
100
AcDbVertex
100
AcDb2dVertex
 10
293.0132184291239
 20
127.079454896422
 30
0.0
  0
VERTEX
  5
62A7
330
62A5
100
AcDbEntity
  8
モデル
100
AcDbVertex
100
AcDb2dVertex
 10
293.0132184291239
 20
129.7458104104905
 30
0.0
  0
SEQEND
  5
62A8
330
62A5
100
AcDbEntity
  8
モデル
  0
POLYLINE
  5
62A9
330
A
100
AcDbEntity
  8
モデル
100
AcDb2dPolyline
 66
     1
 10
0.0
 20
0.0
 30
0.0
  0
VERTEX
  5
62AA
330
62A9
100
AcDbEntity
  8
モデル
100
AcDbVertex
100
AcDb2dVertex
 10
293.0132184291239
 20
127.079454896422
 30
0.0
  0
VERTEX
  5
62AB
330
62A9
100
AcDbEntity
  8
モデル
100
AcDbVertex
100
AcDb2dVertex
 10
294.1621216162154
 20
125.0796882608706
 30
0.0
  0
SEQEND
  5
62AC
330
62A9
100
AcDbEntity
  8
モデル
  0
POLYLINE
  5
62AD
330
A
100
AcDbEntity
  8
モデル
100
AcDb2dPolyline
 66
     1
 10
0.0
 20
0.0
 30
0.0
  0
VERTEX
  5
62AE
330
62AD
100
AcDbEntity
  8
モデル
100
AcDbVertex
100
AcDb2dVertex
 10
293.0132184291239
 20
131.9816085169047
 30
0.0
  0
VERTEX
  5
62AF
330
62AD
100
AcDbEntity
  8
モデル
100
AcDbVertex
100
AcDb2dVertex
 10
293.0132184291239
 20
134.8114858338803
 30
0.0
  0
SEQEND
  5
62B0
330
62AD
100
AcDbEntity
  8
モデル
  0
POLYLINE
  5
62B1
330
A
100
AcDbEntity
  8
モデル
100
AcDb2dPolyline
 66
     1
 10
0.0
 20
0.0
 30
0.0
  0
VERTEX
  5
62B2
330
62B1
100
AcDbEntity
  8
モデル
100
AcDbVertex
100
AcDb2dVertex
 10
293.0132184291239
 20
137.0492842069967
 30
0.0
  0
VERTEX
  5
62B3
330
62B1
100
AcDbEntity
  8
モデル
100
AcDbVertex
100
AcDb2dVertex
 10
293.0132184291239
 20
139.8776613239457
 30
0.0
  0
SEQEND
  5
62B4
330
62B1
100
AcDbEntity
  8
モデル
  0
POLYLINE
  5
62B5
330
A
100
AcDbEntity
  8
モデル
100
AcDb2dPolyline
 66
     1
 10
0.0
 20
0.0
 30
0.0
  0
VERTEX
  5
62B6
330
62B5
100
AcDbEntity
  8
モデル
100
AcDbVertex
100
AcDb2dVertex
 10
293.0132184291239
 20
142.1149596303865
 30
0.0
  0
VERTEX
  5
62B7
330
62B5
100
AcDbEntity
  8
モデル
100
AcDbVertex
100
AcDb2dVertex
 10
293.0132184291239
 20
144.9448369473621
 30
0.0
  0
SEQEND
  5
62B8
330
62B5
100
AcDbEntity
  8
モデル
  0
POLYLINE
  5
62B9
330
A
100
AcDbEntity
  8
モデル
100
AcDb2dPolyline
 66
     1
 10
0.0
 20
0.0
 30
0.0
  0
VERTEX
  5
62BA
330
62B9
100
AcDbEntity
  8
モデル
100
AcDbVertex
100
AcDb2dVertex
 10
293.0132184291239
 20
147.1806350537763
 30
0.0
  0
VERTEX
  5
62BB
330
62B9
100
AcDbEntity
  8
モデル
100
AcDbVertex
100
AcDb2dVertex
 10
294.3413955194025
 20
146.4125326401211
 30
0.0
  0
SEQEND
  5
62BC
330
62B9
100
AcDbEntity
  8
モデル
  0
POLYLINE
  5
62BD
330
A
100
AcDbEntity
  8
モデル
100
AcDb2dPolyline
 66
     1
 10
0.0
 20
0.0
 30
0.0
  0
VERTEX
  5
62BE
330
62BD
100
AcDbEntity
  8
モデル
100
AcDbVertex
100
AcDb2dVertex
 10
294.3413955194025
 20
144.9448369473621
 30
0.0
  0
VERTEX
  5
62BF
330
62BD
100
AcDbEntity
  8
モデル
100
AcDbVertex
100
AcDb2dVertex
 10
294.3413955194025
 20
146.4125326401211
 30
0.0
  0
SEQEND
  5
62C0
330
62BD
100
AcDbEntity
  8
モデル
  0
POLYLINE
  5
62C1
330
A
100
AcDbEntity
  8
モデル
100
AcDb2dPolyline
 66
     1
 10
0.0
 20
0.0
 30
0.0
  0
VERTEX
  5
62C2
330
62C1
100
AcDbEntity
  8
モデル
100
AcDbVertex
100
AcDb2dVertex
 10
293.0132184291239
 20
144.9448369473621
 30
0.0
  0
VERTEX
  5
62C3
330
62C1
100
AcDbEntity
  8
モデル
100
AcDbVertex
100
AcDb2dVertex
 10
294.3413955194025
 20
144.9448369473621
 30
0.0
  0
SEQEND
  5
62C4
330
62C1
100
AcDbEntity
  8
モデル
  0
POLYLINE
  5
62C5
330
A
100
AcDbEntity
  8
モデル
100
AcDb2dPolyline
 66
     1
 10
0.0
 20
0.0
 30
0.0
  0
VERTEX
  5
62C6
330
62C5
100
AcDbEntity
  8
モデル
100
AcDbVertex
100
AcDb2dVertex
 10
293.0132184291239
 20
142.1149596303865
 30
0.0
  0
VERTEX
  5
62C7
330
62C5
100
AcDbEntity
  8
モデル
100
AcDbVertex
100
AcDb2dVertex
 10
294.3413955194025
 20
141.3448569500291
 30
0.0
  0
SEQEND
  5
62C8
330
62C5
100
AcDbEntity
  8
モデル
  0
POLYLINE
  5
62C9
330
A
100
AcDbEntity
  8
モデル
100
AcDb2dPolyline
 66
     1
 10
0.0
 20
0.0
 30
0.0
  0
VERTEX
  5
62CA
330
62C9
100
AcDbEntity
  8
モデル
100
AcDbVertex
100
AcDb2dVertex
 10
294.3413955194025
 20
139.8776613239457
 30
0.0
  0
VERTEX
  5
62CB
330
62C9
100
AcDbEntity
  8
モデル
100
AcDbVertex
100
AcDb2dVertex
 10
294.3413955194025
 20
141.3448569500291
 30
0.0
  0
SEQEND
  5
62CC
330
62C9
100
AcDbEntity
  8
モデル
  0
POLYLINE
  5
62CD
330
A
100
AcDbEntity
  8
モデル
100
AcDb2dPolyline
 66
     1
 10
0.0
 20
0.0
 30
0.0
  0
VERTEX
  5
62CE
330
62CD
100
AcDbEntity
  8
モデル
100
AcDbVertex
100
AcDb2dVertex
 10
293.0132184291239
 20
139.8776613239457
 30
0.0
  0
VERTEX
  5
62CF
330
62CD
100
AcDbEntity
  8
モデル
100
AcDbVertex
100
AcDb2dVertex
 10
294.3413955194025
 20
139.8776613239457
 30
0.0
  0
SEQEND
  5
62D0
330
62CD
100
AcDbEntity
  8
モデル
  0
POLYLINE
  5
62D1
330
A
100
AcDbEntity
  8
モデル
100
AcDb2dPolyline
 66
     1
 10
0.0
 20
0.0
 30
0.0
  0
VERTEX
  5
62D2
330
62D1
100
AcDbEntity
  8
モデル
100
AcDbVertex
100
AcDb2dVertex
 10
293.0132184291239
 20
137.0492842069967
 30
0.0
  0
VERTEX
  5
62D3
330
62D1
100
AcDbEntity
  8
モデル
100
AcDbVertex
100
AcDb2dVertex
 10
294.3413955194025
 20
136.2791815266393
 30
0.0
  0
SEQEND
  5
62D4
330
62D1
100
AcDbEntity
  8
モデル
  0
POLYLINE
  5
62D5
330
A
100
AcDbEntity
  8
モデル
100
AcDb2dPolyline
 66
     1
 10
0.0
 20
0.0
 30
0.0
  0
VERTEX
  5
62D6
330
62D5
100
AcDbEntity
  8
モデル
100
AcDbVertex
100
AcDb2dVertex
 10
294.3413955194025
 20
134.8114858338803
 30
0.0
  0
VERTEX
  5
62D7
330
62D5
100
AcDbEntity
  8
モデル
100
AcDbVertex
100
AcDb2dVertex
 10
294.3413955194025
 20
136.2791815266393
 30
0.0
  0
SEQEND
  5
62D8
330
62D5
100
AcDbEntity
  8
モデル
  0
POLYLINE
  5
62D9
330
A
100
AcDbEntity
  8
モデル
100
AcDb2dPolyline
 66
     1
 10
0.0
 20
0.0
 30
0.0
  0
VERTEX
  5
62DA
330
62D9
100
AcDbEntity
  8
モデル
100
AcDbVertex
100
AcDb2dVertex
 10
293.0132184291239
 20
134.8114858338803
 30
0.0
  0
VERTEX
  5
62DB
330
62D9
100
AcDbEntity
  8
モデル
100
AcDbVertex
100
AcDb2dVertex
 10
294.3413955194025
 20
134.8114858338803
 30
0.0
  0
SEQEND
  5
62DC
330
62D9
100
AcDbEntity
  8
モデル
  0
POLYLINE
  5
62DD
330
A
100
AcDbEntity
  8
モデル
100
AcDb2dPolyline
 66
     1
 10
0.0
 20
0.0
 30
0.0
  0
VERTEX
  5
62DE
330
62DD
100
AcDbEntity
  8
モデル
100
AcDbVertex
100
AcDb2dVertex
 10
293.0132184291239
 20
131.9816085169047
 30
0.0
  0
VERTEX
  5
62DF
330
62DD
100
AcDbEntity
  8
モデル
100
AcDbVertex
100
AcDb2dVertex
 10
294.3413955194025
 20
131.2135061032496
 30
0.0
  0
SEQEND
  5
62E0
330
62DD
100
AcDbEntity
  8
モデル
  0
POLYLINE
  5
62E1
330
A
100
AcDbEntity
  8
モデル
100
AcDb2dPolyline
 66
     1
 10
0.0
 20
0.0
 30
0.0
  0
VERTEX
  5
62E2
330
62E1
100
AcDbEntity
  8
モデル
100
AcDbVertex
100
AcDb2dVertex
 10
294.3413955194025
 20
129.7458104104905
 30
0.0
  0
VERTEX
  5
62E3
330
62E1
100
AcDbEntity
  8
モデル
100
AcDbVertex
100
AcDb2dVertex
 10
294.3413955194025
 20
131.2135061032496
 30
0.0
  0
SEQEND
  5
62E4
330
62E1
100
AcDbEntity
  8
モデル
  0
POLYLINE
  5
62E5
330
A
100
AcDbEntity
  8
モデル
100
AcDb2dPolyline
 66
     1
 10
0.0
 20
0.0
 30
0.0
  0
VERTEX
  5
62E6
330
62E5
100
AcDbEntity
  8
モデル
100
AcDbVertex
100
AcDb2dVertex
 10
293.0132184291239
 20
129.7458104104905
 30
0.0
  0
VERTEX
  5
62E7
330
62E5
100
AcDbEntity
  8
モデル
100
AcDbVertex
100
AcDb2dVertex
 10
294.3413955194025
 20
129.7458104104905
 30
0.0
  0
SEQEND
  5
62E8
330
62E5
100
AcDbEntity
  8
モデル
  0
POLYLINE
  5
62E9
330
A
100
AcDbEntity
  8
モデル
100
AcDb2dPolyline
 66
     1
 10
0.0
 20
0.0
 30
0.0
  0
VERTEX
  5
62EA
330
62E9
100
AcDbEntity
  8
モデル
100
AcDbVertex
100
AcDb2dVertex
 10
287.9337911721562
 20
151.0101456551898
 30
0.0
  0
VERTEX
  5
62EB
330
62E9
100
AcDbEntity
  8
モデル
100
AcDbVertex
100
AcDb2dVertex
 10
288.9534271236164
 20
151.8692602037963
 30
0.0
  0
SEQEND
  5
62EC
330
62E9
100
AcDbEntity
  8
モデル
  0
POLYLINE
  5
62ED
330
A
100
AcDbEntity
  8
モデル
100
AcDb2dPolyline
 66
     1
 10
0.0
 20
0.0
 30
0.0
  0
VERTEX
  5
62EE
330
62ED
100
AcDbEntity
  8
モデル
100
AcDbVertex
100
AcDb2dVertex
 10
291.940075343379
 20
165.0775213052765
 30
0.0
  0
VERTEX
  5
62EF
330
62ED
100
AcDbEntity
  8
モデル
100
AcDbVertex
100
AcDb2dVertex
 10
293.0132184291239
 20
161.0759877674714
 30
0.0
  0
SEQEND
  5
62F0
330
62ED
100
AcDbEntity
  8
モデル
  0
POLYLINE
  5
62F1
330
A
100
AcDbEntity
  8
モデル
100
AcDb2dPolyline
 66
     1
 10
0.0
 20
0.0
 30
0.0
  0
VERTEX
  5
62F2
330
62F1
100
AcDbEntity
  8
モデル
100
AcDbVertex
100
AcDb2dVertex
 10
293.0132184291239
 20
147.1806350537763
 30
0.0
  0
VERTEX
  5
62F3
330
62F1
100
AcDbEntity
  8
モデル
100
AcDbVertex
100
AcDb2dVertex
 10
293.0132184291239
 20
165.0775213052765
 30
0.0
  0
SEQEND
  5
62F4
330
62F1
100
AcDbEntity
  8
モデル
  0
POLYLINE
  5
62F5
330
A
100
AcDbEntity
  8
モデル
100
AcDb2dPolyline
 66
     1
 10
0.0
 20
0.0
 30
0.0
  0
VERTEX
  5
62F6
330
62F5
100
AcDbEntity
  8
モデル
100
AcDbVertex
100
AcDb2dVertex
 10
296.6529537271635
 20
165.0775213052765
 30
0.0
  0
VERTEX
  5
62F7
330
62F5
100
AcDbEntity
  8
モデル
100
AcDbVertex
100
AcDb2dVertex
 10
297.001000133351
 20
161.0759877674714
 30
0.0
  0
SEQEND
  5
62F8
330
62F5
100
AcDbEntity
  8
モデル
  0
POLYLINE
  5
62F9
330
A
100
AcDbEntity
  8
モデル
100
AcDb2dPolyline
 66
     1
 10
0.0
 20
0.0
 30
0.0
  0
VERTEX
  5
62FA
330
62F9
100
AcDbEntity
  8
モデル
100
AcDbVertex
100
AcDb2dVertex
 10
297.001000133351
 20
161.0759877674714
 30
0.0
  0
VERTEX
  5
62FB
330
62F9
100
AcDbEntity
  8
モデル
100
AcDbVertex
100
AcDb2dVertex
 10
297.3487965062008
 20
165.0775213052765
 30
0.0
  0
SEQEND
  5
62FC
330
62F9
100
AcDbEntity
  8
モデル
  0
POLYLINE
  5
62FD
330
A
100
AcDbEntity
  8
モデル
100
AcDb2dPolyline
 66
     1
 10
0.0
 20
0.0
 30
0.0
  0
VERTEX
  5
62FE
330
62FD
100
AcDbEntity
  8
モデル
100
AcDbVertex
100
AcDb2dVertex
 10
300.990282037605
 20
161.0759877674714
 30
0.0
  0
VERTEX
  5
62FF
330
62FD
100
AcDbEntity
  8
モデル
100
AcDbVertex
100
AcDb2dVertex
 10
302.0581744232563
 20
165.0775213052765
 30
0.0
  0
SEQEND
  5
6300
330
62FD
100
AcDbEntity
  8
モデル
  0
POLYLINE
  5
6301
330
A
100
AcDbEntity
  8
モデル
100
AcDb2dPolyline
 66
     1
 10
0.0
 20
0.0
 30
0.0
  0
VERTEX
  5
6302
330
6301
100
AcDbEntity
  8
モデル
100
AcDbVertex
100
AcDb2dVertex
 10
300.990282037605
 20
147.1806350537763
 30
0.0
  0
VERTEX
  5
6303
330
6301
100
AcDbEntity
  8
モデル
100
AcDbVertex
100
AcDb2dVertex
 10
300.990282037605
 20
165.0775213052765
 30
0.0
  0
SEQEND
  5
6304
330
6301
100
AcDbEntity
  8
モデル
  0
LINE
  5
6333
330
A
100
AcDbEntity
  8
モデル
100
AcDbLine
 10
274.4999999999999
 20
248.5669032228654
 30
0.0
 11
319.4999999999999
 21
248.5669032228654
 31
0.0
  0
LINE
  5
6334
330
A
100
AcDbEntity
  8
モデル
100
AcDbLine
 10
319.4999999999999
 20
248.5669032228654
 30
0.0
 11
319.4999999999999
 21
236.7109474287596
 31
0.0
  0
LINE
  5
6335
330
A
100
AcDbEntity
  8
モデル
100
AcDbLine
 10
319.4999999999999
 20
236.7109474287596
 30
0.0
 11
274.4999999999999
 21
236.7109474287596
 31
0.0
  0
LINE
  5
6336
330
A
100
AcDbEntity
  8
モデル
100
AcDbLine
 10
274.4999999999999
 20
236.7109474287596
 30
0.0
 11
274.4999999999999
 21
248.5669032228654
 31
0.0
  0
LINE
  5
6337
330
A
100
AcDbEntity
  8
モデル
100
AcDbLine
 10
274.4999999999999
 20
248.5669032228654
 30
0.0
 11
319.4999999999999
 21
248.5669032228654
 31
0.0
  0
LINE
  5
6338
330
A
100
AcDbEntity
  8
モデル
100
AcDbLine
 10
319.4999999999999
 20
248.5669032228654
 30
0.0
 11
319.4999999999999
 21
236.7109474287596
 31
0.0
  0
LINE
  5
6339
330
A
100
AcDbEntity
  8
モデル
100
AcDbLine
 10
319.4999999999999
 20
236.7109474287596
 30
0.0
 11
274.4999999999999
 21
236.7109474287596
 31
0.0
  0
LINE
  5
633A
330
A
100
AcDbEntity
  8
モデル
100
AcDbLine
 10
274.4999999999999
 20
236.7109474287596
 30
0.0
 11
274.4999999999999
 21
248.5669032228654
 31
0.0
  0
LINE
  5
633B
330
A
100
AcDbEntity
  8
モデル
100
AcDbLine
 10
284.8503800506734
 20
255.499952629453
 30
0.0
 11
309.1496199493265
 21
255.499952629453
 31
0.0
  0
LINE
  5
633C
330
A
100
AcDbEntity
  8
モデル
100
AcDbLine
 10
309.1496199493265
 20
255.499952629453
 30
0.0
 11
309.1496199493265
 21
248.5669032228654
 31
0.0
  0
LINE
  5
633D
330
A
100
AcDbEntity
  8
モデル
100
AcDbLine
 10
309.1496199493265
 20
248.5669032228654
 30
0.0
 11
284.8503800506734
 21
248.5669032228654
 31
0.0
  0
LINE
  5
633E
330
A
100
AcDbEntity
  8
モデル
100
AcDbLine
 10
284.8503800506734
 20
248.5669032228654
 30
0.0
 11
284.8503800506734
 21
255.499952629453
 31
0.0
  0
LINE
  5
633F
330
A
100
AcDbEntity
  8
モデル
100
AcDbLine
 10
284.8503800506734
 20
255.499952629453
 30
0.0
 11
309.1496199493265
 21
255.499952629453
 31
0.0
  0
LINE
  5
6340
330
A
100
AcDbEntity
  8
モデル
100
AcDbLine
 10
309.1496199493265
 20
255.499952629453
 30
0.0
 11
309.1496199493265
 21
248.5669032228654
 31
0.0
  0
LINE
  5
6341
330
A
100
AcDbEntity
  8
モデル
100
AcDbLine
 10
309.1496199493265
 20
248.5669032228654
 30
0.0
 11
284.8503800506734
 21
248.5669032228654
 31
0.0
  0
LINE
  5
6342
102
{ACAD_REACTORS
330
640E
102
}
330
A
100
AcDbEntity
  8
モデル
100
AcDbLine
 10
284.8503800506734
 20
248.5669032228654
 30
0.0
 11
284.8503800506734
 21
255.499952629453
 31
0.0
  0
LINE
  5
6343
330
A
100
AcDbEntity
  8
モデル
100
AcDbLine
 10
282.0375050006667
 20
236.7109474287596
 30
0.0
 11
311.9624949993332
 21
236.7109474287596
 31
0.0
  0
LINE
  5
6344
330
A
100
AcDbEntity
  8
モデル
100
AcDbLine
 10
311.9624949993332
 20
236.7109474287596
 30
0.0
 11
311.9624949993332
 21
221.4996692583369
 31
0.0
  0
LINE
  5
6345
330
A
100
AcDbEntity
  8
モデル
100
AcDbLine
 10
311.9624949993332
 20
221.4996692583369
 30
0.0
 11
282.0375050006667
 21
221.4996692583369
 31
0.0
  0
LINE
  5
6346
330
A
100
AcDbEntity
  8
モデル
100
AcDbLine
 10
282.0375050006667
 20
221.4996692583369
 30
0.0
 11
282.0375050006667
 21
236.7109474287596
 31
0.0
  0
LINE
  5
6347
330
A
100
AcDbEntity
  8
モデル
100
AcDbLine
 10
294.2706360848113
 20
221.3015178381475
 30
0.0
 11
294.2706360848113
 21
218.3129943683516
 31
0.0
  0
LINE
  5
6348
330
A
100
AcDbEntity
  8
モデル
100
AcDbLine
 10
282.0375050006667
 20
236.7109474287596
 30
0.0
 11
311.9624949993332
 21
236.7109474287596
 31
0.0
  0
LINE
  5
6349
330
A
100
AcDbEntity
  8
モデル
100
AcDbLine
 10
311.9624949993332
 20
236.7109474287596
 30
0.0
 11
311.9624949993332
 21
221.4996692583369
 31
0.0
  0
LINE
  5
634A
102
{ACAD_REACTORS
330
640E
102
}
330
A
100
AcDbEntity
  8
モデル
100
AcDbLine
 10
311.9624949993332
 20
221.4996692583369
 30
0.0
 11
282.0375050006667
 21
221.4996692583369
 31
0.0
  0
LINE
  5
634B
330
A
100
AcDbEntity
  8
モデル
100
AcDbLine
 10
282.0375050006667
 20
221.4996692583369
 30
0.0
 11
282.0375050006667
 21
236.7109474287596
 31
0.0
  0
LINE
  5
634C
330
A
100
AcDbEntity
  8
モデル
100
AcDbLine
 10
299.0455227363648
 20
199.1780680448418
 30
0.0
 11
299.0455227363648
 21
200.5917565366407
 31
0.0
  0
LINE
  5
634D
330
A
100
AcDbEntity
  8
モデル
100
AcDbLine
 10
294.2706360848113
 20
197.0847889409612
 30
0.0
 11
295.0217362314975
 21
196.2651796597237
 31
0.0
  0
LINE
  5
634E
330
A
100
AcDbEntity
  8
モデル
100
AcDbLine
 10
295.0217362314975
 20
197.7138728188116
 30
0.0
 11
294.405154020536
 21
197.1968038762859
 31
0.0
  0
LINE
  5
634F
330
A
100
AcDbEntity
  8
モデル
100
AcDbLine
 10
299.7173623149753
 20
198.2939501624575
 30
0.0
 11
294.2706360848113
 21
197.0847889409612
 31
0.0
  0
LINE
  5
6350
330
A
100
AcDbEntity
  8
モデル
100
AcDbLine
 10
294.405154020536
 20
197.1968038762859
 30
0.0
 11
294.2706360848113
 21
197.0847889409612
 31
0.0
  0
LINE
  5
6351
330
A
100
AcDbEntity
  8
モデル
100
AcDbLine
 10
299.0455227363648
 20
197.7308750857806
 30
0.0
 11
295.0217362314975
 21
196.2651796597237
 31
0.0
  0
LINE
  5
6352
330
A
100
AcDbEntity
  8
モデル
100
AcDbLine
 10
299.7173623149753
 20
198.2939501624575
 30
0.0
 11
299.0455227363648
 21
199.1780680448418
 31
0.0
  0
LINE
  5
6353
330
A
100
AcDbEntity
  8
モデル
100
AcDbLine
 10
299.0455227363648
 20
197.7308750857806
 30
0.0
 11
299.7173623149753
 21
198.2939501624575
 31
0.0
  0
LINE
  5
6354
330
A
100
AcDbEntity
  8
モデル
100
AcDbLine
 10
295.0217362314975
 20
197.7138728188116
 30
0.0
 11
299.0455227363648
 21
199.1780680448418
 31
0.0
  0
LINE
  5
6355
330
A
100
AcDbEntity
  8
モデル
100
AcDbLine
 10
295.0217362314975
 20
197.7138728188116
 30
0.0
 11
295.0217362314975
 21
199.1260611105839
 31
0.0
  0
LINE
  5
6356
330
A
100
AcDbEntity
  8
モデル
100
AcDbLine
 10
299.0455227363648
 20
193.4988108105438
 30
0.0
 11
299.0455227363648
 21
194.9094989022894
 31
0.0
  0
LINE
  5
6357
330
A
100
AcDbEntity
  8
モデル
100
AcDbLine
 10
299.0455227363648
 20
190.6394295597104
 30
0.0
 11
299.0455227363648
 21
192.0486174514293
 31
0.0
  0
LINE
  5
6358
330
A
100
AcDbEntity
  8
モデル
100
AcDbLine
 10
295.0217362314975
 20
192.033115384487
 30
0.0
 11
295.0217362314975
 21
193.4438034762326
 31
0.0
  0
LINE
  5
6359
330
A
100
AcDbEntity
  8
モデル
100
AcDbLine
 10
295.0217362314975
 20
189.1737341336536
 30
0.0
 11
295.0217362314975
 21
190.582421958697
 31
0.0
  0
LINE
  5
635A
330
A
100
AcDbEntity
  8
モデル
100
AcDbLine
 10
299.0455227363648
 20
194.9094989022894
 30
0.0
 11
295.0217362314975
 21
193.4438034762326
 31
0.0
  0
LINE
  5
635B
330
A
100
AcDbEntity
  8
モデル
100
AcDbLine
 10
294.2706360848113
 20
194.2619125574435
 30
0.0
 11
295.0217362314975
 21
193.4438034762326
 31
0.0
  0
LINE
  5
635C
330
A
100
AcDbEntity
  8
モデル
100
AcDbLine
 10
295.0217362314975
 20
194.8939968353471
 30
0.0
 11
294.2706360848113
 21
194.2619125574435
 31
0.0
  0
LINE
  5
635D
330
A
100
AcDbEntity
  8
モデル
100
AcDbLine
 10
299.7173623149753
 20
192.6116925281062
 30
0.0
 11
299.0455227363648
 21
193.4988108105438
 31
0.0
  0
LINE
  5
635E
330
A
100
AcDbEntity
  8
モデル
100
AcDbLine
 10
299.0455227363648
 20
192.0486174514293
 30
0.0
 11
299.7173623149753
 21
192.6116925281062
 31
0.0
  0
LINE
  5
635F
330
A
100
AcDbEntity
  8
モデル
100
AcDbLine
 10
299.7173623149753
 20
192.6116925281062
 30
0.0
 11
294.2706360848113
 21
191.4005310399078
 31
0.0
  0
LINE
  5
6360
330
A
100
AcDbEntity
  8
モデル
100
AcDbLine
 10
294.2706360848113
 20
191.4005310399078
 30
0.0
 11
295.0217362314975
 21
190.582421958697
 31
0.0
  0
LINE
  5
6361
330
A
100
AcDbEntity
  8
モデル
100
AcDbLine
 10
295.0217362314975
 20
192.033115384487
 30
0.0
 11
294.2706360848113
 21
191.4005310399078
 31
0.0
  0
LINE
  5
6362
330
A
100
AcDbEntity
  8
モデル
100
AcDbLine
 10
295.0217362314975
 20
192.033115384487
 30
0.0
 11
299.0455227363648
 21
193.4988108105438
 31
0.0
  0
LINE
  5
6363
330
A
100
AcDbEntity
  8
モデル
100
AcDbLine
 10
299.0455227363648
 20
192.0486174514293
 30
0.0
 11
295.0217362314975
 21
190.582421958697
 31
0.0
  0
LINE
  5
6364
330
A
100
AcDbEntity
  8
モデル
100
AcDbLine
 10
299.5313375116681
 20
178.0012444683649
 30
0.0
 11
299.0455227363648
 21
179.1023912879408
 31
0.0
  0
LINE
  5
6365
330
A
100
AcDbEntity
  8
モデル
100
AcDbLine
 10
298.587211628217
 20
177.4261677914747
 30
0.0
 11
299.5313375116681
 21
178.0012444683649
 31
0.0
  0
LINE
  5
6366
330
A
100
AcDbEntity
  8
モデル
100
AcDbLine
 10
298.7009767969062
 20
174.9078320133709
 30
0.0
 11
298.139401920256
 21
175.7569452284662
 31
0.0
  0
LINE
  5
6367
330
A
100
AcDbEntity
  8
モデル
100
AcDbLine
 10
297.6915922122949
 20
174.0877226654578
 30
0.0
 11
298.7009767969062
 21
174.9078320133709
 31
0.0
  0
LINE
  5
6368
330
A
100
AcDbEntity
  8
モデル
100
AcDbLine
 10
298.7009767969062
 20
174.9078320133709
 30
0.0
 11
295.555807440992
 21
174.2087388009426
 31
0.0
  0
LINE
  5
6369
330
A
100
AcDbEntity
  8
モデル
100
AcDbLine
 10
299.5313375116681
 20
178.0012444683649
 30
0.0
 11
294.8184591278837
 21
176.9561051164513
 31
0.0
  0
LINE
  5
636A
330
A
100
AcDbEntity
  8
モデル
100
AcDbLine
 10
295.555807440992
 20
174.2087388009426
 30
0.0
 11
296.4926823576476
 21
173.6506643910213
 31
0.0
  0
LINE
  5
636B
330
A
100
AcDbEntity
  8
モデル
100
AcDbLine
 10
296.1276336844911
 20
175.0248476154512
 30
0.0
 11
295.555807440992
 21
174.2087388009426
 31
0.0
  0
LINE
  5
636C
330
A
100
AcDbEntity
  8
モデル
100
AcDbLine
 10
294.8184591278837
 20
176.9561051164513
 30
0.0
 11
295.7588345112681
 21
176.3960304398278
 31
0.0
  0
LINE
  5
636D
330
A
100
AcDbEntity
  8
モデル
100
AcDbLine
 10
295.3902853713828
 20
177.7707137309332
 30
0.0
 11
294.8184591278837
 21
176.9561051164513
 31
0.0
  0
LINE
  5
636E
330
A
100
AcDbEntity
  8
モデル
100
AcDbLine
 10
298.139401920256
 20
175.7569452284662
 30
0.0
 11
298.587211628217
 21
177.4261677914747
 31
0.0
  0
LINE
  5
636F
330
A
100
AcDbEntity
  8
モデル
100
AcDbLine
 10
296.1276336844911
 20
175.0248476154512
 30
0.0
 11
295.7588345112681
 21
176.3960304398278
 31
0.0
  0
LINE
  5
6370
330
A
100
AcDbEntity
  8
モデル
100
AcDbLine
 10
299.0455227363648
 20
186.3278546830602
 30
0.0
 11
295.0217362314975
 21
184.8636594570301
 31
0.0
  0
LINE
  5
6371
330
A
100
AcDbEntity
  8
モデル
100
AcDbLine
 10
299.7173623149753
 20
181.1706670580435
 30
0.0
 11
294.2706360848113
 21
179.9635061032495
 31
0.0
  0
LINE
  5
6372
330
A
100
AcDbEntity
  8
モデル
100
AcDbLine
 10
295.0217362314975
 20
180.5920899144244
 30
0.0
 11
299.0455227363648
 21
182.0577853404812
 31
0.0
  0
LINE
  5
6373
330
A
100
AcDbEntity
  8
モデル
100
AcDbLine
 10
299.0455227363648
 20
180.6090921813933
 30
0.0
 11
295.0217362314975
 21
179.1453970220387
 31
0.0
  0
LINE
  5
6374
330
A
100
AcDbEntity
  8
モデル
100
AcDbLine
 10
295.0217362314975
 20
183.4514711652578
 30
0.0
 11
299.0455227363648
 21
184.9171665913146
 31
0.0
  0
LINE
  5
6375
330
A
100
AcDbEntity
  8
モデル
100
AcDbLine
 10
299.7173623149753
 20
184.0320485755792
 30
0.0
 11
294.2706360848113
 21
182.822887354083
 31
0.0
  0
LINE
  5
6376
330
A
100
AcDbEntity
  8
モデル
100
AcDbLine
 10
299.0455227363648
 20
183.4684734322267
 30
0.0
 11
295.0217362314975
 21
182.0047782728722
 31
0.0
  0
LINE
  5
6377
330
A
100
AcDbEntity
  8
モデル
100
AcDbLine
 10
299.7173623149753
 20
186.8929300264393
 30
0.0
 11
294.2706360848113
 21
185.6837688049431
 31
0.0
  0
LINE
  5
6378
330
A
100
AcDbEntity
  8
モデル
100
AcDbLine
 10
295.0217362314975
 20
186.3143528828201
 30
0.0
 11
299.0455227363648
 21
187.7785481088503
 31
0.0
  0
LINE
  5
6379
330
A
100
AcDbEntity
  8
モデル
100
AcDbLine
 10
299.7173623149753
 20
189.7523112772727
 30
0.0
 11
294.2706360848113
 21
188.5431500557766
 31
0.0
  0
LINE
  5
637A
330
A
100
AcDbEntity
  8
モデル
100
AcDbLine
 10
295.0217362314975
 20
189.1737341336536
 30
0.0
 11
299.0455227363648
 21
190.6394295597104
 31
0.0
  0
LINE
  5
637B
330
A
100
AcDbEntity
  8
モデル
100
AcDbLine
 10
299.0455227363648
 20
189.1872359338936
 30
0.0
 11
295.0217362314975
 21
187.7230407078635
 31
0.0
  0
LINE
  5
637C
330
A
100
AcDbEntity
  8
モデル
100
AcDbLine
 10
299.0455227363648
 20
180.6090921813933
 30
0.0
 11
299.0455227363648
 21
179.1023912879408
 31
0.0
  0
LINE
  5
637D
330
A
100
AcDbEntity
  8
モデル
100
AcDbLine
 10
299.0455227363648
 20
187.7785481088503
 30
0.0
 11
299.0455227363648
 21
189.1872359338936
 31
0.0
  0
LINE
  5
637E
330
A
100
AcDbEntity
  8
モデル
100
AcDbLine
 10
295.0217362314975
 20
186.3143528828201
 30
0.0
 11
295.0217362314975
 21
187.7230407078635
 31
0.0
  0
LINE
  5
637F
330
A
100
AcDbEntity
  8
モデル
100
AcDbLine
 10
299.0455227363648
 20
184.9171665913146
 30
0.0
 11
299.0455227363648
 21
186.3278546830602
 31
0.0
  0
LINE
  5
6380
330
A
100
AcDbEntity
  8
モデル
100
AcDbLine
 10
299.0455227363648
 20
182.0577853404812
 30
0.0
 11
299.0455227363648
 21
183.4684734322267
 31
0.0
  0
LINE
  5
6381
330
A
100
AcDbEntity
  8
モデル
100
AcDbLine
 10
295.0217362314975
 20
183.4514711652578
 30
0.0
 11
295.0217362314975
 21
184.8636594570301
 31
0.0
  0
LINE
  5
6382
330
A
100
AcDbEntity
  8
モデル
100
AcDbLine
 10
295.0217362314975
 20
180.5920899144244
 30
0.0
 11
295.0217362314975
 21
182.0047782728722
 31
0.0
  0
LINE
  5
6383
330
A
100
AcDbEntity
  8
モデル
100
AcDbLine
 10
299.7173623149753
 20
181.1706670580435
 30
0.0
 11
299.0455227363648
 21
182.0577853404812
 31
0.0
  0
LINE
  5
6384
330
A
100
AcDbEntity
  8
モデル
100
AcDbLine
 10
299.0455227363648
 20
180.6090921813933
 30
0.0
 11
299.7173623149753
 21
181.1706670580435
 31
0.0
  0
LINE
  5
6385
330
A
100
AcDbEntity
  8
モデル
100
AcDbLine
 10
295.0217362314975
 20
180.5920899144244
 30
0.0
 11
294.2706360848113
 21
179.9635061032495
 31
0.0
  0
LINE
  5
6386
330
A
100
AcDbEntity
  8
モデル
100
AcDbLine
 10
294.2706360848113
 20
179.9635061032495
 30
0.0
 11
295.0217362314975
 21
179.1453970220387
 31
0.0
  0
LINE
  5
6387
330
A
100
AcDbEntity
  8
モデル
100
AcDbLine
 10
299.7173623149753
 20
184.0320485755792
 30
0.0
 11
299.0455227363648
 21
184.9171665913146
 31
0.0
  0
LINE
  5
6388
330
A
100
AcDbEntity
  8
モデル
100
AcDbLine
 10
294.2706360848113
 20
182.822887354083
 30
0.0
 11
295.0217362314975
 21
182.0047782728722
 31
0.0
  0
LINE
  5
6389
330
A
100
AcDbEntity
  8
モデル
100
AcDbLine
 10
295.0217362314975
 20
183.4514711652578
 30
0.0
 11
294.2706360848113
 21
182.822887354083
 31
0.0
  0
LINE
  5
638A
330
A
100
AcDbEntity
  8
モデル
100
AcDbLine
 10
299.0455227363648
 20
183.4684734322267
 30
0.0
 11
299.7173623149753
 21
184.0320485755792
 31
0.0
  0
LINE
  5
638B
330
A
100
AcDbEntity
  8
モデル
100
AcDbLine
 10
294.2706360848113
 20
185.6837688049431
 30
0.0
 11
295.0217362314975
 21
184.8636594570301
 31
0.0
  0
LINE
  5
638C
330
A
100
AcDbEntity
  8
モデル
100
AcDbLine
 10
295.0217362314975
 20
186.3143528828201
 30
0.0
 11
294.2706360848113
 21
185.6837688049431
 31
0.0
  0
LINE
  5
638D
330
A
100
AcDbEntity
  8
モデル
100
AcDbLine
 10
299.7173623149753
 20
186.8929300264393
 30
0.0
 11
299.0455227363648
 21
187.7785481088503
 31
0.0
  0
LINE
  5
638E
330
A
100
AcDbEntity
  8
モデル
100
AcDbLine
 10
299.0455227363648
 20
186.3278546830602
 30
0.0
 11
299.7173623149753
 21
186.8929300264393
 31
0.0
  0
LINE
  5
638F
330
A
100
AcDbEntity
  8
モデル
100
AcDbLine
 10
294.2706360848113
 20
188.5431500557766
 30
0.0
 11
295.0217362314975
 21
187.7230407078635
 31
0.0
  0
LINE
  5
6390
330
A
100
AcDbEntity
  8
モデル
100
AcDbLine
 10
295.0217362314975
 20
189.1737341336536
 30
0.0
 11
294.2706360848113
 21
188.5431500557766
 31
0.0
  0
LINE
  5
6391
330
A
100
AcDbEntity
  8
モデル
100
AcDbLine
 10
299.7173623149753
 20
189.7523112772727
 30
0.0
 11
299.0455227363648
 21
190.6394295597104
 31
0.0
  0
LINE
  5
6392
330
A
100
AcDbEntity
  8
モデル
100
AcDbLine
 10
299.0455227363648
 20
189.1872359338936
 30
0.0
 11
299.7173623149753
 21
189.7523112772727
 31
0.0
  0
LINE
  5
6393
330
A
100
AcDbEntity
  8
モデル
100
AcDbLine
 10
295.3902853713828
 20
177.7707137309332
 30
0.0
 11
299.0455227363648
 21
179.1023912879408
 31
0.0
  0
LINE
  5
6394
330
A
100
AcDbEntity
  8
モデル
100
AcDbLine
 10
295.3902853713828
 20
177.7707137309332
 30
0.0
 11
295.0217362314975
 21
179.1453970220387
 31
0.0
  0
LINE
  5
6395
330
A
100
AcDbEntity
  8
モデル
100
AcDbLine
 10
295.7588345112681
 20
176.3960304398278
 30
0.0
 11
298.587211628217
 21
177.4261677914747
 31
0.0
  0
LINE
  5
6396
330
A
100
AcDbEntity
  8
モデル
100
AcDbLine
 10
296.1276336844911
 20
175.0248476154512
 30
0.0
 11
298.139401920256
 21
175.7569452284662
 31
0.0
  0
LINE
  5
6397
330
A
100
AcDbEntity
  8
モデル
100
AcDbLine
 10
296.4926823576476
 20
173.6506643910213
 30
0.0
 11
297.6915922122949
 21
174.0877226654578
 31
0.0
  0
LINE
  5
6398
330
A
100
AcDbEntity
  8
モデル
100
AcDbLine
 10
296.4926823576476
 20
173.6506643910213
 30
0.0
 11
297.0335044672622
 21
171.3268545497091
 31
0.0
  0
LINE
  5
6399
330
A
100
AcDbEntity
  8
モデル
100
AcDbLine
 10
297.0335044672622
 20
171.3268545497091
 30
0.0
 11
297.6915922122949
 21
174.0877226654578
 31
0.0
  0
LINE
  5
639A
330
A
100
AcDbEntity
  8
モデル
100
AcDbLine
 10
299.7173623149753
 20
195.4725739789663
 30
0.0
 11
294.2706360848113
 21
194.2619125574435
 31
0.0
  0
LINE
  5
639B
330
A
100
AcDbEntity
  8
モデル
100
AcDbLine
 10
295.0217362314975
 20
194.8939968353471
 30
0.0
 11
299.0455227363648
 21
196.3581920613773
 31
0.0
  0
LINE
  5
639C
330
A
100
AcDbEntity
  8
モデル
100
AcDbLine
 10
295.0217362314975
 20
194.8939968353471
 30
0.0
 11
295.0217362314975
 21
196.3046849270927
 31
0.0
  0
LINE
  5
639D
330
A
100
AcDbEntity
  8
モデル
100
AcDbLine
 10
294.2706360848113
 20
199.9441701917947
 30
0.0
 11
295.0217362314975
 21
199.1260611105839
 31
0.0
  0
LINE
  5
639E
330
A
100
AcDbEntity
  8
モデル
100
AcDbLine
 10
295.0217362314975
 20
200.573254069645
 30
0.0
 11
294.405154020536
 21
200.0581853938216
 31
0.0
  0
LINE
  5
639F
330
A
100
AcDbEntity
  8
モデル
100
AcDbLine
 10
299.7173623149753
 20
201.1533314132909
 30
0.0
 11
294.2706360848113
 21
199.9441701917947
 31
0.0
  0
LINE
  5
63A0
330
A
100
AcDbEntity
  8
モデル
100
AcDbLine
 10
294.405154020536
 20
200.0581853938216
 30
0.0
 11
294.2706360848113
 21
199.9441701917947
 31
0.0
  0
LINE
  5
63A1
330
A
100
AcDbEntity
  8
モデル
100
AcDbLine
 10
299.0455227363648
 20
200.5917565366407
 30
0.0
 11
295.0217362314975
 21
199.1260611105839
 31
0.0
  0
LINE
  5
63A2
330
A
100
AcDbEntity
  8
モデル
100
AcDbLine
 10
299.0455227363648
 20
196.3581920613773
 30
0.0
 11
299.0455227363648
 21
197.2368092103305
 31
0.0
  0
LINE
  5
63A3
330
A
100
AcDbEntity
  8
モデル
100
AcDbLine
 10
299.7173623149753
 20
195.4725739789663
 30
0.0
 11
299.0455227363648
 21
196.3581920613773
 31
0.0
  0
LINE
  5
63A4
330
A
100
AcDbEntity
  8
モデル
100
AcDbLine
 10
299.0455227363648
 20
194.9094989022894
 30
0.0
 11
299.7173623149753
 21
195.4725739789663
 31
0.0
  0
LINE
  5
63A5
330
A
100
AcDbEntity
  8
モデル
100
AcDbLine
 10
299.0455227363648
 20
197.2368092103305
 30
0.0
 11
299.0455227363648
 21
197.7688801531228
 31
0.0
  0
LINE
  5
63A6
330
A
100
AcDbEntity
  8
モデル
100
AcDbLine
 10
299.7173623149753
 20
201.1533314132909
 30
0.0
 11
299.0455227363648
 21
202.0389494957019
 31
0.0
  0
LINE
  5
63A7
330
A
100
AcDbEntity
  8
モデル
100
AcDbLine
 10
299.0455227363648
 20
200.5917565366407
 30
0.0
 11
299.7173623149753
 21
201.1533314132909
 31
0.0
  0
LINE
  5
63A8
330
A
100
AcDbEntity
  8
モデル
100
AcDbLine
 10
299.0455227363648
 20
216.3391061832602
 30
0.0
 11
299.0455227363648
 21
217.7497942750058
 31
0.0
  0
LINE
  5
63A9
330
A
100
AcDbEntity
  8
モデル
100
AcDbLine
 10
299.0455227363648
 20
217.7497942750058
 30
0.0
 11
299.7173623149753
 21
218.314744601716
 31
0.0
  0
LINE
  5
63AA
330
A
100
AcDbEntity
  8
モデル
100
AcDbLine
 10
299.7173623149753
 20
218.314744601716
 30
0.0
 11
294.2706360848113
 21
217.1038331468553
 31
0.0
  0
LINE
  5
63AB
330
A
100
AcDbEntity
  8
モデル
100
AcDbLine
 10
299.0455227363648
 20
217.7497942750058
 30
0.0
 11
295.0217362314975
 21
216.2855990489757
 31
0.0
  0
LINE
  5
63AC
330
A
100
AcDbEntity
  8
モデル
100
AcDbLine
 10
295.0217362314975
 20
200.573254069645
 30
0.0
 11
299.0455227363648
 21
202.0389494957019
 31
0.0
  0
LINE
  5
63AD
330
A
100
AcDbEntity
  8
モデル
100
AcDbLine
 10
295.0217362314975
 20
214.8749109572301
 30
0.0
 11
295.0217362314975
 21
216.2855990489757
 31
0.0
  0
LINE
  5
63AE
330
A
100
AcDbEntity
  8
モデル
100
AcDbLine
 10
294.2706360848113
 20
217.1038331468553
 30
0.0
 11
295.0217362314975
 21
216.2855990489757
 31
0.0
  0
LINE
  5
63AF
330
A
100
AcDbEntity
  8
モデル
100
AcDbLine
 10
299.7173623149753
 20
218.3129943683516
 30
0.0
 11
299.7173623149753
 21
221.3015178381475
 31
0.0
  0
LINE
  5
63B0
330
A
100
AcDbEntity
  8
モデル
100
AcDbLine
 10
295.0217362314975
 20
212.0156547230655
 30
0.0
 11
295.0217362314975
 21
213.4245925814466
 31
0.0
  0
LINE
  5
63B1
330
A
100
AcDbEntity
  8
モデル
100
AcDbLine
 10
299.0455227363648
 20
213.4797249324267
 30
0.0
 11
299.0455227363648
 21
214.8904130241723
 31
0.0
  0
LINE
  5
63B2
330
A
100
AcDbEntity
  8
モデル
100
AcDbLine
 10
294.2706360848113
 20
214.2444518960219
 30
0.0
 11
295.0217362314975
 21
213.4245925814466
 31
0.0
  0
LINE
  5
63B3
330
A
100
AcDbEntity
  8
モデル
100
AcDbLine
 10
295.0217362314975
 20
214.8749109572301
 30
0.0
 11
294.405154020536
 21
214.3582170647111
 31
0.0
  0
LINE
  5
63B4
330
A
100
AcDbEntity
  8
モデル
100
AcDbLine
 10
299.7173623149753
 20
215.4519879008225
 30
0.0
 11
294.2706360848113
 21
214.2444518960219
 31
0.0
  0
LINE
  5
63B5
330
A
100
AcDbEntity
  8
モデル
100
AcDbLine
 10
294.405154020536
 20
214.3582170647111
 30
0.0
 11
294.2706360848113
 21
214.2444518960219
 31
0.0
  0
LINE
  5
63B6
330
A
100
AcDbEntity
  8
モデル
100
AcDbLine
 10
299.0455227363648
 20
214.8904130241723
 30
0.0
 11
295.0217362314975
 21
213.4245925814466
 31
0.0
  0
LINE
  5
63B7
330
A
100
AcDbEntity
  8
モデル
100
AcDbLine
 10
299.7173623149753
 20
215.4519879008225
 30
0.0
 11
299.0455227363648
 21
216.3391061832602
 31
0.0
  0
LINE
  5
63B8
330
A
100
AcDbEntity
  8
モデル
100
AcDbLine
 10
299.0455227363648
 20
214.8904130241723
 30
0.0
 11
299.7173623149753
 21
215.4519879008225
 31
0.0
  0
LINE
  5
63B9
330
A
100
AcDbEntity
  8
モデル
100
AcDbLine
 10
295.0217362314975
 20
214.8749109572301
 30
0.0
 11
299.0455227363648
 21
216.3391061832602
 31
0.0
  0
LINE
  5
63BA
330
A
100
AcDbEntity
  8
モデル
100
AcDbLine
 10
295.0217362314975
 20
209.1545232388676
 30
0.0
 11
295.0217362314975
 21
210.5652113306132
 31
0.0
  0
LINE
  5
63BB
330
A
100
AcDbEntity
  8
モデル
100
AcDbLine
 10
299.0455227363648
 20
210.6204686982622
 30
0.0
 11
299.0455227363648
 21
212.0311567900078
 31
0.0
  0
LINE
  5
63BC
330
A
100
AcDbEntity
  8
モデル
100
AcDbLine
 10
294.2706360848113
 20
211.383320411824
 30
0.0
 11
295.0217362314975
 21
210.5652113306132
 31
0.0
  0
LINE
  5
63BD
330
A
100
AcDbEntity
  8
モデル
100
AcDbLine
 10
295.0217362314975
 20
212.0156547230655
 30
0.0
 11
294.405154020536
 21
211.4988358138776
 31
0.0
  0
LINE
  5
63BE
330
A
100
AcDbEntity
  8
モデル
100
AcDbLine
 10
299.7173623149753
 20
212.5926066499891
 30
0.0
 11
294.2706360848113
 21
211.383320411824
 31
0.0
  0
LINE
  5
63BF
330
A
100
AcDbEntity
  8
モデル
100
AcDbLine
 10
294.405154020536
 20
211.4988358138776
 30
0.0
 11
294.2706360848113
 21
211.383320411824
 31
0.0
  0
LINE
  5
63C0
330
A
100
AcDbEntity
  8
モデル
100
AcDbLine
 10
299.0455227363648
 20
212.0311567900078
 30
0.0
 11
295.0217362314975
 21
210.5652113306132
 31
0.0
  0
LINE
  5
63C1
330
A
100
AcDbEntity
  8
モデル
100
AcDbLine
 10
299.7173623149753
 20
212.5926066499891
 30
0.0
 11
299.0455227363648
 21
213.4797249324267
 31
0.0
  0
LINE
  5
63C2
330
A
100
AcDbEntity
  8
モデル
100
AcDbLine
 10
299.0455227363648
 20
212.0311567900078
 30
0.0
 11
299.7173623149753
 21
212.5926066499891
 31
0.0
  0
LINE
  5
63C3
330
A
100
AcDbEntity
  8
モデル
100
AcDbLine
 10
295.0217362314975
 20
212.0156547230655
 30
0.0
 11
299.0455227363648
 21
213.4797249324267
 31
0.0
  0
LINE
  5
63C4
330
A
100
AcDbEntity
  8
モデル
100
AcDbLine
 10
295.0217362314975
 20
206.2951419880342
 30
0.0
 11
295.0217362314975
 21
207.7058300797797
 31
0.0
  0
LINE
  5
63C5
330
A
100
AcDbEntity
  8
モデル
100
AcDbLine
 10
299.0455227363648
 20
207.7610874474287
 30
0.0
 11
299.0455227363648
 21
209.1700253058099
 31
0.0
  0
LINE
  5
63C6
330
A
100
AcDbEntity
  8
モデル
100
AcDbLine
 10
294.2706360848113
 20
208.5241891943284
 30
0.0
 11
295.0217362314975
 21
207.7058300797797
 31
0.0
  0
LINE
  5
63C7
330
A
100
AcDbEntity
  8
モデル
100
AcDbLine
 10
295.0217362314975
 20
209.1545232388676
 30
0.0
 11
294.405154020536
 21
208.6394545630442
 31
0.0
  0
LINE
  5
63C8
330
A
100
AcDbEntity
  8
モデル
100
AcDbLine
 10
299.7173623149753
 20
209.735100649189
 30
0.0
 11
294.2706360848113
 21
208.5241891943284
 31
0.0
  0
LINE
  5
63C9
330
A
100
AcDbEntity
  8
モデル
100
AcDbLine
 10
294.405154020536
 20
208.6394545630442
 30
0.0
 11
294.2706360848113
 21
208.5241891943284
 31
0.0
  0
LINE
  5
63CA
330
A
100
AcDbEntity
  8
モデル
100
AcDbLine
 10
299.0455227363648
 20
209.1700253058099
 30
0.0
 11
295.0217362314975
 21
207.7058300797797
 31
0.0
  0
LINE
  5
63CB
330
A
100
AcDbEntity
  8
モデル
100
AcDbLine
 10
299.7173623149753
 20
209.735100649189
 30
0.0
 11
299.0455227363648
 21
210.6204686982622
 31
0.0
  0
LINE
  5
63CC
330
A
100
AcDbEntity
  8
モデル
100
AcDbLine
 10
299.0455227363648
 20
209.1700253058099
 30
0.0
 11
299.7173623149753
 21
209.735100649189
 31
0.0
  0
LINE
  5
63CD
330
A
100
AcDbEntity
  8
モデル
100
AcDbLine
 10
295.0217362314975
 20
209.1545232388676
 30
0.0
 11
299.0455227363648
 21
210.6204686982622
 31
0.0
  0
LINE
  5
63CE
330
A
100
AcDbEntity
  8
モデル
100
AcDbLine
 10
295.0217362314975
 20
203.4341355205052
 30
0.0
 11
295.0217362314975
 21
204.8448236122507
 31
0.0
  0
LINE
  5
63CF
330
A
100
AcDbEntity
  8
モデル
100
AcDbLine
 10
299.0455227363648
 20
204.899830946562
 30
0.0
 11
299.0455227363648
 21
206.3106440549764
 31
0.0
  0
LINE
  5
63D0
330
A
100
AcDbEntity
  8
モデル
100
AcDbLine
 10
294.2706360848113
 20
205.6648079434949
 30
0.0
 11
295.0217362314975
 21
204.8448236122507
 31
0.0
  0
LINE
  5
63D1
330
A
100
AcDbEntity
  8
モデル
100
AcDbLine
 10
295.0217362314975
 20
206.2951419880342
 30
0.0
 11
294.405154020536
 21
205.7783230788463
 31
0.0
  0
LINE
  5
63D2
330
A
100
AcDbEntity
  8
モデル
100
AcDbLine
 10
299.7173623149753
 20
206.8739691649911
 30
0.0
 11
294.2706360848113
 21
205.6648079434949
 31
0.0
  0
LINE
  5
63D3
330
A
100
AcDbEntity
  8
モデル
100
AcDbLine
 10
294.405154020536
 20
205.7783230788463
 30
0.0
 11
294.2706360848113
 21
205.6648079434949
 31
0.0
  0
LINE
  5
63D4
330
A
100
AcDbEntity
  8
モデル
100
AcDbLine
 10
299.0455227363648
 20
206.3106440549764
 30
0.0
 11
295.0217362314975
 21
204.8448236122507
 31
0.0
  0
LINE
  5
63D5
330
A
100
AcDbEntity
  8
モデル
100
AcDbLine
 10
299.7173623149753
 20
206.8739691649911
 30
0.0
 11
299.0455227363648
 21
207.7610874474287
 31
0.0
  0
LINE
  5
63D6
330
A
100
AcDbEntity
  8
モデル
100
AcDbLine
 10
299.0455227363648
 20
206.3106440549764
 30
0.0
 11
299.7173623149753
 21
206.8739691649911
 31
0.0
  0
LINE
  5
63D7
330
A
100
AcDbEntity
  8
モデル
100
AcDbLine
 10
295.0217362314975
 20
206.2951419880342
 30
0.0
 11
299.0455227363648
 21
207.7610874474287
 31
0.0
  0
LINE
  5
63D8
330
A
100
AcDbEntity
  8
モデル
100
AcDbLine
 10
295.0217362314975
 20
200.5747542696718
 30
0.0
 11
295.0217362314975
 21
201.9854423614173
 31
0.0
  0
LINE
  5
63D9
330
A
100
AcDbEntity
  8
モデル
100
AcDbLine
 10
299.0455227363648
 20
202.0389494957019
 30
0.0
 11
299.0455227363648
 21
203.4496375874475
 31
0.0
  0
LINE
  5
63DA
330
A
100
AcDbEntity
  8
モデル
100
AcDbLine
 10
294.2706360848113
 20
202.8035514426281
 30
0.0
 11
295.0217362314975
 21
201.9854423614173
 31
0.0
  0
LINE
  5
63DB
330
A
100
AcDbEntity
  8
モデル
100
AcDbLine
 10
295.0217362314975
 20
203.4341355205052
 30
0.0
 11
294.405154020536
 21
202.917566644655
 31
0.0
  0
LINE
  5
63DC
330
A
100
AcDbEntity
  8
モデル
100
AcDbLine
 10
299.7173623149753
 20
204.0147129308265
 30
0.0
 11
294.2706360848113
 21
202.8035514426281
 31
0.0
  0
LINE
  5
63DD
330
A
100
AcDbEntity
  8
モデル
100
AcDbLine
 10
294.405154020536
 20
202.917566644655
 30
0.0
 11
294.2706360848113
 21
202.8035514426281
 31
0.0
  0
LINE
  5
63DE
330
A
100
AcDbEntity
  8
モデル
100
AcDbLine
 10
299.0455227363648
 20
203.4496375874475
 30
0.0
 11
295.0217362314975
 21
201.9854423614173
 31
0.0
  0
LINE
  5
63DF
330
A
100
AcDbEntity
  8
モデル
100
AcDbLine
 10
299.7173623149753
 20
204.0147129308265
 30
0.0
 11
299.0455227363648
 21
204.899830946562
 31
0.0
  0
LINE
  5
63E0
330
A
100
AcDbEntity
  8
モデル
100
AcDbLine
 10
299.0455227363648
 20
203.4496375874475
 30
0.0
 11
299.7173623149753
 21
204.0147129308265
 31
0.0
  0
LINE
  5
63E1
330
A
100
AcDbEntity
  8
モデル
100
AcDbLine
 10
295.0217362314975
 20
203.4341355205052
 30
0.0
 11
299.0455227363648
 21
204.899830946562
 31
0.0
  0
LINE
  5
63E2
330
A
100
AcDbEntity
  8
モデル
100
AcDbLine
 10
294.2706360848113
 20
218.3129943683516
 30
0.0
 11
294.2706360848113
 21
217.1038331468553
 31
0.0
  0
LINE
  5
63E3
330
A
100
AcDbEntity
  8
モデル
100
AcDbLine
 10
299.7173623149753
 20
218.3129943683516
 30
0.0
 11
294.2706360848113
 21
218.3129943683516
 31
0.0
  0
CIRCLE
  5
63F6
330
A
100
AcDbEntity
  8
モデル
100
AcDbCircle
 10
296.9999999999999
 20
339.8515843753731
 30
0.0
 40
22.5
  0
CIRCLE
  5
63F8
330
A
100
AcDbEntity
  8
モデル
100
AcDbCircle
 10
296.9999999999999
 20
339.8515843753731
 30
0.0
 40
12.14961994932651
  0
CIRCLE
  5
63FA
330
A
100
AcDbEntity
  8
モデル
  6
HIDDEN
100
AcDbCircle
 10
296.9999999999999
 20
339.8515843753731
 30
0.0
 40
14.96249499933333
  0
DIMENSION
  5
63FF
330
A
100
AcDbEntity
  8
寸法
100
AcDbDimension
  2
*D11
 10
255.2698425214294
 20
362.3515843753739
 30
0.0
 11
249.769842521429
 21
339.8515843753739
 31
0.0
 70
    32
 71
     5
 42
45.00000000000009
 73
     0
 74
     0
 75
     0
  3
tfrom線あり
100
AcDbAlignedDimension
 13
289.7446935434476
 23
317.3515843753732
 33
0.0
 14
288.1779377022862
 24
362.3515843753734
 34
0.0
 50
89.99999999999913
100
AcDbRotatedDimension
1001
ACAD
1000
DSTYLE
1002
{
1070
     3
1000
%%c<>
1070
   144
1040
1.0
1002
}
  0
DIMENSION
  5
640C
102
{ACAD_REACTORS
330
640E
102
}
102
{ACAD_XDICTIONARY
360
640D
102
}
330
A
100
AcDbEntity
  8
寸法
100
AcDbDimension
  2
*D12
 10
255.2698425214287
 20
255.499952629453
 30
0.0
 11
249.7698425214287
 21
238.4998109438949
 31
0.0
 70
    32
 71
     5
 42
34.0002833711161
 73
     0
 74
     0
 75
     0
  3
tfrom線あり
100
AcDbAlignedDimension
 13
282.0375050006667
 23
221.4996692583369
 33
0.0
 14
284.8503800506734
 24
255.499952629453
 34
0.0
 50
90.0
100
AcDbRotatedDimension
1001
ACAD
1000
DSTYLE
1002
{
1070
   144
1040
1.0
1002
}
  0
MTEXT
  5
6449
330
A
100
AcDbEntity
  8
テンプレート
390
1D
100
AcDbMText
 10
35.55147890762322
 20
42.92054629578011
 30
0.0
 40
3.0
 41
0.0
 46
3.351
 71
     1
 72
     1
  1
{シャンパンシルバー(アルミ)}
  7
ＭＳ ゴシック
 73
     1
 44
0.7828267384257843
1001
ACAD
1000
ACAD_MTEXT_DEFINED_HEIGHT_BEGIN
1070
    46
1040
3.351
1000
ACAD_MTEXT_DEFINED_HEIGHT_END
  0
MTEXT
  5
644A
330
A
100
AcDbEntity
  8
テンプレート
390
1D
100
AcDbMText
 10
89.23483401038703
 20
42.92054629578022
 30
0.0
 40
3.0
 41
0.0
 46
3.351
 71
     1
 72
     1
  1
{ライトブロンズ(アルミ)}
  7
ＭＳ ゴシック
 73
     1
 44
0.7828267384257843
1001
ACAD
1000
ACAD_MTEXT_DEFINED_HEIGHT_BEGIN
1070
    46
1040
3.351
1000
ACAD_MTEXT_DEFINED_HEIGHT_END
  0
MTEXT
  5
644B
330
A
100
AcDbEntity
  8
テンプレート
390
1D
100
AcDbMText
 10
89.23483401038703
 20
48.77911613324944
 30
0.0
 40
3.0
 41
0.0
 46
3.351
 71
     1
 72
     1
  1
{ゴールドブラスト(アルミ)}
  7
ＭＳ ゴシック
 73
     1
 44
0.7828267384257843
1001
ACAD
1000
ACAD_MTEXT_DEFINED_HEIGHT_BEGIN
1070
    46
1040
3.351
1000
ACAD_MTEXT_DEFINED_HEIGHT_END
  0
LINE
  5
644C
330
A
100
AcDbEntity
  8
テンプレート
  6
Continuous
100
AcDbLine
 10
138.6601282792957
 20
50.16496477419606
 30
0.0
 11
138.6601282792957
 21
38.27810890422098
 31
0.0
  0
LINE
  5
644D
330
A
100
AcDbEntity
  8
テンプレート
  6
Continuous
100
AcDbLine
 10
242.4687073174278
 20
50.33468096923406
 30
0.0
 11
242.4687073174278
 21
26.22153683920783
 31
0.0
  0
MTEXT
  5
644E
330
A
100
AcDbEntity
  8
テンプレート
390
1D
100
AcDbMText
 10
244.2799415428604
 20
48.8302066472847
 30
0.0
 40
3.0
 41
0.0
 46
3.138
 71
     1
 72
     1
  1
{ステンレスマット}
  7
ＭＳ ゴシック
 73
     1
 44
0.7828267384257843
1001
ACAD
1000
ACAD_MTEXT_DEFINED_HEIGHT_BEGIN
1070
    46
1040
3.138
1000
ACAD_MTEXT_DEFINED_HEIGHT_END
  0
MTEXT
  5
644F
330
A
100
AcDbEntity
  8
テンプレート
390
1D
100
AcDbMText
 10
244.2799415428604
 20
43.1279645801479
 30
0.0
 40
3.0
 41
0.0
 46
3.258
 71
     1
 72
     1
  1
{ステンレスポリッシュ}
  7
ＭＳ ゴシック
 73
     1
 44
0.7828267384257843
1001
ACAD
1000
ACAD_MTEXT_DEFINED_HEIGHT_BEGIN
1070
    46
1040
3.258
1000
ACAD_MTEXT_DEFINED_HEIGHT_END
  0
MTEXT
  5
6450
330
A
100
AcDbEntity
  8
テンプレート
390
1D
100
AcDbMText
 10
244.6061145535065
 20
34.57354675141925
 30
0.0
 40
5.0
 41
0.0
 46
5.075
 71
     1
 72
     1
  1
{ステンレス}
  7
ＭＳ ゴシック
 73
     1
 44
0.7828267384257843
1001
ACAD
1000
ACAD_MTEXT_DEFINED_HEIGHT_BEGIN
1070
    46
1040
5.075
1000
ACAD_MTEXT_DEFINED_HEIGHT_END
  0
MTEXT
  5
6451
330
A
100
AcDbEntity
  8
テンプレート
390
1D
100
AcDbMText
 10
287.6897212829846
 20
34.57354675141924
 30
0.0
 40
5.0
 41
0.0
 46
5.585
 71
     1
 72
     1
  1
{真鍮}
  7
ＭＳ ゴシック
 73
     1
 44
0.7828267384257843
1001
ACAD
1000
ACAD_MTEXT_DEFINED_HEIGHT_BEGIN
1070
    46
1040
5.585
1000
ACAD_MTEXT_DEFINED_HEIGHT_END
  0
LINE
  5
6452
330
A
100
AcDbEntity
  8
テンプレート
  6
Continuous
100
AcDbLine
 10
286.0221256440848
 20
50.16496477419605
 30
0.0
 11
286.0221256440848
 21
26.22153683920783
 31
0.0
  0
MTEXT
  5
6453
330
A
100
AcDbEntity
  8
テンプレート
390
1D
100
AcDbMText
 10
287.8387351112666
 20
48.83020664728469
 30
0.0
 40
3.0
 41
0.0
 46
3.045
 71
     1
 72
     1
  1
{ブラスワックス}
  7
ＭＳ ゴシック
 73
     1
 44
0.7828267384257843
1001
ACAD
1000
ACAD_MTEXT_DEFINED_HEIGHT_BEGIN
1070
    46
1040
3.045
1000
ACAD_MTEXT_DEFINED_HEIGHT_END
  0
MTEXT
  5
6454
330
A
100
AcDbEntity
  8
テンプレート
390
1D
100
AcDbMText
 10
319.2104482652132
 20
34.57354675141923
 30
0.0
 40
5.0
 41
0.0
 46
5.535
 71
     1
 72
     1
  1
{銅}
  7
ＭＳ ゴシック
 73
     1
 44
0.7828267384257843
1001
ACAD
1000
ACAD_MTEXT_DEFINED_HEIGHT_BEGIN
1070
    46
1040
5.535
1000
ACAD_MTEXT_DEFINED_HEIGHT_END
  0
MTEXT
  5
6455
330
A
100
AcDbEntity
  8
テンプレート
390
1D
100
AcDbMText
 10
319.3594620934952
 20
48.83020664728468
 30
0.0
 40
3.0
 41
0.0
 46
3.045
 71
     1
 72
     1
  1
{ブロンズワックス}
  7
ＭＳ ゴシック
 73
     1
 44
0.7828267384257843
1001
ACAD
1000
ACAD_MTEXT_DEFINED_HEIGHT_BEGIN
1070
    46
1040
3.045
1000
ACAD_MTEXT_DEFINED_HEIGHT_END
  0
LINE
  5
6456
330
A
100
AcDbEntity
  8
テンプレート
  6
Continuous
100
AcDbLine
 10
317.5428526263133
 20
50.16496477419604
 30
0.0
 11
317.5428526263133
 21
26.22153683920782
 31
0.0
  0
VIEWPORT
  5
349
330
B
100
AcDbEntity
 67
     1
  8
0
100
AcDbViewport
 10
202.5
 20
128.5
 30
0.0
 40
486.0
 41
308.4
 68
     1
 69
     1
 12
202.5
 22
128.5
 13
0.0
 23
0.0
 14
0.5
 24
0.5
 15
0.0
 25
0.0
 16
0.0
 26
0.0
 36
1.0
 17
0.0
 27
0.0
 37
0.0
 42
50.0
 43
0.0
 44
0.0
 45
308.4
 50
0.0
 51
0.0
 72
   100
 90
   557152
  1

281
     0
 71
     1
 74
     0
110
0.0
120
0.0
130
0.0
111
1.0
121
0.0
131
0.0
112
0.0
122
1.0
132
0.0
 79
     0
146
0.0
170
     0
 61
     5
348
26C
292
     1
282
     1
141
0.0
142
0.0
 63
   256
  0
VIEWPORT
  5
34A
330
B
100
AcDbEntity
 67
     1
  8
0
100
AcDbViewport
 10
202.5
 20
128.5
 30
0.0
 40
324.0
 41
205.6
 68
     2
 69
     2
 12
986.6781359294573
 22
1427.077061889956
 13
0.0
 23
0.0
 14
0.5
 24
0.5
 15
0.0
 25
0.0
 16
0.0
 26
0.0
 36
1.0
 17
0.0
 27
0.0
 37
0.0
 42
50.0
 43
0.0
 44
0.0
 45
2890.021615685494
 50
0.0
 51
0.0
 72
   100
 90
   557152
  1

281
     0
 71
     1
 74
     0
110
0.0
120
0.0
130
0.0
111
1.0
121
0.0
131
0.0
112
0.0
122
1.0
132
0.0
 79
     0
146
0.0
170
     0
 61
     5
348
26C
292
     1
282
     1
141
0.0
142
0.0
 63
   256
  0
ENDSEC
  0
SECTION
  2
OBJECTS
  0
DICTIONARY
  5
19
330
0
100
AcDbDictionary
281
     1
  3
ACAD_COLOR
350
674
  3
ACAD_DETAILVIEWSTYLE
350
12F4
  3
ACAD_FIELDLIST
350
545A
  3
ACAD_GROUP
350
1A
  3
ACAD_IMAGE_VARS
350
27B
  3
ACAD_LAYOUT
350
1E
  3
ACAD_MATERIAL
350
263
  3
ACAD_MLEADERSTYLE
350
336
  3
ACAD_MLINESTYLE
350
1B
  3
ACAD_PLOTSETTINGS
350
22
  3
ACAD_PLOTSTYLENAME
350
1F
  3
ACAD_SCALELIST
350
241
  3
ACAD_SECTIONVIEWSTYLE
350
12F5
  3
ACAD_TABLESTYLE
350
278
  3
ACAD_VISUALSTYLE
350
267
  3
ACDB_RECOMPOSE_DATA
350
6477
  3
AcDbVariableDictionary
350
330
  3
AcStStandard
350
12B9
  3
APPDATA
350
27A
  0
SUN
  5
10E8
330
15
100
AcDbSun
 90
        1
290
     0
 63
     7
421
 16777215
 40
1.0
291
     1
 91
  2455826
 92
 54000000
292
     0
 70
     2
 71
   256
280
     1
  0
DICTIONARY
  5
2E1
330
2
100
AcDbDictionary
280
     1
281
     1
  3
ACAD_LAYERSTATES
360
2E2
  3
ACLYDICTIONARY
360
646E
  0
DICTIONARY
  5
5458
330
5456
100
AcDbDictionary
280
     1
281
     1
  3
ACAD_FIELD
360
645A
  0
DICTIONARY
  5
640D
330
640C
100
AcDbDictionary
280
     1
281
     1
  3
ACAD_DIMASSOC
360
640E
  0
DICTIONARY
  5
674
102
{ACAD_REACTORS
330
19
102
}
330
19
100
AcDbDictionary
281
     1
  0
DICTIONARY
  5
12F4
102
{ACAD_REACTORS
330
19
102
}
330
19
100
AcDbDictionary
281
     1
  0
FIELDLIST
  5
545A
102
{ACAD_REACTORS
330
19
102
}
330
19
100
AcDbIdSet
 90
        2
330
545B
330
5457
100
AcDbFieldList
  0
DICTIONARY
  5
1A
102
{ACAD_REACTORS
330
19
102
}
330
19
100
AcDbDictionary
281
     1
  0
RASTERVARIABLES
  5
27B
102
{ACAD_REACTORS
330
19
102
}
330
19
100
AcDbRasterVariables
 90
        0
 70
     1
 71
     1
 72
     1
  0
DICTIONARY
  5
1E
102
{ACAD_REACTORS
330
19
102
}
330
19
100
AcDbDictionary
281
     1
  3
Layout1
350
21
  3
Layout2
350
12C4
  3
Model
350
20
  0
DICTIONARY
  5
263
102
{ACAD_REACTORS
330
19
102
}
330
19
100
AcDbDictionary
281
     1
  3
ByBlock
350
385B
  3
ByLayer
350
264
  3
Global
350
266
  0
DICTIONARY
  5
336
102
{ACAD_REACTORS
330
19
102
}
330
19
100
AcDbDictionary
281
     1
  3
Standard
350
41C3
  0
DICTIONARY
  5
1B
102
{ACAD_REACTORS
330
19
102
}
330
19
100
AcDbDictionary
281
     1
  3
Standard
350
1C
  0
DICTIONARY
  5
22
102
{ACAD_REACTORS
330
19
102
}
330
19
100
AcDbDictionary
281
     1
  0
ACDBDICTIONARYWDFLT
  5
1F
102
{ACAD_REACTORS
330
19
102
}
330
19
100
AcDbDictionary
281
     1
  3
Normal
350
1D
100
AcDbDictionaryWithDefault
340
1D
  0
DICTIONARY
  5
241
102
{ACAD_REACTORS
330
19
102
}
330
19
100
AcDbDictionary
281
     1
  3
A0
350
242
  3
A1
350
243
  3
A2
350
244
  3
A3
350
245
  3
A4
350
246
  3
A5
350
247
  3
A6
350
248
  3
A7
350
249
  3
A8
350
24A
  3
A9
350
24B
  3
B0
350
24C
  3
B1
350
24D
  3
B2
350
24E
  3
B3
350
24F
  3
B4
350
250
  3
B5
350
251
  3
B6
350
252
  3
B7
350
253
  3
B8
350
254
  3
B9
350
255
  3
C0
350
256
  3
C1
350
257
  3
C2
350
258
  3
C3
350
259
  3
C4
350
25A
  3
C5
350
25B
  3
C6
350
25C
  3
C7
350
25D
  3
C8
350
25E
  3
C9
350
25F
  3
D0
350
260
  3
D1
350
261
  3
D2
350
262
  0
DICTIONARY
  5
12F5
102
{ACAD_REACTORS
330
19
102
}
330
19
100
AcDbDictionary
281
     1
  0
DICTIONARY
  5
278
102
{ACAD_REACTORS
330
19
102
}
330
19
100
AcDbDictionary
281
     1
  3
Standard
350
279
  0
DICTIONARY
  5
267
102
{ACAD_REACTORS
330
19
102
}
330
19
100
AcDbDictionary
281
     1
  3
2dWireframe
350
26C
  3
3D Hidden
350
26E
  3
3dWireframe
350
26D
  3
Basic
350
26F
  3
Brighten
350
273
  3
ColorChange
350
277
  3
Conceptual
350
271
  3
Dim
350
272
  3
EdgeColorOff
350
10E2
  3
Facepattern
350
276
  3
Flat
350
268
  3
FlatWithEdges
350
269
  3
Gouraud
350
26A
  3
GouraudWithEdges
350
26B
  3
Hidden
350
10DF
  3
JitterOff
350
10E0
  3
Linepattern
350
275
  3
OverhangOff
350
10E1
  3
Realistic
350
270
  3
Shaded
350
10E7
  3
Shaded with edges
350
10E6
  3
Shades of Gray
350
10E3
  3
Sketchy
350
10E4
  3
Thicken
350
274
  3
Wireframe
350
10DE
  3
X-Ray
350
10E5
  0
XRECORD
  5
6477
102
{ACAD_REACTORS
330
19
102
}
330
19
100
AcDbXrecord
280
     1
 90
        1
330
279
  0
DICTIONARY
  5
330
102
{ACAD_REACTORS
330
19
102
}
330
19
100
AcDbDictionary
281
     1
  3
CANNOSCALE
350
331
  3
CMLEADERSTYLE
350
41C8
  3
CTABLESTYLE
350
335
  3
XCLIPFRAME
350
109E
  0
DICTIONARY
  5
12B9
102
{ACAD_REACTORS
330
19
102
}
330
19
100
AcDbDictionary
281
     1
  0
DICTIONARY
  5
27A
102
{ACAD_REACTORS
330
19
102
}
330
19
100
AcDbDictionary
281
     1
  0
DICTIONARY
  5
2E2
102
{ACAD_REACTORS
330
2E1
102
}
330
2E1
100
AcDbDictionary
281
     1
  0
DICTIONARY
  5
646E
102
{ACAD_REACTORS
330
2E1
102
}
330
2E1
100
AcDbDictionary
281
     1
1001
ACAD
1000
<All
  0
DICTIONARY
  5
645A
102
{ACAD_REACTORS
330
5458
102
}
330
5458
100
AcDbDictionary
280
     1
281
     1
  3
TEXT
360
5457
  0
DIMASSOC
  5
640E
102
{ACAD_REACTORS
330
640D
102
}
330
640D
100
AcDbDimAssoc
330
640C
 90
        3
 70
     0
 71
     1
  1
AcDbOsnapPointRef
 72
     1
331
634A
 73
     0
 91
        0
 40
0.0
 10
0.0
 20
0.0
 30
0.0
 75
     0
  1
AcDbOsnapPointRef
 72
     1
331
6342
 73
     0
 91
        0
 40
0.0
 10
0.0
 20
0.0
 30
0.0
 75
     0
  0
LAYOUT
  5
21
102
{ACAD_REACTORS
330
1E
102
}
330
1E
100
AcDbPlotSettings
  1

  2
none_device
  4
ISO_A3_(420.00_x_297.00_MM)
  6

 40
7.5
 41
20.0
 42
7.5
 43
20.0
 44
420.0
 45
297.0
 46
0.0
 47
0.0
 48
0.0
 49
0.0
140
0.0
141
0.0
142
1.0
143
1.0
 70
     0
 72
     1
 73
     0
 74
     0
  7

 75
     0
 76
     0
 77
     2
 78
   300
147
1.0
148
0.0
149
0.0
100
AcDbLayout
  1
Layout1
 70
     0
 71
     0
 10
-7.5
 20
-20.0
 11
412.5
 21
277.0
 12
0.0
 22
0.0
 32
0.0
 14
0.0
 24
0.0
 34
0.0
 15
0.0
 25
0.0
 35
0.0
146
0.0
 13
0.0
 23
0.0
 33
0.0
 16
0.0
 26
0.0
 36
0.0
 17
0.0
 27
0.0
 37
0.0
 76
     0
330
B
331
349
  0
LAYOUT
  5
12C4
102
{ACAD_REACTORS
330
1E
102
}
330
1E
100
AcDbPlotSettings
  1

  2
none_device
  4

  6

 40
0.0
 41
0.0
 42
0.0
 43
0.0
 44
0.0
 45
0.0
 46
0.0
 47
0.0
 48
0.0
 49
0.0
140
0.0
141
0.0
142
1.0
143
1.0
 70
   688
 72
     1
 73
     0
 74
     5
  7

 75
    16
 76
     0
 77
     2
 78
   300
147
1.0
148
0.0
149
0.0
100
AcDbLayout
  1
Layout2
 70
     1
 71
     2
 10
0.0
 20
0.0
 11
0.0
 21
0.0
 12
0.0
 22
0.0
 32
0.0
 14
0.0
 24
0.0
 34
0.0
 15
0.0
 25
0.0
 35
0.0
146
0.0
 13
0.0
 23
0.0
 33
0.0
 16
1.0
 26
0.0
 36
0.0
 17
0.0
 27
1.0
 37
0.0
 76
     0
330
12C3
  0
LAYOUT
  5
20
102
{ACAD_REACTORS
330
1E
102
}
330
1E
100
AcDbPlotSettings
  1

  2
none_device
  4
ISO_A3_(420.00_x_297.00_MM)
  6

 40
7.5
 41
20.0
 42
7.5
 43
20.0
 44
420.0
 45
297.0
 46
0.0
 47
0.0
 48
0.0
 49
0.0
140
0.0
141
0.0
142
1.0
143
1.0
 70
  1024
 72
     1
 73
     0
 74
     0
  7

 75
     0
 76
     0
 77
     2
 78
   300
147
1.0
148
0.0
149
0.0
100
AcDbLayout
  1
Model
 70
     0
 71
     1
 10
0.0
 20
0.0
 11
593.9999999999999
 21
420.0
 12
0.0
 22
0.0
 32
0.0
 14
0.0
 24
0.0
 34
0.0
 15
593.9999999999999
 25
420.0
 35
0.0
146
0.0
 13
0.0
 23
0.0
 33
0.0
 16
0.0
 26
0.0
 36
0.0
 17
0.0
 27
0.0
 37
0.0
 76
     0
330
A
331
15
  0
MATERIAL
  5
385B
102
{ACAD_REACTORS
330
263
102
}
330
263
100
AcDbMaterial
  1
ByBlock
 72
     1
 94
      127
  0
MATERIAL
  5
264
102
{ACAD_REACTORS
330
263
102
}
330
263
100
AcDbMaterial
  1
ByLayer
 72
     1
 94
      127
  0
MATERIAL
  5
266
102
{ACAD_REACTORS
330
263
102
}
330
263
100
AcDbMaterial
  1
Global
 72
     1
 94
      127
  0
MLEADERSTYLE
  5
41C3
102
{ACAD_REACTORS
330
336
102
}
330
336
100
AcDbMLeaderStyle
170
     2
171
     1
172
     0
 90
        2
 40
0.0
 41
0.0
173
     1
 91
-1056964608
340
11
 92
       -2
290
     1
 42
2.0
291
     1
 43
8.0
  3
Standard
341
0
 44
4.0
300

342
17
174
     1
178
     6
175
     1
176
     0
 93
-1056964608
 45
4.0
292
     0
297
     0
 46
4.0
343
0
 94
-1056964608
 47
1.0
 49
1.0
140
1.0
293
     1
141
0.0
294
     1
177
     0
142
1.0
295
     0
296
     0
143
3.75
1001
ACAD_MLEADERVER
1070
     2
  0
MLINESTYLE
  5
1C
102
{ACAD_REACTORS
330
1B
102
}
330
1B
100
AcDbMlineStyle
  2
Standard
 70
     0
  3

 62
     0
 51
90.0
 52
90.0
 71
     2
 49
0.5
 62
   256
  6
BYLAYER
 49
-0.5
 62
   256
  6
BYLAYER
  0
ACDBPLACEHOLDER
  5
1D
102
{ACAD_REACTORS
330
1F
102
}
330
1F
  0
SCALE
  5
242
102
{ACAD_REACTORS
330
241
102
}
330
241
100
AcDbScale
 70
     0
300
1:1
140
1.0
141
1.0
290
     1
  0
SCALE
  5
243
102
{ACAD_REACTORS
330
241
102
}
330
241
100
AcDbScale
 70
     0
300
1:2
140
1.0
141
2.0
290
     0
  0
SCALE
  5
244
102
{ACAD_REACTORS
330
241
102
}
330
241
100
AcDbScale
 70
     0
300
1:4
140
1.0
141
4.0
290
     0
  0
SCALE
  5
245
102
{ACAD_REACTORS
330
241
102
}
330
241
100
AcDbScale
 70
     0
300
1:5
140
1.0
141
5.0
290
     0
  0
SCALE
  5
246
102
{ACAD_REACTORS
330
241
102
}
330
241
100
AcDbScale
 70
     0
300
1:8
140
1.0
141
8.0
290
     0
  0
SCALE
  5
247
102
{ACAD_REACTORS
330
241
102
}
330
241
100
AcDbScale
 70
     0
300
1:10
140
1.0
141
10.0
290
     0
  0
SCALE
  5
248
102
{ACAD_REACTORS
330
241
102
}
330
241
100
AcDbScale
 70
     0
300
1:16
140
1.0
141
16.0
290
     0
  0
SCALE
  5
249
102
{ACAD_REACTORS
330
241
102
}
330
241
100
AcDbScale
 70
     0
300
1:20
140
1.0
141
20.0
290
     0
  0
SCALE
  5
24A
102
{ACAD_REACTORS
330
241
102
}
330
241
100
AcDbScale
 70
     0
300
1:30
140
1.0
141
30.0
290
     0
  0
SCALE
  5
24B
102
{ACAD_REACTORS
330
241
102
}
330
241
100
AcDbScale
 70
     0
300
1:40
140
1.0
141
40.0
290
     0
  0
SCALE
  5
24C
102
{ACAD_REACTORS
330
241
102
}
330
241
100
AcDbScale
 70
     0
300
1:50
140
1.0
141
50.0
290
     0
  0
SCALE
  5
24D
102
{ACAD_REACTORS
330
241
102
}
330
241
100
AcDbScale
 70
     0
300
1:100
140
1.0
141
100.0
290
     0
  0
SCALE
  5
24E
102
{ACAD_REACTORS
330
241
102
}
330
241
100
AcDbScale
 70
     0
300
2:1
140
2.0
141
1.0
290
     0
  0
SCALE
  5
24F
102
{ACAD_REACTORS
330
241
102
}
330
241
100
AcDbScale
 70
     0
300
4:1
140
4.0
141
1.0
290
     0
  0
SCALE
  5
250
102
{ACAD_REACTORS
330
241
102
}
330
241
100
AcDbScale
 70
     0
300
8:1
140
8.0
141
1.0
290
     0
  0
SCALE
  5
251
102
{ACAD_REACTORS
330
241
102
}
330
241
100
AcDbScale
 70
     0
300
10:1
140
10.0
141
1.0
290
     0
  0
SCALE
  5
252
102
{ACAD_REACTORS
330
241
102
}
330
241
100
AcDbScale
 70
     0
300
100:1
140
100.0
141
1.0
290
     0
  0
SCALE
  5
253
102
{ACAD_REACTORS
330
241
102
}
330
241
100
AcDbScale
 70
     0
300
1/128" = 1'-0"
140
0.0078125
141
12.0
290
     0
  0
SCALE
  5
254
102
{ACAD_REACTORS
330
241
102
}
330
241
100
AcDbScale
 70
     0
300
1/64" = 1'-0"
140
0.015625
141
12.0
290
     0
  0
SCALE
  5
255
102
{ACAD_REACTORS
330
241
102
}
330
241
100
AcDbScale
 70
     0
300
1/32" = 1'-0"
140
0.03125
141
12.0
290
     0
  0
SCALE
  5
256
102
{ACAD_REACTORS
330
241
102
}
330
241
100
AcDbScale
 70
     0
300
1/16" = 1'-0"
140
0.0625
141
12.0
290
     0
  0
SCALE
  5
257
102
{ACAD_REACTORS
330
241
102
}
330
241
100
AcDbScale
 70
     0
300
3/32" = 1'-0"
140
0.09375
141
12.0
290
     0
  0
SCALE
  5
258
102
{ACAD_REACTORS
330
241
102
}
330
241
100
AcDbScale
 70
     0
300
1/8" = 1'-0"
140
0.125
141
12.0
290
     0
  0
SCALE
  5
259
102
{ACAD_REACTORS
330
241
102
}
330
241
100
AcDbScale
 70
     0
300
3/16" = 1'-0"
140
0.1875
141
12.0
290
     0
  0
SCALE
  5
25A
102
{ACAD_REACTORS
330
241
102
}
330
241
100
AcDbScale
 70
     0
300
1/4" = 1'-0"
140
0.25
141
12.0
290
     0
  0
SCALE
  5
25B
102
{ACAD_REACTORS
330
241
102
}
330
241
100
AcDbScale
 70
     0
300
3/8" = 1'-0"
140
0.375
141
12.0
290
     0
  0
SCALE
  5
25C
102
{ACAD_REACTORS
330
241
102
}
330
241
100
AcDbScale
 70
     0
300
1/2" = 1'-0"
140
0.5
141
12.0
290
     0
  0
SCALE
  5
25D
102
{ACAD_REACTORS
330
241
102
}
330
241
100
AcDbScale
 70
     0
300
3/4" = 1'-0"
140
0.75
141
12.0
290
     0
  0
SCALE
  5
25E
102
{ACAD_REACTORS
330
241
102
}
330
241
100
AcDbScale
 70
     0
300
1" = 1'-0"
140
1.0
141
12.0
290
     0
  0
SCALE
  5
25F
102
{ACAD_REACTORS
330
241
102
}
330
241
100
AcDbScale
 70
     0
300
1-1/2" = 1'-0"
140
1.5
141
12.0
290
     0
  0
SCALE
  5
260
102
{ACAD_REACTORS
330
241
102
}
330
241
100
AcDbScale
 70
     0
300
3" = 1'-0"
140
3.0
141
12.0
290
     0
  0
SCALE
  5
261
102
{ACAD_REACTORS
330
241
102
}
330
241
100
AcDbScale
 70
     0
300
6" = 1'-0"
140
6.0
141
12.0
290
     0
  0
SCALE
  5
262
102
{ACAD_REACTORS
330
241
102
}
330
241
100
AcDbScale
 70
     0
300
1'-0" = 1'-0"
140
12.0
141
12.0
290
     0
  0
TABLESTYLE
  5
279
102
{ACAD_REACTORS
330
278
102
}
102
{ACAD_XDICTIONARY
360
6475
102
}
330
278
100
AcDbTableStyle
  3
Standard
 70
     0
 71
     0
 40
0.06
 41
0.06
280
     0
281
     0
  7
Standard
140
4.5
170
     2
 62
     0
 63
   257
283
     0
 90
        4
 91
        0
  1

274
    -2
284
     1
 64
     0
275
    -2
285
     1
 65
     0
276
    -2
286
     1
 66
     0
277
    -2
287
     1
 67
     0
278
    -2
288
     1
 68
     0
279
    -2
289
     1
 69
     0
  7
Standard
140
6.0
170
     5
 62
     0
 63
   257
283
     0
 90
        4
 91
        0
  1

274
    -2
284
     1
 64
     0
275
    -2
285
     1
 65
     0
276
    -2
286
     1
 66
     0
277
    -2
287
     1
 67
     0
278
    -2
288
     1
 68
     0
279
    -2
289
     1
 69
     0
  7
Standard
140
4.5
170
     5
 62
     0
 63
   257
283
     0
 90
        4
 91
        0
  1

274
    -2
284
     1
 64
     0
275
    -2
285
     1
 65
     0
276
    -2
286
     1
 66
     0
277
    -2
287
     1
 67
     0
278
    -2
288
     1
 68
     0
279
    -2
289
     1
 69
     0
  0
VISUALSTYLE
  5
26C
102
{ACAD_REACTORS
330
267
102
}
330
267
100
AcDbVisualStyle
  2
2dWireframe
 70
     4
 71
     0
 72
     2
 73
     0
 90
        0
 40
-0.6
 41
-30.0
 62
     5
 63
     7
421
 16777215
 74
     1
 91
        4
 64
     7
 65
   257
 75
     1
175
     1
 42
1.0
 92
        0
 66
   257
 43
1.0
 76
     1
 77
     6
 78
     2
 67
     7
 79
     5
170
     0
171
     0
290
     0
174
     0
 93
        1
 44
0.0
173
     0
291
     0
 45
0.0
  0
VISUALSTYLE
  5
26E
102
{ACAD_REACTORS
330
267
102
}
330
267
100
AcDbVisualStyle
  2
3D Hidden
 70
     6
 71
     1
 72
     2
 73
     2
 90
        0
 40
-0.6
 41
-30.0
 62
     5
 63
     7
421
 16777215
 74
     2
 91
        2
 64
     7
 65
   257
 75
     2
175
     1
 42
40.0
 92
        0
 66
   257
 43
1.0
 76
     1
 77
     6
 78
     2
 67
     7
 79
     3
170
     0
171
     0
290
     0
174
     0
 93
        1
 44
0.0
173
     0
291
     0
 45
0.0
  0
VISUALSTYLE
  5
26D
102
{ACAD_REACTORS
330
267
102
}
330
267
100
AcDbVisualStyle
  2
3dWireframe
 70
     5
 71
     0
 72
     2
 73
     0
 90
        0
 40
-0.6
 41
-30.0
 62
     5
 63
     7
421
 16777215
 74
     1
 91
        4
 64
     7
 65
   257
 75
     1
175
     1
 42
1.0
 92
        0
 66
   257
 43
1.0
 76
     1
 77
     6
 78
     2
 67
     7
 79
     5
170
     0
171
     0
290
     0
174
     0
 93
        1
 44
0.0
173
     0
291
     0
 45
0.0
  0
VISUALSTYLE
  5
26F
102
{ACAD_REACTORS
330
267
102
}
330
267
100
AcDbVisualStyle
  2
Basic
 70
     7
 71
     1
 72
     0
 73
     1
 90
        0
 40
-0.6
 41
-30.0
 62
     5
 63
     7
421
 16777215
 74
     0
 91
        4
 64
     7
 65
   257
 75
     1
175
     1
 42
1.0
 92
        8
 66
     7
 43
1.0
 76
     1
 77
     6
 78
     2
 67
     7
 79
     5
170
     0
171
     0
290
     0
174
     0
 93
        1
 44
0.0
173
     0
291
     1
 45
0.0
  0
VISUALSTYLE
  5
273
102
{ACAD_REACTORS
330
267
102
}
330
267
100
AcDbVisualStyle
  2
Brighten
 70
    12
 71
     2
 72
     2
 73
     0
 90
        0
 40
-0.6
 41
-30.0
 62
     5
 63
     7
421
 16777215
 74
     1
 91
        4
 64
     7
 65
   257
 75
     1
175
     1
 42
1.0
 92
        8
 66
     7
 43
1.0
 76
     1
 77
     6
 78
     2
 67
     7
 79
     5
170
     0
171
     0
290
     0
174
     0
 93
        1
 44
50.0
173
     0
291
     1
 45
0.0
  0
VISUALSTYLE
  5
277
102
{ACAD_REACTORS
330
267
102
}
330
267
100
AcDbVisualStyle
  2
ColorChange
 70
    16
 71
     2
 72
     2
 73
     3
 90
        0
 40
-0.6
 41
-30.0
 62
     5
 63
     8
421
  8421504
 74
     1
 91
        4
 64
     7
 65
   257
 75
     1
175
     1
 42
1.0
 92
        8
 66
     8
424
  8421504
 43
1.0
 76
     1
 77
     6
 78
     2
 67
     7
 79
     5
170
     0
171
     0
290
     0
174
     0
 93
        1
 44
0.0
173
     0
291
     1
 45
0.0
  0
VISUALSTYLE
  5
271
102
{ACAD_REACTORS
330
267
102
}
330
267
100
AcDbVisualStyle
  2
Conceptual
 70
     9
 71
     3
 72
     2
 73
     0
 90
        0
 40
-0.6
 41
-30.0
 62
     5
 63
     7
421
 16777215
 74
     2
 91
        2
 64
     7
 65
   257
 75
     1
175
     1
 42
40.0
 92
        8
 66
     7
 43
1.0
 76
     1
 77
     6
 78
     2
 67
     7
 79
     3
170
     0
171
     0
290
     0
174
     0
 93
        1
 44
0.0
173
     0
291
     0
 45
0.0
  0
VISUALSTYLE
  5
272
102
{ACAD_REACTORS
330
267
102
}
330
267
100
AcDbVisualStyle
  2
Dim
 70
    11
 71
     2
 72
     2
 73
     0
 90
        0
 40
-0.6
 41
-30.0
 62
     5
 63
     7
421
 16777215
 74
     1
 91
        4
 64
     7
 65
   257
 75
     1
175
     1
 42
1.0
 92
        8
 66
     7
 43
1.0
 76
     1
 77
     6
 78
     2
 67
     7
 79
     5
170
     0
171
     0
290
     0
174
     0
 93
        1
 44
-50.0
173
     0
291
     1
 45
0.0
  0
VISUALSTYLE
  5
10E2
102
{ACAD_REACTORS
330
267
102
}
330
267
100
AcDbVisualStyle
  2
EdgeColorOff
 70
    22
 71
     2
 72
     2
 73
     0
 90
        0
 40
0.6
 41
30.0
 62
     5
 63
     7
421
 16777215
 74
     1
 91
        4
 64
     7
 65
   257
 75
     1
175
     1
 42
1.0
 92
        8
 66
     7
 43
1.0
 76
     1
 77
     6
 78
     2
 67
     7
 79
     5
170
     0
171
     0
290
     0
174
     0
 93
        1
 44
0.0
173
     0
291
     1
 45
0.0
  0
VISUALSTYLE
  5
276
102
{ACAD_REACTORS
330
267
102
}
330
267
100
AcDbVisualStyle
  2
Facepattern
 70
    15
 71
     2
 72
     2
 73
     0
 90
        0
 40
-0.6
 41
-30.0
 62
     5
 63
     7
421
 16777215
 74
     1
 91
        4
 64
     7
 65
   257
 75
     1
175
     1
 42
1.0
 92
        8
 66
     7
 43
1.0
 76
     1
 77
     6
 78
     2
 67
     7
 79
     5
170
     0
171
     0
290
     0
174
     0
 93
        1
 44
0.0
173
     0
291
     1
 45
0.0
  0
VISUALSTYLE
  5
268
102
{ACAD_REACTORS
330
267
102
}
330
267
100
AcDbVisualStyle
  2
Flat
 70
     0
 71
     2
 72
     1
 73
     1
 90
        2
 40
-0.6
 41
30.0
 62
     5
 63
     7
421
 16777215
 74
     0
 91
        4
 64
     7
 65
   257
 75
     1
175
     1
 42
1.0
 92
        8
 66
     7
 43
1.0
 76
     1
 77
     6
 78
     2
 67
     7
 79
     5
170
     0
171
     0
290
     0
174
     0
 93
       13
 44
0.0
173
     0
291
     1
 45
0.0
  0
VISUALSTYLE
  5
269
102
{ACAD_REACTORS
330
267
102
}
330
267
100
AcDbVisualStyle
  2
FlatWithEdges
 70
     1
 71
     2
 72
     1
 73
     1
 90
        2
 40
-0.6
 41
30.0
 62
     5
 63
     7
421
 16777215
 74
     1
 91
        4
 64
     7
 65
   257
 75
     1
175
     1
 42
1.0
 92
        0
 66
   257
 43
1.0
 76
     1
 77
     6
 78
     2
 67
     7
 79
     5
170
     0
171
     0
290
     0
174
     0
 93
       13
 44
0.0
173
     0
291
     1
 45
0.0
  0
VISUALSTYLE
  5
26A
102
{ACAD_REACTORS
330
267
102
}
330
267
100
AcDbVisualStyle
  2
Gouraud
 70
     2
 71
     2
 72
     2
 73
     1
 90
        2
 40
-0.6
 41
30.0
 62
     5
 63
     7
421
 16777215
 74
     0
 91
        4
 64
     7
 65
   257
 75
     1
175
     1
 42
1.0
 92
        0
 66
     7
 43
1.0
 76
     1
 77
     6
 78
     2
 67
     7
 79
     5
170
     0
171
     0
290
     0
174
     0
 93
       13
 44
0.0
173
     0
291
     1
 45
0.0
  0
VISUALSTYLE
  5
26B
102
{ACAD_REACTORS
330
267
102
}
330
267
100
AcDbVisualStyle
  2
GouraudWithEdges
 70
     3
 71
     2
 72
     2
 73
     1
 90
        2
 40
-0.6
 41
30.0
 62
     5
 63
     7
421
 16777215
 74
     1
 91
        4
 64
     7
 65
   257
 75
     1
175
     1
 42
1.0
 92
        0
 66
   257
 43
1.0
 76
     1
 77
     6
 78
     2
 67
     7
 79
     5
170
     0
171
     0
290
     0
174
     0
 93
       13
 44
0.0
173
     0
291
     1
 45
0.0
  0
VISUALSTYLE
  5
10DF
102
{ACAD_REACTORS
330
267
102
}
330
267
100
AcDbVisualStyle
  2
Hidden
 70
     6
 71
     1
 72
     2
 73
     2
 90
        0
 40
0.6
 41
30.0
 62
     5
 63
     7
421
 16777215
 74
     2
 91
        2
 64
     7
 65
   257
 75
     2
175
     1
 42
40.0
 92
        0
 66
   257
 43
1.0
 76
     1
 77
     6
 78
     2
 67
     7
 79
     3
170
     0
171
     0
290
     0
174
     0
 93
        1
 44
0.0
173
     0
291
     0
 45
0.0
  0
VISUALSTYLE
  5
10E0
102
{ACAD_REACTORS
330
267
102
}
330
267
100
AcDbVisualStyle
  2
JitterOff
 70
    20
 71
     2
 72
     2
 73
     0
 90
        0
 40
0.6
 41
30.0
 62
     5
 63
     7
421
 16777215
 74
     1
 91
        4
 64
     7
 65
   257
 75
     1
175
     1
 42
1.0
 92
       10
 66
     7
 43
1.0
 76
     1
 77
     6
 78
     2
 67
     7
 79
     5
170
     0
171
     0
290
     0
174
     0
 93
        1
 44
0.0
173
     0
291
     1
 45
0.0
  0
VISUALSTYLE
  5
275
102
{ACAD_REACTORS
330
267
102
}
330
267
100
AcDbVisualStyle
  2
Linepattern
 70
    14
 71
     2
 72
     2
 73
     0
 90
        0
 40
-0.6
 41
-30.0
 62
     5
 63
     7
421
 16777215
 74
     1
 91
        4
 64
     7
 65
   257
 75
     7
175
     7
 42
1.0
 92
        8
 66
     7
 43
1.0
 76
     1
 77
     6
 78
     2
 67
     7
 79
     5
170
     0
171
     0
290
     0
174
     0
 93
        1
 44
0.0
173
     0
291
     1
 45
0.0
  0
VISUALSTYLE
  5
10E1
102
{ACAD_REACTORS
330
267
102
}
330
267
100
AcDbVisualStyle
  2
OverhangOff
 70
    21
 71
     2
 72
     2
 73
     0
 90
        0
 40
0.6
 41
30.0
 62
     5
 63
     7
421
 16777215
 74
     1
 91
        4
 64
     7
 65
   257
 75
     1
175
     1
 42
1.0
 92
        9
 66
     7
 43
1.0
 76
     1
 77
     6
 78
     2
 67
     7
 79
     5
170
     0
171
     0
290
     0
174
     0
 93
        1
 44
0.0
173
     0
291
     1
 45
0.0
  0
VISUALSTYLE
  5
270
102
{ACAD_REACTORS
330
267
102
}
330
267
100
AcDbVisualStyle
  2
Realistic
 70
     8
 71
     2
 72
     2
 73
     0
 90
        0
 40
-0.6
 41
-30.0
 62
     5
 63
     7
421
 16777215
 74
     1
 91
        0
 64
     7
 65
   257
 75
     1
175
     1
 42
1.0
 92
        8
 66
     8
424
  7895160
 43
1.0
 76
     1
 77
     6
 78
     2
 67
     7
 79
     5
170
     0
171
     0
290
     0
174
     0
 93
       13
 44
0.0
173
     0
291
     0
 45
0.0
  0
VISUALSTYLE
  5
10E7
102
{ACAD_REACTORS
330
267
102
}
330
267
100
AcDbVisualStyle
  2
Shaded
 70
    27
 71
     2
 72
     2
 73
     1
 90
        2
 40
0.6
 41
30.0
 62
     5
 63
     7
421
 16777215
 74
     0
 91
        4
 64
     7
 65
   257
 75
     1
175
     1
 42
1.0
 92
        8
 66
   257
 43
1.0
 76
     1
 77
     6
 78
     2
 67
     8
425
  7895160
 79
     3
170
     0
171
     0
290
     0
174
     0
 93
        5
 44
0.0
173
     0
291
     0
 45
0.0
  0
VISUALSTYLE
  5
10E6
102
{ACAD_REACTORS
330
267
102
}
330
267
100
AcDbVisualStyle
  2
Shaded with edges
 70
    26
 71
     2
 72
     2
 73
     1
 90
        2
 40
0.6
 41
30.0
 62
     5
 63
     7
421
 16777215
 74
     1
 91
       10
 64
     7
 65
   257
 75
     2
175
     1
 42
1.0
 92
        8
 66
   257
 43
1.0
 76
     1
 77
     6
 78
     2
 67
     7
 79
     3
170
     0
171
     0
290
     0
174
     0
 93
        5
 44
0.0
173
     0
291
     0
 45
0.0
  0
VISUALSTYLE
  5
10E3
102
{ACAD_REACTORS
330
267
102
}
330
267
100
AcDbVisualStyle
  2
Shades of Gray
 70
    23
 71
     2
 72
     2
 73
     3
 90
        0
 40
0.6
 41
30.0
 62
     5
 63
     7
421
 16777215
 74
     2
 91
        2
 64
     7
 65
     7
 75
     1
175
     1
 42
40.0
 92
        8
 66
     7
 43
1.0
 76
     1
 77
     6
 78
     2
 67
     7
 79
     3
170
     0
171
     0
290
     0
174
     0
 93
        1
 44
0.0
173
     0
291
     0
 45
0.0
  0
VISUALSTYLE
  5
10E4
102
{ACAD_REACTORS
330
267
102
}
330
267
100
AcDbVisualStyle
  2
Sketchy
 70
    24
 71
     1
 72
     2
 73
     2
 90
        0
 40
0.6
 41
30.0
 62
     5
 63
     7
421
 16777215
 74
     2
 91
        2
 64
     7
 65
     7
 75
     1
175
     1
 42
40.0
 92
       11
 66
     7
 43
1.0
 76
     1
 77
     6
 78
     2
 67
     7
 79
     6
170
     0
171
     0
290
     0
174
     0
 93
        1
 44
0.0
173
     0
291
     0
 45
0.0
  0
VISUALSTYLE
  5
274
102
{ACAD_REACTORS
330
267
102
}
330
267
100
AcDbVisualStyle
  2
Thicken
 70
    13
 71
     2
 72
     2
 73
     0
 90
        0
 40
-0.6
 41
-30.0
 62
     5
 63
     7
421
 16777215
 74
     1
 91
        4
 64
     7
 65
   257
 75
     1
175
     1
 42
1.0
 92
       12
 66
     7
 43
1.0
 76
     1
 77
     6
 78
     2
 67
     7
 79
     5
170
     0
171
     0
290
     0
174
     0
 93
        1
 44
0.0
173
     0
291
     1
 45
0.0
  0
VISUALSTYLE
  5
10DE
102
{ACAD_REACTORS
330
267
102
}
330
267
100
AcDbVisualStyle
  2
Wireframe
 70
     5
 71
     0
 72
     2
 73
     0
 90
        0
 40
0.6
 41
30.0
 62
     5
 63
     7
421
 16777215
 74
     1
 91
        4
 64
     7
 65
   257
 75
     1
175
     1
 42
1.0
 92
        0
 66
   257
 43
1.0
 76
     1
 77
     6
 78
     2
 67
     7
 79
     3
170
     0
171
     0
290
     0
174
     0
 93
        1
 44
0.0
173
     0
291
     0
 45
0.0
  0
VISUALSTYLE
  5
10E5
102
{ACAD_REACTORS
330
267
102
}
330
267
100
AcDbVisualStyle
  2
X-Ray
 70
    25
 71
     2
 72
     2
 73
     1
 90
        1
 40
0.5
 41
30.0
 62
     5
 63
     7
421
 16777215
 74
     1
 91
        0
 64
     7
 65
   257
 75
     1
175
     1
 42
1.0
 92
        8
 66
     7
 43
1.0
 76
     1
 77
     6
 78
     2
 67
     7
 79
     3
170
     0
171
     0
290
     0
174
     0
 93
       13
 44
0.0
173
     0
291
     0
 45
0.0
  0
DICTIONARYVAR
  5
331
102
{ACAD_REACTORS
330
330
102
}
330
330
100
DictionaryVariables
280
     0
  1
1:1
  0
DICTIONARYVAR
  5
41C8
102
{ACAD_REACTORS
330
330
102
}
330
330
100
DictionaryVariables
280
     0
  1
Standard
  0
DICTIONARYVAR
  5
335
102
{ACAD_REACTORS
330
330
102
}
330
330
100
DictionaryVariables
280
     0
  1
Standard
  0
DICTIONARYVAR
  5
109E
102
{ACAD_REACTORS
330
330
102
}
330
330
100
DictionaryVariables
280
     0
  1
0
  0
FIELD
  5
5457
102
{ACAD_REACTORS
330
645A
102
}
330
645A
100
AcDbField
  1
_text
  2
{%<\_FldIdx 0>%N}
 90
        1
360
545B
 97
        0
 91
       63
 92
        0
 94
       11
 95
        2
 96
        0
300

 93
        1
  6
ACFD_FIELDTEXT_CHECKSUM
 93
        2
 90
        2
140
4566.0
 94
        0
300

302

304
ACVALUE_END
  7
ACFD_FIELD_VALUE
 93
        6
 90
        4
  1
{20180808N}
 94
        0
300

302

304
ACVALUE_END
301
{20180808N}
 98
       11
  0
DICTIONARY
  5
6475
330
279
100
AcDbDictionary
280
     1
281
     1
  3
ACAD_ROUNDTRIP_2008_TABLESTYLE_CELLSTYLEMAP
360
6476
  0
FIELD
  5
545B
330
5457
100
AcDbField
  1
AcVar
  2
\AcVar Date \f "yyyyMMdd"
 90
        0
 97
        0
 91
       63
 92
        0
 94
       11
 95
       64
 96
        0
300
Variable not supported
 93
        1
  6
Variable
 93
        2
 90
        4
  1
Date
 94
        0
300

302

304
ACVALUE_END
  7
ACFD_FIELD_VALUE
 93
        6
 90
        8
 92
       16
310
E2070800000007000F0005002F000000
 94
        0
300
yyyyMMdd
302

304
ACVALUE_END
301
20180808
 98
        8
  0
CELLSTYLEMAP
  5
6476
102
{ACAD_REACTORS
330
6475
102
}
330
6475
100
AcDbCellStyleMap
 90
        3
300
CELLSTYLE
  1
TABLEFORMAT_BEGIN
 90
        5
170
     1
 91
        0
 92
    32768
 62
   257
 93
        1
300
CONTENTFORMAT
  1
CONTENTFORMAT_BEGIN
 90
        0
 91
        0
 92
        4
 93
        0
300

 40
0.0
140
1.0
 94
        5
 62
     0
340
17
144
6.0
309
CONTENTFORMAT_END
171
     1
301
MARGIN
  1
CELLMARGIN_BEGIN
 40
0.06
 40
0.06
 40
0.06
 40
0.06
 40
0.18
 40
0.18
309
CELLMARGIN_END
 94
        6
 95
        1
302
GRIDFORMAT
  1
GRIDFORMAT_BEGIN
 90
        0
 91
        1
 62
     0
 92
       -2
340
0
 93
        0
 40
0.045
309
GRIDFORMAT_END
 95
        2
302
GRIDFORMAT
  1
GRIDFORMAT_BEGIN
 90
        0
 91
        1
 62
     0
 92
       -2
340
0
 93
        0
 40
0.045
309
GRIDFORMAT_END
 95
        4
302
GRIDFORMAT
  1
GRIDFORMAT_BEGIN
 90
        0
 91
        1
 62
     0
 92
       -2
340
0
 93
        0
 40
0.045
309
GRIDFORMAT_END
 95
        8
302
GRIDFORMAT
  1
GRIDFORMAT_BEGIN
 90
        0
 91
        1
 62
     0
 92
       -2
340
0
 93
        0
 40
0.045
309
GRIDFORMAT_END
 95
       16
302
GRIDFORMAT
  1
GRIDFORMAT_BEGIN
 90
        0
 91
        1
 62
     0
 92
       -2
340
0
 93
        0
 40
0.045
309
GRIDFORMAT_END
 95
       32
302
GRIDFORMAT
  1
GRIDFORMAT_BEGIN
 90
        0
 91
        1
 62
     0
 92
       -2
340
0
 93
        0
 40
0.045
309
GRIDFORMAT_END
309
TABLEFORMAT_END
  1
CELLSTYLE_BEGIN
 90
        1
 91
        1
300
_TITLE
309
CELLSTYLE_END
300
CELLSTYLE
  1
TABLEFORMAT_BEGIN
 90
        5
170
     1
 91
        0
 92
        0
 62
   257
 93
        1
300
CONTENTFORMAT
  1
CONTENTFORMAT_BEGIN
 90
        0
 91
        0
 92
        4
 93
        0
300

 40
0.0
140
1.0
 94
        5
 62
     0
340
17
144
4.5
309
CONTENTFORMAT_END
171
     1
301
MARGIN
  1
CELLMARGIN_BEGIN
 40
0.06
 40
0.06
 40
0.06
 40
0.06
 40
0.18
 40
0.18
309
CELLMARGIN_END
 94
        6
 95
        1
302
GRIDFORMAT
  1
GRIDFORMAT_BEGIN
 90
        0
 91
        1
 62
     0
 92
       -2
340
0
 93
        0
 40
0.045
309
GRIDFORMAT_END
 95
        2
302
GRIDFORMAT
  1
GRIDFORMAT_BEGIN
 90
        0
 91
        1
 62
     0
 92
       -2
340
0
 93
        0
 40
0.045
309
GRIDFORMAT_END
 95
        4
302
GRIDFORMAT
  1
GRIDFORMAT_BEGIN
 90
        0
 91
        1
 62
     0
 92
       -2
340
0
 93
        0
 40
0.045
309
GRIDFORMAT_END
 95
        8
302
GRIDFORMAT
  1
GRIDFORMAT_BEGIN
 90
        0
 91
        1
 62
     0
 92
       -2
340
0
 93
        0
 40
0.045
309
GRIDFORMAT_END
 95
       16
302
GRIDFORMAT
  1
GRIDFORMAT_BEGIN
 90
        0
 91
        1
 62
     0
 92
       -2
340
0
 93
        0
 40
0.045
309
GRIDFORMAT_END
 95
       32
302
GRIDFORMAT
  1
GRIDFORMAT_BEGIN
 90
        0
 91
        1
 62
     0
 92
       -2
340
0
 93
        0
 40
0.045
309
GRIDFORMAT_END
309
TABLEFORMAT_END
  1
CELLSTYLE_BEGIN
 90
        2
 91
        1
300
_HEADER
309
CELLSTYLE_END
300
CELLSTYLE
  1
TABLEFORMAT_BEGIN
 90
        5
170
     1
 91
        0
 92
        0
 62
   257
 93
        1
300
CONTENTFORMAT
  1
CONTENTFORMAT_BEGIN
 90
        0
 91
        0
 92
        4
 93
        0
300

 40
0.0
140
1.0
 94
        2
 62
     0
340
17
144
4.5
309
CONTENTFORMAT_END
171
     1
301
MARGIN
  1
CELLMARGIN_BEGIN
 40
0.06
 40
0.06
 40
0.06
 40
0.06
 40
0.18
 40
0.18
309
CELLMARGIN_END
 94
        6
 95
        1
302
GRIDFORMAT
  1
GRIDFORMAT_BEGIN
 90
        0
 91
        1
 62
     0
 92
       -2
340
0
 93
        0
 40
0.045
309
GRIDFORMAT_END
 95
        2
302
GRIDFORMAT
  1
GRIDFORMAT_BEGIN
 90
        0
 91
        1
 62
     0
 92
       -2
340
0
 93
        0
 40
0.045
309
GRIDFORMAT_END
 95
        4
302
GRIDFORMAT
  1
GRIDFORMAT_BEGIN
 90
        0
 91
        1
 62
     0
 92
       -2
340
0
 93
        0
 40
0.045
309
GRIDFORMAT_END
 95
        8
302
GRIDFORMAT
  1
GRIDFORMAT_BEGIN
 90
        0
 91
        1
 62
     0
 92
       -2
340
0
 93
        0
 40
0.045
309
GRIDFORMAT_END
 95
       16
302
GRIDFORMAT
  1
GRIDFORMAT_BEGIN
 90
        0
 91
        1
 62
     0
 92
       -2
340
0
 93
        0
 40
0.045
309
GRIDFORMAT_END
 95
       32
302
GRIDFORMAT
  1
GRIDFORMAT_BEGIN
 90
        0
 91
        1
 62
     0
 92
       -2
340
0
 93
        0
 40
0.045
309
GRIDFORMAT_END
309
TABLEFORMAT_END
  1
CELLSTYLE_BEGIN
 90
        3
 91
        2
300
_DATA
309
CELLSTYLE_END
  0
ENDSEC
  0
EOF
