  0
SECTION
  2
HEADER
  9
$ACADVER
  1
AC1021
  9
$ACADMAINTVER
 70
    25
  9
$DWGCODEPAGE
  3
ANSI_932
  9
$LASTSAVEDBY
  1
howeNelson
  9
$INSBASE
 10
0.0
 20
0.0
 30
0.0
  9
$EXTMIN
 10
0.0
 20
0.0
 30
0.0
  9
$EXTMAX
 10
593.9999999999999
 20
420.0
 30
0.0
  9
$LIMMIN
 10
0.0
 20
0.0
  9
$LIMMAX
 10
593.9999999999999
 20
420.0
  9
$ORTHOMODE
 70
     0
  9
$REGENMODE
 70
     1
  9
$FILLMODE
 70
     1
  9
$QTEXTMODE
 70
     0
  9
$MIRRTEXT
 70
     1
  9
$LTSCALE
 40
0.5
  9
$ATTMODE
 70
     1
  9
$TEXTSIZE
 40
2.5
  9
$TRACEWID
 40
1.0
  9
$TEXTSTYLE
  7
ＭＳ ゴシック
  9
$CLAYER
  8
寸法
  9
$CELTYPE
  6
ByLayer
  9
$CECOLOR
 62
   256
  9
$CELTSCALE
 40
1.0
  9
$DISPSILH
 70
     0
  9
$DIMSCALE
 40
1.0
  9
$DIMASZ
 40
2.0
  9
$DIMEXO
 40
5.0
  9
$DIMDLI
 40
0.9999999999999999
  9
$DIMRND
 40
0.0
  9
$DIMDLE
 40
0.0
  9
$DIMEXE
 40
0.0
  9
$DIMTP
 40
0.0
  9
$DIMTM
 40
0.0
  9
$DIMTXT
 40
5.0
  9
$DIMCEN
 40
0.0
  9
$DIMTSZ
 40
0.0
  9
$DIMTOL
 70
     0
  9
$DIMLIM
 70
     0
  9
$DIMTIH
 70
     0
  9
$DIMTOH
 70
     0
  9
$DIMSE1
 70
     0
  9
$DIMSE2
 70
     0
  9
$DIMTAD
 70
     1
  9
$DIMZIN
 70
    11
  9
$DIMBLK
  1
DOT
  9
$DIMASO
 70
     1
  9
$DIMSHO
 70
     1
  9
$DIMPOST
  1
<>
  9
$DIMAPOST
  1
[]
  9
$DIMALT
 70
     0
  9
$DIMALTD
 70
     1
  9
$DIMALTF
 40
1.0
  9
$DIMLFAC
 40
1.0
  9
$DIMTOFL
 70
     0
  9
$DIMTVP
 40
0.0
  9
$DIMTIX
 70
     1
  9
$DIMSOXD
 70
     0
  9
$DIMSAH
 70
     0
  9
$DIMBLK1
  1

  9
$DIMBLK2
  1

  9
$DIMSTYLE
  2
tfrom線あり
  9
$DIMCLRD
 70
     0
  9
$DIMCLRE
 70
     0
  9
$DIMCLRT
 70
     0
  9
$DIMTFAC
 40
1.0
  9
$DIMGAP
 40
3.0
  9
$DIMJUST
 70
     0
  9
$DIMSD1
 70
     0
  9
$DIMSD2
 70
     0
  9
$DIMTOLJ
 70
     1
  9
$DIMTZIN
 70
    11
  9
$DIMALTZ
 70
    11
  9
$DIMALTTZ
 70
    11
  9
$DIMUPT
 70
     0
  9
$DIMDEC
 70
     0
  9
$DIMTDEC
 70
     1
  9
$DIMALTU
 70
     2
  9
$DIMALTTD
 70
     2
  9
$DIMTXSTY
  7
ＭＳ ゴシック
  9
$DIMAUNIT
 70
     0
  9
$DIMADEC
 70
     2
  9
$DIMALTRND
 40
0.0
  9
$DIMAZIN
 70
     0
  9
$DIMDSEP
 70
    46
  9
$DIMATFIT
 70
     0
  9
$DIMFRAC
 70
     2
  9
$DIMLDRBLK
  1
DOT
  9
$DIMLUNIT
 70
     2
  9
$DIMLWD
 70
    -2
  9
$DIMLWE
 70
    -2
  9
$DIMTMOVE
 70
     0
  9
$DIMFXL
 40
1.0
  9
$DIMFXLON
 70
     0
  9
$DIMJOGANG
 40
0.7853981633974483
  9
$DIMTFILL
 70
     0
  9
$DIMTFILLCLR
 70
     0
  9
$DIMARCSYM
 70
     0
  9
$DIMLTYPE
  6

  9
$DIMLTEX1
  6

  9
$DIMLTEX2
  6

  9
$LUNITS
 70
     2
  9
$LUPREC
 70
     0
  9
$SKETCHINC
 40
0.1
  9
$FILLETRAD
 40
0.0
  9
$AUNITS
 70
     0
  9
$AUPREC
 70
     0
  9
$MENU
  1
acad
  9
$ELEVATION
 40
0.0
  9
$PELEVATION
 40
0.0
  9
$THICKNESS
 40
0.0
  9
$LIMCHECK
 70
     0
  9
$CHAMFERA
 40
0.0
  9
$CHAMFERB
 40
0.0
  9
$CHAMFERC
 40
0.0
  9
$CHAMFERD
 40
0.0
  9
$SKPOLY
 70
     0
  9
$TDCREATE
 40
2447893.375
  9
$TDUCREATE
 40
0.0
  9
$TDUPDATE
 40
2458389.738860903
  9
$TDUUPDATE
 40
2458389.363860903
  9
$TDINDWG
 40
0.8290161458
  9
$TDUSRTIMER
 40
0.0000065856
  9
$USRTIMER
 70
     1
  9
$ANGBASE
 50
0.0
  9
$ANGDIR
 70
     0
  9
$PDMODE
 70
     1
  9
$PDSIZE
 40
-2.0
  9
$PLINEWID
 40
0.0
  9
$SPLFRAME
 70
     0
  9
$SPLINETYPE
 70
     6
  9
$SPLINESEGS
 70
     8
  9
$HANDSEED
  5
5E7C
  9
$SURFTAB1
 70
     6
  9
$SURFTAB2
 70
     6
  9
$SURFTYPE
 70
     6
  9
$SURFU
 70
     6
  9
$SURFV
 70
     6
  9
$UCSBASE
  2

  9
$UCSNAME
  2

  9
$UCSORG
 10
0.0
 20
0.0
 30
0.0
  9
$UCSXDIR
 10
1.0
 20
0.0
 30
0.0
  9
$UCSYDIR
 10
0.0
 20
1.0
 30
0.0
  9
$UCSORTHOREF
  2

  9
$UCSORTHOVIEW
 70
     0
  9
$UCSORGTOP
 10
0.0
 20
0.0
 30
0.0
  9
$UCSORGBOTTOM
 10
0.0
 20
0.0
 30
0.0
  9
$UCSORGLEFT
 10
0.0
 20
0.0
 30
0.0
  9
$UCSORGRIGHT
 10
0.0
 20
0.0
 30
0.0
  9
$UCSORGFRONT
 10
0.0
 20
0.0
 30
0.0
  9
$UCSORGBACK
 10
0.0
 20
0.0
 30
0.0
  9
$PUCSBASE
  2

  9
$PUCSNAME
  2

  9
$PUCSORG
 10
0.0
 20
0.0
 30
0.0
  9
$PUCSXDIR
 10
1.0
 20
0.0
 30
0.0
  9
$PUCSYDIR
 10
0.0
 20
1.0
 30
0.0
  9
$PUCSORTHOREF
  2

  9
$PUCSORTHOVIEW
 70
     0
  9
$PUCSORGTOP
 10
0.0
 20
0.0
 30
0.0
  9
$PUCSORGBOTTOM
 10
0.0
 20
0.0
 30
0.0
  9
$PUCSORGLEFT
 10
0.0
 20
0.0
 30
0.0
  9
$PUCSORGRIGHT
 10
0.0
 20
0.0
 30
0.0
  9
$PUCSORGFRONT
 10
0.0
 20
0.0
 30
0.0
  9
$PUCSORGBACK
 10
0.0
 20
0.0
 30
0.0
  9
$USERI1
 70
     0
  9
$USERI2
 70
     0
  9
$USERI3
 70
     0
  9
$USERI4
 70
     0
  9
$USERI5
 70
     0
  9
$USERR1
 40
0.0
  9
$USERR2
 40
0.0
  9
$USERR3
 40
0.0
  9
$USERR4
 40
0.0
  9
$USERR5
 40
0.0
  9
$WORLDVIEW
 70
     1
  9
$SHADEDGE
 70
     3
  9
$SHADEDIF
 70
    70
  9
$TILEMODE
 70
     1
  9
$MAXACTVP
 70
    64
  9
$PINSBASE
 10
0.0
 20
0.0
 30
0.0
  9
$PLIMCHECK
 70
     0
  9
$PEXTMIN
 10
0.0
 20
0.0
 30
0.0
  9
$PEXTMAX
 10
0.0
 20
0.0
 30
0.0
  9
$PLIMMIN
 10
-7.5
 20
-20.0
  9
$PLIMMAX
 10
412.5
 20
277.0
  9
$UNITMODE
 70
     0
  9
$VISRETAIN
 70
     0
  9
$PLINEGEN
 70
     1
  9
$PSLTSCALE
 70
     0
  9
$TREEDEPTH
 70
  3020
  9
$CMLSTYLE
  2
Standard
  9
$CMLJUST
 70
     0
  9
$CMLSCALE
 40
1.0
  9
$PROXYGRAPHICS
 70
     0
  9
$MEASUREMENT
 70
     1
  9
$CELWEIGHT
370
    -1
  9
$ENDCAPS
280
     0
  9
$JOINSTYLE
280
     0
  9
$LWDISPLAY
290
     1
  9
$INSUNITS
 70
     4
  9
$HYPERLINKBASE
  1

  9
$STYLESHEET
  1

  9
$XEDIT
290
     1
  9
$CEPSNTYPE
380
     0
  9
$PSTYLEMODE
290
     1
  9
$FINGERPRINTGUID
  2

  9
$VERSIONGUID
  2

  9
$EXTNAMES
290
     1
  9
$PSVPSCALE
 40
0.0
  9
$OLESTARTUP
290
     0
  9
$SORTENTS
280
   127
  9
$INDEXCTL
280
     0
  9
$HIDETEXT
280
     1
  9
$XCLIPFRAME
290
     0
  9
$HALOGAP
280
     0
  9
$OBSCOLOR
 70
   257
  9
$OBSLTYPE
280
     0
  9
$INTERSECTIONDISPLAY
280
     0
  9
$INTERSECTIONCOLOR
 70
   257
  9
$DIMASSOC
280
     2
  9
$PROJECTNAME
  1

  9
$CAMERADISPLAY
290
     0
  9
$LENSLENGTH
 40
50.0
  9
$CAMERAHEIGHT
 40
0.0
  9
$STEPSPERSEC
 40
2.0
  9
$STEPSIZE
 40
6.0
  9
$3DDWFPREC
 40
2.0
  9
$PSOLWIDTH
 40
0.25
  9
$PSOLHEIGHT
 40
4.0
  9
$LOFTANG1
 40
1.570796326794897
  9
$LOFTANG2
 40
1.570796326794897
  9
$LOFTMAG1
 40
0.0
  9
$LOFTMAG2
 40
0.0
  9
$LOFTPARAM
 70
     7
  9
$LOFTNORMALS
280
     1
  9
$LATITUDE
 40
37.795
  9
$LONGITUDE
 40
-122.394
  9
$NORTHDIRECTION
 40
0.0
  9
$TIMEZONE
 70
 -8000
  9
$LIGHTGLYPHDISPLAY
280
     1
  9
$TILEMODELIGHTSYNCH
280
     1
  9
$SOLIDHIST
280
     1
  9
$SHOWHIST
280
     1
  9
$DWFFRAME
280
     2
  9
$DGNFRAME
280
     2
  9
$REALWORLDSCALE
290
     1
  9
$INTERFERECOLOR
 62
   256
  9
$CSHADOW
280
     0
  9
$SHADOWPLANELOCATION
 40
0.0
  0
ENDSEC
  0
SECTION
  2
CLASSES
  0
CLASS
  1
LWPOLYLINE
  2
AcDbPolyline
  3
ObjectDBX Classes
 90
        0
 91
        1
280
     0
281
     1
  0
CLASS
  1
IMAGE
  2
AcDbRasterImage
  3
ISM
 90
      127
 91
        5
280
     0
281
     1
  0
CLASS
  1
OLE2FRAME
  2
AcDbOle2Frame
  3
ObjectDBX Classes
 90
        0
 91
        1
280
     0
281
     1
  0
CLASS
  1
HATCH
  2
AcDbHatch
  3
ObjectDBX Classes
 90
        0
 91
        1
280
     0
281
     1
  0
CLASS
  1
DICTIONARYVAR
  2
AcDbDictionaryVar
  3
ObjectDBX Classes
 90
        0
 91
        4
280
     0
281
     0
  0
CLASS
  1
RASTERVARIABLES
  2
AcDbRasterVariables
  3
ISM
 90
        0
 91
        4
280
     0
281
     0
  0
CLASS
  1
IMAGEDEF
  2
AcDbRasterImageDef
  3
ISM
 90
        0
 91
        4
280
     0
281
     0
  0
CLASS
  1
IMAGEDEF_REACTOR
  2
AcDbRasterImageDefReactor
  3
ISM
 90
        1
 91
        4
280
     0
281
     0
  0
CLASS
  1
IDBUFFER
  2
AcDbIdBuffer
  3
ObjectDBX Classes
 90
        0
 91
        4
280
     0
281
     0
  0
CLASS
  1
SPATIAL_FILTER
  2
AcDbSpatialFilter
  3
ObjectDBX Classes
 90
        0
 91
        4
280
     0
281
     0
  0
CLASS
  1
XRECORD
  2
AcDbXrecord
  3
ObjectDBX Classes
 90
        0
 91
        1
280
     0
281
     0
  0
CLASS
  1
SORTENTSTABLE
  2
AcDbSortentsTable
  3
ObjectDBX Classes
 90
        0
 91
        4
280
     0
281
     0
  0
CLASS
  1
LAYER_INDEX
  2
AcDbLayerIndex
  3
ObjectDBX Classes
 90
        0
 91
        4
280
     0
281
     0
  0
CLASS
  1
SPATIAL_INDEX
  2
AcDbSpatialIndex
  3
AutoCAD 2000
 90
        0
 91
        4
280
     0
281
     0
  0
CLASS
  1
OBJECT_PTR
  2
CAseDLPNTableRecord
  3
ASE-LPNTableRecord
 90
        1
 91
        4
280
     0
281
     0
  0
CLASS
  1
LAYOUT
  2
AcDbLayout
  3
ObjectDBX Classes
 90
        0
 91
        1
280
     0
281
     0
  0
CLASS
  1
PLOTSETTINGS
  2
AcDbPlotSettings
  3
ObjectDBX Classes
 90
        0
 91
        4
280
     0
281
     0
  0
CLASS
  1
ACDBDICTIONARYWDFLT
  2
AcDbDictionaryWithDefault
  3
ObjectDBX Classes
 90
        0
 91
        4
280
     0
281
     0
  0
CLASS
  1
ACDBPLACEHOLDER
  2
AcDbPlaceHolder
  3
ObjectDBX Classes
 90
        0
 91
        1
280
     0
281
     0
  0
CLASS
  1
SCALE
  2
AcDbScale
  3
ObjectDBX Classes
 90
     1153
 91
        4
280
     0
281
     0
  0
CLASS
  1
MATERIAL
  2
AcDbMaterial
  3
ObjectDBX Classes
 90
     1153
 91
        4
280
     0
281
     0
  0
CLASS
  1
VISUALSTYLE
  2
AcDbVisualStyle
  3
ObjectDBX Classes
 90
     4095
 91
        4
280
     0
281
     0
  0
CLASS
  1
TABLESTYLE
  2
AcDbTableStyle
  3
ObjectDBX Classes
 90
     4095
 91
        4
280
     0
281
     0
  0
CLASS
  1
DIMASSOC
  2
AcDbDimAssoc
  3
"AcDbDimAssoc|Product Desc:     AcDim ARX App For Dimension|Company:          Autodesk, Inc.|WEB Address:      www.autodesk.com"
 90
        0
 91
        4
280
     0
281
     0
  0
CLASS
  1
CELLSTYLEMAP
  2
AcDbCellStyleMap
  3
ObjectDBX Classes
 90
     1152
 91
        4
280
     0
281
     0
  0
CLASS
  1
SUN
  2
AcDbSun
  3
SCENEOE
 90
     1153
 91
        4
280
     0
281
     0
  0
CLASS
  1
MLEADERSTYLE
  2
AcDbMLeaderStyle
  3
ACDB_MLEADERSTYLE_CLASS
 90
     4095
 91
        4
280
     0
281
     0
  0
CLASS
  1
FIELD
  2
AcDbField
  3
ObjectDBX Classes
 90
     1152
 91
        4
280
     0
281
     0
  0
CLASS
  1
FIELDLIST
  2
AcDbFieldList
  3
ObjectDBX Classes
 90
     1152
 91
        4
280
     0
281
     0
  0
ENDSEC
  0
SECTION
  2
TABLES
  0
TABLE
  2
VPORT
  5
7
330
0
100
AcDbSymbolTable
 70
     1
  0
VPORT
  5
15
330
7
100
AcDbSymbolTableRecord
100
AcDbViewportTableRecord
  2
*ACTIVE
 70
     0
 10
0.0
 20
0.0
 11
1.0
 21
1.0
 12
296.9999999999999
 22
210.0
 13
0.0
 23
0.0
 14
1.0
 24
1.0
 15
0.0
 25
0.0
 16
0.0
 26
0.0
 36
1.0
 17
0.0
 27
0.0
 37
0.0
 40
428.4
 41
2.389057750759878
 42
50.0
 43
0.0
 44
0.0
 50
0.0
 51
0.0
 71
    16
 72
  2000
 73
     1
 74
     1
 75
     0
 76
     0
 77
     0
 78
     0
281
     0
 65
     1
110
0.0
120
0.0
130
0.0
111
1.0
121
0.0
131
0.0
112
0.0
122
1.0
132
0.0
 79
     0
146
0.0
348
26C
 60
     3
 61
     5
292
     1
282
     1
141
0.0
142
0.0
 63
   256
361
10E8
  0
ENDTAB
  0
TABLE
  2
LTYPE
  5
4
330
0
100
AcDbSymbolTable
 70
     3
  0
LTYPE
  5
11
330
4
100
AcDbSymbolTableRecord
100
AcDbLinetypeTableRecord
  2
ByBlock
 70
     0
  3

 72
    65
 73
     0
 40
0.0
  0
LTYPE
  5
12
330
4
100
AcDbSymbolTableRecord
100
AcDbLinetypeTableRecord
  2
ByLayer
 70
     0
  3
Solid line
 72
    65
 73
     0
 40
0.0
  0
LTYPE
  5
13
330
4
100
AcDbSymbolTableRecord
100
AcDbLinetypeTableRecord
  2
Continuous
 70
     0
  3
Solid line
 72
    65
 73
     0
 40
0.0
  0
LTYPE
  5
88D
330
4
100
AcDbSymbolTableRecord
100
AcDbLinetypeTableRecord
  2
CENTER
 70
     0
  3
----------  --  ----------  --  
 72
    65
 73
     4
 40
20.0
 49
12.5
 74
     0
 49
-2.5
 74
     0
 49
2.5
 74
     0
 49
-2.5
 74
     0
  0
LTYPE
  5
12C7
330
4
100
AcDbSymbolTableRecord
100
AcDbLinetypeTableRecord
  2
HIDDEN
 70
     0
  3
Hidden _ _ _ _ _ _ _ _ _ _ _ _ _ _ _ _ _ _ _ _ 
 72
    65
 73
     2
 40
9.524999999999999
 49
6.35
 74
     0
 49
-3.175
 74
     0
  0
ENDTAB
  0
TABLE
  2
LAYER
  5
2
102
{ACAD_XDICTIONARY
360
2E1
102
}
330
0
100
AcDbSymbolTable
 70
    10
  0
LAYER
  5
14
330
2
100
AcDbSymbolTableRecord
100
AcDbLayerTableRecord
  2
0
 70
     0
 62
     7
  6
Continuous
370
    -3
390
1D
347
266
  0
LAYER
  5
4A
330
2
100
AcDbSymbolTableRecord
100
AcDbLayerTableRecord
  2
Defpoints
 70
     0
 62
     7
  6
Continuous
290
     0
370
    -3
390
1D
347
266
  0
LAYER
  5
12CE
330
2
100
AcDbSymbolTableRecord
100
AcDbLayerTableRecord
  2
寸法
 70
     0
 62
     7
  6
Continuous
370
    13
390
1D
347
266
1001
AcAecLayerStandard
1000

1000

  0
LAYER
  5
12CF
330
2
100
AcDbSymbolTableRecord
100
AcDbLayerTableRecord
  2
モデル
 70
     0
 62
     7
  6
Continuous
370
    20
390
1D
347
266
1001
AcAecLayerStandard
1000

1000

  0
LAYER
  5
142A
330
2
100
AcDbSymbolTableRecord
100
AcDbLayerTableRecord
  2
テンプレート
 70
     0
 62
     7
  6
Continuous
370
    20
390
1D
347
266
1001
AcAecLayerStandard
1000

1000

  0
LAYER
  5
1D5C
330
2
100
AcDbSymbolTableRecord
100
AcDbLayerTableRecord
  2
TFORMLOGO
 70
     0
 62
     7
  6
Continuous
370
    20
390
1D
347
266
  0
LAYER
  5
3848
330
2
100
AcDbSymbolTableRecord
100
AcDbLayerTableRecord
  2
PRINT BORDER
 70
     0
 62
     4
  6
Continuous
290
     0
370
    -3
390
1D
347
266
1001
AcAecLayerStandard
1000

1000

  0
LAYER
  5
523E
330
2
100
AcDbSymbolTableRecord
100
AcDbLayerTableRecord
  2
HIDDEN
 70
     0
 62
   252
  6
HIDDEN
370
    20
390
1D
347
266
1001
AcAecLayerStandard
1000

1000

  0
LAYER
  5
59E7
330
2
100
AcDbSymbolTableRecord
100
AcDbLayerTableRecord
  2
CutoutOverlay
 70
     0
 62
     7
  6
Continuous
370
    20
390
1D
347
266
1001
AcAecLayerStandard
1000

1000

  0
LAYER
  5
59E8
330
2
100
AcDbSymbolTableRecord
100
AcDbLayerTableRecord
  2
CutoutUnderlay
 70
     0
 62
   254
  6
Continuous
370
    20
390
1D
347
266
1001
AcAecLayerStandard
1000

1000

  0
ENDTAB
  0
TABLE
  2
STYLE
  5
3
330
0
100
AcDbSymbolTable
 70
     2
  0
STYLE
  5
17
330
3
100
AcDbSymbolTableRecord
100
AcDbTextStyleTableRecord
  2
Standard
 70
     0
 40
0.0
 41
1.0
 50
0.0
 71
     0
 42
2.5
  3
txt
  4
BIGFONT.SHX
  0
STYLE
  5
39
330
3
100
AcDbSymbolTableRecord
100
AcDbTextStyleTableRecord
  2
ＭＳ ゴシック
 70
     0
 40
0.0
 41
1.0
 50
0.0
 71
     0
 42
2.5
  3
msgothic.ttc
  4
ＭＳ ゴシック
1001
ACAD
1000
ＭＳ ゴシック
1071
        0
  0
ENDTAB
  0
TABLE
  2
VIEW
  5
5
330
0
100
AcDbSymbolTable
 70
     0
  0
ENDTAB
  0
TABLE
  2
UCS
  5
6
330
0
100
AcDbSymbolTable
 70
     0
  0
ENDTAB
  0
TABLE
  2
APPID
  5
8
330
0
100
AcDbSymbolTable
 70
     3
  0
APPID
  5
16
330
8
100
AcDbSymbolTableRecord
100
AcDbRegAppTableRecord
  2
ACAD
 70
     0
  0
APPID
  5
7AC
330
8
100
AcDbSymbolTableRecord
100
AcDbRegAppTableRecord
  2
AcAecLayerStandard
 70
     0
  0
APPID
  5
43A3
330
8
100
AcDbSymbolTableRecord
100
AcDbRegAppTableRecord
  2
ACAD_MLEADERVER
 70
     0
  0
ENDTAB
  0
TABLE
  2
DIMSTYLE
  5
9
330
0
100
AcDbSymbolTable
 70
     2
100
AcDbDimStyleTable
  0
DIMSTYLE
105
18
330
9
100
AcDbSymbolTableRecord
100
AcDbDimStyleTableRecord
  2
Standard
 70
     0
178
     0
340
17
  0
DIMSTYLE
105
57
102
{ACAD_REACTORS
330
5861
330
587F
330
588E
330
589D
330
58B8
330
58CB
330
58DB
330
58F3
330
5908
330
5955
330
5964
330
5C6F
330
5C72
330
5CAD
330
5CB2
330
5DD7
102
}
330
9
100
AcDbSymbolTableRecord
100
AcDbDimStyleTableRecord
  2
tfrom線あり
 70
     0
  3
<>
  4
[]
 41
2.0
 42
5.0
 43
0.9999999999999999
 44
0.0
 73
     0
 74
     0
 77
     1
 78
    11
140
5.0
141
0.0
143
1.0
147
3.0
171
     1
174
     1
178
     0
179
     2
271
     0
272
     1
276
     2
284
    11
285
    11
286
    11
289
     0
340
39
341
4E
342
4E
  0
ENDTAB
  0
TABLE
  2
BLOCK_RECORD
  5
1
330
0
100
AcDbSymbolTable
 70
    20
  0
BLOCK_RECORD
  5
A
102
{ACAD_XDICTIONARY
360
59A8
102
}
330
1
100
AcDbSymbolTableRecord
100
AcDbBlockTableRecord
  2
*MODEL_SPACE
340
20
 70
     0
280
     1
281
     0
  0
BLOCK_RECORD
  5
B
330
1
100
AcDbSymbolTableRecord
100
AcDbBlockTableRecord
  2
*PAPER_SPACE
340
21
 70
     0
280
     1
281
     0
  0
BLOCK_RECORD
  5
4E
330
1
100
AcDbSymbolTableRecord
100
AcDbBlockTableRecord
  2
_DOT
340
0
102
{BLKREFS
331
586A
331
586B
331
5888
331
5889
331
5897
331
5898
331
58A6
331
58A7
331
58BF
331
58C0
331
58D4
331
58D5
331
58E4
331
58E5
331
58FC
331
58FD
331
5911
331
5912
331
595E
331
595F
331
596D
331
596E
331
5DE0
331
5DE1
331
5DEF
331
5DF0
102
}
 70
     0
280
     1
281
     0
  0
BLOCK_RECORD
  5
12C3
330
1
100
AcDbSymbolTableRecord
100
AcDbBlockTableRecord
  2
*Paper_Space1
340
12C4
 70
     0
280
     1
281
     0
  0
BLOCK_RECORD
  5
1D88
330
1
100
AcDbSymbolTableRecord
100
AcDbBlockTableRecord
  2
名称未設定-1
340
0
102
{BLKREFS
331
36E3
102
}
 70
     1
280
     1
281
     0
  0
BLOCK_RECORD
  5
1D8B
330
1
100
AcDbSymbolTableRecord
100
AcDbBlockTableRecord
  2
block 2
340
0
102
{BLKREFS
331
1D8A
102
}
 70
     0
280
     1
281
     0
  0
BLOCK_RECORD
  5
1D8E
330
1
100
AcDbSymbolTableRecord
100
AcDbBlockTableRecord
  2
block 3
340
0
102
{BLKREFS
331
1D8D
102
}
 70
     0
280
     1
281
     0
  0
BLOCK_RECORD
  5
1D91
330
1
100
AcDbSymbolTableRecord
100
AcDbBlockTableRecord
  2
block 4
340
0
102
{BLKREFS
331
1D90
102
}
 70
     0
280
     1
281
     0
  0
BLOCK_RECORD
  5
1DA0
330
1
100
AcDbSymbolTableRecord
100
AcDbBlockTableRecord
  2
block 5
340
0
102
{BLKREFS
331
1D9F
102
}
 70
     0
280
     1
281
     0
  0
BLOCK_RECORD
  5
5864
330
1
100
AcDbSymbolTableRecord
100
AcDbBlockTableRecord
  2
*D7
340
0
 70
     0
280
     1
281
     0
  0
BLOCK_RECORD
  5
5882
330
1
100
AcDbSymbolTableRecord
100
AcDbBlockTableRecord
  2
*D8
340
0
 70
     0
280
     1
281
     0
  0
BLOCK_RECORD
  5
5891
330
1
100
AcDbSymbolTableRecord
100
AcDbBlockTableRecord
  2
*D9
340
0
 70
     0
280
     1
281
     0
  0
BLOCK_RECORD
  5
58A0
330
1
100
AcDbSymbolTableRecord
100
AcDbBlockTableRecord
  2
*D10
340
0
 70
     0
280
     1
281
     0
  0
BLOCK_RECORD
  5
58B9
330
1
100
AcDbSymbolTableRecord
100
AcDbBlockTableRecord
  2
*D11
340
0
 70
     0
280
     1
281
     0
  0
BLOCK_RECORD
  5
58CE
330
1
100
AcDbSymbolTableRecord
100
AcDbBlockTableRecord
  2
*D12
340
0
 70
     0
280
     1
281
     0
  0
BLOCK_RECORD
  5
58DE
330
1
100
AcDbSymbolTableRecord
100
AcDbBlockTableRecord
  2
*D13
340
0
 70
     0
280
     1
281
     0
  0
BLOCK_RECORD
  5
58F6
330
1
100
AcDbSymbolTableRecord
100
AcDbBlockTableRecord
  2
*D14
340
0
 70
     0
280
     1
281
     0
  0
BLOCK_RECORD
  5
590B
330
1
100
AcDbSymbolTableRecord
100
AcDbBlockTableRecord
  2
*D15
340
0
 70
     0
280
     1
281
     0
  0
BLOCK_RECORD
  5
5958
330
1
100
AcDbSymbolTableRecord
100
AcDbBlockTableRecord
  2
*D16
340
0
 70
     0
280
     1
281
     0
  0
BLOCK_RECORD
  5
5967
330
1
100
AcDbSymbolTableRecord
100
AcDbBlockTableRecord
  2
*D17
340
0
 70
     0
280
     1
281
     0
  0
BLOCK_RECORD
  5
5DDA
330
1
100
AcDbSymbolTableRecord
100
AcDbBlockTableRecord
  2
*D18
340
0
 70
     0
280
     1
281
     0
  0
BLOCK_RECORD
  5
5DE9
330
1
100
AcDbSymbolTableRecord
100
AcDbBlockTableRecord
  2
*D19
340
0
 70
     0
280
     1
281
     0
  0
ENDTAB
  0
ENDSEC
  0
SECTION
  2
BLOCKS
  0
BLOCK
  5
D
330
A
100
AcDbEntity
  8
0
390
1D
100
AcDbBlockBegin
  2
*MODEL_SPACE
 70
     0
 10
0.0
 20
0.0
 30
0.0
  3
*MODEL_SPACE
  1
*MODEL_SPACE
  0
ENDBLK
  5
E
330
A
100
AcDbEntity
  8
0
390
1D
100
AcDbBlockEnd
  0
BLOCK
  5
F
330
B
100
AcDbEntity
 67
     1
  8
0
390
1D
100
AcDbBlockBegin
  2
*PAPER_SPACE
 70
     0
 10
0.0
 20
0.0
 30
0.0
  3
*PAPER_SPACE
  1
*PAPER_SPACE
  0
ENDBLK
  5
10
330
B
100
AcDbEntity
 67
     1
  8
0
390
1D
100
AcDbBlockEnd
  0
BLOCK
  5
5320
330
4E
100
AcDbEntity
  8
0
390
1D
100
AcDbBlockBegin
  2
_DOT
 70
     0
 10
0.0
 20
0.0
 30
0.0
  3
_DOT
  1
_DOT
  0
POLYLINE
  5
5322
330
4E
100
AcDbEntity
  8
0
  6
ByBlock
 62
     0
370
    -2
390
1D
100
AcDb2dPolyline
 66
     1
 10
0.0
 20
0.0
 30
0.0
 70
     1
 40
0.5
 41
0.5
  0
VERTEX
  5
5323
330
5322
100
AcDbEntity
  8
0
  6
ByBlock
 62
     0
370
    -2
390
1D
100
AcDbVertex
100
AcDb2dVertex
 10
-0.25
 20
0.0
 30
0.0
 42
1.0
  0
VERTEX
  5
5324
330
5322
100
AcDbEntity
  8
0
  6
ByBlock
 62
     0
370
    -2
390
1D
100
AcDbVertex
100
AcDb2dVertex
 10
0.25
 20
0.0
 30
0.0
 42
1.0
  0
SEQEND
  5
5325
330
5322
100
AcDbEntity
  8
0
390
1D
  0
LINE
  5
5326
330
4E
100
AcDbEntity
  8
0
  6
ByBlock
 62
     0
370
    -2
390
1D
100
AcDbLine
 10
-0.5
 20
0.0
 30
0.0
 11
-1.0
 21
0.0
 31
0.0
  0
ENDBLK
  5
5327
330
4E
100
AcDbEntity
  8
0
390
1D
100
AcDbBlockEnd
  0
BLOCK
  5
12C5
330
12C3
100
AcDbEntity
  8
0
100
AcDbBlockBegin
  2
*Paper_Space1
 70
     0
 10
0.0
 20
0.0
 30
0.0
  3
*Paper_Space1
  1
*Paper_Space83
  0
ENDBLK
  5
12C6
330
12C3
100
AcDbEntity
  8
0
100
AcDbBlockEnd
  0
BLOCK
  5
1D89
330
1D88
100
AcDbEntity
  8
0
100
AcDbBlockBegin
  2
名称未設定-1
 70
     0
 10
0.0
 20
0.0
 30
0.0
  3
名称未設定-1
  1
名称未設定-1
  0
INSERT
  5
1D8A
330
1D88
100
AcDbEntity
  8
TFORMLOGO
100
AcDbBlockReference
  2
block 2
 10
0.0
 20
0.0
 30
0.0
  0
ENDBLK
  5
1DAF
330
1D88
100
AcDbEntity
  8
0
100
AcDbBlockEnd
  0
BLOCK
  5
1D8C
330
1D8B
100
AcDbEntity
  8
0
100
AcDbBlockBegin
  2
block 2
 70
     0
 10
0.0
 20
0.0
 30
0.0
  3
block 2
  1
block 2
  0
INSERT
  5
1D8D
330
1D8B
100
AcDbEntity
  8
TFORMLOGO
100
AcDbBlockReference
  2
block 3
 10
0.0
 20
0.0
 30
0.0
  0
ENDBLK
  5
1DAE
330
1D8B
100
AcDbEntity
  8
0
100
AcDbBlockEnd
  0
BLOCK
  5
1D8F
330
1D8E
100
AcDbEntity
  8
0
100
AcDbBlockBegin
  2
block 3
 70
     0
 10
0.0
 20
0.0
 30
0.0
  3
block 3
  1
block 3
  0
INSERT
  5
1D90
330
1D8E
100
AcDbEntity
  8
TFORMLOGO
100
AcDbBlockReference
  2
block 4
 10
0.0
 20
0.0
 30
0.0
  0
ENDBLK
  5
1DAD
330
1D8E
100
AcDbEntity
  8
0
100
AcDbBlockEnd
  0
BLOCK
  5
1D92
330
1D91
100
AcDbEntity
  8
0
100
AcDbBlockBegin
  2
block 4
 70
     0
 10
0.0
 20
0.0
 30
0.0
  3
block 4
  1
block 4
  0
POLYLINE
  5
1D93
330
1D91
100
AcDbEntity
  8
TFORMLOGO
370
     0
100
AcDb2dPolyline
 66
     1
 10
0.0
 20
0.0
 30
0.0
  0
VERTEX
  5
1D94
330
1D93
100
AcDbEntity
  8
TFORMLOGO
370
     0
100
AcDbVertex
100
AcDb2dVertex
 10
83.79545727667795
 20
167.6444858234922
 30
0.0
  0
VERTEX
  5
1D95
330
1D93
100
AcDbEntity
  8
TFORMLOGO
370
     0
100
AcDbVertex
100
AcDb2dVertex
 10
83.79545727667795
 20
159.7968976406313
 30
0.0
  0
VERTEX
  5
1D96
330
1D93
100
AcDbEntity
  8
TFORMLOGO
370
     0
100
AcDbVertex
100
AcDb2dVertex
 10
71.3631329975216
 20
159.7968976406313
 30
0.0
  0
VERTEX
  5
1D97
330
1D93
100
AcDbEntity
  8
TFORMLOGO
370
     0
100
AcDbVertex
100
AcDb2dVertex
 10
71.3631329975216
 20
127.8027915271048
 30
0.0
  0
VERTEX
  5
1D98
330
1D93
100
AcDbEntity
  8
TFORMLOGO
370
     0
100
AcDbVertex
100
AcDb2dVertex
 10
60.43011526263018
 20
127.8027915271048
 30
0.0
  0
VERTEX
  5
1D99
330
1D93
100
AcDbEntity
  8
TFORMLOGO
370
     0
100
AcDbVertex
100
AcDb2dVertex
 10
60.43011526263018
 20
159.7968976406313
 30
0.0
  0
VERTEX
  5
1D9A
330
1D93
100
AcDbEntity
  8
TFORMLOGO
370
     0
100
AcDbVertex
100
AcDb2dVertex
 10
48.21793273020759
 20
159.7968976406313
 30
0.0
  0
VERTEX
  5
1D9B
330
1D93
100
AcDbEntity
  8
TFORMLOGO
370
     0
100
AcDbVertex
100
AcDb2dVertex
 10
48.21793273020759
 20
167.6444858234922
 30
0.0
  0
VERTEX
  5
1D9C
330
1D93
100
AcDbEntity
  8
TFORMLOGO
370
     0
100
AcDbVertex
100
AcDb2dVertex
 10
83.79545727667795
 20
167.6444858234922
 30
0.0
  0
SEQEND
  5
1D9D
330
1D93
100
AcDbEntity
  8
TFORMLOGO
370
     0
  0
HATCH
  5
1D9E
330
1D91
100
AcDbEntity
  8
TFORMLOGO
 62
   250
420
  2234388
100
AcDbHatch
 10
0.0
 20
0.0
 30
0.0
210
0.0
220
0.0
230
1.0
  2
SOLID
 70
     1
 71
     0
 91
        1
 92
        1
 93
        8
 72
     1
 10
83.79545727667795
 20
167.6444858234922
 11
83.79545727667795
 21
159.7968976406313
 72
     1
 10
83.79545727667795
 20
159.7968976406313
 11
71.3631329975216
 21
159.7968976406313
 72
     1
 10
71.3631329975216
 20
159.7968976406313
 11
71.3631329975216
 21
127.8027915271048
 72
     1
 10
71.3631329975216
 20
127.8027915271048
 11
60.43011526263018
 21
127.8027915271048
 72
     1
 10
60.43011526263018
 20
127.8027915271048
 11
60.43011526263018
 21
159.7968976406313
 72
     1
 10
60.43011526263018
 20
159.7968976406313
 11
48.21793273020759
 21
159.7968976406313
 72
     1
 10
48.21793273020759
 20
159.7968976406313
 11
48.21793273020759
 21
167.6444858234922
 72
     1
 10
48.21793273020759
 20
167.6444858234922
 11
83.79545727667795
 21
167.6444858234922
 97
        0
 75
     2
 76
     1
 98
        0
  0
INSERT
  5
1D9F
330
1D91
100
AcDbEntity
  8
TFORMLOGO
100
AcDbBlockReference
  2
block 5
 10
0.0
 20
0.0
 30
0.0
  0
ENDBLK
  5
1DAC
330
1D91
100
AcDbEntity
  8
0
100
AcDbBlockEnd
  0
BLOCK
  5
1DA1
330
1DA0
100
AcDbEntity
  8
0
100
AcDbBlockBegin
  2
block 5
 70
     0
 10
0.0
 20
0.0
 30
0.0
  3
block 5
  1
block 5
  0
SPLINE
  5
1DA2
330
1DA0
100
AcDbEntity
  8
TFORMLOGO
370
     0
100
AcDbSpline
210
0.0
220
0.0
230
1.0
 70
    11
 71
     3
 72
    56
 73
    52
 74
     0
 42
0.000000001
 43
0.0000000001
 40
0.0
 40
0.0
 40
0.0
 40
0.0
 40
1.0
 40
1.0
 40
1.0
 40
2.0
 40
2.0
 40
2.0
 40
3.0
 40
3.0
 40
3.0
 40
4.0
 40
4.0
 40
4.0
 40
5.0
 40
5.0
 40
5.0
 40
6.0
 40
6.0
 40
6.0
 40
7.0
 40
7.0
 40
7.0
 40
8.0
 40
8.0
 40
8.0
 40
9.0
 40
9.0
 40
9.0
 40
10.0
 40
10.0
 40
10.0
 40
11.0
 40
11.0
 40
11.0
 40
12.0
 40
12.0
 40
12.0
 40
13.0
 40
13.0
 40
13.0
 40
14.0
 40
14.0
 40
14.0
 40
15.0
 40
15.0
 40
15.0
 40
16.0
 40
16.0
 40
16.0
 40
17.0
 40
17.0
 40
17.0
 40
17.0
 10
100.4504378777679
 20
166.69157178364
 30
0.0
 10
101.9848844191641
 20
167.1313385124438
 30
0.0
 10
103.9637485713373
 20
166.7649523658846
 30
0.0
 10
103.9637485713373
 20
166.7649523658846
 30
0.0
 10
103.9637485713373
 20
166.7649523658846
 30
0.0
 10
103.0132460999156
 20
163.911205638077
 30
0.0
 10
103.0132460999156
 20
163.911205638077
 30
0.0
 10
103.0132460999156
 20
163.911205638077
 30
0.0
 10
101.0674548862189
 20
164.3601018759394
 30
0.0
 10
99.57090442016032
 20
163.1805004036133
 30
0.0
 10
98.40508333886608
 20
162.258247733807
 30
0.0
 10
97.65301849830304
 20
159.804132345923
 30
0.0
 10
97.3598406791005
 20
158.8699940888517
 30
0.0
 10
97.3598406791005
 20
158.8699940888517
 30
0.0
 10
96.07137411762282
 20
154.9119212747295
 30
0.0
 10
96.07137411762282
 20
154.9119212747295
 30
0.0
 10
96.07137411762282
 20
154.9119212747295
 30
0.0
 10
100.3012651448482
 20
154.9119212747295
 30
0.0
 10
100.3012651448482
 20
154.9119212747295
 30
0.0
 10
100.3012651448482
 20
154.9119212747295
 30
0.0
 10
99.64152892419852
 20
152.4199098115079
 30
0.0
 10
99.64152892419852
 20
152.4199098115079
 30
0.0
 10
99.64152892419852
 20
152.4199098115079
 30
0.0
 10
95.38097652692731
 20
152.4199098115079
 30
0.0
 10
95.38097652692731
 20
152.4199098115079
 30
0.0
 10
95.38097652692731
 20
152.4199098115079
 30
0.0
 10
87.75353009080013
 20
127.8027915271048
 30
0.0
 10
87.75353009080013
 20
127.8027915271048
 30
0.0
 10
87.75353009080013
 20
127.8027915271048
 30
0.0
 10
85.36538832498108
 20
127.8027915271048
 30
0.0
 10
85.36538832498108
 20
127.8027915271048
 30
0.0
 10
85.36538832498108
 20
127.8027915271048
 30
0.0
 10
93.00006946639998
 20
152.4199098115079
 30
0.0
 10
93.00006946639998
 20
152.4199098115079
 30
0.0
 10
93.00006946639998
 20
152.4199098115079
 30
0.0
 10
89.85297266450198
 20
152.4199098115079
 30
0.0
 10
89.85297266450198
 20
152.4199098115079
 30
0.0
 10
89.85297266450198
 20
152.4199098115079
 30
0.0
 10
90.51270888515164
 20
154.9119212747295
 30
0.0
 10
90.51270888515164
 20
154.9119212747295
 30
0.0
 10
90.51270888515164
 20
154.9119212747295
 30
0.0
 10
93.6904670570955
 20
154.9119212747295
 30
0.0
 10
93.6904670570955
 20
154.9119212747295
 30
0.0
 10
93.6904670570955
 20
154.9119212747295
 30
0.0
 10
94.81598049462158
 20
158.3616699146644
 30
0.0
 10
94.81598049462158
 20
158.3616699146644
 30
0.0
 10
95.7237637538445
 20
161.2605474231013
 30
0.0
 10
96.4968436907311
 20
162.8139420021662
 30
0.0
 10
97.15657991138076
 20
163.9844139654337
 30
0.0
 10
97.81183750494507
 20
165.1523021053827
 30
0.0
 10
99.1047826935081
 20
166.3084769129547
 30
0.0
 10
100.4504378777679
 20
166.69157178364
 30
0.0
  0
HATCH
  5
1DA3
330
1DA0
100
AcDbEntity
  8
TFORMLOGO
 62
   250
420
  2234388
100
AcDbHatch
 10
0.0
 20
0.0
 30
0.0
210
0.0
220
0.0
230
1.0
  2
SOLID
 70
     1
 71
     0
 91
        1
 92
        1
 93
        1
 72
     4
 94
        3
 73
     0
 74
     1
 95
       56
 96
       52
 40
0.0
 40
0.0
 40
0.0
 40
0.0
 40
1.0
 40
1.0
 40
1.0
 40
2.0
 40
2.0
 40
2.0
 40
3.0
 40
3.0
 40
3.0
 40
4.0
 40
4.0
 40
4.0
 40
5.0
 40
5.0
 40
5.0
 40
6.0
 40
6.0
 40
6.0
 40
7.0
 40
7.0
 40
7.0
 40
8.0
 40
8.0
 40
8.0
 40
9.0
 40
9.0
 40
9.0
 40
10.0
 40
10.0
 40
10.0
 40
11.0
 40
11.0
 40
11.0
 40
12.0
 40
12.0
 40
12.0
 40
13.0
 40
13.0
 40
13.0
 40
14.0
 40
14.0
 40
14.0
 40
15.0
 40
15.0
 40
15.0
 40
16.0
 40
16.0
 40
16.0
 40
17.0
 40
17.0
 40
17.0
 40
17.0
 10
100.4504378777679
 20
166.69157178364
 10
101.9848844191641
 20
167.1313385124438
 10
103.9637485713373
 20
166.7649523658846
 10
103.9637485713373
 20
166.7649523658846
 10
103.9637485713373
 20
166.7649523658846
 10
103.0132460999156
 20
163.911205638077
 10
103.0132460999156
 20
163.911205638077
 10
103.0132460999156
 20
163.911205638077
 10
101.0674548862189
 20
164.3601018759394
 10
99.57090442016032
 20
163.1805004036133
 10
98.40508333886608
 20
162.258247733807
 10
97.65301849830304
 20
159.804132345923
 10
97.3598406791005
 20
158.8699940888517
 10
97.3598406791005
 20
158.8699940888517
 10
96.07137411762282
 20
154.9119212747295
 10
96.07137411762282
 20
154.9119212747295
 10
96.07137411762282
 20
154.9119212747295
 10
100.3012651448482
 20
154.9119212747295
 10
100.3012651448482
 20
154.9119212747295
 10
100.3012651448482
 20
154.9119212747295
 10
99.64152892419852
 20
152.4199098115079
 10
99.64152892419852
 20
152.4199098115079
 10
99.64152892419852
 20
152.4199098115079
 10
95.38097652692731
 20
152.4199098115079
 10
95.38097652692731
 20
152.4199098115079
 10
95.38097652692731
 20
152.4199098115079
 10
87.75353009080013
 20
127.8027915271048
 10
87.75353009080013
 20
127.8027915271048
 10
87.75353009080013
 20
127.8027915271048
 10
85.36538832498108
 20
127.8027915271048
 10
85.36538832498108
 20
127.8027915271048
 10
85.36538832498108
 20
127.8027915271048
 10
93.00006946639998
 20
152.4199098115079
 10
93.00006946639998
 20
152.4199098115079
 10
93.00006946639998
 20
152.4199098115079
 10
89.85297266450198
 20
152.4199098115079
 10
89.85297266450198
 20
152.4199098115079
 10
89.85297266450198
 20
152.4199098115079
 10
90.51270888515164
 20
154.9119212747295
 10
90.51270888515164
 20
154.9119212747295
 10
90.51270888515164
 20
154.9119212747295
 10
93.6904670570955
 20
154.9119212747295
 10
93.6904670570955
 20
154.9119212747295
 10
93.6904670570955
 20
154.9119212747295
 10
94.81598049462158
 20
158.3616699146644
 10
94.81598049462158
 20
158.3616699146644
 10
95.7237637538445
 20
161.2605474231013
 10
96.4968436907311
 20
162.8139420021662
 10
97.15657991138076
 20
163.9844139654337
 10
97.81183750494507
 20
165.1523021053827
 10
99.1047826935081
 20
166.3084769129547
 10
100.4504378777679
 20
166.69157178364
 97
        0
 75
     2
 76
     1
 98
        0
  0
SPLINE
  5
1DA4
330
1DA0
100
AcDbEntity
  8
TFORMLOGO
370
     0
100
AcDbSpline
210
0.0
220
0.0
230
1.0
 70
    11
 71
     3
 72
    38
 73
    34
 74
     0
 42
0.000000001
 43
0.0000000001
 40
0.0
 40
0.0
 40
0.0
 40
0.0
 40
1.0
 40
1.0
 40
1.0
 40
2.0
 40
2.0
 40
2.0
 40
3.0
 40
3.0
 40
3.0
 40
4.0
 40
4.0
 40
4.0
 40
5.0
 40
5.0
 40
5.0
 40
6.0
 40
6.0
 40
6.0
 40
7.0
 40
7.0
 40
7.0
 40
8.0
 40
8.0
 40
8.0
 40
9.0
 40
9.0
 40
9.0
 40
10.0
 40
10.0
 40
10.0
 40
11.0
 40
11.0
 40
11.0
 40
11.0
 10
126.377554584636
 20
154.8151140277308
 30
0.0
 10
126.377554584636
 20
154.8151140277308
 30
0.0
 10
128.8311532078563
 20
154.8151140277308
 30
0.0
 10
128.8311532078563
 20
154.8151140277308
 30
0.0
 10
128.8311532078563
 20
154.8151140277308
 30
0.0
 10
127.7345785914971
 20
151.3062819612468
 30
0.0
 10
127.7345785914971
 20
151.3062819612468
 30
0.0
 10
128.571392836906
 20
152.2922689395754
 30
0.0
 10
129.8860421413442
 20
153.604506675583
 30
0.0
 10
131.0163787157314
 20
154.2664822097754
 30
0.0
 10
132.7044766171327
 20
155.2500576196734
 30
0.0
 10
133.6642808525008
 20
155.3847609420097
 30
0.0
 10
134.7284715499351
 20
155.3565111403944
 30
0.0
 10
134.7284715499351
 20
155.3565111403944
 30
0.0
 10
133.6877075172549
 20
152.0345756272799
 30
0.0
 10
133.6877075172549
 20
152.0345756272799
 30
0.0
 10
133.011434827367
 20
152.3184516825359
 30
0.0
 10
130.930940291334
 20
151.7768823149844
 30
0.0
 10
129.739280976855
 20
150.9162968950455
 30
0.0
 10
128.66613302525
 20
150.1454562717016
 30
0.0
 10
127.9192358313239
 20
149.4857200510519
 30
0.0
 10
127.0393578639405
 20
147.8282835196966
 30
0.0
 10
126.164647543194
 20
146.1699857139017
 30
0.0
 10
125.4742499524985
 20
143.5262176944419
 30
0.0
 10
124.2822461282437
 20
139.6959580071401
 30
0.0
 10
124.2822461282437
 20
139.6959580071401
 30
0.0
 10
120.5753209406769
 20
127.8027915271048
 30
0.0
 10
120.5753209406769
 20
127.8027915271048
 30
0.0
 10
120.5753209406769
 20
127.8027915271048
 30
0.0
 10
118.1964809388044
 20
127.8027915271048
 30
0.0
 10
118.1964809388044
 20
127.8027915271048
 30
0.0
 10
118.1964809388044
 20
127.8027915271048
 30
0.0
 10
126.377554584636
 20
154.8151140277308
 30
0.0
 10
126.377554584636
 20
154.8151140277308
 30
0.0
  0
HATCH
  5
1DA5
330
1DA0
100
AcDbEntity
  8
TFORMLOGO
 62
   250
420
  2234388
100
AcDbHatch
 10
0.0
 20
0.0
 30
0.0
210
0.0
220
0.0
230
1.0
  2
SOLID
 70
     1
 71
     0
 91
        1
 92
        1
 93
        1
 72
     4
 94
        3
 73
     0
 74
     1
 95
       38
 96
       34
 40
0.0
 40
0.0
 40
0.0
 40
0.0
 40
1.0
 40
1.0
 40
1.0
 40
2.0
 40
2.0
 40
2.0
 40
3.0
 40
3.0
 40
3.0
 40
4.0
 40
4.0
 40
4.0
 40
5.0
 40
5.0
 40
5.0
 40
6.0
 40
6.0
 40
6.0
 40
7.0
 40
7.0
 40
7.0
 40
8.0
 40
8.0
 40
8.0
 40
9.0
 40
9.0
 40
9.0
 40
10.0
 40
10.0
 40
10.0
 40
11.0
 40
11.0
 40
11.0
 40
11.0
 10
126.377554584636
 20
154.8151140277308
 10
126.377554584636
 20
154.8151140277308
 10
128.8311532078563
 20
154.8151140277308
 10
128.8311532078563
 20
154.8151140277308
 10
128.8311532078563
 20
154.8151140277308
 10
127.7345785914971
 20
151.3062819612468
 10
127.7345785914971
 20
151.3062819612468
 10
128.571392836906
 20
152.2922689395754
 10
129.8860421413442
 20
153.604506675583
 10
131.0163787157314
 20
154.2664822097754
 10
132.7044766171327
 20
155.2500576196734
 10
133.6642808525008
 20
155.3847609420097
 10
134.7284715499351
 20
155.3565111403944
 10
134.7284715499351
 20
155.3565111403944
 10
133.6877075172549
 20
152.0345756272799
 10
133.6877075172549
 20
152.0345756272799
 10
133.011434827367
 20
152.3184516825359
 10
130.930940291334
 20
151.7768823149844
 10
129.739280976855
 20
150.9162968950455
 10
128.66613302525
 20
150.1454562717016
 10
127.9192358313239
 20
149.4857200510519
 10
127.0393578639405
 20
147.8282835196966
 10
126.164647543194
 20
146.1699857139017
 10
125.4742499524985
 20
143.5262176944419
 10
124.2822461282437
 20
139.6959580071401
 10
124.2822461282437
 20
139.6959580071401
 10
120.5753209406769
 20
127.8027915271048
 10
120.5753209406769
 20
127.8027915271048
 10
120.5753209406769
 20
127.8027915271048
 10
118.1964809388044
 20
127.8027915271048
 10
118.1964809388044
 20
127.8027915271048
 10
118.1964809388044
 20
127.8027915271048
 10
126.377554584636
 20
154.8151140277308
 10
126.377554584636
 20
154.8151140277308
 97
        0
 75
     2
 76
     1
 98
        0
  0
SPLINE
  5
1DA6
330
1DA0
100
AcDbEntity
  8
TFORMLOGO
370
     0
100
AcDbSpline
210
0.0
220
0.0
230
1.0
 70
    11
 71
     3
 72
   104
 73
   100
 74
     0
 42
0.000000001
 43
0.0000000001
 40
0.0
 40
0.0
 40
0.0
 40
0.0
 40
1.0
 40
1.0
 40
1.0
 40
2.0
 40
2.0
 40
2.0
 40
3.0
 40
3.0
 40
3.0
 40
4.0
 40
4.0
 40
4.0
 40
5.0
 40
5.0
 40
5.0
 40
6.0
 40
6.0
 40
6.0
 40
7.0
 40
7.0
 40
7.0
 40
8.0
 40
8.0
 40
8.0
 40
9.0
 40
9.0
 40
9.0
 40
10.0
 40
10.0
 40
10.0
 40
11.0
 40
11.0
 40
11.0
 40
12.0
 40
12.0
 40
12.0
 40
13.0
 40
13.0
 40
13.0
 40
14.0
 40
14.0
 40
14.0
 40
15.0
 40
15.0
 40
15.0
 40
16.0
 40
16.0
 40
16.0
 40
17.0
 40
17.0
 40
17.0
 40
18.0
 40
18.0
 40
18.0
 40
19.0
 40
19.0
 40
19.0
 40
20.0
 40
20.0
 40
20.0
 40
21.0
 40
21.0
 40
21.0
 40
22.0
 40
22.0
 40
22.0
 40
23.0
 40
23.0
 40
23.0
 40
24.0
 40
24.0
 40
24.0
 40
25.0
 40
25.0
 40
25.0
 40
26.0
 40
26.0
 40
26.0
 40
27.0
 40
27.0
 40
27.0
 40
28.0
 40
28.0
 40
28.0
 40
29.0
 40
29.0
 40
29.0
 40
30.0
 40
30.0
 40
30.0
 40
31.0
 40
31.0
 40
31.0
 40
32.0
 40
32.0
 40
32.0
 40
33.0
 40
33.0
 40
33.0
 40
33.0
 10
139.8926730891197
 20
154.8294111834263
 30
0.0
 10
139.8926730891197
 20
154.8294111834263
 30
0.0
 10
142.0344903652445
 20
154.8294111834263
 30
0.0
 10
142.0344903652445
 20
154.8294111834263
 30
0.0
 10
142.0344903652445
 20
154.8294111834263
 30
0.0
 10
140.9516961399171
 20
151.3157559800812
 30
0.0
 10
140.9516961399171
 20
151.3157559800812
 30
0.0
 10
141.8928968473923
 20
152.7887075264977
 30
0.0
 10
142.7341897198865
 20
153.4484437471474
 30
0.0
 10
143.8552245303272
 20
154.2926649527359
 30
0.0
 10
144.9803934580775
 20
155.1296514530327
 30
0.0
 10
146.3139908001845
 20
155.3044901642492
 30
0.0
 10
147.241066606852
 20
155.3044901642492
 30
0.0
 10
148.3855280820469
 20
155.3044901642492
 30
0.0
 10
149.4969166187653
 20
155.0752189084569
 30
0.0
 10
150.0784491203092
 20
153.8172414621372
 30
0.0
 10
150.5228667310863
 20
152.833838307127
 30
0.0
 10
150.5414702589793
 20
152.7201500811143
 30
0.0
 10
150.4140016419347
 20
150.7765981809602
 30
0.0
 10
151.5818897818837
 20
152.7699317437168
 30
0.0
 10
152.4424752018226
 20
153.6256940267945
 30
0.0
 10
153.9038856707499
 20
154.4507949398263
 30
0.0
 10
155.4455669174378
 20
155.3044901642492
 30
0.0
 10
156.339225275853
 20
155.3659851592288
 30
0.0
 10
157.3748216618963
 20
155.2147453676543
 30
0.0
 10
158.911679771723
 20
154.9877134254046
 30
0.0
 10
159.8859534176746
 20
154.4390816074493
 30
0.0
 10
160.3965169054045
 20
152.7816450760939
 30
0.0
 10
160.9070803931344
 20
151.1219692311958
 30
0.0
 10
160.6328506116007
 20
150.2303779314354
 30
0.0
 10
159.9992971339115
 20
147.597634224801
 30
0.0
 10
159.7105979417943
 20
146.4014962832367
 30
0.0
 10
159.2947746424084
 20
144.9400858143094
 30
0.0
 10
158.7463150793409
 20
143.2092687007094
 30
0.0
 10
158.7463150793409
 20
143.2092687007094
 30
0.0
 10
153.9038856707499
 20
127.8027915271048
 30
0.0
 10
153.9038856707499
 20
127.8027915271048
 30
0.0
 10
153.9038856707499
 20
127.8027915271048
 30
0.0
 10
151.3882752878863
 20
127.8027915271048
 30
0.0
 10
151.3882752878863
 20
127.8027915271048
 30
0.0
 10
151.3882752878863
 20
127.8027915271048
 30
0.0
 10
155.6250565106276
 20
141.2751908193897
 30
0.0
 10
155.6250565106276
 20
141.2751908193897
 30
0.0
 10
156.5094131050963
 20
144.0936252951782
 30
0.0
 10
157.109893644309
 20
146.1506931664571
 30
0.0
 10
157.4220195011804
 20
147.4415712963654
 30
0.0
 10
157.8095929989511
 20
149.0530157726519
 30
0.0
 10
157.9656559273867
 20
149.5826995529385
 30
0.0
 10
157.7816877071116
 20
150.7529992613181
 30
0.0
 10
157.6111553680925
 20
151.8430281919372
 30
0.0
 10
157.0582171779396
 20
152.5547853887321
 30
0.0
 10
156.1170164704645
 20
152.5547853887321
 30
0.0
 10
155.1096698860365
 20
152.5547853887321
 30
0.0
 10
154.2962823053817
 20
152.4412694176073
 30
0.0
 10
153.156643967048
 20
151.2945686288697
 30
0.0
 10
152.0170056287143
 20
150.1476955852443
 30
0.0
 10
151.076149431015
 20
148.7930831468137
 30
0.0
 10
150.3337308641742
 20
147.2290087646991
 30
0.0
 10
149.5957909244188
 20
145.6683794803425
 30
0.0
 10
148.8530278478023
 20
143.6822806228776
 30
0.0
 10
148.0964843801539
 20
141.2751908193897
 30
0.0
 10
148.0964843801539
 20
141.2751908193897
 30
0.0
 10
143.8552245303272
 20
127.8027915271048
 30
0.0
 10
143.8552245303272
 20
127.8027915271048
 30
0.0
 10
143.8552245303272
 20
127.8027915271048
 30
0.0
 10
141.486030802177
 20
127.8027915271048
 30
0.0
 10
141.486030802177
 20
127.8027915271048
 30
0.0
 10
141.486030802177
 20
127.8027915271048
 30
0.0
 10
146.3329388378533
 20
143.2092687007094
 30
0.0
 10
146.3329388378533
 20
143.2092687007094
 30
0.0
 10
146.8483254624444
 20
144.8408669988801
 30
0.0
 10
147.2314203331297
 20
146.1837661049335
 30
0.0
 10
147.4867020769946
 20
147.224185627838
 30
0.0
 10
147.9169947869641
 20
149.0197705792876
 30
0.0
 10
148.0306830129768
 20
150.2400242051577
 30
0.0
 10
147.709255392159
 20
151.3157559800812
 30
0.0
 10
147.3874832615654
 20
152.3916600098926
 30
0.0
 10
146.8245542879144
 20
152.6683013598569
 30
0.0
 10
145.8840425999909
 20
152.6683013598569
 30
0.0
 10
145.0989048209514
 20
152.6683013598569
 30
0.0
 10
144.3282364524954
 20
152.3275811915945
 30
0.0
 10
143.4531816219731
 20
151.6538923250251
 30
0.0
 10
142.34627171234
 20
150.8074318058939
 30
0.0
 10
141.901854101563
 20
150.1097995099067
 30
0.0
 10
141.3578731655808
 20
149.289521733736
 30
0.0
 10
140.6299240093235
 20
148.192602607601
 30
0.0
 10
140.2850697237515
 20
147.455696197173
 30
0.0
 10
139.6652966370942
 20
145.8385673095858
 30
0.0
 10
139.0506911970739
 20
144.2214384219986
 30
0.0
 10
138.463991048893
 20
142.3252566160164
 30
0.0
 10
138.0571250036777
 20
141.0154304484394
 30
0.0
 10
138.0571250036777
 20
141.0154304484394
 30
0.0
 10
133.9009590684727
 20
127.8027915271048
 30
0.0
 10
133.9009590684727
 20
127.8027915271048
 30
0.0
 10
133.9009590684727
 20
127.8027915271048
 30
0.0
 10
131.4180771143097
 20
127.8027915271048
 30
0.0
 10
131.4180771143097
 20
127.8027915271048
 30
0.0
 10
131.4180771143097
 20
127.8027915271048
 30
0.0
 10
139.8926730891197
 20
154.8294111834263
 30
0.0
 10
139.8926730891197
 20
154.8294111834263
 30
0.0
  0
HATCH
  5
1DA7
330
1DA0
100
AcDbEntity
  8
TFORMLOGO
 62
   250
420
  2234388
100
AcDbHatch
 10
0.0
 20
0.0
 30
0.0
210
0.0
220
0.0
230
1.0
  2
SOLID
 70
     1
 71
     0
 91
        1
 92
        1
 93
        1
 72
     4
 94
        3
 73
     0
 74
     1
 95
      104
 96
      100
 40
0.0
 40
0.0
 40
0.0
 40
0.0
 40
1.0
 40
1.0
 40
1.0
 40
2.0
 40
2.0
 40
2.0
 40
3.0
 40
3.0
 40
3.0
 40
4.0
 40
4.0
 40
4.0
 40
5.0
 40
5.0
 40
5.0
 40
6.0
 40
6.0
 40
6.0
 40
7.0
 40
7.0
 40
7.0
 40
8.0
 40
8.0
 40
8.0
 40
9.0
 40
9.0
 40
9.0
 40
10.0
 40
10.0
 40
10.0
 40
11.0
 40
11.0
 40
11.0
 40
12.0
 40
12.0
 40
12.0
 40
13.0
 40
13.0
 40
13.0
 40
14.0
 40
14.0
 40
14.0
 40
15.0
 40
15.0
 40
15.0
 40
16.0
 40
16.0
 40
16.0
 40
17.0
 40
17.0
 40
17.0
 40
18.0
 40
18.0
 40
18.0
 40
19.0
 40
19.0
 40
19.0
 40
20.0
 40
20.0
 40
20.0
 40
21.0
 40
21.0
 40
21.0
 40
22.0
 40
22.0
 40
22.0
 40
23.0
 40
23.0
 40
23.0
 40
24.0
 40
24.0
 40
24.0
 40
25.0
 40
25.0
 40
25.0
 40
26.0
 40
26.0
 40
26.0
 40
27.0
 40
27.0
 40
27.0
 40
28.0
 40
28.0
 40
28.0
 40
29.0
 40
29.0
 40
29.0
 40
30.0
 40
30.0
 40
30.0
 40
31.0
 40
31.0
 40
31.0
 40
32.0
 40
32.0
 40
32.0
 40
33.0
 40
33.0
 40
33.0
 40
33.0
 10
139.8926730891197
 20
154.8294111834263
 10
139.8926730891197
 20
154.8294111834263
 10
142.0344903652445
 20
154.8294111834263
 10
142.0344903652445
 20
154.8294111834263
 10
142.0344903652445
 20
154.8294111834263
 10
140.9516961399171
 20
151.3157559800812
 10
140.9516961399171
 20
151.3157559800812
 10
141.8928968473923
 20
152.7887075264977
 10
142.7341897198865
 20
153.4484437471474
 10
143.8552245303272
 20
154.2926649527359
 10
144.9803934580775
 20
155.1296514530327
 10
146.3139908001845
 20
155.3044901642492
 10
147.241066606852
 20
155.3044901642492
 10
148.3855280820469
 20
155.3044901642492
 10
149.4969166187653
 20
155.0752189084569
 10
150.0784491203092
 20
153.8172414621372
 10
150.5228667310863
 20
152.833838307127
 10
150.5414702589793
 20
152.7201500811143
 10
150.4140016419347
 20
150.7765981809602
 10
151.5818897818837
 20
152.7699317437168
 10
152.4424752018226
 20
153.6256940267945
 10
153.9038856707499
 20
154.4507949398263
 10
155.4455669174378
 20
155.3044901642492
 10
156.339225275853
 20
155.3659851592288
 10
157.3748216618963
 20
155.2147453676543
 10
158.911679771723
 20
154.9877134254046
 10
159.8859534176746
 20
154.4390816074493
 10
160.3965169054045
 20
152.7816450760939
 10
160.9070803931344
 20
151.1219692311958
 10
160.6328506116007
 20
150.2303779314354
 10
159.9992971339115
 20
147.597634224801
 10
159.7105979417943
 20
146.4014962832367
 10
159.2947746424084
 20
144.9400858143094
 10
158.7463150793409
 20
143.2092687007094
 10
158.7463150793409
 20
143.2092687007094
 10
153.9038856707499
 20
127.8027915271048
 10
153.9038856707499
 20
127.8027915271048
 10
153.9038856707499
 20
127.8027915271048
 10
151.3882752878863
 20
127.8027915271048
 10
151.3882752878863
 20
127.8027915271048
 10
151.3882752878863
 20
127.8027915271048
 10
155.6250565106276
 20
141.2751908193897
 10
155.6250565106276
 20
141.2751908193897
 10
156.5094131050963
 20
144.0936252951782
 10
157.109893644309
 20
146.1506931664571
 10
157.4220195011804
 20
147.4415712963654
 10
157.8095929989511
 20
149.0530157726519
 10
157.9656559273867
 20
149.5826995529385
 10
157.7816877071116
 20
150.7529992613181
 10
157.6111553680925
 20
151.8430281919372
 10
157.0582171779396
 20
152.5547853887321
 10
156.1170164704645
 20
152.5547853887321
 10
155.1096698860365
 20
152.5547853887321
 10
154.2962823053817
 20
152.4412694176073
 10
153.156643967048
 20
151.2945686288697
 10
152.0170056287143
 20
150.1476955852443
 10
151.076149431015
 20
148.7930831468137
 10
150.3337308641742
 20
147.2290087646991
 10
149.5957909244188
 20
145.6683794803425
 10
148.8530278478023
 20
143.6822806228776
 10
148.0964843801539
 20
141.2751908193897
 10
148.0964843801539
 20
141.2751908193897
 10
143.8552245303272
 20
127.8027915271048
 10
143.8552245303272
 20
127.8027915271048
 10
143.8552245303272
 20
127.8027915271048
 10
141.486030802177
 20
127.8027915271048
 10
141.486030802177
 20
127.8027915271048
 10
141.486030802177
 20
127.8027915271048
 10
146.3329388378533
 20
143.2092687007094
 10
146.3329388378533
 20
143.2092687007094
 10
146.8483254624444
 20
144.8408669988801
 10
147.2314203331297
 20
146.1837661049335
 10
147.4867020769946
 20
147.224185627838
 10
147.9169947869641
 20
149.0197705792876
 10
148.0306830129768
 20
150.2400242051577
 10
147.709255392159
 20
151.3157559800812
 10
147.3874832615654
 20
152.3916600098926
 10
146.8245542879144
 20
152.6683013598569
 10
145.8840425999909
 20
152.6683013598569
 10
145.0989048209514
 20
152.6683013598569
 10
144.3282364524954
 20
152.3275811915945
 10
143.4531816219731
 20
151.6538923250251
 10
142.34627171234
 20
150.8074318058939
 10
141.901854101563
 20
150.1097995099067
 10
141.3578731655808
 20
149.289521733736
 10
140.6299240093235
 20
148.192602607601
 10
140.2850697237515
 20
147.455696197173
 10
139.6652966370942
 20
145.8385673095858
 10
139.0506911970739
 20
144.2214384219986
 10
138.463991048893
 20
142.3252566160164
 10
138.0571250036777
 20
141.0154304484394
 10
138.0571250036777
 20
141.0154304484394
 10
133.9009590684727
 20
127.8027915271048
 10
133.9009590684727
 20
127.8027915271048
 10
133.9009590684727
 20
127.8027915271048
 10
131.4180771143097
 20
127.8027915271048
 10
131.4180771143097
 20
127.8027915271048
 10
131.4180771143097
 20
127.8027915271048
 10
139.8926730891197
 20
154.8294111834263
 10
139.8926730891197
 20
154.8294111834263
 97
        0
 75
     2
 76
     1
 98
        0
  0
SPLINE
  5
1DA8
330
1DA0
100
AcDbEntity
  8
TFORMLOGO
370
     0
100
AcDbSpline
210
0.0
220
0.0
230
1.0
 70
    11
 71
     3
 72
    29
 73
    25
 74
     0
 42
0.000000001
 43
0.0000000001
 40
0.0
 40
0.0
 40
0.0
 40
0.0
 40
1.0
 40
1.0
 40
1.0
 40
2.0
 40
2.0
 40
2.0
 40
3.0
 40
3.0
 40
3.0
 40
4.0
 40
4.0
 40
4.0
 40
5.0
 40
5.0
 40
5.0
 40
6.0
 40
6.0
 40
6.0
 40
7.0
 40
7.0
 40
7.0
 40
8.0
 40
8.0
 40
8.0
 40
8.0
 10
101.6420971922469
 20
132.8388354296931
 30
0.0
 10
101.630039350094
 20
134.7164137077823
 30
0.0
 10
102.2236296937908
 20
138.0598810818841
 30
0.0
 10
103.7487744712405
 20
142.5378191476827
 30
0.0
 10
105.819967243327
 20
148.5896501242061
 30
0.0
 10
107.0602024361932
 20
150.8074318058939
 30
0.0
 10
108.1522984254671
 20
151.8833358357054
 30
0.0
 10
109.741177511439
 20
153.4532668840085
 30
0.0
 10
111.8740375333931
 20
153.5290590346837
 30
0.0
 10
112.5075910110823
 20
153.4532668840085
 30
0.0
 10
113.4012493694975
 20
153.3490526768302
 30
0.0
 10
114.6683563248758
 20
152.7580461564518
 30
0.0
 10
114.7493161221879
 20
150.7838328862519
 30
0.0
 10
114.8106388622796
 20
149.0909118479895
 30
0.0
 10
114.3186789024427
 20
145.9191825971221
 30
0.0
 10
112.6164561002338
 20
140.9489400617108
 30
0.0
 10
110.6444821435766
 20
135.1746117095912
 30
0.0
 10
109.4669477299053
 20
132.8960240524753
 30
0.0
 10
108.5212683953448
 20
131.9072809959403
 30
0.0
 10
106.7346406980658
 20
130.0538184021569
 30
0.0
 10
104.8222669326213
 20
130.2336525051225
 30
0.0
 10
104.5408024457958
 20
130.2336525051225
 30
0.0
 10
104.1721769856939
 20
130.2336525051225
 30
0.0
 10
101.6465758193322
 20
130.6305277668397
 30
0.0
 10
101.6420971922469
 20
132.8388354296931
 30
0.0
  0
SPLINE
  5
1DA9
330
1DA0
100
AcDbEntity
  8
TFORMLOGO
370
     0
100
AcDbSpline
210
0.0
220
0.0
230
1.0
 70
    11
 71
     3
 72
    32
 73
    28
 74
     0
 42
0.000000001
 43
0.0000000001
 40
0.0
 40
0.0
 40
0.0
 40
0.0
 40
1.0
 40
1.0
 40
1.0
 40
2.0
 40
2.0
 40
2.0
 40
3.0
 40
3.0
 40
3.0
 40
4.0
 40
4.0
 40
4.0
 40
5.0
 40
5.0
 40
5.0
 40
6.0
 40
6.0
 40
6.0
 40
7.0
 40
7.0
 40
7.0
 40
8.0
 40
8.0
 40
8.0
 40
9.0
 40
9.0
 40
9.0
 40
9.0
 10
106.2595617172429
 20
153.4105476718098
 30
0.0
 10
104.8222669326213
 20
151.5474388043041
 30
0.0
 10
103.7177685914188
 20
149.8758773721411
 30
0.0
 10
101.9232171692965
 20
144.6141795664062
 30
0.0
 10
100.2754269116635
 20
139.7999999594306
 30
0.0
 10
99.22777268346732
 20
136.3052927937542
 30
0.0
 10
99.06964269637689
 20
132.039572749846
 30
0.0
 10
98.94665270641765
 20
128.8673267343149
 30
0.0
 10
100.8807305877373
 20
127.8027915271048
 30
0.0
 10
103.7129454545577
 20
127.8027915271048
 30
0.0
 10
104.9352661390825
 20
127.8027915271048
 30
0.0
 10
108.0151835347002
 20
127.8827177950895
 30
0.0
 10
110.2045431598849
 20
130.5926316915021
 30
0.0
 10
111.7417457794874
 20
132.4984597712065
 30
0.0
 10
113.155269389579
 20
134.475256864725
 30
0.0
 10
115.0562743324223
 20
140.9489400617108
 30
0.0
 10
116.6361961642235
 20
146.3680788349845
 30
0.0
 10
117.7282921534974
 20
149.8639917848761
 30
0.0
 10
117.6480213757369
 20
151.8595646611754
 30
0.0
 10
117.6480213757369
 20
151.8595646611754
 30
0.0
 10
117.6480213757369
 20
151.8595646611754
 30
0.0
 10
117.6480213757369
 20
151.8595646611754
 30
0.0
 10
117.13229024137
 20
155.18150017429
 30
0.0
 10
114.7162431837115
 20
155.886194920681
 30
0.0
 10
113.3351034925446
 20
155.886194920681
 30
0.0
 10
111.9829026225447
 20
155.886194920681
 30
0.0
 10
108.3414342923792
 20
156.1251124501957
 30
0.0
 10
106.2595617172429
 20
153.4105476718098
 30
0.0
  0
HATCH
  5
1DAA
330
1DA0
100
AcDbEntity
  8
TFORMLOGO
 62
   250
420
  2234388
100
AcDbHatch
 10
0.0
 20
0.0
 30
0.0
210
0.0
220
0.0
230
1.0
  2
SOLID
 70
     1
 71
     0
 91
        2
 92
        1
 93
        1
 72
     4
 94
        3
 73
     0
 74
     1
 95
       29
 96
       25
 40
0.0
 40
0.0
 40
0.0
 40
0.0
 40
1.0
 40
1.0
 40
1.0
 40
2.0
 40
2.0
 40
2.0
 40
3.0
 40
3.0
 40
3.0
 40
4.0
 40
4.0
 40
4.0
 40
5.0
 40
5.0
 40
5.0
 40
6.0
 40
6.0
 40
6.0
 40
7.0
 40
7.0
 40
7.0
 40
8.0
 40
8.0
 40
8.0
 40
8.0
 10
101.6420971922469
 20
132.8388354296931
 10
101.630039350094
 20
134.7164137077823
 10
102.2236296937908
 20
138.0598810818841
 10
103.7487744712405
 20
142.5378191476827
 10
105.819967243327
 20
148.5896501242061
 10
107.0602024361932
 20
150.8074318058939
 10
108.1522984254671
 20
151.8833358357054
 10
109.741177511439
 20
153.4532668840085
 10
111.8740375333931
 20
153.5290590346837
 10
112.5075910110823
 20
153.4532668840085
 10
113.4012493694975
 20
153.3490526768302
 10
114.6683563248758
 20
152.7580461564518
 10
114.7493161221879
 20
150.7838328862519
 10
114.8106388622796
 20
149.0909118479895
 10
114.3186789024427
 20
145.9191825971221
 10
112.6164561002338
 20
140.9489400617108
 10
110.6444821435766
 20
135.1746117095912
 10
109.4669477299053
 20
132.8960240524753
 10
108.5212683953448
 20
131.9072809959403
 10
106.7346406980658
 20
130.0538184021569
 10
104.8222669326213
 20
130.2336525051225
 10
104.5408024457958
 20
130.2336525051225
 10
104.1721769856939
 20
130.2336525051225
 10
101.6465758193322
 20
130.6305277668397
 10
101.6420971922469
 20
132.8388354296931
 97
        0
 92
        1
 93
        1
 72
     4
 94
        3
 73
     0
 74
     1
 95
       32
 96
       28
 40
0.0
 40
0.0
 40
0.0
 40
0.0
 40
1.0
 40
1.0
 40
1.0
 40
2.0
 40
2.0
 40
2.0
 40
3.0
 40
3.0
 40
3.0
 40
4.0
 40
4.0
 40
4.0
 40
5.0
 40
5.0
 40
5.0
 40
6.0
 40
6.0
 40
6.0
 40
7.0
 40
7.0
 40
7.0
 40
8.0
 40
8.0
 40
8.0
 40
9.0
 40
9.0
 40
9.0
 40
9.0
 10
106.2595617172429
 20
153.4105476718098
 10
104.8222669326213
 20
151.5474388043041
 10
103.7177685914188
 20
149.8758773721411
 10
101.9232171692965
 20
144.6141795664062
 10
100.2754269116635
 20
139.7999999594306
 10
99.22777268346732
 20
136.3052927937542
 10
99.06964269637689
 20
132.039572749846
 10
98.94665270641765
 20
128.8673267343149
 10
100.8807305877373
 20
127.8027915271048
 10
103.7129454545577
 20
127.8027915271048
 10
104.9352661390825
 20
127.8027915271048
 10
108.0151835347002
 20
127.8827177950895
 10
110.2045431598849
 20
130.5926316915021
 10
111.7417457794874
 20
132.4984597712065
 10
113.155269389579
 20
134.475256864725
 10
115.0562743324223
 20
140.9489400617108
 10
116.6361961642235
 20
146.3680788349845
 10
117.7282921534974
 20
149.8639917848761
 10
117.6480213757369
 20
151.8595646611754
 10
117.6480213757369
 20
151.8595646611754
 10
117.6480213757369
 20
151.8595646611754
 10
117.6480213757369
 20
151.8595646611754
 10
117.13229024137
 20
155.18150017429
 10
114.7162431837115
 20
155.886194920681
 10
113.3351034925446
 20
155.886194920681
 10
111.9829026225447
 20
155.886194920681
 10
108.3414342923792
 20
156.1251124501957
 10
106.2595617172429
 20
153.4105476718098
 97
        0
 75
     2
 76
     1
 98
        0
  0
ENDBLK
  5
1DAB
330
1DA0
100
AcDbEntity
  8
0
100
AcDbBlockEnd
  0
BLOCK
  5
5865
330
5864
100
AcDbEntity
  8
0
100
AcDbBlockBegin
  2
*D7
 70
     1
 10
0.0
 20
0.0
 30
0.0
  3
*D7
  1

  0
LINE
  5
5867
330
5864
100
AcDbEntity
  8
寸法
 62
     0
370
    -2
100
AcDbLine
 10
193.5834261518442
 20
287.5403384416102
 30
0.0
 11
235.94779104618
 21
287.5403384416102
 31
0.0
  0
LINE
  5
5868
330
5864
100
AcDbEntity
  8
寸法
 62
     0
370
    -2
100
AcDbLine
 10
193.5834261518442
 20
103.5403384416103
 30
0.0
 11
235.94779104618
 21
103.5403384416103
 31
0.0
  0
LINE
  5
5869
330
5864
100
AcDbEntity
  8
寸法
 62
     0
370
    -2
100
AcDbLine
 10
235.94779104618
 20
285.5403384416102
 30
0.0
 11
235.94779104618
 21
105.5403384416103
 31
0.0
  0
INSERT
  5
586A
330
5864
100
AcDbEntity
  8
寸法
 62
     0
370
    -2
100
AcDbBlockReference
  2
_DOT
 10
235.94779104618
 20
287.5403384416102
 30
0.0
 41
2.0
 42
2.0
 43
2.0
 50
90.0
  0
INSERT
  5
586B
330
5864
100
AcDbEntity
  8
寸法
 62
     0
370
    -2
100
AcDbBlockReference
  2
_DOT
 10
235.94779104618
 20
103.5403384416103
 30
0.0
 41
2.0
 42
2.0
 43
2.0
 50
270.0
  0
MTEXT
  5
586C
330
5864
100
AcDbEntity
  8
寸法
 62
     0
100
AcDbMText
 10
230.44779104618
 20
195.5403384416102
 30
0.0
 40
5.0
 41
0.0
 46
0.0
 71
     5
 72
     1
  1
\A1;184
  7
ＭＳ ゴシック
 11
0.0
 21
1.0
 31
0.0
 73
     1
 44
1.0
  0
POINT
  5
586D
330
5864
100
AcDbEntity
  8
Defpoints
 62
     0
100
AcDbPoint
 10
188.5834261518442
 20
287.5403384416102
 30
0.0
  0
POINT
  5
586E
330
5864
100
AcDbEntity
  8
Defpoints
 62
     0
100
AcDbPoint
 10
188.5834261518442
 20
103.5403384416103
 30
0.0
  0
POINT
  5
586F
330
5864
100
AcDbEntity
  8
Defpoints
 62
     0
100
AcDbPoint
 10
235.94779104618
 20
103.5403384416103
 30
0.0
  0
ENDBLK
  5
5866
330
5864
100
AcDbEntity
  8
0
100
AcDbBlockEnd
  0
BLOCK
  5
5883
330
5882
100
AcDbEntity
  8
0
100
AcDbBlockBegin
  2
*D8
 70
     1
 10
0.0
 20
0.0
 30
0.0
  3
*D8
  1

  0
LINE
  5
5885
330
5882
100
AcDbEntity
  8
寸法
 62
     0
370
    -2
100
AcDbLine
 10
193.5834261518442
 20
287.5403384416102
 30
0.0
 11
217.0647289835213
 21
287.5403384416102
 31
0.0
  0
LINE
  5
5886
330
5882
100
AcDbEntity
  8
寸法
 62
     0
370
    -2
100
AcDbLine
 10
156.1420809221351
 20
220.0403384416103
 30
0.0
 11
217.0647289835213
 21
220.0403384416103
 31
0.0
  0
LINE
  5
5887
330
5882
100
AcDbEntity
  8
寸法
 62
     0
370
    -2
100
AcDbLine
 10
217.0647289835213
 20
285.5403384416102
 30
0.0
 11
217.0647289835213
 21
222.0403384416103
 31
0.0
  0
INSERT
  5
5888
330
5882
100
AcDbEntity
  8
寸法
 62
     0
370
    -2
100
AcDbBlockReference
  2
_DOT
 10
217.0647289835213
 20
287.5403384416102
 30
0.0
 41
2.0
 42
2.0
 43
2.0
 50
90.0
  0
INSERT
  5
5889
330
5882
100
AcDbEntity
  8
寸法
 62
     0
370
    -2
100
AcDbBlockReference
  2
_DOT
 10
217.0647289835213
 20
220.0403384416103
 30
0.0
 41
2.0
 42
2.0
 43
2.0
 50
270.0
  0
MTEXT
  5
588A
330
5882
100
AcDbEntity
  8
寸法
 62
     0
100
AcDbMText
 10
211.5647289835213
 20
253.7903384416102
 30
0.0
 40
5.0
 41
0.0
 46
0.0
 71
     5
 72
     1
  1
\A1;68
  7
ＭＳ ゴシック
 11
0.0
 21
1.0
 31
0.0
 73
     1
 44
1.0
  0
POINT
  5
588B
330
5882
100
AcDbEntity
  8
Defpoints
 62
     0
100
AcDbPoint
 10
188.5834261518442
 20
287.5403384416102
 30
0.0
  0
POINT
  5
588C
330
5882
100
AcDbEntity
  8
Defpoints
 62
     0
100
AcDbPoint
 10
151.1420809221351
 20
220.0403384416103
 30
0.0
  0
POINT
  5
588D
330
5882
100
AcDbEntity
  8
Defpoints
 62
     0
100
AcDbPoint
 10
217.0647289835213
 20
220.0403384416103
 30
0.0
  0
ENDBLK
  5
5884
330
5882
100
AcDbEntity
  8
0
100
AcDbBlockEnd
  0
BLOCK
  5
5892
330
5891
100
AcDbEntity
  8
0
100
AcDbBlockBegin
  2
*D9
 70
     1
 10
0.0
 20
0.0
 30
0.0
  3
*D9
  1

  0
LINE
  5
5894
330
5891
100
AcDbEntity
  8
寸法
 62
     0
370
    -2
100
AcDbLine
 10
161.1420809221351
 20
220.0403384416103
 30
0.0
 11
217.0647289835213
 21
220.0403384416103
 31
0.0
  0
LINE
  5
5895
330
5891
100
AcDbEntity
  8
寸法
 62
     0
370
    -2
100
AcDbLine
 10
133.9150623076905
 20
148.0403384416103
 30
0.0
 11
217.0647289835213
 21
148.0403384416103
 31
0.0
  0
LINE
  5
5896
330
5891
100
AcDbEntity
  8
寸法
 62
     0
370
    -2
100
AcDbLine
 10
217.0647289835213
 20
218.0403384416103
 30
0.0
 11
217.0647289835213
 21
150.0403384416103
 31
0.0
  0
INSERT
  5
5897
330
5891
100
AcDbEntity
  8
寸法
 62
     0
370
    -2
100
AcDbBlockReference
  2
_DOT
 10
217.0647289835213
 20
220.0403384416103
 30
0.0
 41
2.0
 42
2.0
 43
2.0
 50
90.0
  0
INSERT
  5
5898
330
5891
100
AcDbEntity
  8
寸法
 62
     0
370
    -2
100
AcDbBlockReference
  2
_DOT
 10
217.0647289835213
 20
148.0403384416103
 30
0.0
 41
2.0
 42
2.0
 43
2.0
 50
270.0
  0
MTEXT
  5
5899
330
5891
100
AcDbEntity
  8
寸法
 62
     0
100
AcDbMText
 10
211.5647289835213
 20
184.0403384416103
 30
0.0
 40
5.0
 41
0.0
 46
0.0
 71
     5
 72
     1
  1
\A1;72
  7
ＭＳ ゴシック
 11
0.0
 21
1.0
 31
0.0
 73
     1
 44
1.0
  0
POINT
  5
589A
330
5891
100
AcDbEntity
  8
Defpoints
 62
     0
100
AcDbPoint
 10
156.1420809221351
 20
220.0403384416103
 30
0.0
  0
POINT
  5
589B
330
5891
100
AcDbEntity
  8
Defpoints
 62
     0
100
AcDbPoint
 10
128.9150623076905
 20
148.0403384416103
 30
0.0
  0
POINT
  5
589C
330
5891
100
AcDbEntity
  8
Defpoints
 62
     0
100
AcDbPoint
 10
217.0647289835213
 20
148.0403384416103
 30
0.0
  0
ENDBLK
  5
5893
330
5891
100
AcDbEntity
  8
0
100
AcDbBlockEnd
  0
BLOCK
  5
58A1
330
58A0
100
AcDbEntity
  8
0
100
AcDbBlockBegin
  2
*D10
 70
     1
 10
0.0
 20
0.0
 30
0.0
  3
*D10
  1

  0
LINE
  5
58A3
330
58A0
100
AcDbEntity
  8
寸法
 62
     0
370
    -2
100
AcDbLine
 10
127.6420809221351
 20
238.2903104416104
 30
0.0
 11
127.6420809221351
 21
299.3655993358827
 31
0.0
  0
LINE
  5
58A4
330
58A0
100
AcDbEntity
  8
寸法
 62
     0
370
    -2
100
AcDbLine
 10
184.1420809221349
 20
293.4204683636361
 30
0.0
 11
184.1420809221349
 21
299.3655993358827
 31
0.0
  0
LINE
  5
58A5
330
58A0
100
AcDbEntity
  8
寸法
 62
     0
370
    -2
100
AcDbLine
 10
129.6420809221351
 20
299.3655993358827
 30
0.0
 11
182.1420809221349
 21
299.3655993358827
 31
0.0
  0
INSERT
  5
58A6
330
58A0
100
AcDbEntity
  8
寸法
 62
     0
370
    -2
100
AcDbBlockReference
  2
_DOT
 10
127.6420809221351
 20
299.3655993358827
 30
0.0
 41
2.0
 42
2.0
 43
2.0
 50
180.0
  0
INSERT
  5
58A7
330
58A0
100
AcDbEntity
  8
寸法
 62
     0
370
    -2
100
AcDbBlockReference
  2
_DOT
 10
184.1420809221349
 20
299.3655993358827
 30
0.0
 41
2.0
 42
2.0
 43
2.0
  0
MTEXT
  5
58A8
330
58A0
100
AcDbEntity
  8
寸法
 62
     0
100
AcDbMText
 10
155.8920809221351
 20
304.8655993358827
 30
0.0
 40
5.0
 41
0.0
 46
0.0
 71
     5
 72
     1
  1
\A1;56.5
  7
ＭＳ ゴシック
 73
     1
 44
1.0
  0
POINT
  5
58A9
330
58A0
100
AcDbEntity
  8
Defpoints
 62
     0
100
AcDbPoint
 10
127.6420809221351
 20
233.2903104416104
 30
0.0
  0
POINT
  5
58AA
330
58A0
100
AcDbEntity
  8
Defpoints
 62
     0
100
AcDbPoint
 10
184.1420809221349
 20
288.4204683636361
 30
0.0
  0
POINT
  5
58AB
330
58A0
100
AcDbEntity
  8
Defpoints
 62
     0
100
AcDbPoint
 10
184.1420809221349
 20
299.3655993358827
 30
0.0
  0
ENDBLK
  5
58A2
330
58A0
100
AcDbEntity
  8
0
100
AcDbBlockEnd
  0
BLOCK
  5
58BA
330
58B9
100
AcDbEntity
  8
0
100
AcDbBlockBegin
  2
*D11
 70
     1
 10
0.0
 20
0.0
 30
0.0
  3
*D11
  1

  0
LINE
  5
58BC
330
58B9
100
AcDbEntity
  8
寸法
 62
     0
370
    -2
100
AcDbLine
 10
85.141740922135
 20
354.2608136559497
 30
0.0
 11
66.56369529295216
 21
354.2608136559497
 31
0.0
  0
LINE
  5
58BD
330
58B9
100
AcDbEntity
  8
寸法
 62
     0
370
    -2
100
AcDbLine
 10
85.141740922135
 20
332.7608136559497
 30
0.0
 11
66.56369529295216
 21
332.7608136559497
 31
0.0
  0
LINE
  5
58BE
330
58B9
100
AcDbEntity
  8
寸法
 62
     0
370
    -2
100
AcDbLine
 10
66.56369529295216
 20
352.2608136559497
 30
0.0
 11
66.56369529295216
 21
334.7608136559497
 31
0.0
  0
INSERT
  5
58BF
330
58B9
100
AcDbEntity
  8
寸法
 62
     0
370
    -2
100
AcDbBlockReference
  2
_DOT
 10
66.56369529295216
 20
354.2608136559497
 30
0.0
 41
2.0
 42
2.0
 43
2.0
 50
90.0
  0
INSERT
  5
58C0
330
58B9
100
AcDbEntity
  8
寸法
 62
     0
370
    -2
100
AcDbBlockReference
  2
_DOT
 10
66.56369529295216
 20
332.7608136559497
 30
0.0
 41
2.0
 42
2.0
 43
2.0
 50
270.0
  0
MTEXT
  5
58C1
330
58B9
100
AcDbEntity
  8
寸法
 62
     0
100
AcDbMText
 10
61.06369529295216
 20
343.5108136559497
 30
0.0
 40
5.0
 41
0.0
 46
0.0
 71
     5
 72
     1
  1
\A1;21.5
  7
ＭＳ ゴシック
 11
0.0
 21
1.0
 31
0.0
 73
     1
 44
1.0
  0
POINT
  5
58C2
330
58B9
100
AcDbEntity
  8
Defpoints
 62
     0
100
AcDbPoint
 10
90.141740922135
 20
354.2608136559497
 30
0.0
  0
POINT
  5
58C3
330
58B9
100
AcDbEntity
  8
Defpoints
 62
     0
100
AcDbPoint
 10
90.141740922135
 20
332.7608136559497
 30
0.0
  0
POINT
  5
58C4
330
58B9
100
AcDbEntity
  8
Defpoints
 62
     0
100
AcDbPoint
 10
66.56369529295216
 20
332.7608136559497
 30
0.0
  0
ENDBLK
  5
58BB
330
58B9
100
AcDbEntity
  8
0
100
AcDbBlockEnd
  0
BLOCK
  5
58CF
330
58CE
100
AcDbEntity
  8
0
100
AcDbBlockBegin
  2
*D12
 70
     1
 10
0.0
 20
0.0
 30
0.0
  3
*D12
  1

  0
LINE
  5
58D1
330
58CE
100
AcDbEntity
  8
寸法
 62
     0
370
    -2
100
AcDbLine
 10
174.1420809221351
 20
362.2608136559497
 30
0.0
 11
204.2471871174163
 21
362.2608136559497
 31
0.0
  0
LINE
  5
58D2
330
58CE
100
AcDbEntity
  8
寸法
 62
     0
370
    -2
100
AcDbLine
 10
184.1420809221351
 20
354.0608136559498
 30
0.0
 11
204.2471871174163
 21
354.0608136559498
 31
0.0
  0
LINE
  5
58D3
330
58CE
100
AcDbEntity
  8
寸法
 62
     0
370
    -2
100
AcDbLine
 10
204.2471871174163
 20
360.2608136559497
 30
0.0
 11
204.2471871174163
 21
356.0608136559498
 31
0.0
  0
INSERT
  5
58D4
330
58CE
100
AcDbEntity
  8
寸法
 62
     0
370
    -2
100
AcDbBlockReference
  2
_DOT
 10
204.2471871174163
 20
362.2608136559497
 30
0.0
 41
2.0
 42
2.0
 43
2.0
 50
90.0
  0
INSERT
  5
58D5
330
58CE
100
AcDbEntity
  8
寸法
 62
     0
370
    -2
100
AcDbBlockReference
  2
_DOT
 10
204.2471871174163
 20
354.0608136559498
 30
0.0
 41
2.0
 42
2.0
 43
2.0
 50
270.0
  0
MTEXT
  5
58D6
330
58CE
100
AcDbEntity
  8
寸法
 62
     0
100
AcDbMText
 10
198.7471871174163
 20
358.1608136559497
 30
0.0
 40
5.0
 41
0.0
 46
0.0
 71
     5
 72
     1
  1
\A1;8
  7
ＭＳ ゴシック
 11
0.0
 21
1.0
 31
0.0
 73
     1
 44
1.0
  0
POINT
  5
58D7
330
58CE
100
AcDbEntity
  8
Defpoints
 62
     0
100
AcDbPoint
 10
169.1420809221351
 20
362.2608136559497
 30
0.0
  0
POINT
  5
58D8
330
58CE
100
AcDbEntity
  8
Defpoints
 62
     0
100
AcDbPoint
 10
179.1420809221351
 20
354.0608136559498
 30
0.0
  0
POINT
  5
58D9
330
58CE
100
AcDbEntity
  8
Defpoints
 62
     0
100
AcDbPoint
 10
204.2471871174163
 20
354.0608136559498
 30
0.0
  0
ENDBLK
  5
58D0
330
58CE
100
AcDbEntity
  8
0
100
AcDbBlockEnd
  0
BLOCK
  5
58DF
330
58DE
100
AcDbEntity
  8
0
100
AcDbBlockBegin
  2
*D13
 70
     1
 10
0.0
 20
0.0
 30
0.0
  3
*D13
  1

  0
LINE
  5
58E1
330
58DE
100
AcDbEntity
  8
寸法
 62
     0
370
    -2
100
AcDbLine
 10
179.1420809221351
 20
362.2608136559497
 30
0.0
 11
204.2471871174163
 21
362.2608136559497
 31
0.0
  0
LINE
  5
58E2
330
58DE
100
AcDbEntity
  8
寸法
 62
     0
370
    -2
100
AcDbLine
 10
179.1420809221351
 20
372.2608136559497
 30
0.0
 11
204.2471871174163
 21
372.2608136559497
 31
0.0
  0
LINE
  5
58E3
330
58DE
100
AcDbEntity
  8
寸法
 62
     0
370
    -2
100
AcDbLine
 10
204.2471871174163
 20
364.2608136559497
 30
0.0
 11
204.2471871174163
 21
370.2608136559497
 31
0.0
  0
INSERT
  5
58E4
330
58DE
100
AcDbEntity
  8
寸法
 62
     0
370
    -2
100
AcDbBlockReference
  2
_DOT
 10
204.2471871174163
 20
362.2608136559497
 30
0.0
 41
2.0
 42
2.0
 43
2.0
 50
270.0
  0
INSERT
  5
58E5
330
58DE
100
AcDbEntity
  8
寸法
 62
     0
370
    -2
100
AcDbBlockReference
  2
_DOT
 10
204.2471871174163
 20
372.2608136559497
 30
0.0
 41
2.0
 42
2.0
 43
2.0
 50
90.0
  0
MTEXT
  5
58E6
330
58DE
100
AcDbEntity
  8
寸法
 62
     0
100
AcDbMText
 10
198.7471871174163
 20
367.2608136559497
 30
0.0
 40
5.0
 41
0.0
 46
0.0
 71
     5
 72
     1
  1
\A1;10
  7
ＭＳ ゴシック
 11
0.0
 21
1.0
 31
0.0
 73
     1
 44
1.0
  0
POINT
  5
58E7
330
58DE
100
AcDbEntity
  8
Defpoints
 62
     0
100
AcDbPoint
 10
174.1420809221351
 20
362.2608136559497
 30
0.0
  0
POINT
  5
58E8
330
58DE
100
AcDbEntity
  8
Defpoints
 62
     0
100
AcDbPoint
 10
174.1420809221351
 20
372.2608136559497
 30
0.0
  0
POINT
  5
58E9
330
58DE
100
AcDbEntity
  8
Defpoints
 62
     0
100
AcDbPoint
 10
204.2471871174163
 20
372.2608136559497
 30
0.0
  0
ENDBLK
  5
58E0
330
58DE
100
AcDbEntity
  8
0
100
AcDbBlockEnd
  0
BLOCK
  5
58F7
330
58F6
100
AcDbEntity
  8
0
100
AcDbBlockBegin
  2
*D14
 70
     1
 10
0.0
 20
0.0
 30
0.0
  3
*D14
  1

  0
LINE
  5
58F9
330
58F6
100
AcDbEntity
  8
寸法
 62
     0
370
    -2
100
AcDbLine
 10
208.7527991396991
 20
362.2608136559497
 30
0.0
 11
227.599178051834
 21
362.2608136559497
 31
0.0
  0
LINE
  5
58FA
330
58F6
100
AcDbEntity
  8
寸法
 62
     0
370
    -2
100
AcDbLine
 10
202.8976778943481
 20
341.7608136559497
 30
0.0
 11
227.599178051834
 21
341.7608136559497
 31
0.0
  0
LINE
  5
58FB
330
58F6
100
AcDbEntity
  8
寸法
 62
     0
370
    -2
100
AcDbLine
 10
227.599178051834
 20
360.2608136559497
 30
0.0
 11
227.599178051834
 21
343.7608136559497
 31
0.0
  0
INSERT
  5
58FC
330
58F6
100
AcDbEntity
  8
寸法
 62
     0
370
    -2
100
AcDbBlockReference
  2
_DOT
 10
227.599178051834
 20
362.2608136559497
 30
0.0
 41
2.0
 42
2.0
 43
2.0
 50
90.0
  0
INSERT
  5
58FD
330
58F6
100
AcDbEntity
  8
寸法
 62
     0
370
    -2
100
AcDbBlockReference
  2
_DOT
 10
227.599178051834
 20
341.7608136559497
 30
0.0
 41
2.0
 42
2.0
 43
2.0
 50
270.0
  0
MTEXT
  5
58FE
330
58F6
100
AcDbEntity
  8
寸法
 62
     0
100
AcDbMText
 10
222.099178051834
 20
352.0108136559497
 30
0.0
 40
5.0
 41
0.0
 46
0.0
 71
     5
 72
     1
  1
\A1;20.5
  7
ＭＳ ゴシック
 11
0.0
 21
1.0
 31
0.0
 73
     1
 44
1.0
  0
POINT
  5
58FF
330
58F6
100
AcDbEntity
  8
Defpoints
 62
     0
100
AcDbPoint
 10
203.7527991396991
 20
362.2608136559497
 30
0.0
  0
POINT
  5
5900
330
58F6
100
AcDbEntity
  8
Defpoints
 62
     0
100
AcDbPoint
 10
197.8976778943481
 20
341.7608136559497
 30
0.0
  0
POINT
  5
5901
330
58F6
100
AcDbEntity
  8
Defpoints
 62
     0
100
AcDbPoint
 10
227.599178051834
 20
341.7608136559497
 30
0.0
  0
ENDBLK
  5
58F8
330
58F6
100
AcDbEntity
  8
0
100
AcDbBlockEnd
  0
BLOCK
  5
590C
330
590B
100
AcDbEntity
  8
0
100
AcDbBlockBegin
  2
*D15
 70
     1
 10
0.0
 20
0.0
 30
0.0
  3
*D15
  1

  0
LINE
  5
590E
330
590B
100
AcDbEntity
  8
寸法
 62
     0
370
    -2
100
AcDbLine
 10
471.3497233890007
 20
220.0403384416109
 30
0.0
 11
518.9250777555762
 21
220.0403384416109
 31
0.0
  0
LINE
  5
590F
330
590B
100
AcDbEntity
  8
寸法
 62
     0
370
    -2
100
AcDbLine
 10
471.2759925681955
 20
140.0403384416105
 30
0.0
 11
518.9250777555762
 21
140.0403384416105
 31
0.0
  0
LINE
  5
5910
330
590B
100
AcDbEntity
  8
寸法
 62
     0
370
    -2
100
AcDbLine
 10
518.9250777555762
 20
218.0403384416109
 30
0.0
 11
518.9250777555762
 21
142.0403384416105
 31
0.0
  0
INSERT
  5
5911
330
590B
100
AcDbEntity
  8
寸法
 62
     0
370
    -2
100
AcDbBlockReference
  2
_DOT
 10
518.9250777555762
 20
220.0403384416109
 30
0.0
 41
2.0
 42
2.0
 43
2.0
 50
90.0
  0
INSERT
  5
5912
330
590B
100
AcDbEntity
  8
寸法
 62
     0
370
    -2
100
AcDbBlockReference
  2
_DOT
 10
518.9250777555762
 20
140.0403384416105
 30
0.0
 41
2.0
 42
2.0
 43
2.0
 50
270.0
  0
MTEXT
  5
5913
330
590B
100
AcDbEntity
  8
寸法
 62
     0
100
AcDbMText
 10
513.4250777555762
 20
180.0403384416107
 30
0.0
 40
5.0
 41
0.0
 46
0.0
 71
     5
 72
     1
  1
\A1;80
  7
ＭＳ ゴシック
 11
0.0
 21
1.0
 31
0.0
 73
     1
 44
1.0
  0
POINT
  5
5914
330
590B
100
AcDbEntity
  8
Defpoints
 62
     0
100
AcDbPoint
 10
466.3497233890007
 20
220.0403384416109
 30
0.0
  0
POINT
  5
5915
330
590B
100
AcDbEntity
  8
Defpoints
 62
     0
100
AcDbPoint
 10
466.2759925681955
 20
140.0403384416105
 30
0.0
  0
POINT
  5
5916
330
590B
100
AcDbEntity
  8
Defpoints
 62
     0
100
AcDbPoint
 10
518.9250777555762
 20
140.0403384416105
 30
0.0
  0
ENDBLK
  5
590D
330
590B
100
AcDbEntity
  8
0
100
AcDbBlockEnd
  0
BLOCK
  5
5959
330
5958
100
AcDbEntity
  8
0
100
AcDbBlockBegin
  2
*D16
 70
     1
 10
0.0
 20
0.0
 30
0.0
  3
*D16
  1

  0
LINE
  5
595B
330
5958
100
AcDbEntity
  8
寸法
 62
     0
370
    -2
100
AcDbLine
 10
88.14174092213511
 20
331.3349114907206
 30
0.0
 11
88.14174092213511
 21
321.137313204523
 31
0.0
  0
LINE
  5
595C
330
5958
100
AcDbEntity
  8
寸法
 62
     0
370
    -2
100
AcDbLine
 10
184.1420809221351
 20
331.3349114907206
 30
0.0
 11
184.1420809221351
 21
321.137313204523
 31
0.0
  0
LINE
  5
595D
330
5958
100
AcDbEntity
  8
寸法
 62
     0
370
    -2
100
AcDbLine
 10
90.14174092213511
 20
321.137313204523
 30
0.0
 11
182.1420809221351
 21
321.137313204523
 31
0.0
  0
INSERT
  5
595E
330
5958
100
AcDbEntity
  8
寸法
 62
     0
370
    -2
100
AcDbBlockReference
  2
_DOT
 10
88.14174092213511
 20
321.137313204523
 30
0.0
 41
2.0
 42
2.0
 43
2.0
 50
180.0
  0
INSERT
  5
595F
330
5958
100
AcDbEntity
  8
寸法
 62
     0
370
    -2
100
AcDbBlockReference
  2
_DOT
 10
184.1420809221351
 20
321.137313204523
 30
0.0
 41
2.0
 42
2.0
 43
2.0
  0
MTEXT
  5
5960
330
5958
100
AcDbEntity
  8
寸法
 62
     0
100
AcDbMText
 10
136.1419109221351
 20
326.637313204523
 30
0.0
 40
5.0
 41
0.0
 46
0.0
 71
     5
 72
     1
  1
\A1;96
  7
ＭＳ ゴシック
 73
     1
 44
1.0
  0
POINT
  5
5961
330
5958
100
AcDbEntity
  8
Defpoints
 62
     0
100
AcDbPoint
 10
88.14174092213511
 20
336.3349114907206
 30
0.0
  0
POINT
  5
5962
330
5958
100
AcDbEntity
  8
Defpoints
 62
     0
100
AcDbPoint
 10
184.1420809221351
 20
336.3349114907206
 30
0.0
  0
POINT
  5
5963
330
5958
100
AcDbEntity
  8
Defpoints
 62
     0
100
AcDbPoint
 10
184.1420809221351
 20
321.137313204523
 30
0.0
  0
ENDBLK
  5
595A
330
5958
100
AcDbEntity
  8
0
100
AcDbBlockEnd
  0
BLOCK
  5
5968
330
5967
100
AcDbEntity
  8
0
100
AcDbBlockBegin
  2
*D17
 70
     1
 10
0.0
 20
0.0
 30
0.0
  3
*D17
  1

  0
LINE
  5
596A
330
5967
100
AcDbEntity
  8
寸法
 62
     0
370
    -2
100
AcDbLine
 10
88.14208092213505
 20
374.2608136559497
 30
0.0
 11
88.14208092213505
 21
382.8151415736955
 31
0.0
  0
LINE
  5
596B
330
5967
100
AcDbEntity
  8
寸法
 62
     0
370
    -2
100
AcDbLine
 10
169.1420809221351
 20
374.2608136559497
 30
0.0
 11
169.1420809221351
 21
382.8151415736955
 31
0.0
  0
LINE
  5
596C
330
5967
100
AcDbEntity
  8
寸法
 62
     0
370
    -2
100
AcDbLine
 10
90.14208092213505
 20
382.8151415736955
 30
0.0
 11
167.1420809221351
 21
382.8151415736955
 31
0.0
  0
INSERT
  5
596D
330
5967
100
AcDbEntity
  8
寸法
 62
     0
370
    -2
100
AcDbBlockReference
  2
_DOT
 10
88.14208092213505
 20
382.8151415736955
 30
0.0
 41
2.0
 42
2.0
 43
2.0
 50
180.0
  0
INSERT
  5
596E
330
5967
100
AcDbEntity
  8
寸法
 62
     0
370
    -2
100
AcDbBlockReference
  2
_DOT
 10
169.1420809221351
 20
382.8151415736955
 30
0.0
 41
2.0
 42
2.0
 43
2.0
  0
MTEXT
  5
596F
330
5967
100
AcDbEntity
  8
寸法
 62
     0
100
AcDbMText
 10
128.6420809221351
 20
388.3151415736955
 30
0.0
 40
5.0
 41
0.0
 46
0.0
 71
     5
 72
     1
  1
\A1;81
  7
ＭＳ ゴシック
 73
     1
 44
1.0
  0
POINT
  5
5970
330
5967
100
AcDbEntity
  8
Defpoints
 62
     0
100
AcDbPoint
 10
88.14208092213505
 20
369.2608136559497
 30
0.0
  0
POINT
  5
5971
330
5967
100
AcDbEntity
  8
Defpoints
 62
     0
100
AcDbPoint
 10
169.1420809221351
 20
369.2608136559497
 30
0.0
  0
POINT
  5
5972
330
5967
100
AcDbEntity
  8
Defpoints
 62
     0
100
AcDbPoint
 10
169.1420809221351
 20
382.8151415736955
 30
0.0
  0
ENDBLK
  5
5969
330
5967
100
AcDbEntity
  8
0
100
AcDbBlockEnd
  0
BLOCK
  5
5DDB
330
5DDA
100
AcDbEntity
  8
0
100
AcDbBlockBegin
  2
*D18
 70
     1
 10
0.0
 20
0.0
 30
0.0
  3
*D18
  1

  0
LINE
  5
5DDD
330
5DDA
100
AcDbEntity
  8
寸法
 62
     0
370
    -2
100
AcDbLine
 10
493.2759925681955
 20
287.8068829090909
 30
0.0
 11
493.2759925681955
 21
297.5941876363636
 31
0.0
  0
LINE
  5
5DDE
330
5DDA
100
AcDbEntity
  8
寸法
 62
     0
370
    -2
100
AcDbLine
 10
436.2759925681955
 20
292.5403384416102
 30
0.0
 11
436.2759925681955
 21
297.5941876363636
 31
0.0
  0
LINE
  5
5DDF
330
5DDA
100
AcDbEntity
  8
寸法
 62
     0
370
    -2
100
AcDbLine
 10
491.2759925681955
 20
297.5941876363636
 30
0.0
 11
438.2759925681955
 21
297.5941876363636
 31
0.0
  0
INSERT
  5
5DE0
330
5DDA
100
AcDbEntity
  8
寸法
 62
     0
370
    -2
100
AcDbBlockReference
  2
_DOT
 10
493.2759925681955
 20
297.5941876363636
 30
0.0
 41
2.0
 42
2.0
 43
2.0
  0
INSERT
  5
5DE1
330
5DDA
100
AcDbEntity
  8
寸法
 62
     0
370
    -2
100
AcDbBlockReference
  2
_DOT
 10
436.2759925681955
 20
297.5941876363636
 30
0.0
 41
2.0
 42
2.0
 43
2.0
 50
180.0
  0
MTEXT
  5
5DE2
330
5DDA
100
AcDbEntity
  8
寸法
 62
     0
100
AcDbMText
 10
464.5259925681955
 20
303.0941876363636
 30
0.0
 40
5.0
 41
0.0
 46
0.0
 71
     5
 72
     1
  1
\A1;57
  7
ＭＳ ゴシック
 73
     1
 44
1.0
  0
POINT
  5
5DE3
330
5DDA
100
AcDbEntity
  8
Defpoints
 62
     0
100
AcDbPoint
 10
493.2759925681955
 20
282.8068829090909
 30
0.0
  0
POINT
  5
5DE4
330
5DDA
100
AcDbEntity
  8
Defpoints
 62
     0
100
AcDbPoint
 10
436.2759925681955
 20
287.5403384416102
 30
0.0
  0
POINT
  5
5DE5
330
5DDA
100
AcDbEntity
  8
Defpoints
 62
     0
100
AcDbPoint
 10
436.2759925681955
 20
297.5941876363636
 30
0.0
  0
ENDBLK
  5
5DDC
330
5DDA
100
AcDbEntity
  8
0
100
AcDbBlockEnd
  0
BLOCK
  5
5DEA
330
5DE9
100
AcDbEntity
  8
0
100
AcDbBlockBegin
  2
*D19
 70
     1
 10
0.0
 20
0.0
 30
0.0
  3
*D19
  1

  0
LINE
  5
5DEC
330
5DE9
100
AcDbEntity
  8
寸法
 62
     0
370
    -2
100
AcDbLine
 10
436.2759925681955
 20
284.5039748052467
 30
0.0
 11
436.2759925681955
 21
290.057824
 31
0.0
  0
LINE
  5
5DED
330
5DE9
100
AcDbEntity
  8
寸法
 62
     0
370
    -2
100
AcDbLine
 10
396.7756525681955
 20
280.3782167272728
 30
0.0
 11
396.7756525681955
 21
290.057824
 31
0.0
  0
LINE
  5
5DEE
330
5DE9
100
AcDbEntity
  8
寸法
 62
     0
370
    -2
100
AcDbLine
 10
434.2759925681955
 20
290.057824
 30
0.0
 11
398.7756525681955
 21
290.057824
 31
0.0
  0
INSERT
  5
5DEF
330
5DE9
100
AcDbEntity
  8
寸法
 62
     0
370
    -2
100
AcDbBlockReference
  2
_DOT
 10
436.2759925681955
 20
290.057824
 30
0.0
 41
2.0
 42
2.0
 43
2.0
  0
INSERT
  5
5DF0
330
5DE9
100
AcDbEntity
  8
寸法
 62
     0
370
    -2
100
AcDbBlockReference
  2
_DOT
 10
396.7756525681955
 20
290.057824
 30
0.0
 41
2.0
 42
2.0
 43
2.0
 50
180.0
  0
MTEXT
  5
5DF1
330
5DE9
100
AcDbEntity
  8
寸法
 62
     0
100
AcDbMText
 10
416.5258225681955
 20
295.557824
 30
0.0
 40
5.0
 41
0.0
 46
0.0
 71
     5
 72
     1
  1
\A1;40
  7
ＭＳ ゴシック
 73
     1
 44
1.0
  0
POINT
  5
5DF2
330
5DE9
100
AcDbEntity
  8
Defpoints
 62
     0
100
AcDbPoint
 10
436.2759925681955
 20
279.5039748052467
 30
0.0
  0
POINT
  5
5DF3
330
5DE9
100
AcDbEntity
  8
Defpoints
 62
     0
100
AcDbPoint
 10
396.7756525681955
 20
275.3782167272728
 30
0.0
  0
POINT
  5
5DF4
330
5DE9
100
AcDbEntity
  8
Defpoints
 62
     0
100
AcDbPoint
 10
396.7756525681955
 20
290.057824
 30
0.0
  0
ENDBLK
  5
5DEB
330
5DE9
100
AcDbEntity
  8
0
100
AcDbBlockEnd
  0
ENDSEC
  0
SECTION
  2
ENTITIES
  0
LINE
  5
36CD
330
A
100
AcDbEntity
  8
PRINT BORDER
100
AcDbLine
 10
296.9999999999999
 20
0.0
 30
0.0
 11
296.9999999999999
 21
15.30952622855898
 31
0.0
  0
LINE
  5
36CE
330
A
100
AcDbEntity
  8
テンプレート
100
AcDbLine
 10
461.9272435043344
 20
38.27810890422097
 30
0.0
 11
15.30952622855898
 21
38.27810890422097
 31
0.0
  0
LINE
  5
36CF
330
A
100
AcDbEntity
  8
テンプレート
100
AcDbLine
 10
15.30952622855898
 20
26.22153683920783
 30
0.0
 11
578.6904737714407
 21
26.22153683920783
 31
0.0
  0
TEXT
  5
36D0
330
A
100
AcDbEntity
  8
テンプレート
100
AcDbText
 10
18.06121699514119
 20
32.16825981613692
 30
0.0
 40
3.5
  1
材質
  7
ＭＳ ゴシック
100
AcDbText
  0
TEXT
  5
36D3
330
A
100
AcDbEntity
  8
テンプレート
100
AcDbText
 10
18.06121699514119
 20
56.50959028673083
 30
0.0
 40
3.5
  1
品名
  7
ＭＳ ゴシック
100
AcDbText
  0
TEXT
  5
36D4
330
A
100
AcDbEntity
  8
テンプレート
100
AcDbText
 10
18.06121699514119
 20
44.65099339080098
 30
0.0
 40
3.5
  1
仕上げ
  7
ＭＳ ゴシック
100
AcDbText
  0
TEXT
  5
36D5
330
A
100
AcDbEntity
  8
テンプレート
100
AcDbText
 10
373.1087493822859
 20
56.58523052309896
 30
0.0
 40
3.5
  1
品番
  7
ＭＳ ゴシック
100
AcDbText
  0
TEXT
  5
36D6
330
A
100
AcDbEntity
  8
テンプレート
100
AcDbText
 10
36.7528253083583
 20
53.09440584367189
 30
0.0
 40
5.5
  1
ガラス用ケース - FSB -
  7
ＭＳ ゴシック
100
AcDbText
  0
TEXT
  5
36D7
330
A
100
AcDbEntity
  8
テンプレート
100
AcDbText
 10
387.3025214068017
 20
52.97708052455299
 30
0.0
 40
5.5
  1
FSB51-4220G
  7
ＭＳ ゴシック
100
AcDbText
  0
LINE
  5
36D8
330
A
100
AcDbEntity
  8
テンプレート
100
AcDbLine
 10
461.9272435043344
 20
50.16496477419605
 30
0.0
 11
15.30952622855898
 21
50.16496477419605
 31
0.0
  0
LINE
  5
36D9
330
A
100
AcDbEntity
  8
テンプレート
100
AcDbLine
 10
578.6904737714411
 20
62.22153683920783
 30
0.0
 11
15.30952622855898
 21
62.22153683920783
 31
0.0
  0
LINE
  5
36DA
330
A
100
AcDbEntity
  8
PRINT BORDER
100
AcDbLine
 10
593.9999999999999
 20
210.0
 30
0.0
 11
578.6904737714411
 21
210.0
 31
0.0
  0
LINE
  5
36DB
330
A
100
AcDbEntity
  8
PRINT BORDER
100
AcDbLine
 10
0.0
 20
210.0
 30
0.0
 11
15.30952622855898
 21
210.0
 31
0.0
  0
LINE
  5
36DC
330
A
100
AcDbEntity
  8
PRINT BORDER
100
AcDbLine
 10
296.9999999999999
 20
420.0
 30
0.0
 11
296.9999999999999
 21
404.690473771441
 31
0.0
  0
LINE
  5
36DD
330
A
100
AcDbEntity
  8
テンプレート
100
AcDbLine
 10
578.6904737714411
 20
62.22153683920783
 30
0.0
 11
578.6904737714411
 21
26.22153683920783
 31
0.0
  0
LINE
  5
36DE
330
A
100
AcDbEntity
  8
テンプレート
100
AcDbLine
 10
15.30952622855898
 20
62.22153683920783
 30
0.0
 11
15.30952622855898
 21
26.22153683920783
 31
0.0
  0
TEXT
  5
36DF
330
A
100
AcDbEntity
  8
テンプレート
100
AcDbText
 10
464.0159959716813
 20
56.58523052309897
 30
0.0
 40
3.5
  1
備考
  7
ＭＳ ゴシック
100
AcDbText
  0
TEXT
  5
36E0
330
A
100
AcDbEntity
  8
テンプレート
100
AcDbText
 10
494.9733384955217
 20
16.51938390313694
 30
0.0
 40
5.5
  1
大洋金物株式会社  
  7
ＭＳ ゴシック
100
AcDbText
  0
LINE
  5
36E1
330
A
100
AcDbEntity
  8
テンプレート
100
AcDbLine
 10
461.9272435043343
 20
62.22153683920783
 30
0.0
 11
461.9272435043343
 21
26.22153683920783
 31
0.0
  0
LINE
  5
36E2
330
A
100
AcDbEntity
  8
テンプレート
100
AcDbLine
 10
369.8413281370825
 20
62.22153683920781
 30
0.0
 11
369.8413281370825
 21
26.22153683920781
 31
0.0
  0
INSERT
  5
36E3
330
A
100
AcDbEntity
  8
テンプレート
100
AcDbBlockReference
  2
名称未設定-1
 10
548.3945198859805
 20
-7.642344203993161
 30
0.0
 41
0.180975
 42
0.180975
 43
0.180975
  0
LINE
  5
36E5
330
A
100
AcDbEntity
  8
テンプレート
100
AcDbLine
 10
15.30952622855898
 20
210.0
 30
0.0
 11
15.30952622855898
 21
26.22153683920783
 31
0.0
  0
LINE
  5
36E6
330
A
100
AcDbEntity
  8
テンプレート
100
AcDbLine
 10
15.30952622855898
 20
210.0
 30
0.0
 11
15.30952622855898
 21
404.690473771441
 31
0.0
  0
LINE
  5
36E7
330
A
100
AcDbEntity
  8
テンプレート
100
AcDbLine
 10
296.9999999999999
 20
404.690473771441
 30
0.0
 11
15.30952622855887
 21
404.690473771441
 31
0.0
  0
LINE
  5
36E8
330
A
100
AcDbEntity
  8
テンプレート
100
AcDbLine
 10
296.9999999999999
 20
404.690473771441
 30
0.0
 11
578.6904737714411
 21
404.690473771441
 31
0.0
  0
LINE
  5
36E9
330
A
100
AcDbEntity
  8
テンプレート
100
AcDbLine
 10
578.6904737714411
 20
210.0
 30
0.0
 11
578.6904737714411
 21
404.690473771441
 31
0.0
  0
LINE
  5
36EA
330
A
100
AcDbEntity
  8
テンプレート
100
AcDbLine
 10
578.6904737714411
 20
210.0
 30
0.0
 11
578.6904737714411
 21
26.22153683920783
 31
0.0
  0
LWPOLYLINE
  5
36EB
330
A
100
AcDbEntity
  8
PRINT BORDER
  6
HIDDEN
 48
3.0
100
AcDbPolyline
 90
        4
 70
     1
 43
0.0
 10
0.0
 20
0.0
 10
0.0
 20
420.0
 10
593.9999999999999
 20
420.0
 10
593.9999999999999
 20
0.0
  0
TEXT
  5
36EC
330
A
100
AcDbEntity
  8
テンプレート
100
AcDbText
 10
373.0843164865775
 20
32.62405342819486
 30
0.0
 40
3.5
  1
縮尺
  7
ＭＳ ゴシック
100
AcDbText
  0
TEXT
  5
36ED
330
A
100
AcDbEntity
  8
テンプレート
100
AcDbText
 10
387.3025214068017
 20
28.29362070227193
 30
0.0
 40
5.5
  1
1/2
  7
ＭＳ ゴシック
100
AcDbText
  0
TEXT
  5
37DE
330
A
100
AcDbEntity
  8
テンプレート
100
AcDbText
 10
373.1087493822859
 20
44.52865845808581
 30
0.0
 40
3.5
  1
扉厚
  7
ＭＳ ゴシック
100
AcDbText
  0
TEXT
  5
41FC
330
A
100
AcDbEntity
  8
テンプレート
100
AcDbText
 10
192.6640855805966
 20
82.78407419479038
 30
0.0
 40
5.0
  1
　 加工は現物合わせの上行って下さい。
  7
ＭＳ ゴシック
100
AcDbText
  0
TEXT
  5
41FD
330
A
100
AcDbEntity
  8
テンプレート
100
AcDbText
 10
192.8363286628052
 20
90.88785829093024
 30
0.0
 40
5.0
  1
※ 輸入製品の為、国内製品と比べ製品寸法の個体差に幅が有ります。
  7
ＭＳ ゴシック
100
AcDbText
  0
TEXT
  5
426E
330
A
100
AcDbEntity
  8
テンプレート
100
AcDbText
 10
478.3371137610666
 20
48.98347658956476
 30
0.0
 40
5.5
  1
ガラス厚8ミリ用
  7
ＭＳ ゴシック
100
AcDbText
  0
LINE
  5
47CB
330
A
100
AcDbEntity
  8
モデル
100
AcDbLine
 10
461.9272435043344
 20
26.22153683920786
 30
0.0
 11
461.9272435043344
 21
62.22153683920782
 31
0.0
  0
LINE
  5
480C
330
A
100
AcDbEntity
  8
TFORMLOGO
100
AcDbLine
 10
34.39354323042302
 20
26.22153683920783
 30
0.0
 11
34.39354323042301
 21
50.16496477419605
 31
0.0
  0
MTEXT
  5
543D
330
A
100
AcDbEntity
  8
テンプレート
390
1D
100
AcDbMText
 10
35.78377322769549
 20
34.57354675141925
 30
0.0
 40
5.0
 41
0.0
 46
5.205
 71
     1
 72
     1
  1
{アルミ}
  7
ＭＳ ゴシック
 73
     1
 44
0.7828267384257843
1001
ACAD
1000
ACAD_MTEXT_DEFINED_HEIGHT_BEGIN
1070
    46
1040
5.205
1000
ACAD_MTEXT_DEFINED_HEIGHT_END
  0
MTEXT
  5
543E
330
A
100
AcDbEntity
  8
テンプレート
390
1D
100
AcDbMText
 10
73.22457898888803
 20
34.65840484893826
 30
0.0
 40
5.0
 41
0.0
 46
5.075
 71
     1
 72
     1
  1
{ステンレス}
  7
ＭＳ ゴシック
 73
     1
 44
0.7828267384257843
1001
ACAD
1000
ACAD_MTEXT_DEFINED_HEIGHT_BEGIN
1070
    46
1040
5.075
1000
ACAD_MTEXT_DEFINED_HEIGHT_END
  0
MTEXT
  5
5440
330
A
100
AcDbEntity
  8
テンプレート
390
1D
100
AcDbMText
 10
35.55147890762322
 20
48.77911613324933
 30
0.0
 40
3.0
 41
0.0
 46
3.168
 71
     1
 72
     1
  1
{ナチュラル}
  7
ＭＳ ゴシック
 73
     1
 44
0.7828267384257843
1001
ACAD
1000
ACAD_MTEXT_DEFINED_HEIGHT_BEGIN
1070
    46
1040
3.168
1000
ACAD_MTEXT_DEFINED_HEIGHT_END
  0
MTEXT
  5
544A
330
A
100
AcDbEntity
  8
テンプレート
390
1D
100
AcDbMText
 10
73.5423920326462
 20
48.86397423076848
 30
0.0
 40
3.0
 41
0.0
 46
3.198
 71
     1
 72
     1
  1
{サテン}
  7
ＭＳ ゴシック
 73
     1
 44
0.7828267384257843
1001
ACAD
1000
ACAD_MTEXT_DEFINED_HEIGHT_BEGIN
1070
    46
1040
3.198
1000
ACAD_MTEXT_DEFINED_HEIGHT_END
  0
LINE
  5
5452
330
A
100
AcDbEntity
  8
テンプレート
  6
Continuous
100
AcDbLine
 10
69.58171743117992
 20
50.33468096923412
 30
0.0
 11
69.58171743117992
 21
26.39125303424586
 31
0.0
  0
LINE
  5
5455
330
A
100
AcDbEntity
  8
テンプレート
  6
Continuous
100
AcDbLine
 10
369.8413281370825
 20
44.22153683920781
 30
0.0
 11
34.39354323042301
 21
44.30639493672683
 31
0.0
  0
MTEXT
  5
5456
102
{ACAD_XDICTIONARY
360
5458
102
}
330
A
100
AcDbEntity
  8
テンプレート
100
AcDbMText
 10
16.39605047595663
 20
23.95351003077555
 30
0.0
 40
4.0
 41
0.0
 46
4.0
 71
     1
 72
     1
  1
{20180710N}
  7
ＭＳ ゴシック
 73
     1
 44
1.0
1001
ACAD
1000
ACAD_MTEXT_DEFINED_HEIGHT_BEGIN
1070
    46
1040
4.0
1000
ACAD_MTEXT_DEFINED_HEIGHT_END
  0
CIRCLE
  5
5756
330
A
100
AcDbEntity
  8
モデル
  6
Continuous
 62
     7
100
AcDbCircle
 10
127.6420809221351
 20
220.0403104416104
 30
0.0
 40
9.0
  0
CIRCLE
  5
5757
102
{ACAD_REACTORS
330
589F
102
}
330
A
100
AcDbEntity
  8
モデル
  6
Continuous
 62
     7
100
AcDbCircle
 10
127.6420809221351
 20
220.0403104416104
 30
0.0
 40
13.25
  0
CIRCLE
  5
5758
330
A
100
AcDbEntity
  8
モデル
  6
Continuous
 62
     7
100
AcDbCircle
 10
315.0046290486624
 20
273.0403384416102
 30
0.0
 40
4.5
  0
CIRCLE
  5
5759
330
A
100
AcDbEntity
  8
モデル
  6
Continuous
 62
     7
100
AcDbCircle
 10
315.0046290486624
 20
129.0403384416102
 30
0.0
 40
4.0
  0
CIRCLE
  5
575A
330
A
100
AcDbEntity
  8
モデル
  6
Continuous
 62
     7
100
AcDbCircle
 10
315.0046290486624
 20
129.0403384416102
 30
0.0
 40
5.5
  0
CIRCLE
  5
575B
330
A
100
AcDbEntity
  8
モデル
  6
Continuous
 62
     7
100
AcDbCircle
 10
315.0046290486624
 20
139.0403384416103
 30
0.0
 40
4.5
  0
ARC
  5
575C
330
A
100
AcDbEntity
  8
モデル
  6
Continuous
 62
     7
100
AcDbCircle
 10
127.6420809221351
 20
128.2403384416103
 30
0.0
 40
5.25
100
AcDbArc
 50
180.0
 51
0.0
  0
ARC
  5
575D
330
A
100
AcDbEntity
  8
モデル
  6
Continuous
 62
     7
100
AcDbCircle
 10
127.6420809221351
 20
148.0403104416104
 30
0.0
 40
7.85
100
AcDbArc
 50
311.9737300000004
 51
228.0262699999995
  0
ARC
  5
575E
330
A
100
AcDbEntity
  8
モデル
  6
Continuous
 62
     7
100
AcDbCircle
 10
90.141740922135
 20
334.7608136559497
 30
0.0
 40
2.0
100
AcDbArc
 50
180.0
 51
270.0
  0
ARC
  5
575F
330
A
100
AcDbEntity
  8
モデル
  6
Continuous
 62
     7
100
AcDbCircle
 10
182.1420809221351
 20
334.7608136559497
 30
0.0
 40
2.0
100
AcDbArc
 50
270.0
 51
0.0
  0
ARC
  5
5760
330
A
100
AcDbEntity
  8
モデル
  6
Continuous
 62
     7
100
AcDbCircle
 10
167.1420809221351
 20
369.2608136559497
 30
0.0
 40
2.0
100
AcDbArc
 50
0.0
 51
90.0
  0
ARC
  5
5761
330
A
100
AcDbEntity
  8
モデル
  6
Continuous
 62
     7
100
AcDbCircle
 10
90.14208092213505
 20
369.2608136559497
 30
0.0
 40
2.0
100
AcDbArc
 50
90.0
 51
180.0
  0
ARC
  5
5762
330
A
100
AcDbEntity
  8
モデル
  6
Continuous
 62
     7
100
AcDbCircle
 10
182.1420809221351
 20
285.5403384416102
 30
0.0
 40
2.0
100
AcDbArc
 50
0.0
 51
90.0
  0
ARC
  5
5763
330
A
100
AcDbEntity
  8
モデル
  6
HIDDEN
 62
     7
 48
2.0
100
AcDbCircle
 10
167.1420809221351
 20
285.5403384416102
 30
0.0
 40
2.0
100
AcDbArc
 50
0.0
 51
90.0
  0
ARC
  5
5764
330
A
100
AcDbEntity
  8
モデル
  6
Continuous
 62
     7
100
AcDbCircle
 10
90.141740922135
 20
285.5403384416102
 30
0.0
 40
2.0
100
AcDbArc
 50
90.0
 51
180.0
  0
ARC
  5
5765
330
A
100
AcDbEntity
  8
モデル
  6
Continuous
 62
     7
100
AcDbCircle
 10
182.1420809221351
 20
105.5403384416103
 30
0.0
 40
2.0
100
AcDbArc
 50
270.0
 51
0.0
  0
ARC
  5
5766
330
A
100
AcDbEntity
  8
モデル
  6
HIDDEN
 62
     7
 48
2.0
100
AcDbCircle
 10
167.1420809221351
 20
105.5403384416103
 30
0.0
 40
2.0
100
AcDbArc
 50
270.0
 51
0.0
  0
ARC
  5
5767
330
A
100
AcDbEntity
  8
モデル
  6
Continuous
 62
     7
100
AcDbCircle
 10
90.141740922135
 20
105.5403384416103
 30
0.0
 40
2.0
100
AcDbArc
 50
180.0
 51
270.0
  0
ARC
  5
5768
330
A
100
AcDbEntity
  8
モデル
  6
Continuous
 62
     7
100
AcDbCircle
 10
338.7546290486624
 20
285.5403384416102
 30
0.0
 40
2.0
100
AcDbArc
 50
0.0
 51
90.0
  0
ARC
  5
5769
330
A
100
AcDbEntity
  8
モデル
  6
Continuous
 62
     7
100
AcDbCircle
 10
304.2546290486624
 20
285.5403384416102
 30
0.0
 40
2.0
100
AcDbArc
 50
90.0
 51
180.0
  0
ARC
  5
576A
330
A
100
AcDbEntity
  8
モデル
  6
Continuous
 62
     7
100
AcDbCircle
 10
338.7546290486624
 20
105.5403384416102
 30
0.0
 40
2.0
100
AcDbArc
 50
270.0
 51
0.0
  0
ARC
  5
576B
330
A
100
AcDbEntity
  8
モデル
  6
Continuous
 62
     7
100
AcDbCircle
 10
304.2546290486624
 20
105.5403384416102
 30
0.0
 40
2.0
100
AcDbArc
 50
180.0
 51
270.0
  0
LINE
  5
576C
330
A
100
AcDbEntity
  8
モデル
  6
Continuous
 62
     7
100
AcDbLine
 10
331.5546290486624
 20
105.2903384416102
 30
0.0
 11
331.7546290486624
 21
105.2903384416102
 31
0.0
  0
LINE
  5
576D
330
A
100
AcDbEntity
  8
モデル
  6
Continuous
 62
     7
100
AcDbLine
 10
331.5546290486624
 20
285.7903384416102
 30
0.0
 11
331.5546290486624
 21
105.2903384416102
 31
0.0
  0
LINE
  5
576E
330
A
100
AcDbEntity
  8
モデル
  6
Continuous
 62
     7
100
AcDbLine
 10
331.7546290486624
 20
285.7903384416102
 30
0.0
 11
331.5546290486624
 21
285.7903384416102
 31
0.0
  0
LINE
  5
576F
330
A
100
AcDbEntity
  8
モデル
  6
Continuous
 62
     7
100
AcDbLine
 10
89.89208092213505
 20
362.0608146559498
 30
0.0
 11
89.89208092213505
 21
362.2608136559497
 31
0.0
  0
LINE
  5
5770
330
A
100
AcDbEntity
  8
モデル
  6
Continuous
 62
     7
100
AcDbLine
 10
167.3920809221351
 20
362.0608146559498
 30
0.0
 11
89.89208092213505
 21
362.0608146559498
 31
0.0
  0
LINE
  5
5771
330
A
100
AcDbEntity
  8
モデル
  6
Continuous
 62
     7
100
AcDbLine
 10
167.3920809221351
 20
362.2608136559497
 30
0.0
 11
167.3920809221351
 21
362.0608146559498
 31
0.0
  0
LINE
  5
5772
330
A
100
AcDbEntity
  8
モデル
  6
Continuous
 62
     7
100
AcDbLine
 10
322.7546290486624
 20
233.2903384416103
 30
0.0
 11
322.7546290486624
 21
103.5403384416102
 31
0.0
  0
LINE
  5
5773
330
A
100
AcDbEntity
  8
モデル
  6
Continuous
 62
     7
100
AcDbLine
 10
323.3546290486623
 20
118.0403384416102
 30
0.0
 11
322.7546290486624
 21
118.0403384416102
 31
0.0
  0
LINE
  5
5774
330
A
100
AcDbEntity
  8
モデル
  6
Continuous
 62
     7
100
AcDbLine
 10
323.3546290486623
 20
283.0403664416103
 30
0.0
 11
323.3546290486623
 21
118.0403384416102
 31
0.0
  0
LINE
  5
5775
330
A
100
AcDbEntity
  8
モデル
  6
Continuous
 62
     7
100
AcDbLine
 10
322.7546290486624
 20
283.0403664416103
 30
0.0
 11
323.3546290486623
 21
283.0403664416103
 31
0.0
  0
LINE
  5
5783
330
A
100
AcDbEntity
  8
モデル
  6
Continuous
 62
     7
100
AcDbLine
 10
132.8920809221351
 20
142.2042154416104
 30
0.0
 11
132.8920809221351
 21
128.2403384416103
 31
0.0
  0
LINE
  5
5784
330
A
100
AcDbEntity
  8
モデル
  6
Continuous
 62
     7
100
AcDbLine
 10
122.3920809221351
 20
128.2403384416103
 30
0.0
 11
122.3920809221351
 21
142.2042154416104
 31
0.0
  0
LINE
  5
5786
330
A
100
AcDbEntity
  8
モデル
  6
Continuous
 62
     7
100
AcDbLine
 10
322.7546290486624
 20
287.5403384416102
 30
0.0
 11
322.7546290486624
 21
262.7903384416102
 31
0.0
  0
LINE
  5
5787
330
A
100
AcDbEntity
  8
モデル
  6
Continuous
 62
     7
100
AcDbLine
 10
90.141740922135
 20
332.7608136559497
 30
0.0
 11
182.1420809221351
 21
332.7608136559497
 31
0.0
  0
LINE
  5
5788
102
{ACAD_REACTORS
330
5957
102
}
330
A
100
AcDbEntity
  8
モデル
  6
Continuous
 62
     7
100
AcDbLine
 10
88.141740922135
 20
353.2608136559497
 30
0.0
 11
88.141740922135
 21
334.7608136559497
 31
0.0
  0
LINE
  5
5789
330
A
100
AcDbEntity
  8
モデル
  6
Continuous
 62
     7
100
AcDbLine
 10
184.1420809221351
 20
353.2608136559497
 30
0.0
 11
88.141740922135
 21
353.2608136559497
 31
0.0
  0
LINE
  5
578A
102
{ACAD_REACTORS
330
5957
102
}
330
A
100
AcDbEntity
  8
モデル
  6
Continuous
 62
     7
100
AcDbLine
 10
184.1420809221351
 20
334.7608136559497
 30
0.0
 11
184.1420809221351
 21
353.2608136559497
 31
0.0
  0
LINE
  5
578B
330
A
100
AcDbEntity
  8
モデル
  6
Continuous
 62
     7
100
AcDbLine
 10
195.1420809221351
 20
341.3608136559498
 30
0.0
 11
184.1420809221351
 21
341.3608136559498
 31
0.0
  0
LINE
  5
578C
330
A
100
AcDbEntity
  8
モデル
  6
Continuous
 62
     7
100
AcDbLine
 10
195.1420809221351
 20
344.3608136559498
 30
0.0
 11
195.1420809221351
 21
341.3608136559498
 31
0.0
  0
LINE
  5
578D
330
A
100
AcDbEntity
  8
モデル
  6
Continuous
 62
     7
100
AcDbLine
 10
195.1420809221351
 20
344.3608136559498
 30
0.0
 11
184.1420809221351
 21
344.3608136559498
 31
0.0
  0
LINE
  5
578E
330
A
100
AcDbEntity
  8
モデル
  6
Continuous
 62
     7
100
AcDbLine
 10
195.1420809221351
 20
344.3608136559498
 30
0.0
 11
184.6420809221351
 21
353.3608136559498
 31
0.0
  0
LINE
  5
578F
330
A
100
AcDbEntity
  8
モデル
  6
Continuous
 62
     7
100
AcDbLine
 10
184.6420809221351
 20
353.3608136559498
 30
0.0
 11
179.6420809221351
 21
353.3608136559498
 31
0.0
  0
LINE
  5
5791
330
A
100
AcDbEntity
  8
モデル
  6
Continuous
 62
     7
100
AcDbLine
 10
104.6944889221351
 20
362.2608136559497
 30
0.0
 11
105.0613429221351
 21
355.2608136559497
 31
0.0
  0
LINE
  5
5792
330
A
100
AcDbEntity
  8
モデル
  6
Continuous
 62
     7
100
AcDbLine
 10
150.589672922135
 20
362.2608136559497
 30
0.0
 11
150.222818922135
 21
355.2608136559497
 31
0.0
  0
LINE
  5
5793
330
A
100
AcDbEntity
  8
モデル
  6
Continuous
 62
     7
100
AcDbLine
 10
105.0613429221351
 20
355.2608136559497
 30
0.0
 11
150.222818922135
 21
355.2608136559497
 31
0.0
  0
LINE
  5
5794
102
{ACAD_REACTORS
330
58CD
102
}
330
A
100
AcDbEntity
  8
モデル
  6
Continuous
 62
     7
100
AcDbLine
 10
169.1420809221351
 20
362.2608136559497
 30
0.0
 11
88.14208092213505
 21
362.2608136559497
 31
0.0
  0
LINE
  5
5795
102
{ACAD_REACTORS
330
5966
102
}
330
A
100
AcDbEntity
  8
モデル
  6
Continuous
 62
     7
100
AcDbLine
 10
169.1420809221351
 20
362.2608136559497
 30
0.0
 11
169.1420809221351
 21
369.2608136559497
 31
0.0
  0
LINE
  5
5796
330
A
100
AcDbEntity
  8
モデル
  6
Continuous
 62
     7
100
AcDbLine
 10
167.1420809221351
 20
371.2608136559497
 30
0.0
 11
90.14208092213505
 21
371.2608136559497
 31
0.0
  0
LINE
  5
5797
102
{ACAD_REACTORS
330
5966
102
}
330
A
100
AcDbEntity
  8
モデル
  6
Continuous
 62
     7
100
AcDbLine
 10
88.14208092213505
 20
369.2608136559497
 30
0.0
 11
88.14208092213505
 21
362.2608136559497
 31
0.0
  0
LINE
  5
5798
102
{ACAD_REACTORS
330
58CD
102
}
330
A
100
AcDbEntity
  8
モデル
  6
Continuous
 62
     7
100
AcDbLine
 10
97.64208092213505
 20
354.0608136559498
 30
0.0
 11
179.1420809221351
 21
354.0608136559498
 31
0.0
  0
LINE
  5
5799
330
A
100
AcDbEntity
  8
モデル
  6
Continuous
 62
     7
100
AcDbLine
 10
97.64208092213505
 20
353.2608136559497
 30
0.0
 11
97.64208092213505
 21
354.0608136559498
 31
0.0
  0
LINE
  5
579A
330
A
100
AcDbEntity
  8
モデル
  6
Continuous
 62
     7
100
AcDbLine
 10
179.1420809221351
 20
354.0608136559498
 30
0.0
 11
179.1420809221351
 21
353.2608136559497
 31
0.0
  0
LINE
  5
579B
330
A
100
AcDbEntity
  8
モデル
  6
Continuous
 62
     7
100
AcDbLine
 10
195.1420809221351
 20
265.0403384416102
 30
0.0
 11
184.1420809221351
 21
265.0403384416102
 31
0.0
  0
LINE
  5
579D
330
A
100
AcDbEntity
  8
モデル
  6
Continuous
 62
     7
100
AcDbLine
 10
195.1420809221351
 20
265.0403384416102
 30
0.0
 11
195.1420809221351
 21
231.0403384416103
 31
0.0
  0
LINE
  5
579F
330
A
100
AcDbEntity
  8
モデル
  6
Continuous
 62
     7
100
AcDbLine
 10
195.1420809221351
 20
231.0403384416103
 30
0.0
 11
184.1420809221351
 21
231.0403384416103
 31
0.0
  0
LINE
  5
57A0
330
A
100
AcDbEntity
  8
モデル
  6
Continuous
 62
     7
100
AcDbLine
 10
131.6869129221351
 20
224.0403384416103
 30
0.0
 11
131.6869129221351
 21
216.0403384416103
 31
0.0
  0
LINE
  5
57A1
330
A
100
AcDbEntity
  8
モデル
  6
Continuous
 62
     7
100
AcDbLine
 10
123.6869129221351
 20
224.0403384416103
 30
0.0
 11
131.6869129221351
 21
224.0403384416103
 31
0.0
  0
LINE
  5
57A2
330
A
100
AcDbEntity
  8
モデル
  6
Continuous
 62
     7
100
AcDbLine
 10
123.6869129221351
 20
216.0403384416103
 30
0.0
 11
123.6869129221351
 21
224.0403384416103
 31
0.0
  0
LINE
  5
57A3
330
A
100
AcDbEntity
  8
モデル
  6
Continuous
 62
     7
100
AcDbLine
 10
131.6869129221351
 20
216.0403384416103
 30
0.0
 11
123.6869129221351
 21
216.0403384416103
 31
0.0
  0
LINE
  5
57A5
330
A
100
AcDbEntity
  8
モデル
  6
Continuous
 62
     7
100
AcDbLine
 10
182.1420809221351
 20
287.5403384416102
 30
0.0
 11
90.141740922135
 21
287.5403384416102
 31
0.0
  0
LINE
  5
57A6
330
A
100
AcDbEntity
  8
モデル
  6
Continuous
 62
     7
100
AcDbLine
 10
184.1420809221351
 20
105.5403384416103
 30
0.0
 11
184.1420809221351
 21
285.5403384416102
 31
0.0
  0
LINE
  5
57A7
330
A
100
AcDbEntity
  8
モデル
  6
HIDDEN
 62
     7
 48
2.0
100
AcDbLine
 10
169.1420809221351
 20
105.5403384416103
 30
0.0
 11
169.1420809221351
 21
285.5403384416102
 31
0.0
  0
LINE
  5
57A8
330
A
100
AcDbEntity
  8
モデル
  6
Continuous
 62
     7
100
AcDbLine
 10
90.141740922135
 20
103.5403384416103
 30
0.0
 11
182.1420809221351
 21
103.5403384416103
 31
0.0
  0
LINE
  5
57AA
330
A
100
AcDbEntity
  8
モデル
  6
Continuous
 62
     7
100
AcDbLine
 10
185.1420809221351
 20
182.0403384416103
 30
0.0
 11
185.1420809221351
 21
147.5403384416103
 31
0.0
  0
LINE
  5
57AB
330
A
100
AcDbEntity
  8
モデル
  6
Continuous
 62
     7
100
AcDbLine
 10
185.1420809221351
 20
182.0403384416103
 30
0.0
 11
184.1420809221351
 21
182.0403384416103
 31
0.0
  0
LINE
  5
57AC
330
A
100
AcDbEntity
  8
モデル
  6
Continuous
 62
     7
100
AcDbLine
 10
185.1420809221351
 20
147.5403384416103
 30
0.0
 11
184.1420809221351
 21
147.5403384416103
 31
0.0
  0
LINE
  5
57AD
330
A
100
AcDbEntity
  8
モデル
  6
Continuous
 62
     7
100
AcDbLine
 10
331.7546290486624
 20
287.5403384416102
 30
0.0
 11
338.7546290486624
 21
287.5403384416102
 31
0.0
  0
LINE
  5
57AE
330
A
100
AcDbEntity
  8
モデル
  6
Continuous
 62
     7
100
AcDbLine
 10
340.7546290486624
 20
105.5403384416102
 30
0.0
 11
340.7546290486624
 21
285.5403384416102
 31
0.0
  0
LINE
  5
57B0
330
A
100
AcDbEntity
  8
モデル
  6
Continuous
 62
     7
100
AcDbLine
 10
322.7546290486624
 20
287.5403384416102
 30
0.0
 11
304.2546290486624
 21
287.5403384416102
 31
0.0
  0
LINE
  5
57B1
330
A
100
AcDbEntity
  8
モデル
  6
Continuous
 62
     7
100
AcDbLine
 10
302.2546290486624
 20
105.5403384416102
 30
0.0
 11
302.2546290486624
 21
285.5403384416102
 31
0.0
  0
LINE
  5
57B2
330
A
100
AcDbEntity
  8
モデル
  6
Continuous
 62
     7
100
AcDbLine
 10
322.7546290486624
 20
233.2903384416103
 30
0.0
 11
314.2546290486624
 21
233.2903384416103
 31
0.0
  0
LINE
  5
57B3
330
A
100
AcDbEntity
  8
モデル
  6
Continuous
 62
     7
100
AcDbLine
 10
313.5046290486624
 20
234.0403384416103
 30
0.0
 11
323.3546290486623
 21
234.0403384416103
 31
0.0
  0
LINE
  5
57B4
330
A
100
AcDbEntity
  8
モデル
  6
Continuous
 62
     7
100
AcDbLine
 10
314.2546290486624
 20
230.2903384416103
 30
0.0
 11
314.2546290486624
 21
233.2903384416103
 31
0.0
  0
LINE
  5
57B5
330
A
100
AcDbEntity
  8
モデル
  6
Continuous
 62
     7
100
AcDbLine
 10
314.2546290486624
 20
230.2903384416103
 30
0.0
 11
309.2546290486624
 21
230.2903384416103
 31
0.0
  0
LINE
  5
57B6
330
A
100
AcDbEntity
  8
モデル
  6
Continuous
 62
     7
100
AcDbLine
 10
310.0046290486624
 20
231.0403384416103
 30
0.0
 11
313.5046290486624
 21
231.0403384416103
 31
0.0
  0
LINE
  5
57B7
330
A
100
AcDbEntity
  8
モデル
  6
Continuous
 62
     7
100
AcDbLine
 10
310.0046290486624
 20
265.0403384416102
 30
0.0
 11
310.0046290486624
 21
231.0403384416103
 31
0.0
  0
LINE
  5
57B8
330
A
100
AcDbEntity
  8
モデル
  6
Continuous
 62
     7
100
AcDbLine
 10
309.2546290486624
 20
230.2903384416103
 30
0.0
 11
309.2546290486624
 21
265.7903384416102
 31
0.0
  0
LINE
  5
57B9
330
A
100
AcDbEntity
  8
モデル
  6
Continuous
 62
     7
100
AcDbLine
 10
314.2546290486624
 20
265.7903384416102
 30
0.0
 11
309.2546290486624
 21
265.7903384416102
 31
0.0
  0
LINE
  5
57BA
330
A
100
AcDbEntity
  8
モデル
  6
Continuous
 62
     7
100
AcDbLine
 10
313.5046290486624
 20
265.0403384416102
 30
0.0
 11
310.0046290486624
 21
265.0403384416102
 31
0.0
  0
LINE
  5
57BB
330
A
100
AcDbEntity
  8
モデル
  6
Continuous
 62
     7
100
AcDbLine
 10
314.2546290486624
 20
262.7903384416102
 30
0.0
 11
314.2546290486624
 21
265.7903384416102
 31
0.0
  0
LINE
  5
57BC
330
A
100
AcDbEntity
  8
モデル
  6
Continuous
 62
     7
100
AcDbLine
 10
313.5046290486624
 20
231.0403384416103
 30
0.0
 11
313.5046290486624
 21
265.0403384416102
 31
0.0
  0
LINE
  5
57BD
330
A
100
AcDbEntity
  8
モデル
  6
Continuous
 62
     7
100
AcDbLine
 10
323.3546290486623
 20
262.0403384416102
 30
0.0
 11
313.5046290486624
 21
262.0403384416102
 31
0.0
  0
LINE
  5
57BE
330
A
100
AcDbEntity
  8
モデル
  6
Continuous
 62
     7
100
AcDbLine
 10
322.7546290486624
 20
262.7903384416102
 30
0.0
 11
314.2546290486624
 21
262.7903384416102
 31
0.0
  0
LINE
  5
57C2
330
A
100
AcDbEntity
  8
モデル
  6
Continuous
 62
     7
100
AcDbLine
 10
319.4046290486625
 20
146.7903384416103
 30
0.0
 11
309.9046290486625
 21
146.7903384416103
 31
0.0
  0
LINE
  5
57C3
330
A
100
AcDbEntity
  8
モデル
  6
Continuous
 62
     7
100
AcDbLine
 10
310.6546290486625
 20
147.5403384416103
 30
0.0
 11
318.6546290486625
 21
147.5403384416103
 31
0.0
  0
LINE
  5
57C4
330
A
100
AcDbEntity
  8
モデル
  6
Continuous
 62
     7
100
AcDbLine
 10
319.4046290486625
 20
146.7903384416103
 30
0.0
 11
319.4046290486625
 21
182.7903384416103
 31
0.0
  0
LINE
  5
57C5
330
A
100
AcDbEntity
  8
モデル
  6
Continuous
 62
     7
100
AcDbLine
 10
318.6546290486625
 20
147.5403384416103
 30
0.0
 11
318.6546290486625
 21
182.0403384416103
 31
0.0
  0
LINE
  5
57C6
330
A
100
AcDbEntity
  8
モデル
  6
Continuous
 62
     7
100
AcDbLine
 10
310.6546290486625
 20
182.0403384416103
 30
0.0
 11
310.6546290486625
 21
147.5403384416103
 31
0.0
  0
LINE
  5
57C7
330
A
100
AcDbEntity
  8
モデル
  6
Continuous
 62
     7
100
AcDbLine
 10
309.9046290486625
 20
146.7903384416103
 30
0.0
 11
309.9046290486625
 21
182.7903384416103
 31
0.0
  0
LINE
  5
57C8
330
A
100
AcDbEntity
  8
モデル
  6
Continuous
 62
     7
100
AcDbLine
 10
319.4046290486625
 20
182.7903384416103
 30
0.0
 11
309.9046290486625
 21
182.7903384416103
 31
0.0
  0
LINE
  5
57C9
330
A
100
AcDbEntity
  8
モデル
  6
Continuous
 62
     7
100
AcDbLine
 10
318.6546290486625
 20
182.0403384416103
 30
0.0
 11
310.6546290486625
 21
182.0403384416103
 31
0.0
  0
LINE
  5
57CA
330
A
100
AcDbEntity
  8
モデル
  6
Continuous
 62
     7
100
AcDbLine
 10
324.7546290486624
 20
197.4596004416102
 30
0.0
 11
331.5546290486624
 21
197.1032274416102
 31
0.0
  0
LINE
  5
57CB
330
A
100
AcDbEntity
  8
モデル
  6
Continuous
 62
     7
100
AcDbLine
 10
324.7546290486624
 20
242.6210764416103
 30
0.0
 11
324.7546290486624
 21
197.4596004416102
 31
0.0
  0
LINE
  5
57CC
330
A
100
AcDbEntity
  8
モデル
  6
Continuous
 62
     7
100
AcDbLine
 10
331.5546290486624
 20
242.9774484416101
 30
0.0
 11
324.7546290486624
 21
242.6210764416103
 31
0.0
  0
LINE
  5
57CD
330
A
100
AcDbEntity
  8
モデル
  6
Continuous
 62
     7
100
AcDbLine
 10
331.7546290486624
 20
287.5403384416102
 30
0.0
 11
331.7546290486624
 21
103.5403384416102
 31
0.0
  0
LINE
  5
57CE
330
A
100
AcDbEntity
  8
モデル
  6
Continuous
 62
     7
100
AcDbLine
 10
324.7546290486624
 20
117.4596004416101
 30
0.0
 11
331.5546290486624
 21
117.1032274416102
 31
0.0
  0
LINE
  5
57CF
330
A
100
AcDbEntity
  8
モデル
  6
Continuous
 62
     7
100
AcDbLine
 10
324.7546290486624
 20
162.6210764416103
 30
0.0
 11
324.7546290486624
 21
117.4596004416101
 31
0.0
  0
LINE
  5
57D1
330
A
100
AcDbEntity
  8
モデル
  6
Continuous
 62
     7
100
AcDbLine
 10
331.5546290486624
 20
162.9774484416101
 30
0.0
 11
324.7546290486624
 21
162.6210764416103
 31
0.0
  0
LINE
  5
57D2
330
A
100
AcDbEntity
  8
モデル
  6
Continuous
 62
     7
100
AcDbLine
 10
331.7546290486624
 20
103.5403384416102
 30
0.0
 11
338.7546290486624
 21
103.5403384416102
 31
0.0
  0
LINE
  5
57D3
330
A
100
AcDbEntity
  8
モデル
  6
Continuous
 62
     7
100
AcDbLine
 10
322.7546290486624
 20
103.5403384416102
 30
0.0
 11
304.2546290486624
 21
103.5403384416102
 31
0.0
  0
LINE
  5
57D5
330
A
100
AcDbEntity
  8
モデル
  6
Continuous
 62
     7
100
AcDbLine
 10
88.141740922135
 20
285.5403384416102
 30
0.0
 11
88.141740922135
 21
105.5403384416103
 31
0.0
  0
CIRCLE
  5
57D6
102
{ACAD_REACTORS
330
5881
102
}
330
A
100
AcDbEntity
  8
モデル
  6
Continuous
 62
     7
100
AcDbCircle
 10
146.6420809221351
 20
220.0403384416103
 30
0.0
 40
4.5
  0
LINE
  5
57D7
330
A
100
AcDbEntity
  8
モデル
  6
Continuous
 62
     7
100
AcDbLine
 10
146.6420809221351
 20
224.5403384416103
 30
0.0
 11
140.1045149221351
 21
224.5403384416103
 31
0.0
  0
LINE
  5
57D8
330
A
100
AcDbEntity
  8
モデル
  6
Continuous
 62
     7
100
AcDbLine
 10
146.6420809221351
 20
215.5403384416103
 30
0.0
 11
140.104534922135
 21
215.5403384416103
 31
0.0
  0
CIRCLE
  5
57DA
330
A
100
AcDbEntity
  8
モデル
  6
Continuous
 62
     7
100
AcDbCircle
 10
108.6420809221351
 20
220.0403384416103
 30
0.0
 40
4.5
  0
LINE
  5
57DB
330
A
100
AcDbEntity
  8
モデル
  6
Continuous
 62
     7
100
AcDbLine
 10
108.6420809221351
 20
224.5403384416103
 30
0.0
 11
115.179646922135
 21
224.5403384416103
 31
0.0
  0
LINE
  5
57DD
330
A
100
AcDbEntity
  8
モデル
  6
Continuous
 62
     7
100
AcDbLine
 10
108.6420809221351
 20
215.5403384416103
 30
0.0
 11
115.1796269221351
 21
215.5403384416103
 31
0.0
  0
CIRCLE
  5
5812
102
{ACAD_REACTORS
330
59AB
330
5BF2
102
}
330
A
100
AcDbEntity
  8
CutoutOverlay
100
AcDbCircle
 10
436.2759925681955
 20
140.0403384416105
 30
0.0
 40
25.0
  0
CIRCLE
  5
5813
102
{ACAD_REACTORS
330
59AB
330
5BF2
102
}
330
A
100
AcDbEntity
  8
CutoutOverlay
100
AcDbCircle
 10
436.2759925681955
 20
220.0403384416105
 30
0.0
 40
25.0
  0
CIRCLE
  5
5814
330
A
100
AcDbEntity
  8
HIDDEN
100
AcDbCircle
 10
436.2759925681955
 20
220.0403104416104
 30
0.0
 40
9.0
  0
CIRCLE
  5
5815
330
A
100
AcDbEntity
  8
HIDDEN
100
AcDbCircle
 10
436.2759925681955
 20
220.0403104416104
 30
0.0
 40
13.25
  0
ARC
  5
5816
330
A
100
AcDbEntity
  8
HIDDEN
100
AcDbCircle
 10
436.2759925681955
 20
128.2403384416104
 30
0.0
 40
5.25
100
AcDbArc
 50
180.0
 51
0.0
  0
ARC
  5
5817
330
A
100
AcDbEntity
  8
HIDDEN
100
AcDbCircle
 10
436.2759925681955
 20
148.0403104416104
 30
0.0
 40
7.85
100
AcDbArc
 50
311.9737300000006
 51
228.0262699999993
  0
ARC
  5
5818
330
A
100
AcDbEntity
  8
CutoutUnderlay
100
AcDbCircle
 10
490.7759925681955
 20
285.5403384416102
 30
0.0
 40
2.0
100
AcDbArc
 50
0.0
 51
90.0
  0
ARC
  5
5819
330
A
100
AcDbEntity
  8
CutoutUnderlay
  6
HIDDEN
 48
2.0
100
AcDbCircle
 10
475.7759925681955
 20
285.5403384416102
 30
0.0
 40
2.0
100
AcDbArc
 50
0.0
 51
90.0
  0
ARC
  5
581A
330
A
100
AcDbEntity
  8
CutoutUnderlay
100
AcDbCircle
 10
398.7756525681955
 20
285.5403384416102
 30
0.0
 40
2.0
100
AcDbArc
 50
90.0
 51
180.0
  0
ARC
  5
581B
330
A
100
AcDbEntity
  8
CutoutUnderlay
100
AcDbCircle
 10
490.7759925681955
 20
105.5403384416104
 30
0.0
 40
2.0
100
AcDbArc
 50
270.0
 51
0.0
  0
ARC
  5
581C
330
A
100
AcDbEntity
  8
CutoutUnderlay
  6
HIDDEN
 48
2.0
100
AcDbCircle
 10
475.7759925681955
 20
105.5403384416104
 30
0.0
 40
2.0
100
AcDbArc
 50
270.0
 51
0.0
  0
ARC
  5
581D
330
A
100
AcDbEntity
  8
CutoutUnderlay
100
AcDbCircle
 10
398.7756525681955
 20
105.5403384416104
 30
0.0
 40
2.0
100
AcDbArc
 50
180.0
 51
270.0
  0
LINE
  5
5821
330
A
100
AcDbEntity
  8
HIDDEN
100
AcDbLine
 10
441.5259925681955
 20
142.2042154416104
 30
0.0
 11
441.5259925681955
 21
128.2403384416104
 31
0.0
  0
LINE
  5
5822
330
A
100
AcDbEntity
  8
HIDDEN
100
AcDbLine
 10
431.0259925681955
 20
128.2403384416104
 30
0.0
 11
431.0259925681955
 21
142.2042154416104
 31
0.0
  0
LINE
  5
5824
330
A
100
AcDbEntity
  8
CutoutUnderlay
100
AcDbLine
 10
503.7759925681955
 20
265.0403384416102
 30
0.0
 11
492.7759925681955
 21
265.0403384416102
 31
0.0
  0
LINE
  5
5826
330
A
100
AcDbEntity
  8
CutoutUnderlay
100
AcDbLine
 10
503.7759925681955
 20
265.0403384416102
 30
0.0
 11
503.7759925681955
 21
231.0403384416105
 31
0.0
  0
LINE
  5
5828
330
A
100
AcDbEntity
  8
CutoutUnderlay
100
AcDbLine
 10
503.7759925681955
 20
231.0403384416105
 30
0.0
 11
492.7759925681955
 21
231.0403384416105
 31
0.0
  0
LINE
  5
5829
330
A
100
AcDbEntity
  8
HIDDEN
100
AcDbLine
 10
440.3208245681956
 20
224.0403384416105
 30
0.0
 11
440.3208245681956
 21
216.0403384416105
 31
0.0
  0
LINE
  5
582A
330
A
100
AcDbEntity
  8
HIDDEN
100
AcDbLine
 10
432.3208245681956
 20
224.0403384416105
 30
0.0
 11
440.3208245681956
 21
224.0403384416105
 31
0.0
  0
LINE
  5
582B
330
A
100
AcDbEntity
  8
HIDDEN
100
AcDbLine
 10
432.3208245681956
 20
216.0403384416105
 30
0.0
 11
432.3208245681956
 21
224.0403384416105
 31
0.0
  0
LINE
  5
582C
330
A
100
AcDbEntity
  8
HIDDEN
100
AcDbLine
 10
440.3208245681956
 20
216.0403384416105
 30
0.0
 11
432.3208245681956
 21
216.0403384416105
 31
0.0
  0
LINE
  5
582E
330
A
100
AcDbEntity
  8
CutoutUnderlay
100
AcDbLine
 10
490.7759925681955
 20
287.5403384416102
 30
0.0
 11
398.7756525681955
 21
287.5403384416102
 31
0.0
  0
LINE
  5
582F
330
A
100
AcDbEntity
  8
CutoutUnderlay
100
AcDbLine
 10
492.7759925681955
 20
105.5403384416104
 30
0.0
 11
492.7759925681955
 21
285.5403384416102
 31
0.0
  0
LINE
  5
5830
330
A
100
AcDbEntity
  8
CutoutUnderlay
  6
HIDDEN
 48
2.0
100
AcDbLine
 10
477.7759925681955
 20
105.5403384416104
 30
0.0
 11
477.7759925681955
 21
285.5403384416102
 31
0.0
  0
LINE
  5
5831
330
A
100
AcDbEntity
  8
CutoutUnderlay
100
AcDbLine
 10
398.7756525681955
 20
103.5403384416104
 30
0.0
 11
490.7759925681955
 21
103.5403384416104
 31
0.0
  0
LINE
  5
5833
330
A
100
AcDbEntity
  8
CutoutUnderlay
100
AcDbLine
 10
493.7759925681955
 20
182.0403384416105
 30
0.0
 11
493.7759925681955
 21
147.5403384416105
 31
0.0
  0
LINE
  5
5834
330
A
100
AcDbEntity
  8
CutoutUnderlay
100
AcDbLine
 10
493.7759925681955
 20
182.0403384416105
 30
0.0
 11
492.7759925681955
 21
182.0403384416105
 31
0.0
  0
LINE
  5
5835
330
A
100
AcDbEntity
  8
CutoutUnderlay
100
AcDbLine
 10
493.7759925681955
 20
147.5403384416105
 30
0.0
 11
492.7759925681955
 21
147.5403384416105
 31
0.0
  0
LINE
  5
5836
330
A
100
AcDbEntity
  8
CutoutUnderlay
100
AcDbLine
 10
396.7756525681955
 20
285.5403384416102
 30
0.0
 11
396.7756525681955
 21
105.5403384416104
 31
0.0
  0
CIRCLE
  5
5837
330
A
100
AcDbEntity
  8
HIDDEN
100
AcDbCircle
 10
455.2759925681955
 20
220.0403384416105
 30
0.0
 40
4.5
  0
LINE
  5
5838
330
A
100
AcDbEntity
  8
HIDDEN
100
AcDbLine
 10
455.2759925681955
 20
224.5403384416105
 30
0.0
 11
448.7384265681956
 21
224.5403384416105
 31
0.0
  0
LINE
  5
5839
330
A
100
AcDbEntity
  8
HIDDEN
100
AcDbLine
 10
455.2759925681955
 20
215.5403384416105
 30
0.0
 11
448.7384465681955
 21
215.5403384416105
 31
0.0
  0
CIRCLE
  5
583B
330
A
100
AcDbEntity
  8
HIDDEN
100
AcDbCircle
 10
417.2759925681955
 20
220.0403384416105
 30
0.0
 40
4.5
  0
LINE
  5
583C
330
A
100
AcDbEntity
  8
HIDDEN
100
AcDbLine
 10
417.2759925681955
 20
224.5403384416105
 30
0.0
 11
423.8135585681955
 21
224.5403384416105
 31
0.0
  0
LINE
  5
583E
330
A
100
AcDbEntity
  8
HIDDEN
100
AcDbLine
 10
417.2759925681955
 20
215.5403384416105
 30
0.0
 11
423.8135385681956
 21
215.5403384416105
 31
0.0
  0
DIMENSION
  5
5861
330
A
100
AcDbEntity
  8
寸法
100
AcDbDimension
  2
*D7
 10
235.94779104618
 20
103.5403384416103
 30
0.0
 11
230.44779104618
 21
195.5403384416102
 31
0.0
 70
    32
 71
     5
 42
183.9999999999999
 73
     0
 74
     0
 75
     0
  3
tfrom線あり
100
AcDbAlignedDimension
 13
188.5834261518442
 23
287.5403384416102
 33
0.0
 14
188.5834261518442
 24
103.5403384416103
 34
0.0
 50
90.0
100
AcDbRotatedDimension
1001
ACAD
1000
DSTYLE
1002
{
1070
   144
1040
1.0
1002
}
  0
DIMENSION
  5
587F
102
{ACAD_REACTORS
330
5881
102
}
102
{ACAD_XDICTIONARY
360
5880
102
}
330
A
100
AcDbEntity
  8
寸法
100
AcDbDimension
  2
*D8
 10
217.0647289835213
 20
220.0403384416103
 30
0.0
 11
211.5647289835213
 21
253.7903384416102
 31
0.0
 70
    32
 71
     5
 42
67.49999999999991
 73
     0
 74
     0
 75
     0
  3
tfrom線あり
100
AcDbAlignedDimension
 13
188.5834261518442
 23
287.5403384416102
 33
0.0
 14
151.1420809221351
 24
220.0403384416103
 34
0.0
 50
90.0
100
AcDbRotatedDimension
1001
ACAD
1000
DSTYLE
1002
{
1070
   144
1040
1.0
1002
}
  0
DIMENSION
  5
588E
330
A
100
AcDbEntity
  8
寸法
100
AcDbDimension
  2
*D9
 10
217.0647289835213
 20
148.0403384416103
 30
0.0
 11
211.5647289835213
 21
184.0403384416103
 31
0.0
 70
    32
 71
     5
 42
72.0
 73
     0
 74
     0
 75
     0
  3
tfrom線あり
100
AcDbAlignedDimension
 13
156.1420809221351
 23
220.0403384416103
 33
0.0
 14
128.9150623076905
 24
148.0403384416103
 34
0.0
 50
90.0
100
AcDbRotatedDimension
1001
ACAD
1000
DSTYLE
1002
{
1070
   144
1040
1.0
1002
}
  0
DIMENSION
  5
589D
102
{ACAD_REACTORS
330
589F
102
}
102
{ACAD_XDICTIONARY
360
589E
102
}
330
A
100
AcDbEntity
  8
寸法
100
AcDbDimension
  2
*D10
 10
184.1420809221349
 20
299.3655993358827
 30
0.0
 11
155.8920809221351
 21
299.3655993358827
 31
0.0
 70
   160
 71
     5
 42
56.49999999999982
 73
     0
 74
     0
 75
     0
  3
tfrom線あり
100
AcDbAlignedDimension
 13
127.6420809221351
 23
233.2903104416104
 33
0.0
 14
184.1420809221349
 24
288.4204683636361
 34
0.0
100
AcDbRotatedDimension
1001
ACAD
1000
DSTYLE
1002
{
1070
   271
1070
     1
1070
   144
1040
1.0
1002
}
  0
DIMENSION
  5
58B8
330
A
100
AcDbEntity
  8
寸法
100
AcDbDimension
  2
*D11
 10
66.56369529295216
 20
332.7608136559497
 30
0.0
 11
61.06369529295216
 21
343.5108136559497
 31
0.0
 70
    32
 71
     5
 42
21.5
 73
     0
 74
     0
 75
     0
  3
tfrom線あり
100
AcDbAlignedDimension
 13
90.141740922135
 23
354.2608136559497
 33
0.0
 14
90.141740922135
 24
332.7608136559497
 34
0.0
 50
90.0
100
AcDbRotatedDimension
1001
ACAD
1000
DSTYLE
1002
{
1070
   271
1070
     1
1070
   144
1040
1.0
1002
}
  0
DIMENSION
  5
58CB
102
{ACAD_REACTORS
330
58CD
102
}
102
{ACAD_XDICTIONARY
360
58CC
102
}
330
A
100
AcDbEntity
  8
寸法
100
AcDbDimension
  2
*D12
 10
204.2471871174163
 20
354.0608136559498
 30
0.0
 11
204.2471871174163
 21
358.1608136559497
 31
0.0
 70
   160
 71
     5
 42
8.199999999999932
 73
     0
 74
     0
 75
     0
  3
tfrom線あり
100
AcDbAlignedDimension
 13
169.1420809221351
 23
362.2608136559497
 33
0.0
 14
179.1420809221351
 24
354.0608136559498
 34
0.0
 50
90.0
100
AcDbRotatedDimension
1001
ACAD
1000
DSTYLE
1002
{
1070
   144
1040
1.0
1002
}
  0
DIMENSION
  5
58DB
330
A
100
AcDbEntity
  8
寸法
100
AcDbDimension
  2
*D13
 10
204.2471871174163
 20
372.2608136559497
 30
0.0
 11
204.2471871174163
 21
367.2608136559497
 31
0.0
 70
   160
 71
     5
 42
10.0
 73
     0
 74
     0
 75
     0
  3
tfrom線あり
100
AcDbAlignedDimension
 13
174.1420809221351
 23
362.2608136559497
 33
0.0
 14
174.1420809221351
 24
372.2608136559497
 34
0.0
 50
90.0
100
AcDbRotatedDimension
1001
ACAD
1000
DSTYLE
1002
{
1070
   144
1040
1.0
1002
}
  0
DIMENSION
  5
58F3
330
A
100
AcDbEntity
  8
寸法
100
AcDbDimension
  2
*D14
 10
227.599178051834
 20
341.7608136559497
 30
0.0
 11
222.099178051834
 21
352.0108136559497
 31
0.0
 70
    32
 71
     5
 42
20.5
 73
     0
 74
     0
 75
     0
  3
tfrom線あり
100
AcDbAlignedDimension
 13
203.7527991396991
 23
362.2608136559497
 33
0.0
 14
197.8976778943481
 24
341.7608136559497
 34
0.0
 50
90.0
100
AcDbRotatedDimension
1001
ACAD
1000
DSTYLE
1002
{
1070
   271
1070
     1
1070
   144
1040
1.0
1002
}
  0
DIMENSION
  5
5908
330
A
100
AcDbEntity
  8
寸法
100
AcDbDimension
  2
*D15
 10
518.9250777555762
 20
140.0403384416105
 30
0.0
 11
513.4250777555762
 21
180.0403384416107
 31
0.0
 70
    32
 71
     5
 42
80.0000000000004
 73
     0
 74
     0
 75
     0
  3
tfrom線あり
100
AcDbAlignedDimension
 13
466.3497233890007
 23
220.0403384416109
 33
0.0
 14
466.2759925681955
 24
140.0403384416105
 34
0.0
 50
90.0
100
AcDbRotatedDimension
1001
ACAD
1000
DSTYLE
1002
{
1070
   144
1040
1.0
1002
}
  0
DIMENSION
  5
5955
102
{ACAD_REACTORS
330
5957
102
}
102
{ACAD_XDICTIONARY
360
5956
102
}
330
A
100
AcDbEntity
  8
寸法
100
AcDbDimension
  2
*D16
 10
184.1420809221351
 20
321.137313204523
 30
0.0
 11
136.1419109221351
 21
326.637313204523
 31
0.0
 70
    32
 71
     5
 42
96.00033999999994
 73
     0
 74
     0
 75
     0
  3
tfrom線あり
100
AcDbAlignedDimension
 13
88.14174092213511
 23
336.3349114907206
 33
0.0
 14
184.1420809221351
 24
336.3349114907206
 34
0.0
100
AcDbRotatedDimension
1001
ACAD
1000
DSTYLE
1002
{
1070
   144
1040
1.0
1002
}
  0
DIMENSION
  5
5964
102
{ACAD_REACTORS
330
5966
102
}
102
{ACAD_XDICTIONARY
360
5965
102
}
330
A
100
AcDbEntity
  8
寸法
100
AcDbDimension
  2
*D17
 10
169.1420809221351
 20
382.8151415736955
 30
0.0
 11
128.6420809221351
 21
388.3151415736955
 31
0.0
 70
    32
 71
     5
 42
81.0
 73
     0
 74
     0
 75
     0
  3
tfrom線あり
100
AcDbAlignedDimension
 13
88.14208092213505
 23
369.2608136559497
 33
0.0
 14
169.1420809221351
 24
369.2608136559497
 34
0.0
100
AcDbRotatedDimension
1001
ACAD
1000
DSTYLE
1002
{
1070
   144
1040
1.0
1002
}
  0
HATCH
  5
59AB
102
{ACAD_REACTORS
330
5BF2
102
}
330
A
100
AcDbEntity
  8
CutoutOverlay
100
AcDbHatch
 10
0.0
 20
0.0
 30
0.0
210
0.0
220
0.0
230
1.0
  2
ANSI31
 70
     0
 71
     1
 91
        2
 92
        1
 93
        1
 72
     2
 10
436.2759925681955
 20
220.0403384416105
 40
25.0
 50
0.0
 51
360.0
 73
     1
 97
        1
330
5813
 92
        1
 93
        1
 72
     2
 10
436.2759925681955
 20
140.0403384416105
 40
25.0
 50
0.0
 51
360.0
 73
     1
 97
        1
330
5812
 75
     0
 76
     1
 52
0.0
 41
1.0
 77
     0
 78
     1
 53
45.0
 43
0.0
 44
0.3090909090907985
 45
-2.245064030267288
 46
2.245064030267288
 79
     0
 98
        1
 10
0.0
 20
0.3090909090907985
1001
ACAD
1010
0.0
1020
0.0
1030
0.0
  0
LINE
  5
59AC
330
A
100
AcDbEntity
  8
モデル
  6
CENTER
 48
2.0
100
AcDbLine
 10
436.2759925681955
 20
290.841504162909
 30
0.0
 11
436.2759925681955
 21
189.966607620805
 31
0.0
  0
LINE
  5
59AD
330
A
100
AcDbEntity
  8
モデル
  6
CENTER
 48
2.0
100
AcDbLine
 10
466.3497233890007
 20
220.0403384416109
 30
0.0
 11
406.2022617473903
 21
220.0403384416098
 31
0.0
  0
LINE
  5
59AE
330
A
100
AcDbEntity
  8
モデル
  6
CENTER
 48
2.0
100
AcDbLine
 10
436.2759925681955
 20
170.1140692624157
 30
0.0
 11
436.2759925681955
 21
109.966607620805
 31
0.0
  0
LINE
  5
59AF
330
A
100
AcDbEntity
  8
モデル
  6
CENTER
 48
2.0
100
AcDbLine
 10
466.3497233890007
 20
140.0403384416109
 30
0.0
 11
406.2022617473903
 21
140.0403384416098
 31
0.0
  0
TEXT
  5
5C36
330
A
100
AcDbEntity
  8
寸法
100
AcDbText
 10
405.5062984288605
 20
311.9695888059056
 30
0.0
 40
5.0
  1
<ガラス扉用下穴切欠図>
  7
ＭＳ ゴシック
100
AcDbText
  0
LEADER
  5
5C6F
102
{ACAD_XDICTIONARY
360
5C70
102
}
330
A
100
AcDbEntity
  8
寸法
100
AcDbLeader
  3
tfrom線あり
 76
     3
 10
436.3200447059514
 20
220.0403384416103
 30
0.0
 10
469.6009316075044
 20
195.7444409703923
 30
0.0
 10
537.5562101351125
 20
195.7444409703923
 30
0.0
  0
TEXT
  5
5C71
330
A
100
AcDbEntity
  8
寸法
100
AcDbText
 10
471.1818686771277
 20
198.3798939200883
 30
0.0
 40
5.0
  1
レバー角芯 センター
  7
ＭＳ ゴシック
100
AcDbText
  0
LEADER
  5
5C72
102
{ACAD_XDICTIONARY
360
5C73
102
}
330
A
100
AcDbEntity
  8
寸法
100
AcDbLeader
  3
tfrom線あり
 76
     3
 10
436.3200447059514
 20
140.0403384416105
 30
0.0
 10
469.6009316075044
 20
115.7444409703924
 30
0.0
 10
537.5562101351125
 20
115.7444409703924
 30
0.0
  0
TEXT
  5
5C74
330
A
100
AcDbEntity
  8
寸法
100
AcDbText
 10
471.1818686771278
 20
118.3798939200883
 30
0.0
 40
5.0
  1
シリンダー センター
  7
ＭＳ ゴシック
100
AcDbText
  0
LEADER
  5
5CAD
102
{ACAD_XDICTIONARY
360
5CAE
102
}
330
A
100
AcDbEntity
  8
寸法
100
AcDbLeader
  3
tfrom線あり
 76
     3
 10
436.2759925681955
 20
165.0403384416105
 30
0.0
 10
436.2759925681955
 20
169.9112668097982
 30
0.0
 10
462.1347836750806
 20
169.9112668097982
 30
0.0
  0
TEXT
  5
5CB1
330
A
100
AcDbEntity
  8
寸法
100
AcDbText
 10
451.2308171663507
 20
172.2201412372745
 30
0.0
 40
5.0
  1
%%c50
  7
ＭＳ ゴシック
100
AcDbText
  0
LEADER
  5
5CB2
102
{ACAD_XDICTIONARY
360
5CB3
102
}
330
A
100
AcDbEntity
  8
寸法
100
AcDbLeader
  3
tfrom線あり
 76
     3
 10
436.2759925681955
 20
245.0403384416103
 30
0.0
 10
436.2759925681955
 20
249.9112668097982
 30
0.0
 10
462.1347836750806
 20
249.9112668097982
 30
0.0
  0
TEXT
  5
5CB5
330
A
100
AcDbEntity
  8
寸法
100
AcDbText
 10
451.2308171663507
 20
252.2201412372743
 30
0.0
 40
5.0
  1
%%c50
  7
ＭＳ ゴシック
100
AcDbText
  0
HATCH
  5
5D75
330
A
100
AcDbEntity
  8
寸法
 62
     7
420
 15461355
100
AcDbHatch
 10
0.0
 20
0.0
 30
0.0
210
0.0
220
0.0
230
1.0
  2
SOLID
 70
     1
 71
     1
 91
        1
 92
        1
 93
        4
 72
     1
 10
387.4356697070442
 20
368.9669298037812
 11
427.8437108308898
 21
354.9202956986607
 72
     1
 10
427.8437108308898
 20
354.9202956986607
 11
426.3471945783911
 21
350.6152579350994
 72
     1
 10
426.3471945783911
 20
350.6152579350994
 11
385.9391534545454
 21
364.6618920402198
 72
     1
 10
385.9391534545454
 20
364.6618920402198
 11
387.4356697070442
 21
368.9669298037812
 97
        4
330
5D76
330
5D78
330
5D77
330
5D9E
 75
     0
 76
     1
 98
        1
 10
-16.85936551563651
 20
56.92536840385611
1001
ACAD
1010
0.0
1020
0.0
1030
0.0
  0
LINE
  5
5D76
102
{ACAD_REACTORS
330
5D75
102
}
330
A
100
AcDbEntity
  8
寸法
100
AcDbLine
 10
387.4356697070442
 20
368.9669298037812
 30
0.0
 11
427.8437108308898
 21
354.9202956986607
 31
0.0
  0
LINE
  5
5D77
102
{ACAD_REACTORS
330
5D75
102
}
330
A
100
AcDbEntity
  8
寸法
100
AcDbLine
 10
426.3471945783911
 20
350.6152579350994
 30
0.0
 11
385.9391534545454
 21
364.6618920402198
 31
0.0
  0
LINE
  5
5D78
102
{ACAD_REACTORS
330
5D75
102
}
330
A
100
AcDbEntity
  8
寸法
100
AcDbLine
 10
427.8437108308898
 20
354.9202956986607
 30
0.0
 11
426.3471945783911
 21
350.6152579350994
 31
0.0
  0
LINE
  5
5D79
330
A
100
AcDbEntity
  8
寸法
100
AcDbLine
 10
366.9486079999998
 20
391.1180956765834
 30
0.0
 11
519.7326609687268
 21
391.1180956765834
 31
0.0
  0
TEXT
  5
5D7A
330
A
100
AcDbEntity
  8
テンプレート
100
AcDbText
 10
397.1809027984557
 20
393.6383425214903
 30
0.0
 40
5.5
  1
左勝手
  7
ＭＳ ゴシック
100
AcDbText
  0
TEXT
  5
5D7B
330
A
100
AcDbEntity
  8
テンプレート
100
AcDbText
 10
469.1372664348195
 20
393.6383425214903
 30
0.0
 40
5.5
  1
右勝手
  7
ＭＳ ゴシック
100
AcDbText
  0
HATCH
  5
5D7C
330
A
100
AcDbEntity
  8
寸法
 62
     7
420
 15461355
100
AcDbHatch
 10
0.0
 20
0.0
 30
0.0
210
0.0
220
0.0
230
1.0
  2
SOLID
 70
     1
 71
     1
 91
        1
 92
        1
 93
        4
 72
     1
 10
366.9486079999998
 20
369.2196229493107
 11
366.9486079999998
 21
364.6618920402198
 72
     1
 10
366.9486079999998
 20
364.6618920402198
 11
385.9391534545454
 21
364.6618920402198
 72
     1
 10
385.9391534545454
 20
364.6618920402198
 11
385.9391534545454
 21
369.2196229493107
 72
     1
 10
385.9391534545454
 20
369.2196229493107
 11
366.9486079999998
 21
369.2196229493107
 97
        4
330
5DA3
330
5D7D
330
5D7F
330
5D7E
 75
     0
 76
     1
 98
        1
 10
-16.85936551563651
 20
56.92536840385611
1001
ACAD
1010
0.0
1020
0.0
1030
0.0
  0
LINE
  5
5D7D
102
{ACAD_REACTORS
330
5D7C
102
}
330
A
100
AcDbEntity
  8
寸法
100
AcDbLine
 10
366.9486079999998
 20
369.2196229493107
 30
0.0
 11
385.9391534545454
 21
369.2196229493107
 31
0.0
  0
LINE
  5
5D7E
102
{ACAD_REACTORS
330
5D7C
102
}
330
A
100
AcDbEntity
  8
寸法
100
AcDbLine
 10
385.9391534545454
 20
369.2196229493107
 30
0.0
 11
385.9391534545454
 21
364.6618920402198
 31
0.0
  0
LINE
  5
5D7F
102
{ACAD_REACTORS
330
5D7C
102
}
330
A
100
AcDbEntity
  8
寸法
100
AcDbLine
 10
385.9391534545454
 20
364.6618920402198
 30
0.0
 11
366.9486079999998
 21
364.6618920402198
 31
0.0
  0
LINE
  5
5D80
330
A
100
AcDbEntity
  8
寸法
100
AcDbLine
 10
366.9486079999998
 20
401.6809716363635
 30
0.0
 11
366.9486079999998
 21
325.5162239999999
 31
0.0
  0
HATCH
  5
5D81
330
A
100
AcDbEntity
  8
寸法
100
AcDbHatch
 10
0.0
 20
0.0
 30
0.0
210
0.0
220
0.0
230
1.0
  2
SOLID
 70
     1
 71
     1
 91
        1
 92
        1
 93
        1
 72
     2
 10
385.9391534545454
 20
364.6618920402198
 40
1.703878379007863
 50
0.0
 51
360.0
 73
     1
 97
        1
330
5DA4
 75
     0
 76
     1
 98
        1
 10
-16.85936551563651
 20
56.92536840385611
1001
ACAD
1010
0.0
1020
0.0
1030
0.0
  0
LINE
  5
5D82
330
A
100
AcDbEntity
  8
寸法
100
AcDbLine
 10
422.8299384217794
 20
356.6631821281532
 30
0.0
 11
423.1806447474758
 21
357.6720612322203
 31
0.0
  0
LINE
  5
5D83
330
A
100
AcDbEntity
  8
寸法
100
AcDbLine
 10
423.1806447474758
 20
357.6720612322203
 30
0.0
 11
417.9642829151616
 21
359.4853717511306
 31
0.0
  0
LINE
  5
5D84
330
A
100
AcDbEntity
  8
寸法
100
AcDbLine
 10
417.9642829151616
 20
359.4853717511306
 30
0.0
 11
417.6135765894653
 21
358.4764926470635
 31
0.0
  0
LINE
  5
5D85
330
A
100
AcDbEntity
  8
寸法
100
AcDbLine
 10
421.4638633434278
 20
358.2688483951324
 30
0.0
 11
423.2547492646688
 21
363.4207012455772
 31
0.0
  0
LINE
  5
5D86
330
A
100
AcDbEntity
  8
寸法
100
AcDbLine
 10
423.2547492646688
 20
363.4207012455772
 30
0.0
 11
413.5994641423565
 21
366.777069273368
 31
0.0
  0
LINE
  5
5D87
330
A
100
AcDbEntity
  8
寸法
100
AcDbLine
 10
413.5994641423565
 20
366.777069273368
 30
0.0
 11
413.1199829955292
 21
365.3977428273234
 31
0.0
  0
LINE
  5
5D88
330
A
100
AcDbEntity
  8
寸法
100
AcDbLine
 10
413.1199829955292
 20
365.3977428273234
 30
0.0
 11
421.1451550452433
 21
362.608034336692
 31
0.0
  0
LINE
  5
5D89
330
A
100
AcDbEntity
  8
寸法
100
AcDbLine
 10
421.1451550452433
 20
362.608034336692
 30
0.0
 11
419.8337502708296
 21
358.8355079322919
 31
0.0
  0
LINE
  5
5D8A
330
A
100
AcDbEntity
  8
寸法
100
AcDbLine
 10
421.3334221692807
 20
352.3581443645918
 30
0.0
 11
420.9827158435843
 21
351.3492652605247
 31
0.0
  0
LINE
  5
5D8B
330
A
100
AcDbEntity
  8
寸法
100
AcDbLine
 10
420.9827158435843
 20
351.3492652605247
 30
0.0
 11
415.7663540112702
 21
353.1625757794349
 31
0.0
  0
LINE
  5
5D8C
330
A
100
AcDbEntity
  8
寸法
100
AcDbLine
 10
415.7663540112702
 20
353.1625757794349
 30
0.0
 11
416.1170603369665
 21
354.171454883502
 31
0.0
  0
LINE
  5
5D8D
330
A
100
AcDbEntity
  8
寸法
100
AcDbLine
 10
419.2659344395364
 20
351.9460524234367
 30
0.0
 11
417.4750485182955
 21
346.794199572992
 31
0.0
  0
LINE
  5
5D8E
330
A
100
AcDbEntity
  8
寸法
100
AcDbLine
 10
417.4750485182955
 20
346.794199572992
 30
0.0
 11
407.8197633959832
 21
350.1505676007827
 31
0.0
  0
LINE
  5
5D8F
330
A
100
AcDbEntity
  8
寸法
100
AcDbLine
 10
407.8197633959832
 20
350.1505676007827
 30
0.0
 11
408.2992445428104
 21
351.5298940468274
 31
0.0
  0
LINE
  5
5D90
330
A
100
AcDbEntity
  8
寸法
100
AcDbLine
 10
408.2992445428104
 20
351.5298940468274
 30
0.0
 11
416.3244165925245
 21
348.7401855561961
 31
0.0
  0
LINE
  5
5D91
330
A
100
AcDbEntity
  8
寸法
100
AcDbLine
 10
416.3244165925245
 20
348.7401855561961
 30
0.0
 11
417.6358213669382
 21
352.5127119605962
 31
0.0
  0
HATCH
  5
5D92
330
A
100
AcDbEntity
  8
寸法
100
AcDbHatch
 10
0.0
 20
0.0
 30
0.0
210
0.0
220
0.0
230
1.0
  2
SOLID
 70
     1
 71
     1
 91
        1
 92
        1
 93
        7
 72
     1
 10
432.0599337824206
 20
354.272185995029
 11
430.2073929878607
 21
348.9429701807658
 72
     1
 10
430.2073929878607
 20
348.9429701807658
 11
428.5145832586242
 21
349.5314243155083
 72
     1
 10
428.5145832586242
 20
349.5314243155083
 11
429.4544333118866
 21
345.0586133596448
 72
     1
 10
429.4544333118872
 20
345.0586133596446
 11
432.9660458799502
 21
347.9840078871113
 72
     1
 10
432.9660458799502
 20
347.9840078871113
 11
431.2732361507136
 21
348.5724620218538
 72
     1
 10
431.2732361507136
 20
348.5724620218538
 11
433.1257769452732
 21
353.9016778361171
 72
     1
 10
433.1257769452732
 20
353.9016778361171
 11
432.0599337824206
 21
354.272185995029
 97
        7
330
5D93
330
5D94
330
5D95
330
5D96
330
5D97
330
5D98
330
5D99
 75
     0
 76
     1
 98
        1
 10
-97.59798807749098
 20
206.6599255350939
1001
ACAD
1010
0.0
1020
0.0
1030
0.0
  0
LINE
  5
5D93
102
{ACAD_REACTORS
330
5D92
102
}
330
A
100
AcDbEntity
  8
寸法
100
AcDbLine
 10
432.0599337824206
 20
354.272185995029
 30
0.0
 11
430.2073929878607
 21
348.9429701807658
 31
0.0
  0
LINE
  5
5D94
102
{ACAD_REACTORS
330
5D92
102
}
330
A
100
AcDbEntity
  8
寸法
100
AcDbLine
 10
430.2073929878607
 20
348.9429701807658
 30
0.0
 11
428.5145832586242
 21
349.5314243155083
 31
0.0
  0
LINE
  5
5D95
102
{ACAD_REACTORS
330
5D92
102
}
330
A
100
AcDbEntity
  8
寸法
100
AcDbLine
 10
432.0599337824206
 20
354.272185995029
 30
0.0
 11
433.1257769452732
 21
353.9016778361171
 31
0.0
  0
LINE
  5
5D96
102
{ACAD_REACTORS
330
5D92
102
}
330
A
100
AcDbEntity
  8
寸法
100
AcDbLine
 10
428.5145832586242
 20
349.5314243155083
 30
0.0
 11
429.4544333118866
 21
345.0586133596448
 31
0.0
  0
LINE
  5
5D97
102
{ACAD_REACTORS
330
5D92
102
}
330
A
100
AcDbEntity
  8
寸法
100
AcDbLine
 10
433.1257769452732
 20
353.9016778361171
 30
0.0
 11
431.2732361507136
 21
348.5724620218538
 31
0.0
  0
LINE
  5
5D98
102
{ACAD_REACTORS
330
5D92
102
}
330
A
100
AcDbEntity
  8
寸法
100
AcDbLine
 10
431.2732361507136
 20
348.5724620218538
 30
0.0
 11
432.9660458799502
 21
347.9840078871113
 31
0.0
  0
LINE
  5
5D99
102
{ACAD_REACTORS
330
5D92
102
}
330
A
100
AcDbEntity
  8
寸法
100
AcDbLine
 10
432.9660458799502
 20
347.9840078871113
 30
0.0
 11
429.4544333118872
 21
345.0586133596446
 31
0.0
  0
HATCH
  5
5D9A
330
A
100
AcDbEntity
  8
寸法
 62
     7
420
 15461355
100
AcDbHatch
 10
0.0
 20
0.0
 30
0.0
210
0.0
220
0.0
230
1.0
  2
SOLID
 70
     1
 71
     1
 91
        1
 92
        1
 93
        6
 72
     1
 10
429.5155498039851
 20
369.2196229493107
 11
443.3406344843634
 21
369.2196229493107
 72
     1
 10
443.3406344843634
 20
369.2196229493107
 11
457.1657191647417
 21
369.2196229493102
 72
     1
 10
457.1657191647417
 20
369.2196229493103
 11
457.1657191647415
 21
364.6618920402194
 72
     1
 10
457.1657191647415
 20
364.6618920402193
 11
443.3406344843632
 21
364.6618920402198
 72
     1
 10
443.3406344843634
 20
364.6618920402198
 11
429.5155498039852
 21
364.6618920402198
 72
     1
 10
429.5155498039852
 20
364.6618920402199
 11
429.5155498039851
 21
369.2196229493108
 97
        6
330
5D9B
330
5D9D
330
5D9C
330
5DA5
330
5DA6
330
5DA7
 75
     0
 76
     1
 98
        1
 10
-16.85936551563651
 20
56.92536840385611
1001
ACAD
1010
0.0
1020
0.0
1030
0.0
  0
LINE
  5
5D9B
102
{ACAD_REACTORS
330
5D9A
102
}
330
A
100
AcDbEntity
  8
寸法
100
AcDbLine
 10
429.5155498039851
 20
369.2196229493107
 30
0.0
 11
443.3406344843634
 21
369.2196229493107
 31
0.0
  0
LINE
  5
5D9C
102
{ACAD_REACTORS
330
5D9A
102
}
330
A
100
AcDbEntity
  8
寸法
100
AcDbLine
 10
429.5155498039852
 20
364.6618920402198
 30
0.0
 11
443.3406344843634
 21
364.6618920402198
 31
0.0
  0
LINE
  5
5D9D
102
{ACAD_REACTORS
330
5D9A
102
}
330
A
100
AcDbEntity
  8
寸法
100
AcDbLine
 10
429.5155498039851
 20
369.2196229493108
 30
0.0
 11
429.5155498039852
 21
364.6618920402199
 31
0.0
  0
LINE
  5
5D9E
102
{ACAD_REACTORS
330
5D75
102
}
330
A
100
AcDbEntity
  8
寸法
100
AcDbLine
 10
385.9391534545454
 20
364.6618920402198
 30
0.0
 11
387.4356697070442
 21
368.9669298037812
 31
0.0
  0
TEXT
  5
5D9F
330
A
100
AcDbEntity
  8
テンプレート
100
AcDbText
 10
432.9529543819526
 20
330.4378072487632
 30
0.0
 40
5.5
  1
室外側
  7
ＭＳ ゴシック
100
AcDbText
  0
TEXT
  5
5DA0
330
A
100
AcDbEntity
  8
テンプレート
100
AcDbText
 10
432.9529543819526
 20
380.228485357854
 30
0.0
 40
5.5
  1
室内側
  7
ＭＳ ゴシック
100
AcDbText
  0
LINE
  5
5DA1
330
A
100
AcDbEntity
  8
寸法
100
AcDbLine
 10
443.3406344843634
 20
325.5162239999999
 30
0.0
 11
366.9486079999998
 21
325.5162239999999
 31
0.0
  0
LINE
  5
5DA2
330
A
100
AcDbEntity
  8
寸法
100
AcDbLine
 10
443.3406344843634
 20
401.6809716363635
 30
0.0
 11
366.9486079999998
 21
401.6809716363635
 31
0.0
  0
LINE
  5
5DA3
102
{ACAD_REACTORS
330
5D7C
102
}
330
A
100
AcDbEntity
  8
寸法
100
AcDbLine
 10
366.9486079999998
 20
369.2196229493107
 30
0.0
 11
366.9486079999998
 21
364.6618920402198
 31
0.0
  0
CIRCLE
  5
5DA4
102
{ACAD_REACTORS
330
5D81
102
}
330
A
100
AcDbEntity
  8
寸法
100
AcDbCircle
 10
385.9391534545454
 20
364.6618920402198
 30
0.0
 40
1.703878379007863
  0
LINE
  5
5DA5
102
{ACAD_REACTORS
330
5D9A
102
}
330
A
100
AcDbEntity
  8
寸法
100
AcDbLine
 10
457.1657191647417
 20
369.2196229493102
 30
0.0
 11
443.3406344843634
 21
369.2196229493107
 31
0.0
  0
LINE
  5
5DA6
102
{ACAD_REACTORS
330
5D9A
102
}
330
A
100
AcDbEntity
  8
寸法
100
AcDbLine
 10
457.1657191647415
 20
364.6618920402193
 30
0.0
 11
443.3406344843632
 21
364.6618920402198
 31
0.0
  0
LINE
  5
5DA7
102
{ACAD_REACTORS
330
5D9A
102
}
330
A
100
AcDbEntity
  8
寸法
100
AcDbLine
 10
457.1657191647417
 20
369.2196229493103
 30
0.0
 11
457.1657191647415
 21
364.6618920402194
 31
0.0
  0
HATCH
  5
5DA8
330
A
100
AcDbEntity
  8
寸法
 62
     7
420
 15461355
100
AcDbHatch
 10
0.0
 20
0.0
 30
0.0
210
0.0
220
0.0
230
1.0
  2
SOLID
 70
     1
 71
     1
 91
        1
 92
        1
 93
        4
 72
     1
 10
499.2455992616826
 20
368.9669298037817
 11
458.8375581378369
 21
354.9202956986609
 72
     1
 10
458.8375581378369
 20
354.9202956986609
 11
460.3340743903357
 21
350.6152579350995
 72
     1
 10
460.3340743903357
 20
350.6152579350995
 11
500.7421155141813
 21
364.6618920402203
 72
     1
 10
500.7421155141813
 20
364.6618920402203
 11
499.2455992616826
 21
368.9669298037817
 97
        4
330
5DA9
330
5DAB
330
5DAA
330
5DB1
 75
     0
 76
     1
 98
        1
 10
903.5406344843656
 20
56.92536840385976
1001
ACAD
1010
0.0
1020
0.0
1030
0.0
  0
LINE
  5
5DA9
102
{ACAD_REACTORS
330
5DA8
102
}
330
A
100
AcDbEntity
  8
寸法
100
AcDbLine
 10
499.2455992616826
 20
368.9669298037817
 30
0.0
 11
458.8375581378369
 21
354.9202956986609
 31
0.0
  0
LINE
  5
5DAA
102
{ACAD_REACTORS
330
5DA8
102
}
330
A
100
AcDbEntity
  8
寸法
100
AcDbLine
 10
460.3340743903357
 20
350.6152579350995
 30
0.0
 11
500.7421155141813
 21
364.6618920402203
 31
0.0
  0
LINE
  5
5DAB
102
{ACAD_REACTORS
330
5DA8
102
}
330
A
100
AcDbEntity
  8
寸法
100
AcDbLine
 10
458.8375581378369
 20
354.9202956986609
 30
0.0
 11
460.3340743903357
 21
350.6152579350995
 31
0.0
  0
HATCH
  5
5DAC
330
A
100
AcDbEntity
  8
寸法
 62
     7
420
 15461355
100
AcDbHatch
 10
0.0
 20
0.0
 30
0.0
210
0.0
220
0.0
230
1.0
  2
SOLID
 70
     1
 71
     0
 91
        1
 92
        1
 93
        4
 72
     1
 10
519.7326609687268
 20
369.2196229493113
 11
519.7326609687268
 21
364.6618920402205
 72
     1
 10
519.732660968727
 20
364.6618920402205
 11
500.7421155141814
 21
364.6618920402203
 72
     1
 10
500.7421155141813
 20
364.6618920402203
 11
500.7421155141813
 21
369.2196229493112
 72
     1
 10
500.7421155141813
 20
369.2196229493112
 11
519.7326609687268
 21
369.2196229493114
 97
        0
 75
     0
 76
     1
 98
        1
 10
903.5406344843656
 20
56.92536840385976
1001
ACAD
1010
0.0
1020
0.0
1030
0.0
  0
LINE
  5
5DAD
102
{ACAD_REACTORS
330
5DAC
102
}
330
A
100
AcDbEntity
  8
寸法
100
AcDbLine
 10
519.7326609687268
 20
369.2196229493113
 30
0.0
 11
500.7421155141813
 21
369.2196229493112
 31
0.0
  0
LINE
  5
5DAE
102
{ACAD_REACTORS
330
5DAC
102
}
330
A
100
AcDbEntity
  8
寸法
100
AcDbLine
 10
500.7421155141813
 20
369.2196229493112
 30
0.0
 11
500.7421155141813
 21
364.6618920402203
 31
0.0
  0
LINE
  5
5DAF
102
{ACAD_REACTORS
330
5DAC
102
}
330
A
100
AcDbEntity
  8
寸法
100
AcDbLine
 10
500.7421155141813
 20
364.6618920402203
 30
0.0
 11
519.732660968727
 21
364.6618920402205
 31
0.0
  0
HATCH
  5
5DB0
330
A
100
AcDbEntity
  8
寸法
100
AcDbHatch
 10
0.0
 20
0.0
 30
0.0
210
0.0
220
0.0
230
1.0
  2
SOLID
 70
     1
 71
     1
 91
        1
 92
        1
 93
        1
 72
     2
 10
500.7421155141813
 20
364.6618920402203
 40
1.703878379007863
 50
0.0
 51
360.0
 73
     1
 97
        1
330
5DB2
 75
     0
 76
     1
 98
        1
 10
903.5406344843656
 20
56.92536840385976
1001
ACAD
1010
0.0
1020
0.0
1030
0.0
  0
LINE
  5
5DB1
102
{ACAD_REACTORS
330
5DA8
102
}
330
A
100
AcDbEntity
  8
寸法
100
AcDbLine
 10
500.7421155141813
 20
364.6618920402203
 30
0.0
 11
499.2455992616826
 21
368.9669298037817
 31
0.0
  0
CIRCLE
  5
5DB2
102
{ACAD_REACTORS
330
5DB0
102
}
330
A
100
AcDbEntity
  8
寸法
100
AcDbCircle
 10
500.7421155141813
 20
364.6618920402203
 30
0.0
 40
1.703878379007863
  0
LINE
  5
5DB3
330
A
100
AcDbEntity
  8
寸法
100
AcDbLine
 10
463.8513305469473
 20
356.6631821281534
 30
0.0
 11
463.500624221251
 21
357.6720612322205
 31
0.0
  0
LINE
  5
5DB4
330
A
100
AcDbEntity
  8
寸法
100
AcDbLine
 10
463.500624221251
 20
357.6720612322205
 30
0.0
 11
468.7169860535652
 21
359.4853717511308
 31
0.0
  0
LINE
  5
5DB5
330
A
100
AcDbEntity
  8
寸法
100
AcDbLine
 10
468.7169860535652
 20
359.4853717511308
 30
0.0
 11
469.0676923792615
 21
358.4764926470637
 31
0.0
  0
LINE
  5
5DB6
330
A
100
AcDbEntity
  8
寸法
100
AcDbLine
 10
465.217405625299
 20
358.2688483951326
 30
0.0
 11
463.426519704058
 21
363.4207012455774
 31
0.0
  0
LINE
  5
5DB7
330
A
100
AcDbEntity
  8
寸法
100
AcDbLine
 10
463.426519704058
 20
363.4207012455774
 30
0.0
 11
473.0818048263703
 21
366.7770692733683
 31
0.0
  0
LINE
  5
5DB8
330
A
100
AcDbEntity
  8
寸法
100
AcDbLine
 10
473.0818048263703
 20
366.7770692733683
 30
0.0
 11
473.5612859731975
 21
365.3977428273237
 31
0.0
  0
LINE
  5
5DB9
330
A
100
AcDbEntity
  8
寸法
100
AcDbLine
 10
473.5612859731975
 20
365.3977428273237
 30
0.0
 11
465.5361139234835
 21
362.6080343366923
 31
0.0
  0
LINE
  5
5DBA
330
A
100
AcDbEntity
  8
寸法
100
AcDbLine
 10
465.5361139234835
 20
362.6080343366923
 30
0.0
 11
466.8475186978972
 21
358.8355079322921
 31
0.0
  0
LINE
  5
5DBB
330
A
100
AcDbEntity
  8
寸法
100
AcDbLine
 10
465.3478467994461
 20
352.358144364592
 30
0.0
 11
465.6985531251425
 21
351.3492652605249
 31
0.0
  0
LINE
  5
5DBC
330
A
100
AcDbEntity
  8
寸法
100
AcDbLine
 10
465.6985531251425
 20
351.3492652605249
 30
0.0
 11
470.9149149574566
 21
353.1625757794352
 31
0.0
  0
LINE
  5
5DBD
330
A
100
AcDbEntity
  8
寸法
100
AcDbLine
 10
470.9149149574566
 20
353.1625757794352
 30
0.0
 11
470.5642086317603
 21
354.1714548835023
 31
0.0
  0
LINE
  5
5DBE
330
A
100
AcDbEntity
  8
寸法
100
AcDbLine
 10
467.4153345291905
 20
351.9460524234369
 30
0.0
 11
469.2062204504313
 21
346.7941995729922
 31
0.0
  0
LINE
  5
5DBF
330
A
100
AcDbEntity
  8
寸法
100
AcDbLine
 10
469.2062204504313
 20
346.7941995729922
 30
0.0
 11
478.8615055727437
 21
350.1505676007831
 31
0.0
  0
LINE
  5
5DC0
330
A
100
AcDbEntity
  8
寸法
100
AcDbLine
 10
478.8615055727437
 20
350.1505676007831
 30
0.0
 11
478.3820244259164
 21
351.5298940468277
 31
0.0
  0
LINE
  5
5DC1
330
A
100
AcDbEntity
  8
寸法
100
AcDbLine
 10
478.3820244259164
 20
351.5298940468277
 30
0.0
 11
470.3568523762023
 21
348.7401855561964
 31
0.0
  0
LINE
  5
5DC2
330
A
100
AcDbEntity
  8
寸法
100
AcDbLine
 10
470.3568523762023
 20
348.7401855561964
 30
0.0
 11
469.0454476017886
 21
352.5127119605964
 31
0.0
  0
HATCH
  5
5DC3
330
A
100
AcDbEntity
  8
寸法
100
AcDbHatch
 10
0.0
 20
0.0
 30
0.0
210
0.0
220
0.0
230
1.0
  2
SOLID
 70
     1
 71
     1
 91
        1
 92
        1
 93
        7
 72
     1
 10
454.6213351863062
 20
354.2721859950291
 11
456.4738759808661
 21
348.942970180766
 72
     1
 10
456.4738759808661
 20
348.942970180766
 11
458.1666857101026
 21
349.5314243155085
 72
     1
 10
458.1666857101026
 20
349.5314243155085
 11
457.2268356568403
 21
345.058613359645
 72
     1
 10
457.2268356568397
 20
345.0586133596448
 11
453.7152230887767
 21
347.9840078871114
 72
     1
 10
453.7152230887767
 20
347.9840078871114
 11
455.4080328180133
 21
348.572462021854
 72
     1
 10
455.4080328180133
 20
348.572462021854
 11
453.5554920234536
 21
353.9016778361172
 72
     1
 10
453.5554920234536
 20
353.9016778361172
 11
454.6213351863062
 21
354.2721859950291
 97
        7
330
5DC4
330
5DC5
330
5DC6
330
5DC7
330
5DC8
330
5DC9
330
5DCA
 75
     0
 76
     1
 98
        1
 10
984.279257046219
 20
206.6599255350981
1001
ACAD
1010
0.0
1020
0.0
1030
0.0
  0
LINE
  5
5DC4
102
{ACAD_REACTORS
330
5DC3
102
}
330
A
100
AcDbEntity
  8
寸法
100
AcDbLine
 10
454.6213351863062
 20
354.2721859950291
 30
0.0
 11
456.4738759808661
 21
348.942970180766
 31
0.0
  0
LINE
  5
5DC5
102
{ACAD_REACTORS
330
5DC3
102
}
330
A
100
AcDbEntity
  8
寸法
100
AcDbLine
 10
456.4738759808661
 20
348.942970180766
 30
0.0
 11
458.1666857101026
 21
349.5314243155085
 31
0.0
  0
LINE
  5
5DC6
102
{ACAD_REACTORS
330
5DC3
102
}
330
A
100
AcDbEntity
  8
寸法
100
AcDbLine
 10
454.6213351863062
 20
354.2721859950291
 30
0.0
 11
453.5554920234536
 21
353.9016778361172
 31
0.0
  0
LINE
  5
5DC7
102
{ACAD_REACTORS
330
5DC3
102
}
330
A
100
AcDbEntity
  8
寸法
100
AcDbLine
 10
458.1666857101026
 20
349.5314243155085
 30
0.0
 11
457.2268356568403
 21
345.058613359645
 31
0.0
  0
LINE
  5
5DC8
102
{ACAD_REACTORS
330
5DC3
102
}
330
A
100
AcDbEntity
  8
寸法
100
AcDbLine
 10
453.5554920234536
 20
353.9016778361172
 30
0.0
 11
455.4080328180133
 21
348.572462021854
 31
0.0
  0
LINE
  5
5DC9
102
{ACAD_REACTORS
330
5DC3
102
}
330
A
100
AcDbEntity
  8
寸法
100
AcDbLine
 10
455.4080328180133
 20
348.572462021854
 30
0.0
 11
453.7152230887767
 21
347.9840078871114
 31
0.0
  0
LINE
  5
5DCA
102
{ACAD_REACTORS
330
5DC3
102
}
330
A
100
AcDbEntity
  8
寸法
100
AcDbLine
 10
453.7152230887767
 20
347.9840078871114
 30
0.0
 11
457.2268356568397
 21
345.0586133596448
 31
0.0
  0
LINE
  5
5DCB
330
A
100
AcDbEntity
  8
寸法
100
AcDbLine
 10
443.3406344843631
 20
401.6809716363636
 30
0.0
 11
519.7326609687266
 21
401.6809716363641
 31
0.0
  0
LINE
  5
5DCC
330
A
100
AcDbEntity
  8
寸法
100
AcDbLine
 10
519.7326609687266
 20
401.6809716363641
 30
0.0
 11
519.7326609687273
 21
325.5162240000006
 31
0.0
  0
LINE
  5
5DCD
330
A
100
AcDbEntity
  8
寸法
100
AcDbLine
 10
443.3406344843636
 20
325.516224
 30
0.0
 11
519.7326609687273
 21
325.5162240000006
 31
0.0
  0
LINE
  5
5DCE
330
A
100
AcDbEntity
  8
寸法
100
AcDbLine
 10
443.3406344843635
 20
378.4696027415271
 30
0.0
 11
443.3406344843636
 21
337.6922932782545
 31
0.0
  0
LINE
  5
5DCF
330
A
100
AcDbEntity
  8
寸法
100
AcDbLine
 10
443.3406344843635
 20
387.0778397509817
 30
0.0
 11
443.3406344843634
 21
401.6809716363635
 31
0.0
  0
LINE
  5
5DD0
330
A
100
AcDbEntity
  8
寸法
100
AcDbLine
 10
443.3406344843634
 20
328.9419563473454
 30
0.0
 11
443.3406344843634
 21
325.5162239999999
 31
0.0
  0
DIMENSION
  5
5DD7
330
A
100
AcDbEntity
  8
寸法
100
AcDbDimension
  2
*D18
 10
436.2759925681955
 20
297.5941876363636
 30
0.0
 11
464.5259925681955
 21
297.5941876363636
 31
0.0
 70
   160
 71
     5
 42
57.0
 73
     0
 74
     0
 75
     0
  3
tfrom線あり
100
AcDbAlignedDimension
 13
493.2759925681955
 23
282.8068829090909
 33
0.0
 14
436.2759925681955
 24
287.5403384416102
 34
0.0
100
AcDbRotatedDimension
1001
ACAD
1000
DSTYLE
1002
{
1070
   271
1070
     1
1070
   144
1040
1.0
1002
}
  0
LINE
  5
5DF8
330
A
100
AcDbEntity
  8
モデル
100
AcDbLine
 10
493.2759925681955
 20
84.3023574574544
 30
0.0
 11
493.2759925681955
 21
310.5924310574545
 31
0.0
  0
TEXT
  5
5E46
330
A
100
AcDbEntity
  8
テンプレート
100
AcDbText
 10
193.0049649221818
 20
74.8443536174545
 30
0.0
 40
5.0
  1
※ ご注文の際は正確なガラス厚(10、8ミリ)の指示をしてください。
  7
ＭＳ ゴシック
100
AcDbText
  0
TEXT
  5
5E54
330
A
100
AcDbEntity
  8
テンプレート
100
AcDbText
 10
193.0049649221819
 20
66.56764089018175
 30
0.0
 40
5.0
  1
※ 左右勝手があります。本図は左勝手を示す。
  7
ＭＳ ゴシック
100
AcDbText
  0
VIEWPORT
  5
349
330
B
100
AcDbEntity
 67
     1
  8
0
100
AcDbViewport
 10
202.5
 20
128.5
 30
0.0
 40
486.0
 41
308.4
 68
     1
 69
     1
 12
202.5
 22
128.5
 13
0.0
 23
0.0
 14
0.5
 24
0.5
 15
0.0
 25
0.0
 16
0.0
 26
0.0
 36
1.0
 17
0.0
 27
0.0
 37
0.0
 42
50.0
 43
0.0
 44
0.0
 45
308.4
 50
0.0
 51
0.0
 72
   100
 90
   557152
  1

281
     0
 71
     1
 74
     0
110
0.0
120
0.0
130
0.0
111
1.0
121
0.0
131
0.0
112
0.0
122
1.0
132
0.0
 79
     0
146
0.0
170
     0
 61
     5
348
26C
292
     1
282
     1
141
0.0
142
0.0
 63
   256
  0
VIEWPORT
  5
34A
330
B
100
AcDbEntity
 67
     1
  8
0
100
AcDbViewport
 10
202.5
 20
128.5
 30
0.0
 40
324.0
 41
205.6
 68
     2
 69
     2
 12
986.6781359294573
 22
1427.077061889956
 13
0.0
 23
0.0
 14
0.5
 24
0.5
 15
0.0
 25
0.0
 16
0.0
 26
0.0
 36
1.0
 17
0.0
 27
0.0
 37
0.0
 42
50.0
 43
0.0
 44
0.0
 45
2890.021615685494
 50
0.0
 51
0.0
 72
   100
 90
   557152
  1

281
     0
 71
     1
 74
     0
110
0.0
120
0.0
130
0.0
111
1.0
121
0.0
131
0.0
112
0.0
122
1.0
132
0.0
 79
     0
146
0.0
170
     0
 61
     5
348
26C
292
     1
282
     1
141
0.0
142
0.0
 63
   256
  0
ENDSEC
  0
SECTION
  2
OBJECTS
  0
DICTIONARY
  5
19
330
0
100
AcDbDictionary
281
     1
  3
ACAD_COLOR
350
674
  3
ACAD_DETAILVIEWSTYLE
350
12F4
  3
ACAD_FIELDLIST
350
545A
  3
ACAD_GROUP
350
1A
  3
ACAD_IMAGE_VARS
350
27B
  3
ACAD_LAYOUT
350
1E
  3
ACAD_MATERIAL
350
263
  3
ACAD_MLEADERSTYLE
350
336
  3
ACAD_MLINESTYLE
350
1B
  3
ACAD_PLOTSETTINGS
350
22
  3
ACAD_PLOTSTYLENAME
350
1F
  3
ACAD_SCALELIST
350
241
  3
ACAD_SECTIONVIEWSTYLE
350
12F5
  3
ACAD_TABLESTYLE
350
278
  3
ACAD_VISUALSTYLE
350
267
  3
ACDB_RECOMPOSE_DATA
350
5E7B
  3
AcDbVariableDictionary
350
330
  3
AcStStandard
350
12B9
  3
APPDATA
350
27A
  0
SUN
  5
10E8
330
15
100
AcDbSun
 90
        1
290
     0
 63
     7
421
 16777215
 40
1.0
291
     1
 91
  2455826
 92
 54000000
292
     0
 70
     2
 71
   256
280
     1
  0
DICTIONARY
  5
2E1
330
2
100
AcDbDictionary
280
     1
281
     1
  3
ACAD_LAYERSTATES
360
2E2
  3
ACLYDICTIONARY
360
5CC1
  0
DICTIONARY
  5
59A8
330
A
100
AcDbDictionary
280
     1
281
     1
  3
ACAD_SORTENTS
360
59A9
  0
DICTIONARY
  5
5458
330
5456
100
AcDbDictionary
280
     1
281
     1
  3
ACAD_FIELD
360
5E50
  0
DICTIONARY
  5
5880
330
587F
100
AcDbDictionary
280
     1
281
     1
  3
ACAD_DIMASSOC
360
5881
  0
DICTIONARY
  5
589E
330
589D
100
AcDbDictionary
280
     1
281
     1
  3
ACAD_DIMASSOC
360
589F
  0
DICTIONARY
  5
58CC
330
58CB
100
AcDbDictionary
280
     1
281
     1
  3
ACAD_DIMASSOC
360
58CD
  0
DICTIONARY
  5
5956
330
5955
100
AcDbDictionary
280
     1
281
     1
  3
ACAD_DIMASSOC
360
5957
  0
DICTIONARY
  5
5965
330
5964
100
AcDbDictionary
280
     1
281
     1
  3
ACAD_DIMASSOC
360
5966
  0
DICTIONARY
  5
5C70
330
5C6F
100
AcDbDictionary
280
     1
281
     1
  0
DICTIONARY
  5
5C73
330
5C72
100
AcDbDictionary
280
     1
281
     1
  0
DICTIONARY
  5
5CAE
330
5CAD
100
AcDbDictionary
280
     1
281
     1
  3
*A1
360
5CB0
  0
DICTIONARY
  5
5CB3
330
5CB2
100
AcDbDictionary
280
     1
281
     1
  3
*A1
360
5CB4
  0
DICTIONARY
  5
674
102
{ACAD_REACTORS
330
19
102
}
330
19
100
AcDbDictionary
281
     1
  0
DICTIONARY
  5
12F4
102
{ACAD_REACTORS
330
19
102
}
330
19
100
AcDbDictionary
281
     1
  0
FIELDLIST
  5
545A
102
{ACAD_REACTORS
330
19
102
}
330
19
100
AcDbIdSet
 90
        2
330
545B
330
5457
100
AcDbFieldList
  0
DICTIONARY
  5
1A
102
{ACAD_REACTORS
330
19
102
}
330
19
100
AcDbDictionary
281
     1
  3
*A1
350
5BF2
  0
RASTERVARIABLES
  5
27B
102
{ACAD_REACTORS
330
19
102
}
330
19
100
AcDbRasterVariables
 90
        0
 70
     1
 71
     1
 72
     1
  0
DICTIONARY
  5
1E
102
{ACAD_REACTORS
330
19
102
}
330
19
100
AcDbDictionary
281
     1
  3
Layout1
350
21
  3
Layout2
350
12C4
  3
Model
350
20
  0
DICTIONARY
  5
263
102
{ACAD_REACTORS
330
19
102
}
330
19
100
AcDbDictionary
281
     1
  3
ByBlock
350
385B
  3
ByLayer
350
264
  3
Global
350
266
  0
DICTIONARY
  5
336
102
{ACAD_REACTORS
330
19
102
}
330
19
100
AcDbDictionary
281
     1
  3
Standard
350
41C3
  0
DICTIONARY
  5
1B
102
{ACAD_REACTORS
330
19
102
}
330
19
100
AcDbDictionary
281
     1
  3
Standard
350
1C
  0
DICTIONARY
  5
22
102
{ACAD_REACTORS
330
19
102
}
330
19
100
AcDbDictionary
281
     1
  0
ACDBDICTIONARYWDFLT
  5
1F
102
{ACAD_REACTORS
330
19
102
}
330
19
100
AcDbDictionary
281
     1
  3
Normal
350
1D
100
AcDbDictionaryWithDefault
340
1D
  0
DICTIONARY
  5
241
102
{ACAD_REACTORS
330
19
102
}
330
19
100
AcDbDictionary
281
     1
  3
A0
350
242
  3
A1
350
243
  3
A2
350
244
  3
A3
350
245
  3
A4
350
246
  3
A5
350
247
  3
A6
350
248
  3
A7
350
249
  3
A8
350
24A
  3
A9
350
24B
  3
B0
350
24C
  3
B1
350
24D
  3
B2
350
24E
  3
B3
350
24F
  3
B4
350
250
  3
B5
350
251
  3
B6
350
252
  3
B7
350
253
  3
B8
350
254
  3
B9
350
255
  3
C0
350
256
  3
C1
350
257
  3
C2
350
258
  3
C3
350
259
  3
C4
350
25A
  3
C5
350
25B
  3
C6
350
25C
  3
C7
350
25D
  3
C8
350
25E
  3
C9
350
25F
  3
D0
350
260
  3
D1
350
261
  3
D2
350
262
  0
DICTIONARY
  5
12F5
102
{ACAD_REACTORS
330
19
102
}
330
19
100
AcDbDictionary
281
     1
  0
DICTIONARY
  5
278
102
{ACAD_REACTORS
330
19
102
}
330
19
100
AcDbDictionary
281
     1
  3
Standard
350
279
  0
DICTIONARY
  5
267
102
{ACAD_REACTORS
330
19
102
}
330
19
100
AcDbDictionary
281
     1
  3
2dWireframe
350
26C
  3
3D Hidden
350
26E
  3
3dWireframe
350
26D
  3
Basic
350
26F
  3
Brighten
350
273
  3
ColorChange
350
277
  3
Conceptual
350
271
  3
Dim
350
272
  3
EdgeColorOff
350
10E2
  3
Facepattern
350
276
  3
Flat
350
268
  3
FlatWithEdges
350
269
  3
Gouraud
350
26A
  3
GouraudWithEdges
350
26B
  3
Hidden
350
10DF
  3
JitterOff
350
10E0
  3
Linepattern
350
275
  3
OverhangOff
350
10E1
  3
Realistic
350
270
  3
Shaded
350
10E7
  3
Shaded with edges
350
10E6
  3
Shades of Gray
350
10E3
  3
Sketchy
350
10E4
  3
Thicken
350
274
  3
Wireframe
350
10DE
  3
X-Ray
350
10E5
  0
XRECORD
  5
5E7B
102
{ACAD_REACTORS
330
19
102
}
330
19
100
AcDbXrecord
280
     1
 90
        1
330
279
  0
DICTIONARY
  5
330
102
{ACAD_REACTORS
330
19
102
}
330
19
100
AcDbDictionary
281
     1
  3
CANNOSCALE
350
331
  3
CMLEADERSTYLE
350
41C8
  3
CTABLESTYLE
350
335
  3
XCLIPFRAME
350
109E
  0
DICTIONARY
  5
12B9
102
{ACAD_REACTORS
330
19
102
}
330
19
100
AcDbDictionary
281
     1
  0
DICTIONARY
  5
27A
102
{ACAD_REACTORS
330
19
102
}
330
19
100
AcDbDictionary
281
     1
  0
DICTIONARY
  5
2E2
102
{ACAD_REACTORS
330
2E1
102
}
330
2E1
100
AcDbDictionary
281
     1
  0
DICTIONARY
  5
5CC1
102
{ACAD_REACTORS
330
2E1
102
}
330
2E1
100
AcDbDictionary
281
     1
1001
ACAD
1000
<All
  0
SORTENTSTABLE
  5
59A9
102
{ACAD_REACTORS
330
59A8
102
}
330
59A8
100
AcDbSortentsTable
330
A
331
0
  5
544B
331
36CD
  5
36E0
331
36CE
  5
36E1
331
36CF
  5
36E2
331
36D0
  5
36E3
331
36D3
  5
36E5
331
36D4
  5
36E6
331
36D5
  5
36E7
331
36D6
  5
36E8
331
36D7
  5
36E9
331
36D8
  5
36EA
331
36D9
  5
36EB
331
36DA
  5
36EC
331
36DB
  5
36ED
331
36DC
  5
37DE
331
36DD
  5
41FC
331
36DE
  5
41FD
331
36DF
  5
426E
331
36E0
  5
426F
331
36E1
  5
47CB
331
36E2
  5
480C
331
36E3
  5
543D
331
36E5
  5
543E
331
36E6
  5
543F
331
36E7
  5
5440
331
36E8
  5
5441
331
36E9
  5
5442
331
36EA
  5
5443
331
36EB
  5
5444
331
36EC
  5
5445
331
36ED
  5
5446
331
37DE
  5
5447
331
41FC
  5
5448
331
41FD
  5
5449
331
426E
  5
544A
331
47CB
  5
544E
331
480C
  5
5450
331
543D
  5
5451
331
543E
  5
5452
331
5440
  5
5454
331
544A
  5
5468
331
5452
  5
546D
331
5455
  5
5470
331
5456
  5
5471
331
5756
  5
5767
331
5757
  5
5768
331
5758
  5
5769
331
5759
  5
576A
331
575A
  5
576B
331
575B
  5
576C
331
575C
  5
576D
331
575D
  5
576E
331
575E
  5
576F
331
575F
  5
5770
331
5760
  5
5771
331
5761
  5
5772
331
5762
  5
5773
331
5763
  5
5774
331
5764
  5
5775
331
5765
  5
5776
331
5766
  5
5777
331
5767
  5
5778
331
5768
  5
5779
331
5769
  5
577A
331
576A
  5
577B
331
576B
  5
577C
331
576C
  5
577D
331
576D
  5
577E
331
576E
  5
577F
331
576F
  5
5780
331
5770
  5
5781
331
5771
  5
5782
331
5772
  5
5783
331
5773
  5
5784
331
5774
  5
5785
331
5775
  5
5786
331
5783
  5
5794
331
5784
  5
5795
331
5786
  5
5797
331
5787
  5
5798
331
5788
  5
5799
331
5789
  5
579A
331
578A
  5
579B
331
578B
  5
579C
331
578C
  5
579D
331
578D
  5
579E
331
578E
  5
579F
331
578F
  5
57A0
331
5791
  5
57A2
331
5792
  5
57A3
331
5793
  5
57A4
331
5794
  5
57A5
331
5795
  5
57A6
331
5796
  5
57A7
331
5797
  5
57A8
331
5798
  5
57A9
331
5799
  5
57AA
331
579A
  5
57AB
331
579B
  5
57AC
331
579D
  5
57AE
331
579F
  5
57B0
331
57A0
  5
57B1
331
57A1
  5
57B2
331
57A2
  5
57B3
331
57A3
  5
57B4
331
57A5
  5
57B6
331
57A6
  5
57B7
331
57A7
  5
57B8
331
57A8
  5
57B9
331
57AA
  5
57BB
331
57AB
  5
57BC
331
57AC
  5
57BD
331
57AD
  5
57BE
331
57AE
  5
57BF
331
57B0
  5
57C1
331
57B1
  5
57C2
331
57B2
  5
57C3
331
57B3
  5
57C4
331
57B4
  5
57C5
331
57B5
  5
57C6
331
57B6
  5
57C7
331
57B7
  5
57C8
331
57B8
  5
57C9
331
57B9
  5
57CA
331
57BA
  5
57CB
331
57BB
  5
57CC
331
57BC
  5
57CD
331
57BD
  5
57CE
331
57BE
  5
57CF
331
57C2
  5
57D3
331
57C3
  5
57D4
331
57C4
  5
57D5
331
57C5
  5
57D6
331
57C6
  5
57D7
331
57C7
  5
57D8
331
57C8
  5
57D9
331
57C9
  5
57DA
331
57CA
  5
57DB
331
57CB
  5
57DC
331
57CC
  5
57DD
331
57CD
  5
57DE
331
57CE
  5
57DF
331
57CF
  5
57E0
331
57D1
  5
57E2
331
57D2
  5
57E3
331
57D3
  5
57E4
331
57D5
  5
57E6
331
57D6
  5
57E7
331
57D7
  5
57E8
331
57D8
  5
57E9
331
57DA
  5
57EB
331
57DB
  5
57EC
331
57DD
  5
57EE
331
5812
  5
5825
331
5813
  5
5827
331
5814
  5
5828
331
5815
  5
5829
331
5816
  5
582A
331
5817
  5
582B
331
5818
  5
36CD
331
5819
  5
36CE
331
581A
  5
36CF
331
581B
  5
36D0
331
581C
  5
36D3
331
581D
  5
36D4
331
5821
  5
582F
331
5822
  5
5830
331
5824
  5
36D5
331
5826
  5
36D6
331
5828
  5
36D7
331
5829
  5
5834
331
582A
  5
5835
331
582B
  5
5836
331
582C
  5
5837
331
582E
  5
36D8
331
582F
  5
36D9
331
5830
  5
36DA
331
5831
  5
36DB
331
5833
  5
36DC
331
5834
  5
36DD
331
5835
  5
36DE
331
5836
  5
36DF
331
5837
  5
583A
331
5838
  5
583B
331
5839
  5
583C
331
583B
  5
583E
331
583C
  5
5861
331
583E
  5
587F
331
5861
  5
588E
331
587F
  5
58B8
331
588E
  5
58CB
331
589D
  5
58DB
331
58B8
  5
58F3
331
58CB
  5
5908
331
58DB
  5
5917
331
58F3
  5
5918
331
5908
  5
594A
331
5955
  5
594C
331
5964
  5
594D
331
59AB
  5
5824
331
59AC
  5
5B8F
331
59AD
  5
5B8E
331
59AE
  5
5B8C
331
59AF
  5
5B8D
  0
DICTIONARY
  5
5E50
102
{ACAD_REACTORS
330
5458
102
}
330
5458
100
AcDbDictionary
280
     1
281
     1
  3
TEXT
360
5457
  0
DIMASSOC
  5
5881
102
{ACAD_REACTORS
330
5880
102
}
330
5880
100
AcDbDimAssoc
330
587F
 90
        2
 70
     0
 71
     1
  1
AcDbOsnapPointRef
 72
     5
331
57D6
 73
     0
 91
        0
 40
0.0
 10
0.0
 20
0.0
 30
0.0
 75
     0
  0
DIMASSOC
  5
589F
102
{ACAD_REACTORS
330
589E
102
}
330
589E
100
AcDbDimAssoc
330
589D
 90
        1
 70
     0
 71
     1
  1
AcDbOsnapPointRef
 72
     5
331
5757
 73
     0
 91
        0
 40
1.570796326794897
 10
0.0
 20
0.0
 30
0.0
 75
     0
  0
DIMASSOC
  5
58CD
102
{ACAD_REACTORS
330
58CC
102
}
330
58CC
100
AcDbDimAssoc
330
58CB
 90
        3
 70
     0
 71
     1
  1
AcDbOsnapPointRef
 72
    13
331
5794
 73
     0
 91
        0
 40
0.0
 10
0.0
 20
0.0
 30
0.0
 75
     0
  1
AcDbOsnapPointRef
 72
     1
331
5798
 73
     0
 91
        0
 40
0.0
 10
0.0
 20
0.0
 30
0.0
 75
     0
  0
DIMASSOC
  5
5957
102
{ACAD_REACTORS
330
5956
102
}
330
5956
100
AcDbDimAssoc
330
5955
 90
        3
 70
     0
 71
     1
  1
AcDbOsnapPointRef
 72
    10
331
5788
 73
     0
 91
        0
 40
0.9149136305529245
 10
0.0
 20
0.0
 30
0.0
 75
     0
  1
AcDbOsnapPointRef
 72
     8
331
578A
 73
     0
 91
        0
 40
0.0850863694470755
 10
0.0
 20
0.0
 30
0.0
 75
     1
  1
AcDbOsnapPointRef
 72
    10
331
5788
 73
     0
 91
        0
 40
0.9149136305529245
 10
0.0
 20
0.0
 30
0.0
 75
     0
  0
DIMASSOC
  5
5966
102
{ACAD_REACTORS
330
5965
102
}
330
5965
100
AcDbDimAssoc
330
5964
 90
        3
 70
     0
 71
     1
  1
AcDbOsnapPointRef
 72
    13
331
5797
 73
     0
 91
        0
 40
0.0
 10
0.0
 20
0.0
 30
0.0
 75
     0
  1
AcDbOsnapPointRef
 72
     1
331
5795
 73
     0
 91
        0
 40
0.0
 10
0.0
 20
0.0
 30
0.0
 75
     0
  0
CIRCLE
  5
5CB0
102
{ACAD_REACTORS
330
5CAE
102
}
330
5CAE
100
AcDbEntity
  8
CutoutOverlay
100
AcDbCircle
 10
1032.933507579399
 20
170.5184790934728
 30
0.0
 40
15.0
  0
CIRCLE
  5
5CB4
102
{ACAD_REACTORS
330
5CB3
102
}
330
5CB3
100
AcDbEntity
  8
CutoutOverlay
100
AcDbCircle
 10
1032.933507579399
 20
170.5184790934728
 30
0.0
 40
15.0
  0
GROUP
  5
5BF2
102
{ACAD_REACTORS
330
1A
102
}
330
1A
100
AcDbGroup
300

 70
     1
 71
     1
340
59AB
340
5812
340
5813
  0
LAYOUT
  5
21
102
{ACAD_REACTORS
330
1E
102
}
330
1E
100
AcDbPlotSettings
  1

  2
none_device
  4
ISO_A3_(420.00_x_297.00_MM)
  6

 40
7.5
 41
20.0
 42
7.5
 43
20.0
 44
420.0
 45
297.0
 46
0.0
 47
0.0
 48
0.0
 49
0.0
140
0.0
141
0.0
142
1.0
143
1.0
 70
     0
 72
     1
 73
     0
 74
     0
  7

 75
     0
 76
     0
 77
     2
 78
   300
147
1.0
148
0.0
149
0.0
100
AcDbLayout
  1
Layout1
 70
     0
 71
     0
 10
-7.5
 20
-20.0
 11
412.5
 21
277.0
 12
0.0
 22
0.0
 32
0.0
 14
0.0
 24
0.0
 34
0.0
 15
0.0
 25
0.0
 35
0.0
146
0.0
 13
0.0
 23
0.0
 33
0.0
 16
0.0
 26
0.0
 36
0.0
 17
0.0
 27
0.0
 37
0.0
 76
     0
330
B
331
349
  0
LAYOUT
  5
12C4
102
{ACAD_REACTORS
330
1E
102
}
330
1E
100
AcDbPlotSettings
  1

  2
none_device
  4

  6

 40
0.0
 41
0.0
 42
0.0
 43
0.0
 44
0.0
 45
0.0
 46
0.0
 47
0.0
 48
0.0
 49
0.0
140
0.0
141
0.0
142
1.0
143
1.0
 70
   688
 72
     1
 73
     0
 74
     5
  7

 75
    16
 76
     0
 77
     2
 78
   300
147
1.0
148
0.0
149
0.0
100
AcDbLayout
  1
Layout2
 70
     1
 71
     2
 10
0.0
 20
0.0
 11
0.0
 21
0.0
 12
0.0
 22
0.0
 32
0.0
 14
0.0
 24
0.0
 34
0.0
 15
0.0
 25
0.0
 35
0.0
146
0.0
 13
0.0
 23
0.0
 33
0.0
 16
1.0
 26
0.0
 36
0.0
 17
0.0
 27
1.0
 37
0.0
 76
     0
330
12C3
  0
LAYOUT
  5
20
102
{ACAD_REACTORS
330
1E
102
}
330
1E
100
AcDbPlotSettings
  1

  2
none_device
  4
ISO_A3_(420.00_x_297.00_MM)
  6

 40
7.5
 41
20.0
 42
7.5
 43
20.0
 44
420.0
 45
297.0
 46
0.0
 47
0.0
 48
0.0
 49
0.0
140
0.0
141
0.0
142
1.0
143
1.0
 70
  1024
 72
     1
 73
     0
 74
     0
  7

 75
     0
 76
     0
 77
     2
 78
   300
147
1.0
148
0.0
149
0.0
100
AcDbLayout
  1
Model
 70
     0
 71
     1
 10
0.0
 20
0.0
 11
593.9999999999999
 21
420.0
 12
0.0
 22
0.0
 32
0.0
 14
0.0
 24
0.0
 34
0.0
 15
593.9999999999999
 25
420.0
 35
0.0
146
0.0
 13
0.0
 23
0.0
 33
0.0
 16
0.0
 26
0.0
 36
0.0
 17
0.0
 27
0.0
 37
0.0
 76
     0
330
A
331
15
  0
MATERIAL
  5
385B
102
{ACAD_REACTORS
330
263
102
}
330
263
100
AcDbMaterial
  1
ByBlock
 72
     1
 94
      127
  0
MATERIAL
  5
264
102
{ACAD_REACTORS
330
263
102
}
330
263
100
AcDbMaterial
  1
ByLayer
 72
     1
 94
      127
  0
MATERIAL
  5
266
102
{ACAD_REACTORS
330
263
102
}
330
263
100
AcDbMaterial
  1
Global
 72
     1
 94
      127
  0
MLEADERSTYLE
  5
41C3
102
{ACAD_REACTORS
330
336
102
}
330
336
100
AcDbMLeaderStyle
170
     2
171
     1
172
     0
 90
        2
 40
0.0
 41
0.0
173
     1
 91
-1056964608
340
11
 92
       -2
290
     1
 42
2.0
291
     1
 43
8.0
  3
Standard
341
0
 44
4.0
300

342
17
174
     1
178
     6
175
     1
176
     0
 93
-1056964608
 45
4.0
292
     0
297
     0
 46
4.0
343
0
 94
-1056964608
 47
1.0
 49
1.0
140
1.0
293
     1
141
0.0
294
     1
177
     0
142
1.0
295
     0
296
     0
143
3.75
1001
ACAD_MLEADERVER
1070
     2
  0
MLINESTYLE
  5
1C
102
{ACAD_REACTORS
330
1B
102
}
330
1B
100
AcDbMlineStyle
  2
Standard
 70
     0
  3

 62
     0
 51
90.0
 52
90.0
 71
     2
 49
0.5
 62
   256
  6
BYLAYER
 49
-0.5
 62
   256
  6
BYLAYER
  0
ACDBPLACEHOLDER
  5
1D
102
{ACAD_REACTORS
330
1F
102
}
330
1F
  0
SCALE
  5
242
102
{ACAD_REACTORS
330
241
102
}
330
241
100
AcDbScale
 70
     0
300
1:1
140
1.0
141
1.0
290
     1
  0
SCALE
  5
243
102
{ACAD_REACTORS
330
241
102
}
330
241
100
AcDbScale
 70
     0
300
1:2
140
1.0
141
2.0
290
     0
  0
SCALE
  5
244
102
{ACAD_REACTORS
330
241
102
}
330
241
100
AcDbScale
 70
     0
300
1:4
140
1.0
141
4.0
290
     0
  0
SCALE
  5
245
102
{ACAD_REACTORS
330
241
102
}
330
241
100
AcDbScale
 70
     0
300
1:5
140
1.0
141
5.0
290
     0
  0
SCALE
  5
246
102
{ACAD_REACTORS
330
241
102
}
330
241
100
AcDbScale
 70
     0
300
1:8
140
1.0
141
8.0
290
     0
  0
SCALE
  5
247
102
{ACAD_REACTORS
330
241
102
}
330
241
100
AcDbScale
 70
     0
300
1:10
140
1.0
141
10.0
290
     0
  0
SCALE
  5
248
102
{ACAD_REACTORS
330
241
102
}
330
241
100
AcDbScale
 70
     0
300
1:16
140
1.0
141
16.0
290
     0
  0
SCALE
  5
249
102
{ACAD_REACTORS
330
241
102
}
330
241
100
AcDbScale
 70
     0
300
1:20
140
1.0
141
20.0
290
     0
  0
SCALE
  5
24A
102
{ACAD_REACTORS
330
241
102
}
330
241
100
AcDbScale
 70
     0
300
1:30
140
1.0
141
30.0
290
     0
  0
SCALE
  5
24B
102
{ACAD_REACTORS
330
241
102
}
330
241
100
AcDbScale
 70
     0
300
1:40
140
1.0
141
40.0
290
     0
  0
SCALE
  5
24C
102
{ACAD_REACTORS
330
241
102
}
330
241
100
AcDbScale
 70
     0
300
1:50
140
1.0
141
50.0
290
     0
  0
SCALE
  5
24D
102
{ACAD_REACTORS
330
241
102
}
330
241
100
AcDbScale
 70
     0
300
1:100
140
1.0
141
100.0
290
     0
  0
SCALE
  5
24E
102
{ACAD_REACTORS
330
241
102
}
330
241
100
AcDbScale
 70
     0
300
2:1
140
2.0
141
1.0
290
     0
  0
SCALE
  5
24F
102
{ACAD_REACTORS
330
241
102
}
330
241
100
AcDbScale
 70
     0
300
4:1
140
4.0
141
1.0
290
     0
  0
SCALE
  5
250
102
{ACAD_REACTORS
330
241
102
}
330
241
100
AcDbScale
 70
     0
300
8:1
140
8.0
141
1.0
290
     0
  0
SCALE
  5
251
102
{ACAD_REACTORS
330
241
102
}
330
241
100
AcDbScale
 70
     0
300
10:1
140
10.0
141
1.0
290
     0
  0
SCALE
  5
252
102
{ACAD_REACTORS
330
241
102
}
330
241
100
AcDbScale
 70
     0
300
100:1
140
100.0
141
1.0
290
     0
  0
SCALE
  5
253
102
{ACAD_REACTORS
330
241
102
}
330
241
100
AcDbScale
 70
     0
300
1/128" = 1'-0"
140
0.0078125
141
12.0
290
     0
  0
SCALE
  5
254
102
{ACAD_REACTORS
330
241
102
}
330
241
100
AcDbScale
 70
     0
300
1/64" = 1'-0"
140
0.015625
141
12.0
290
     0
  0
SCALE
  5
255
102
{ACAD_REACTORS
330
241
102
}
330
241
100
AcDbScale
 70
     0
300
1/32" = 1'-0"
140
0.03125
141
12.0
290
     0
  0
SCALE
  5
256
102
{ACAD_REACTORS
330
241
102
}
330
241
100
AcDbScale
 70
     0
300
1/16" = 1'-0"
140
0.0625
141
12.0
290
     0
  0
SCALE
  5
257
102
{ACAD_REACTORS
330
241
102
}
330
241
100
AcDbScale
 70
     0
300
3/32" = 1'-0"
140
0.09375
141
12.0
290
     0
  0
SCALE
  5
258
102
{ACAD_REACTORS
330
241
102
}
330
241
100
AcDbScale
 70
     0
300
1/8" = 1'-0"
140
0.125
141
12.0
290
     0
  0
SCALE
  5
259
102
{ACAD_REACTORS
330
241
102
}
330
241
100
AcDbScale
 70
     0
300
3/16" = 1'-0"
140
0.1875
141
12.0
290
     0
  0
SCALE
  5
25A
102
{ACAD_REACTORS
330
241
102
}
330
241
100
AcDbScale
 70
     0
300
1/4" = 1'-0"
140
0.25
141
12.0
290
     0
  0
SCALE
  5
25B
102
{ACAD_REACTORS
330
241
102
}
330
241
100
AcDbScale
 70
     0
300
3/8" = 1'-0"
140
0.375
141
12.0
290
     0
  0
SCALE
  5
25C
102
{ACAD_REACTORS
330
241
102
}
330
241
100
AcDbScale
 70
     0
300
1/2" = 1'-0"
140
0.5
141
12.0
290
     0
  0
SCALE
  5
25D
102
{ACAD_REACTORS
330
241
102
}
330
241
100
AcDbScale
 70
     0
300
3/4" = 1'-0"
140
0.75
141
12.0
290
     0
  0
SCALE
  5
25E
102
{ACAD_REACTORS
330
241
102
}
330
241
100
AcDbScale
 70
     0
300
1" = 1'-0"
140
1.0
141
12.0
290
     0
  0
SCALE
  5
25F
102
{ACAD_REACTORS
330
241
102
}
330
241
100
AcDbScale
 70
     0
300
1-1/2" = 1'-0"
140
1.5
141
12.0
290
     0
  0
SCALE
  5
260
102
{ACAD_REACTORS
330
241
102
}
330
241
100
AcDbScale
 70
     0
300
3" = 1'-0"
140
3.0
141
12.0
290
     0
  0
SCALE
  5
261
102
{ACAD_REACTORS
330
241
102
}
330
241
100
AcDbScale
 70
     0
300
6" = 1'-0"
140
6.0
141
12.0
290
     0
  0
SCALE
  5
262
102
{ACAD_REACTORS
330
241
102
}
330
241
100
AcDbScale
 70
     0
300
1'-0" = 1'-0"
140
12.0
141
12.0
290
     0
  0
TABLESTYLE
  5
279
102
{ACAD_REACTORS
330
278
102
}
102
{ACAD_XDICTIONARY
360
5E79
102
}
330
278
100
AcDbTableStyle
  3
Standard
 70
     0
 71
     0
 40
0.06
 41
0.06
280
     0
281
     0
  7
Standard
140
4.5
170
     2
 62
     0
 63
   257
283
     0
 90
        4
 91
        0
  1

274
    -2
284
     1
 64
     0
275
    -2
285
     1
 65
     0
276
    -2
286
     1
 66
     0
277
    -2
287
     1
 67
     0
278
    -2
288
     1
 68
     0
279
    -2
289
     1
 69
     0
  7
Standard
140
6.0
170
     5
 62
     0
 63
   257
283
     0
 90
        4
 91
        0
  1

274
    -2
284
     1
 64
     0
275
    -2
285
     1
 65
     0
276
    -2
286
     1
 66
     0
277
    -2
287
     1
 67
     0
278
    -2
288
     1
 68
     0
279
    -2
289
     1
 69
     0
  7
Standard
140
4.5
170
     5
 62
     0
 63
   257
283
     0
 90
        4
 91
        0
  1

274
    -2
284
     1
 64
     0
275
    -2
285
     1
 65
     0
276
    -2
286
     1
 66
     0
277
    -2
287
     1
 67
     0
278
    -2
288
     1
 68
     0
279
    -2
289
     1
 69
     0
  0
VISUALSTYLE
  5
26C
102
{ACAD_REACTORS
330
267
102
}
330
267
100
AcDbVisualStyle
  2
2dWireframe
 70
     4
 71
     0
 72
     2
 73
     0
 90
        0
 40
-0.6
 41
-30.0
 62
     5
 63
     7
421
 16777215
 74
     1
 91
        4
 64
     7
 65
   257
 75
     1
175
     1
 42
1.0
 92
        0
 66
   257
 43
1.0
 76
     1
 77
     6
 78
     2
 67
     7
 79
     5
170
     0
171
     0
290
     0
174
     0
 93
        1
 44
0.0
173
     0
291
     0
 45
0.0
  0
VISUALSTYLE
  5
26E
102
{ACAD_REACTORS
330
267
102
}
330
267
100
AcDbVisualStyle
  2
3D Hidden
 70
     6
 71
     1
 72
     2
 73
     2
 90
        0
 40
-0.6
 41
-30.0
 62
     5
 63
     7
421
 16777215
 74
     2
 91
        2
 64
     7
 65
   257
 75
     2
175
     1
 42
40.0
 92
        0
 66
   257
 43
1.0
 76
     1
 77
     6
 78
     2
 67
     7
 79
     3
170
     0
171
     0
290
     0
174
     0
 93
        1
 44
0.0
173
     0
291
     0
 45
0.0
  0
VISUALSTYLE
  5
26D
102
{ACAD_REACTORS
330
267
102
}
330
267
100
AcDbVisualStyle
  2
3dWireframe
 70
     5
 71
     0
 72
     2
 73
     0
 90
        0
 40
-0.6
 41
-30.0
 62
     5
 63
     7
421
 16777215
 74
     1
 91
        4
 64
     7
 65
   257
 75
     1
175
     1
 42
1.0
 92
        0
 66
   257
 43
1.0
 76
     1
 77
     6
 78
     2
 67
     7
 79
     5
170
     0
171
     0
290
     0
174
     0
 93
        1
 44
0.0
173
     0
291
     0
 45
0.0
  0
VISUALSTYLE
  5
26F
102
{ACAD_REACTORS
330
267
102
}
330
267
100
AcDbVisualStyle
  2
Basic
 70
     7
 71
     1
 72
     0
 73
     1
 90
        0
 40
-0.6
 41
-30.0
 62
     5
 63
     7
421
 16777215
 74
     0
 91
        4
 64
     7
 65
   257
 75
     1
175
     1
 42
1.0
 92
        8
 66
     7
 43
1.0
 76
     1
 77
     6
 78
     2
 67
     7
 79
     5
170
     0
171
     0
290
     0
174
     0
 93
        1
 44
0.0
173
     0
291
     1
 45
0.0
  0
VISUALSTYLE
  5
273
102
{ACAD_REACTORS
330
267
102
}
330
267
100
AcDbVisualStyle
  2
Brighten
 70
    12
 71
     2
 72
     2
 73
     0
 90
        0
 40
-0.6
 41
-30.0
 62
     5
 63
     7
421
 16777215
 74
     1
 91
        4
 64
     7
 65
   257
 75
     1
175
     1
 42
1.0
 92
        8
 66
     7
 43
1.0
 76
     1
 77
     6
 78
     2
 67
     7
 79
     5
170
     0
171
     0
290
     0
174
     0
 93
        1
 44
50.0
173
     0
291
     1
 45
0.0
  0
VISUALSTYLE
  5
277
102
{ACAD_REACTORS
330
267
102
}
330
267
100
AcDbVisualStyle
  2
ColorChange
 70
    16
 71
     2
 72
     2
 73
     3
 90
        0
 40
-0.6
 41
-30.0
 62
     5
 63
     8
421
  8421504
 74
     1
 91
        4
 64
     7
 65
   257
 75
     1
175
     1
 42
1.0
 92
        8
 66
     8
424
  8421504
 43
1.0
 76
     1
 77
     6
 78
     2
 67
     7
 79
     5
170
     0
171
     0
290
     0
174
     0
 93
        1
 44
0.0
173
     0
291
     1
 45
0.0
  0
VISUALSTYLE
  5
271
102
{ACAD_REACTORS
330
267
102
}
330
267
100
AcDbVisualStyle
  2
Conceptual
 70
     9
 71
     3
 72
     2
 73
     0
 90
        0
 40
-0.6
 41
-30.0
 62
     5
 63
     7
421
 16777215
 74
     2
 91
        2
 64
     7
 65
   257
 75
     1
175
     1
 42
40.0
 92
        8
 66
     7
 43
1.0
 76
     1
 77
     6
 78
     2
 67
     7
 79
     3
170
     0
171
     0
290
     0
174
     0
 93
        1
 44
0.0
173
     0
291
     0
 45
0.0
  0
VISUALSTYLE
  5
272
102
{ACAD_REACTORS
330
267
102
}
330
267
100
AcDbVisualStyle
  2
Dim
 70
    11
 71
     2
 72
     2
 73
     0
 90
        0
 40
-0.6
 41
-30.0
 62
     5
 63
     7
421
 16777215
 74
     1
 91
        4
 64
     7
 65
   257
 75
     1
175
     1
 42
1.0
 92
        8
 66
     7
 43
1.0
 76
     1
 77
     6
 78
     2
 67
     7
 79
     5
170
     0
171
     0
290
     0
174
     0
 93
        1
 44
-50.0
173
     0
291
     1
 45
0.0
  0
VISUALSTYLE
  5
10E2
102
{ACAD_REACTORS
330
267
102
}
330
267
100
AcDbVisualStyle
  2
EdgeColorOff
 70
    22
 71
     2
 72
     2
 73
     0
 90
        0
 40
0.6
 41
30.0
 62
     5
 63
     7
421
 16777215
 74
     1
 91
        4
 64
     7
 65
   257
 75
     1
175
     1
 42
1.0
 92
        8
 66
     7
 43
1.0
 76
     1
 77
     6
 78
     2
 67
     7
 79
     5
170
     0
171
     0
290
     0
174
     0
 93
        1
 44
0.0
173
     0
291
     1
 45
0.0
  0
VISUALSTYLE
  5
276
102
{ACAD_REACTORS
330
267
102
}
330
267
100
AcDbVisualStyle
  2
Facepattern
 70
    15
 71
     2
 72
     2
 73
     0
 90
        0
 40
-0.6
 41
-30.0
 62
     5
 63
     7
421
 16777215
 74
     1
 91
        4
 64
     7
 65
   257
 75
     1
175
     1
 42
1.0
 92
        8
 66
     7
 43
1.0
 76
     1
 77
     6
 78
     2
 67
     7
 79
     5
170
     0
171
     0
290
     0
174
     0
 93
        1
 44
0.0
173
     0
291
     1
 45
0.0
  0
VISUALSTYLE
  5
268
102
{ACAD_REACTORS
330
267
102
}
330
267
100
AcDbVisualStyle
  2
Flat
 70
     0
 71
     2
 72
     1
 73
     1
 90
        2
 40
-0.6
 41
30.0
 62
     5
 63
     7
421
 16777215
 74
     0
 91
        4
 64
     7
 65
   257
 75
     1
175
     1
 42
1.0
 92
        8
 66
     7
 43
1.0
 76
     1
 77
     6
 78
     2
 67
     7
 79
     5
170
     0
171
     0
290
     0
174
     0
 93
       13
 44
0.0
173
     0
291
     1
 45
0.0
  0
VISUALSTYLE
  5
269
102
{ACAD_REACTORS
330
267
102
}
330
267
100
AcDbVisualStyle
  2
FlatWithEdges
 70
     1
 71
     2
 72
     1
 73
     1
 90
        2
 40
-0.6
 41
30.0
 62
     5
 63
     7
421
 16777215
 74
     1
 91
        4
 64
     7
 65
   257
 75
     1
175
     1
 42
1.0
 92
        0
 66
   257
 43
1.0
 76
     1
 77
     6
 78
     2
 67
     7
 79
     5
170
     0
171
     0
290
     0
174
     0
 93
       13
 44
0.0
173
     0
291
     1
 45
0.0
  0
VISUALSTYLE
  5
26A
102
{ACAD_REACTORS
330
267
102
}
330
267
100
AcDbVisualStyle
  2
Gouraud
 70
     2
 71
     2
 72
     2
 73
     1
 90
        2
 40
-0.6
 41
30.0
 62
     5
 63
     7
421
 16777215
 74
     0
 91
        4
 64
     7
 65
   257
 75
     1
175
     1
 42
1.0
 92
        0
 66
     7
 43
1.0
 76
     1
 77
     6
 78
     2
 67
     7
 79
     5
170
     0
171
     0
290
     0
174
     0
 93
       13
 44
0.0
173
     0
291
     1
 45
0.0
  0
VISUALSTYLE
  5
26B
102
{ACAD_REACTORS
330
267
102
}
330
267
100
AcDbVisualStyle
  2
GouraudWithEdges
 70
     3
 71
     2
 72
     2
 73
     1
 90
        2
 40
-0.6
 41
30.0
 62
     5
 63
     7
421
 16777215
 74
     1
 91
        4
 64
     7
 65
   257
 75
     1
175
     1
 42
1.0
 92
        0
 66
   257
 43
1.0
 76
     1
 77
     6
 78
     2
 67
     7
 79
     5
170
     0
171
     0
290
     0
174
     0
 93
       13
 44
0.0
173
     0
291
     1
 45
0.0
  0
VISUALSTYLE
  5
10DF
102
{ACAD_REACTORS
330
267
102
}
330
267
100
AcDbVisualStyle
  2
Hidden
 70
     6
 71
     1
 72
     2
 73
     2
 90
        0
 40
0.6
 41
30.0
 62
     5
 63
     7
421
 16777215
 74
     2
 91
        2
 64
     7
 65
   257
 75
     2
175
     1
 42
40.0
 92
        0
 66
   257
 43
1.0
 76
     1
 77
     6
 78
     2
 67
     7
 79
     3
170
     0
171
     0
290
     0
174
     0
 93
        1
 44
0.0
173
     0
291
     0
 45
0.0
  0
VISUALSTYLE
  5
10E0
102
{ACAD_REACTORS
330
267
102
}
330
267
100
AcDbVisualStyle
  2
JitterOff
 70
    20
 71
     2
 72
     2
 73
     0
 90
        0
 40
0.6
 41
30.0
 62
     5
 63
     7
421
 16777215
 74
     1
 91
        4
 64
     7
 65
   257
 75
     1
175
     1
 42
1.0
 92
       10
 66
     7
 43
1.0
 76
     1
 77
     6
 78
     2
 67
     7
 79
     5
170
     0
171
     0
290
     0
174
     0
 93
        1
 44
0.0
173
     0
291
     1
 45
0.0
  0
VISUALSTYLE
  5
275
102
{ACAD_REACTORS
330
267
102
}
330
267
100
AcDbVisualStyle
  2
Linepattern
 70
    14
 71
     2
 72
     2
 73
     0
 90
        0
 40
-0.6
 41
-30.0
 62
     5
 63
     7
421
 16777215
 74
     1
 91
        4
 64
     7
 65
   257
 75
     7
175
     7
 42
1.0
 92
        8
 66
     7
 43
1.0
 76
     1
 77
     6
 78
     2
 67
     7
 79
     5
170
     0
171
     0
290
     0
174
     0
 93
        1
 44
0.0
173
     0
291
     1
 45
0.0
  0
VISUALSTYLE
  5
10E1
102
{ACAD_REACTORS
330
267
102
}
330
267
100
AcDbVisualStyle
  2
OverhangOff
 70
    21
 71
     2
 72
     2
 73
     0
 90
        0
 40
0.6
 41
30.0
 62
     5
 63
     7
421
 16777215
 74
     1
 91
        4
 64
     7
 65
   257
 75
     1
175
     1
 42
1.0
 92
        9
 66
     7
 43
1.0
 76
     1
 77
     6
 78
     2
 67
     7
 79
     5
170
     0
171
     0
290
     0
174
     0
 93
        1
 44
0.0
173
     0
291
     1
 45
0.0
  0
VISUALSTYLE
  5
270
102
{ACAD_REACTORS
330
267
102
}
330
267
100
AcDbVisualStyle
  2
Realistic
 70
     8
 71
     2
 72
     2
 73
     0
 90
        0
 40
-0.6
 41
-30.0
 62
     5
 63
     7
421
 16777215
 74
     1
 91
        0
 64
     7
 65
   257
 75
     1
175
     1
 42
1.0
 92
        8
 66
     8
424
  7895160
 43
1.0
 76
     1
 77
     6
 78
     2
 67
     7
 79
     5
170
     0
171
     0
290
     0
174
     0
 93
       13
 44
0.0
173
     0
291
     0
 45
0.0
  0
VISUALSTYLE
  5
10E7
102
{ACAD_REACTORS
330
267
102
}
330
267
100
AcDbVisualStyle
  2
Shaded
 70
    27
 71
     2
 72
     2
 73
     1
 90
        2
 40
0.6
 41
30.0
 62
     5
 63
     7
421
 16777215
 74
     0
 91
        4
 64
     7
 65
   257
 75
     1
175
     1
 42
1.0
 92
        8
 66
   257
 43
1.0
 76
     1
 77
     6
 78
     2
 67
     8
425
  7895160
 79
     3
170
     0
171
     0
290
     0
174
     0
 93
        5
 44
0.0
173
     0
291
     0
 45
0.0
  0
VISUALSTYLE
  5
10E6
102
{ACAD_REACTORS
330
267
102
}
330
267
100
AcDbVisualStyle
  2
Shaded with edges
 70
    26
 71
     2
 72
     2
 73
     1
 90
        2
 40
0.6
 41
30.0
 62
     5
 63
     7
421
 16777215
 74
     1
 91
       10
 64
     7
 65
   257
 75
     2
175
     1
 42
1.0
 92
        8
 66
   257
 43
1.0
 76
     1
 77
     6
 78
     2
 67
     7
 79
     3
170
     0
171
     0
290
     0
174
     0
 93
        5
 44
0.0
173
     0
291
     0
 45
0.0
  0
VISUALSTYLE
  5
10E3
102
{ACAD_REACTORS
330
267
102
}
330
267
100
AcDbVisualStyle
  2
Shades of Gray
 70
    23
 71
     2
 72
     2
 73
     3
 90
        0
 40
0.6
 41
30.0
 62
     5
 63
     7
421
 16777215
 74
     2
 91
        2
 64
     7
 65
     7
 75
     1
175
     1
 42
40.0
 92
        8
 66
     7
 43
1.0
 76
     1
 77
     6
 78
     2
 67
     7
 79
     3
170
     0
171
     0
290
     0
174
     0
 93
        1
 44
0.0
173
     0
291
     0
 45
0.0
  0
VISUALSTYLE
  5
10E4
102
{ACAD_REACTORS
330
267
102
}
330
267
100
AcDbVisualStyle
  2
Sketchy
 70
    24
 71
     1
 72
     2
 73
     2
 90
        0
 40
0.6
 41
30.0
 62
     5
 63
     7
421
 16777215
 74
     2
 91
        2
 64
     7
 65
     7
 75
     1
175
     1
 42
40.0
 92
       11
 66
     7
 43
1.0
 76
     1
 77
     6
 78
     2
 67
     7
 79
     6
170
     0
171
     0
290
     0
174
     0
 93
        1
 44
0.0
173
     0
291
     0
 45
0.0
  0
VISUALSTYLE
  5
274
102
{ACAD_REACTORS
330
267
102
}
330
267
100
AcDbVisualStyle
  2
Thicken
 70
    13
 71
     2
 72
     2
 73
     0
 90
        0
 40
-0.6
 41
-30.0
 62
     5
 63
     7
421
 16777215
 74
     1
 91
        4
 64
     7
 65
   257
 75
     1
175
     1
 42
1.0
 92
       12
 66
     7
 43
1.0
 76
     1
 77
     6
 78
     2
 67
     7
 79
     5
170
     0
171
     0
290
     0
174
     0
 93
        1
 44
0.0
173
     0
291
     1
 45
0.0
  0
VISUALSTYLE
  5
10DE
102
{ACAD_REACTORS
330
267
102
}
330
267
100
AcDbVisualStyle
  2
Wireframe
 70
     5
 71
     0
 72
     2
 73
     0
 90
        0
 40
0.6
 41
30.0
 62
     5
 63
     7
421
 16777215
 74
     1
 91
        4
 64
     7
 65
   257
 75
     1
175
     1
 42
1.0
 92
        0
 66
   257
 43
1.0
 76
     1
 77
     6
 78
     2
 67
     7
 79
     3
170
     0
171
     0
290
     0
174
     0
 93
        1
 44
0.0
173
     0
291
     0
 45
0.0
  0
VISUALSTYLE
  5
10E5
102
{ACAD_REACTORS
330
267
102
}
330
267
100
AcDbVisualStyle
  2
X-Ray
 70
    25
 71
     2
 72
     2
 73
     1
 90
        1
 40
0.5
 41
30.0
 62
     5
 63
     7
421
 16777215
 74
     1
 91
        0
 64
     7
 65
   257
 75
     1
175
     1
 42
1.0
 92
        8
 66
     7
 43
1.0
 76
     1
 77
     6
 78
     2
 67
     7
 79
     3
170
     0
171
     0
290
     0
174
     0
 93
       13
 44
0.0
173
     0
291
     0
 45
0.0
  0
DICTIONARYVAR
  5
331
102
{ACAD_REACTORS
330
330
102
}
330
330
100
DictionaryVariables
280
     0
  1
1:1
  0
DICTIONARYVAR
  5
41C8
102
{ACAD_REACTORS
330
330
102
}
330
330
100
DictionaryVariables
280
     0
  1
Standard
  0
DICTIONARYVAR
  5
335
102
{ACAD_REACTORS
330
330
102
}
330
330
100
DictionaryVariables
280
     0
  1
Standard
  0
DICTIONARYVAR
  5
109E
102
{ACAD_REACTORS
330
330
102
}
330
330
100
DictionaryVariables
280
     0
  1
0
  0
FIELD
  5
5457
102
{ACAD_REACTORS
330
5E50
102
}
330
5E50
100
AcDbField
  1
_text
  2
{%<\_FldIdx 0>%N}
 90
        1
360
545B
 97
        0
 91
       63
 92
        0
 94
       11
 95
        2
 96
        0
300

 93
        1
  6
ACFD_FIELDTEXT_CHECKSUM
 93
        2
 90
        2
140
4495.0
 94
        0
300

302

304
ACVALUE_END
  7
ACFD_FIELD_VALUE
 93
        6
 90
        4
  1
{20180710N}
 94
        0
300

302

304
ACVALUE_END
301
{20180710N}
 98
       11
  0
DICTIONARY
  5
5E79
330
279
100
AcDbDictionary
280
     1
281
     1
  3
ACAD_ROUNDTRIP_2008_TABLESTYLE_CELLSTYLEMAP
360
5E7A
  0
FIELD
  5
545B
330
5457
100
AcDbField
  1
AcVar
  2
\AcVar Date \f "yyyyMMdd"
 90
        0
 97
        0
 91
       63
 92
        0
 94
       11
 95
       64
 96
        0
300
Variable not supported
 93
        1
  6
Variable
 93
        2
 90
        4
  1
Date
 94
        0
300

302

304
ACVALUE_END
  7
ACFD_FIELD_VALUE
 93
        6
 90
        8
 92
       16
310
E2070700000009000F002B002D000000
 94
        0
300
yyyyMMdd
302

304
ACVALUE_END
301
20180710
 98
        8
  0
CELLSTYLEMAP
  5
5E7A
102
{ACAD_REACTORS
330
5E79
102
}
330
5E79
100
AcDbCellStyleMap
 90
        3
300
CELLSTYLE
  1
TABLEFORMAT_BEGIN
 90
        5
170
     1
 91
        0
 92
    32768
 62
   257
 93
        1
300
CONTENTFORMAT
  1
CONTENTFORMAT_BEGIN
 90
        0
 91
        0
 92
        4
 93
        0
300

 40
0.0
140
1.0
 94
        5
 62
     0
340
17
144
6.0
309
CONTENTFORMAT_END
171
     1
301
MARGIN
  1
CELLMARGIN_BEGIN
 40
0.06
 40
0.06
 40
0.06
 40
0.06
 40
0.18
 40
0.18
309
CELLMARGIN_END
 94
        6
 95
        1
302
GRIDFORMAT
  1
GRIDFORMAT_BEGIN
 90
        0
 91
        1
 62
     0
 92
       -2
340
0
 93
        0
 40
0.045
309
GRIDFORMAT_END
 95
        2
302
GRIDFORMAT
  1
GRIDFORMAT_BEGIN
 90
        0
 91
        1
 62
     0
 92
       -2
340
0
 93
        0
 40
0.045
309
GRIDFORMAT_END
 95
        4
302
GRIDFORMAT
  1
GRIDFORMAT_BEGIN
 90
        0
 91
        1
 62
     0
 92
       -2
340
0
 93
        0
 40
0.045
309
GRIDFORMAT_END
 95
        8
302
GRIDFORMAT
  1
GRIDFORMAT_BEGIN
 90
        0
 91
        1
 62
     0
 92
       -2
340
0
 93
        0
 40
0.045
309
GRIDFORMAT_END
 95
       16
302
GRIDFORMAT
  1
GRIDFORMAT_BEGIN
 90
        0
 91
        1
 62
     0
 92
       -2
340
0
 93
        0
 40
0.045
309
GRIDFORMAT_END
 95
       32
302
GRIDFORMAT
  1
GRIDFORMAT_BEGIN
 90
        0
 91
        1
 62
     0
 92
       -2
340
0
 93
        0
 40
0.045
309
GRIDFORMAT_END
309
TABLEFORMAT_END
  1
CELLSTYLE_BEGIN
 90
        1
 91
        1
300
_TITLE
309
CELLSTYLE_END
300
CELLSTYLE
  1
TABLEFORMAT_BEGIN
 90
        5
170
     1
 91
        0
 92
        0
 62
   257
 93
        1
300
CONTENTFORMAT
  1
CONTENTFORMAT_BEGIN
 90
        0
 91
        0
 92
        4
 93
        0
300

 40
0.0
140
1.0
 94
        5
 62
     0
340
17
144
4.5
309
CONTENTFORMAT_END
171
     1
301
MARGIN
  1
CELLMARGIN_BEGIN
 40
0.06
 40
0.06
 40
0.06
 40
0.06
 40
0.18
 40
0.18
309
CELLMARGIN_END
 94
        6
 95
        1
302
GRIDFORMAT
  1
GRIDFORMAT_BEGIN
 90
        0
 91
        1
 62
     0
 92
       -2
340
0
 93
        0
 40
0.045
309
GRIDFORMAT_END
 95
        2
302
GRIDFORMAT
  1
GRIDFORMAT_BEGIN
 90
        0
 91
        1
 62
     0
 92
       -2
340
0
 93
        0
 40
0.045
309
GRIDFORMAT_END
 95
        4
302
GRIDFORMAT
  1
GRIDFORMAT_BEGIN
 90
        0
 91
        1
 62
     0
 92
       -2
340
0
 93
        0
 40
0.045
309
GRIDFORMAT_END
 95
        8
302
GRIDFORMAT
  1
GRIDFORMAT_BEGIN
 90
        0
 91
        1
 62
     0
 92
       -2
340
0
 93
        0
 40
0.045
309
GRIDFORMAT_END
 95
       16
302
GRIDFORMAT
  1
GRIDFORMAT_BEGIN
 90
        0
 91
        1
 62
     0
 92
       -2
340
0
 93
        0
 40
0.045
309
GRIDFORMAT_END
 95
       32
302
GRIDFORMAT
  1
GRIDFORMAT_BEGIN
 90
        0
 91
        1
 62
     0
 92
       -2
340
0
 93
        0
 40
0.045
309
GRIDFORMAT_END
309
TABLEFORMAT_END
  1
CELLSTYLE_BEGIN
 90
        2
 91
        1
300
_HEADER
309
CELLSTYLE_END
300
CELLSTYLE
  1
TABLEFORMAT_BEGIN
 90
        5
170
     1
 91
        0
 92
        0
 62
   257
 93
        1
300
CONTENTFORMAT
  1
CONTENTFORMAT_BEGIN
 90
        0
 91
        0
 92
        4
 93
        0
300

 40
0.0
140
1.0
 94
        2
 62
     0
340
17
144
4.5
309
CONTENTFORMAT_END
171
     1
301
MARGIN
  1
CELLMARGIN_BEGIN
 40
0.06
 40
0.06
 40
0.06
 40
0.06
 40
0.18
 40
0.18
309
CELLMARGIN_END
 94
        6
 95
        1
302
GRIDFORMAT
  1
GRIDFORMAT_BEGIN
 90
        0
 91
        1
 62
     0
 92
       -2
340
0
 93
        0
 40
0.045
309
GRIDFORMAT_END
 95
        2
302
GRIDFORMAT
  1
GRIDFORMAT_BEGIN
 90
        0
 91
        1
 62
     0
 92
       -2
340
0
 93
        0
 40
0.045
309
GRIDFORMAT_END
 95
        4
302
GRIDFORMAT
  1
GRIDFORMAT_BEGIN
 90
        0
 91
        1
 62
     0
 92
       -2
340
0
 93
        0
 40
0.045
309
GRIDFORMAT_END
 95
        8
302
GRIDFORMAT
  1
GRIDFORMAT_BEGIN
 90
        0
 91
        1
 62
     0
 92
       -2
340
0
 93
        0
 40
0.045
309
GRIDFORMAT_END
 95
       16
302
GRIDFORMAT
  1
GRIDFORMAT_BEGIN
 90
        0
 91
        1
 62
     0
 92
       -2
340
0
 93
        0
 40
0.045
309
GRIDFORMAT_END
 95
       32
302
GRIDFORMAT
  1
GRIDFORMAT_BEGIN
 90
        0
 91
        1
 62
     0
 92
       -2
340
0
 93
        0
 40
0.045
309
GRIDFORMAT_END
309
TABLEFORMAT_END
  1
CELLSTYLE_BEGIN
 90
        3
 91
        2
300
_DATA
309
CELLSTYLE_END
  0
ENDSEC
  0
EOF
