  0
SECTION
  2
HEADER
  9
$ACADVER
  1
AC1021
  9
$ACADMAINTVER
 70
    25
  9
$DWGCODEPAGE
  3
ANSI_932
  9
$LASTSAVEDBY
  1
howeNelson
  9
$INSBASE
 10
0.0
 20
0.0
 30
0.0
  9
$EXTMIN
 10
-79.37939740351135
 20
0.0
 30
0.0
  9
$EXTMAX
 10
1050.0
 20
1485.0
 30
0.0
  9
$LIMMIN
 10
0.0
 20
0.0
  9
$LIMMAX
 10
1050.0
 20
1485.0
  9
$ORTHOMODE
 70
     0
  9
$REGENMODE
 70
     1
  9
$FILLMODE
 70
     1
  9
$QTEXTMODE
 70
     0
  9
$MIRRTEXT
 70
     1
  9
$LTSCALE
 40
1.0
  9
$ATTMODE
 70
     1
  9
$TEXTSIZE
 40
2.5
  9
$TRACEWID
 40
1.0
  9
$TEXTSTYLE
  7
ＭＳ ゴシック
  9
$CLAYER
  8
寸法
  9
$CELTYPE
  6
ByLayer
  9
$CECOLOR
 62
   256
  9
$CELTSCALE
 40
1.0
  9
$DISPSILH
 70
     0
  9
$DIMSCALE
 40
1.0
  9
$DIMASZ
 40
3.0
  9
$DIMEXO
 40
10.0
  9
$DIMDLI
 40
5.0
  9
$DIMRND
 40
0.0
  9
$DIMDLE
 40
0.0
  9
$DIMEXE
 40
0.0
  9
$DIMTP
 40
0.0
  9
$DIMTM
 40
0.0
  9
$DIMTXT
 40
12.0
  9
$DIMCEN
 40
0.0
  9
$DIMTSZ
 40
0.0
  9
$DIMTOL
 70
     0
  9
$DIMLIM
 70
     0
  9
$DIMTIH
 70
     0
  9
$DIMTOH
 70
     0
  9
$DIMSE1
 70
     0
  9
$DIMSE2
 70
     0
  9
$DIMTAD
 70
     1
  9
$DIMZIN
 70
    11
  9
$DIMBLK
  1
DOT
  9
$DIMASO
 70
     1
  9
$DIMSHO
 70
     1
  9
$DIMPOST
  1
<>
  9
$DIMAPOST
  1
[]
  9
$DIMALT
 70
     0
  9
$DIMALTD
 70
     1
  9
$DIMALTF
 40
1.0
  9
$DIMLFAC
 40
1.0
  9
$DIMTOFL
 70
     0
  9
$DIMTVP
 40
0.0
  9
$DIMTIX
 70
     1
  9
$DIMSOXD
 70
     0
  9
$DIMSAH
 70
     0
  9
$DIMBLK1
  1

  9
$DIMBLK2
  1

  9
$DIMSTYLE
  2
tfrom線あり
  9
$DIMCLRD
 70
     0
  9
$DIMCLRE
 70
     0
  9
$DIMCLRT
 70
     0
  9
$DIMTFAC
 40
1.0
  9
$DIMGAP
 40
5.0
  9
$DIMJUST
 70
     0
  9
$DIMSD1
 70
     0
  9
$DIMSD2
 70
     0
  9
$DIMTOLJ
 70
     1
  9
$DIMTZIN
 70
    11
  9
$DIMALTZ
 70
    11
  9
$DIMALTTZ
 70
    11
  9
$DIMUPT
 70
     0
  9
$DIMDEC
 70
     0
  9
$DIMTDEC
 70
     1
  9
$DIMALTU
 70
     2
  9
$DIMALTTD
 70
     2
  9
$DIMTXSTY
  7
ＭＳ ゴシック
  9
$DIMAUNIT
 70
     0
  9
$DIMADEC
 70
     2
  9
$DIMALTRND
 40
0.0
  9
$DIMAZIN
 70
     0
  9
$DIMDSEP
 70
    46
  9
$DIMATFIT
 70
     0
  9
$DIMFRAC
 70
     2
  9
$DIMLDRBLK
  1
DOT
  9
$DIMLUNIT
 70
     2
  9
$DIMLWD
 70
    -2
  9
$DIMLWE
 70
    -2
  9
$DIMTMOVE
 70
     0
  9
$DIMFXL
 40
1.0
  9
$DIMFXLON
 70
     0
  9
$DIMJOGANG
 40
0.7853981633974483
  9
$DIMTFILL
 70
     0
  9
$DIMTFILLCLR
 70
     0
  9
$DIMARCSYM
 70
     0
  9
$DIMLTYPE
  6

  9
$DIMLTEX1
  6

  9
$DIMLTEX2
  6

  9
$LUNITS
 70
     2
  9
$LUPREC
 70
     0
  9
$SKETCHINC
 40
0.1
  9
$FILLETRAD
 40
0.0
  9
$AUNITS
 70
     0
  9
$AUPREC
 70
     0
  9
$MENU
  1
acad
  9
$ELEVATION
 40
0.0
  9
$PELEVATION
 40
0.0
  9
$THICKNESS
 40
0.0
  9
$LIMCHECK
 70
     0
  9
$CHAMFERA
 40
0.0
  9
$CHAMFERB
 40
0.0
  9
$CHAMFERC
 40
0.0
  9
$CHAMFERD
 40
0.0
  9
$SKPOLY
 70
     0
  9
$TDCREATE
 40
2447893.375
  9
$TDUCREATE
 40
0.0
  9
$TDUPDATE
 40
2458261.700759132
  9
$TDUUPDATE
 40
2458261.325759132
  9
$TDINDWG
 40
0.0
  9
$TDUSRTIMER
 40
0.0
  9
$USRTIMER
 70
     1
  9
$ANGBASE
 50
0.0
  9
$ANGDIR
 70
     0
  9
$PDMODE
 70
     1
  9
$PDSIZE
 40
-2.0
  9
$PLINEWID
 40
0.0
  9
$SPLFRAME
 70
     0
  9
$SPLINETYPE
 70
     6
  9
$SPLINESEGS
 70
     8
  9
$HANDSEED
  5
98C6
  9
$SURFTAB1
 70
     6
  9
$SURFTAB2
 70
     6
  9
$SURFTYPE
 70
     6
  9
$SURFU
 70
     6
  9
$SURFV
 70
     6
  9
$UCSBASE
  2

  9
$UCSNAME
  2

  9
$UCSORG
 10
0.0
 20
0.0
 30
0.0
  9
$UCSXDIR
 10
1.0
 20
0.0
 30
0.0
  9
$UCSYDIR
 10
0.0
 20
1.0
 30
0.0
  9
$UCSORTHOREF
  2

  9
$UCSORTHOVIEW
 70
     0
  9
$UCSORGTOP
 10
0.0
 20
0.0
 30
0.0
  9
$UCSORGBOTTOM
 10
0.0
 20
0.0
 30
0.0
  9
$UCSORGLEFT
 10
0.0
 20
0.0
 30
0.0
  9
$UCSORGRIGHT
 10
0.0
 20
0.0
 30
0.0
  9
$UCSORGFRONT
 10
0.0
 20
0.0
 30
0.0
  9
$UCSORGBACK
 10
0.0
 20
0.0
 30
0.0
  9
$PUCSBASE
  2

  9
$PUCSNAME
  2

  9
$PUCSORG
 10
0.0
 20
0.0
 30
0.0
  9
$PUCSXDIR
 10
1.0
 20
0.0
 30
0.0
  9
$PUCSYDIR
 10
0.0
 20
1.0
 30
0.0
  9
$PUCSORTHOREF
  2

  9
$PUCSORTHOVIEW
 70
     0
  9
$PUCSORGTOP
 10
0.0
 20
0.0
 30
0.0
  9
$PUCSORGBOTTOM
 10
0.0
 20
0.0
 30
0.0
  9
$PUCSORGLEFT
 10
0.0
 20
0.0
 30
0.0
  9
$PUCSORGRIGHT
 10
0.0
 20
0.0
 30
0.0
  9
$PUCSORGFRONT
 10
0.0
 20
0.0
 30
0.0
  9
$PUCSORGBACK
 10
0.0
 20
0.0
 30
0.0
  9
$USERI1
 70
     0
  9
$USERI2
 70
     0
  9
$USERI3
 70
     0
  9
$USERI4
 70
     0
  9
$USERI5
 70
     0
  9
$USERR1
 40
0.0
  9
$USERR2
 40
0.0
  9
$USERR3
 40
0.0
  9
$USERR4
 40
0.0
  9
$USERR5
 40
0.0
  9
$WORLDVIEW
 70
     1
  9
$SHADEDGE
 70
     3
  9
$SHADEDIF
 70
    70
  9
$TILEMODE
 70
     1
  9
$MAXACTVP
 70
    64
  9
$PINSBASE
 10
0.0
 20
0.0
 30
0.0
  9
$PLIMCHECK
 70
     0
  9
$PEXTMIN
 10
0.0
 20
0.0
 30
0.0
  9
$PEXTMAX
 10
0.0
 20
0.0
 30
0.0
  9
$PLIMMIN
 10
-7.5
 20
-20.0
  9
$PLIMMAX
 10
412.5
 20
277.0
  9
$UNITMODE
 70
     0
  9
$VISRETAIN
 70
     0
  9
$PLINEGEN
 70
     1
  9
$PSLTSCALE
 70
     1
  9
$TREEDEPTH
 70
  3020
  9
$CMLSTYLE
  2
Standard
  9
$CMLJUST
 70
     0
  9
$CMLSCALE
 40
1.0
  9
$PROXYGRAPHICS
 70
     0
  9
$MEASUREMENT
 70
     1
  9
$CELWEIGHT
370
    -1
  9
$ENDCAPS
280
     0
  9
$JOINSTYLE
280
     0
  9
$LWDISPLAY
290
     1
  9
$INSUNITS
 70
     4
  9
$HYPERLINKBASE
  1

  9
$STYLESHEET
  1

  9
$XEDIT
290
     1
  9
$CEPSNTYPE
380
     0
  9
$PSTYLEMODE
290
     1
  9
$FINGERPRINTGUID
  2

  9
$VERSIONGUID
  2

  9
$EXTNAMES
290
     1
  9
$PSVPSCALE
 40
0.0
  9
$OLESTARTUP
290
     0
  9
$SORTENTS
280
   127
  9
$INDEXCTL
280
     0
  9
$HIDETEXT
280
     1
  9
$XCLIPFRAME
290
     0
  9
$HALOGAP
280
     0
  9
$OBSCOLOR
 70
   257
  9
$OBSLTYPE
280
     0
  9
$INTERSECTIONDISPLAY
280
     0
  9
$INTERSECTIONCOLOR
 70
   257
  9
$DIMASSOC
280
     2
  9
$PROJECTNAME
  1

  9
$CAMERADISPLAY
290
     0
  9
$LENSLENGTH
 40
50.0
  9
$CAMERAHEIGHT
 40
0.0
  9
$STEPSPERSEC
 40
2.0
  9
$STEPSIZE
 40
6.0
  9
$3DDWFPREC
 40
2.0
  9
$PSOLWIDTH
 40
0.25
  9
$PSOLHEIGHT
 40
4.0
  9
$LOFTANG1
 40
1.570796326794897
  9
$LOFTANG2
 40
1.570796326794897
  9
$LOFTMAG1
 40
0.0
  9
$LOFTMAG2
 40
0.0
  9
$LOFTPARAM
 70
     7
  9
$LOFTNORMALS
280
     1
  9
$LATITUDE
 40
37.795
  9
$LONGITUDE
 40
-122.394
  9
$NORTHDIRECTION
 40
0.0
  9
$TIMEZONE
 70
 -8000
  9
$LIGHTGLYPHDISPLAY
280
     1
  9
$TILEMODELIGHTSYNCH
280
     1
  9
$SOLIDHIST
280
     1
  9
$SHOWHIST
280
     1
  9
$DWFFRAME
280
     2
  9
$DGNFRAME
280
     2
  9
$REALWORLDSCALE
290
     1
  9
$INTERFERECOLOR
 62
   256
  9
$CSHADOW
280
     0
  9
$SHADOWPLANELOCATION
 40
0.0
  0
ENDSEC
  0
SECTION
  2
CLASSES
  0
CLASS
  1
LWPOLYLINE
  2
AcDbPolyline
  3
ObjectDBX Classes
 90
        0
 91
        1
280
     0
281
     1
  0
CLASS
  1
IMAGE
  2
AcDbRasterImage
  3
ISM
 90
      127
 91
       22
280
     0
281
     1
  0
CLASS
  1
OLE2FRAME
  2
AcDbOle2Frame
  3
ObjectDBX Classes
 90
        0
 91
        1
280
     0
281
     1
  0
CLASS
  1
HATCH
  2
AcDbHatch
  3
ObjectDBX Classes
 90
        0
 91
        1
280
     0
281
     1
  0
CLASS
  1
DICTIONARYVAR
  2
AcDbDictionaryVar
  3
ObjectDBX Classes
 90
        0
 91
       21
280
     0
281
     0
  0
CLASS
  1
RASTERVARIABLES
  2
AcDbRasterVariables
  3
ISM
 90
        0
 91
       21
280
     0
281
     0
  0
CLASS
  1
IMAGEDEF
  2
AcDbRasterImageDef
  3
ISM
 90
        0
 91
       21
280
     0
281
     0
  0
CLASS
  1
IMAGEDEF_REACTOR
  2
AcDbRasterImageDefReactor
  3
ISM
 90
        1
 91
       21
280
     0
281
     0
  0
CLASS
  1
IDBUFFER
  2
AcDbIdBuffer
  3
ObjectDBX Classes
 90
        0
 91
       21
280
     0
281
     0
  0
CLASS
  1
SPATIAL_FILTER
  2
AcDbSpatialFilter
  3
ObjectDBX Classes
 90
        0
 91
       21
280
     0
281
     0
  0
CLASS
  1
XRECORD
  2
AcDbXrecord
  3
ObjectDBX Classes
 90
        0
 91
        1
280
     0
281
     0
  0
CLASS
  1
SORTENTSTABLE
  2
AcDbSortentsTable
  3
ObjectDBX Classes
 90
        0
 91
       21
280
     0
281
     0
  0
CLASS
  1
LAYER_INDEX
  2
AcDbLayerIndex
  3
ObjectDBX Classes
 90
        0
 91
       21
280
     0
281
     0
  0
CLASS
  1
SPATIAL_INDEX
  2
AcDbSpatialIndex
  3
AutoCAD 2000
 90
        0
 91
       21
280
     0
281
     0
  0
CLASS
  1
OBJECT_PTR
  2
CAseDLPNTableRecord
  3
ASE-LPNTableRecord
 90
        1
 91
       21
280
     0
281
     0
  0
CLASS
  1
LAYOUT
  2
AcDbLayout
  3
ObjectDBX Classes
 90
        0
 91
        1
280
     0
281
     0
  0
CLASS
  1
PLOTSETTINGS
  2
AcDbPlotSettings
  3
ObjectDBX Classes
 90
        0
 91
       21
280
     0
281
     0
  0
CLASS
  1
ACDBDICTIONARYWDFLT
  2
AcDbDictionaryWithDefault
  3
ObjectDBX Classes
 90
        0
 91
       21
280
     0
281
     0
  0
CLASS
  1
ACDBPLACEHOLDER
  2
AcDbPlaceHolder
  3
ObjectDBX Classes
 90
        0
 91
        1
280
     0
281
     0
  0
CLASS
  1
SCALE
  2
AcDbScale
  3
ObjectDBX Classes
 90
     1153
 91
       21
280
     0
281
     0
  0
CLASS
  1
MATERIAL
  2
AcDbMaterial
  3
ObjectDBX Classes
 90
     1153
 91
       21
280
     0
281
     0
  0
CLASS
  1
VISUALSTYLE
  2
AcDbVisualStyle
  3
ObjectDBX Classes
 90
     4095
 91
       21
280
     0
281
     0
  0
CLASS
  1
TABLESTYLE
  2
AcDbTableStyle
  3
ObjectDBX Classes
 90
     4095
 91
       21
280
     0
281
     0
  0
CLASS
  1
DIMASSOC
  2
AcDbDimAssoc
  3
"AcDbDimAssoc|Product Desc:     AcDim ARX App For Dimension|Company:          Autodesk, Inc.|WEB Address:      www.autodesk.com"
 90
        0
 91
       21
280
     0
281
     0
  0
CLASS
  1
CELLSTYLEMAP
  2
AcDbCellStyleMap
  3
ObjectDBX Classes
 90
     1152
 91
       21
280
     0
281
     0
  0
CLASS
  1
SUN
  2
AcDbSun
  3
SCENEOE
 90
     1153
 91
       21
280
     0
281
     0
  0
CLASS
  1
MLEADERSTYLE
  2
AcDbMLeaderStyle
  3
ACDB_MLEADERSTYLE_CLASS
 90
     4095
 91
       21
280
     0
281
     0
  0
CLASS
  1
FIELD
  2
AcDbField
  3
ObjectDBX Classes
 90
     1152
 91
       21
280
     0
281
     0
  0
CLASS
  1
FIELDLIST
  2
AcDbFieldList
  3
ObjectDBX Classes
 90
     1152
 91
       21
280
     0
281
     0
  0
ENDSEC
  0
SECTION
  2
TABLES
  0
TABLE
  2
VPORT
  5
7
330
0
100
AcDbSymbolTable
 70
     1
  0
VPORT
  5
15
330
7
100
AcDbSymbolTableRecord
100
AcDbViewportTableRecord
  2
*ACTIVE
 70
     0
 10
0.0
 20
0.0
 11
1.0
 21
1.0
 12
485.3103012982443
 22
742.5
 13
0.0
 23
0.0
 14
1.0
 24
1.0
 15
0.0
 25
0.0
 16
0.0
 26
0.0
 36
1.0
 17
0.0
 27
0.0
 37
0.0
 40
1514.7
 41
2.294372294372294
 42
50.0
 43
0.0
 44
0.0
 50
0.0
 51
0.0
 71
    16
 72
  2000
 73
     1
 74
     1
 75
     0
 76
     0
 77
     0
 78
     0
281
     0
 65
     1
110
0.0
120
0.0
130
0.0
111
1.0
121
0.0
131
0.0
112
0.0
122
1.0
132
0.0
 79
     0
146
0.0
348
26C
 60
     3
 61
     5
292
     1
282
     1
141
0.0
142
0.0
 63
   256
361
F1A
  0
ENDTAB
  0
TABLE
  2
LTYPE
  5
4
330
0
100
AcDbSymbolTable
 70
    11
  0
LTYPE
  5
11
330
4
100
AcDbSymbolTableRecord
100
AcDbLinetypeTableRecord
  2
ByBlock
 70
     0
  3

 72
    65
 73
     0
 40
0.0
  0
LTYPE
  5
12
330
4
100
AcDbSymbolTableRecord
100
AcDbLinetypeTableRecord
  2
ByLayer
 70
     0
  3
Solid line
 72
    65
 73
     0
 40
0.0
  0
LTYPE
  5
13
330
4
100
AcDbSymbolTableRecord
100
AcDbLinetypeTableRecord
  2
Continuous
 70
     0
  3
Solid line
 72
    65
 73
     0
 40
0.0
  0
LTYPE
  5
4E6E
330
4
100
AcDbSymbolTableRecord
100
AcDbLinetypeTableRecord
  2
CENTER
 70
     0
  3
----------  --  ----------  --  
 72
    65
 73
     4
 40
20.0
 49
12.5
 74
     0
 49
-2.5
 74
     0
 49
2.5
 74
     0
 49
-2.5
 74
     0
  0
LTYPE
  5
4E6F
330
4
100
AcDbSymbolTableRecord
100
AcDbLinetypeTableRecord
  2
HIDDEN
 70
     0
  3
Hidden _ _ _ _ _ _ _ _ _ _ _ _ _ _ _ _ _ _ _ _ 
 72
    65
 73
     2
 40
9.524999999999999
 49
6.35
 74
     0
 49
-3.175
 74
     0
  0
LTYPE
  5
589F
330
4
100
AcDbSymbolTableRecord
100
AcDbLinetypeTableRecord
  2
DASHED
 70
     0
  3
Dashed __ __ __ __ __ __ __ __ __ __ __ __ __ _
 72
    65
 73
     2
 40
19.05
 49
12.7
 74
     0
 49
-6.35
 74
     0
  0
LTYPE
  5
9646
330
4
100
AcDbSymbolTableRecord
100
AcDbLinetypeTableRecord
  2
DASHDOT
 70
     0
  3
Dash dot __ . __ . __ . __ . __ . __ . __ . __
 72
    65
 73
     4
 40
25.4
 49
12.7
 74
     0
 49
-6.35
 74
     0
 49
0.0
 74
     0
 49
-6.35
 74
     0
  0
ENDTAB
  0
TABLE
  2
LAYER
  5
2
102
{ACAD_XDICTIONARY
360
2E1
102
}
330
0
100
AcDbSymbolTable
 70
    18
  0
LAYER
  5
14
330
2
100
AcDbSymbolTableRecord
100
AcDbLayerTableRecord
  2
0
 70
     0
 62
     7
  6
Continuous
370
    -3
390
1D
347
266
  0
LAYER
  5
4A
330
2
100
AcDbSymbolTableRecord
100
AcDbLayerTableRecord
  2
Defpoints
 70
     0
 62
     7
  6
Continuous
290
     0
370
    -3
390
1D
347
266
  0
LAYER
  5
4D
330
2
100
AcDbSymbolTableRecord
100
AcDbLayerTableRecord
  2
MODEL
 70
     0
 62
     7
  6
Continuous
370
    20
390
1D
347
266
  0
LAYER
  5
667
330
2
100
AcDbSymbolTableRecord
100
AcDbLayerTableRecord
  2
レイヤー 1
 70
     0
 62
     7
  6
Continuous
370
    -3
390
1D
347
266
  0
LAYER
  5
4598
330
2
100
AcDbSymbolTableRecord
100
AcDbLayerTableRecord
  2
_0-1_
 70
     0
 62
     7
  6
Continuous
370
    -3
390
1D
347
266
  0
LAYER
  5
4E64
330
2
100
AcDbSymbolTableRecord
100
AcDbLayerTableRecord
  2
寸法
 70
     0
 62
     3
  6
Continuous
370
    13
390
1D
347
266
1001
AcAecLayerStandard
1000

1000

  0
LAYER
  5
4E68
330
2
100
AcDbSymbolTableRecord
100
AcDbLayerTableRecord
  2
テンプレート
 70
     0
 62
     7
  6
Continuous
370
    20
390
1D
347
266
1001
AcAecLayerStandard
1000

1000

  0
LAYER
  5
4E69
330
2
100
AcDbSymbolTableRecord
100
AcDbLayerTableRecord
  2
TFORMLOGO
 70
     0
 62
     7
  6
Continuous
370
    20
390
1D
347
266
  0
LAYER
  5
4E6A
330
2
100
AcDbSymbolTableRecord
100
AcDbLayerTableRecord
  2
PRINT BORDER
 70
     0
 62
     4
  6
Continuous
290
     0
370
    -3
390
1D
347
266
1001
AcAecLayerStandard
1000

1000

  0
LAYER
  5
4E6B
330
2
100
AcDbSymbolTableRecord
100
AcDbLayerTableRecord
  2
SPACER
 70
     0
 62
    -3
  6
Continuous
290
     0
370
    -3
390
1D
347
266
1001
AcAecLayerStandard
1000

1000

  0
LAYER
  5
602E
330
2
100
AcDbSymbolTableRecord
100
AcDbLayerTableRecord
  2
HIDDEN
 70
     0
 62
   252
  6
HIDDEN
370
    13
390
1D
347
266
1001
AcAecLayerStandard
1000

1000

  0
LAYER
  5
9642
330
2
100
AcDbSymbolTableRecord
100
AcDbLayerTableRecord
  2
102
 70
     0
 62
     1
  6
DASHED
370
    -3
390
1D
347
266
  0
LAYER
  5
9645
330
2
100
AcDbSymbolTableRecord
100
AcDbLayerTableRecord
  2
202
 70
     0
 62
     1
  6
DASHED
370
    -3
390
1D
347
266
  0
ENDTAB
  0
TABLE
  2
STYLE
  5
3
330
0
100
AcDbSymbolTable
 70
     4
  0
STYLE
  5
17
330
3
100
AcDbSymbolTableRecord
100
AcDbTextStyleTableRecord
  2
Standard
 70
     0
 40
0.0
 41
1.0
 50
0.0
 71
     0
 42
2.5
  3
txt
  4
BIGFONT.SHX
  0
STYLE
  5
39
330
3
100
AcDbSymbolTableRecord
100
AcDbTextStyleTableRecord
  2
ＭＳ ゴシック
 70
     0
 40
0.0
 41
1.0
 50
0.0
 71
     0
 42
2.5
  3
msgothic.ttc
  4
ＭＳ ゴシック
1001
ACAD
1000
ＭＳ ゴシック
1071
        0
  0
ENDTAB
  0
TABLE
  2
VIEW
  5
5
330
0
100
AcDbSymbolTable
 70
     0
  0
ENDTAB
  0
TABLE
  2
UCS
  5
6
330
0
100
AcDbSymbolTable
 70
     0
  0
ENDTAB
  0
TABLE
  2
APPID
  5
8
330
0
100
AcDbSymbolTable
 70
     4
  0
APPID
  5
16
330
8
100
AcDbSymbolTableRecord
100
AcDbRegAppTableRecord
  2
ACAD
 70
     0
  0
APPID
  5
7AC
330
8
100
AcDbSymbolTableRecord
100
AcDbRegAppTableRecord
  2
AcAecLayerStandard
 70
     0
  0
APPID
  5
56DF
330
8
100
AcDbSymbolTableRecord
100
AcDbRegAppTableRecord
  2
ACAD_MLEADERVER
 70
     0
  0
APPID
  5
756E
330
8
100
AcDbSymbolTableRecord
100
AcDbRegAppTableRecord
  2
PE_DIMMEASUREMENT
 70
     0
  0
ENDTAB
  0
TABLE
  2
DIMSTYLE
  5
9
330
0
100
AcDbSymbolTable
 70
     2
100
AcDbDimStyleTable
  0
DIMSTYLE
105
18
330
9
100
AcDbSymbolTableRecord
100
AcDbDimStyleTableRecord
  2
Standard
 70
     0
178
     0
340
17
  0
DIMSTYLE
105
57
102
{ACAD_REACTORS
330
983E
330
984B
330
985A
102
}
330
9
100
AcDbSymbolTableRecord
100
AcDbDimStyleTableRecord
  2
tfrom線あり
 70
     0
  3
<>
  4
[]
 41
3.0
 42
10.0
 43
5.0
 44
0.0
 73
     0
 74
     0
 77
     1
 78
    11
140
12.0
141
0.0
143
1.0
147
5.0
171
     1
174
     1
178
     0
179
     2
271
     0
272
     1
276
     2
284
    11
285
    11
286
    11
289
     0
340
39
341
4E
342
4E
  0
ENDTAB
  0
TABLE
  2
BLOCK_RECORD
  5
1
330
0
100
AcDbSymbolTable
 70
    96
  0
BLOCK_RECORD
  5
A
102
{ACAD_XDICTIONARY
360
56F6
102
}
330
1
100
AcDbSymbolTableRecord
100
AcDbBlockTableRecord
  2
*MODEL_SPACE
340
20
 70
     0
280
     1
281
     0
  0
BLOCK_RECORD
  5
B
330
1
100
AcDbSymbolTableRecord
100
AcDbBlockTableRecord
  2
*PAPER_SPACE
340
21
 70
     0
280
     1
281
     0
  0
BLOCK_RECORD
  5
4E
330
1
100
AcDbSymbolTableRecord
100
AcDbBlockTableRecord
  2
_DOT
340
0
102
{BLKREFS
331
6015
331
6014
331
6024
331
6023
331
6023
331
6023
331
6168
331
6167
331
6177
331
6176
331
6186
331
6185
331
6195
331
6194
331
61A2
331
61A1
331
61B1
331
61B0
331
61BE
331
61BD
331
61CD
331
61CC
331
61DE
331
61DD
331
61ED
331
61EC
331
6202
331
6201
331
6211
331
6210
331
6220
331
621F
331
622D
331
622C
331
748C
331
748B
331
7499
331
7498
331
74A6
331
74A5
331
74B3
331
74B2
331
74C0
331
74BF
331
74CF
331
74CE
331
74DE
331
74DD
331
74EB
331
74EA
331
74FA
331
74F9
331
7507
331
7506
331
7520
331
0
331
751F
331
7521
331
7549
331
7548
331
867B
331
867A
331
868A
331
8689
331
8697
331
8696
331
86A7
331
86A6
331
86FC
331
86FB
331
95A0
331
959F
331
95AD
331
95AC
331
95BA
331
95B9
331
95C7
331
95C6
331
95D4
331
95D3
331
95E1
331
95E0
331
95F1
331
95F0
331
0
331
95FE
331
0
331
0
331
961D
331
0
331
9846
331
9845
331
9855
331
9854
331
9864
331
9863
102
}
 70
     0
280
     1
281
     0
  0
BLOCK_RECORD
  5
690
330
1
100
AcDbSymbolTableRecord
100
AcDbBlockTableRecord
  2
block 3
340
0
102
{BLKREFS
331
4EB0
102
}
 70
     0
280
     1
281
     0
  0
BLOCK_RECORD
  5
693
330
1
100
AcDbSymbolTableRecord
100
AcDbBlockTableRecord
  2
block 4
340
0
102
{BLKREFS
331
692
102
}
 70
     0
280
     1
281
     0
  0
BLOCK_RECORD
  5
6A2
330
1
100
AcDbSymbolTableRecord
100
AcDbBlockTableRecord
  2
block 5
340
0
102
{BLKREFS
331
6A1
102
}
 70
     0
280
     1
281
     0
  0
BLOCK_RECORD
  5
4EAB
330
1
100
AcDbSymbolTableRecord
100
AcDbBlockTableRecord
  2
名称未設定-1
340
0
102
{BLKREFS
331
51C7
102
}
 70
     1
280
     1
281
     0
  0
BLOCK_RECORD
  5
4EAE
330
1
100
AcDbSymbolTableRecord
100
AcDbBlockTableRecord
  2
block 2
340
0
102
{BLKREFS
331
4EAD
102
}
 70
     0
280
     1
281
     0
  0
BLOCK_RECORD
  5
8674
330
1
100
AcDbSymbolTableRecord
100
AcDbBlockTableRecord
  2
*D75
340
0
 70
     0
280
     1
281
     0
  0
BLOCK_RECORD
  5
8683
330
1
100
AcDbSymbolTableRecord
100
AcDbBlockTableRecord
  2
*D76
340
0
 70
     0
280
     1
281
     0
  0
BLOCK_RECORD
  5
8690
330
1
100
AcDbSymbolTableRecord
100
AcDbBlockTableRecord
  2
*D77
340
0
 70
     0
280
     1
281
     0
  0
BLOCK_RECORD
  5
86A0
330
1
100
AcDbSymbolTableRecord
100
AcDbBlockTableRecord
  2
*D78
340
0
 70
     0
280
     1
281
     0
  0
BLOCK_RECORD
  5
9599
330
1
100
AcDbSymbolTableRecord
100
AcDbBlockTableRecord
  2
*D81
340
0
 70
     0
280
     1
281
     0
  0
BLOCK_RECORD
  5
95A6
330
1
100
AcDbSymbolTableRecord
100
AcDbBlockTableRecord
  2
*D82
340
0
 70
     0
280
     1
281
     0
  0
BLOCK_RECORD
  5
95B3
330
1
100
AcDbSymbolTableRecord
100
AcDbBlockTableRecord
  2
*D83
340
0
 70
     0
280
     1
281
     0
  0
BLOCK_RECORD
  5
95C0
330
1
100
AcDbSymbolTableRecord
100
AcDbBlockTableRecord
  2
*D84
340
0
 70
     0
280
     1
281
     0
  0
BLOCK_RECORD
  5
95CD
330
1
100
AcDbSymbolTableRecord
100
AcDbBlockTableRecord
  2
*D85
340
0
 70
     0
280
     1
281
     0
  0
BLOCK_RECORD
  5
95DA
330
1
100
AcDbSymbolTableRecord
100
AcDbBlockTableRecord
  2
*D86
340
0
 70
     0
280
     1
281
     0
  0
BLOCK_RECORD
  5
95E9
330
1
100
AcDbSymbolTableRecord
100
AcDbBlockTableRecord
  2
*D87
340
0
 70
     0
280
     1
281
     0
  0
BLOCK_RECORD
  5
95F7
330
1
100
AcDbSymbolTableRecord
100
AcDbBlockTableRecord
  2
*D88
340
0
 70
     0
280
     1
281
     0
  0
BLOCK_RECORD
  5
9605
330
1
100
AcDbSymbolTableRecord
100
AcDbBlockTableRecord
  2
*D89
340
0
 70
     0
280
     1
281
     0
  0
BLOCK_RECORD
  5
9615
330
1
100
AcDbSymbolTableRecord
100
AcDbBlockTableRecord
  2
*D90
340
0
 70
     0
280
     1
281
     0
  0
BLOCK_RECORD
  5
983F
330
1
100
AcDbSymbolTableRecord
100
AcDbBlockTableRecord
  2
*D92
340
0
 70
     0
280
     1
281
     0
  0
BLOCK_RECORD
  5
984E
330
1
100
AcDbSymbolTableRecord
100
AcDbBlockTableRecord
  2
*D93
340
0
 70
     0
280
     1
281
     0
  0
BLOCK_RECORD
  5
985D
330
1
100
AcDbSymbolTableRecord
100
AcDbBlockTableRecord
  2
*D94
340
0
 70
     0
280
     1
281
     0
  0
ENDTAB
  0
ENDSEC
  0
SECTION
  2
BLOCKS
  0
BLOCK
  5
D
330
A
100
AcDbEntity
  8
0
390
1D
100
AcDbBlockBegin
  2
*MODEL_SPACE
 70
     0
 10
0.0
 20
0.0
 30
0.0
  3
*MODEL_SPACE
  1
*MODEL_SPACE
  0
ENDBLK
  5
E
330
A
100
AcDbEntity
  8
0
390
1D
100
AcDbBlockEnd
  0
BLOCK
  5
F
330
B
100
AcDbEntity
 67
     1
  8
0
390
1D
100
AcDbBlockBegin
  2
*PAPER_SPACE
 70
     0
 10
0.0
 20
0.0
 30
0.0
  3
*PAPER_SPACE
  1
*PAPER_SPACE
  0
ENDBLK
  5
10
330
B
100
AcDbEntity
 67
     1
  8
0
390
1D
100
AcDbBlockEnd
  0
BLOCK
  5
6003
330
4E
100
AcDbEntity
  8
0
390
1D
100
AcDbBlockBegin
  2
_DOT
 70
     0
 10
0.0
 20
0.0
 30
0.0
  3
_DOT
  1
_DOT
  0
POLYLINE
  5
6005
330
4E
100
AcDbEntity
  8
0
  6
ByBlock
 62
     0
370
    -2
390
1D
100
AcDb2dPolyline
 66
     1
 10
0.0
 20
0.0
 30
0.0
 70
     1
 40
0.5
 41
0.5
  0
VERTEX
  5
6006
330
6005
100
AcDbEntity
  8
0
  6
ByBlock
 62
     0
370
    -2
390
1D
100
AcDbVertex
100
AcDb2dVertex
 10
-0.25
 20
0.0
 30
0.0
 42
1.0
  0
VERTEX
  5
6007
330
6005
100
AcDbEntity
  8
0
  6
ByBlock
 62
     0
370
    -2
390
1D
100
AcDbVertex
100
AcDb2dVertex
 10
0.25
 20
0.0
 30
0.0
 42
1.0
  0
SEQEND
  5
6008
330
6005
100
AcDbEntity
  8
0
390
1D
  0
LINE
  5
6009
330
4E
100
AcDbEntity
  8
0
  6
ByBlock
 62
     0
370
    -2
390
1D
100
AcDbLine
 10
-0.5
 20
0.0
 30
0.0
 11
-1.0
 21
0.0
 31
0.0
  0
ENDBLK
  5
600A
330
4E
100
AcDbEntity
  8
0
390
1D
100
AcDbBlockEnd
  0
BLOCK
  5
691
330
690
100
AcDbEntity
  8
0
100
AcDbBlockBegin
  2
block 3
 70
     0
 10
0.0
 20
0.0
 30
0.0
  3
block 3
  1
block 3
  0
INSERT
  5
692
330
690
100
AcDbEntity
  8
レイヤー 1
100
AcDbBlockReference
  2
block 4
 10
0.0
 20
0.0
 30
0.0
  0
ENDBLK
  5
6AF
330
690
100
AcDbEntity
  8
0
100
AcDbBlockEnd
  0
BLOCK
  5
694
330
693
100
AcDbEntity
  8
0
100
AcDbBlockBegin
  2
block 4
 70
     0
 10
0.0
 20
0.0
 30
0.0
  3
block 4
  1
block 4
  0
POLYLINE
  5
695
330
693
100
AcDbEntity
  8
レイヤー 1
370
     0
100
AcDb2dPolyline
 66
     1
 10
0.0
 20
0.0
 30
0.0
  0
VERTEX
  5
696
330
695
100
AcDbEntity
  8
レイヤー 1
370
     0
100
AcDbVertex
100
AcDb2dVertex
 10
83.79545727667795
 20
167.6444858234922
 30
0.0
  0
VERTEX
  5
697
330
695
100
AcDbEntity
  8
レイヤー 1
370
     0
100
AcDbVertex
100
AcDb2dVertex
 10
83.79545727667795
 20
159.7968976406313
 30
0.0
  0
VERTEX
  5
698
330
695
100
AcDbEntity
  8
レイヤー 1
370
     0
100
AcDbVertex
100
AcDb2dVertex
 10
71.3631329975216
 20
159.7968976406313
 30
0.0
  0
VERTEX
  5
699
330
695
100
AcDbEntity
  8
レイヤー 1
370
     0
100
AcDbVertex
100
AcDb2dVertex
 10
71.3631329975216
 20
127.8027915271048
 30
0.0
  0
VERTEX
  5
69A
330
695
100
AcDbEntity
  8
レイヤー 1
370
     0
100
AcDbVertex
100
AcDb2dVertex
 10
60.43011526263018
 20
127.8027915271048
 30
0.0
  0
VERTEX
  5
69B
330
695
100
AcDbEntity
  8
レイヤー 1
370
     0
100
AcDbVertex
100
AcDb2dVertex
 10
60.43011526263018
 20
159.7968976406313
 30
0.0
  0
VERTEX
  5
69C
330
695
100
AcDbEntity
  8
レイヤー 1
370
     0
100
AcDbVertex
100
AcDb2dVertex
 10
48.21793273020759
 20
159.7968976406313
 30
0.0
  0
VERTEX
  5
69D
330
695
100
AcDbEntity
  8
レイヤー 1
370
     0
100
AcDbVertex
100
AcDb2dVertex
 10
48.21793273020759
 20
167.6444858234922
 30
0.0
  0
VERTEX
  5
69E
330
695
100
AcDbEntity
  8
レイヤー 1
370
     0
100
AcDbVertex
100
AcDb2dVertex
 10
83.79545727667795
 20
167.6444858234922
 30
0.0
  0
SEQEND
  5
69F
330
695
100
AcDbEntity
  8
レイヤー 1
370
     0
  0
HATCH
  5
6A0
330
693
100
AcDbEntity
  8
レイヤー 1
 62
   250
420
  2234388
100
AcDbHatch
 10
0.0
 20
0.0
 30
0.0
210
0.0
220
0.0
230
1.0
  2
SOLID
 70
     1
 71
     0
 91
        1
 92
        1
 93
        8
 72
     1
 10
83.79545727667795
 20
167.6444858234922
 11
83.79545727667795
 21
159.7968976406313
 72
     1
 10
83.79545727667795
 20
159.7968976406313
 11
71.3631329975216
 21
159.7968976406313
 72
     1
 10
71.3631329975216
 20
159.7968976406313
 11
71.3631329975216
 21
127.8027915271048
 72
     1
 10
71.3631329975216
 20
127.8027915271048
 11
60.43011526263018
 21
127.8027915271048
 72
     1
 10
60.43011526263018
 20
127.8027915271048
 11
60.43011526263018
 21
159.7968976406313
 72
     1
 10
60.43011526263018
 20
159.7968976406313
 11
48.21793273020759
 21
159.7968976406313
 72
     1
 10
48.21793273020759
 20
159.7968976406313
 11
48.21793273020759
 21
167.6444858234922
 72
     1
 10
48.21793273020759
 20
167.6444858234922
 11
83.79545727667795
 21
167.6444858234922
 97
        0
 75
     2
 76
     1
 98
        0
  0
INSERT
  5
6A1
330
693
100
AcDbEntity
  8
レイヤー 1
100
AcDbBlockReference
  2
block 5
 10
0.0
 20
0.0
 30
0.0
  0
ENDBLK
  5
6AE
330
693
100
AcDbEntity
  8
0
100
AcDbBlockEnd
  0
BLOCK
  5
6A3
330
6A2
100
AcDbEntity
  8
0
100
AcDbBlockBegin
  2
block 5
 70
     0
 10
0.0
 20
0.0
 30
0.0
  3
block 5
  1
block 5
  0
SPLINE
  5
6A4
330
6A2
100
AcDbEntity
  8
レイヤー 1
370
     0
100
AcDbSpline
210
0.0
220
0.0
230
1.0
 70
    11
 71
     3
 72
    56
 73
    52
 74
     0
 42
0.000000001
 43
0.0000000001
 40
0.0
 40
0.0
 40
0.0
 40
0.0
 40
1.0
 40
1.0
 40
1.0
 40
2.0
 40
2.0
 40
2.0
 40
3.0
 40
3.0
 40
3.0
 40
4.0
 40
4.0
 40
4.0
 40
5.0
 40
5.0
 40
5.0
 40
6.0
 40
6.0
 40
6.0
 40
7.0
 40
7.0
 40
7.0
 40
8.0
 40
8.0
 40
8.0
 40
9.0
 40
9.0
 40
9.0
 40
10.0
 40
10.0
 40
10.0
 40
11.0
 40
11.0
 40
11.0
 40
12.0
 40
12.0
 40
12.0
 40
13.0
 40
13.0
 40
13.0
 40
14.0
 40
14.0
 40
14.0
 40
15.0
 40
15.0
 40
15.0
 40
16.0
 40
16.0
 40
16.0
 40
17.0
 40
17.0
 40
17.0
 40
17.0
 10
100.4504378777679
 20
166.69157178364
 30
0.0
 10
101.9848844191641
 20
167.1313385124438
 30
0.0
 10
103.9637485713373
 20
166.7649523658846
 30
0.0
 10
103.9637485713373
 20
166.7649523658846
 30
0.0
 10
103.9637485713373
 20
166.7649523658846
 30
0.0
 10
103.0132460999156
 20
163.911205638077
 30
0.0
 10
103.0132460999156
 20
163.911205638077
 30
0.0
 10
103.0132460999156
 20
163.911205638077
 30
0.0
 10
101.0674548862189
 20
164.3601018759394
 30
0.0
 10
99.57090442016032
 20
163.1805004036133
 30
0.0
 10
98.40508333886608
 20
162.258247733807
 30
0.0
 10
97.65301849830304
 20
159.804132345923
 30
0.0
 10
97.3598406791005
 20
158.8699940888517
 30
0.0
 10
97.3598406791005
 20
158.8699940888517
 30
0.0
 10
96.07137411762282
 20
154.9119212747295
 30
0.0
 10
96.07137411762282
 20
154.9119212747295
 30
0.0
 10
96.07137411762282
 20
154.9119212747295
 30
0.0
 10
100.3012651448482
 20
154.9119212747295
 30
0.0
 10
100.3012651448482
 20
154.9119212747295
 30
0.0
 10
100.3012651448482
 20
154.9119212747295
 30
0.0
 10
99.64152892419852
 20
152.4199098115079
 30
0.0
 10
99.64152892419852
 20
152.4199098115079
 30
0.0
 10
99.64152892419852
 20
152.4199098115079
 30
0.0
 10
95.38097652692731
 20
152.4199098115079
 30
0.0
 10
95.38097652692731
 20
152.4199098115079
 30
0.0
 10
95.38097652692731
 20
152.4199098115079
 30
0.0
 10
87.75353009080013
 20
127.8027915271048
 30
0.0
 10
87.75353009080013
 20
127.8027915271048
 30
0.0
 10
87.75353009080013
 20
127.8027915271048
 30
0.0
 10
85.36538832498108
 20
127.8027915271048
 30
0.0
 10
85.36538832498108
 20
127.8027915271048
 30
0.0
 10
85.36538832498108
 20
127.8027915271048
 30
0.0
 10
93.00006946639998
 20
152.4199098115079
 30
0.0
 10
93.00006946639998
 20
152.4199098115079
 30
0.0
 10
93.00006946639998
 20
152.4199098115079
 30
0.0
 10
89.85297266450198
 20
152.4199098115079
 30
0.0
 10
89.85297266450198
 20
152.4199098115079
 30
0.0
 10
89.85297266450198
 20
152.4199098115079
 30
0.0
 10
90.51270888515164
 20
154.9119212747295
 30
0.0
 10
90.51270888515164
 20
154.9119212747295
 30
0.0
 10
90.51270888515164
 20
154.9119212747295
 30
0.0
 10
93.6904670570955
 20
154.9119212747295
 30
0.0
 10
93.6904670570955
 20
154.9119212747295
 30
0.0
 10
93.6904670570955
 20
154.9119212747295
 30
0.0
 10
94.81598049462158
 20
158.3616699146644
 30
0.0
 10
94.81598049462158
 20
158.3616699146644
 30
0.0
 10
95.7237637538445
 20
161.2605474231013
 30
0.0
 10
96.4968436907311
 20
162.8139420021662
 30
0.0
 10
97.15657991138076
 20
163.9844139654337
 30
0.0
 10
97.81183750494507
 20
165.1523021053827
 30
0.0
 10
99.1047826935081
 20
166.3084769129547
 30
0.0
 10
100.4504378777679
 20
166.69157178364
 30
0.0
  0
HATCH
  5
6A5
330
6A2
100
AcDbEntity
  8
レイヤー 1
 62
   250
420
  2234388
100
AcDbHatch
 10
0.0
 20
0.0
 30
0.0
210
0.0
220
0.0
230
1.0
  2
SOLID
 70
     1
 71
     0
 91
        1
 92
        1
 93
        1
 72
     4
 94
        3
 73
     0
 74
     1
 95
       56
 96
       52
 40
0.0
 40
0.0
 40
0.0
 40
0.0
 40
1.0
 40
1.0
 40
1.0
 40
2.0
 40
2.0
 40
2.0
 40
3.0
 40
3.0
 40
3.0
 40
4.0
 40
4.0
 40
4.0
 40
5.0
 40
5.0
 40
5.0
 40
6.0
 40
6.0
 40
6.0
 40
7.0
 40
7.0
 40
7.0
 40
8.0
 40
8.0
 40
8.0
 40
9.0
 40
9.0
 40
9.0
 40
10.0
 40
10.0
 40
10.0
 40
11.0
 40
11.0
 40
11.0
 40
12.0
 40
12.0
 40
12.0
 40
13.0
 40
13.0
 40
13.0
 40
14.0
 40
14.0
 40
14.0
 40
15.0
 40
15.0
 40
15.0
 40
16.0
 40
16.0
 40
16.0
 40
17.0
 40
17.0
 40
17.0
 40
17.0
 10
100.4504378777679
 20
166.69157178364
 10
101.9848844191641
 20
167.1313385124438
 10
103.9637485713373
 20
166.7649523658846
 10
103.9637485713373
 20
166.7649523658846
 10
103.9637485713373
 20
166.7649523658846
 10
103.0132460999156
 20
163.911205638077
 10
103.0132460999156
 20
163.911205638077
 10
103.0132460999156
 20
163.911205638077
 10
101.0674548862189
 20
164.3601018759394
 10
99.57090442016032
 20
163.1805004036133
 10
98.40508333886608
 20
162.258247733807
 10
97.65301849830304
 20
159.804132345923
 10
97.3598406791005
 20
158.8699940888517
 10
97.3598406791005
 20
158.8699940888517
 10
96.07137411762282
 20
154.9119212747295
 10
96.07137411762282
 20
154.9119212747295
 10
96.07137411762282
 20
154.9119212747295
 10
100.3012651448482
 20
154.9119212747295
 10
100.3012651448482
 20
154.9119212747295
 10
100.3012651448482
 20
154.9119212747295
 10
99.64152892419852
 20
152.4199098115079
 10
99.64152892419852
 20
152.4199098115079
 10
99.64152892419852
 20
152.4199098115079
 10
95.38097652692731
 20
152.4199098115079
 10
95.38097652692731
 20
152.4199098115079
 10
95.38097652692731
 20
152.4199098115079
 10
87.75353009080013
 20
127.8027915271048
 10
87.75353009080013
 20
127.8027915271048
 10
87.75353009080013
 20
127.8027915271048
 10
85.36538832498108
 20
127.8027915271048
 10
85.36538832498108
 20
127.8027915271048
 10
85.36538832498108
 20
127.8027915271048
 10
93.00006946639998
 20
152.4199098115079
 10
93.00006946639998
 20
152.4199098115079
 10
93.00006946639998
 20
152.4199098115079
 10
89.85297266450198
 20
152.4199098115079
 10
89.85297266450198
 20
152.4199098115079
 10
89.85297266450198
 20
152.4199098115079
 10
90.51270888515164
 20
154.9119212747295
 10
90.51270888515164
 20
154.9119212747295
 10
90.51270888515164
 20
154.9119212747295
 10
93.6904670570955
 20
154.9119212747295
 10
93.6904670570955
 20
154.9119212747295
 10
93.6904670570955
 20
154.9119212747295
 10
94.81598049462158
 20
158.3616699146644
 10
94.81598049462158
 20
158.3616699146644
 10
95.7237637538445
 20
161.2605474231013
 10
96.4968436907311
 20
162.8139420021662
 10
97.15657991138076
 20
163.9844139654337
 10
97.81183750494507
 20
165.1523021053827
 10
99.1047826935081
 20
166.3084769129547
 10
100.4504378777679
 20
166.69157178364
 97
        0
 75
     2
 76
     1
 98
        0
  0
SPLINE
  5
6A6
330
6A2
100
AcDbEntity
  8
レイヤー 1
370
     0
100
AcDbSpline
210
0.0
220
0.0
230
1.0
 70
    11
 71
     3
 72
    38
 73
    34
 74
     0
 42
0.000000001
 43
0.0000000001
 40
0.0
 40
0.0
 40
0.0
 40
0.0
 40
1.0
 40
1.0
 40
1.0
 40
2.0
 40
2.0
 40
2.0
 40
3.0
 40
3.0
 40
3.0
 40
4.0
 40
4.0
 40
4.0
 40
5.0
 40
5.0
 40
5.0
 40
6.0
 40
6.0
 40
6.0
 40
7.0
 40
7.0
 40
7.0
 40
8.0
 40
8.0
 40
8.0
 40
9.0
 40
9.0
 40
9.0
 40
10.0
 40
10.0
 40
10.0
 40
11.0
 40
11.0
 40
11.0
 40
11.0
 10
126.377554584636
 20
154.8151140277308
 30
0.0
 10
126.377554584636
 20
154.8151140277308
 30
0.0
 10
128.8311532078563
 20
154.8151140277308
 30
0.0
 10
128.8311532078563
 20
154.8151140277308
 30
0.0
 10
128.8311532078563
 20
154.8151140277308
 30
0.0
 10
127.7345785914971
 20
151.3062819612468
 30
0.0
 10
127.7345785914971
 20
151.3062819612468
 30
0.0
 10
128.571392836906
 20
152.2922689395754
 30
0.0
 10
129.8860421413442
 20
153.604506675583
 30
0.0
 10
131.0163787157314
 20
154.2664822097754
 30
0.0
 10
132.7044766171327
 20
155.2500576196734
 30
0.0
 10
133.6642808525008
 20
155.3847609420097
 30
0.0
 10
134.7284715499351
 20
155.3565111403944
 30
0.0
 10
134.7284715499351
 20
155.3565111403944
 30
0.0
 10
133.6877075172549
 20
152.0345756272799
 30
0.0
 10
133.6877075172549
 20
152.0345756272799
 30
0.0
 10
133.011434827367
 20
152.3184516825359
 30
0.0
 10
130.930940291334
 20
151.7768823149844
 30
0.0
 10
129.739280976855
 20
150.9162968950455
 30
0.0
 10
128.66613302525
 20
150.1454562717016
 30
0.0
 10
127.9192358313239
 20
149.4857200510519
 30
0.0
 10
127.0393578639405
 20
147.8282835196966
 30
0.0
 10
126.164647543194
 20
146.1699857139017
 30
0.0
 10
125.4742499524985
 20
143.5262176944419
 30
0.0
 10
124.2822461282437
 20
139.6959580071401
 30
0.0
 10
124.2822461282437
 20
139.6959580071401
 30
0.0
 10
120.5753209406769
 20
127.8027915271048
 30
0.0
 10
120.5753209406769
 20
127.8027915271048
 30
0.0
 10
120.5753209406769
 20
127.8027915271048
 30
0.0
 10
118.1964809388044
 20
127.8027915271048
 30
0.0
 10
118.1964809388044
 20
127.8027915271048
 30
0.0
 10
118.1964809388044
 20
127.8027915271048
 30
0.0
 10
126.377554584636
 20
154.8151140277308
 30
0.0
 10
126.377554584636
 20
154.8151140277308
 30
0.0
  0
HATCH
  5
6A7
330
6A2
100
AcDbEntity
  8
レイヤー 1
 62
   250
420
  2234388
100
AcDbHatch
 10
0.0
 20
0.0
 30
0.0
210
0.0
220
0.0
230
1.0
  2
SOLID
 70
     1
 71
     0
 91
        1
 92
        1
 93
        1
 72
     4
 94
        3
 73
     0
 74
     1
 95
       38
 96
       34
 40
0.0
 40
0.0
 40
0.0
 40
0.0
 40
1.0
 40
1.0
 40
1.0
 40
2.0
 40
2.0
 40
2.0
 40
3.0
 40
3.0
 40
3.0
 40
4.0
 40
4.0
 40
4.0
 40
5.0
 40
5.0
 40
5.0
 40
6.0
 40
6.0
 40
6.0
 40
7.0
 40
7.0
 40
7.0
 40
8.0
 40
8.0
 40
8.0
 40
9.0
 40
9.0
 40
9.0
 40
10.0
 40
10.0
 40
10.0
 40
11.0
 40
11.0
 40
11.0
 40
11.0
 10
126.377554584636
 20
154.8151140277308
 10
126.377554584636
 20
154.8151140277308
 10
128.8311532078563
 20
154.8151140277308
 10
128.8311532078563
 20
154.8151140277308
 10
128.8311532078563
 20
154.8151140277308
 10
127.7345785914971
 20
151.3062819612468
 10
127.7345785914971
 20
151.3062819612468
 10
128.571392836906
 20
152.2922689395754
 10
129.8860421413442
 20
153.604506675583
 10
131.0163787157314
 20
154.2664822097754
 10
132.7044766171327
 20
155.2500576196734
 10
133.6642808525008
 20
155.3847609420097
 10
134.7284715499351
 20
155.3565111403944
 10
134.7284715499351
 20
155.3565111403944
 10
133.6877075172549
 20
152.0345756272799
 10
133.6877075172549
 20
152.0345756272799
 10
133.011434827367
 20
152.3184516825359
 10
130.930940291334
 20
151.7768823149844
 10
129.739280976855
 20
150.9162968950455
 10
128.66613302525
 20
150.1454562717016
 10
127.9192358313239
 20
149.4857200510519
 10
127.0393578639405
 20
147.8282835196966
 10
126.164647543194
 20
146.1699857139017
 10
125.4742499524985
 20
143.5262176944419
 10
124.2822461282437
 20
139.6959580071401
 10
124.2822461282437
 20
139.6959580071401
 10
120.5753209406769
 20
127.8027915271048
 10
120.5753209406769
 20
127.8027915271048
 10
120.5753209406769
 20
127.8027915271048
 10
118.1964809388044
 20
127.8027915271048
 10
118.1964809388044
 20
127.8027915271048
 10
118.1964809388044
 20
127.8027915271048
 10
126.377554584636
 20
154.8151140277308
 10
126.377554584636
 20
154.8151140277308
 97
        0
 75
     2
 76
     1
 98
        0
  0
SPLINE
  5
6A8
330
6A2
100
AcDbEntity
  8
レイヤー 1
370
     0
100
AcDbSpline
210
0.0
220
0.0
230
1.0
 70
    11
 71
     3
 72
   104
 73
   100
 74
     0
 42
0.000000001
 43
0.0000000001
 40
0.0
 40
0.0
 40
0.0
 40
0.0
 40
1.0
 40
1.0
 40
1.0
 40
2.0
 40
2.0
 40
2.0
 40
3.0
 40
3.0
 40
3.0
 40
4.0
 40
4.0
 40
4.0
 40
5.0
 40
5.0
 40
5.0
 40
6.0
 40
6.0
 40
6.0
 40
7.0
 40
7.0
 40
7.0
 40
8.0
 40
8.0
 40
8.0
 40
9.0
 40
9.0
 40
9.0
 40
10.0
 40
10.0
 40
10.0
 40
11.0
 40
11.0
 40
11.0
 40
12.0
 40
12.0
 40
12.0
 40
13.0
 40
13.0
 40
13.0
 40
14.0
 40
14.0
 40
14.0
 40
15.0
 40
15.0
 40
15.0
 40
16.0
 40
16.0
 40
16.0
 40
17.0
 40
17.0
 40
17.0
 40
18.0
 40
18.0
 40
18.0
 40
19.0
 40
19.0
 40
19.0
 40
20.0
 40
20.0
 40
20.0
 40
21.0
 40
21.0
 40
21.0
 40
22.0
 40
22.0
 40
22.0
 40
23.0
 40
23.0
 40
23.0
 40
24.0
 40
24.0
 40
24.0
 40
25.0
 40
25.0
 40
25.0
 40
26.0
 40
26.0
 40
26.0
 40
27.0
 40
27.0
 40
27.0
 40
28.0
 40
28.0
 40
28.0
 40
29.0
 40
29.0
 40
29.0
 40
30.0
 40
30.0
 40
30.0
 40
31.0
 40
31.0
 40
31.0
 40
32.0
 40
32.0
 40
32.0
 40
33.0
 40
33.0
 40
33.0
 40
33.0
 10
139.8926730891197
 20
154.8294111834263
 30
0.0
 10
139.8926730891197
 20
154.8294111834263
 30
0.0
 10
142.0344903652445
 20
154.8294111834263
 30
0.0
 10
142.0344903652445
 20
154.8294111834263
 30
0.0
 10
142.0344903652445
 20
154.8294111834263
 30
0.0
 10
140.9516961399171
 20
151.3157559800812
 30
0.0
 10
140.9516961399171
 20
151.3157559800812
 30
0.0
 10
141.8928968473923
 20
152.7887075264977
 30
0.0
 10
142.7341897198865
 20
153.4484437471474
 30
0.0
 10
143.8552245303272
 20
154.2926649527359
 30
0.0
 10
144.9803934580775
 20
155.1296514530327
 30
0.0
 10
146.3139908001845
 20
155.3044901642492
 30
0.0
 10
147.241066606852
 20
155.3044901642492
 30
0.0
 10
148.3855280820469
 20
155.3044901642492
 30
0.0
 10
149.4969166187653
 20
155.0752189084569
 30
0.0
 10
150.0784491203092
 20
153.8172414621372
 30
0.0
 10
150.5228667310863
 20
152.833838307127
 30
0.0
 10
150.5414702589793
 20
152.7201500811143
 30
0.0
 10
150.4140016419347
 20
150.7765981809602
 30
0.0
 10
151.5818897818837
 20
152.7699317437168
 30
0.0
 10
152.4424752018226
 20
153.6256940267945
 30
0.0
 10
153.9038856707499
 20
154.4507949398263
 30
0.0
 10
155.4455669174378
 20
155.3044901642492
 30
0.0
 10
156.339225275853
 20
155.3659851592288
 30
0.0
 10
157.3748216618963
 20
155.2147453676543
 30
0.0
 10
158.911679771723
 20
154.9877134254046
 30
0.0
 10
159.8859534176746
 20
154.4390816074493
 30
0.0
 10
160.3965169054045
 20
152.7816450760939
 30
0.0
 10
160.9070803931344
 20
151.1219692311958
 30
0.0
 10
160.6328506116007
 20
150.2303779314354
 30
0.0
 10
159.9992971339115
 20
147.597634224801
 30
0.0
 10
159.7105979417943
 20
146.4014962832367
 30
0.0
 10
159.2947746424084
 20
144.9400858143094
 30
0.0
 10
158.7463150793409
 20
143.2092687007094
 30
0.0
 10
158.7463150793409
 20
143.2092687007094
 30
0.0
 10
153.9038856707499
 20
127.8027915271048
 30
0.0
 10
153.9038856707499
 20
127.8027915271048
 30
0.0
 10
153.9038856707499
 20
127.8027915271048
 30
0.0
 10
151.3882752878863
 20
127.8027915271048
 30
0.0
 10
151.3882752878863
 20
127.8027915271048
 30
0.0
 10
151.3882752878863
 20
127.8027915271048
 30
0.0
 10
155.6250565106276
 20
141.2751908193897
 30
0.0
 10
155.6250565106276
 20
141.2751908193897
 30
0.0
 10
156.5094131050963
 20
144.0936252951782
 30
0.0
 10
157.109893644309
 20
146.1506931664571
 30
0.0
 10
157.4220195011804
 20
147.4415712963654
 30
0.0
 10
157.8095929989511
 20
149.0530157726519
 30
0.0
 10
157.9656559273867
 20
149.5826995529385
 30
0.0
 10
157.7816877071116
 20
150.7529992613181
 30
0.0
 10
157.6111553680925
 20
151.8430281919372
 30
0.0
 10
157.0582171779396
 20
152.5547853887321
 30
0.0
 10
156.1170164704645
 20
152.5547853887321
 30
0.0
 10
155.1096698860365
 20
152.5547853887321
 30
0.0
 10
154.2962823053817
 20
152.4412694176073
 30
0.0
 10
153.156643967048
 20
151.2945686288697
 30
0.0
 10
152.0170056287143
 20
150.1476955852443
 30
0.0
 10
151.076149431015
 20
148.7930831468137
 30
0.0
 10
150.3337308641742
 20
147.2290087646991
 30
0.0
 10
149.5957909244188
 20
145.6683794803425
 30
0.0
 10
148.8530278478023
 20
143.6822806228776
 30
0.0
 10
148.0964843801539
 20
141.2751908193897
 30
0.0
 10
148.0964843801539
 20
141.2751908193897
 30
0.0
 10
143.8552245303272
 20
127.8027915271048
 30
0.0
 10
143.8552245303272
 20
127.8027915271048
 30
0.0
 10
143.8552245303272
 20
127.8027915271048
 30
0.0
 10
141.486030802177
 20
127.8027915271048
 30
0.0
 10
141.486030802177
 20
127.8027915271048
 30
0.0
 10
141.486030802177
 20
127.8027915271048
 30
0.0
 10
146.3329388378533
 20
143.2092687007094
 30
0.0
 10
146.3329388378533
 20
143.2092687007094
 30
0.0
 10
146.8483254624444
 20
144.8408669988801
 30
0.0
 10
147.2314203331297
 20
146.1837661049335
 30
0.0
 10
147.4867020769946
 20
147.224185627838
 30
0.0
 10
147.9169947869641
 20
149.0197705792876
 30
0.0
 10
148.0306830129768
 20
150.2400242051577
 30
0.0
 10
147.709255392159
 20
151.3157559800812
 30
0.0
 10
147.3874832615654
 20
152.3916600098926
 30
0.0
 10
146.8245542879144
 20
152.6683013598569
 30
0.0
 10
145.8840425999909
 20
152.6683013598569
 30
0.0
 10
145.0989048209514
 20
152.6683013598569
 30
0.0
 10
144.3282364524954
 20
152.3275811915945
 30
0.0
 10
143.4531816219731
 20
151.6538923250251
 30
0.0
 10
142.34627171234
 20
150.8074318058939
 30
0.0
 10
141.901854101563
 20
150.1097995099067
 30
0.0
 10
141.3578731655808
 20
149.289521733736
 30
0.0
 10
140.6299240093235
 20
148.192602607601
 30
0.0
 10
140.2850697237515
 20
147.455696197173
 30
0.0
 10
139.6652966370942
 20
145.8385673095858
 30
0.0
 10
139.0506911970739
 20
144.2214384219986
 30
0.0
 10
138.463991048893
 20
142.3252566160164
 30
0.0
 10
138.0571250036777
 20
141.0154304484394
 30
0.0
 10
138.0571250036777
 20
141.0154304484394
 30
0.0
 10
133.9009590684727
 20
127.8027915271048
 30
0.0
 10
133.9009590684727
 20
127.8027915271048
 30
0.0
 10
133.9009590684727
 20
127.8027915271048
 30
0.0
 10
131.4180771143097
 20
127.8027915271048
 30
0.0
 10
131.4180771143097
 20
127.8027915271048
 30
0.0
 10
131.4180771143097
 20
127.8027915271048
 30
0.0
 10
139.8926730891197
 20
154.8294111834263
 30
0.0
 10
139.8926730891197
 20
154.8294111834263
 30
0.0
  0
HATCH
  5
6A9
330
6A2
100
AcDbEntity
  8
レイヤー 1
 62
   250
420
  2234388
100
AcDbHatch
 10
0.0
 20
0.0
 30
0.0
210
0.0
220
0.0
230
1.0
  2
SOLID
 70
     1
 71
     0
 91
        1
 92
        1
 93
        1
 72
     4
 94
        3
 73
     0
 74
     1
 95
      104
 96
      100
 40
0.0
 40
0.0
 40
0.0
 40
0.0
 40
1.0
 40
1.0
 40
1.0
 40
2.0
 40
2.0
 40
2.0
 40
3.0
 40
3.0
 40
3.0
 40
4.0
 40
4.0
 40
4.0
 40
5.0
 40
5.0
 40
5.0
 40
6.0
 40
6.0
 40
6.0
 40
7.0
 40
7.0
 40
7.0
 40
8.0
 40
8.0
 40
8.0
 40
9.0
 40
9.0
 40
9.0
 40
10.0
 40
10.0
 40
10.0
 40
11.0
 40
11.0
 40
11.0
 40
12.0
 40
12.0
 40
12.0
 40
13.0
 40
13.0
 40
13.0
 40
14.0
 40
14.0
 40
14.0
 40
15.0
 40
15.0
 40
15.0
 40
16.0
 40
16.0
 40
16.0
 40
17.0
 40
17.0
 40
17.0
 40
18.0
 40
18.0
 40
18.0
 40
19.0
 40
19.0
 40
19.0
 40
20.0
 40
20.0
 40
20.0
 40
21.0
 40
21.0
 40
21.0
 40
22.0
 40
22.0
 40
22.0
 40
23.0
 40
23.0
 40
23.0
 40
24.0
 40
24.0
 40
24.0
 40
25.0
 40
25.0
 40
25.0
 40
26.0
 40
26.0
 40
26.0
 40
27.0
 40
27.0
 40
27.0
 40
28.0
 40
28.0
 40
28.0
 40
29.0
 40
29.0
 40
29.0
 40
30.0
 40
30.0
 40
30.0
 40
31.0
 40
31.0
 40
31.0
 40
32.0
 40
32.0
 40
32.0
 40
33.0
 40
33.0
 40
33.0
 40
33.0
 10
139.8926730891197
 20
154.8294111834263
 10
139.8926730891197
 20
154.8294111834263
 10
142.0344903652445
 20
154.8294111834263
 10
142.0344903652445
 20
154.8294111834263
 10
142.0344903652445
 20
154.8294111834263
 10
140.9516961399171
 20
151.3157559800812
 10
140.9516961399171
 20
151.3157559800812
 10
141.8928968473923
 20
152.7887075264977
 10
142.7341897198865
 20
153.4484437471474
 10
143.8552245303272
 20
154.2926649527359
 10
144.9803934580775
 20
155.1296514530327
 10
146.3139908001845
 20
155.3044901642492
 10
147.241066606852
 20
155.3044901642492
 10
148.3855280820469
 20
155.3044901642492
 10
149.4969166187653
 20
155.0752189084569
 10
150.0784491203092
 20
153.8172414621372
 10
150.5228667310863
 20
152.833838307127
 10
150.5414702589793
 20
152.7201500811143
 10
150.4140016419347
 20
150.7765981809602
 10
151.5818897818837
 20
152.7699317437168
 10
152.4424752018226
 20
153.6256940267945
 10
153.9038856707499
 20
154.4507949398263
 10
155.4455669174378
 20
155.3044901642492
 10
156.339225275853
 20
155.3659851592288
 10
157.3748216618963
 20
155.2147453676543
 10
158.911679771723
 20
154.9877134254046
 10
159.8859534176746
 20
154.4390816074493
 10
160.3965169054045
 20
152.7816450760939
 10
160.9070803931344
 20
151.1219692311958
 10
160.6328506116007
 20
150.2303779314354
 10
159.9992971339115
 20
147.597634224801
 10
159.7105979417943
 20
146.4014962832367
 10
159.2947746424084
 20
144.9400858143094
 10
158.7463150793409
 20
143.2092687007094
 10
158.7463150793409
 20
143.2092687007094
 10
153.9038856707499
 20
127.8027915271048
 10
153.9038856707499
 20
127.8027915271048
 10
153.9038856707499
 20
127.8027915271048
 10
151.3882752878863
 20
127.8027915271048
 10
151.3882752878863
 20
127.8027915271048
 10
151.3882752878863
 20
127.8027915271048
 10
155.6250565106276
 20
141.2751908193897
 10
155.6250565106276
 20
141.2751908193897
 10
156.5094131050963
 20
144.0936252951782
 10
157.109893644309
 20
146.1506931664571
 10
157.4220195011804
 20
147.4415712963654
 10
157.8095929989511
 20
149.0530157726519
 10
157.9656559273867
 20
149.5826995529385
 10
157.7816877071116
 20
150.7529992613181
 10
157.6111553680925
 20
151.8430281919372
 10
157.0582171779396
 20
152.5547853887321
 10
156.1170164704645
 20
152.5547853887321
 10
155.1096698860365
 20
152.5547853887321
 10
154.2962823053817
 20
152.4412694176073
 10
153.156643967048
 20
151.2945686288697
 10
152.0170056287143
 20
150.1476955852443
 10
151.076149431015
 20
148.7930831468137
 10
150.3337308641742
 20
147.2290087646991
 10
149.5957909244188
 20
145.6683794803425
 10
148.8530278478023
 20
143.6822806228776
 10
148.0964843801539
 20
141.2751908193897
 10
148.0964843801539
 20
141.2751908193897
 10
143.8552245303272
 20
127.8027915271048
 10
143.8552245303272
 20
127.8027915271048
 10
143.8552245303272
 20
127.8027915271048
 10
141.486030802177
 20
127.8027915271048
 10
141.486030802177
 20
127.8027915271048
 10
141.486030802177
 20
127.8027915271048
 10
146.3329388378533
 20
143.2092687007094
 10
146.3329388378533
 20
143.2092687007094
 10
146.8483254624444
 20
144.8408669988801
 10
147.2314203331297
 20
146.1837661049335
 10
147.4867020769946
 20
147.224185627838
 10
147.9169947869641
 20
149.0197705792876
 10
148.0306830129768
 20
150.2400242051577
 10
147.709255392159
 20
151.3157559800812
 10
147.3874832615654
 20
152.3916600098926
 10
146.8245542879144
 20
152.6683013598569
 10
145.8840425999909
 20
152.6683013598569
 10
145.0989048209514
 20
152.6683013598569
 10
144.3282364524954
 20
152.3275811915945
 10
143.4531816219731
 20
151.6538923250251
 10
142.34627171234
 20
150.8074318058939
 10
141.901854101563
 20
150.1097995099067
 10
141.3578731655808
 20
149.289521733736
 10
140.6299240093235
 20
148.192602607601
 10
140.2850697237515
 20
147.455696197173
 10
139.6652966370942
 20
145.8385673095858
 10
139.0506911970739
 20
144.2214384219986
 10
138.463991048893
 20
142.3252566160164
 10
138.0571250036777
 20
141.0154304484394
 10
138.0571250036777
 20
141.0154304484394
 10
133.9009590684727
 20
127.8027915271048
 10
133.9009590684727
 20
127.8027915271048
 10
133.9009590684727
 20
127.8027915271048
 10
131.4180771143097
 20
127.8027915271048
 10
131.4180771143097
 20
127.8027915271048
 10
131.4180771143097
 20
127.8027915271048
 10
139.8926730891197
 20
154.8294111834263
 10
139.8926730891197
 20
154.8294111834263
 97
        0
 75
     2
 76
     1
 98
        0
  0
SPLINE
  5
6AA
330
6A2
100
AcDbEntity
  8
レイヤー 1
370
     0
100
AcDbSpline
210
0.0
220
0.0
230
1.0
 70
    11
 71
     3
 72
    29
 73
    25
 74
     0
 42
0.000000001
 43
0.0000000001
 40
0.0
 40
0.0
 40
0.0
 40
0.0
 40
1.0
 40
1.0
 40
1.0
 40
2.0
 40
2.0
 40
2.0
 40
3.0
 40
3.0
 40
3.0
 40
4.0
 40
4.0
 40
4.0
 40
5.0
 40
5.0
 40
5.0
 40
6.0
 40
6.0
 40
6.0
 40
7.0
 40
7.0
 40
7.0
 40
8.0
 40
8.0
 40
8.0
 40
8.0
 10
101.6420971922469
 20
132.8388354296931
 30
0.0
 10
101.630039350094
 20
134.7164137077823
 30
0.0
 10
102.2236296937908
 20
138.0598810818841
 30
0.0
 10
103.7487744712405
 20
142.5378191476827
 30
0.0
 10
105.819967243327
 20
148.5896501242061
 30
0.0
 10
107.0602024361932
 20
150.8074318058939
 30
0.0
 10
108.1522984254671
 20
151.8833358357054
 30
0.0
 10
109.741177511439
 20
153.4532668840085
 30
0.0
 10
111.8740375333931
 20
153.5290590346837
 30
0.0
 10
112.5075910110823
 20
153.4532668840085
 30
0.0
 10
113.4012493694975
 20
153.3490526768302
 30
0.0
 10
114.6683563248758
 20
152.7580461564518
 30
0.0
 10
114.7493161221879
 20
150.7838328862519
 30
0.0
 10
114.8106388622796
 20
149.0909118479895
 30
0.0
 10
114.3186789024427
 20
145.9191825971221
 30
0.0
 10
112.6164561002338
 20
140.9489400617108
 30
0.0
 10
110.6444821435766
 20
135.1746117095912
 30
0.0
 10
109.4669477299053
 20
132.8960240524753
 30
0.0
 10
108.5212683953448
 20
131.9072809959403
 30
0.0
 10
106.7346406980658
 20
130.0538184021569
 30
0.0
 10
104.8222669326213
 20
130.2336525051225
 30
0.0
 10
104.5408024457958
 20
130.2336525051225
 30
0.0
 10
104.1721769856939
 20
130.2336525051225
 30
0.0
 10
101.6465758193322
 20
130.6305277668397
 30
0.0
 10
101.6420971922469
 20
132.8388354296931
 30
0.0
  0
SPLINE
  5
6AB
330
6A2
100
AcDbEntity
  8
レイヤー 1
370
     0
100
AcDbSpline
210
0.0
220
0.0
230
1.0
 70
    11
 71
     3
 72
    32
 73
    28
 74
     0
 42
0.000000001
 43
0.0000000001
 40
0.0
 40
0.0
 40
0.0
 40
0.0
 40
1.0
 40
1.0
 40
1.0
 40
2.0
 40
2.0
 40
2.0
 40
3.0
 40
3.0
 40
3.0
 40
4.0
 40
4.0
 40
4.0
 40
5.0
 40
5.0
 40
5.0
 40
6.0
 40
6.0
 40
6.0
 40
7.0
 40
7.0
 40
7.0
 40
8.0
 40
8.0
 40
8.0
 40
9.0
 40
9.0
 40
9.0
 40
9.0
 10
106.2595617172429
 20
153.4105476718098
 30
0.0
 10
104.8222669326213
 20
151.5474388043041
 30
0.0
 10
103.7177685914188
 20
149.8758773721411
 30
0.0
 10
101.9232171692965
 20
144.6141795664062
 30
0.0
 10
100.2754269116635
 20
139.7999999594306
 30
0.0
 10
99.22777268346732
 20
136.3052927937542
 30
0.0
 10
99.06964269637689
 20
132.039572749846
 30
0.0
 10
98.94665270641765
 20
128.8673267343149
 30
0.0
 10
100.8807305877373
 20
127.8027915271048
 30
0.0
 10
103.7129454545577
 20
127.8027915271048
 30
0.0
 10
104.9352661390825
 20
127.8027915271048
 30
0.0
 10
108.0151835347002
 20
127.8827177950895
 30
0.0
 10
110.2045431598849
 20
130.5926316915021
 30
0.0
 10
111.7417457794874
 20
132.4984597712065
 30
0.0
 10
113.155269389579
 20
134.475256864725
 30
0.0
 10
115.0562743324223
 20
140.9489400617108
 30
0.0
 10
116.6361961642235
 20
146.3680788349845
 30
0.0
 10
117.7282921534974
 20
149.8639917848761
 30
0.0
 10
117.6480213757369
 20
151.8595646611754
 30
0.0
 10
117.6480213757369
 20
151.8595646611754
 30
0.0
 10
117.6480213757369
 20
151.8595646611754
 30
0.0
 10
117.6480213757369
 20
151.8595646611754
 30
0.0
 10
117.13229024137
 20
155.18150017429
 30
0.0
 10
114.7162431837115
 20
155.886194920681
 30
0.0
 10
113.3351034925446
 20
155.886194920681
 30
0.0
 10
111.9829026225447
 20
155.886194920681
 30
0.0
 10
108.3414342923792
 20
156.1251124501957
 30
0.0
 10
106.2595617172429
 20
153.4105476718098
 30
0.0
  0
HATCH
  5
6AC
330
6A2
100
AcDbEntity
  8
レイヤー 1
 62
   250
420
  2234388
100
AcDbHatch
 10
0.0
 20
0.0
 30
0.0
210
0.0
220
0.0
230
1.0
  2
SOLID
 70
     1
 71
     0
 91
        2
 92
        1
 93
        1
 72
     4
 94
        3
 73
     0
 74
     1
 95
       29
 96
       25
 40
0.0
 40
0.0
 40
0.0
 40
0.0
 40
1.0
 40
1.0
 40
1.0
 40
2.0
 40
2.0
 40
2.0
 40
3.0
 40
3.0
 40
3.0
 40
4.0
 40
4.0
 40
4.0
 40
5.0
 40
5.0
 40
5.0
 40
6.0
 40
6.0
 40
6.0
 40
7.0
 40
7.0
 40
7.0
 40
8.0
 40
8.0
 40
8.0
 40
8.0
 10
101.6420971922469
 20
132.8388354296931
 10
101.630039350094
 20
134.7164137077823
 10
102.2236296937908
 20
138.0598810818841
 10
103.7487744712405
 20
142.5378191476827
 10
105.819967243327
 20
148.5896501242061
 10
107.0602024361932
 20
150.8074318058939
 10
108.1522984254671
 20
151.8833358357054
 10
109.741177511439
 20
153.4532668840085
 10
111.8740375333931
 20
153.5290590346837
 10
112.5075910110823
 20
153.4532668840085
 10
113.4012493694975
 20
153.3490526768302
 10
114.6683563248758
 20
152.7580461564518
 10
114.7493161221879
 20
150.7838328862519
 10
114.8106388622796
 20
149.0909118479895
 10
114.3186789024427
 20
145.9191825971221
 10
112.6164561002338
 20
140.9489400617108
 10
110.6444821435766
 20
135.1746117095912
 10
109.4669477299053
 20
132.8960240524753
 10
108.5212683953448
 20
131.9072809959403
 10
106.7346406980658
 20
130.0538184021569
 10
104.8222669326213
 20
130.2336525051225
 10
104.5408024457958
 20
130.2336525051225
 10
104.1721769856939
 20
130.2336525051225
 10
101.6465758193322
 20
130.6305277668397
 10
101.6420971922469
 20
132.8388354296931
 97
        0
 92
        1
 93
        1
 72
     4
 94
        3
 73
     0
 74
     1
 95
       32
 96
       28
 40
0.0
 40
0.0
 40
0.0
 40
0.0
 40
1.0
 40
1.0
 40
1.0
 40
2.0
 40
2.0
 40
2.0
 40
3.0
 40
3.0
 40
3.0
 40
4.0
 40
4.0
 40
4.0
 40
5.0
 40
5.0
 40
5.0
 40
6.0
 40
6.0
 40
6.0
 40
7.0
 40
7.0
 40
7.0
 40
8.0
 40
8.0
 40
8.0
 40
9.0
 40
9.0
 40
9.0
 40
9.0
 10
106.2595617172429
 20
153.4105476718098
 10
104.8222669326213
 20
151.5474388043041
 10
103.7177685914188
 20
149.8758773721411
 10
101.9232171692965
 20
144.6141795664062
 10
100.2754269116635
 20
139.7999999594306
 10
99.22777268346732
 20
136.3052927937542
 10
99.06964269637689
 20
132.039572749846
 10
98.94665270641765
 20
128.8673267343149
 10
100.8807305877373
 20
127.8027915271048
 10
103.7129454545577
 20
127.8027915271048
 10
104.9352661390825
 20
127.8027915271048
 10
108.0151835347002
 20
127.8827177950895
 10
110.2045431598849
 20
130.5926316915021
 10
111.7417457794874
 20
132.4984597712065
 10
113.155269389579
 20
134.475256864725
 10
115.0562743324223
 20
140.9489400617108
 10
116.6361961642235
 20
146.3680788349845
 10
117.7282921534974
 20
149.8639917848761
 10
117.6480213757369
 20
151.8595646611754
 10
117.6480213757369
 20
151.8595646611754
 10
117.6480213757369
 20
151.8595646611754
 10
117.6480213757369
 20
151.8595646611754
 10
117.13229024137
 20
155.18150017429
 10
114.7162431837115
 20
155.886194920681
 10
113.3351034925446
 20
155.886194920681
 10
111.9829026225447
 20
155.886194920681
 10
108.3414342923792
 20
156.1251124501957
 10
106.2595617172429
 20
153.4105476718098
 97
        0
 75
     2
 76
     1
 98
        0
  0
ENDBLK
  5
6AD
330
6A2
100
AcDbEntity
  8
0
100
AcDbBlockEnd
  0
BLOCK
  5
4EAC
330
4EAB
100
AcDbEntity
  8
0
100
AcDbBlockBegin
  2
名称未設定-1
 70
     0
 10
0.0
 20
0.0
 30
0.0
  3
名称未設定-1
  1
名称未設定-1
  0
INSERT
  5
4EAD
330
4EAB
100
AcDbEntity
  8
TFORMLOGO
100
AcDbBlockReference
  2
block 2
 10
0.0
 20
0.0
 30
0.0
  0
ENDBLK
  5
4ED2
330
4EAB
100
AcDbEntity
  8
0
100
AcDbBlockEnd
  0
BLOCK
  5
4EAF
330
4EAE
100
AcDbEntity
  8
0
100
AcDbBlockBegin
  2
block 2
 70
     0
 10
0.0
 20
0.0
 30
0.0
  3
block 2
  1
block 2
  0
INSERT
  5
4EB0
330
4EAE
100
AcDbEntity
  8
TFORMLOGO
100
AcDbBlockReference
  2
block 3
 10
0.0
 20
0.0
 30
0.0
  0
ENDBLK
  5
4ED1
330
4EAE
100
AcDbEntity
  8
0
100
AcDbBlockEnd
  0
BLOCK
  5
8675
330
8674
100
AcDbEntity
  8
0
100
AcDbBlockBegin
  2
*D75
 70
     1
 10
0.0
 20
0.0
 30
0.0
  3
*D75
  1

  0
LINE
  5
8677
330
8674
100
AcDbEntity
  8
寸法
 62
     0
370
    -2
100
AcDbLine
 10
507.9554341379941
 20
942.8524601907324
 30
0.0
 11
136.4075883616659
 21
942.8524601907325
 31
0.0
  0
LINE
  5
8678
330
8674
100
AcDbEntity
  8
寸法
 62
     0
370
    -2
100
AcDbLine
 10
212.2021521553861
 20
342.8524751907325
 30
0.0
 11
136.4075883616656
 21
342.8524751907325
 31
0.0
  0
LINE
  5
8679
330
8674
100
AcDbEntity
  8
寸法
 62
     0
370
    -2
100
AcDbLine
 10
136.4075883616659
 20
939.8524601907325
 30
0.0
 11
136.4075883616656
 21
345.8524751907325
 31
0.0
  0
INSERT
  5
867A
330
8674
100
AcDbEntity
  8
寸法
 62
     0
370
    -2
100
AcDbBlockReference
  2
_DOT
 10
136.4075883616659
 20
942.8524601907325
 30
0.0
 41
3.0
 42
3.0
 43
3.0
 50
89.99999999999997
  0
INSERT
  5
867B
330
8674
100
AcDbEntity
  8
寸法
 62
     0
370
    -2
100
AcDbBlockReference
  2
_DOT
 10
136.4075883616656
 20
342.8524751907325
 30
0.0
 41
3.0
 42
3.0
 43
3.0
 50
269.9999999999999
  0
MTEXT
  5
867C
330
8674
100
AcDbEntity
  8
寸法
 62
     0
100
AcDbMText
 10
125.4075883616658
 20
642.8524676907325
 30
0.0
 40
12.0
 41
0.0
 46
0.0
 71
     5
 72
     1
  1
\A1;600
  7
ＭＳ ゴシック
 11
5.210646859173573E-16
 21
1.0
 31
0.0
 73
     1
 44
1.0
  0
POINT
  5
867D
330
8674
100
AcDbEntity
  8
Defpoints
 62
     0
100
AcDbPoint
 10
517.9554341379941
 20
942.8524601907324
 30
0.0
  0
POINT
  5
867E
330
8674
100
AcDbEntity
  8
Defpoints
 62
     0
100
AcDbPoint
 10
222.2021521553861
 20
342.8524751907325
 30
0.0
  0
POINT
  5
867F
330
8674
100
AcDbEntity
  8
Defpoints
 62
     0
100
AcDbPoint
 10
136.4075883616656
 20
342.8524751907325
 30
0.0
  0
ENDBLK
  5
8676
330
8674
100
AcDbEntity
  8
0
100
AcDbBlockEnd
  0
BLOCK
  5
8684
330
8683
100
AcDbEntity
  8
0
100
AcDbBlockBegin
  2
*D76
 70
     1
 10
0.0
 20
0.0
 30
0.0
  3
*D76
  1

  0
LINE
  5
8686
330
8683
100
AcDbEntity
  8
寸法
 62
     0
370
    -2
100
AcDbLine
 10
553.080693583958
 20
1275.452551958123
 30
0.0
 11
553.080693583958
 21
1304.548467532466
 31
0.0
  0
LINE
  5
8687
330
8683
100
AcDbEntity
  8
寸法
 62
     0
370
    -2
100
AcDbLine
 10
253.0807085839577
 20
1275.452551958123
 30
0.0
 11
253.0807085839577
 21
1304.548467532466
 31
0.0
  0
LINE
  5
8688
330
8683
100
AcDbEntity
  8
寸法
 62
     0
370
    -2
100
AcDbLine
 10
550.080693583958
 20
1304.548467532466
 30
0.0
 11
256.0807085839577
 21
1304.548467532466
 31
0.0
  0
INSERT
  5
8689
330
8683
100
AcDbEntity
  8
寸法
 62
     0
370
    -2
100
AcDbBlockReference
  2
_DOT
 10
553.080693583958
 20
1304.548467532466
 30
0.0
 41
3.0
 42
3.0
 43
3.0
 50
359.9999999999999
  0
INSERT
  5
868A
330
8683
100
AcDbEntity
  8
寸法
 62
     0
370
    -2
100
AcDbBlockReference
  2
_DOT
 10
253.0807085839577
 20
1304.548467532466
 30
0.0
 41
3.0
 42
3.0
 43
3.0
 50
180.0
  0
MTEXT
  5
868B
330
8683
100
AcDbEntity
  8
寸法
 62
     0
100
AcDbMText
 10
403.0807010839578
 20
1315.548467532466
 30
0.0
 40
12.0
 41
0.0
 46
0.0
 71
     5
 72
     1
  1
\A1;300
  7
ＭＳ ゴシック
 73
     1
 44
1.0
  0
POINT
  5
868C
330
8683
100
AcDbEntity
  8
Defpoints
 62
     0
100
AcDbPoint
 10
553.080693583958
 20
1265.452551958123
 30
0.0
  0
POINT
  5
868D
330
8683
100
AcDbEntity
  8
Defpoints
 62
     0
100
AcDbPoint
 10
253.0807085839577
 20
1265.452551958123
 30
0.0
  0
POINT
  5
868E
330
8683
100
AcDbEntity
  8
Defpoints
 62
     0
100
AcDbPoint
 10
253.0807085839577
 20
1304.548467532466
 30
0.0
  0
ENDBLK
  5
8685
330
8683
100
AcDbEntity
  8
0
100
AcDbBlockEnd
  0
BLOCK
  5
8691
330
8690
100
AcDbEntity
  8
0
100
AcDbBlockBegin
  2
*D77
 70
     1
 10
0.0
 20
0.0
 30
0.0
  3
*D77
  1

  0
LINE
  5
8693
330
8690
100
AcDbEntity
  8
寸法
 62
     0
370
    -2
100
AcDbLine
 10
567.4521503097004
 20
978.1024601907321
 30
0.0
 11
622.9559038717354
 21
978.1024601907321
 31
0.0
  0
LINE
  5
8694
330
8690
100
AcDbEntity
  8
寸法
 62
     0
370
    -2
100
AcDbLine
 10
567.4521503097004
 20
908.1024601907321
 30
0.0
 11
622.9559038717354
 21
908.1024601907321
 31
0.0
  0
LINE
  5
8695
330
8690
100
AcDbEntity
  8
寸法
 62
     0
370
    -2
100
AcDbLine
 10
622.9559038717354
 20
975.1024601907321
 30
0.0
 11
622.9559038717354
 21
911.1024601907321
 31
0.0
  0
INSERT
  5
8696
330
8690
100
AcDbEntity
  8
寸法
 62
     0
370
    -2
100
AcDbBlockReference
  2
_DOT
 10
622.9559038717354
 20
978.1024601907321
 30
0.0
 41
3.0
 42
3.0
 43
3.0
 50
90.0
  0
INSERT
  5
8697
330
8690
100
AcDbEntity
  8
寸法
 62
     0
370
    -2
100
AcDbBlockReference
  2
_DOT
 10
622.9559038717354
 20
908.1024601907321
 30
0.0
 41
3.0
 42
3.0
 43
3.0
 50
270.0
  0
MTEXT
  5
8698
330
8690
100
AcDbEntity
  8
寸法
 62
     0
100
AcDbMText
 10
611.9559038717354
 20
943.1024601907319
 30
0.0
 40
12.0
 41
0.0
 46
0.0
 71
     5
 72
     1
  1
\A1;70
  7
ＭＳ ゴシック
 11
0.0
 21
1.0
 31
0.0
 73
     1
 44
1.0
  0
POINT
  5
8699
330
8690
100
AcDbEntity
  8
Defpoints
 62
     0
100
AcDbPoint
 10
557.4521503097004
 20
978.1024601907321
 30
0.0
  0
POINT
  5
869A
330
8690
100
AcDbEntity
  8
Defpoints
 62
     0
100
AcDbPoint
 10
557.4521503097004
 20
908.1024601907321
 30
0.0
  0
POINT
  5
869B
330
8690
100
AcDbEntity
  8
Defpoints
 62
     0
100
AcDbPoint
 10
622.9559038717354
 20
908.1024601907321
 30
0.0
  0
ENDBLK
  5
8692
330
8690
100
AcDbEntity
  8
0
100
AcDbBlockEnd
  0
BLOCK
  5
86A1
330
86A0
100
AcDbEntity
  8
0
100
AcDbBlockBegin
  2
*D78
 70
     1
 10
0.0
 20
0.0
 30
0.0
  3
*D78
  1

  0
LINE
  5
86A3
330
86A0
100
AcDbEntity
  8
寸法
 62
     0
370
    -2
100
AcDbLine
 10
562.9327347484175
 20
1172.197098958123
 30
0.0
 11
618.5844753003068
 21
1172.197098958123
 31
0.0
  0
LINE
  5
86A4
330
86A0
100
AcDbEntity
  8
寸法
 62
     0
370
    -2
100
AcDbLine
 10
598.1373224288884
 20
1265.197098958123
 30
0.0
 11
618.5844753003068
 21
1265.197098958123
 31
0.0
  0
LINE
  5
86A5
330
86A0
100
AcDbEntity
  8
寸法
 62
     0
370
    -2
100
AcDbLine
 10
618.5844753003068
 20
1175.197098958123
 30
0.0
 11
618.5844753003068
 21
1262.197098958123
 31
0.0
  0
INSERT
  5
86A6
330
86A0
100
AcDbEntity
  8
寸法
 62
     0
370
    -2
100
AcDbBlockReference
  2
_DOT
 10
618.5844753003068
 20
1172.197098958123
 30
0.0
 41
3.0
 42
3.0
 43
3.0
 50
270.0
  0
INSERT
  5
86A7
330
86A0
100
AcDbEntity
  8
寸法
 62
     0
370
    -2
100
AcDbBlockReference
  2
_DOT
 10
618.5844753003068
 20
1265.197098958123
 30
0.0
 41
3.0
 42
3.0
 43
3.0
 50
90.0
  0
MTEXT
  5
86A8
330
86A0
100
AcDbEntity
  8
寸法
 62
     0
100
AcDbMText
 10
607.5844753003068
 20
1218.697098958123
 30
0.0
 40
12.0
 41
0.0
 46
0.0
 71
     5
 72
     1
  1
\A1;93
  7
ＭＳ ゴシック
 11
0.0
 21
1.0
 31
0.0
 73
     1
 44
1.0
  0
POINT
  5
86A9
330
86A0
100
AcDbEntity
  8
Defpoints
 62
     0
100
AcDbPoint
 10
552.9327347484175
 20
1172.197098958123
 30
0.0
  0
POINT
  5
86AA
330
86A0
100
AcDbEntity
  8
Defpoints
 62
     0
100
AcDbPoint
 10
588.1373224288884
 20
1265.197098958123
 30
0.0
  0
POINT
  5
86AB
330
86A0
100
AcDbEntity
  8
Defpoints
 62
     0
100
AcDbPoint
 10
618.5844753003068
 20
1265.197098958123
 30
0.0
  0
ENDBLK
  5
86A2
330
86A0
100
AcDbEntity
  8
0
100
AcDbBlockEnd
  0
BLOCK
  5
959A
330
9599
100
AcDbEntity
  8
0
100
AcDbBlockBegin
  2
*D81
 70
     1
 10
0.0
 20
0.0
 30
0.0
  3
*D81
  1

  0
LINE
  5
959C
330
9599
100
AcDbEntity
  8
寸法
 62
     0
370
    -2
100
AcDbLine
 10
1333.138878495345
 20
1353.246399571429
 30
0.0
 11
1285.460039352402
 21
1353.246399571429
 31
0.0
  0
LINE
  5
959D
330
9599
100
AcDbEntity
  8
寸法
 62
     0
370
    -2
100
AcDbLine
 10
1333.138872958287
 20
1282.746399571429
 30
0.0
 11
1285.460039352402
 21
1282.746399571429
 31
0.0
  0
LINE
  5
959E
330
9599
100
AcDbEntity
  8
寸法
 62
     0
370
    -2
100
AcDbLine
 10
1285.460039352402
 20
1350.246399571429
 30
0.0
 11
1285.460039352402
 21
1285.746399571429
 31
0.0
  0
INSERT
  5
959F
330
9599
100
AcDbEntity
  8
寸法
 62
     0
370
    -2
100
AcDbBlockReference
  2
_DOT
 10
1285.460039352402
 20
1353.246399571429
 30
0.0
 41
3.0
 42
3.0
 43
3.0
 50
90.0
  0
INSERT
  5
95A0
330
9599
100
AcDbEntity
  8
寸法
 62
     0
370
    -2
100
AcDbBlockReference
  2
_DOT
 10
1285.460039352402
 20
1282.746399571429
 30
0.0
 41
3.0
 42
3.0
 43
3.0
 50
270.0
  0
MTEXT
  5
95A1
330
9599
100
AcDbEntity
  8
寸法
 62
     0
100
AcDbMText
 10
1274.460039352402
 20
1317.996399571429
 30
0.0
 40
12.0
 41
0.0
 46
0.0
 71
     5
 72
     1
  1
\A1;71
  7
ＭＳ ゴシック
 11
0.0
 21
1.0
 31
0.0
 73
     1
 44
1.0
  0
POINT
  5
95A2
330
9599
100
AcDbEntity
  8
Defpoints
 62
     0
100
AcDbPoint
 10
1343.138878495345
 20
1353.246399571429
 30
0.0
  0
POINT
  5
95A3
330
9599
100
AcDbEntity
  8
Defpoints
 62
     0
100
AcDbPoint
 10
1343.138872958287
 20
1282.746399571429
 30
0.0
  0
POINT
  5
95A4
330
9599
100
AcDbEntity
  8
Defpoints
 62
     0
100
AcDbPoint
 10
1285.460039352402
 20
1282.746399571429
 30
0.0
  0
ENDBLK
  5
959B
330
9599
100
AcDbEntity
  8
0
100
AcDbBlockEnd
  0
BLOCK
  5
95A7
330
95A6
100
AcDbEntity
  8
0
100
AcDbBlockBegin
  2
*D82
 70
     1
 10
0.0
 20
0.0
 30
0.0
  3
*D82
  1

  0
LINE
  5
95A9
330
95A6
100
AcDbEntity
  8
寸法
 62
     0
370
    -2
100
AcDbLine
 10
-535.393602275808
 20
1314.339214583333
 30
0.0
 11
-583.5382314443782
 21
1314.339214583333
 31
0.0
  0
LINE
  5
95AA
330
95A6
100
AcDbEntity
  8
寸法
 62
     0
370
    -2
100
AcDbLine
 10
-535.393602275808
 20
1244.339214583333
 30
0.0
 11
-583.5382314443782
 21
1244.339214583333
 31
0.0
  0
LINE
  5
95AB
330
95A6
100
AcDbEntity
  8
寸法
 62
     0
370
    -2
100
AcDbLine
 10
-583.5382314443782
 20
1311.339214583333
 30
0.0
 11
-583.5382314443782
 21
1247.339214583333
 31
0.0
  0
INSERT
  5
95AC
330
95A6
100
AcDbEntity
  8
寸法
 62
     0
370
    -2
100
AcDbBlockReference
  2
_DOT
 10
-583.5382314443782
 20
1314.339214583333
 30
0.0
 41
3.0
 42
3.0
 43
3.0
 50
90.0
  0
INSERT
  5
95AD
330
95A6
100
AcDbEntity
  8
寸法
 62
     0
370
    -2
100
AcDbBlockReference
  2
_DOT
 10
-583.5382314443782
 20
1244.339214583333
 30
0.0
 41
3.0
 42
3.0
 43
3.0
 50
270.0
  0
MTEXT
  5
95AE
330
95A6
100
AcDbEntity
  8
寸法
 62
     0
100
AcDbMText
 10
-594.5382314443782
 20
1279.339214583333
 30
0.0
 40
12.0
 41
0.0
 46
0.0
 71
     5
 72
     1
  1
\A1;70
  7
ＭＳ ゴシック
 11
0.0
 21
1.0
 31
0.0
 73
     1
 44
1.0
  0
POINT
  5
95AF
330
95A6
100
AcDbEntity
  8
Defpoints
 62
     0
100
AcDbPoint
 10
-525.393602275808
 20
1314.339214583333
 30
0.0
  0
POINT
  5
95B0
330
95A6
100
AcDbEntity
  8
Defpoints
 62
     0
100
AcDbPoint
 10
-525.393602275808
 20
1244.339214583333
 30
0.0
  0
POINT
  5
95B1
330
95A6
100
AcDbEntity
  8
Defpoints
 62
     0
100
AcDbPoint
 10
-583.5382314443782
 20
1244.339214583333
 30
0.0
  0
ENDBLK
  5
95A8
330
95A6
100
AcDbEntity
  8
0
100
AcDbBlockEnd
  0
BLOCK
  5
95B4
330
95B3
100
AcDbEntity
  8
0
100
AcDbBlockBegin
  2
*D83
 70
     1
 10
0.0
 20
0.0
 30
0.0
  3
*D83
  1

  0
LINE
  5
95B6
330
95B3
100
AcDbEntity
  8
寸法
 62
     0
370
    -2
100
AcDbLine
 10
-467.1014843267558
 20
1279.089214583333
 30
0.0
 11
-361.6641961417155
 21
1279.089214583333
 31
0.0
  0
LINE
  5
95B7
330
95B3
100
AcDbEntity
  8
寸法
 62
     0
370
    -2
100
AcDbLine
 10
-467.1014843267556
 20
231.0892145833332
 30
0.0
 11
-361.6641961417156
 21
231.0892145833332
 31
0.0
  0
LINE
  5
95B8
330
95B3
100
AcDbEntity
  8
寸法
 62
     0
370
    -2
100
AcDbLine
 10
-361.6641961417155
 20
1276.089214583333
 30
0.0
 11
-361.6641961417156
 21
234.0892145833332
 31
0.0
  0
INSERT
  5
95B9
330
95B3
100
AcDbEntity
  8
寸法
 62
     0
370
    -2
100
AcDbBlockReference
  2
_DOT
 10
-361.6641961417155
 20
1279.089214583333
 30
0.0
 41
3.0
 42
3.0
 43
3.0
 50
90.0
  0
INSERT
  5
95BA
330
95B3
100
AcDbEntity
  8
寸法
 62
     0
370
    -2
100
AcDbBlockReference
  2
_DOT
 10
-361.6641961417156
 20
231.0892145833332
 30
0.0
 41
3.0
 42
3.0
 43
3.0
 50
270.0
  0
MTEXT
  5
95BB
330
95B3
100
AcDbEntity
  8
寸法
 62
     0
100
AcDbMText
 10
-372.6641961417156
 20
755.0892145833332
 30
0.0
 40
12.0
 41
0.0
 46
0.0
 71
     5
 72
     1
  1
\A1;1048
  7
ＭＳ ゴシック
 11
5.423990349313742E-17
 21
1.0
 31
0.0
 73
     1
 44
1.0
  0
POINT
  5
95BC
330
95B3
100
AcDbEntity
  8
Defpoints
 62
     0
100
AcDbPoint
 10
-477.1014843267558
 20
1279.089214583333
 30
0.0
  0
POINT
  5
95BD
330
95B3
100
AcDbEntity
  8
Defpoints
 62
     0
100
AcDbPoint
 10
-477.1014843267556
 20
231.0892145833332
 30
0.0
  0
POINT
  5
95BE
330
95B3
100
AcDbEntity
  8
Defpoints
 62
     0
100
AcDbPoint
 10
-361.6641961417156
 20
231.0892145833332
 30
0.0
  0
ENDBLK
  5
95B5
330
95B3
100
AcDbEntity
  8
0
100
AcDbBlockEnd
  0
BLOCK
  5
95C1
330
95C0
100
AcDbEntity
  8
0
100
AcDbBlockBegin
  2
*D84
 70
     1
 10
0.0
 20
0.0
 30
0.0
  3
*D84
  1

  0
LINE
  5
95C3
330
95C0
100
AcDbEntity
  8
寸法
 62
     0
370
    -2
100
AcDbLine
 10
1362.545453831899
 20
1414.947035714286
 30
0.0
 11
1427.143403280299
 21
1414.947035714286
 31
0.0
  0
LINE
  5
95C4
330
95C0
100
AcDbEntity
  8
寸法
 62
     0
370
    -2
100
AcDbLine
 10
1362.545453831899
 20
1505.947035714286
 30
0.0
 11
1427.143403280299
 21
1505.947035714286
 31
0.0
  0
LINE
  5
95C5
330
95C0
100
AcDbEntity
  8
寸法
 62
     0
370
    -2
100
AcDbLine
 10
1427.143403280299
 20
1417.947035714286
 30
0.0
 11
1427.143403280299
 21
1502.947035714286
 31
0.0
  0
INSERT
  5
95C6
330
95C0
100
AcDbEntity
  8
寸法
 62
     0
370
    -2
100
AcDbBlockReference
  2
_DOT
 10
1427.143403280299
 20
1414.947035714286
 30
0.0
 41
3.0
 42
3.0
 43
3.0
 50
270.0
  0
INSERT
  5
95C7
330
95C0
100
AcDbEntity
  8
寸法
 62
     0
370
    -2
100
AcDbBlockReference
  2
_DOT
 10
1427.143403280299
 20
1505.947035714286
 30
0.0
 41
3.0
 42
3.0
 43
3.0
 50
90.0
  0
MTEXT
  5
95C8
330
95C0
100
AcDbEntity
  8
寸法
 62
     0
100
AcDbMText
 10
1416.143403280299
 20
1460.447035714286
 30
0.0
 40
12.0
 41
0.0
 46
0.0
 71
     5
 72
     1
  1
\A1;91
  7
ＭＳ ゴシック
 11
0.0
 21
1.0
 31
0.0
 73
     1
 44
1.0
  0
POINT
  5
95C9
330
95C0
100
AcDbEntity
  8
Defpoints
 62
     0
100
AcDbPoint
 10
1352.545453831899
 20
1414.947035714286
 30
0.0
  0
POINT
  5
95CA
330
95C0
100
AcDbEntity
  8
Defpoints
 62
     0
100
AcDbPoint
 10
1352.545453831899
 20
1505.947035714286
 30
0.0
  0
POINT
  5
95CB
330
95C0
100
AcDbEntity
  8
Defpoints
 62
     0
100
AcDbPoint
 10
1427.143403280299
 20
1505.947035714286
 30
0.0
  0
ENDBLK
  5
95C2
330
95C0
100
AcDbEntity
  8
0
100
AcDbBlockEnd
  0
BLOCK
  5
95CE
330
95CD
100
AcDbEntity
  8
0
100
AcDbBlockBegin
  2
*D85
 70
     1
 10
0.0
 20
0.0
 30
0.0
  3
*D85
  1

  0
LINE
  5
95D0
330
95CD
100
AcDbEntity
  8
寸法
 62
     0
370
    -2
100
AcDbLine
 10
1687.202043726816
 20
266.6972635714284
 30
0.0
 11
1687.202043726816
 21
222.3678988070967
 31
0.0
  0
LINE
  5
95D1
330
95CD
100
AcDbEntity
  8
寸法
 62
     0
370
    -2
100
AcDbLine
 10
1596.202043726816
 20
266.6972635714284
 30
0.0
 11
1596.202043726816
 21
222.3678988070967
 31
0.0
  0
LINE
  5
95D2
330
95CD
100
AcDbEntity
  8
寸法
 62
     0
370
    -2
100
AcDbLine
 10
1684.202043726816
 20
222.3678988070967
 30
0.0
 11
1599.202043726816
 21
222.3678988070967
 31
0.0
  0
INSERT
  5
95D3
330
95CD
100
AcDbEntity
  8
寸法
 62
     0
370
    -2
100
AcDbBlockReference
  2
_DOT
 10
1687.202043726816
 20
222.3678988070967
 30
0.0
 41
3.0
 42
3.0
 43
3.0
  0
INSERT
  5
95D4
330
95CD
100
AcDbEntity
  8
寸法
 62
     0
370
    -2
100
AcDbBlockReference
  2
_DOT
 10
1596.202043726816
 20
222.3678988070967
 30
0.0
 41
3.0
 42
3.0
 43
3.0
 50
180.0
  0
MTEXT
  5
95D5
330
95CD
100
AcDbEntity
  8
寸法
 62
     0
100
AcDbMText
 10
1641.702043726816
 20
233.3678988070967
 30
0.0
 40
12.0
 41
0.0
 46
0.0
 71
     5
 72
     1
  1
\A1;91
  7
ＭＳ ゴシック
 73
     1
 44
1.0
  0
POINT
  5
95D6
330
95CD
100
AcDbEntity
  8
Defpoints
 62
     0
100
AcDbPoint
 10
1687.202043726816
 20
276.6972635714284
 30
0.0
  0
POINT
  5
95D7
330
95CD
100
AcDbEntity
  8
Defpoints
 62
     0
100
AcDbPoint
 10
1596.202043726816
 20
276.6972635714284
 30
0.0
  0
POINT
  5
95D8
330
95CD
100
AcDbEntity
  8
Defpoints
 62
     0
100
AcDbPoint
 10
1596.202043726816
 20
222.3678988070967
 30
0.0
  0
ENDBLK
  5
95CF
330
95CD
100
AcDbEntity
  8
0
100
AcDbBlockEnd
  0
BLOCK
  5
95DB
330
95DA
100
AcDbEntity
  8
0
100
AcDbBlockBegin
  2
*D86
 70
     1
 10
0.0
 20
0.0
 30
0.0
  3
*D86
  1

  0
LINE
  5
95DD
330
95DA
100
AcDbEntity
  8
寸法
 62
     0
370
    -2
100
AcDbLine
 10
-471.5971782760357
 20
1334.321550903323
 30
0.0
 11
-442.00875241787
 21
1334.321550903323
 31
0.0
  0
LINE
  5
95DE
330
95DA
100
AcDbEntity
  8
寸法
 62
     0
370
    -2
100
AcDbLine
 10
-462.0577985511766
 20
1425.321550903323
 30
0.0
 11
-442.00875241787
 21
1425.321550903323
 31
0.0
  0
LINE
  5
95DF
330
95DA
100
AcDbEntity
  8
寸法
 62
     0
370
    -2
100
AcDbLine
 10
-442.00875241787
 20
1337.321550903323
 30
0.0
 11
-442.00875241787
 21
1422.321550903323
 31
0.0
  0
INSERT
  5
95E0
330
95DA
100
AcDbEntity
  8
寸法
 62
     0
370
    -2
100
AcDbBlockReference
  2
_DOT
 10
-442.00875241787
 20
1334.321550903323
 30
0.0
 41
3.0
 42
3.0
 43
3.0
 50
270.0
  0
INSERT
  5
95E1
330
95DA
100
AcDbEntity
  8
寸法
 62
     0
370
    -2
100
AcDbBlockReference
  2
_DOT
 10
-442.00875241787
 20
1425.321550903323
 30
0.0
 41
3.0
 42
3.0
 43
3.0
 50
90.0
  0
MTEXT
  5
95E2
330
95DA
100
AcDbEntity
  8
寸法
 62
     0
100
AcDbMText
 10
-453.00875241787
 20
1379.821550903323
 30
0.0
 40
12.0
 41
0.0
 46
0.0
 71
     5
 72
     1
  1
\A1;91
  7
ＭＳ ゴシック
 11
0.0
 21
1.0
 31
0.0
 73
     1
 44
1.0
  0
POINT
  5
95E3
330
95DA
100
AcDbEntity
  8
Defpoints
 62
     0
100
AcDbPoint
 10
-481.5971782760357
 20
1334.321550903323
 30
0.0
  0
POINT
  5
95E4
330
95DA
100
AcDbEntity
  8
Defpoints
 62
     0
100
AcDbPoint
 10
-472.0577985511766
 20
1425.321550903323
 30
0.0
  0
POINT
  5
95E5
330
95DA
100
AcDbEntity
  8
Defpoints
 62
     0
100
AcDbPoint
 10
-442.00875241787
 20
1425.321550903323
 30
0.0
  0
ENDBLK
  5
95DC
330
95DA
100
AcDbEntity
  8
0
100
AcDbBlockEnd
  0
BLOCK
  5
95EA
330
95E9
100
AcDbEntity
  8
0
100
AcDbBlockBegin
  2
*D87
 70
     1
 10
0.0
 20
0.0
 30
0.0
  3
*D87
  1

  0
LINE
  5
95EC
330
95E9
100
AcDbEntity
  8
寸法
 62
     0
370
    -2
100
AcDbLine
 10
1331.638887726816
 20
1406.446773714286
 30
0.0
 11
1331.638887726816
 21
1380.318594955404
 31
0.0
  0
LINE
  5
95ED
330
95E9
100
AcDbEntity
  8
寸法
 62
     0
370
    -2
100
AcDbLine
 10
1354.638887726816
 20
1406.446773714286
 30
0.0
 11
1354.638887726816
 21
1380.318594955404
 31
0.0
  0
LINE
  5
95EE
330
95E9
100
AcDbEntity
  8
寸法
 62
     0
370
    -2
100
AcDbLine
 10
1328.638887726816
 20
1380.318594955404
 30
0.0
 11
1325.638887726816
 21
1380.318594955404
 31
0.0
  0
LINE
  5
95EF
330
95E9
100
AcDbEntity
  8
寸法
 62
     0
370
    -2
100
AcDbLine
 10
1357.638887726816
 20
1380.318594955404
 30
0.0
 11
1360.638887726816
 21
1380.318594955404
 31
0.0
  0
INSERT
  5
95F0
330
95E9
100
AcDbEntity
  8
寸法
 62
     0
370
    -2
100
AcDbBlockReference
  2
_DOT
 10
1331.638887726816
 20
1380.318594955404
 30
0.0
 41
3.0
 42
3.0
 43
3.0
  0
INSERT
  5
95F1
330
95E9
100
AcDbEntity
  8
寸法
 62
     0
370
    -2
100
AcDbBlockReference
  2
_DOT
 10
1354.638887726816
 20
1380.318594955404
 30
0.0
 41
3.0
 42
3.0
 43
3.0
 50
180.0
  0
MTEXT
  5
95F2
330
95E9
100
AcDbEntity
  8
寸法
 62
     0
100
AcDbMText
 10
1343.138887726816
 20
1391.318594955404
 30
0.0
 40
12.0
 41
0.0
 46
0.0
 71
     5
 72
     1
  1
\A1;23
  7
ＭＳ ゴシック
 73
     1
 44
1.0
  0
POINT
  5
95F3
330
95E9
100
AcDbEntity
  8
Defpoints
 62
     0
100
AcDbPoint
 10
1331.638887726816
 20
1416.446773714286
 30
0.0
  0
POINT
  5
95F4
330
95E9
100
AcDbEntity
  8
Defpoints
 62
     0
100
AcDbPoint
 10
1354.638887726816
 20
1416.446773714286
 30
0.0
  0
POINT
  5
95F5
330
95E9
100
AcDbEntity
  8
Defpoints
 62
     0
100
AcDbPoint
 10
1354.638887726816
 20
1380.318594955404
 30
0.0
  0
ENDBLK
  5
95EB
330
95E9
100
AcDbEntity
  8
0
100
AcDbBlockEnd
  0
BLOCK
  5
95F8
330
95F7
100
AcDbEntity
  8
0
100
AcDbBlockBegin
  2
*D88
 70
     1
 10
0.0
 20
0.0
 30
0.0
  3
*D88
  1

  0
LINE
  5
95FA
330
95F7
100
AcDbEntity
  8
寸法
 62
     0
370
    -2
100
AcDbLine
 10
1331.638887726816
 20
1404.660361964897
 30
0.0
 11
1331.638887726816
 21
1379.173869388421
 31
0.0
  0
LINE
  5
95FB
330
95F7
100
AcDbEntity
  8
寸法
 62
     0
370
    -2
100
AcDbLine
 10
1353.638887726816
 20
1404.660361964897
 30
0.0
 11
1353.638887726816
 21
1379.173869388421
 31
0.0
  0
LINE
  5
95FC
330
95F7
100
AcDbEntity
  8
寸法
 62
     0
370
    -2
100
AcDbLine
 10
1334.638887726816
 20
1379.173869388421
 30
0.0
 11
1350.638887726816
 21
1379.173869388421
 31
0.0
  0
INSERT
  5
95FD
330
95F7
100
AcDbEntity
  8
寸法
 62
     0
370
    -2
100
AcDbBlockReference
  2
_DOT
 10
1331.638887726816
 20
1379.173869388421
 30
0.0
 41
3.0
 42
3.0
 43
3.0
 50
180.0
  0
INSERT
  5
95FE
330
95F7
100
AcDbEntity
  8
寸法
 62
     0
370
    -2
100
AcDbBlockReference
  2
_DOT
 10
1353.638887726816
 20
1379.173869388421
 30
0.0
 41
3.0
 42
3.0
 43
3.0
  0
MTEXT
  5
95FF
330
95F7
100
AcDbEntity
  8
寸法
 62
     0
100
AcDbMText
 10
1342.638887726816
 20
1390.173869388421
 30
0.0
 40
12.0
 41
0.0
 46
0.0
 71
     5
 72
     1
  1
\A1;22
  7
ＭＳ ゴシック
 73
     1
 44
1.0
  0
POINT
  5
9600
330
95F7
100
AcDbEntity
  8
Defpoints
 62
     0
100
AcDbPoint
 10
1331.638887726816
 20
1414.660361964897
 30
0.0
  0
POINT
  5
9601
330
95F7
100
AcDbEntity
  8
Defpoints
 62
     0
100
AcDbPoint
 10
1353.638887726816
 20
1414.660361964897
 30
0.0
  0
POINT
  5
9602
330
95F7
100
AcDbEntity
  8
Defpoints
 62
     0
100
AcDbPoint
 10
1353.638887726816
 20
1379.173869388421
 30
0.0
  0
ENDBLK
  5
95F9
330
95F7
100
AcDbEntity
  8
0
100
AcDbBlockEnd
  0
BLOCK
  5
9606
330
9605
100
AcDbEntity
  8
0
100
AcDbBlockBegin
  2
*D89
 70
     1
 10
0.0
 20
0.0
 30
0.0
  3
*D89
  1

  0
LINE
  5
9608
330
9605
100
AcDbEntity
  8
寸法
 62
     0
370
    -2
100
AcDbLine
 10
1639.638869726816
 20
1234.996561256509
 30
0.0
 11
1639.638869726816
 21
1233.815364849316
 31
0.0
  0
LINE
  5
9609
330
9605
100
AcDbEntity
  8
寸法
 62
     0
370
    -2
100
AcDbLine
 10
1661.638869726816
 20
1234.996561256509
 30
0.0
 11
1661.638869726816
 21
1233.815364849316
 31
0.0
  0
LINE
  5
960A
330
9605
100
AcDbEntity
  8
寸法
 62
     0
370
    -2
100
AcDbLine
 10
1639.638869726816
 20
1233.815364849316
 30
0.0
 11
1609.634869726816
 21
1233.815364849316
 31
0.0
  0
LINE
  5
960B
330
9605
100
AcDbEntity
  8
寸法
 62
     0
370
    -2
100
AcDbLine
 10
1636.638869726816
 20
1233.815364849316
 30
0.0
 11
1633.638869726816
 21
1233.815364849316
 31
0.0
  0
LINE
  5
960C
330
9605
100
AcDbEntity
  8
寸法
 62
     0
370
    -2
100
AcDbLine
 10
1664.638869726816
 20
1233.815364849316
 30
0.0
 11
1667.638869726816
 21
1233.815364849316
 31
0.0
  0
INSERT
  5
960D
330
9605
100
AcDbEntity
  8
寸法
 62
     0
370
    -2
100
AcDbBlockReference
  2
_DOT
 10
1639.638869726816
 20
1233.815364849316
 30
0.0
 41
3.0
 42
3.0
 43
3.0
  0
INSERT
  5
960E
330
9605
100
AcDbEntity
  8
寸法
 62
     0
370
    -2
100
AcDbBlockReference
  2
_DOT
 10
1661.638869726816
 20
1233.815364849316
 30
0.0
 41
3.0
 42
3.0
 43
3.0
 50
180.0
  0
MTEXT
  5
960F
330
9605
100
AcDbEntity
  8
寸法
 62
     0
100
AcDbMText
 10
1621.636869726816
 20
1244.815364849316
 30
0.0
 40
12.0
 41
0.0
 46
0.0
 71
     5
 72
     1
  1
\A1;22
  7
ＭＳ ゴシック
 73
     1
 44
1.0
  0
POINT
  5
9610
330
9605
100
AcDbEntity
  8
Defpoints
 62
     0
100
AcDbPoint
 10
1639.638869726816
 20
1244.996561256509
 30
0.0
  0
POINT
  5
9612
330
9605
100
AcDbEntity
  8
Defpoints
 62
     0
100
AcDbPoint
 10
1661.638869726816
 20
1244.996561256509
 30
0.0
  0
POINT
  5
9613
330
9605
100
AcDbEntity
  8
Defpoints
 62
     0
100
AcDbPoint
 10
1661.638869726816
 20
1233.815364849316
 30
0.0
  0
ENDBLK
  5
9607
330
9605
100
AcDbEntity
  8
0
100
AcDbBlockEnd
  0
BLOCK
  5
9616
330
9615
100
AcDbEntity
  8
0
100
AcDbBlockBegin
  2
*D90
 70
     1
 10
0.0
 20
0.0
 30
0.0
  3
*D90
  1

  0
LINE
  5
9618
330
9615
100
AcDbEntity
  8
寸法
 62
     0
370
    -2
100
AcDbLine
 10
-523.3514723267558
 20
1153.394690924935
 30
0.0
 11
-523.3514723267558
 21
1144.14774239293
 31
0.0
  0
LINE
  5
9619
330
9615
100
AcDbEntity
  8
寸法
 62
     0
370
    -2
100
AcDbLine
 10
-501.3514723267558
 20
1153.394690924935
 30
0.0
 11
-501.3514723267558
 21
1144.14774239293
 31
0.0
  0
LINE
  5
961A
330
9615
100
AcDbEntity
  8
寸法
 62
     0
370
    -2
100
AcDbLine
 10
-501.3514723267558
 20
1144.14774239293
 30
0.0
 11
-462.2757956274349
 21
1144.14774239293
 31
0.0
  0
LINE
  5
961B
330
9615
100
AcDbEntity
  8
寸法
 62
     0
370
    -2
100
AcDbLine
 10
-520.3514723267558
 20
1144.14774239293
 30
0.0
 11
-504.3514723267558
 21
1144.14774239293
 31
0.0
  0
LINE
  5
961C
330
9615
100
AcDbEntity
  8
寸法
 62
     0
370
    -2
100
AcDbLine
 10
-504.3514723267558
 20
1144.14774239293
 30
0.0
 11
-507.3514723267558
 21
1144.14774239293
 31
0.0
  0
INSERT
  5
961D
330
9615
100
AcDbEntity
  8
寸法
 62
     0
370
    -2
100
AcDbBlockReference
  2
_DOT
 10
-523.3514723267558
 20
1144.14774239293
 30
0.0
 41
3.0
 42
3.0
 43
3.0
 50
180.0
  0
INSERT
  5
961E
330
9615
100
AcDbEntity
  8
寸法
 62
     0
370
    -2
100
AcDbBlockReference
  2
_DOT
 10
-501.3514723267558
 20
1144.14774239293
 30
0.0
 41
3.0
 42
3.0
 43
3.0
  0
MTEXT
  5
961F
330
9615
100
AcDbEntity
  8
寸法
 62
     0
100
AcDbMText
 10
-478.3937956274349
 20
1155.14774239293
 30
0.0
 40
12.0
 41
0.0
 46
0.0
 71
     5
 72
     1
  1
\A1;%%c22
  7
ＭＳ ゴシック
 73
     1
 44
1.0
  0
POINT
  5
9620
330
9615
100
AcDbEntity
  8
Defpoints
 62
     0
100
AcDbPoint
 10
-523.3514723267558
 20
1143.394690924935
 30
0.0
  0
POINT
  5
9621
330
9615
100
AcDbEntity
  8
Defpoints
 62
     0
100
AcDbPoint
 10
-501.3514723267558
 20
1143.394690924935
 30
0.0
  0
POINT
  5
9622
330
9615
100
AcDbEntity
  8
Defpoints
 62
     0
100
AcDbPoint
 10
-501.3514723267558
 20
1144.14774239293
 30
0.0
  0
ENDBLK
  5
9617
330
9615
100
AcDbEntity
  8
0
100
AcDbBlockEnd
  0
BLOCK
  5
9840
330
983F
100
AcDbEntity
  8
0
100
AcDbBlockBegin
  2
*D92
 70
     1
 10
0.0
 20
0.0
 30
0.0
  3
*D92
  1

  0
LINE
  5
9842
330
983F
100
AcDbEntity
  8
寸法
 62
     0
370
    -2
100
AcDbLine
 10
325.0463169841173
 20
1297.322852904849
 30
0.0
 11
376.5349094939231
 21
1297.322852904849
 31
0.0
  0
LINE
  5
9843
330
983F
100
AcDbEntity
  8
寸法
 62
     0
370
    -2
100
AcDbLine
 10
352.2403983665411
 20
1387.322852904849
 30
0.0
 11
376.5349094939231
 21
1387.322852904849
 31
0.0
  0
LINE
  5
9844
330
983F
100
AcDbEntity
  8
寸法
 62
     0
370
    -2
100
AcDbLine
 10
376.5349094939231
 20
1300.322852904849
 30
0.0
 11
376.5349094939231
 21
1384.322852904849
 31
0.0
  0
INSERT
  5
9845
330
983F
100
AcDbEntity
  8
寸法
 62
     0
370
    -2
100
AcDbBlockReference
  2
_DOT
 10
376.5349094939231
 20
1297.322852904849
 30
0.0
 41
3.0
 42
3.0
 43
3.0
 50
270.0
  0
INSERT
  5
9846
330
983F
100
AcDbEntity
  8
寸法
 62
     0
370
    -2
100
AcDbBlockReference
  2
_DOT
 10
376.5349094939231
 20
1387.322852904849
 30
0.0
 41
3.0
 42
3.0
 43
3.0
 50
90.0
  0
MTEXT
  5
9847
330
983F
100
AcDbEntity
  8
寸法
 62
     0
100
AcDbMText
 10
365.5349094939231
 20
1342.322852904848
 30
0.0
 40
12.0
 41
0.0
 46
0.0
 71
     5
 72
     1
  1
\A1;90
  7
ＭＳ ゴシック
 11
0.0
 21
1.0
 31
0.0
 73
     1
 44
1.0
  0
POINT
  5
9848
330
983F
100
AcDbEntity
  8
Defpoints
 62
     0
100
AcDbPoint
 10
315.0463169841173
 20
1297.322852904849
 30
0.0
  0
POINT
  5
9849
330
983F
100
AcDbEntity
  8
Defpoints
 62
     0
100
AcDbPoint
 10
342.2403983665411
 20
1387.322852904849
 30
0.0
  0
POINT
  5
984A
330
983F
100
AcDbEntity
  8
Defpoints
 62
     0
100
AcDbPoint
 10
376.5349094939231
 20
1387.322852904849
 30
0.0
  0
ENDBLK
  5
9841
330
983F
100
AcDbEntity
  8
0
100
AcDbBlockEnd
  0
BLOCK
  5
984F
330
984E
100
AcDbEntity
  8
0
100
AcDbBlockBegin
  2
*D93
 70
     1
 10
0.0
 20
0.0
 30
0.0
  3
*D93
  1

  0
LINE
  5
9851
330
984E
100
AcDbEntity
  8
寸法
 62
     0
370
    -2
100
AcDbLine
 10
349.0013287268152
 20
1206.305425142857
 30
0.0
 11
389.998295200672
 21
1206.305425142857
 31
0.0
  0
LINE
  5
9852
330
984E
100
AcDbEntity
  8
寸法
 62
     0
370
    -2
100
AcDbLine
 10
349.0013287268152
 20
306.3053661428572
 30
0.0
 11
389.9982952006719
 21
306.3053661428572
 31
0.0
  0
LINE
  5
9853
330
984E
100
AcDbEntity
  8
寸法
 62
     0
370
    -2
100
AcDbLine
 10
389.998295200672
 20
1203.305425142857
 30
0.0
 11
389.9982952006719
 21
309.3053661428572
 31
0.0
  0
INSERT
  5
9854
330
984E
100
AcDbEntity
  8
寸法
 62
     0
370
    -2
100
AcDbBlockReference
  2
_DOT
 10
389.998295200672
 20
1206.305425142857
 30
0.0
 41
3.0
 42
3.0
 43
3.0
 50
90.0
  0
INSERT
  5
9855
330
984E
100
AcDbEntity
  8
寸法
 62
     0
370
    -2
100
AcDbBlockReference
  2
_DOT
 10
389.9982952006719
 20
306.3053661428572
 30
0.0
 41
3.0
 42
3.0
 43
3.0
 50
270.0
  0
MTEXT
  5
9856
330
984E
100
AcDbEntity
  8
寸法
 62
     0
100
AcDbMText
 10
378.9982952006719
 20
756.3053956428571
 30
0.0
 40
12.0
 41
0.0
 46
0.0
 71
     5
 72
     1
  1
\A1;900
  7
ＭＳ ゴシック
 11
6.315935014934041E-17
 21
1.0
 31
0.0
 73
     1
 44
1.0
  0
POINT
  5
9857
330
984E
100
AcDbEntity
  8
Defpoints
 62
     0
100
AcDbPoint
 10
339.0013287268152
 20
1206.305425142857
 30
0.0
  0
POINT
  5
9858
330
984E
100
AcDbEntity
  8
Defpoints
 62
     0
100
AcDbPoint
 10
339.0013287268152
 20
306.3053661428572
 30
0.0
  0
POINT
  5
9859
330
984E
100
AcDbEntity
  8
Defpoints
 62
     0
100
AcDbPoint
 10
389.9982952006719
 20
306.3053661428572
 30
0.0
  0
ENDBLK
  5
9850
330
984E
100
AcDbEntity
  8
0
100
AcDbBlockEnd
  0
BLOCK
  5
985E
330
985D
100
AcDbEntity
  8
0
100
AcDbBlockBegin
  2
*D94
 70
     1
 10
0.0
 20
0.0
 30
0.0
  3
*D94
  1

  0
LINE
  5
9860
330
985D
100
AcDbEntity
  8
寸法
 62
     0
370
    -2
100
AcDbLine
 10
282.7502377596729
 20
1241.555425142844
 30
0.0
 11
248.6408209332426
 21
1241.555425142844
 31
0.0
  0
LINE
  5
9861
330
985D
100
AcDbEntity
  8
寸法
 62
     0
370
    -2
100
AcDbLine
 10
282.7502988461965
 20
1171.55542514287
 30
0.0
 11
248.6408209332426
 21
1171.55542514287
 31
0.0
  0
LINE
  5
9862
330
985D
100
AcDbEntity
  8
寸法
 62
     0
370
    -2
100
AcDbLine
 10
248.6408209332426
 20
1238.555425142844
 30
0.0
 11
248.6408209332426
 21
1174.55542514287
 31
0.0
  0
INSERT
  5
9863
330
985D
100
AcDbEntity
  8
寸法
 62
     0
370
    -2
100
AcDbBlockReference
  2
_DOT
 10
248.6408209332426
 20
1241.555425142844
 30
0.0
 41
3.0
 42
3.0
 43
3.0
 50
90.0
  0
INSERT
  5
9864
330
985D
100
AcDbEntity
  8
寸法
 62
     0
370
    -2
100
AcDbBlockReference
  2
_DOT
 10
248.6408209332426
 20
1171.55542514287
 30
0.0
 41
3.0
 42
3.0
 43
3.0
 50
270.0
  0
MTEXT
  5
9865
330
985D
100
AcDbEntity
  8
寸法
 62
     0
100
AcDbMText
 10
237.6408209332426
 20
1206.555425142857
 30
0.0
 40
12.0
 41
0.0
 46
0.0
 71
     5
 72
     1
  1
\A1;70
  7
ＭＳ ゴシック
 11
0.0
 21
1.0
 31
0.0
 73
     1
 44
1.0
  0
POINT
  5
9866
330
985D
100
AcDbEntity
  8
Defpoints
 62
     0
100
AcDbPoint
 10
292.7502377596729
 20
1241.555425142844
 30
0.0
  0
POINT
  5
9867
330
985D
100
AcDbEntity
  8
Defpoints
 62
     0
100
AcDbPoint
 10
292.7502988461965
 20
1171.55542514287
 30
0.0
  0
POINT
  5
9868
330
985D
100
AcDbEntity
  8
Defpoints
 62
     0
100
AcDbPoint
 10
248.6408209332426
 20
1171.55542514287
 30
0.0
  0
ENDBLK
  5
985F
330
985D
100
AcDbEntity
  8
0
100
AcDbBlockEnd
  0
ENDSEC
  0
SECTION
  2
ENTITIES
  0
POINT
  5
1301
330
A
100
AcDbEntity
  8
MODEL
100
AcDbPoint
 10
963.7243970754489
 20
138.0847547131194
 30
0.0
  0
POINT
  5
1306
330
A
100
AcDbEntity
  8
MODEL
100
AcDbPoint
 10
847.7244070754489
 20
138.0847547131194
 30
0.0
  0
POINT
  5
1307
330
A
100
AcDbEntity
  8
MODEL
100
AcDbPoint
 10
973.7862873746794
 20
166.0075841667841
 30
0.0
  0
POINT
  5
1308
330
A
100
AcDbEntity
  8
MODEL
100
AcDbPoint
 10
973.7862873746794
 20
184.0075841667841
 30
0.0
  0
POINT
  5
1312
330
A
100
AcDbEntity
  8
MODEL
100
AcDbPoint
 10
810.9244070754489
 20
149.007583882008
 30
0.0
  0
POINT
  5
1313
330
A
100
AcDbEntity
  8
MODEL
100
AcDbPoint
 10
810.9244070754489
 20
201.007583882008
 30
0.0
  0
POINT
  5
131E
330
A
100
AcDbEntity
  8
MODEL
100
AcDbPoint
 10
1111.259263541787
 20
138.207583607055
 30
0.0
  0
POINT
  5
131F
330
A
100
AcDbEntity
  8
MODEL
100
AcDbPoint
 10
1104.759263541787
 20
138.207583607055
 30
0.0
  0
POINT
  5
1342
330
A
100
AcDbEntity
  8
MODEL
100
AcDbPoint
 10
973.354966229004
 20
368.3598201219507
 30
0.0
  0
POINT
  5
1343
330
A
100
AcDbEntity
  8
MODEL
100
AcDbPoint
 10
973.354966229004
 20
319.3598501219507
 30
0.0
  0
POINT
  5
1346
330
A
100
AcDbEntity
  8
MODEL
100
AcDbPoint
 10
983.2218070738209
 20
368.3598201219507
 30
0.0
  0
POINT
  5
1347
330
A
100
AcDbEntity
  8
MODEL
100
AcDbPoint
 10
983.2218070738209
 20
301.3598201219507
 30
0.0
  0
POINT
  5
1350
330
A
100
AcDbEntity
  8
MODEL
100
AcDbPoint
 10
963.7243970754489
 20
286.3598201219507
 30
0.0
  0
POINT
  5
1351
330
A
100
AcDbEntity
  8
MODEL
100
AcDbPoint
 10
838.7244070754489
 20
286.3598201219507
 30
0.0
  0
POINT
  5
1357
330
A
100
AcDbEntity
  8
MODEL
100
AcDbPoint
 10
810.9244070754489
 20
301.3598201219507
 30
0.0
  0
POINT
  5
1359
330
A
100
AcDbEntity
  8
MODEL
100
AcDbPoint
 10
810.9244070754489
 20
361.3598201219507
 30
0.0
  0
POINT
  5
135A
330
A
100
AcDbEntity
  8
MODEL
100
AcDbPoint
 10
810.9244070754489
 20
368.3598201219507
 30
0.0
  0
POINT
  5
135B
330
A
100
AcDbEntity
  8
MODEL
100
AcDbPoint
 10
810.9244070754489
 20
361.3598201219507
 30
0.0
  0
POINT
  5
1371
330
A
100
AcDbEntity
  8
MODEL
100
AcDbPoint
 10
1164.81489702863
 20
383.9337336502628
 30
0.0
  0
POINT
  5
1372
330
A
100
AcDbEntity
  8
MODEL
100
AcDbPoint
 10
1164.81489702863
 20
279.9338376502628
 30
0.0
  0
POINT
  5
1378
330
A
100
AcDbEntity
  8
MODEL
100
AcDbPoint
 10
1180.157201609016
 20
264.2731813749589
 30
0.0
  0
POINT
  5
1379
330
A
100
AcDbEntity
  8
MODEL
100
AcDbPoint
 10
1193.957187809016
 20
264.2731813749589
 30
0.0
  0
POINT
  5
1389
330
A
100
AcDbEntity
  8
MODEL
100
AcDbPoint
 10
1079.093440814797
 20
383.9337336502628
 30
0.0
  0
POINT
  5
138A
330
A
100
AcDbEntity
  8
MODEL
100
AcDbPoint
 10
1079.093440814797
 20
279.9337336502626
 30
0.0
  0
POINT
  5
138D
330
A
100
AcDbEntity
  8
MODEL
100
AcDbPoint
 10
1093.467555113589
 20
264.2731813749589
 30
0.0
  0
POINT
  5
138E
330
A
100
AcDbEntity
  8
MODEL
100
AcDbPoint
 10
1106.467555113589
 20
264.2731813749589
 30
0.0
  0
POINT
  5
1398
330
A
100
AcDbEntity
  8
MODEL
100
AcDbPoint
 10
1180.157201609016
 20
398.2298339817613
 30
0.0
  0
POINT
  5
1399
330
A
100
AcDbEntity
  8
MODEL
100
AcDbPoint
 10
1194.157187609016
 20
398.2298339817613
 30
0.0
  0
POINT
  5
139C
330
A
100
AcDbEntity
  8
MODEL
100
AcDbPoint
 10
1093.467555113589
 20
398.2298339817613
 30
0.0
  0
POINT
  5
139D
330
A
100
AcDbEntity
  8
MODEL
100
AcDbPoint
 10
1107.467555113589
 20
398.2298339817613
 30
0.0
  0
POINT
  5
4967
330
A
100
AcDbEntity
  8
MODEL
100
AcDbPoint
 10
159.6608149866037
 20
1112.943495860789
 30
0.0
  0
POINT
  5
4968
330
A
100
AcDbEntity
  8
MODEL
100
AcDbPoint
 10
159.6608149866037
 20
1058.143496245838
 30
0.0
  0
POINT
  5
499D
330
A
100
AcDbEntity
  8
MODEL
100
AcDbPoint
 10
471.5926809920595
 20
1039.574930990415
 30
0.0
  0
POINT
  5
499E
330
A
100
AcDbEntity
  8
MODEL
100
AcDbPoint
 10
478.7926809920594
 20
1039.574930990415
 30
0.0
  0
LINE
  5
51B4
330
A
100
AcDbEntity
  8
PRINT BORDER
100
AcDbLine
 10
1050.0
 20
742.4999999999999
 30
0.0
 11
1011.726184428602
 21
742.4999999999999
 31
0.0
  0
LINE
  5
51B5
330
A
100
AcDbEntity
  8
テンプレート
100
AcDbLine
 10
759.3735257954539
 20
94.68797300665763
 30
0.0
 11
38.27381557139756
 21
94.68797300665763
 31
0.0
  0
LINE
  5
51B6
330
A
100
AcDbEntity
  8
テンプレート
100
AcDbLine
 10
1011.726184428603
 20
64.54654284412487
 30
0.0
 11
1011.726184428602
 21
1446.726184428602
 31
0.0
  0
TEXT
  5
51B7
330
A
100
AcDbEntity
  8
テンプレート
100
AcDbText
 10
45.15304248785299
 20
79.41335028644751
 30
0.0
 40
8.75
  1
材質
  7
ＭＳ ゴシック
100
AcDbText
  0
TEXT
  5
51B8
330
A
100
AcDbEntity
  8
テンプレート
100
AcDbText
 10
45.15304248785299
 20
140.2666764629323
 30
0.0
 40
8.75
  1
品名
  7
ＭＳ ゴシック
100
AcDbText
  0
TEXT
  5
51B9
330
A
100
AcDbEntity
  8
テンプレート
100
AcDbText
 10
45.15304248785299
 20
110.6201842231076
 30
0.0
 40
8.75
  1
仕上げ
  7
ＭＳ ゴシック
100
AcDbText
  0
TEXT
  5
51BA
330
A
100
AcDbEntity
  8
テンプレート
100
AcDbText
 10
549.2769152720991
 20
140.4557770538526
 30
0.0
 40
8.75
  1
品番
  7
ＭＳ ゴシック
100
AcDbText
  0
TEXT
  5
51BB
330
A
100
AcDbEntity
  8
テンプレート
100
AcDbText
 10
83.99740069420864
 20
131.7287153552849
 30
0.0
 40
13.75
  1
グラッブレール - FSB -
  7
ＭＳ ゴシック
100
AcDbText
  0
TEXT
  5
51BC
330
A
100
AcDbEntity
  8
テンプレート
100
AcDbText
 10
584.7613453333886
 20
131.4354020574876
 30
0.0
 40
13.75
  1
FSB74-0020
  7
ＭＳ ゴシック
100
AcDbText
  0
LINE
  5
51BD
330
A
100
AcDbEntity
  8
テンプレート
100
AcDbLine
 10
759.3735257954539
 20
124.4051126815953
 30
0.0
 11
38.27381557139756
 21
124.4051126815953
 31
0.0
  0
LINE
  5
51BE
330
A
100
AcDbEntity
  8
テンプレート
100
AcDbLine
 10
1011.726184428603
 20
154.5465428441248
 30
0.0
 11
38.27381557139734
 21
154.5465428441248
 31
0.0
  0
LINE
  5
51BF
330
A
100
AcDbEntity
  8
PRINT BORDER
100
AcDbLine
 10
524.9999999999998
 20
1485.0
 30
0.0
 11
524.9999999999998
 21
1446.726184428603
 31
0.0
  0
LINE
  5
51C0
330
A
100
AcDbEntity
  8
PRINT BORDER
100
AcDbLine
 10
525.0
 20
0.0000000000000844
 30
0.0
 11
525.0
 21
38.27381557139753
 31
0.0
  0
LINE
  5
51C1
330
A
100
AcDbEntity
  8
PRINT BORDER
100
AcDbLine
 10
-0.0000000000002274
 20
742.4999999999998
 30
0.0
 11
38.27381557139734
 21
742.4999999999998
 31
0.0
  0
LINE
  5
51C2
330
A
100
AcDbEntity
  8
テンプレート
100
AcDbLine
 10
894.4461579019802
 20
1446.726184428603
 30
0.0
 11
984.4461579019802
 21
1446.726184428603
 31
0.0
  0
TEXT
  5
51C4
330
A
100
AcDbEntity
  8
テンプレート
100
AcDbText
 10
789.0505083978948
 20
41.78786084164062
 30
0.0
 40
13.75
  1
大洋金物株式会社  
  7
ＭＳ ゴシック
100
AcDbText
  0
LINE
  5
51C5
330
A
100
AcDbEntity
  8
テンプレート
100
AcDbLine
 10
759.3735257954539
 20
154.5465428441247
 30
0.0
 11
759.3735257954539
 21
64.54654284412472
 31
0.0
  0
LINE
  5
51C6
330
A
100
AcDbEntity
  8
テンプレート
100
AcDbLine
 10
544.7185439772725
 20
154.5465428441247
 30
0.0
 11
544.7185439772725
 21
64.54654284412472
 31
0.0
  0
INSERT
  5
51C7
330
A
100
AcDbEntity
  8
テンプレート
100
AcDbBlockReference
  2
名称未設定-1
 10
922.603461874042
 20
-18.61645942618463
 30
0.0
 41
0.4524375
 42
0.4524375
 43
0.4524375
  0
LINE
  5
51CA
330
A
100
AcDbEntity
  8
テンプレート
100
AcDbLine
 10
1011.726184428603
 20
64.54654284412487
 30
0.0
 11
38.27381557139745
 21
64.5465428441247
 31
0.0
  0
LINE
  5
51CB
330
A
100
AcDbEntity
  8
テンプレート
100
AcDbLine
 10
38.27381557139734
 20
742.4999999999998
 30
0.0
 11
38.27381557139744
 21
64.5465428441247
 31
0.0
  0
LINE
  5
51CC
330
A
100
AcDbEntity
  8
テンプレート
100
AcDbLine
 10
38.27381557139734
 20
742.4999999999998
 30
0.0
 11
38.27381557139722
 21
1446.726184428603
 31
0.0
  0
LINE
  5
51CD
330
A
100
AcDbEntity
  8
テンプレート
100
AcDbLine
 10
524.9999999999998
 20
1446.726184428603
 30
0.0
 11
38.27381557139722
 21
1446.726184428603
 31
0.0
  0
LINE
  5
51CE
330
A
100
AcDbEntity
  8
テンプレート
100
AcDbLine
 10
524.9999999999998
 20
1446.726184428603
 30
0.0
 11
1011.726184428602
 21
1446.726184428602
 31
0.0
  0
LWPOLYLINE
  5
51CF
102
{ACAD_REACTORS
102
}
330
A
100
AcDbEntity
  8
PRINT BORDER
  6
HIDDEN
 48
3.0
100
AcDbPolyline
 90
        4
 70
     1
 43
0.0
 10
1050.0
 20
0.0000000000001689
 10
0.0
 20
0.0
 10
-0.0000000000002274
 20
1485.0
 10
1050.0
 20
1485.0
  0
TEXT
  5
51D0
330
A
100
AcDbEntity
  8
テンプレート
100
AcDbText
 10
549.215833032828
 20
80.55283431659235
 30
0.0
 40
8.75
  1
縮尺
  7
ＭＳ ゴシック
100
AcDbText
  0
TEXT
  5
51D1
330
A
100
AcDbEntity
  8
テンプレート
100
AcDbText
 10
584.7613453333886
 20
69.72675250178499
 30
0.0
 40
13.75
  1
1/5
  7
ＭＳ ゴシック
100
AcDbText
  0
TEXT
  5
51D2
330
A
100
AcDbEntity
  8
テンプレート
100
AcDbText
 10
549.2769152720991
 20
110.3143468913197
 30
0.0
 40
8.75
  1
扉厚
  7
ＭＳ ゴシック
100
AcDbText
  0
TEXT
  5
51D3
330
A
100
AcDbEntity
  8
テンプレート
100
AcDbText
 10
764.5954069638211
 20
140.4557770538526
 30
0.0
 40
8.75
  1
備考
  7
ＭＳ ゴシック
100
AcDbText
  0
TEXT
  5
51D5
330
A
100
AcDbEntity
  8
_0-1_
 62
     1
100
AcDbText
 10
-79.37939740351132
 20
177.7468866874332
 30
0.0
 40
4.0
  1
   
 50
90.00000000000001
  7
ＭＳ ゴシック
100
AcDbText
  0
LINE
  5
51D6
330
A
100
AcDbEntity
  8
SPACER
  6
CENTER
 48
3.0
100
AcDbLine
 10
127.1816507401138
 20
224.6771809568476
 30
0.0
 11
127.1816507401138
 21
137.0485128832279
 31
0.0
  0
LINE
  5
51D7
330
A
100
AcDbEntity
  8
SPACER
  6
CENTER
 48
3.0
100
AcDbLine
 10
83.36731670330403
 20
180.8628469200378
 30
0.0
 11
170.9959847769237
 21
180.8628469200378
 31
0.0
  0
LINE
  5
51D8
330
A
100
AcDbEntity
  8
SPACER
  6
CENTER
 48
3.0
100
AcDbLine
 10
83.36817797774336
 20
348.7335990428101
 30
0.0
 11
170.9968460513629
 21
348.7335990428101
 31
0.0
  0
LINE
  5
51D9
330
A
100
AcDbEntity
  8
SPACER
  6
CENTER
 48
3.0
100
AcDbLine
 10
408.8721245115548
 20
365.1479330796199
 30
0.0
 11
408.8721245115548
 21
277.5192650060002
 31
0.0
  0
LINE
  5
51DA
330
A
100
AcDbEntity
  8
SPACER
  6
CENTER
 48
3.0
100
AcDbLine
 10
365.0577904747449
 20
321.33359904281
 30
0.0
 11
452.6864585483646
 21
321.33359904281
 31
0.0
  0
LWPOLYLINE
  5
523C
330
A
100
AcDbEntity
  8
SPACER
100
AcDbPolyline
 90
        4
 70
     1
 43
0.0
 10
161.5928474918056
 20
97.1045060433407
 10
161.5928474918056
 20
69.6571102646527
 10
432.4071525081941
 20
69.6571102646527
 10
432.4071525081941
 20
97.1045060433407
  0
LINE
  5
523D
330
A
100
AcDbEntity
  8
SPACER
  6
CENTER
 48
3.0
100
AcDbLine
 10
296.9999999999999
 20
404.690473771441
 30
0.0
 11
297.0
 21
106.25363796957
 31
0.0
  0
LINE
  5
523E
330
A
100
AcDbEntity
  8
SPACER
  6
CENTER
 48
3.0
100
AcDbLine
 10
15.30952622855898
 20
255.4720558705055
 30
0.0
 11
578.690473771441
 21
255.4720558705055
 31
0.0
  0
LINE
  5
523F
330
A
100
AcDbEntity
  8
SPACER
  6
CENTER
 48
3.0
100
AcDbLine
 10
15.30952622855898
 20
106.25363796957
 30
0.0
 11
578.690473771441
 21
106.25363796957
 31
0.0
  0
LINE
  5
5240
330
A
100
AcDbEntity
  8
SPACER
  6
CENTER
 48
3.0
100
AcDbLine
 10
408.8721245115548
 20
224.6771809568476
 30
0.0
 11
408.8721245115548
 21
137.0485128832279
 31
0.0
  0
LINE
  5
5241
330
A
100
AcDbEntity
  8
SPACER
  6
CENTER
 48
3.0
100
AcDbLine
 10
365.057790474745
 20
180.8628469200378
 30
0.0
 11
452.6864585483647
 21
180.8628469200378
 31
0.0
  0
LINE
  5
52EB
330
A
100
AcDbEntity
  8
SPACER
  6
CENTER
 48
3.0
100
AcDbLine
 10
127.1825120145532
 20
392.54793307962
 30
0.0
 11
127.1825120145532
 21
304.9192650060003
 31
0.0
  0
MTEXT
  5
574F
330
A
100
AcDbEntity
  8
テンプレート
390
1D
100
AcDbMText
 10
87.55307883742285
 20
85.42656762465329
 30
0.0
 40
12.5
 41
0.0
 46
12.6875
 71
     1
 72
     1
  1
{ステンレス}
  7
ＭＳ ゴシック
 73
     1
 44
0.7828267384257843
1001
ACAD
1000
ACAD_MTEXT_DEFINED_HEIGHT_BEGIN
1070
    46
1040
12.6875
1000
ACAD_MTEXT_DEFINED_HEIGHT_END
  0
TEXT
  5
57D7
330
A
100
AcDbEntity
  8
テンプレート
100
AcDbText
 10
264.1882447865975
 20
163.7797962232269
 30
0.0
 40
12.5
  1
　 加工は現物合わせの上行って下さい。
  7
ＭＳ ゴシック
100
AcDbText
  0
TEXT
  5
57D8
330
A
100
AcDbEntity
  8
テンプレート
100
AcDbText
 10
264.6188524921191
 20
184.0392564635773
 30
0.0
 40
12.5
  1
※ 輸入製品の為、国内製品と比べ製品寸法の個体差に幅が有ります。
  7
ＭＳ ゴシック
100
AcDbText
  0
MTEXT
  5
5893
102
{ACAD_XDICTIONARY
360
5895
102
}
330
A
100
AcDbEntity
  8
テンプレート
  6
Continuous
370
     0
100
AcDbMText
 10
38.68477877989028
 20
59.3301743462859
 30
0.0
 40
10.0
 41
0.0
 46
4.0
 71
     1
 72
     1
  1
{20180522N}
  7
ＭＳ ゴシック
 73
     1
 44
1.0
1001
ACAD
1000
ACAD_MTEXT_DEFINED_HEIGHT_BEGIN
1070
    46
1040
4.0
1000
ACAD_MTEXT_DEFINED_HEIGHT_END
  0
MTEXT
  5
614B
330
A
100
AcDbEntity
  8
テンプレート
390
1D
100
AcDbMText
 10
87.55307883742285
 20
115.1784221701079
 30
0.0
 40
12.5
 41
0.0
 46
13.575
 71
     1
 72
     1
  1
{ステンレスマット・ステンレスポリッシュ}
  7
ＭＳ ゴシック
 73
     1
 44
0.7828267384257843
1001
ACAD
1000
ACAD_MTEXT_DEFINED_HEIGHT_BEGIN
1070
    46
1040
13.575
1000
ACAD_MTEXT_DEFINED_HEIGHT_END
  0
LINE
  5
9750
330
A
100
AcDbEntity
  8
102
  6
Continuous
 62
     7
100
AcDbLine
 10
757.0013337268153
 20
313.8054111428572
 30
0.0
 11
757.0013337268153
 21
1198.805411142857
 31
0.0
  0
LINE
  5
9751
330
A
100
AcDbEntity
  8
102
  6
Continuous
 62
     7
100
AcDbLine
 10
735.0013337268153
 20
313.8054111428572
 30
0.0
 11
735.0013337268153
 21
1198.805411142857
 31
0.0
  0
ARC
  5
9752
330
A
100
AcDbEntity
  8
102
  6
Continuous
 62
     7
100
AcDbCircle
 10
686.8930237268153
 20
306.3054111428572
 30
0.0
 40
72.0
100
AcDbArc
 50
354.020843
 51
5.979157000000014
  0
LINE
  5
9753
330
A
100
AcDbEntity
  8
102
  6
Continuous
 62
     7
100
AcDbLine
 10
677.0013337268153
 20
298.8054111428572
 30
0.0
 11
758.5013337268153
 21
298.8054111428572
 31
0.0
  0
LINE
  5
9754
330
A
100
AcDbEntity
  8
102
  6
Continuous
 62
     7
100
AcDbLine
 10
758.5013337268153
 20
313.8054111428572
 30
0.0
 11
677.0013337268153
 21
313.8054111428572
 31
0.0
  0
LINE
  5
9757
330
A
100
AcDbEntity
  8
102
  6
Continuous
 62
     7
100
AcDbLine
 10
291.2513557268153
 20
1379.214543331169
 30
0.0
 11
291.2513557268153
 21
1310.214543331169
 31
0.0
  0
LINE
  5
9758
330
A
100
AcDbEntity
  8
102
  6
Continuous
 62
     7
100
AcDbLine
 10
316.2513557268153
 20
1379.214543331169
 30
0.0
 11
316.2513557268153
 21
1310.214543331169
 31
0.0
  0
LINE
  5
975C
330
A
100
AcDbEntity
  8
102
  6
Continuous
 62
     7
100
AcDbLine
 10
316.6430457268152
 20
1310.214543331169
 30
0.0
 11
316.6430457268152
 21
1379.214543331169
 31
0.0
  0
LINE
  5
975D
330
A
100
AcDbEntity
  8
102
  6
Continuous
 62
     7
100
AcDbLine
 10
290.8596647268153
 20
1379.214543331169
 30
0.0
 11
290.8596647268153
 21
1310.214543331169
 31
0.0
  0
LINE
  5
975F
330
A
100
AcDbEntity
  8
102
  6
Continuous
 62
     7
100
AcDbLine
 10
292.7513577268153
 20
313.8053961428572
 30
0.0
 11
292.7513577268153
 21
1198.805396142857
 31
0.0
  0
LINE
  5
9760
330
A
100
AcDbEntity
  8
102
  6
Continuous
 62
     7
100
AcDbLine
 10
314.7513577268153
 20
313.8053961428572
 30
0.0
 11
314.7513577268153
 21
1198.805396142857
 31
0.0
  0
ARC
  5
9761
330
A
100
AcDbEntity
  8
102
  6
Continuous
 62
     7
100
AcDbCircle
 10
244.6430487268153
 20
306.3053961428572
 30
0.0
 40
72.0
100
AcDbArc
 50
354.0208429999999
 51
5.979157000000019
  0
ARC
  5
9762
330
A
100
AcDbEntity
  8
102
  6
Continuous
 62
     7
100
AcDbCircle
 10
362.8596677268154
 20
306.3053961428572
 30
0.0
 40
72.0
100
AcDbArc
 50
174.020843
 51
185.979157
  0
LINE
  5
9763
330
A
100
AcDbEntity
  8
102
  6
Continuous
 62
     7
100
AcDbLine
 10
669.0013367268152
 20
341.4624691428572
 30
0.0
 11
675.0013367268152
 21
341.3053541428573
 31
0.0
  0
LINE
  5
9765
330
A
100
AcDbEntity
  8
102
  6
Continuous
 62
     7
100
AcDbLine
 10
669.0013367268152
 20
271.1482381428572
 30
0.0
 11
669.0013367268152
 21
341.4624691428572
 31
0.0
  0
LINE
  5
9766
330
A
100
AcDbEntity
  8
HIDDEN
100
AcDbLine
 10
674.0013377268153
 20
331.3972371428572
 30
0.0
 11
675.0013377268153
 21
331.3972371428572
 31
0.0
  0
LINE
  5
9767
330
A
100
AcDbEntity
  8
HIDDEN
100
AcDbLine
 10
674.0013377268153
 20
319.3972371428572
 30
0.0
 11
675.0013377268153
 21
319.3972371428572
 31
0.0
  0
LINE
  5
9768
330
A
100
AcDbEntity
  8
HIDDEN
100
AcDbLine
 10
671.2013377268154
 20
328.5972371428572
 30
0.0
 11
674.0013377268153
 21
331.3972371428572
 31
0.0
  0
LINE
  5
9769
330
A
100
AcDbEntity
  8
HIDDEN
100
AcDbLine
 10
671.2013377268154
 20
322.1972371428572
 30
0.0
 11
674.0013377268153
 21
319.3972371428572
 31
0.0
  0
LINE
  5
976A
330
A
100
AcDbEntity
  8
HIDDEN
100
AcDbLine
 10
668.5013367268152
 20
328.5972371428572
 30
0.0
 11
671.2013377268154
 21
328.5972371428572
 31
0.0
  0
LINE
  5
976B
330
A
100
AcDbEntity
  8
HIDDEN
100
AcDbLine
 10
668.5013367268152
 20
322.1972371428572
 30
0.0
 11
671.2013377268154
 21
322.1972371428572
 31
0.0
  0
LINE
  5
976C
330
A
100
AcDbEntity
  8
HIDDEN
100
AcDbLine
 10
674.0013377268153
 20
312.3053541428572
 30
0.0
 11
675.0013377268153
 21
312.3053541428572
 31
0.0
  0
LINE
  5
976D
330
A
100
AcDbEntity
  8
HIDDEN
100
AcDbLine
 10
674.0013377268153
 20
300.3053541428572
 30
0.0
 11
675.0013377268153
 21
300.3053541428572
 31
0.0
  0
LINE
  5
976E
330
A
100
AcDbEntity
  8
HIDDEN
100
AcDbLine
 10
671.2013377268154
 20
309.5053541428572
 30
0.0
 11
674.0013377268153
 21
312.3053541428572
 31
0.0
  0
LINE
  5
976F
330
A
100
AcDbEntity
  8
HIDDEN
100
AcDbLine
 10
671.2013377268154
 20
303.1053541428572
 30
0.0
 11
674.0013377268153
 21
300.3053541428572
 31
0.0
  0
LINE
  5
9770
330
A
100
AcDbEntity
  8
HIDDEN
100
AcDbLine
 10
668.5013367268152
 20
309.5053541428572
 30
0.0
 11
671.2013377268154
 21
309.5053541428572
 31
0.0
  0
LINE
  5
9771
330
A
100
AcDbEntity
  8
HIDDEN
100
AcDbLine
 10
668.5013367268152
 20
303.1053541428572
 30
0.0
 11
671.2013377268154
 21
303.1053541428572
 31
0.0
  0
LINE
  5
9772
330
A
100
AcDbEntity
  8
HIDDEN
100
AcDbLine
 10
674.0013377268153
 20
293.2134711428572
 30
0.0
 11
675.0013377268153
 21
293.2134711428572
 31
0.0
  0
LINE
  5
9773
330
A
100
AcDbEntity
  8
HIDDEN
100
AcDbLine
 10
674.0013377268153
 20
281.2134711428572
 30
0.0
 11
675.0013377268153
 21
281.2134711428572
 31
0.0
  0
LINE
  5
9774
330
A
100
AcDbEntity
  8
HIDDEN
100
AcDbLine
 10
671.2013377268154
 20
290.4134711428572
 30
0.0
 11
674.0013377268153
 21
293.2134711428572
 31
0.0
  0
LINE
  5
9775
330
A
100
AcDbEntity
  8
HIDDEN
100
AcDbLine
 10
671.2013377268154
 20
284.0134711428572
 30
0.0
 11
674.0013377268153
 21
281.2134711428572
 31
0.0
  0
LINE
  5
9776
330
A
100
AcDbEntity
  8
HIDDEN
100
AcDbLine
 10
668.5013367268152
 20
290.4134711428572
 30
0.0
 11
671.2013377268154
 21
290.4134711428572
 31
0.0
  0
LINE
  5
9777
330
A
100
AcDbEntity
  8
HIDDEN
100
AcDbLine
 10
668.5013367268152
 20
284.0134711428572
 30
0.0
 11
671.2013377268154
 21
284.0134711428572
 31
0.0
  0
LINE
  5
9779
330
A
100
AcDbEntity
  8
102
  6
Continuous
 62
     7
100
AcDbLine
 10
669.0013367268152
 20
271.1482381428572
 30
0.0
 11
675.0013367268152
 21
271.3053541428572
 31
0.0
  0
LINE
  5
977A
330
A
100
AcDbEntity
  8
102
  6
Continuous
 62
     7
100
AcDbLine
 10
675.0013367268152
 20
271.0553511428572
 30
0.0
 11
675.0013367268152
 21
341.5553511428572
 31
0.0
  0
LINE
  5
977B
330
A
100
AcDbEntity
  8
102
  6
Continuous
 62
     7
100
AcDbLine
 10
677.0013367268152
 20
271.0553511428572
 30
0.0
 11
677.0013367268152
 21
341.5553511428572
 31
0.0
  0
LINE
  5
977C
330
A
100
AcDbEntity
  8
102
  6
Continuous
 62
     7
100
AcDbLine
 10
675.0013367268152
 20
341.5553511428572
 30
0.0
 11
677.0013367268152
 21
341.5553511428572
 31
0.0
  0
LINE
  5
977F
330
A
100
AcDbEntity
  8
102
  6
Continuous
 62
     7
100
AcDbLine
 10
675.0013367268152
 20
271.0553511428572
 30
0.0
 11
677.0013367268152
 21
271.0553511428572
 31
0.0
  0
LINE
  5
9780
330
A
100
AcDbEntity
  8
HIDDEN
100
AcDbLine
 10
674.0656597268153
 20
281.3053511428572
 30
0.0
 11
674.0013367268152
 21
281.3053511428572
 31
0.0
  0
LINE
  5
9781
330
A
100
AcDbEntity
  8
HIDDEN
100
AcDbLine
 10
674.0656597268153
 20
331.3053511428572
 30
0.0
 11
674.0013367268152
 21
331.3053511428572
 31
0.0
  0
LINE
  5
9782
330
A
100
AcDbEntity
  8
HIDDEN
100
AcDbLine
 10
279.9514537268153
 20
1385.014539331169
 30
0.0
 11
282.7514537268153
 21
1382.214539331169
 31
0.0
  0
LINE
  5
9783
330
A
100
AcDbEntity
  8
HIDDEN
100
AcDbLine
 10
282.7514537268153
 20
1382.214539331169
 30
0.0
 11
282.7514537268153
 21
1381.214539331169
 31
0.0
  0
LINE
  5
9784
330
A
100
AcDbEntity
  8
HIDDEN
100
AcDbLine
 10
273.5514537268152
 20
1385.014539331169
 30
0.0
 11
279.9514537268153
 21
1385.014539331169
 31
0.0
  0
LINE
  5
9785
330
A
100
AcDbEntity
  8
HIDDEN
100
AcDbLine
 10
270.7514537268153
 20
1382.214539331169
 30
0.0
 11
290.6595697268153
 21
1382.214539331169
 31
0.0
  0
LINE
  5
9786
330
A
100
AcDbEntity
  8
HIDDEN
100
AcDbLine
 10
287.8595707268153
 20
1385.014538331169
 30
0.0
 11
290.6595707268152
 21
1382.214538331169
 31
0.0
  0
LINE
  5
9787
330
A
100
AcDbEntity
  8
HIDDEN
100
AcDbLine
 10
290.6595707268152
 20
1382.214538331169
 30
0.0
 11
290.6595707268152
 21
1381.214538331169
 31
0.0
  0
LINE
  5
9788
330
A
100
AcDbEntity
  8
HIDDEN
100
AcDbLine
 10
281.4595707268154
 20
1385.014538331169
 30
0.0
 11
287.8595707268153
 21
1385.014538331169
 31
0.0
  0
LINE
  5
9789
330
A
100
AcDbEntity
  8
HIDDEN
100
AcDbLine
 10
333.9514537268153
 20
1385.014539331169
 30
0.0
 11
336.7514537268153
 21
1382.214539331169
 31
0.0
  0
LINE
  5
978A
330
A
100
AcDbEntity
  8
HIDDEN
100
AcDbLine
 10
336.7514537268153
 20
1382.214539331169
 30
0.0
 11
336.7514537268153
 21
1381.214539331169
 31
0.0
  0
LINE
  5
978B
330
A
100
AcDbEntity
  8
HIDDEN
100
AcDbLine
 10
327.5514537268152
 20
1385.014539331169
 30
0.0
 11
333.9514537268153
 21
1385.014539331169
 31
0.0
  0
LINE
  5
978C
330
A
100
AcDbEntity
  8
HIDDEN
100
AcDbLine
 10
326.0433367268154
 20
1385.014538331169
 30
0.0
 11
328.8433367268153
 21
1382.214538331169
 31
0.0
  0
LINE
  5
978D
330
A
100
AcDbEntity
  8
HIDDEN
100
AcDbLine
 10
328.8433367268153
 20
1382.214538331169
 30
0.0
 11
328.8433367268153
 21
1381.214538331169
 31
0.0
  0
LINE
  5
978E
330
A
100
AcDbEntity
  8
HIDDEN
100
AcDbLine
 10
319.6433367268153
 20
1385.014538331169
 30
0.0
 11
326.0433367268154
 21
1385.014538331169
 31
0.0
  0
LINE
  5
978F
330
A
100
AcDbEntity
  8
HIDDEN
100
AcDbLine
 10
316.8433367268153
 20
1382.214538331169
 30
0.0
 11
336.7514547268154
 21
1382.214538331169
 31
0.0
  0
LINE
  5
9790
330
A
100
AcDbEntity
  8
HIDDEN
100
AcDbLine
 10
279.9514537268153
 20
1387.714539331169
 30
0.0
 11
279.9514537268153
 21
1385.014539331169
 31
0.0
  0
LINE
  5
9791
330
A
100
AcDbEntity
  8
HIDDEN
100
AcDbLine
 10
287.8595707268153
 20
1387.714539331169
 30
0.0
 11
287.8595707268153
 21
1385.014538331169
 31
0.0
  0
LINE
  5
9792
330
A
100
AcDbEntity
  8
HIDDEN
100
AcDbLine
 10
333.9514537268153
 20
1387.714539331169
 30
0.0
 11
333.9514537268153
 21
1385.014539331169
 31
0.0
  0
LINE
  5
9793
330
A
100
AcDbEntity
  8
HIDDEN
100
AcDbLine
 10
326.0433367268154
 20
1387.714539331169
 30
0.0
 11
326.0433367268154
 21
1385.014538331169
 31
0.0
  0
LINE
  5
9794
330
A
100
AcDbEntity
  8
HIDDEN
100
AcDbLine
 10
316.8433367268153
 20
1382.214538331169
 30
0.0
 11
316.8433367268153
 21
1381.214538331169
 31
0.0
  0
LINE
  5
9795
330
A
100
AcDbEntity
  8
HIDDEN
100
AcDbLine
 10
319.6433367268153
 20
1385.014538331169
 30
0.0
 11
316.8433367268153
 21
1382.214538331169
 31
0.0
  0
LINE
  5
9796
330
A
100
AcDbEntity
  8
HIDDEN
100
AcDbLine
 10
319.6433367268153
 20
1387.714539331169
 30
0.0
 11
319.6433367268153
 21
1385.014538331169
 31
0.0
  0
LINE
  5
9797
330
A
100
AcDbEntity
  8
HIDDEN
100
AcDbLine
 10
324.7514537268153
 20
1382.214539331169
 30
0.0
 11
324.7514537268153
 21
1381.214539331169
 31
0.0
  0
LINE
  5
9798
330
A
100
AcDbEntity
  8
HIDDEN
100
AcDbLine
 10
327.5514537268152
 20
1385.014539331169
 30
0.0
 11
324.7514537268153
 21
1382.214539331169
 31
0.0
  0
LINE
  5
9799
330
A
100
AcDbEntity
  8
HIDDEN
100
AcDbLine
 10
327.5514537268152
 20
1387.714539331169
 30
0.0
 11
327.5514537268152
 21
1385.014539331169
 31
0.0
  0
LINE
  5
979A
330
A
100
AcDbEntity
  8
HIDDEN
100
AcDbLine
 10
278.6595707268152
 20
1382.214538331169
 30
0.0
 11
278.6595707268152
 21
1381.214538331169
 31
0.0
  0
LINE
  5
979B
330
A
100
AcDbEntity
  8
HIDDEN
100
AcDbLine
 10
281.4595707268154
 20
1385.014538331169
 30
0.0
 11
278.6595707268152
 21
1382.214538331169
 31
0.0
  0
LINE
  5
979C
330
A
100
AcDbEntity
  8
HIDDEN
100
AcDbLine
 10
281.4595707268154
 20
1387.714539331169
 30
0.0
 11
281.4595707268154
 21
1385.014538331169
 31
0.0
  0
LINE
  5
979D
330
A
100
AcDbEntity
  8
HIDDEN
100
AcDbLine
 10
270.7514537268153
 20
1382.214539331169
 30
0.0
 11
270.7514537268153
 21
1381.214539331169
 31
0.0
  0
LINE
  5
979E
330
A
100
AcDbEntity
  8
HIDDEN
100
AcDbLine
 10
273.5514537268152
 20
1385.014539331169
 30
0.0
 11
270.7514537268153
 21
1382.214539331169
 31
0.0
  0
LINE
  5
979F
330
A
100
AcDbEntity
  8
HIDDEN
100
AcDbLine
 10
273.5514537268152
 20
1387.714539331169
 30
0.0
 11
273.5514537268152
 21
1385.014539331169
 31
0.0
  0
LINE
  5
97A2
330
A
100
AcDbEntity
  8
102
  6
Continuous
 62
     7
100
AcDbLine
 10
338.9085687268152
 20
1387.214539331169
 30
0.0
 11
338.7514537268153
 21
1381.214539331169
 31
0.0
  0
LINE
  5
97A3
330
A
100
AcDbEntity
  8
102
  6
Continuous
 62
     7
100
AcDbLine
 10
268.5943377268154
 20
1387.214539331169
 30
0.0
 11
268.7514537268153
 21
1381.214539331169
 31
0.0
  0
LINE
  5
97A6
330
A
100
AcDbEntity
  8
102
  6
Continuous
 62
     7
100
AcDbLine
 10
268.5014507268154
 20
1381.214539331169
 30
0.0
 11
268.5014507268154
 21
1379.214539331169
 31
0.0
  0
LINE
  5
97A7
330
A
100
AcDbEntity
  8
102
  6
Continuous
 62
     7
100
AcDbLine
 10
339.0014507268154
 20
1381.214539331169
 30
0.0
 11
339.0014507268154
 21
1379.214539331169
 31
0.0
  0
CIRCLE
  5
97A8
330
A
100
AcDbEntity
  8
HIDDEN
100
AcDbCircle
 10
276.7513317268154
 20
306.3053691428572
 30
0.0
 40
3.200000000000003
  0
CIRCLE
  5
97A9
330
A
100
AcDbEntity
  8
HIDDEN
100
AcDbCircle
 10
276.7513317268154
 20
306.3053691428572
 30
0.0
 40
6.0
  0
CIRCLE
  5
97AA
330
A
100
AcDbEntity
  8
HIDDEN
100
AcDbCircle
 10
284.6594487268153
 20
287.2134861428572
 30
0.0
 40
3.200000000000003
  0
CIRCLE
  5
97AB
330
A
100
AcDbEntity
  8
HIDDEN
100
AcDbCircle
 10
284.6594487268153
 20
287.2134861428572
 30
0.0
 40
6.0
  0
CIRCLE
  5
97AC
330
A
100
AcDbEntity
  8
HIDDEN
100
AcDbCircle
 10
284.6594487268153
 20
325.3972521428572
 30
0.0
 40
3.200000000000003
  0
CIRCLE
  5
97AD
330
A
100
AcDbEntity
  8
HIDDEN
100
AcDbCircle
 10
284.6594487268153
 20
325.3972521428572
 30
0.0
 40
6.0
  0
CIRCLE
  5
97AE
330
A
100
AcDbEntity
  8
HIDDEN
100
AcDbCircle
 10
322.8432147268154
 20
287.2134861428572
 30
0.0
 40
3.200000000000003
  0
CIRCLE
  5
97AF
330
A
100
AcDbEntity
  8
HIDDEN
100
AcDbCircle
 10
322.8432147268154
 20
287.2134861428572
 30
0.0
 40
6.0
  0
CIRCLE
  5
97B0
330
A
100
AcDbEntity
  8
HIDDEN
100
AcDbCircle
 10
330.7513317268154
 20
306.3053691428572
 30
0.0
 40
3.200000000000003
  0
CIRCLE
  5
97B1
330
A
100
AcDbEntity
  8
HIDDEN
100
AcDbCircle
 10
330.7513317268154
 20
306.3053691428572
 30
0.0
 40
6.0
  0
CIRCLE
  5
97B2
330
A
100
AcDbEntity
  8
HIDDEN
100
AcDbCircle
 10
322.8432147268154
 20
325.3972521428572
 30
0.0
 40
3.200000000000003
  0
CIRCLE
  5
97B3
330
A
100
AcDbEntity
  8
HIDDEN
100
AcDbCircle
 10
322.8432147268154
 20
325.3972521428572
 30
0.0
 40
6.0
  0
ARC
  5
97B5
330
A
100
AcDbEntity
  8
HIDDEN
100
AcDbCircle
 10
303.7513317268154
 20
306.3053691428572
 30
0.0
 40
20.05237184313838
100
AcDbArc
 50
56.73138800000015
 51
123.2684299999998
  0
ARC
  5
97B6
330
A
100
AcDbEntity
  8
HIDDEN
100
AcDbCircle
 10
303.7513287268152
 20
306.3053661428572
 30
0.0
 40
20.5
100
AcDbArc
 50
57.5484129999996
 51
122.4513949999999
  0
ARC
  5
97B7
330
A
100
AcDbEntity
  8
102
  6
Continuous
 62
     7
100
AcDbCircle
 10
303.7513317268154
 20
306.3053691428572
 30
0.0
 40
20.05237184313838
100
AcDbArc
 50
123.2684299999998
 51
56.73138800000015
  0
ARC
  5
97B8
330
A
100
AcDbEntity
  8
102
  6
Continuous
 62
     7
100
AcDbCircle
 10
303.7513287268152
 20
306.3053661428572
 30
0.0
 40
20.5
100
AcDbArc
 50
122.4513949999999
 51
57.5484129999996
  0
ARC
  5
97B9
102
{ACAD_REACTORS
330
984D
102
}
330
A
100
AcDbEntity
  8
102
  6
Continuous
 62
     7
100
AcDbCircle
 10
303.7513287268152
 20
306.3053661428572
 30
0.0
 40
35.25
100
AcDbArc
 50
108.1831729999998
 51
71.81672699999997
  0
LINE
  5
97BA
330
A
100
AcDbEntity
  8
102
  6
Continuous
 62
     7
100
AcDbLine
 10
268.5943377268154
 20
1387.214539331169
 30
0.0
 11
338.9085687268152
 21
1387.214539331169
 31
0.0
  0
LINE
  5
97BB
330
A
100
AcDbEntity
  8
102
  6
Continuous
 62
     7
100
AcDbLine
 10
339.0014507268154
 20
1381.214539331169
 30
0.0
 11
268.5014507268154
 21
1381.214539331169
 31
0.0
  0
LINE
  5
97BC
330
A
100
AcDbEntity
  8
102
  6
Continuous
 62
     7
100
AcDbLine
 10
339.0014507268154
 20
1379.214539331169
 30
0.0
 11
268.5014507268154
 21
1379.214539331169
 31
0.0
  0
LINE
  5
97BD
330
A
100
AcDbEntity
  8
HIDDEN
100
AcDbLine
 10
674.0013377268153
 20
281.2134711428572
 30
0.0
 11
674.0013377268153
 21
293.2134711428572
 31
0.0
  0
LINE
  5
97BE
330
A
100
AcDbEntity
  8
HIDDEN
100
AcDbLine
 10
674.0013377268153
 20
300.3053541428572
 30
0.0
 11
674.0013377268153
 21
312.3053541428572
 31
0.0
  0
LINE
  5
97BF
330
A
100
AcDbEntity
  8
HIDDEN
100
AcDbLine
 10
674.0013377268153
 20
319.3972371428572
 30
0.0
 11
674.0013377268153
 21
331.3972371428572
 31
0.0
  0
LINE
  5
97C0
330
A
100
AcDbEntity
  8
HIDDEN
100
AcDbLine
 10
671.2013377268154
 20
284.0134711428572
 30
0.0
 11
671.2013377268154
 21
290.4134711428572
 31
0.0
  0
LINE
  5
97C1
330
A
100
AcDbEntity
  8
HIDDEN
100
AcDbLine
 10
671.2013377268154
 20
303.1053541428572
 30
0.0
 11
671.2013377268154
 21
309.5053541428572
 31
0.0
  0
LINE
  5
97C2
330
A
100
AcDbEntity
  8
HIDDEN
100
AcDbLine
 10
671.2013377268154
 20
322.1972371428572
 30
0.0
 11
671.2013377268154
 21
328.5972371428572
 31
0.0
  0
LINE
  5
97D3
330
A
100
AcDbEntity
  8
102
  6
Continuous
 62
     7
100
AcDbLine
 10
335.2514537268153
 20
1387.714539331169
 30
0.0
 11
272.2514537268153
 21
1387.714539331169
 31
0.0
  0
LINE
  5
97D4
330
A
100
AcDbEntity
  8
102
  6
Continuous
 62
     7
100
AcDbLine
 10
335.2514537268153
 20
1387.714539331169
 30
0.0
 11
335.2514537268153
 21
1387.214539331169
 31
0.0
  0
LINE
  5
97D5
330
A
100
AcDbEntity
  8
102
  6
Continuous
 62
     7
100
AcDbLine
 10
272.2514537268153
 20
1387.714539331169
 30
0.0
 11
272.2514537268153
 21
1387.214539331169
 31
0.0
  0
CIRCLE
  5
97D6
330
A
100
AcDbEntity
  8
HIDDEN
100
AcDbCircle
 10
303.7513317268154
 20
306.3053691428572
 30
0.0
 40
31.5
  0
LINE
  5
97D7
330
A
100
AcDbEntity
  8
102
  6
Continuous
 62
     7
100
AcDbLine
 10
668.5013367268152
 20
337.8053541428572
 30
0.0
 11
668.5013367268152
 21
274.8053541428572
 31
0.0
  0
LINE
  5
97D8
330
A
100
AcDbEntity
  8
102
  6
Continuous
 62
     7
100
AcDbLine
 10
668.5013367268152
 20
337.8053541428572
 30
0.0
 11
669.0013367268152
 21
337.8053541428572
 31
0.0
  0
LINE
  5
97D9
330
A
100
AcDbEntity
  8
102
  6
Continuous
 62
     7
100
AcDbLine
 10
668.5013367268152
 20
274.8053541428572
 30
0.0
 11
669.0013367268152
 21
274.8053541428572
 31
0.0
  0
ARC
  5
97DA
330
A
100
AcDbEntity
  8
HIDDEN
100
AcDbCircle
 10
303.7513287268152
 20
306.3053661428572
 30
0.0
 40
35.25
100
AcDbArc
 50
71.81672699999997
 51
108.1831729999998
  0
ARC
  5
97DC
330
A
100
AcDbEntity
  8
102
  6
Continuous
 62
     7
100
AcDbCircle
 10
686.8930237268153
 20
1206.305380142857
 30
0.0
 40
72.0
100
AcDbArc
 50
354.0208429999998
 51
5.979156999999835
  0
LINE
  5
97DD
330
A
100
AcDbEntity
  8
102
  6
Continuous
 62
     7
100
AcDbLine
 10
677.0013337268153
 20
1213.805380142857
 30
0.0
 11
758.5013337268153
 21
1213.805380142857
 31
0.0
  0
LINE
  5
97DE
330
A
100
AcDbEntity
  8
102
  6
Continuous
 62
     7
100
AcDbLine
 10
758.5013337268153
 20
1198.805380142857
 30
0.0
 11
677.0013337268153
 21
1198.805380142857
 31
0.0
  0
ARC
  5
97E0
330
A
100
AcDbEntity
  8
102
  6
Continuous
 62
     7
100
AcDbCircle
 10
244.6430487268153
 20
1206.305396142857
 30
0.0
 40
72.0
100
AcDbArc
 50
354.020843
 51
5.979157000000019
  0
ARC
  5
97E1
330
A
100
AcDbEntity
  8
102
  6
Continuous
 62
     7
100
AcDbCircle
 10
362.8596677268154
 20
1206.305396142857
 30
0.0
 40
72.0
100
AcDbArc
 50
174.020843
 51
185.979157
  0
LINE
  5
97E2
330
A
100
AcDbEntity
  8
102
  6
Continuous
 62
     7
100
AcDbLine
 10
669.0013367268152
 20
1171.148322142857
 30
0.0
 11
675.0013367268152
 21
1171.305438142857
 31
0.0
  0
LINE
  5
97E4
330
A
100
AcDbEntity
  8
102
  6
Continuous
 62
     7
100
AcDbLine
 10
669.0013367268152
 20
1241.462553142857
 30
0.0
 11
669.0013367268152
 21
1171.148322142857
 31
0.0
  0
LINE
  5
97E5
330
A
100
AcDbEntity
  8
HIDDEN
100
AcDbLine
 10
674.0013377268153
 20
1181.213555142857
 30
0.0
 11
675.0013377268153
 21
1181.213555142857
 31
0.0
  0
LINE
  5
97E6
330
A
100
AcDbEntity
  8
HIDDEN
100
AcDbLine
 10
674.0013377268153
 20
1193.213555142857
 30
0.0
 11
675.0013377268153
 21
1193.213555142857
 31
0.0
  0
LINE
  5
97E7
330
A
100
AcDbEntity
  8
HIDDEN
100
AcDbLine
 10
671.2013377268154
 20
1184.013555142857
 30
0.0
 11
674.0013377268153
 21
1181.213555142857
 31
0.0
  0
LINE
  5
97E8
330
A
100
AcDbEntity
  8
HIDDEN
100
AcDbLine
 10
671.2013377268154
 20
1190.413555142857
 30
0.0
 11
674.0013377268153
 21
1193.213555142857
 31
0.0
  0
LINE
  5
97E9
330
A
100
AcDbEntity
  8
HIDDEN
100
AcDbLine
 10
668.5013367268152
 20
1184.013555142857
 30
0.0
 11
671.2013377268154
 21
1184.013555142857
 31
0.0
  0
LINE
  5
97EA
330
A
100
AcDbEntity
  8
HIDDEN
100
AcDbLine
 10
668.5013367268152
 20
1190.413555142857
 30
0.0
 11
671.2013377268154
 21
1190.413555142857
 31
0.0
  0
LINE
  5
97EB
330
A
100
AcDbEntity
  8
HIDDEN
100
AcDbLine
 10
674.0013377268153
 20
1200.305438142857
 30
0.0
 11
675.0013377268153
 21
1200.305438142857
 31
0.0
  0
LINE
  5
97EC
330
A
100
AcDbEntity
  8
HIDDEN
100
AcDbLine
 10
674.0013377268153
 20
1212.305438142857
 30
0.0
 11
675.0013377268153
 21
1212.305438142857
 31
0.0
  0
LINE
  5
97ED
330
A
100
AcDbEntity
  8
HIDDEN
100
AcDbLine
 10
671.2013377268154
 20
1203.105438142857
 30
0.0
 11
674.0013377268153
 21
1200.305438142857
 31
0.0
  0
LINE
  5
97EE
330
A
100
AcDbEntity
  8
HIDDEN
100
AcDbLine
 10
671.2013377268154
 20
1209.505438142857
 30
0.0
 11
674.0013377268153
 21
1212.305438142857
 31
0.0
  0
LINE
  5
97EF
330
A
100
AcDbEntity
  8
HIDDEN
100
AcDbLine
 10
668.5013367268152
 20
1203.105438142857
 30
0.0
 11
671.2013377268154
 21
1203.105438142857
 31
0.0
  0
LINE
  5
97F0
330
A
100
AcDbEntity
  8
HIDDEN
100
AcDbLine
 10
668.5013367268152
 20
1209.505438142857
 30
0.0
 11
671.2013377268154
 21
1209.505438142857
 31
0.0
  0
LINE
  5
97F1
330
A
100
AcDbEntity
  8
HIDDEN
100
AcDbLine
 10
674.0013377268153
 20
1219.397321142857
 30
0.0
 11
675.0013377268153
 21
1219.397321142857
 31
0.0
  0
LINE
  5
97F2
330
A
100
AcDbEntity
  8
HIDDEN
100
AcDbLine
 10
674.0013377268153
 20
1231.397321142857
 30
0.0
 11
675.0013377268153
 21
1231.397321142857
 31
0.0
  0
LINE
  5
97F3
330
A
100
AcDbEntity
  8
HIDDEN
100
AcDbLine
 10
671.2013377268154
 20
1222.197321142857
 30
0.0
 11
674.0013377268153
 21
1219.397321142857
 31
0.0
  0
LINE
  5
97F4
330
A
100
AcDbEntity
  8
HIDDEN
100
AcDbLine
 10
671.2013377268154
 20
1228.597321142857
 30
0.0
 11
674.0013377268153
 21
1231.397321142857
 31
0.0
  0
LINE
  5
97F5
330
A
100
AcDbEntity
  8
HIDDEN
100
AcDbLine
 10
668.5013367268152
 20
1222.197321142857
 30
0.0
 11
671.2013377268154
 21
1222.197321142857
 31
0.0
  0
LINE
  5
97F6
330
A
100
AcDbEntity
  8
HIDDEN
100
AcDbLine
 10
668.5013367268152
 20
1228.597321142857
 30
0.0
 11
671.2013377268154
 21
1228.597321142857
 31
0.0
  0
LINE
  5
97F8
330
A
100
AcDbEntity
  8
102
  6
Continuous
 62
     7
100
AcDbLine
 10
669.0013367268152
 20
1241.462553142857
 30
0.0
 11
675.0013367268152
 21
1241.305438142857
 31
0.0
  0
LINE
  5
97F9
330
A
100
AcDbEntity
  8
102
  6
Continuous
 62
     7
100
AcDbLine
 10
675.0013367268152
 20
1241.555440142857
 30
0.0
 11
675.0013367268152
 21
1171.055440142857
 31
0.0
  0
LINE
  5
97FA
330
A
100
AcDbEntity
  8
102
  6
Continuous
 62
     7
100
AcDbLine
 10
677.0013367268152
 20
1241.555440142857
 30
0.0
 11
677.0013367268152
 21
1171.055440142857
 31
0.0
  0
LINE
  5
97FB
330
A
100
AcDbEntity
  8
102
  6
Continuous
 62
     7
100
AcDbLine
 10
675.0013367268152
 20
1171.055440142857
 30
0.0
 11
677.0013367268152
 21
1171.055440142857
 31
0.0
  0
LINE
  5
97FE
330
A
100
AcDbEntity
  8
102
  6
Continuous
 62
     7
100
AcDbLine
 10
675.0013367268152
 20
1241.555440142857
 30
0.0
 11
677.0013367268152
 21
1241.555440142857
 31
0.0
  0
LINE
  5
97FF
330
A
100
AcDbEntity
  8
HIDDEN
100
AcDbLine
 10
674.0656597268153
 20
1231.305440142857
 30
0.0
 11
674.0013367268152
 21
1231.305440142857
 31
0.0
  0
LINE
  5
9800
330
A
100
AcDbEntity
  8
HIDDEN
100
AcDbLine
 10
674.0656597268153
 20
1181.305440142857
 30
0.0
 11
674.0013367268152
 21
1181.305440142857
 31
0.0
  0
CIRCLE
  5
9801
330
A
100
AcDbEntity
  8
HIDDEN
100
AcDbCircle
 10
276.7513317268154
 20
1206.305422142857
 30
0.0
 40
3.200000000000003
  0
CIRCLE
  5
9802
330
A
100
AcDbEntity
  8
HIDDEN
100
AcDbCircle
 10
276.7513317268154
 20
1206.305422142857
 30
0.0
 40
6.0
  0
CIRCLE
  5
9803
330
A
100
AcDbEntity
  8
HIDDEN
100
AcDbCircle
 10
284.6594487268153
 20
1225.397305142857
 30
0.0
 40
3.200000000000003
  0
CIRCLE
  5
9804
330
A
100
AcDbEntity
  8
HIDDEN
100
AcDbCircle
 10
284.6594487268153
 20
1225.397305142857
 30
0.0
 40
6.0
  0
CIRCLE
  5
9805
330
A
100
AcDbEntity
  8
HIDDEN
100
AcDbCircle
 10
284.6594487268153
 20
1187.213539142857
 30
0.0
 40
3.200000000000003
  0
CIRCLE
  5
9806
330
A
100
AcDbEntity
  8
HIDDEN
100
AcDbCircle
 10
284.6594487268153
 20
1187.213539142857
 30
0.0
 40
6.0
  0
CIRCLE
  5
9807
330
A
100
AcDbEntity
  8
HIDDEN
100
AcDbCircle
 10
322.8432147268154
 20
1225.397305142857
 30
0.0
 40
3.200000000000003
  0
CIRCLE
  5
9808
330
A
100
AcDbEntity
  8
HIDDEN
100
AcDbCircle
 10
322.8432147268154
 20
1225.397305142857
 30
0.0
 40
6.0
  0
CIRCLE
  5
9809
330
A
100
AcDbEntity
  8
HIDDEN
100
AcDbCircle
 10
330.7513317268154
 20
1206.305422142857
 30
0.0
 40
3.200000000000003
  0
CIRCLE
  5
980A
330
A
100
AcDbEntity
  8
HIDDEN
100
AcDbCircle
 10
330.7513317268154
 20
1206.305422142857
 30
0.0
 40
6.0
  0
CIRCLE
  5
980B
330
A
100
AcDbEntity
  8
HIDDEN
100
AcDbCircle
 10
322.8432147268154
 20
1187.213539142857
 30
0.0
 40
3.200000000000003
  0
CIRCLE
  5
980C
330
A
100
AcDbEntity
  8
HIDDEN
100
AcDbCircle
 10
322.8432147268154
 20
1187.213539142857
 30
0.0
 40
6.0
  0
ARC
  5
980E
330
A
100
AcDbEntity
  8
HIDDEN
100
AcDbCircle
 10
303.7513317268154
 20
1206.305422142857
 30
0.0
 40
20.05237184313838
100
AcDbArc
 50
236.7315699999999
 51
303.2686119999998
  0
ARC
  5
980F
330
A
100
AcDbEntity
  8
HIDDEN
100
AcDbCircle
 10
303.7513287268152
 20
1206.305425142857
 30
0.0
 40
20.5
100
AcDbArc
 50
237.5486049999997
 51
302.4515870000005
  0
ARC
  5
9810
330
A
100
AcDbEntity
  8
102
  6
Continuous
 62
     7
100
AcDbCircle
 10
303.7513317268154
 20
1206.305422142857
 30
0.0
 40
20.05237184313838
100
AcDbArc
 50
303.2686119999998
 51
236.7315699999999
  0
ARC
  5
9811
330
A
100
AcDbEntity
  8
102
  6
Continuous
 62
     7
100
AcDbCircle
 10
303.7513287268152
 20
1206.305425142857
 30
0.0
 40
20.5
100
AcDbArc
 50
302.4515870000005
 51
237.5486049999997
  0
ARC
  5
9812
102
{ACAD_REACTORS
330
984D
102
}
330
A
100
AcDbEntity
  8
102
  6
Continuous
 62
     7
100
AcDbCircle
 10
303.7513287268152
 20
1206.305425142857
 30
0.0
 40
35.25
100
AcDbArc
 50
288.183273
 51
251.816827
  0
LINE
  5
9813
330
A
100
AcDbEntity
  8
HIDDEN
100
AcDbLine
 10
674.0013377268153
 20
1231.397321142857
 30
0.0
 11
674.0013377268153
 21
1219.397321142857
 31
0.0
  0
LINE
  5
9814
330
A
100
AcDbEntity
  8
HIDDEN
100
AcDbLine
 10
674.0013377268153
 20
1212.305438142857
 30
0.0
 11
674.0013377268153
 21
1200.305438142857
 31
0.0
  0
LINE
  5
9815
330
A
100
AcDbEntity
  8
HIDDEN
100
AcDbLine
 10
674.0013377268153
 20
1193.213555142857
 30
0.0
 11
674.0013377268153
 21
1181.213555142857
 31
0.0
  0
LINE
  5
9816
330
A
100
AcDbEntity
  8
HIDDEN
100
AcDbLine
 10
671.2013377268154
 20
1228.597321142857
 30
0.0
 11
671.2013377268154
 21
1222.197321142857
 31
0.0
  0
LINE
  5
9817
330
A
100
AcDbEntity
  8
HIDDEN
100
AcDbLine
 10
671.2013377268154
 20
1209.505438142857
 30
0.0
 11
671.2013377268154
 21
1203.105438142857
 31
0.0
  0
LINE
  5
9818
330
A
100
AcDbEntity
  8
HIDDEN
100
AcDbLine
 10
671.2013377268154
 20
1190.413555142857
 30
0.0
 11
671.2013377268154
 21
1184.013555142857
 31
0.0
  0
CIRCLE
  5
9825
330
A
100
AcDbEntity
  8
HIDDEN
100
AcDbCircle
 10
303.7513317268154
 20
1206.305422142857
 30
0.0
 40
31.5
  0
LINE
  5
9826
330
A
100
AcDbEntity
  8
102
  6
Continuous
 62
     7
100
AcDbLine
 10
668.5013367268152
 20
1174.805438142857
 30
0.0
 11
668.5013367268152
 21
1237.805438142857
 31
0.0
  0
LINE
  5
9827
330
A
100
AcDbEntity
  8
102
  6
Continuous
 62
     7
100
AcDbLine
 10
668.5013367268152
 20
1174.805438142857
 30
0.0
 11
669.0013367268152
 21
1174.805438142857
 31
0.0
  0
LINE
  5
9828
330
A
100
AcDbEntity
  8
102
  6
Continuous
 62
     7
100
AcDbLine
 10
668.5013367268152
 20
1237.805438142857
 30
0.0
 11
669.0013367268152
 21
1237.805438142857
 31
0.0
  0
ARC
  5
9829
330
A
100
AcDbEntity
  8
HIDDEN
100
AcDbCircle
 10
303.7513287268152
 20
1206.305425142857
 30
0.0
 40
35.25
100
AcDbArc
 50
251.816827
 51
288.183273
  0
CIRCLE
  5
982A
330
A
100
AcDbEntity
  8
HIDDEN
100
AcDbCircle
 10
303.7513247268153
 20
1310.214543331169
 30
0.0
 40
10.99999999999998
  0
ARC
  5
982B
330
A
100
AcDbEntity
  8
102
  6
Continuous
 62
     7
100
AcDbCircle
 10
303.7513557268153
 20
1310.214543331169
 30
0.0
 40
12.5
100
AcDbArc
 50
180.0
 51
0.0
  0
ARC
  5
982C
330
A
100
AcDbEntity
  8
102
  6
Continuous
 62
     7
100
AcDbCircle
 10
303.7513557268153
 20
1310.214543331169
 30
0.0
 40
12.89169042631993
100
AcDbArc
 50
180.0
 51
0.0
  0
LINE
  5
982D
330
A
100
AcDbEntity
  8
102
  6
Continuous
 62
     7
100
AcDbLine
 10
316.2513577268153
 20
1213.805380142857
 30
0.0
 11
291.2513577268153
 21
1213.805380142857
 31
0.0
  0
LINE
  5
982E
330
A
100
AcDbEntity
  8
102
  6
Continuous
 62
     7
100
AcDbLine
 10
291.2513577268153
 20
1198.805380142857
 30
0.0
 11
316.2513577268153
 21
1198.805380142857
 31
0.0
  0
LINE
  5
982F
330
A
100
AcDbEntity
  8
102
  6
Continuous
 62
     7
100
AcDbLine
 10
291.2513577268153
 20
313.8054111428572
 30
0.0
 11
316.2513577268153
 21
313.8054111428572
 31
0.0
  0
LINE
  5
9830
330
A
100
AcDbEntity
  8
102
  6
Continuous
 62
     7
100
AcDbLine
 10
316.2513577268153
 20
298.8054111428572
 30
0.0
 11
291.2513577268153
 21
298.8054111428572
 31
0.0
  0
DIMENSION
  5
983E
330
A
100
AcDbEntity
  8
寸法
100
AcDbDimension
  2
*D92
 10
376.5349094939231
 20
1387.322852904849
 30
0.0
 11
376.5349094939231
 21
1342.322852904848
 31
0.0
 70
   160
 71
     5
 42
90.0
 73
     0
 74
     0
 75
     0
  3
tfrom線あり
100
AcDbAlignedDimension
 13
315.0463169841173
 23
1297.322852904849
 33
0.0
 14
342.2403983665411
 24
1387.322852904849
 34
0.0
 50
90.0
100
AcDbRotatedDimension
1001
ACAD
1000
DSTYLE
1002
{
1070
   144
1040
1.0
1002
}
  0
DIMENSION
  5
984B
102
{ACAD_REACTORS
330
984D
102
}
102
{ACAD_XDICTIONARY
360
984C
102
}
330
A
100
AcDbEntity
  8
寸法
100
AcDbDimension
  2
*D93
 10
389.9982952006719
 20
306.3053661428572
 30
0.0
 11
378.9982952006719
 21
756.3053956428571
 31
0.0
 70
    32
 71
     5
 42
900.0000589999999
 73
     0
 74
     0
 75
     0
  3
tfrom線あり
100
AcDbAlignedDimension
 13
339.0013287268152
 23
1206.305425142857
 33
0.0
 14
339.0013287268152
 24
306.3053661428572
 34
0.0
 50
90.0
100
AcDbRotatedDimension
1001
ACAD
1000
DSTYLE
1002
{
1070
   144
1040
1.0
1002
}
  0
DIMENSION
  5
985A
102
{ACAD_XDICTIONARY
360
985B
102
}
330
A
100
AcDbEntity
  8
寸法
100
AcDbDimension
  2
*D94
 10
248.6408209332426
 20
1171.55542514287
 30
0.0
 11
237.6408209332426
 21
1206.555425142857
 31
0.0
 70
    32
 71
     5
 42
69.9999999999734
 73
     0
 74
     0
 75
     0
  3
tfrom線あり
100
AcDbAlignedDimension
 13
292.7502377596729
 23
1241.555425142844
 33
0.0
 14
292.7502988461965
 24
1171.55542514287
 34
0.0
 50
90.0
100
AcDbRotatedDimension
1001
ACAD
1000
DSTYLE
1002
{
1070
   144
1040
1.0
1002
}
  0
VIEWPORT
  5
349
330
B
100
AcDbEntity
 67
     1
  8
0
100
AcDbViewport
 10
202.5
 20
128.5
 30
0.0
 40
486.0
 41
308.4
 68
     1
 69
     1
 12
202.5
 22
128.5
 13
0.0
 23
0.0
 14
0.5
 24
0.5
 15
0.0
 25
0.0
 16
0.0
 26
0.0
 36
1.0
 17
0.0
 27
0.0
 37
0.0
 42
50.0
 43
0.0
 44
0.0
 45
308.4
 50
0.0
 51
0.0
 72
   100
 90
   557152
  1

281
     0
 71
     1
 74
     0
110
0.0
120
0.0
130
0.0
111
1.0
121
0.0
131
0.0
112
0.0
122
1.0
132
0.0
 79
     0
146
0.0
170
     0
 61
     5
348
26C
292
     1
282
     1
141
0.0
142
0.0
 63
   256
361
44F1
  0
VIEWPORT
  5
34A
330
B
100
AcDbEntity
 67
     1
  8
0
100
AcDbViewport
 10
202.5
 20
128.5
 30
0.0
 40
324.0
 41
205.6
 68
     2
 69
     2
 12
986.6781359294573
 22
1427.077061889956
 13
0.0
 23
0.0
 14
0.5
 24
0.5
 15
0.0
 25
0.0
 16
0.0
 26
0.0
 36
1.0
 17
0.0
 27
0.0
 37
0.0
 42
50.0
 43
0.0
 44
0.0
 45
2890.021615685494
 50
0.0
 51
0.0
 72
   100
 90
   557152
  1

281
     0
 71
     1
 74
     0
110
0.0
120
0.0
130
0.0
111
1.0
121
0.0
131
0.0
112
0.0
122
1.0
132
0.0
 79
     0
146
0.0
170
     0
 61
     5
348
26C
292
     1
282
     1
141
0.0
142
0.0
 63
   256
  0
ENDSEC
  0
SECTION
  2
OBJECTS
  0
DICTIONARY
  5
19
330
0
100
AcDbDictionary
281
     1
  3
ACAD_COLOR
350
674
  3
ACAD_DETAILVIEWSTYLE
350
13B5
  3
ACAD_FIELDLIST
350
5787
  3
ACAD_GROUP
350
1A
  3
ACAD_IMAGE_VARS
350
27B
  3
ACAD_LAYOUT
350
1E
  3
ACAD_MATERIAL
350
263
  3
ACAD_MLEADERSTYLE
350
336
  3
ACAD_MLINESTYLE
350
1B
  3
ACAD_PLOTSETTINGS
350
22
  3
ACAD_PLOTSTYLENAME
350
1F
  3
ACAD_SCALELIST
350
241
  3
ACAD_SECTIONVIEWSTYLE
350
13B6
  3
ACAD_TABLESTYLE
350
278
  3
ACAD_VISUALSTYLE
350
267
  3
ACDB_RECOMPOSE_DATA
350
98C5
  3
AcDbVariableDictionary
350
330
  3
APPDATA
350
27A
  0
SUN
  5
F1A
330
15
100
AcDbSun
 90
        1
290
     0
 63
     7
421
 16777215
 40
1.0
291
     1
 91
  2455826
 92
 54000000
292
     0
 70
     2
 71
   256
280
     1
  0
DICTIONARY
  5
2E1
330
2
100
AcDbDictionary
280
     1
281
     1
  3
ACAD_LAYERSTATES
360
2E2
  3
ACLYDICTIONARY
360
61F4
  0
DICTIONARY
  5
56F6
330
A
100
AcDbDictionary
280
     1
281
     1
  3
ACAD_SORTENTS
360
56F7
  0
DICTIONARY
  5
5895
330
5893
100
AcDbDictionary
280
     1
281
     1
  3
ACAD_FIELD
360
5899
  0
DICTIONARY
  5
984C
330
984B
100
AcDbDictionary
280
     1
281
     1
  3
ACAD_DIMASSOC
360
984D
  0
DICTIONARY
  5
985B
330
985A
100
AcDbDictionary
280
     1
281
     1
  0
SUN
  5
44F1
330
349
100
AcDbSun
 90
        1
290
     0
 63
     7
421
 16777215
 40
1.0
291
     1
 91
  2455826
 92
 54000000
292
     0
 70
     2
 71
   256
280
     1
  0
DICTIONARY
  5
674
102
{ACAD_REACTORS
330
19
102
}
330
19
100
AcDbDictionary
281
     1
  0
DICTIONARY
  5
13B5
102
{ACAD_REACTORS
330
19
102
}
330
19
100
AcDbDictionary
281
     1
  0
FIELDLIST
  5
5787
102
{ACAD_REACTORS
330
19
102
}
330
19
100
AcDbIdSet
 90
        5
330
578D
330
5891
330
578C
330
5897
330
5894
100
AcDbFieldList
  0
DICTIONARY
  5
1A
102
{ACAD_REACTORS
330
19
102
}
330
19
100
AcDbDictionary
281
     1
  3
*A10
350
8618
  3
*A12
350
8657
  3
*A9
350
8614
  0
RASTERVARIABLES
  5
27B
102
{ACAD_REACTORS
330
19
102
}
330
19
100
AcDbRasterVariables
 90
        0
 70
     1
 71
     1
 72
     1
  0
DICTIONARY
  5
1E
102
{ACAD_REACTORS
330
19
102
}
330
19
100
AcDbDictionary
281
     1
  3
Layout1
350
21
  3
Model
350
20
  0
DICTIONARY
  5
263
102
{ACAD_REACTORS
330
19
102
}
330
19
100
AcDbDictionary
281
     1
  3
ByBlock
350
54E8
  3
ByLayer
350
264
  3
Global
350
266
  0
DICTIONARY
  5
336
102
{ACAD_REACTORS
330
19
102
}
330
19
100
AcDbDictionary
281
     1
  3
Standard
350
5615
  0
DICTIONARY
  5
1B
102
{ACAD_REACTORS
330
19
102
}
330
19
100
AcDbDictionary
281
     1
  3
Standard
350
1C
  0
DICTIONARY
  5
22
102
{ACAD_REACTORS
330
19
102
}
330
19
100
AcDbDictionary
281
     1
  0
ACDBDICTIONARYWDFLT
  5
1F
102
{ACAD_REACTORS
330
19
102
}
330
19
100
AcDbDictionary
281
     1
  3
Normal
350
1D
100
AcDbDictionaryWithDefault
340
1D
  0
DICTIONARY
  5
241
102
{ACAD_REACTORS
330
19
102
}
330
19
100
AcDbDictionary
281
     1
  3
A0
350
242
  3
A1
350
243
  3
A2
350
244
  3
A3
350
245
  3
A4
350
246
  3
A5
350
247
  3
A6
350
248
  3
A7
350
249
  3
A8
350
24A
  3
A9
350
24B
  3
B0
350
24C
  3
B1
350
24D
  3
B2
350
24E
  3
B3
350
24F
  3
B4
350
250
  3
B5
350
251
  3
B6
350
252
  3
B7
350
253
  3
B8
350
254
  3
B9
350
255
  3
C0
350
256
  3
C1
350
257
  3
C2
350
258
  3
C3
350
259
  3
C4
350
25A
  3
C5
350
25B
  3
C6
350
25C
  3
C7
350
25D
  3
C8
350
25E
  3
C9
350
25F
  3
D0
350
260
  3
D1
350
261
  3
D2
350
262
  0
DICTIONARY
  5
13B6
102
{ACAD_REACTORS
330
19
102
}
330
19
100
AcDbDictionary
281
     1
  0
DICTIONARY
  5
278
102
{ACAD_REACTORS
330
19
102
}
330
19
100
AcDbDictionary
281
     1
  3
Standard
350
279
  0
DICTIONARY
  5
267
102
{ACAD_REACTORS
330
19
102
}
330
19
100
AcDbDictionary
281
     1
  3
2dWireframe
350
26C
  3
3D Hidden
350
26E
  3
3dWireframe
350
26D
  3
Basic
350
26F
  3
Brighten
350
273
  3
ColorChange
350
277
  3
Conceptual
350
271
  3
Dim
350
272
  3
EdgeColorOff
350
F14
  3
Facepattern
350
276
  3
Flat
350
268
  3
FlatWithEdges
350
269
  3
Gouraud
350
26A
  3
GouraudWithEdges
350
26B
  3
Hidden
350
F11
  3
JitterOff
350
F12
  3
Linepattern
350
275
  3
OverhangOff
350
F13
  3
Realistic
350
270
  3
Shaded
350
F19
  3
Shaded with edges
350
F18
  3
Shades of Gray
350
F15
  3
Sketchy
350
F16
  3
Thicken
350
274
  3
Wireframe
350
F10
  3
X-Ray
350
F17
  0
XRECORD
  5
98C5
102
{ACAD_REACTORS
330
19
102
}
330
19
100
AcDbXrecord
280
     1
 90
        1
330
279
  0
DICTIONARY
  5
330
102
{ACAD_REACTORS
330
19
102
}
330
19
100
AcDbDictionary
281
     1
  3
CANNOSCALE
350
331
  3
CMLEADERSTYLE
350
563E
  3
CTABLESTYLE
350
335
  3
HPTRANSPARENCY
350
52F7
  3
XCLIPFRAME
350
13B4
  0
DICTIONARY
  5
27A
102
{ACAD_REACTORS
330
19
102
}
330
19
100
AcDbDictionary
281
     1
  0
DICTIONARY
  5
2E2
102
{ACAD_REACTORS
330
2E1
102
}
330
2E1
100
AcDbDictionary
281
     1
  0
DICTIONARY
  5
61F4
102
{ACAD_REACTORS
330
2E1
102
}
330
2E1
100
AcDbDictionary
281
     1
1001
ACAD
1000
<All
  0
SORTENTSTABLE
  5
56F7
102
{ACAD_REACTORS
330
56F6
102
}
330
56F6
100
AcDbSortentsTable
330
A
331
0
  5
1357
331
1301
  5
1359
331
1306
  5
135A
331
1307
  5
135B
331
1308
  5
1371
331
1312
  5
1372
331
1313
  5
1378
331
131E
  5
1379
331
131F
  5
1389
331
1342
  5
138A
331
1343
  5
138D
331
1346
  5
138E
331
1347
  5
1398
331
1350
  5
1399
331
1351
  5
139C
331
1357
  5
139D
331
1359
  5
3C70
331
135A
  5
460D
331
135B
  5
460E
331
1371
  5
460F
331
1372
  5
4610
331
1378
  5
4611
331
1379
  5
4612
331
1389
  5
4613
331
138A
  5
4614
331
138D
  5
4615
331
138E
  5
4616
331
1398
  5
4618
331
1399
  5
4619
331
139C
  5
461C
331
139D
  5
461D
331
0
  5
461E
331
0
  5
461F
331
0
  5
4620
331
0
  5
4621
331
0
  5
4622
331
0
  5
4623
331
0
  5
4624
331
0
  5
4625
331
0
  5
4626
331
0
  5
4627
331
0
  5
4628
331
0
  5
4629
331
0
  5
4967
331
0
  5
4968
331
0
  5
4971
331
0
  5
4975
331
0
  5
4976
331
0
  5
4977
331
0
  5
4978
331
0
  5
4979
331
0
  5
497A
331
0
  5
497B
331
0
  5
497C
331
0
  5
497D
331
0
  5
497E
331
0
  5
497F
331
0
  5
4980
331
4967
  5
4981
331
4968
  5
4983
331
0
  5
499C
331
0
  5
499D
331
0
  5
499E
331
0
  5
4A5D
331
0
  5
4A6C
331
0
  5
4A7B
331
0
  5
4A99
331
0
  5
4AD2
331
0
  5
4B87
331
0
  5
4B95
331
0
  5
4B97
331
0
  5
4C45
331
0
  5
4C46
331
0
  5
4C47
331
0
  5
4C48
331
0
  5
4C49
331
499D
  5
4C4A
331
499E
  5
4C4C
331
0
  5
4C4D
331
0
  5
4C4E
331
0
  5
4C4F
331
0
  5
4C50
331
0
  5
4C51
331
0
  5
4C52
331
0
  5
4C53
331
0
  5
4C54
331
0
  5
4C55
331
0
  5
4C56
331
0
  5
4C57
331
0
  5
4C58
331
0
  5
4C59
331
0
  5
4C5A
331
0
  5
4C5B
331
0
  5
4C5C
331
0
  5
4C5D
331
0
  5
4C5E
331
0
  5
4C5F
331
0
  5
4C60
331
0
  5
4C61
331
0
  5
4C62
331
0
  5
4CC1
331
0
  5
4D17
331
0
  5
4D18
331
0
  5
4D19
331
0
  5
4D1A
331
0
  5
4D1B
331
0
  5
4D1C
331
0
  5
4D1D
331
0
  5
4D1E
331
0
  5
4D1F
331
0
  5
4D20
331
0
  5
4D21
331
0
  5
4D22
331
0
  5
4D23
331
0
  5
4D24
331
0
  5
4D25
331
0
  5
4D26
331
0
  5
4D27
331
0
  5
4D28
331
0
  5
4D29
331
0
  5
4D2A
331
0
  5
4D2B
331
0
  5
4D2C
331
0
  5
4D2D
331
0
  5
4D2E
331
0
  5
4D2F
331
0
  5
4D30
331
0
  5
4D31
331
0
  5
4D32
331
0
  5
4D33
331
0
  5
4D34
331
0
  5
4D35
331
0
  5
4D36
331
0
  5
4D37
331
0
  5
4D38
331
0
  5
4D39
331
0
  5
4F53
331
0
  5
51B4
331
0
  5
51B5
331
0
  5
51B6
331
0
  5
51B7
331
0
  5
51B8
331
0
  5
51B9
331
0
  5
51BA
331
0
  5
51BB
331
0
  5
51BC
331
0
  5
51BD
331
0
  5
51BE
331
0
  5
51BF
331
0
  5
51C1
331
0
  5
51C2
331
51B4
  5
51C3
331
51B5
  5
51C4
331
51B6
  5
51C5
331
51B7
  5
51C6
331
51B8
  5
51C7
331
51B9
  5
51C8
331
51BA
  5
51C9
331
51BB
  5
51CA
331
51BC
  5
51CB
331
51BD
  5
51CC
331
51BE
  5
51CD
331
51BF
  5
51CE
331
51C0
  5
51CF
331
51C1
  5
51D0
331
51C2
  5
51D1
331
0
  5
51D2
331
51C4
  5
51D3
331
51C5
  5
51D4
331
51C6
  5
51D6
331
51C7
  5
51D7
331
0
  5
51D8
331
51CA
  5
51D9
331
51CB
  5
51DA
331
51CC
  5
523C
331
51CD
  5
523D
331
51CE
  5
523E
331
51CF
  5
523F
331
51D0
  5
5240
331
51D1
  5
5241
331
51D2
  5
5256
331
51D3
  5
5257
331
0
  5
5258
331
51D5
  5
5259
331
51D6
  5
525A
331
51D7
  5
525B
331
51D8
  5
52DA
331
51D9
  5
52DB
331
51DA
  5
52DC
331
523C
  5
52DE
331
523D
  5
52DF
331
523E
  5
52E2
331
523F
  5
52E5
331
5240
  5
52E6
331
5241
  5
52E7
331
0
  5
52E8
331
0
  5
52EB
331
0
  5
537E
331
0
  5
537F
331
0
  5
5383
331
0
  5
5384
331
0
  5
5385
331
0
  5
5386
331
0
  5
5387
331
0
  5
5388
331
0
  5
5389
331
0
  5
538A
331
0
  5
538B
331
0
  5
538C
331
0
  5
538D
331
0
  5
5390
331
52EB
  5
5391
331
0
  5
1343
331
0
  5
5392
331
0
  5
1346
331
0
  5
1308
331
0
  5
131E
331
0
  5
1307
331
0
  5
131F
331
0
  5
1342
331
0
  5
1313
331
0
  5
5393
331
0
  5
1312
331
0
  5
1347
331
0
  5
1301
331
0
  5
1350
331
0
  5
1306
  0
DICTIONARY
  5
5899
102
{ACAD_REACTORS
330
5895
102
}
330
5895
100
AcDbDictionary
280
     1
281
     1
  3
TEXT
360
5894
  0
DIMASSOC
  5
984D
102
{ACAD_REACTORS
330
984C
102
}
330
984C
100
AcDbDimAssoc
330
984B
 90
        3
 70
     0
 71
     1
  1
AcDbOsnapPointRef
 72
     5
331
9812
 73
     0
 91
        0
 40
6.283185307179586
 10
0.0
 20
0.0
 30
0.0
 75
     0
  1
AcDbOsnapPointRef
 72
     5
331
97B9
 73
     0
 91
        0
 40
6.283185307179586
 10
0.0
 20
0.0
 30
0.0
 75
     0
  0
GROUP
  5
8618
102
{ACAD_REACTORS
330
1A
102
}
330
1A
100
AcDbGroup
300

 70
     1
 71
     1
  0
GROUP
  5
8657
102
{ACAD_REACTORS
330
1A
102
}
330
1A
100
AcDbGroup
300

 70
     1
 71
     1
  0
GROUP
  5
8614
102
{ACAD_REACTORS
330
1A
102
}
330
1A
100
AcDbGroup
300

 70
     1
 71
     1
  0
LAYOUT
  5
21
102
{ACAD_REACTORS
330
1E
102
}
330
1E
100
AcDbPlotSettings
  1

  2
none_device
  4
ISO_A3_(420.00_x_297.00_MM)
  6

 40
7.5
 41
20.0
 42
7.5
 43
20.0
 44
420.0
 45
297.0
 46
0.0
 47
0.0
 48
0.0
 49
0.0
140
0.0
141
0.0
142
1.0
143
1.0
 70
     0
 72
     1
 73
     0
 74
     0
  7

 75
     0
 76
     0
 77
     2
 78
   300
147
1.0
148
0.0
149
0.0
100
AcDbLayout
  1
Layout1
 70
     1
 71
     0
 10
-7.5
 20
-20.0
 11
412.5
 21
277.0
 12
0.0
 22
0.0
 32
0.0
 14
0.0
 24
0.0
 34
0.0
 15
0.0
 25
0.0
 35
0.0
146
0.0
 13
0.0
 23
0.0
 33
0.0
 16
0.0
 26
0.0
 36
0.0
 17
0.0
 27
0.0
 37
0.0
 76
     0
330
B
331
349
  0
LAYOUT
  5
20
102
{ACAD_REACTORS
330
1E
102
}
330
1E
100
AcDbPlotSettings
  1

  2
none_device
  4
ISO_A3_(420.00_x_297.00_MM)
  6

 40
7.5
 41
20.0
 42
7.5
 43
20.0
 44
420.0
 45
297.0
 46
0.0
 47
0.0
 48
0.0
 49
0.0
140
0.0
141
0.0
142
1.0
143
1.0
 70
  1024
 72
     1
 73
     0
 74
     0
  7

 75
     0
 76
     0
 77
     2
 78
   300
147
1.0
148
0.0
149
0.0
100
AcDbLayout
  1
Model
 70
     0
 71
     1
 10
0.0
 20
0.0
 11
1050.0
 21
1485.0
 12
0.0
 22
0.0
 32
0.0
 14
-79.37939740351135
 24
0.0
 34
0.0
 15
1050.0
 25
1485.0
 35
0.0
146
0.0
 13
0.0
 23
0.0
 33
0.0
 16
0.0
 26
0.0
 36
0.0
 17
0.0
 27
0.0
 37
0.0
 76
     0
330
A
331
15
  0
MATERIAL
  5
54E8
102
{ACAD_REACTORS
330
263
102
}
330
263
100
AcDbMaterial
  1
ByBlock
 72
     1
 94
      127
  0
MATERIAL
  5
264
102
{ACAD_REACTORS
330
263
102
}
330
263
100
AcDbMaterial
  1
ByLayer
 72
     1
 94
      127
  0
MATERIAL
  5
266
102
{ACAD_REACTORS
330
263
102
}
330
263
100
AcDbMaterial
  1
Global
 72
     1
 94
      127
  0
MLEADERSTYLE
  5
5615
102
{ACAD_REACTORS
330
336
102
}
330
336
100
AcDbMLeaderStyle
170
     2
171
     1
172
     0
 90
        2
 40
0.0
 41
0.0
173
     1
 91
-1056964608
340
11
 92
       -2
290
     1
 42
2.0
291
     1
 43
8.0
  3
Standard
341
0
 44
4.0
300

342
17
174
     1
178
     6
175
     1
176
     0
 93
-1056964608
 45
4.0
292
     0
297
     0
 46
4.0
343
0
 94
-1056964608
 47
1.0
 49
1.0
140
1.0
293
     1
141
0.0
294
     1
177
     0
142
1.0
295
     0
296
     0
143
3.75
1001
ACAD_MLEADERVER
1070
     2
  0
MLINESTYLE
  5
1C
102
{ACAD_REACTORS
330
1B
102
}
330
1B
100
AcDbMlineStyle
  2
Standard
 70
     0
  3

 62
     0
 51
90.0
 52
90.0
 71
     2
 49
0.5
 62
   256
  6
BYLAYER
 49
-0.5
 62
   256
  6
BYLAYER
  0
ACDBPLACEHOLDER
  5
1D
102
{ACAD_REACTORS
330
1F
102
}
330
1F
  0
SCALE
  5
242
102
{ACAD_REACTORS
330
241
102
}
330
241
100
AcDbScale
 70
     0
300
1:1
140
1.0
141
1.0
290
     1
  0
SCALE
  5
243
102
{ACAD_REACTORS
330
241
102
}
330
241
100
AcDbScale
 70
     0
300
1:2
140
1.0
141
2.0
290
     0
  0
SCALE
  5
244
102
{ACAD_REACTORS
330
241
102
}
330
241
100
AcDbScale
 70
     0
300
1:4
140
1.0
141
4.0
290
     0
  0
SCALE
  5
245
102
{ACAD_REACTORS
330
241
102
}
330
241
100
AcDbScale
 70
     0
300
1:5
140
1.0
141
5.0
290
     0
  0
SCALE
  5
246
102
{ACAD_REACTORS
330
241
102
}
330
241
100
AcDbScale
 70
     0
300
1:8
140
1.0
141
8.0
290
     0
  0
SCALE
  5
247
102
{ACAD_REACTORS
330
241
102
}
330
241
100
AcDbScale
 70
     0
300
1:10
140
1.0
141
10.0
290
     0
  0
SCALE
  5
248
102
{ACAD_REACTORS
330
241
102
}
330
241
100
AcDbScale
 70
     0
300
1:16
140
1.0
141
16.0
290
     0
  0
SCALE
  5
249
102
{ACAD_REACTORS
330
241
102
}
330
241
100
AcDbScale
 70
     0
300
1:20
140
1.0
141
20.0
290
     0
  0
SCALE
  5
24A
102
{ACAD_REACTORS
330
241
102
}
330
241
100
AcDbScale
 70
     0
300
1:30
140
1.0
141
30.0
290
     0
  0
SCALE
  5
24B
102
{ACAD_REACTORS
330
241
102
}
330
241
100
AcDbScale
 70
     0
300
1:40
140
1.0
141
40.0
290
     0
  0
SCALE
  5
24C
102
{ACAD_REACTORS
330
241
102
}
330
241
100
AcDbScale
 70
     0
300
1:50
140
1.0
141
50.0
290
     0
  0
SCALE
  5
24D
102
{ACAD_REACTORS
330
241
102
}
330
241
100
AcDbScale
 70
     0
300
1:100
140
1.0
141
100.0
290
     0
  0
SCALE
  5
24E
102
{ACAD_REACTORS
330
241
102
}
330
241
100
AcDbScale
 70
     0
300
2:1
140
2.0
141
1.0
290
     0
  0
SCALE
  5
24F
102
{ACAD_REACTORS
330
241
102
}
330
241
100
AcDbScale
 70
     0
300
4:1
140
4.0
141
1.0
290
     0
  0
SCALE
  5
250
102
{ACAD_REACTORS
330
241
102
}
330
241
100
AcDbScale
 70
     0
300
8:1
140
8.0
141
1.0
290
     0
  0
SCALE
  5
251
102
{ACAD_REACTORS
330
241
102
}
330
241
100
AcDbScale
 70
     0
300
10:1
140
10.0
141
1.0
290
     0
  0
SCALE
  5
252
102
{ACAD_REACTORS
330
241
102
}
330
241
100
AcDbScale
 70
     0
300
100:1
140
100.0
141
1.0
290
     0
  0
SCALE
  5
253
102
{ACAD_REACTORS
330
241
102
}
330
241
100
AcDbScale
 70
     0
300
1/128" = 1'-0"
140
0.0078125
141
12.0
290
     0
  0
SCALE
  5
254
102
{ACAD_REACTORS
330
241
102
}
330
241
100
AcDbScale
 70
     0
300
1/64" = 1'-0"
140
0.015625
141
12.0
290
     0
  0
SCALE
  5
255
102
{ACAD_REACTORS
330
241
102
}
330
241
100
AcDbScale
 70
     0
300
1/32" = 1'-0"
140
0.03125
141
12.0
290
     0
  0
SCALE
  5
256
102
{ACAD_REACTORS
330
241
102
}
330
241
100
AcDbScale
 70
     0
300
1/16" = 1'-0"
140
0.0625
141
12.0
290
     0
  0
SCALE
  5
257
102
{ACAD_REACTORS
330
241
102
}
330
241
100
AcDbScale
 70
     0
300
3/32" = 1'-0"
140
0.09375
141
12.0
290
     0
  0
SCALE
  5
258
102
{ACAD_REACTORS
330
241
102
}
330
241
100
AcDbScale
 70
     0
300
1/8" = 1'-0"
140
0.125
141
12.0
290
     0
  0
SCALE
  5
259
102
{ACAD_REACTORS
330
241
102
}
330
241
100
AcDbScale
 70
     0
300
3/16" = 1'-0"
140
0.1875
141
12.0
290
     0
  0
SCALE
  5
25A
102
{ACAD_REACTORS
330
241
102
}
330
241
100
AcDbScale
 70
     0
300
1/4" = 1'-0"
140
0.25
141
12.0
290
     0
  0
SCALE
  5
25B
102
{ACAD_REACTORS
330
241
102
}
330
241
100
AcDbScale
 70
     0
300
3/8" = 1'-0"
140
0.375
141
12.0
290
     0
  0
SCALE
  5
25C
102
{ACAD_REACTORS
330
241
102
}
330
241
100
AcDbScale
 70
     0
300
1/2" = 1'-0"
140
0.5
141
12.0
290
     0
  0
SCALE
  5
25D
102
{ACAD_REACTORS
330
241
102
}
330
241
100
AcDbScale
 70
     0
300
3/4" = 1'-0"
140
0.75
141
12.0
290
     0
  0
SCALE
  5
25E
102
{ACAD_REACTORS
330
241
102
}
330
241
100
AcDbScale
 70
     0
300
1" = 1'-0"
140
1.0
141
12.0
290
     0
  0
SCALE
  5
25F
102
{ACAD_REACTORS
330
241
102
}
330
241
100
AcDbScale
 70
     0
300
1-1/2" = 1'-0"
140
1.5
141
12.0
290
     0
  0
SCALE
  5
260
102
{ACAD_REACTORS
330
241
102
}
330
241
100
AcDbScale
 70
     0
300
3" = 1'-0"
140
3.0
141
12.0
290
     0
  0
SCALE
  5
261
102
{ACAD_REACTORS
330
241
102
}
330
241
100
AcDbScale
 70
     0
300
6" = 1'-0"
140
6.0
141
12.0
290
     0
  0
SCALE
  5
262
102
{ACAD_REACTORS
330
241
102
}
330
241
100
AcDbScale
 70
     0
300
1'-0" = 1'-0"
140
12.0
141
12.0
290
     0
  0
TABLESTYLE
  5
279
102
{ACAD_REACTORS
330
278
102
}
102
{ACAD_XDICTIONARY
360
98C3
102
}
330
278
100
AcDbTableStyle
  3
Standard
 70
     0
 71
     0
 40
0.06
 41
0.06
280
     0
281
     0
  7
Standard
140
4.5
170
     2
 62
     0
 63
   257
283
     0
 90
        4
 91
        0
  1

274
    -2
284
     1
 64
     0
275
    -2
285
     1
 65
     0
276
    -2
286
     1
 66
     0
277
    -2
287
     1
 67
     0
278
    -2
288
     1
 68
     0
279
    -2
289
     1
 69
     0
  7
Standard
140
6.0
170
     5
 62
     0
 63
   257
283
     0
 90
        4
 91
        0
  1

274
    -2
284
     1
 64
     0
275
    -2
285
     1
 65
     0
276
    -2
286
     1
 66
     0
277
    -2
287
     1
 67
     0
278
    -2
288
     1
 68
     0
279
    -2
289
     1
 69
     0
  7
Standard
140
4.5
170
     5
 62
     0
 63
   257
283
     0
 90
        4
 91
        0
  1

274
    -2
284
     1
 64
     0
275
    -2
285
     1
 65
     0
276
    -2
286
     1
 66
     0
277
    -2
287
     1
 67
     0
278
    -2
288
     1
 68
     0
279
    -2
289
     1
 69
     0
  0
VISUALSTYLE
  5
26C
102
{ACAD_REACTORS
330
267
102
}
330
267
100
AcDbVisualStyle
  2
2dWireframe
 70
     4
 71
     0
 72
     2
 73
     0
 90
        0
 40
-0.6
 41
-30.0
 62
     5
 63
     7
421
 16777215
 74
     1
 91
        4
 64
     7
 65
   257
 75
     1
175
     1
 42
1.0
 92
        0
 66
   257
 43
1.0
 76
     1
 77
     6
 78
     2
 67
     7
 79
     5
170
     0
171
     0
290
     0
174
     0
 93
        1
 44
0.0
173
     0
291
     0
 45
0.0
  0
VISUALSTYLE
  5
26E
102
{ACAD_REACTORS
330
267
102
}
330
267
100
AcDbVisualStyle
  2
3D Hidden
 70
     6
 71
     1
 72
     2
 73
     2
 90
        0
 40
-0.6
 41
-30.0
 62
     5
 63
     7
421
 16777215
 74
     2
 91
        2
 64
     7
 65
   257
 75
     2
175
     1
 42
40.0
 92
        0
 66
   257
 43
1.0
 76
     1
 77
     6
 78
     2
 67
     7
 79
     3
170
     0
171
     0
290
     0
174
     0
 93
        1
 44
0.0
173
     0
291
     0
 45
0.0
  0
VISUALSTYLE
  5
26D
102
{ACAD_REACTORS
330
267
102
}
330
267
100
AcDbVisualStyle
  2
3dWireframe
 70
     5
 71
     0
 72
     2
 73
     0
 90
        0
 40
-0.6
 41
-30.0
 62
     5
 63
     7
421
 16777215
 74
     1
 91
        4
 64
     7
 65
   257
 75
     1
175
     1
 42
1.0
 92
        0
 66
   257
 43
1.0
 76
     1
 77
     6
 78
     2
 67
     7
 79
     5
170
     0
171
     0
290
     0
174
     0
 93
        1
 44
0.0
173
     0
291
     0
 45
0.0
  0
VISUALSTYLE
  5
26F
102
{ACAD_REACTORS
330
267
102
}
330
267
100
AcDbVisualStyle
  2
Basic
 70
     7
 71
     1
 72
     0
 73
     1
 90
        0
 40
-0.6
 41
-30.0
 62
     5
 63
     7
421
 16777215
 74
     0
 91
        4
 64
     7
 65
   257
 75
     1
175
     1
 42
1.0
 92
        8
 66
     7
 43
1.0
 76
     1
 77
     6
 78
     2
 67
     7
 79
     5
170
     0
171
     0
290
     0
174
     0
 93
        1
 44
0.0
173
     0
291
     1
 45
0.0
  0
VISUALSTYLE
  5
273
102
{ACAD_REACTORS
330
267
102
}
330
267
100
AcDbVisualStyle
  2
Brighten
 70
    12
 71
     2
 72
     2
 73
     0
 90
        0
 40
-0.6
 41
-30.0
 62
     5
 63
     7
421
 16777215
 74
     1
 91
        4
 64
     7
 65
   257
 75
     1
175
     1
 42
1.0
 92
        8
 66
     7
 43
1.0
 76
     1
 77
     6
 78
     2
 67
     7
 79
     5
170
     0
171
     0
290
     0
174
     0
 93
        1
 44
50.0
173
     0
291
     1
 45
0.0
  0
VISUALSTYLE
  5
277
102
{ACAD_REACTORS
330
267
102
}
330
267
100
AcDbVisualStyle
  2
ColorChange
 70
    16
 71
     2
 72
     2
 73
     3
 90
        0
 40
-0.6
 41
-30.0
 62
     5
 63
     8
421
  8421504
 74
     1
 91
        4
 64
     7
 65
   257
 75
     1
175
     1
 42
1.0
 92
        8
 66
     8
424
  8421504
 43
1.0
 76
     1
 77
     6
 78
     2
 67
     7
 79
     5
170
     0
171
     0
290
     0
174
     0
 93
        1
 44
0.0
173
     0
291
     1
 45
0.0
  0
VISUALSTYLE
  5
271
102
{ACAD_REACTORS
330
267
102
}
330
267
100
AcDbVisualStyle
  2
Conceptual
 70
     9
 71
     3
 72
     2
 73
     0
 90
        0
 40
-0.6
 41
-30.0
 62
     5
 63
     7
421
 16777215
 74
     2
 91
        2
 64
     7
 65
   257
 75
     1
175
     1
 42
40.0
 92
        8
 66
     7
 43
1.0
 76
     1
 77
     6
 78
     2
 67
     7
 79
     3
170
     0
171
     0
290
     0
174
     0
 93
        1
 44
0.0
173
     0
291
     0
 45
0.0
  0
VISUALSTYLE
  5
272
102
{ACAD_REACTORS
330
267
102
}
330
267
100
AcDbVisualStyle
  2
Dim
 70
    11
 71
     2
 72
     2
 73
     0
 90
        0
 40
-0.6
 41
-30.0
 62
     5
 63
     7
421
 16777215
 74
     1
 91
        4
 64
     7
 65
   257
 75
     1
175
     1
 42
1.0
 92
        8
 66
     7
 43
1.0
 76
     1
 77
     6
 78
     2
 67
     7
 79
     5
170
     0
171
     0
290
     0
174
     0
 93
        1
 44
-50.0
173
     0
291
     1
 45
0.0
  0
VISUALSTYLE
  5
F14
102
{ACAD_REACTORS
330
267
102
}
330
267
100
AcDbVisualStyle
  2
EdgeColorOff
 70
    22
 71
     2
 72
     2
 73
     0
 90
        0
 40
0.6
 41
30.0
 62
     5
 63
     7
421
 16777215
 74
     1
 91
        4
 64
     7
 65
   257
 75
     1
175
     1
 42
1.0
 92
        8
 66
     7
 43
1.0
 76
     1
 77
     6
 78
     2
 67
     7
 79
     5
170
     0
171
     0
290
     0
174
     0
 93
        1
 44
0.0
173
     0
291
     1
 45
0.0
  0
VISUALSTYLE
  5
276
102
{ACAD_REACTORS
330
267
102
}
330
267
100
AcDbVisualStyle
  2
Facepattern
 70
    15
 71
     2
 72
     2
 73
     0
 90
        0
 40
-0.6
 41
-30.0
 62
     5
 63
     7
421
 16777215
 74
     1
 91
        4
 64
     7
 65
   257
 75
     1
175
     1
 42
1.0
 92
        8
 66
     7
 43
1.0
 76
     1
 77
     6
 78
     2
 67
     7
 79
     5
170
     0
171
     0
290
     0
174
     0
 93
        1
 44
0.0
173
     0
291
     1
 45
0.0
  0
VISUALSTYLE
  5
268
102
{ACAD_REACTORS
330
267
102
}
330
267
100
AcDbVisualStyle
  2
Flat
 70
     0
 71
     2
 72
     1
 73
     1
 90
        2
 40
-0.6
 41
30.0
 62
     5
 63
     7
421
 16777215
 74
     0
 91
        4
 64
     7
 65
   257
 75
     1
175
     1
 42
1.0
 92
        8
 66
     7
 43
1.0
 76
     1
 77
     6
 78
     2
 67
     7
 79
     5
170
     0
171
     0
290
     0
174
     0
 93
       13
 44
0.0
173
     0
291
     1
 45
0.0
  0
VISUALSTYLE
  5
269
102
{ACAD_REACTORS
330
267
102
}
330
267
100
AcDbVisualStyle
  2
FlatWithEdges
 70
     1
 71
     2
 72
     1
 73
     1
 90
        2
 40
-0.6
 41
30.0
 62
     5
 63
     7
421
 16777215
 74
     1
 91
        4
 64
     7
 65
   257
 75
     1
175
     1
 42
1.0
 92
        0
 66
   257
 43
1.0
 76
     1
 77
     6
 78
     2
 67
     7
 79
     5
170
     0
171
     0
290
     0
174
     0
 93
       13
 44
0.0
173
     0
291
     1
 45
0.0
  0
VISUALSTYLE
  5
26A
102
{ACAD_REACTORS
330
267
102
}
330
267
100
AcDbVisualStyle
  2
Gouraud
 70
     2
 71
     2
 72
     2
 73
     1
 90
        2
 40
-0.6
 41
30.0
 62
     5
 63
     7
421
 16777215
 74
     0
 91
        4
 64
     7
 65
   257
 75
     1
175
     1
 42
1.0
 92
        0
 66
     7
 43
1.0
 76
     1
 77
     6
 78
     2
 67
     7
 79
     5
170
     0
171
     0
290
     0
174
     0
 93
       13
 44
0.0
173
     0
291
     1
 45
0.0
  0
VISUALSTYLE
  5
26B
102
{ACAD_REACTORS
330
267
102
}
330
267
100
AcDbVisualStyle
  2
GouraudWithEdges
 70
     3
 71
     2
 72
     2
 73
     1
 90
        2
 40
-0.6
 41
30.0
 62
     5
 63
     7
421
 16777215
 74
     1
 91
        4
 64
     7
 65
   257
 75
     1
175
     1
 42
1.0
 92
        0
 66
   257
 43
1.0
 76
     1
 77
     6
 78
     2
 67
     7
 79
     5
170
     0
171
     0
290
     0
174
     0
 93
       13
 44
0.0
173
     0
291
     1
 45
0.0
  0
VISUALSTYLE
  5
F11
102
{ACAD_REACTORS
330
267
102
}
330
267
100
AcDbVisualStyle
  2
Hidden
 70
     6
 71
     1
 72
     2
 73
     2
 90
        0
 40
0.6
 41
30.0
 62
     5
 63
     7
421
 16777215
 74
     2
 91
        2
 64
     7
 65
   257
 75
     2
175
     1
 42
40.0
 92
        0
 66
   257
 43
1.0
 76
     1
 77
     6
 78
     2
 67
     7
 79
     3
170
     0
171
     0
290
     0
174
     0
 93
        1
 44
0.0
173
     0
291
     0
 45
0.0
  0
VISUALSTYLE
  5
F12
102
{ACAD_REACTORS
330
267
102
}
330
267
100
AcDbVisualStyle
  2
JitterOff
 70
    20
 71
     2
 72
     2
 73
     0
 90
        0
 40
0.6
 41
30.0
 62
     5
 63
     7
421
 16777215
 74
     1
 91
        4
 64
     7
 65
   257
 75
     1
175
     1
 42
1.0
 92
       10
 66
     7
 43
1.0
 76
     1
 77
     6
 78
     2
 67
     7
 79
     5
170
     0
171
     0
290
     0
174
     0
 93
        1
 44
0.0
173
     0
291
     1
 45
0.0
  0
VISUALSTYLE
  5
275
102
{ACAD_REACTORS
330
267
102
}
330
267
100
AcDbVisualStyle
  2
Linepattern
 70
    14
 71
     2
 72
     2
 73
     0
 90
        0
 40
-0.6
 41
-30.0
 62
     5
 63
     7
421
 16777215
 74
     1
 91
        4
 64
     7
 65
   257
 75
     7
175
     7
 42
1.0
 92
        8
 66
     7
 43
1.0
 76
     1
 77
     6
 78
     2
 67
     7
 79
     5
170
     0
171
     0
290
     0
174
     0
 93
        1
 44
0.0
173
     0
291
     1
 45
0.0
  0
VISUALSTYLE
  5
F13
102
{ACAD_REACTORS
330
267
102
}
330
267
100
AcDbVisualStyle
  2
OverhangOff
 70
    21
 71
     2
 72
     2
 73
     0
 90
        0
 40
0.6
 41
30.0
 62
     5
 63
     7
421
 16777215
 74
     1
 91
        4
 64
     7
 65
   257
 75
     1
175
     1
 42
1.0
 92
        9
 66
     7
 43
1.0
 76
     1
 77
     6
 78
     2
 67
     7
 79
     5
170
     0
171
     0
290
     0
174
     0
 93
        1
 44
0.0
173
     0
291
     1
 45
0.0
  0
VISUALSTYLE
  5
270
102
{ACAD_REACTORS
330
267
102
}
330
267
100
AcDbVisualStyle
  2
Realistic
 70
     8
 71
     2
 72
     2
 73
     0
 90
        0
 40
-0.6
 41
-30.0
 62
     5
 63
     7
421
 16777215
 74
     1
 91
        0
 64
     7
 65
   257
 75
     1
175
     1
 42
1.0
 92
        8
 66
     8
424
  7895160
 43
1.0
 76
     1
 77
     6
 78
     2
 67
     7
 79
     5
170
     0
171
     0
290
     0
174
     0
 93
       13
 44
0.0
173
     0
291
     0
 45
0.0
  0
VISUALSTYLE
  5
F19
102
{ACAD_REACTORS
330
267
102
}
330
267
100
AcDbVisualStyle
  2
Shaded
 70
    27
 71
     2
 72
     2
 73
     1
 90
        2
 40
0.6
 41
30.0
 62
     5
 63
     7
421
 16777215
 74
     0
 91
        4
 64
     7
 65
   257
 75
     1
175
     1
 42
1.0
 92
        8
 66
   257
 43
1.0
 76
     1
 77
     6
 78
     2
 67
     8
425
  7895160
 79
     3
170
     0
171
     0
290
     0
174
     0
 93
        5
 44
0.0
173
     0
291
     0
 45
0.0
  0
VISUALSTYLE
  5
F18
102
{ACAD_REACTORS
330
267
102
}
330
267
100
AcDbVisualStyle
  2
Shaded with edges
 70
    26
 71
     2
 72
     2
 73
     1
 90
        2
 40
0.6
 41
30.0
 62
     5
 63
     7
421
 16777215
 74
     1
 91
       10
 64
     7
 65
   257
 75
     2
175
     1
 42
1.0
 92
        8
 66
   257
 43
1.0
 76
     1
 77
     6
 78
     2
 67
     7
 79
     3
170
     0
171
     0
290
     0
174
     0
 93
        5
 44
0.0
173
     0
291
     0
 45
0.0
  0
VISUALSTYLE
  5
F15
102
{ACAD_REACTORS
330
267
102
}
330
267
100
AcDbVisualStyle
  2
Shades of Gray
 70
    23
 71
     2
 72
     2
 73
     3
 90
        0
 40
0.6
 41
30.0
 62
     5
 63
     7
421
 16777215
 74
     2
 91
        2
 64
     7
 65
     7
 75
     1
175
     1
 42
40.0
 92
        8
 66
     7
 43
1.0
 76
     1
 77
     6
 78
     2
 67
     7
 79
     3
170
     0
171
     0
290
     0
174
     0
 93
        1
 44
0.0
173
     0
291
     0
 45
0.0
  0
VISUALSTYLE
  5
F16
102
{ACAD_REACTORS
330
267
102
}
330
267
100
AcDbVisualStyle
  2
Sketchy
 70
    24
 71
     1
 72
     2
 73
     2
 90
        0
 40
0.6
 41
30.0
 62
     5
 63
     7
421
 16777215
 74
     2
 91
        2
 64
     7
 65
     7
 75
     1
175
     1
 42
40.0
 92
       11
 66
     7
 43
1.0
 76
     1
 77
     6
 78
     2
 67
     7
 79
     6
170
     0
171
     0
290
     0
174
     0
 93
        1
 44
0.0
173
     0
291
     0
 45
0.0
  0
VISUALSTYLE
  5
274
102
{ACAD_REACTORS
330
267
102
}
330
267
100
AcDbVisualStyle
  2
Thicken
 70
    13
 71
     2
 72
     2
 73
     0
 90
        0
 40
-0.6
 41
-30.0
 62
     5
 63
     7
421
 16777215
 74
     1
 91
        4
 64
     7
 65
   257
 75
     1
175
     1
 42
1.0
 92
       12
 66
     7
 43
1.0
 76
     1
 77
     6
 78
     2
 67
     7
 79
     5
170
     0
171
     0
290
     0
174
     0
 93
        1
 44
0.0
173
     0
291
     1
 45
0.0
  0
VISUALSTYLE
  5
F10
102
{ACAD_REACTORS
330
267
102
}
330
267
100
AcDbVisualStyle
  2
Wireframe
 70
     5
 71
     0
 72
     2
 73
     0
 90
        0
 40
0.6
 41
30.0
 62
     5
 63
     7
421
 16777215
 74
     1
 91
        4
 64
     7
 65
   257
 75
     1
175
     1
 42
1.0
 92
        0
 66
   257
 43
1.0
 76
     1
 77
     6
 78
     2
 67
     7
 79
     3
170
     0
171
     0
290
     0
174
     0
 93
        1
 44
0.0
173
     0
291
     0
 45
0.0
  0
VISUALSTYLE
  5
F17
102
{ACAD_REACTORS
330
267
102
}
330
267
100
AcDbVisualStyle
  2
X-Ray
 70
    25
 71
     2
 72
     2
 73
     1
 90
        1
 40
0.5
 41
30.0
 62
     5
 63
     7
421
 16777215
 74
     1
 91
        0
 64
     7
 65
   257
 75
     1
175
     1
 42
1.0
 92
        8
 66
     7
 43
1.0
 76
     1
 77
     6
 78
     2
 67
     7
 79
     3
170
     0
171
     0
290
     0
174
     0
 93
       13
 44
0.0
173
     0
291
     0
 45
0.0
  0
DICTIONARYVAR
  5
331
102
{ACAD_REACTORS
330
330
102
}
330
330
100
DictionaryVariables
280
     0
  1
1:1
  0
DICTIONARYVAR
  5
563E
102
{ACAD_REACTORS
330
330
102
}
330
330
100
DictionaryVariables
280
     0
  1
Standard
  0
DICTIONARYVAR
  5
335
102
{ACAD_REACTORS
330
330
102
}
330
330
100
DictionaryVariables
280
     0
  1
Standard
  0
DICTIONARYVAR
  5
52F7
102
{ACAD_REACTORS
330
330
102
}
330
330
100
DictionaryVariables
280
     0
  1
ByLayer
  0
DICTIONARYVAR
  5
13B4
102
{ACAD_REACTORS
330
330
102
}
330
330
100
DictionaryVariables
280
     0
  1
0
  0
FIELD
  5
5894
102
{ACAD_REACTORS
330
5896
330
5898
330
5899
102
}
330
5899
100
AcDbField
  1
_text
  2
{%<\_FldIdx 0>%N}
 90
        1
360
5897
 97
        0
 91
       63
 92
        0
 94
       11
 95
        2
 96
        0
300

 93
        1
  6
ACFD_FIELDTEXT_CHECKSUM
 93
        2
 90
        2
140
4507.0
 94
        0
300

302

304
ACVALUE_END
  7
ACFD_FIELD_VALUE
 93
        6
 90
        4
  1
{20180522N}
 94
        0
300

302

304
ACVALUE_END
301
{20180522N}
 98
       11
  0
DICTIONARY
  5
98C3
330
279
100
AcDbDictionary
280
     1
281
     1
  3
ACAD_ROUNDTRIP_2008_TABLESTYLE_CELLSTYLEMAP
360
98C4
  0
FIELD
  5
5897
330
5894
100
AcDbField
  1
AcVar
  2
\AcVar Date \f "yyyyMMdd"
 90
        0
 97
        0
 91
       63
 92
        0
 94
       11
 95
       64
 96
        0
300
Variable not supported
 93
        1
  6
Variable
 93
        2
 90
        4
  1
Date
 94
        0
300

302

304
ACVALUE_END
  7
ACFD_FIELD_VALUE
 93
        6
 90
        8
 92
       16
310
E2070500000016000B00000002000000
 94
        0
300
yyyyMMdd
302

304
ACVALUE_END
301
20180522
 98
        8
  0
CELLSTYLEMAP
  5
98C4
102
{ACAD_REACTORS
330
98C3
102
}
330
98C3
100
AcDbCellStyleMap
 90
        3
300
CELLSTYLE
  1
TABLEFORMAT_BEGIN
 90
        5
170
     1
 91
        0
 92
    32768
 62
   257
 93
        1
300
CONTENTFORMAT
  1
CONTENTFORMAT_BEGIN
 90
        0
 91
        0
 92
        4
 93
        0
300

 40
0.0
140
1.0
 94
        5
 62
     0
340
17
144
6.0
309
CONTENTFORMAT_END
171
     1
301
MARGIN
  1
CELLMARGIN_BEGIN
 40
0.06
 40
0.06
 40
0.06
 40
0.06
 40
0.18
 40
0.18
309
CELLMARGIN_END
 94
        6
 95
        1
302
GRIDFORMAT
  1
GRIDFORMAT_BEGIN
 90
        0
 91
        1
 62
     0
 92
       -2
340
0
 93
        0
 40
0.045
309
GRIDFORMAT_END
 95
        2
302
GRIDFORMAT
  1
GRIDFORMAT_BEGIN
 90
        0
 91
        1
 62
     0
 92
       -2
340
0
 93
        0
 40
0.045
309
GRIDFORMAT_END
 95
        4
302
GRIDFORMAT
  1
GRIDFORMAT_BEGIN
 90
        0
 91
        1
 62
     0
 92
       -2
340
0
 93
        0
 40
0.045
309
GRIDFORMAT_END
 95
        8
302
GRIDFORMAT
  1
GRIDFORMAT_BEGIN
 90
        0
 91
        1
 62
     0
 92
       -2
340
0
 93
        0
 40
0.045
309
GRIDFORMAT_END
 95
       16
302
GRIDFORMAT
  1
GRIDFORMAT_BEGIN
 90
        0
 91
        1
 62
     0
 92
       -2
340
0
 93
        0
 40
0.045
309
GRIDFORMAT_END
 95
       32
302
GRIDFORMAT
  1
GRIDFORMAT_BEGIN
 90
        0
 91
        1
 62
     0
 92
       -2
340
0
 93
        0
 40
0.045
309
GRIDFORMAT_END
309
TABLEFORMAT_END
  1
CELLSTYLE_BEGIN
 90
        1
 91
        1
300
_TITLE
309
CELLSTYLE_END
300
CELLSTYLE
  1
TABLEFORMAT_BEGIN
 90
        5
170
     1
 91
        0
 92
        0
 62
   257
 93
        1
300
CONTENTFORMAT
  1
CONTENTFORMAT_BEGIN
 90
        0
 91
        0
 92
        4
 93
        0
300

 40
0.0
140
1.0
 94
        5
 62
     0
340
17
144
4.5
309
CONTENTFORMAT_END
171
     1
301
MARGIN
  1
CELLMARGIN_BEGIN
 40
0.06
 40
0.06
 40
0.06
 40
0.06
 40
0.18
 40
0.18
309
CELLMARGIN_END
 94
        6
 95
        1
302
GRIDFORMAT
  1
GRIDFORMAT_BEGIN
 90
        0
 91
        1
 62
     0
 92
       -2
340
0
 93
        0
 40
0.045
309
GRIDFORMAT_END
 95
        2
302
GRIDFORMAT
  1
GRIDFORMAT_BEGIN
 90
        0
 91
        1
 62
     0
 92
       -2
340
0
 93
        0
 40
0.045
309
GRIDFORMAT_END
 95
        4
302
GRIDFORMAT
  1
GRIDFORMAT_BEGIN
 90
        0
 91
        1
 62
     0
 92
       -2
340
0
 93
        0
 40
0.045
309
GRIDFORMAT_END
 95
        8
302
GRIDFORMAT
  1
GRIDFORMAT_BEGIN
 90
        0
 91
        1
 62
     0
 92
       -2
340
0
 93
        0
 40
0.045
309
GRIDFORMAT_END
 95
       16
302
GRIDFORMAT
  1
GRIDFORMAT_BEGIN
 90
        0
 91
        1
 62
     0
 92
       -2
340
0
 93
        0
 40
0.045
309
GRIDFORMAT_END
 95
       32
302
GRIDFORMAT
  1
GRIDFORMAT_BEGIN
 90
        0
 91
        1
 62
     0
 92
       -2
340
0
 93
        0
 40
0.045
309
GRIDFORMAT_END
309
TABLEFORMAT_END
  1
CELLSTYLE_BEGIN
 90
        2
 91
        1
300
_HEADER
309
CELLSTYLE_END
300
CELLSTYLE
  1
TABLEFORMAT_BEGIN
 90
        5
170
     1
 91
        0
 92
        0
 62
   257
 93
        1
300
CONTENTFORMAT
  1
CONTENTFORMAT_BEGIN
 90
        0
 91
        0
 92
        4
 93
        0
300

 40
0.0
140
1.0
 94
        2
 62
     0
340
17
144
4.5
309
CONTENTFORMAT_END
171
     1
301
MARGIN
  1
CELLMARGIN_BEGIN
 40
0.06
 40
0.06
 40
0.06
 40
0.06
 40
0.18
 40
0.18
309
CELLMARGIN_END
 94
        6
 95
        1
302
GRIDFORMAT
  1
GRIDFORMAT_BEGIN
 90
        0
 91
        1
 62
     0
 92
       -2
340
0
 93
        0
 40
0.045
309
GRIDFORMAT_END
 95
        2
302
GRIDFORMAT
  1
GRIDFORMAT_BEGIN
 90
        0
 91
        1
 62
     0
 92
       -2
340
0
 93
        0
 40
0.045
309
GRIDFORMAT_END
 95
        4
302
GRIDFORMAT
  1
GRIDFORMAT_BEGIN
 90
        0
 91
        1
 62
     0
 92
       -2
340
0
 93
        0
 40
0.045
309
GRIDFORMAT_END
 95
        8
302
GRIDFORMAT
  1
GRIDFORMAT_BEGIN
 90
        0
 91
        1
 62
     0
 92
       -2
340
0
 93
        0
 40
0.045
309
GRIDFORMAT_END
 95
       16
302
GRIDFORMAT
  1
GRIDFORMAT_BEGIN
 90
        0
 91
        1
 62
     0
 92
       -2
340
0
 93
        0
 40
0.045
309
GRIDFORMAT_END
 95
       32
302
GRIDFORMAT
  1
GRIDFORMAT_BEGIN
 90
        0
 91
        1
 62
     0
 92
       -2
340
0
 93
        0
 40
0.045
309
GRIDFORMAT_END
309
TABLEFORMAT_END
  1
CELLSTYLE_BEGIN
 90
        3
 91
        2
300
_DATA
309
CELLSTYLE_END
  0
ENDSEC
  0
EOF
