  0
SECTION
  2
HEADER
  9
$ACADVER
  1
AC1021
  9
$ACADMAINTVER
 70
    25
  9
$DWGCODEPAGE
  3
ANSI_932
  9
$LASTSAVEDBY
  1
howeNelson
  9
$INSBASE
 10
0.0
 20
0.0
 30
0.0
  9
$EXTMIN
 10
0.0
 20
0.0
 30
-0.0000000000000071
  9
$EXTMAX
 10
1050.0
 20
1485.0
 30
0.0000000000000071
  9
$LIMMIN
 10
0.0
 20
0.0
  9
$LIMMAX
 10
1050.0
 20
1485.0
  9
$ORTHOMODE
 70
     0
  9
$REGENMODE
 70
     1
  9
$FILLMODE
 70
     1
  9
$QTEXTMODE
 70
     0
  9
$MIRRTEXT
 70
     1
  9
$LTSCALE
 40
2.5
  9
$ATTMODE
 70
     1
  9
$TEXTSIZE
 40
2.5
  9
$TRACEWID
 40
1.0
  9
$TEXTSTYLE
  7
ＭＳ ゴシック
  9
$CLAYER
  8
0
  9
$CELTYPE
  6
ByLayer
  9
$CECOLOR
 62
   256
  9
$CELTSCALE
 40
1.0
  9
$DISPSILH
 70
     0
  9
$DIMSCALE
 40
1.0
  9
$DIMASZ
 40
3.0
  9
$DIMEXO
 40
10.0
  9
$DIMDLI
 40
0.9999999999999999
  9
$DIMRND
 40
0.0
  9
$DIMDLE
 40
0.0
  9
$DIMEXE
 40
0.0
  9
$DIMTP
 40
0.0
  9
$DIMTM
 40
0.0
  9
$DIMTXT
 40
12.0
  9
$DIMCEN
 40
0.0
  9
$DIMTSZ
 40
0.0
  9
$DIMTOL
 70
     0
  9
$DIMLIM
 70
     0
  9
$DIMTIH
 70
     0
  9
$DIMTOH
 70
     0
  9
$DIMSE1
 70
     0
  9
$DIMSE2
 70
     0
  9
$DIMTAD
 70
     1
  9
$DIMZIN
 70
    11
  9
$DIMBLK
  1
DOT
  9
$DIMASO
 70
     1
  9
$DIMSHO
 70
     1
  9
$DIMPOST
  1
<>
  9
$DIMAPOST
  1
[]
  9
$DIMALT
 70
     0
  9
$DIMALTD
 70
     1
  9
$DIMALTF
 40
1.0
  9
$DIMLFAC
 40
1.0
  9
$DIMTOFL
 70
     0
  9
$DIMTVP
 40
0.0
  9
$DIMTIX
 70
     1
  9
$DIMSOXD
 70
     0
  9
$DIMSAH
 70
     0
  9
$DIMBLK1
  1

  9
$DIMBLK2
  1

  9
$DIMSTYLE
  2
tfrom線あり
  9
$DIMCLRD
 70
     0
  9
$DIMCLRE
 70
     0
  9
$DIMCLRT
 70
     0
  9
$DIMTFAC
 40
1.0
  9
$DIMGAP
 40
10.0
  9
$DIMJUST
 70
     0
  9
$DIMSD1
 70
     0
  9
$DIMSD2
 70
     0
  9
$DIMTOLJ
 70
     1
  9
$DIMTZIN
 70
    11
  9
$DIMALTZ
 70
    11
  9
$DIMALTTZ
 70
    11
  9
$DIMUPT
 70
     0
  9
$DIMDEC
 70
     0
  9
$DIMTDEC
 70
     1
  9
$DIMALTU
 70
     2
  9
$DIMALTTD
 70
     2
  9
$DIMTXSTY
  7
ＭＳ ゴシック
  9
$DIMAUNIT
 70
     0
  9
$DIMADEC
 70
     2
  9
$DIMALTRND
 40
0.0
  9
$DIMAZIN
 70
     0
  9
$DIMDSEP
 70
    46
  9
$DIMATFIT
 70
     0
  9
$DIMFRAC
 70
     2
  9
$DIMLDRBLK
  1
DOT
  9
$DIMLUNIT
 70
     2
  9
$DIMLWD
 70
    -2
  9
$DIMLWE
 70
    -2
  9
$DIMTMOVE
 70
     0
  9
$DIMFXL
 40
1.0
  9
$DIMFXLON
 70
     0
  9
$DIMJOGANG
 40
0.7853981633974483
  9
$DIMTFILL
 70
     0
  9
$DIMTFILLCLR
 70
     0
  9
$DIMARCSYM
 70
     0
  9
$DIMLTYPE
  6

  9
$DIMLTEX1
  6

  9
$DIMLTEX2
  6

  9
$LUNITS
 70
     2
  9
$LUPREC
 70
     0
  9
$SKETCHINC
 40
0.1
  9
$FILLETRAD
 40
0.0
  9
$AUNITS
 70
     0
  9
$AUPREC
 70
     0
  9
$MENU
  1
acad
  9
$ELEVATION
 40
0.0
  9
$PELEVATION
 40
0.0
  9
$THICKNESS
 40
0.0
  9
$LIMCHECK
 70
     0
  9
$CHAMFERA
 40
0.0
  9
$CHAMFERB
 40
0.0
  9
$CHAMFERC
 40
0.0
  9
$CHAMFERD
 40
0.0
  9
$SKPOLY
 70
     0
  9
$TDCREATE
 40
2447893.375
  9
$TDUCREATE
 40
0.0
  9
$TDUPDATE
 40
2458795.657577025
  9
$TDUUPDATE
 40
2458795.282577025
  9
$TDINDWG
 40
0.1912552894
  9
$TDUSRTIMER
 40
0.064643287
  9
$USRTIMER
 70
     1
  9
$ANGBASE
 50
0.0
  9
$ANGDIR
 70
     0
  9
$PDMODE
 70
     1
  9
$PDSIZE
 40
-2.0
  9
$PLINEWID
 40
0.0
  9
$SPLFRAME
 70
     0
  9
$SPLINETYPE
 70
     6
  9
$SPLINESEGS
 70
     8
  9
$HANDSEED
  5
3387
  9
$SURFTAB1
 70
     6
  9
$SURFTAB2
 70
     6
  9
$SURFTYPE
 70
     6
  9
$SURFU
 70
     6
  9
$SURFV
 70
     6
  9
$UCSBASE
  2

  9
$UCSNAME
  2

  9
$UCSORG
 10
0.0
 20
0.0
 30
0.0
  9
$UCSXDIR
 10
1.0
 20
0.0
 30
0.0
  9
$UCSYDIR
 10
0.0
 20
1.0
 30
0.0
  9
$UCSORTHOREF
  2

  9
$UCSORTHOVIEW
 70
     0
  9
$UCSORGTOP
 10
0.0
 20
0.0
 30
0.0
  9
$UCSORGBOTTOM
 10
0.0
 20
0.0
 30
0.0
  9
$UCSORGLEFT
 10
0.0
 20
0.0
 30
0.0
  9
$UCSORGRIGHT
 10
0.0
 20
0.0
 30
0.0
  9
$UCSORGFRONT
 10
0.0
 20
0.0
 30
0.0
  9
$UCSORGBACK
 10
0.0
 20
0.0
 30
0.0
  9
$PUCSBASE
  2

  9
$PUCSNAME
  2

  9
$PUCSORG
 10
0.0
 20
0.0
 30
0.0
  9
$PUCSXDIR
 10
1.0
 20
0.0
 30
0.0
  9
$PUCSYDIR
 10
0.0
 20
1.0
 30
0.0
  9
$PUCSORTHOREF
  2

  9
$PUCSORTHOVIEW
 70
     0
  9
$PUCSORGTOP
 10
0.0
 20
0.0
 30
0.0
  9
$PUCSORGBOTTOM
 10
0.0
 20
0.0
 30
0.0
  9
$PUCSORGLEFT
 10
0.0
 20
0.0
 30
0.0
  9
$PUCSORGRIGHT
 10
0.0
 20
0.0
 30
0.0
  9
$PUCSORGFRONT
 10
0.0
 20
0.0
 30
0.0
  9
$PUCSORGBACK
 10
0.0
 20
0.0
 30
0.0
  9
$USERI1
 70
     0
  9
$USERI2
 70
     0
  9
$USERI3
 70
     0
  9
$USERI4
 70
     0
  9
$USERI5
 70
     0
  9
$USERR1
 40
0.0
  9
$USERR2
 40
0.0
  9
$USERR3
 40
0.0
  9
$USERR4
 40
0.0
  9
$USERR5
 40
0.0
  9
$WORLDVIEW
 70
     1
  9
$SHADEDGE
 70
     3
  9
$SHADEDIF
 70
    70
  9
$TILEMODE
 70
     1
  9
$MAXACTVP
 70
    64
  9
$PINSBASE
 10
0.0
 20
0.0
 30
0.0
  9
$PLIMCHECK
 70
     0
  9
$PEXTMIN
 10
0.0
 20
0.0
 30
0.0
  9
$PEXTMAX
 10
0.0
 20
0.0
 30
0.0
  9
$PLIMMIN
 10
-7.5
 20
-20.0
  9
$PLIMMAX
 10
412.5
 20
277.0
  9
$UNITMODE
 70
     0
  9
$VISRETAIN
 70
     0
  9
$PLINEGEN
 70
     1
  9
$PSLTSCALE
 70
     0
  9
$TREEDEPTH
 70
  3020
  9
$CMLSTYLE
  2
Standard
  9
$CMLJUST
 70
     0
  9
$CMLSCALE
 40
1.0
  9
$PROXYGRAPHICS
 70
     0
  9
$MEASUREMENT
 70
     1
  9
$CELWEIGHT
370
    -1
  9
$ENDCAPS
280
     0
  9
$JOINSTYLE
280
     0
  9
$LWDISPLAY
290
     1
  9
$INSUNITS
 70
     4
  9
$HYPERLINKBASE
  1

  9
$STYLESHEET
  1

  9
$XEDIT
290
     1
  9
$CEPSNTYPE
380
     0
  9
$PSTYLEMODE
290
     1
  9
$FINGERPRINTGUID
  2

  9
$VERSIONGUID
  2

  9
$EXTNAMES
290
     1
  9
$PSVPSCALE
 40
0.0
  9
$OLESTARTUP
290
     0
  9
$SORTENTS
280
   127
  9
$INDEXCTL
280
     0
  9
$HIDETEXT
280
     1
  9
$XCLIPFRAME
290
     0
  9
$HALOGAP
280
     0
  9
$OBSCOLOR
 70
   257
  9
$OBSLTYPE
280
     0
  9
$INTERSECTIONDISPLAY
280
     0
  9
$INTERSECTIONCOLOR
 70
   257
  9
$DIMASSOC
280
     2
  9
$PROJECTNAME
  1

  9
$CAMERADISPLAY
290
     0
  9
$LENSLENGTH
 40
50.0
  9
$CAMERAHEIGHT
 40
0.0
  9
$STEPSPERSEC
 40
2.0
  9
$STEPSIZE
 40
6.0
  9
$3DDWFPREC
 40
2.0
  9
$PSOLWIDTH
 40
0.25
  9
$PSOLHEIGHT
 40
4.0
  9
$LOFTANG1
 40
1.570796326794897
  9
$LOFTANG2
 40
1.570796326794897
  9
$LOFTMAG1
 40
0.0
  9
$LOFTMAG2
 40
0.0
  9
$LOFTPARAM
 70
     7
  9
$LOFTNORMALS
280
     1
  9
$LATITUDE
 40
37.795
  9
$LONGITUDE
 40
-122.394
  9
$NORTHDIRECTION
 40
0.0
  9
$TIMEZONE
 70
 -8000
  9
$LIGHTGLYPHDISPLAY
280
     1
  9
$TILEMODELIGHTSYNCH
280
     1
  9
$SOLIDHIST
280
     1
  9
$SHOWHIST
280
     1
  9
$DWFFRAME
280
     2
  9
$DGNFRAME
280
     2
  9
$REALWORLDSCALE
290
     1
  9
$INTERFERECOLOR
 62
   256
  9
$CSHADOW
280
     0
  9
$SHADOWPLANELOCATION
 40
0.0
  0
ENDSEC
  0
SECTION
  2
CLASSES
  0
CLASS
  1
LWPOLYLINE
  2
AcDbPolyline
  3
ObjectDBX Classes
 90
        0
 91
        1
280
     0
281
     1
  0
CLASS
  1
IMAGE
  2
AcDbRasterImage
  3
ISM
 90
      127
 91
        5
280
     0
281
     1
  0
CLASS
  1
OLE2FRAME
  2
AcDbOle2Frame
  3
ObjectDBX Classes
 90
        0
 91
        1
280
     0
281
     1
  0
CLASS
  1
HATCH
  2
AcDbHatch
  3
ObjectDBX Classes
 90
        0
 91
        1
280
     0
281
     1
  0
CLASS
  1
DICTIONARYVAR
  2
AcDbDictionaryVar
  3
ObjectDBX Classes
 90
        0
 91
        5
280
     0
281
     0
  0
CLASS
  1
RASTERVARIABLES
  2
AcDbRasterVariables
  3
ISM
 90
        0
 91
        4
280
     0
281
     0
  0
CLASS
  1
IMAGEDEF
  2
AcDbRasterImageDef
  3
ISM
 90
        0
 91
        4
280
     0
281
     0
  0
CLASS
  1
IMAGEDEF_REACTOR
  2
AcDbRasterImageDefReactor
  3
ISM
 90
        1
 91
        4
280
     0
281
     0
  0
CLASS
  1
IDBUFFER
  2
AcDbIdBuffer
  3
ObjectDBX Classes
 90
        0
 91
        4
280
     0
281
     0
  0
CLASS
  1
SPATIAL_FILTER
  2
AcDbSpatialFilter
  3
ObjectDBX Classes
 90
        0
 91
        4
280
     0
281
     0
  0
CLASS
  1
XRECORD
  2
AcDbXrecord
  3
ObjectDBX Classes
 90
        0
 91
        1
280
     0
281
     0
  0
CLASS
  1
SORTENTSTABLE
  2
AcDbSortentsTable
  3
ObjectDBX Classes
 90
        0
 91
        4
280
     0
281
     0
  0
CLASS
  1
LAYER_INDEX
  2
AcDbLayerIndex
  3
ObjectDBX Classes
 90
        0
 91
        4
280
     0
281
     0
  0
CLASS
  1
SPATIAL_INDEX
  2
AcDbSpatialIndex
  3
AutoCAD 2000
 90
        0
 91
        4
280
     0
281
     0
  0
CLASS
  1
OBJECT_PTR
  2
CAseDLPNTableRecord
  3
ASE-LPNTableRecord
 90
        1
 91
        4
280
     0
281
     0
  0
CLASS
  1
LAYOUT
  2
AcDbLayout
  3
ObjectDBX Classes
 90
        0
 91
        1
280
     0
281
     0
  0
CLASS
  1
PLOTSETTINGS
  2
AcDbPlotSettings
  3
ObjectDBX Classes
 90
        0
 91
        4
280
     0
281
     0
  0
CLASS
  1
ACDBDICTIONARYWDFLT
  2
AcDbDictionaryWithDefault
  3
ObjectDBX Classes
 90
        0
 91
        5
280
     0
281
     0
  0
CLASS
  1
ACDBPLACEHOLDER
  2
AcDbPlaceHolder
  3
ObjectDBX Classes
 90
        0
 91
        1
280
     0
281
     0
  0
CLASS
  1
SCALE
  2
AcDbScale
  3
ObjectDBX Classes
 90
     1153
 91
        5
280
     0
281
     0
  0
CLASS
  1
MATERIAL
  2
AcDbMaterial
  3
ObjectDBX Classes
 90
     1153
 91
        5
280
     0
281
     0
  0
CLASS
  1
VISUALSTYLE
  2
AcDbVisualStyle
  3
ObjectDBX Classes
 90
     4095
 91
        5
280
     0
281
     0
  0
CLASS
  1
TABLESTYLE
  2
AcDbTableStyle
  3
ObjectDBX Classes
 90
     4095
 91
        5
280
     0
281
     0
  0
CLASS
  1
DIMASSOC
  2
AcDbDimAssoc
  3
"AcDbDimAssoc|Product Desc:     AcDim ARX App For Dimension|Company:          Autodesk, Inc.|WEB Address:      www.autodesk.com"
 90
        0
 91
        4
280
     0
281
     0
  0
CLASS
  1
CELLSTYLEMAP
  2
AcDbCellStyleMap
  3
ObjectDBX Classes
 90
     1152
 91
        4
280
     0
281
     0
  0
CLASS
  1
SUN
  2
AcDbSun
  3
SCENEOE
 90
     1153
 91
        4
280
     0
281
     0
  0
CLASS
  1
MLEADERSTYLE
  2
AcDbMLeaderStyle
  3
ACDB_MLEADERSTYLE_CLASS
 90
     4095
 91
        5
280
     0
281
     0
  0
CLASS
  1
FIELD
  2
AcDbField
  3
ObjectDBX Classes
 90
     1152
 91
        4
280
     0
281
     0
  0
CLASS
  1
FIELDLIST
  2
AcDbFieldList
  3
ObjectDBX Classes
 90
     1152
 91
        4
280
     0
281
     0
  0
ENDSEC
  0
SECTION
  2
TABLES
  0
TABLE
  2
VPORT
  5
7
330
0
100
AcDbSymbolTable
 70
     1
  0
VPORT
  5
15
330
7
100
AcDbSymbolTableRecord
100
AcDbViewportTableRecord
  2
*ACTIVE
 70
     0
 10
0.0
 20
0.0
 11
1.0
 21
1.0
 12
616.0201356709001
 22
668.901285469834
 13
0.0
 23
0.0
 14
1.0
 24
1.0
 15
0.0
 25
0.0
 16
0.0
 26
0.0
 36
1.0
 17
-91.02013567090012
 27
73.59871453016603
 37
-46.86809886248109
 40
1514.7
 41
2.310294117647059
 42
50.0
 43
0.0
 44
0.0
 50
0.0
 51
0.0
 71
    16
 72
  2000
 73
     1
 74
     1
 75
     0
 76
     0
 77
     0
 78
     0
281
     0
 65
     1
110
0.0
120
0.0
130
0.0
111
1.0
121
0.0
131
0.0
112
0.0
122
1.0
132
0.0
 79
     0
146
0.0
348
26C
 60
     3
 61
     5
292
     1
282
     1
141
0.0
142
0.0
 63
   256
361
904
  0
ENDTAB
  0
TABLE
  2
LTYPE
  5
4
330
0
100
AcDbSymbolTable
 70
     5
  0
LTYPE
  5
11
330
4
100
AcDbSymbolTableRecord
100
AcDbLinetypeTableRecord
  2
ByBlock
 70
     0
  3

 72
    65
 73
     0
 40
0.0
  0
LTYPE
  5
12
330
4
100
AcDbSymbolTableRecord
100
AcDbLinetypeTableRecord
  2
ByLayer
 70
     0
  3

 72
    65
 73
     0
 40
0.0
  0
LTYPE
  5
13
330
4
100
AcDbSymbolTableRecord
100
AcDbLinetypeTableRecord
  2
Continuous
 70
     0
  3
Solid line
 72
    65
 73
     0
 40
0.0
  0
LTYPE
  5
D6C
330
4
100
AcDbSymbolTableRecord
100
AcDbLinetypeTableRecord
  2
BORDER
 70
     0
  3
Border __  __  . __  __  . __  __  . __  __  . 
 72
    65
 73
     6
 40
44.45
 49
12.7
 74
     0
 49
-6.35
 74
     0
 49
12.7
 74
     0
 49
-6.35
 74
     0
 49
0.0
 74
     0
 49
-6.35
 74
     0
  0
LTYPE
  5
D6D
330
4
100
AcDbSymbolTableRecord
100
AcDbLinetypeTableRecord
  2
HIDDEN
 70
     0
  3
Hidden _ _ _ _ _ _ _ _ _ _ _ _ _ _ _ _ _ _ _ _ 
 72
    65
 73
     2
 40
9.524999999999999
 49
6.35
 74
     0
 49
-3.175
 74
     0
  0
LTYPE
  5
3137
330
4
100
AcDbSymbolTableRecord
100
AcDbLinetypeTableRecord
  2
DASHED
 70
     0
  3
Dashed __ __ __ __ __ __ __ __ __ __ __ __ __ _
 72
    65
 73
     2
 40
19.05
 49
12.7
 74
     0
 49
-6.35
 74
     0
  0
LTYPE
  5
3139
330
4
100
AcDbSymbolTableRecord
100
AcDbLinetypeTableRecord
  2
DASHDOT
 70
     0
  3
Dash dot __ . __ . __ . __ . __ . __ . __ . __
 72
    65
 73
     4
 40
25.4
 49
12.7
 74
     0
 49
-6.35
 74
     0
 49
0.0
 74
     0
 49
-6.35
 74
     0
  0
ENDTAB
  0
TABLE
  2
LAYER
  5
2
102
{ACAD_XDICTIONARY
360
2E1
102
}
330
0
100
AcDbSymbolTable
 70
    10
  0
LAYER
  5
14
330
2
100
AcDbSymbolTableRecord
100
AcDbLayerTableRecord
  2
0
 70
     0
 62
     7
  6
Continuous
370
    -3
390
1D
347
266
  0
LAYER
  5
4B
330
2
100
AcDbSymbolTableRecord
100
AcDbLayerTableRecord
  2
TEMPLATE
 70
     0
 62
     7
  6
Continuous
370
    20
390
1D
347
266
  0
LAYER
  5
4C
330
2
100
AcDbSymbolTableRecord
100
AcDbLayerTableRecord
  2
DIM
 70
     0
 62
     3
  6
Continuous
370
    13
390
1D
347
266
  0
LAYER
  5
4D
330
2
100
AcDbSymbolTableRecord
100
AcDbLayerTableRecord
  2
MODEL
 70
     0
 62
     7
  6
Continuous
370
    20
390
1D
347
266
  0
LAYER
  5
88C
330
2
100
AcDbSymbolTableRecord
100
AcDbLayerTableRecord
  2
HIDDEN
 70
     0
 62
     8
  6
HIDDEN
370
    20
390
1D
347
266
1001
AcAecLayerStandard
1000

1000

  0
LAYER
  5
D6B
330
2
100
AcDbSymbolTableRecord
100
AcDbLayerTableRecord
  2
BORDER
 70
     0
 62
     4
  6
BORDER
290
     0
370
    20
390
1D
347
266
1001
AcAecLayerStandard
1000

1000

  0
LAYER
  5
D8C
330
2
100
AcDbSymbolTableRecord
100
AcDbLayerTableRecord
  2
Defpoints
 70
     0
 62
     7
  6
Continuous
290
     0
370
    -3
390
1D
347
266
  0
LAYER
  5
1793
330
2
100
AcDbSymbolTableRecord
100
AcDbLayerTableRecord
  2
Standard
 70
     0
 62
     7
  6
Continuous
370
    -3
390
1D
347
266
  0
LAYER
  5
3135
330
2
100
AcDbSymbolTableRecord
100
AcDbLayerTableRecord
  2
102
 70
     0
 62
     1
  6
DASHED
370
    -3
390
1D
347
266
  0
LAYER
  5
3138
330
2
100
AcDbSymbolTableRecord
100
AcDbLayerTableRecord
  2
202
 70
     0
 62
     1
  6
DASHED
370
    -3
390
1D
347
266
  0
ENDTAB
  0
TABLE
  2
STYLE
  5
3
330
0
100
AcDbSymbolTable
 70
     3
  0
STYLE
  5
17
330
3
100
AcDbSymbolTableRecord
100
AcDbTextStyleTableRecord
  2
Standard
 70
     0
 40
0.0
 41
1.0
 50
0.0
 71
     0
 42
2.5
  3
txt
  4
BIGFONT.SHX
  0
STYLE
  5
39
330
3
100
AcDbSymbolTableRecord
100
AcDbTextStyleTableRecord
  2
ＭＳ ゴシック
 70
     0
 40
0.0
 41
1.0
 50
0.0
 71
     0
 42
2.5
  3
msgothic.ttc
  4
ＭＳ ゴシック
1001
ACAD
1000
ＭＳ ゴシック
1071
        0
  0
STYLE
  5
313C
330
3
100
AcDbSymbolTableRecord
100
AcDbTextStyleTableRecord
  2
FSB
 70
     0
 40
0.0
 41
1.0
 50
0.0
 71
     0
 42
2.5
  3

  4

  0
ENDTAB
  0
TABLE
  2
VIEW
  5
5
330
0
100
AcDbSymbolTable
 70
     0
  0
ENDTAB
  0
TABLE
  2
UCS
  5
6
330
0
100
AcDbSymbolTable
 70
     0
  0
ENDTAB
  0
TABLE
  2
APPID
  5
8
330
0
100
AcDbSymbolTable
 70
     3
  0
APPID
  5
16
330
8
100
AcDbSymbolTableRecord
100
AcDbRegAppTableRecord
  2
ACAD
 70
     0
  0
APPID
  5
7AC
330
8
100
AcDbSymbolTableRecord
100
AcDbRegAppTableRecord
  2
AcAecLayerStandard
 70
     0
  0
APPID
  5
E29
330
8
100
AcDbSymbolTableRecord
100
AcDbRegAppTableRecord
  2
ACAD_MLEADERVER
 70
     0
  0
ENDTAB
  0
TABLE
  2
DIMSTYLE
  5
9
330
0
100
AcDbSymbolTable
 70
     2
100
AcDbDimStyleTable
  0
DIMSTYLE
105
18
330
9
100
AcDbSymbolTableRecord
100
AcDbDimStyleTableRecord
  2
Standard
 70
     0
178
     0
340
17
  0
DIMSTYLE
105
57
102
{ACAD_REACTORS
330
3330
330
333D
330
334A
102
}
330
9
100
AcDbSymbolTableRecord
100
AcDbDimStyleTableRecord
  2
tfrom線あり
 70
     0
  3
<>
  4
[]
 41
3.0
 42
10.0
 43
0.9999999999999999
 44
0.0
 73
     0
 74
     0
 77
     1
 78
    11
140
12.0
141
0.0
143
1.0
147
10.0
171
     1
174
     1
178
     0
179
     2
271
     0
272
     1
276
     2
284
    11
285
    11
286
    11
289
     0
340
39
341
4E
342
4E
  0
ENDTAB
  0
TABLE
  2
BLOCK_RECORD
  5
1
330
0
100
AcDbSymbolTable
 70
    13
  0
BLOCK_RECORD
  5
A
102
{ACAD_XDICTIONARY
360
24B4
102
}
330
1
100
AcDbSymbolTableRecord
100
AcDbBlockTableRecord
  2
*MODEL_SPACE
340
20
 70
     0
280
     1
281
     0
  0
BLOCK_RECORD
  5
B
330
1
100
AcDbSymbolTableRecord
100
AcDbBlockTableRecord
  2
*PAPER_SPACE
340
21
 70
     0
280
     1
281
     0
  0
BLOCK_RECORD
  5
4E
330
1
100
AcDbSymbolTableRecord
100
AcDbBlockTableRecord
  2
_DOT
340
0
102
{BLKREFS
331
251F
331
2520
331
252B
331
252C
331
30DC
331
30DD
331
310A
331
310B
331
3118
331
3119
331
312B
331
312C
331
3338
331
3337
331
3345
331
3344
331
3352
331
3351
102
}
 70
     0
280
     1
281
     0
  0
BLOCK_RECORD
  5
68D
330
1
100
AcDbSymbolTableRecord
100
AcDbBlockTableRecord
  2
block 2
340
0
102
{BLKREFS
331
68C
331
1343
102
}
 70
     0
280
     1
281
     0
  0
BLOCK_RECORD
  5
2519
330
1
100
AcDbSymbolTableRecord
100
AcDbBlockTableRecord
  2
*D2
340
0
 70
     0
280
     1
281
     0
  0
BLOCK_RECORD
  5
2525
330
1
100
AcDbSymbolTableRecord
100
AcDbBlockTableRecord
  2
*D3
340
0
 70
     0
280
     1
281
     0
  0
BLOCK_RECORD
  5
30D6
330
1
100
AcDbSymbolTableRecord
100
AcDbBlockTableRecord
  2
*D4
340
0
 70
     0
280
     1
281
     0
  0
BLOCK_RECORD
  5
3103
330
1
100
AcDbSymbolTableRecord
100
AcDbBlockTableRecord
  2
*D5
340
0
 70
     0
280
     1
281
     0
  0
BLOCK_RECORD
  5
3112
330
1
100
AcDbSymbolTableRecord
100
AcDbBlockTableRecord
  2
*D6
340
0
 70
     0
280
     1
281
     0
  0
BLOCK_RECORD
  5
3125
330
1
100
AcDbSymbolTableRecord
100
AcDbBlockTableRecord
  2
*D7
340
0
 70
     0
280
     1
281
     0
  0
BLOCK_RECORD
  5
31E1
330
1
100
AcDbSymbolTableRecord
100
AcDbBlockTableRecord
  2
*X9
340
0
102
{BLKREFS
331
31E0
331
0
102
}
 70
     0
280
     1
281
     0
  0
BLOCK_RECORD
  5
3331
330
1
100
AcDbSymbolTableRecord
100
AcDbBlockTableRecord
  2
*D10
340
0
 70
     0
280
     1
281
     0
  0
BLOCK_RECORD
  5
333E
330
1
100
AcDbSymbolTableRecord
100
AcDbBlockTableRecord
  2
*D11
340
0
 70
     0
280
     1
281
     0
  0
BLOCK_RECORD
  5
334B
330
1
100
AcDbSymbolTableRecord
100
AcDbBlockTableRecord
  2
*D12
340
0
 70
     0
280
     1
281
     0
  0
ENDTAB
  0
ENDSEC
  0
SECTION
  2
BLOCKS
  0
BLOCK
  5
D
330
A
100
AcDbEntity
  8
0
390
1D
100
AcDbBlockBegin
  2
*MODEL_SPACE
 70
     0
 10
0.0
 20
0.0
 30
0.0
  3
*MODEL_SPACE
  1
*MODEL_SPACE
  0
ENDBLK
  5
E
330
A
100
AcDbEntity
  8
0
390
1D
100
AcDbBlockEnd
  0
BLOCK
  5
F
330
B
100
AcDbEntity
 67
     1
  8
0
390
1D
100
AcDbBlockBegin
  2
*PAPER_SPACE
 70
     0
 10
0.0
 20
0.0
 30
0.0
  3
*PAPER_SPACE
  1
*PAPER_SPACE
  0
ENDBLK
  5
10
330
B
100
AcDbEntity
 67
     1
  8
0
390
1D
100
AcDbBlockEnd
  0
BLOCK
  5
E30
330
4E
100
AcDbEntity
  8
0
390
1D
100
AcDbBlockBegin
  2
_DOT
 70
     0
 10
0.0
 20
0.0
 30
0.0
  3
_DOT
  1
_DOT
  0
POLYLINE
  5
E32
330
4E
100
AcDbEntity
  8
0
  6
ByBlock
 62
     0
370
    -2
390
1D
100
AcDb2dPolyline
 66
     1
 10
0.0
 20
0.0
 30
0.0
 70
     1
 40
0.5
 41
0.5
  0
VERTEX
  5
E33
330
E32
100
AcDbEntity
  8
0
  6
ByBlock
 62
     0
370
    -2
390
1D
100
AcDbVertex
100
AcDb2dVertex
 10
-0.25
 20
0.0
 30
0.0
 42
1.0
  0
VERTEX
  5
E34
330
E32
100
AcDbEntity
  8
0
  6
ByBlock
 62
     0
370
    -2
390
1D
100
AcDbVertex
100
AcDb2dVertex
 10
0.25
 20
0.0
 30
0.0
 42
1.0
  0
SEQEND
  5
E35
330
E32
100
AcDbEntity
  8
0
390
1D
  0
LINE
  5
E36
330
4E
100
AcDbEntity
  8
0
  6
ByBlock
 62
     0
370
    -2
390
1D
100
AcDbLine
 10
-0.5
 20
0.0
 30
0.0
 11
-1.0
 21
0.0
 31
0.0
  0
ENDBLK
  5
E37
330
4E
100
AcDbEntity
  8
0
390
1D
100
AcDbBlockEnd
  0
BLOCK
  5
68E
330
68D
100
AcDbEntity
  8
0
100
AcDbBlockBegin
  2
block 2
 70
     0
 10
0.0
 20
0.0
 30
0.0
  3
block 2
  1
block 2
  0
ENDBLK
  5
6B0
330
68D
100
AcDbEntity
  8
0
100
AcDbBlockEnd
  0
BLOCK
  5
251A
330
2519
100
AcDbEntity
  8
0
100
AcDbBlockBegin
  2
*D2
 70
     1
 10
0.0
 20
0.0
 30
0.0
  3
*D2
  1

  0
LINE
  5
251C
330
2519
100
AcDbEntity
  8
DIM
 62
     0
370
    -2
100
AcDbLine
 10
-702.0822493748101
 20
798.5395136778114
 30
0.0
 11
-702.0822493748101
 21
963.9051262249235
 31
0.0
  0
LINE
  5
251D
330
2519
100
AcDbEntity
  8
DIM
 62
     0
370
    -2
100
AcDbLine
 10
-416.6372645723795
 20
798.5395136778114
 30
0.0
 11
-416.6372645723795
 21
963.9051262249235
 31
0.0
  0
LINE
  5
251E
330
2519
100
AcDbEntity
  8
DIM
 62
     0
370
    -2
100
AcDbLine
 10
-699.0822493748101
 20
963.9051262249235
 30
0.0
 11
-419.6372645723795
 21
963.9051262249235
 31
0.0
  0
INSERT
  5
251F
330
2519
100
AcDbEntity
  8
DIM
 62
     0
370
    -2
100
AcDbBlockReference
  2
_DOT
 10
-702.0822493748101
 20
963.9051262249235
 30
0.0
 41
3.0
 42
3.0
 43
3.0
 50
180.0
  0
INSERT
  5
2520
330
2519
100
AcDbEntity
  8
DIM
 62
     0
370
    -2
100
AcDbBlockReference
  2
_DOT
 10
-416.6372645723795
 20
963.9051262249235
 30
0.0
 41
3.0
 42
3.0
 43
3.0
  0
MTEXT
  5
2521
330
2519
100
AcDbEntity
  8
DIM
 62
     0
100
AcDbMText
 10
-559.3597569735957
 20
979.9051262249235
 30
0.0
 40
12.0
 41
0.0
 46
0.0
 71
     5
 72
     1
  1
\A1;285
  7
ＭＳ ゴシック
 73
     1
 44
1.0
  0
POINT
  5
2522
330
2519
100
AcDbEntity
  8
Defpoints
 62
     0
100
AcDbPoint
 10
-702.0822493748101
 20
788.5395136778114
 30
0.0
  0
POINT
  5
2523
330
2519
100
AcDbEntity
  8
Defpoints
 62
     0
100
AcDbPoint
 10
-416.6372645723795
 20
788.5395136778114
 30
0.0
  0
POINT
  5
2524
330
2519
100
AcDbEntity
  8
Defpoints
 62
     0
100
AcDbPoint
 10
-416.6372645723795
 20
963.9051262249235
 30
0.0
  0
ENDBLK
  5
251B
330
2519
100
AcDbEntity
  8
0
100
AcDbBlockEnd
  0
BLOCK
  5
2526
330
2525
100
AcDbEntity
  8
0
100
AcDbBlockBegin
  2
*D3
 70
     1
 10
0.0
 20
0.0
 30
0.0
  3
*D3
  1

  0
LINE
  5
2528
330
2525
100
AcDbEntity
  8
DIM
 62
     0
370
    -2
100
AcDbLine
 10
-654.0770354360566
 20
778.5395136778114
 30
0.0
 11
-654.0770354360566
 21
571.7928496048629
 31
0.0
  0
LINE
  5
2529
330
2525
100
AcDbEntity
  8
DIM
 62
     0
370
    -2
100
AcDbLine
 10
-464.642478511134
 20
778.5395136778114
 30
0.0
 11
-464.642478511134
 21
571.7928496048629
 31
0.0
  0
LINE
  5
252A
330
2525
100
AcDbEntity
  8
DIM
 62
     0
370
    -2
100
AcDbLine
 10
-651.0770354360566
 20
571.7928496048629
 30
0.0
 11
-467.642478511134
 21
571.7928496048629
 31
0.0
  0
INSERT
  5
252B
330
2525
100
AcDbEntity
  8
DIM
 62
     0
370
    -2
100
AcDbBlockReference
  2
_DOT
 10
-654.0770354360566
 20
571.7928496048629
 30
0.0
 41
3.0
 42
3.0
 43
3.0
 50
180.0
  0
INSERT
  5
252C
330
2525
100
AcDbEntity
  8
DIM
 62
     0
370
    -2
100
AcDbBlockReference
  2
_DOT
 10
-464.642478511134
 20
571.7928496048629
 30
0.0
 41
3.0
 42
3.0
 43
3.0
  0
MTEXT
  5
252D
330
2525
100
AcDbEntity
  8
DIM
 62
     0
100
AcDbMText
 10
-559.3597569735953
 20
587.7928496048629
 30
0.0
 40
12.0
 41
0.0
 46
0.0
 71
     5
 72
     1
  1
\A1;189
  7
ＭＳ ゴシック
 73
     1
 44
1.0
  0
POINT
  5
252E
330
2525
100
AcDbEntity
  8
Defpoints
 62
     0
100
AcDbPoint
 10
-654.0770354360566
 20
788.5395136778114
 30
0.0
  0
POINT
  5
252F
330
2525
100
AcDbEntity
  8
Defpoints
 62
     0
100
AcDbPoint
 10
-464.642478511134
 20
788.5395136778114
 30
0.0
  0
POINT
  5
2530
330
2525
100
AcDbEntity
  8
Defpoints
 62
     0
100
AcDbPoint
 10
-464.642478511134
 20
571.7928496048629
 30
0.0
  0
ENDBLK
  5
2527
330
2525
100
AcDbEntity
  8
0
100
AcDbBlockEnd
  0
BLOCK
  5
30D7
330
30D6
100
AcDbEntity
  8
0
100
AcDbBlockBegin
  2
*D4
 70
     1
 10
0.0
 20
0.0
 30
0.0
  3
*D4
  1

  0
LINE
  5
30D9
330
30D6
100
AcDbEntity
  8
DIM
 62
     0
370
    -2
100
AcDbLine
 10
147.0662751128732
 20
1084.028452388392
 30
0.0
 11
147.0662751128732
 21
1141.941990061633
 31
0.0
  0
LINE
  5
30DA
330
30D6
100
AcDbEntity
  8
DIM
 62
     0
370
    -2
100
AcDbLine
 10
596.5669665115358
 20
1084.52776099934
 30
0.0
 11
596.5669665115358
 21
1141.941990061633
 31
0.0
  0
LINE
  5
30DB
330
30D6
100
AcDbEntity
  8
DIM
 62
     0
370
    -2
100
AcDbLine
 10
150.0662751128732
 20
1141.941990061633
 30
0.0
 11
593.5669665115358
 21
1141.941990061633
 31
0.0
  0
INSERT
  5
30DC
330
30D6
100
AcDbEntity
  8
DIM
 62
     0
370
    -2
100
AcDbBlockReference
  2
_DOT
 10
147.0662751128732
 20
1141.941990061633
 30
0.0
 41
3.0
 42
3.0
 43
3.0
 50
180.0
  0
INSERT
  5
30DD
330
30D6
100
AcDbEntity
  8
DIM
 62
     0
370
    -2
100
AcDbBlockReference
  2
_DOT
 10
596.5669665115358
 20
1141.941990061633
 30
0.0
 41
3.0
 42
3.0
 43
3.0
  0
MTEXT
  5
30DE
330
30D6
100
AcDbEntity
  8
DIM
 62
     0
100
AcDbMText
 10
371.8166208122045
 20
1157.941990061633
 30
0.0
 40
12.0
 41
0.0
 46
0.0
 71
     5
 72
     1
  1
\A1;450
  7
ＭＳ ゴシック
 73
     1
 44
1.0
  0
POINT
  5
30DF
330
30D6
100
AcDbEntity
  8
Defpoints
 62
     0
100
AcDbPoint
 10
147.0662751128732
 20
1074.028452388392
 30
0.0
  0
POINT
  5
30E0
330
30D6
100
AcDbEntity
  8
Defpoints
 62
     0
100
AcDbPoint
 10
596.5669665115358
 20
1074.52776099934
 30
0.0
  0
POINT
  5
30E1
330
30D6
100
AcDbEntity
  8
Defpoints
 62
     0
100
AcDbPoint
 10
596.5669665115358
 20
1141.941990061633
 30
0.0
  0
ENDBLK
  5
30D8
330
30D6
100
AcDbEntity
  8
0
100
AcDbBlockEnd
  0
BLOCK
  5
3104
330
3103
100
AcDbEntity
  8
0
100
AcDbBlockBegin
  2
*D5
 70
     1
 10
0.0
 20
0.0
 30
0.0
  3
*D5
  1

  0
LINE
  5
3106
330
3103
100
AcDbEntity
  8
DIM
 62
     0
370
    -2
100
AcDbLine
 10
607.0662751224838
 20
964.3256488546513
 30
0.0
 11
656.2148230745822
 21
964.3256488546513
 31
0.0
  0
LINE
  5
3107
330
3103
100
AcDbEntity
  8
DIM
 62
     0
370
    -2
100
AcDbLine
 10
607.0662751224838
 20
964.3256488546513
 30
0.0
 11
656.2148230745822
 21
964.3256488546513
 31
0.0
  0
LINE
  5
3108
330
3103
100
AcDbEntity
  8
DIM
 62
     0
370
    -2
100
AcDbLine
 10
656.2148230745822
 20
961.3256488546513
 30
0.0
 11
656.2148230745822
 21
958.3256488546513
 31
0.0
  0
LINE
  5
3109
330
3103
100
AcDbEntity
  8
DIM
 62
     0
370
    -2
100
AcDbLine
 10
656.2148230745822
 20
967.3256488546513
 30
0.0
 11
656.2148230745822
 21
970.3256488546513
 31
0.0
  0
INSERT
  5
310A
330
3103
100
AcDbEntity
  8
DIM
 62
     0
370
    -2
100
AcDbBlockReference
  2
_DOT
 10
656.2148230745822
 20
964.3256488546513
 30
0.0
 41
3.0
 42
3.0
 43
3.0
 50
90.0
  0
INSERT
  5
310B
330
3103
100
AcDbEntity
  8
DIM
 62
     0
370
    -2
100
AcDbBlockReference
  2
_DOT
 10
656.2148230745822
 20
964.3256488546513
 30
0.0
 41
3.0
 42
3.0
 43
3.0
 50
270.0
  0
MTEXT
  5
310C
330
3103
100
AcDbEntity
  8
DIM
 62
     0
100
AcDbMText
 10
640.2148230745822
 20
964.3256488546513
 30
0.0
 40
12.0
 41
0.0
 46
0.0
 71
     5
 72
     1
  1
\A1;0
  7
ＭＳ ゴシック
 11
6.123233995736766E-17
 21
1.0
 31
0.0
 73
     1
 44
1.0
  0
POINT
  5
310D
330
3103
100
AcDbEntity
  8
Defpoints
 62
     0
100
AcDbPoint
 10
597.0662751224838
 20
964.3256488546513
 30
0.0
  0
POINT
  5
310E
330
3103
100
AcDbEntity
  8
Defpoints
 62
     0
100
AcDbPoint
 10
597.0662751224838
 20
964.3256488546513
 30
0.0
  0
POINT
  5
311E
330
3103
100
AcDbEntity
  8
Defpoints
 62
     0
100
AcDbPoint
 10
656.2148230745822
 20
964.3256488546513
 30
0.0
  0
ENDBLK
  5
3105
330
3103
100
AcDbEntity
  8
0
100
AcDbBlockEnd
  0
BLOCK
  5
3113
330
3112
100
AcDbEntity
  8
0
100
AcDbBlockBegin
  2
*D6
 70
     1
 10
0.0
 20
0.0
 30
0.0
  3
*D6
  1

  0
LINE
  5
3115
330
3112
100
AcDbEntity
  8
DIM
 62
     0
370
    -2
100
AcDbLine
 10
607.0662751224838
 20
631.2732379989609
 30
0.0
 11
656.2148230745822
 21
631.2732379989609
 31
0.0
  0
LINE
  5
3116
330
3112
100
AcDbEntity
  8
DIM
 62
     0
370
    -2
100
AcDbLine
 10
606.5669665115358
 20
690.7739293892953
 30
0.0
 11
656.2148230745822
 21
690.7739293892953
 31
0.0
  0
LINE
  5
3117
330
3112
100
AcDbEntity
  8
DIM
 62
     0
370
    -2
100
AcDbLine
 10
656.2148230745822
 20
634.2732379989609
 30
0.0
 11
656.2148230745822
 21
687.7739293892953
 31
0.0
  0
INSERT
  5
3118
330
3112
100
AcDbEntity
  8
DIM
 62
     0
370
    -2
100
AcDbBlockReference
  2
_DOT
 10
656.2148230745822
 20
631.2732379989609
 30
0.0
 41
3.0
 42
3.0
 43
3.0
 50
270.0
  0
INSERT
  5
3119
330
3112
100
AcDbEntity
  8
DIM
 62
     0
370
    -2
100
AcDbBlockReference
  2
_DOT
 10
656.2148230745822
 20
690.7739293892953
 30
0.0
 41
3.0
 42
3.0
 43
3.0
 50
90.0
  0
MTEXT
  5
311A
330
3112
100
AcDbEntity
  8
DIM
 62
     0
100
AcDbMText
 10
640.2148230745822
 20
661.0235836941281
 30
0.0
 40
12.0
 41
0.0
 46
0.0
 71
     5
 72
     1
  1
\A1;60
  7
ＭＳ ゴシック
 11
0.0
 21
1.0
 31
0.0
 73
     1
 44
1.0
  0
POINT
  5
311B
330
3112
100
AcDbEntity
  8
Defpoints
 62
     0
100
AcDbPoint
 10
597.0662751224838
 20
631.2732379989609
 30
0.0
  0
POINT
  5
311C
330
3112
100
AcDbEntity
  8
Defpoints
 62
     0
100
AcDbPoint
 10
596.5669665115358
 20
690.7739293892953
 30
0.0
  0
POINT
  5
311D
330
3112
100
AcDbEntity
  8
Defpoints
 62
     0
100
AcDbPoint
 10
656.2148230745822
 20
690.7739293892953
 30
0.0
  0
ENDBLK
  5
3114
330
3112
100
AcDbEntity
  8
0
100
AcDbBlockEnd
  0
BLOCK
  5
3126
330
3125
100
AcDbEntity
  8
0
100
AcDbBlockBegin
  2
*D7
 70
     1
 10
0.0
 20
0.0
 30
0.0
  3
*D7
  1

  0
LINE
  5
3128
330
3125
100
AcDbEntity
  8
DIM
 62
     0
370
    -2
100
AcDbLine
 10
607.0662751224838
 20
964.3256488546513
 30
0.0
 11
656.2148230745822
 21
964.3256488546513
 31
0.0
  0
LINE
  5
3129
330
3125
100
AcDbEntity
  8
DIM
 62
     0
370
    -2
100
AcDbLine
 10
607.0662751224838
 20
1064.325648854651
 30
0.0
 11
656.2148230745822
 21
1064.325648854651
 31
0.0
  0
LINE
  5
312A
330
3125
100
AcDbEntity
  8
DIM
 62
     0
370
    -2
100
AcDbLine
 10
656.2148230745822
 20
967.3256488546513
 30
0.0
 11
656.2148230745822
 21
1061.325648854651
 31
0.0
  0
INSERT
  5
312B
330
3125
100
AcDbEntity
  8
DIM
 62
     0
370
    -2
100
AcDbBlockReference
  2
_DOT
 10
656.2148230745822
 20
964.3256488546513
 30
0.0
 41
3.0
 42
3.0
 43
3.0
 50
270.0
  0
INSERT
  5
312C
330
3125
100
AcDbEntity
  8
DIM
 62
     0
370
    -2
100
AcDbBlockReference
  2
_DOT
 10
656.2148230745822
 20
1064.325648854651
 30
0.0
 41
3.0
 42
3.0
 43
3.0
 50
90.0
  0
MTEXT
  5
312D
330
3125
100
AcDbEntity
  8
DIM
 62
     0
100
AcDbMText
 10
640.2148230745822
 20
1014.325648854651
 30
0.0
 40
12.0
 41
0.0
 46
0.0
 71
     5
 72
     1
  1
\A1;100
  7
ＭＳ ゴシック
 11
0.0
 21
1.0
 31
0.0
 73
     1
 44
1.0
  0
POINT
  5
312E
330
3125
100
AcDbEntity
  8
Defpoints
 62
     0
100
AcDbPoint
 10
597.0662751224838
 20
964.3256488546513
 30
0.0
  0
POINT
  5
312F
330
3125
100
AcDbEntity
  8
Defpoints
 62
     0
100
AcDbPoint
 10
597.0662751224838
 20
1064.325648854651
 30
0.0
  0
POINT
  5
3130
330
3125
100
AcDbEntity
  8
Defpoints
 62
     0
100
AcDbPoint
 10
656.2148230745822
 20
1064.325648854651
 30
0.0
  0
ENDBLK
  5
3127
330
3125
100
AcDbEntity
  8
0
100
AcDbBlockEnd
  0
BLOCK
  5
31E2
330
31E1
100
AcDbEntity
  8
0
100
AcDbBlockBegin
  2
*X9
 70
     1
 10
0.0
 20
0.0
 30
0.0
  3
*X9
  1

  0
TEXT
  5
31E3
330
31E1
100
AcDbEntity
  8
102
  6
Continuous
 62
     7
100
AcDbText
 10
124.671952
 20
-190.166947
 30
0.0
 40
2.5
  1
Brausestange
 41
0.6889
  7
FSB
100
AcDbText
  0
TEXT
  5
31E4
330
31E1
100
AcDbEntity
  8
102
  6
Continuous
 62
     7
100
AcDbText
 10
124.753964
 20
-193.666877
 30
0.0
 40
2.5
  1
82826000050
 41
0.6889
  7
FSB
100
AcDbText
  0
ENDBLK
  5
31E5
330
31E1
100
AcDbEntity
  8
0
100
AcDbBlockEnd
  0
BLOCK
  5
3332
330
3331
100
AcDbEntity
  8
0
100
AcDbBlockBegin
  2
*D10
 70
     1
 10
0.0
 20
0.0
 30
0.0
  3
*D10
  1

  0
LINE
  5
3334
330
3331
100
AcDbEntity
  8
DIM
 62
     0
370
    -2
100
AcDbLine
 10
265.1692880374021
 20
1378.170748223709
 30
0.0
 11
265.1692880374021
 21
1405.778596369852
 31
0.0
  0
LINE
  5
3335
330
3331
100
AcDbEntity
  8
DIM
 62
     0
370
    -2
100
AcDbLine
 10
335.1692880374021
 20
1378.170748223709
 30
0.0
 11
335.1692880374021
 21
1405.778596369852
 31
0.0
  0
LINE
  5
3336
330
3331
100
AcDbEntity
  8
DIM
 62
     0
370
    -2
100
AcDbLine
 10
268.1692880374021
 20
1405.778596369852
 30
0.0
 11
332.1692880374021
 21
1405.778596369852
 31
0.0
  0
INSERT
  5
3337
330
3331
100
AcDbEntity
  8
DIM
 62
     0
370
    -2
100
AcDbBlockReference
  2
_DOT
 10
265.1692880374021
 20
1405.778596369852
 30
0.0
 41
3.0
 42
3.0
 43
3.0
 50
180.0
  0
INSERT
  5
3338
330
3331
100
AcDbEntity
  8
DIM
 62
     0
370
    -2
100
AcDbBlockReference
  2
_DOT
 10
335.1692880374021
 20
1405.778596369852
 30
0.0
 41
3.0
 42
3.0
 43
3.0
  0
MTEXT
  5
3339
330
3331
100
AcDbEntity
  8
DIM
 62
     0
100
AcDbMText
 10
300.1692880374021
 20
1421.778596369852
 30
0.0
 40
12.0
 41
0.0
 46
0.0
 71
     5
 72
     1
  1
\A1;70
  7
ＭＳ ゴシック
 73
     1
 44
1.0
  0
POINT
  5
333A
330
3331
100
AcDbEntity
  8
Defpoints
 62
     0
100
AcDbPoint
 10
265.1692880374021
 20
1368.170748223709
 30
0.0
  0
POINT
  5
333B
330
3331
100
AcDbEntity
  8
Defpoints
 62
     0
100
AcDbPoint
 10
335.1692880374021
 20
1368.170748223709
 30
0.0
  0
POINT
  5
333C
330
3331
100
AcDbEntity
  8
Defpoints
 62
     0
100
AcDbPoint
 10
335.1692880374021
 20
1405.778596369852
 30
0.0
  0
ENDBLK
  5
3333
330
3331
100
AcDbEntity
  8
0
100
AcDbBlockEnd
  0
BLOCK
  5
333F
330
333E
100
AcDbEntity
  8
0
100
AcDbBlockBegin
  2
*D11
 70
     1
 10
0.0
 20
0.0
 30
0.0
  3
*D11
  1

  0
LINE
  5
3341
330
333E
100
AcDbEntity
  8
DIM
 62
     0
370
    -2
100
AcDbLine
 10
345.4835190374019
 20
1368.170748223709
 30
0.0
 11
383.1247774864006
 21
1368.170748223709
 31
0.0
  0
LINE
  5
3342
330
333E
100
AcDbEntity
  8
DIM
 62
     0
370
    -2
100
AcDbLine
 10
319.3298583888978
 20
1278.170748223709
 30
0.0
 11
383.1247774864006
 21
1278.170748223709
 31
0.0
  0
LINE
  5
3343
330
333E
100
AcDbEntity
  8
DIM
 62
     0
370
    -2
100
AcDbLine
 10
383.1247774864006
 20
1365.170748223709
 30
0.0
 11
383.1247774864006
 21
1281.170748223709
 31
0.0
  0
INSERT
  5
3344
330
333E
100
AcDbEntity
  8
DIM
 62
     0
370
    -2
100
AcDbBlockReference
  2
_DOT
 10
383.1247774864006
 20
1368.170748223709
 30
0.0
 41
3.0
 42
3.0
 43
3.0
 50
90.0
  0
INSERT
  5
3345
330
333E
100
AcDbEntity
  8
DIM
 62
     0
370
    -2
100
AcDbBlockReference
  2
_DOT
 10
383.1247774864006
 20
1278.170748223709
 30
0.0
 41
3.0
 42
3.0
 43
3.0
 50
270.0
  0
MTEXT
  5
3346
330
333E
100
AcDbEntity
  8
DIM
 62
     0
100
AcDbMText
 10
367.1247774864006
 20
1323.170748223709
 30
0.0
 40
12.0
 41
0.0
 46
0.0
 71
     5
 72
     1
  1
\A1;90
  7
ＭＳ ゴシック
 11
0.0
 21
1.0
 31
0.0
 73
     1
 44
1.0
  0
POINT
  5
3347
330
333E
100
AcDbEntity
  8
Defpoints
 62
     0
100
AcDbPoint
 10
335.4835190374019
 20
1368.170748223709
 30
0.0
  0
POINT
  5
3348
330
333E
100
AcDbEntity
  8
Defpoints
 62
     0
100
AcDbPoint
 10
309.3298583888978
 20
1278.170748223709
 30
0.0
  0
POINT
  5
3349
330
333E
100
AcDbEntity
  8
Defpoints
 62
     0
100
AcDbPoint
 10
383.1247774864006
 20
1278.170748223709
 30
0.0
  0
ENDBLK
  5
3340
330
333E
100
AcDbEntity
  8
0
100
AcDbBlockEnd
  0
BLOCK
  5
334C
330
334B
100
AcDbEntity
  8
0
100
AcDbBlockBegin
  2
*D12
 70
     1
 10
0.0
 20
0.0
 30
0.0
  3
*D12
  1

  0
LINE
  5
334E
330
334B
100
AcDbEntity
  8
DIM
 62
     0
370
    -2
100
AcDbLine
 10
639.9059536297993
 20
1176.902574230767
 30
0.0
 11
579.815852409898
 21
1176.902574230767
 31
0.0
  0
LINE
  5
334F
330
334B
100
AcDbEntity
  8
DIM
 62
     0
370
    -2
100
AcDbLine
 10
639.9059536297976
 20
276.9025742307667
 30
0.0
 11
579.8158524098981
 21
276.9025742307667
 31
0.0
  0
LINE
  5
3350
330
334B
100
AcDbEntity
  8
DIM
 62
     0
370
    -2
100
AcDbLine
 10
579.815852409898
 20
1173.902574230767
 30
0.0
 11
579.8158524098981
 21
279.9025742307667
 31
0.0
  0
INSERT
  5
3351
330
334B
100
AcDbEntity
  8
DIM
 62
     0
370
    -2
100
AcDbBlockReference
  2
_DOT
 10
579.815852409898
 20
1176.902574230767
 30
0.0
 41
3.0
 42
3.0
 43
3.0
 50
90.00000000000001
  0
INSERT
  5
3352
330
334B
100
AcDbEntity
  8
DIM
 62
     0
370
    -2
100
AcDbBlockReference
  2
_DOT
 10
579.8158524098981
 20
276.9025742307667
 30
0.0
 41
3.0
 42
3.0
 43
3.0
 50
270.0
  0
MTEXT
  5
3353
330
334B
100
AcDbEntity
  8
DIM
 62
     0
100
AcDbMText
 10
563.8158524098981
 20
726.9025742307667
 30
0.0
 40
12.0
 41
0.0
 46
0.0
 71
     5
 72
     1
  1
\A1;900
  7
ＭＳ ゴシック
 11
-1.263187085795734E-16
 21
1.0
 31
0.0
 73
     1
 44
1.0
  0
POINT
  5
3354
330
334B
100
AcDbEntity
  8
Defpoints
 62
     0
100
AcDbPoint
 10
649.9059536297993
 20
1176.902574230767
 30
0.0
  0
POINT
  5
3355
330
334B
100
AcDbEntity
  8
Defpoints
 62
     0
100
AcDbPoint
 10
649.9059536297976
 20
276.9025742307667
 30
0.0
  0
POINT
  5
3356
330
334B
100
AcDbEntity
  8
Defpoints
 62
     0
100
AcDbPoint
 10
579.8158524098981
 20
276.9025742307667
 30
0.0
  0
ENDBLK
  5
334D
330
334B
100
AcDbEntity
  8
0
100
AcDbBlockEnd
  0
ENDSEC
  0
SECTION
  2
ENTITIES
  0
MTEXT
  5
177
330
A
100
AcDbEntity
  8
TEMPLATE
390
1D
100
AcDbMText
 10
39.60107227386538
 20
171.8658758157141
 30
0.0
 40
8.144205729166663
 41
0.0
 46
0.0
 71
     1
 72
     1
  1
品名
  7
ＭＳ ゴシック
 73
     1
 44
0.7828267384257843
  0
MTEXT
  5
178
330
A
100
AcDbEntity
  8
TEMPLATE
390
1D
100
AcDbMText
 10
39.60107227386538
 20
129.365875815714
 30
0.0
 40
8.144205729166663
 41
0.0
 46
0.0
 71
     1
 72
     1
  1
仕様
  7
ＭＳ ゴシック
 73
     1
 44
0.7828267384257843
  0
LINE
  5
179
330
A
100
AcDbEntity
  8
TEMPLATE
390
1D
100
AcDbLine
 10
1011.101072273624
 20
133.5733367532142
 30
0.0
 11
36.10107227362437
 21
133.5733367532142
 31
0.0
  0
LWPOLYLINE
  5
17A
330
A
100
AcDbEntity
  8
TEMPLATE
390
1D
100
AcDbPolyline
 90
        5
 70
   128
 43
0.0
 10
1011.101072273624
 20
1448.573336753213
 10
36.10107227362437
 20
1448.573336753213
 10
36.10107227362437
 20
48.57333675321413
 10
1011.101072273624
 20
48.57333675321413
 10
1011.101072273624
 20
1448.573336753213
  0
LINE
  5
17B
330
A
100
AcDbEntity
  8
TEMPLATE
390
1D
100
AcDbLine
 10
1011.101072273624
 20
176.0733367532141
 30
0.0
 11
36.10107227362437
 21
176.0733367532141
 31
0.0
  0
LINE
  5
17C
330
A
100
AcDbEntity
  8
TEMPLATE
390
1D
100
AcDbLine
 10
1011.101072273866
 20
91.07333675321412
 30
0.0
 11
634.601072273865
 21
91.07333675321412
 31
0.0
  0
MTEXT
  5
17E
330
A
100
AcDbEntity
  8
TEMPLATE
390
1D
100
AcDbMText
 10
649.5367753999956
 20
76.11813951656006
 30
0.0
 40
12.21630859375
 41
0.0
 46
0.0
 71
     1
 72
     1
  1
大洋金物株式会社 ティーフォルム事業部
  7
ＭＳ ゴシック
 73
     1
 44
0.7828267384257843
  0
MTEXT
  5
180
330
A
100
AcDbEntity
  8
TEMPLATE
390
1D
100
AcDbMText
 10
915.601072273995
 20
115.0746453469641
 30
0.0
 40
12.21630859375
 41
0.0
 46
12.21630859375
 71
     1
 72
     1
  1
{1:5}
  7
ＭＳ ゴシック
 73
     1
 44
0.7828267384257843
1001
ACAD
1000
ACAD_MTEXT_DEFINED_HEIGHT_BEGIN
1070
    46
1040
12.21630859375
1000
ACAD_MTEXT_DEFINED_HEIGHT_END
  0
MTEXT
  5
181
330
A
100
AcDbEntity
  8
TEMPLATE
390
1D
100
AcDbMText
 10
889.101072273995
 20
129.365875815714
 30
0.0
 40
8.144205729166663
 41
0.0
 46
0.0
 71
     1
 72
     1
  1
縮尺
  7
ＭＳ ゴシック
 73
     1
 44
0.7828267384257843
  0
LINE
  5
182
330
A
100
AcDbEntity
  8
TEMPLATE
390
1D
100
AcDbLine
 10
885.601072273995
 20
91.07333675321412
 30
0.0
 11
885.601072273995
 21
133.5733367532142
 31
0.0
  0
MTEXT
  5
183
330
A
100
AcDbEntity
  8
TEMPLATE
390
1D
100
AcDbMText
 10
763.601072273995
 20
129.365875815714
 30
0.0
 40
8.144205729166663
 41
0.0
 46
0.0
 71
     1
 72
     1
  1
容量
  7
ＭＳ ゴシック
 73
     1
 44
0.7828267384257843
  0
LINE
  5
184
330
A
100
AcDbEntity
  8
TEMPLATE
390
1D
100
AcDbLine
 10
760.101072273995
 20
91.07333675321412
 30
0.0
 11
760.101072273995
 21
133.5733367532142
 31
0.0
  0
MTEXT
  5
185
330
A
100
AcDbEntity
  8
TEMPLATE
390
1D
100
AcDbMText
 10
638.101072273995
 20
171.8658758157141
 30
0.0
 40
8.144205729166663
 41
0.0
 46
0.0
 71
     1
 72
     1
  1
品番
  7
ＭＳ ゴシック
 73
     1
 44
0.7828267384257843
  0
MTEXT
  5
186
330
A
100
AcDbEntity
  8
TEMPLATE
390
1D
100
AcDbMText
 10
638.101072273995
 20
129.365875815714
 30
0.0
 40
8.144205729166663
 41
0.0
 46
0.0
 71
     1
 72
     1
  1
重量
  7
ＭＳ ゴシック
 73
     1
 44
0.7828267384257843
  0
LINE
  5
188
330
A
100
AcDbEntity
  8
TEMPLATE
390
1D
100
AcDbLine
 10
634.601072273995
 20
48.57333675321413
 30
0.0
 11
634.601072273995
 21
176.0733367532141
 31
0.0
  0
INSERT
  5
68C
330
A
100
AcDbEntity
  8
TEMPLATE
100
AcDbBlockReference
  2
block 2
 10
919.2743017702577
 20
8.373076514336368
 30
0.0
 41
0.3809999999999999
 42
0.3809999999999999
 43
0.3809999999999999
  0
LWPOLYLINE
  5
D69
330
A
100
AcDbEntity
  8
BORDER
100
AcDbPolyline
 90
        4
 70
     1
 43
0.0
 10
0.0
 20
0.0
 10
0.0
 20
1485.0
 10
1050.0
 20
1485.0
 10
1050.0
 20
0.0
  0
INSERT
  5
1343
330
A
100
AcDbEntity
  8
TEMPLATE
100
AcDbBlockReference
  2
block 2
 10
2096.743470866468
 20
24.43532141229569
 30
0.0
 41
0.3809999999999999
 42
0.3809999999999999
 43
0.3809999999999999
  0
MTEXT
  5
16ED
330
A
100
AcDbEntity
  8
TEMPLATE
390
1D
100
AcDbMText
 10
664.601072273995
 20
157.5746453469641
 30
0.0
 40
12.21630859375
 41
0.0
 46
12.21630859375
 71
     1
 72
     1
  1
{FSB74-0021}
  7
ＭＳ ゴシック
 73
     1
 44
0.7828267384257843
1001
ACAD
1000
ACAD_MTEXT_DEFINED_HEIGHT_BEGIN
1070
    46
1040
12.21630859375
1000
ACAD_MTEXT_DEFINED_HEIGHT_END
  0
MTEXT
  5
16EE
330
A
100
AcDbEntity
  8
TEMPLATE
390
1D
100
AcDbMText
 10
66.10107227386538
 20
157.5746453469641
 30
0.0
 40
12.21630859375
 41
0.0
 46
14.25643212890625
 71
     1
 72
     1
  1
{シャワーバー（グラブレール用）　-FSB, Ergo System E300-}
  7
ＭＳ ゴシック
 73
     1
 44
0.7828267384257843
1001
ACAD
1000
ACAD_MTEXT_DEFINED_HEIGHT_BEGIN
1070
    46
1040
14.25643212890625
1000
ACAD_MTEXT_DEFINED_HEIGHT_END
  0
MTEXT
  5
16EF
330
A
100
AcDbEntity
  8
TEMPLATE
390
1D
100
AcDbMText
 10
62.62717263801801
 20
113.4059880146976
 30
0.0
 40
12.21630859375
 41
0.0
 46
12.39955322265625
 71
     1
 72
     1
  1
{ステンレス}
  7
ＭＳ ゴシック
 73
     1
 44
0.9331787841240657
1001
ACAD
1000
ACAD_MTEXT_DEFINED_HEIGHT_BEGIN
1070
    46
1040
12.39955322265625
1000
ACAD_MTEXT_DEFINED_HEIGHT_END
  0
MTEXT
  5
16F0
102
{ACAD_XDICTIONARY
360
16F1
102
}
330
A
100
AcDbEntity
  8
TEMPLATE
100
AcDbMText
 10
37.3643282742853
 20
41.93086052571419
 30
0.0
 40
11.0
 41
0.0
 46
11.0
 71
     1
 72
     1
  1
{20191108N}
  7
ＭＳ ゴシック
 73
     1
 44
1.0
1001
ACAD
1000
ACAD_MTEXT_DEFINED_HEIGHT_BEGIN
1070
    46
1040
11.0
1000
ACAD_MTEXT_DEFINED_HEIGHT_END
  0
HATCH
  5
2492
102
{ACAD_REACTORS
330
24A3
102
}
330
A
100
AcDbEntity
  8
TEMPLATE
100
AcDbHatch
 10
0.0
 20
0.0
 30
0.0
210
0.0
220
0.0
230
1.0
  2
SOLID
 70
     1
 71
     1
 91
        6
 92
        1
 93
        8
 72
     1
 10
967.3017148351717
 20
76.58153313569332
 11
967.3017148351717
 21
73.6268293203631
 72
     1
 10
967.3017148351717
 20
73.6268293203631
 11
962.6214190600165
 21
73.6268293203631
 72
     1
 10
962.6214190600165
 20
73.6268293203631
 11
962.6214190600165
 21
61.58153313641628
 72
     1
 10
962.6214190600165
 20
61.58153313641628
 11
958.5051124833788
 21
61.58153313641628
 72
     1
 10
958.5051124833788
 20
61.58153313641628
 11
958.5051124833788
 21
73.6268293203631
 72
     1
 10
958.5051124833788
 20
73.6268293203631
 11
953.9077617661067
 21
73.6268293203631
 72
     1
 10
953.9077617661067
 20
73.6268293203631
 11
953.9077617661067
 21
76.58153313569332
 72
     1
 10
953.9077617661067
 20
76.58153313569332
 11
967.3017148351717
 21
76.58153313569332
 97
        1
330
2493
 92
        1
 93
        1
 72
     4
 94
        3
 73
     0
 74
     1
 95
       56
 96
       52
 40
0.0
 40
0.0
 40
0.0
 40
0.0
 40
1.0
 40
1.0
 40
1.0
 40
2.0
 40
2.0
 40
2.0
 40
3.0
 40
3.0
 40
3.0
 40
4.0
 40
4.0
 40
4.0
 40
5.0
 40
5.0
 40
5.0
 40
6.0
 40
6.0
 40
6.0
 40
7.0
 40
7.0
 40
7.0
 40
8.0
 40
8.0
 40
8.0
 40
9.0
 40
9.0
 40
9.0
 40
10.0
 40
10.0
 40
10.0
 40
11.0
 40
11.0
 40
11.0
 40
12.0
 40
12.0
 40
12.0
 40
13.0
 40
13.0
 40
13.0
 40
14.0
 40
14.0
 40
14.0
 40
15.0
 40
15.0
 40
15.0
 40
16.0
 40
16.0
 40
16.0
 40
17.0
 40
17.0
 40
17.0
 40
17.0
 10
973.5728075523182
 20
76.22434865548715
 10
974.1497406432779
 20
76.38674243249227
 10
974.8945351899454
 20
76.2509059520473
 10
974.8945351899454
 20
76.2509059520473
 10
974.8945351899454
 20
76.2509059520473
 10
974.5367183931537
 20
75.17712080583556
 10
974.5367183931537
 20
75.17712080583556
 10
974.5367183931537
 20
75.17712080583556
 10
973.8055372506058
 20
75.3463212849002
 10
973.2415852471802
 20
74.90161675034386
 10
972.8033526588458
 20
74.55384262872275
 10
972.5194425122852
 20
73.6297677327276
 10
972.4105352793329
 20
73.2784228821572
 10
972.4105352793329
 20
73.2784228821572
 10
971.9249905324193
 20
71.78808988695778
 10
971.9249905324193
 20
71.78808988695778
 10
971.9249905324193
 20
71.78808988695778
 10
973.5170521075795
 20
71.78808988695778
 10
973.5170521075795
 20
71.78808988695778
 10
973.5170521075795
 20
71.78808988695778
 10
973.2694443720036
 20
70.85010402609774
 10
973.2694443720036
 20
70.85010402609774
 10
973.2694443720036
 20
70.85010402609774
 10
971.6644017093092
 20
70.85010402609774
 10
971.6644017093092
 20
70.85010402609774
 10
971.6644017093092
 20
70.85010402609774
 10
968.7926801469564
 20
61.58153313641628
 10
968.7926801469564
 20
61.58153313641628
 10
968.7926801469564
 20
61.58153313641628
 10
967.8935631585125
 20
61.58153313641628
 10
967.8935631585125
 20
61.58153313641628
 10
967.8935631585125
 20
61.58153313641628
 10
970.7678883773913
 20
70.85010402609774
 10
970.7678883773913
 20
70.85010402609774
 10
970.7678883773913
 20
70.85010402609774
 10
969.5835222190324
 20
70.85010402609774
 10
969.5835222190324
 20
70.85010402609774
 10
969.5835222190324
 20
70.85010402609774
 10
969.8317994662855
 20
71.78808988695778
 10
969.8317994662855
 20
71.78808988695778
 10
969.8317994662855
 20
71.78808988695778
 10
971.0284772005014
 20
71.78808988695778
 10
971.0284772005014
 20
71.78808988695778
 10
971.0284772005014
 20
71.78808988695778
 10
971.4517573613628
 20
73.08783522449019
 10
971.4517573613628
 20
73.08783522449019
 10
971.7940266091862
 20
74.17753987060073
 10
972.0844458970603
 20
74.76258149188186
 10
972.3333926559915
 20
75.20367810239571
 10
972.579698563304
 20
75.64514666384179
 10
973.0671774550653
 20
76.07880425571142
 10
973.5728075523182
 20
76.22434865548715
 97
        1
330
249E
 92
        1
 93
        1
 72
     4
 94
        3
 73
     0
 74
     1
 95
       32
 96
       28
 40
0.0
 40
0.0
 40
0.0
 40
0.0
 40
1.0
 40
1.0
 40
1.0
 40
2.0
 40
2.0
 40
2.0
 40
3.0
 40
3.0
 40
3.0
 40
4.0
 40
4.0
 40
4.0
 40
5.0
 40
5.0
 40
5.0
 40
6.0
 40
6.0
 40
6.0
 40
7.0
 40
7.0
 40
7.0
 40
8.0
 40
8.0
 40
8.0
 40
9.0
 40
9.0
 40
9.0
 40
9.0
 10
975.760585740514
 20
71.22123666626197
 10
975.2193227439554
 20
70.52111342655351
 10
974.8025145293147
 20
69.89102854738113
 10
974.1277211480899
 20
67.91065019898832
 10
973.5073441882485
 20
66.09917476891434
 10
973.1125554687958
 20
64.78127822588988
 10
973.0529317343623
 20
63.17623556319532
 10
973.007553720631
 20
61.98182672966618
 10
973.7348665734851
 20
61.58153313641628
 10
974.801249896145
 20
61.58153313641628
 10
975.2608324679911
 20
61.58153313641628
 10
976.420575474637
 20
61.61076847968843
 10
977.2464553245279
 20
62.6316993984324
 10
977.8246158535619
 20
63.34896957611602
 10
978.3574727590537
 20
64.092499489614
 10
979.0718417194655
 20
66.53153053252123
 10
979.6662936993323
 20
68.57056554292433
 10
980.0778946009211
 20
69.88842489085562
 10
980.0474690146664
 20
70.63876150641318
 10
980.0474690146664
 20
70.63876150641318
 10
980.0474690146664
 20
70.63876150641318
 10
980.0474690146664
 20
70.63876150641318
 10
979.8536081887958
 20
71.89052517368981
 10
978.9447832810217
 20
72.155019481588
 10
978.4255397796494
 20
72.155019481588
 10
977.914107247853
 20
72.155019481588
 10
976.5436912332004
 20
72.24350660836194
 10
975.760585740514
 20
71.22123666626197
 97
        1
330
24A1
 92
        1
 93
        1
 72
     4
 94
        3
 73
     0
 74
     1
 95
       38
 96
       34
 40
0.0
 40
0.0
 40
0.0
 40
0.0
 40
1.0
 40
1.0
 40
1.0
 40
2.0
 40
2.0
 40
2.0
 40
3.0
 40
3.0
 40
3.0
 40
4.0
 40
4.0
 40
4.0
 40
5.0
 40
5.0
 40
5.0
 40
6.0
 40
6.0
 40
6.0
 40
7.0
 40
7.0
 40
7.0
 40
8.0
 40
8.0
 40
8.0
 40
9.0
 40
9.0
 40
9.0
 40
10.0
 40
10.0
 40
10.0
 40
11.0
 40
11.0
 40
11.0
 40
11.0
 10
983.3346969633965
 20
71.75212223181256
 10
983.3346969633965
 20
71.75212223181256
 10
984.2590694201378
 20
71.75212223181256
 10
984.2590694201378
 20
71.75212223181256
 10
984.2590694201378
 20
71.75212223181256
 10
983.8461294951928
 20
70.43002264325406
 10
983.8461294951928
 20
70.43002264325406
 10
984.1599073016093
 20
70.80115528341824
 10
984.6551227727603
 20
71.29544087723889
 10
985.080411468655
 20
71.54468519691622
 10
985.7157036608785
 20
71.9158178370804
 10
986.0787277707202
 20
71.96476657975995
 10
986.4779799013602
 20
71.9550214653359
 10
986.4779799013602
 20
71.9550214653359
 10
986.0878033734668
 20
70.70489438216094
 10
986.0878033734668
 20
70.70489438216094
 10
985.8336864965765
 20
70.81249978685082
 10
985.0505810038919
 20
70.60766640847999
 10
984.6013386679622
 20
70.28451543857147
 10
984.196209712594
 20
69.9931290782742
 10
983.9161306606354
 20
69.74518658685963
 10
983.584276038913
 20
69.12187121465354
 10
983.2549506835301
 20
68.49762596511695
 10
982.9950313720981
 20
67.50224807541616
 10
982.5477231810162
 20
66.05826016637073
 10
982.5477231810162
 20
66.05826016637073
 10
981.1507498698027
 20
61.58153313641628
 10
981.1507498698027
 20
61.58153313641628
 10
981.1507498698027
 20
61.58153313641628
 10
980.2536042212994
 20
61.58153313641628
 10
980.2536042212994
 20
61.58153313641628
 10
980.2536042212994
 20
61.58153313641628
 10
983.3346969633965
 20
71.75212223181256
 10
983.3346969633965
 20
71.75212223181256
 97
        1
330
249F
 92
        1
 93
        1
 72
     4
 94
        3
 73
     0
 74
     1
 95
      104
 96
      100
 40
0.0
 40
0.0
 40
0.0
 40
0.0
 40
1.0
 40
1.0
 40
1.0
 40
2.0
 40
2.0
 40
2.0
 40
3.0
 40
3.0
 40
3.0
 40
4.0
 40
4.0
 40
4.0
 40
5.0
 40
5.0
 40
5.0
 40
6.0
 40
6.0
 40
6.0
 40
7.0
 40
7.0
 40
7.0
 40
8.0
 40
8.0
 40
8.0
 40
9.0
 40
9.0
 40
9.0
 40
10.0
 40
10.0
 40
10.0
 40
11.0
 40
11.0
 40
11.0
 40
12.0
 40
12.0
 40
12.0
 40
13.0
 40
13.0
 40
13.0
 40
14.0
 40
14.0
 40
14.0
 40
15.0
 40
15.0
 40
15.0
 40
16.0
 40
16.0
 40
16.0
 40
17.0
 40
17.0
 40
17.0
 40
18.0
 40
18.0
 40
18.0
 40
19.0
 40
19.0
 40
19.0
 40
20.0
 40
20.0
 40
20.0
 40
21.0
 40
21.0
 40
21.0
 40
22.0
 40
22.0
 40
22.0
 40
23.0
 40
23.0
 40
23.0
 40
24.0
 40
24.0
 40
24.0
 40
25.0
 40
25.0
 40
25.0
 40
26.0
 40
26.0
 40
26.0
 40
27.0
 40
27.0
 40
27.0
 40
28.0
 40
28.0
 40
28.0
 40
29.0
 40
29.0
 40
29.0
 40
30.0
 40
30.0
 40
30.0
 40
31.0
 40
31.0
 40
31.0
 40
32.0
 40
32.0
 40
32.0
 40
33.0
 40
33.0
 40
33.0
 40
33.0
 10
988.4227625455403
 20
71.75762710560934
 10
988.4227625455403
 20
71.75762710560934
 10
989.2298216782599
 20
71.75762710560934
 10
989.2298216782599
 20
71.75762710560934
 10
989.2298216782599
 20
71.75762710560934
 10
988.8220890663658
 20
70.43426288388127
 10
988.8220890663658
 20
70.43426288388127
 10
989.1759631832754
 20
70.98913928455974
 10
989.4936092793876
 20
71.23644945938958
 10
989.9156248070792
 20
71.55602970034877
 10
990.3389049679397
 20
71.87107213993494
 10
990.841336287175
 20
71.93527087083527
 10
991.19007748122
 20
71.93527087083527
 10
991.6218381233355
 20
71.93527087083527
 10
992.0386463379762
 20
71.85001971717159
 10
992.2577254370497
 20
71.37678654611435
 10
992.4256240878528
 20
71.00569110104331
 10
992.4334350574288
 20
70.96191247632157
 10
992.3854533871734
 20
70.22939231041721
 10
992.8242810970003
 20
70.9803984376527
 10
993.1483991393322
 20
71.30388416340014
 10
993.6994072503155
 20
71.6146863623591
 10
994.2776421695378
 20
71.93527087083527
 10
994.6147041043112
 20
71.95926170596317
 10
995.0062940457472
 20
71.90153492128334
 10
995.5831899416123
 20
71.8163209627129
 10
995.9514213645059
 20
71.61048331682503
 10
996.1439431670203
 20
70.98493623902573
 10
996.3371344812128
 20
70.3613233060739
 10
996.2327650496334
 20
70.02682783273289
 10
995.9941957217104
 20
69.03405359955758
 10
995.8852884887581
 20
68.58191004635688
 10
995.7277300738713
 20
68.03443546922952
 10
995.5215948672374
 20
67.38300060654797
 10
995.5215948672374
 20
67.38300060654797
 10
993.6994072503155
 20
61.58153313641628
 10
993.6994072503155
 20
61.58153313641628
 10
993.6994072503155
 20
61.58153313641628
 10
992.7516762750327
 20
61.58153313641628
 10
992.7516762750327
 20
61.58153313641628
 10
992.7516762750327
 20
61.58153313641628
 10
994.3470482134887
 20
66.65338165791485
 10
994.3470482134887
 20
66.65338165791485
 10
994.6802418585673
 20
67.71455766752453
 10
994.9057929038624
 20
68.48951743479464
 10
995.0225111063917
 20
68.97539693754726
 10
995.1689853834976
 20
69.58149098159171
 10
995.2273072896694
 20
69.78148899784378
 10
995.157975635904
 20
70.22262280345092
 10
995.0944464166821
 20
70.63325663261634
 10
994.886972186692
 20
70.9006521577858
 10
994.5317590464272
 20
70.9006521577858
 10
994.1531873876181
 20
70.9006521577858
 10
993.8465510391004
 20
70.85851011716579
 10
993.4174684436964
 20
70.42745618182173
 10
992.9883114581078
 20
69.9931290782742
 10
992.6336934393337
 20
69.48329593548695
 10
992.3556229224093
 20
68.8969524859431
 10
992.0781475269766
 20
68.30703830744997
 10
991.7968038418492
 20
67.55930534841795
 10
991.5115918670269
 20
66.65338165791485
 10
991.5115918670269
 20
66.65338165791485
 10
989.9156248070792
 20
61.58153313641628
 10
989.9156248070792
 20
61.58153313641628
 10
989.9156248070792
 20
61.58153313641628
 10
989.0242815931185
 20
61.58153313641628
 10
989.0242815931185
 20
61.58153313641628
 10
989.0242815931185
 20
61.58153313641628
 10
990.8490728665654
 20
67.38039695002249
 10
990.8490728665654
 20
67.38039695002249
 10
991.0415946690798
 20
67.99753793675379
 10
991.1862091915252
 20
68.50056437748145
 10
991.281503020359
 20
68.89371651283278
 10
991.4435248464313
 20
69.57048123399818
 10
991.4889028601626
 20
70.0281296609956
 10
991.3663822230899
 20
70.43426288388127
 10
991.2457957308659
 20
70.83909427850418
 10
991.0338580896903
 20
70.94249663765996
 10
990.6799095825943
 20
70.94249663765996
 10
990.3830183485004
 20
70.94249663765996
 10
990.0932685723044
 20
70.81510344337633
 10
989.7626785837517
 20
70.56161888307173
 10
989.3464654906027
 20
70.24270815379049
 10
989.1799058631566
 20
69.98081750241784
 10
988.9757048013705
 20
69.66964335252672
 10
988.7001635507856
 20
69.25800525584427
 10
988.571170967494
 20
68.98090181134404
 10
988.3384784643001
 20
68.37283642735878
 10
988.1057115709198
 20
67.76120031442431
 10
987.8853678386756
 20
67.04943501053751
 10
987.7316777134836
 20
66.55712075665758
 10
987.7316777134836
 20
66.55712075665758
 10
986.1662106299771
 20
61.58153313641628
 10
986.1662106299771
 20
61.58153313641628
 10
986.1662106299771
 20
61.58153313641628
 10
985.2327625704909
 20
61.58153313641628
 10
985.2327625704909
 20
61.58153313641628
 10
985.2327625704909
 20
61.58153313641628
 10
988.4227625455403
 20
71.75762710560934
 10
988.4227625455403
 20
71.75762710560934
 97
        1
330
24A0
 92
       16
 93
        1
 72
     4
 94
        3
 73
     0
 74
     1
 95
       29
 96
       25
 40
0.0
 40
0.0
 40
0.0
 40
0.0
 40
1.0
 40
1.0
 40
1.0
 40
2.0
 40
2.0
 40
2.0
 40
3.0
 40
3.0
 40
3.0
 40
4.0
 40
4.0
 40
4.0
 40
5.0
 40
5.0
 40
5.0
 40
6.0
 40
6.0
 40
6.0
 40
7.0
 40
7.0
 40
7.0
 40
8.0
 40
8.0
 40
8.0
 40
8.0
 10
974.0214175716626
 20
63.47632557530645
 10
974.0174748917814
 20
64.18489210117616
 10
974.241166182416
 20
65.44379722635136
 10
974.8141937885864
 20
67.12821421798066
 10
975.594695624746
 20
69.4090545294168
 10
976.0627586778462
 20
70.24270815379049
 10
976.4723510444016
 20
70.64850662083717
 10
977.0707457041487
 20
71.23938787175408
 10
977.8752011803442
 20
71.2688463855855
 10
978.1125058750974
 20
71.23938787175408
 10
978.450237321548
 20
71.19884522014263
 10
978.9273015872075
 20
70.97779478112719
 10
978.9557930286153
 20
70.23363255104445
 10
978.978556425667
 20
69.59674096981257
 10
978.7950358357118
 20
68.4039687203852
 10
978.152676575776
 20
66.53153053252123
 10
977.4123454402959
 20
64.35569196924934
 10
976.967640905739
 20
63.50035360552755
 10
976.6111631323035
 20
63.12758438126156
 10
975.9395685290963
 20
62.42876296981586
 10
975.2193227439554
 20
62.49586291798744
 10
975.1130191675281
 20
62.49586291798744
 10
974.9749509814899
 20
62.49586291798744
 10
974.0233517165104
 20
62.64568475348372
 10
974.0214175716626
 20
63.47632557530645
 97
        1
330
24A2
 75
     0
 76
     1
 98
        1
 10
929.7307651966601
 20
36.16262959939627
1001
ACAD
1010
0.0
1020
0.0
1030
0.0
  0
POLYLINE
  5
2493
102
{ACAD_REACTORS
330
2492
330
24A3
102
}
330
A
100
AcDbEntity
  8
TEMPLATE
100
AcDb2dPolyline
 66
     1
 10
0.0
 20
0.0
 30
0.0
  0
VERTEX
  5
2494
330
2493
100
AcDbEntity
  8
TEMPLATE
100
AcDbVertex
100
AcDb2dVertex
 10
967.3017148351717
 20
76.58153313569332
 30
0.0
  0
VERTEX
  5
2495
330
2493
100
AcDbEntity
  8
TEMPLATE
100
AcDbVertex
100
AcDb2dVertex
 10
967.3017148351717
 20
73.6268293203631
 30
0.0
  0
VERTEX
  5
2496
330
2493
100
AcDbEntity
  8
TEMPLATE
100
AcDbVertex
100
AcDb2dVertex
 10
962.6214190600165
 20
73.6268293203631
 30
0.0
  0
VERTEX
  5
2497
330
2493
100
AcDbEntity
  8
TEMPLATE
100
AcDbVertex
100
AcDb2dVertex
 10
962.6214190600165
 20
61.58153313641628
 30
0.0
  0
VERTEX
  5
2498
330
2493
100
AcDbEntity
  8
TEMPLATE
100
AcDbVertex
100
AcDb2dVertex
 10
958.5051124833788
 20
61.58153313641628
 30
0.0
  0
VERTEX
  5
2499
330
2493
100
AcDbEntity
  8
TEMPLATE
100
AcDbVertex
100
AcDb2dVertex
 10
958.5051124833788
 20
73.6268293203631
 30
0.0
  0
VERTEX
  5
249A
330
2493
100
AcDbEntity
  8
TEMPLATE
100
AcDbVertex
100
AcDb2dVertex
 10
953.9077617661067
 20
73.6268293203631
 30
0.0
  0
VERTEX
  5
249B
330
2493
100
AcDbEntity
  8
TEMPLATE
100
AcDbVertex
100
AcDb2dVertex
 10
953.9077617661067
 20
76.58153313569332
 30
0.0
  0
VERTEX
  5
249C
330
2493
100
AcDbEntity
  8
TEMPLATE
100
AcDbVertex
100
AcDb2dVertex
 10
967.3017148351717
 20
76.58153313569332
 30
0.0
  0
SEQEND
  5
249D
330
2493
100
AcDbEntity
  8
TEMPLATE
  0
SPLINE
  5
249E
102
{ACAD_REACTORS
330
2492
330
24A3
102
}
330
A
100
AcDbEntity
  8
TEMPLATE
100
AcDbSpline
210
0.0
220
0.0
230
1.0
 70
    11
 71
     3
 72
    56
 73
    52
 74
     0
 42
0.000000001
 43
0.0000000001
 40
0.0
 40
0.0
 40
0.0
 40
0.0
 40
1.0
 40
1.0
 40
1.0
 40
2.0
 40
2.0
 40
2.0
 40
3.0
 40
3.0
 40
3.0
 40
4.0
 40
4.0
 40
4.0
 40
5.0
 40
5.0
 40
5.0
 40
6.0
 40
6.0
 40
6.0
 40
7.0
 40
7.0
 40
7.0
 40
8.0
 40
8.0
 40
8.0
 40
9.0
 40
9.0
 40
9.0
 40
10.0
 40
10.0
 40
10.0
 40
11.0
 40
11.0
 40
11.0
 40
12.0
 40
12.0
 40
12.0
 40
13.0
 40
13.0
 40
13.0
 40
14.0
 40
14.0
 40
14.0
 40
15.0
 40
15.0
 40
15.0
 40
16.0
 40
16.0
 40
16.0
 40
17.0
 40
17.0
 40
17.0
 40
17.0
 10
973.5728075523182
 20
76.22434865548715
 30
0.0
 10
974.1497406432779
 20
76.38674243249227
 30
0.0
 10
974.8945351899454
 20
76.2509059520473
 30
0.0
 10
974.8945351899454
 20
76.2509059520473
 30
0.0
 10
974.8945351899454
 20
76.2509059520473
 30
0.0
 10
974.5367183931537
 20
75.17712080583556
 30
0.0
 10
974.5367183931537
 20
75.17712080583556
 30
0.0
 10
974.5367183931537
 20
75.17712080583556
 30
0.0
 10
973.8055372506058
 20
75.3463212849002
 30
0.0
 10
973.2415852471802
 20
74.90161675034386
 30
0.0
 10
972.8033526588458
 20
74.55384262872275
 30
0.0
 10
972.5194425122852
 20
73.6297677327276
 30
0.0
 10
972.4105352793329
 20
73.2784228821572
 30
0.0
 10
972.4105352793329
 20
73.2784228821572
 30
0.0
 10
971.9249905324193
 20
71.78808988695778
 30
0.0
 10
971.9249905324193
 20
71.78808988695778
 30
0.0
 10
971.9249905324193
 20
71.78808988695778
 30
0.0
 10
973.5170521075795
 20
71.78808988695778
 30
0.0
 10
973.5170521075795
 20
71.78808988695778
 30
0.0
 10
973.5170521075795
 20
71.78808988695778
 30
0.0
 10
973.2694443720036
 20
70.85010402609774
 30
0.0
 10
973.2694443720036
 20
70.85010402609774
 30
0.0
 10
973.2694443720036
 20
70.85010402609774
 30
0.0
 10
971.6644017093092
 20
70.85010402609774
 30
0.0
 10
971.6644017093092
 20
70.85010402609774
 30
0.0
 10
971.6644017093092
 20
70.85010402609774
 30
0.0
 10
968.7926801469564
 20
61.58153313641628
 30
0.0
 10
968.7926801469564
 20
61.58153313641628
 30
0.0
 10
968.7926801469564
 20
61.58153313641628
 30
0.0
 10
967.8935631585125
 20
61.58153313641628
 30
0.0
 10
967.8935631585125
 20
61.58153313641628
 30
0.0
 10
967.8935631585125
 20
61.58153313641628
 30
0.0
 10
970.7678883773913
 20
70.85010402609774
 30
0.0
 10
970.7678883773913
 20
70.85010402609774
 30
0.0
 10
970.7678883773913
 20
70.85010402609774
 30
0.0
 10
969.5835222190324
 20
70.85010402609774
 30
0.0
 10
969.5835222190324
 20
70.85010402609774
 30
0.0
 10
969.5835222190324
 20
70.85010402609774
 30
0.0
 10
969.8317994662855
 20
71.78808988695778
 30
0.0
 10
969.8317994662855
 20
71.78808988695778
 30
0.0
 10
969.8317994662855
 20
71.78808988695778
 30
0.0
 10
971.0284772005014
 20
71.78808988695778
 30
0.0
 10
971.0284772005014
 20
71.78808988695778
 30
0.0
 10
971.0284772005014
 20
71.78808988695778
 30
0.0
 10
971.4517573613628
 20
73.08783522449019
 30
0.0
 10
971.4517573613628
 20
73.08783522449019
 30
0.0
 10
971.7940266091862
 20
74.17753987060073
 30
0.0
 10
972.0844458970603
 20
74.76258149188186
 30
0.0
 10
972.3333926559915
 20
75.20367810239571
 30
0.0
 10
972.579698563304
 20
75.64514666384179
 30
0.0
 10
973.0671774550653
 20
76.07880425571142
 30
0.0
 10
973.5728075523182
 20
76.22434865548715
 30
0.0
  0
SPLINE
  5
249F
102
{ACAD_REACTORS
330
2492
330
24A3
102
}
330
A
100
AcDbEntity
  8
TEMPLATE
100
AcDbSpline
210
0.0
220
0.0
230
1.0
 70
    11
 71
     3
 72
    38
 73
    34
 74
     0
 42
0.000000001
 43
0.0000000001
 40
0.0
 40
0.0
 40
0.0
 40
0.0
 40
1.0
 40
1.0
 40
1.0
 40
2.0
 40
2.0
 40
2.0
 40
3.0
 40
3.0
 40
3.0
 40
4.0
 40
4.0
 40
4.0
 40
5.0
 40
5.0
 40
5.0
 40
6.0
 40
6.0
 40
6.0
 40
7.0
 40
7.0
 40
7.0
 40
8.0
 40
8.0
 40
8.0
 40
9.0
 40
9.0
 40
9.0
 40
10.0
 40
10.0
 40
10.0
 40
11.0
 40
11.0
 40
11.0
 40
11.0
 10
983.3346969633965
 20
71.75212223181256
 30
0.0
 10
983.3346969633965
 20
71.75212223181256
 30
0.0
 10
984.2590694201378
 20
71.75212223181256
 30
0.0
 10
984.2590694201378
 20
71.75212223181256
 30
0.0
 10
984.2590694201378
 20
71.75212223181256
 30
0.0
 10
983.8461294951928
 20
70.43002264325406
 30
0.0
 10
983.8461294951928
 20
70.43002264325406
 30
0.0
 10
984.1599073016093
 20
70.80115528341824
 30
0.0
 10
984.6551227727603
 20
71.29544087723889
 30
0.0
 10
985.080411468655
 20
71.54468519691622
 30
0.0
 10
985.7157036608785
 20
71.9158178370804
 30
0.0
 10
986.0787277707202
 20
71.96476657975995
 30
0.0
 10
986.4779799013602
 20
71.9550214653359
 30
0.0
 10
986.4779799013602
 20
71.9550214653359
 30
0.0
 10
986.0878033734668
 20
70.70489438216094
 30
0.0
 10
986.0878033734668
 20
70.70489438216094
 30
0.0
 10
985.8336864965765
 20
70.81249978685082
 30
0.0
 10
985.0505810038919
 20
70.60766640847999
 30
0.0
 10
984.6013386679622
 20
70.28451543857147
 30
0.0
 10
984.196209712594
 20
69.9931290782742
 30
0.0
 10
983.9161306606354
 20
69.74518658685963
 30
0.0
 10
983.584276038913
 20
69.12187121465354
 30
0.0
 10
983.2549506835301
 20
68.49762596511695
 30
0.0
 10
982.9950313720981
 20
67.50224807541616
 30
0.0
 10
982.5477231810162
 20
66.05826016637073
 30
0.0
 10
982.5477231810162
 20
66.05826016637073
 30
0.0
 10
981.1507498698027
 20
61.58153313641628
 30
0.0
 10
981.1507498698027
 20
61.58153313641628
 30
0.0
 10
981.1507498698027
 20
61.58153313641628
 30
0.0
 10
980.2536042212994
 20
61.58153313641628
 30
0.0
 10
980.2536042212994
 20
61.58153313641628
 30
0.0
 10
980.2536042212994
 20
61.58153313641628
 30
0.0
 10
983.3346969633965
 20
71.75212223181256
 30
0.0
 10
983.3346969633965
 20
71.75212223181256
 30
0.0
  0
SPLINE
  5
24A0
102
{ACAD_REACTORS
330
2492
330
24A3
102
}
330
A
100
AcDbEntity
  8
TEMPLATE
100
AcDbSpline
210
0.0
220
0.0
230
1.0
 70
    11
 71
     3
 72
   104
 73
   100
 74
     0
 42
0.000000001
 43
0.0000000001
 40
0.0
 40
0.0
 40
0.0
 40
0.0
 40
1.0
 40
1.0
 40
1.0
 40
2.0
 40
2.0
 40
2.0
 40
3.0
 40
3.0
 40
3.0
 40
4.0
 40
4.0
 40
4.0
 40
5.0
 40
5.0
 40
5.0
 40
6.0
 40
6.0
 40
6.0
 40
7.0
 40
7.0
 40
7.0
 40
8.0
 40
8.0
 40
8.0
 40
9.0
 40
9.0
 40
9.0
 40
10.0
 40
10.0
 40
10.0
 40
11.0
 40
11.0
 40
11.0
 40
12.0
 40
12.0
 40
12.0
 40
13.0
 40
13.0
 40
13.0
 40
14.0
 40
14.0
 40
14.0
 40
15.0
 40
15.0
 40
15.0
 40
16.0
 40
16.0
 40
16.0
 40
17.0
 40
17.0
 40
17.0
 40
18.0
 40
18.0
 40
18.0
 40
19.0
 40
19.0
 40
19.0
 40
20.0
 40
20.0
 40
20.0
 40
21.0
 40
21.0
 40
21.0
 40
22.0
 40
22.0
 40
22.0
 40
23.0
 40
23.0
 40
23.0
 40
24.0
 40
24.0
 40
24.0
 40
25.0
 40
25.0
 40
25.0
 40
26.0
 40
26.0
 40
26.0
 40
27.0
 40
27.0
 40
27.0
 40
28.0
 40
28.0
 40
28.0
 40
29.0
 40
29.0
 40
29.0
 40
30.0
 40
30.0
 40
30.0
 40
31.0
 40
31.0
 40
31.0
 40
32.0
 40
32.0
 40
32.0
 40
33.0
 40
33.0
 40
33.0
 40
33.0
 10
988.4227625455403
 20
71.75762710560934
 30
0.0
 10
988.4227625455403
 20
71.75762710560934
 30
0.0
 10
989.2298216782599
 20
71.75762710560934
 30
0.0
 10
989.2298216782599
 20
71.75762710560934
 30
0.0
 10
989.2298216782599
 20
71.75762710560934
 30
0.0
 10
988.8220890663658
 20
70.43426288388127
 30
0.0
 10
988.8220890663658
 20
70.43426288388127
 30
0.0
 10
989.1759631832754
 20
70.98913928455974
 30
0.0
 10
989.4936092793876
 20
71.23644945938958
 30
0.0
 10
989.9156248070792
 20
71.55602970034877
 30
0.0
 10
990.3389049679397
 20
71.87107213993494
 30
0.0
 10
990.841336287175
 20
71.93527087083527
 30
0.0
 10
991.19007748122
 20
71.93527087083527
 30
0.0
 10
991.6218381233355
 20
71.93527087083527
 30
0.0
 10
992.0386463379762
 20
71.85001971717159
 30
0.0
 10
992.2577254370497
 20
71.37678654611435
 30
0.0
 10
992.4256240878528
 20
71.00569110104331
 30
0.0
 10
992.4334350574288
 20
70.96191247632157
 30
0.0
 10
992.3854533871734
 20
70.22939231041721
 30
0.0
 10
992.8242810970003
 20
70.9803984376527
 30
0.0
 10
993.1483991393322
 20
71.30388416340014
 30
0.0
 10
993.6994072503155
 20
71.6146863623591
 30
0.0
 10
994.2776421695378
 20
71.93527087083527
 30
0.0
 10
994.6147041043112
 20
71.95926170596317
 30
0.0
 10
995.0062940457472
 20
71.90153492128334
 30
0.0
 10
995.5831899416123
 20
71.8163209627129
 30
0.0
 10
995.9514213645059
 20
71.61048331682503
 30
0.0
 10
996.1439431670203
 20
70.98493623902573
 30
0.0
 10
996.3371344812128
 20
70.3613233060739
 30
0.0
 10
996.2327650496334
 20
70.02682783273289
 30
0.0
 10
995.9941957217104
 20
69.03405359955758
 30
0.0
 10
995.8852884887581
 20
68.58191004635688
 30
0.0
 10
995.7277300738713
 20
68.03443546922952
 30
0.0
 10
995.5215948672374
 20
67.38300060654797
 30
0.0
 10
995.5215948672374
 20
67.38300060654797
 30
0.0
 10
993.6994072503155
 20
61.58153313641628
 30
0.0
 10
993.6994072503155
 20
61.58153313641628
 30
0.0
 10
993.6994072503155
 20
61.58153313641628
 30
0.0
 10
992.7516762750327
 20
61.58153313641628
 30
0.0
 10
992.7516762750327
 20
61.58153313641628
 30
0.0
 10
992.7516762750327
 20
61.58153313641628
 30
0.0
 10
994.3470482134887
 20
66.65338165791485
 30
0.0
 10
994.3470482134887
 20
66.65338165791485
 30
0.0
 10
994.6802418585673
 20
67.71455766752453
 30
0.0
 10
994.9057929038624
 20
68.48951743479464
 30
0.0
 10
995.0225111063917
 20
68.97539693754726
 30
0.0
 10
995.1689853834976
 20
69.58149098159171
 30
0.0
 10
995.2273072896694
 20
69.78148899784378
 30
0.0
 10
995.157975635904
 20
70.22262280345092
 30
0.0
 10
995.0944464166821
 20
70.63325663261634
 30
0.0
 10
994.886972186692
 20
70.9006521577858
 30
0.0
 10
994.5317590464272
 20
70.9006521577858
 30
0.0
 10
994.1531873876181
 20
70.9006521577858
 30
0.0
 10
993.8465510391004
 20
70.85851011716579
 30
0.0
 10
993.4174684436964
 20
70.42745618182173
 30
0.0
 10
992.9883114581078
 20
69.9931290782742
 30
0.0
 10
992.6336934393337
 20
69.48329593548695
 30
0.0
 10
992.3556229224093
 20
68.8969524859431
 30
0.0
 10
992.0781475269766
 20
68.30703830744997
 30
0.0
 10
991.7968038418492
 20
67.55930534841795
 30
0.0
 10
991.5115918670269
 20
66.65338165791485
 30
0.0
 10
991.5115918670269
 20
66.65338165791485
 30
0.0
 10
989.9156248070792
 20
61.58153313641628
 30
0.0
 10
989.9156248070792
 20
61.58153313641628
 30
0.0
 10
989.9156248070792
 20
61.58153313641628
 30
0.0
 10
989.0242815931185
 20
61.58153313641628
 30
0.0
 10
989.0242815931185
 20
61.58153313641628
 30
0.0
 10
989.0242815931185
 20
61.58153313641628
 30
0.0
 10
990.8490728665654
 20
67.38039695002249
 30
0.0
 10
990.8490728665654
 20
67.38039695002249
 30
0.0
 10
991.0415946690798
 20
67.99753793675379
 30
0.0
 10
991.1862091915252
 20
68.50056437748145
 30
0.0
 10
991.281503020359
 20
68.89371651283278
 30
0.0
 10
991.4435248464313
 20
69.57048123399818
 30
0.0
 10
991.4889028601626
 20
70.0281296609956
 30
0.0
 10
991.3663822230899
 20
70.43426288388127
 30
0.0
 10
991.2457957308659
 20
70.83909427850418
 30
0.0
 10
991.0338580896903
 20
70.94249663765996
 30
0.0
 10
990.6799095825943
 20
70.94249663765996
 30
0.0
 10
990.3830183485004
 20
70.94249663765996
 30
0.0
 10
990.0932685723044
 20
70.81510344337633
 30
0.0
 10
989.7626785837517
 20
70.56161888307173
 30
0.0
 10
989.3464654906027
 20
70.24270815379049
 30
0.0
 10
989.1799058631566
 20
69.98081750241784
 30
0.0
 10
988.9757048013705
 20
69.66964335252672
 30
0.0
 10
988.7001635507856
 20
69.25800525584427
 30
0.0
 10
988.571170967494
 20
68.98090181134404
 30
0.0
 10
988.3384784643001
 20
68.37283642735878
 30
0.0
 10
988.1057115709198
 20
67.76120031442431
 30
0.0
 10
987.8853678386756
 20
67.04943501053751
 30
0.0
 10
987.7316777134836
 20
66.55712075665758
 30
0.0
 10
987.7316777134836
 20
66.55712075665758
 30
0.0
 10
986.1662106299771
 20
61.58153313641628
 30
0.0
 10
986.1662106299771
 20
61.58153313641628
 30
0.0
 10
986.1662106299771
 20
61.58153313641628
 30
0.0
 10
985.2327625704909
 20
61.58153313641628
 30
0.0
 10
985.2327625704909
 20
61.58153313641628
 30
0.0
 10
985.2327625704909
 20
61.58153313641628
 30
0.0
 10
988.4227625455403
 20
71.75762710560934
 30
0.0
 10
988.4227625455403
 20
71.75762710560934
 30
0.0
  0
SPLINE
  5
24A1
102
{ACAD_REACTORS
330
2492
330
24A3
102
}
330
A
100
AcDbEntity
  8
TEMPLATE
100
AcDbSpline
210
0.0
220
0.0
230
1.0
 70
    11
 71
     3
 72
    32
 73
    28
 74
     0
 42
0.000000001
 43
0.0000000001
 40
0.0
 40
0.0
 40
0.0
 40
0.0
 40
1.0
 40
1.0
 40
1.0
 40
2.0
 40
2.0
 40
2.0
 40
3.0
 40
3.0
 40
3.0
 40
4.0
 40
4.0
 40
4.0
 40
5.0
 40
5.0
 40
5.0
 40
6.0
 40
6.0
 40
6.0
 40
7.0
 40
7.0
 40
7.0
 40
8.0
 40
8.0
 40
8.0
 40
9.0
 40
9.0
 40
9.0
 40
9.0
 10
975.760585740514
 20
71.22123666626197
 30
0.0
 10
975.2193227439554
 20
70.52111342655351
 30
0.0
 10
974.8025145293147
 20
69.89102854738113
 30
0.0
 10
974.1277211480899
 20
67.91065019898832
 30
0.0
 10
973.5073441882485
 20
66.09917476891434
 30
0.0
 10
973.1125554687958
 20
64.78127822588988
 30
0.0
 10
973.0529317343623
 20
63.17623556319532
 30
0.0
 10
973.007553720631
 20
61.98182672966618
 30
0.0
 10
973.7348665734851
 20
61.58153313641628
 30
0.0
 10
974.801249896145
 20
61.58153313641628
 30
0.0
 10
975.2608324679911
 20
61.58153313641628
 30
0.0
 10
976.420575474637
 20
61.61076847968843
 30
0.0
 10
977.2464553245279
 20
62.6316993984324
 30
0.0
 10
977.8246158535619
 20
63.34896957611602
 30
0.0
 10
978.3574727590537
 20
64.092499489614
 30
0.0
 10
979.0718417194655
 20
66.53153053252123
 30
0.0
 10
979.6662936993323
 20
68.57056554292433
 30
0.0
 10
980.0778946009211
 20
69.88842489085562
 30
0.0
 10
980.0474690146664
 20
70.63876150641318
 30
0.0
 10
980.0474690146664
 20
70.63876150641318
 30
0.0
 10
980.0474690146664
 20
70.63876150641318
 30
0.0
 10
980.0474690146664
 20
70.63876150641318
 30
0.0
 10
979.8536081887958
 20
71.89052517368981
 30
0.0
 10
978.9447832810217
 20
72.155019481588
 30
0.0
 10
978.4255397796494
 20
72.155019481588
 30
0.0
 10
977.914107247853
 20
72.155019481588
 30
0.0
 10
976.5436912332004
 20
72.24350660836194
 30
0.0
 10
975.760585740514
 20
71.22123666626197
 30
0.0
  0
SPLINE
  5
24A2
102
{ACAD_REACTORS
330
2492
330
24A3
102
}
330
A
100
AcDbEntity
  8
TEMPLATE
100
AcDbSpline
210
0.0
220
0.0
230
1.0
 70
    11
 71
     3
 72
    29
 73
    25
 74
     0
 42
0.000000001
 43
0.0000000001
 40
0.0
 40
0.0
 40
0.0
 40
0.0
 40
1.0
 40
1.0
 40
1.0
 40
2.0
 40
2.0
 40
2.0
 40
3.0
 40
3.0
 40
3.0
 40
4.0
 40
4.0
 40
4.0
 40
5.0
 40
5.0
 40
5.0
 40
6.0
 40
6.0
 40
6.0
 40
7.0
 40
7.0
 40
7.0
 40
8.0
 40
8.0
 40
8.0
 40
8.0
 10
974.0214175716626
 20
63.47632557530645
 30
0.0
 10
974.0174748917814
 20
64.18489210117616
 30
0.0
 10
974.241166182416
 20
65.44379722635136
 30
0.0
 10
974.8141937885864
 20
67.12821421798066
 30
0.0
 10
975.594695624746
 20
69.4090545294168
 30
0.0
 10
976.0627586778462
 20
70.24270815379049
 30
0.0
 10
976.4723510444016
 20
70.64850662083717
 30
0.0
 10
977.0707457041487
 20
71.23938787175408
 30
0.0
 10
977.8752011803442
 20
71.2688463855855
 30
0.0
 10
978.1125058750974
 20
71.23938787175408
 30
0.0
 10
978.450237321548
 20
71.19884522014263
 30
0.0
 10
978.9273015872075
 20
70.97779478112719
 30
0.0
 10
978.9557930286153
 20
70.23363255104445
 30
0.0
 10
978.978556425667
 20
69.59674096981257
 30
0.0
 10
978.7950358357118
 20
68.4039687203852
 30
0.0
 10
978.152676575776
 20
66.53153053252123
 30
0.0
 10
977.4123454402959
 20
64.35569196924934
 30
0.0
 10
976.967640905739
 20
63.50035360552755
 30
0.0
 10
976.6111631323035
 20
63.12758438126156
 30
0.0
 10
975.9395685290963
 20
62.42876296981586
 30
0.0
 10
975.2193227439554
 20
62.49586291798744
 30
0.0
 10
975.1130191675281
 20
62.49586291798744
 30
0.0
 10
974.9749509814899
 20
62.49586291798744
 30
0.0
 10
974.0233517165104
 20
62.64568475348372
 30
0.0
 10
974.0214175716626
 20
63.47632557530645
 30
0.0
  0
LINE
  5
324A
330
A
100
AcDbEntity
  8
MODEL
  6
Continuous
100
AcDbLine
 10
745.7462840374021
 20
284.4025632307671
 30
0.0
 11
745.7462840374021
 21
1169.402563230767
 31
0.0
  0
LINE
  5
324B
330
A
100
AcDbEntity
  8
MODEL
  6
Continuous
100
AcDbLine
 10
723.7462840374021
 20
284.4025632307671
 30
0.0
 11
723.7462840374021
 21
1169.402563230767
 31
0.0
  0
ARC
  5
324C
330
A
100
AcDbEntity
  8
MODEL
  6
Continuous
100
AcDbCircle
 10
675.637974037402
 20
276.9025632307671
 30
0.0
 40
72.0
100
AcDbArc
 50
354.0208429999999
 51
5.979156999999924
  0
LINE
  5
324D
330
A
100
AcDbEntity
  8
MODEL
  6
Continuous
100
AcDbLine
 10
665.7462840374021
 20
269.4025632307671
 30
0.0
 11
747.2462840374021
 21
269.4025632307671
 31
0.0
  0
LINE
  5
324E
330
A
100
AcDbEntity
  8
MODEL
  6
Continuous
100
AcDbLine
 10
747.2462840374021
 20
284.4025632307671
 30
0.0
 11
665.7462840374021
 21
284.4025632307671
 31
0.0
  0
LINE
  5
3251
330
A
100
AcDbEntity
  8
MODEL
  6
Continuous
100
AcDbLine
 10
287.826306037402
 20
1360.170752223709
 30
0.0
 11
287.826306037402
 21
1291.170752223709
 31
0.0
  0
LINE
  5
3252
330
A
100
AcDbEntity
  8
MODEL
  6
Continuous
100
AcDbLine
 10
312.826306037402
 20
1360.170752223709
 30
0.0
 11
312.826306037402
 21
1291.170752223709
 31
0.0
  0
LINE
  5
3256
330
A
100
AcDbEntity
  8
MODEL
  6
Continuous
100
AcDbLine
 10
313.2179960374019
 20
1291.170752223709
 30
0.0
 11
313.2179960374019
 21
1360.170752223709
 31
0.0
  0
LINE
  5
3257
330
A
100
AcDbEntity
  8
MODEL
  6
Continuous
100
AcDbLine
 10
287.434615037402
 20
1360.170752223709
 30
0.0
 11
287.434615037402
 21
1291.170752223709
 31
0.0
  0
LINE
  5
3259
330
A
100
AcDbEntity
  8
MODEL
  6
Continuous
100
AcDbLine
 10
289.326308037402
 20
284.402548230767
 30
0.0
 11
289.326308037402
 21
1169.402548230767
 31
0.0
  0
LINE
  5
325A
330
A
100
AcDbEntity
  8
MODEL
  6
Continuous
100
AcDbLine
 10
311.326308037402
 20
284.402548230767
 30
0.0
 11
311.326308037402
 21
1169.402548230767
 31
0.0
  0
ARC
  5
325B
330
A
100
AcDbEntity
  8
MODEL
  6
Continuous
100
AcDbCircle
 10
241.217999037402
 20
276.902548230767
 30
0.0
 40
72.0
100
AcDbArc
 50
354.0208429999999
 51
5.979157000000019
  0
ARC
  5
325C
330
A
100
AcDbEntity
  8
MODEL
  6
Continuous
100
AcDbCircle
 10
359.4346180374021
 20
276.902548230767
 30
0.0
 40
72.0
100
AcDbArc
 50
174.020843
 51
185.979157
  0
LINE
  5
325D
330
A
100
AcDbEntity
  8
MODEL
  6
Continuous
100
AcDbLine
 10
657.746287037402
 20
312.0596212307671
 30
0.0
 11
663.746287037402
 21
311.902506230767
 31
0.0
  0
LINE
  5
325F
330
A
100
AcDbEntity
  8
MODEL
  6
Continuous
100
AcDbLine
 10
657.746287037402
 20
241.745390230767
 30
0.0
 11
657.746287037402
 21
312.0596212307671
 31
0.0
  0
LINE
  5
3273
330
A
100
AcDbEntity
  8
MODEL
  6
Continuous
100
AcDbLine
 10
657.746287037402
 20
241.745390230767
 30
0.0
 11
663.746287037402
 21
241.902506230767
 31
0.0
  0
LINE
  5
3274
330
A
100
AcDbEntity
  8
MODEL
  6
Continuous
100
AcDbLine
 10
663.746287037402
 20
241.652503230767
 30
0.0
 11
663.746287037402
 21
312.152503230767
 31
0.0
  0
LINE
  5
3275
330
A
100
AcDbEntity
  8
MODEL
  6
Continuous
100
AcDbLine
 10
665.746287037402
 20
241.652503230767
 30
0.0
 11
665.746287037402
 21
312.152503230767
 31
0.0
  0
LINE
  5
3276
330
A
100
AcDbEntity
  8
MODEL
  6
Continuous
100
AcDbLine
 10
663.746287037402
 20
312.152503230767
 30
0.0
 11
665.746287037402
 21
312.152503230767
 31
0.0
  0
LINE
  5
3279
330
A
100
AcDbEntity
  8
MODEL
  6
Continuous
100
AcDbLine
 10
663.746287037402
 20
241.652503230767
 30
0.0
 11
665.746287037402
 21
241.652503230767
 31
0.0
  0
LINE
  5
329C
330
A
100
AcDbEntity
  8
MODEL
  6
Continuous
100
AcDbLine
 10
335.4835190374019
 20
1368.170748223709
 30
0.0
 11
335.326404037402
 21
1362.170748223709
 31
0.0
  0
LINE
  5
329D
330
A
100
AcDbEntity
  8
MODEL
  6
Continuous
100
AcDbLine
 10
265.1692880374021
 20
1368.170748223709
 30
0.0
 11
265.326404037402
 21
1362.170748223709
 31
0.0
  0
LINE
  5
32A0
330
A
100
AcDbEntity
  8
MODEL
  6
Continuous
100
AcDbLine
 10
265.0764010374021
 20
1362.170748223709
 30
0.0
 11
265.0764010374021
 21
1360.170748223709
 31
0.0
  0
LINE
  5
32A1
330
A
100
AcDbEntity
  8
MODEL
  6
Continuous
100
AcDbLine
 10
335.5764010374021
 20
1362.170748223709
 30
0.0
 11
335.5764010374021
 21
1360.170748223709
 31
0.0
  0
ARC
  5
32B1
330
A
100
AcDbEntity
  8
MODEL
  6
Continuous
100
AcDbCircle
 10
300.3262820374021
 20
276.902521230767
 30
0.0
 40
20.05237184313838
100
AcDbArc
 50
123.2684299999998
 51
56.73138800000015
  0
ARC
  5
32B2
330
A
100
AcDbEntity
  8
MODEL
  6
Continuous
100
AcDbCircle
 10
300.3262790374019
 20
276.9025182307671
 30
0.0
 40
20.5
100
AcDbArc
 50
122.4513949999999
 51
57.54841299999946
  0
ARC
  5
32B3
330
A
100
AcDbEntity
  8
MODEL
  6
Continuous
100
AcDbCircle
 10
300.3262790374019
 20
276.9025182307671
 30
0.0
 40
35.25
100
AcDbArc
 50
108.1831729999998
 51
71.81672699999997
  0
LINE
  5
32B4
330
A
100
AcDbEntity
  8
MODEL
  6
Continuous
100
AcDbLine
 10
265.1692880374021
 20
1368.170748223709
 30
0.0
 11
335.4835190374019
 21
1368.170748223709
 31
0.0
  0
LINE
  5
32B5
330
A
100
AcDbEntity
  8
MODEL
  6
Continuous
100
AcDbLine
 10
335.5764010374021
 20
1362.170748223709
 30
0.0
 11
265.0764010374021
 21
1362.170748223709
 31
0.0
  0
LINE
  5
32B6
330
A
100
AcDbEntity
  8
MODEL
  6
Continuous
100
AcDbLine
 10
335.5764010374021
 20
1360.170748223709
 30
0.0
 11
265.0764010374021
 21
1360.170748223709
 31
0.0
  0
LINE
  5
32CE
330
A
100
AcDbEntity
  8
MODEL
  6
Continuous
100
AcDbLine
 10
331.826404037402
 20
1368.670748223709
 30
0.0
 11
268.826404037402
 21
1368.670748223709
 31
0.0
  0
LINE
  5
32CF
330
A
100
AcDbEntity
  8
MODEL
  6
Continuous
100
AcDbLine
 10
331.826404037402
 20
1368.670748223709
 30
0.0
 11
331.826404037402
 21
1368.170748223709
 31
0.0
  0
LINE
  5
32D0
330
A
100
AcDbEntity
  8
MODEL
  6
Continuous
100
AcDbLine
 10
268.826404037402
 20
1368.670748223709
 30
0.0
 11
268.826404037402
 21
1368.170748223709
 31
0.0
  0
LINE
  5
32D2
330
A
100
AcDbEntity
  8
MODEL
  6
Continuous
100
AcDbLine
 10
657.246287037402
 20
308.402506230767
 30
0.0
 11
657.246287037402
 21
245.402506230767
 31
0.0
  0
LINE
  5
32D3
330
A
100
AcDbEntity
  8
MODEL
  6
Continuous
100
AcDbLine
 10
657.246287037402
 20
308.402506230767
 30
0.0
 11
657.746287037402
 21
308.402506230767
 31
0.0
  0
LINE
  5
32D4
330
A
100
AcDbEntity
  8
MODEL
  6
Continuous
100
AcDbLine
 10
657.246287037402
 20
245.402506230767
 30
0.0
 11
657.746287037402
 21
245.402506230767
 31
0.0
  0
ARC
  5
32D7
330
A
100
AcDbEntity
  8
MODEL
  6
Continuous
100
AcDbCircle
 10
675.637974037402
 20
1176.902532230767
 30
0.0
 40
72.0
100
AcDbArc
 50
354.020843
 51
5.979157000000014
  0
LINE
  5
32D8
330
A
100
AcDbEntity
  8
MODEL
  6
Continuous
100
AcDbLine
 10
665.7462840374021
 20
1184.402532230767
 30
0.0
 11
747.2462840374021
 21
1184.402532230767
 31
0.0
  0
LINE
  5
32D9
330
A
100
AcDbEntity
  8
MODEL
  6
Continuous
100
AcDbLine
 10
747.2462840374021
 20
1169.402532230767
 30
0.0
 11
665.7462840374021
 21
1169.402532230767
 31
0.0
  0
ARC
  5
32DB
330
A
100
AcDbEntity
  8
MODEL
  6
Continuous
100
AcDbCircle
 10
241.217999037402
 20
1176.902548230767
 30
0.0
 40
72.0
100
AcDbArc
 50
354.020843
 51
5.979157000000019
  0
ARC
  5
32DC
330
A
100
AcDbEntity
  8
MODEL
  6
Continuous
100
AcDbCircle
 10
359.4346180374021
 20
1176.902548230767
 30
0.0
 40
72.0
100
AcDbArc
 50
174.020843
 51
185.979157
  0
LINE
  5
32DD
330
A
100
AcDbEntity
  8
MODEL
  6
Continuous
100
AcDbLine
 10
657.746287037402
 20
1141.745474230767
 30
0.0
 11
663.746287037402
 21
1141.902590230767
 31
0.0
  0
LINE
  5
32DF
330
A
100
AcDbEntity
  8
MODEL
  6
Continuous
100
AcDbLine
 10
657.746287037402
 20
1212.059705230767
 30
0.0
 11
657.746287037402
 21
1141.745474230767
 31
0.0
  0
LINE
  5
32F3
330
A
100
AcDbEntity
  8
MODEL
  6
Continuous
100
AcDbLine
 10
657.746287037402
 20
1212.059705230767
 30
0.0
 11
663.746287037402
 21
1211.902590230767
 31
0.0
  0
LINE
  5
32F4
330
A
100
AcDbEntity
  8
MODEL
  6
Continuous
100
AcDbLine
 10
663.746287037402
 20
1212.152592230767
 30
0.0
 11
663.746287037402
 21
1141.652592230767
 31
0.0
  0
LINE
  5
32F5
330
A
100
AcDbEntity
  8
MODEL
  6
Continuous
100
AcDbLine
 10
665.746287037402
 20
1212.152592230767
 30
0.0
 11
665.746287037402
 21
1141.652592230767
 31
0.0
  0
LINE
  5
32F6
330
A
100
AcDbEntity
  8
MODEL
  6
Continuous
100
AcDbLine
 10
663.746287037402
 20
1141.652592230767
 30
0.0
 11
665.746287037402
 21
1141.652592230767
 31
0.0
  0
LINE
  5
32F9
330
A
100
AcDbEntity
  8
MODEL
  6
Continuous
100
AcDbLine
 10
663.746287037402
 20
1212.152592230767
 30
0.0
 11
665.746287037402
 21
1212.152592230767
 31
0.0
  0
ARC
  5
330B
330
A
100
AcDbEntity
  8
MODEL
  6
Continuous
100
AcDbCircle
 10
300.3262820374021
 20
1176.902574230767
 30
0.0
 40
20.05237184313838
100
AcDbArc
 50
303.2686119999998
 51
236.7315699999995
  0
ARC
  5
330C
330
A
100
AcDbEntity
  8
MODEL
  6
Continuous
100
AcDbCircle
 10
300.3262790374019
 20
1176.902577230767
 30
0.0
 40
20.5
100
AcDbArc
 50
302.4515870000005
 51
237.5486050000001
  0
ARC
  5
330D
330
A
100
AcDbEntity
  8
MODEL
  6
Continuous
100
AcDbCircle
 10
300.3262790374019
 20
1176.902577230767
 30
0.0
 40
35.25
100
AcDbArc
 50
288.183273
 51
251.816827
  0
LINE
  5
3321
330
A
100
AcDbEntity
  8
MODEL
  6
Continuous
100
AcDbLine
 10
657.246287037402
 20
1145.402590230767
 30
0.0
 11
657.246287037402
 21
1208.402590230767
 31
0.0
  0
LINE
  5
3322
330
A
100
AcDbEntity
  8
MODEL
  6
Continuous
100
AcDbLine
 10
657.246287037402
 20
1145.402590230767
 30
0.0
 11
657.746287037402
 21
1145.402590230767
 31
0.0
  0
LINE
  5
3323
330
A
100
AcDbEntity
  8
MODEL
  6
Continuous
100
AcDbLine
 10
657.246287037402
 20
1208.402590230767
 30
0.0
 11
657.746287037402
 21
1208.402590230767
 31
0.0
  0
ARC
  5
3326
330
A
100
AcDbEntity
  8
MODEL
  6
Continuous
100
AcDbCircle
 10
300.326306037402
 20
1291.170752223709
 30
0.0
 40
12.5
100
AcDbArc
 50
180.0
 51
0.0
  0
ARC
  5
3327
330
A
100
AcDbEntity
  8
MODEL
  6
Continuous
100
AcDbCircle
 10
300.326306037402
 20
1291.170752223709
 30
0.0
 40
12.89169042631993
100
AcDbArc
 50
180.0
 51
0.0
  0
LINE
  5
3328
330
A
100
AcDbEntity
  8
MODEL
  6
Continuous
100
AcDbLine
 10
312.826308037402
 20
1184.402532230767
 30
0.0
 11
287.826308037402
 21
1184.402532230767
 31
0.0
  0
LINE
  5
3329
330
A
100
AcDbEntity
  8
MODEL
  6
Continuous
100
AcDbLine
 10
287.826308037402
 20
1169.402532230767
 30
0.0
 11
312.826308037402
 21
1169.402532230767
 31
0.0
  0
LINE
  5
332A
330
A
100
AcDbEntity
  8
MODEL
  6
Continuous
100
AcDbLine
 10
287.826308037402
 20
284.4025632307671
 30
0.0
 11
312.826308037402
 21
284.4025632307671
 31
0.0
  0
LINE
  5
332B
330
A
100
AcDbEntity
  8
MODEL
  6
Continuous
100
AcDbLine
 10
312.826308037402
 20
269.4025632307671
 30
0.0
 11
287.826308037402
 21
269.4025632307671
 31
0.0
  0
DIMENSION
  5
3330
330
A
100
AcDbEntity
  8
DIM
100
AcDbDimension
  2
*D10
 10
335.1692880374021
 20
1405.778596369852
 30
0.0
 11
300.1692880374021
 21
1421.778596369852
 31
0.0
 70
    32
 71
     5
 42
70.0
 73
     0
 74
     0
 75
     0
  3
tfrom線あり
100
AcDbAlignedDimension
 13
265.1692880374021
 23
1368.170748223709
 33
0.0
 14
335.1692880374021
 24
1368.170748223709
 34
0.0
100
AcDbRotatedDimension
1001
ACAD
1000
DSTYLE
1002
{
1070
   144
1040
1.0
1002
}
  0
DIMENSION
  5
333D
330
A
100
AcDbEntity
  8
DIM
100
AcDbDimension
  2
*D11
 10
383.1247774864006
 20
1278.170748223709
 30
0.0
 11
367.1247774864006
 21
1323.170748223709
 31
0.0
 70
    32
 71
     5
 42
90.0
 73
     0
 74
     0
 75
     0
  3
tfrom線あり
100
AcDbAlignedDimension
 13
335.4835190374019
 23
1368.170748223709
 33
0.0
 14
309.3298583888978
 24
1278.170748223709
 34
0.0
 50
90.0
100
AcDbRotatedDimension
1001
ACAD
1000
DSTYLE
1002
{
1070
   144
1040
1.0
1002
}
  0
DIMENSION
  5
334A
330
A
100
AcDbEntity
  8
DIM
100
AcDbDimension
  2
*D12
 10
579.8158524098981
 20
276.9025742307667
 30
0.0
 11
563.8158524098981
 21
726.9025742307667
 31
0.0
 70
    32
 71
     5
 42
900.0
 73
     0
 74
     0
 75
     0
 52
-90.0
  3
tfrom線あり
100
AcDbAlignedDimension
 13
649.9059536297993
 23
1176.902574230767
 33
0.0
 14
649.9059536297976
 24
276.9025742307667
 34
0.0
 50
90.00000000000001
100
AcDbRotatedDimension
1001
ACAD
1000
DSTYLE
1002
{
1070
   144
1040
1.0
1002
}
  0
VIEWPORT
  5
349
330
B
100
AcDbEntity
 67
     1
  8
0
100
AcDbViewport
 10
202.5
 20
128.5
 30
0.0
 40
486.0
 41
308.4
 68
     1
 69
     1
 12
202.5
 22
128.5
 13
0.0
 23
0.0
 14
0.5
 24
0.5
 15
0.0
 25
0.0
 16
0.0
 26
0.0
 36
1.0
 17
0.0
 27
0.0
 37
0.0
 42
50.0
 43
0.0
 44
0.0
 45
308.4
 50
0.0
 51
0.0
 72
   100
 90
   557152
  1

281
     0
 71
     1
 74
     0
110
0.0
120
0.0
130
0.0
111
1.0
121
0.0
131
0.0
112
0.0
122
1.0
132
0.0
 79
     0
146
0.0
170
     0
 61
     5
348
26C
292
     1
282
     1
141
0.0
142
0.0
 63
   256
  0
VIEWPORT
  5
34A
330
B
100
AcDbEntity
 67
     1
  8
0
100
AcDbViewport
 10
202.5
 20
128.5
 30
0.0
 40
324.0
 41
205.6
 68
     2
 69
     2
 12
986.6781359294573
 22
1427.077061889956
 13
0.0
 23
0.0
 14
0.5
 24
0.5
 15
0.0
 25
0.0
 16
0.0
 26
0.0
 36
1.0
 17
0.0
 27
0.0
 37
0.0
 42
50.0
 43
0.0
 44
0.0
 45
2890.021615685494
 50
0.0
 51
0.0
 72
   100
 90
   557152
  1

281
     0
 71
     1
 74
     0
110
0.0
120
0.0
130
0.0
111
1.0
121
0.0
131
0.0
112
0.0
122
1.0
132
0.0
 79
     0
146
0.0
170
     0
 61
     5
348
26C
292
     1
282
     1
141
0.0
142
0.0
 63
   256
  0
ENDSEC
  0
SECTION
  2
OBJECTS
  0
DICTIONARY
  5
19
330
0
100
AcDbDictionary
281
     1
  3
ACAD_COLOR
350
674
  3
ACAD_DETAILVIEWSTYLE
350
BBF
  3
ACAD_FIELDLIST
350
16CE
  3
ACAD_GROUP
350
1A
  3
ACAD_IMAGE_VARS
350
27B
  3
ACAD_LAYOUT
350
1E
  3
ACAD_MATERIAL
350
263
  3
ACAD_MLEADERSTYLE
350
336
  3
ACAD_MLINESTYLE
350
1B
  3
ACAD_PLOTSETTINGS
350
22
  3
ACAD_PLOTSTYLENAME
350
1F
  3
ACAD_SCALELIST
350
241
  3
ACAD_SECTIONVIEWSTYLE
350
BC0
  3
ACAD_TABLESTYLE
350
278
  3
ACAD_VISUALSTYLE
350
267
  3
ACDB_RECOMPOSE_DATA
350
3386
  3
AcDbVariableDictionary
350
330
  3
APPDATA
350
27A
  3
DimOffsetDictionary
350
E38
  0
SUN
  5
904
330
15
100
AcDbSun
 90
        1
290
     0
 63
     7
421
 16777215
 40
1.0
291
     1
 91
  2455826
 92
 54000000
292
     0
 70
     2
 71
   256
280
     1
  0
DICTIONARY
  5
2E1
330
2
100
AcDbDictionary
280
     1
281
     1
  3
ACAD_LAYERSTATES
360
2E2
  3
ACLYDICTIONARY
360
DDE
  0
DICTIONARY
  5
24B4
330
A
100
AcDbDictionary
280
     1
281
     1
  3
ACAD_SORTENTS
360
24B5
  0
DICTIONARY
  5
16F1
330
16F0
100
AcDbDictionary
280
     1
281
     1
  3
ACAD_FIELD
360
3380
  0
DICTIONARY
  5
674
102
{ACAD_REACTORS
330
19
102
}
330
19
100
AcDbDictionary
281
     1
  0
DICTIONARY
  5
BBF
102
{ACAD_REACTORS
330
19
102
}
330
19
100
AcDbDictionary
281
     1
  0
FIELDLIST
  5
16CE
102
{ACAD_REACTORS
330
19
102
}
330
19
100
AcDbIdSet
 90
        2
330
16F4
330
16F3
100
AcDbFieldList
  0
DICTIONARY
  5
1A
102
{ACAD_REACTORS
330
19
102
}
330
19
100
AcDbDictionary
281
     1
  3
*A1
350
1788
  3
*A2
350
24A3
  0
RASTERVARIABLES
  5
27B
102
{ACAD_REACTORS
330
19
102
}
330
19
100
AcDbRasterVariables
 90
        0
 70
     1
 71
     1
 72
     1
  0
DICTIONARY
  5
1E
102
{ACAD_REACTORS
330
19
102
}
330
19
100
AcDbDictionary
281
     1
  3
Layout1
350
21
  3
Model
350
20
  0
DICTIONARY
  5
263
102
{ACAD_REACTORS
330
19
102
}
330
19
100
AcDbDictionary
281
     1
  3
ByBlock
350
265
  3
ByLayer
350
264
  3
Global
350
266
  0
DICTIONARY
  5
336
102
{ACAD_REACTORS
330
19
102
}
330
19
100
AcDbDictionary
281
     1
  3
Standard
350
D59
  0
DICTIONARY
  5
1B
102
{ACAD_REACTORS
330
19
102
}
330
19
100
AcDbDictionary
281
     1
  3
Standard
350
1C
  0
DICTIONARY
  5
22
102
{ACAD_REACTORS
330
19
102
}
330
19
100
AcDbDictionary
281
     1
  0
ACDBDICTIONARYWDFLT
  5
1F
102
{ACAD_REACTORS
330
19
102
}
330
19
100
AcDbDictionary
281
     1
  3
Normal
350
1D
100
AcDbDictionaryWithDefault
340
1D
  0
DICTIONARY
  5
241
102
{ACAD_REACTORS
330
19
102
}
330
19
100
AcDbDictionary
281
     1
  3
A0
350
242
  3
A1
350
243
  3
A2
350
244
  3
A3
350
245
  3
A4
350
246
  3
A5
350
247
  3
A6
350
248
  3
A7
350
249
  3
A8
350
24A
  3
A9
350
24B
  3
B0
350
24C
  3
B1
350
24D
  3
B2
350
24E
  3
B3
350
24F
  3
B4
350
250
  3
B5
350
251
  3
B6
350
252
  3
B7
350
253
  3
B8
350
254
  3
B9
350
255
  3
C0
350
256
  3
C1
350
257
  3
C2
350
258
  3
C3
350
259
  3
C4
350
25A
  3
C5
350
25B
  3
C6
350
25C
  3
C7
350
25D
  3
C8
350
25E
  3
C9
350
25F
  3
D0
350
260
  3
D1
350
261
  3
D2
350
262
  0
DICTIONARY
  5
BC0
102
{ACAD_REACTORS
330
19
102
}
330
19
100
AcDbDictionary
281
     1
  0
DICTIONARY
  5
278
102
{ACAD_REACTORS
330
19
102
}
330
19
100
AcDbDictionary
281
     1
  3
Standard
350
279
  0
DICTIONARY
  5
267
102
{ACAD_REACTORS
330
19
102
}
330
19
100
AcDbDictionary
281
     1
  3
2dWireframe
350
26C
  3
3D Hidden
350
26E
  3
3dWireframe
350
26D
  3
Basic
350
26F
  3
Brighten
350
273
  3
ColorChange
350
277
  3
Conceptual
350
271
  3
Dim
350
272
  3
EdgeColorOff
350
8FE
  3
Facepattern
350
276
  3
Flat
350
268
  3
FlatWithEdges
350
269
  3
Gouraud
350
26A
  3
GouraudWithEdges
350
26B
  3
Hidden
350
8FB
  3
JitterOff
350
8FC
  3
Linepattern
350
275
  3
OverhangOff
350
8FD
  3
Realistic
350
270
  3
Shaded
350
903
  3
Shaded with edges
350
902
  3
Shades of Gray
350
8FF
  3
Sketchy
350
900
  3
Thicken
350
274
  3
Wireframe
350
8FA
  3
X-Ray
350
901
  0
XRECORD
  5
3386
102
{ACAD_REACTORS
330
19
102
}
330
19
100
AcDbXrecord
280
     1
 90
        1
330
279
  0
DICTIONARY
  5
330
102
{ACAD_REACTORS
330
19
102
}
330
19
100
AcDbDictionary
281
     1
  3
CANNOSCALE
350
331
  3
CMLEADERSTYLE
350
D5E
  3
CTABLESTYLE
350
335
  3
HPTRANSPARENCY
350
D52
  3
XCLIPFRAME
350
896
  0
DICTIONARY
  5
27A
102
{ACAD_REACTORS
330
19
102
}
330
19
100
AcDbDictionary
281
     1
  0
DICTIONARY
  5
E38
102
{ACAD_REACTORS
330
19
102
}
330
19
100
AcDbDictionary
281
     1
  3
DIMRAILANGLE
350
1614
  3
DIMRAILFIRSTOFFSET
350
1612
  3
DIMRAILOFFSET
350
1613
  3
DIMRAILSENABLED
350
1615
  0
DICTIONARY
  5
2E2
102
{ACAD_REACTORS
330
2E1
102
}
330
2E1
100
AcDbDictionary
281
     1
  0
DICTIONARY
  5
DDE
102
{ACAD_REACTORS
330
2E1
102
}
330
2E1
100
AcDbDictionary
281
     1
1001
ACAD
1000
<All
  0
SORTENTSTABLE
  5
24B5
102
{ACAD_REACTORS
330
24B4
102
}
330
24B4
100
AcDbSortentsTable
330
A
331
0
  5
1782
331
0
  5
24A2
331
0
  5
24A1
331
2492
  5
244D
331
2493
  5
2491
331
249E
  5
2492
331
249F
  5
2493
331
24A0
  5
249E
331
24A1
  5
249F
331
24A2
  5
24A0
  0
DICTIONARY
  5
3380
102
{ACAD_REACTORS
330
16F1
102
}
330
16F1
100
AcDbDictionary
280
     1
281
     1
  3
TEXT
360
16F3
  0
GROUP
  5
1788
102
{ACAD_REACTORS
330
1A
102
}
330
1A
100
AcDbGroup
300

 70
     1
 71
     1
  0
GROUP
  5
24A3
102
{ACAD_REACTORS
330
1A
102
}
330
1A
100
AcDbGroup
300

 70
     1
 71
     1
340
2492
340
2493
340
249E
340
249F
340
24A0
340
24A1
340
24A2
  0
LAYOUT
  5
21
102
{ACAD_REACTORS
330
1E
102
}
330
1E
100
AcDbPlotSettings
  1

  2
none_device
  4
ISO_A3_(420.00_x_297.00_MM)
  6

 40
7.5
 41
20.0
 42
7.5
 43
20.0
 44
420.0
 45
297.0
 46
0.0
 47
0.0
 48
0.0
 49
0.0
140
0.0
141
0.0
142
1.0
143
1.0
 70
     0
 72
     1
 73
     0
 74
     0
  7

 75
     0
 76
     0
 77
     2
 78
   300
147
1.0
148
0.0
149
0.0
100
AcDbLayout
  1
Layout1
 70
     0
 71
     0
 10
-7.5
 20
-20.0
 11
412.5
 21
277.0
 12
0.0
 22
0.0
 32
0.0
 14
0.0
 24
0.0
 34
0.0
 15
0.0
 25
0.0
 35
0.0
146
0.0
 13
0.0
 23
0.0
 33
0.0
 16
0.0
 26
0.0
 36
0.0
 17
0.0
 27
0.0
 37
0.0
 76
     0
330
B
331
349
  0
LAYOUT
  5
20
102
{ACAD_REACTORS
330
1E
102
}
330
1E
100
AcDbPlotSettings
  1

  2
none_device
  4
ISO_A3_(420.00_x_297.00_MM)
  6

 40
7.5
 41
20.0
 42
7.5
 43
20.0
 44
420.0
 45
297.0
 46
0.0
 47
0.0
 48
0.0
 49
0.0
140
0.0
141
0.0
142
1.0
143
1.0
 70
  1024
 72
     1
 73
     0
 74
     0
  7

 75
     0
 76
     0
 77
     2
 78
   300
147
1.0
148
0.0
149
0.0
100
AcDbLayout
  1
Model
 70
     0
 71
     1
 10
0.0
 20
0.0
 11
1050.0
 21
1485.0
 12
0.0
 22
0.0
 32
0.0
 14
0.0
 24
0.0
 34
-0.0000000000000071
 15
1050.0
 25
1485.0
 35
0.0000000000000071
146
0.0
 13
0.0
 23
0.0
 33
0.0
 16
0.0
 26
0.0
 36
0.0
 17
0.0
 27
0.0
 37
0.0
 76
     0
330
A
331
15
  0
MATERIAL
  5
265
102
{ACAD_REACTORS
330
263
102
}
330
263
100
AcDbMaterial
  1
ByBlock
 72
     1
 94
      127
  0
MATERIAL
  5
264
102
{ACAD_REACTORS
330
263
102
}
330
263
100
AcDbMaterial
  1
ByLayer
 72
     1
 94
      127
  0
MATERIAL
  5
266
102
{ACAD_REACTORS
330
263
102
}
330
263
100
AcDbMaterial
  1
Global
 72
     1
 94
      127
  0
MLEADERSTYLE
  5
D59
102
{ACAD_REACTORS
330
336
102
}
330
336
100
AcDbMLeaderStyle
170
     2
171
     1
172
     0
 90
        2
 40
0.0
 41
0.0
173
     1
 91
-1056964608
340
11
 92
       -2
290
     1
 42
2.0
291
     1
 43
8.0
  3
Standard
341
0
 44
4.0
300

342
17
174
     1
178
     6
175
     1
176
     0
 93
-1056964608
 45
4.0
292
     0
297
     0
 46
4.0
343
0
 94
-1056964608
 47
1.0
 49
1.0
140
1.0
293
     1
141
0.0
294
     1
177
     0
142
1.0
295
     0
296
     0
143
3.75
1001
ACAD_MLEADERVER
1070
     2
  0
MLINESTYLE
  5
1C
102
{ACAD_REACTORS
330
1B
102
}
330
1B
100
AcDbMlineStyle
  2
Standard
 70
     0
  3

 62
     0
 51
90.0
 52
90.0
 71
     2
 49
0.5
 62
   256
  6
BYLAYER
 49
-0.5
 62
   256
  6
BYLAYER
  0
ACDBPLACEHOLDER
  5
1D
102
{ACAD_REACTORS
330
1F
102
}
330
1F
  0
SCALE
  5
242
102
{ACAD_REACTORS
330
241
102
}
330
241
100
AcDbScale
 70
     0
300
1:1
140
1.0
141
1.0
290
     1
  0
SCALE
  5
243
102
{ACAD_REACTORS
330
241
102
}
330
241
100
AcDbScale
 70
     0
300
1:2
140
1.0
141
2.0
290
     0
  0
SCALE
  5
244
102
{ACAD_REACTORS
330
241
102
}
330
241
100
AcDbScale
 70
     0
300
1:4
140
1.0
141
4.0
290
     0
  0
SCALE
  5
245
102
{ACAD_REACTORS
330
241
102
}
330
241
100
AcDbScale
 70
     0
300
1:5
140
1.0
141
5.0
290
     0
  0
SCALE
  5
246
102
{ACAD_REACTORS
330
241
102
}
330
241
100
AcDbScale
 70
     0
300
1:8
140
1.0
141
8.0
290
     0
  0
SCALE
  5
247
102
{ACAD_REACTORS
330
241
102
}
330
241
100
AcDbScale
 70
     0
300
1:10
140
1.0
141
10.0
290
     0
  0
SCALE
  5
248
102
{ACAD_REACTORS
330
241
102
}
330
241
100
AcDbScale
 70
     0
300
1:16
140
1.0
141
16.0
290
     0
  0
SCALE
  5
249
102
{ACAD_REACTORS
330
241
102
}
330
241
100
AcDbScale
 70
     0
300
1:20
140
1.0
141
20.0
290
     0
  0
SCALE
  5
24A
102
{ACAD_REACTORS
330
241
102
}
330
241
100
AcDbScale
 70
     0
300
1:30
140
1.0
141
30.0
290
     0
  0
SCALE
  5
24B
102
{ACAD_REACTORS
330
241
102
}
330
241
100
AcDbScale
 70
     0
300
1:40
140
1.0
141
40.0
290
     0
  0
SCALE
  5
24C
102
{ACAD_REACTORS
330
241
102
}
330
241
100
AcDbScale
 70
     0
300
1:50
140
1.0
141
50.0
290
     0
  0
SCALE
  5
24D
102
{ACAD_REACTORS
330
241
102
}
330
241
100
AcDbScale
 70
     0
300
1:100
140
1.0
141
100.0
290
     0
  0
SCALE
  5
24E
102
{ACAD_REACTORS
330
241
102
}
330
241
100
AcDbScale
 70
     0
300
2:1
140
2.0
141
1.0
290
     0
  0
SCALE
  5
24F
102
{ACAD_REACTORS
330
241
102
}
330
241
100
AcDbScale
 70
     0
300
4:1
140
4.0
141
1.0
290
     0
  0
SCALE
  5
250
102
{ACAD_REACTORS
330
241
102
}
330
241
100
AcDbScale
 70
     0
300
8:1
140
8.0
141
1.0
290
     0
  0
SCALE
  5
251
102
{ACAD_REACTORS
330
241
102
}
330
241
100
AcDbScale
 70
     0
300
10:1
140
10.0
141
1.0
290
     0
  0
SCALE
  5
252
102
{ACAD_REACTORS
330
241
102
}
330
241
100
AcDbScale
 70
     0
300
100:1
140
100.0
141
1.0
290
     0
  0
SCALE
  5
253
102
{ACAD_REACTORS
330
241
102
}
330
241
100
AcDbScale
 70
     0
300
1/128" = 1'-0"
140
0.0078125
141
12.0
290
     0
  0
SCALE
  5
254
102
{ACAD_REACTORS
330
241
102
}
330
241
100
AcDbScale
 70
     0
300
1/64" = 1'-0"
140
0.015625
141
12.0
290
     0
  0
SCALE
  5
255
102
{ACAD_REACTORS
330
241
102
}
330
241
100
AcDbScale
 70
     0
300
1/32" = 1'-0"
140
0.03125
141
12.0
290
     0
  0
SCALE
  5
256
102
{ACAD_REACTORS
330
241
102
}
330
241
100
AcDbScale
 70
     0
300
1/16" = 1'-0"
140
0.0625
141
12.0
290
     0
  0
SCALE
  5
257
102
{ACAD_REACTORS
330
241
102
}
330
241
100
AcDbScale
 70
     0
300
3/32" = 1'-0"
140
0.09375
141
12.0
290
     0
  0
SCALE
  5
258
102
{ACAD_REACTORS
330
241
102
}
330
241
100
AcDbScale
 70
     0
300
1/8" = 1'-0"
140
0.125
141
12.0
290
     0
  0
SCALE
  5
259
102
{ACAD_REACTORS
330
241
102
}
330
241
100
AcDbScale
 70
     0
300
3/16" = 1'-0"
140
0.1875
141
12.0
290
     0
  0
SCALE
  5
25A
102
{ACAD_REACTORS
330
241
102
}
330
241
100
AcDbScale
 70
     0
300
1/4" = 1'-0"
140
0.25
141
12.0
290
     0
  0
SCALE
  5
25B
102
{ACAD_REACTORS
330
241
102
}
330
241
100
AcDbScale
 70
     0
300
3/8" = 1'-0"
140
0.375
141
12.0
290
     0
  0
SCALE
  5
25C
102
{ACAD_REACTORS
330
241
102
}
330
241
100
AcDbScale
 70
     0
300
1/2" = 1'-0"
140
0.5
141
12.0
290
     0
  0
SCALE
  5
25D
102
{ACAD_REACTORS
330
241
102
}
330
241
100
AcDbScale
 70
     0
300
3/4" = 1'-0"
140
0.75
141
12.0
290
     0
  0
SCALE
  5
25E
102
{ACAD_REACTORS
330
241
102
}
330
241
100
AcDbScale
 70
     0
300
1" = 1'-0"
140
1.0
141
12.0
290
     0
  0
SCALE
  5
25F
102
{ACAD_REACTORS
330
241
102
}
330
241
100
AcDbScale
 70
     0
300
1-1/2" = 1'-0"
140
1.5
141
12.0
290
     0
  0
SCALE
  5
260
102
{ACAD_REACTORS
330
241
102
}
330
241
100
AcDbScale
 70
     0
300
3" = 1'-0"
140
3.0
141
12.0
290
     0
  0
SCALE
  5
261
102
{ACAD_REACTORS
330
241
102
}
330
241
100
AcDbScale
 70
     0
300
6" = 1'-0"
140
6.0
141
12.0
290
     0
  0
SCALE
  5
262
102
{ACAD_REACTORS
330
241
102
}
330
241
100
AcDbScale
 70
     0
300
1'-0" = 1'-0"
140
12.0
141
12.0
290
     0
  0
TABLESTYLE
  5
279
102
{ACAD_REACTORS
330
278
102
}
102
{ACAD_XDICTIONARY
360
3384
102
}
330
278
100
AcDbTableStyle
  3
Standard
 70
     0
 71
     0
 40
0.06
 41
0.06
280
     0
281
     0
  7
Standard
140
4.5
170
     2
 62
     0
 63
   257
283
     0
 90
        4
 91
        0
  1

274
    -2
284
     1
 64
     0
275
    -2
285
     1
 65
     0
276
    -2
286
     1
 66
     0
277
    -2
287
     1
 67
     0
278
    -2
288
     1
 68
     0
279
    -2
289
     1
 69
     0
  7
Standard
140
6.0
170
     5
 62
     0
 63
   257
283
     0
 90
        4
 91
        0
  1

274
    -2
284
     1
 64
     0
275
    -2
285
     1
 65
     0
276
    -2
286
     1
 66
     0
277
    -2
287
     1
 67
     0
278
    -2
288
     1
 68
     0
279
    -2
289
     1
 69
     0
  7
Standard
140
4.5
170
     5
 62
     0
 63
   257
283
     0
 90
        4
 91
        0
  1

274
    -2
284
     1
 64
     0
275
    -2
285
     1
 65
     0
276
    -2
286
     1
 66
     0
277
    -2
287
     1
 67
     0
278
    -2
288
     1
 68
     0
279
    -2
289
     1
 69
     0
  0
VISUALSTYLE
  5
26C
102
{ACAD_REACTORS
330
267
102
}
330
267
100
AcDbVisualStyle
  2
2dWireframe
 70
     4
 71
     0
 72
     2
 73
     0
 90
        0
 40
-0.6
 41
-30.0
 62
     5
 63
     7
421
 16777215
 74
     1
 91
        4
 64
     7
 65
   257
 75
     1
175
     1
 42
1.0
 92
        0
 66
   257
 43
1.0
 76
     1
 77
     6
 78
     2
 67
     7
 79
     5
170
     0
171
     0
290
     0
174
     0
 93
        1
 44
0.0
173
     0
291
     0
 45
0.0
  0
VISUALSTYLE
  5
26E
102
{ACAD_REACTORS
330
267
102
}
330
267
100
AcDbVisualStyle
  2
3D Hidden
 70
     6
 71
     1
 72
     2
 73
     2
 90
        0
 40
-0.6
 41
-30.0
 62
     5
 63
     7
421
 16777215
 74
     2
 91
        2
 64
     7
 65
   257
 75
     2
175
     1
 42
40.0
 92
        0
 66
   257
 43
1.0
 76
     1
 77
     6
 78
     2
 67
     7
 79
     3
170
     0
171
     0
290
     0
174
     0
 93
        1
 44
0.0
173
     0
291
     0
 45
0.0
  0
VISUALSTYLE
  5
26D
102
{ACAD_REACTORS
330
267
102
}
330
267
100
AcDbVisualStyle
  2
3dWireframe
 70
     5
 71
     0
 72
     2
 73
     0
 90
        0
 40
-0.6
 41
-30.0
 62
     5
 63
     7
421
 16777215
 74
     1
 91
        4
 64
     7
 65
   257
 75
     1
175
     1
 42
1.0
 92
        0
 66
   257
 43
1.0
 76
     1
 77
     6
 78
     2
 67
     7
 79
     5
170
     0
171
     0
290
     0
174
     0
 93
        1
 44
0.0
173
     0
291
     0
 45
0.0
  0
VISUALSTYLE
  5
26F
102
{ACAD_REACTORS
330
267
102
}
330
267
100
AcDbVisualStyle
  2
Basic
 70
     7
 71
     1
 72
     0
 73
     1
 90
        0
 40
-0.6
 41
-30.0
 62
     5
 63
     7
421
 16777215
 74
     0
 91
        4
 64
     7
 65
   257
 75
     1
175
     1
 42
1.0
 92
        8
 66
     7
 43
1.0
 76
     1
 77
     6
 78
     2
 67
     7
 79
     5
170
     0
171
     0
290
     0
174
     0
 93
        1
 44
0.0
173
     0
291
     1
 45
0.0
  0
VISUALSTYLE
  5
273
102
{ACAD_REACTORS
330
267
102
}
330
267
100
AcDbVisualStyle
  2
Brighten
 70
    12
 71
     2
 72
     2
 73
     0
 90
        0
 40
-0.6
 41
-30.0
 62
     5
 63
     7
421
 16777215
 74
     1
 91
        4
 64
     7
 65
   257
 75
     1
175
     1
 42
1.0
 92
        8
 66
     7
 43
1.0
 76
     1
 77
     6
 78
     2
 67
     7
 79
     5
170
     0
171
     0
290
     0
174
     0
 93
        1
 44
50.0
173
     0
291
     1
 45
0.0
  0
VISUALSTYLE
  5
277
102
{ACAD_REACTORS
330
267
102
}
330
267
100
AcDbVisualStyle
  2
ColorChange
 70
    16
 71
     2
 72
     2
 73
     3
 90
        0
 40
-0.6
 41
-30.0
 62
     5
 63
     8
421
  8421504
 74
     1
 91
        4
 64
     7
 65
   257
 75
     1
175
     1
 42
1.0
 92
        8
 66
     8
424
  8421504
 43
1.0
 76
     1
 77
     6
 78
     2
 67
     7
 79
     5
170
     0
171
     0
290
     0
174
     0
 93
        1
 44
0.0
173
     0
291
     1
 45
0.0
  0
VISUALSTYLE
  5
271
102
{ACAD_REACTORS
330
267
102
}
330
267
100
AcDbVisualStyle
  2
Conceptual
 70
     9
 71
     3
 72
     2
 73
     0
 90
        0
 40
-0.6
 41
-30.0
 62
     5
 63
     7
421
 16777215
 74
     2
 91
        2
 64
     7
 65
   257
 75
     1
175
     1
 42
40.0
 92
        8
 66
     7
 43
1.0
 76
     1
 77
     6
 78
     2
 67
     7
 79
     3
170
     0
171
     0
290
     0
174
     0
 93
        1
 44
0.0
173
     0
291
     0
 45
0.0
  0
VISUALSTYLE
  5
272
102
{ACAD_REACTORS
330
267
102
}
330
267
100
AcDbVisualStyle
  2
Dim
 70
    11
 71
     2
 72
     2
 73
     0
 90
        0
 40
-0.6
 41
-30.0
 62
     5
 63
     7
421
 16777215
 74
     1
 91
        4
 64
     7
 65
   257
 75
     1
175
     1
 42
1.0
 92
        8
 66
     7
 43
1.0
 76
     1
 77
     6
 78
     2
 67
     7
 79
     5
170
     0
171
     0
290
     0
174
     0
 93
        1
 44
-50.0
173
     0
291
     1
 45
0.0
  0
VISUALSTYLE
  5
8FE
102
{ACAD_REACTORS
330
267
102
}
330
267
100
AcDbVisualStyle
  2
EdgeColorOff
 70
    22
 71
     2
 72
     2
 73
     0
 90
        0
 40
0.6
 41
30.0
 62
     5
 63
     7
421
 16777215
 74
     1
 91
        4
 64
     7
 65
   257
 75
     1
175
     1
 42
1.0
 92
        8
 66
     7
 43
1.0
 76
     1
 77
     6
 78
     2
 67
     7
 79
     5
170
     0
171
     0
290
     0
174
     0
 93
        1
 44
0.0
173
     0
291
     1
 45
0.0
  0
VISUALSTYLE
  5
276
102
{ACAD_REACTORS
330
267
102
}
330
267
100
AcDbVisualStyle
  2
Facepattern
 70
    15
 71
     2
 72
     2
 73
     0
 90
        0
 40
-0.6
 41
-30.0
 62
     5
 63
     7
421
 16777215
 74
     1
 91
        4
 64
     7
 65
   257
 75
     1
175
     1
 42
1.0
 92
        8
 66
     7
 43
1.0
 76
     1
 77
     6
 78
     2
 67
     7
 79
     5
170
     0
171
     0
290
     0
174
     0
 93
        1
 44
0.0
173
     0
291
     1
 45
0.0
  0
VISUALSTYLE
  5
268
102
{ACAD_REACTORS
330
267
102
}
330
267
100
AcDbVisualStyle
  2
Flat
 70
     0
 71
     2
 72
     1
 73
     1
 90
        2
 40
-0.6
 41
30.0
 62
     5
 63
     7
421
 16777215
 74
     0
 91
        4
 64
     7
 65
   257
 75
     1
175
     1
 42
1.0
 92
        8
 66
     7
 43
1.0
 76
     1
 77
     6
 78
     2
 67
     7
 79
     5
170
     0
171
     0
290
     0
174
     0
 93
       13
 44
0.0
173
     0
291
     1
 45
0.0
  0
VISUALSTYLE
  5
269
102
{ACAD_REACTORS
330
267
102
}
330
267
100
AcDbVisualStyle
  2
FlatWithEdges
 70
     1
 71
     2
 72
     1
 73
     1
 90
        2
 40
-0.6
 41
30.0
 62
     5
 63
     7
421
 16777215
 74
     1
 91
        4
 64
     7
 65
   257
 75
     1
175
     1
 42
1.0
 92
        0
 66
   257
 43
1.0
 76
     1
 77
     6
 78
     2
 67
     7
 79
     5
170
     0
171
     0
290
     0
174
     0
 93
       13
 44
0.0
173
     0
291
     1
 45
0.0
  0
VISUALSTYLE
  5
26A
102
{ACAD_REACTORS
330
267
102
}
330
267
100
AcDbVisualStyle
  2
Gouraud
 70
     2
 71
     2
 72
     2
 73
     1
 90
        2
 40
-0.6
 41
30.0
 62
     5
 63
     7
421
 16777215
 74
     0
 91
        4
 64
     7
 65
   257
 75
     1
175
     1
 42
1.0
 92
        0
 66
     7
 43
1.0
 76
     1
 77
     6
 78
     2
 67
     7
 79
     5
170
     0
171
     0
290
     0
174
     0
 93
       13
 44
0.0
173
     0
291
     1
 45
0.0
  0
VISUALSTYLE
  5
26B
102
{ACAD_REACTORS
330
267
102
}
330
267
100
AcDbVisualStyle
  2
GouraudWithEdges
 70
     3
 71
     2
 72
     2
 73
     1
 90
        2
 40
-0.6
 41
30.0
 62
     5
 63
     7
421
 16777215
 74
     1
 91
        4
 64
     7
 65
   257
 75
     1
175
     1
 42
1.0
 92
        0
 66
   257
 43
1.0
 76
     1
 77
     6
 78
     2
 67
     7
 79
     5
170
     0
171
     0
290
     0
174
     0
 93
       13
 44
0.0
173
     0
291
     1
 45
0.0
  0
VISUALSTYLE
  5
8FB
102
{ACAD_REACTORS
330
267
102
}
330
267
100
AcDbVisualStyle
  2
Hidden
 70
     6
 71
     1
 72
     2
 73
     2
 90
        0
 40
0.6
 41
30.0
 62
     5
 63
     7
421
 16777215
 74
     2
 91
        2
 64
     7
 65
   257
 75
     2
175
     1
 42
40.0
 92
        0
 66
   257
 43
1.0
 76
     1
 77
     6
 78
     2
 67
     7
 79
     3
170
     0
171
     0
290
     0
174
     0
 93
        1
 44
0.0
173
     0
291
     0
 45
0.0
  0
VISUALSTYLE
  5
8FC
102
{ACAD_REACTORS
330
267
102
}
330
267
100
AcDbVisualStyle
  2
JitterOff
 70
    20
 71
     2
 72
     2
 73
     0
 90
        0
 40
0.6
 41
30.0
 62
     5
 63
     7
421
 16777215
 74
     1
 91
        4
 64
     7
 65
   257
 75
     1
175
     1
 42
1.0
 92
       10
 66
     7
 43
1.0
 76
     1
 77
     6
 78
     2
 67
     7
 79
     5
170
     0
171
     0
290
     0
174
     0
 93
        1
 44
0.0
173
     0
291
     1
 45
0.0
  0
VISUALSTYLE
  5
275
102
{ACAD_REACTORS
330
267
102
}
330
267
100
AcDbVisualStyle
  2
Linepattern
 70
    14
 71
     2
 72
     2
 73
     0
 90
        0
 40
-0.6
 41
-30.0
 62
     5
 63
     7
421
 16777215
 74
     1
 91
        4
 64
     7
 65
   257
 75
     7
175
     7
 42
1.0
 92
        8
 66
     7
 43
1.0
 76
     1
 77
     6
 78
     2
 67
     7
 79
     5
170
     0
171
     0
290
     0
174
     0
 93
        1
 44
0.0
173
     0
291
     1
 45
0.0
  0
VISUALSTYLE
  5
8FD
102
{ACAD_REACTORS
330
267
102
}
330
267
100
AcDbVisualStyle
  2
OverhangOff
 70
    21
 71
     2
 72
     2
 73
     0
 90
        0
 40
0.6
 41
30.0
 62
     5
 63
     7
421
 16777215
 74
     1
 91
        4
 64
     7
 65
   257
 75
     1
175
     1
 42
1.0
 92
        9
 66
     7
 43
1.0
 76
     1
 77
     6
 78
     2
 67
     7
 79
     5
170
     0
171
     0
290
     0
174
     0
 93
        1
 44
0.0
173
     0
291
     1
 45
0.0
  0
VISUALSTYLE
  5
270
102
{ACAD_REACTORS
330
267
102
}
330
267
100
AcDbVisualStyle
  2
Realistic
 70
     8
 71
     2
 72
     2
 73
     0
 90
        0
 40
-0.6
 41
-30.0
 62
     5
 63
     7
421
 16777215
 74
     1
 91
        0
 64
     7
 65
   257
 75
     1
175
     1
 42
1.0
 92
        8
 66
     8
424
  7895160
 43
1.0
 76
     1
 77
     6
 78
     2
 67
     7
 79
     5
170
     0
171
     0
290
     0
174
     0
 93
       13
 44
0.0
173
     0
291
     0
 45
0.0
  0
VISUALSTYLE
  5
903
102
{ACAD_REACTORS
330
267
102
}
330
267
100
AcDbVisualStyle
  2
Shaded
 70
    27
 71
     2
 72
     2
 73
     1
 90
        2
 40
0.6
 41
30.0
 62
     5
 63
     7
421
 16777215
 74
     0
 91
        4
 64
     7
 65
   257
 75
     1
175
     1
 42
1.0
 92
        8
 66
   257
 43
1.0
 76
     1
 77
     6
 78
     2
 67
     8
425
  7895160
 79
     3
170
     0
171
     0
290
     0
174
     0
 93
        5
 44
0.0
173
     0
291
     0
 45
0.0
  0
VISUALSTYLE
  5
902
102
{ACAD_REACTORS
330
267
102
}
330
267
100
AcDbVisualStyle
  2
Shaded with edges
 70
    26
 71
     2
 72
     2
 73
     1
 90
        2
 40
0.6
 41
30.0
 62
     5
 63
     7
421
 16777215
 74
     1
 91
       10
 64
     7
 65
   257
 75
     2
175
     1
 42
1.0
 92
        8
 66
   257
 43
1.0
 76
     1
 77
     6
 78
     2
 67
     7
 79
     3
170
     0
171
     0
290
     0
174
     0
 93
        5
 44
0.0
173
     0
291
     0
 45
0.0
  0
VISUALSTYLE
  5
8FF
102
{ACAD_REACTORS
330
267
102
}
330
267
100
AcDbVisualStyle
  2
Shades of Gray
 70
    23
 71
     2
 72
     2
 73
     3
 90
        0
 40
0.6
 41
30.0
 62
     5
 63
     7
421
 16777215
 74
     2
 91
        2
 64
     7
 65
     7
 75
     1
175
     1
 42
40.0
 92
        8
 66
     7
 43
1.0
 76
     1
 77
     6
 78
     2
 67
     7
 79
     3
170
     0
171
     0
290
     0
174
     0
 93
        1
 44
0.0
173
     0
291
     0
 45
0.0
  0
VISUALSTYLE
  5
900
102
{ACAD_REACTORS
330
267
102
}
330
267
100
AcDbVisualStyle
  2
Sketchy
 70
    24
 71
     1
 72
     2
 73
     2
 90
        0
 40
0.6
 41
30.0
 62
     5
 63
     7
421
 16777215
 74
     2
 91
        2
 64
     7
 65
     7
 75
     1
175
     1
 42
40.0
 92
       11
 66
     7
 43
1.0
 76
     1
 77
     6
 78
     2
 67
     7
 79
     6
170
     0
171
     0
290
     0
174
     0
 93
        1
 44
0.0
173
     0
291
     0
 45
0.0
  0
VISUALSTYLE
  5
274
102
{ACAD_REACTORS
330
267
102
}
330
267
100
AcDbVisualStyle
  2
Thicken
 70
    13
 71
     2
 72
     2
 73
     0
 90
        0
 40
-0.6
 41
-30.0
 62
     5
 63
     7
421
 16777215
 74
     1
 91
        4
 64
     7
 65
   257
 75
     1
175
     1
 42
1.0
 92
       12
 66
     7
 43
1.0
 76
     1
 77
     6
 78
     2
 67
     7
 79
     5
170
     0
171
     0
290
     0
174
     0
 93
        1
 44
0.0
173
     0
291
     1
 45
0.0
  0
VISUALSTYLE
  5
8FA
102
{ACAD_REACTORS
330
267
102
}
330
267
100
AcDbVisualStyle
  2
Wireframe
 70
     5
 71
     0
 72
     2
 73
     0
 90
        0
 40
0.6
 41
30.0
 62
     5
 63
     7
421
 16777215
 74
     1
 91
        4
 64
     7
 65
   257
 75
     1
175
     1
 42
1.0
 92
        0
 66
   257
 43
1.0
 76
     1
 77
     6
 78
     2
 67
     7
 79
     3
170
     0
171
     0
290
     0
174
     0
 93
        1
 44
0.0
173
     0
291
     0
 45
0.0
  0
VISUALSTYLE
  5
901
102
{ACAD_REACTORS
330
267
102
}
330
267
100
AcDbVisualStyle
  2
X-Ray
 70
    25
 71
     2
 72
     2
 73
     1
 90
        1
 40
0.5
 41
30.0
 62
     5
 63
     7
421
 16777215
 74
     1
 91
        0
 64
     7
 65
   257
 75
     1
175
     1
 42
1.0
 92
        8
 66
     7
 43
1.0
 76
     1
 77
     6
 78
     2
 67
     7
 79
     3
170
     0
171
     0
290
     0
174
     0
 93
       13
 44
0.0
173
     0
291
     0
 45
0.0
  0
DICTIONARYVAR
  5
331
102
{ACAD_REACTORS
330
330
102
}
330
330
100
DictionaryVariables
280
     0
  1
1:1
  0
DICTIONARYVAR
  5
D5E
102
{ACAD_REACTORS
330
330
102
}
330
330
100
DictionaryVariables
280
     0
  1
Standard
  0
DICTIONARYVAR
  5
335
102
{ACAD_REACTORS
330
330
102
}
330
330
100
DictionaryVariables
280
     0
  1
Standard
  0
DICTIONARYVAR
  5
D52
102
{ACAD_REACTORS
330
330
102
}
330
330
100
DictionaryVariables
280
     0
  1
ByLayer
  0
DICTIONARYVAR
  5
896
102
{ACAD_REACTORS
330
330
102
}
330
330
100
DictionaryVariables
280
     0
  1
0
  0
DICTIONARYVAR
  5
1614
102
{ACAD_REACTORS
330
E38
102
}
330
E38
100
DictionaryVariables
280
     0
  1
0.261799
  0
DICTIONARYVAR
  5
1612
102
{ACAD_REACTORS
330
E38
102
}
330
E38
100
DictionaryVariables
280
     0
  1
0.400000
  0
DICTIONARYVAR
  5
1613
102
{ACAD_REACTORS
330
E38
102
}
330
E38
100
DictionaryVariables
280
     0
  1
0.250000
  0
DICTIONARYVAR
  5
1615
102
{ACAD_REACTORS
330
E38
102
}
330
E38
100
DictionaryVariables
280
     0
  1
1
  0
FIELD
  5
16F3
102
{ACAD_REACTORS
330
24A7
330
3357
330
3380
102
}
330
3380
100
AcDbField
  1
_text
  2
{%<\_FldIdx 0>%N}
 90
        1
360
16F4
 97
        0
 91
       63
 92
        0
 94
       11
 95
        2
 96
        0
300

 93
        1
  6
ACFD_FIELDTEXT_CHECKSUM
 93
        2
 90
        2
140
4528.0
 94
        0
300

302

304
ACVALUE_END
  7
ACFD_FIELD_VALUE
 93
        6
 90
        4
  1
{20191108N}
 94
        0
300

302

304
ACVALUE_END
301
{20191108N}
 98
       11
  0
DICTIONARY
  5
3384
330
279
100
AcDbDictionary
280
     1
281
     1
  3
ACAD_ROUNDTRIP_2008_TABLESTYLE_CELLSTYLEMAP
360
3385
  0
FIELD
  5
16F4
330
16F3
100
AcDbField
  1
AcVar
  2
\AcVar Date \f "yyyyMMdd"
 90
        0
 97
        0
 91
       63
 92
        0
 94
        8
 95
       64
 96
        0
300
Variable not supported
 93
        1
  6
Variable
 93
        2
 90
        4
  1
Date
 94
        0
300

302

304
ACVALUE_END
  7
ACFD_FIELD_VALUE
 93
        6
 90
        8
 92
       16
310
E3070B00000007000F002D0007000000
 94
        0
300
yyyyMMdd
302

304
ACVALUE_END
301
20191108
 98
        8
  0
CELLSTYLEMAP
  5
3385
102
{ACAD_REACTORS
330
3384
102
}
330
3384
100
AcDbCellStyleMap
 90
        3
300
CELLSTYLE
  1
TABLEFORMAT_BEGIN
 90
        5
170
     1
 91
        0
 92
    32768
 62
   257
 93
        1
300
CONTENTFORMAT
  1
CONTENTFORMAT_BEGIN
 90
        0
 91
        0
 92
        4
 93
        0
300

 40
0.0
140
1.0
 94
        5
 62
     0
340
17
144
6.0
309
CONTENTFORMAT_END
171
     1
301
MARGIN
  1
CELLMARGIN_BEGIN
 40
0.06
 40
0.06
 40
0.06
 40
0.06
 40
0.18
 40
0.18
309
CELLMARGIN_END
 94
        6
 95
        1
302
GRIDFORMAT
  1
GRIDFORMAT_BEGIN
 90
        0
 91
        1
 62
     0
 92
       -2
340
0
 93
        0
 40
0.045
309
GRIDFORMAT_END
 95
        2
302
GRIDFORMAT
  1
GRIDFORMAT_BEGIN
 90
        0
 91
        1
 62
     0
 92
       -2
340
0
 93
        0
 40
0.045
309
GRIDFORMAT_END
 95
        4
302
GRIDFORMAT
  1
GRIDFORMAT_BEGIN
 90
        0
 91
        1
 62
     0
 92
       -2
340
0
 93
        0
 40
0.045
309
GRIDFORMAT_END
 95
        8
302
GRIDFORMAT
  1
GRIDFORMAT_BEGIN
 90
        0
 91
        1
 62
     0
 92
       -2
340
0
 93
        0
 40
0.045
309
GRIDFORMAT_END
 95
       16
302
GRIDFORMAT
  1
GRIDFORMAT_BEGIN
 90
        0
 91
        1
 62
     0
 92
       -2
340
0
 93
        0
 40
0.045
309
GRIDFORMAT_END
 95
       32
302
GRIDFORMAT
  1
GRIDFORMAT_BEGIN
 90
        0
 91
        1
 62
     0
 92
       -2
340
0
 93
        0
 40
0.045
309
GRIDFORMAT_END
309
TABLEFORMAT_END
  1
CELLSTYLE_BEGIN
 90
        1
 91
        1
300
_TITLE
309
CELLSTYLE_END
300
CELLSTYLE
  1
TABLEFORMAT_BEGIN
 90
        5
170
     1
 91
        0
 92
        0
 62
   257
 93
        1
300
CONTENTFORMAT
  1
CONTENTFORMAT_BEGIN
 90
        0
 91
        0
 92
        4
 93
        0
300

 40
0.0
140
1.0
 94
        5
 62
     0
340
17
144
4.5
309
CONTENTFORMAT_END
171
     1
301
MARGIN
  1
CELLMARGIN_BEGIN
 40
0.06
 40
0.06
 40
0.06
 40
0.06
 40
0.18
 40
0.18
309
CELLMARGIN_END
 94
        6
 95
        1
302
GRIDFORMAT
  1
GRIDFORMAT_BEGIN
 90
        0
 91
        1
 62
     0
 92
       -2
340
0
 93
        0
 40
0.045
309
GRIDFORMAT_END
 95
        2
302
GRIDFORMAT
  1
GRIDFORMAT_BEGIN
 90
        0
 91
        1
 62
     0
 92
       -2
340
0
 93
        0
 40
0.045
309
GRIDFORMAT_END
 95
        4
302
GRIDFORMAT
  1
GRIDFORMAT_BEGIN
 90
        0
 91
        1
 62
     0
 92
       -2
340
0
 93
        0
 40
0.045
309
GRIDFORMAT_END
 95
        8
302
GRIDFORMAT
  1
GRIDFORMAT_BEGIN
 90
        0
 91
        1
 62
     0
 92
       -2
340
0
 93
        0
 40
0.045
309
GRIDFORMAT_END
 95
       16
302
GRIDFORMAT
  1
GRIDFORMAT_BEGIN
 90
        0
 91
        1
 62
     0
 92
       -2
340
0
 93
        0
 40
0.045
309
GRIDFORMAT_END
 95
       32
302
GRIDFORMAT
  1
GRIDFORMAT_BEGIN
 90
        0
 91
        1
 62
     0
 92
       -2
340
0
 93
        0
 40
0.045
309
GRIDFORMAT_END
309
TABLEFORMAT_END
  1
CELLSTYLE_BEGIN
 90
        2
 91
        1
300
_HEADER
309
CELLSTYLE_END
300
CELLSTYLE
  1
TABLEFORMAT_BEGIN
 90
        5
170
     1
 91
        0
 92
        0
 62
   257
 93
        1
300
CONTENTFORMAT
  1
CONTENTFORMAT_BEGIN
 90
        0
 91
        0
 92
        4
 93
        0
300

 40
0.0
140
1.0
 94
        2
 62
     0
340
17
144
4.5
309
CONTENTFORMAT_END
171
     1
301
MARGIN
  1
CELLMARGIN_BEGIN
 40
0.06
 40
0.06
 40
0.06
 40
0.06
 40
0.18
 40
0.18
309
CELLMARGIN_END
 94
        6
 95
        1
302
GRIDFORMAT
  1
GRIDFORMAT_BEGIN
 90
        0
 91
        1
 62
     0
 92
       -2
340
0
 93
        0
 40
0.045
309
GRIDFORMAT_END
 95
        2
302
GRIDFORMAT
  1
GRIDFORMAT_BEGIN
 90
        0
 91
        1
 62
     0
 92
       -2
340
0
 93
        0
 40
0.045
309
GRIDFORMAT_END
 95
        4
302
GRIDFORMAT
  1
GRIDFORMAT_BEGIN
 90
        0
 91
        1
 62
     0
 92
       -2
340
0
 93
        0
 40
0.045
309
GRIDFORMAT_END
 95
        8
302
GRIDFORMAT
  1
GRIDFORMAT_BEGIN
 90
        0
 91
        1
 62
     0
 92
       -2
340
0
 93
        0
 40
0.045
309
GRIDFORMAT_END
 95
       16
302
GRIDFORMAT
  1
GRIDFORMAT_BEGIN
 90
        0
 91
        1
 62
     0
 92
       -2
340
0
 93
        0
 40
0.045
309
GRIDFORMAT_END
 95
       32
302
GRIDFORMAT
  1
GRIDFORMAT_BEGIN
 90
        0
 91
        1
 62
     0
 92
       -2
340
0
 93
        0
 40
0.045
309
GRIDFORMAT_END
309
TABLEFORMAT_END
  1
CELLSTYLE_BEGIN
 90
        3
 91
        2
300
_DATA
309
CELLSTYLE_END
  0
ENDSEC
  0
EOF
