  0
SECTION
  2
HEADER
  9
$ACADVER
  1
AC1032
  9
$ACADMAINTVER
 90
      228
  9
$DWGCODEPAGE
  3
ANSI_932
  9
$LASTSAVEDBY
  1
T-HOWE-PC
  9
$REQUIREDVERSIONS
160
                 0
  9
$INSBASE
 10
0.0
 20
0.0
 30
0.0
  9
$EXTMIN
 10
0.0
 20
0.0
 30
0.0
  9
$EXTMAX
 10
630.0
 20
891.0
 30
0.0
  9
$LIMMIN
 10
0.0
 20
0.0
  9
$LIMMAX
 10
630.0
 20
891.0
  9
$ORTHOMODE
 70
     1
  9
$REGENMODE
 70
     1
  9
$FILLMODE
 70
     1
  9
$QTEXTMODE
 70
     0
  9
$MIRRTEXT
 70
     1
  9
$LTSCALE
 40
1.5
  9
$ATTMODE
 70
     1
  9
$TEXTSIZE
 40
2.5
  9
$TRACEWID
 40
1.0
  9
$TEXTSTYLE
  7
ＭＳ ゴシック
  9
$CLAYER
  8
MODEL
  9
$CELTYPE
  6
ByLayer
  9
$CECOLOR
 62
   256
  9
$CELTSCALE
 40
1.0
  9
$DISPSILH
 70
     0
  9
$DIMSCALE
 40
1.0
  9
$DIMASZ
 40
3.0
  9
$DIMEXO
 40
10.0
  9
$DIMDLI
 40
1.0
  9
$DIMRND
 40
0.0
  9
$DIMDLE
 40
0.0
  9
$DIMEXE
 40
0.0
  9
$DIMTP
 40
0.0
  9
$DIMTM
 40
0.0
  9
$DIMTXT
 40
8.0
  9
$DIMCEN
 40
0.0
  9
$DIMTSZ
 40
0.0
  9
$DIMTOL
 70
     0
  9
$DIMLIM
 70
     0
  9
$DIMTIH
 70
     0
  9
$DIMTOH
 70
     0
  9
$DIMSE1
 70
     0
  9
$DIMSE2
 70
     0
  9
$DIMTAD
 70
     1
  9
$DIMZIN
 70
    11
  9
$DIMBLK
  1
DOT
  9
$DIMASO
 70
     1
  9
$DIMSHO
 70
     1
  9
$DIMPOST
  1
<>
  9
$DIMAPOST
  1
[]
  9
$DIMALT
 70
     0
  9
$DIMALTD
 70
     1
  9
$DIMALTF
 40
1.0
  9
$DIMLFAC
 40
1.0
  9
$DIMTOFL
 70
     0
  9
$DIMTVP
 40
0.0
  9
$DIMTIX
 70
     1
  9
$DIMSOXD
 70
     0
  9
$DIMSAH
 70
     0
  9
$DIMBLK1
  1

  9
$DIMBLK2
  1

  9
$DIMSTYLE
  2
tfrom線あり
  9
$DIMCLRD
 70
     0
  9
$DIMCLRE
 70
     0
  9
$DIMCLRT
 70
     0
  9
$DIMTFAC
 40
1.0
  9
$DIMGAP
 40
6.0
  9
$DIMJUST
 70
     0
  9
$DIMSD1
 70
     0
  9
$DIMSD2
 70
     0
  9
$DIMTOLJ
 70
     1
  9
$DIMTZIN
 70
    11
  9
$DIMALTZ
 70
    11
  9
$DIMALTTZ
 70
    11
  9
$DIMUPT
 70
     0
  9
$DIMDEC
 70
     0
  9
$DIMTDEC
 70
     1
  9
$DIMALTU
 70
     2
  9
$DIMALTTD
 70
     2
  9
$DIMTXSTY
  7
ＭＳ ゴシック
  9
$DIMAUNIT
 70
     0
  9
$DIMADEC
 70
     2
  9
$DIMALTRND
 40
0.0
  9
$DIMAZIN
 70
     0
  9
$DIMDSEP
 70
    46
  9
$DIMATFIT
 70
     0
  9
$DIMFRAC
 70
     2
  9
$DIMLDRBLK
  1
DOT
  9
$DIMLUNIT
 70
     2
  9
$DIMLWD
 70
    -2
  9
$DIMLWE
 70
    -2
  9
$DIMTMOVE
 70
     0
  9
$DIMFXL
 40
1.0
  9
$DIMFXLON
 70
     0
  9
$DIMJOGANG
 40
0.7853981633974483
  9
$DIMTFILL
 70
     0
  9
$DIMTFILLCLR
 70
     0
  9
$DIMARCSYM
 70
     0
  9
$DIMLTYPE
  6

  9
$DIMLTEX1
  6

  9
$DIMLTEX2
  6

  9
$DIMTXTDIRECTION
 70
     0
  9
$LUNITS
 70
     2
  9
$LUPREC
 70
     0
  9
$SKETCHINC
 40
0.1
  9
$FILLETRAD
 40
0.0
  9
$AUNITS
 70
     0
  9
$AUPREC
 70
     0
  9
$MENU
  1
acad
  9
$ELEVATION
 40
0.0
  9
$PELEVATION
 40
0.0
  9
$THICKNESS
 40
0.0
  9
$LIMCHECK
 70
     0
  9
$CHAMFERA
 40
0.0
  9
$CHAMFERB
 40
0.0
  9
$CHAMFERC
 40
0.0
  9
$CHAMFERD
 40
0.0
  9
$SKPOLY
 70
     0
  9
$TDCREATE
 40
2460214.619155093
  9
$TDUCREATE
 40
2460214.244155093
  9
$TDUPDATE
 40
2460216.440601852
  9
$TDUUPDATE
 40
2460216.065601852
  9
$TDINDWG
 40
1.9983335301
  9
$TDUSRTIMER
 40
1.8215279745
  9
$USRTIMER
 70
     1
  9
$ANGBASE
 50
0.0
  9
$ANGDIR
 70
     0
  9
$PDMODE
 70
     1
  9
$PDSIZE
 40
-2.0
  9
$PLINEWID
 40
0.0
  9
$SPLFRAME
 70
     0
  9
$SPLINETYPE
 70
     6
  9
$SPLINESEGS
 70
     8
  9
$HANDSEED
  5
17C12
  9
$SURFTAB1
 70
     6
  9
$SURFTAB2
 70
     6
  9
$SURFTYPE
 70
     6
  9
$SURFU
 70
     6
  9
$SURFV
 70
     6
  9
$UCSBASE
  2

  9
$UCSNAME
  2

  9
$UCSORG
 10
0.0
 20
0.0
 30
0.0
  9
$UCSXDIR
 10
1.0
 20
0.0
 30
0.0
  9
$UCSYDIR
 10
0.0
 20
1.0
 30
0.0
  9
$UCSORTHOREF
  2

  9
$UCSORTHOVIEW
 70
     0
  9
$UCSORGTOP
 10
0.0
 20
0.0
 30
0.0
  9
$UCSORGBOTTOM
 10
0.0
 20
0.0
 30
0.0
  9
$UCSORGLEFT
 10
0.0
 20
0.0
 30
0.0
  9
$UCSORGRIGHT
 10
0.0
 20
0.0
 30
0.0
  9
$UCSORGFRONT
 10
0.0
 20
0.0
 30
0.0
  9
$UCSORGBACK
 10
0.0
 20
0.0
 30
0.0
  9
$PUCSBASE
  2

  9
$PUCSNAME
  2

  9
$PUCSORG
 10
0.0
 20
0.0
 30
0.0
  9
$PUCSXDIR
 10
1.0
 20
0.0
 30
0.0
  9
$PUCSYDIR
 10
0.0
 20
1.0
 30
0.0
  9
$PUCSORTHOREF
  2

  9
$PUCSORTHOVIEW
 70
     0
  9
$PUCSORGTOP
 10
0.0
 20
0.0
 30
0.0
  9
$PUCSORGBOTTOM
 10
0.0
 20
0.0
 30
0.0
  9
$PUCSORGLEFT
 10
0.0
 20
0.0
 30
0.0
  9
$PUCSORGRIGHT
 10
0.0
 20
0.0
 30
0.0
  9
$PUCSORGFRONT
 10
0.0
 20
0.0
 30
0.0
  9
$PUCSORGBACK
 10
0.0
 20
0.0
 30
0.0
  9
$USERI1
 70
     0
  9
$USERI2
 70
     0
  9
$USERI3
 70
     0
  9
$USERI4
 70
     0
  9
$USERI5
 70
     0
  9
$USERR1
 40
0.0
  9
$USERR2
 40
0.0
  9
$USERR3
 40
0.0
  9
$USERR4
 40
0.0
  9
$USERR5
 40
0.0
  9
$WORLDVIEW
 70
     1
  9
$SHADEDGE
 70
     3
  9
$SHADEDIF
 70
    70
  9
$TILEMODE
 70
     1
  9
$MAXACTVP
 70
    64
  9
$PINSBASE
 10
0.0
 20
0.0
 30
0.0
  9
$PLIMCHECK
 70
     0
  9
$PEXTMIN
 10
0.0
 20
0.0
 30
0.0
  9
$PEXTMAX
 10
0.0
 20
0.0
 30
0.0
  9
$PLIMMIN
 10
-7.5
 20
-20.0
  9
$PLIMMAX
 10
412.5
 20
277.0
  9
$UNITMODE
 70
     0
  9
$VISRETAIN
 70
     0
  9
$PLINEGEN
 70
     1
  9
$PSLTSCALE
 70
     0
  9
$TREEDEPTH
 70
  3020
  9
$CMLSTYLE
  2
Standard
  9
$CMLJUST
 70
     0
  9
$CMLSCALE
 40
1.0
  9
$PROXYGRAPHICS
 70
     0
  9
$MEASUREMENT
 70
     1
  9
$CELWEIGHT
370
    -1
  9
$ENDCAPS
280
     0
  9
$JOINSTYLE
280
     0
  9
$LWDISPLAY
290
     1
  9
$INSUNITS
 70
     4
  9
$HYPERLINKBASE
  1

  9
$STYLESHEET
  1
monochrome.ctb
  9
$XEDIT
290
     1
  9
$CEPSNTYPE
380
     0
  9
$PSTYLEMODE
290
     1
  9
$FINGERPRINTGUID
  2

  9
$VERSIONGUID
  2
{83367A5D-6920-DF41-97B6-0771813A8CA0}
  9
$EXTNAMES
290
     1
  9
$PSVPSCALE
 40
0.0
  9
$OLESTARTUP
290
     0
  9
$SORTENTS
280
   127
  9
$INDEXCTL
280
     0
  9
$HIDETEXT
280
     1
  9
$XCLIPFRAME
280
     0
  9
$HALOGAP
280
     0
  9
$OBSCOLOR
 70
   257
  9
$OBSLTYPE
280
     0
  9
$INTERSECTIONDISPLAY
280
     0
  9
$INTERSECTIONCOLOR
 70
   257
  9
$DIMASSOC
280
     2
  9
$PROJECTNAME
  1

  9
$CAMERADISPLAY
290
     0
  9
$LENSLENGTH
 40
50.0
  9
$CAMERAHEIGHT
 40
0.0
  9
$STEPSPERSEC
 40
2.0
  9
$STEPSIZE
 40
6.0
  9
$3DDWFPREC
 40
2.0
  9
$PSOLWIDTH
 40
0.25
  9
$PSOLHEIGHT
 40
4.0
  9
$LOFTANG1
 40
1.570796326794897
  9
$LOFTANG2
 40
1.570796326794897
  9
$LOFTMAG1
 40
0.0
  9
$LOFTMAG2
 40
0.0
  9
$LOFTPARAM
 70
     7
  9
$LOFTNORMALS
280
     1
  9
$LATITUDE
 40
37.795
  9
$LONGITUDE
 40
-122.394
  9
$NORTHDIRECTION
 40
0.0
  9
$TIMEZONE
 70
 -8000
  9
$LIGHTGLYPHDISPLAY
280
     1
  9
$TILEMODELIGHTSYNCH
280
     1
  9
$CMATERIAL
347
264
  9
$SOLIDHIST
280
     1
  9
$SHOWHIST
280
     1
  9
$DWFFRAME
280
     2
  9
$DGNFRAME
280
     2
  9
$REALWORLDSCALE
290
     1
  9
$INTERFERECOLOR
 62
   256
  9
$INTERFEREOBJVS
345
270
  9
$INTERFEREVPVS
346
8FA
  9
$CSHADOW
280
     0
  9
$SHADOWPLANELOCATION
 40
0.0
  0
ENDSEC
  0
SECTION
  2
CLASSES
  0
CLASS
  1
IMAGE
  2
AcDbRasterImage
  3
ISM
 90
     2175
 91
        0
280
     0
281
     1
  0
CLASS
  1
DICTIONARYVAR
  2
AcDbDictionaryVar
  3
ObjectDBX Classes
 90
        0
 91
       16
280
     0
281
     0
  0
CLASS
  1
RASTERVARIABLES
  2
AcDbRasterVariables
  3
ISM
 90
        0
 91
        1
280
     0
281
     0
  0
CLASS
  1
IMAGEDEF
  2
AcDbRasterImageDef
  3
ISM
 90
        0
 91
        0
280
     0
281
     0
  0
CLASS
  1
IMAGEDEF_REACTOR
  2
AcDbRasterImageDefReactor
  3
ISM
 90
        1
 91
        0
280
     0
281
     0
  0
CLASS
  1
IDBUFFER
  2
AcDbIdBuffer
  3
ObjectDBX Classes
 90
        0
 91
        0
280
     0
281
     0
  0
CLASS
  1
SPATIAL_FILTER
  2
AcDbSpatialFilter
  3
ObjectDBX Classes
 90
        0
 91
        0
280
     0
281
     0
  0
CLASS
  1
SORTENTSTABLE
  2
AcDbSortentsTable
  3
ObjectDBX Classes
 90
        0
 91
        1
280
     0
281
     0
  0
CLASS
  1
LAYER_INDEX
  2
AcDbLayerIndex
  3
ObjectDBX Classes
 90
        0
 91
        0
280
     0
281
     0
  0
CLASS
  1
SPATIAL_INDEX
  2
AcDbSpatialIndex
  3
ObjectDBX Classes
 90
        0
 91
        0
280
     0
281
     0
  0
CLASS
  1
OBJECT_PTR
  2
CAseDLPNTableRecord
  3
ASE-LPNTableRecord
 90
        1
 91
        0
280
     0
281
     0
  0
CLASS
  1
PLOTSETTINGS
  2
AcDbPlotSettings
  3
ObjectDBX Classes
 90
        0
 91
        0
280
     0
281
     0
  0
CLASS
  1
ACDBDICTIONARYWDFLT
  2
AcDbDictionaryWithDefault
  3
ObjectDBX Classes
 90
        0
 91
        1
280
     0
281
     0
  0
CLASS
  1
SCALE
  2
AcDbScale
  3
ObjectDBX Classes
 90
     1153
 91
       33
280
     0
281
     0
  0
CLASS
  1
MATERIAL
  2
AcDbMaterial
  3
ObjectDBX Classes
 90
     1153
 91
        3
280
     0
281
     0
  0
CLASS
  1
VISUALSTYLE
  2
AcDbVisualStyle
  3
ObjectDBX Classes
 90
     4095
 91
       27
280
     0
281
     0
  0
CLASS
  1
TABLESTYLE
  2
AcDbTableStyle
  3
ObjectDBX Classes
 90
     4095
 91
        1
280
     0
281
     0
  0
CLASS
  1
DIMASSOC
  2
AcDbDimAssoc
  3
"AcDbDimAssoc|Product Desc:     AcDim ARX App For Dimension|Company:          Autodesk, Inc.|WEB Address:      www.autodesk.com"
 90
        0
 91
        7
280
     0
281
     0
  0
CLASS
  1
CELLSTYLEMAP
  2
AcDbCellStyleMap
  3
ObjectDBX Classes
 90
     1152
 91
        3
280
     0
281
     0
  0
CLASS
  1
SUN
  2
AcDbSun
  3
SCENEOE
 90
     1153
 91
        1
280
     0
281
     0
  0
CLASS
  1
MLEADERSTYLE
  2
AcDbMLeaderStyle
  3
ACDB_MLEADERSTYLE_CLASS
 90
     4095
 91
        1
280
     0
281
     0
  0
CLASS
  1
FIELD
  2
AcDbField
  3
ObjectDBX Classes
 90
     1152
 91
        2
280
     0
281
     0
  0
CLASS
  1
FIELDLIST
  2
AcDbFieldList
  3
ObjectDBX Classes
 90
     1152
 91
        1
280
     0
281
     0
  0
CLASS
  1
ACDBSECTIONVIEWSTYLE
  2
AcDbSectionViewStyle
  3
ObjectDBX Classes
 90
     1025
 91
        1
280
     0
281
     0
  0
CLASS
  1
ACDBDETAILVIEWSTYLE
  2
AcDbDetailViewStyle
  3
ObjectDBX Classes
 90
     1025
 91
        1
280
     0
281
     0
  0
CLASS
  1
SOLID_BACKGROUND
  2
AcDbSolidBackground
  3
SCENEOE
 90
     4095
 91
        1
280
     0
281
     0
  0
CLASS
  1
NPOCOLLECTION
  2
AcDbImpNonPersistentObjectsCollection
  3
ObjectDBX Classes
 90
     1153
 91
        1
280
     0
281
     0
  0
CLASS
  1
RAPIDRTRENDERSETTINGS
  2
AcDbRapidRTRenderSettings
  3
ObjectDBX Classes
 90
     1024
 91
        6
280
     0
281
     0
  0
ENDSEC
  0
SECTION
  2
TABLES
  0
TABLE
  2
VPORT
  5
7
330
0
100
AcDbSymbolTable
 70
     1
  0
VPORT
  5
15
330
7
100
AcDbSymbolTableRecord
100
AcDbViewportTableRecord
  2
*ACTIVE
 70
     0
 10
0.0
 20
0.0
 11
1.0
 21
1.0
 12
0.0
 22
0.0
 13
0.0
 23
0.0
 14
1.0
 24
1.0
 15
0.0
 25
0.0
 16
0.0
 26
0.0
 36
1669.112740091304
 17
315.0
 27
445.5
 37
-46.86809886248109
 40
893.7013643254172
 41
1.208796764408493
 42
50.0
 43
0.0
 44
0.0
 50
0.0
 51
0.0
 71
     0
 72
  2000
 73
     1
 74
     1
 75
     0
 76
     0
 77
     0
 78
     0
281
     1
 65
     1
110
0.0
120
0.0
130
0.0
111
1.0
121
0.0
131
0.0
112
0.0
122
1.0
132
0.0
 79
     0
146
0.0
348
3666
 60
     3
 61
     5
292
     1
282
     1
141
0.0
142
0.0
361
904
1001
ACAD_NAV_VCDISPLAY
1070
     3
  0
ENDTAB
  0
TABLE
  2
LTYPE
  5
4
330
0
100
AcDbSymbolTable
 70
     4
  0
LTYPE
  5
11
330
4
100
AcDbSymbolTableRecord
100
AcDbLinetypeTableRecord
  2
ByBlock
 70
     0
  3

 72
    65
 73
     0
 40
0.0
  0
LTYPE
  5
12
330
4
100
AcDbSymbolTableRecord
100
AcDbLinetypeTableRecord
  2
ByLayer
 70
     0
  3

 72
    65
 73
     0
 40
0.0
  0
LTYPE
  5
13
330
4
100
AcDbSymbolTableRecord
100
AcDbLinetypeTableRecord
  2
Continuous
 70
     0
  3
Solid line
 72
    65
 73
     0
 40
0.0
  0
LTYPE
  5
D6C
330
4
100
AcDbSymbolTableRecord
100
AcDbLinetypeTableRecord
  2
BORDER
 70
     0
  3
Border __  __  . __  __  . __  __  . __  __  . 
 72
    65
 73
     6
 40
44.45
 49
12.7
 74
     0
 49
-6.349999999999999
 74
     0
 49
12.7
 74
     0
 49
-6.349999999999999
 74
     0
 49
0.0
 74
     0
 49
-6.349999999999999
 74
     0
  0
LTYPE
  5
177A8
330
4
100
AcDbSymbolTableRecord
100
AcDbLinetypeTableRecord
  2
HIDDEN
 70
     0
  3
Hidden _ _ _ _ _ _ _ _ _ _ _ _ _ _ _ _ _ _ _ _ 
 72
    65
 73
     2
 40
9.525
 49
6.349999999999999
 74
     0
 49
-3.174999999999999
 74
     0
  0
ENDTAB
  0
TABLE
  2
LAYER
  5
2
102
{ACAD_XDICTIONARY
360
2E1
102
}
330
0
100
AcDbSymbolTable
 70
     7
  0
LAYER
  5
14
102
{ACAD_XDICTIONARY
360
17BDA
102
}
330
2
100
AcDbSymbolTableRecord
100
AcDbLayerTableRecord
  2
0
 70
     0
 62
     9
  6
Continuous
370
    -3
390
1D
347
266
348
0
  0
LAYER
  5
4B
102
{ACAD_XDICTIONARY
360
17BDC
102
}
330
2
100
AcDbSymbolTableRecord
100
AcDbLayerTableRecord
  2
TEMPLATE
 70
     0
 62
     7
  6
Continuous
370
    20
390
1D
347
266
348
0
  0
LAYER
  5
4C
102
{ACAD_XDICTIONARY
360
17BDE
102
}
330
2
100
AcDbSymbolTableRecord
100
AcDbLayerTableRecord
  2
DIM
 70
     0
 62
     3
  6
Continuous
370
    13
390
1D
347
266
348
0
  0
LAYER
  5
4D
102
{ACAD_XDICTIONARY
360
17BE0
102
}
330
2
100
AcDbSymbolTableRecord
100
AcDbLayerTableRecord
  2
MODEL
 70
     0
 62
     7
  6
Continuous
370
    20
390
1D
347
266
348
0
  0
LAYER
  5
D6B
102
{ACAD_XDICTIONARY
360
17BE2
102
}
330
2
100
AcDbSymbolTableRecord
100
AcDbLayerTableRecord
  2
BORDER
 70
     0
 62
     4
  6
BORDER
290
     0
370
    20
390
1D
347
266
348
0
1001
AcAecLayerStandard
1000

1000

  0
LAYER
  5
A5DF
330
2
100
AcDbSymbolTableRecord
100
AcDbLayerTableRecord
  2
Defpoints
 70
     0
 62
     7
  6
Continuous
290
     0
370
    -3
390
1D
347
266
348
0
  0
LAYER
  5
17852
102
{ACAD_XDICTIONARY
360
17BE4
102
}
330
2
100
AcDbSymbolTableRecord
100
AcDbLayerTableRecord
  2
100
 70
     0
 62
     7
  6
Continuous
370
    -3
390
1D
347
266
348
0
  0
ENDTAB
  0
TABLE
  2
STYLE
  5
3
330
0
100
AcDbSymbolTable
 70
     3
  0
STYLE
  5
17
330
3
100
AcDbSymbolTableRecord
100
AcDbTextStyleTableRecord
  2
Standard
 70
     0
 40
0.0
 41
1.0
 50
0.0
 71
     0
 42
2.5
  3
txt
  4
BIGFONT.SHX
  0
STYLE
  5
39
330
3
100
AcDbSymbolTableRecord
100
AcDbTextStyleTableRecord
  2
ＭＳ ゴシック
 70
     0
 40
0.0
 41
1.0
 50
0.0
 71
     0
 42
2.5
  3
msgothic.ttc
  4
ＭＳ ゴシック
1001
ACAD
1000
ＭＳ ゴシック
1071
        0
  0
ENDTAB
  0
TABLE
  2
VIEW
  5
5
330
0
100
AcDbSymbolTable
 70
     2
  0
ENDTAB
  0
TABLE
  2
UCS
  5
6
330
0
100
AcDbSymbolTable
 70
     0
  0
ENDTAB
  0
TABLE
  2
APPID
  5
8
330
0
100
AcDbSymbolTable
 70
    10
  0
APPID
  5
16
330
8
100
AcDbSymbolTableRecord
100
AcDbRegAppTableRecord
  2
ACAD
 70
     0
  0
APPID
  5
7AC
330
8
100
AcDbSymbolTableRecord
100
AcDbRegAppTableRecord
  2
AcAecLayerStandard
 70
     0
  0
APPID
  5
E29
330
8
100
AcDbSymbolTableRecord
100
AcDbRegAppTableRecord
  2
ACAD_MLEADERVER
 70
     0
  0
APPID
  5
17748
330
8
100
AcDbSymbolTableRecord
100
AcDbRegAppTableRecord
  2
PLOTTRANSPARENCY
 70
     0
  0
APPID
  5
1798F
330
8
100
AcDbSymbolTableRecord
100
AcDbRegAppTableRecord
  2
ACAD_DSTYLE_DIMRADIAL_EXTENSION
 70
     0
  0
APPID
  5
17BD7
330
8
100
AcDbSymbolTableRecord
100
AcDbRegAppTableRecord
  2
ACAD_EXEMPT_FROM_CAD_STANDARDS
 70
     0
  0
APPID
  5
17BD9
330
8
100
AcDbSymbolTableRecord
100
AcDbRegAppTableRecord
  2
PE_URL
 70
     0
  0
APPID
  5
17BE8
330
8
100
AcDbSymbolTableRecord
100
AcDbRegAppTableRecord
  2
DCO15
 70
     0
  0
APPID
  5
17BF5
330
8
100
AcDbSymbolTableRecord
100
AcDbRegAppTableRecord
  2
ACAD_NAV_VCDISPLAY
 70
     0
  0
APPID
  5
17C08
330
8
100
AcDbSymbolTableRecord
100
AcDbRegAppTableRecord
  2
ACAD_PSEXT
 70
     0
  0
ENDTAB
  0
TABLE
  2
DIMSTYLE
  5
9
330
0
100
AcDbSymbolTable
 70
     5
100
AcDbDimStyleTable
 71
     1
340
57
  0
DIMSTYLE
105
57
102
{ACAD_REACTORS
330
17698
330
176A7
330
17755
330
17764
330
17773
330
17A4E
330
17A65
330
17A83
330
17AE9
330
17B4B
330
17B5A
102
}
330
9
100
AcDbSymbolTableRecord
100
AcDbDimStyleTableRecord
  2
tfrom線あり
 70
     0
  3
<>
  4
[]
 41
3.0
 42
10.0
 43
1.0
 44
0.0
 73
     0
 74
     0
 77
     1
 78
    11
140
8.0
141
0.0
143
1.0
147
6.0
171
     1
174
     1
179
     2
271
     0
272
     1
276
     2
284
    11
285
    11
286
    11
289
     0
340
39
341
4E
342
4E
  0
DIMSTYLE
105
177A9
330
9
100
AcDbSymbolTableRecord
100
AcDbDimStyleTableRecord
  2
Standard
 70
     0
340
17
  0
DIMSTYLE
105
177B6
330
9
100
AcDbSymbolTableRecord
100
AcDbDimStyleTableRecord
  2
tform線あり
 70
     0
  3
<>
  4
[]
 41
9.999389648437498
 42
25.0
 43
1.0
 44
0.0
 73
     0
 74
     0
 77
     1
 78
    11
140
24.4326171875
141
0.0
143
1.0
146
0.8
147
10.0
171
     1
172
     1
174
     1
179
     2
271
     1
272
     1
276
     2
284
    11
285
    11
286
    11
289
     0
340
39
341
4E
342
4E
  0
DIMSTYLE
105
17855
330
9
100
AcDbSymbolTableRecord
100
AcDbDimStyleTableRecord
  2
ISO-25
 70
     0
 41
2.5
 42
0.625
 43
3.75
 44
1.25
 73
     0
 74
     0
 77
     1
 78
     8
140
2.5
141
2.5
143
0.0393700787
147
0.625
171
     3
172
     1
271
     2
272
     2
274
     3
278
    44
283
     0
284
     8
340
17
  0
ENDTAB
  0
TABLE
  2
BLOCK_RECORD
  5
1
330
0
100
AcDbSymbolTable
 70
    24
  0
BLOCK_RECORD
  5
A
102
{ACAD_XDICTIONARY
360
1733E
102
}
330
1
100
AcDbSymbolTableRecord
100
AcDbBlockTableRecord
  2
*MODEL_SPACE
340
20
 70
     0
280
     1
281
     0
  0
BLOCK_RECORD
  5
B
330
1
100
AcDbSymbolTableRecord
100
AcDbBlockTableRecord
  2
*PAPER_SPACE
340
21
 70
     0
280
     1
281
     0
  0
BLOCK_RECORD
  5
4E
330
1
100
AcDbSymbolTableRecord
100
AcDbBlockTableRecord
  2
_DOT
340
0
102
{BLKREFS
331
17A58
331
17A6E
331
17A6F
331
17A7D
331
17A7E
331
17A8C
331
17A8D
331
17AF2
331
17AF3
331
17B54
331
17B55
331
17B63
331
17B64
331
17B76
331
17B77
331
176A1
331
176A2
331
176B0
331
176B1
331
176CE
331
176CF
331
176DD
331
176DE
331
176EC
331
176ED
331
1775E
331
1775F
331
1776D
331
1776E
331
1777C
331
1777D
331
177E9
331
177EA
331
17820
331
17821
331
1782F
331
17830
331
179CA
331
179CB
331
179D9
331
179DA
331
17A57
102
}
 70
     0
280
     1
281
     0
  0
BLOCK_RECORD
  5
68D
330
1
100
AcDbSymbolTableRecord
100
AcDbBlockTableRecord
  2
block 2
340
0
102
{BLKREFS
331
68C
331
1343
102
}
 70
     0
280
     1
281
     0
  0
BLOCK_RECORD
  5
1769B
330
1
100
AcDbSymbolTableRecord
100
AcDbBlockTableRecord
  2
*D2
340
0
 70
     0
280
     1
281
     0
  0
BLOCK_RECORD
  5
176AA
330
1
100
AcDbSymbolTableRecord
100
AcDbBlockTableRecord
  2
*D3
340
0
 70
     0
280
     1
281
     0
  0
BLOCK_RECORD
  5
176C8
330
1
100
AcDbSymbolTableRecord
100
AcDbBlockTableRecord
  2
*D4
340
0
 70
     0
280
     1
281
     0
  0
BLOCK_RECORD
  5
176D7
330
1
100
AcDbSymbolTableRecord
100
AcDbBlockTableRecord
  2
*D5
340
0
 70
     0
280
     1
281
     0
  0
BLOCK_RECORD
  5
176E6
330
1
100
AcDbSymbolTableRecord
100
AcDbBlockTableRecord
  2
*D6
340
0
 70
     0
280
     1
281
     0
  0
BLOCK_RECORD
  5
17758
330
1
100
AcDbSymbolTableRecord
100
AcDbBlockTableRecord
  2
*D7
340
0
 70
     0
280
     1
281
     0
  0
BLOCK_RECORD
  5
17767
330
1
100
AcDbSymbolTableRecord
100
AcDbBlockTableRecord
  2
*D8
340
0
 70
     0
280
     1
281
     0
  0
BLOCK_RECORD
  5
17776
330
1
100
AcDbSymbolTableRecord
100
AcDbBlockTableRecord
  2
*D9
340
0
 70
     0
280
     1
281
     0
  0
BLOCK_RECORD
  5
177E4
330
1
100
AcDbSymbolTableRecord
100
AcDbBlockTableRecord
  2
*D10
340
0
 70
     0
280
     1
281
     0
  0
BLOCK_RECORD
  5
1781A
330
1
100
AcDbSymbolTableRecord
100
AcDbBlockTableRecord
  2
*D11
340
0
 70
     0
280
     1
281
     0
  0
BLOCK_RECORD
  5
17829
330
1
100
AcDbSymbolTableRecord
100
AcDbBlockTableRecord
  2
*D12
340
0
 70
     0
280
     1
281
     0
  0
BLOCK_RECORD
  5
179C4
330
1
100
AcDbSymbolTableRecord
100
AcDbBlockTableRecord
  2
*D13
340
0
 70
     0
280
     1
281
     0
  0
BLOCK_RECORD
  5
179D3
330
1
100
AcDbSymbolTableRecord
100
AcDbBlockTableRecord
  2
*D14
340
0
 70
     0
280
     1
281
     0
  0
BLOCK_RECORD
  5
17A51
330
1
100
AcDbSymbolTableRecord
100
AcDbBlockTableRecord
  2
*D15
340
0
 70
     0
280
     1
281
     0
  0
BLOCK_RECORD
  5
17A68
330
1
100
AcDbSymbolTableRecord
100
AcDbBlockTableRecord
  2
*D16
340
0
 70
     0
280
     1
281
     0
  0
BLOCK_RECORD
  5
17A77
330
1
100
AcDbSymbolTableRecord
100
AcDbBlockTableRecord
  2
*D17
340
0
 70
     0
280
     1
281
     0
  0
BLOCK_RECORD
  5
17A86
330
1
100
AcDbSymbolTableRecord
100
AcDbBlockTableRecord
  2
*D18
340
0
 70
     0
280
     1
281
     0
  0
BLOCK_RECORD
  5
17AEC
330
1
100
AcDbSymbolTableRecord
100
AcDbBlockTableRecord
  2
*D19
340
0
 70
     0
280
     1
281
     0
  0
BLOCK_RECORD
  5
17B4E
330
1
100
AcDbSymbolTableRecord
100
AcDbBlockTableRecord
  2
*D20
340
0
 70
     0
280
     1
281
     0
  0
BLOCK_RECORD
  5
17B5D
330
1
100
AcDbSymbolTableRecord
100
AcDbBlockTableRecord
  2
*D21
340
0
 70
     0
280
     1
281
     0
  0
BLOCK_RECORD
  5
17B6E
330
1
100
AcDbSymbolTableRecord
100
AcDbBlockTableRecord
  2
*D22
340
0
 70
     0
280
     1
281
     0
  0
ENDTAB
  0
ENDSEC
  0
SECTION
  2
BLOCKS
  0
BLOCK
  5
D
330
A
100
AcDbEntity
  8
0
390
1D
100
AcDbBlockBegin
  2
*MODEL_SPACE
 70
     0
 10
0.0
 20
0.0
 30
0.0
  3
*MODEL_SPACE
  1
*MODEL_SPACE
  0
ENDBLK
  5
E
330
A
100
AcDbEntity
  8
0
390
1D
100
AcDbBlockEnd
  0
BLOCK
  5
F
330
B
100
AcDbEntity
 67
     1
  8
0
390
1D
100
AcDbBlockBegin
  2
*PAPER_SPACE
 70
     0
 10
0.0
 20
0.0
 30
0.0
  3
*PAPER_SPACE
  1
*PAPER_SPACE
  0
ENDBLK
  5
10
330
B
100
AcDbEntity
 67
     1
  8
0
390
1D
100
AcDbBlockEnd
  0
BLOCK
  5
369F
330
4E
100
AcDbEntity
  8
0
390
1D
100
AcDbBlockBegin
  2
_DOT
 70
     0
 10
0.0
 20
0.0
 30
0.0
  3
_DOT
  1
_DOT
  0
POLYLINE
  5
36A1
330
4E
100
AcDbEntity
  8
0
  6
ByBlock
 62
     0
370
    -2
390
1D
100
AcDb2dPolyline
 66
     1
 10
0.0
 20
0.0
 30
0.0
 70
     1
 40
0.5
 41
0.5
  0
VERTEX
  5
36A2
330
36A1
100
AcDbEntity
  8
0
  6
ByBlock
 62
     0
370
    -2
390
1D
100
AcDbVertex
100
AcDb2dVertex
 10
-0.25
 20
0.0
 30
0.0
 42
1.0
  0
VERTEX
  5
36A3
330
36A1
100
AcDbEntity
  8
0
  6
ByBlock
 62
     0
370
    -2
390
1D
100
AcDbVertex
100
AcDb2dVertex
 10
0.25
 20
0.0
 30
0.0
 42
1.0
  0
SEQEND
  5
36A4
330
36A1
100
AcDbEntity
  8
0
390
1D
  0
LINE
  5
36A5
330
4E
100
AcDbEntity
  8
0
  6
ByBlock
 62
     0
370
    -2
390
1D
100
AcDbLine
 10
-0.5
 20
0.0
 30
0.0
 11
-1.0
 21
0.0
 31
0.0
  0
ENDBLK
  5
36A6
330
4E
100
AcDbEntity
  8
0
390
1D
100
AcDbBlockEnd
  0
BLOCK
  5
68E
330
68D
100
AcDbEntity
  8
0
100
AcDbBlockBegin
  2
block 2
 70
     0
 10
0.0
 20
0.0
 30
0.0
  3
block 2
  1
block 2
  0
ENDBLK
  5
6B0
330
68D
100
AcDbEntity
  8
0
100
AcDbBlockEnd
  0
BLOCK
  5
1769C
330
1769B
100
AcDbEntity
  8
0
100
AcDbBlockBegin
  2
*D2
 70
     1
 10
0.0
 20
0.0
 30
0.0
  3
*D2
  1

  0
LINE
  5
1769E
330
1769B
100
AcDbEntity
  8
DIM
 62
     0
440
 16777216
370
    -2
100
AcDbLine
 10
491.224816158728
 20
297.0375907012628
 30
0.0
 11
584.321272549254
 21
297.0375907012628
 31
0.0
  0
LINE
  5
1769F
330
1769B
100
AcDbEntity
  8
DIM
 62
     0
440
 16777216
370
    -2
100
AcDbLine
 10
576.0487063365717
 20
424.8654369409326
 30
0.0
 11
584.321272549254
 21
424.8654369409326
 31
0.0
  0
LINE
  5
176A0
330
1769B
100
AcDbEntity
  8
DIM
 62
     0
440
 16777216
370
    -2
100
AcDbLine
 10
584.321272549254
 20
300.0375907012629
 30
0.0
 11
584.321272549254
 21
421.8654369409326
 31
0.0
  0
INSERT
  5
176A1
330
1769B
100
AcDbEntity
  8
DIM
 62
     0
440
 16777216
370
    -2
100
AcDbBlockReference
  2
_DOT
 10
584.321272549254
 20
297.0375907012628
 30
0.0
 41
3.0
 42
3.0
 43
3.0
 50
270.0
  0
INSERT
  5
176A2
330
1769B
100
AcDbEntity
  8
DIM
 62
     0
440
 16777216
370
    -2
100
AcDbBlockReference
  2
_DOT
 10
584.321272549254
 20
424.8654369409326
 30
0.0
 41
3.0
 42
3.0
 43
3.0
 50
90.0
  0
MTEXT
  5
176A3
330
1769B
100
AcDbEntity
  8
DIM
 62
     0
440
 16777216
100
AcDbMText
 10
574.3197719865429
 20
360.9515138210976
 30
0.0
 40
8.0
 41
0.0
 46
0.0
 71
     5
 72
     1
  1
\A1;128
  7
ＭＳ ゴシック
 11
0.0
 21
1.0
 31
0.0
 73
     1
 44
1.0
  0
POINT
  5
176A4
330
1769B
100
AcDbEntity
  8
Defpoints
 62
     0
440
 16777216
100
AcDbPoint
 10
481.2248161587279
 20
297.0375907012628
 30
0.0
  0
POINT
  5
176A5
330
1769B
100
AcDbEntity
  8
Defpoints
 62
     0
440
 16777216
100
AcDbPoint
 10
566.0487063365717
 20
424.8654369409326
 30
0.0
  0
POINT
  5
176A6
330
1769B
100
AcDbEntity
  8
Defpoints
 62
     0
440
 16777216
100
AcDbPoint
 10
584.321272549254
 20
424.8654369409326
 30
0.0
  0
ENDBLK
  5
1769D
330
1769B
100
AcDbEntity
  8
0
100
AcDbBlockEnd
  0
BLOCK
  5
176AB
330
176AA
100
AcDbEntity
  8
0
100
AcDbBlockBegin
  2
*D3
 70
     1
 10
0.0
 20
0.0
 30
0.0
  3
*D3
  1

  0
LINE
  5
176AD
330
176AA
100
AcDbEntity
  8
DIM
 62
     0
440
 16777216
370
    -2
100
AcDbLine
 10
396.3330080477612
 20
686.260251756685
 30
0.0
 11
448.7015438928366
 21
686.260251756685
 31
0.0
  0
LINE
  5
176AE
330
176AA
100
AcDbEntity
  8
DIM
 62
     0
440
 16777216
370
    -2
100
AcDbLine
 10
395.3339951943366
 20
592.7328129883502
 30
0.0
 11
448.7015438928366
 21
592.7328129883502
 31
0.0
  0
LINE
  5
176AF
330
176AA
100
AcDbEntity
  8
DIM
 62
     0
440
 16777216
370
    -2
100
AcDbLine
 10
448.7015438928366
 20
683.2602517566851
 30
0.0
 11
448.7015438928366
 21
595.7328129883502
 31
0.0
  0
INSERT
  5
176B0
330
176AA
100
AcDbEntity
  8
DIM
 62
     0
440
 16777216
370
    -2
100
AcDbBlockReference
  2
_DOT
 10
448.7015438928366
 20
686.260251756685
 30
0.0
 41
3.0
 42
3.0
 43
3.0
 50
90.0
  0
INSERT
  5
176B1
330
176AA
100
AcDbEntity
  8
DIM
 62
     0
440
 16777216
370
    -2
100
AcDbBlockReference
  2
_DOT
 10
448.7015438928366
 20
592.7328129883502
 30
0.0
 41
3.0
 42
3.0
 43
3.0
 50
270.0
  0
MTEXT
  5
176B2
330
176AA
100
AcDbEntity
  8
DIM
 62
     0
440
 16777216
100
AcDbMText
 10
438.7015438928365
 20
639.4965323725174
 30
0.0
 40
8.0
 41
0.0
 46
0.0
 71
     5
 72
     1
  1
\A1;94
  7
ＭＳ ゴシック
 11
0.0
 21
1.0
 31
0.0
 73
     1
 44
1.0
  0
POINT
  5
176B3
330
176AA
100
AcDbEntity
  8
Defpoints
 62
     0
440
 16777216
100
AcDbPoint
 10
386.3330080477611
 20
686.260251756685
 30
0.0
  0
POINT
  5
176B4
330
176AA
100
AcDbEntity
  8
Defpoints
 62
     0
440
 16777216
100
AcDbPoint
 10
385.3339951943366
 20
592.7328129883502
 30
0.0
  0
POINT
  5
176B5
330
176AA
100
AcDbEntity
  8
Defpoints
 62
     0
440
 16777216
100
AcDbPoint
 10
448.7015438928366
 20
592.7328129883502
 30
0.0
  0
ENDBLK
  5
176AC
330
176AA
100
AcDbEntity
  8
0
100
AcDbBlockEnd
  0
BLOCK
  5
176C9
330
176C8
100
AcDbEntity
  8
0
100
AcDbBlockBegin
  2
*D4
 70
     1
 10
0.0
 20
0.0
 30
0.0
  3
*D4
  1

  0
LINE
  5
176CB
330
176C8
100
AcDbEntity
  8
DIM
 62
     0
370
    -2
100
AcDbLine
 10
73.8140166324473
 20
727.6232226711141
 30
0.0
 11
73.8140166324473
 21
751.654797083415
 31
0.0
  0
LINE
  5
176CC
330
176C8
100
AcDbEntity
  8
DIM
 62
     0
370
    -2
100
AcDbLine
 10
103.8140166324473
 20
727.6232226711141
 30
0.0
 11
103.8140166324473
 21
751.654797083415
 31
0.0
  0
LINE
  5
176CD
330
176C8
100
AcDbEntity
  8
DIM
 62
     0
370
    -2
100
AcDbLine
 10
76.81401663244731
 20
751.654797083415
 30
0.0
 11
100.8140166324473
 21
751.654797083415
 31
0.0
  0
INSERT
  5
176CE
330
176C8
100
AcDbEntity
  8
DIM
 62
     0
370
    -2
100
AcDbBlockReference
  2
_DOT
 10
73.8140166324473
 20
751.654797083415
 30
0.0
 41
3.0
 42
3.0
 43
3.0
 50
180.0
  0
INSERT
  5
176CF
330
176C8
100
AcDbEntity
  8
DIM
 62
     0
370
    -2
100
AcDbBlockReference
  2
_DOT
 10
103.8140166324473
 20
751.654797083415
 30
0.0
 41
3.0
 42
3.0
 43
3.0
  0
MTEXT
  5
176D0
330
176C8
100
AcDbEntity
  8
DIM
 62
     0
100
AcDbMText
 10
88.8140166324473
 20
761.6562976461263
 30
0.0
 40
8.0
 41
0.0
 46
0.0
 71
     5
 72
     1
  1
\A1;30
  7
ＭＳ ゴシック
 73
     1
 44
1.0
  0
POINT
  5
176D1
330
176C8
100
AcDbEntity
  8
Defpoints
 62
     0
100
AcDbPoint
 10
73.8140166324473
 20
717.6232226711142
 30
0.0
  0
POINT
  5
176D2
330
176C8
100
AcDbEntity
  8
Defpoints
 62
     0
100
AcDbPoint
 10
103.8140166324473
 20
717.6232226711142
 30
0.0
  0
POINT
  5
176D3
330
176C8
100
AcDbEntity
  8
Defpoints
 62
     0
100
AcDbPoint
 10
103.8140166324473
 20
751.654797083415
 30
0.0
  0
ENDBLK
  5
176CA
330
176C8
100
AcDbEntity
  8
0
100
AcDbBlockEnd
  0
BLOCK
  5
176D8
330
176D7
100
AcDbEntity
  8
0
100
AcDbBlockBegin
  2
*D5
 70
     1
 10
0.0
 20
0.0
 30
0.0
  3
*D5
  1

  0
LINE
  5
176DA
330
176D7
100
AcDbEntity
  8
DIM
 62
     0
370
    -2
100
AcDbLine
 10
88.81401663244766
 20
287.0226235865418
 30
0.0
 11
88.81401663244766
 21
243.1016010070576
 31
0.0
  0
LINE
  5
176DB
330
176D7
100
AcDbEntity
  8
DIM
 62
     0
370
    -2
100
AcDbLine
 10
388.8140166324476
 20
287.0226235865418
 30
0.0
 11
388.8140166324476
 21
243.1016010070576
 31
0.0
  0
LINE
  5
176DC
330
176D7
100
AcDbEntity
  8
DIM
 62
     0
370
    -2
100
AcDbLine
 10
91.81401663244765
 20
243.1016010070576
 30
0.0
 11
385.8140166324476
 21
243.1016010070576
 31
0.0
  0
INSERT
  5
176DD
330
176D7
100
AcDbEntity
  8
DIM
 62
     0
370
    -2
100
AcDbBlockReference
  2
_DOT
 10
88.81401663244766
 20
243.1016010070576
 30
0.0
 41
3.0
 42
3.0
 43
3.0
 50
180.0
  0
INSERT
  5
176DE
330
176D7
100
AcDbEntity
  8
DIM
 62
     0
370
    -2
100
AcDbBlockReference
  2
_DOT
 10
388.8140166324476
 20
243.1016010070576
 30
0.0
 41
3.0
 42
3.0
 43
3.0
  0
MTEXT
  5
176DF
330
176D7
100
AcDbEntity
  8
DIM
 62
     0
100
AcDbMText
 10
238.8140166324476
 20
253.1031015697687
 30
0.0
 40
8.0
 41
0.0
 46
0.0
 71
     5
 72
     1
  1
\A1;300
  7
ＭＳ ゴシック
 73
     1
 44
1.0
  0
POINT
  5
176E0
330
176D7
100
AcDbEntity
  8
Defpoints
 62
     0
100
AcDbPoint
 10
88.81401663244766
 20
297.0226235865419
 30
0.0
  0
POINT
  5
176E1
330
176D7
100
AcDbEntity
  8
Defpoints
 62
     0
100
AcDbPoint
 10
388.8140166324476
 20
297.0226235865419
 30
0.0
  0
POINT
  5
176E2
330
176D7
100
AcDbEntity
  8
Defpoints
 62
     0
100
AcDbPoint
 10
388.8140166324476
 20
243.1016010070576
 30
0.0
  0
ENDBLK
  5
176D9
330
176D7
100
AcDbEntity
  8
0
100
AcDbBlockEnd
  0
BLOCK
  5
176E7
330
176E6
100
AcDbEntity
  8
0
100
AcDbBlockBegin
  2
*D6
 70
     1
 10
0.0
 20
0.0
 30
0.0
  3
*D6
  1

  0
LINE
  5
176E9
330
176E6
100
AcDbEntity
  8
DIM
 62
     0
370
    -2
100
AcDbLine
 10
73.81401663242674
 20
288.5783474134419
 30
0.0
 11
73.81401663242674
 21
197.5907650079491
 31
0.0
  0
LINE
  5
176EA
330
176E6
100
AcDbEntity
  8
DIM
 62
     0
370
    -2
100
AcDbLine
 10
403.8140166324687
 20
288.5783474134419
 30
0.0
 11
403.8140166324687
 21
197.5907650079491
 31
0.0
  0
LINE
  5
176EB
330
176E6
100
AcDbEntity
  8
DIM
 62
     0
370
    -2
100
AcDbLine
 10
76.81401663242674
 20
197.5907650079491
 30
0.0
 11
400.8140166324688
 21
197.5907650079491
 31
0.0
  0
INSERT
  5
176EC
330
176E6
100
AcDbEntity
  8
DIM
 62
     0
370
    -2
100
AcDbBlockReference
  2
_DOT
 10
73.81401663242674
 20
197.5907650079491
 30
0.0
 41
3.0
 42
3.0
 43
3.0
 50
180.0
  0
INSERT
  5
176ED
330
176E6
100
AcDbEntity
  8
DIM
 62
     0
370
    -2
100
AcDbBlockReference
  2
_DOT
 10
403.8140166324687
 20
197.5907650079491
 30
0.0
 41
3.0
 42
3.0
 43
3.0
  0
MTEXT
  5
176EE
330
176E6
100
AcDbEntity
  8
DIM
 62
     0
100
AcDbMText
 10
238.8140166324478
 20
207.5922655706601
 30
0.0
 40
8.0
 41
0.0
 46
0.0
 71
     5
 72
     1
  1
\A1;330
  7
ＭＳ ゴシック
 73
     1
 44
1.0
  0
POINT
  5
176EF
330
176E6
100
AcDbEntity
  8
Defpoints
 62
     0
100
AcDbPoint
 10
73.81401663242674
 20
298.5783474134418
 30
0.0
  0
POINT
  5
176F0
330
176E6
100
AcDbEntity
  8
Defpoints
 62
     0
100
AcDbPoint
 10
403.8140166324687
 20
298.5783474134418
 30
0.0
  0
POINT
  5
176F1
330
176E6
100
AcDbEntity
  8
Defpoints
 62
     0
100
AcDbPoint
 10
403.8140166324687
 20
197.5907650079491
 30
0.0
  0
ENDBLK
  5
176E8
330
176E6
100
AcDbEntity
  8
0
100
AcDbBlockEnd
  0
BLOCK
  5
17759
330
17758
100
AcDbEntity
  8
0
100
AcDbBlockBegin
  2
*D7
 70
     1
 10
0.0
 20
0.0
 30
0.0
  3
*D7
  1

  0
LINE
  5
1775B
330
17758
100
AcDbEntity
  8
DIM
 62
     0
440
 16777216
370
    -2
100
AcDbLine
 10
56.35786332224149
 20
288.9230473844132
 30
0.0
 11
56.35786332224149
 21
251.1989341187239
 31
0.0
  0
LINE
  5
1775C
330
17758
100
AcDbEntity
  8
DIM
 62
     0
440
 16777216
370
    -2
100
AcDbLine
 10
86.33300804776155
 20
288.9230473844132
 30
0.0
 11
86.33300804776155
 21
251.1989341187239
 31
0.0
  0
LINE
  5
1775D
330
17758
100
AcDbEntity
  8
DIM
 62
     0
440
 16777216
370
    -2
100
AcDbLine
 10
59.3578633222415
 20
251.1989341187239
 30
0.0
 11
83.33300804776156
 21
251.1989341187239
 31
0.0
  0
INSERT
  5
1775E
330
17758
100
AcDbEntity
  8
DIM
 62
     0
440
 16777216
370
    -2
100
AcDbBlockReference
  2
_DOT
 10
56.35786332224149
 20
251.1989341187239
 30
0.0
 41
3.0
 42
3.0
 43
3.0
 50
180.0
  0
INSERT
  5
1775F
330
17758
100
AcDbEntity
  8
DIM
 62
     0
440
 16777216
370
    -2
100
AcDbBlockReference
  2
_DOT
 10
86.33300804776155
 20
251.1989341187239
 30
0.0
 41
3.0
 42
3.0
 43
3.0
  0
MTEXT
  5
17760
330
17758
100
AcDbEntity
  8
DIM
 62
     0
440
 16777216
100
AcDbMText
 10
71.34543568500153
 20
261.2004346814349
 30
0.0
 40
8.0
 41
0.0
 46
0.0
 71
     5
 72
     1
  1
\A1;30
  7
ＭＳ ゴシック
 73
     1
 44
1.0
  0
POINT
  5
17761
330
17758
100
AcDbEntity
  8
Defpoints
 62
     0
440
 16777216
100
AcDbPoint
 10
56.35786332224149
 20
298.9230473844131
 30
0.0
  0
POINT
  5
17762
330
17758
100
AcDbEntity
  8
Defpoints
 62
     0
440
 16777216
100
AcDbPoint
 10
86.33300804776155
 20
298.9230473844131
 30
0.0
  0
POINT
  5
17763
330
17758
100
AcDbEntity
  8
Defpoints
 62
     0
440
 16777216
100
AcDbPoint
 10
86.33300804776155
 20
251.1989341187239
 30
0.0
  0
ENDBLK
  5
1775A
330
17758
100
AcDbEntity
  8
0
100
AcDbBlockEnd
  0
BLOCK
  5
17768
330
17767
100
AcDbEntity
  8
0
100
AcDbBlockBegin
  2
*D8
 70
     1
 10
0.0
 20
0.0
 30
0.0
  3
*D8
  1

  0
LINE
  5
1776A
330
17767
100
AcDbEntity
  8
DIM
 62
     0
440
 16777216
370
    -2
100
AcDbLine
 10
71.33300804776119
 20
741.2602517566851
 30
0.0
 11
71.33300804776119
 21
781.961932685138
 31
0.0
  0
LINE
  5
1776B
330
17767
100
AcDbEntity
  8
DIM
 62
     0
440
 16777216
370
    -2
100
AcDbLine
 10
371.3330080477612
 20
741.2602517566851
 30
0.0
 11
371.3330080477612
 21
781.961932685138
 31
0.0
  0
LINE
  5
1776C
330
17767
100
AcDbEntity
  8
DIM
 62
     0
440
 16777216
370
    -2
100
AcDbLine
 10
74.3330080477612
 20
781.961932685138
 30
0.0
 11
368.3330080477611
 21
781.961932685138
 31
0.0
  0
INSERT
  5
1776D
330
17767
100
AcDbEntity
  8
DIM
 62
     0
440
 16777216
370
    -2
100
AcDbBlockReference
  2
_DOT
 10
71.33300804776119
 20
781.961932685138
 30
0.0
 41
3.0
 42
3.0
 43
3.0
 50
180.0
  0
INSERT
  5
1776E
330
17767
100
AcDbEntity
  8
DIM
 62
     0
440
 16777216
370
    -2
100
AcDbBlockReference
  2
_DOT
 10
371.3330080477612
 20
781.961932685138
 30
0.0
 41
3.0
 42
3.0
 43
3.0
  0
MTEXT
  5
1776F
330
17767
100
AcDbEntity
  8
DIM
 62
     0
440
 16777216
100
AcDbMText
 10
221.3330080477612
 20
791.963433247849
 30
0.0
 40
8.0
 41
0.0
 46
0.0
 71
     5
 72
     1
  1
\A1;300
  7
ＭＳ ゴシック
 73
     1
 44
1.0
  0
POINT
  5
17770
330
17767
100
AcDbEntity
  8
Defpoints
 62
     0
440
 16777216
100
AcDbPoint
 10
71.33300804776119
 20
731.260251756685
 30
0.0
  0
POINT
  5
17771
330
17767
100
AcDbEntity
  8
Defpoints
 62
     0
440
 16777216
100
AcDbPoint
 10
371.3330080477612
 20
731.260251756685
 30
0.0
  0
POINT
  5
17772
330
17767
100
AcDbEntity
  8
Defpoints
 62
     0
440
 16777216
100
AcDbPoint
 10
371.3330080477612
 20
781.961932685138
 30
0.0
  0
ENDBLK
  5
17769
330
17767
100
AcDbEntity
  8
0
100
AcDbBlockEnd
  0
BLOCK
  5
17777
330
17776
100
AcDbEntity
  8
0
100
AcDbBlockBegin
  2
*D9
 70
     1
 10
0.0
 20
0.0
 30
0.0
  3
*D9
  1

  0
LINE
  5
17779
330
17776
100
AcDbEntity
  8
DIM
 62
     0
440
 16777216
370
    -2
100
AcDbLine
 10
56.33300804776133
 20
696.2602517566851
 30
0.0
 11
56.33300804776133
 21
819.8438192523022
 31
0.0
  0
LINE
  5
1777A
330
17776
100
AcDbEntity
  8
DIM
 62
     0
440
 16777216
370
    -2
100
AcDbLine
 10
386.3330080477611
 20
696.2602517566851
 30
0.0
 11
386.3330080477611
 21
819.8438192523022
 31
0.0
  0
LINE
  5
1777B
330
17776
100
AcDbEntity
  8
DIM
 62
     0
440
 16777216
370
    -2
100
AcDbLine
 10
59.33300804776132
 20
819.8438192523022
 30
0.0
 11
383.3330080477612
 21
819.8438192523022
 31
0.0
  0
INSERT
  5
1777C
330
17776
100
AcDbEntity
  8
DIM
 62
     0
440
 16777216
370
    -2
100
AcDbBlockReference
  2
_DOT
 10
56.33300804776133
 20
819.8438192523022
 30
0.0
 41
3.0
 42
3.0
 43
3.0
 50
180.0
  0
INSERT
  5
1777D
330
17776
100
AcDbEntity
  8
DIM
 62
     0
440
 16777216
370
    -2
100
AcDbBlockReference
  2
_DOT
 10
386.3330080477611
 20
819.8438192523022
 30
0.0
 41
3.0
 42
3.0
 43
3.0
  0
MTEXT
  5
1777E
330
17776
100
AcDbEntity
  8
DIM
 62
     0
440
 16777216
100
AcDbMText
 10
221.3330080477612
 20
829.8453198150133
 30
0.0
 40
8.0
 41
0.0
 46
0.0
 71
     5
 72
     1
  1
\A1;330
  7
ＭＳ ゴシック
 73
     1
 44
1.0
  0
POINT
  5
1777F
330
17776
100
AcDbEntity
  8
Defpoints
 62
     0
440
 16777216
100
AcDbPoint
 10
56.33300804776133
 20
686.260251756685
 30
0.0
  0
POINT
  5
17780
330
17776
100
AcDbEntity
  8
Defpoints
 62
     0
440
 16777216
100
AcDbPoint
 10
386.3330080477611
 20
686.260251756685
 30
0.0
  0
POINT
  5
17781
330
17776
100
AcDbEntity
  8
Defpoints
 62
     0
440
 16777216
100
AcDbPoint
 10
386.3330080477611
 20
819.8438192523022
 30
0.0
  0
ENDBLK
  5
17778
330
17776
100
AcDbEntity
  8
0
100
AcDbBlockEnd
  0
BLOCK
  5
177E5
330
177E4
100
AcDbEntity
  8
0
100
AcDbBlockBegin
  2
*D10
 70
     1
 10
0.0
 20
0.0
 30
0.0
  3
*D10
  1

  0
LINE
  5
177E6
330
177E4
100
AcDbEntity
  8
DIM
 62
     0
370
    -2
100
AcDbLine
 10
20.25000006564312
 20
30.0000011920929
 30
0.0
 11
78.57453701961969
 21
30.00000119209289
 31
0.0
  0
LINE
  5
177E7
330
177E4
100
AcDbEntity
  8
DIM
 62
     0
370
    -2
100
AcDbLine
 10
20.25000006564312
 20
15.0000011920929
 30
0.0
 11
78.57453701961969
 21
15.00000119209289
 31
0.0
  0
LINE
  5
177E8
330
177E4
100
AcDbEntity
  8
DIM
 62
     0
370
    -2
100
AcDbLine
 10
78.57453701961969
 20
27.00000119209289
 30
0.0
 11
78.57453701961969
 21
18.00000119209289
 31
0.0
  0
INSERT
  5
177E9
330
177E4
100
AcDbEntity
  8
DIM
 62
     0
370
    -2
100
AcDbBlockReference
  2
_DOT
 10
78.57453701961969
 20
30.00000119209289
 30
0.0
 41
3.0
 42
3.0
 43
3.0
 50
90.0
  0
INSERT
  5
177EA
330
177E4
100
AcDbEntity
  8
DIM
 62
     0
370
    -2
100
AcDbBlockReference
  2
_DOT
 10
78.57453701961969
 20
15.00000119209289
 30
0.0
 41
3.0
 42
3.0
 43
3.0
 50
270.0
  0
MTEXT
  5
177EB
330
177E4
100
AcDbEntity
  8
DIM
 62
     0
100
AcDbMText
 10
68.57303645690868
 20
22.50000119209301
 30
0.0
 40
8.0
 41
0.0
 46
0.0
 71
     5
 72
     1
  1
\A1;15
  7
ＭＳ ゴシック
 11
0.0
 21
1.0
 31
0.0
 73
     1
 44
1.0
  0
POINT
  5
177EC
330
177E4
100
AcDbEntity
  8
Defpoints
 62
     0
100
AcDbPoint
 10
10.25000006564312
 20
30.0000011920929
 30
0.0
  0
POINT
  5
177ED
330
177E4
100
AcDbEntity
  8
Defpoints
 62
     0
100
AcDbPoint
 10
10.25000006564312
 20
15.0000011920929
 30
0.0
  0
POINT
  5
177EE
330
177E4
100
AcDbEntity
  8
Defpoints
 62
     0
100
AcDbPoint
 10
78.57453701961969
 20
15.00000119209289
 30
0.0
  0
ENDBLK
  5
177EF
330
177E4
100
AcDbEntity
  8
0
100
AcDbBlockEnd
  0
BLOCK
  5
1781B
330
1781A
100
AcDbEntity
  8
0
100
AcDbBlockBegin
  2
*D11
 70
     1
 10
0.0
 20
0.0
 30
0.0
  3
*D11
  1

  0
LINE
  5
1781D
330
1781A
100
AcDbEntity
  8
DIM
 62
     0
370
    -2
100
AcDbLine
 10
-116.1792342549035
 20
204.3627650642963
 30
0.0
 11
-57.85469730092689
 21
204.3627650642963
 31
0.0
  0
LINE
  5
1781E
330
1781A
100
AcDbEntity
  8
DIM
 62
     0
370
    -2
100
AcDbLine
 10
-116.1792342549035
 20
189.3627650642963
 30
0.0
 11
-57.85469730092689
 21
189.3627650642963
 31
0.0
  0
LINE
  5
1781F
330
1781A
100
AcDbEntity
  8
DIM
 62
     0
370
    -2
100
AcDbLine
 10
-57.85469730092689
 20
201.3627650642963
 30
0.0
 11
-57.85469730092689
 21
192.3627650642963
 31
0.0
  0
INSERT
  5
17820
330
1781A
100
AcDbEntity
  8
DIM
 62
     0
370
    -2
100
AcDbBlockReference
  2
_DOT
 10
-57.85469730092689
 20
204.3627650642963
 30
0.0
 41
3.0
 42
3.0
 43
3.0
 50
90.0
  0
INSERT
  5
17821
330
1781A
100
AcDbEntity
  8
DIM
 62
     0
370
    -2
100
AcDbBlockReference
  2
_DOT
 10
-57.85469730092689
 20
189.3627650642963
 30
0.0
 41
3.0
 42
3.0
 43
3.0
 50
270.0
  0
MTEXT
  5
17822
330
1781A
100
AcDbEntity
  8
DIM
 62
     0
100
AcDbMText
 10
-67.8561978636379
 20
196.8627650642964
 30
0.0
 40
8.0
 41
0.0
 46
0.0
 71
     5
 72
     1
  1
\A1;15
  7
ＭＳ ゴシック
 11
0.0
 21
1.0
 31
0.0
 73
     1
 44
1.0
  0
POINT
  5
17823
330
1781A
100
AcDbEntity
  8
Defpoints
 62
     0
100
AcDbPoint
 10
-126.1792342549035
 20
204.3627650642963
 30
0.0
  0
POINT
  5
17824
330
1781A
100
AcDbEntity
  8
Defpoints
 62
     0
100
AcDbPoint
 10
-126.1792342549035
 20
189.3627650642963
 30
0.0
  0
POINT
  5
17825
330
1781A
100
AcDbEntity
  8
Defpoints
 62
     0
100
AcDbPoint
 10
-57.85469730092689
 20
189.3627650642963
 30
0.0
  0
ENDBLK
  5
1781C
330
1781A
100
AcDbEntity
  8
0
100
AcDbBlockEnd
  0
BLOCK
  5
1782A
330
17829
100
AcDbEntity
  8
0
100
AcDbBlockBegin
  2
*D12
 70
     1
 10
0.0
 20
0.0
 30
0.0
  3
*D12
  1

  0
LINE
  5
1782C
330
17829
100
AcDbEntity
  8
DIM
 62
     0
370
    -2
100
AcDbLine
 10
-125.7702683123922
 20
177.5117528417551
 30
0.0
 11
-125.7702683123922
 21
169.5524668811001
 31
0.0
  0
LINE
  5
1782D
330
17829
100
AcDbEntity
  8
DIM
 62
     0
370
    -2
100
AcDbLine
 10
-86.17923425490344
 20
179.4810112409721
 30
0.0
 11
-86.17923425490344
 21
169.5524668811001
 31
0.0
  0
LINE
  5
1782E
330
17829
100
AcDbEntity
  8
DIM
 62
     0
370
    -2
100
AcDbLine
 10
-122.7702683123922
 20
169.5524668811001
 30
0.0
 11
-89.17923425490345
 21
169.5524668811001
 31
0.0
  0
INSERT
  5
1782F
330
17829
100
AcDbEntity
  8
DIM
 62
     0
370
    -2
100
AcDbBlockReference
  2
_DOT
 10
-125.7702683123922
 20
169.5524668811001
 30
0.0
 41
3.0
 42
3.0
 43
3.0
 50
180.0
  0
INSERT
  5
17830
330
17829
100
AcDbEntity
  8
DIM
 62
     0
370
    -2
100
AcDbBlockReference
  2
_DOT
 10
-86.17923425490344
 20
169.5524668811001
 30
0.0
 41
3.0
 42
3.0
 43
3.0
  0
MTEXT
  5
17831
330
17829
100
AcDbEntity
  8
DIM
 62
     0
100
AcDbMText
 10
-105.9747512836478
 20
179.5524668811001
 30
0.0
 40
8.0
 41
0.0
 46
0.0
 71
     5
 72
     1
  1
\A1;40
  7
ＭＳ ゴシック
 73
     1
 44
1.0
  0
POINT
  5
17832
330
17829
100
AcDbEntity
  8
Defpoints
 62
     0
100
AcDbPoint
 10
-125.7702683123922
 20
187.5117528417551
 30
0.0
  0
POINT
  5
17833
330
17829
100
AcDbEntity
  8
Defpoints
 62
     0
100
AcDbPoint
 10
-86.17923425490344
 20
189.4810112409722
 30
0.0
  0
POINT
  5
17834
330
17829
100
AcDbEntity
  8
Defpoints
 62
     0
100
AcDbPoint
 10
-86.17923425490344
 20
169.5524668811001
 30
0.0
  0
ENDBLK
  5
1782B
330
17829
100
AcDbEntity
  8
0
100
AcDbBlockEnd
  0
BLOCK
  5
179C5
330
179C4
100
AcDbEntity
  8
0
100
AcDbBlockBegin
  2
*D13
 70
     1
 10
0.0
 20
0.0
 30
0.0
  3
*D13
  1

  0
LINE
  5
179C7
330
179C4
100
AcDbEntity
  8
DIM
 62
     0
370
    -2
100
AcDbLine
 10
467.4633918751474
 20
287.0375907012629
 30
0.0
 11
467.4633918751474
 21
263.764205117501
 31
0.0
  0
LINE
  5
179C8
330
179C4
100
AcDbEntity
  8
DIM
 62
     0
370
    -2
100
AcDbLine
 10
417.4633918751474
 20
304.7306816934628
 30
0.0
 11
417.4633918751474
 21
263.764205117501
 31
0.0
  0
LINE
  5
179C9
330
179C4
100
AcDbEntity
  8
DIM
 62
     0
370
    -2
100
AcDbLine
 10
464.4633918751474
 20
263.764205117501
 30
0.0
 11
420.4633918751474
 21
263.764205117501
 31
0.0
  0
INSERT
  5
179CA
330
179C4
100
AcDbEntity
  8
DIM
 62
     0
370
    -2
100
AcDbBlockReference
  2
_DOT
 10
467.4633918751474
 20
263.764205117501
 30
0.0
 41
3.0
 42
3.0
 43
3.0
  0
INSERT
  5
179CB
330
179C4
100
AcDbEntity
  8
DIM
 62
     0
370
    -2
100
AcDbBlockReference
  2
_DOT
 10
417.4633918751474
 20
263.764205117501
 30
0.0
 41
3.0
 42
3.0
 43
3.0
 50
180.0
  0
MTEXT
  5
179CC
330
179C4
100
AcDbEntity
  8
DIM
 62
     0
100
AcDbMText
 10
442.4633918751474
 20
273.765705680212
 30
0.0
 40
8.0
 41
0.0
 46
0.0
 71
     5
 72
     1
  1
\A1;50
  7
ＭＳ ゴシック
 73
     1
 44
1.0
  0
POINT
  5
179CD
330
179C4
100
AcDbEntity
  8
Defpoints
 62
     0
100
AcDbPoint
 10
467.4633918751474
 20
297.0375907012628
 30
0.0
  0
POINT
  5
179CE
330
179C4
100
AcDbEntity
  8
Defpoints
 62
     0
100
AcDbPoint
 10
417.4633918751474
 20
314.7306816934628
 30
0.0
  0
POINT
  5
179CF
330
179C4
100
AcDbEntity
  8
Defpoints
 62
     0
100
AcDbPoint
 10
417.4633918751474
 20
263.764205117501
 30
0.0
  0
ENDBLK
  5
179C6
330
179C4
100
AcDbEntity
  8
0
100
AcDbBlockEnd
  0
BLOCK
  5
179D4
330
179D3
100
AcDbEntity
  8
0
100
AcDbBlockBegin
  2
*D14
 70
     1
 10
0.0
 20
0.0
 30
0.0
  3
*D14
  1

  0
LINE
  5
179D6
330
179D3
100
AcDbEntity
  8
DIM
 62
     0
370
    -2
100
AcDbLine
 10
370.0176029723345
 20
352.2306816934629
 30
0.0
 11
333.608126366641
 21
352.2306816934629
 31
0.0
  0
LINE
  5
179D7
330
179D3
100
AcDbEntity
  8
DIM
 62
     0
370
    -2
100
AcDbLine
 10
370.1840097423649
 20
314.7808269805502
 30
0.0
 11
333.608126366641
 21
314.7808269805502
 31
0.0
  0
LINE
  5
179D8
330
179D3
100
AcDbEntity
  8
DIM
 62
     0
370
    -2
100
AcDbLine
 10
333.608126366641
 20
349.2306816934629
 30
0.0
 11
333.608126366641
 21
317.7808269805502
 31
0.0
  0
INSERT
  5
179D9
330
179D3
100
AcDbEntity
  8
DIM
 62
     0
370
    -2
100
AcDbBlockReference
  2
_DOT
 10
333.608126366641
 20
352.2306816934629
 30
0.0
 41
3.0
 42
3.0
 43
3.0
 50
90.0
  0
INSERT
  5
179DA
330
179D3
100
AcDbEntity
  8
DIM
 62
     0
370
    -2
100
AcDbBlockReference
  2
_DOT
 10
333.608126366641
 20
314.7808269805502
 30
0.0
 41
3.0
 42
3.0
 43
3.0
 50
270.0
  0
MTEXT
  5
179DB
330
179D3
100
AcDbEntity
  8
DIM
 62
     0
100
AcDbMText
 10
323.60662580393
 20
333.5057543370065
 30
0.0
 40
8.0
 41
0.0
 46
0.0
 71
     5
 72
     1
  1
\A1;37
  7
ＭＳ ゴシック
 11
0.0
 21
1.0
 31
0.0
 73
     1
 44
1.0
  0
POINT
  5
179DC
330
179D3
100
AcDbEntity
  8
Defpoints
 62
     0
100
AcDbPoint
 10
380.0176029723346
 20
352.2306816934629
 30
0.0
  0
POINT
  5
179DD
330
179D3
100
AcDbEntity
  8
Defpoints
 62
     0
100
AcDbPoint
 10
380.1840097423649
 20
314.7808269805502
 30
0.0
  0
POINT
  5
179DE
330
179D3
100
AcDbEntity
  8
Defpoints
 62
     0
100
AcDbPoint
 10
333.608126366641
 20
314.7808269805502
 30
0.0
  0
ENDBLK
  5
179D5
330
179D3
100
AcDbEntity
  8
0
100
AcDbBlockEnd
  0
BLOCK
  5
17A52
330
17A51
100
AcDbEntity
  8
0
100
AcDbBlockBegin
  2
*D15
 70
     1
 10
0.0
 20
0.0
 30
0.0
  3
*D15
  1

  0
LINE
  5
17A54
330
17A51
100
AcDbEntity
  8
DIM
 62
     0
440
 16777216
370
    -2
100
AcDbLine
 10
481.2248161587279
 20
287.0375907012629
 30
0.0
 11
481.2248161587279
 21
264.9498224582686
 31
0.0
  0
LINE
  5
17A55
330
17A51
100
AcDbEntity
  8
DIM
 62
     0
440
 16777216
370
    -2
100
AcDbLine
 10
436.224816158728
 20
304.7306816934629
 30
0.0
 11
436.224816158728
 21
264.9498224582686
 31
0.0
  0
LINE
  5
17A56
330
17A51
100
AcDbEntity
  8
DIM
 62
     0
440
 16777216
370
    -2
100
AcDbLine
 10
478.224816158728
 20
264.9498224582686
 30
0.0
 11
439.2248161587279
 21
264.9498224582686
 31
0.0
  0
INSERT
  5
17A57
330
17A51
100
AcDbEntity
  8
DIM
 62
     0
440
 16777216
370
    -2
100
AcDbBlockReference
  2
_DOT
 10
481.2248161587279
 20
264.9498224582686
 30
0.0
 41
3.0
 42
3.0
 43
3.0
  0
INSERT
  5
17A58
330
17A51
100
AcDbEntity
  8
DIM
 62
     0
440
 16777216
370
    -2
100
AcDbBlockReference
  2
_DOT
 10
436.224816158728
 20
264.9498224582686
 30
0.0
 41
3.0
 42
3.0
 43
3.0
 50
180.0
  0
MTEXT
  5
17A59
330
17A51
100
AcDbEntity
  8
DIM
 62
     0
440
 16777216
100
AcDbMText
 10
458.724816158728
 20
274.9513230209796
 30
0.0
 40
8.0
 41
0.0
 46
0.0
 71
     5
 72
     1
  1
\A1;45
  7
ＭＳ ゴシック
 73
     1
 44
1.0
  0
POINT
  5
17A5A
330
17A51
100
AcDbEntity
  8
Defpoints
 62
     0
440
 16777216
100
AcDbPoint
 10
481.2248161587279
 20
297.0375907012628
 30
0.0
  0
POINT
  5
17A5B
330
17A51
100
AcDbEntity
  8
Defpoints
 62
     0
440
 16777216
100
AcDbPoint
 10
436.224816158728
 20
314.7306816934629
 30
0.0
  0
POINT
  5
17A5C
330
17A51
100
AcDbEntity
  8
Defpoints
 62
     0
440
 16777216
100
AcDbPoint
 10
436.224816158728
 20
264.9498224582686
 30
0.0
  0
ENDBLK
  5
17A53
330
17A51
100
AcDbEntity
  8
0
100
AcDbBlockEnd
  0
BLOCK
  5
17A69
330
17A68
100
AcDbEntity
  8
0
100
AcDbBlockBegin
  2
*D16
 70
     1
 10
0.0
 20
0.0
 30
0.0
  3
*D16
  1

  0
LINE
  5
17A6B
330
17A68
100
AcDbEntity
  8
DIM
 62
     0
440
 16777216
370
    -2
100
AcDbLine
 10
347.3330080477616
 20
352.2306816934629
 30
0.0
 11
331.027550714895
 21
352.2306816934629
 31
0.0
  0
LINE
  5
17A6C
330
17A68
100
AcDbEntity
  8
DIM
 62
     0
440
 16777216
370
    -2
100
AcDbLine
 10
347.3330080477616
 20
314.7306816934629
 30
0.0
 11
331.027550714895
 21
314.7306816934629
 31
0.0
  0
LINE
  5
17A6D
330
17A68
100
AcDbEntity
  8
DIM
 62
     0
440
 16777216
370
    -2
100
AcDbLine
 10
331.027550714895
 20
349.2306816934629
 30
0.0
 11
331.027550714895
 21
317.7306816934629
 31
0.0
  0
INSERT
  5
17A6E
330
17A68
100
AcDbEntity
  8
DIM
 62
     0
440
 16777216
370
    -2
100
AcDbBlockReference
  2
_DOT
 10
331.027550714895
 20
352.2306816934629
 30
0.0
 41
3.0
 42
3.0
 43
3.0
 50
90.0
  0
INSERT
  5
17A6F
330
17A68
100
AcDbEntity
  8
DIM
 62
     0
440
 16777216
370
    -2
100
AcDbBlockReference
  2
_DOT
 10
331.027550714895
 20
314.7306816934629
 30
0.0
 41
3.0
 42
3.0
 43
3.0
 50
270.0
  0
MTEXT
  5
17A70
330
17A68
100
AcDbEntity
  8
DIM
 62
     0
440
 16777216
100
AcDbMText
 10
321.026050152184
 20
333.4806816934629
 30
0.0
 40
8.0
 41
0.0
 46
0.0
 71
     5
 72
     1
  1
\A1;38
  7
ＭＳ ゴシック
 11
0.0
 21
1.0
 31
0.0
 73
     1
 44
1.0
  0
POINT
  5
17A71
330
17A68
100
AcDbEntity
  8
Defpoints
 62
     0
440
 16777216
100
AcDbPoint
 10
357.3330080477616
 20
352.2306816934629
 30
0.0
  0
POINT
  5
17A72
330
17A68
100
AcDbEntity
  8
Defpoints
 62
     0
440
 16777216
100
AcDbPoint
 10
357.3330080477616
 20
314.7306816934629
 30
0.0
  0
POINT
  5
17A73
330
17A68
100
AcDbEntity
  8
Defpoints
 62
     0
440
 16777216
100
AcDbPoint
 10
331.027550714895
 20
314.7306816934629
 30
0.0
  0
ENDBLK
  5
17A6A
330
17A68
100
AcDbEntity
  8
0
100
AcDbBlockEnd
  0
BLOCK
  5
17A78
330
17A77
100
AcDbEntity
  8
0
100
AcDbBlockBegin
  2
*D17
 70
     1
 10
0.0
 20
0.0
 30
0.0
  3
*D17
  1

  0
LINE
  5
17A7A
330
17A77
100
AcDbEntity
  8
DIM
 62
     0
370
    -2
100
AcDbLine
 10
477.4633918751474
 20
365.2306816934628
 30
0.0
 11
546.7613820179106
 21
365.2306816934628
 31
0.0
  0
LINE
  5
17A7B
330
17A77
100
AcDbEntity
  8
DIM
 62
     0
370
    -2
100
AcDbLine
 10
477.4633918751474
 20
297.0375907012628
 30
0.0
 11
546.7613820179106
 21
297.0375907012628
 31
0.0
  0
LINE
  5
17A7C
330
17A77
100
AcDbEntity
  8
DIM
 62
     0
370
    -2
100
AcDbLine
 10
546.7613820179106
 20
362.2306816934628
 30
0.0
 11
546.7613820179106
 21
300.0375907012629
 31
0.0
  0
INSERT
  5
17A7D
330
17A77
100
AcDbEntity
  8
DIM
 62
     0
370
    -2
100
AcDbBlockReference
  2
_DOT
 10
546.7613820179106
 20
365.2306816934628
 30
0.0
 41
3.0
 42
3.0
 43
3.0
 50
90.0
  0
INSERT
  5
17A7E
330
17A77
100
AcDbEntity
  8
DIM
 62
     0
370
    -2
100
AcDbBlockReference
  2
_DOT
 10
546.7613820179106
 20
297.0375907012628
 30
0.0
 41
3.0
 42
3.0
 43
3.0
 50
270.0
  0
MTEXT
  5
17A7F
330
17A77
100
AcDbEntity
  8
DIM
 62
     0
100
AcDbMText
 10
536.7613820179106
 20
331.1341361973627
 30
0.0
 40
8.0
 41
0.0
 46
0.0
 71
     5
 72
     1
  1
\A1;68
  7
ＭＳ ゴシック
 11
0.0
 21
1.0
 31
0.0
 73
     1
 44
1.0
  0
POINT
  5
17A80
330
17A77
100
AcDbEntity
  8
Defpoints
 62
     0
100
AcDbPoint
 10
467.4633918751474
 20
365.2306816934628
 30
0.0
  0
POINT
  5
17A81
330
17A77
100
AcDbEntity
  8
Defpoints
 62
     0
100
AcDbPoint
 10
467.4633918751474
 20
297.0375907012628
 30
0.0
  0
POINT
  5
17A82
330
17A77
100
AcDbEntity
  8
Defpoints
 62
     0
100
AcDbPoint
 10
546.7613820179106
 20
297.0375907012628
 30
0.0
  0
ENDBLK
  5
17A79
330
17A77
100
AcDbEntity
  8
0
100
AcDbBlockEnd
  0
BLOCK
  5
17A87
330
17A86
100
AcDbEntity
  8
0
100
AcDbBlockBegin
  2
*D18
 70
     1
 10
0.0
 20
0.0
 30
0.0
  3
*D18
  1

  0
LINE
  5
17A89
330
17A86
100
AcDbEntity
  8
DIM
 62
     0
440
 16777216
370
    -2
100
AcDbLine
 10
471.224816158728
 20
365.2306816934629
 30
0.0
 11
414.2020792457556
 21
365.2306816934629
 31
0.0
  0
LINE
  5
17A8A
330
17A86
100
AcDbEntity
  8
DIM
 62
     0
440
 16777216
370
    -2
100
AcDbLine
 10
471.224816158728
 20
297.0375907012628
 30
0.0
 11
414.2020792457556
 21
297.0375907012628
 31
0.0
  0
LINE
  5
17A8B
330
17A86
100
AcDbEntity
  8
DIM
 62
     0
440
 16777216
370
    -2
100
AcDbLine
 10
414.2020792457556
 20
362.2306816934629
 30
0.0
 11
414.2020792457556
 21
300.0375907012629
 31
0.0
  0
INSERT
  5
17A8C
330
17A86
100
AcDbEntity
  8
DIM
 62
     0
440
 16777216
370
    -2
100
AcDbBlockReference
  2
_DOT
 10
414.2020792457556
 20
365.2306816934629
 30
0.0
 41
3.0
 42
3.0
 43
3.0
 50
90.0
  0
INSERT
  5
17A8D
330
17A86
100
AcDbEntity
  8
DIM
 62
     0
440
 16777216
370
    -2
100
AcDbBlockReference
  2
_DOT
 10
414.2020792457556
 20
297.0375907012628
 30
0.0
 41
3.0
 42
3.0
 43
3.0
 50
270.0
  0
MTEXT
  5
17A8E
330
17A86
100
AcDbEntity
  8
DIM
 62
     0
440
 16777216
100
AcDbMText
 10
404.2020792457556
 20
331.1341361973628
 30
0.0
 40
8.0
 41
0.0
 46
0.0
 71
     5
 72
     1
  1
\A1;68
  7
ＭＳ ゴシック
 11
0.0
 21
1.0
 31
0.0
 73
     1
 44
1.0
  0
POINT
  5
17A8F
330
17A86
100
AcDbEntity
  8
Defpoints
 62
     0
440
 16777216
100
AcDbPoint
 10
481.2248161587279
 20
365.2306816934629
 30
0.0
  0
POINT
  5
17A90
330
17A86
100
AcDbEntity
  8
Defpoints
 62
     0
440
 16777216
100
AcDbPoint
 10
481.2248161587279
 20
297.0375907012628
 30
0.0
  0
POINT
  5
17A91
330
17A86
100
AcDbEntity
  8
Defpoints
 62
     0
440
 16777216
100
AcDbPoint
 10
414.2020792457556
 20
297.0375907012628
 30
0.0
  0
ENDBLK
  5
17A88
330
17A86
100
AcDbEntity
  8
0
100
AcDbBlockEnd
  0
BLOCK
  5
17AED
330
17AEC
100
AcDbEntity
  8
0
100
AcDbBlockBegin
  2
*D19
 70
     1
 10
0.0
 20
0.0
 30
0.0
  3
*D19
  1

  0
LINE
  5
17AEF
330
17AEC
100
AcDbEntity
  8
DIM
 62
     0
440
 16777216
370
    -2
100
AcDbLine
 10
347.3330080477616
 20
297.0226235865419
 30
0.0
 11
331.027550714895
 21
297.0226235865419
 31
0.0
  0
LINE
  5
17AF0
330
17AEC
100
AcDbEntity
  8
DIM
 62
     0
440
 16777216
370
    -2
100
AcDbLine
 10
347.3330080477616
 20
314.7306816934629
 30
0.0
 11
331.027550714895
 21
314.7306816934629
 31
0.0
  0
LINE
  5
17AF1
330
17AEC
100
AcDbEntity
  8
DIM
 62
     0
440
 16777216
370
    -2
100
AcDbLine
 10
331.027550714895
 20
300.0226235865418
 30
0.0
 11
331.027550714895
 21
311.7306816934629
 31
0.0
  0
INSERT
  5
17AF2
330
17AEC
100
AcDbEntity
  8
DIM
 62
     0
440
 16777216
370
    -2
100
AcDbBlockReference
  2
_DOT
 10
331.027550714895
 20
297.0226235865419
 30
0.0
 41
3.0
 42
3.0
 43
3.0
 50
270.0
  0
INSERT
  5
17AF3
330
17AEC
100
AcDbEntity
  8
DIM
 62
     0
440
 16777216
370
    -2
100
AcDbBlockReference
  2
_DOT
 10
331.027550714895
 20
314.7306816934629
 30
0.0
 41
3.0
 42
3.0
 43
3.0
 50
90.0
  0
MTEXT
  5
17AF4
330
17AEC
100
AcDbEntity
  8
DIM
 62
     0
440
 16777216
100
AcDbMText
 10
321.026050152184
 20
305.8766526400024
 30
0.0
 40
8.0
 41
0.0
 46
0.0
 71
     5
 72
     1
  1
\A1;18
  7
ＭＳ ゴシック
 11
0.0
 21
1.0
 31
0.0
 73
     1
 44
1.0
  0
POINT
  5
17AF5
330
17AEC
100
AcDbEntity
  8
Defpoints
 62
     0
440
 16777216
100
AcDbPoint
 10
357.3330080477616
 20
297.0226235865419
 30
0.0
  0
POINT
  5
17AF6
330
17AEC
100
AcDbEntity
  8
Defpoints
 62
     0
440
 16777216
100
AcDbPoint
 10
357.3330080477616
 20
314.7306816934629
 30
0.0
  0
POINT
  5
17AF7
330
17AEC
100
AcDbEntity
  8
Defpoints
 62
     0
440
 16777216
100
AcDbPoint
 10
331.027550714895
 20
314.7306816934629
 30
0.0
  0
ENDBLK
  5
17AEE
330
17AEC
100
AcDbEntity
  8
0
100
AcDbBlockEnd
  0
BLOCK
  5
17B4F
330
17B4E
100
AcDbEntity
  8
0
100
AcDbBlockBegin
  2
*D20
 70
     1
 10
0.0
 20
0.0
 30
0.0
  3
*D20
  1

  0
LINE
  5
17B51
330
17B4E
100
AcDbEntity
  8
DIM
 62
     0
440
 16777216
370
    -2
100
AcDbLine
 10
543.7124789897763
 20
408.7392430754426
 30
0.0
 11
523.5052383646809
 21
386.9795965622578
 31
0.0
  0
LINE
  5
17B52
330
17B4E
100
AcDbEntity
  8
DIM
 62
     0
440
 16777216
370
    -2
100
AcDbLine
 10
559.6891412432261
 20
393.9024092902193
 30
0.0
 11
539.4819006181307
 21
372.1427627770345
 31
0.0
  0
LINE
  5
17B53
330
17B4E
100
AcDbEntity
  8
DIM
 62
     0
440
 16777216
370
    -2
100
AcDbLine
 10
525.7035254137884
 20
384.9381426564038
 30
0.0
 11
537.2836135690232
 21
374.1842166828886
 31
0.0
  0
INSERT
  5
17B54
330
17B4E
100
AcDbEntity
  8
DIM
 62
     0
440
 16777216
370
    -2
100
AcDbBlockReference
  2
_DOT
 10
523.5052383646809
 20
386.9795965622578
 30
0.0
 41
3.0
 42
3.0
 43
3.0
 50
137.1184742290516
  0
INSERT
  5
17B55
330
17B4E
100
AcDbEntity
  8
DIM
 62
     0
440
 16777216
370
    -2
100
AcDbBlockReference
  2
_DOT
 10
539.4819006181307
 20
372.1427627770345
 30
0.0
 41
3.0
 42
3.0
 43
3.0
 50
317.1184742290516
  0
MTEXT
  5
17B56
330
17B4E
100
AcDbEntity
  8
DIM
 62
     0
440
 16777216
100
AcDbMText
 10
538.2994369541218
 20
386.8899027225289
 30
0.0
 40
8.0
 41
0.0
 46
0.0
 71
     5
 72
     1
  1
\A1;22
  7
ＭＳ ゴシック
 11
0.7327623497024664
 21
-0.6804846352846773
 31
0.0
 73
     1
 44
1.0
  0
POINT
  5
17B57
330
17B4E
100
AcDbEntity
  8
Defpoints
 62
     0
440
 16777216
100
AcDbPoint
 10
550.5173253426232
 20
416.0668665724673
 30
0.0
  0
POINT
  5
17B58
330
17B4E
100
AcDbEntity
  8
Defpoints
 62
     0
440
 16777216
100
AcDbPoint
 10
566.4939875960729
 20
401.230032787244
 30
0.0
  0
POINT
  5
17B59
330
17B4E
100
AcDbEntity
  8
Defpoints
 62
     0
440
 16777216
100
AcDbPoint
 10
539.4819006181307
 20
372.1427627770345
 30
0.0
  0
ENDBLK
  5
17B50
330
17B4E
100
AcDbEntity
  8
0
100
AcDbBlockEnd
  0
BLOCK
  5
17B5E
330
17B5D
100
AcDbEntity
  8
0
100
AcDbBlockBegin
  2
*D21
 70
     1
 10
0.0
 20
0.0
 30
0.0
  3
*D21
  1

  0
LINE
  5
17B60
330
17B5D
100
AcDbEntity
  8
DIM
 62
     0
440
 16777216
370
    -2
100
AcDbLine
 10
541.0368551442393
 20
399.8793606137676
 30
0.0
 11
519.9402733833424
 21
420.9759423748447
 31
0.0
  0
LINE
  5
17B61
330
17B5D
100
AcDbEntity
  8
DIM
 62
     0
440
 16777216
370
    -2
100
AcDbLine
 10
566.7048313014972
 20
425.5473367708061
 30
0.0
 11
545.6082495406002
 21
446.6439185318833
 31
0.0
  0
LINE
  5
17B62
330
17B5D
100
AcDbEntity
  8
DIM
 62
     0
440
 16777216
370
    -2
100
AcDbLine
 10
522.0615937269111
 20
423.0972627183954
 30
0.0
 11
543.4869291970314
 21
444.5225981883326
 31
0.0
  0
INSERT
  5
17B63
330
17B5D
100
AcDbEntity
  8
DIM
 62
     0
440
 16777216
370
    -2
100
AcDbBlockReference
  2
_DOT
 10
519.9402733833424
 20
420.9759423748447
 30
0.0
 41
3.0
 42
3.0
 43
3.0
 50
224.9999999997551
  0
INSERT
  5
17B64
330
17B5D
100
AcDbEntity
  8
DIM
 62
     0
440
 16777216
370
    -2
100
AcDbBlockReference
  2
_DOT
 10
545.6082495406002
 20
446.6439185318833
 30
0.0
 41
3.0
 42
3.0
 43
3.0
 50
44.99999999975518
  0
MTEXT
  5
17B65
330
17B5D
100
AcDbEntity
  8
DIM
 62
     0
440
 16777216
100
AcDbMText
 10
525.7021325920673
 20
440.8820593233283
 30
0.0
 40
8.0
 41
0.0
 46
0.0
 71
     5
 72
     1
  1
\A1;36
  7
ＭＳ ゴシック
 11
0.7071067811895691
 21
0.7071067811835262
 31
0.0
 73
     1
 44
1.0
  0
POINT
  5
17B66
330
17B5D
100
AcDbEntity
  8
Defpoints
 62
     0
440
 16777216
100
AcDbPoint
 10
548.1079229560746
 20
392.8082928018719
 30
0.0
  0
POINT
  5
17B67
330
17B5D
100
AcDbEntity
  8
Defpoints
 62
     0
440
 16777216
100
AcDbPoint
 10
573.7758991133325
 20
418.4762689589104
 30
0.0
  0
POINT
  5
17B68
330
17B5D
100
AcDbEntity
  8
Defpoints
 62
     0
440
 16777216
100
AcDbPoint
 10
545.6082495406002
 20
446.6439185318833
 30
0.0
  0
ENDBLK
  5
17B5F
330
17B5D
100
AcDbEntity
  8
0
100
AcDbBlockEnd
  0
BLOCK
  5
17B6F
330
17B6E
100
AcDbEntity
  8
0
100
AcDbBlockBegin
  2
*D22
 70
     1
 10
0.0
 20
0.0
 30
0.0
  3
*D22
  1

  0
LINE
  5
17B71
330
17B6E
100
AcDbEntity
  8
DIM
 62
     0
370
    -2
100
AcDbLine
 10
371.3330080477612
 20
741.2602517566851
 30
0.0
 11
371.3330080477612
 21
781.961932685138
 31
0.0
  0
LINE
  5
17B72
330
17B6E
100
AcDbEntity
  8
DIM
 62
     0
370
    -2
100
AcDbLine
 10
386.3330080477611
 20
696.2602517566851
 30
0.0
 11
386.3330080477611
 21
781.961932685138
 31
0.0
  0
LINE
  5
17B73
330
17B6E
100
AcDbEntity
  8
DIM
 62
     0
370
    -2
100
AcDbLine
 10
386.3330080477611
 20
781.961932685138
 30
0.0
 11
413.4900414654858
 21
781.961932685138
 31
0.0
  0
LINE
  5
17B74
330
17B6E
100
AcDbEntity
  8
DIM
 62
     0
370
    -2
100
AcDbLine
 10
374.3330080477611
 20
781.961932685138
 30
0.0
 11
383.3330080477612
 21
781.961932685138
 31
0.0
  0
LINE
  5
17B75
330
17B6E
100
AcDbEntity
  8
DIM
 62
     0
370
    -2
100
AcDbLine
 10
383.3330080477612
 20
781.961932685138
 30
0.0
 11
380.3330080477612
 21
781.961932685138
 31
0.0
  0
INSERT
  5
17B76
330
17B6E
100
AcDbEntity
  8
DIM
 62
     0
370
    -2
100
AcDbBlockReference
  2
_DOT
 10
371.3330080477612
 20
781.961932685138
 30
0.0
 41
3.0
 42
3.0
 43
3.0
 50
180.0
  0
INSERT
  5
17B77
330
17B6E
100
AcDbEntity
  8
DIM
 62
     0
370
    -2
100
AcDbBlockReference
  2
_DOT
 10
386.3330080477611
 20
781.961932685138
 30
0.0
 41
3.0
 42
3.0
 43
3.0
  0
MTEXT
  5
17B78
330
17B6E
100
AcDbEntity
  8
DIM
 62
     0
100
AcDbMText
 10
403.1043968487546
 20
791.963433247849
 30
0.0
 40
8.0
 41
0.0
 46
0.0
 71
     5
 72
     1
  1
\A1;15
  7
ＭＳ ゴシック
 73
     1
 44
1.0
  0
POINT
  5
17B79
330
17B6E
100
AcDbEntity
  8
Defpoints
 62
     0
100
AcDbPoint
 10
371.3330080477612
 20
731.260251756685
 30
0.0
  0
POINT
  5
17B7A
330
17B6E
100
AcDbEntity
  8
Defpoints
 62
     0
100
AcDbPoint
 10
386.3330080477611
 20
686.260251756685
 30
0.0
  0
POINT
  5
17B7B
330
17B6E
100
AcDbEntity
  8
Defpoints
 62
     0
100
AcDbPoint
 10
386.3330080477611
 20
781.961932685138
 30
0.0
  0
ENDBLK
  5
17B70
330
17B6E
100
AcDbEntity
  8
0
100
AcDbBlockEnd
  0
ENDSEC
  0
SECTION
  2
ENTITIES
  0
MTEXT
  5
177
330
A
100
AcDbEntity
  8
TEMPLATE
390
1D
100
AcDbMText
 10
23.76064336431923
 20
103.1195254894285
 30
0.0
 40
4.886523437499998
 41
0.0
 46
0.0
 71
     1
 72
     1
  1
品名
  7
ＭＳ ゴシック
 73
     1
 44
0.7828267384257844
  0
MTEXT
  5
178
330
A
100
AcDbEntity
  8
TEMPLATE
390
1D
100
AcDbMText
 10
23.76064336431923
 20
77.61952548942841
 30
0.0
 40
4.886523437499998
 41
0.0
 46
0.0
 71
     1
 72
     1
  1
仕様
  7
ＭＳ ゴシック
 73
     1
 44
0.7828267384257844
  0
LINE
  5
179
330
A
100
AcDbEntity
  8
TEMPLATE
390
1D
100
AcDbLine
 10
606.6606433641744
 20
80.14400205192853
 30
0.0
 11
21.66064336417462
 21
80.14400205192853
 31
0.0
  0
LWPOLYLINE
  5
17A
330
A
100
AcDbEntity
  8
TEMPLATE
390
1D
100
AcDbPolyline
 90
        5
 70
   128
 43
0.0
 10
606.6606433641744
 20
869.1440020519278
 10
21.66064336417462
 20
869.1440020519278
 10
21.66064336417462
 20
29.14400205192847
 10
606.6606433641744
 20
29.14400205192847
 10
606.6606433641744
 20
869.1440020519278
  0
LINE
  5
17B
330
A
100
AcDbEntity
  8
TEMPLATE
390
1D
100
AcDbLine
 10
606.6606433641744
 20
105.6440020519285
 30
0.0
 11
21.66064336417462
 21
105.6440020519285
 31
0.0
  0
LINE
  5
17C
330
A
100
AcDbEntity
  8
TEMPLATE
390
1D
100
AcDbLine
 10
606.6606433643196
 20
54.64400205192847
 30
0.0
 11
380.760643364319
 21
54.64400205192847
 31
0.0
  0
MTEXT
  5
17E
330
A
100
AcDbEntity
  8
TEMPLATE
390
1D
100
AcDbMText
 10
389.7220652399973
 20
45.67088370993604
 30
0.0
 40
7.329785156250001
 41
0.0
 46
0.0
 71
     1
 72
     1
  1
大洋金物株式会社 ティーフォルム事業部
  7
ＭＳ ゴシック
 73
     1
 44
0.7828267384257844
  0
MTEXT
  5
180
330
A
100
AcDbEntity
  8
TEMPLATE
390
1D
100
AcDbMText
 10
549.360643364397
 20
69.04478720817846
 30
0.0
 40
7.329785156250001
 41
0.0
 46
7.329785156250001
 71
     1
 72
     1
  1
{1:3}
  7
ＭＳ ゴシック
 73
     1
 44
0.7828267384257844
1001
ACAD
1000
ACAD_MTEXT_DEFINED_HEIGHT_BEGIN
1070
    46
1040
7.329785156250001
1000
ACAD_MTEXT_DEFINED_HEIGHT_END
  0
MTEXT
  5
181
330
A
100
AcDbEntity
  8
TEMPLATE
390
1D
100
AcDbMText
 10
533.4606433643968
 20
77.61952548942841
 30
0.0
 40
4.886523437499998
 41
0.0
 46
0.0
 71
     1
 72
     1
  1
縮尺
  7
ＭＳ ゴシック
 73
     1
 44
0.7828267384257844
  0
LINE
  5
182
330
A
100
AcDbEntity
  8
TEMPLATE
390
1D
100
AcDbLine
 10
531.3606433643969
 20
54.64400205192847
 30
0.0
 11
531.3606433643969
 21
80.14400205192853
 31
0.0
  0
MTEXT
  5
183
330
A
100
AcDbEntity
  8
TEMPLATE
390
1D
100
AcDbMText
 10
458.1606433643968
 20
77.61952548942841
 30
0.0
 40
4.886523437499998
 41
0.0
 46
0.0
 71
     1
 72
     1
  1
容量
  7
ＭＳ ゴシック
 73
     1
 44
0.7828267384257844
  0
LINE
  5
184
330
A
100
AcDbEntity
  8
TEMPLATE
390
1D
100
AcDbLine
 10
456.0606433643969
 20
54.64400205192847
 30
0.0
 11
456.0606433643969
 21
80.14400205192853
 31
0.0
  0
MTEXT
  5
185
330
A
100
AcDbEntity
  8
TEMPLATE
390
1D
100
AcDbMText
 10
382.860643364397
 20
103.1195254894285
 30
0.0
 40
4.886523437499998
 41
0.0
 46
0.0
 71
     1
 72
     1
  1
品番
  7
ＭＳ ゴシック
 73
     1
 44
0.7828267384257844
  0
MTEXT
  5
186
330
A
100
AcDbEntity
  8
TEMPLATE
390
1D
100
AcDbMText
 10
382.860643364397
 20
77.61952548942841
 30
0.0
 40
4.886523437499998
 41
0.0
 46
0.0
 71
     1
 72
     1
  1
重量
  7
ＭＳ ゴシック
 73
     1
 44
0.7828267384257844
  0
MTEXT
  5
187
330
A
100
AcDbEntity
  8
TEMPLATE
390
1D
100
AcDbMText
 10
398.760643364397
 20
94.54478720817844
 30
0.0
 40
7.329785156250001
 41
0.0
 46
7.329785156250001
 71
     1
 72
     1
  1
{FSB74-0203}
  7
ＭＳ ゴシック
 73
     1
 44
0.7828267384257844
1001
ACAD
1000
ACAD_MTEXT_DEFINED_HEIGHT_BEGIN
1070
    46
1040
7.329785156250001
1000
ACAD_MTEXT_DEFINED_HEIGHT_END
  0
LINE
  5
188
330
A
100
AcDbEntity
  8
TEMPLATE
390
1D
100
AcDbLine
 10
380.760643364397
 20
29.14400205192847
 30
0.0
 11
380.760643364397
 21
105.6440020519285
 31
0.0
  0
INSERT
  5
68C
330
A
100
AcDbEntity
  8
TEMPLATE
100
AcDbBlockReference
  2
block 2
 10
367.7097207081031
 20
3.349230605734546
 30
0.0
 41
0.1524
 42
0.1524
 43
0.1524
  0
LWPOLYLINE
  5
D69
330
A
100
AcDbEntity
  8
BORDER
100
AcDbPolyline
 90
        4
 70
     1
 43
0.0
 10
0.0
 20
0.0
 10
0.0
 20
891.0
 10
630.0
 20
891.0
 10
630.0
 20
0.0
  0
INSERT
  5
1343
330
A
100
AcDbEntity
  8
TEMPLATE
100
AcDbBlockReference
  2
block 2
 10
838.6973883465872
 20
9.774128564918274
 30
0.0
 41
0.1524
 42
0.1524
 43
0.1524
  0
MTEXT
  5
36AC
102
{ACAD_XDICTIONARY
360
36AE
102
}
330
A
100
AcDbEntity
  8
TEMPLATE
 48
0.05
100
AcDbMText
 10
22.06848147481188
 20
25.15049698669364
 30
0.0
 40
7.0
 41
0.0
 46
7.0
 71
     1
 72
     1
  1
20230926N
  7
ＭＳ ゴシック
 73
     1
 44
1.0
1001
ACAD
1000
ACAD_MTEXT_DEFINED_HEIGHT_BEGIN
1070
    46
1040
7.0
1000
ACAD_MTEXT_DEFINED_HEIGHT_END
  0
HATCH
  5
172F9
102
{ACAD_REACTORS
330
1730A
102
}
330
A
100
AcDbEntity
  8
TEMPLATE
100
AcDbHatch
 10
0.0
 20
0.0
 30
0.0
210
0.0
220
0.0
230
1.0
  2
SOLID
 70
     1
 71
     1
 91
        6
 92
        1
 93
        8
 72
     1
 10
580.3195574690817
 20
45.81237511424546
 11
580.3195574690817
 21
44.03955282504736
 72
     1
 10
580.3195574690817
 20
44.03955282504736
 11
577.5113800039879
 21
44.03955282504736
 72
     1
 10
577.5113800039879
 20
44.03955282504736
 11
577.5113800039879
 21
36.81237511467916
 72
     1
 10
577.5113800039879
 20
36.81237511467916
 11
575.0415960580052
 21
36.81237511467916
 72
     1
 10
575.0415960580052
 20
36.81237511467916
 11
575.0415960580052
 21
44.03955282504736
 72
     1
 10
575.0415960580052
 20
44.03955282504736
 11
572.2831856276421
 21
44.03955282504736
 72
     1
 10
572.2831856276421
 20
44.03955282504736
 11
572.2831856276421
 21
45.81237511424546
 72
     1
 10
572.2831856276421
 20
45.81237511424546
 11
580.3195574690817
 21
45.81237511424546
 97
        1
330
172FA
 92
        1
 93
        1
 72
     4
 94
        3
 73
     0
 74
     0
 95
       56
 96
       52
 40
0.0
 40
0.0
 40
0.0
 40
0.0
 40
1.0
 40
1.0
 40
1.0
 40
2.0
 40
2.0
 40
2.0
 40
3.0
 40
3.0
 40
3.0
 40
4.0
 40
4.0
 40
4.0
 40
5.0
 40
5.0
 40
5.0
 40
6.0
 40
6.0
 40
6.0
 40
7.0
 40
7.0
 40
7.0
 40
8.0
 40
8.0
 40
8.0
 40
9.0
 40
9.0
 40
9.0
 40
10.0
 40
10.0
 40
10.0
 40
11.0
 40
11.0
 40
11.0
 40
12.0
 40
12.0
 40
12.0
 40
13.0
 40
13.0
 40
13.0
 40
14.0
 40
14.0
 40
14.0
 40
15.0
 40
15.0
 40
15.0
 40
16.0
 40
16.0
 40
16.0
 40
17.0
 40
17.0
 40
17.0
 40
17.0
 10
584.0822130993691
 20
45.59806442612168
 10
584.4283729539446
 20
45.69550069232488
 10
584.875249681945
 20
45.61399880405779
 10
584.875249681945
 20
45.61399880405779
 10
584.875249681945
 20
45.61399880405779
 10
584.6605596038704
 20
44.96972771633077
 10
584.6605596038704
 20
44.96972771633077
 10
584.6605596038704
 20
44.96972771633077
 10
584.2218509183413
 20
45.07124800376957
 10
583.8834797162866
 20
44.80442528303579
 10
583.6205401632851
 20
44.59576081006296
 10
583.4501940753495
 20
44.04131587246591
 10
583.3848497355778
 20
43.83050896212374
 10
583.3848497355778
 20
43.83050896212374
 10
583.0935228874299
 20
42.93630916500407
 10
583.0935228874299
 20
42.93630916500407
 10
583.0935228874299
 20
42.93630916500407
 10
584.0487598325259
 20
42.93630916500407
 10
584.0487598325259
 20
42.93630916500407
 10
584.0487598325259
 20
42.93630916500407
 10
583.9001951911804
 20
42.37351764848811
 10
583.9001951911804
 20
42.37351764848811
 10
583.9001951911804
 20
42.37351764848811
 10
582.9371695935638
 20
42.37351764848811
 10
582.9371695935638
 20
42.37351764848811
 10
582.9371695935638
 20
42.37351764848811
 10
581.2141366561519
 20
36.81237511467916
 10
581.2141366561519
 20
36.81237511467916
 10
581.2141366561519
 20
36.81237511467916
 10
580.6746664630858
 20
36.81237511467916
 10
580.6746664630858
 20
36.81237511467916
 10
580.6746664630858
 20
36.81237511467916
 10
582.3992615944128
 20
42.37351764848811
 10
582.3992615944128
 20
42.37351764848811
 10
582.3992615944128
 20
42.37351764848811
 10
581.6886418993972
 20
42.37351764848811
 10
581.6886418993972
 20
42.37351764848811
 10
581.6886418993972
 20
42.37351764848811
 10
581.8376082477494
 20
42.93630916500407
 10
581.8376082477494
 20
42.93630916500407
 10
581.8376082477494
 20
42.93630916500407
 10
582.5556148882789
 20
42.93630916500407
 10
582.5556148882789
 20
42.93630916500407
 10
582.5556148882789
 20
42.93630916500407
 10
582.8095829847954
 20
43.71615636752356
 10
582.8095829847954
 20
43.71615636752356
 10
583.0149445334898
 20
44.36997915518984
 10
583.1891961062141
 20
44.72100412795849
 10
583.3385641615731
 20
44.98566209426688
 10
583.4863477059606
 20
45.25054323113452
 10
583.7788350410172
 20
45.51073778625616
 10
584.0822130993691
 20
45.59806442612168
 97
        0
 97
        1
330
17305
 92
        1
 93
        1
 72
     4
 94
        3
 73
     0
 74
     0
 95
       32
 96
       28
 40
0.0
 40
0.0
 40
0.0
 40
0.0
 40
1.0
 40
1.0
 40
1.0
 40
2.0
 40
2.0
 40
2.0
 40
3.0
 40
3.0
 40
3.0
 40
4.0
 40
4.0
 40
4.0
 40
5.0
 40
5.0
 40
5.0
 40
6.0
 40
6.0
 40
6.0
 40
7.0
 40
7.0
 40
7.0
 40
8.0
 40
8.0
 40
8.0
 40
9.0
 40
9.0
 40
9.0
 40
9.0
 10
585.394880012287
 20
42.5961972325865
 10
585.0701222143512
 20
42.17612328876155
 10
584.8200372855671
 20
41.79807236125814
 10
584.4151612568323
 20
40.60984535222243
 10
584.0429350809273
 20
39.52296009417805
 10
583.8060618492555
 20
38.73222216836346
 10
583.7702876085951
 20
37.76919657074652
 10
583.7430608003566
 20
37.05255127062911
 10
584.1794485120689
 20
36.81237511467916
 10
584.8192785056652
 20
36.81237511467916
 10
585.0950280487723
 20
36.81237511467916
 10
585.7908738527602
 20
36.82991632064247
 10
586.2864017626947
 20
37.44247487188884
 10
586.6332980801157
 20
37.87283697849896
 10
586.9530122234106
 20
38.3189549265978
 10
587.3816335996578
 20
39.78237355234213
 10
587.7383047875777
 20
41.00579455858404
 10
587.9852653285309
 20
41.79651016734281
 10
587.967009976778
 20
42.24671213667736
 10
587.967009976778
 20
42.24671213667736
 10
587.967009976778
 20
42.24671213667736
 10
587.967009976778
 20
42.24671213667736
 10
587.8506934812556
 20
42.99777033704319
 10
587.305398536591
 20
43.1564669217822
 10
586.9938524357677
 20
43.1564669217822
 10
586.6869929166901
 20
43.1564669217822
 10
585.8647433078982
 20
43.20955919784657
 10
585.394880012287
 20
42.5961972325865
 97
        0
 97
        1
330
17308
 92
        1
 93
        1
 72
     4
 94
        3
 73
     0
 74
     0
 95
       38
 96
       34
 40
0.0
 40
0.0
 40
0.0
 40
0.0
 40
1.0
 40
1.0
 40
1.0
 40
2.0
 40
2.0
 40
2.0
 40
3.0
 40
3.0
 40
3.0
 40
4.0
 40
4.0
 40
4.0
 40
5.0
 40
5.0
 40
5.0
 40
6.0
 40
6.0
 40
6.0
 40
7.0
 40
7.0
 40
7.0
 40
8.0
 40
8.0
 40
8.0
 40
9.0
 40
9.0
 40
9.0
 40
10.0
 40
10.0
 40
10.0
 40
11.0
 40
11.0
 40
11.0
 40
11.0
 10
589.9393467460162
 20
42.91472857191693
 10
589.9393467460162
 20
42.91472857191693
 10
590.4939702200607
 20
42.91472857191693
 10
590.4939702200607
 20
42.91472857191693
 10
590.4939702200607
 20
42.91472857191693
 10
590.2462062650937
 20
42.12146881878184
 10
590.2462062650937
 20
42.12146881878184
 10
590.4344729489438
 20
42.34414840288034
 10
590.7316022316344
 20
42.6407197591727
 10
590.9867754491711
 20
42.79026635097919
 10
591.3679507645053
 20
43.01294593507768
 10
591.5857652304103
 20
43.04231518068535
 10
591.8253165087942
 20
43.03646811203097
 10
591.8253165087942
 20
43.03646811203097
 10
591.591210592058
 20
42.28639186212602
 10
591.591210592058
 20
42.28639186212602
 10
591.4387404659245
 20
42.35095510493986
 10
590.9688771703129
 20
42.22805507791734
 10
590.6993317687555
 20
42.03416449597225
 10
590.4562543955343
 20
41.85933267979383
 10
590.2882069643595
 20
41.71056718494513
 10
590.0890941913261
 20
41.3365779616216
 10
589.8914989780961
 20
40.96203081189956
 10
589.7355473912369
 20
40.36480407807901
 10
589.4671624765877
 20
39.49841133265191
 10
589.4671624765877
 20
39.49841133265191
 10
588.6289784898597
 20
36.81237511467916
 10
588.6289784898597
 20
36.81237511467916
 10
588.6289784898597
 20
36.81237511467916
 10
588.0906911007581
 20
36.81237511467916
 10
588.0906911007581
 20
36.81237511467916
 10
588.0906911007581
 20
36.81237511467916
 10
589.9393467460162
 20
42.91472857191693
 10
589.9393467460162
 20
42.91472857191693
 97
        0
 97
        1
330
17306
 92
        1
 93
        1
 72
     4
 94
        3
 73
     0
 74
     0
 95
      104
 96
      100
 40
0.0
 40
0.0
 40
0.0
 40
0.0
 40
1.0
 40
1.0
 40
1.0
 40
2.0
 40
2.0
 40
2.0
 40
3.0
 40
3.0
 40
3.0
 40
4.0
 40
4.0
 40
4.0
 40
5.0
 40
5.0
 40
5.0
 40
6.0
 40
6.0
 40
6.0
 40
7.0
 40
7.0
 40
7.0
 40
8.0
 40
8.0
 40
8.0
 40
9.0
 40
9.0
 40
9.0
 40
10.0
 40
10.0
 40
10.0
 40
11.0
 40
11.0
 40
11.0
 40
12.0
 40
12.0
 40
12.0
 40
13.0
 40
13.0
 40
13.0
 40
14.0
 40
14.0
 40
14.0
 40
15.0
 40
15.0
 40
15.0
 40
16.0
 40
16.0
 40
16.0
 40
17.0
 40
17.0
 40
17.0
 40
18.0
 40
18.0
 40
18.0
 40
19.0
 40
19.0
 40
19.0
 40
20.0
 40
20.0
 40
20.0
 40
21.0
 40
21.0
 40
21.0
 40
22.0
 40
22.0
 40
22.0
 40
23.0
 40
23.0
 40
23.0
 40
24.0
 40
24.0
 40
24.0
 40
25.0
 40
25.0
 40
25.0
 40
26.0
 40
26.0
 40
26.0
 40
27.0
 40
27.0
 40
27.0
 40
28.0
 40
28.0
 40
28.0
 40
29.0
 40
29.0
 40
29.0
 40
30.0
 40
30.0
 40
30.0
 40
31.0
 40
31.0
 40
31.0
 40
32.0
 40
32.0
 40
32.0
 40
33.0
 40
33.0
 40
33.0
 40
33.0
 10
592.9921860953021
 20
42.91803149619497
 10
592.9921860953021
 20
42.91803149619497
 10
593.4764215749342
 20
42.91803149619497
 10
593.4764215749342
 20
42.91803149619497
 10
593.4764215749342
 20
42.91803149619497
 10
593.2317820077977
 20
42.12401296315815
 10
593.2317820077977
 20
42.12401296315815
 10
593.4441064779437
 20
42.4569388035653
 10
593.6346941356106
 20
42.6053249084632
 10
593.8879034522252
 20
42.79707305303871
 10
594.1418715487417
 20
42.9860985167904
 10
594.4433303402832
 20
43.02461775533059
 10
594.6525750567103
 20
43.02461775533059
 10
594.9116314419795
 20
43.02461775533059
 10
595.1617163707637
 20
42.97346706313235
 10
595.2931638302082
 20
42.68952716049804
 10
595.3939030206897
 20
42.46686989345536
 10
595.3985896024353
 20
42.44060271862234
 10
595.369800600282
 20
42.0010906190797
 10
595.6330972261784
 20
42.451694295421
 10
595.8275680515779
 20
42.6457857308695
 10
596.1581729181679
 20
42.83226705024478
 10
596.5051138697007
 20
43.02461775533059
 10
596.7073510305647
 20
43.03901225640729
 10
596.9423049954265
 20
43.00437618559953
 10
597.2884425329456
 20
42.9532478104571
 10
597.5093813866816
 20
42.8297452229244
 10
597.6248944681901
 20
42.45441697624481
 10
597.7408092567058
 20
42.08024921647379
 10
597.678187597758
 20
41.87955193246918
 10
597.5350460010043
 20
41.28388739256386
 10
597.4697016612327
 20
41.01260126064356
 10
597.3751666123011
 20
40.68411651436711
 10
597.2514854883209
 20
40.29325559675825
 10
597.2514854883209
 20
40.29325559675825
 10
596.1581729181679
 20
36.81237511467916
 10
596.1581729181679
 20
36.81237511467916
 10
596.1581729181679
 20
36.81237511467916
 10
595.5895343329975
 20
36.81237511467916
 10
595.5895343329975
 20
36.81237511467916
 10
595.5895343329975
 20
36.81237511467916
 10
596.5467574960716
 20
39.85548422757835
 10
596.5467574960716
 20
39.85548422757835
 10
596.7466736831187
 20
40.49218983334411
 10
596.8820043102957
 20
40.95716569370618
 10
596.9520352318129
 20
41.24869339535778
 10
597.0399197980767
 20
41.61234982178448
 10
597.0749129417798
 20
41.73234863153571
 10
597.0333139495209
 20
41.99702891489992
 10
596.9951964179876
 20
42.24340921239921
 10
596.8707118799938
 20
42.40384652750091
 10
596.6575839958343
 20
42.40384652750091
 10
596.4304410005492
 20
42.40384652750091
 10
596.2464591914384
 20
42.37856130312887
 10
595.9890096341962
 20
42.11992894192245
 10
595.7315154428426
 20
41.85933267979383
 10
595.5187446315782
 20
41.55343279412156
 10
595.3519023214237
 20
41.20162672439525
 10
595.1854170841643
 20
40.8476782172995
 10
595.0166108730878
 20
40.39903844188015
 10
594.8454836881942
 20
39.85548422757835
 10
594.8454836881942
 20
39.85548422757835
 10
593.8879034522252
 20
36.81237511467916
 10
593.8879034522252
 20
36.81237511467916
 10
593.8879034522252
 20
36.81237511467916
 10
593.3530975238491
 20
36.81237511467916
 10
593.3530975238491
 20
36.81237511467916
 10
593.3530975238491
 20
36.81237511467916
 10
594.4479722879174
 20
40.29169340284293
 10
594.4479722879174
 20
40.29169340284293
 10
594.5634853694261
 20
40.66197799488166
 10
594.6502540828931
 20
40.96379385931832
 10
594.7074303801933
 20
41.19968514052912
 10
594.804643475837
 20
41.60574397322828
 10
594.8318702840752
 20
41.88033302942674
 10
594.7583579018322
 20
42.12401296315815
 10
594.6860060064978
 20
42.36691179993202
 10
594.5588434217921
 20
42.42895321542549
 10
594.3464743175346
 20
42.42895321542549
 10
594.1683395770781
 20
42.42895321542549
 10
593.9944897113608
 20
42.3525172988552
 10
593.7961357182293
 20
42.20042656267251
 10
593.5464078623398
 20
42.00908012510374
 10
593.4464720858723
 20
41.85194573428018
 10
593.3239514488007
 20
41.66524124434543
 10
593.1586266984498
 20
41.41825838633597
 10
593.0812311484743
 20
41.25199631963583
 10
592.941615646558
 20
40.88715708924471
 10
592.8019555105301
 20
40.52017542148403
 10
592.6697492711836
 20
40.09311623915196
 10
592.5775351960687
 20
39.7977276868239
 10
592.5775351960687
 20
39.7977276868239
 10
591.6382549459647
 20
36.81237511467916
 10
591.6382549459647
 20
36.81237511467916
 10
591.6382549459647
 20
36.81237511467916
 10
591.0781861102723
 20
36.81237511467916
 10
591.0781861102723
 20
36.81237511467916
 10
591.0781861102723
 20
36.81237511467916
 10
592.9921860953021
 20
42.91803149619497
 10
592.9921860953021
 20
42.91803149619497
 97
        0
 97
        1
330
17307
 92
       16
 93
        1
 72
     4
 94
        3
 73
     0
 74
     0
 95
       29
 96
       25
 40
0.0
 40
0.0
 40
0.0
 40
0.0
 40
1.0
 40
1.0
 40
1.0
 40
2.0
 40
2.0
 40
2.0
 40
3.0
 40
3.0
 40
3.0
 40
4.0
 40
4.0
 40
4.0
 40
5.0
 40
5.0
 40
5.0
 40
6.0
 40
6.0
 40
6.0
 40
7.0
 40
7.0
 40
7.0
 40
8.0
 40
8.0
 40
8.0
 40
8.0
 10
584.3513791109763
 20
37.94925057801331
 10
584.3490135030472
 20
38.37439049353518
 10
584.4832282774278
 20
39.12973356864028
 10
584.82704484113
 20
40.1403837636178
 10
585.2953459428261
 20
41.50888795047953
 10
585.5761837746857
 20
42.00908012510374
 10
585.8219391946189
 20
42.25255920533161
 10
586.1809759904676
 20
42.60708795588196
 10
586.6636492761844
 20
42.62476306418077
 10
586.8060320930363
 20
42.60708795588196
 10
587.0086709609071
 20
42.58276236491495
 10
587.2949095203023
 20
42.45013210150577
 10
587.3120043851471
 20
42.00363476345613
 10
587.3256624233779
 20
41.621499814717
 10
587.2155500694051
 20
40.90583646506057
 10
586.8301345134438
 20
39.78237355234213
 10
586.3859358321552
 20
38.47687041437903
 10
586.1191131114213
 20
37.96366739614585
 10
585.9052264473606
 20
37.74000586158636
 10
585.502269685436
 20
37.32071301471897
 10
585.0701222143512
 20
37.36097298362186
 10
585.0063400684949
 20
37.36097298362186
 10
584.923499156872
 20
37.36097298362186
 10
584.3525395978846
 20
37.45086608491963
 10
584.3513791109763
 20
37.94925057801331
 97
        0
 97
        1
330
17309
 75
     0
 76
     1
 98
        1
 10
557.7769876859739
 20
21.56103299246715
450
        0
451
        0
460
0.0
461
0.0
452
        0
462
0.0
453
        0
470

1001
ACAD
1010
0.0
1020
0.0
1030
0.0
  0
POLYLINE
  5
172FA
102
{ACAD_REACTORS
330
172F9
330
1730A
102
}
330
A
100
AcDbEntity
  8
TEMPLATE
100
AcDb2dPolyline
 66
     1
 10
0.0
 20
0.0
 30
0.0
  0
VERTEX
  5
172FB
330
172FA
100
AcDbEntity
  8
TEMPLATE
100
AcDbVertex
100
AcDb2dVertex
 10
580.3195574690817
 20
45.81237511424546
 30
0.0
  0
VERTEX
  5
172FC
330
172FA
100
AcDbEntity
  8
TEMPLATE
100
AcDbVertex
100
AcDb2dVertex
 10
580.3195574690817
 20
44.03955282504736
 30
0.0
  0
VERTEX
  5
172FD
330
172FA
100
AcDbEntity
  8
TEMPLATE
100
AcDbVertex
100
AcDb2dVertex
 10
577.5113800039879
 20
44.03955282504736
 30
0.0
  0
VERTEX
  5
172FE
330
172FA
100
AcDbEntity
  8
TEMPLATE
100
AcDbVertex
100
AcDb2dVertex
 10
577.5113800039879
 20
36.81237511467916
 30
0.0
  0
VERTEX
  5
172FF
330
172FA
100
AcDbEntity
  8
TEMPLATE
100
AcDbVertex
100
AcDb2dVertex
 10
575.0415960580052
 20
36.81237511467916
 30
0.0
  0
VERTEX
  5
17300
330
172FA
100
AcDbEntity
  8
TEMPLATE
100
AcDbVertex
100
AcDb2dVertex
 10
575.0415960580052
 20
44.03955282504736
 30
0.0
  0
VERTEX
  5
17301
330
172FA
100
AcDbEntity
  8
TEMPLATE
100
AcDbVertex
100
AcDb2dVertex
 10
572.2831856276421
 20
44.03955282504736
 30
0.0
  0
VERTEX
  5
17302
330
172FA
100
AcDbEntity
  8
TEMPLATE
100
AcDbVertex
100
AcDb2dVertex
 10
572.2831856276421
 20
45.81237511424546
 30
0.0
  0
VERTEX
  5
17303
330
172FA
100
AcDbEntity
  8
TEMPLATE
100
AcDbVertex
100
AcDb2dVertex
 10
580.3195574690817
 20
45.81237511424546
 30
0.0
  0
SEQEND
  5
17304
330
172FA
100
AcDbEntity
  8
TEMPLATE
  0
SPLINE
  5
17305
102
{ACAD_REACTORS
330
172F9
330
1730A
102
}
330
A
100
AcDbEntity
  8
TEMPLATE
100
AcDbSpline
210
0.0
220
0.0
230
1.0
 70
     9
 71
     3
 72
    56
 73
    52
 74
     0
 42
0.000000001
 43
0.0000000001
 40
0.0
 40
0.0
 40
0.0
 40
0.0
 40
1.0
 40
1.0
 40
1.0
 40
2.0
 40
2.0
 40
2.0
 40
3.0
 40
3.0
 40
3.0
 40
4.0
 40
4.0
 40
4.0
 40
5.0
 40
5.0
 40
5.0
 40
6.0
 40
6.0
 40
6.0
 40
7.0
 40
7.0
 40
7.0
 40
8.0
 40
8.0
 40
8.0
 40
9.0
 40
9.0
 40
9.0
 40
10.0
 40
10.0
 40
10.0
 40
11.0
 40
11.0
 40
11.0
 40
12.0
 40
12.0
 40
12.0
 40
13.0
 40
13.0
 40
13.0
 40
14.0
 40
14.0
 40
14.0
 40
15.0
 40
15.0
 40
15.0
 40
16.0
 40
16.0
 40
16.0
 40
17.0
 40
17.0
 40
17.0
 40
17.0
 10
584.0822130993691
 20
45.59806442612168
 30
0.0
 10
584.4283729539446
 20
45.69550069232488
 30
0.0
 10
584.875249681945
 20
45.61399880405779
 30
0.0
 10
584.875249681945
 20
45.61399880405779
 30
0.0
 10
584.875249681945
 20
45.61399880405779
 30
0.0
 10
584.6605596038704
 20
44.96972771633077
 30
0.0
 10
584.6605596038704
 20
44.96972771633077
 30
0.0
 10
584.6605596038704
 20
44.96972771633077
 30
0.0
 10
584.2218509183413
 20
45.07124800376957
 30
0.0
 10
583.8834797162866
 20
44.80442528303579
 30
0.0
 10
583.6205401632851
 20
44.59576081006296
 30
0.0
 10
583.4501940753495
 20
44.04131587246591
 30
0.0
 10
583.3848497355778
 20
43.83050896212374
 30
0.0
 10
583.3848497355778
 20
43.83050896212374
 30
0.0
 10
583.0935228874299
 20
42.93630916500407
 30
0.0
 10
583.0935228874299
 20
42.93630916500407
 30
0.0
 10
583.0935228874299
 20
42.93630916500407
 30
0.0
 10
584.0487598325259
 20
42.93630916500407
 30
0.0
 10
584.0487598325259
 20
42.93630916500407
 30
0.0
 10
584.0487598325259
 20
42.93630916500407
 30
0.0
 10
583.9001951911804
 20
42.37351764848811
 30
0.0
 10
583.9001951911804
 20
42.37351764848811
 30
0.0
 10
583.9001951911804
 20
42.37351764848811
 30
0.0
 10
582.9371695935638
 20
42.37351764848811
 30
0.0
 10
582.9371695935638
 20
42.37351764848811
 30
0.0
 10
582.9371695935638
 20
42.37351764848811
 30
0.0
 10
581.2141366561519
 20
36.81237511467916
 30
0.0
 10
581.2141366561519
 20
36.81237511467916
 30
0.0
 10
581.2141366561519
 20
36.81237511467916
 30
0.0
 10
580.6746664630858
 20
36.81237511467916
 30
0.0
 10
580.6746664630858
 20
36.81237511467916
 30
0.0
 10
580.6746664630858
 20
36.81237511467916
 30
0.0
 10
582.3992615944128
 20
42.37351764848811
 30
0.0
 10
582.3992615944128
 20
42.37351764848811
 30
0.0
 10
582.3992615944128
 20
42.37351764848811
 30
0.0
 10
581.6886418993972
 20
42.37351764848811
 30
0.0
 10
581.6886418993972
 20
42.37351764848811
 30
0.0
 10
581.6886418993972
 20
42.37351764848811
 30
0.0
 10
581.8376082477494
 20
42.93630916500407
 30
0.0
 10
581.8376082477494
 20
42.93630916500407
 30
0.0
 10
581.8376082477494
 20
42.93630916500407
 30
0.0
 10
582.5556148882789
 20
42.93630916500407
 30
0.0
 10
582.5556148882789
 20
42.93630916500407
 30
0.0
 10
582.5556148882789
 20
42.93630916500407
 30
0.0
 10
582.8095829847954
 20
43.71615636752356
 30
0.0
 10
582.8095829847954
 20
43.71615636752356
 30
0.0
 10
583.0149445334898
 20
44.36997915518984
 30
0.0
 10
583.1891961062141
 20
44.72100412795849
 30
0.0
 10
583.3385641615731
 20
44.98566209426688
 30
0.0
 10
583.4863477059606
 20
45.25054323113452
 30
0.0
 10
583.7788350410172
 20
45.51073778625616
 30
0.0
 10
584.0822130993691
 20
45.59806442612168
 30
0.0
  0
SPLINE
  5
17306
102
{ACAD_REACTORS
330
172F9
330
1730A
102
}
330
A
100
AcDbEntity
  8
TEMPLATE
100
AcDbSpline
210
0.0
220
0.0
230
1.0
 70
    11
 71
     3
 72
    38
 73
    34
 74
     0
 42
0.000000001
 43
0.0000000001
 40
0.0
 40
0.0
 40
0.0
 40
0.0
 40
1.0
 40
1.0
 40
1.0
 40
2.0
 40
2.0
 40
2.0
 40
3.0
 40
3.0
 40
3.0
 40
4.0
 40
4.0
 40
4.0
 40
5.0
 40
5.0
 40
5.0
 40
6.0
 40
6.0
 40
6.0
 40
7.0
 40
7.0
 40
7.0
 40
8.0
 40
8.0
 40
8.0
 40
9.0
 40
9.0
 40
9.0
 40
10.0
 40
10.0
 40
10.0
 40
11.0
 40
11.0
 40
11.0
 40
11.0
 10
589.9393467460162
 20
42.91472857191693
 30
0.0
 10
589.9393467460162
 20
42.91472857191693
 30
0.0
 10
590.4939702200607
 20
42.91472857191693
 30
0.0
 10
590.4939702200607
 20
42.91472857191693
 30
0.0
 10
590.4939702200607
 20
42.91472857191693
 30
0.0
 10
590.2462062650937
 20
42.12146881878184
 30
0.0
 10
590.2462062650937
 20
42.12146881878184
 30
0.0
 10
590.4344729489438
 20
42.34414840288034
 30
0.0
 10
590.7316022316344
 20
42.6407197591727
 30
0.0
 10
590.9867754491711
 20
42.79026635097919
 30
0.0
 10
591.3679507645053
 20
43.01294593507768
 30
0.0
 10
591.5857652304103
 20
43.04231518068535
 30
0.0
 10
591.8253165087942
 20
43.03646811203097
 30
0.0
 10
591.8253165087942
 20
43.03646811203097
 30
0.0
 10
591.591210592058
 20
42.28639186212602
 30
0.0
 10
591.591210592058
 20
42.28639186212602
 30
0.0
 10
591.4387404659245
 20
42.35095510493986
 30
0.0
 10
590.9688771703129
 20
42.22805507791734
 30
0.0
 10
590.6993317687555
 20
42.03416449597225
 30
0.0
 10
590.4562543955343
 20
41.85933267979383
 30
0.0
 10
590.2882069643595
 20
41.71056718494513
 30
0.0
 10
590.0890941913261
 20
41.3365779616216
 30
0.0
 10
589.8914989780961
 20
40.96203081189956
 30
0.0
 10
589.7355473912369
 20
40.36480407807901
 30
0.0
 10
589.4671624765877
 20
39.49841133265191
 30
0.0
 10
589.4671624765877
 20
39.49841133265191
 30
0.0
 10
588.6289784898597
 20
36.81237511467916
 30
0.0
 10
588.6289784898597
 20
36.81237511467916
 30
0.0
 10
588.6289784898597
 20
36.81237511467916
 30
0.0
 10
588.0906911007581
 20
36.81237511467916
 30
0.0
 10
588.0906911007581
 20
36.81237511467916
 30
0.0
 10
588.0906911007581
 20
36.81237511467916
 30
0.0
 10
589.9393467460162
 20
42.91472857191693
 30
0.0
 10
589.9393467460162
 20
42.91472857191693
 30
0.0
  0
SPLINE
  5
17307
102
{ACAD_REACTORS
330
172F9
330
1730A
102
}
330
A
100
AcDbEntity
  8
TEMPLATE
100
AcDbSpline
210
0.0
220
0.0
230
1.0
 70
    11
 71
     3
 72
   104
 73
   100
 74
     0
 42
0.000000001
 43
0.0000000001
 40
0.0
 40
0.0
 40
0.0
 40
0.0
 40
1.0
 40
1.0
 40
1.0
 40
2.0
 40
2.0
 40
2.0
 40
3.0
 40
3.0
 40
3.0
 40
4.0
 40
4.0
 40
4.0
 40
5.0
 40
5.0
 40
5.0
 40
6.0
 40
6.0
 40
6.0
 40
7.0
 40
7.0
 40
7.0
 40
8.0
 40
8.0
 40
8.0
 40
9.0
 40
9.0
 40
9.0
 40
10.0
 40
10.0
 40
10.0
 40
11.0
 40
11.0
 40
11.0
 40
12.0
 40
12.0
 40
12.0
 40
13.0
 40
13.0
 40
13.0
 40
14.0
 40
14.0
 40
14.0
 40
15.0
 40
15.0
 40
15.0
 40
16.0
 40
16.0
 40
16.0
 40
17.0
 40
17.0
 40
17.0
 40
18.0
 40
18.0
 40
18.0
 40
19.0
 40
19.0
 40
19.0
 40
20.0
 40
20.0
 40
20.0
 40
21.0
 40
21.0
 40
21.0
 40
22.0
 40
22.0
 40
22.0
 40
23.0
 40
23.0
 40
23.0
 40
24.0
 40
24.0
 40
24.0
 40
25.0
 40
25.0
 40
25.0
 40
26.0
 40
26.0
 40
26.0
 40
27.0
 40
27.0
 40
27.0
 40
28.0
 40
28.0
 40
28.0
 40
29.0
 40
29.0
 40
29.0
 40
30.0
 40
30.0
 40
30.0
 40
31.0
 40
31.0
 40
31.0
 40
32.0
 40
32.0
 40
32.0
 40
33.0
 40
33.0
 40
33.0
 40
33.0
 10
592.9921860953021
 20
42.91803149619497
 30
0.0
 10
592.9921860953021
 20
42.91803149619497
 30
0.0
 10
593.4764215749342
 20
42.91803149619497
 30
0.0
 10
593.4764215749342
 20
42.91803149619497
 30
0.0
 10
593.4764215749342
 20
42.91803149619497
 30
0.0
 10
593.2317820077977
 20
42.12401296315815
 30
0.0
 10
593.2317820077977
 20
42.12401296315815
 30
0.0
 10
593.4441064779437
 20
42.4569388035653
 30
0.0
 10
593.6346941356106
 20
42.6053249084632
 30
0.0
 10
593.8879034522252
 20
42.79707305303871
 30
0.0
 10
594.1418715487417
 20
42.9860985167904
 30
0.0
 10
594.4433303402832
 20
43.02461775533059
 30
0.0
 10
594.6525750567103
 20
43.02461775533059
 30
0.0
 10
594.9116314419795
 20
43.02461775533059
 30
0.0
 10
595.1617163707637
 20
42.97346706313235
 30
0.0
 10
595.2931638302082
 20
42.68952716049804
 30
0.0
 10
595.3939030206897
 20
42.46686989345536
 30
0.0
 10
595.3985896024353
 20
42.44060271862234
 30
0.0
 10
595.369800600282
 20
42.0010906190797
 30
0.0
 10
595.6330972261784
 20
42.451694295421
 30
0.0
 10
595.8275680515779
 20
42.6457857308695
 30
0.0
 10
596.1581729181679
 20
42.83226705024478
 30
0.0
 10
596.5051138697007
 20
43.02461775533059
 30
0.0
 10
596.7073510305647
 20
43.03901225640729
 30
0.0
 10
596.9423049954265
 20
43.00437618559953
 30
0.0
 10
597.2884425329456
 20
42.9532478104571
 30
0.0
 10
597.5093813866816
 20
42.8297452229244
 30
0.0
 10
597.6248944681901
 20
42.45441697624481
 30
0.0
 10
597.7408092567058
 20
42.08024921647379
 30
0.0
 10
597.678187597758
 20
41.87955193246918
 30
0.0
 10
597.5350460010043
 20
41.28388739256386
 30
0.0
 10
597.4697016612327
 20
41.01260126064356
 30
0.0
 10
597.3751666123011
 20
40.68411651436711
 30
0.0
 10
597.2514854883209
 20
40.29325559675825
 30
0.0
 10
597.2514854883209
 20
40.29325559675825
 30
0.0
 10
596.1581729181679
 20
36.81237511467916
 30
0.0
 10
596.1581729181679
 20
36.81237511467916
 30
0.0
 10
596.1581729181679
 20
36.81237511467916
 30
0.0
 10
595.5895343329975
 20
36.81237511467916
 30
0.0
 10
595.5895343329975
 20
36.81237511467916
 30
0.0
 10
595.5895343329975
 20
36.81237511467916
 30
0.0
 10
596.5467574960716
 20
39.85548422757835
 30
0.0
 10
596.5467574960716
 20
39.85548422757835
 30
0.0
 10
596.7466736831187
 20
40.49218983334411
 30
0.0
 10
596.8820043102957
 20
40.95716569370618
 30
0.0
 10
596.9520352318129
 20
41.24869339535778
 30
0.0
 10
597.0399197980767
 20
41.61234982178448
 30
0.0
 10
597.0749129417798
 20
41.73234863153571
 30
0.0
 10
597.0333139495209
 20
41.99702891489992
 30
0.0
 10
596.9951964179876
 20
42.24340921239921
 30
0.0
 10
596.8707118799938
 20
42.40384652750091
 30
0.0
 10
596.6575839958343
 20
42.40384652750091
 30
0.0
 10
596.4304410005492
 20
42.40384652750091
 30
0.0
 10
596.2464591914384
 20
42.37856130312887
 30
0.0
 10
595.9890096341962
 20
42.11992894192245
 30
0.0
 10
595.7315154428426
 20
41.85933267979383
 30
0.0
 10
595.5187446315782
 20
41.55343279412156
 30
0.0
 10
595.3519023214237
 20
41.20162672439525
 30
0.0
 10
595.1854170841643
 20
40.8476782172995
 30
0.0
 10
595.0166108730878
 20
40.39903844188015
 30
0.0
 10
594.8454836881942
 20
39.85548422757835
 30
0.0
 10
594.8454836881942
 20
39.85548422757835
 30
0.0
 10
593.8879034522252
 20
36.81237511467916
 30
0.0
 10
593.8879034522252
 20
36.81237511467916
 30
0.0
 10
593.8879034522252
 20
36.81237511467916
 30
0.0
 10
593.3530975238491
 20
36.81237511467916
 30
0.0
 10
593.3530975238491
 20
36.81237511467916
 30
0.0
 10
593.3530975238491
 20
36.81237511467916
 30
0.0
 10
594.4479722879174
 20
40.29169340284293
 30
0.0
 10
594.4479722879174
 20
40.29169340284293
 30
0.0
 10
594.5634853694261
 20
40.66197799488166
 30
0.0
 10
594.6502540828931
 20
40.96379385931832
 30
0.0
 10
594.7074303801933
 20
41.19968514052912
 30
0.0
 10
594.804643475837
 20
41.60574397322828
 30
0.0
 10
594.8318702840752
 20
41.88033302942674
 30
0.0
 10
594.7583579018322
 20
42.12401296315815
 30
0.0
 10
594.6860060064978
 20
42.36691179993202
 30
0.0
 10
594.5588434217921
 20
42.42895321542549
 30
0.0
 10
594.3464743175346
 20
42.42895321542549
 30
0.0
 10
594.1683395770781
 20
42.42895321542549
 30
0.0
 10
593.9944897113608
 20
42.3525172988552
 30
0.0
 10
593.7961357182293
 20
42.20042656267251
 30
0.0
 10
593.5464078623398
 20
42.00908012510374
 30
0.0
 10
593.4464720858723
 20
41.85194573428018
 30
0.0
 10
593.3239514488007
 20
41.66524124434543
 30
0.0
 10
593.1586266984498
 20
41.41825838633597
 30
0.0
 10
593.0812311484743
 20
41.25199631963583
 30
0.0
 10
592.941615646558
 20
40.88715708924471
 30
0.0
 10
592.8019555105301
 20
40.52017542148403
 30
0.0
 10
592.6697492711836
 20
40.09311623915196
 30
0.0
 10
592.5775351960687
 20
39.7977276868239
 30
0.0
 10
592.5775351960687
 20
39.7977276868239
 30
0.0
 10
591.6382549459647
 20
36.81237511467916
 30
0.0
 10
591.6382549459647
 20
36.81237511467916
 30
0.0
 10
591.6382549459647
 20
36.81237511467916
 30
0.0
 10
591.0781861102723
 20
36.81237511467916
 30
0.0
 10
591.0781861102723
 20
36.81237511467916
 30
0.0
 10
591.0781861102723
 20
36.81237511467916
 30
0.0
 10
592.9921860953021
 20
42.91803149619497
 30
0.0
 10
592.9921860953021
 20
42.91803149619497
 30
0.0
  0
SPLINE
  5
17308
102
{ACAD_REACTORS
330
172F9
330
1730A
102
}
330
A
100
AcDbEntity
  8
TEMPLATE
100
AcDbSpline
210
0.0
220
0.0
230
1.0
 70
     9
 71
     3
 72
    32
 73
    28
 74
     0
 42
0.000000001
 43
0.0000000001
 40
0.0
 40
0.0
 40
0.0
 40
0.0
 40
1.0
 40
1.0
 40
1.0
 40
2.0
 40
2.0
 40
2.0
 40
3.0
 40
3.0
 40
3.0
 40
4.0
 40
4.0
 40
4.0
 40
5.0
 40
5.0
 40
5.0
 40
6.0
 40
6.0
 40
6.0
 40
7.0
 40
7.0
 40
7.0
 40
8.0
 40
8.0
 40
8.0
 40
9.0
 40
9.0
 40
9.0
 40
9.0
 10
585.394880012287
 20
42.5961972325865
 30
0.0
 10
585.0701222143512
 20
42.17612328876155
 30
0.0
 10
584.8200372855671
 20
41.79807236125814
 30
0.0
 10
584.4151612568323
 20
40.60984535222243
 30
0.0
 10
584.0429350809273
 20
39.52296009417805
 30
0.0
 10
583.8060618492555
 20
38.73222216836346
 30
0.0
 10
583.7702876085951
 20
37.76919657074652
 30
0.0
 10
583.7430608003566
 20
37.05255127062911
 30
0.0
 10
584.1794485120689
 20
36.81237511467916
 30
0.0
 10
584.8192785056652
 20
36.81237511467916
 30
0.0
 10
585.0950280487723
 20
36.81237511467916
 30
0.0
 10
585.7908738527602
 20
36.82991632064247
 30
0.0
 10
586.2864017626947
 20
37.44247487188884
 30
0.0
 10
586.6332980801157
 20
37.87283697849896
 30
0.0
 10
586.9530122234106
 20
38.3189549265978
 30
0.0
 10
587.3816335996578
 20
39.78237355234213
 30
0.0
 10
587.7383047875777
 20
41.00579455858404
 30
0.0
 10
587.9852653285309
 20
41.79651016734281
 30
0.0
 10
587.967009976778
 20
42.24671213667736
 30
0.0
 10
587.967009976778
 20
42.24671213667736
 30
0.0
 10
587.967009976778
 20
42.24671213667736
 30
0.0
 10
587.967009976778
 20
42.24671213667736
 30
0.0
 10
587.8506934812556
 20
42.99777033704319
 30
0.0
 10
587.305398536591
 20
43.1564669217822
 30
0.0
 10
586.9938524357677
 20
43.1564669217822
 30
0.0
 10
586.6869929166901
 20
43.1564669217822
 30
0.0
 10
585.8647433078982
 20
43.20955919784657
 30
0.0
 10
585.394880012287
 20
42.5961972325865
 30
0.0
  0
SPLINE
  5
17309
102
{ACAD_REACTORS
330
172F9
330
1730A
102
}
330
A
100
AcDbEntity
  8
TEMPLATE
100
AcDbSpline
210
0.0
220
0.0
230
1.0
 70
     9
 71
     3
 72
    29
 73
    25
 74
     0
 42
0.000000001
 43
0.0000000001
 40
0.0
 40
0.0
 40
0.0
 40
0.0
 40
1.0
 40
1.0
 40
1.0
 40
2.0
 40
2.0
 40
2.0
 40
3.0
 40
3.0
 40
3.0
 40
4.0
 40
4.0
 40
4.0
 40
5.0
 40
5.0
 40
5.0
 40
6.0
 40
6.0
 40
6.0
 40
7.0
 40
7.0
 40
7.0
 40
8.0
 40
8.0
 40
8.0
 40
8.0
 10
584.3513791109763
 20
37.94925057801331
 30
0.0
 10
584.3490135030472
 20
38.37439049353518
 30
0.0
 10
584.4832282774278
 20
39.12973356864028
 30
0.0
 10
584.82704484113
 20
40.1403837636178
 30
0.0
 10
585.2953459428261
 20
41.50888795047953
 30
0.0
 10
585.5761837746857
 20
42.00908012510374
 30
0.0
 10
585.8219391946189
 20
42.25255920533161
 30
0.0
 10
586.1809759904676
 20
42.60708795588196
 30
0.0
 10
586.6636492761844
 20
42.62476306418077
 30
0.0
 10
586.8060320930363
 20
42.60708795588196
 30
0.0
 10
587.0086709609071
 20
42.58276236491495
 30
0.0
 10
587.2949095203023
 20
42.45013210150577
 30
0.0
 10
587.3120043851471
 20
42.00363476345613
 30
0.0
 10
587.3256624233779
 20
41.621499814717
 30
0.0
 10
587.2155500694051
 20
40.90583646506057
 30
0.0
 10
586.8301345134438
 20
39.78237355234213
 30
0.0
 10
586.3859358321552
 20
38.47687041437903
 30
0.0
 10
586.1191131114213
 20
37.96366739614585
 30
0.0
 10
585.9052264473606
 20
37.74000586158636
 30
0.0
 10
585.502269685436
 20
37.32071301471897
 30
0.0
 10
585.0701222143512
 20
37.36097298362186
 30
0.0
 10
585.0063400684949
 20
37.36097298362186
 30
0.0
 10
584.923499156872
 20
37.36097298362186
 30
0.0
 10
584.3525395978846
 20
37.45086608491963
 30
0.0
 10
584.3513791109763
 20
37.94925057801331
 30
0.0
  0
LINE
  5
1755B
330
A
100
AcDbEntity
  8
MODEL
100
AcDbLine
 10
356.3330080477616
 20
423.4027337966418
 30
0.0
 11
86.33300804776155
 21
423.4027337966418
 31
0.0
  0
LINE
  5
1755C
330
A
100
AcDbEntity
  8
MODEL
100
AcDbLine
 10
86.33300804776155
 20
393.2860834864419
 30
0.0
 11
356.3330080477616
 21
393.2860834864419
 31
0.0
  0
LINE
  5
1755D
330
A
100
AcDbEntity
  8
MODEL
100
AcDbLine
 10
85.33300804776157
 20
424.8718479472419
 30
0.0
 11
57.33300804776161
 21
424.8718479472419
 31
0.0
  0
LINE
  5
1755E
330
A
100
AcDbEntity
  8
MODEL
100
AcDbLine
 10
385.3330080477616
 20
424.8718479472419
 30
0.0
 11
357.3330080477616
 21
424.8718479472419
 31
0.0
  0
LINE
  5
17561
330
A
100
AcDbEntity
  8
MODEL
100
AcDbLine
 10
86.33300804776155
 20
423.8718471558419
 30
0.0
 11
86.33300804776155
 21
298.578347413442
 31
0.0
  0
LINE
  5
17562
330
A
100
AcDbEntity
  8
MODEL
100
AcDbLine
 10
57.33300804776161
 20
297.0226235865419
 30
0.0
 11
85.33300804776157
 21
297.0226235865419
 31
0.0
  0
LINE
  5
17563
330
A
100
AcDbEntity
  8
MODEL
100
AcDbLine
 10
56.33300804776161
 20
298.578347413442
 30
0.0
 11
56.33300804776161
 21
423.8718464316419
 31
0.0
  0
LINE
  5
17564
330
A
100
AcDbEntity
  8
MODEL
100
AcDbLine
 10
357.3330080477616
 20
297.0226235865419
 30
0.0
 11
385.3330080477616
 21
297.0226235865419
 31
0.0
  0
LINE
  5
17565
330
A
100
AcDbEntity
  8
MODEL
100
AcDbLine
 10
386.3330080477616
 20
423.8718471558419
 30
0.0
 11
386.3330080477616
 21
298.578347413442
 31
0.0
  0
LINE
  5
17566
330
A
100
AcDbEntity
  8
MODEL
100
AcDbLine
 10
356.3330080477616
 20
298.578347413442
 30
0.0
 11
356.3330080477616
 21
423.8718464316419
 31
0.0
  0
LINE
  5
1756B
330
A
100
AcDbEntity
  8
MODEL
100
AcDbLine
 10
57.33300804776161
 20
401.501106512642
 30
0.0
 11
85.33300804776157
 21
401.501106512642
 31
0.0
  0
LINE
  5
1756C
330
A
100
AcDbEntity
  8
MODEL
100
AcDbLine
 10
85.33300804776157
 20
401.501106512642
 30
0.0
 11
85.52809836976166
 21
401.513457496342
 31
0.0
  0
LINE
  5
1756D
330
A
100
AcDbEntity
  8
MODEL
100
AcDbLine
 10
85.52809836976166
 20
401.513457496342
 30
0.0
 11
85.71569148016157
 21
401.5500358059419
 31
0.0
  0
LINE
  5
1756E
330
A
100
AcDbEntity
  8
MODEL
100
AcDbLine
 10
85.71569148016157
 20
401.5500358059419
 30
0.0
 11
85.88857828076164
 21
401.6094357577418
 31
0.0
  0
LINE
  5
1756F
330
A
100
AcDbEntity
  8
MODEL
100
AcDbLine
 10
85.88857828076164
 20
401.6094357577418
 30
0.0
 11
86.04011482896167
 21
401.6893746445419
 31
0.0
  0
LINE
  5
17570
330
A
100
AcDbEntity
  8
MODEL
100
AcDbLine
 10
86.04011482896167
 20
401.6893746445419
 30
0.0
 11
86.16447765996166
 21
401.7867804601419
 31
0.0
  0
LINE
  5
17571
330
A
100
AcDbEntity
  8
MODEL
100
AcDbLine
 10
86.16447765996166
 20
401.7867804601419
 30
0.0
 11
86.25688758036165
 21
401.8979099535418
 31
0.0
  0
LINE
  5
17572
330
A
100
AcDbEntity
  8
MODEL
100
AcDbLine
 10
86.25688758036165
 20
401.8979099535418
 30
0.0
 11
86.31379332816178
 21
402.0184924805419
 31
0.0
  0
LINE
  5
17573
330
A
100
AcDbEntity
  8
MODEL
100
AcDbLine
 10
86.31379332816178
 20
402.0184924805419
 30
0.0
 11
86.33300804776155
 21
402.1438941222418
 31
0.0
  0
LINE
  5
17574
330
A
100
AcDbEntity
  8
MODEL
100
AcDbLine
 10
56.33300804776161
 20
402.1438941223419
 30
0.0
 11
56.35222276736171
 21
402.0184924806418
 31
0.0
  0
LINE
  5
17575
330
A
100
AcDbEntity
  8
MODEL
100
AcDbLine
 10
56.35222276736171
 20
402.0184924806418
 30
0.0
 11
56.40912851516167
 21
401.8979099536418
 31
0.0
  0
LINE
  5
17576
330
A
100
AcDbEntity
  8
MODEL
100
AcDbLine
 10
56.40912851516167
 20
401.8979099536418
 30
0.0
 11
56.50153843536168
 21
401.786780460242
 31
0.0
  0
LINE
  5
17577
330
A
100
AcDbEntity
  8
MODEL
100
AcDbLine
 10
56.50153843536168
 20
401.786780460242
 30
0.0
 11
56.62590126656164
 21
401.6893746446418
 31
0.0
  0
LINE
  5
17578
330
A
100
AcDbEntity
  8
MODEL
100
AcDbLine
 10
56.62590126656164
 20
401.6893746446418
 30
0.0
 11
56.77743781476158
 21
401.6094357578419
 31
0.0
  0
LINE
  5
17579
330
A
100
AcDbEntity
  8
MODEL
100
AcDbLine
 10
56.77743781476158
 20
401.6094357578419
 30
0.0
 11
56.95032461536165
 21
401.5500358060418
 31
0.0
  0
LINE
  5
1757A
330
A
100
AcDbEntity
  8
MODEL
100
AcDbLine
 10
56.95032461536165
 20
401.5500358060418
 30
0.0
 11
57.13791772576167
 21
401.5134574964418
 31
0.0
  0
LINE
  5
1757B
330
A
100
AcDbEntity
  8
MODEL
100
AcDbLine
 10
57.13791772576167
 20
401.5134574964418
 30
0.0
 11
57.33300804776161
 21
401.501106512642
 31
0.0
  0
LINE
  5
1757C
330
A
100
AcDbEntity
  8
MODEL
100
AcDbLine
 10
85.33300804776157
 20
297.0226235865419
 30
0.0
 11
85.33300804776157
 21
424.8718479472419
 31
0.0
  0
LINE
  5
1757D
330
A
100
AcDbEntity
  8
MODEL
100
AcDbLine
 10
57.33300804776161
 20
424.8718479472419
 30
0.0
 11
57.33300804776161
 21
297.0226235865419
 31
0.0
  0
LINE
  5
17586
330
A
100
AcDbEntity
  8
MODEL
100
AcDbLine
 10
385.3330080477616
 20
401.501106512642
 30
0.0
 11
385.5280983697617
 21
401.5134574964418
 31
0.0
  0
LINE
  5
17587
330
A
100
AcDbEntity
  8
MODEL
100
AcDbLine
 10
385.5280983697617
 20
401.5134574964418
 30
0.0
 11
385.7156914801618
 21
401.5500358060418
 31
0.0
  0
LINE
  5
17588
330
A
100
AcDbEntity
  8
MODEL
100
AcDbLine
 10
385.7156914801618
 20
401.5500358060418
 30
0.0
 11
385.8885782807616
 21
401.6094357578419
 31
0.0
  0
LINE
  5
17589
330
A
100
AcDbEntity
  8
MODEL
100
AcDbLine
 10
385.8885782807616
 20
401.6094357578419
 30
0.0
 11
386.0401148289616
 21
401.6893746446418
 31
0.0
  0
LINE
  5
1758A
330
A
100
AcDbEntity
  8
MODEL
100
AcDbLine
 10
386.0401148289616
 20
401.6893746446418
 30
0.0
 11
386.1644776599616
 21
401.786780460242
 31
0.0
  0
LINE
  5
1758B
330
A
100
AcDbEntity
  8
MODEL
100
AcDbLine
 10
386.1644776599616
 20
401.786780460242
 30
0.0
 11
386.2568875803617
 21
401.8979099536418
 31
0.0
  0
LINE
  5
1758C
330
A
100
AcDbEntity
  8
MODEL
100
AcDbLine
 10
386.2568875803617
 20
401.8979099536418
 30
0.0
 11
386.3137933281615
 21
402.0184924806418
 31
0.0
  0
LINE
  5
1758D
330
A
100
AcDbEntity
  8
MODEL
100
AcDbLine
 10
386.3137933281615
 20
402.0184924806418
 30
0.0
 11
386.3330080477616
 21
402.1438941223419
 31
0.0
  0
LINE
  5
1758E
330
A
100
AcDbEntity
  8
MODEL
100
AcDbLine
 10
357.3330080477616
 20
401.501106512642
 30
0.0
 11
385.3330080477616
 21
401.501106512642
 31
0.0
  0
LINE
  5
1758F
330
A
100
AcDbEntity
  8
MODEL
100
AcDbLine
 10
356.3330080477616
 20
402.1438941223419
 30
0.0
 11
356.3522227673616
 21
402.0184924806418
 31
0.0
  0
LINE
  5
17590
330
A
100
AcDbEntity
  8
MODEL
100
AcDbLine
 10
356.3522227673616
 20
402.0184924806418
 30
0.0
 11
356.4091285151617
 21
401.8979099536418
 31
0.0
  0
LINE
  5
17591
330
A
100
AcDbEntity
  8
MODEL
100
AcDbLine
 10
356.4091285151617
 20
401.8979099536418
 30
0.0
 11
356.5015384353616
 21
401.786780460242
 31
0.0
  0
LINE
  5
17592
330
A
100
AcDbEntity
  8
MODEL
100
AcDbLine
 10
356.5015384353616
 20
401.786780460242
 30
0.0
 11
356.6259012665615
 21
401.6893746446418
 31
0.0
  0
LINE
  5
17593
330
A
100
AcDbEntity
  8
MODEL
100
AcDbLine
 10
356.6259012665615
 20
401.6893746446418
 30
0.0
 11
356.7774378147615
 21
401.6094357578419
 31
0.0
  0
LINE
  5
17594
330
A
100
AcDbEntity
  8
MODEL
100
AcDbLine
 10
356.7774378147615
 20
401.6094357578419
 30
0.0
 11
356.9503246153616
 21
401.5500358060418
 31
0.0
  0
LINE
  5
17595
330
A
100
AcDbEntity
  8
MODEL
100
AcDbLine
 10
356.9503246153616
 20
401.5500358060418
 30
0.0
 11
357.1379177257617
 21
401.5134574964418
 31
0.0
  0
LINE
  5
17596
330
A
100
AcDbEntity
  8
MODEL
100
AcDbLine
 10
357.1379177257617
 20
401.5134574964418
 30
0.0
 11
357.3330080477616
 21
401.501106512642
 31
0.0
  0
LINE
  5
17597
330
A
100
AcDbEntity
  8
MODEL
100
AcDbLine
 10
385.3330080477616
 20
297.0226235865419
 30
0.0
 11
385.3330080477616
 21
424.8718479472419
 31
0.0
  0
LINE
  5
17598
102
{ACAD_REACTORS
330
17AEB
102
}
330
A
100
AcDbEntity
  8
MODEL
100
AcDbLine
 10
357.3330080477616
 20
424.8718479472419
 30
0.0
 11
357.3330080477616
 21
297.0226235865419
 31
0.0
  0
LINE
  5
175A1
330
A
100
AcDbEntity
  8
MODEL
100
AcDbLine
 10
86.33300804776139
 20
594.2019266016846
 30
0.0
 11
356.3330080477612
 21
594.2019266016846
 31
0.0
  0
LINE
  5
175A2
330
A
100
AcDbEntity
  8
MODEL
100
AcDbLine
 10
356.3330080477612
 20
624.3185769118849
 30
0.0
 11
86.33300804776139
 21
624.3185769118849
 31
0.0
  0
LINE
  5
175A3
330
A
100
AcDbEntity
  8
MODEL
100
AcDbLine
 10
57.33300804776132
 20
592.7328124512849
 30
0.0
 11
85.33300804776137
 21
592.7328124512849
 31
0.0
  0
LINE
  5
175A4
330
A
100
AcDbEntity
  8
MODEL
100
AcDbLine
 10
357.3330080477612
 20
592.7328124512849
 30
0.0
 11
385.3330080477612
 21
592.7328124512849
 31
0.0
  0
LINE
  5
175A5
330
A
100
AcDbEntity
  8
MODEL
100
AcDbLine
 10
56.33300804776133
 20
686.260251756685
 30
0.0
 11
57.33300804776132
 21
686.260251756685
 31
0.0
  0
LINE
  5
175A6
102
{ACAD_REACTORS
330
17775
102
}
330
A
100
AcDbEntity
  8
MODEL
100
AcDbLine
 10
56.33300804776133
 20
593.7328135458848
 30
0.0
 11
56.33300804776133
 21
686.260251756685
 31
0.0
  0
LINE
  5
175A7
330
A
100
AcDbEntity
  8
MODEL
100
AcDbLine
 10
85.33300804776137
 20
686.260251756685
 30
0.0
 11
86.33300804776139
 21
686.260251756685
 31
0.0
  0
LINE
  5
175A8
330
A
100
AcDbEntity
  8
MODEL
100
AcDbLine
 10
86.33300804776139
 20
686.260251756685
 30
0.0
 11
86.33300804776139
 21
593.7328125168847
 31
0.0
  0
LINE
  5
175A9
330
A
100
AcDbEntity
  8
MODEL
100
AcDbLine
 10
57.33300804776132
 20
686.260251756685
 30
0.0
 11
85.33300804776137
 21
686.260251756685
 31
0.0
  0
LINE
  5
175AA
330
A
100
AcDbEntity
  8
MODEL
100
AcDbLine
 10
385.3330080477612
 20
686.260251756685
 30
0.0
 11
386.3330080477611
 21
686.260251756685
 31
0.0
  0
LINE
  5
175AB
102
{ACAD_REACTORS
330
176A9
330
17775
102
}
330
A
100
AcDbEntity
  8
MODEL
100
AcDbLine
 10
386.3330080477611
 20
686.260251756685
 30
0.0
 11
386.3330080477611
 21
593.7328125168847
 31
0.0
  0
LINE
  5
175AC
330
A
100
AcDbEntity
  8
MODEL
100
AcDbLine
 10
357.3330080477612
 20
686.260251756685
 30
0.0
 11
385.3330080477612
 21
686.260251756685
 31
0.0
  0
LINE
  5
175AD
330
A
100
AcDbEntity
  8
MODEL
100
AcDbLine
 10
356.3330080477612
 20
686.260251756685
 30
0.0
 11
357.3330080477612
 21
686.260251756685
 31
0.0
  0
LINE
  5
175AE
330
A
100
AcDbEntity
  8
MODEL
100
AcDbLine
 10
356.3330080477612
 20
593.7328135458848
 30
0.0
 11
356.3330080477612
 21
686.260251756685
 31
0.0
  0
LINE
  5
175B3
330
A
100
AcDbEntity
  8
MODEL
100
AcDbLine
 10
57.33300804776132
 20
615.0697848610847
 30
0.0
 11
85.33300804776137
 21
615.0697848610847
 31
0.0
  0
LINE
  5
175B4
330
A
100
AcDbEntity
  8
MODEL
100
AcDbLine
 10
85.33300804776137
 20
615.0697848610847
 30
0.0
 11
85.52809836976136
 21
615.0580876808849
 31
0.0
  0
LINE
  5
175B5
330
A
100
AcDbEntity
  8
MODEL
100
AcDbLine
 10
85.52809836976136
 20
615.0580876808849
 30
0.0
 11
85.71569148016127
 21
615.0234456564849
 31
0.0
  0
LINE
  5
175B6
330
A
100
AcDbEntity
  8
MODEL
100
AcDbLine
 10
85.71569148016127
 20
615.0234456564849
 30
0.0
 11
85.88857828076138
 21
614.9671900614849
 31
0.0
  0
LINE
  5
175B7
330
A
100
AcDbEntity
  8
MODEL
100
AcDbLine
 10
85.88857828076138
 20
614.9671900614849
 30
0.0
 11
86.04011482896135
 21
614.8914827666849
 31
0.0
  0
LINE
  5
175B8
330
A
100
AcDbEntity
  8
MODEL
100
AcDbLine
 10
86.04011482896135
 20
614.8914827666849
 30
0.0
 11
86.16447765996136
 21
614.7992331610849
 31
0.0
  0
LINE
  5
175B9
330
A
100
AcDbEntity
  8
MODEL
100
AcDbLine
 10
86.16447765996136
 20
614.7992331610849
 30
0.0
 11
86.25688758036137
 21
614.6939863452849
 31
0.0
  0
LINE
  5
175BA
330
A
100
AcDbEntity
  8
MODEL
100
AcDbLine
 10
86.25688758036137
 20
614.6939863452849
 30
0.0
 11
86.31379332816146
 21
614.5797868952847
 31
0.0
  0
LINE
  5
175BB
330
A
100
AcDbEntity
  8
MODEL
100
AcDbLine
 10
86.31379332816146
 20
614.5797868952847
 30
0.0
 11
86.33300804776139
 21
614.4610234320849
 31
0.0
  0
LINE
  5
175BC
330
A
100
AcDbEntity
  8
MODEL
100
AcDbLine
 10
56.33300804776133
 20
614.4610234320849
 30
0.0
 11
56.3522227673614
 21
614.5797868952847
 31
0.0
  0
LINE
  5
175BD
330
A
100
AcDbEntity
  8
MODEL
100
AcDbLine
 10
56.3522227673614
 20
614.5797868952847
 30
0.0
 11
56.4091285151614
 21
614.6939863452849
 31
0.0
  0
LINE
  5
175BE
330
A
100
AcDbEntity
  8
MODEL
100
AcDbLine
 10
56.4091285151614
 20
614.6939863452849
 30
0.0
 11
56.5015384353614
 21
614.7992331610849
 31
0.0
  0
LINE
  5
175BF
330
A
100
AcDbEntity
  8
MODEL
100
AcDbLine
 10
56.5015384353614
 20
614.7992331610849
 30
0.0
 11
56.62590126656136
 21
614.8914827666849
 31
0.0
  0
LINE
  5
175C0
330
A
100
AcDbEntity
  8
MODEL
100
AcDbLine
 10
56.62590126656136
 20
614.8914827666849
 30
0.0
 11
56.77743781476129
 21
614.9671900614849
 31
0.0
  0
LINE
  5
175C1
330
A
100
AcDbEntity
  8
MODEL
100
AcDbLine
 10
56.77743781476129
 20
614.9671900614849
 30
0.0
 11
56.95032461536134
 21
615.0234456564849
 31
0.0
  0
LINE
  5
175C2
330
A
100
AcDbEntity
  8
MODEL
100
AcDbLine
 10
56.95032461536134
 20
615.0234456564849
 30
0.0
 11
57.13791772576138
 21
615.0580876808849
 31
0.0
  0
LINE
  5
175C3
330
A
100
AcDbEntity
  8
MODEL
100
AcDbLine
 10
57.13791772576138
 20
615.0580876808849
 30
0.0
 11
57.33300804776132
 21
615.0697848610847
 31
0.0
  0
LINE
  5
175C4
330
A
100
AcDbEntity
  8
MODEL
100
AcDbLine
 10
57.33300804776132
 20
686.260251756685
 30
0.0
 11
57.33300804776132
 21
592.7328124512849
 31
0.0
  0
LINE
  5
175C5
330
A
100
AcDbEntity
  8
MODEL
100
AcDbLine
 10
85.33300804776137
 20
592.7328124512849
 30
0.0
 11
85.33300804776137
 21
686.260251756685
 31
0.0
  0
LINE
  5
175C6
330
A
100
AcDbEntity
  8
MODEL
100
AcDbLine
 10
385.3330080477612
 20
615.0697848610847
 30
0.0
 11
385.5280983697613
 21
615.0580876808849
 31
0.0
  0
LINE
  5
175C7
330
A
100
AcDbEntity
  8
MODEL
100
AcDbLine
 10
385.5280983697613
 20
615.0580876808849
 30
0.0
 11
385.7156914801616
 21
615.0234456564849
 31
0.0
  0
LINE
  5
175C8
330
A
100
AcDbEntity
  8
MODEL
100
AcDbLine
 10
385.7156914801616
 20
615.0234456564849
 30
0.0
 11
385.8885782807615
 21
614.9671900614849
 31
0.0
  0
LINE
  5
175C9
330
A
100
AcDbEntity
  8
MODEL
100
AcDbLine
 10
385.8885782807615
 20
614.9671900614849
 30
0.0
 11
386.0401148289615
 21
614.8914827666849
 31
0.0
  0
LINE
  5
175CA
330
A
100
AcDbEntity
  8
MODEL
100
AcDbLine
 10
386.0401148289615
 20
614.8914827666849
 30
0.0
 11
386.1644776599614
 21
614.7992331610849
 31
0.0
  0
LINE
  5
175CB
330
A
100
AcDbEntity
  8
MODEL
100
AcDbLine
 10
386.1644776599614
 20
614.7992331610849
 30
0.0
 11
386.2568875803613
 21
614.6939863452849
 31
0.0
  0
LINE
  5
175CC
330
A
100
AcDbEntity
  8
MODEL
100
AcDbLine
 10
386.2568875803613
 20
614.6939863452849
 30
0.0
 11
386.3137933281614
 21
614.5797868952847
 31
0.0
  0
LINE
  5
175CD
330
A
100
AcDbEntity
  8
MODEL
100
AcDbLine
 10
386.3137933281614
 20
614.5797868952847
 30
0.0
 11
386.3330080477611
 21
614.4610234320849
 31
0.0
  0
LINE
  5
175CE
330
A
100
AcDbEntity
  8
MODEL
100
AcDbLine
 10
357.3330080477612
 20
615.0697848610847
 30
0.0
 11
385.3330080477612
 21
615.0697848610847
 31
0.0
  0
LINE
  5
175CF
330
A
100
AcDbEntity
  8
MODEL
100
AcDbLine
 10
356.3330080477612
 20
614.4610234320849
 30
0.0
 11
356.3522227673615
 21
614.5797868952847
 31
0.0
  0
LINE
  5
175D0
330
A
100
AcDbEntity
  8
MODEL
100
AcDbLine
 10
356.3522227673615
 20
614.5797868952847
 30
0.0
 11
356.4091285151615
 21
614.6939863452849
 31
0.0
  0
LINE
  5
175D1
330
A
100
AcDbEntity
  8
MODEL
100
AcDbLine
 10
356.4091285151615
 20
614.6939863452849
 30
0.0
 11
356.5015384353612
 21
614.7992331610849
 31
0.0
  0
LINE
  5
175D2
330
A
100
AcDbEntity
  8
MODEL
100
AcDbLine
 10
356.5015384353612
 20
614.7992331610849
 30
0.0
 11
356.6259012665613
 21
614.8914827666849
 31
0.0
  0
LINE
  5
175D3
330
A
100
AcDbEntity
  8
MODEL
100
AcDbLine
 10
356.6259012665613
 20
614.8914827666849
 30
0.0
 11
356.7774378147611
 21
614.9671900614849
 31
0.0
  0
LINE
  5
175D4
330
A
100
AcDbEntity
  8
MODEL
100
AcDbLine
 10
356.7774378147611
 20
614.9671900614849
 30
0.0
 11
356.9503246153612
 21
615.0234456564849
 31
0.0
  0
LINE
  5
175D5
330
A
100
AcDbEntity
  8
MODEL
100
AcDbLine
 10
356.9503246153612
 20
615.0234456564849
 30
0.0
 11
357.1379177257613
 21
615.0580876808849
 31
0.0
  0
LINE
  5
175D6
330
A
100
AcDbEntity
  8
MODEL
100
AcDbLine
 10
357.1379177257613
 20
615.0580876808849
 30
0.0
 11
357.3330080477612
 21
615.0697848610847
 31
0.0
  0
LINE
  5
175D7
330
A
100
AcDbEntity
  8
MODEL
100
AcDbLine
 10
385.3330080477612
 20
592.7328124512849
 30
0.0
 11
385.3330080477612
 21
686.260251756685
 31
0.0
  0
LINE
  5
175D8
330
A
100
AcDbEntity
  8
MODEL
100
AcDbLine
 10
357.3330080477612
 20
686.260251756685
 30
0.0
 11
357.3330080477612
 21
592.7328124512849
 31
0.0
  0
LINE
  5
175DC
330
A
100
AcDbEntity
  8
MODEL
100
AcDbLine
 10
495.7232583451276
 20
314.3161612655628
 30
0.0
 11
495.7240006385278
 21
314.3170478701629
 31
0.0
  0
LINE
  5
175DF
330
A
100
AcDbEntity
  8
MODEL
100
AcDbLine
 10
568.8926726480278
 20
401.5160736274628
 30
0.0
 11
481.2248161587279
 21
297.0375907012628
 31
0.0
  0
LINE
  5
175E0
102
{ACAD_REACTORS
330
1769A
330
17A50
330
17A85
102
}
330
A
100
AcDbEntity
  8
MODEL
100
AcDbLine
 10
481.2248161587279
 20
297.0375907012628
 30
0.0
 11
481.2248161587279
 21
298.5933145282629
 31
0.0
  0
LINE
  5
175E1
330
A
100
AcDbEntity
  8
MODEL
100
AcDbLine
 10
481.2248161587279
 20
298.5933145282629
 30
0.0
 11
481.2248161587279
 21
363.9702092794629
 31
0.0
  0
LINE
  5
175E2
330
A
100
AcDbEntity
  8
MODEL
100
AcDbLine
 10
481.2248161587279
 20
365.2306816934629
 30
0.0
 11
552.4152830543278
 21
419.8570482293629
 31
0.0
  0
LINE
  5
175E3
102
{ACAD_REACTORS
330
17A85
102
}
330
A
100
AcDbEntity
  8
MODEL
100
AcDbLine
 10
481.2248161587279
 20
363.9702092794629
 30
0.0
 11
481.2248161587279
 21
365.2306816934629
 31
0.0
  0
ARC
  5
1761C
330
A
100
AcDbEntity
  8
MODEL
100
AcDbCircle
 10
85.33300807816166
 20
423.8718471558419
 30
0.0
 40
0.9999999696385719
100
AcDbArc
 50
0.0041032710034274
 51
90.06158290790486
  0
ARC
  5
1761D
330
A
100
AcDbEntity
  8
MODEL
100
AcDbCircle
 10
57.33300798956168
 20
423.8718464316419
 30
0.0
 40
0.9999999417421335
100
AcDbArc
 50
89.98336486630028
 51
179.9941378741996
  0
ARC
  5
1761E
330
A
100
AcDbEntity
  8
MODEL
100
AcDbCircle
 10
385.3330080781617
 20
423.8718471558419
 30
0.0
 40
0.9999999696384019
100
AcDbArc
 50
0.004103271003428
 51
90.06158290789837
  0
ARC
  5
1761F
330
A
100
AcDbEntity
  8
MODEL
100
AcDbCircle
 10
357.3330079894616
 20
423.8718464316419
 30
0.0
 40
0.9999999417421367
100
AcDbArc
 50
89.98336486630028
 51
179.9941378741996
  0
ARC
  5
17620
330
A
100
AcDbEntity
  8
MODEL
100
AcDbCircle
 10
85.33300803196135
 20
593.7328125168847
 30
0.0
 40
1.000000015779489
100
AcDbArc
 50
270.0565602460003
 51
359.9905717510958
  0
ARC
  5
17621
330
A
100
AcDbEntity
  8
MODEL
100
AcDbCircle
 10
57.33300800576131
 20
593.7328135458848
 30
0.0
 40
0.9999999580321144
100
AcDbArc
 50
180.0564805194989
 51
270.028872929699
  0
ARC
  5
17622
102
{ACAD_REACTORS
330
176A9
102
}
330
A
100
AcDbEntity
  8
MODEL
100
AcDbCircle
 10
385.3330080319615
 20
593.7328125168847
 30
0.0
 40
1.000000015779489
100
AcDbArc
 50
270.0565602460851
 51
359.9905717510958
  0
ARC
  5
17623
330
A
100
AcDbEntity
  8
MODEL
100
AcDbCircle
 10
357.3330080057613
 20
593.7328135458848
 30
0.0
 40
0.9999999580320414
100
AcDbArc
 50
180.0564805194989
 51
270.028872929699
  0
ARC
  5
17631
330
A
100
AcDbEntity
  8
MODEL
100
AcDbCircle
 10
570.2456045377277
 20
396.3385873773629
 30
0.0
 40
27.89999999999992
100
AcDbArc
 50
110.1809846260002
 51
159.8190153740001
  0
ARC
  5
17632
330
A
100
AcDbEntity
  8
MODEL
100
AcDbCircle
 10
565.0708038563277
 20
410.4177009114629
 30
0.0
 40
12.90000000014723
100
AcDbArc
 50
79.34893825219993
 51
110.1809846256995
  0
ARC
  5
17633
330
A
100
AcDbEntity
  8
MODEL
100
AcDbCircle
 10
556.1664910035276
 20
401.5133880587629
 30
0.0
 40
12.89999999998137
100
AcDbArc
 50
159.8190153740003
 51
190.6510617478
  0
ARC
  5
17634
330
A
100
AcDbEntity
  8
MODEL
100
AcDbCircle
 10
566.1797674471277
 20
416.3143270446627
 30
0.0
 40
6.900000000052979
100
AcDbArc
 50
10.6510617458997
 51
79.3489382526998
  0
ARC
  5
17635
330
A
100
AcDbEntity
  8
MODEL
100
AcDbCircle
 10
560.2831413139276
 20
415.2053634541629
 30
0.0
 40
12.90000000000055
100
AcDbArc
 50
339.8190153740001
 51
10.65106174589985
  0
ARC
  5
17636
102
{ACAD_REACTORS
330
17B4D
102
}
330
A
100
AcDbEntity
  8
MODEL
100
AcDbCircle
 10
546.2040277797277
 20
420.380164135363
 30
0.0
 40
27.89999999998404
100
AcDbArc
 50
290.1809846259997
 51
339.8190153743998
  0
ARC
  5
17637
330
A
100
AcDbEntity
  8
MODEL
100
AcDbCircle
 10
551.3788284611278
 20
406.3010506012628
 30
0.0
 40
12.90000000009428
100
AcDbArc
 50
259.3489382521998
 51
290.1809846256999
  0
ARC
  5
17638
330
A
100
AcDbEntity
  8
MODEL
100
AcDbCircle
 10
550.2698648703279
 20
400.4044244679628
 30
0.0
 40
6.899999999980837
100
AcDbArc
 50
190.6510617475003
 51
259.3489382524988
  0
SPLINE
  5
17667
102
{ACAD_REACTORS
330
1769A
102
}
330
A
100
AcDbEntity
  8
MODEL
100
AcDbSpline
210
0.0
220
0.0
230
1.0
 70
     8
 71
     3
 72
    45
 73
    41
 74
     0
 42
0.000000001
 43
0.0000000001
 40
0.0
 40
0.0
 40
0.0
 40
0.0
 40
0.0483785085823341
 40
0.0970319127276226
 40
0.1466795871909016
 40
0.171722704535522
 40
0.1967644319769683
 40
0.226150555850667
 40
0.2556732552374674
 40
0.2857083602585263
 40
0.3159689031633218
 40
0.3361208299006656
 40
0.356569015972211
 40
0.3770133399046736
 40
0.3978091335913335
 40
0.4201225469417921
 40
0.44242945089513
 40
0.4576038958688111
 40
0.4742048301454587
 40
0.4911830331589984
 40
0.5081615345787866
 40
0.5255322915329766
 40
0.5418164485120592
 40
0.558387790391293
 40
0.5749611841128804
 40
0.5918067697562446
 40
0.6135845919929439
 40
0.6357515528441092
 40
0.6579229513560986
 40
0.6804402523372365
 40
0.7068120507991353
 40
0.7333211129810483
 40
0.7601917616362172
 40
0.7871621103000775
 40
0.8213569972879078
 40
0.8556987318159377
 40
0.8914757105973009
 40
0.9273784330330228
 40
0.9636351899661248
 40
1.0
 40
1.0
 40
1.0
 40
1.0
 10
552.415283054371
 20
419.8570482293341
 30
0.0
 10
552.9944061952617
 20
420.2826926354592
 30
0.0
 10
554.1559431609957
 20
421.1364000373283
 30
0.0
 10
556.0278850950886
 20
422.2560766454773
 30
0.0
 10
557.6696809685351
 20
423.072908329957
 30
0.0
 10
559.0395940779741
 20
423.6370995086634
 30
0.0
 10
560.1521845173201
 20
424.0319858103479
 30
0.0
 10
561.3500954637775
 20
424.3802872593773
 30
0.0
 10
562.6418441290606
 20
424.6610972254583
 30
0.0
 10
563.964572372761
 20
424.8432168351213
 30
0.0
 10
565.1596166166297
 20
424.9018842551448
 30
0.0
 10
566.2120307581557
 20
424.8659961308458
 30
0.0
 10
567.1141930734536
 20
424.76884410349
 30
0.0
 10
568.0152077371146
 20
424.5978605480943
 30
0.0
 10
568.9245491089195
 20
424.3403489416148
 30
0.0
 10
569.8294254779255
 20
423.9819892287065
 30
0.0
 10
570.6153045155073
 20
423.5641687839527
 30
0.0
 10
571.2833879438033
 20
423.1169890408598
 30
0.0
 10
571.8483952636286
 20
422.6626442140513
 30
0.0
 10
572.3870448133482
 20
422.1380510957673
 30
0.0
 10
572.8809607701392
 20
421.5560670995833
 30
0.0
 10
573.3109873825123
 20
420.9378921376822
 30
0.0
 10
573.6802667707833
 20
420.2888595955208
 30
0.0
 10
573.987998094883
 20
419.6215513785684
 30
0.0
 10
574.2436150885013
 20
418.9238041626014
 30
0.0
 10
574.4654348190841
 20
418.1339757262833
 30
0.0
 10
574.6366413204472
 20
417.2463687441729
 30
0.0
 10
574.7386688599338
 20
416.2687815732461
 30
0.0
 10
574.7634119609251
 20
415.2753794520046
 30
0.0
 10
574.7129530545723
 20
414.2205432648731
 30
0.0
 10
574.5786357958238
 20
413.1079508655629
 30
0.0
 10
574.3539298995294
 20
411.9443077758491
 30
0.0
 10
574.052159903776
 20
410.7891456087283
 30
0.0
 10
573.6465066118001
 20
409.5456747771875
 30
0.0
 10
573.1226376843373
 20
408.2265566800262
 30
0.0
 10
572.4591016810949
 20
406.8258362591909
 30
0.0
 10
571.6995018032712
 20
405.4456856988483
 30
0.0
 10
570.8442628538052
 20
404.0893317023302
 30
0.0
 10
569.9141920603324
 20
402.7718162586707
 30
0.0
 10
569.233516709411
 20
401.9350695010166
 30
0.0
 10
568.892672648001
 20
401.5160736274851
 30
0.0
  0
ELLIPSE
  5
17679
330
A
100
AcDbEntity
  8
MODEL
100
AcDbEllipse
 10
85.33300804776157
 20
298.578347413442
 30
0.0
 11
0.0
 21
-1.555723826860421
 31
0.0
210
0.0
220
0.0
230
1.0
 40
0.6427876097000001
 41
0.0
 42
1.570796326794897
  0
ELLIPSE
  5
1767A
330
A
100
AcDbEntity
  8
MODEL
100
AcDbEllipse
 10
57.33300804776161
 20
298.578347413442
 30
0.0
 11
0.0
 21
1.555723826860421
 31
0.0
210
0.0
220
0.0
230
1.0
 40
0.6427876097000001
 41
1.570796326794897
 42
3.141592653579561
  0
ELLIPSE
  5
1767B
330
A
100
AcDbEntity
  8
MODEL
100
AcDbEllipse
 10
385.3330080477616
 20
298.578347413442
 30
0.0
 11
0.0
 21
-1.555723826860421
 31
0.0
210
0.0
220
0.0
230
1.0
 40
0.6427876097000001
 41
0.0
 42
1.570796326794897
  0
ELLIPSE
  5
1767C
330
A
100
AcDbEntity
  8
MODEL
100
AcDbEllipse
 10
357.3330080477616
 20
298.578347413442
 30
0.0
 11
0.0
 21
1.555723826860421
 31
0.0
210
0.0
220
0.0
230
1.0
 40
0.6427876097000001
 41
1.570796326794897
 42
3.141592653579561
  0
DIMENSION
  5
17698
102
{ACAD_XDICTIONARY
360
17699
102
}
102
{ACAD_REACTORS
330
1769A
102
}
330
A
100
AcDbEntity
  8
DIM
100
AcDbDimension
280
     0
  2
*D2
 10
584.321272549254
 20
424.8654369409326
 30
0.0
 11
584.321272549254
 21
360.9515138210976
 31
0.0
 70
   160
 71
     5
 42
127.8278462396697
 73
     0
 74
     0
 75
     0
  3
tfrom線あり
100
AcDbAlignedDimension
 13
481.2248161587279
 23
297.0375907012628
 33
0.0
 14
566.0487063365717
 24
424.8654369409326
 34
0.0
 50
90.0
100
AcDbRotatedDimension
  0
DIMENSION
  5
176A7
102
{ACAD_XDICTIONARY
360
176A8
102
}
102
{ACAD_REACTORS
330
176A9
102
}
330
A
100
AcDbEntity
  8
DIM
100
AcDbDimension
280
     0
  2
*D3
 10
448.7015438928366
 20
592.7328129883502
 30
0.0
 11
438.7015438928365
 21
639.4965323725174
 31
0.0
 70
    32
 71
     5
 42
93.52743876833471
 73
     0
 74
     0
 75
     0
  3
tfrom線あり
100
AcDbAlignedDimension
 13
386.3330080477611
 23
686.260251756685
 33
0.0
 14
385.3339951943366
 24
592.7328129883502
 34
0.0
 50
90.0
100
AcDbRotatedDimension
  0
MTEXT
  5
1770B
330
A
100
AcDbEntity
  8
TEMPLATE
390
1D
100
AcDbMText
 10
398.7606433643971
 20
116.5207935331344
 30
0.0
 40
7.329785156250001
 41
0.0
 46
8.11436638592988
 71
     1
 72
     1
  1
{FSB74-0203-015（ライトグレー/ダークグレー）}
  7
ＭＳ ゴシック
 73
     1
 44
0.7828267384257844
1001
ACAD
1000
ACAD_MTEXT_DEFINED_HEIGHT_BEGIN
1070
    46
1040
8.11436638592988
1000
ACAD_MTEXT_DEFINED_HEIGHT_END
  0
MTEXT
  5
1770C
330
A
100
AcDbEntity
  8
TEMPLATE
390
1D
100
AcDbMText
 10
398.7606433643971
 20
126.8650740250747
 30
0.0
 40
7.329785156250001
 41
0.0
 46
8.11436638592988
 71
     1
 72
     1
  1
{FSB74-0203-013（ホワイト/ライトグレー）}
  7
ＭＳ ゴシック
 73
     1
 44
0.7828267384257844
1001
ACAD
1000
ACAD_MTEXT_DEFINED_HEIGHT_BEGIN
1070
    46
1040
8.11436638592988
1000
ACAD_MTEXT_DEFINED_HEIGHT_END
  0
MTEXT
  5
1770D
330
A
100
AcDbEntity
  8
TEMPLATE
390
1D
100
AcDbMText
 10
398.7606433643971
 20
137.209354517015
 30
0.0
 40
7.329785156250001
 41
0.0
 46
8.11436638592988
 71
     1
 72
     1
  1
{FSB74-0203-005（ダークグレー）}
  7
ＭＳ ゴシック
 73
     1
 44
0.7828267384257844
1001
ACAD
1000
ACAD_MTEXT_DEFINED_HEIGHT_BEGIN
1070
    46
1040
8.11436638592988
1000
ACAD_MTEXT_DEFINED_HEIGHT_END
  0
MTEXT
  5
17744
330
A
100
AcDbEntity
  8
TEMPLATE
390
1D
100
AcDbMText
 10
37.97892084904127
 20
69.45079263780687
 30
0.0
 40
7.0
 41
0.0
 46
7.81722833562586
 71
     1
 72
     1
  1
{取付ビス：5x50（トルクスタッピングスビス）、プラグ(下穴Ø8)付属}
  7
ＭＳ ゴシック
 73
     1
 44
0.9331787841240656
1001
ACAD
1000
ACAD_MTEXT_DEFINED_HEIGHT_BEGIN
1070
    46
1040
7.81722833562586
1000
ACAD_MTEXT_DEFINED_HEIGHT_END
  0
DIMENSION
  5
17755
330
A
100
AcDbEntity
  8
DIM
100
AcDbDimension
280
     0
  2
*D7
 10
86.33300804776155
 20
251.1989341187239
 30
0.0
 11
71.34543568500153
 21
261.2004346814349
 31
0.0
 70
    32
 71
     5
 42
29.97514472552007
 73
     0
 74
     0
 75
     0
  3
tfrom線あり
100
AcDbAlignedDimension
 13
56.35786332224149
 23
298.9230473844131
 33
0.0
 14
86.33300804776155
 24
298.9230473844131
 34
0.0
100
AcDbRotatedDimension
  0
DIMENSION
  5
17764
330
A
100
AcDbEntity
  8
DIM
100
AcDbDimension
280
     0
  2
*D8
 10
371.3330080477612
 20
781.961932685138
 30
0.0
 11
221.3330080477612
 21
781.961932685138
 31
0.0
 70
   160
 71
     5
 42
299.9999999999999
 73
     0
 74
     0
 75
     0
  3
tfrom線あり
100
AcDbAlignedDimension
 13
71.33300804776119
 23
731.260251756685
 33
0.0
 14
371.3330080477612
 24
731.260251756685
 34
0.0
100
AcDbRotatedDimension
  0
DIMENSION
  5
17773
102
{ACAD_XDICTIONARY
360
17774
102
}
102
{ACAD_REACTORS
330
17775
102
}
330
A
100
AcDbEntity
  8
DIM
100
AcDbDimension
280
     0
  2
*D9
 10
386.3330080477611
 20
819.8438192523022
 30
0.0
 11
221.3330080477612
 21
819.8438192523022
 31
0.0
 70
   160
 71
     5
 42
329.9999999999999
 73
     0
 74
     0
 75
     0
  3
tfrom線あり
100
AcDbAlignedDimension
 13
56.33300804776133
 23
686.260251756685
 33
0.0
 14
386.3330080477611
 24
686.260251756685
 34
0.0
100
AcDbRotatedDimension
  0
MTEXT
  5
1779C
330
A
100
AcDbEntity
  8
TEMPLATE
390
1D
100
AcDbMText
 10
37.97892084904126
 20
94.53027062119153
 30
0.0
 40
7.0
 41
0.0
 46
8.169438539452293
 71
     1
 72
     1
  1
{バスグリップ　-FSB,Ergo System A100-}
  7
ＭＳ ゴシック
 73
     1
 44
0.7828267384257844
1001
ACAD
1000
ACAD_MTEXT_DEFINED_HEIGHT_BEGIN
1070
    46
1040
8.169438539452293
1000
ACAD_MTEXT_DEFINED_HEIGHT_END
  0
ARC
  5
179B4
102
{ACAD_REACTORS
330
17A98
102
}
330
A
100
AcDbEntity
  8
0
  6
HIDDEN
 62
   252
 48
0.2
370
     5
100
AcDbCircle
 10
371.3330080477616
 20
316.7306819095127
 30
0.0
 40
3.0
100
AcDbArc
 50
0.0
 51
180.0492731900609
  0
ARC
  5
179B5
102
{ACAD_REACTORS
330
17A98
102
}
330
A
100
AcDbEntity
  8
0
  6
HIDDEN
 62
   252
 48
0.2
370
     5
100
AcDbCircle
 10
371.3330080477616
 20
312.7306814774128
 30
0.0
 40
3.0
100
AcDbArc
 50
178.0842341757081
 51
0.0
  0
LINE
  5
17A29
330
A
100
AcDbEntity
  8
MODEL
 62
     0
100
AcDbLine
 10
436.224816158728
 20
314.7306816934629
 30
0.0
 11
441.3243306074279
 21
312.7614101812243
 31
0.0
  0
LINE
  5
17A2A
102
{ACAD_REACTORS
330
17A50
102
}
330
A
100
AcDbEntity
  8
MODEL
 62
     0
100
AcDbLine
 10
436.224816158728
 20
314.7306816934629
 30
0.0
 11
441.3243306074276
 21
316.6999532057014
 31
0.0
  0
LINE
  5
17A2B
330
A
100
AcDbEntity
  8
MODEL
 62
     0
100
AcDbLine
 10
437.9677226997511
 20
318.0980323843812
 30
0.0
 11
443.7770736608547
 21
311.2055820915464
 31
0.0
  0
LINE
  5
17A2C
330
A
100
AcDbEntity
  8
MODEL
 62
     0
100
AcDbLine
 10
441.4139478461684
 20
318.0980323843812
 30
0.0
 11
447.2232988072721
 21
311.205582091546
 31
0.0
  0
LINE
  5
17A2D
330
A
100
AcDbEntity
  8
MODEL
 62
     0
100
AcDbLine
 10
444.8601729925861
 20
318.0980323843812
 30
0.0
 11
450.6695239536896
 21
311.205582091546
 31
0.0
  0
LINE
  5
17A2E
330
A
100
AcDbEntity
  8
MODEL
 62
     0
100
AcDbLine
 10
448.700252441451
 20
318.0980323843812
 30
0.0
 11
454.5096034025547
 21
311.205582091546
 31
0.0
  0
LINE
  5
17A2F
330
A
100
AcDbEntity
  8
MODEL
 62
     0
100
AcDbLine
 10
452.8357226171521
 20
318.0980323843812
 30
0.0
 11
458.6450735782556
 21
311.2055820915462
 31
0.0
  0
LINE
  5
17A30
330
A
100
AcDbEntity
  8
MODEL
 62
     0
100
AcDbLine
 10
441.3243306074279
 20
312.7614101812243
 30
0.0
 11
481.2248161587278
 21
312.7613986873801
 31
0.0
  0
LINE
  5
17A31
330
A
100
AcDbEntity
  8
MODEL
 62
     0
100
AcDbLine
 10
456.8107053993296
 20
318.1295442493783
 30
0.0
 11
462.6200563604333
 21
311.2370939565433
 31
0.0
  0
LINE
  5
17A32
330
A
100
AcDbEntity
  8
MODEL
 62
     0
100
AcDbLine
 10
460.9461755750305
 20
318.1295442493783
 30
0.0
 11
466.7555265361342
 21
311.2370939565433
 31
0.0
  0
LINE
  5
17A33
330
A
100
AcDbEntity
  8
MODEL
 62
     0
100
AcDbLine
 10
473.1520797419872
 20
318.1295442493783
 30
0.0
 11
478.9614307030909
 21
311.2370939565433
 31
0.0
  0
LINE
  5
17A34
330
A
100
AcDbEntity
  8
MODEL
 62
     0
100
AcDbLine
 10
441.3243306074279
 20
316.6999532057014
 30
0.0
 11
481.2248161587278
 21
316.6999390136128
 31
0.0
  0
LINE
  5
17A35
330
A
100
AcDbEntity
  8
MODEL
 62
     0
100
AcDbLine
 10
464.7710658439028
 20
318.0980323843813
 30
0.0
 11
470.5804168050065
 21
311.2055820915462
 31
0.0
  0
LINE
  5
17A36
330
A
100
AcDbEntity
  8
MODEL
 62
     0
100
AcDbLine
 10
468.7460486260803
 20
318.1295442493783
 30
0.0
 11
474.5553995871841
 21
311.2370939565433
 31
0.0
  0
LINE
  5
17A37
330
A
100
AcDbEntity
  8
DIM
100
AcDbLine
 10
481.2248161587279
 20
314.7306816934629
 30
0.0
 11
481.2248161587279
 21
312.7613972470667
 31
0.0
  0
LINE
  5
17A38
330
A
100
AcDbEntity
  8
MODEL
100
AcDbLine
 10
481.2248161587279
 20
312.7613972470667
 30
0.0
 11
481.2248161587279
 21
316.6999372351775
 31
0.0
  0
LINE
  5
17A39
330
A
100
AcDbEntity
  8
DIM
100
AcDbLine
 10
481.2248161587279
 20
314.7306816934629
 30
0.0
 11
481.2248161587279
 21
316.6999390136128
 31
0.0
  0
LINE
  5
17A3A
330
A
100
AcDbEntity
  8
MODEL
100
AcDbLine
 10
481.2248161587278
 20
316.6999390136128
 30
0.0
 11
481.2248161587278
 21
312.7613986873801
 31
0.0
  0
LINE
  5
17A3B
330
A
100
AcDbEntity
  8
MODEL
 62
     0
100
AcDbLine
 10
436.224816158728
 20
352.2306816934629
 30
0.0
 11
441.3243306074279
 21
350.2614101812243
 31
0.0
  0
LINE
  5
17A3C
330
A
100
AcDbEntity
  8
MODEL
 62
     0
100
AcDbLine
 10
436.224816158728
 20
352.2306816934629
 30
0.0
 11
441.3243306074276
 21
354.1999532057014
 31
0.0
  0
LINE
  5
17A3D
330
A
100
AcDbEntity
  8
MODEL
 62
     0
100
AcDbLine
 10
437.9677226997511
 20
355.5980323843812
 30
0.0
 11
443.7770736608547
 21
348.7055820915464
 31
0.0
  0
LINE
  5
17A3E
330
A
100
AcDbEntity
  8
MODEL
 62
     0
100
AcDbLine
 10
441.4139478461684
 20
355.5980323843812
 30
0.0
 11
447.2232988072721
 21
348.705582091546
 31
0.0
  0
LINE
  5
17A3F
330
A
100
AcDbEntity
  8
MODEL
 62
     0
100
AcDbLine
 10
444.8601729925861
 20
355.5980323843812
 30
0.0
 11
450.6695239536896
 21
348.705582091546
 31
0.0
  0
LINE
  5
17A40
330
A
100
AcDbEntity
  8
MODEL
 62
     0
100
AcDbLine
 10
448.700252441451
 20
355.5980323843812
 30
0.0
 11
454.5096034025547
 21
348.705582091546
 31
0.0
  0
LINE
  5
17A41
330
A
100
AcDbEntity
  8
MODEL
 62
     0
100
AcDbLine
 10
452.8357226171521
 20
355.5980323843812
 30
0.0
 11
458.6450735782556
 21
348.7055820915462
 31
0.0
  0
LINE
  5
17A42
330
A
100
AcDbEntity
  8
MODEL
 62
     0
100
AcDbLine
 10
441.3243306074279
 20
350.2614101812243
 30
0.0
 11
481.2248161587278
 21
350.2613986873802
 31
0.0
  0
LINE
  5
17A43
330
A
100
AcDbEntity
  8
MODEL
 62
     0
100
AcDbLine
 10
456.8107053993296
 20
355.6295442493783
 30
0.0
 11
462.6200563604333
 21
348.7370939565433
 31
0.0
  0
LINE
  5
17A44
330
A
100
AcDbEntity
  8
MODEL
 62
     0
100
AcDbLine
 10
460.9461755750305
 20
355.6295442493783
 30
0.0
 11
466.7555265361342
 21
348.7370939565433
 31
0.0
  0
LINE
  5
17A45
330
A
100
AcDbEntity
  8
MODEL
 62
     0
100
AcDbLine
 10
473.1520797419872
 20
355.6295442493783
 30
0.0
 11
478.9614307030909
 21
348.7370939565433
 31
0.0
  0
LINE
  5
17A46
330
A
100
AcDbEntity
  8
MODEL
 62
     0
100
AcDbLine
 10
441.3243306074279
 20
354.1999532057014
 30
0.0
 11
481.2248161587278
 21
354.1999390136129
 31
0.0
  0
LINE
  5
17A47
330
A
100
AcDbEntity
  8
MODEL
 62
     0
100
AcDbLine
 10
464.7710658439028
 20
355.5980323843813
 30
0.0
 11
470.5804168050065
 21
348.7055820915462
 31
0.0
  0
LINE
  5
17A48
330
A
100
AcDbEntity
  8
MODEL
 62
     0
100
AcDbLine
 10
468.7460486260803
 20
355.6295442493783
 30
0.0
 11
474.5553995871841
 21
348.7370939565433
 31
0.0
  0
LINE
  5
17A49
330
A
100
AcDbEntity
  8
DIM
100
AcDbLine
 10
481.2248161587279
 20
352.2306816934629
 30
0.0
 11
481.2248161587279
 21
350.2613972470667
 31
0.0
  0
LINE
  5
17A4A
330
A
100
AcDbEntity
  8
MODEL
100
AcDbLine
 10
481.2248161587279
 20
350.2613972470667
 30
0.0
 11
481.2248161587279
 21
354.1999372351775
 31
0.0
  0
LINE
  5
17A4B
330
A
100
AcDbEntity
  8
DIM
100
AcDbLine
 10
481.2248161587279
 20
352.2306816934629
 30
0.0
 11
481.2248161587279
 21
354.1999390136129
 31
0.0
  0
LINE
  5
17A4C
330
A
100
AcDbEntity
  8
MODEL
100
AcDbLine
 10
481.2248161587278
 20
354.1999390136129
 30
0.0
 11
481.2248161587278
 21
350.2613986873802
 31
0.0
  0
DIMENSION
  5
17A4E
102
{ACAD_XDICTIONARY
360
17A4F
102
}
102
{ACAD_REACTORS
330
17A50
102
}
330
A
100
AcDbEntity
  8
DIM
100
AcDbDimension
280
     0
  2
*D15
 10
436.224816158728
 20
264.9498224582686
 30
0.0
 11
458.724816158728
 21
274.9513230209796
 31
0.0
 70
    32
 71
     5
 42
45.0
 73
     0
 74
     0
 75
     0
  3
tfrom線あり
100
AcDbAlignedDimension
 13
481.2248161587279
 23
297.0375907012628
 33
0.0
 14
436.224816158728
 24
314.7306816934629
 34
0.0
100
AcDbRotatedDimension
  0
DIMENSION
  5
17A65
330
A
100
AcDbEntity
  8
DIM
100
AcDbDimension
280
     0
  2
*D16
 10
331.027550714895
 20
314.7306816934629
 30
0.0
 11
321.026050152184
 21
333.4806816934629
 31
0.0
 70
    32
 71
     5
 42
37.5
 73
     0
 74
     0
 75
     0
  3
tfrom線あり
100
AcDbAlignedDimension
 13
357.3330080477616
 23
352.2306816934629
 33
0.0
 14
357.3330080477616
 24
314.7306816934629
 34
0.0
 50
90.0
100
AcDbRotatedDimension
  0
DIMENSION
  5
17A83
102
{ACAD_XDICTIONARY
360
17A84
102
}
102
{ACAD_REACTORS
330
17A85
102
}
330
A
100
AcDbEntity
  8
DIM
100
AcDbDimension
280
     0
  2
*D18
 10
414.2020792457556
 20
297.0375907012628
 30
0.0
 11
404.2020792457556
 21
331.1341361973628
 31
0.0
 70
    32
 71
     5
 42
68.19309099220004
 73
     0
 74
     0
 75
     0
  3
tfrom線あり
100
AcDbAlignedDimension
 13
481.2248161587279
 23
365.2306816934629
 33
0.0
 14
481.2248161587279
 24
297.0375907012628
 34
0.0
 50
90.0
100
AcDbRotatedDimension
  0
LINE
  5
17A9A
330
A
100
AcDbEntity
  8
MODEL
  6
HIDDEN
 62
   252
 48
0.2
370
     5
100
AcDbLine
 10
371.3330080477616
 20
307.7111772688566
 30
0.0
 11
371.3330080477616
 21
321.7501861180691
 31
0.0
  0
LINE
  5
17ABB
330
A
100
AcDbEntity
  8
MODEL
  6
HIDDEN
 62
   252
 48
0.2
370
     5
100
AcDbLine
 10
378.3525124723678
 20
314.7306816934629
 30
0.0
 11
364.3135036231554
 21
314.7306816934629
 31
0.0
  0
ARC
  5
17ADC
330
A
100
AcDbEntity
  8
0
  6
HIDDEN
 62
   252
 48
0.2
370
     5
100
AcDbCircle
 10
371.1468081748362
 20
354.2306819095127
 30
0.0
 40
3.0
100
AcDbArc
 50
0.0
 51
180.0492731900609
  0
ARC
  5
17ADD
330
A
100
AcDbEntity
  8
0
  6
HIDDEN
 62
   252
 48
0.2
370
     5
100
AcDbCircle
 10
371.1468081748362
 20
350.2306814774128
 30
0.0
 40
3.0
100
AcDbArc
 50
178.0842341757081
 51
0.0
  0
LINE
  5
17ADE
330
A
100
AcDbEntity
  8
MODEL
  6
HIDDEN
 62
   252
 48
0.2
370
     5
100
AcDbLine
 10
371.1468081748362
 20
345.2111772688567
 30
0.0
 11
371.1468081748362
 21
359.2501861180692
 31
0.0
  0
LINE
  5
17ADF
330
A
100
AcDbEntity
  8
MODEL
  6
HIDDEN
 62
   252
 48
0.2
370
     5
100
AcDbLine
 10
378.1663125994425
 20
352.2306816934629
 30
0.0
 11
364.1273037502299
 21
352.2306816934629
 31
0.0
  0
ARC
  5
17AE0
102
{ACAD_REACTORS
330
17AE8
102
}
330
A
100
AcDbEntity
  8
0
  6
HIDDEN
 62
   252
 48
0.2
370
     5
100
AcDbCircle
 10
71.33300804776161
 20
312.7306814774128
 30
0.0
 40
3.0
100
AcDbArc
 50
180.0
 51
1.915765824291948
  0
ARC
  5
17AE1
102
{ACAD_REACTORS
330
17AE8
102
}
330
A
100
AcDbEntity
  8
0
  6
HIDDEN
 62
   252
 48
0.2
370
     5
100
AcDbCircle
 10
71.33300804776161
 20
316.7306819095127
 30
0.0
 40
3.0
100
AcDbArc
 50
359.9507268099391
 51
180.0
  0
LINE
  5
17AE2
330
A
100
AcDbEntity
  8
MODEL
  6
HIDDEN
 62
   252
 48
0.2
370
     5
100
AcDbLine
 10
64.31350362315533
 20
314.7306816934629
 30
0.0
 11
78.35251247236783
 21
314.7306816934629
 31
0.0
  0
LINE
  5
17AE3
330
A
100
AcDbEntity
  8
MODEL
  6
HIDDEN
 62
   252
 48
0.2
370
     5
100
AcDbLine
 10
71.33300804776161
 20
307.7111772688566
 30
0.0
 11
71.33300804776166
 21
321.7501861180691
 31
0.0
  0
LINE
  5
17AE4
330
A
100
AcDbEntity
  8
MODEL
  6
HIDDEN
 62
   252
 48
0.2
370
     5
100
AcDbLine
 10
71.519207920687
 20
345.2111772688567
 30
0.0
 11
71.51920792068705
 21
359.2501861180692
 31
0.0
  0
LINE
  5
17AE5
330
A
100
AcDbEntity
  8
MODEL
  6
HIDDEN
 62
   252
 48
0.2
370
     5
100
AcDbLine
 10
64.49970349608071
 20
352.2306816934629
 30
0.0
 11
78.53871234529322
 21
352.2306816934629
 31
0.0
  0
ARC
  5
17AE6
330
A
100
AcDbEntity
  8
0
  6
HIDDEN
 62
   252
 48
0.2
370
     5
100
AcDbCircle
 10
71.519207920687
 20
350.2306814774128
 30
0.0
 40
3.0
100
AcDbArc
 50
180.0
 51
1.915765824291948
  0
ARC
  5
17AE7
330
A
100
AcDbEntity
  8
0
  6
HIDDEN
 62
   252
 48
0.2
370
     5
100
AcDbCircle
 10
71.519207920687
 20
354.2306819095127
 30
0.0
 40
3.0
100
AcDbArc
 50
359.9507268099391
 51
180.0
  0
DIMENSION
  5
17AE9
102
{ACAD_XDICTIONARY
360
17AEA
102
}
102
{ACAD_REACTORS
330
17AEB
102
}
330
A
100
AcDbEntity
  8
DIM
100
AcDbDimension
280
     0
  2
*D19
 10
331.027550714895
 20
314.7306816934629
 30
0.0
 11
321.026050152184
 21
305.8766526400024
 31
0.0
 70
    32
 71
     5
 42
17.70805810692098
 73
     0
 74
     1
 75
     1
  3
tfrom線あり
100
AcDbAlignedDimension
 13
357.3330080477616
 23
297.0226235865419
 33
0.0
 14
357.3330080477616
 24
314.7306816934629
 34
0.0
 50
90.0
100
AcDbRotatedDimension
1001
ACAD
1000
DSTYLE
1002
{
1070
   172
1070
     1
1002
}
  0
LINE
  5
17B27
330
A
100
AcDbEntity
  8
MODEL
 62
     0
100
AcDbLine
 10
371.3330080477612
 20
731.260251756685
 30
0.0
 11
369.3637365355224
 21
726.1607373079851
 31
0.0
  0
LINE
  5
17B28
330
A
100
AcDbEntity
  8
MODEL
 62
     0
100
AcDbLine
 10
371.3330080477612
 20
731.260251756685
 30
0.0
 11
373.3022795599996
 21
726.1607373079852
 31
0.0
  0
LINE
  5
17B29
330
A
100
AcDbEntity
  8
MODEL
 62
     0
100
AcDbLine
 10
374.7003587386794
 20
729.5173452156619
 30
0.0
 11
367.8079084458446
 21
723.7079942545581
 31
0.0
  0
LINE
  5
17B2A
330
A
100
AcDbEntity
  8
MODEL
 62
     0
100
AcDbLine
 10
374.7003587386794
 20
726.0711200692443
 30
0.0
 11
367.8079084458441
 21
720.2617691081407
 31
0.0
  0
LINE
  5
17B2B
330
A
100
AcDbEntity
  8
MODEL
 62
     0
100
AcDbLine
 10
374.7003587386794
 20
722.6248949228266
 30
0.0
 11
367.8079084458441
 21
716.8155439617232
 31
0.0
  0
LINE
  5
17B2C
330
A
100
AcDbEntity
  8
MODEL
 62
     0
100
AcDbLine
 10
374.7003587386794
 20
718.784815473962
 30
0.0
 11
367.8079084458441
 21
712.975464512858
 31
0.0
  0
LINE
  5
17B2D
330
A
100
AcDbEntity
  8
MODEL
 62
     0
100
AcDbLine
 10
374.7003587386794
 20
714.6493452982607
 30
0.0
 11
367.8079084458445
 21
708.839994337157
 31
0.0
  0
LINE
  5
17B2E
330
A
100
AcDbEntity
  8
MODEL
 62
     0
100
AcDbLine
 10
369.3637365355224
 20
726.1607373079851
 30
0.0
 11
369.3637250416785
 21
686.2602517566853
 31
0.0
  0
LINE
  5
17B2F
330
A
100
AcDbEntity
  8
MODEL
 62
     0
100
AcDbLine
 10
374.7318706036764
 20
710.6743625160832
 30
0.0
 11
367.8394203108416
 21
704.8650115549794
 31
0.0
  0
LINE
  5
17B30
330
A
100
AcDbEntity
  8
MODEL
 62
     0
100
AcDbLine
 10
374.7318706036766
 20
706.5388923403822
 30
0.0
 11
367.8394203108416
 21
700.7295413792785
 31
0.0
  0
LINE
  5
17B31
330
A
100
AcDbEntity
  8
MODEL
 62
     0
100
AcDbLine
 10
374.7318706036766
 20
694.3329881734256
 30
0.0
 11
367.8394203108416
 21
688.5236372123217
 31
0.0
  0
LINE
  5
17B32
330
A
100
AcDbEntity
  8
MODEL
 62
     0
100
AcDbLine
 10
373.3022795599996
 20
726.1607373079847
 30
0.0
 11
373.3022653679112
 21
686.260251756685
 31
0.0
  0
LINE
  5
17B33
330
A
100
AcDbEntity
  8
MODEL
 62
     0
100
AcDbLine
 10
374.7003587386795
 20
702.7140020715101
 30
0.0
 11
367.8079084458445
 21
696.9046511104062
 31
0.0
  0
LINE
  5
17B34
330
A
100
AcDbEntity
  8
MODEL
 62
     0
100
AcDbLine
 10
374.7318706036766
 20
698.7390192893323
 30
0.0
 11
367.8394203108416
 21
692.9296683282288
 31
0.0
  0
LINE
  5
17B35
330
A
100
AcDbEntity
  8
DIM
100
AcDbLine
 10
371.3330080477612
 20
686.260251756685
 30
0.0
 11
369.3637236013651
 21
686.260251756685
 31
0.0
  0
LINE
  5
17B36
330
A
100
AcDbEntity
  8
MODEL
100
AcDbLine
 10
369.3637236013651
 20
686.260251756685
 30
0.0
 11
373.3022635894758
 21
686.260251756685
 31
0.0
  0
LINE
  5
17B37
330
A
100
AcDbEntity
  8
DIM
100
AcDbLine
 10
371.3330080477612
 20
686.260251756685
 30
0.0
 11
373.3022653679112
 21
686.260251756685
 31
0.0
  0
LINE
  5
17B38
330
A
100
AcDbEntity
  8
MODEL
100
AcDbLine
 10
373.3022653679112
 20
686.260251756685
 30
0.0
 11
369.3637250416785
 21
686.2602517566853
 31
0.0
  0
LINE
  5
17B39
330
A
100
AcDbEntity
  8
MODEL
 62
     0
100
AcDbLine
 10
71.33300804776119
 20
731.260251756685
 30
0.0
 11
69.36373653552249
 21
726.1607373079851
 31
0.0
  0
LINE
  5
17B3A
330
A
100
AcDbEntity
  8
MODEL
 62
     0
100
AcDbLine
 10
71.33300804776119
 20
731.260251756685
 30
0.0
 11
73.3022795599997
 21
726.1607373079852
 31
0.0
  0
LINE
  5
17B3B
330
A
100
AcDbEntity
  8
MODEL
 62
     0
100
AcDbLine
 10
74.70035873867954
 20
729.5173452156619
 30
0.0
 11
67.8079084458447
 21
723.7079942545581
 31
0.0
  0
LINE
  5
17B3C
330
A
100
AcDbEntity
  8
MODEL
 62
     0
100
AcDbLine
 10
74.70035873867954
 20
726.0711200692443
 30
0.0
 11
67.80790844584425
 21
720.2617691081407
 31
0.0
  0
LINE
  5
17B3D
330
A
100
AcDbEntity
  8
MODEL
 62
     0
100
AcDbLine
 10
74.70035873867954
 20
722.6248949228266
 30
0.0
 11
67.80790844584425
 21
716.8155439617232
 31
0.0
  0
LINE
  5
17B3E
330
A
100
AcDbEntity
  8
MODEL
 62
     0
100
AcDbLine
 10
74.70035873867954
 20
718.784815473962
 30
0.0
 11
67.80790844584425
 21
712.975464512858
 31
0.0
  0
LINE
  5
17B3F
330
A
100
AcDbEntity
  8
MODEL
 62
     0
100
AcDbLine
 10
74.70035873867954
 20
714.6493452982607
 30
0.0
 11
67.80790844584458
 21
708.839994337157
 31
0.0
  0
LINE
  5
17B40
330
A
100
AcDbEntity
  8
MODEL
 62
     0
100
AcDbLine
 10
69.36373653552249
 20
726.1607373079851
 30
0.0
 11
69.3637250416786
 21
686.2602517566853
 31
0.0
  0
LINE
  5
17B41
330
A
100
AcDbEntity
  8
MODEL
 62
     0
100
AcDbLine
 10
74.73187060367656
 20
710.6743625160832
 30
0.0
 11
67.83942031084172
 21
704.8650115549794
 31
0.0
  0
LINE
  5
17B42
330
A
100
AcDbEntity
  8
MODEL
 62
     0
100
AcDbLine
 10
74.73187060367667
 20
706.5388923403822
 30
0.0
 11
67.83942031084172
 21
700.7295413792785
 31
0.0
  0
LINE
  5
17B43
330
A
100
AcDbEntity
  8
MODEL
 62
     0
100
AcDbLine
 10
74.73187060367667
 20
694.3329881734256
 30
0.0
 11
67.83942031084172
 21
688.5236372123217
 31
0.0
  0
LINE
  5
17B44
330
A
100
AcDbEntity
  8
MODEL
 62
     0
100
AcDbLine
 10
73.3022795599997
 20
726.1607373079847
 30
0.0
 11
73.30226536791127
 21
686.260251756685
 31
0.0
  0
LINE
  5
17B45
330
A
100
AcDbEntity
  8
MODEL
 62
     0
100
AcDbLine
 10
74.70035873867965
 20
702.7140020715101
 30
0.0
 11
67.80790844584458
 21
696.9046511104062
 31
0.0
  0
LINE
  5
17B46
330
A
100
AcDbEntity
  8
MODEL
 62
     0
100
AcDbLine
 10
74.73187060367667
 20
698.7390192893323
 30
0.0
 11
67.83942031084172
 21
692.9296683282288
 31
0.0
  0
LINE
  5
17B47
330
A
100
AcDbEntity
  8
DIM
100
AcDbLine
 10
71.33300804776133
 20
686.260251756685
 30
0.0
 11
69.36372360136518
 21
686.260251756685
 31
0.0
  0
LINE
  5
17B48
330
A
100
AcDbEntity
  8
MODEL
100
AcDbLine
 10
69.36372360136518
 20
686.260251756685
 30
0.0
 11
73.30226358947591
 21
686.260251756685
 31
0.0
  0
LINE
  5
17B49
330
A
100
AcDbEntity
  8
DIM
100
AcDbLine
 10
71.33300804776133
 20
686.260251756685
 30
0.0
 11
73.30226536791127
 21
686.260251756685
 31
0.0
  0
LINE
  5
17B4A
330
A
100
AcDbEntity
  8
MODEL
100
AcDbLine
 10
73.30226536791127
 20
686.260251756685
 30
0.0
 11
69.3637250416786
 21
686.2602517566853
 31
0.0
  0
DIMENSION
  5
17B4B
102
{ACAD_XDICTIONARY
360
17B4C
102
}
102
{ACAD_REACTORS
330
17B4D
102
}
330
A
100
AcDbEntity
  8
DIM
100
AcDbDimension
280
     0
  2
*D20
 10
539.4819006181307
 20
372.1427627770345
 30
0.0
 11
538.2994369541218
 21
386.8899027225289
 31
0.0
 70
    33
 71
     5
 42
21.80333400035761
 73
     0
 74
     0
 75
     0
  3
tfrom線あり
100
AcDbAlignedDimension
 13
550.5173253426232
 23
416.0668665724673
 33
0.0
 14
566.4939875960729
 24
401.230032787244
 34
0.0
  0
DIMENSION
  5
17B5A
330
A
100
AcDbEntity
  8
DIM
100
AcDbDimension
280
     0
  2
*D21
 10
545.6082495406002
 20
446.6439185318833
 30
0.0
 11
532.7742614619713
 21
433.809930453364
 31
0.0
 70
   161
 71
     5
 42
36.30000000010817
 73
     0
 74
     0
 75
     0
  3
tfrom線あり
100
AcDbAlignedDimension
 13
548.1079229560746
 23
392.8082928018719
 33
0.0
 14
573.7758991133325
 24
418.4762689589104
 34
0.0
  0
MTEXT
  5
17B6A
330
A
100
AcDbEntity
  8
TEMPLATE
390
1D
100
AcDbMText
 10
398.8930501546939
 20
147.4966617758927
 30
0.0
 40
7.329785156250001
 41
0.0
 46
8.11436638592988
 71
     1
 72
     1
  1
{FSB74-0203-003（ホワイト）}
  7
ＭＳ ゴシック
 73
     1
 44
0.7828267384257844
1001
ACAD
1000
ACAD_MTEXT_DEFINED_HEIGHT_BEGIN
1070
    46
1040
8.11436638592988
1000
ACAD_MTEXT_DEFINED_HEIGHT_END
  0
MTEXT
  5
17BAE
330
A
100
AcDbEntity
  8
TEMPLATE
390
1D
100
AcDbMText
 10
37.97892084904127
 20
58.03484468690157
 30
0.0
 40
7.0
 41
0.0
 46
19.71884021451188
 71
     1
 72
     1
  1
取付ビスはトルクスネジ(T20)が付属しています。別売のトルクスレンチ\P(TFM93-0003)をご購入頂いただくか、現場でご用意ください。/ 耐荷重:100kgf
  7
ＭＳ ゴシック
 73
     1
 44
0.9331787841240656
1001
ACAD
1000
ACAD_MTEXT_DEFINED_HEIGHT_BEGIN
1070
    46
1040
19.71884021451188
1000
ACAD_MTEXT_DEFINED_HEIGHT_END
  0
VIEWPORT
  5
349
330
B
100
AcDbEntity
 67
     1
  8
0
348
26C
100
AcDbViewport
 10
202.5
 20
128.5
 30
0.0
 40
486.0
 41
308.4
 68
     1
 69
     1
 12
202.5
 22
128.5
 13
0.0
 23
0.0
 14
0.5
 24
0.5
 15
0.0
 25
0.0
 16
0.0
 26
0.0
 36
1.0
 17
0.0
 27
0.0
 37
0.0
 42
50.0
 43
0.0
 44
0.0
 45
308.4
 50
0.0
 51
0.0
 72
   100
 90
   557152
  1

281
     0
 71
     1
 74
     0
110
0.0
120
0.0
130
0.0
111
1.0
121
0.0
131
0.0
112
0.0
122
1.0
132
0.0
 79
     0
146
0.0
170
     0
 61
     5
292
     1
282
     1
141
0.0
142
0.0
  0
VIEWPORT
  5
34A
330
B
100
AcDbEntity
 67
     1
  8
0
348
26C
100
AcDbViewport
 10
202.5
 20
128.5
 30
0.0
 40
324.0
 41
205.6
 68
     2
 69
     2
 12
986.6781359294572
 22
1427.077061889956
 13
0.0
 23
0.0
 14
0.5
 24
0.5
 15
0.0
 25
0.0
 16
0.0
 26
0.0
 36
1.0
 17
0.0
 27
0.0
 37
0.0
 42
50.0
 43
0.0
 44
0.0
 45
2890.021615685494
 50
0.0
 51
0.0
 72
   100
 90
   557152
  1

281
     0
 71
     1
 74
     0
110
0.0
120
0.0
130
0.0
111
1.0
121
0.0
131
0.0
112
0.0
122
1.0
132
0.0
 79
     0
146
0.0
170
     0
 61
     5
292
     1
282
     1
141
0.0
142
0.0
  0
ENDSEC
  0
SECTION
  2
OBJECTS
  0
DICTIONARY
  5
19
330
0
100
AcDbDictionary
281
     1
  3
ACAD_BACKGROUND
350
17BD1
  3
ACAD_CIP_PREVIOUS_PRODUCT_INFO
350
17BD5
  3
ACAD_COLOR
350
674
  3
ACAD_DETAILVIEWSTYLE
350
BBF
  3
ACAD_FIELDLIST
350
36B0
  3
ACAD_GROUP
350
1A
  3
ACAD_IMAGE_VARS
350
27B
  3
ACAD_LAYOUT
350
1E
  3
ACAD_MATERIAL
350
263
  3
ACAD_MLEADERSTYLE
350
336
  3
ACAD_MLINESTYLE
350
1B
  3
ACAD_PLOTSETTINGS
350
22
  3
ACAD_PLOTSTYLENAME
350
1F
  3
ACAD_RENDER_RAPIDRT_SETTINGS
350
17BF9
  3
ACAD_SCALELIST
350
241
  3
ACAD_SECTIONVIEWSTYLE
350
BC0
  3
ACAD_TABLESTYLE
350
278
  3
ACAD_VISUALSTYLE
350
267
  3
ACDB_RECOMPOSE_DATA
350
17C11
  3
AcDbVariableDictionary
350
330
  3
APPDATA
350
27A
  3
ASE_INDEX_DICTIONARY
350
17BE7
  3
CENTERLINE
350
366B
  3
DimOffsetDictionary
350
E38
  0
SUN
  5
904
330
15
100
AcDbSun
 90
        1
290
     1
 63
     7
421
 16777215
 40
1.0
291
     1
 91
  2455826
 92
 54000000
292
     0
 70
     0
 71
   256
280
     1
  0
DICTIONARY
  5
2E1
330
2
100
AcDbDictionary
280
     1
281
     1
  3
ACAD_LAYERSTATES
360
2E2
  3
ACLYDICTIONARY
360
DDE
  0
DICTIONARY
  5
17BDA
330
14
100
AcDbDictionary
280
     1
281
     1
  3
ADSK_XREC_LAYER_RECONCILED
360
17BDB
  0
DICTIONARY
  5
17BDC
330
4B
100
AcDbDictionary
280
     1
281
     1
  3
ADSK_XREC_LAYER_RECONCILED
360
17BDD
  0
DICTIONARY
  5
17BDE
330
4C
100
AcDbDictionary
280
     1
281
     1
  3
ADSK_XREC_LAYER_RECONCILED
360
17BDF
  0
DICTIONARY
  5
17BE0
330
4D
100
AcDbDictionary
280
     1
281
     1
  3
ADSK_XREC_LAYER_RECONCILED
360
17BE1
  0
DICTIONARY
  5
17BE2
330
D6B
100
AcDbDictionary
280
     1
281
     1
  3
ADSK_XREC_LAYER_RECONCILED
360
17BE3
  0
DICTIONARY
  5
17BE4
330
17852
100
AcDbDictionary
280
     1
281
     1
  3
ADSK_XREC_LAYER_RECONCILED
360
17BE5
  0
DICTIONARY
  5
1733E
330
A
100
AcDbDictionary
280
     1
281
     1
  3
ACAD_SORTENTS
360
1733F
  0
DICTIONARY
  5
36AE
330
36AC
100
AcDbDictionary
280
     1
281
     1
  3
ACAD_FIELD
360
17BB0
  0
DICTIONARY
  5
17699
330
17698
100
AcDbDictionary
280
     1
281
     1
  3
ACAD_DIMASSOC
360
1769A
  0
DICTIONARY
  5
176A8
330
176A7
100
AcDbDictionary
280
     1
281
     1
  3
ACAD_DIMASSOC
360
176A9
  0
DICTIONARY
  5
17774
330
17773
100
AcDbDictionary
280
     1
281
     1
  3
ACAD_DIMASSOC
360
17775
  0
DICTIONARY
  5
17A4F
330
17A4E
100
AcDbDictionary
280
     1
281
     1
  3
ACAD_DIMASSOC
360
17A50
  0
DICTIONARY
  5
17A84
330
17A83
100
AcDbDictionary
280
     1
281
     1
  3
ACAD_DIMASSOC
360
17A85
  0
DICTIONARY
  5
17AEA
330
17AE9
100
AcDbDictionary
280
     1
281
     1
  3
ACAD_DIMASSOC
360
17AEB
  0
DICTIONARY
  5
17B4C
330
17B4B
100
AcDbDictionary
280
     1
281
     1
  3
ACAD_DIMASSOC
360
17B4D
  0
DICTIONARY
  5
17BD1
102
{ACAD_REACTORS
330
19
102
}
330
19
100
AcDbDictionary
281
     1
  0
XRECORD
  5
17BD5
102
{ACAD_REACTORS
330
19
102
}
330
19
100
AcDbXrecord
280
     1
300
ACD
300
2023
300

  0
DICTIONARY
  5
674
102
{ACAD_REACTORS
330
19
102
}
330
19
100
AcDbDictionary
281
     1
  0
DICTIONARY
  5
BBF
102
{ACAD_REACTORS
330
19
102
}
330
19
100
AcDbDictionary
281
     1
  3
Metric50
350
17BCB
  0
FIELDLIST
  5
36B0
102
{ACAD_REACTORS
330
19
102
}
330
19
100
AcDbIdSet
 90
        2
330
36B1
330
36AD
100
AcDbFieldList
  0
DICTIONARY
  5
1A
102
{ACAD_REACTORS
330
19
102
}
330
19
100
AcDbDictionary
281
     1
  3
*A1
350
1730A
  3
*A2
350
17A98
  3
*A3
350
17AE8
  0
RASTERVARIABLES
  5
27B
102
{ACAD_REACTORS
330
19
102
}
330
19
100
AcDbRasterVariables
 90
        0
 70
     1
 71
     1
 72
     1
  0
DICTIONARY
  5
1E
102
{ACAD_REACTORS
330
19
102
}
330
19
100
AcDbDictionary
281
     1
  3
Layout1
350
21
  3
Model
350
20
  0
DICTIONARY
  5
263
102
{ACAD_REACTORS
330
19
102
}
330
19
100
AcDbDictionary
281
     1
  3
ByBlock
350
265
  3
ByLayer
350
264
  3
Global
350
266
  0
DICTIONARY
  5
336
102
{ACAD_REACTORS
330
19
102
}
330
19
100
AcDbDictionary
281
     1
  3
Standard
350
D59
  0
DICTIONARY
  5
1B
102
{ACAD_REACTORS
330
19
102
}
330
19
100
AcDbDictionary
281
     1
  3
Standard
350
1C
  0
DICTIONARY
  5
22
102
{ACAD_REACTORS
330
19
102
}
330
19
100
AcDbDictionary
281
     1
  0
ACDBDICTIONARYWDFLT
  5
1F
102
{ACAD_REACTORS
330
19
102
}
330
19
100
AcDbDictionary
281
     1
  3
Normal
350
1D
100
AcDbDictionaryWithDefault
340
1D
  0
DICTIONARY
  5
17BF9
102
{ACAD_REACTORS
330
19
102
}
330
19
100
AcDbDictionary
281
     1
  3
Coffee-Break Quality
350
17BFD
  3
High
350
17BFC
  3
Low
350
17BFA
  3
Lunch Quality
350
17BFE
  3
Medium
350
17BFB
  3
Overnight Quality
350
17BFF
  0
DICTIONARY
  5
241
102
{ACAD_REACTORS
330
19
102
}
330
19
100
AcDbDictionary
281
     1
  3
A0
350
242
  3
A1
350
243
  3
A2
350
244
  3
A3
350
245
  3
A4
350
246
  3
A5
350
247
  3
A6
350
248
  3
A7
350
249
  3
A8
350
24A
  3
A9
350
24B
  3
B0
350
24C
  3
B1
350
24D
  3
B2
350
24E
  3
B3
350
24F
  3
B4
350
250
  3
B5
350
251
  3
B6
350
252
  3
B7
350
253
  3
B8
350
254
  3
B9
350
255
  3
C0
350
256
  3
C1
350
257
  3
C2
350
258
  3
C3
350
259
  3
C4
350
25A
  3
C5
350
25B
  3
C6
350
25C
  3
C7
350
25D
  3
C8
350
25E
  3
C9
350
25F
  3
D0
350
260
  3
D1
350
261
  3
D2
350
262
  0
DICTIONARY
  5
BC0
102
{ACAD_REACTORS
330
19
102
}
330
19
100
AcDbDictionary
281
     1
  3
Metric50
350
17BCA
  0
DICTIONARY
  5
278
102
{ACAD_REACTORS
330
19
102
}
330
19
100
AcDbDictionary
281
     1
  3
Standard
350
279
  0
DICTIONARY
  5
267
102
{ACAD_REACTORS
330
19
102
}
330
19
100
AcDbDictionary
281
     1
  3
*A1
350
3666
  3
2dWireframe
350
26C
  3
3D Hidden
350
26E
  3
3dWireframe
350
26D
  3
Basic
350
26F
  3
Brighten
350
273
  3
ColorChange
350
277
  3
Conceptual
350
271
  3
Dim
350
272
  3
EdgeColorOff
350
8FE
  3
Facepattern
350
276
  3
Flat
350
268
  3
FlatWithEdges
350
269
  3
Gouraud
350
26A
  3
GouraudWithEdges
350
26B
  3
Hidden
350
8FB
  3
JitterOff
350
8FC
  3
Linepattern
350
275
  3
OverhangOff
350
8FD
  3
Realistic
350
270
  3
Shaded
350
903
  3
Shaded with edges
350
902
  3
Shades of Gray
350
8FF
  3
Sketchy
350
900
  3
Thicken
350
274
  3
Wireframe
350
8FA
  3
X-Ray
350
901
  0
XRECORD
  5
17C11
102
{ACAD_REACTORS
330
19
102
}
330
19
100
AcDbXrecord
280
     1
 90
        1
330
279
  0
DICTIONARY
  5
330
102
{ACAD_REACTORS
330
19
102
}
330
19
100
AcDbDictionary
281
     1
  3
CANNOSCALE
350
331
  3
CMLEADERSTYLE
350
D5E
  3
CTABLESTYLE
350
335
  3
CVIEWDETAILSTYLE
350
17BF1
  3
CVIEWSECTIONSTYLE
350
17BF2
  3
HPTRANSPARENCY
350
D52
  3
LAYEREVAL
350
17BF3
  3
LAYERNOTIFY
350
17BF4
  0
DICTIONARY
  5
27A
102
{ACAD_REACTORS
330
19
102
}
330
19
100
AcDbDictionary
281
     1
  0
DICTIONARY
  5
17BE7
102
{ACAD_REACTORS
330
19
102
}
330
19
100
AcDbDictionary
281
     1
  3
ASEBlockHierarchyIndexRecord
350
17BE9
1001
DCO15
1040
2109302964.0
  0
DICTIONARY
  5
366B
102
{ACAD_REACTORS
330
19
102
}
330
19
100
AcDbDictionary
281
     1
  3
CLEXTENSION
350
36AB
  0
DICTIONARY
  5
E38
102
{ACAD_REACTORS
330
19
102
}
330
19
100
AcDbDictionary
281
     1
  3
DIMRAILANGLE
350
36A9
  3
DIMRAILFIRSTOFFSET
350
36A7
  3
DIMRAILOFFSET
350
36A8
  3
DIMRAILSENABLED
350
36AA
  0
DICTIONARY
  5
2E2
102
{ACAD_REACTORS
330
2E1
102
}
330
2E1
100
AcDbDictionary
281
     1
  3
LayerState1
350
1798C
  0
DICTIONARY
  5
DDE
102
{ACAD_REACTORS
330
2E1
102
}
330
2E1
100
AcDbDictionary
281
     1
1001
ACAD
1000
<All
  0
XRECORD
  5
17BDB
102
{ACAD_REACTORS
330
17BDA
102
}
330
17BDA
100
AcDbXrecord
280
     1
290
     1
  0
XRECORD
  5
17BDD
102
{ACAD_REACTORS
330
17BDC
102
}
330
17BDC
100
AcDbXrecord
280
     1
290
     1
  0
XRECORD
  5
17BDF
102
{ACAD_REACTORS
330
17BDE
102
}
330
17BDE
100
AcDbXrecord
280
     1
290
     1
  0
XRECORD
  5
17BE1
102
{ACAD_REACTORS
330
17BE0
102
}
330
17BE0
100
AcDbXrecord
280
     1
290
     1
  0
XRECORD
  5
17BE3
102
{ACAD_REACTORS
330
17BE2
102
}
330
17BE2
100
AcDbXrecord
280
     1
290
     1
  0
XRECORD
  5
17BE5
102
{ACAD_REACTORS
330
17BE4
102
}
330
17BE4
100
AcDbXrecord
280
     1
290
     1
  0
SORTENTSTABLE
  5
1733F
102
{ACAD_REACTORS
330
1733E
102
}
330
1733E
100
AcDbSortentsTable
330
A
331
172F9
  5
172B7
331
172FA
  5
172F8
331
17305
  5
172F9
331
17306
  5
172FA
331
17307
  5
17305
331
17308
  5
17306
331
17309
  5
17307
  0
DICTIONARY
  5
17BB0
102
{ACAD_REACTORS
330
36AE
102
}
330
36AE
100
AcDbDictionary
280
     1
281
     1
  3
TEXT
360
36AD
  0
DIMASSOC
  5
1769A
102
{ACAD_REACTORS
330
17699
102
}
330
17699
100
AcDbDimAssoc
330
17698
 90
        3
 70
     0
 71
     1
  1
AcDbOsnapPointRef
 72
    13
331
175E0
 73
     0
 91
        0
 40
0.0
 10
0.0
 20
0.0
 30
0.0
 75
     0
  1
AcDbOsnapPointRef
 72
    10
331
17667
 73
     0
 91
        0
 40
0.3325631216303834
 10
0.0
 20
0.0
 30
0.0
 75
     0
  0
DIMASSOC
  5
176A9
102
{ACAD_REACTORS
330
176A8
102
}
330
176A8
100
AcDbDimAssoc
330
176A7
 90
        3
 70
     0
 71
     1
  1
AcDbOsnapPointRef
 72
    13
331
175AB
 73
     0
 91
        0
 40
0.0
 10
0.0
 20
0.0
 30
0.0
 75
     0
  1
AcDbOsnapPointRef
 72
    13
331
17622
 73
     0
 91
        0
 40
0.0
 10
0.0
 20
0.0
 30
0.0
 75
     0
  0
DIMASSOC
  5
17775
102
{ACAD_REACTORS
330
17774
102
}
330
17774
100
AcDbDimAssoc
330
17773
 90
        3
 70
     0
 71
     1
  1
AcDbOsnapPointRef
 72
     1
331
175A6
 73
     0
 91
        0
 40
0.0
 10
0.0
 20
0.0
 30
0.0
 75
     0
  1
AcDbOsnapPointRef
 72
    13
331
175AB
 73
     0
 91
        0
 40
0.0
 10
0.0
 20
0.0
 30
0.0
 75
     0
  0
DIMASSOC
  5
17A50
102
{ACAD_REACTORS
330
17A4F
102
}
330
17A4F
100
AcDbDimAssoc
330
17A4E
 90
        3
 70
     0
 71
     1
  1
AcDbOsnapPointRef
 72
    13
331
175E0
 73
     0
 91
        0
 40
0.0
 10
0.0
 20
0.0
 30
0.0
 75
     0
  1
AcDbOsnapPointRef
 72
    13
331
17A2A
 73
     0
 91
        0
 40
0.0
 10
0.0
 20
0.0
 30
0.0
 75
     0
  0
DIMASSOC
  5
17A85
102
{ACAD_REACTORS
330
17A84
102
}
330
17A84
100
AcDbDimAssoc
330
17A83
 90
        3
 70
     0
 71
     1
  1
AcDbOsnapPointRef
 72
     1
331
175E3
 73
     0
 91
        0
 40
0.0
 10
0.0
 20
0.0
 30
0.0
 75
     0
  1
AcDbOsnapPointRef
 72
    13
331
175E0
 73
     0
 91
        0
 40
0.0
 10
0.0
 20
0.0
 30
0.0
 75
     0
  0
DIMASSOC
  5
17AEB
102
{ACAD_REACTORS
330
17AEA
102
}
330
17AEA
100
AcDbDimAssoc
330
17AE9
 90
        1
 70
     0
 71
     1
  1
AcDbOsnapPointRef
 72
     1
331
17598
 73
     0
 91
        0
 40
0.0
 10
0.0
 20
0.0
 30
0.0
 75
     0
  0
DIMASSOC
  5
17B4D
102
{ACAD_REACTORS
330
17B4C
102
}
330
17B4C
100
AcDbDimAssoc
330
17B4B
 90
        2
 70
     0
 71
     1
  1
AcDbOsnapPointRef
 72
    10
331
17636
 73
     0
 91
        0
 40
5.526679351076689
 10
0.0
 20
0.0
 30
0.0
 75
     0
  0
ACDBDETAILVIEWSTYLE
  5
17BCB
102
{ACAD_REACTORS
330
BBF
102
}
330
BBF
100
AcDbModelDocViewStyle
 70
     0
  3
Metric50
290
     0
300
Metric50
 90
        0
100
AcDbDetailViewStyle
 70
     0
 71
     0
 90
        3
 71
     1
340
17
 62
   256
 40
5.0
340
0
 62
   256
 40
5.0
300

 40
0.0
280
     1
 71
     2
340
13
 90
       25
 62
   256
 71
     3
340
17
 62
   256
 40
5.0
 90
        0
 40
15.0
 90
        1
300
%<\AcVar ViewDetailId>% (%<\AcVar ViewScale \f "%sn">%)
 71
     4
340
13
 90
       25
 62
   256
340
13
 90
       25
 62
   256
280
     0
  0
GROUP
  5
1730A
102
{ACAD_REACTORS
330
1A
102
}
330
1A
100
AcDbGroup
300

 70
     1
 71
     1
340
172F9
340
172FA
340
17305
340
17306
340
17307
340
17308
340
17309
  0
GROUP
  5
17A98
102
{ACAD_REACTORS
330
1A
102
}
330
1A
100
AcDbGroup
300

 70
     1
 71
     1
340
179B4
340
179B5
  0
GROUP
  5
17AE8
102
{ACAD_REACTORS
330
1A
102
}
330
1A
100
AcDbGroup
300

 70
     1
 71
     1
340
17AE0
340
17AE1
  0
LAYOUT
  5
21
102
{ACAD_REACTORS
330
1E
102
}
330
1E
100
AcDbPlotSettings
  1

  2
none_device
  4
ISO_A3_(420.00_x_297.00_MM)
  6

 40
7.5
 41
20.0
 42
7.5
 43
20.0
 44
420.0
 45
297.0
 46
0.0
 47
0.0
 48
0.0
 49
0.0
140
0.0
141
0.0
142
1.0
143
1.0
 70
     0
 72
     1
 73
     0
 74
     0
  7

 75
     0
147
1.0
 76
     0
 77
     2
 78
   300
148
0.0
149
0.0
100
AcDbLayout
  1
Layout1
 70
     0
 71
     1
 10
-7.5
 20
-20.0
 11
412.5
 21
277.0
 12
0.0
 22
0.0
 32
0.0
 14
0.0
 24
0.0
 34
0.0
 15
0.0
 25
0.0
 35
0.0
146
0.0
 13
0.0
 23
0.0
 33
0.0
 16
1.0
 26
0.0
 36
0.0
 17
0.0
 27
1.0
 37
0.0
 76
     0
330
B
331
349
  0
LAYOUT
  5
20
102
{ACAD_REACTORS
330
1E
102
}
330
1E
100
AcDbPlotSettings
  1

  2
Adobe PDF
  4
A4
  6

 40
0.0
 41
0.010498046875
 42
0.0901641845703125
 43
0.0
 44
210.0
 45
297.0
 46
0.0
 47
0.0585099356515002
 48
0.0
 49
0.0
140
0.0
141
0.0
142
1.0
143
3.001288613049789
 70
  3764
 72
     1
 73
     0
 74
     2
  7
monochrome.ctb
 75
     0
147
0.3331902155800471
 76
     0
 77
     4
 78
   300
148
0.0
149
0.0
100
AcDbLayout
  1
Model
 70
     0
 71
     0
 10
0.0
 20
0.0
 11
630.0
 21
891.0
 12
0.0
 22
0.0
 32
0.0
 14
0.0
 24
0.0
 34
-0.0000000000000142
 15
630.0
 25
891.0
 35
0.0000000000000142
146
0.0
 13
0.0
 23
0.0
 33
0.0
 16
0.0
 26
0.0
 36
0.0
 17
0.0
 27
0.0
 37
0.0
 76
     0
330
A
331
15
1001
ACAD_PSEXT
1000
Adobe PDF
1000
Adobe PDF Converter
1000
Documents\*.pdf
1000

1070
     0
  0
MATERIAL
  5
265
102
{ACAD_REACTORS
330
263
102
}
330
263
100
AcDbMaterial
  1
ByBlock
  0
MATERIAL
  5
264
102
{ACAD_REACTORS
330
263
102
}
330
263
100
AcDbMaterial
  1
ByLayer
  0
MATERIAL
  5
266
102
{ACAD_REACTORS
330
263
102
}
330
263
100
AcDbMaterial
  1
Global
  0
MLEADERSTYLE
  5
D59
102
{ACAD_REACTORS
330
336
102
}
330
336
100
AcDbMLeaderStyle
179
     2
170
     2
171
     1
172
     0
 90
        2
 40
0.0
 41
0.0
173
     1
 91
-1056964608
340
11
 92
       -2
290
     1
 42
2.0
291
     1
 43
8.0
  3
Standard
 44
4.0
300

342
17
174
     1
178
     6
175
     1
176
     0
 93
-1056964608
 45
4.0
292
     0
297
     0
 46
4.0
 94
-1056964608
 47
1.0
 49
1.0
140
1.0
293
     1
141
0.0
294
     1
177
     0
142
1.0
295
     0
296
     0
143
3.75
271
     0
272
     9
273
     9
298
     0
1001
ACAD_MLEADERVER
1070
     2
  0
MLINESTYLE
  5
1C
102
{ACAD_REACTORS
330
1B
102
}
330
1B
100
AcDbMlineStyle
  2
STANDARD
 70
     0
  3

 62
     0
 51
90.0
 52
90.0
 71
     2
 49
0.5
 62
   256
  6
BYLAYER
 49
-0.5
 62
   256
  6
BYLAYER
  0
ACDBPLACEHOLDER
  5
1D
102
{ACAD_REACTORS
330
1F
102
}
330
1F
  0
RAPIDRTRENDERSETTINGS
  5
17BFD
102
{ACAD_REACTORS
330
17BF9
102
}
330
17BF9
100
AcDbRenderSettings
 90
        2
  1
Coffee-Break Quality
290
     1
290
     0
290
     1
290
     1
  1

  1
Renders for 10 minutes
 90
        3
100
AcDbRapidRTRenderSettings
 90
        3
 70
     1
 90
        1
 90
       10
 70
     1
 70
     2
 40
3.0
 40
3.0
290
     1
  0
RAPIDRTRENDERSETTINGS
  5
17BFC
102
{ACAD_REACTORS
330
17BF9
102
}
330
17BF9
100
AcDbRenderSettings
 90
        2
  1
High
290
     1
290
     0
290
     1
290
     1
  1

  1
Applies 10 rendering levels
 90
        2
100
AcDbRapidRTRenderSettings
 90
        3
 70
     0
 90
       10
 90
        1
 70
     2
 70
     2
 40
3.0
 40
3.0
290
     1
  0
RAPIDRTRENDERSETTINGS
  5
17BFA
102
{ACAD_REACTORS
330
17BF9
102
}
330
17BF9
100
AcDbRenderSettings
 90
        2
  1
Low
290
     1
290
     0
290
     1
290
     1
  1

  1
Applies 1 rendering level
 90
        0
100
AcDbRapidRTRenderSettings
 90
        3
 70
     0
 90
        1
 90
        1
 70
     0
 70
     2
 40
3.0
 40
3.0
290
     1
  0
RAPIDRTRENDERSETTINGS
  5
17BFE
102
{ACAD_REACTORS
330
17BF9
102
}
330
17BF9
100
AcDbRenderSettings
 90
        2
  1
Lunch Quality
290
     1
290
     0
290
     1
290
     1
  1

  1
Renders for 60 minutes
 90
        4
100
AcDbRapidRTRenderSettings
 90
        3
 70
     1
 90
        1
 90
       60
 70
     2
 70
     2
 40
3.0
 40
3.0
290
     1
  0
RAPIDRTRENDERSETTINGS
  5
17BFB
102
{ACAD_REACTORS
330
17BF9
102
}
330
17BF9
100
AcDbRenderSettings
 90
        2
  1
Medium
290
     1
290
     0
290
     1
290
     1
  1

  1
Applies 5 rendering levels
 90
        1
100
AcDbRapidRTRenderSettings
 90
        3
 70
     0
 90
        5
 90
        1
 70
     1
 70
     2
 40
3.0
 40
3.0
290
     1
  0
RAPIDRTRENDERSETTINGS
  5
17BFF
102
{ACAD_REACTORS
330
17BF9
102
}
330
17BF9
100
AcDbRenderSettings
 90
        2
  1
Overnight Quality
290
     1
290
     0
290
     1
290
     1
  1

  1
Renders for 12 hours
 90
        5
100
AcDbRapidRTRenderSettings
 90
        3
 70
     1
 90
        1
 90
      720
 70
     2
 70
     2
 40
3.0
 40
3.0
290
     1
  0
SCALE
  5
242
102
{ACAD_REACTORS
330
241
102
}
330
241
100
AcDbScale
 70
     0
300
1:1
140
1.0
141
1.0
290
     1
  0
SCALE
  5
243
102
{ACAD_REACTORS
330
241
102
}
330
241
100
AcDbScale
 70
     0
300
1:2
140
1.0
141
2.0
290
     0
  0
SCALE
  5
244
102
{ACAD_REACTORS
330
241
102
}
330
241
100
AcDbScale
 70
     0
300
1:4
140
1.0
141
4.0
290
     0
  0
SCALE
  5
245
102
{ACAD_REACTORS
330
241
102
}
330
241
100
AcDbScale
 70
     0
300
1:5
140
1.0
141
5.0
290
     0
  0
SCALE
  5
246
102
{ACAD_REACTORS
330
241
102
}
330
241
100
AcDbScale
 70
     0
300
1:8
140
1.0
141
8.0
290
     0
  0
SCALE
  5
247
102
{ACAD_REACTORS
330
241
102
}
330
241
100
AcDbScale
 70
     0
300
1:10
140
1.0
141
10.0
290
     0
  0
SCALE
  5
248
102
{ACAD_REACTORS
330
241
102
}
330
241
100
AcDbScale
 70
     0
300
1:16
140
1.0
141
16.0
290
     0
  0
SCALE
  5
249
102
{ACAD_REACTORS
330
241
102
}
330
241
100
AcDbScale
 70
     0
300
1:20
140
1.0
141
20.0
290
     0
  0
SCALE
  5
24A
102
{ACAD_REACTORS
330
241
102
}
330
241
100
AcDbScale
 70
     0
300
1:30
140
1.0
141
30.0
290
     0
  0
SCALE
  5
24B
102
{ACAD_REACTORS
330
241
102
}
330
241
100
AcDbScale
 70
     0
300
1:40
140
1.0
141
40.0
290
     0
  0
SCALE
  5
24C
102
{ACAD_REACTORS
330
241
102
}
330
241
100
AcDbScale
 70
     0
300
1:50
140
1.0
141
50.0
290
     0
  0
SCALE
  5
24D
102
{ACAD_REACTORS
330
241
102
}
330
241
100
AcDbScale
 70
     0
300
1:100
140
1.0
141
100.0
290
     0
  0
SCALE
  5
24E
102
{ACAD_REACTORS
330
241
102
}
330
241
100
AcDbScale
 70
     0
300
2:1
140
2.0
141
1.0
290
     0
  0
SCALE
  5
24F
102
{ACAD_REACTORS
330
241
102
}
330
241
100
AcDbScale
 70
     0
300
4:1
140
4.0
141
1.0
290
     0
  0
SCALE
  5
250
102
{ACAD_REACTORS
330
241
102
}
330
241
100
AcDbScale
 70
     0
300
8:1
140
8.0
141
1.0
290
     0
  0
SCALE
  5
251
102
{ACAD_REACTORS
330
241
102
}
330
241
100
AcDbScale
 70
     0
300
10:1
140
10.0
141
1.0
290
     0
  0
SCALE
  5
252
102
{ACAD_REACTORS
330
241
102
}
330
241
100
AcDbScale
 70
     0
300
100:1
140
100.0
141
1.0
290
     0
  0
SCALE
  5
253
102
{ACAD_REACTORS
330
241
102
}
330
241
100
AcDbScale
 70
     0
300
1/128" = 1'-0"
140
0.0078125
141
12.0
290
     0
  0
SCALE
  5
254
102
{ACAD_REACTORS
330
241
102
}
330
241
100
AcDbScale
 70
     0
300
1/64" = 1'-0"
140
0.015625
141
12.0
290
     0
  0
SCALE
  5
255
102
{ACAD_REACTORS
330
241
102
}
330
241
100
AcDbScale
 70
     0
300
1/32" = 1'-0"
140
0.03125
141
12.0
290
     0
  0
SCALE
  5
256
102
{ACAD_REACTORS
330
241
102
}
330
241
100
AcDbScale
 70
     0
300
1/16" = 1'-0"
140
0.0625
141
12.0
290
     0
  0
SCALE
  5
257
102
{ACAD_REACTORS
330
241
102
}
330
241
100
AcDbScale
 70
     0
300
3/32" = 1'-0"
140
0.09375
141
12.0
290
     0
  0
SCALE
  5
258
102
{ACAD_REACTORS
330
241
102
}
330
241
100
AcDbScale
 70
     0
300
1/8" = 1'-0"
140
0.125
141
12.0
290
     0
  0
SCALE
  5
259
102
{ACAD_REACTORS
330
241
102
}
330
241
100
AcDbScale
 70
     0
300
3/16" = 1'-0"
140
0.1875
141
12.0
290
     0
  0
SCALE
  5
25A
102
{ACAD_REACTORS
330
241
102
}
330
241
100
AcDbScale
 70
     0
300
1/4" = 1'-0"
140
0.25
141
12.0
290
     0
  0
SCALE
  5
25B
102
{ACAD_REACTORS
330
241
102
}
330
241
100
AcDbScale
 70
     0
300
3/8" = 1'-0"
140
0.375
141
12.0
290
     0
  0
SCALE
  5
25C
102
{ACAD_REACTORS
330
241
102
}
330
241
100
AcDbScale
 70
     0
300
1/2" = 1'-0"
140
0.5
141
12.0
290
     0
  0
SCALE
  5
25D
102
{ACAD_REACTORS
330
241
102
}
330
241
100
AcDbScale
 70
     0
300
3/4" = 1'-0"
140
0.75
141
12.0
290
     0
  0
SCALE
  5
25E
102
{ACAD_REACTORS
330
241
102
}
330
241
100
AcDbScale
 70
     0
300
1" = 1'-0"
140
1.0
141
12.0
290
     0
  0
SCALE
  5
25F
102
{ACAD_REACTORS
330
241
102
}
330
241
100
AcDbScale
 70
     0
300
1-1/2" = 1'-0"
140
1.5
141
12.0
290
     0
  0
SCALE
  5
260
102
{ACAD_REACTORS
330
241
102
}
330
241
100
AcDbScale
 70
     0
300
3" = 1'-0"
140
3.0
141
12.0
290
     0
  0
SCALE
  5
261
102
{ACAD_REACTORS
330
241
102
}
330
241
100
AcDbScale
 70
     0
300
6" = 1'-0"
140
6.0
141
12.0
290
     0
  0
SCALE
  5
262
102
{ACAD_REACTORS
330
241
102
}
330
241
100
AcDbScale
 70
     0
300
1'-0" = 1'-0"
140
12.0
141
12.0
290
     0
  0
ACDBSECTIONVIEWSTYLE
  5
17BCA
102
{ACAD_REACTORS
330
BC0
102
}
330
BC0
100
AcDbModelDocViewStyle
 70
     0
  3
Metric50
290
     0
300
Metric50
 90
        0
100
AcDbSectionViewStyle
 70
     0
 71
     0
 90
      102
 71
     1
340
17
 62
   256
 40
5.0
340
0
340
0
 62
   256
 40
5.0
300
I, O, Q, S, X, Z
 40
10.0
 90
        0
 40
2.5
 90
        0
 71
     2
340
13
 90
       25
 62
   256
340
13
 90
       50
 62
   256
 40
5.0
 40
2.5
 40
5.0
 71
     3
340
17
 62
   256
 40
5.0
 90
        0
 40
15.0
 90
        1
300
%<\AcVar ViewSectionStartId>%-%<\AcVar ViewSectionEndId>% (%<\AcVar ViewScale \f "%sn">%)
 71
     4
 62
   256
 62
   257
300
ANSI31
 40
1.0
 90
        0
290
     0
290
     0
 90
        6
 40
0.0
 40
1.570796326794896
 40
0.2617993877991494
 40
1.308996938995747
 40
-0.2617993877991494
 40
1.832595714594046
  0
TABLESTYLE
  5
279
102
{ACAD_XDICTIONARY
360
17BC2
102
}
102
{ACAD_REACTORS
330
278
102
}
330
278
100
AcDbTableStyle
280
     0
  3
Standard
 70
     0
 71
     0
 40
0.06
 41
0.06
280
     0
281
     0
  7
Standard
140
4.5
170
     2
 62
     0
 63
     7
283
     0
 90
        4
 91
        0
  1

274
    -2
284
     1
 64
     0
275
    -2
285
     1
 65
     0
276
    -2
286
     1
 66
     0
277
    -2
287
     1
 67
     0
278
    -2
288
     1
 68
     0
279
    -2
289
     1
 69
     0
  7
Standard
140
6.0
170
     5
 62
     0
 63
     7
283
     0
 90
        4
 91
        0
  1

274
    -2
284
     1
 64
     0
275
    -2
285
     1
 65
     0
276
    -2
286
     1
 66
     0
277
    -2
287
     1
 67
     0
278
    -2
288
     1
 68
     0
279
    -2
289
     1
 69
     0
  7
Standard
140
4.5
170
     5
 62
     0
 63
     7
283
     0
 90
        4
 91
        0
  1

274
    -2
284
     1
 64
     0
275
    -2
285
     1
 65
     0
276
    -2
286
     1
 66
     0
277
    -2
287
     1
 67
     0
278
    -2
288
     1
 68
     0
279
    -2
289
     1
 69
     0
  0
VISUALSTYLE
  5
3666
102
{ACAD_REACTORS
330
267
102
}
330
267
100
AcDbVisualStyle
  2

 70
    10
177
     3
291
     0
 70
    58
 90
        0
176
     1
 90
        2
176
     1
 90
        0
176
     1
 90
        0
176
     1
 40
0.6
176
     1
 40
30.0
176
     1
 62
     7
420
 16777215
176
     1
 90
        1
176
     1
 90
        4
176
     1
 62
     7
176
     1
 62
   257
176
     1
 90
        1
176
     1
 90
        1
176
     1
 40
1.0
176
     1
 90
        8
176
     1
 62
     7
176
     1
 40
1.0
176
     1
 90
        1
176
     1
 90
        6
176
     1
 90
        2
176
     1
 62
     7
176
     1
 90
        5
176
     1
 90
        0
176
     1
 90
        0
176
     1
290
     0
176
     1
 90
        1
176
     1
 40
0.0
176
     1
 90
        0
176
     1
290
     0
176
     1
290
     1
176
     1
290
     1
176
     1
290
     0
176
     1
290
     0
176
     1
290
     0
176
     1
290
     0
176
     1
290
     0
176
     1
290
     0
176
     1
 90
       50
176
     1
 40
0.0
176
     1
 40
1.0
176
     1
 90
        0
176
     1
 62
    18
420
        0
176
     1
 90
       50
176
     1
 90
        3
176
     1
 62
     5
420
      255
176
     1
290
     0
176
     1
 90
       50
176
     1
 90
       50
176
     1
 90
       50
176
     1
290
     0
176
     1
 90
       50
176
     1
 62
   256
176
     0
 40
1.0
176
     0
 90
        2
176
     1
  1
strokes_ogs.tif
176
     1
290
     0
176
     1
 40
1.0
176
     1
 40
1.0
176
     1
  0
VISUALSTYLE
  5
26C
102
{ACAD_REACTORS
330
267
102
}
330
267
100
AcDbVisualStyle
  2

 70
     4
177
     3
291
     0
 70
    58
 90
        0
176
     1
 90
        2
176
     1
 90
        0
176
     1
 90
        0
176
     1
 40
0.6
176
     1
 40
30.0
176
     1
 62
     7
420
 16777215
176
     1
 90
        1
176
     1
 90
        4
176
     1
 62
     7
176
     1
 62
   257
176
     1
 90
        1
176
     1
 90
        1
176
     1
 40
1.0
176
     1
 90
        0
176
     1
 62
   257
176
     1
 40
1.0
176
     1
 90
        1
176
     1
 90
        6
176
     1
 90
        2
176
     1
 62
     7
176
     1
 90
        5
176
     1
 90
        0
176
     1
 90
        0
176
     1
290
     0
176
     1
 90
        1
176
     1
 40
0.0
176
     1
 90
        0
176
     1
290
     1
176
     1
290
     1
176
     1
290
     0
176
     1
290
     0
176
     1
290
     0
176
     1
290
     0
176
     1
290
     0
176
     1
290
     0
176
     1
290
     0
176
     1
 90
       50
176
     1
 40
0.0
176
     1
 40
1.0
176
     1
 90
        0
176
     1
 62
    18
420
        0
176
     1
 90
       50
176
     1
 90
        3
176
     1
 62
     5
420
      255
176
     1
290
     0
176
     1
 90
       50
176
     1
 90
       50
176
     1
 90
       50
176
     1
290
     0
176
     1
 90
       50
176
     1
 62
   256
176
     0
 40
1.0
176
     0
 90
        2
176
     1
  1
strokes_ogs.tif
176
     1
290
     0
176
     1
 40
1.0
176
     1
 40
1.0
176
     1
  0
VISUALSTYLE
  5
26E
102
{ACAD_REACTORS
330
267
102
}
330
267
100
AcDbVisualStyle
  2

 70
     6
177
     3
291
     0
 70
    58
 90
        1
176
     1
 90
        2
176
     1
 90
        2
176
     1
 90
        0
176
     1
 40
0.6
176
     1
 40
30.0
176
     1
 62
     7
420
 16777215
176
     1
 90
        2
176
     1
 90
        2
176
     1
 62
     7
176
     1
 62
   257
176
     1
 90
        2
176
     1
 90
        1
176
     1
 40
40.0
176
     1
 90
        0
176
     1
 62
   257
176
     1
 40
1.0
176
     1
 90
        1
176
     1
 90
        6
176
     1
 90
        2
176
     1
 62
     7
176
     1
 90
        3
176
     1
 90
        0
176
     1
 90
        0
176
     1
290
     0
176
     1
 90
        1
176
     1
 40
0.0
176
     1
 90
        0
176
     1
290
     0
176
     1
290
     1
176
     1
290
     1
176
     1
290
     0
176
     1
290
     0
176
     1
290
     0
176
     1
290
     0
176
     1
290
     0
176
     1
290
     0
176
     1
 90
       50
176
     1
 40
0.0
176
     1
 40
1.0
176
     1
 90
        0
176
     1
 62
    18
420
        0
176
     1
 90
       50
176
     1
 90
        3
176
     1
 62
     5
420
      255
176
     1
290
     0
176
     1
 90
       50
176
     1
 90
       50
176
     1
 90
       50
176
     1
290
     0
176
     1
 90
       50
176
     1
 62
   256
176
     0
 40
1.0
176
     0
 90
        2
176
     1
  1
strokes_ogs.tif
176
     1
290
     0
176
     1
 40
1.0
176
     1
 40
1.0
176
     1
  0
VISUALSTYLE
  5
26D
102
{ACAD_REACTORS
330
267
102
}
330
267
100
AcDbVisualStyle
  2

 70
     5
177
     3
291
     0
 70
    58
 90
        0
176
     1
 90
        2
176
     1
 90
        0
176
     1
 90
        0
176
     1
 40
0.6
176
     1
 40
30.0
176
     1
 62
     7
420
 16777215
176
     1
 90
        1
176
     1
 90
        4
176
     1
 62
     7
176
     1
 62
   257
176
     1
 90
        1
176
     1
 90
        1
176
     1
 40
1.0
176
     1
 90
        0
176
     1
 62
   257
176
     1
 40
1.0
176
     1
 90
        1
176
     1
 90
        6
176
     1
 90
        2
176
     1
 62
     7
176
     1
 90
        5
176
     1
 90
        0
176
     1
 90
        0
176
     1
290
     0
176
     1
 90
        1
176
     1
 40
0.0
176
     1
 90
        0
176
     1
290
     0
176
     1
290
     1
176
     1
290
     1
176
     1
290
     0
176
     1
290
     0
176
     1
290
     0
176
     1
290
     0
176
     1
290
     0
176
     1
290
     0
176
     1
 90
       50
176
     1
 40
0.0
176
     1
 40
1.0
176
     1
 90
        0
176
     1
 62
    18
420
        0
176
     1
 90
       50
176
     1
 90
        3
176
     1
 62
     5
420
      255
176
     1
290
     0
176
     1
 90
       50
176
     1
 90
       50
176
     1
 90
       50
176
     1
290
     0
176
     1
 90
       50
176
     1
 62
   256
176
     0
 40
1.0
176
     0
 90
        2
176
     1
  1
strokes_ogs.tif
176
     1
290
     0
176
     1
 40
1.0
176
     1
 40
1.0
176
     1
  0
VISUALSTYLE
  5
26F
102
{ACAD_REACTORS
330
267
102
}
330
267
100
AcDbVisualStyle
  2

 70
     7
177
     3
291
     1
 70
    58
 90
        1
176
     1
 90
        0
176
     1
 90
        1
176
     1
 90
        0
176
     1
 40
0.6
176
     1
 40
30.0
176
     1
 62
     7
420
 16777215
176
     1
 90
        0
176
     1
 90
        4
176
     1
 62
     7
176
     1
 62
   257
176
     1
 90
        1
176
     1
 90
        1
176
     1
 40
1.0
176
     1
 90
        8
176
     1
 62
     7
176
     1
 40
1.0
176
     1
 90
        1
176
     1
 90
        6
176
     1
 90
        2
176
     1
 62
     7
176
     1
 90
        5
176
     1
 90
        0
176
     1
 90
        0
176
     1
290
     0
176
     1
 90
        1
176
     1
 40
0.0
176
     1
 90
        0
176
     1
290
     0
176
     1
290
     1
176
     1
290
     1
176
     1
290
     0
176
     1
290
     0
176
     1
290
     0
176
     1
290
     0
176
     1
290
     0
176
     1
290
     0
176
     1
 90
       50
176
     1
 40
0.0
176
     1
 40
1.0
176
     1
 90
        0
176
     1
 62
    18
420
        0
176
     1
 90
       50
176
     1
 90
        3
176
     1
 62
     5
420
      255
176
     1
290
     0
176
     1
 90
       50
176
     1
 90
       50
176
     1
 90
       50
176
     1
290
     0
176
     1
 90
       50
176
     1
 62
   256
176
     0
 40
1.0
176
     0
 90
        2
176
     1
  1
strokes_ogs.tif
176
     1
290
     0
176
     1
 40
1.0
176
     1
 40
1.0
176
     1
  0
VISUALSTYLE
  5
273
102
{ACAD_REACTORS
330
267
102
}
330
267
100
AcDbVisualStyle
  2

 70
    12
177
     3
291
     1
 70
    58
 90
        2
176
     1
 90
        2
176
     1
 90
        0
176
     1
 90
        0
176
     1
 40
0.6
176
     1
 40
30.0
176
     1
 62
     7
420
 16777215
176
     1
 90
        1
176
     1
 90
        4
176
     1
 62
     7
176
     1
 62
   257
176
     1
 90
        1
176
     1
 90
        1
176
     1
 40
1.0
176
     1
 90
        8
176
     1
 62
     7
176
     1
 40
1.0
176
     1
 90
        1
176
     1
 90
        6
176
     1
 90
        2
176
     1
 62
     7
176
     1
 90
        5
176
     1
 90
        0
176
     1
 90
        0
176
     1
290
     0
176
     1
 90
        1
176
     1
 40
50.0
176
     1
 90
        0
176
     1
290
     0
176
     1
290
     1
176
     1
290
     1
176
     1
290
     0
176
     1
290
     0
176
     1
290
     0
176
     1
290
     0
176
     1
290
     0
176
     1
290
     0
176
     1
 90
       50
176
     1
 40
0.0
176
     1
 40
1.0
176
     1
 90
        0
176
     1
 62
    18
420
        0
176
     1
 90
       50
176
     1
 90
        3
176
     1
 62
     5
420
      255
176
     1
290
     0
176
     1
 90
       50
176
     1
 90
       50
176
     1
 90
       50
176
     1
290
     0
176
     1
 90
       50
176
     1
 62
   256
176
     0
 40
1.0
176
     0
 90
        2
176
     1
  1
strokes_ogs.tif
176
     1
290
     0
176
     1
 40
1.0
176
     1
 40
1.0
176
     1
  0
VISUALSTYLE
  5
277
102
{ACAD_REACTORS
330
267
102
}
330
267
100
AcDbVisualStyle
  2

 70
    16
177
     3
291
     1
 70
    58
 90
        2
176
     1
 90
        2
176
     1
 90
        3
176
     1
 90
        0
176
     1
 40
0.6
176
     1
 40
30.0
176
     1
 62
     8
420
  8421504
176
     1
 90
        1
176
     1
 90
        4
176
     1
 62
     7
176
     1
 62
   257
176
     1
 90
        1
176
     1
 90
        1
176
     1
 40
1.0
176
     1
 90
        8
176
     1
 62
     8
420
  8421504
176
     1
 40
1.0
176
     1
 90
        1
176
     1
 90
        6
176
     1
 90
        2
176
     1
 62
     7
176
     1
 90
        5
176
     1
 90
        0
176
     1
 90
        0
176
     1
290
     0
176
     1
 90
        1
176
     1
 40
0.0
176
     1
 90
        0
176
     1
290
     0
176
     1
290
     1
176
     1
290
     1
176
     1
290
     0
176
     1
290
     0
176
     1
290
     0
176
     1
290
     0
176
     1
290
     0
176
     1
290
     0
176
     1
 90
       50
176
     1
 40
0.0
176
     1
 40
1.0
176
     1
 90
        0
176
     1
 62
    18
420
        0
176
     1
 90
       50
176
     1
 90
        3
176
     1
 62
     5
420
      255
176
     1
290
     0
176
     1
 90
       50
176
     1
 90
       50
176
     1
 90
       50
176
     1
290
     0
176
     1
 90
       50
176
     1
 62
   256
176
     0
 40
1.0
176
     0
 90
        2
176
     1
  1
strokes_ogs.tif
176
     1
290
     0
176
     1
 40
1.0
176
     1
 40
1.0
176
     1
  0
VISUALSTYLE
  5
271
102
{ACAD_REACTORS
330
267
102
}
330
267
100
AcDbVisualStyle
  2

 70
     9
177
     3
291
     0
 70
    58
 90
        3
176
     1
 90
        2
176
     1
 90
        0
176
     1
 90
        0
176
     1
 40
0.6
176
     1
 40
30.0
176
     1
 62
     7
420
 16777215
176
     1
 90
        2
176
     1
 90
        2
176
     1
 62
     7
176
     1
 62
   257
176
     1
 90
        1
176
     1
 90
        1
176
     1
 40
40.0
176
     1
 90
        8
176
     1
 62
     7
176
     1
 40
1.0
176
     1
 90
        1
176
     1
 90
        6
176
     1
 90
        2
176
     1
 62
     7
176
     1
 90
        3
176
     1
 90
        0
176
     1
 90
        0
176
     1
290
     0
176
     1
 90
        1
176
     1
 40
0.0
176
     1
 90
        0
176
     1
290
     0
176
     1
290
     1
176
     1
290
     1
176
     1
290
     0
176
     1
290
     0
176
     1
290
     0
176
     1
290
     0
176
     1
290
     0
176
     1
290
     0
176
     1
 90
       50
176
     1
 40
0.0
176
     1
 40
1.0
176
     1
 90
        0
176
     1
 62
    18
420
        0
176
     1
 90
       50
176
     1
 90
        3
176
     1
 62
     5
420
      255
176
     1
290
     0
176
     1
 90
       50
176
     1
 90
       50
176
     1
 90
       50
176
     1
290
     0
176
     1
 90
       50
176
     1
 62
   256
176
     0
 40
1.0
176
     0
 90
        2
176
     1
  1
strokes_ogs.tif
176
     1
290
     0
176
     1
 40
1.0
176
     1
 40
1.0
176
     1
  0
VISUALSTYLE
  5
272
102
{ACAD_REACTORS
330
267
102
}
330
267
100
AcDbVisualStyle
  2

 70
    11
177
     3
291
     1
 70
    58
 90
        2
176
     1
 90
        2
176
     1
 90
        0
176
     1
 90
        0
176
     1
 40
0.6
176
     1
 40
30.0
176
     1
 62
     7
420
 16777215
176
     1
 90
        1
176
     1
 90
        4
176
     1
 62
     7
176
     1
 62
   257
176
     1
 90
        1
176
     1
 90
        1
176
     1
 40
1.0
176
     1
 90
        8
176
     1
 62
     7
176
     1
 40
1.0
176
     1
 90
        1
176
     1
 90
        6
176
     1
 90
        2
176
     1
 62
     7
176
     1
 90
        5
176
     1
 90
        0
176
     1
 90
        0
176
     1
290
     0
176
     1
 90
        1
176
     1
 40
-50.0
176
     1
 90
        0
176
     1
290
     0
176
     1
290
     1
176
     1
290
     1
176
     1
290
     0
176
     1
290
     0
176
     1
290
     0
176
     1
290
     0
176
     1
290
     0
176
     1
290
     0
176
     1
 90
       50
176
     1
 40
0.0
176
     1
 40
1.0
176
     1
 90
        0
176
     1
 62
    18
420
        0
176
     1
 90
       50
176
     1
 90
        3
176
     1
 62
     5
420
      255
176
     1
290
     0
176
     1
 90
       50
176
     1
 90
       50
176
     1
 90
       50
176
     1
290
     0
176
     1
 90
       50
176
     1
 62
   256
176
     0
 40
1.0
176
     0
 90
        2
176
     1
  1
strokes_ogs.tif
176
     1
290
     0
176
     1
 40
1.0
176
     1
 40
1.0
176
     1
  0
VISUALSTYLE
  5
8FE
102
{ACAD_REACTORS
330
267
102
}
330
267
100
AcDbVisualStyle
  2

 70
    22
177
     3
291
     1
 70
    58
 90
        2
176
     1
 90
        2
176
     1
 90
        0
176
     1
 90
        0
176
     1
 40
0.6
176
     1
 40
30.0
176
     1
 62
     7
420
 16777215
176
     1
 90
        1
176
     1
 90
        4
176
     1
 62
     7
176
     1
 62
   257
176
     1
 90
        1
176
     1
 90
        1
176
     1
 40
1.0
176
     1
 90
        8
176
     1
 62
     7
176
     1
 40
1.0
176
     1
 90
        1
176
     1
 90
        6
176
     1
 90
        2
176
     1
 62
     7
176
     1
 90
        5
176
     1
 90
        0
176
     1
 90
        0
176
     1
290
     0
176
     1
 90
        1
176
     1
 40
0.0
176
     1
 90
        0
176
     1
290
     0
176
     1
290
     1
176
     1
290
     1
176
     1
290
     0
176
     1
290
     0
176
     1
290
     0
176
     1
290
     0
176
     1
290
     0
176
     1
290
     0
176
     1
 90
       50
176
     1
 40
0.0
176
     1
 40
1.0
176
     1
 90
        0
176
     1
 62
    18
420
        0
176
     1
 90
       50
176
     1
 90
        3
176
     1
 62
     5
420
      255
176
     1
290
     0
176
     1
 90
       50
176
     1
 90
       50
176
     1
 90
       50
176
     1
290
     0
176
     1
 90
       50
176
     1
 62
   256
176
     0
 40
1.0
176
     0
 90
        2
176
     1
  1
strokes_ogs.tif
176
     1
290
     0
176
     1
 40
1.0
176
     1
 40
1.0
176
     1
  0
VISUALSTYLE
  5
276
102
{ACAD_REACTORS
330
267
102
}
330
267
100
AcDbVisualStyle
  2

 70
    15
177
     3
291
     1
 70
    58
 90
        2
176
     1
 90
        2
176
     1
 90
        0
176
     1
 90
        0
176
     1
 40
0.6
176
     1
 40
30.0
176
     1
 62
     7
420
 16777215
176
     1
 90
        1
176
     1
 90
        4
176
     1
 62
     7
176
     1
 62
   257
176
     1
 90
        1
176
     1
 90
        1
176
     1
 40
1.0
176
     1
 90
        8
176
     1
 62
     7
176
     1
 40
1.0
176
     1
 90
        1
176
     1
 90
        6
176
     1
 90
        2
176
     1
 62
     7
176
     1
 90
        5
176
     1
 90
        0
176
     1
 90
        0
176
     1
290
     0
176
     1
 90
        1
176
     1
 40
0.0
176
     1
 90
        0
176
     1
290
     0
176
     1
290
     1
176
     1
290
     1
176
     1
290
     0
176
     1
290
     0
176
     1
290
     0
176
     1
290
     0
176
     1
290
     0
176
     1
290
     0
176
     1
 90
       50
176
     1
 40
0.0
176
     1
 40
1.0
176
     1
 90
        0
176
     1
 62
    18
420
        0
176
     1
 90
       50
176
     1
 90
        3
176
     1
 62
     5
420
      255
176
     1
290
     0
176
     1
 90
       50
176
     1
 90
       50
176
     1
 90
       50
176
     1
290
     0
176
     1
 90
       50
176
     1
 62
   256
176
     0
 40
1.0
176
     0
 90
        2
176
     1
  1
strokes_ogs.tif
176
     1
290
     0
176
     1
 40
1.0
176
     1
 40
1.0
176
     1
  0
VISUALSTYLE
  5
268
102
{ACAD_REACTORS
330
267
102
}
330
267
100
AcDbVisualStyle
  2

 70
     0
177
     3
291
     1
 70
    58
 90
        2
176
     1
 90
        1
176
     1
 90
        1
176
     1
 90
        2
176
     1
 40
0.6
176
     1
 40
30.0
176
     1
 62
     7
420
 16777215
176
     1
 90
        0
176
     1
 90
        4
176
     1
 62
     7
176
     1
 62
   257
176
     1
 90
        1
176
     1
 90
        1
176
     1
 40
1.0
176
     1
 90
        8
176
     1
 62
     7
176
     1
 40
1.0
176
     1
 90
        1
176
     1
 90
        6
176
     1
 90
        2
176
     1
 62
     7
176
     1
 90
        5
176
     1
 90
        0
176
     1
 90
        0
176
     1
290
     0
176
     1
 90
       13
176
     1
 40
0.0
176
     1
 90
        0
176
     1
290
     0
176
     1
290
     1
176
     1
290
     1
176
     1
290
     0
176
     1
290
     0
176
     1
290
     0
176
     1
290
     0
176
     1
290
     0
176
     1
290
     0
176
     1
 90
       50
176
     1
 40
0.0
176
     1
 40
1.0
176
     1
 90
        0
176
     1
 62
    18
420
        0
176
     1
 90
       50
176
     1
 90
        3
176
     1
 62
     5
420
      255
176
     1
290
     0
176
     1
 90
       50
176
     1
 90
       50
176
     1
 90
       50
176
     1
290
     0
176
     1
 90
       50
176
     1
 62
   256
176
     0
 40
1.0
176
     0
 90
        2
176
     1
  1
strokes_ogs.tif
176
     1
290
     0
176
     1
 40
1.0
176
     1
 40
1.0
176
     1
  0
VISUALSTYLE
  5
269
102
{ACAD_REACTORS
330
267
102
}
330
267
100
AcDbVisualStyle
  2

 70
     1
177
     3
291
     1
 70
    58
 90
        2
176
     1
 90
        1
176
     1
 90
        1
176
     1
 90
        2
176
     1
 40
0.6
176
     1
 40
30.0
176
     1
 62
     7
420
 16777215
176
     1
 90
        1
176
     1
 90
        4
176
     1
 62
     7
176
     1
 62
   257
176
     1
 90
        1
176
     1
 90
        1
176
     1
 40
1.0
176
     1
 90
        0
176
     1
 62
   257
176
     1
 40
1.0
176
     1
 90
        1
176
     1
 90
        6
176
     1
 90
        2
176
     1
 62
     7
176
     1
 90
        5
176
     1
 90
        0
176
     1
 90
        0
176
     1
290
     0
176
     1
 90
       13
176
     1
 40
0.0
176
     1
 90
        0
176
     1
290
     0
176
     1
290
     1
176
     1
290
     1
176
     1
290
     0
176
     1
290
     0
176
     1
290
     0
176
     1
290
     0
176
     1
290
     0
176
     1
290
     0
176
     1
 90
       50
176
     1
 40
0.0
176
     1
 40
1.0
176
     1
 90
        0
176
     1
 62
    18
420
        0
176
     1
 90
       50
176
     1
 90
        3
176
     1
 62
     5
420
      255
176
     1
290
     0
176
     1
 90
       50
176
     1
 90
       50
176
     1
 90
       50
176
     1
290
     0
176
     1
 90
       50
176
     1
 62
   256
176
     0
 40
1.0
176
     0
 90
        2
176
     1
  1
strokes_ogs.tif
176
     1
290
     0
176
     1
 40
1.0
176
     1
 40
1.0
176
     1
  0
VISUALSTYLE
  5
26A
102
{ACAD_REACTORS
330
267
102
}
330
267
100
AcDbVisualStyle
  2

 70
     2
177
     3
291
     1
 70
    58
 90
        2
176
     1
 90
        2
176
     1
 90
        1
176
     1
 90
        2
176
     1
 40
0.6
176
     1
 40
30.0
176
     1
 62
     7
420
 16777215
176
     1
 90
        0
176
     1
 90
        4
176
     1
 62
     7
176
     1
 62
   257
176
     1
 90
        1
176
     1
 90
        1
176
     1
 40
1.0
176
     1
 90
        0
176
     1
 62
     7
176
     1
 40
1.0
176
     1
 90
        1
176
     1
 90
        6
176
     1
 90
        2
176
     1
 62
     7
176
     1
 90
        5
176
     1
 90
        0
176
     1
 90
        0
176
     1
290
     0
176
     1
 90
       13
176
     1
 40
0.0
176
     1
 90
        0
176
     1
290
     0
176
     1
290
     1
176
     1
290
     1
176
     1
290
     0
176
     1
290
     0
176
     1
290
     0
176
     1
290
     0
176
     1
290
     0
176
     1
290
     0
176
     1
 90
       50
176
     1
 40
0.0
176
     1
 40
1.0
176
     1
 90
        0
176
     1
 62
    18
420
        0
176
     1
 90
       50
176
     1
 90
        3
176
     1
 62
     5
420
      255
176
     1
290
     0
176
     1
 90
       50
176
     1
 90
       50
176
     1
 90
       50
176
     1
290
     0
176
     1
 90
       50
176
     1
 62
   256
176
     0
 40
1.0
176
     0
 90
        2
176
     1
  1
strokes_ogs.tif
176
     1
290
     0
176
     1
 40
1.0
176
     1
 40
1.0
176
     1
  0
VISUALSTYLE
  5
26B
102
{ACAD_REACTORS
330
267
102
}
330
267
100
AcDbVisualStyle
  2

 70
     3
177
     3
291
     1
 70
    58
 90
        2
176
     1
 90
        2
176
     1
 90
        1
176
     1
 90
        2
176
     1
 40
0.6
176
     1
 40
30.0
176
     1
 62
     7
420
 16777215
176
     1
 90
        1
176
     1
 90
        4
176
     1
 62
     7
176
     1
 62
   257
176
     1
 90
        1
176
     1
 90
        1
176
     1
 40
1.0
176
     1
 90
        0
176
     1
 62
   257
176
     1
 40
1.0
176
     1
 90
        1
176
     1
 90
        6
176
     1
 90
        2
176
     1
 62
     7
176
     1
 90
        5
176
     1
 90
        0
176
     1
 90
        0
176
     1
290
     0
176
     1
 90
       13
176
     1
 40
0.0
176
     1
 90
        0
176
     1
290
     0
176
     1
290
     1
176
     1
290
     1
176
     1
290
     0
176
     1
290
     0
176
     1
290
     0
176
     1
290
     0
176
     1
290
     0
176
     1
290
     0
176
     1
 90
       50
176
     1
 40
0.0
176
     1
 40
1.0
176
     1
 90
        0
176
     1
 62
    18
420
        0
176
     1
 90
       50
176
     1
 90
        3
176
     1
 62
     5
420
      255
176
     1
290
     0
176
     1
 90
       50
176
     1
 90
       50
176
     1
 90
       50
176
     1
290
     0
176
     1
 90
       50
176
     1
 62
   256
176
     0
 40
1.0
176
     0
 90
        2
176
     1
  1
strokes_ogs.tif
176
     1
290
     0
176
     1
 40
1.0
176
     1
 40
1.0
176
     1
  0
VISUALSTYLE
  5
8FB
102
{ACAD_REACTORS
330
267
102
}
330
267
100
AcDbVisualStyle
  2

 70
     6
177
     3
291
     0
 70
    58
 90
        1
176
     1
 90
        2
176
     1
 90
        2
176
     1
 90
        0
176
     1
 40
0.6
176
     1
 40
30.0
176
     1
 62
     7
420
 16777215
176
     1
 90
        2
176
     1
 90
        2
176
     1
 62
     7
176
     1
 62
   257
176
     1
 90
        2
176
     1
 90
        1
176
     1
 40
40.0
176
     1
 90
        0
176
     1
 62
   257
176
     1
 40
1.0
176
     1
 90
        1
176
     1
 90
        6
176
     1
 90
        2
176
     1
 62
     7
176
     1
 90
        3
176
     1
 90
        0
176
     1
 90
        0
176
     1
290
     0
176
     1
 90
        1
176
     1
 40
0.0
176
     1
 90
        0
176
     1
290
     0
176
     1
290
     1
176
     1
290
     1
176
     1
290
     0
176
     1
290
     0
176
     1
290
     0
176
     1
290
     0
176
     1
290
     0
176
     1
290
     0
176
     1
 90
       50
176
     1
 40
0.0
176
     1
 40
1.0
176
     1
 90
        0
176
     1
 62
    18
420
        0
176
     1
 90
       50
176
     1
 90
        3
176
     1
 62
     5
420
      255
176
     1
290
     0
176
     1
 90
       50
176
     1
 90
       50
176
     1
 90
       50
176
     1
290
     0
176
     1
 90
       50
176
     1
 62
   256
176
     0
 40
1.0
176
     0
 90
        2
176
     1
  1
strokes_ogs.tif
176
     1
290
     0
176
     1
 40
1.0
176
     1
 40
1.0
176
     1
  0
VISUALSTYLE
  5
8FC
102
{ACAD_REACTORS
330
267
102
}
330
267
100
AcDbVisualStyle
  2

 70
    20
177
     3
291
     1
 70
    58
 90
        2
176
     1
 90
        2
176
     1
 90
        0
176
     1
 90
        0
176
     1
 40
0.6
176
     1
 40
30.0
176
     1
 62
     7
420
 16777215
176
     1
 90
        1
176
     1
 90
        4
176
     1
 62
     7
176
     1
 62
   257
176
     1
 90
        1
176
     1
 90
        1
176
     1
 40
1.0
176
     1
 90
       10
176
     1
 62
     7
176
     1
 40
1.0
176
     1
 90
        1
176
     1
 90
        6
176
     1
 90
        2
176
     1
 62
     7
176
     1
 90
        5
176
     1
 90
        0
176
     1
 90
        0
176
     1
290
     0
176
     1
 90
        1
176
     1
 40
0.0
176
     1
 90
        0
176
     1
290
     0
176
     1
290
     1
176
     1
290
     1
176
     1
290
     0
176
     1
290
     0
176
     1
290
     0
176
     1
290
     0
176
     1
290
     0
176
     1
290
     0
176
     1
 90
       50
176
     1
 40
0.0
176
     1
 40
1.0
176
     1
 90
        0
176
     1
 62
    18
420
        0
176
     1
 90
       50
176
     1
 90
        3
176
     1
 62
     5
420
      255
176
     1
290
     0
176
     1
 90
       50
176
     1
 90
       50
176
     1
 90
       50
176
     1
290
     0
176
     1
 90
       50
176
     1
 62
   256
176
     0
 40
1.0
176
     0
 90
        2
176
     1
  1
strokes_ogs.tif
176
     1
290
     0
176
     1
 40
1.0
176
     1
 40
1.0
176
     1
  0
VISUALSTYLE
  5
275
102
{ACAD_REACTORS
330
267
102
}
330
267
100
AcDbVisualStyle
  2

 70
    14
177
     3
291
     1
 70
    58
 90
        2
176
     1
 90
        2
176
     1
 90
        0
176
     1
 90
        0
176
     1
 40
0.6
176
     1
 40
30.0
176
     1
 62
     7
420
 16777215
176
     1
 90
        1
176
     1
 90
        4
176
     1
 62
     7
176
     1
 62
   257
176
     1
 90
        7
176
     1
 90
        7
176
     1
 40
1.0
176
     1
 90
        8
176
     1
 62
     7
176
     1
 40
1.0
176
     1
 90
        1
176
     1
 90
        6
176
     1
 90
        2
176
     1
 62
     7
176
     1
 90
        5
176
     1
 90
        0
176
     1
 90
        0
176
     1
290
     0
176
     1
 90
        1
176
     1
 40
0.0
176
     1
 90
        0
176
     1
290
     0
176
     1
290
     1
176
     1
290
     1
176
     1
290
     0
176
     1
290
     0
176
     1
290
     0
176
     1
290
     0
176
     1
290
     0
176
     1
290
     0
176
     1
 90
       50
176
     1
 40
0.0
176
     1
 40
1.0
176
     1
 90
        0
176
     1
 62
    18
420
        0
176
     1
 90
       50
176
     1
 90
        3
176
     1
 62
     5
420
      255
176
     1
290
     0
176
     1
 90
       50
176
     1
 90
       50
176
     1
 90
       50
176
     1
290
     0
176
     1
 90
       50
176
     1
 62
   256
176
     0
 40
1.0
176
     0
 90
        2
176
     1
  1
strokes_ogs.tif
176
     1
290
     0
176
     1
 40
1.0
176
     1
 40
1.0
176
     1
  0
VISUALSTYLE
  5
8FD
102
{ACAD_REACTORS
330
267
102
}
330
267
100
AcDbVisualStyle
  2

 70
    21
177
     3
291
     1
 70
    58
 90
        2
176
     1
 90
        2
176
     1
 90
        0
176
     1
 90
        0
176
     1
 40
0.6
176
     1
 40
30.0
176
     1
 62
     7
420
 16777215
176
     1
 90
        1
176
     1
 90
        4
176
     1
 62
     7
176
     1
 62
   257
176
     1
 90
        1
176
     1
 90
        1
176
     1
 40
1.0
176
     1
 90
        9
176
     1
 62
     7
176
     1
 40
1.0
176
     1
 90
        1
176
     1
 90
        6
176
     1
 90
        2
176
     1
 62
     7
176
     1
 90
        5
176
     1
 90
        0
176
     1
 90
        0
176
     1
290
     0
176
     1
 90
        1
176
     1
 40
0.0
176
     1
 90
        0
176
     1
290
     0
176
     1
290
     1
176
     1
290
     1
176
     1
290
     0
176
     1
290
     0
176
     1
290
     0
176
     1
290
     0
176
     1
290
     0
176
     1
290
     0
176
     1
 90
       50
176
     1
 40
0.0
176
     1
 40
1.0
176
     1
 90
        0
176
     1
 62
    18
420
        0
176
     1
 90
       50
176
     1
 90
        3
176
     1
 62
     5
420
      255
176
     1
290
     0
176
     1
 90
       50
176
     1
 90
       50
176
     1
 90
       50
176
     1
290
     0
176
     1
 90
       50
176
     1
 62
   256
176
     0
 40
1.0
176
     0
 90
        2
176
     1
  1
strokes_ogs.tif
176
     1
290
     0
176
     1
 40
1.0
176
     1
 40
1.0
176
     1
  0
VISUALSTYLE
  5
270
102
{ACAD_REACTORS
330
267
102
}
330
267
100
AcDbVisualStyle
  2

 70
     8
177
     3
291
     0
 70
    58
 90
        2
176
     1
 90
        2
176
     1
 90
        0
176
     1
 90
        0
176
     1
 40
0.6
176
     1
 40
30.0
176
     1
 62
     7
420
 16777215
176
     1
 90
        1
176
     1
 90
        0
176
     1
 62
     7
176
     1
 62
   257
176
     1
 90
        1
176
     1
 90
        1
176
     1
 40
1.0
176
     1
 90
        8
176
     1
 62
     8
420
  7895160
176
     1
 40
1.0
176
     1
 90
        1
176
     1
 90
        6
176
     1
 90
        2
176
     1
 62
     7
176
     1
 90
        5
176
     1
 90
        0
176
     1
 90
        0
176
     1
290
     0
176
     1
 90
       13
176
     1
 40
0.0
176
     1
 90
        0
176
     1
290
     0
176
     1
290
     1
176
     1
290
     1
176
     1
290
     0
176
     1
290
     0
176
     1
290
     0
176
     1
290
     0
176
     1
290
     0
176
     1
290
     0
176
     1
 90
       50
176
     1
 40
0.0
176
     1
 40
1.0
176
     1
 90
        0
176
     1
 62
    18
420
        0
176
     1
 90
       50
176
     1
 90
        3
176
     1
 62
     5
420
      255
176
     1
290
     0
176
     1
 90
       50
176
     1
 90
       50
176
     1
 90
       50
176
     1
290
     0
176
     1
 90
       50
176
     1
 62
   256
176
     0
 40
1.0
176
     0
 90
        2
176
     1
  1
strokes_ogs.tif
176
     1
290
     0
176
     1
 40
1.0
176
     1
 40
1.0
176
     1
  0
VISUALSTYLE
  5
903
102
{ACAD_REACTORS
330
267
102
}
330
267
100
AcDbVisualStyle
  2

 70
    27
177
     3
291
     0
 70
    58
 90
        2
176
     1
 90
        2
176
     1
 90
        1
176
     1
 90
        2
176
     1
 40
0.6
176
     1
 40
30.0
176
     1
 62
     7
420
 16777215
176
     1
 90
        0
176
     1
 90
        4
176
     1
 62
     7
176
     1
 62
   257
176
     1
 90
        1
176
     1
 90
        1
176
     1
 40
1.0
176
     1
 90
        8
176
     1
 62
   257
176
     1
 40
1.0
176
     1
 90
        1
176
     1
 90
        6
176
     1
 90
        2
176
     1
 62
     8
420
  7895160
176
     1
 90
        3
176
     1
 90
        0
176
     1
 90
        0
176
     1
290
     0
176
     1
 90
        5
176
     1
 40
0.0
176
     1
 90
        0
176
     1
290
     0
176
     1
290
     1
176
     1
290
     1
176
     1
290
     0
176
     1
290
     0
176
     1
290
     0
176
     1
290
     0
176
     1
290
     0
176
     1
290
     0
176
     1
 90
       50
176
     1
 40
0.0
176
     1
 40
1.0
176
     1
 90
        0
176
     1
 62
    18
420
        0
176
     1
 90
       50
176
     1
 90
        3
176
     1
 62
     5
420
      255
176
     1
290
     0
176
     1
 90
       50
176
     1
 90
       50
176
     1
 90
       50
176
     1
290
     0
176
     1
 90
       50
176
     1
 62
   256
176
     0
 40
1.0
176
     0
 90
        2
176
     1
  1
strokes_ogs.tif
176
     1
290
     0
176
     1
 40
1.0
176
     1
 40
1.0
176
     1
  0
VISUALSTYLE
  5
902
102
{ACAD_REACTORS
330
267
102
}
330
267
100
AcDbVisualStyle
  2

 70
    26
177
     3
291
     0
 70
    58
 90
        2
176
     1
 90
        2
176
     1
 90
        1
176
     1
 90
        2
176
     1
 40
0.6
176
     1
 40
30.0
176
     1
 62
     7
420
 16777215
176
     1
 90
        1
176
     1
 90
       10
176
     1
 62
     7
176
     1
 62
   257
176
     1
 90
        2
176
     1
 90
        1
176
     1
 40
1.0
176
     1
 90
        8
176
     1
 62
   257
176
     1
 40
1.0
176
     1
 90
        1
176
     1
 90
        6
176
     1
 90
        2
176
     1
 62
     7
176
     1
 90
        3
176
     1
 90
        0
176
     1
 90
        0
176
     1
290
     0
176
     1
 90
        5
176
     1
 40
0.0
176
     1
 90
        0
176
     1
290
     0
176
     1
290
     1
176
     1
290
     1
176
     1
290
     0
176
     1
290
     0
176
     1
290
     0
176
     1
290
     0
176
     1
290
     0
176
     1
290
     0
176
     1
 90
       50
176
     1
 40
0.0
176
     1
 40
1.0
176
     1
 90
        0
176
     1
 62
    18
420
        0
176
     1
 90
       50
176
     1
 90
        3
176
     1
 62
     5
420
      255
176
     1
290
     0
176
     1
 90
       50
176
     1
 90
       50
176
     1
 90
       50
176
     1
290
     0
176
     1
 90
       50
176
     1
 62
   256
176
     0
 40
1.0
176
     0
 90
        2
176
     1
  1
strokes_ogs.tif
176
     1
290
     0
176
     1
 40
1.0
176
     1
 40
1.0
176
     1
  0
VISUALSTYLE
  5
8FF
102
{ACAD_REACTORS
330
267
102
}
330
267
100
AcDbVisualStyle
  2

 70
    23
177
     3
291
     0
 70
    58
 90
        2
176
     1
 90
        2
176
     1
 90
        3
176
     1
 90
        0
176
     1
 40
0.6
176
     1
 40
30.0
176
     1
 62
     7
420
 16777215
176
     1
 90
        2
176
     1
 90
        2
176
     1
 62
     7
176
     1
 62
     7
176
     1
 90
        1
176
     1
 90
        1
176
     1
 40
40.0
176
     1
 90
        8
176
     1
 62
     7
176
     1
 40
1.0
176
     1
 90
        1
176
     1
 90
        6
176
     1
 90
        2
176
     1
 62
     7
176
     1
 90
        3
176
     1
 90
        0
176
     1
 90
        0
176
     1
290
     0
176
     1
 90
        1
176
     1
 40
0.0
176
     1
 90
        0
176
     1
290
     0
176
     1
290
     1
176
     1
290
     1
176
     1
290
     0
176
     1
290
     0
176
     1
290
     0
176
     1
290
     0
176
     1
290
     0
176
     1
290
     0
176
     1
 90
       50
176
     1
 40
0.0
176
     1
 40
1.0
176
     1
 90
        0
176
     1
 62
    18
420
        0
176
     1
 90
       50
176
     1
 90
        3
176
     1
 62
     5
420
      255
176
     1
290
     0
176
     1
 90
       50
176
     1
 90
       50
176
     1
 90
       50
176
     1
290
     0
176
     1
 90
       50
176
     1
 62
   256
176
     0
 40
1.0
176
     0
 90
        2
176
     1
  1
strokes_ogs.tif
176
     1
290
     0
176
     1
 40
1.0
176
     1
 40
1.0
176
     1
  0
VISUALSTYLE
  5
900
102
{ACAD_REACTORS
330
267
102
}
330
267
100
AcDbVisualStyle
  2

 70
    24
177
     3
291
     0
 70
    58
 90
        1
176
     1
 90
        2
176
     1
 90
        2
176
     1
 90
        0
176
     1
 40
0.6
176
     1
 40
30.0
176
     1
 62
     7
420
 16777215
176
     1
 90
        2
176
     1
 90
        2
176
     1
 62
     7
176
     1
 62
     7
176
     1
 90
        1
176
     1
 90
        1
176
     1
 40
40.0
176
     1
 90
       11
176
     1
 62
     7
176
     1
 40
1.0
176
     1
 90
        1
176
     1
 90
        6
176
     1
 90
        2
176
     1
 62
     7
176
     1
 90
        6
176
     1
 90
        0
176
     1
 90
        0
176
     1
290
     0
176
     1
 90
        1
176
     1
 40
0.0
176
     1
 90
        0
176
     1
290
     0
176
     1
290
     1
176
     1
290
     1
176
     1
290
     0
176
     1
290
     0
176
     1
290
     0
176
     1
290
     0
176
     1
290
     0
176
     1
290
     0
176
     1
 90
       50
176
     1
 40
0.0
176
     1
 40
1.0
176
     1
 90
        0
176
     1
 62
    18
420
        0
176
     1
 90
       50
176
     1
 90
        3
176
     1
 62
     5
420
      255
176
     1
290
     0
176
     1
 90
       50
176
     1
 90
       50
176
     1
 90
       50
176
     1
290
     0
176
     1
 90
       50
176
     1
 62
   256
176
     0
 40
1.0
176
     0
 90
        2
176
     1
  1
strokes_ogs.tif
176
     1
290
     0
176
     1
 40
1.0
176
     1
 40
1.0
176
     1
  0
VISUALSTYLE
  5
274
102
{ACAD_REACTORS
330
267
102
}
330
267
100
AcDbVisualStyle
  2

 70
    13
177
     3
291
     1
 70
    58
 90
        2
176
     1
 90
        2
176
     1
 90
        0
176
     1
 90
        0
176
     1
 40
0.6
176
     1
 40
30.0
176
     1
 62
     7
420
 16777215
176
     1
 90
        1
176
     1
 90
        4
176
     1
 62
     7
176
     1
 62
   257
176
     1
 90
        1
176
     1
 90
        1
176
     1
 40
1.0
176
     1
 90
       12
176
     1
 62
     7
176
     1
 40
1.0
176
     1
 90
        1
176
     1
 90
        6
176
     1
 90
        2
176
     1
 62
     7
176
     1
 90
        5
176
     1
 90
        0
176
     1
 90
        0
176
     1
290
     0
176
     1
 90
        1
176
     1
 40
0.0
176
     1
 90
        0
176
     1
290
     0
176
     1
290
     1
176
     1
290
     1
176
     1
290
     0
176
     1
290
     0
176
     1
290
     0
176
     1
290
     0
176
     1
290
     0
176
     1
290
     0
176
     1
 90
       50
176
     1
 40
0.0
176
     1
 40
1.0
176
     1
 90
        0
176
     1
 62
    18
420
        0
176
     1
 90
       50
176
     1
 90
        3
176
     1
 62
     5
420
      255
176
     1
290
     0
176
     1
 90
       50
176
     1
 90
       50
176
     1
 90
       50
176
     1
290
     0
176
     1
 90
       50
176
     1
 62
   256
176
     0
 40
1.0
176
     0
 90
        2
176
     1
  1
strokes_ogs.tif
176
     1
290
     0
176
     1
 40
1.0
176
     1
 40
1.0
176
     1
  0
VISUALSTYLE
  5
8FA
102
{ACAD_REACTORS
330
267
102
}
330
267
100
AcDbVisualStyle
  2

 70
     5
177
     3
291
     0
 70
    58
 90
        0
176
     1
 90
        2
176
     1
 90
        0
176
     1
 90
        0
176
     1
 40
0.6
176
     1
 40
30.0
176
     1
 62
     7
420
 16777215
176
     1
 90
        1
176
     1
 90
        4
176
     1
 62
     7
176
     1
 62
   257
176
     1
 90
        1
176
     1
 90
        1
176
     1
 40
1.0
176
     1
 90
        0
176
     1
 62
   257
176
     1
 40
1.0
176
     1
 90
        1
176
     1
 90
        6
176
     1
 90
        2
176
     1
 62
     7
176
     1
 90
        3
176
     1
 90
        0
176
     1
 90
        0
176
     1
290
     0
176
     1
 90
        1
176
     1
 40
0.0
176
     1
 90
        0
176
     1
290
     0
176
     1
290
     1
176
     1
290
     1
176
     1
290
     0
176
     1
290
     0
176
     1
290
     0
176
     1
290
     0
176
     1
290
     0
176
     1
290
     0
176
     1
 90
       50
176
     1
 40
0.0
176
     1
 40
1.0
176
     1
 90
        0
176
     1
 62
    18
420
        0
176
     1
 90
       50
176
     1
 90
        3
176
     1
 62
     5
420
      255
176
     1
290
     0
176
     1
 90
       50
176
     1
 90
       50
176
     1
 90
       50
176
     1
290
     0
176
     1
 90
       50
176
     1
 62
   256
176
     0
 40
1.0
176
     0
 90
        2
176
     1
  1
strokes_ogs.tif
176
     1
290
     0
176
     1
 40
1.0
176
     1
 40
1.0
176
     1
  0
VISUALSTYLE
  5
901
102
{ACAD_REACTORS
330
267
102
}
330
267
100
AcDbVisualStyle
  2

 70
    25
177
     3
291
     0
 70
    58
 90
        2
176
     1
 90
        2
176
     1
 90
        1
176
     1
 90
        1
176
     1
 40
0.5
176
     1
 40
30.0
176
     1
 62
     7
420
 16777215
176
     1
 90
        1
176
     1
 90
        0
176
     1
 62
     7
176
     1
 62
   257
176
     1
 90
        1
176
     1
 90
        1
176
     1
 40
1.0
176
     1
 90
        8
176
     1
 62
     7
176
     1
 40
1.0
176
     1
 90
        1
176
     1
 90
        6
176
     1
 90
        2
176
     1
 62
     7
176
     1
 90
        3
176
     1
 90
        0
176
     1
 90
        0
176
     1
290
     0
176
     1
 90
       13
176
     1
 40
0.0
176
     1
 90
        0
176
     1
290
     0
176
     1
290
     1
176
     1
290
     1
176
     1
290
     0
176
     1
290
     0
176
     1
290
     0
176
     1
290
     0
176
     1
290
     0
176
     1
290
     0
176
     1
 90
       50
176
     1
 40
0.0
176
     1
 40
1.0
176
     1
 90
        0
176
     1
 62
    18
420
        0
176
     1
 90
       50
176
     1
 90
        3
176
     1
 62
     5
420
      255
176
     1
290
     0
176
     1
 90
       50
176
     1
 90
       50
176
     1
 90
       50
176
     1
290
     0
176
     1
 90
       50
176
     1
 62
   256
176
     0
 40
1.0
176
     0
 90
        2
176
     1
  1
strokes_ogs.tif
176
     1
290
     0
176
     1
 40
1.0
176
     1
 40
1.0
176
     1
  0
DICTIONARYVAR
  5
331
102
{ACAD_REACTORS
330
330
102
}
330
330
100
DictionaryVariables
280
     0
  1
1:1
  0
DICTIONARYVAR
  5
D5E
102
{ACAD_REACTORS
330
330
102
}
330
330
100
DictionaryVariables
280
     0
  1
STANDARD
  0
DICTIONARYVAR
  5
335
102
{ACAD_REACTORS
330
330
102
}
330
330
100
DictionaryVariables
280
     0
  1
STANDARD
  0
DICTIONARYVAR
  5
17BF1
102
{ACAD_REACTORS
330
330
102
}
330
330
100
DictionaryVariables
280
     0
  1
Metric50
  0
DICTIONARYVAR
  5
17BF2
102
{ACAD_REACTORS
330
330
102
}
330
330
100
DictionaryVariables
280
     0
  1
Metric50
  0
DICTIONARYVAR
  5
D52
102
{ACAD_REACTORS
330
330
102
}
330
330
100
DictionaryVariables
280
     0
  1
ByLayer
  0
DICTIONARYVAR
  5
17BF3
102
{ACAD_REACTORS
330
330
102
}
330
330
100
DictionaryVariables
280
     0
  1
1
  0
DICTIONARYVAR
  5
17BF4
102
{ACAD_REACTORS
330
330
102
}
330
330
100
DictionaryVariables
280
     0
  1
15
  0
XRECORD
  5
17BE9
102
{ACAD_REACTORS
330
17BE7
102
}
330
17BE7
100
AcDbXrecord
280
     1
330
68C
330
1343
330
176A1
330
176A2
330
176B0
330
176B1
330
176CE
330
176CF
330
176DD
330
176DE
330
176EC
330
176ED
330
1775E
330
1775F
330
1776D
330
1776E
330
1777C
330
1777D
330
177E9
330
177EA
330
17820
330
17821
330
1782F
330
17830
330
179CA
330
179CB
330
179D9
330
179DA
330
17A58
330
17A57
330
17A6E
330
17A6F
330
17A7D
330
17A7E
330
17A8C
330
17A8D
330
17AF2
330
17AF3
330
17B54
330
17B55
330
17B63
330
17B64
330
17B76
330
17B77
  0
DICTIONARYVAR
  5
36AB
102
{ACAD_REACTORS
330
366B
102
}
330
366B
100
DictionaryVariables
280
     0
  1
0.250000
  0
DICTIONARYVAR
  5
36A9
102
{ACAD_REACTORS
330
E38
102
}
330
E38
100
DictionaryVariables
280
     0
  1
0.261799
  0
DICTIONARYVAR
  5
36A7
102
{ACAD_REACTORS
330
E38
102
}
330
E38
100
DictionaryVariables
280
     0
  1
0.400000
  0
DICTIONARYVAR
  5
36A8
102
{ACAD_REACTORS
330
E38
102
}
330
E38
100
DictionaryVariables
280
     0
  1
0.250000
  0
DICTIONARYVAR
  5
36AA
102
{ACAD_REACTORS
330
E38
102
}
330
E38
100
DictionaryVariables
280
     0
  1
1
  0
XRECORD
  5
1798C
102
{ACAD_REACTORS
330
2E2
102
}
330
2E2
100
AcDbXrecord
280
     1
 91
     2047
301

290
     0
302
100
330
14
 90
        8
 62
     7
370
    -3
331
13
  1
Color_7
440
        0
440
        0
330
4B
 90
        8
 62
     7
370
    20
331
13
  1
Color_7
440
        0
440
        0
330
4C
 90
        8
 62
     3
370
    13
331
13
  1
Color_3
440
        0
440
        0
330
4D
 90
        8
 62
     7
370
    20
331
13
  1
Color_7
440
        0
440
        0
330
D6B
 90
        0
 62
     4
370
    20
331
D6C
  1
Color_4
440
        0
440
        0
330
A5DF
 90
        0
 62
     7
370
    -3
331
13
  1
Color_7
440
        0
440
        0
330
17852
 90
        8
 62
     7
370
    -3
331
13
  1
Color_7
440
        0
440
        0
  0
FIELD
  5
36AD
102
{ACAD_REACTORS
330
17BB0
102
}
330
17BB0
100
AcDbField
  1
_text
  2
%<\_FldIdx 0>%N
 90
        1
360
36B1
 97
        0
 91
       63
 92
        0
 94
       13
 95
        2
 96
        0
300

 93
        1
  6
ACFD_FIELDTEXT_CHECKSUM
 93
        2
 90
        2
140
2566.0
 94
        0
300

302

304
ACVALUE_END
  7
ACFD_FIELD_VALUE
 93
        3
 90
        0
 94
        0
300

302

304
ACVALUE_END
301

 98
        0
  0
DICTIONARY
  5
17BC2
330
279
100
AcDbDictionary
280
     1
281
     1
  3
ACAD_ROUNDTRIP_2008_TABLESTYLE_CELLSTYLEMAP
360
17C10
  0
FIELD
  5
36B1
330
36AD
100
AcDbField
  1
AcVar
  2
\AcVar Date \f "yyyyMMdd"
 90
        0
 97
        0
 91
       32
 92
        0
 94
       59
 95
        2
 96
        0
300

 93
        1
  6
Variable
 93
        2
 90
        4
  1
Date
 94
        0
300

302

304
ACVALUE_END
  7
ACFD_FIELD_VALUE
 93
        4
 90
        8
 92
       16
310
E707090002001A000E00330033000000
 94
        0
300
yyyyMMdd
302
20230926
304
ACVALUE_END
301
20230926
 98
        8
  0
CELLSTYLEMAP
  5
17C10
102
{ACAD_REACTORS
330
17BC2
102
}
330
17BC2
100
AcDbCellStyleMap
 90
        3
300
CELLSTYLE
  1
TABLEFORMAT_BEGIN
 90
        5
170
     1
 91
        0
 92
    32768
 62
   257
 93
        1
300
CONTENTFORMAT
  1
CONTENTFORMAT_BEGIN
 90
        0
 91
        0
 92
        4
 93
        0
300

 40
0.0
140
1.0
 94
        5
 62
     0
340
17
144
6.0
309
CONTENTFORMAT_END
171
     1
301
MARGIN
  1
CELLMARGIN_BEGIN
 40
0.06
 40
0.06
 40
0.06
 40
0.06
 40
0.18
 40
0.18
309
CELLMARGIN_END
 94
        6
 95
        1
302
GRIDFORMAT
  1
GRIDFORMAT_BEGIN
 90
        0
 91
        1
 62
     0
 92
       -2
340
0
 93
        0
 40
0.045
309
GRIDFORMAT_END
 95
        2
302
GRIDFORMAT
  1
GRIDFORMAT_BEGIN
 90
        0
 91
        1
 62
     0
 92
       -2
340
0
 93
        0
 40
0.045
309
GRIDFORMAT_END
 95
        4
302
GRIDFORMAT
  1
GRIDFORMAT_BEGIN
 90
        0
 91
        1
 62
     0
 92
       -2
340
0
 93
        0
 40
0.045
309
GRIDFORMAT_END
 95
        8
302
GRIDFORMAT
  1
GRIDFORMAT_BEGIN
 90
        0
 91
        1
 62
     0
 92
       -2
340
0
 93
        0
 40
0.045
309
GRIDFORMAT_END
 95
       16
302
GRIDFORMAT
  1
GRIDFORMAT_BEGIN
 90
        0
 91
        1
 62
     0
 92
       -2
340
0
 93
        0
 40
0.045
309
GRIDFORMAT_END
 95
       32
302
GRIDFORMAT
  1
GRIDFORMAT_BEGIN
 90
        0
 91
        1
 62
     0
 92
       -2
340
0
 93
        0
 40
0.045
309
GRIDFORMAT_END
309
TABLEFORMAT_END
  1
CELLSTYLE_BEGIN
 90
        1
 91
        1
300
_TITLE
309
CELLSTYLE_END
300
CELLSTYLE
  1
TABLEFORMAT_BEGIN
 90
        5
170
     1
 91
        0
 92
        0
 62
   257
 93
        1
300
CONTENTFORMAT
  1
CONTENTFORMAT_BEGIN
 90
        0
 91
        0
 92
        4
 93
        0
300

 40
0.0
140
1.0
 94
        5
 62
     0
340
17
144
4.5
309
CONTENTFORMAT_END
171
     1
301
MARGIN
  1
CELLMARGIN_BEGIN
 40
0.06
 40
0.06
 40
0.06
 40
0.06
 40
0.18
 40
0.18
309
CELLMARGIN_END
 94
        6
 95
        1
302
GRIDFORMAT
  1
GRIDFORMAT_BEGIN
 90
        0
 91
        1
 62
     0
 92
       -2
340
0
 93
        0
 40
0.045
309
GRIDFORMAT_END
 95
        2
302
GRIDFORMAT
  1
GRIDFORMAT_BEGIN
 90
        0
 91
        1
 62
     0
 92
       -2
340
0
 93
        0
 40
0.045
309
GRIDFORMAT_END
 95
        4
302
GRIDFORMAT
  1
GRIDFORMAT_BEGIN
 90
        0
 91
        1
 62
     0
 92
       -2
340
0
 93
        0
 40
0.045
309
GRIDFORMAT_END
 95
        8
302
GRIDFORMAT
  1
GRIDFORMAT_BEGIN
 90
        0
 91
        1
 62
     0
 92
       -2
340
0
 93
        0
 40
0.045
309
GRIDFORMAT_END
 95
       16
302
GRIDFORMAT
  1
GRIDFORMAT_BEGIN
 90
        0
 91
        1
 62
     0
 92
       -2
340
0
 93
        0
 40
0.045
309
GRIDFORMAT_END
 95
       32
302
GRIDFORMAT
  1
GRIDFORMAT_BEGIN
 90
        0
 91
        1
 62
     0
 92
       -2
340
0
 93
        0
 40
0.045
309
GRIDFORMAT_END
309
TABLEFORMAT_END
  1
CELLSTYLE_BEGIN
 90
        2
 91
        1
300
_HEADER
309
CELLSTYLE_END
300
CELLSTYLE
  1
TABLEFORMAT_BEGIN
 90
        5
170
     1
 91
        0
 92
        0
 62
   257
 93
        1
300
CONTENTFORMAT
  1
CONTENTFORMAT_BEGIN
 90
        0
 91
        0
 92
        4
 93
        0
300

 40
0.0
140
1.0
 94
        2
 62
     0
340
17
144
4.5
309
CONTENTFORMAT_END
171
     1
301
MARGIN
  1
CELLMARGIN_BEGIN
 40
0.06
 40
0.06
 40
0.06
 40
0.06
 40
0.18
 40
0.18
309
CELLMARGIN_END
 94
        6
 95
        1
302
GRIDFORMAT
  1
GRIDFORMAT_BEGIN
 90
        0
 91
        1
 62
     0
 92
       -2
340
0
 93
        0
 40
0.045
309
GRIDFORMAT_END
 95
        2
302
GRIDFORMAT
  1
GRIDFORMAT_BEGIN
 90
        0
 91
        1
 62
     0
 92
       -2
340
0
 93
        0
 40
0.045
309
GRIDFORMAT_END
 95
        4
302
GRIDFORMAT
  1
GRIDFORMAT_BEGIN
 90
        0
 91
        1
 62
     0
 92
       -2
340
0
 93
        0
 40
0.045
309
GRIDFORMAT_END
 95
        8
302
GRIDFORMAT
  1
GRIDFORMAT_BEGIN
 90
        0
 91
        1
 62
     0
 92
       -2
340
0
 93
        0
 40
0.045
309
GRIDFORMAT_END
 95
       16
302
GRIDFORMAT
  1
GRIDFORMAT_BEGIN
 90
        0
 91
        1
 62
     0
 92
       -2
340
0
 93
        0
 40
0.045
309
GRIDFORMAT_END
 95
       32
302
GRIDFORMAT
  1
GRIDFORMAT_BEGIN
 90
        0
 91
        1
 62
     0
 92
       -2
340
0
 93
        0
 40
0.045
309
GRIDFORMAT_END
309
TABLEFORMAT_END
  1
CELLSTYLE_BEGIN
 90
        3
 91
        2
300
_DATA
309
CELLSTYLE_END
  0
ENDSEC
  0
SECTION
  2
ACDSDATA
 70
     2
 71
     8
  0
ACDSSCHEMA
 90
        0
  1
AcDb_Thumbnail_Schema
  2
AcDbDs::ID
280
    10
 91
        8
  2
Thumbnail_Data
280
    15
 91
        0
101
ACDSRECORD
 95
        0
 90
        1
  2
AcDbDs::TreatedAsObjectData
280
     1
291
     1
101
ACDSRECORD
 95
        0
 90
        2
  2
AcDbDs::Legacy
280
     1
291
     1
101
ACDSRECORD
  1
AcDbDs::ID
 90
        3
  2
AcDs:Indexable
280
     1
291
     1
101
ACDSRECORD
  1
AcDbDs::ID
 90
        4
  2
AcDbDs::HandleAttribute
280
     7
282
     1
  0
ACDSSCHEMA
 90
        1
  1
AcDbDs::TreatedAsObjectDataSchema
  2
AcDbDs::TreatedAsObjectData
280
     1
 91
        0
  0
ACDSSCHEMA
 90
        2
  1
AcDbDs::LegacySchema
  2
AcDbDs::Legacy
280
     1
 91
        0
  0
ACDSSCHEMA
 90
        3
  1
AcDbDs::IndexedPropertySchema
  2
AcDs:Indexable
280
     1
 91
        0
  0
ACDSSCHEMA
 90
        4
  1
AcDbDs::HandleAttributeSchema
  2
AcDbDs::HandleAttribute
280
     7
 91
        1
284
     1
  0
ACDSRECORD
 90
        0
  2
AcDbDs::ID
280
    10
320
20
  2
Thumbnail_Data
280
    15
 94
     2247
310
89504E470D0A1A0A0000000D4948445200000100000000D30802000000E1CD5A040000088E4944415478DAED9DBB969B4810861B1FBD08442683C4A1B37DEACD36DC046564D2A3B041CF329806D4DCBBAABEEFF8F88C65A45143FD75EBA6C9F29F954B9877DBF81FF2B2EE7FEEC9CB7A74D8F0BF462FF60787C7EFFF70BE4C
310
CC87274896BE00123F8320FAF2FDE022C179A4EFBC10009826750190FF484F8112FF86A9D70021AFE4CFA9650A690EEB21B18A2A080B427C13453029105003A84E22010100200000040020AB8443004004C085C039A4DFC3787091B65EDAE740A51527840860D485000200908A9214C84FC2672EBB3D1D3A9BCE758EC52008
310
604451D6EFF6692117CFDA4CD030698382F15641830094BB102002987621201A220098F65F4C846DBEB44C841101702180006C1779F87ED9284C81AE9C14F389D0D913614C7E218015642ECBCB2A777A7C73E1EA77FB943822DAA060BC55C0449876170214C1A65D0820000004008000001000C017B441C134B441F5BB1020
310
02A4E54254AECF113A2822C00D2EE4DD3EF53D4443E5A010C0292EC42F1DD3C4AB6DF40D0A019C652B5C54B02B0000040080002001688382696883EA7721400A64DA855C06F70493022DC70AE51B34F80E2FFB501CCB43997D84FF94EB38C3390DFF8A1F51CC56149DEB881B56043069EBD2E7C5164614150A5A4A38332910
310
84DCF5C4106A00432E0416A00D0AA62105D2EF428008400A04D400440040000008000001C09D79E3F3CA67778B2EE11000100112862E90F058441B1400012876214986CD8A55D391E87F4E301BA580690168BA1F0010802D8B913EA2F47B18DC10C388CE2DE112D7006D50307DF9E8028169880060DA7FE92F82459701735F
310
3E72A94FE7BAC2E141240B20BE8A32B5FF47EC3C578B850B4F81600F6C0A8400001000DC96AAD10605C3B01C5ABF0B015220D32E0410000002004000000800E00BDAA0601ADAA0FA5D0810014CBB1020021001802298080008000001002000000400C6A10D0AA6A10DAADF85002990691702080000010020000059251C0200
310
22002E04CE81362890022100D52E048800A440400D40040004008000400FAFB6D1FDB862040061DAF98C7C04938212EEC1F58691F50F7FF6CF9879B7CFD8873211018E852ED04DA7BD1A1ABDFFE72639D1060569A63FB2FE9D1A40003B23326DD01BB2A0C98427D48082FA584F0DF0322395F39EFDE8CFE1E4E77F9FDED639
310
E7329775AE5370321FBA2DE3D536721F153AF9E56FD1F94818AFB6C9CBAA70F5BB7DE64E76714C0D007F7890A2AC27F39C91142375C862381059077B0DF4B36061208A8CAB7481F65F0CDAA0F768A04FC0B6F97E29972FF51AE0DD36F127515F1D7CD788BCF5ABEC7B0A13C02A179248C97876597F99F5E765E57B3E9B9B0A
310
ABFC170250E544E59EAB6FEB77AE28EBE1092CD465A4AA52A048278A74171CBF2F7C87F94FBF1C4847E35F58110C575AFFBC1B7A76AE2B343624580D0A7F587FEFEFFFAFC12AC5D64F048069DFEF0B80FDD64F1B140494BC33B65B2D1F704D09675D004C84DD92F47F32EB671F25A801CE257D17928823CF5C16E750AA55D6
310
1F1EA66C764C610AF4D7EF5F7FFFF3AF9D410DDBF68984080480060E1ECE869880F5C7F0439FE96F339A14329957DBF81D198669C6F5235AB6FEBE41840052A477FCE22240E6B2A2ACFD2DB943F3DA3022BFACFFCCCE44157D246DD05B65A066381BDCFF82061672A463931FDAA0FB9D4DADDBFA239B2AD70CEAF0D49F3BC2
310
0E70210EE6C5736053F28CC2973BC2F4BB101DD869FB10015253F8B8EA0504B00B710DD0CD833A4A3966DDBF63222C1D3AD715AE3E44D2AB26C22C5BBF63222CB544FCE28930E3D6AF3002F42D732911A0B7F5CC657959851BAD6D1891B7E98F71E002EB6722EC1E0D181F915F1BB76D22ECF01E46E21AA00D6A14921F1911
310
40FDC6587D1BE7D536AEFD5ED6DF2FDC8F1C75D6669399D5DCAFDBBFEF95DF2462AE7047005723DD9FF9EF3FAC0156DDB3327CE3C7DB03BEDEB2AF852ADDF465A4401BAAC91847681C4E8B420100251C0280697F8FCB972A00BA40A2B31D5683022950D268DB1665B8A79F59B3EB5C37EA8A0ECFCC95ED4BEE082305BAEBBC
310
CDEBBFE5F4E88D00E03E4D2030012C4900917CED62E9EAA1E7EB5FE4328372018CD25C005B02089703E0FB29E162A00D0AA661220C4E4D4A99080340008A5D08200000040080000086D00605D3D005D2EF42800860DA8500350011004881008800A4408000001000000200E3D00605D3D005D2EF428014C8B40B0104008000
310
001000802C1E9C02A1844F4F2ACA7AF462F8CAE875FFC3F0B063F78DA30D0A774A62EE1163FDEB673F558D36A87E17920EA1F31EBE32E9DA794E7096FF4C7A1BF170735C9EEF798DF3DE208FF0D2F09C6022009002A94E22A5A4401F5F0FF3A557DB8CFE5C197FAE812E90E922B837F748FB7EA9F34774812C4680B903168E
310
5FF82FD1AA2002588C00A30362BAA2CB1F2EB733410420627C0E0B0B472EDB3D6DD0038AE0B00D8AED4A11154F89DC4BCEF3DE66C49FE0D825FA26554F899CCC44B54E9C45AE052228292C82FBEBBAB3F117F38B26ED4CD6D8416711BCE77A47BE17932202C86B62AC3A789820C94A96447CD5F4BB40220570AC639635C34F
310
50B22500BA4073D65FACE90DAC7DD7B6623A1427AB412579C7D1DBE72243E474E9E424EB68C98DAC13BBE19B3311B69785FB0116AEC75CF7E60CE35B68CB1C9ECD6FAB5236BC6BF496C818C2FD00A95451577A59A14E1D640860CFFD00DE1BF57F479A69E4BA97C8A597916F495C457EEC1F57FE4844F62D914919CD2129D6
310
B285A51F6A580B9474C9BB2A0EACAD2296372039AA1848D907B316488F664665DFE63648B8DFCE06091D6267A3CD7F267B09E136411F252D7D3934F7031CEFD8266DE276EF38D9A29DECFC7EFCAAA30691E83680E02ED0811BDD7CBC1530FED64137B34E332C60CE1B4E6457E082A236FD3D0D522F8227CDCBEC2ADFC4C72E
310
711E40E4FD0096FBEECC3950044B6D920035000011001F6F06DAA0601AB6470722000200A006383C8CE665ED9BA4E101E18BDE154D1EBFF009911FCE97593E3E65EBFA0FD37B4E60D2E577290000000049454E44AE426082
  0
ENDSEC
  0
EOF
