  0
SECTION
  2
HEADER
  9
$ACADVER
  1
AC1021
  9
$ACADMAINTVER
 70
    25
  9
$DWGCODEPAGE
  3
ANSI_932
  9
$LASTSAVEDBY
  1
howeNelson
  9
$INSBASE
 10
0.0
 20
0.0
 30
0.0
  9
$EXTMIN
 10
144.6119756838904
 20
120.2483852462006
 30
0.0
  9
$EXTMAX
 10
441.6119756838902
 20
330.2483852462006
 30
0.0
  9
$LIMMIN
 10
144.6119756838904
 20
120.2483852462006
  9
$LIMMAX
 10
441.6119756838901
 20
330.2483852462006
  9
$ORTHOMODE
 70
     0
  9
$REGENMODE
 70
     1
  9
$FILLMODE
 70
     1
  9
$QTEXTMODE
 70
     0
  9
$MIRRTEXT
 70
     1
  9
$LTSCALE
 40
1.0
  9
$ATTMODE
 70
     1
  9
$TEXTSIZE
 40
2.5
  9
$TRACEWID
 40
0.05
  9
$TEXTSTYLE
  7
STYLE3
  9
$CLAYER
  8
DIM
  9
$CELTYPE
  6
BYLAYER
  9
$CECOLOR
 62
   256
  9
$CELTSCALE
 40
6.0
  9
$DISPSILH
 70
     0
  9
$DIMSCALE
 40
1.0
  9
$DIMASZ
 40
1.0
  9
$DIMEXO
 40
5.0
  9
$DIMDLI
 40
0.9999999999999999
  9
$DIMRND
 40
0.0
  9
$DIMDLE
 40
0.0
  9
$DIMEXE
 40
0.0
  9
$DIMTP
 40
0.0
  9
$DIMTM
 40
0.0
  9
$DIMTXT
 40
2.5
  9
$DIMCEN
 40
0.0
  9
$DIMTSZ
 40
0.0
  9
$DIMTOL
 70
     0
  9
$DIMLIM
 70
     0
  9
$DIMTIH
 70
     0
  9
$DIMTOH
 70
     0
  9
$DIMSE1
 70
     0
  9
$DIMSE2
 70
     0
  9
$DIMTAD
 70
     1
  9
$DIMZIN
 70
    11
  9
$DIMBLK
  1
Dot
  9
$DIMASO
 70
     1
  9
$DIMSHO
 70
     1
  9
$DIMPOST
  1
<>
  9
$DIMAPOST
  1
[]
  9
$DIMALT
 70
     0
  9
$DIMALTD
 70
     1
  9
$DIMALTF
 40
1.0
  9
$DIMLFAC
 40
1.0
  9
$DIMTOFL
 70
     0
  9
$DIMTVP
 40
0.0
  9
$DIMTIX
 70
     1
  9
$DIMSOXD
 70
     0
  9
$DIMSAH
 70
     0
  9
$DIMBLK1
  1

  9
$DIMBLK2
  1

  9
$DIMSTYLE
  2
tfrom線あり
  9
$DIMCLRD
 70
     0
  9
$DIMCLRE
 70
     0
  9
$DIMCLRT
 70
     0
  9
$DIMTFAC
 40
1.0
  9
$DIMGAP
 40
1.5
  9
$DIMJUST
 70
     0
  9
$DIMSD1
 70
     0
  9
$DIMSD2
 70
     0
  9
$DIMTOLJ
 70
     1
  9
$DIMTZIN
 70
    11
  9
$DIMALTZ
 70
    11
  9
$DIMALTTZ
 70
    11
  9
$DIMUPT
 70
     0
  9
$DIMDEC
 70
     0
  9
$DIMTDEC
 70
     1
  9
$DIMALTU
 70
     2
  9
$DIMALTTD
 70
     2
  9
$DIMTXSTY
  7
ＭＳ ゴシック
  9
$DIMAUNIT
 70
     0
  9
$DIMADEC
 70
     2
  9
$DIMALTRND
 40
0.0
  9
$DIMAZIN
 70
     0
  9
$DIMDSEP
 70
    46
  9
$DIMATFIT
 70
     0
  9
$DIMFRAC
 70
     2
  9
$DIMLDRBLK
  1
Dot
  9
$DIMLUNIT
 70
     2
  9
$DIMLWD
 70
    -2
  9
$DIMLWE
 70
    -2
  9
$DIMTMOVE
 70
     0
  9
$DIMFXL
 40
1.0
  9
$DIMFXLON
 70
     0
  9
$DIMJOGANG
 40
0.7853981633974483
  9
$DIMTFILL
 70
     0
  9
$DIMTFILLCLR
 70
     0
  9
$DIMARCSYM
 70
     0
  9
$DIMLTYPE
  6

  9
$DIMLTEX1
  6

  9
$DIMLTEX2
  6

  9
$LUNITS
 70
     2
  9
$LUPREC
 70
     4
  9
$SKETCHINC
 40
0.1
  9
$FILLETRAD
 40
0.0
  9
$AUNITS
 70
     0
  9
$AUPREC
 70
     0
  9
$MENU
  1
acad
  9
$ELEVATION
 40
0.0
  9
$PELEVATION
 40
0.0
  9
$THICKNESS
 40
0.0
  9
$LIMCHECK
 70
     0
  9
$CHAMFERA
 40
10.0
  9
$CHAMFERB
 40
10.0
  9
$CHAMFERC
 40
20.0
  9
$CHAMFERD
 40
0.0
  9
$SKPOLY
 70
     0
  9
$TDCREATE
 40
2456624.607635857
  9
$TDUCREATE
 40
2456624.232635857
  9
$TDUPDATE
 40
2458926.715597129
  9
$TDUUPDATE
 40
2458926.340597129
  9
$TDINDWG
 40
0.0601567708
  9
$TDUSRTIMER
 40
0.0000229977
  9
$USRTIMER
 70
     1
  9
$ANGBASE
 50
0.0
  9
$ANGDIR
 70
     0
  9
$PDMODE
 70
     0
  9
$PDSIZE
 40
0.0
  9
$PLINEWID
 40
0.0
  9
$SPLFRAME
 70
     0
  9
$SPLINETYPE
 70
     6
  9
$SPLINESEGS
 70
     8
  9
$HANDSEED
  5
22B3
  9
$SURFTAB1
 70
     6
  9
$SURFTAB2
 70
     6
  9
$SURFTYPE
 70
     6
  9
$SURFU
 70
     6
  9
$SURFV
 70
     6
  9
$UCSBASE
  2

  9
$UCSNAME
  2

  9
$UCSORG
 10
0.0
 20
0.0
 30
0.0
  9
$UCSXDIR
 10
1.0
 20
0.0
 30
0.0
  9
$UCSYDIR
 10
0.0
 20
1.0
 30
0.0
  9
$UCSORTHOREF
  2

  9
$UCSORTHOVIEW
 70
     0
  9
$UCSORGTOP
 10
0.0
 20
0.0
 30
0.0
  9
$UCSORGBOTTOM
 10
0.0
 20
0.0
 30
0.0
  9
$UCSORGLEFT
 10
0.0
 20
0.0
 30
0.0
  9
$UCSORGRIGHT
 10
0.0
 20
0.0
 30
0.0
  9
$UCSORGFRONT
 10
0.0
 20
0.0
 30
0.0
  9
$UCSORGBACK
 10
0.0
 20
0.0
 30
0.0
  9
$PUCSBASE
  2

  9
$PUCSNAME
  2

  9
$PUCSORG
 10
0.0
 20
0.0
 30
0.0
  9
$PUCSXDIR
 10
1.0
 20
0.0
 30
0.0
  9
$PUCSYDIR
 10
0.0
 20
1.0
 30
0.0
  9
$PUCSORTHOREF
  2

  9
$PUCSORTHOVIEW
 70
     0
  9
$PUCSORGTOP
 10
0.0
 20
0.0
 30
0.0
  9
$PUCSORGBOTTOM
 10
0.0
 20
0.0
 30
0.0
  9
$PUCSORGLEFT
 10
0.0
 20
0.0
 30
0.0
  9
$PUCSORGRIGHT
 10
0.0
 20
0.0
 30
0.0
  9
$PUCSORGFRONT
 10
0.0
 20
0.0
 30
0.0
  9
$PUCSORGBACK
 10
0.0
 20
0.0
 30
0.0
  9
$USERI1
 70
     0
  9
$USERI2
 70
     0
  9
$USERI3
 70
     0
  9
$USERI4
 70
     0
  9
$USERI5
 70
     0
  9
$USERR1
 40
0.0
  9
$USERR2
 40
0.0
  9
$USERR3
 40
0.0
  9
$USERR4
 40
0.0
  9
$USERR5
 40
0.0
  9
$WORLDVIEW
 70
     1
  9
$SHADEDGE
 70
     3
  9
$SHADEDIF
 70
    70
  9
$TILEMODE
 70
     1
  9
$MAXACTVP
 70
    16
  9
$PINSBASE
 10
0.0
 20
0.0
 30
0.0
  9
$PLIMCHECK
 70
     0
  9
$PEXTMIN
 10
-0.0000000000000032
 20
-0.0000000000000124
 30
0.0
  9
$PEXTMAX
 10
408.0
 20
285.0000000000001
 30
0.0
  9
$PLIMMIN
 10
0.0
 20
0.0
  9
$PLIMMAX
 10
0.0
 20
0.0
  9
$UNITMODE
 70
     0
  9
$VISRETAIN
 70
     0
  9
$PLINEGEN
 70
     0
  9
$PSLTSCALE
 70
     1
  9
$TREEDEPTH
 70
  3020
  9
$CMLSTYLE
  2
STANDARD
  9
$CMLJUST
 70
     0
  9
$CMLSCALE
 40
20.0
  9
$PROXYGRAPHICS
 70
     1
  9
$MEASUREMENT
 70
     1
  9
$CELWEIGHT
370
    -1
  9
$ENDCAPS
280
     0
  9
$JOINSTYLE
280
     0
  9
$LWDISPLAY
290
     0
  9
$INSUNITS
 70
     0
  9
$HYPERLINKBASE
  1

  9
$STYLESHEET
  1

  9
$XEDIT
290
     1
  9
$CEPSNTYPE
380
     0
  9
$PSTYLEMODE
290
     1
  9
$FINGERPRINTGUID
  2
{EE220400-621C-11D4-9DC4-004005369732}
  9
$VERSIONGUID
  2
{5C97892C-5A71-4EDC-86E5-8F46B6C85FDD}
  9
$EXTNAMES
290
     1
  9
$PSVPSCALE
 40
0.0
  9
$OLESTARTUP
290
     0
  9
$SORTENTS
280
   127
  9
$INDEXCTL
280
     0
  9
$HIDETEXT
280
     1
  9
$XCLIPFRAME
290
     0
  9
$HALOGAP
280
     0
  9
$OBSCOLOR
 70
   257
  9
$OBSLTYPE
280
     0
  9
$INTERSECTIONDISPLAY
280
     0
  9
$INTERSECTIONCOLOR
 70
   257
  9
$DIMASSOC
280
     2
  9
$PROJECTNAME
  1

  9
$CAMERADISPLAY
290
     0
  9
$LENSLENGTH
 40
50.0
  9
$CAMERAHEIGHT
 40
0.0
  9
$STEPSPERSEC
 40
2.0
  9
$STEPSIZE
 40
6.0
  9
$3DDWFPREC
 40
2.0
  9
$PSOLWIDTH
 40
0.25
  9
$PSOLHEIGHT
 40
4.0
  9
$LOFTANG1
 40
1.570796326794897
  9
$LOFTANG2
 40
1.570796326794897
  9
$LOFTMAG1
 40
0.0
  9
$LOFTMAG2
 40
0.0
  9
$LOFTPARAM
 70
     7
  9
$LOFTNORMALS
280
     1
  9
$LATITUDE
 40
37.795
  9
$LONGITUDE
 40
-122.394
  9
$NORTHDIRECTION
 40
0.0
  9
$TIMEZONE
 70
 -8000
  9
$LIGHTGLYPHDISPLAY
280
     1
  9
$TILEMODELIGHTSYNCH
280
     1
  9
$SOLIDHIST
280
     0
  9
$SHOWHIST
280
     1
  9
$DWFFRAME
280
     2
  9
$DGNFRAME
280
     2
  9
$REALWORLDSCALE
290
     1
  9
$INTERFERECOLOR
 62
   256
  9
$CSHADOW
280
     0
  9
$SHADOWPLANELOCATION
 40
0.0
  0
ENDSEC
  0
SECTION
  2
CLASSES
  0
CLASS
  1
ACDBDICTIONARYWDFLT
  2
AcDbDictionaryWithDefault
  3
ObjectDBX Classes
 90
        0
 91
        4
280
     0
281
     0
  0
CLASS
  1
ACDBPLACEHOLDER
  2
AcDbPlaceHolder
  3
ObjectDBX Classes
 90
        0
 91
        1
280
     0
281
     0
  0
CLASS
  1
LAYOUT
  2
AcDbLayout
  3
ObjectDBX Classes
 90
        0
 91
        1
280
     0
281
     0
  0
CLASS
  1
PLOTSETTINGS
  2
AcDbPlotSettings
  3
ObjectDBX Classes
 90
        0
 91
        4
280
     0
281
     0
  0
CLASS
  1
SCALE
  2
AcDbScale
  3
ObjectDBX Classes
 90
     1153
 91
        4
280
     0
281
     0
  0
CLASS
  1
VISUALSTYLE
  2
AcDbVisualStyle
  3
ObjectDBX Classes
 90
     4095
 91
        4
280
     0
281
     0
  0
CLASS
  1
MATERIAL
  2
AcDbMaterial
  3
ObjectDBX Classes
 90
     1153
 91
        4
280
     0
281
     0
  0
CLASS
  1
TABLESTYLE
  2
AcDbTableStyle
  3
ObjectDBX Classes
 90
     4095
 91
        4
280
     0
281
     0
  0
CLASS
  1
MLEADERSTYLE
  2
AcDbMLeaderStyle
  3
ACDB_MLEADERSTYLE_CLASS
 90
     4095
 91
        4
280
     0
281
     0
  0
CLASS
  1
FIELD
  2
AcDbField
  3
ObjectDBX Classes
 90
     1152
 91
        4
280
     0
281
     0
  0
CLASS
  1
FIELDLIST
  2
AcDbFieldList
  3
ObjectDBX Classes
 90
     1152
 91
        4
280
     0
281
     0
  0
CLASS
  1
DICTIONARYVAR
  2
AcDbDictionaryVar
  3
ObjectDBX Classes
 90
        0
 91
        4
280
     0
281
     0
  0
CLASS
  1
SORTENTSTABLE
  2
AcDbSortentsTable
  3
ObjectDBX Classes
 90
        0
 91
        4
280
     0
281
     0
  0
CLASS
  1
DIMASSOC
  2
AcDbDimAssoc
  3
"AcDbDimAssoc|Product Desc:     AcDim ARX App For Dimension|Company:          Autodesk, Inc.|WEB Address:      www.autodesk.com"
 90
        0
 91
        4
280
     0
281
     0
  0
CLASS
  1
CELLSTYLEMAP
  2
AcDbCellStyleMap
  3
ObjectDBX Classes
 90
     1152
 91
        4
280
     0
281
     0
  0
CLASS
  1
SUN
  2
AcDbSun
  3
SCENEOE
 90
     1153
 91
        4
280
     0
281
     0
  0
ENDSEC
  0
SECTION
  2
TABLES
  0
TABLE
  2
VPORT
  5
8
330
0
100
AcDbSymbolTable
 70
     1
  0
VPORT
  5
1BFD
330
8
100
AcDbSymbolTableRecord
100
AcDbViewportTableRecord
  2
*Active
 70
     0
 10
0.0
 20
0.0
 11
1.0
 21
1.0
 12
293.1119756838903
 22
225.2483852462006
 13
0.0
 23
0.0
 14
10.0
 24
10.0
 15
10.0
 25
10.0
 16
0.0
 26
0.0
 36
1.0
 17
0.0
 27
0.0
 37
0.0
 40
214.2000000000001
 41
2.357037037037037
 42
50.0
 43
0.0
 44
0.0
 50
0.0
 51
0.0
 71
    16
 72
   100
 73
     1
 74
     0
 75
     0
 76
     0
 77
     0
 78
     0
281
     0
 65
     1
110
0.0
120
0.0
130
0.0
111
1.0
121
0.0
131
0.0
112
0.0
122
1.0
132
0.0
 79
     0
146
0.0
348
1D0C
 60
     3
 61
     5
292
     1
282
     1
141
0.0
142
0.0
 63
   250
361
1F1D
  0
ENDTAB
  0
TABLE
  2
LTYPE
  5
5
330
0
100
AcDbSymbolTable
 70
     2
  0
LTYPE
  5
13
330
5
100
AcDbSymbolTableRecord
100
AcDbLinetypeTableRecord
  2
BYBLOCK
 70
     0
  3

 72
    65
 73
     0
 40
0.0
  0
LTYPE
  5
14
330
5
100
AcDbSymbolTableRecord
100
AcDbLinetypeTableRecord
  2
BYLAYER
 70
     0
  3

 72
    65
 73
     0
 40
0.0
  0
LTYPE
  5
15
330
5
100
AcDbSymbolTableRecord
100
AcDbLinetypeTableRecord
  2
CONTINUOUS
 70
     0
  3
Solid line
 72
    65
 73
     0
 40
0.0
  0
LTYPE
  5
1C4B
330
5
100
AcDbSymbolTableRecord
100
AcDbLinetypeTableRecord
  2
HIDDEN
 70
     0
  3
Hidden __ __ __ __ __ __ __ __ __ __ __ __ __ __
 72
    65
 73
     2
 40
1.905
 49
1.27
 74
     0
 49
-0.635
 74
     0
  0
ENDTAB
  0
TABLE
  2
LAYER
  5
2
102
{ACAD_XDICTIONARY
360
1CC6
102
}
330
0
100
AcDbSymbolTable
 70
    11
  0
LAYER
  5
F
330
2
100
AcDbSymbolTableRecord
100
AcDbLayerTableRecord
  2
0
 70
     0
 62
     7
  6
CONTINUOUS
370
    -3
390
1CA
347
1D23
  0
LAYER
  5
9A
330
2
100
AcDbSymbolTableRecord
100
AcDbLayerTableRecord
  2
DEFPOINTS
 70
     0
 62
     7
  6
CONTINUOUS
290
     0
370
    -3
390
1CA
347
1D23
  0
LAYER
  5
9D
330
2
100
AcDbSymbolTableRecord
100
AcDbLayerTableRecord
  2
寸法線
 70
     0
 62
     1
  6
CONTINUOUS
370
    -3
390
1CA
347
1D23
  0
LAYER
  5
1C48
330
2
100
AcDbSymbolTableRecord
100
AcDbLayerTableRecord
  2
テンプレート
 70
     0
 62
     7
  6
CONTINUOUS
370
    20
390
1CA
347
1D23
1001
AcAecLayerStandard
1000

1000

  0
LAYER
  5
1C4A
330
2
100
AcDbSymbolTableRecord
100
AcDbLayerTableRecord
  2
PRINT BORDER
 70
     0
 62
     4
  6
CONTINUOUS
290
     0
370
    -3
390
1CA
347
1D23
1001
AcAecLayerStandard
1000

1000

  0
LAYER
  5
1D29
330
2
100
AcDbSymbolTableRecord
100
AcDbLayerTableRecord
  2
TEMPLATE
 70
     0
 62
     7
  6
CONTINUOUS
370
    20
390
1CA
347
1D23
  0
LAYER
  5
1D2B
330
2
100
AcDbSymbolTableRecord
100
AcDbLayerTableRecord
  2
DIM
 70
     0
 62
     3
  6
CONTINUOUS
370
    13
390
1CA
347
1D23
  0
LAYER
  5
1D2C
330
2
100
AcDbSymbolTableRecord
100
AcDbLayerTableRecord
  2
MODEL
 70
     0
 62
     7
  6
CONTINUOUS
370
    20
390
1CA
347
1D23
  0
ENDTAB
  0
TABLE
  2
STYLE
  5
3
330
0
100
AcDbSymbolTable
 70
     3
  0
STYLE
  5
10
330
3
100
AcDbSymbolTableRecord
100
AcDbTextStyleTableRecord
  2
STANDARD
 70
     0
 40
0.0
 41
1.0
 50
0.0
 71
     0
 42
3.5
  3
txt
  4

  0
STYLE
  5
A3
330
3
100
AcDbSymbolTableRecord
100
AcDbTextStyleTableRecord
  2
STYLE3
 70
     0
 40
2.5
 41
0.9
 50
0.0
 71
     0
 42
2.5
  3
Msgothi1.ttf
  4
bigfont.shx
  0
STYLE
  5
1C5B
330
3
100
AcDbSymbolTableRecord
100
AcDbTextStyleTableRecord
  2
ＭＳ ゴシック
 70
     0
 40
0.0
 41
1.0
 50
0.0
 71
     0
 42
2.5
  3
msgothic.ttc
  4
ＭＳ ゴシック
1001
ACAD
1000
ＭＳ ゴシック
1071
        0
  0
ENDTAB
  0
TABLE
  2
VIEW
  5
6
330
0
100
AcDbSymbolTable
 70
     0
  0
ENDTAB
  0
TABLE
  2
UCS
  5
7
330
0
100
AcDbSymbolTable
 70
     0
  0
ENDTAB
  0
TABLE
  2
APPID
  5
9
330
0
100
AcDbSymbolTable
 70
     3
  0
APPID
  5
11
330
9
100
AcDbSymbolTableRecord
100
AcDbRegAppTableRecord
  2
ACAD
 70
     0
  0
APPID
  5
1C47
330
9
100
AcDbSymbolTableRecord
100
AcDbRegAppTableRecord
  2
AcAecLayerStandard
 70
     0
  0
APPID
  5
1F1B
330
9
100
AcDbSymbolTableRecord
100
AcDbRegAppTableRecord
  2
ACAD_MLEADERVER
 70
     0
  0
ENDTAB
  0
TABLE
  2
DIMSTYLE
  5
A
330
0
100
AcDbSymbolTable
 70
     2
100
AcDbDimStyleTable
  0
DIMSTYLE
105
A48
330
A
100
AcDbSymbolTableRecord
100
AcDbDimStyleTableRecord
  2
STANDARD
 70
     0
178
     0
340
10
  0
DIMSTYLE
105
1D32
102
{ACAD_REACTORS
330
2198
330
21B7
330
21CA
330
21DA
330
21E9
330
21F8
330
2207
330
221D
330
222D
330
223C
330
224B
102
}
330
A
100
AcDbSymbolTableRecord
100
AcDbDimStyleTableRecord
  2
tfrom線あり
 70
     0
  3
<>
  4
[]
 41
1.0
 42
5.0
 43
0.9999999999999999
 44
0.0
 73
     0
 74
     0
 77
     1
 78
    11
140
2.5
141
0.0
143
1.0
147
1.5
171
     1
174
     1
178
     0
179
     2
271
     0
272
     1
276
     2
284
    11
285
    11
286
    11
289
     0
340
1C5B
341
393
342
393
  0
ENDTAB
  0
TABLE
  2
BLOCK_RECORD
  5
1
330
0
100
AcDbSymbolTable
 70
    35
  0
BLOCK_RECORD
  5
19
330
1
100
AcDbSymbolTableRecord
100
AcDbBlockTableRecord
  2
*MODEL_SPACE
340
1CD
 70
     0
280
     1
281
     0
  0
BLOCK_RECORD
  5
1E99
330
1
100
AcDbSymbolTableRecord
100
AcDbBlockTableRecord
  2
*Paper_Space
340
1E9A
 70
     0
280
     1
281
     0
  0
BLOCK_RECORD
  5
393
330
1
100
AcDbSymbolTableRecord
100
AcDbBlockTableRecord
  2
_Dot
340
0
102
{BLKREFS
331
21C1
331
21C0
331
0
331
21D4
331
21E4
331
21E3
331
21F3
331
21F2
331
2202
331
2201
331
2211
331
2210
331
2237
331
2236
331
2246
331
2245
331
2255
331
2254
102
}
 70
     0
280
     1
281
     0
  0
BLOCK_RECORD
  5
219B
330
1
100
AcDbSymbolTableRecord
100
AcDbBlockTableRecord
  2
*D23
340
0
 70
     0
280
     1
281
     0
  0
BLOCK_RECORD
  5
21BA
330
1
100
AcDbSymbolTableRecord
100
AcDbBlockTableRecord
  2
*D24
340
0
 70
     0
280
     1
281
     0
  0
BLOCK_RECORD
  5
21CD
330
1
100
AcDbSymbolTableRecord
100
AcDbBlockTableRecord
  2
*D25
340
0
 70
     0
280
     1
281
     0
  0
BLOCK_RECORD
  5
21DD
330
1
100
AcDbSymbolTableRecord
100
AcDbBlockTableRecord
  2
*D26
340
0
 70
     0
280
     1
281
     0
  0
BLOCK_RECORD
  5
21EC
330
1
100
AcDbSymbolTableRecord
100
AcDbBlockTableRecord
  2
*D27
340
0
 70
     0
280
     1
281
     0
  0
BLOCK_RECORD
  5
21FB
330
1
100
AcDbSymbolTableRecord
100
AcDbBlockTableRecord
  2
*D28
340
0
 70
     0
280
     1
281
     0
  0
BLOCK_RECORD
  5
220A
330
1
100
AcDbSymbolTableRecord
100
AcDbBlockTableRecord
  2
*D29
340
0
 70
     0
280
     1
281
     0
  0
BLOCK_RECORD
  5
221E
330
1
100
AcDbSymbolTableRecord
100
AcDbBlockTableRecord
  2
*D30
340
0
 70
     0
280
     1
281
     0
  0
BLOCK_RECORD
  5
2230
330
1
100
AcDbSymbolTableRecord
100
AcDbBlockTableRecord
  2
*D31
340
0
 70
     0
280
     1
281
     0
  0
BLOCK_RECORD
  5
223F
330
1
100
AcDbSymbolTableRecord
100
AcDbBlockTableRecord
  2
*D32
340
0
 70
     0
280
     1
281
     0
  0
BLOCK_RECORD
  5
224E
330
1
100
AcDbSymbolTableRecord
100
AcDbBlockTableRecord
  2
*D33
340
0
 70
     0
280
     1
281
     0
  0
ENDTAB
  0
ENDSEC
  0
SECTION
  2
BLOCKS
  0
BLOCK
  5
1A
330
19
100
AcDbEntity
  8
0
100
AcDbBlockBegin
  2
*MODEL_SPACE
 70
     0
 10
0.0
 20
0.0
 30
0.0
  3
*MODEL_SPACE
  1

  0
ENDBLK
  5
1B
330
19
100
AcDbEntity
  8
0
100
AcDbBlockEnd
  0
BLOCK
  5
1E9B
330
1E99
100
AcDbEntity
 67
     1
  8
0
100
AcDbBlockBegin
  2
*Paper_Space
 70
     0
 10
0.0
 20
0.0
 30
0.0
  3
*Paper_Space
  1

  0
ENDBLK
  5
1E9C
330
1E99
100
AcDbEntity
 67
     1
  8
0
100
AcDbBlockEnd
  0
BLOCK
  5
21AD
330
393
100
AcDbEntity
  8
0
 48
6.0
100
AcDbBlockBegin
  2
_Dot
 70
     0
 10
0.0
 20
0.0
 30
0.0
  3
_Dot
  1

  0
LWPOLYLINE
  5
21AF
330
393
100
AcDbEntity
  8
寸法線
 62
     0
100
AcDbPolyline
 90
        2
 70
     1
 43
0.5
 10
-0.25
 20
0.0
 42
1.0
 10
0.25
 20
0.0
 42
1.0
  0
LINE
  5
21B2
330
393
100
AcDbEntity
  8
寸法線
 62
     0
370
    -2
100
AcDbLine
 10
-0.5
 20
0.0
 30
0.0
 11
-1.0
 21
0.0
 31
0.0
  0
ENDBLK
  5
21B3
330
393
100
AcDbEntity
  8
0
 48
6.0
100
AcDbBlockEnd
  0
BLOCK
  5
219C
330
219B
100
AcDbEntity
  8
0
100
AcDbBlockBegin
  2
*D23
 70
     1
 10
0.0
 20
0.0
 30
0.0
  3
*D23
  1

  0
LINE
  5
219E
330
219B
100
AcDbEntity
  8
DIM
 62
     0
 48
6.0
370
    -2
100
AcDbLine
 10
223.3637290215852
 20
297.1363217600891
 30
0.0
 11
223.3637290215852
 21
302.2880332462007
 31
0.0
  0
LINE
  5
219F
330
219B
100
AcDbEntity
  8
DIM
 62
     0
 48
6.0
370
    -2
100
AcDbLine
 10
275.3637290215852
 20
297.136321760089
 30
0.0
 11
275.3637290215852
 21
302.2880332462007
 31
0.0
  0
LINE
  5
21A0
330
219B
100
AcDbEntity
  8
DIM
 62
     0
 48
6.0
370
    -2
100
AcDbLine
 10
224.3637290215852
 20
302.2880332462007
 30
0.0
 11
274.3637290215852
 21
302.2880332462007
 31
0.0
  0
INSERT
  5
21A1
330
219B
100
AcDbEntity
  8
DIM
 62
     0
370
    -2
100
AcDbBlockReference
  2
_Dot
 10
223.3637290215852
 20
302.2880332462007
 30
0.0
 50
180.0
  0
INSERT
  5
21A2
330
219B
100
AcDbEntity
  8
DIM
 62
     0
370
    -2
100
AcDbBlockReference
  2
_Dot
 10
275.3637290215852
 20
302.2880332462007
 30
0.0
  0
MTEXT
  5
21A3
330
219B
100
AcDbEntity
  8
DIM
 62
     0
 48
6.0
100
AcDbMText
 10
249.3637290215852
 20
305.0380332462007
 30
0.0
 40
2.5
 41
0.0
 46
0.0
 71
     5
 72
     1
  1
\A1;%%c52
  7
ＭＳ ゴシック
 73
     1
 44
1.0
  0
POINT
  5
21A4
330
219B
100
AcDbEntity
  8
DEFPOINTS
 62
     0
100
AcDbPoint
 10
223.3637290215852
 20
292.1363217600891
 30
0.0
  0
POINT
  5
21A5
330
219B
100
AcDbEntity
  8
DEFPOINTS
 62
     0
100
AcDbPoint
 10
275.3637290215852
 20
292.136321760089
 30
0.0
  0
POINT
  5
21A6
330
219B
100
AcDbEntity
  8
DEFPOINTS
 62
     0
100
AcDbPoint
 10
275.3637290215852
 20
302.2880332462007
 30
0.0
  0
ENDBLK
  5
219D
330
219B
100
AcDbEntity
  8
0
100
AcDbBlockEnd
  0
BLOCK
  5
21BB
330
21BA
100
AcDbEntity
  8
0
100
AcDbBlockBegin
  2
*D24
 70
     1
 10
0.0
 20
0.0
 30
0.0
  3
*D24
  1

  0
LINE
  5
21BD
330
21BA
100
AcDbEntity
  8
DIM
 62
     0
 48
6.0
370
    -2
100
AcDbLine
 10
218.3637290215852
 20
292.1363217600891
 30
0.0
 11
209.8292072686377
 21
292.1363217600891
 31
0.0
  0
LINE
  5
21BE
330
21BA
100
AcDbEntity
  8
DIM
 62
     0
 48
6.0
370
    -2
100
AcDbLine
 10
218.3637290215852
 20
287.136321760089
 30
0.0
 11
209.8292072686377
 21
287.136321760089
 31
0.0
  0
LINE
  5
21BF
330
21BA
100
AcDbEntity
  8
DIM
 62
     0
 48
6.0
370
    -2
100
AcDbLine
 10
209.8292072686377
 20
291.1363217600891
 30
0.0
 11
209.8292072686377
 21
288.136321760089
 31
0.0
  0
INSERT
  5
21C0
330
21BA
100
AcDbEntity
  8
DIM
 62
     0
370
    -2
100
AcDbBlockReference
  2
_Dot
 10
209.8292072686377
 20
292.1363217600891
 30
0.0
 50
90.0
  0
INSERT
  5
21C1
330
21BA
100
AcDbEntity
  8
DIM
 62
     0
370
    -2
100
AcDbBlockReference
  2
_Dot
 10
209.8292072686377
 20
287.136321760089
 30
0.0
 50
270.0
  0
MTEXT
  5
21C2
330
21BA
100
AcDbEntity
  8
DIM
 62
     0
 48
6.0
100
AcDbMText
 10
207.0792072686377
 20
289.636321760089
 30
0.0
 40
2.5
 41
0.0
 46
0.0
 71
     5
 72
     1
  1
\A1;5
  7
ＭＳ ゴシック
 11
0.0
 21
1.0
 31
0.0
 73
     1
 44
1.0
  0
POINT
  5
21C3
330
21BA
100
AcDbEntity
  8
DEFPOINTS
 62
     0
100
AcDbPoint
 10
223.3637290215852
 20
292.1363217600891
 30
0.0
  0
POINT
  5
21C4
330
21BA
100
AcDbEntity
  8
DEFPOINTS
 62
     0
100
AcDbPoint
 10
223.3637290215852
 20
287.136321760089
 30
0.0
  0
POINT
  5
21C5
330
21BA
100
AcDbEntity
  8
DEFPOINTS
 62
     0
100
AcDbPoint
 10
209.8292072686377
 20
287.136321760089
 30
0.0
  0
ENDBLK
  5
21BC
330
21BA
100
AcDbEntity
  8
0
100
AcDbBlockEnd
  0
BLOCK
  5
21CE
330
21CD
100
AcDbEntity
  8
0
100
AcDbBlockBegin
  2
*D25
 70
     1
 10
0.0
 20
0.0
 30
0.0
  3
*D25
  1

  0
LINE
  5
21D0
330
21CD
100
AcDbEntity
  8
DIM
 62
     0
 48
6.0
370
    -2
100
AcDbLine
 10
233.3637290215852
 20
284.136321760089
 30
0.0
 11
209.8292072686377
 21
284.136321760089
 31
0.0
  0
LINE
  5
21D1
330
21CD
100
AcDbEntity
  8
DIM
 62
     0
 48
6.0
370
    -2
100
AcDbLine
 10
218.3637290215852
 20
287.136321760089
 30
0.0
 11
209.8292072686377
 21
287.136321760089
 31
0.0
  0
LINE
  5
21D2
330
21CD
100
AcDbEntity
  8
DIM
 62
     0
 48
6.0
370
    -2
100
AcDbLine
 10
209.8292072686377
 20
285.136321760089
 30
0.0
 11
209.8292072686377
 21
286.136321760089
 31
0.0
  0
INSERT
  5
21D3
330
21CD
100
AcDbEntity
  8
DIM
 62
     0
370
    -2
100
AcDbBlockReference
  2
_Dot
 10
209.8292072686377
 20
284.136321760089
 30
0.0
 50
270.0
  0
INSERT
  5
21D4
330
21CD
100
AcDbEntity
  8
DIM
 62
     0
370
    -2
100
AcDbBlockReference
  2
_Dot
 10
209.8292072686377
 20
287.136321760089
 30
0.0
 50
90.0
  0
MTEXT
  5
21D5
330
21CD
100
AcDbEntity
  8
DIM
 62
     0
 48
6.0
100
AcDbMText
 10
207.0792072686377
 20
285.636321760089
 30
0.0
 40
2.5
 41
0.0
 46
0.0
 71
     5
 72
     1
  1
\A1;3
  7
ＭＳ ゴシック
 11
0.0
 21
1.0
 31
0.0
 73
     1
 44
1.0
  0
POINT
  5
21D6
330
21CD
100
AcDbEntity
  8
DEFPOINTS
 62
     0
100
AcDbPoint
 10
238.3637290215852
 20
284.136321760089
 30
0.0
  0
POINT
  5
21D7
330
21CD
100
AcDbEntity
  8
DEFPOINTS
 62
     0
100
AcDbPoint
 10
223.3637290215852
 20
287.136321760089
 30
0.0
  0
POINT
  5
21D8
330
21CD
100
AcDbEntity
  8
DEFPOINTS
 62
     0
100
AcDbPoint
 10
209.8292072686377
 20
287.136321760089
 30
0.0
  0
ENDBLK
  5
21CF
330
21CD
100
AcDbEntity
  8
0
100
AcDbBlockEnd
  0
BLOCK
  5
21DE
330
21DD
100
AcDbEntity
  8
0
100
AcDbBlockBegin
  2
*D26
 70
     1
 10
0.0
 20
0.0
 30
0.0
  3
*D26
  1

  0
LINE
  5
21E0
330
21DD
100
AcDbEntity
  8
DIM
 62
     0
 48
6.0
370
    -2
100
AcDbLine
 10
233.3637290215852
 20
284.136321760089
 30
0.0
 11
209.8292072686377
 21
284.136321760089
 31
0.0
  0
LINE
  5
21E1
330
21DD
100
AcDbEntity
  8
DIM
 62
     0
 48
6.0
370
    -2
100
AcDbLine
 10
233.3637290215852
 20
270.136321760089
 30
0.0
 11
209.8292072686377
 21
270.136321760089
 31
0.0
  0
LINE
  5
21E2
330
21DD
100
AcDbEntity
  8
DIM
 62
     0
 48
6.0
370
    -2
100
AcDbLine
 10
209.8292072686377
 20
283.136321760089
 30
0.0
 11
209.8292072686377
 21
271.136321760089
 31
0.0
  0
INSERT
  5
21E3
330
21DD
100
AcDbEntity
  8
DIM
 62
     0
370
    -2
100
AcDbBlockReference
  2
_Dot
 10
209.8292072686377
 20
284.136321760089
 30
0.0
 50
90.0
  0
INSERT
  5
21E4
330
21DD
100
AcDbEntity
  8
DIM
 62
     0
370
    -2
100
AcDbBlockReference
  2
_Dot
 10
209.8292072686377
 20
270.136321760089
 30
0.0
 50
270.0
  0
MTEXT
  5
21E5
330
21DD
100
AcDbEntity
  8
DIM
 62
     0
 48
6.0
100
AcDbMText
 10
207.0792072686377
 20
277.136321760089
 30
0.0
 40
2.5
 41
0.0
 46
0.0
 71
     5
 72
     1
  1
\A1;14
  7
ＭＳ ゴシック
 11
0.0
 21
1.0
 31
0.0
 73
     1
 44
1.0
  0
POINT
  5
21E6
330
21DD
100
AcDbEntity
  8
DEFPOINTS
 62
     0
100
AcDbPoint
 10
238.3637290215852
 20
284.136321760089
 30
0.0
  0
POINT
  5
21E7
330
21DD
100
AcDbEntity
  8
DEFPOINTS
 62
     0
100
AcDbPoint
 10
238.3637290215852
 20
270.136321760089
 30
0.0
  0
POINT
  5
21E8
330
21DD
100
AcDbEntity
  8
DEFPOINTS
 62
     0
100
AcDbPoint
 10
209.8292072686377
 20
270.136321760089
 30
0.0
  0
ENDBLK
  5
21DF
330
21DD
100
AcDbEntity
  8
0
100
AcDbBlockEnd
  0
BLOCK
  5
21ED
330
21EC
100
AcDbEntity
  8
0
100
AcDbBlockBegin
  2
*D27
 70
     1
 10
0.0
 20
0.0
 30
0.0
  3
*D27
  1

  0
LINE
  5
21EF
330
21EC
100
AcDbEntity
  8
DIM
 62
     0
 48
6.0
370
    -2
100
AcDbLine
 10
280.3637290215852
 20
292.136321760089
 30
0.0
 11
290.1329455697362
 21
292.136321760089
 31
0.0
  0
LINE
  5
21F0
330
21EC
100
AcDbEntity
  8
DIM
 62
     0
 48
6.0
370
    -2
100
AcDbLine
 10
265.3637290215852
 20
270.136321760089
 30
0.0
 11
290.1329455697362
 21
270.136321760089
 31
0.0
  0
LINE
  5
21F1
330
21EC
100
AcDbEntity
  8
DIM
 62
     0
 48
6.0
370
    -2
100
AcDbLine
 10
290.1329455697362
 20
291.136321760089
 30
0.0
 11
290.1329455697362
 21
271.136321760089
 31
0.0
  0
INSERT
  5
21F2
330
21EC
100
AcDbEntity
  8
DIM
 62
     0
370
    -2
100
AcDbBlockReference
  2
_Dot
 10
290.1329455697362
 20
292.136321760089
 30
0.0
 50
90.0
  0
INSERT
  5
21F3
330
21EC
100
AcDbEntity
  8
DIM
 62
     0
370
    -2
100
AcDbBlockReference
  2
_Dot
 10
290.1329455697362
 20
270.136321760089
 30
0.0
 50
270.0
  0
MTEXT
  5
21F4
330
21EC
100
AcDbEntity
  8
DIM
 62
     0
 48
6.0
100
AcDbMText
 10
287.3829455697362
 20
281.136321760089
 30
0.0
 40
2.5
 41
0.0
 46
0.0
 71
     5
 72
     1
  1
\A1;22
  7
ＭＳ ゴシック
 11
0.0
 21
1.0
 31
0.0
 73
     1
 44
1.0
  0
POINT
  5
21F5
330
21EC
100
AcDbEntity
  8
DEFPOINTS
 62
     0
100
AcDbPoint
 10
275.3637290215852
 20
292.136321760089
 30
0.0
  0
POINT
  5
21F6
330
21EC
100
AcDbEntity
  8
DEFPOINTS
 62
     0
100
AcDbPoint
 10
260.3637290215852
 20
270.136321760089
 30
0.0
  0
POINT
  5
21F7
330
21EC
100
AcDbEntity
  8
DEFPOINTS
 62
     0
100
AcDbPoint
 10
290.1329455697362
 20
270.136321760089
 30
0.0
  0
ENDBLK
  5
21EE
330
21EC
100
AcDbEntity
  8
0
100
AcDbBlockEnd
  0
BLOCK
  5
21FC
330
21FB
100
AcDbEntity
  8
0
100
AcDbBlockBegin
  2
*D28
 70
     1
 10
0.0
 20
0.0
 30
0.0
  3
*D28
  1

  0
LINE
  5
21FE
330
21FB
100
AcDbEntity
  8
DIM
 62
     0
 48
6.0
370
    -2
100
AcDbLine
 10
244.3637290215852
 20
214.6157985795342
 30
0.0
 11
209.8292072686377
 21
214.6157985795342
 31
0.0
  0
LINE
  5
21FF
330
21FB
100
AcDbEntity
  8
DIM
 62
     0
 48
6.0
370
    -2
100
AcDbLine
 10
244.3637290215852
 20
176.6157985795342
 30
0.0
 11
209.8292072686377
 21
176.6157985795342
 31
0.0
  0
LINE
  5
2200
330
21FB
100
AcDbEntity
  8
DIM
 62
     0
 48
6.0
370
    -2
100
AcDbLine
 10
209.8292072686377
 20
213.6157985795342
 30
0.0
 11
209.8292072686377
 21
177.6157985795342
 31
0.0
  0
INSERT
  5
2201
330
21FB
100
AcDbEntity
  8
DIM
 62
     0
370
    -2
100
AcDbBlockReference
  2
_Dot
 10
209.8292072686377
 20
214.6157985795342
 30
0.0
 50
90.0
  0
INSERT
  5
2202
330
21FB
100
AcDbEntity
  8
DIM
 62
     0
370
    -2
100
AcDbBlockReference
  2
_Dot
 10
209.8292072686377
 20
176.6157985795342
 30
0.0
 50
270.0
  0
MTEXT
  5
2203
330
21FB
100
AcDbEntity
  8
DIM
 62
     0
 48
6.0
100
AcDbMText
 10
207.0792072686377
 20
195.6157985795342
 30
0.0
 40
2.5
 41
0.0
 46
0.0
 71
     5
 72
     1
  1
\A1;38
  7
ＭＳ ゴシック
 11
0.0
 21
1.0
 31
0.0
 73
     1
 44
1.0
  0
POINT
  5
2204
330
21FB
100
AcDbEntity
  8
DEFPOINTS
 62
     0
100
AcDbPoint
 10
249.3637290215852
 20
214.6157985795342
 30
0.0
  0
POINT
  5
2205
330
21FB
100
AcDbEntity
  8
DEFPOINTS
 62
     0
100
AcDbPoint
 10
249.3637290215852
 20
176.6157985795342
 30
0.0
  0
POINT
  5
2206
330
21FB
100
AcDbEntity
  8
DEFPOINTS
 62
     0
100
AcDbPoint
 10
209.8292072686377
 20
176.6157985795342
 30
0.0
  0
ENDBLK
  5
21FD
330
21FB
100
AcDbEntity
  8
0
100
AcDbBlockEnd
  0
BLOCK
  5
220B
330
220A
100
AcDbEntity
  8
0
100
AcDbBlockBegin
  2
*D29
 70
     1
 10
0.0
 20
0.0
 30
0.0
  3
*D29
  1

  0
LINE
  5
220D
330
220A
100
AcDbEntity
  8
DIM
 62
     0
 48
6.0
370
    -2
100
AcDbLine
 10
230.3637290215851
 20
200.6157985795344
 30
0.0
 11
230.3637290215851
 21
230.6982679128674
 31
0.0
  0
LINE
  5
220E
330
220A
100
AcDbEntity
  8
DIM
 62
     0
 48
6.0
370
    -2
100
AcDbLine
 10
268.3637290215852
 20
200.6157985795342
 30
0.0
 11
268.3637290215852
 21
230.6982679128674
 31
0.0
  0
LINE
  5
220F
330
220A
100
AcDbEntity
  8
DIM
 62
     0
 48
6.0
370
    -2
100
AcDbLine
 10
231.3637290215851
 20
230.6982679128674
 30
0.0
 11
267.3637290215852
 21
230.6982679128674
 31
0.0
  0
INSERT
  5
2210
330
220A
100
AcDbEntity
  8
DIM
 62
     0
370
    -2
100
AcDbBlockReference
  2
_Dot
 10
230.3637290215851
 20
230.6982679128674
 30
0.0
 50
180.0
  0
INSERT
  5
2211
330
220A
100
AcDbEntity
  8
DIM
 62
     0
370
    -2
100
AcDbBlockReference
  2
_Dot
 10
268.3637290215852
 20
230.6982679128674
 30
0.0
  0
MTEXT
  5
2212
330
220A
100
AcDbEntity
  8
DIM
 62
     0
 48
6.0
100
AcDbMText
 10
249.3637290215852
 20
233.4482679128674
 30
0.0
 40
2.5
 41
0.0
 46
0.0
 71
     5
 72
     1
  1
\A1;38
  7
ＭＳ ゴシック
 73
     1
 44
1.0
  0
POINT
  5
2213
330
220A
100
AcDbEntity
  8
DEFPOINTS
 62
     0
100
AcDbPoint
 10
230.3637290215851
 20
195.6157985795344
 30
0.0
  0
POINT
  5
2214
330
220A
100
AcDbEntity
  8
DEFPOINTS
 62
     0
100
AcDbPoint
 10
268.3637290215852
 20
195.6157985795342
 30
0.0
  0
POINT
  5
2215
330
220A
100
AcDbEntity
  8
DEFPOINTS
 62
     0
100
AcDbPoint
 10
268.3637290215852
 20
230.6982679128674
 30
0.0
  0
ENDBLK
  5
220C
330
220A
100
AcDbEntity
  8
0
100
AcDbBlockEnd
  0
BLOCK
  5
221F
330
221E
100
AcDbEntity
  8
0
100
AcDbBlockBegin
  2
*D30
 70
     1
 10
0.0
 20
0.0
 30
0.0
  3
*D30
  1

  0
LINE
  5
2221
330
221E
100
AcDbEntity
  8
DIM
 62
     0
 48
6.0
370
    -2
100
AcDbLine
 10
345.0848063910429
 20
207.1157985795343
 30
0.0
 11
345.0848063910428
 21
213.006069316168
 31
0.0
  0
LINE
  5
2222
330
221E
100
AcDbEntity
  8
DIM
 62
     0
 48
6.0
370
    -2
100
AcDbLine
 10
354.0848063910429
 20
207.1157985795343
 30
0.0
 11
354.0848063910428
 21
213.006069316168
 31
0.0
  0
LINE
  5
2223
330
221E
100
AcDbEntity
  8
DIM
 62
     0
 48
6.0
370
    -2
100
AcDbLine
 10
346.0848063910428
 20
213.006069316168
 30
0.0
 11
353.0848063910428
 21
213.006069316168
 31
0.0
  0
INSERT
  5
2224
330
221E
100
AcDbEntity
  8
DIM
 62
     0
370
    -2
100
AcDbBlockReference
  2
_Dot
 10
345.0848063910428
 20
213.006069316168
 30
0.0
 50
180.0
  0
INSERT
  5
2225
330
221E
100
AcDbEntity
  8
DIM
 62
     0
370
    -2
100
AcDbBlockReference
  2
_Dot
 10
354.0848063910428
 20
213.006069316168
 30
0.0
  0
MTEXT
  5
2226
330
221E
100
AcDbEntity
  8
DIM
 62
     0
 48
6.0
100
AcDbMText
 10
349.5848063910428
 20
215.756069316168
 30
0.0
 40
2.5
 41
0.0
 46
0.0
 71
     5
 72
     1
  1
\A1;9
  7
ＭＳ ゴシック
 73
     1
 44
1.0
  0
POINT
  5
2227
330
221E
100
AcDbEntity
  8
DEFPOINTS
 62
     0
100
AcDbPoint
 10
345.0848063910429
 20
202.1157985795343
 30
0.0
  0
POINT
  5
2228
330
221E
100
AcDbEntity
  8
DEFPOINTS
 62
     0
100
AcDbPoint
 10
354.0848063910429
 20
202.1157985795343
 30
0.0
  0
POINT
  5
2229
330
221E
100
AcDbEntity
  8
DEFPOINTS
 62
     0
100
AcDbPoint
 10
354.0848063910428
 20
213.006069316168
 30
0.0
  0
ENDBLK
  5
2220
330
221E
100
AcDbEntity
  8
0
100
AcDbBlockEnd
  0
BLOCK
  5
2231
330
2230
100
AcDbEntity
  8
0
100
AcDbBlockBegin
  2
*D31
 70
     1
 10
0.0
 20
0.0
 30
0.0
  3
*D31
  1

  0
LINE
  5
2233
330
2230
100
AcDbEntity
  8
DIM
 62
     0
 48
6.0
370
    -2
100
AcDbLine
 10
340.0848063910429
 20
202.1157985795342
 30
0.0
 11
333.7219537830695
 21
202.1157985795342
 31
0.0
  0
LINE
  5
2234
330
2230
100
AcDbEntity
  8
DIM
 62
     0
 48
6.0
370
    -2
100
AcDbLine
 10
340.0848063910429
 20
189.115798579534
 30
0.0
 11
333.7219537830695
 21
189.115798579534
 31
0.0
  0
LINE
  5
2235
330
2230
100
AcDbEntity
  8
DIM
 62
     0
 48
6.0
370
    -2
100
AcDbLine
 10
333.7219537830695
 20
201.1157985795342
 30
0.0
 11
333.7219537830695
 21
190.115798579534
 31
0.0
  0
INSERT
  5
2236
330
2230
100
AcDbEntity
  8
DIM
 62
     0
370
    -2
100
AcDbBlockReference
  2
_Dot
 10
333.7219537830695
 20
202.1157985795342
 30
0.0
 50
90.0
  0
INSERT
  5
2237
330
2230
100
AcDbEntity
  8
DIM
 62
     0
370
    -2
100
AcDbBlockReference
  2
_Dot
 10
333.7219537830695
 20
189.115798579534
 30
0.0
 50
270.0
  0
MTEXT
  5
2238
330
2230
100
AcDbEntity
  8
DIM
 62
     0
 48
6.0
100
AcDbMText
 10
330.9719537830695
 20
195.6157985795341
 30
0.0
 40
2.5
 41
0.0
 46
0.0
 71
     5
 72
     1
  1
\A1;13
  7
ＭＳ ゴシック
 11
0.0
 21
1.0
 31
0.0
 73
     1
 44
1.0
  0
POINT
  5
2239
330
2230
100
AcDbEntity
  8
DEFPOINTS
 62
     0
100
AcDbPoint
 10
345.0848063910429
 20
202.1157985795342
 30
0.0
  0
POINT
  5
223A
330
2230
100
AcDbEntity
  8
DEFPOINTS
 62
     0
100
AcDbPoint
 10
345.0848063910429
 20
189.115798579534
 30
0.0
  0
POINT
  5
223B
330
2230
100
AcDbEntity
  8
DEFPOINTS
 62
     0
100
AcDbPoint
 10
333.7219537830695
 20
189.115798579534
 30
0.0
  0
ENDBLK
  5
2232
330
2230
100
AcDbEntity
  8
0
100
AcDbBlockEnd
  0
BLOCK
  5
2240
330
223F
100
AcDbEntity
  8
0
100
AcDbBlockBegin
  2
*D32
 70
     1
 10
0.0
 20
0.0
 30
0.0
  3
*D32
  1

  0
LINE
  5
2242
330
223F
100
AcDbEntity
  8
DIM
 62
     0
 48
6.0
370
    -2
100
AcDbLine
 10
242.8637290215851
 20
265.136321760089
 30
0.0
 11
242.8637290215851
 21
258.6893759828346
 31
0.0
  0
LINE
  5
2243
330
223F
100
AcDbEntity
  8
DIM
 62
     0
 48
6.0
370
    -2
100
AcDbLine
 10
255.8637290215854
 20
265.136321760089
 30
0.0
 11
255.8637290215854
 21
258.6893759828346
 31
0.0
  0
LINE
  5
2244
330
223F
100
AcDbEntity
  8
DIM
 62
     0
 48
6.0
370
    -2
100
AcDbLine
 10
243.8637290215851
 20
258.6893759828346
 30
0.0
 11
254.8637290215854
 21
258.6893759828346
 31
0.0
  0
INSERT
  5
2245
330
223F
100
AcDbEntity
  8
DIM
 62
     0
370
    -2
100
AcDbBlockReference
  2
_Dot
 10
242.8637290215851
 20
258.6893759828346
 30
0.0
 50
180.0
  0
INSERT
  5
2246
330
223F
100
AcDbEntity
  8
DIM
 62
     0
370
    -2
100
AcDbBlockReference
  2
_Dot
 10
255.8637290215854
 20
258.6893759828346
 30
0.0
  0
MTEXT
  5
2247
330
223F
100
AcDbEntity
  8
DIM
 62
     0
 48
6.0
100
AcDbMText
 10
249.3637290215853
 20
261.4393759828346
 30
0.0
 40
2.5
 41
0.0
 46
0.0
 71
     5
 72
     1
  1
\A1;13
  7
ＭＳ ゴシック
 73
     1
 44
1.0
  0
POINT
  5
2248
330
223F
100
AcDbEntity
  8
DEFPOINTS
 62
     0
100
AcDbPoint
 10
242.8637290215851
 20
270.136321760089
 30
0.0
  0
POINT
  5
2249
330
223F
100
AcDbEntity
  8
DEFPOINTS
 62
     0
100
AcDbPoint
 10
255.8637290215854
 20
270.136321760089
 30
0.0
  0
POINT
  5
224A
330
223F
100
AcDbEntity
  8
DEFPOINTS
 62
     0
100
AcDbPoint
 10
255.8637290215854
 20
258.6893759828346
 30
0.0
  0
ENDBLK
  5
2241
330
223F
100
AcDbEntity
  8
0
100
AcDbBlockEnd
  0
BLOCK
  5
224F
330
224E
100
AcDbEntity
  8
0
100
AcDbBlockBegin
  2
*D33
 70
     1
 10
0.0
 20
0.0
 30
0.0
  3
*D33
  1

  0
LINE
  5
2251
330
224E
100
AcDbEntity
  8
DIM
 62
     0
 48
6.0
370
    -2
100
AcDbLine
 10
238.3637290215852
 20
279.136321760089
 30
0.0
 11
238.3637290215852
 21
249.143989316168
 31
0.0
  0
LINE
  5
2252
330
224E
100
AcDbEntity
  8
DIM
 62
     0
 48
6.0
370
    -2
100
AcDbLine
 10
260.3637290215852
 20
279.136321760089
 30
0.0
 11
260.3637290215852
 21
249.143989316168
 31
0.0
  0
LINE
  5
2253
330
224E
100
AcDbEntity
  8
DIM
 62
     0
 48
6.0
370
    -2
100
AcDbLine
 10
239.3637290215852
 20
249.143989316168
 30
0.0
 11
259.3637290215852
 21
249.143989316168
 31
0.0
  0
INSERT
  5
2254
330
224E
100
AcDbEntity
  8
DIM
 62
     0
370
    -2
100
AcDbBlockReference
  2
_Dot
 10
238.3637290215852
 20
249.143989316168
 30
0.0
 50
180.0
  0
INSERT
  5
2255
330
224E
100
AcDbEntity
  8
DIM
 62
     0
370
    -2
100
AcDbBlockReference
  2
_Dot
 10
260.3637290215852
 20
249.143989316168
 30
0.0
  0
MTEXT
  5
2256
330
224E
100
AcDbEntity
  8
DIM
 62
     0
 48
6.0
100
AcDbMText
 10
249.3637290215852
 20
251.893989316168
 30
0.0
 40
2.5
 41
0.0
 46
0.0
 71
     5
 72
     1
  1
\A1;%%c22
  7
ＭＳ ゴシック
 73
     1
 44
1.0
  0
POINT
  5
2257
330
224E
100
AcDbEntity
  8
DEFPOINTS
 62
     0
100
AcDbPoint
 10
238.3637290215852
 20
284.136321760089
 30
0.0
  0
POINT
  5
2258
330
224E
100
AcDbEntity
  8
DEFPOINTS
 62
     0
100
AcDbPoint
 10
260.3637290215852
 20
284.136321760089
 30
0.0
  0
POINT
  5
2259
330
224E
100
AcDbEntity
  8
DEFPOINTS
 62
     0
100
AcDbPoint
 10
260.3637290215852
 20
249.143989316168
 30
0.0
  0
ENDBLK
  5
2250
330
224E
100
AcDbEntity
  8
0
100
AcDbBlockEnd
  0
ENDSEC
  0
SECTION
  2
ENTITIES
  0
LINE
  5
1CCC
330
19
100
AcDbEntity
  8
PRINT BORDER
100
AcDbLine
 10
293.1119756838903
 20
120.2483852462006
 30
0.0
 11
293.1119756838903
 21
127.9031483604801
 31
0.0
  0
LINE
  5
1CCD
330
19
100
AcDbEntity
  8
テンプレート
100
AcDbLine
 10
363.6119756838903
 20
139.3874396983111
 30
0.0
 11
152.2667387981699
 21
139.3874396983111
 31
0.0
  0
LINE
  5
1CCE
330
19
100
AcDbEntity
  8
テンプレート
100
AcDbLine
 10
152.2667387981699
 20
133.3591536658045
 30
0.0
 11
433.9572125696106
 21
133.3591536658045
 31
0.0
  0
TEXT
  5
1CCF
330
19
100
AcDbEntity
  8
テンプレート
100
AcDbText
 10
153.642584181461
 20
136.3325151542691
 30
0.0
 40
1.75
  1
材質
  7
ＭＳ ゴシック
100
AcDbText
  0
TEXT
  5
1CD0
330
19
100
AcDbEntity
  8
テンプレート
100
AcDbText
 10
153.642584181461
 20
148.503180389566
 30
0.0
 40
1.75
  1
品名
  7
ＭＳ ゴシック
100
AcDbText
  0
TEXT
  5
1CD1
330
19
100
AcDbEntity
  8
テンプレート
100
AcDbText
 10
153.642584181461
 20
142.5738819416011
 30
0.0
 40
1.75
  1
仕上げ
  7
ＭＳ ゴシック
100
AcDbText
  0
TEXT
  5
1CD2
330
19
100
AcDbEntity
  8
テンプレート
100
AcDbText
 10
294.0236499428557
 20
148.5410005077501
 30
0.0
 40
1.75
  1
品番
  7
ＭＳ ゴシック
100
AcDbText
  0
LINE
  5
1CD3
330
19
100
AcDbEntity
  8
テンプレート
100
AcDbLine
 10
363.6119756838903
 20
145.3308676332986
 30
0.0
 11
152.2667387981699
 21
145.3308676332986
 31
0.0
  0
LINE
  5
1CD4
330
19
100
AcDbEntity
  8
テンプレート
100
AcDbLine
 10
433.957212569611
 20
151.3591536658045
 30
0.0
 11
152.2667387981699
 21
151.3591536658045
 31
0.0
  0
LINE
  5
1CD5
330
19
100
AcDbEntity
  8
PRINT BORDER
100
AcDbLine
 10
441.6119756838902
 20
225.2483852462006
 30
0.0
 11
433.957212569611
 21
225.2483852462006
 31
0.0
  0
LINE
  5
1CD6
330
19
100
AcDbEntity
  8
PRINT BORDER
100
AcDbLine
 10
144.6119756838904
 20
225.2483852462006
 30
0.0
 11
152.2667387981699
 21
225.2483852462006
 31
0.0
  0
LINE
  5
1CD7
330
19
100
AcDbEntity
  8
PRINT BORDER
100
AcDbLine
 10
293.1119756838903
 20
330.2483852462006
 30
0.0
 11
293.1119756838903
 21
322.5936221319211
 31
0.0
  0
LINE
  5
1CD8
330
19
100
AcDbEntity
  8
テンプレート
100
AcDbLine
 10
433.957212569611
 20
151.3591536658045
 30
0.0
 11
433.957212569611
 21
133.3591536658045
 31
0.0
  0
LINE
  5
1CD9
330
19
100
AcDbEntity
  8
テンプレート
100
AcDbLine
 10
152.2667387981699
 20
151.3591536658045
 30
0.0
 11
152.2667387981699
 21
133.3591536658045
 31
0.0
  0
TEXT
  5
1CDA
330
19
100
AcDbEntity
  8
テンプレート
100
AcDbText
 10
392.0986449316513
 20
128.5080771977691
 30
0.0
 40
2.75
  1
大洋金物株式会社  
  7
ＭＳ ゴシック
100
AcDbText
  0
LINE
  5
1CDB
330
19
100
AcDbEntity
  8
テンプレート
100
AcDbLine
 10
363.6119756838903
 20
151.3591536658045
 30
0.0
 11
363.6119756838903
 21
133.3591536658045
 31
0.0
  0
LINE
  5
1CDC
330
19
100
AcDbEntity
  8
テンプレート
100
AcDbLine
 10
293.1119756838903
 20
151.3591536658045
 30
0.0
 11
293.1119756838903
 21
133.3591536658045
 31
0.0
  0
LINE
  5
1CDE
330
19
100
AcDbEntity
  8
テンプレート
100
AcDbLine
 10
152.2667387981699
 20
225.2483852462006
 30
0.0
 11
152.2667387981699
 21
133.3591536658045
 31
0.0
  0
LINE
  5
1CDF
330
19
100
AcDbEntity
  8
テンプレート
100
AcDbLine
 10
152.2667387981699
 20
225.2483852462006
 30
0.0
 11
152.2667387981699
 21
322.5936221319211
 31
0.0
  0
LINE
  5
1CE0
330
19
100
AcDbEntity
  8
テンプレート
100
AcDbLine
 10
293.1119756838903
 20
322.5936221319211
 30
0.0
 11
152.2667387981699
 21
322.5936221319211
 31
0.0
  0
LINE
  5
1CE1
330
19
100
AcDbEntity
  8
テンプレート
100
AcDbLine
 10
293.1119756838903
 20
322.5936221319211
 30
0.0
 11
433.957212569611
 21
322.5936221319211
 31
0.0
  0
LINE
  5
1CE2
330
19
100
AcDbEntity
  8
テンプレート
100
AcDbLine
 10
433.957212569611
 20
225.2483852462006
 30
0.0
 11
433.957212569611
 21
322.5936221319211
 31
0.0
  0
LINE
  5
1CE3
330
19
100
AcDbEntity
  8
テンプレート
100
AcDbLine
 10
433.957212569611
 20
225.2483852462006
 30
0.0
 11
433.957212569611
 21
133.3591536658045
 31
0.0
  0
LWPOLYLINE
  5
1CE4
330
19
100
AcDbEntity
  8
PRINT BORDER
  6
HIDDEN
100
AcDbPolyline
 90
        4
 70
     1
 43
0.0
 10
144.6119756838904
 20
120.2483852462006
 10
144.6119756838904
 20
330.2483852462006
 10
441.6119756838902
 20
330.2483852462006
 10
441.6119756838902
 20
120.2483852462006
  0
TEXT
  5
1CE5
330
19
100
AcDbEntity
  8
テンプレート
100
AcDbText
 10
294.0114334950015
 20
136.560411960298
 30
0.0
 40
1.75
  1
縮尺
  7
ＭＳ ゴシック
100
AcDbText
  0
TEXT
  5
1CE6
330
19
100
AcDbEntity
  8
テンプレート
100
AcDbText
 10
301.1205359551136
 20
134.330161827948
 30
0.0
 40
2.5
  1
1:1
  7
ＭＳ ゴシック
100
AcDbText
  0
TEXT
  5
1CE7
330
19
100
AcDbEntity
  8
テンプレート
100
AcDbText
 10
294.0236499428557
 20
142.5127144752435
 30
0.0
 40
1.75
  1
扉厚
  7
ＭＳ ゴシック
100
AcDbText
  0
TEXT
  5
1CE8
330
19
100
AcDbEntity
  8
テンプレート
100
AcDbText
 10
364.6563519175638
 20
148.5410005077501
 30
0.0
 40
1.75
  1
備考
  7
ＭＳ ゴシック
100
AcDbText
  0
LINE
  5
1CE9
330
19
100
AcDbEntity
  8
テンプレート
  6
Continuous
100
AcDbLine
 10
161.4274764527387
 20
133.3591536658045
 30
0.0
 11
161.4274764527387
 21
151.3591536658045
 31
0.0
  0
MTEXT
  5
1E09
330
19
100
AcDbEntity
  8
TEMPLATE
390
1CA
100
AcDbMText
 10
162.9602319046011
 20
149.7288191632779
 30
0.0
 40
2.5
 41
0.0
 46
2.805
 71
     1
 72
     1
  1
{固定金具　-FSB-}
  7
ＭＳ ゴシック
 73
     1
 44
0.7828267384257843
1001
ACAD
1000
ACAD_MTEXT_DEFINED_HEIGHT_BEGIN
1070
    46
1040
2.805
1000
ACAD_MTEXT_DEFINED_HEIGHT_END
  0
TEXT
  5
1E1C
330
19
100
AcDbEntity
  8
テンプレート
100
AcDbText
 10
301.1205359551136
 20
146.3018757954414
 30
0.0
 40
2.5
  1
FSB99-FIX-NZ
  7
ＭＳ ゴシック
100
AcDbText
  0
MTEXT
  5
1F0B
102
{ACAD_XDICTIONARY
360
1F0D
102
}
330
19
100
AcDbEntity
  8
MODEL
  6
Continuous
 48
6.0
100
AcDbMText
 10
152.5118561264435
 20
132.180087904924
 30
0.0
 40
2.5
 41
0.0
 46
2.5
 71
     1
 72
     1
  1
{20200317N}
  7
ＭＳ ゴシック
 73
     1
 44
1.0
1001
ACAD
1000
ACAD_MTEXT_DEFINED_HEIGHT_BEGIN
1070
    46
1040
2.5
1000
ACAD_MTEXT_DEFINED_HEIGHT_END
  0
HATCH
  5
1F6A
330
19
100
AcDbEntity
  8
TEMPLATE
100
AcDbHatch
 10
0.0
 20
0.0
 30
0.0
210
0.0
220
0.0
230
1.0
  2
SOLID
 70
     1
 71
     1
 91
        6
 92
        1
 93
        8
 72
     1
 10
425.9737912992946
 20
131.05272401418
 11
425.9737912992946
 21
130.4617832511139
 72
     1
 10
425.9737912992946
 20
130.4617832511139
 11
425.0377321442634
 21
130.4617832511139
 72
     1
 10
425.0377321442634
 20
130.4617832511139
 11
425.0377321442634
 21
128.0527240143246
 72
     1
 10
425.0377321442634
 20
128.0527240143246
 11
424.2144708289358
 21
128.0527240143246
 72
     1
 10
424.2144708289358
 20
128.0527240143246
 11
424.2144708289358
 21
130.4617832511139
 72
     1
 10
424.2144708289358
 20
130.4617832511139
 11
423.2950006854815
 21
130.4617832511139
 72
     1
 10
423.2950006854815
 20
130.4617832511139
 11
423.2950006854815
 21
131.05272401418
 72
     1
 10
423.2950006854815
 20
131.05272401418
 11
425.9737912992946
 21
131.05272401418
 97
        1
330
1F6B
 92
        1
 93
        1
 72
     4
 94
        3
 73
     0
 74
     1
 95
       56
 96
       52
 40
0.0
 40
0.0
 40
0.0
 40
0.0
 40
1.0
 40
1.0
 40
1.0
 40
2.0
 40
2.0
 40
2.0
 40
3.0
 40
3.0
 40
3.0
 40
4.0
 40
4.0
 40
4.0
 40
5.0
 40
5.0
 40
5.0
 40
6.0
 40
6.0
 40
6.0
 40
7.0
 40
7.0
 40
7.0
 40
8.0
 40
8.0
 40
8.0
 40
9.0
 40
9.0
 40
9.0
 40
10.0
 40
10.0
 40
10.0
 40
11.0
 40
11.0
 40
11.0
 40
12.0
 40
12.0
 40
12.0
 40
13.0
 40
13.0
 40
13.0
 40
14.0
 40
14.0
 40
14.0
 40
15.0
 40
15.0
 40
15.0
 40
16.0
 40
16.0
 40
16.0
 40
17.0
 40
17.0
 40
17.0
 40
17.0
 10
427.2280098427239
 20
130.9812871181388
 10
427.3433964609157
 20
131.0137658735398
 10
427.4923553702491
 20
130.9865985774508
 10
427.4923553702491
 20
130.9865985774508
 10
427.4923553702491
 20
130.9865985774508
 10
427.4207920108909
 20
130.7718415482084
 10
427.4207920108909
 20
130.7718415482084
 10
427.4207920108909
 20
130.7718415482084
 10
427.2745557823814
 20
130.8056816440214
 10
427.1617653816964
 20
130.7167407371101
 10
427.0741188640292
 20
130.6471859127859
 10
427.0173368347174
 20
130.4623709335868
 10
426.9955553881267
 20
130.3921019634728
 10
426.9955553881267
 20
130.3921019634728
 10
426.898446438744
 20
130.0940353644329
 10
426.898446438744
 20
130.0940353644329
 10
426.898446438744
 20
130.0940353644329
 10
427.2168587537761
 20
130.0940353644329
 10
427.2168587537761
 20
130.0940353644329
 10
427.2168587537761
 20
130.0940353644329
 10
427.1673372066609
 20
129.9064381922609
 10
427.1673372066609
 20
129.9064381922609
 10
427.1673372066609
 20
129.9064381922609
 10
426.8463286741221
 20
129.9064381922609
 10
426.8463286741221
 20
129.9064381922609
 10
426.8463286741221
 20
129.9064381922609
 10
426.2719843616514
 20
128.0527240143246
 10
426.2719843616514
 20
128.0527240143246
 10
426.2719843616514
 20
128.0527240143246
 10
426.0921609639627
 20
128.0527240143246
 10
426.0921609639627
 20
128.0527240143246
 10
426.0921609639627
 20
128.0527240143246
 10
426.6670260077385
 20
129.9064381922609
 10
426.6670260077385
 20
129.9064381922609
 10
426.6670260077385
 20
129.9064381922609
 10
426.4301527760666
 20
129.9064381922609
 10
426.4301527760666
 20
129.9064381922609
 10
426.4301527760666
 20
129.9064381922609
 10
426.4798082255173
 20
130.0940353644329
 10
426.4798082255173
 20
130.0940353644329
 10
426.4798082255173
 20
130.0940353644329
 10
426.7191437723604
 20
130.0940353644329
 10
426.7191437723604
 20
130.0940353644329
 10
426.7191437723604
 20
130.0940353644329
 10
426.8037998045326
 20
130.3539844319394
 10
426.8037998045326
 20
130.3539844319394
 10
426.8722536540974
 20
130.5719253611614
 10
426.9303375116721
 20
130.6889336854177
 10
426.9801268634585
 20
130.7771530075205
 10
427.029388044921
 20
130.8654467198097
 10
427.1268838232732
 20
130.9521782381836
 10
427.2280098427239
 20
130.9812871181388
 97
        1
330
1F76
 92
        1
 93
        1
 72
     4
 94
        3
 73
     0
 74
     1
 95
       32
 96
       28
 40
0.0
 40
0.0
 40
0.0
 40
0.0
 40
1.0
 40
1.0
 40
1.0
 40
2.0
 40
2.0
 40
2.0
 40
3.0
 40
3.0
 40
3.0
 40
4.0
 40
4.0
 40
4.0
 40
5.0
 40
5.0
 40
5.0
 40
6.0
 40
6.0
 40
6.0
 40
7.0
 40
7.0
 40
7.0
 40
8.0
 40
8.0
 40
8.0
 40
9.0
 40
9.0
 40
9.0
 40
9.0
 10
427.6655654803631
 20
129.9806647202937
 10
427.5573128810512
 20
129.840640072352
 10
427.4739512381231
 20
129.7146230965175
 10
427.3389925618782
 20
129.318547426839
 10
427.2149171699099
 20
128.9562523408242
 10
427.1359594260193
 20
128.6926730322193
 10
427.1240346791325
 20
128.3716644996804
 10
427.1149590763864
 20
128.1327827329746
 10
427.2604216469571
 20
128.0527240143246
 10
427.4736983114892
 20
128.0527240143246
 10
427.5656148258582
 20
128.0527240143246
 10
427.7975634271875
 20
128.058571082979
 10
427.9627393971657
 20
128.2627572667278
 10
428.0783715029726
 20
128.4062113022645
 10
428.184942884071
 20
128.5549172849641
 10
428.3278166761534
 20
129.0427234935456
 10
428.4467070721266
 20
129.4505304956262
 10
428.5290272524445
 20
129.7141023652125
 10
428.5229421351934
 20
129.864169688324
 10
428.5229421351934
 20
129.864169688324
 10
428.5229421351934
 20
129.864169688324
 10
428.5229421351934
 20
129.864169688324
 10
428.4841699700193
 20
130.1145224217793
 10
428.3024049884645
 20
130.1674212833589
 10
428.19855628819
 20
130.1674212833589
 10
428.0962697818308
 20
130.1674212833589
 10
427.8221865789002
 20
130.1851187087137
 10
427.6655654803631
 20
129.9806647202937
 97
        1
330
1F79
 92
        1
 93
        1
 72
     4
 94
        3
 73
     0
 74
     1
 95
       38
 96
       34
 40
0.0
 40
0.0
 40
0.0
 40
0.0
 40
1.0
 40
1.0
 40
1.0
 40
2.0
 40
2.0
 40
2.0
 40
3.0
 40
3.0
 40
3.0
 40
4.0
 40
4.0
 40
4.0
 40
5.0
 40
5.0
 40
5.0
 40
6.0
 40
6.0
 40
6.0
 40
7.0
 40
7.0
 40
7.0
 40
8.0
 40
8.0
 40
8.0
 40
9.0
 40
9.0
 40
9.0
 40
10.0
 40
10.0
 40
10.0
 40
11.0
 40
11.0
 40
11.0
 40
11.0
 10
429.1803877249395
 20
130.0868418334038
 10
429.1803877249395
 20
130.0868418334038
 10
429.3652622162877
 20
130.0868418334038
 10
429.3652622162877
 20
130.0868418334038
 10
429.3652622162877
 20
130.0868418334038
 10
429.2826742312987
 20
129.8224219156921
 10
429.2826742312987
 20
129.8224219156921
 10
429.345429792582
 20
129.896648443725
 10
429.4444728868123
 20
129.9955055624891
 10
429.5295306259912
 20
130.0453544264246
 10
429.6565890644359
 20
130.1195809544574
 10
429.7291938864042
 20
130.1293707029933
 10
429.8090443125322
 20
130.1274216801085
 10
429.8090443125322
 20
130.1274216801085
 10
429.7310090069535
 20
129.8773962634735
 10
429.7310090069535
 20
129.8773962634735
 10
429.6801856315756
 20
129.8989173444115
 10
429.5235645330385
 20
129.8579506687373
 10
429.4337160658526
 20
129.7933204747556
 10
429.3526902747789
 20
129.7350432026961
 10
429.2966744643873
 20
129.6854547044132
 10
429.2303035400428
 20
129.560791629972
 10
429.1644384689661
 20
129.4359425800647
 10
429.1124546066798
 20
129.2368670021245
 10
429.0229929684634
 20
128.9480694203154
 10
429.0229929684634
 20
128.9480694203154
 10
428.7435983062207
 20
128.0527240143246
 10
428.7435983062207
 20
128.0527240143246
 10
428.7435983062207
 20
128.0527240143246
 10
428.5641691765201
 20
128.0527240143246
 10
428.5641691765201
 20
128.0527240143246
 10
428.5641691765201
 20
128.0527240143246
 10
429.1803877249395
 20
130.0868418334038
 10
429.1803877249395
 20
130.0868418334038
 97
        1
330
1F77
 92
        1
 93
        1
 72
     4
 94
        3
 73
     0
 74
     1
 95
      104
 96
      100
 40
0.0
 40
0.0
 40
0.0
 40
0.0
 40
1.0
 40
1.0
 40
1.0
 40
2.0
 40
2.0
 40
2.0
 40
3.0
 40
3.0
 40
3.0
 40
4.0
 40
4.0
 40
4.0
 40
5.0
 40
5.0
 40
5.0
 40
6.0
 40
6.0
 40
6.0
 40
7.0
 40
7.0
 40
7.0
 40
8.0
 40
8.0
 40
8.0
 40
9.0
 40
9.0
 40
9.0
 40
10.0
 40
10.0
 40
10.0
 40
11.0
 40
11.0
 40
11.0
 40
12.0
 40
12.0
 40
12.0
 40
13.0
 40
13.0
 40
13.0
 40
14.0
 40
14.0
 40
14.0
 40
15.0
 40
15.0
 40
15.0
 40
16.0
 40
16.0
 40
16.0
 40
17.0
 40
17.0
 40
17.0
 40
18.0
 40
18.0
 40
18.0
 40
19.0
 40
19.0
 40
19.0
 40
20.0
 40
20.0
 40
20.0
 40
21.0
 40
21.0
 40
21.0
 40
22.0
 40
22.0
 40
22.0
 40
23.0
 40
23.0
 40
23.0
 40
24.0
 40
24.0
 40
24.0
 40
25.0
 40
25.0
 40
25.0
 40
26.0
 40
26.0
 40
26.0
 40
27.0
 40
27.0
 40
27.0
 40
28.0
 40
28.0
 40
28.0
 40
29.0
 40
29.0
 40
29.0
 40
30.0
 40
30.0
 40
30.0
 40
31.0
 40
31.0
 40
31.0
 40
32.0
 40
32.0
 40
32.0
 40
33.0
 40
33.0
 40
33.0
 40
33.0
 10
430.1980008413681
 20
130.0879428081632
 10
430.1980008413681
 20
130.0879428081632
 10
430.3594126679122
 20
130.0879428081632
 10
430.3594126679122
 20
130.0879428081632
 10
430.3594126679122
 20
130.0879428081632
 10
430.2778661455334
 20
129.8232699638176
 10
430.2778661455334
 20
129.8232699638176
 10
430.3486409689153
 20
129.9342452439533
 10
430.4121701881376
 20
129.9837072789192
 10
430.4965732936759
 20
130.0476233271111
 10
430.581229325848
 20
130.1106318150283
 10
430.6817155896952
 20
130.1234715612084
 10
430.7514638285042
 20
130.1234715612084
 10
430.8378159569273
 20
130.1234715612084
 10
430.9211775998553
 20
130.1064213304757
 10
430.9649934196702
 20
130.0117746962642
 10
430.9985731498306
 20
129.93755560725
 10
431.0001353437459
 20
129.9287998823056
 10
430.9905390096948
 20
129.7822958491248
 10
431.0783045516603
 20
129.9324970745719
 10
431.1431281601267
 20
129.9971942197213
 10
431.2533297823234
 20
130.0593546595131
 10
431.3689767661677
 20
130.1234715612084
 10
431.4363891531224
 20
130.128269728234
 10
431.5147071414096
 20
130.116724371298
 10
431.6300863205827
 20
130.0996815795839
 10
431.7037326051613
 20
130.0585140504063
 10
431.7422369656642
 20
129.9334046348465
 10
431.7808752285027
 20
129.8086820482561
 10
431.7600013421869
 20
129.7417829535879
 10
431.7122874766022
 20
129.5432281069528
 10
431.6905060300117
 20
129.4527993963127
 10
431.6589943470345
 20
129.3433044808872
 10
431.6177673057077
 20
129.2130175083509
 10
431.6177673057077
 20
129.2130175083509
 10
431.2533297823234
 20
128.0527240143246
 10
431.2533297823234
 20
128.0527240143246
 10
431.2533297823234
 20
128.0527240143246
 10
431.0637835872666
 20
128.0527240143246
 10
431.0637835872666
 20
128.0527240143246
 10
431.0637835872666
 20
128.0527240143246
 10
431.382857974958
 20
129.0670937186243
 10
431.382857974958
 20
129.0670937186243
 10
431.4494967039736
 20
129.2793289205462
 10
431.4946069130327
 20
129.4343208740003
 10
431.5179505535385
 20
129.5314967745508
 10
431.5472454089597
 20
129.6527155833597
 10
431.558909790194
 20
129.6927151866101
 10
431.5450434594411
 20
129.7809419477315
 10
431.5323376155966
 20
129.8630687135646
 10
431.4908427695987
 20
129.9165478185985
 10
431.4198001415456
 20
129.9165478185985
 10
431.3440858097839
 20
129.9165478185985
 10
431.2827585400804
 20
129.9081194104745
 10
431.1969420209996
 20
129.8219086234056
 10
431.1111106238818
 20
129.7350432026961
 10
431.0401870201268
 20
129.6330765741387
 10
430.984572916742
 20
129.5158078842299
 10
430.9290778376556
 20
129.3978250485313
 10
430.87280910063
 20
129.2482784567249
 10
430.8157667056656
 20
129.0670937186243
 10
430.8157667056656
 20
129.0670937186243
 10
430.4965732936759
 20
128.0527240143246
 10
430.4965732936759
 20
128.0527240143246
 10
430.4965732936759
 20
128.0527240143246
 10
430.3183046508838
 20
128.0527240143246
 10
430.3183046508838
 20
128.0527240143246
 10
430.3183046508838
 20
128.0527240143246
 10
430.6832629055733
 20
129.2124967770458
 10
430.6832629055733
 20
129.2124967770458
 10
430.7217672660763
 20
129.3359249743921
 10
430.7506901705652
 20
129.4365302625376
 10
430.769748936332
 20
129.5151606896079
 10
430.8021533015465
 20
129.6505136338409
 10
430.8112289042925
 20
129.7420433192405
 10
430.7867247768782
 20
129.8232699638176
 10
430.7626074784334
 20
129.9042362427422
 10
430.7202199501982
 20
129.9249167145733
 10
430.649430248779
 20
129.9249167145733
 10
430.5900520019602
 20
129.9249167145733
 10
430.532102046721
 20
129.8994380757166
 10
430.4659840490105
 20
129.8487411636557
 10
430.3827414303808
 20
129.7849590177994
 10
430.3494295048915
 20
129.7325808875249
 10
430.3085892925344
 20
129.6703460575467
 10
430.2534810424174
 20
129.5880184382102
 10
430.2276825257589
 20
129.5325977493101
 10
430.1811440251202
 20
129.4109846725131
 10
430.1345906464441
 20
129.2886574499262
 10
430.0905218999953
 20
129.1463043891488
 10
430.059783874957
 20
129.0478415383728
 10
430.059783874957
 20
129.0478415383728
 10
429.7466904582557
 20
128.0527240143246
 10
429.7466904582557
 20
128.0527240143246
 10
429.7466904582557
 20
128.0527240143246
 10
429.5600008463583
 20
128.0527240143246
 10
429.5600008463583
 20
128.0527240143246
 10
429.5600008463583
 20
128.0527240143246
 10
430.1980008413681
 20
130.0879428081632
 10
430.1980008413681
 20
130.0879428081632
 97
        1
330
1F78
 92
       16
 93
        1
 72
     4
 94
        3
 73
     0
 74
     1
 95
       29
 96
       25
 40
0.0
 40
0.0
 40
0.0
 40
0.0
 40
1.0
 40
1.0
 40
1.0
 40
2.0
 40
2.0
 40
2.0
 40
3.0
 40
3.0
 40
3.0
 40
4.0
 40
4.0
 40
4.0
 40
5.0
 40
5.0
 40
5.0
 40
6.0
 40
6.0
 40
6.0
 40
7.0
 40
7.0
 40
7.0
 40
8.0
 40
8.0
 40
8.0
 40
8.0
 10
427.3177318465928
 20
128.4316825021026
 10
427.3169433106165
 20
128.5733958072765
 10
427.3616815687433
 20
128.8251768323116
 10
427.4762870899775
 20
129.1620602306375
 10
427.6323874572095
 20
129.6182282929247
 10
427.7260000678294
 20
129.7849590177994
 10
427.8079185411404
 20
129.8661187112087
 10
427.9275974730899
 20
129.9842949613922
 10
428.088488568329
 20
129.9901866641584
 10
428.1359495072796
 20
129.9842949613922
 10
428.2034957965698
 20
129.9761864310698
 10
428.2989086497016
 20
129.9319763432667
 10
428.3046069379832
 20
129.7831438972502
 10
428.3091596173935
 20
129.6557655810038
 10
428.2724554994025
 20
129.4172111311183
 10
428.1439836474154
 20
129.0427234935456
 10
427.9959174203192
 20
128.6075557808912
 10
427.9069765134079
 20
128.4364881081468
 10
427.835680958721
 20
128.3619342632936
 10
427.7013620380794
 20
128.2221699810045
 10
427.5573128810512
 20
128.2355899706388
 10
427.5360521657659
 20
128.2355899706388
 10
427.5084385285581
 20
128.2355899706388
 10
427.3181186755623
 20
128.2655543377381
 10
427.3177318465928
 20
128.4316825021026
 97
        1
330
1F7A
 75
     0
 76
     1
 98
        1
 10
418.4596013715921
 20
122.9689433069206
1001
ACAD
1010
0.0
1020
0.0
1030
0.0
  0
POLYLINE
  5
1F6B
102
{ACAD_REACTORS
330
1F6A
102
}
330
19
100
AcDbEntity
  8
TEMPLATE
100
AcDb2dPolyline
 66
     1
 10
0.0
 20
0.0
 30
0.0
  0
VERTEX
  5
1F6C
330
1F6B
100
AcDbEntity
  8
TEMPLATE
100
AcDbVertex
100
AcDb2dVertex
 10
425.9737912992946
 20
131.05272401418
 30
0.0
  0
VERTEX
  5
1F6D
330
1F6B
100
AcDbEntity
  8
TEMPLATE
100
AcDbVertex
100
AcDb2dVertex
 10
425.9737912992946
 20
130.4617832511139
 30
0.0
  0
VERTEX
  5
1F6E
330
1F6B
100
AcDbEntity
  8
TEMPLATE
100
AcDbVertex
100
AcDb2dVertex
 10
425.0377321442634
 20
130.4617832511139
 30
0.0
  0
VERTEX
  5
1F6F
330
1F6B
100
AcDbEntity
  8
TEMPLATE
100
AcDbVertex
100
AcDb2dVertex
 10
425.0377321442634
 20
128.0527240143246
 30
0.0
  0
VERTEX
  5
1F70
330
1F6B
100
AcDbEntity
  8
TEMPLATE
100
AcDbVertex
100
AcDb2dVertex
 10
424.2144708289358
 20
128.0527240143246
 30
0.0
  0
VERTEX
  5
1F71
330
1F6B
100
AcDbEntity
  8
TEMPLATE
100
AcDbVertex
100
AcDb2dVertex
 10
424.2144708289358
 20
130.4617832511139
 30
0.0
  0
VERTEX
  5
1F72
330
1F6B
100
AcDbEntity
  8
TEMPLATE
100
AcDbVertex
100
AcDb2dVertex
 10
423.2950006854815
 20
130.4617832511139
 30
0.0
  0
VERTEX
  5
1F73
330
1F6B
100
AcDbEntity
  8
TEMPLATE
100
AcDbVertex
100
AcDb2dVertex
 10
423.2950006854815
 20
131.05272401418
 30
0.0
  0
VERTEX
  5
1F74
330
1F6B
100
AcDbEntity
  8
TEMPLATE
100
AcDbVertex
100
AcDb2dVertex
 10
425.9737912992946
 20
131.05272401418
 30
0.0
  0
SEQEND
  5
1F75
330
1F6B
100
AcDbEntity
  8
TEMPLATE
  0
SPLINE
  5
1F76
102
{ACAD_REACTORS
330
1F6A
102
}
330
19
100
AcDbEntity
  8
TEMPLATE
100
AcDbSpline
210
0.0
220
0.0
230
1.0
 70
    11
 71
     3
 72
    56
 73
    52
 74
     0
 42
0.000000001
 43
0.0000000001
 40
0.0
 40
0.0
 40
0.0
 40
0.0
 40
1.0
 40
1.0
 40
1.0
 40
2.0
 40
2.0
 40
2.0
 40
3.0
 40
3.0
 40
3.0
 40
4.0
 40
4.0
 40
4.0
 40
5.0
 40
5.0
 40
5.0
 40
6.0
 40
6.0
 40
6.0
 40
7.0
 40
7.0
 40
7.0
 40
8.0
 40
8.0
 40
8.0
 40
9.0
 40
9.0
 40
9.0
 40
10.0
 40
10.0
 40
10.0
 40
11.0
 40
11.0
 40
11.0
 40
12.0
 40
12.0
 40
12.0
 40
13.0
 40
13.0
 40
13.0
 40
14.0
 40
14.0
 40
14.0
 40
15.0
 40
15.0
 40
15.0
 40
16.0
 40
16.0
 40
16.0
 40
17.0
 40
17.0
 40
17.0
 40
17.0
 10
427.2280098427239
 20
130.9812871181388
 30
0.0
 10
427.3433964609157
 20
131.0137658735398
 30
0.0
 10
427.4923553702491
 20
130.9865985774508
 30
0.0
 10
427.4923553702491
 20
130.9865985774508
 30
0.0
 10
427.4923553702491
 20
130.9865985774508
 30
0.0
 10
427.4207920108909
 20
130.7718415482084
 30
0.0
 10
427.4207920108909
 20
130.7718415482084
 30
0.0
 10
427.4207920108909
 20
130.7718415482084
 30
0.0
 10
427.2745557823814
 20
130.8056816440214
 30
0.0
 10
427.1617653816964
 20
130.7167407371101
 30
0.0
 10
427.0741188640292
 20
130.6471859127859
 30
0.0
 10
427.0173368347174
 20
130.4623709335868
 30
0.0
 10
426.9955553881267
 20
130.3921019634728
 30
0.0
 10
426.9955553881267
 20
130.3921019634728
 30
0.0
 10
426.898446438744
 20
130.0940353644329
 30
0.0
 10
426.898446438744
 20
130.0940353644329
 30
0.0
 10
426.898446438744
 20
130.0940353644329
 30
0.0
 10
427.2168587537761
 20
130.0940353644329
 30
0.0
 10
427.2168587537761
 20
130.0940353644329
 30
0.0
 10
427.2168587537761
 20
130.0940353644329
 30
0.0
 10
427.1673372066609
 20
129.9064381922609
 30
0.0
 10
427.1673372066609
 20
129.9064381922609
 30
0.0
 10
427.1673372066609
 20
129.9064381922609
 30
0.0
 10
426.8463286741221
 20
129.9064381922609
 30
0.0
 10
426.8463286741221
 20
129.9064381922609
 30
0.0
 10
426.8463286741221
 20
129.9064381922609
 30
0.0
 10
426.2719843616514
 20
128.0527240143246
 30
0.0
 10
426.2719843616514
 20
128.0527240143246
 30
0.0
 10
426.2719843616514
 20
128.0527240143246
 30
0.0
 10
426.0921609639627
 20
128.0527240143246
 30
0.0
 10
426.0921609639627
 20
128.0527240143246
 30
0.0
 10
426.0921609639627
 20
128.0527240143246
 30
0.0
 10
426.6670260077385
 20
129.9064381922609
 30
0.0
 10
426.6670260077385
 20
129.9064381922609
 30
0.0
 10
426.6670260077385
 20
129.9064381922609
 30
0.0
 10
426.4301527760666
 20
129.9064381922609
 30
0.0
 10
426.4301527760666
 20
129.9064381922609
 30
0.0
 10
426.4301527760666
 20
129.9064381922609
 30
0.0
 10
426.4798082255173
 20
130.0940353644329
 30
0.0
 10
426.4798082255173
 20
130.0940353644329
 30
0.0
 10
426.4798082255173
 20
130.0940353644329
 30
0.0
 10
426.7191437723604
 20
130.0940353644329
 30
0.0
 10
426.7191437723604
 20
130.0940353644329
 30
0.0
 10
426.7191437723604
 20
130.0940353644329
 30
0.0
 10
426.8037998045326
 20
130.3539844319394
 30
0.0
 10
426.8037998045326
 20
130.3539844319394
 30
0.0
 10
426.8722536540974
 20
130.5719253611614
 30
0.0
 10
426.9303375116721
 20
130.6889336854177
 30
0.0
 10
426.9801268634585
 20
130.7771530075205
 30
0.0
 10
427.029388044921
 20
130.8654467198097
 30
0.0
 10
427.1268838232732
 20
130.9521782381836
 30
0.0
 10
427.2280098427239
 20
130.9812871181388
 30
0.0
  0
SPLINE
  5
1F77
102
{ACAD_REACTORS
330
1F6A
102
}
330
19
100
AcDbEntity
  8
TEMPLATE
100
AcDbSpline
210
0.0
220
0.0
230
1.0
 70
    11
 71
     3
 72
    38
 73
    34
 74
     0
 42
0.000000001
 43
0.0000000001
 40
0.0
 40
0.0
 40
0.0
 40
0.0
 40
1.0
 40
1.0
 40
1.0
 40
2.0
 40
2.0
 40
2.0
 40
3.0
 40
3.0
 40
3.0
 40
4.0
 40
4.0
 40
4.0
 40
5.0
 40
5.0
 40
5.0
 40
6.0
 40
6.0
 40
6.0
 40
7.0
 40
7.0
 40
7.0
 40
8.0
 40
8.0
 40
8.0
 40
9.0
 40
9.0
 40
9.0
 40
10.0
 40
10.0
 40
10.0
 40
11.0
 40
11.0
 40
11.0
 40
11.0
 10
429.1803877249395
 20
130.0868418334038
 30
0.0
 10
429.1803877249395
 20
130.0868418334038
 30
0.0
 10
429.3652622162877
 20
130.0868418334038
 30
0.0
 10
429.3652622162877
 20
130.0868418334038
 30
0.0
 10
429.3652622162877
 20
130.0868418334038
 30
0.0
 10
429.2826742312987
 20
129.8224219156921
 30
0.0
 10
429.2826742312987
 20
129.8224219156921
 30
0.0
 10
429.345429792582
 20
129.896648443725
 30
0.0
 10
429.4444728868123
 20
129.9955055624891
 30
0.0
 10
429.5295306259912
 20
130.0453544264246
 30
0.0
 10
429.6565890644359
 20
130.1195809544574
 30
0.0
 10
429.7291938864042
 20
130.1293707029933
 30
0.0
 10
429.8090443125322
 20
130.1274216801085
 30
0.0
 10
429.8090443125322
 20
130.1274216801085
 30
0.0
 10
429.7310090069535
 20
129.8773962634735
 30
0.0
 10
429.7310090069535
 20
129.8773962634735
 30
0.0
 10
429.6801856315756
 20
129.8989173444115
 30
0.0
 10
429.5235645330385
 20
129.8579506687373
 30
0.0
 10
429.4337160658526
 20
129.7933204747556
 30
0.0
 10
429.3526902747789
 20
129.7350432026961
 30
0.0
 10
429.2966744643873
 20
129.6854547044132
 30
0.0
 10
429.2303035400428
 20
129.560791629972
 30
0.0
 10
429.1644384689661
 20
129.4359425800647
 30
0.0
 10
429.1124546066798
 20
129.2368670021245
 30
0.0
 10
429.0229929684634
 20
128.9480694203154
 30
0.0
 10
429.0229929684634
 20
128.9480694203154
 30
0.0
 10
428.7435983062207
 20
128.0527240143246
 30
0.0
 10
428.7435983062207
 20
128.0527240143246
 30
0.0
 10
428.7435983062207
 20
128.0527240143246
 30
0.0
 10
428.5641691765201
 20
128.0527240143246
 30
0.0
 10
428.5641691765201
 20
128.0527240143246
 30
0.0
 10
428.5641691765201
 20
128.0527240143246
 30
0.0
 10
429.1803877249395
 20
130.0868418334038
 30
0.0
 10
429.1803877249395
 20
130.0868418334038
 30
0.0
  0
SPLINE
  5
1F78
102
{ACAD_REACTORS
330
1F6A
102
}
330
19
100
AcDbEntity
  8
TEMPLATE
100
AcDbSpline
210
0.0
220
0.0
230
1.0
 70
    11
 71
     3
 72
   104
 73
   100
 74
     0
 42
0.000000001
 43
0.0000000001
 40
0.0
 40
0.0
 40
0.0
 40
0.0
 40
1.0
 40
1.0
 40
1.0
 40
2.0
 40
2.0
 40
2.0
 40
3.0
 40
3.0
 40
3.0
 40
4.0
 40
4.0
 40
4.0
 40
5.0
 40
5.0
 40
5.0
 40
6.0
 40
6.0
 40
6.0
 40
7.0
 40
7.0
 40
7.0
 40
8.0
 40
8.0
 40
8.0
 40
9.0
 40
9.0
 40
9.0
 40
10.0
 40
10.0
 40
10.0
 40
11.0
 40
11.0
 40
11.0
 40
12.0
 40
12.0
 40
12.0
 40
13.0
 40
13.0
 40
13.0
 40
14.0
 40
14.0
 40
14.0
 40
15.0
 40
15.0
 40
15.0
 40
16.0
 40
16.0
 40
16.0
 40
17.0
 40
17.0
 40
17.0
 40
18.0
 40
18.0
 40
18.0
 40
19.0
 40
19.0
 40
19.0
 40
20.0
 40
20.0
 40
20.0
 40
21.0
 40
21.0
 40
21.0
 40
22.0
 40
22.0
 40
22.0
 40
23.0
 40
23.0
 40
23.0
 40
24.0
 40
24.0
 40
24.0
 40
25.0
 40
25.0
 40
25.0
 40
26.0
 40
26.0
 40
26.0
 40
27.0
 40
27.0
 40
27.0
 40
28.0
 40
28.0
 40
28.0
 40
29.0
 40
29.0
 40
29.0
 40
30.0
 40
30.0
 40
30.0
 40
31.0
 40
31.0
 40
31.0
 40
32.0
 40
32.0
 40
32.0
 40
33.0
 40
33.0
 40
33.0
 40
33.0
 10
430.1980008413681
 20
130.0879428081632
 30
0.0
 10
430.1980008413681
 20
130.0879428081632
 30
0.0
 10
430.3594126679122
 20
130.0879428081632
 30
0.0
 10
430.3594126679122
 20
130.0879428081632
 30
0.0
 10
430.3594126679122
 20
130.0879428081632
 30
0.0
 10
430.2778661455334
 20
129.8232699638176
 30
0.0
 10
430.2778661455334
 20
129.8232699638176
 30
0.0
 10
430.3486409689153
 20
129.9342452439533
 30
0.0
 10
430.4121701881376
 20
129.9837072789192
 30
0.0
 10
430.4965732936759
 20
130.0476233271111
 30
0.0
 10
430.581229325848
 20
130.1106318150283
 30
0.0
 10
430.6817155896952
 20
130.1234715612084
 30
0.0
 10
430.7514638285042
 20
130.1234715612084
 30
0.0
 10
430.8378159569273
 20
130.1234715612084
 30
0.0
 10
430.9211775998553
 20
130.1064213304757
 30
0.0
 10
430.9649934196702
 20
130.0117746962642
 30
0.0
 10
430.9985731498306
 20
129.93755560725
 30
0.0
 10
431.0001353437459
 20
129.9287998823056
 30
0.0
 10
430.9905390096948
 20
129.7822958491248
 30
0.0
 10
431.0783045516603
 20
129.9324970745719
 30
0.0
 10
431.1431281601267
 20
129.9971942197213
 30
0.0
 10
431.2533297823234
 20
130.0593546595131
 30
0.0
 10
431.3689767661677
 20
130.1234715612084
 30
0.0
 10
431.4363891531224
 20
130.128269728234
 30
0.0
 10
431.5147071414096
 20
130.116724371298
 30
0.0
 10
431.6300863205827
 20
130.0996815795839
 30
0.0
 10
431.7037326051613
 20
130.0585140504063
 30
0.0
 10
431.7422369656642
 20
129.9334046348465
 30
0.0
 10
431.7808752285027
 20
129.8086820482561
 30
0.0
 10
431.7600013421869
 20
129.7417829535879
 30
0.0
 10
431.7122874766022
 20
129.5432281069528
 30
0.0
 10
431.6905060300117
 20
129.4527993963127
 30
0.0
 10
431.6589943470345
 20
129.3433044808872
 30
0.0
 10
431.6177673057077
 20
129.2130175083509
 30
0.0
 10
431.6177673057077
 20
129.2130175083509
 30
0.0
 10
431.2533297823234
 20
128.0527240143246
 30
0.0
 10
431.2533297823234
 20
128.0527240143246
 30
0.0
 10
431.2533297823234
 20
128.0527240143246
 30
0.0
 10
431.0637835872666
 20
128.0527240143246
 30
0.0
 10
431.0637835872666
 20
128.0527240143246
 30
0.0
 10
431.0637835872666
 20
128.0527240143246
 30
0.0
 10
431.382857974958
 20
129.0670937186243
 30
0.0
 10
431.382857974958
 20
129.0670937186243
 30
0.0
 10
431.4494967039736
 20
129.2793289205462
 30
0.0
 10
431.4946069130327
 20
129.4343208740003
 30
0.0
 10
431.5179505535385
 20
129.5314967745508
 30
0.0
 10
431.5472454089597
 20
129.6527155833597
 30
0.0
 10
431.558909790194
 20
129.6927151866101
 30
0.0
 10
431.5450434594411
 20
129.7809419477315
 30
0.0
 10
431.5323376155966
 20
129.8630687135646
 30
0.0
 10
431.4908427695987
 20
129.9165478185985
 30
0.0
 10
431.4198001415456
 20
129.9165478185985
 30
0.0
 10
431.3440858097839
 20
129.9165478185985
 30
0.0
 10
431.2827585400804
 20
129.9081194104745
 30
0.0
 10
431.1969420209996
 20
129.8219086234056
 30
0.0
 10
431.1111106238818
 20
129.7350432026961
 30
0.0
 10
431.0401870201268
 20
129.6330765741387
 30
0.0
 10
430.984572916742
 20
129.5158078842299
 30
0.0
 10
430.9290778376556
 20
129.3978250485313
 30
0.0
 10
430.87280910063
 20
129.2482784567249
 30
0.0
 10
430.8157667056656
 20
129.0670937186243
 30
0.0
 10
430.8157667056656
 20
129.0670937186243
 30
0.0
 10
430.4965732936759
 20
128.0527240143246
 30
0.0
 10
430.4965732936759
 20
128.0527240143246
 30
0.0
 10
430.4965732936759
 20
128.0527240143246
 30
0.0
 10
430.3183046508838
 20
128.0527240143246
 30
0.0
 10
430.3183046508838
 20
128.0527240143246
 30
0.0
 10
430.3183046508838
 20
128.0527240143246
 30
0.0
 10
430.6832629055733
 20
129.2124967770458
 30
0.0
 10
430.6832629055733
 20
129.2124967770458
 30
0.0
 10
430.7217672660763
 20
129.3359249743921
 30
0.0
 10
430.7506901705652
 20
129.4365302625376
 30
0.0
 10
430.769748936332
 20
129.5151606896079
 30
0.0
 10
430.8021533015465
 20
129.6505136338409
 30
0.0
 10
430.8112289042925
 20
129.7420433192405
 30
0.0
 10
430.7867247768782
 20
129.8232699638176
 30
0.0
 10
430.7626074784334
 20
129.9042362427422
 30
0.0
 10
430.7202199501982
 20
129.9249167145733
 30
0.0
 10
430.649430248779
 20
129.9249167145733
 30
0.0
 10
430.5900520019602
 20
129.9249167145733
 30
0.0
 10
430.532102046721
 20
129.8994380757166
 30
0.0
 10
430.4659840490105
 20
129.8487411636557
 30
0.0
 10
430.3827414303808
 20
129.7849590177994
 30
0.0
 10
430.3494295048915
 20
129.7325808875249
 30
0.0
 10
430.3085892925344
 20
129.6703460575467
 30
0.0
 10
430.2534810424174
 20
129.5880184382102
 30
0.0
 10
430.2276825257589
 20
129.5325977493101
 30
0.0
 10
430.1811440251202
 20
129.4109846725131
 30
0.0
 10
430.1345906464441
 20
129.2886574499262
 30
0.0
 10
430.0905218999953
 20
129.1463043891488
 30
0.0
 10
430.059783874957
 20
129.0478415383728
 30
0.0
 10
430.059783874957
 20
129.0478415383728
 30
0.0
 10
429.7466904582557
 20
128.0527240143246
 30
0.0
 10
429.7466904582557
 20
128.0527240143246
 30
0.0
 10
429.7466904582557
 20
128.0527240143246
 30
0.0
 10
429.5600008463583
 20
128.0527240143246
 30
0.0
 10
429.5600008463583
 20
128.0527240143246
 30
0.0
 10
429.5600008463583
 20
128.0527240143246
 30
0.0
 10
430.1980008413681
 20
130.0879428081632
 30
0.0
 10
430.1980008413681
 20
130.0879428081632
 30
0.0
  0
SPLINE
  5
1F79
102
{ACAD_REACTORS
330
1F6A
102
}
330
19
100
AcDbEntity
  8
TEMPLATE
100
AcDbSpline
210
0.0
220
0.0
230
1.0
 70
    11
 71
     3
 72
    32
 73
    28
 74
     0
 42
0.000000001
 43
0.0000000001
 40
0.0
 40
0.0
 40
0.0
 40
0.0
 40
1.0
 40
1.0
 40
1.0
 40
2.0
 40
2.0
 40
2.0
 40
3.0
 40
3.0
 40
3.0
 40
4.0
 40
4.0
 40
4.0
 40
5.0
 40
5.0
 40
5.0
 40
6.0
 40
6.0
 40
6.0
 40
7.0
 40
7.0
 40
7.0
 40
8.0
 40
8.0
 40
8.0
 40
9.0
 40
9.0
 40
9.0
 40
9.0
 10
427.6655654803631
 20
129.9806647202937
 30
0.0
 10
427.5573128810512
 20
129.840640072352
 30
0.0
 10
427.4739512381231
 20
129.7146230965175
 30
0.0
 10
427.3389925618782
 20
129.318547426839
 30
0.0
 10
427.2149171699099
 20
128.9562523408242
 30
0.0
 10
427.1359594260193
 20
128.6926730322193
 30
0.0
 10
427.1240346791325
 20
128.3716644996804
 30
0.0
 10
427.1149590763864
 20
128.1327827329746
 30
0.0
 10
427.2604216469571
 20
128.0527240143246
 30
0.0
 10
427.4736983114892
 20
128.0527240143246
 30
0.0
 10
427.5656148258582
 20
128.0527240143246
 30
0.0
 10
427.7975634271875
 20
128.058571082979
 30
0.0
 10
427.9627393971657
 20
128.2627572667278
 30
0.0
 10
428.0783715029726
 20
128.4062113022645
 30
0.0
 10
428.184942884071
 20
128.5549172849641
 30
0.0
 10
428.3278166761534
 20
129.0427234935456
 30
0.0
 10
428.4467070721266
 20
129.4505304956262
 30
0.0
 10
428.5290272524445
 20
129.7141023652125
 30
0.0
 10
428.5229421351934
 20
129.864169688324
 30
0.0
 10
428.5229421351934
 20
129.864169688324
 30
0.0
 10
428.5229421351934
 20
129.864169688324
 30
0.0
 10
428.5229421351934
 20
129.864169688324
 30
0.0
 10
428.4841699700193
 20
130.1145224217793
 30
0.0
 10
428.3024049884645
 20
130.1674212833589
 30
0.0
 10
428.19855628819
 20
130.1674212833589
 30
0.0
 10
428.0962697818308
 20
130.1674212833589
 30
0.0
 10
427.8221865789002
 20
130.1851187087137
 30
0.0
 10
427.6655654803631
 20
129.9806647202937
 30
0.0
  0
SPLINE
  5
1F7A
102
{ACAD_REACTORS
330
1F6A
102
}
330
19
100
AcDbEntity
  8
TEMPLATE
100
AcDbSpline
210
0.0
220
0.0
230
1.0
 70
    11
 71
     3
 72
    29
 73
    25
 74
     0
 42
0.000000001
 43
0.0000000001
 40
0.0
 40
0.0
 40
0.0
 40
0.0
 40
1.0
 40
1.0
 40
1.0
 40
2.0
 40
2.0
 40
2.0
 40
3.0
 40
3.0
 40
3.0
 40
4.0
 40
4.0
 40
4.0
 40
5.0
 40
5.0
 40
5.0
 40
6.0
 40
6.0
 40
6.0
 40
7.0
 40
7.0
 40
7.0
 40
8.0
 40
8.0
 40
8.0
 40
8.0
 10
427.3177318465928
 20
128.4316825021026
 30
0.0
 10
427.3169433106165
 20
128.5733958072765
 30
0.0
 10
427.3616815687433
 20
128.8251768323116
 30
0.0
 10
427.4762870899775
 20
129.1620602306375
 30
0.0
 10
427.6323874572095
 20
129.6182282929247
 30
0.0
 10
427.7260000678294
 20
129.7849590177994
 30
0.0
 10
427.8079185411404
 20
129.8661187112087
 30
0.0
 10
427.9275974730899
 20
129.9842949613922
 30
0.0
 10
428.088488568329
 20
129.9901866641584
 30
0.0
 10
428.1359495072796
 20
129.9842949613922
 30
0.0
 10
428.2034957965698
 20
129.9761864310698
 30
0.0
 10
428.2989086497016
 20
129.9319763432667
 30
0.0
 10
428.3046069379832
 20
129.7831438972502
 30
0.0
 10
428.3091596173935
 20
129.6557655810038
 30
0.0
 10
428.2724554994025
 20
129.4172111311183
 30
0.0
 10
428.1439836474154
 20
129.0427234935456
 30
0.0
 10
427.9959174203192
 20
128.6075557808912
 30
0.0
 10
427.9069765134079
 20
128.4364881081468
 30
0.0
 10
427.835680958721
 20
128.3619342632936
 30
0.0
 10
427.7013620380794
 20
128.2221699810045
 30
0.0
 10
427.5573128810512
 20
128.2355899706388
 30
0.0
 10
427.5360521657659
 20
128.2355899706388
 30
0.0
 10
427.5084385285581
 20
128.2355899706388
 30
0.0
 10
427.3181186755623
 20
128.2655543377381
 30
0.0
 10
427.3177318465928
 20
128.4316825021026
 30
0.0
  0
ARC
  5
1F81
102
{ACAD_REACTORS
102
}
330
19
100
AcDbEntity
  8
MODEL
 48
6.0
100
AcDbCircle
 10
249.3637290215852
 20
195.6157985795342
 30
0.0
 40
28.0
100
AcDbArc
 50
84.87748390021909
 51
95.12251609978091
  0
LINE
  5
1F94
330
19
100
AcDbEntity
  8
MODEL
 48
6.0
100
AcDbLine
 10
251.8637290215852
 20
221.4953271687492
 30
0.0
 11
251.8637290215852
 21
223.5039681143028
 31
0.0
  0
LINE
  5
1F95
330
19
100
AcDbEntity
  8
MODEL
 48
6.0
100
AcDbLine
 10
246.8637290215852
 20
221.4953271687492
 30
0.0
 11
246.8637290215852
 21
223.5039681143028
 31
0.0
  0
CIRCLE
  5
1F97
330
19
100
AcDbEntity
  8
MODEL
 48
6.0
100
AcDbCircle
 10
249.3637290215852
 20
214.6157985795342
 30
0.0
 40
2.5
  0
CIRCLE
  5
1F99
102
{ACAD_REACTORS
330
21FA
102
}
330
19
100
AcDbEntity
  8
MODEL
 48
6.0
100
AcDbCircle
 10
249.3637290215852
 20
214.6157985795342
 30
0.0
 40
4.5
  0
CIRCLE
  5
1F9D
330
19
100
AcDbEntity
  8
MODEL
 48
6.0
100
AcDbCircle
 10
249.3637290215852
 20
176.6157985795342
 30
0.0
 40
4.5
  0
CIRCLE
  5
1F9E
102
{ACAD_REACTORS
330
21FA
102
}
330
19
100
AcDbEntity
  8
MODEL
 48
6.0
100
AcDbCircle
 10
249.3637290215852
 20
176.6157985795342
 30
0.0
 40
2.5
  0
CIRCLE
  5
1F9F
330
19
100
AcDbEntity
  8
MODEL
 48
6.0
100
AcDbCircle
 10
268.3637290215852
 20
195.6157985795342
 30
0.0
 40
4.5
  0
CIRCLE
  5
1FA0
102
{ACAD_REACTORS
330
2209
102
}
330
19
100
AcDbEntity
  8
MODEL
 48
6.0
100
AcDbCircle
 10
268.3637290215852
 20
195.6157985795342
 30
0.0
 40
2.5
  0
CIRCLE
  5
1FA2
102
{ACAD_REACTORS
330
2209
102
}
330
19
100
AcDbEntity
  8
MODEL
 48
6.0
100
AcDbCircle
 10
230.3637290215851
 20
195.6157985795344
 30
0.0
 40
4.5
  0
CIRCLE
  5
1FA3
330
19
100
AcDbEntity
  8
MODEL
 48
6.0
100
AcDbCircle
 10
230.3637290215851
 20
195.6157985795344
 30
0.0
 40
2.5
  0
ARC
  5
1FBA
102
{ACAD_REACTORS
102
}
330
19
100
AcDbEntity
  8
MODEL
 48
6.0
100
AcDbCircle
 10
249.3637290215852
 20
195.6157985795342
 30
0.0
 40
26.00000000000001
100
AcDbArc
 50
60.61849827564899
 51
119.3815017243513
  0
ARC
  5
1FBB
330
19
100
AcDbEntity
  8
MODEL
 48
6.0
100
AcDbCircle
 10
249.3637290215852
 20
195.6157985795342
 30
0.0
 40
27.00000000000001
100
AcDbArc
 50
122.1604115930957
 51
147.8395884069041
  0
ARC
  5
1FBD
102
{ACAD_REACTORS
102
}
330
19
100
AcDbEntity
  8
MODEL
 48
6.0
100
AcDbCircle
 10
249.3637290215852
 20
195.6157985795342
 30
0.0
 40
23.0
100
AcDbArc
 50
208.9294121502286
 51
241.0705878497625
  0
ARC
  5
1FC4
330
19
100
AcDbEntity
  8
MODEL
 48
6.0
100
AcDbCircle
 10
228.7988373866802
 20
206.9883020590142
 30
0.0
 40
0.5000000000000001
100
AcDbArc
 50
224.9999999999977
 51
331.6751421570526
  0
ARC
  5
1FC6
330
19
100
AcDbEntity
  8
MODEL
 48
6.0
100
AcDbCircle
 10
237.9912255421052
 20
216.1806902144392
 30
0.0
 40
0.5000000000000001
100
AcDbArc
 50
298.3248578429329
 51
45.00000000000691
  0
ARC
  5
1FE5
330
19
100
AcDbEntity
  8
MODEL
 48
6.0
100
AcDbCircle
 10
260.7362325010652
 20
175.0509069446291
 30
0.0
 40
0.5000000000000001
100
AcDbArc
 50
118.324857842844
 51
224.9999999999977
  0
ARC
  5
1FE6
330
19
100
AcDbEntity
  8
MODEL
 48
6.0
100
AcDbCircle
 10
269.9286206564902
 20
184.243295100054
 30
0.0
 40
0.5000000000000001
100
AcDbArc
 50
45.00000000000691
 51
151.6751421569055
  0
ARC
  5
1FEB
330
19
100
AcDbEntity
  8
MODEL
 48
6.0
100
AcDbCircle
 10
237.9912255421053
 20
175.050906944629
 30
0.0
 40
0.5000000000000001
100
AcDbArc
 50
314.9999999999931
 51
61.67514215683113
  0
ARC
  5
1FEC
330
19
100
AcDbEntity
  8
MODEL
 48
6.0
100
AcDbCircle
 10
228.7988373866803
 20
184.243295100054
 30
0.0
 40
0.5000000000000001
100
AcDbArc
 50
28.3248578427361
 51
135.0000000000092
  0
ARC
  5
1FEF
330
19
100
AcDbEntity
  8
MODEL
 48
6.0
100
AcDbCircle
 10
269.9286206564902
 20
206.9883020590144
 30
0.0
 40
0.5000000000000001
100
AcDbArc
 50
208.3248578429227
 51
314.9999999999931
  0
ARC
  5
1FF0
330
19
100
AcDbEntity
  8
MODEL
 48
6.0
100
AcDbCircle
 10
260.7362325010652
 20
216.1806902144392
 30
0.0
 40
0.5000000000000001
100
AcDbArc
 50
135.0000000000023
 51
241.6751421569928
  0
ARC
  5
1FFA
330
19
100
AcDbEntity
  8
MODEL
 48
6.0
100
AcDbCircle
 10
249.3637290215852
 20
195.6157985795342
 30
0.0
 40
27.00000000000001
100
AcDbArc
 50
212.1604115930962
 51
237.8395884069043
  0
ARC
  5
1FFB
330
19
100
AcDbEntity
  8
MODEL
 48
6.0
100
AcDbCircle
 10
249.3637290215852
 20
195.6157985795342
 30
0.0
 40
27.00000000000001
100
AcDbArc
 50
302.1604115930957
 51
327.839588406904
  0
ARC
  5
1FFC
330
19
100
AcDbEntity
  8
MODEL
 48
6.0
100
AcDbCircle
 10
249.3637290215852
 20
195.6157985795342
 30
0.0
 40
27.00000000000001
100
AcDbArc
 50
32.16041159309624
 51
57.83958840690452
  0
ARC
  5
1FFE
330
19
100
AcDbEntity
  8
MODEL
 48
6.0
100
AcDbCircle
 10
249.3637290215852
 20
195.6157985795342
 30
0.0
 40
26.00000000000001
100
AcDbArc
 50
31.6576362029122
 51
58.34236379708871
  0
ARC
  5
1FFF
330
19
100
AcDbEntity
  8
MODEL
 48
6.0
100
AcDbCircle
 10
249.3637290215852
 20
195.6157985795342
 30
0.0
 40
26.00000000000001
100
AcDbArc
 50
330.6184982756484
 51
29.38150172435188
  0
ARC
  5
2000
330
19
100
AcDbEntity
  8
MODEL
 48
6.0
100
AcDbCircle
 10
249.3637290215852
 20
195.6157985795342
 30
0.0
 40
26.00000000000001
100
AcDbArc
 50
301.6576362029116
 51
328.3423637970882
  0
ARC
  5
2001
330
19
100
AcDbEntity
  8
MODEL
 48
6.0
100
AcDbCircle
 10
249.3637290215852
 20
195.6157985795342
 30
0.0
 40
26.00000000000001
100
AcDbArc
 50
240.618498275649
 51
299.3815017243513
  0
ARC
  5
2002
330
19
100
AcDbEntity
  8
MODEL
 48
6.0
100
AcDbCircle
 10
249.3637290215852
 20
195.6157985795342
 30
0.0
 40
26.00000000000001
100
AcDbArc
 50
211.6576362029121
 51
238.3423637970886
  0
ARC
  5
2003
330
19
100
AcDbEntity
  8
MODEL
 48
6.0
100
AcDbCircle
 10
249.3637290215852
 20
195.6157985795342
 30
0.0
 40
26.00000000000001
100
AcDbArc
 50
150.6184982756486
 51
209.3815017243518
  0
ARC
  5
2004
330
19
100
AcDbEntity
  8
MODEL
 48
6.0
100
AcDbCircle
 10
249.3637290215852
 20
195.6157985795342
 30
0.0
 40
26.00000000000001
100
AcDbArc
 50
121.6576362029119
 51
148.3423637970882
  0
ARC
  5
2005
330
19
100
AcDbEntity
  8
MODEL
 48
6.0
100
AcDbCircle
 10
249.3637290215852
 20
195.6157985795342
 30
0.0
 40
23.0
100
AcDbArc
 50
118.9294121502327
 51
151.0705878497676
  0
ARC
  5
2006
330
19
100
AcDbEntity
  8
MODEL
 48
6.0
100
AcDbCircle
 10
249.3637290215852
 20
195.6157985795342
 30
0.0
 40
23.0
100
AcDbArc
 50
28.92941215023246
 51
61.07058784976672
  0
ARC
  5
2007
330
19
100
AcDbEntity
  8
MODEL
 48
6.0
100
AcDbCircle
 10
249.3637290215852
 20
195.6157985795342
 30
0.0
 40
23.0
100
AcDbArc
 50
298.9294121502303
 51
331.0705878497638
  0
LINE
  5
2008
330
19
100
AcDbEntity
  8
MODEL
 48
6.0
100
AcDbLine
 10
238.3447789326985
 20
216.5342436050325
 30
0.0
 11
236.6075452802654
 21
218.2714772574658
 31
0.0
  0
LINE
  5
2009
330
19
100
AcDbEntity
  8
MODEL
 48
6.0
100
AcDbLine
 10
237.9060512405969
 20
215.558757734761
 30
0.0
 11
234.9918592397183
 21
218.4729497356398
 31
0.0
  0
LINE
  5
200A
330
19
100
AcDbEntity
  8
MODEL
 48
6.0
100
AcDbLine
 10
229.4207698663584
 20
207.0734763605225
 30
0.0
 11
226.5065778654796
 21
209.9876683614012
 31
0.0
  0
LINE
  5
200B
330
19
100
AcDbEntity
  8
MODEL
 48
6.0
100
AcDbLine
 10
228.4452839960869
 20
206.6347486684209
 30
0.0
 11
226.7080503436536
 21
208.3719823208542
 31
0.0
  0
LINE
  5
200C
330
19
100
AcDbEntity
  8
MODEL
 48
6.0
100
AcDbLine
 10
228.4452839960869
 20
184.5968484906473
 30
0.0
 11
226.7080503436536
 21
182.859614838214
 31
0.0
  0
LINE
  5
200D
330
19
100
AcDbEntity
  8
MODEL
 48
6.0
100
AcDbLine
 10
229.4207698663584
 20
184.1581207985457
 30
0.0
 11
226.5065778654798
 21
181.243928797667
 31
0.0
  0
LINE
  5
200E
330
19
100
AcDbEntity
  8
MODEL
 48
6.0
100
AcDbLine
 10
237.906051240597
 20
175.6728394243072
 30
0.0
 11
234.9918592397183
 21
172.7586474234284
 31
0.0
  0
LINE
  5
200F
330
19
100
AcDbEntity
  8
MODEL
 48
6.0
100
AcDbLine
 10
238.3447789326986
 20
174.6973535540357
 30
0.0
 11
236.6075452802655
 21
172.9601199016024
 31
0.0
  0
LINE
  5
2010
330
19
100
AcDbEntity
  8
MODEL
 48
6.0
100
AcDbLine
 10
260.3826791104718
 20
216.5342436050327
 30
0.0
 11
262.119912762905
 21
218.2714772574658
 31
0.0
  0
LINE
  5
2011
330
19
100
AcDbEntity
  8
MODEL
 48
6.0
100
AcDbLine
 10
260.8214068025733
 20
215.5587577347611
 30
0.0
 11
263.7355988034521
 21
218.4729497356398
 31
0.0
  0
LINE
  5
2012
330
19
100
AcDbEntity
  8
MODEL
 48
6.0
100
AcDbLine
 10
269.306688176812
 20
207.0734763605226
 30
0.0
 11
272.2208801776906
 21
209.9876683614013
 31
0.0
  0
LINE
  5
2013
330
19
100
AcDbEntity
  8
MODEL
 48
6.0
100
AcDbLine
 10
270.2821740470835
 20
206.634748668421
 30
0.0
 11
272.0194076995168
 21
208.3719823208543
 31
0.0
  0
LINE
  5
2014
330
19
100
AcDbEntity
  8
MODEL
 48
6.0
100
AcDbLine
 10
270.2821740470836
 20
184.5968484906474
 30
0.0
 11
272.0194076995168
 21
182.8596148382142
 31
0.0
  0
LINE
  5
2015
330
19
100
AcDbEntity
  8
MODEL
 48
6.0
100
AcDbLine
 10
269.3066881768121
 20
184.1581207985458
 30
0.0
 11
272.2208801776907
 21
181.2439287976671
 31
0.0
  0
LINE
  5
2017
330
19
100
AcDbEntity
  8
MODEL
 48
6.0
100
AcDbLine
 10
260.8214068025734
 20
175.6728394243073
 30
0.0
 11
263.7355988034522
 21
172.7586474234286
 31
0.0
  0
LINE
  5
2018
330
19
100
AcDbEntity
  8
MODEL
 48
6.0
100
AcDbLine
 10
260.3826791104719
 20
174.6973535540358
 30
0.0
 11
262.1199127629051
 21
172.9601199016025
 31
0.0
  0
CIRCLE
  5
2027
330
19
100
AcDbEntity
  8
MODEL
 48
6.0
100
AcDbCircle
 10
249.3637290215852
 20
195.6157985795342
 30
0.0
 40
11.0
  0
LINE
  5
2042
102
{ACAD_REACTORS
102
}
330
19
100
AcDbEntity
  8
MODEL
 48
6.0
100
AcDbLine
 10
362.0848063910429
 20
221.6157985795341
 30
0.0
 11
362.0848063910429
 21
169.6157985795341
 31
0.0
  0
LINE
  5
204C
102
{ACAD_REACTORS
330
222F
102
}
330
19
100
AcDbEntity
  8
MODEL
 48
6.0
100
AcDbLine
 10
345.0848063910429
 20
189.115798579534
 30
0.0
 11
345.0848063910429
 21
202.1157985795342
 31
0.0
  0
LINE
  5
204F
102
{ACAD_REACTORS
330
222F
102
}
330
19
100
AcDbEntity
  8
MODEL
 48
6.0
100
AcDbLine
 10
345.0848063910429
 20
202.1157985795342
 30
0.0
 11
359.0848063910429
 21
202.1157985795342
 31
0.0
  0
LINE
  5
2051
330
19
100
AcDbEntity
  8
MODEL
 48
6.0
100
AcDbLine
 10
362.0848063910429
 20
169.6157985795341
 30
0.0
 11
367.0848063910429
 21
169.6157985795341
 31
0.0
  0
LINE
  5
2054
330
19
100
AcDbEntity
  8
MODEL
 48
6.0
100
AcDbLine
 10
365.0867484353306
 20
169.6157985795341
 30
0.0
 11
365.0867484353306
 21
170.4704694450541
 31
0.0
  0
LINE
  5
2055
330
19
100
AcDbEntity
  8
MODEL
 48
6.0
100
AcDbLine
 10
367.0848063910429
 20
169.6157985795341
 30
0.0
 11
367.084806391043
 21
221.6157985795341
 31
0.0
  0
LINE
  5
2056
102
{ACAD_REACTORS
102
}
330
19
100
AcDbEntity
  8
MODEL
 48
6.0
100
AcDbLine
 10
362.0848063910429
 20
221.6157985795341
 30
0.0
 11
367.084806391043
 21
221.6157985795341
 31
0.0
  0
LINE
  5
20DC
102
{ACAD_REACTORS
330
20E7
102
}
330
19
100
AcDbEntity
  8
MODEL
 48
6.0
100
AcDbLine
 10
245.3637290215851
 20
202.1157985795343
 30
0.0
 11
253.3637290215851
 21
202.1157985795343
 31
0.0
  0
LINE
  5
20DF
102
{ACAD_REACTORS
330
20E7
102
}
330
19
100
AcDbEntity
  8
MODEL
 48
6.0
100
AcDbLine
 10
245.3637290215851
 20
189.1157985795343
 30
0.0
 11
253.3637290215851
 21
189.1157985795343
 31
0.0
  0
LINE
  5
20E0
102
{ACAD_REACTORS
330
20E7
102
}
330
19
100
AcDbEntity
  8
MODEL
 48
6.0
100
AcDbLine
 10
255.8637290215851
 20
199.6157985795343
 30
0.0
 11
255.8637290215851
 21
191.6157985795343
 31
0.0
  0
LINE
  5
20E1
102
{ACAD_REACTORS
330
20E7
102
}
330
19
100
AcDbEntity
  8
MODEL
 48
6.0
100
AcDbLine
 10
242.8637290215851
 20
199.6157985795343
 30
0.0
 11
242.8637290215851
 21
191.6157985795343
 31
0.0
  0
LINE
  5
20E2
102
{ACAD_REACTORS
330
20E7
102
}
330
19
100
AcDbEntity
  8
MODEL
 48
6.0
100
AcDbLine
 10
242.8637290215851
 20
199.6157985795343
 30
0.0
 11
245.3637290215851
 21
202.1157985795343
 31
0.0
  0
LINE
  5
20E3
102
{ACAD_REACTORS
330
20E7
102
}
330
19
100
AcDbEntity
  8
MODEL
 48
6.0
100
AcDbLine
 10
253.3637290215851
 20
202.1157985795343
 30
0.0
 11
255.8637290215851
 21
199.6157985795343
 31
0.0
  0
LINE
  5
20E5
102
{ACAD_REACTORS
330
20E7
102
}
330
19
100
AcDbEntity
  8
MODEL
 48
6.0
100
AcDbLine
 10
255.8637290215851
 20
191.6157985795343
 30
0.0
 11
253.3637290215851
 21
189.1157985795343
 31
0.0
  0
LINE
  5
20E6
102
{ACAD_REACTORS
330
20E7
102
}
330
19
100
AcDbEntity
  8
MODEL
 48
6.0
100
AcDbLine
 10
245.3637290215851
 20
189.1157985795343
 30
0.0
 11
242.8637290215851
 21
191.6157985795343
 31
0.0
  0
LINE
  5
20ED
330
19
100
AcDbEntity
  8
MODEL
 48
6.0
100
AcDbLine
 10
345.0848063910429
 20
189.1157985795342
 30
0.0
 11
359.0848063910429
 21
189.1157985795343
 31
0.0
  0
LINE
  5
20FB
330
19
100
AcDbEntity
  8
MODEL
 48
6.0
100
AcDbLine
 10
359.0848063910429
 20
184.6157985795341
 30
0.0
 11
359.0848063910429
 21
206.6157985795341
 31
0.0
  0
LINE
  5
20FD
330
19
100
AcDbEntity
  8
MODEL
 48
6.0
100
AcDbLine
 10
345.0848063910429
 20
199.6157985795343
 30
0.0
 11
359.0848063910429
 21
199.6157985795343
 31
0.0
  0
LINE
  5
20FE
330
19
100
AcDbEntity
  8
MODEL
 48
6.0
100
AcDbLine
 10
345.0848063910429
 20
191.6157985795342
 30
0.0
 11
359.0848063910429
 21
191.6157985795342
 31
0.0
  0
LINE
  5
2100
330
19
100
AcDbEntity
  8
MODEL
 48
6.0
100
AcDbLine
 10
366.084806391043
 20
221.6157985795341
 30
0.0
 11
366.084806391043
 21
223.5039681143028
 31
0.0
  0
LINE
  5
2101
330
19
100
AcDbEntity
  8
MODEL
 48
6.0
100
AcDbLine
 10
366.084806391043
 20
223.5039681143028
 30
0.0
 11
367.084806391043
 21
223.5039681143028
 31
0.0
  0
LINE
  5
2102
330
19
100
AcDbEntity
  8
MODEL
 48
6.0
100
AcDbLine
 10
367.084806391043
 20
223.5039681143028
 30
0.0
 11
367.084806391043
 21
221.6157985795341
 31
0.0
  0
LINE
  5
2103
330
19
100
AcDbEntity
  8
MODEL
 48
6.0
100
AcDbLine
 10
359.0848063910429
 20
184.6157985795341
 30
0.0
 11
362.0848063910429
 21
184.6157985795341
 31
0.0
  0
LINE
  5
2108
330
19
100
AcDbEntity
  8
MODEL
 48
6.0
100
AcDbLine
 10
359.0848063910429
 20
206.6157985795341
 30
0.0
 11
362.0848063910429
 21
206.6157985795341
 31
0.0
  0
CIRCLE
  5
211E
330
19
100
AcDbEntity
  8
MODEL
 48
6.0
100
AcDbCircle
 10
354.0848063910429
 20
195.6157985795341
 30
0.0
 40
3.0
  0
LINE
  5
211F
330
19
100
AcDbEntity
  8
MODEL
 48
6.0
100
AcDbLine
 10
363.0848063910429
 20
173.4846140724165
 30
0.0
 11
367.0848063910429
 21
173.4846140724165
 31
0.0
  0
LINE
  5
2120
330
19
100
AcDbEntity
  8
MODEL
 48
6.0
100
AcDbLine
 10
363.0848063910429
 20
181.969895446655
 30
0.0
 11
367.0848063910429
 21
181.969895446655
 31
0.0
  0
LINE
  5
2121
330
19
100
AcDbEntity
  8
MODEL
 48
6.0
100
AcDbLine
 10
362.0848063910429
 20
182.8596148382142
 30
0.0
 11
367.0848063910429
 21
182.8596148382142
 31
0.0
  0
LINE
  5
2122
330
19
100
AcDbEntity
  8
MODEL
 48
6.0
100
AcDbLine
 10
362.0848063910429
 20
172.9601199016025
 30
0.0
 11
367.0848063910429
 21
172.9601199016025
 31
0.0
  0
LINE
  5
2124
330
19
100
AcDbEntity
  8
MODEL
 48
6.0
100
AcDbLine
 10
363.0848063910429
 20
181.969895446655
 30
0.0
 11
363.0848063910429
 21
172.9601199016025
 31
0.0
  0
LINE
  5
2126
330
19
100
AcDbEntity
  8
MODEL
 48
6.0
100
AcDbLine
 10
362.0848063910428
 20
218.2714772574657
 30
0.0
 11
367.0848063910428
 21
218.2714772574658
 31
0.0
  0
LINE
  5
2127
330
19
100
AcDbEntity
  8
MODEL
 48
6.0
100
AcDbLine
 10
363.0848063910428
 20
209.2617017124132
 30
0.0
 11
367.0848063910428
 21
209.2617017124132
 31
0.0
  0
LINE
  5
2128
330
19
100
AcDbEntity
  8
MODEL
 48
6.0
100
AcDbLine
 10
363.0848063910428
 20
217.7469830866517
 30
0.0
 11
367.0848063910428
 21
217.7469830866518
 31
0.0
  0
LINE
  5
2129
330
19
100
AcDbEntity
  8
MODEL
 48
6.0
100
AcDbLine
 10
362.0848063910428
 20
208.371982320854
 30
0.0
 11
367.0848063910428
 21
208.3719823208541
 31
0.0
  0
LINE
  5
212A
330
19
100
AcDbEntity
  8
MODEL
 48
6.0
100
AcDbLine
 10
363.0848063910428
 20
209.2617017124132
 30
0.0
 11
363.0848063910428
 21
218.2714772574657
 31
0.0
  0
LINE
  5
212B
330
19
100
AcDbEntity
  8
MODEL
 48
6.0
100
AcDbLine
 10
365.0867484353306
 20
187.1157985795342
 30
0.0
 11
365.0867484353307
 21
204.1157985795342
 31
0.0
  0
LINE
  5
2132
330
19
100
AcDbEntity
  8
MODEL
 48
6.0
100
AcDbLine
 10
367.084806391043
 20
204.1157985795342
 30
0.0
 11
365.0867484353307
 21
204.1157985795342
 31
0.0
  0
LINE
  5
2133
330
19
100
AcDbEntity
  8
MODEL
 48
6.0
100
AcDbLine
 10
367.0848063910429
 20
187.1157985795342
 30
0.0
 11
365.0867484353306
 21
187.1157985795342
 31
0.0
  0
LINE
  5
2134
330
19
100
AcDbEntity
  8
MODEL
 48
6.0
100
AcDbLine
 10
365.0867484353306
 20
170.4704694450541
 30
0.0
 11
367.0848063910429
 21
170.4704694450541
 31
0.0
  0
LINE
  5
213D
102
{ACAD_REACTORS
102
}
330
19
100
AcDbEntity
  8
MODEL
 48
6.0
100
AcDbLine
 10
223.3637290215852
 20
287.136321760089
 30
0.0
 11
275.3637290215852
 21
287.136321760089
 31
0.0
  0
LINE
  5
213E
330
19
100
AcDbEntity
  8
MODEL
 48
6.0
100
AcDbLine
 10
275.3637290215852
 20
287.136321760089
 30
0.0
 11
275.3637290215852
 21
292.136321760089
 31
0.0
  0
LINE
  5
213F
102
{ACAD_REACTORS
330
219A
330
21B9
330
21EB
102
}
330
19
100
AcDbEntity
  8
MODEL
 48
6.0
100
AcDbLine
 10
275.3637290215852
 20
292.136321760089
 30
0.0
 11
223.3637290215852
 21
292.1363217600891
 31
0.0
  0
LINE
  5
2140
102
{ACAD_REACTORS
330
223E
102
}
330
19
100
AcDbEntity
  8
MODEL
 48
6.0
100
AcDbLine
 10
255.8637290215854
 20
270.136321760089
 30
0.0
 11
242.8637290215851
 21
270.136321760089
 31
0.0
  0
LINE
  5
2142
330
19
100
AcDbEntity
  8
MODEL
 48
6.0
100
AcDbLine
 10
255.8637290215852
 20
270.136321760089
 30
0.0
 11
255.863729021585
 21
284.136321760089
 31
0.0
  0
LINE
  5
2143
102
{ACAD_REACTORS
330
223E
102
}
330
19
100
AcDbEntity
  8
MODEL
 48
6.0
100
AcDbLine
 10
242.8637290215851
 20
270.136321760089
 30
0.0
 11
242.8637290215851
 21
284.136321760089
 31
0.0
  0
LINE
  5
2144
102
{ACAD_REACTORS
330
21CC
330
21DC
330
224D
102
}
330
19
100
AcDbEntity
  8
MODEL
 48
6.0
100
AcDbLine
 10
260.3637290215852
 20
284.136321760089
 30
0.0
 11
238.3637290215852
 21
284.136321760089
 31
0.0
  0
LINE
  5
2145
330
19
100
AcDbEntity
  8
MODEL
 48
6.0
100
AcDbLine
 10
245.3637290215851
 20
270.136321760089
 30
0.0
 11
245.3637290215851
 21
284.136321760089
 31
0.0
  0
LINE
  5
2146
330
19
100
AcDbEntity
  8
MODEL
 48
6.0
100
AcDbLine
 10
253.3637290215851
 20
270.136321760089
 30
0.0
 11
253.3637290215851
 21
284.136321760089
 31
0.0
  0
LINE
  5
214A
102
{ACAD_REACTORS
330
21B9
102
}
330
19
100
AcDbEntity
  8
MODEL
 48
6.0
100
AcDbLine
 10
223.3637290215852
 20
287.136321760089
 30
0.0
 11
223.3637290215852
 21
292.1363217600891
 31
0.0
  0
LINE
  5
214B
330
19
100
AcDbEntity
  8
MODEL
 48
6.0
100
AcDbLine
 10
260.3637290215852
 20
284.136321760089
 30
0.0
 11
260.3637290215852
 21
287.136321760089
 31
0.0
  0
LINE
  5
214C
330
19
100
AcDbEntity
  8
MODEL
 48
6.0
100
AcDbLine
 10
238.3637290215852
 20
284.136321760089
 30
0.0
 11
238.3637290215852
 21
287.136321760089
 31
0.0
  0
LINE
  5
214F
330
19
100
AcDbEntity
  8
MODEL
 48
6.0
100
AcDbLine
 10
272.0194076995169
 20
287.136321760089
 30
0.0
 11
272.0194076995169
 21
292.136321760089
 31
0.0
  0
LINE
  5
2150
330
19
100
AcDbEntity
  8
MODEL
 48
6.0
100
AcDbLine
 10
263.0096321544643
 20
288.136321760089
 30
0.0
 11
263.0587166707155
 21
292.136321760089
 31
0.0
  0
LINE
  5
2151
330
19
100
AcDbEntity
  8
MODEL
 48
6.0
100
AcDbLine
 10
271.4949135287029
 20
288.136321760089
 30
0.0
 11
271.4949135287029
 21
292.136321760089
 31
0.0
  0
LINE
  5
2152
330
19
100
AcDbEntity
  8
MODEL
 48
6.0
100
AcDbLine
 10
262.1199127629052
 20
287.136321760089
 30
0.0
 11
262.1199127629052
 21
292.136321760089
 31
0.0
  0
LINE
  5
2153
330
19
100
AcDbEntity
  8
MODEL
 48
6.0
100
AcDbLine
 10
263.0096321544643
 20
288.136321760089
 30
0.0
 11
272.0194076995169
 21
288.136321760089
 31
0.0
  0
LINE
  5
2154
330
19
100
AcDbEntity
  8
MODEL
 48
6.0
100
AcDbLine
 10
226.7080503436536
 20
287.1363217600888
 30
0.0
 11
226.7080503436536
 21
292.1363217600888
 31
0.0
  0
LINE
  5
2155
330
19
100
AcDbEntity
  8
MODEL
 48
6.0
100
AcDbLine
 10
235.7178258887062
 20
288.1363217600889
 30
0.0
 11
235.7178258887062
 21
292.1363217600889
 31
0.0
  0
LINE
  5
2156
330
19
100
AcDbEntity
  8
MODEL
 48
6.0
100
AcDbLine
 10
227.2325445144676
 20
288.1363217600888
 30
0.0
 11
227.2325445144676
 21
292.1363217600888
 31
0.0
  0
LINE
  5
2157
330
19
100
AcDbEntity
  8
MODEL
 48
6.0
100
AcDbLine
 10
236.6075452802654
 20
287.1363217600889
 30
0.0
 11
236.6075452802653
 21
292.1363217600889
 31
0.0
  0
LINE
  5
2158
330
19
100
AcDbEntity
  8
MODEL
 48
6.0
100
AcDbLine
 10
235.7178258887062
 20
288.1363217600889
 30
0.0
 11
226.7080503436536
 21
288.1363217600888
 31
0.0
  0
LINE
  5
2159
330
19
100
AcDbEntity
  8
MODEL
 48
6.0
100
AcDbLine
 10
275.3637290215852
 20
290.1382638043767
 30
0.0
 11
274.5090581560652
 21
290.1382638043767
 31
0.0
  0
LINE
  5
215D
330
19
100
AcDbEntity
  8
MODEL
 48
6.0
100
AcDbLine
 10
274.5090581560652
 20
290.1382638043767
 30
0.0
 11
274.5090581560652
 21
292.136321760089
 31
0.0
  0
LINE
  5
2177
330
19
100
AcDbEntity
  8
MODEL
 48
6.0
100
AcDbLine
 10
246.8637290215853
 20
291.1363217600891
 30
0.0
 11
246.8637290215853
 21
292.1363217600891
 31
0.0
  0
LINE
  5
217A
330
19
100
AcDbEntity
  8
MODEL
 48
6.0
100
AcDbLine
 10
251.8637290215852
 20
291.1363217600891
 30
0.0
 11
251.8637290215852
 21
292.136321760089
 31
0.0
  0
LINE
  5
2181
330
19
100
AcDbEntity
  8
MODEL
 48
6.0
100
AcDbLine
 10
246.8637290215853
 20
291.1363217600891
 30
0.0
 11
251.8637290215852
 21
291.1363217600891
 31
0.0
  0
LINE
  5
2185
330
19
100
AcDbEntity
  8
MODEL
 48
6.0
100
AcDbLine
 10
223.3637290215852
 20
290.1382638043767
 30
0.0
 11
224.2183998871052
 21
290.1382638043767
 31
0.0
  0
LINE
  5
2186
330
19
100
AcDbEntity
  8
MODEL
 48
6.0
100
AcDbLine
 10
224.2183998871052
 20
290.1382638043767
 30
0.0
 11
224.2183998871052
 21
292.136321760089
 31
0.0
  0
DIMENSION
  5
2198
102
{ACAD_REACTORS
330
219A
102
}
102
{ACAD_XDICTIONARY
360
2199
102
}
330
19
100
AcDbEntity
  8
DIM
 48
6.0
100
AcDbDimension
  2
*D23
 10
275.3637290215852
 20
302.2880332462007
 30
0.0
 11
249.3637290215852
 21
305.0380332462007
 31
0.0
 70
    32
 71
     5
 42
52.0
 73
     0
 74
     0
 75
     0
  3
tfrom線あり
100
AcDbAlignedDimension
 13
223.3637290215852
 23
292.1363217600891
 33
0.0
 14
275.3637290215852
 24
292.136321760089
 34
0.0
100
AcDbRotatedDimension
1001
ACAD
1000
DSTYLE
1002
{
1070
     3
1000
%%c<>
1070
   144
1040
1.0
1002
}
  0
DIMENSION
  5
21B7
102
{ACAD_REACTORS
330
21B9
102
}
102
{ACAD_XDICTIONARY
360
21B8
102
}
330
19
100
AcDbEntity
  8
DIM
 48
6.0
100
AcDbDimension
  2
*D24
 10
209.8292072686377
 20
287.136321760089
 30
0.0
 11
207.0792072686377
 21
289.636321760089
 31
0.0
 70
    32
 71
     5
 42
5.000000000000057
 73
     0
 74
     0
 75
     0
  3
tfrom線あり
100
AcDbAlignedDimension
 13
223.3637290215852
 23
292.1363217600891
 33
0.0
 14
223.3637290215852
 24
287.136321760089
 34
0.0
 50
90.0
100
AcDbRotatedDimension
1001
ACAD
1000
DSTYLE
1002
{
1070
   144
1040
1.0
1002
}
  0
DIMENSION
  5
21CA
102
{ACAD_REACTORS
330
21CC
102
}
102
{ACAD_XDICTIONARY
360
21CB
102
}
330
19
100
AcDbEntity
  8
DIM
 48
6.0
100
AcDbDimension
  2
*D25
 10
209.8292072686377
 20
287.136321760089
 30
0.0
 11
209.8292072686377
 21
285.636321760089
 31
0.0
 70
   160
 71
     5
 42
2.999999999999999
 73
     0
 74
     0
 75
     0
  3
tfrom線あり
100
AcDbAlignedDimension
 13
238.3637290215852
 23
284.136321760089
 33
0.0
 14
223.3637290215852
 24
287.136321760089
 34
0.0
 50
90.0
100
AcDbRotatedDimension
1001
ACAD
1000
DSTYLE
1002
{
1070
   144
1040
1.0
1002
}
  0
DIMENSION
  5
21DA
102
{ACAD_REACTORS
330
21DC
102
}
102
{ACAD_XDICTIONARY
360
21DB
102
}
330
19
100
AcDbEntity
  8
DIM
 48
6.0
100
AcDbDimension
  2
*D26
 10
209.8292072686377
 20
270.136321760089
 30
0.0
 11
207.0792072686377
 21
277.136321760089
 31
0.0
 70
    32
 71
     5
 42
14.0
 73
     0
 74
     0
 75
     0
  3
tfrom線あり
100
AcDbAlignedDimension
 13
238.3637290215852
 23
284.136321760089
 33
0.0
 14
238.3637290215852
 24
270.136321760089
 34
0.0
 50
90.0
100
AcDbRotatedDimension
1001
ACAD
1000
DSTYLE
1002
{
1070
   144
1040
1.0
1002
}
  0
DIMENSION
  5
21E9
102
{ACAD_REACTORS
330
21EB
102
}
102
{ACAD_XDICTIONARY
360
21EA
102
}
330
19
100
AcDbEntity
  8
DIM
 48
6.0
100
AcDbDimension
  2
*D27
 10
290.1329455697362
 20
270.136321760089
 30
0.0
 11
287.3829455697362
 21
281.136321760089
 31
0.0
 70
    32
 71
     5
 42
22.0
 73
     0
 74
     0
 75
     0
  3
tfrom線あり
100
AcDbAlignedDimension
 13
275.3637290215852
 23
292.136321760089
 33
0.0
 14
260.3637290215852
 24
270.136321760089
 34
0.0
 50
90.0
100
AcDbRotatedDimension
1001
ACAD
1000
DSTYLE
1002
{
1070
   144
1040
1.0
1002
}
  0
DIMENSION
  5
21F8
102
{ACAD_REACTORS
330
21FA
102
}
102
{ACAD_XDICTIONARY
360
21F9
102
}
330
19
100
AcDbEntity
  8
DIM
 48
6.0
100
AcDbDimension
  2
*D28
 10
209.8292072686377
 20
176.6157985795342
 30
0.0
 11
207.0792072686377
 21
195.6157985795342
 31
0.0
 70
    32
 71
     5
 42
38.0
 73
     0
 74
     0
 75
     0
  3
tfrom線あり
100
AcDbAlignedDimension
 13
249.3637290215852
 23
214.6157985795342
 33
0.0
 14
249.3637290215852
 24
176.6157985795342
 34
0.0
 50
90.0
100
AcDbRotatedDimension
1001
ACAD
1000
DSTYLE
1002
{
1070
   144
1040
1.0
1002
}
  0
DIMENSION
  5
2207
102
{ACAD_REACTORS
330
2209
102
}
102
{ACAD_XDICTIONARY
360
2208
102
}
330
19
100
AcDbEntity
  8
DIM
 48
6.0
100
AcDbDimension
  2
*D29
 10
268.3637290215852
 20
230.6982679128674
 30
0.0
 11
249.3637290215852
 21
233.4482679128674
 31
0.0
 70
    32
 71
     5
 42
38.00000000000011
 73
     0
 74
     0
 75
     0
  3
tfrom線あり
100
AcDbAlignedDimension
 13
230.3637290215851
 23
195.6157985795344
 33
0.0
 14
268.3637290215852
 24
195.6157985795342
 34
0.0
100
AcDbRotatedDimension
1001
ACAD
1000
DSTYLE
1002
{
1070
   144
1040
1.0
1002
}
  0
DIMENSION
  5
221D
330
19
100
AcDbEntity
  8
DIM
 48
6.0
100
AcDbDimension
  2
*D30
 10
354.0848063910428
 20
213.006069316168
 30
0.0
 11
349.5848063910428
 21
213.006069316168
 31
0.0
 70
   160
 71
     5
 42
9.0
 73
     0
 74
     0
 75
     0
 52
-90.0
  3
tfrom線あり
100
AcDbAlignedDimension
 13
345.0848063910429
 23
202.1157985795343
 33
0.0
 14
354.0848063910429
 24
202.1157985795343
 34
0.0
 50
0.0000000000002395
100
AcDbRotatedDimension
1001
ACAD
1000
DSTYLE
1002
{
1070
   144
1040
1.0
1002
}
  0
DIMENSION
  5
222D
102
{ACAD_REACTORS
330
222F
102
}
102
{ACAD_XDICTIONARY
360
222E
102
}
330
19
100
AcDbEntity
  8
DIM
 48
6.0
100
AcDbDimension
  2
*D31
 10
333.7219537830695
 20
189.115798579534
 30
0.0
 11
330.9719537830695
 21
195.6157985795341
 31
0.0
 70
    32
 71
     5
 42
13.00000000000028
 73
     0
 74
     0
 75
     0
  3
tfrom線あり
100
AcDbAlignedDimension
 13
345.0848063910429
 23
202.1157985795342
 33
0.0
 14
345.0848063910429
 24
189.115798579534
 34
0.0
 50
90.0
100
AcDbRotatedDimension
1001
ACAD
1000
DSTYLE
1002
{
1070
   144
1040
1.0
1002
}
  0
DIMENSION
  5
223C
102
{ACAD_REACTORS
330
223E
102
}
102
{ACAD_XDICTIONARY
360
223D
102
}
330
19
100
AcDbEntity
  8
DIM
 48
6.0
100
AcDbDimension
  2
*D32
 10
255.8637290215854
 20
258.6893759828346
 30
0.0
 11
249.3637290215853
 21
261.4393759828346
 31
0.0
 70
    32
 71
     5
 42
13.00000000000028
 73
     0
 74
     0
 75
     0
  3
tfrom線あり
100
AcDbAlignedDimension
 13
242.8637290215851
 23
270.136321760089
 33
0.0
 14
255.8637290215854
 24
270.136321760089
 34
0.0
100
AcDbRotatedDimension
1001
ACAD
1000
DSTYLE
1002
{
1070
   144
1040
1.0
1002
}
  0
DIMENSION
  5
224B
102
{ACAD_REACTORS
330
224D
102
}
102
{ACAD_XDICTIONARY
360
224C
102
}
330
19
100
AcDbEntity
  8
DIM
 48
6.0
100
AcDbDimension
  2
*D33
 10
260.3637290215852
 20
249.143989316168
 30
0.0
 11
249.3637290215852
 21
251.893989316168
 31
0.0
 70
    32
 71
     5
 42
22.0
 73
     0
 74
     0
 75
     0
  3
tfrom線あり
100
AcDbAlignedDimension
 13
238.3637290215852
 23
284.136321760089
 33
0.0
 14
260.3637290215852
 24
284.136321760089
 34
0.0
100
AcDbRotatedDimension
1001
ACAD
1000
DSTYLE
1002
{
1070
     3
1000
%%c<>
1070
   144
1040
1.0
1002
}
  0
LINE
  5
225D
330
19
100
AcDbEntity
  8
DIM
 48
6.0
100
AcDbLine
 10
270.1822948622308
 20
193.9003341283615
 30
0.0
 11
282.3520337830697
 21
177.0585493161682
 31
0.0
  0
LINE
  5
225E
330
19
100
AcDbEntity
  8
DIM
 48
6.0
100
AcDbLine
 10
282.3520337830697
 20
177.0585493161682
 30
0.0
 11
290.2957654950696
 21
177.0585493161682
 31
0.0
  0
TEXT
  5
2290
330
19
100
AcDbEntity
  8
DIM
100
AcDbText
 10
284.3575937830696
 20
179.4198959828348
 30
0.0
 40
2.5
  1
%%c5
  7
ＭＳ ゴシック
100
AcDbText
  0
ENDSEC
  0
SECTION
  2
OBJECTS
  0
DICTIONARY
  5
C
330
0
100
AcDbDictionary
281
     1
  3
ACAD_COLOR
350
1D3E
  3
ACAD_DETAILVIEWSTYLE
350
1CF6
  3
ACAD_FIELDLIST
350
1DB5
  3
ACAD_GROUP
350
D
  3
ACAD_LAYOUT
350
1CB
  3
ACAD_MATERIAL
350
1D20
  3
ACAD_MLEADERSTYLE
350
1D26
  3
ACAD_MLINESTYLE
350
E
  3
ACAD_PLOTSETTINGS
350
1CC
  3
ACAD_PLOTSTYLENAME
350
1C9
  3
ACAD_SCALELIST
350
1BFE
  3
ACAD_SECTIONVIEWSTYLE
350
1CF7
  3
ACAD_TABLESTYLE
350
1D24
  3
ACAD_VISUALSTYLE
350
1D07
  3
AcadDim
350
400
  3
ACDB_RECOMPOSE_DATA
350
22B2
  3
AcDbVariableDictionary
350
1CF1
  3
APPDATA
350
1C41
  0
SUN
  5
1F1D
330
1BFD
100
AcDbSun
 90
        1
290
     0
 63
     7
421
 16777215
 40
1.0
291
     1
 91
  2455826
 92
 54000000
292
     0
 70
     2
 71
   256
280
     1
  0
DICTIONARY
  5
1CC6
330
2
100
AcDbDictionary
280
     1
281
     1
  3
ACAD_LAYERSTATES
360
1CC7
  0
DICTIONARY
  5
1F0D
330
1F0B
100
AcDbDictionary
280
     1
281
     1
  3
ACAD_FIELD
360
1F7B
  0
DICTIONARY
  5
2199
330
2198
100
AcDbDictionary
280
     1
281
     1
  3
ACAD_DIMASSOC
360
219A
  0
DICTIONARY
  5
21B8
330
21B7
100
AcDbDictionary
280
     1
281
     1
  3
ACAD_DIMASSOC
360
21B9
  0
DICTIONARY
  5
21CB
330
21CA
100
AcDbDictionary
280
     1
281
     1
  3
ACAD_DIMASSOC
360
21CC
  0
DICTIONARY
  5
21DB
330
21DA
100
AcDbDictionary
280
     1
281
     1
  3
ACAD_DIMASSOC
360
21DC
  0
DICTIONARY
  5
21EA
330
21E9
100
AcDbDictionary
280
     1
281
     1
  3
ACAD_DIMASSOC
360
21EB
  0
DICTIONARY
  5
21F9
330
21F8
100
AcDbDictionary
280
     1
281
     1
  3
ACAD_DIMASSOC
360
21FA
  0
DICTIONARY
  5
2208
330
2207
100
AcDbDictionary
280
     1
281
     1
  3
ACAD_DIMASSOC
360
2209
  0
DICTIONARY
  5
222E
330
222D
100
AcDbDictionary
280
     1
281
     1
  3
ACAD_DIMASSOC
360
222F
  0
DICTIONARY
  5
223D
330
223C
100
AcDbDictionary
280
     1
281
     1
  3
ACAD_DIMASSOC
360
223E
  0
DICTIONARY
  5
224C
330
224B
100
AcDbDictionary
280
     1
281
     1
  3
ACAD_DIMASSOC
360
224D
  0
DICTIONARY
  5
1D3E
102
{ACAD_REACTORS
330
C
102
}
330
C
100
AcDbDictionary
281
     1
  0
DICTIONARY
  5
1CF6
102
{ACAD_REACTORS
330
C
102
}
330
C
100
AcDbDictionary
281
     1
  0
FIELDLIST
  5
1DB5
102
{ACAD_REACTORS
330
C
102
}
330
C
100
AcDbIdSet
 90
        2
330
1F0F
330
1F0C
100
AcDbFieldList
  0
DICTIONARY
  5
D
102
{ACAD_REACTORS
330
C
102
}
330
C
100
AcDbDictionary
281
     1
  3
*A3
350
20E7
  0
DICTIONARY
  5
1CB
102
{ACAD_REACTORS
330
C
102
}
330
C
100
AcDbDictionary
281
     1
  3
Model
350
1CD
  3
Sheet1
350
1E9A
  0
DICTIONARY
  5
1D20
102
{ACAD_REACTORS
330
C
102
}
330
C
100
AcDbDictionary
281
     1
  3
ByBlock
350
1D22
  3
ByLayer
350
1D21
  3
Global
350
1D23
  0
DICTIONARY
  5
1D26
102
{ACAD_REACTORS
330
C
102
}
330
C
100
AcDbDictionary
281
     1
  3
Standard
350
1D27
  0
DICTIONARY
  5
E
102
{ACAD_REACTORS
330
C
102
}
330
C
100
AcDbDictionary
281
     1
  3
STANDARD
350
1C
  0
DICTIONARY
  5
1CC
102
{ACAD_REACTORS
330
C
102
}
330
C
100
AcDbDictionary
281
     1
  0
ACDBDICTIONARYWDFLT
  5
1C9
102
{ACAD_REACTORS
330
C
102
}
330
C
100
AcDbDictionary
281
     1
  3
Normal
350
1CA
100
AcDbDictionaryWithDefault
340
1CA
  0
DICTIONARY
  5
1BFE
102
{ACAD_REACTORS
330
C
102
}
330
C
100
AcDbDictionary
281
     1
  3
A0
350
1BFF
  3
A1
350
1C00
  3
A2
350
1C01
  3
A3
350
1C02
  3
A4
350
1C03
  3
A5
350
1C04
  3
A6
350
1C05
  3
A7
350
1C06
  3
A8
350
1C07
  3
A9
350
1C08
  3
B0
350
1C09
  3
B1
350
1C0A
  3
B2
350
1C0B
  3
B3
350
1C0C
  3
B4
350
1C0D
  3
B5
350
1C0E
  3
B6
350
1C0F
  3
B7
350
1C10
  3
B8
350
1C11
  3
B9
350
1C12
  3
C0
350
1C13
  3
C1
350
1C14
  3
C2
350
1C15
  3
C3
350
1C16
  3
C4
350
1C17
  3
C5
350
1C18
  3
C6
350
1C19
  3
C7
350
1C1A
  3
C8
350
1C1B
  3
C9
350
1C1C
  3
D0
350
1C1D
  3
D1
350
1C1E
  3
D2
350
1C1F
  0
DICTIONARY
  5
1CF7
102
{ACAD_REACTORS
330
C
102
}
330
C
100
AcDbDictionary
281
     1
  0
DICTIONARY
  5
1D24
102
{ACAD_REACTORS
330
C
102
}
330
C
100
AcDbDictionary
281
     1
  3
Standard
350
1D25
  0
DICTIONARY
  5
1D07
102
{ACAD_REACTORS
330
C
102
}
330
C
100
AcDbDictionary
281
     1
  3
2dWireframe
350
1D0C
  3
Basic
350
1D0F
  3
Brighten
350
1D13
  3
ColorChange
350
1D17
  3
Conceptual
350
1D11
  3
Dim
350
1D12
  3
EdgeColorOff
350
1D1A
  3
Facepattern
350
1D16
  3
Flat
350
1D08
  3
FlatWithEdges
350
1D09
  3
Gouraud
350
1D0A
  3
GouraudWithEdges
350
1D0B
  3
Hidden
350
1D0E
  3
JitterOff
350
1D18
  3
Linepattern
350
1D15
  3
OverhangOff
350
1D19
  3
Realistic
350
1D10
  3
Shaded
350
1D1F
  3
Shaded with edges
350
1D1E
  3
Shades of Gray
350
1D1B
  3
Sketchy
350
1D1C
  3
Thicken
350
1D14
  3
Wireframe
350
1D0D
  3
X-Ray
350
1D1D
  0
XRECORD
  5
400
102
{ACAD_REACTORS
330
C
102
}
330
C
100
AcDbXrecord
280
     1
 90
   990106
  3

 60
     0
 61
     0
 62
     4
 63
     4
 64
     1
 65
     0
 66
     0
 67
     3
 68
     1
 69
     0
 70
     0
 71
     0
 72
     0
 40
0.0
170
     2
340
0
  0
XRECORD
  5
22B2
102
{ACAD_REACTORS
330
C
102
}
330
C
100
AcDbXrecord
280
     1
 90
        1
330
1D25
  0
DICTIONARY
  5
1CF1
102
{ACAD_REACTORS
330
C
102
}
330
C
100
AcDbDictionary
281
     1
  3
CANNOSCALE
350
1E13
  3
CMLEADERSTYLE
350
1E15
  3
CTABLESTYLE
350
1E14
  3
MSLTSCALE
350
1E16
  3
XCLIPFRAME
350
1F21
  0
DICTIONARY
  5
1C41
102
{ACAD_REACTORS
330
C
102
}
330
C
100
AcDbDictionary
281
     1
  0
DICTIONARY
  5
1CC7
102
{ACAD_REACTORS
330
1CC6
102
}
330
1CC6
100
AcDbDictionary
281
     1
  0
DICTIONARY
  5
1F7B
102
{ACAD_REACTORS
330
1F0D
102
}
330
1F0D
100
AcDbDictionary
280
     1
281
     1
  3
TEXT
360
1F0C
  0
DIMASSOC
  5
219A
102
{ACAD_REACTORS
330
2199
102
}
330
2199
100
AcDbDimAssoc
330
2198
 90
        3
 70
     0
 71
     1
  1
AcDbOsnapPointRef
 72
     1
331
213F
 73
     0
 91
        0
 40
0.0
 10
0.0
 20
0.0
 30
0.0
 75
     0
  1
AcDbOsnapPointRef
 72
    13
331
213F
 73
     0
 91
        0
 40
0.0
 10
0.0
 20
0.0
 30
0.0
 75
     0
  0
DIMASSOC
  5
21B9
102
{ACAD_REACTORS
330
21B8
102
}
330
21B8
100
AcDbDimAssoc
330
21B7
 90
        3
 70
     0
 71
     1
  1
AcDbOsnapPointRef
 72
     1
331
213F
 73
     0
 91
        0
 40
0.0
 10
0.0
 20
0.0
 30
0.0
 75
     0
  1
AcDbOsnapPointRef
 72
    13
331
214A
 73
     0
 91
        0
 40
0.0
 10
0.0
 20
0.0
 30
0.0
 75
     0
  0
DIMASSOC
  5
21CC
102
{ACAD_REACTORS
330
21CB
102
}
330
21CB
100
AcDbDimAssoc
330
21CA
 90
        1
 70
     0
 71
     1
  1
AcDbOsnapPointRef
 72
     1
331
2144
 73
     0
 91
        0
 40
0.0
 10
0.0
 20
0.0
 30
0.0
 75
     0
  0
DIMASSOC
  5
21DC
102
{ACAD_REACTORS
330
21DB
102
}
330
21DB
100
AcDbDimAssoc
330
21DA
 90
        1
 70
     0
 71
     1
  1
AcDbOsnapPointRef
 72
     1
331
2144
 73
     0
 91
        0
 40
0.0
 10
0.0
 20
0.0
 30
0.0
 75
     0
  0
DIMASSOC
  5
21EB
102
{ACAD_REACTORS
330
21EA
102
}
330
21EA
100
AcDbDimAssoc
330
21E9
 90
        1
 70
     0
 71
     1
  1
AcDbOsnapPointRef
 72
    13
331
213F
 73
     0
 91
        0
 40
0.0
 10
0.0
 20
0.0
 30
0.0
 75
     0
  0
DIMASSOC
  5
21FA
102
{ACAD_REACTORS
330
21F9
102
}
330
21F9
100
AcDbDimAssoc
330
21F8
 90
        3
 70
     0
 71
     1
  1
AcDbOsnapPointRef
 72
     3
331
1F99
 73
     0
 91
        0
 40
0.0
 10
0.0
 20
0.0
 30
0.0
 75
     0
  1
AcDbOsnapPointRef
 72
     3
331
1F9E
 73
     0
 91
        0
 40
0.0
 10
0.0
 20
0.0
 30
0.0
 75
     0
  0
DIMASSOC
  5
2209
102
{ACAD_REACTORS
330
2208
102
}
330
2208
100
AcDbDimAssoc
330
2207
 90
        3
 70
     0
 71
     1
  1
AcDbOsnapPointRef
 72
     3
331
1FA2
 73
     0
 91
        0
 40
0.0
 10
0.0
 20
0.0
 30
0.0
 75
     0
  1
AcDbOsnapPointRef
 72
     3
331
1FA0
 73
     0
 91
        0
 40
0.0
 10
0.0
 20
0.0
 30
0.0
 75
     0
  0
DIMASSOC
  5
222F
102
{ACAD_REACTORS
330
222E
102
}
330
222E
100
AcDbDimAssoc
330
222D
 90
        3
 70
     0
 71
     1
  1
AcDbOsnapPointRef
 72
    13
331
204F
 73
     0
 91
        0
 40
0.0
 10
0.0
 20
0.0
 30
0.0
 75
     0
  1
AcDbOsnapPointRef
 72
    13
331
204C
 73
     0
 91
        0
 40
0.0
 10
0.0
 20
0.0
 30
0.0
 75
     0
  0
DIMASSOC
  5
223E
102
{ACAD_REACTORS
330
223D
102
}
330
223D
100
AcDbDimAssoc
330
223C
 90
        3
 70
     0
 71
     1
  1
AcDbOsnapPointRef
 72
    13
331
2143
 73
     0
 91
        0
 40
0.0
 10
0.0
 20
0.0
 30
0.0
 75
     0
  1
AcDbOsnapPointRef
 72
    13
331
2140
 73
     0
 91
        0
 40
0.0
 10
0.0
 20
0.0
 30
0.0
 75
     0
  0
DIMASSOC
  5
224D
102
{ACAD_REACTORS
330
224C
102
}
330
224C
100
AcDbDimAssoc
330
224B
 90
        3
 70
     0
 71
     1
  1
AcDbOsnapPointRef
 72
     1
331
2144
 73
     0
 91
        0
 40
0.0
 10
0.0
 20
0.0
 30
0.0
 75
     0
  1
AcDbOsnapPointRef
 72
    13
331
2144
 73
     0
 91
        0
 40
0.0
 10
0.0
 20
0.0
 30
0.0
 75
     0
  0
GROUP
  5
20E7
102
{ACAD_REACTORS
330
D
102
}
330
D
100
AcDbGroup
300

 70
     1
 71
     1
340
20DC
340
20E0
340
20E1
340
20E2
340
20E3
340
20E5
340
20E6
340
20DF
  0
LAYOUT
  5
1CD
102
{ACAD_REACTORS
330
1CB
102
}
330
1CB
100
AcDbPlotSettings
  1

  2
none_device
  4
ISO_A3_(420.00_x_297.00_MM)
  6

 40
7.5
 41
20.0
 42
7.5
 43
20.0
 44
420.0
 45
297.0
 46
0.0
 47
0.0
 48
0.0
 49
0.0
140
0.0
141
0.0
142
1.0
143
1.279621749408983
 70
  1712
 72
     1
 73
     0
 74
     0
  7
monochrome.ctb
 75
     0
 76
     0
 77
     2
 78
   300
147
0.7814809340821756
148
-33.98857142857116
149
-118.1483852462006
100
AcDbLayout
  1
Model
 70
     1
 71
     0
 10
144.6119756838904
 20
120.2483852462006
 11
441.6119756838901
 21
330.2483852462006
 12
0.0
 22
0.0
 32
0.0
 14
144.6119756838904
 24
120.2483852462006
 34
0.0
 15
441.6119756838902
 25
330.2483852462006
 35
0.0
146
0.0
 13
0.0
 23
0.0
 33
0.0
 16
1.0
 26
0.0
 36
0.0
 17
0.0
 27
1.0
 37
0.0
 76
     0
330
19
331
1BFD
  0
LAYOUT
  5
1E9A
102
{ACAD_REACTORS
330
1CB
102
}
330
1CB
100
AcDbPlotSettings
  1

  2
none_device
  4

  6

 40
0.0
 41
0.0
 42
0.0
 43
0.0
 44
0.0
 45
0.0
 46
0.0
 47
0.0
 48
0.0
 49
0.0
140
0.0
141
0.0
142
1.0
143
1.0
 70
   688
 72
     1
 73
     0
 74
     5
  7

 75
    16
 76
     0
 77
     2
 78
   300
147
1.0
148
0.0
149
0.0
100
AcDbLayout
  1
Sheet1
 70
     1
 71
     1
 10
0.0
 20
0.0
 11
0.0
 21
0.0
 12
0.0
 22
0.0
 32
0.0
 14
0.0
 24
0.0
 34
0.0
 15
0.0
 25
0.0
 35
0.0
146
0.0
 13
0.0
 23
0.0
 33
0.0
 16
1.0
 26
0.0
 36
0.0
 17
0.0
 27
1.0
 37
0.0
 76
     0
330
1E99
  0
MATERIAL
  5
1D22
102
{ACAD_REACTORS
330
1D20
102
}
330
1D20
100
AcDbMaterial
  1
ByBlock
 72
     1
 94
      127
  0
MATERIAL
  5
1D21
102
{ACAD_REACTORS
330
1D20
102
}
330
1D20
100
AcDbMaterial
  1
ByLayer
 72
     1
 94
      127
  0
MATERIAL
  5
1D23
102
{ACAD_REACTORS
330
1D20
102
}
330
1D20
100
AcDbMaterial
  1
Global
 72
     1
 94
      127
  0
MLEADERSTYLE
  5
1D27
102
{ACAD_REACTORS
330
1D26
102
}
330
1D26
100
AcDbMLeaderStyle
170
     2
171
     1
172
     0
 90
        2
 40
0.0
 41
0.0
173
     1
 91
-1056964608
340
13
 92
       -2
290
     1
 42
2.0
291
     1
 43
8.0
  3
Standard
341
0
 44
4.0
300

342
10
174
     1
178
     1
175
     1
176
     0
 93
-1056964608
 45
4.0
292
     0
297
     0
 46
4.0
343
0
 94
-1056964608
 47
1.0
 49
1.0
140
1.0
293
     1
141
0.0
294
     1
177
     0
142
1.0
295
     0
296
     0
143
3.75
1001
ACAD_MLEADERVER
1070
     2
  0
MLINESTYLE
  5
1C
102
{ACAD_REACTORS
330
E
102
}
330
E
100
AcDbMlineStyle
  2
STANDARD
 70
     0
  3

 62
     0
 51
90.0
 52
90.0
 71
     2
 49
0.5
 62
   256
  6
BYLAYER
 49
-0.5
 62
   256
  6
BYLAYER
  0
ACDBPLACEHOLDER
  5
1CA
102
{ACAD_REACTORS
330
1C9
102
}
330
1C9
  0
SCALE
  5
1BFF
102
{ACAD_REACTORS
330
1BFE
102
}
330
1BFE
100
AcDbScale
 70
     0
300
1:1
140
1.0
141
1.0
290
     1
  0
SCALE
  5
1C00
102
{ACAD_REACTORS
330
1BFE
102
}
330
1BFE
100
AcDbScale
 70
     0
300
1:2
140
1.0
141
2.0
290
     0
  0
SCALE
  5
1C01
102
{ACAD_REACTORS
330
1BFE
102
}
330
1BFE
100
AcDbScale
 70
     0
300
1:4
140
1.0
141
4.0
290
     0
  0
SCALE
  5
1C02
102
{ACAD_REACTORS
330
1BFE
102
}
330
1BFE
100
AcDbScale
 70
     0
300
1:5
140
1.0
141
5.0
290
     0
  0
SCALE
  5
1C03
102
{ACAD_REACTORS
330
1BFE
102
}
330
1BFE
100
AcDbScale
 70
     0
300
1:8
140
1.0
141
8.0
290
     0
  0
SCALE
  5
1C04
102
{ACAD_REACTORS
330
1BFE
102
}
330
1BFE
100
AcDbScale
 70
     0
300
1:10
140
1.0
141
10.0
290
     0
  0
SCALE
  5
1C05
102
{ACAD_REACTORS
330
1BFE
102
}
330
1BFE
100
AcDbScale
 70
     0
300
1:16
140
1.0
141
16.0
290
     0
  0
SCALE
  5
1C06
102
{ACAD_REACTORS
330
1BFE
102
}
330
1BFE
100
AcDbScale
 70
     0
300
1:20
140
1.0
141
20.0
290
     0
  0
SCALE
  5
1C07
102
{ACAD_REACTORS
330
1BFE
102
}
330
1BFE
100
AcDbScale
 70
     0
300
1:30
140
1.0
141
30.0
290
     0
  0
SCALE
  5
1C08
102
{ACAD_REACTORS
330
1BFE
102
}
330
1BFE
100
AcDbScale
 70
     0
300
1:40
140
1.0
141
40.0
290
     0
  0
SCALE
  5
1C09
102
{ACAD_REACTORS
330
1BFE
102
}
330
1BFE
100
AcDbScale
 70
     0
300
1:50
140
1.0
141
50.0
290
     0
  0
SCALE
  5
1C0A
102
{ACAD_REACTORS
330
1BFE
102
}
330
1BFE
100
AcDbScale
 70
     0
300
1:100
140
1.0
141
100.0
290
     0
  0
SCALE
  5
1C0B
102
{ACAD_REACTORS
330
1BFE
102
}
330
1BFE
100
AcDbScale
 70
     0
300
2:1
140
2.0
141
1.0
290
     0
  0
SCALE
  5
1C0C
102
{ACAD_REACTORS
330
1BFE
102
}
330
1BFE
100
AcDbScale
 70
     0
300
4:1
140
4.0
141
1.0
290
     0
  0
SCALE
  5
1C0D
102
{ACAD_REACTORS
330
1BFE
102
}
330
1BFE
100
AcDbScale
 70
     0
300
8:1
140
8.0
141
1.0
290
     0
  0
SCALE
  5
1C0E
102
{ACAD_REACTORS
330
1BFE
102
}
330
1BFE
100
AcDbScale
 70
     0
300
10:1
140
10.0
141
1.0
290
     0
  0
SCALE
  5
1C0F
102
{ACAD_REACTORS
330
1BFE
102
}
330
1BFE
100
AcDbScale
 70
     0
300
100:1
140
100.0
141
1.0
290
     0
  0
SCALE
  5
1C10
102
{ACAD_REACTORS
330
1BFE
102
}
330
1BFE
100
AcDbScale
 70
     0
300
1/128" = 1'-0"
140
0.0078125
141
12.0
290
     0
  0
SCALE
  5
1C11
102
{ACAD_REACTORS
330
1BFE
102
}
330
1BFE
100
AcDbScale
 70
     0
300
1/64" = 1'-0"
140
0.015625
141
12.0
290
     0
  0
SCALE
  5
1C12
102
{ACAD_REACTORS
330
1BFE
102
}
330
1BFE
100
AcDbScale
 70
     0
300
1/32" = 1'-0"
140
0.03125
141
12.0
290
     0
  0
SCALE
  5
1C13
102
{ACAD_REACTORS
330
1BFE
102
}
330
1BFE
100
AcDbScale
 70
     0
300
1/16" = 1'-0"
140
0.0625
141
12.0
290
     0
  0
SCALE
  5
1C14
102
{ACAD_REACTORS
330
1BFE
102
}
330
1BFE
100
AcDbScale
 70
     0
300
3/32" = 1'-0"
140
0.09375
141
12.0
290
     0
  0
SCALE
  5
1C15
102
{ACAD_REACTORS
330
1BFE
102
}
330
1BFE
100
AcDbScale
 70
     0
300
1/8" = 1'-0"
140
0.125
141
12.0
290
     0
  0
SCALE
  5
1C16
102
{ACAD_REACTORS
330
1BFE
102
}
330
1BFE
100
AcDbScale
 70
     0
300
3/16" = 1'-0"
140
0.1875
141
12.0
290
     0
  0
SCALE
  5
1C17
102
{ACAD_REACTORS
330
1BFE
102
}
330
1BFE
100
AcDbScale
 70
     0
300
1/4" = 1'-0"
140
0.25
141
12.0
290
     0
  0
SCALE
  5
1C18
102
{ACAD_REACTORS
330
1BFE
102
}
330
1BFE
100
AcDbScale
 70
     0
300
3/8" = 1'-0"
140
0.375
141
12.0
290
     0
  0
SCALE
  5
1C19
102
{ACAD_REACTORS
330
1BFE
102
}
330
1BFE
100
AcDbScale
 70
     0
300
1/2" = 1'-0"
140
0.5
141
12.0
290
     0
  0
SCALE
  5
1C1A
102
{ACAD_REACTORS
330
1BFE
102
}
330
1BFE
100
AcDbScale
 70
     0
300
3/4" = 1'-0"
140
0.75
141
12.0
290
     0
  0
SCALE
  5
1C1B
102
{ACAD_REACTORS
330
1BFE
102
}
330
1BFE
100
AcDbScale
 70
     0
300
1" = 1'-0"
140
1.0
141
12.0
290
     0
  0
SCALE
  5
1C1C
102
{ACAD_REACTORS
330
1BFE
102
}
330
1BFE
100
AcDbScale
 70
     0
300
1-1/2" = 1'-0"
140
1.5
141
12.0
290
     0
  0
SCALE
  5
1C1D
102
{ACAD_REACTORS
330
1BFE
102
}
330
1BFE
100
AcDbScale
 70
     0
300
3" = 1'-0"
140
3.0
141
12.0
290
     0
  0
SCALE
  5
1C1E
102
{ACAD_REACTORS
330
1BFE
102
}
330
1BFE
100
AcDbScale
 70
     0
300
6" = 1'-0"
140
6.0
141
12.0
290
     0
  0
SCALE
  5
1C1F
102
{ACAD_REACTORS
330
1BFE
102
}
330
1BFE
100
AcDbScale
 70
     0
300
1'-0" = 1'-0"
140
12.0
141
12.0
290
     0
  0
TABLESTYLE
  5
1D25
102
{ACAD_REACTORS
330
1D24
102
}
102
{ACAD_XDICTIONARY
360
22B0
102
}
330
1D24
100
AcDbTableStyle
  3
Standard
 70
     0
 71
     0
 40
0.06
 41
0.06
280
     0
281
     0
  7
STANDARD
140
4.5
170
     2
 62
     0
 63
   257
283
     0
 90
        4
 91
        0
  1

274
    -2
284
     1
 64
     0
275
    -2
285
     1
 65
     0
276
    -2
286
     1
 66
     0
277
    -2
287
     1
 67
     0
278
    -2
288
     1
 68
     0
279
    -2
289
     1
 69
     0
  7
STANDARD
140
6.0
170
     5
 62
     0
 63
   257
283
     0
 90
        4
 91
        0
  1

274
    -2
284
     1
 64
     0
275
    -2
285
     1
 65
     0
276
    -2
286
     1
 66
     0
277
    -2
287
     1
 67
     0
278
    -2
288
     1
 68
     0
279
    -2
289
     1
 69
     0
  7
STANDARD
140
4.5
170
     5
 62
     0
 63
   257
283
     0
 90
        4
 91
        0
  1

274
    -2
284
     1
 64
     0
275
    -2
285
     1
 65
     0
276
    -2
286
     1
 66
     0
277
    -2
287
     1
 67
     0
278
    -2
288
     1
 68
     0
279
    -2
289
     1
 69
     0
  0
VISUALSTYLE
  5
1D0C
102
{ACAD_REACTORS
330
1D07
102
}
330
1D07
100
AcDbVisualStyle
  2
2dWireframe
 70
     4
 71
     0
 72
     2
 73
     0
 90
        0
 40
0.6
 41
30.0
 62
     5
 63
     7
421
 16777215
 74
     1
 91
        4
 64
     7
 65
   257
 75
     1
175
     1
 42
1.0
 92
        0
 66
   257
 43
1.0
 76
     1
 77
     6
 78
     2
 67
     7
 79
     5
170
     0
171
     0
290
     0
174
     0
 93
        1
 44
0.0
173
     0
291
     0
 45
0.0
  0
VISUALSTYLE
  5
1D0F
102
{ACAD_REACTORS
330
1D07
102
}
330
1D07
100
AcDbVisualStyle
  2
Basic
 70
     7
 71
     1
 72
     0
 73
     1
 90
        0
 40
0.6
 41
30.0
 62
     5
 63
     7
421
 16777215
 74
     0
 91
        4
 64
     7
 65
   257
 75
     1
175
     1
 42
1.0
 92
        8
 66
     7
 43
1.0
 76
     1
 77
     6
 78
     2
 67
     7
 79
     5
170
     0
171
     0
290
     0
174
     0
 93
        1
 44
0.0
173
     0
291
     1
 45
0.0
  0
VISUALSTYLE
  5
1D13
102
{ACAD_REACTORS
330
1D07
102
}
330
1D07
100
AcDbVisualStyle
  2
Brighten
 70
    12
 71
     2
 72
     2
 73
     0
 90
        0
 40
0.6
 41
30.0
 62
     5
 63
     7
421
 16777215
 74
     1
 91
        4
 64
     7
 65
   257
 75
     1
175
     1
 42
1.0
 92
        8
 66
     7
 43
1.0
 76
     1
 77
     6
 78
     2
 67
     7
 79
     5
170
     0
171
     0
290
     0
174
     0
 93
        1
 44
50.0
173
     0
291
     1
 45
0.0
  0
VISUALSTYLE
  5
1D17
102
{ACAD_REACTORS
330
1D07
102
}
330
1D07
100
AcDbVisualStyle
  2
ColorChange
 70
    16
 71
     2
 72
     2
 73
     3
 90
        0
 40
0.6
 41
30.0
 62
     5
 63
     8
421
  8421504
 74
     1
 91
        4
 64
     7
 65
   257
 75
     1
175
     1
 42
1.0
 92
        8
 66
     8
424
  8421504
 43
1.0
 76
     1
 77
     6
 78
     2
 67
     7
 79
     5
170
     0
171
     0
290
     0
174
     0
 93
        1
 44
0.0
173
     0
291
     1
 45
0.0
  0
VISUALSTYLE
  5
1D11
102
{ACAD_REACTORS
330
1D07
102
}
330
1D07
100
AcDbVisualStyle
  2
Conceptual
 70
     9
 71
     3
 72
     2
 73
     0
 90
        0
 40
0.6
 41
30.0
 62
     5
 63
     7
421
 16777215
 74
     2
 91
        2
 64
     7
 65
   257
 75
     1
175
     1
 42
179.0
 92
        8
 66
     7
 43
1.0
 76
     1
 77
     6
 78
     2
 67
     7
 79
     3
170
     0
171
     0
290
     0
174
     0
 93
        1
 44
0.0
173
     0
291
     0
 45
0.0
  0
VISUALSTYLE
  5
1D12
102
{ACAD_REACTORS
330
1D07
102
}
330
1D07
100
AcDbVisualStyle
  2
Dim
 70
    11
 71
     2
 72
     2
 73
     0
 90
        0
 40
0.6
 41
30.0
 62
     5
 63
     7
421
 16777215
 74
     1
 91
        4
 64
     7
 65
   257
 75
     1
175
     1
 42
1.0
 92
        8
 66
     7
 43
1.0
 76
     1
 77
     6
 78
     2
 67
     7
 79
     5
170
     0
171
     0
290
     0
174
     0
 93
        1
 44
-50.0
173
     0
291
     1
 45
0.0
  0
VISUALSTYLE
  5
1D1A
102
{ACAD_REACTORS
330
1D07
102
}
330
1D07
100
AcDbVisualStyle
  2
EdgeColorOff
 70
    22
 71
     2
 72
     2
 73
     0
 90
        0
 40
0.6
 41
30.0
 62
     5
 63
     7
421
 16777215
 74
     1
 91
        4
 64
     7
 65
   257
 75
     1
175
     1
 42
1.0
 92
        8
 66
     7
 43
1.0
 76
     1
 77
     6
 78
     2
 67
     7
 79
     5
170
     0
171
     0
290
     0
174
     0
 93
        1
 44
0.0
173
     0
291
     1
 45
0.0
  0
VISUALSTYLE
  5
1D16
102
{ACAD_REACTORS
330
1D07
102
}
330
1D07
100
AcDbVisualStyle
  2
Facepattern
 70
    15
 71
     2
 72
     2
 73
     0
 90
        0
 40
0.6
 41
30.0
 62
     5
 63
     7
421
 16777215
 74
     1
 91
        4
 64
     7
 65
   257
 75
     1
175
     1
 42
1.0
 92
        8
 66
     7
 43
1.0
 76
     1
 77
     6
 78
     2
 67
     7
 79
     5
170
     0
171
     0
290
     0
174
     0
 93
        1
 44
0.0
173
     0
291
     1
 45
0.0
  0
VISUALSTYLE
  5
1D08
102
{ACAD_REACTORS
330
1D07
102
}
330
1D07
100
AcDbVisualStyle
  2
Flat
 70
     0
 71
     2
 72
     1
 73
     1
 90
        2
 40
0.6
 41
30.0
 62
     5
 63
     7
421
 16777215
 74
     0
 91
        0
 64
     7
 65
   257
 75
     1
175
     1
 42
1.0
 92
        8
 66
     7
 43
1.0
 76
     1
 77
     6
 78
     2
 67
     7
 79
     5
170
     0
171
     0
290
     0
174
     0
 93
       13
 44
0.0
173
     0
291
     1
 45
0.0
  0
VISUALSTYLE
  5
1D09
102
{ACAD_REACTORS
330
1D07
102
}
330
1D07
100
AcDbVisualStyle
  2
FlatWithEdges
 70
     1
 71
     2
 72
     1
 73
     1
 90
        2
 40
0.6
 41
30.0
 62
     5
 63
     7
421
 16777215
 74
     1
 91
        0
 64
     7
 65
   257
 75
     1
175
     1
 42
1.0
 92
        0
 66
   257
 43
1.0
 76
     1
 77
     6
 78
     2
 67
     7
 79
     5
170
     0
171
     0
290
     0
174
     0
 93
       13
 44
0.0
173
     0
291
     1
 45
0.0
  0
VISUALSTYLE
  5
1D0A
102
{ACAD_REACTORS
330
1D07
102
}
330
1D07
100
AcDbVisualStyle
  2
Gouraud
 70
     2
 71
     2
 72
     2
 73
     1
 90
        2
 40
0.6
 41
30.0
 62
     5
 63
     7
421
 16777215
 74
     0
 91
        0
 64
     7
 65
   257
 75
     1
175
     1
 42
1.0
 92
        0
 66
     7
 43
1.0
 76
     1
 77
     6
 78
     2
 67
     7
 79
     5
170
     0
171
     0
290
     0
174
     0
 93
       13
 44
0.0
173
     0
291
     1
 45
0.0
  0
VISUALSTYLE
  5
1D0B
102
{ACAD_REACTORS
330
1D07
102
}
330
1D07
100
AcDbVisualStyle
  2
GouraudWithEdges
 70
     3
 71
     2
 72
     2
 73
     1
 90
        2
 40
0.6
 41
30.0
 62
     5
 63
     7
421
 16777215
 74
     1
 91
        0
 64
     7
 65
   257
 75
     1
175
     1
 42
1.0
 92
        0
 66
   257
 43
1.0
 76
     1
 77
     6
 78
     2
 67
     7
 79
     5
170
     0
171
     0
290
     0
174
     0
 93
       13
 44
0.0
173
     0
291
     1
 45
0.0
  0
VISUALSTYLE
  5
1D0E
102
{ACAD_REACTORS
330
1D07
102
}
330
1D07
100
AcDbVisualStyle
  2
Hidden
 70
     6
 71
     1
 72
     2
 73
     2
 90
        0
 40
0.6
 41
30.0
 62
     5
 63
     7
421
 16777215
 74
     2
 91
        2
 64
     7
 65
   257
 75
     2
175
     1
 42
40.0
 92
        0
 66
   257
 43
1.0
 76
     1
 77
     6
 78
     2
 67
     7
 79
     3
170
     0
171
     0
290
     0
174
     0
 93
        1
 44
0.0
173
     0
291
     0
 45
0.0
  0
VISUALSTYLE
  5
1D18
102
{ACAD_REACTORS
330
1D07
102
}
330
1D07
100
AcDbVisualStyle
  2
JitterOff
 70
    20
 71
     2
 72
     2
 73
     0
 90
        0
 40
0.6
 41
30.0
 62
     5
 63
     7
421
 16777215
 74
     1
 91
        4
 64
     7
 65
   257
 75
     1
175
     1
 42
1.0
 92
       10
 66
     7
 43
1.0
 76
     1
 77
     6
 78
     2
 67
     7
 79
     5
170
     0
171
     0
290
     0
174
     0
 93
        1
 44
0.0
173
     0
291
     1
 45
0.0
  0
VISUALSTYLE
  5
1D15
102
{ACAD_REACTORS
330
1D07
102
}
330
1D07
100
AcDbVisualStyle
  2
Linepattern
 70
    14
 71
     2
 72
     2
 73
     0
 90
        0
 40
0.6
 41
30.0
 62
     5
 63
     7
421
 16777215
 74
     1
 91
        4
 64
     7
 65
   257
 75
     7
175
     7
 42
1.0
 92
        8
 66
     7
 43
1.0
 76
     1
 77
     6
 78
     2
 67
     7
 79
     5
170
     0
171
     0
290
     0
174
     0
 93
        1
 44
0.0
173
     0
291
     1
 45
0.0
  0
VISUALSTYLE
  5
1D19
102
{ACAD_REACTORS
330
1D07
102
}
330
1D07
100
AcDbVisualStyle
  2
OverhangOff
 70
    21
 71
     2
 72
     2
 73
     0
 90
        0
 40
0.6
 41
30.0
 62
     5
 63
     7
421
 16777215
 74
     1
 91
        4
 64
     7
 65
   257
 75
     1
175
     1
 42
1.0
 92
        9
 66
     7
 43
1.0
 76
     1
 77
     6
 78
     2
 67
     7
 79
     5
170
     0
171
     0
290
     0
174
     0
 93
        1
 44
0.0
173
     0
291
     1
 45
0.0
  0
VISUALSTYLE
  5
1D10
102
{ACAD_REACTORS
330
1D07
102
}
330
1D07
100
AcDbVisualStyle
  2
Realistic
 70
     8
 71
     2
 72
     3
 73
     0
 90
        2
 40
0.6
 41
30.0
 62
     5
 63
     7
421
 16777215
 74
     0
 91
        0
 64
     7
 65
   257
 75
     1
175
     1
 42
1.0
 92
        8
 66
   257
 43
1.0
 76
     1
 77
     6
 78
     2
 67
     7
 79
     3
170
     0
171
     0
290
     0
174
     0
 93
       13
 44
0.0
173
     0
291
     0
 45
0.0
  0
VISUALSTYLE
  5
1D1F
102
{ACAD_REACTORS
330
1D07
102
}
330
1D07
100
AcDbVisualStyle
  2
Shaded
 70
    27
 71
     2
 72
     2
 73
     1
 90
        2
 40
0.6
 41
30.0
 62
     5
 63
     7
421
 16777215
 74
     0
 91
        4
 64
     7
 65
   257
 75
     1
175
     1
 42
1.0
 92
        8
 66
   257
 43
1.0
 76
     1
 77
     6
 78
     2
 67
     8
425
  7895160
 79
     3
170
     0
171
     0
290
     0
174
     0
 93
        5
 44
0.0
173
     0
291
     0
 45
0.0
  0
VISUALSTYLE
  5
1D1E
102
{ACAD_REACTORS
330
1D07
102
}
330
1D07
100
AcDbVisualStyle
  2
Shaded with edges
 70
    26
 71
     2
 72
     2
 73
     1
 90
        2
 40
0.6
 41
30.0
 62
     5
 63
     7
421
 16777215
 74
     1
 91
       10
 64
     7
 65
   257
 75
     2
175
     1
 42
1.0
 92
        8
 66
   257
 43
1.0
 76
     1
 77
     6
 78
     2
 67
     7
 79
     3
170
     0
171
     0
290
     0
174
     0
 93
        5
 44
0.0
173
     0
291
     0
 45
0.0
  0
VISUALSTYLE
  5
1D1B
102
{ACAD_REACTORS
330
1D07
102
}
330
1D07
100
AcDbVisualStyle
  2
Shades of Gray
 70
    23
 71
     2
 72
     2
 73
     3
 90
        0
 40
0.6
 41
30.0
 62
     5
 63
     7
421
 16777215
 74
     2
 91
        2
 64
     7
 65
     7
 75
     1
175
     1
 42
40.0
 92
        8
 66
     7
 43
1.0
 76
     1
 77
     6
 78
     2
 67
     7
 79
     3
170
     0
171
     0
290
     0
174
     0
 93
        1
 44
0.0
173
     0
291
     0
 45
0.0
  0
VISUALSTYLE
  5
1D1C
102
{ACAD_REACTORS
330
1D07
102
}
330
1D07
100
AcDbVisualStyle
  2
Sketchy
 70
    24
 71
     1
 72
     2
 73
     2
 90
        0
 40
0.6
 41
30.0
 62
     5
 63
     7
421
 16777215
 74
     2
 91
        2
 64
     7
 65
     7
 75
     1
175
     1
 42
40.0
 92
       11
 66
     7
 43
1.0
 76
     1
 77
     6
 78
     2
 67
     7
 79
     6
170
     0
171
     0
290
     0
174
     0
 93
        1
 44
0.0
173
     0
291
     0
 45
0.0
  0
VISUALSTYLE
  5
1D14
102
{ACAD_REACTORS
330
1D07
102
}
330
1D07
100
AcDbVisualStyle
  2
Thicken
 70
    13
 71
     2
 72
     2
 73
     0
 90
        0
 40
0.6
 41
30.0
 62
     5
 63
     7
421
 16777215
 74
     1
 91
        4
 64
     7
 65
   257
 75
     1
175
     1
 42
1.0
 92
       12
 66
     7
 43
1.0
 76
     1
 77
     6
 78
     2
 67
     7
 79
     5
170
     0
171
     0
290
     0
174
     0
 93
        1
 44
0.0
173
     0
291
     1
 45
0.0
  0
VISUALSTYLE
  5
1D0D
102
{ACAD_REACTORS
330
1D07
102
}
330
1D07
100
AcDbVisualStyle
  2
Wireframe
 70
     5
 71
     0
 72
     2
 73
     0
 90
        0
 40
0.6
 41
30.0
 62
     5
 63
     7
421
 16777215
 74
     1
 91
        4
 64
     7
 65
   257
 75
     1
175
     1
 42
1.0
 92
        0
 66
   257
 43
1.0
 76
     1
 77
     6
 78
     2
 67
     7
 79
     3
170
     0
171
     0
290
     0
174
     0
 93
        1
 44
0.0
173
     0
291
     0
 45
0.0
  0
VISUALSTYLE
  5
1D1D
102
{ACAD_REACTORS
330
1D07
102
}
330
1D07
100
AcDbVisualStyle
  2
X-Ray
 70
    25
 71
     2
 72
     2
 73
     1
 90
        1
 40
0.5
 41
30.0
 62
     5
 63
     7
421
 16777215
 74
     1
 91
        0
 64
     7
 65
   257
 75
     1
175
     1
 42
1.0
 92
        8
 66
     7
 43
1.0
 76
     1
 77
     6
 78
     2
 67
     7
 79
     3
170
     0
171
     0
290
     0
174
     0
 93
       13
 44
0.0
173
     0
291
     0
 45
0.0
  0
DICTIONARYVAR
  5
1E13
102
{ACAD_REACTORS
330
1CF1
102
}
330
1CF1
100
DictionaryVariables
280
     0
  1
1:1
  0
DICTIONARYVAR
  5
1E15
102
{ACAD_REACTORS
330
1CF1
102
}
330
1CF1
100
DictionaryVariables
280
     0
  1
Standard
  0
DICTIONARYVAR
  5
1E14
102
{ACAD_REACTORS
330
1CF1
102
}
330
1CF1
100
DictionaryVariables
280
     0
  1
Standard
  0
DICTIONARYVAR
  5
1E16
102
{ACAD_REACTORS
330
1CF1
102
}
330
1CF1
100
DictionaryVariables
280
     0
  1
0
  0
DICTIONARYVAR
  5
1F21
102
{ACAD_REACTORS
330
1CF1
102
}
330
1CF1
100
DictionaryVariables
280
     0
  1
0
  0
FIELD
  5
1F0C
102
{ACAD_REACTORS
330
1F14
330
1F22
330
1F23
330
1F7B
102
}
330
1F7B
100
AcDbField
  1
_text
  2
{%<\_FldIdx 0>%N}
 90
        1
360
1F0F
 97
        0
 91
       63
 92
        0
 94
       11
 95
        2
 96
        0
300

 93
        1
  6
ACFD_FIELDTEXT_CHECKSUM
 93
        2
 90
        2
140
4494.0
 94
        0
300

302

304
ACVALUE_END
  7
ACFD_FIELD_VALUE
 93
        6
 90
        4
  1
{20200317N}
 94
        0
300

302

304
ACVALUE_END
301
{20200317N}
 98
       11
  0
DICTIONARY
  5
22B0
330
1D25
100
AcDbDictionary
280
     1
281
     1
  3
ACAD_ROUNDTRIP_2008_TABLESTYLE_CELLSTYLEMAP
360
22B1
  0
FIELD
  5
1F0F
330
1F0C
100
AcDbField
  1
AcVar
  2
\AcVar Date \f "yyyyMMdd"
 90
        0
 97
        0
 91
       63
 92
        0
 94
       11
 95
       64
 96
        0
300
Variable not supported
 93
        1
  6
Variable
 93
        2
 90
        4
  1
Date
 94
        0
300

302

304
ACVALUE_END
  7
ACFD_FIELD_VALUE
 93
        6
 90
        8
 92
       16
310
E4070300000011000D001B0003000000
 94
        0
300
yyyyMMdd
302

304
ACVALUE_END
301
20200317
 98
        8
  0
CELLSTYLEMAP
  5
22B1
102
{ACAD_REACTORS
330
22B0
102
}
330
22B0
100
AcDbCellStyleMap
 90
        3
300
CELLSTYLE
  1
TABLEFORMAT_BEGIN
 90
        5
170
     1
 91
        0
 92
    32768
 62
   257
 93
        1
300
CONTENTFORMAT
  1
CONTENTFORMAT_BEGIN
 90
        0
 91
        0
 92
        4
 93
        0
300

 40
0.0
140
1.0
 94
        5
 62
     0
340
10
144
6.0
309
CONTENTFORMAT_END
171
     1
301
MARGIN
  1
CELLMARGIN_BEGIN
 40
1.5
 40
1.5
 40
1.5
 40
1.5
 40
1.5
 40
1.5
309
CELLMARGIN_END
 94
        6
 95
        1
302
GRIDFORMAT
  1
GRIDFORMAT_BEGIN
 90
        0
 91
        1
 62
     0
 92
       -2
340
13
 93
        0
 40
0.045
309
GRIDFORMAT_END
 95
        2
302
GRIDFORMAT
  1
GRIDFORMAT_BEGIN
 90
        0
 91
        1
 62
     0
 92
       -2
340
13
 93
        0
 40
0.045
309
GRIDFORMAT_END
 95
        4
302
GRIDFORMAT
  1
GRIDFORMAT_BEGIN
 90
        0
 91
        1
 62
     0
 92
       -2
340
13
 93
        0
 40
0.045
309
GRIDFORMAT_END
 95
        8
302
GRIDFORMAT
  1
GRIDFORMAT_BEGIN
 90
        0
 91
        1
 62
     0
 92
       -2
340
13
 93
        0
 40
0.045
309
GRIDFORMAT_END
 95
       16
302
GRIDFORMAT
  1
GRIDFORMAT_BEGIN
 90
        0
 91
        1
 62
     0
 92
       -2
340
13
 93
        0
 40
0.045
309
GRIDFORMAT_END
 95
       32
302
GRIDFORMAT
  1
GRIDFORMAT_BEGIN
 90
        0
 91
        1
 62
     0
 92
       -2
340
13
 93
        0
 40
0.045
309
GRIDFORMAT_END
309
TABLEFORMAT_END
  1
CELLSTYLE_BEGIN
 90
        1
 91
        1
300
_TITLE
309
CELLSTYLE_END
300
CELLSTYLE
  1
TABLEFORMAT_BEGIN
 90
        5
170
     1
 91
        0
 92
        0
 62
   257
 93
        1
300
CONTENTFORMAT
  1
CONTENTFORMAT_BEGIN
 90
        0
 91
        0
 92
        4
 93
        0
300

 40
0.0
140
1.0
 94
        5
 62
     0
340
10
144
4.5
309
CONTENTFORMAT_END
171
     1
301
MARGIN
  1
CELLMARGIN_BEGIN
 40
1.5
 40
1.5
 40
1.5
 40
1.5
 40
1.5
 40
1.5
309
CELLMARGIN_END
 94
        6
 95
        1
302
GRIDFORMAT
  1
GRIDFORMAT_BEGIN
 90
        0
 91
        1
 62
     0
 92
       -2
340
13
 93
        0
 40
0.045
309
GRIDFORMAT_END
 95
        2
302
GRIDFORMAT
  1
GRIDFORMAT_BEGIN
 90
        0
 91
        1
 62
     0
 92
       -2
340
13
 93
        0
 40
0.045
309
GRIDFORMAT_END
 95
        4
302
GRIDFORMAT
  1
GRIDFORMAT_BEGIN
 90
        0
 91
        1
 62
     0
 92
       -2
340
13
 93
        0
 40
0.045
309
GRIDFORMAT_END
 95
        8
302
GRIDFORMAT
  1
GRIDFORMAT_BEGIN
 90
        0
 91
        1
 62
     0
 92
       -2
340
13
 93
        0
 40
0.045
309
GRIDFORMAT_END
 95
       16
302
GRIDFORMAT
  1
GRIDFORMAT_BEGIN
 90
        0
 91
        1
 62
     0
 92
       -2
340
13
 93
        0
 40
0.045
309
GRIDFORMAT_END
 95
       32
302
GRIDFORMAT
  1
GRIDFORMAT_BEGIN
 90
        0
 91
        1
 62
     0
 92
       -2
340
13
 93
        0
 40
0.045
309
GRIDFORMAT_END
309
TABLEFORMAT_END
  1
CELLSTYLE_BEGIN
 90
        2
 91
        1
300
_HEADER
309
CELLSTYLE_END
300
CELLSTYLE
  1
TABLEFORMAT_BEGIN
 90
        5
170
     1
 91
        0
 92
        0
 62
   257
 93
        1
300
CONTENTFORMAT
  1
CONTENTFORMAT_BEGIN
 90
        0
 91
        0
 92
        4
 93
        0
300

 40
0.0
140
1.0
 94
        2
 62
     0
340
10
144
4.5
309
CONTENTFORMAT_END
171
     1
301
MARGIN
  1
CELLMARGIN_BEGIN
 40
1.5
 40
1.5
 40
1.5
 40
1.5
 40
1.5
 40
1.5
309
CELLMARGIN_END
 94
        6
 95
        1
302
GRIDFORMAT
  1
GRIDFORMAT_BEGIN
 90
        0
 91
        1
 62
     0
 92
       -2
340
13
 93
        0
 40
0.045
309
GRIDFORMAT_END
 95
        2
302
GRIDFORMAT
  1
GRIDFORMAT_BEGIN
 90
        0
 91
        1
 62
     0
 92
       -2
340
13
 93
        0
 40
0.045
309
GRIDFORMAT_END
 95
        4
302
GRIDFORMAT
  1
GRIDFORMAT_BEGIN
 90
        0
 91
        1
 62
     0
 92
       -2
340
13
 93
        0
 40
0.045
309
GRIDFORMAT_END
 95
        8
302
GRIDFORMAT
  1
GRIDFORMAT_BEGIN
 90
        0
 91
        1
 62
     0
 92
       -2
340
13
 93
        0
 40
0.045
309
GRIDFORMAT_END
 95
       16
302
GRIDFORMAT
  1
GRIDFORMAT_BEGIN
 90
        0
 91
        1
 62
     0
 92
       -2
340
13
 93
        0
 40
0.045
309
GRIDFORMAT_END
 95
       32
302
GRIDFORMAT
  1
GRIDFORMAT_BEGIN
 90
        0
 91
        1
 62
     0
 92
       -2
340
13
 93
        0
 40
0.045
309
GRIDFORMAT_END
309
TABLEFORMAT_END
  1
CELLSTYLE_BEGIN
 90
        3
 91
        2
300
_DATA
309
CELLSTYLE_END
  0
ENDSEC
  0
EOF
