  0
SECTION
  2
HEADER
  9
$ACADVER
  1
AC1021
  9
$ACADMAINTVER
 70
    25
  9
$DWGCODEPAGE
  3
ANSI_932
  9
$LASTSAVEDBY
  1
howeNelson
  9
$INSBASE
 10
0.0
 20
0.0
 30
0.0
  9
$EXTMIN
 10
0.0
 20
0.0
 30
-0.0000000000000071
  9
$EXTMAX
 10
2100.0
 20
2970.0
 30
0.0000000000000142
  9
$LIMMIN
 10
0.0
 20
0.0
  9
$LIMMAX
 10
2100.0
 20
2970.0
  9
$ORTHOMODE
 70
     0
  9
$REGENMODE
 70
     1
  9
$FILLMODE
 70
     1
  9
$QTEXTMODE
 70
     0
  9
$MIRRTEXT
 70
     1
  9
$LTSCALE
 40
5.0
  9
$ATTMODE
 70
     1
  9
$TEXTSIZE
 40
2.5
  9
$TRACEWID
 40
1.0
  9
$TEXTSTYLE
  7
ＭＳ ゴシック
  9
$CLAYER
  8
DIM
  9
$CELTYPE
  6
ByLayer
  9
$CECOLOR
 62
   256
  9
$CELTSCALE
 40
1.0
  9
$DISPSILH
 70
     0
  9
$DIMSCALE
 40
1.0
  9
$DIMASZ
 40
10.0
  9
$DIMEXO
 40
30.0
  9
$DIMDLI
 40
0.9999999999999999
  9
$DIMRND
 40
0.0
  9
$DIMDLE
 40
0.0
  9
$DIMEXE
 40
0.0
  9
$DIMTP
 40
0.0
  9
$DIMTM
 40
0.0
  9
$DIMTXT
 40
24.0
  9
$DIMCEN
 40
0.0
  9
$DIMTSZ
 40
0.0
  9
$DIMTOL
 70
     0
  9
$DIMLIM
 70
     0
  9
$DIMTIH
 70
     0
  9
$DIMTOH
 70
     0
  9
$DIMSE1
 70
     0
  9
$DIMSE2
 70
     0
  9
$DIMTAD
 70
     1
  9
$DIMZIN
 70
    11
  9
$DIMBLK
  1
DOT
  9
$DIMASO
 70
     1
  9
$DIMSHO
 70
     1
  9
$DIMPOST
  1
<>
  9
$DIMAPOST
  1
[]
  9
$DIMALT
 70
     0
  9
$DIMALTD
 70
     1
  9
$DIMALTF
 40
1.0
  9
$DIMLFAC
 40
1.0
  9
$DIMTOFL
 70
     0
  9
$DIMTVP
 40
0.0
  9
$DIMTIX
 70
     1
  9
$DIMSOXD
 70
     0
  9
$DIMSAH
 70
     0
  9
$DIMBLK1
  1

  9
$DIMBLK2
  1

  9
$DIMSTYLE
  2
tfrom線あり
  9
$DIMCLRD
 70
     0
  9
$DIMCLRE
 70
     0
  9
$DIMCLRT
 70
     0
  9
$DIMTFAC
 40
1.0
  9
$DIMGAP
 40
20.0
  9
$DIMJUST
 70
     0
  9
$DIMSD1
 70
     0
  9
$DIMSD2
 70
     0
  9
$DIMTOLJ
 70
     1
  9
$DIMTZIN
 70
    11
  9
$DIMALTZ
 70
    11
  9
$DIMALTTZ
 70
    11
  9
$DIMUPT
 70
     0
  9
$DIMDEC
 70
     0
  9
$DIMTDEC
 70
     1
  9
$DIMALTU
 70
     2
  9
$DIMALTTD
 70
     2
  9
$DIMTXSTY
  7
ＭＳ ゴシック
  9
$DIMAUNIT
 70
     0
  9
$DIMADEC
 70
     2
  9
$DIMALTRND
 40
0.0
  9
$DIMAZIN
 70
     0
  9
$DIMDSEP
 70
    46
  9
$DIMATFIT
 70
     0
  9
$DIMFRAC
 70
     2
  9
$DIMLDRBLK
  1
DOT
  9
$DIMLUNIT
 70
     2
  9
$DIMLWD
 70
    -2
  9
$DIMLWE
 70
    -2
  9
$DIMTMOVE
 70
     0
  9
$DIMFXL
 40
1.0
  9
$DIMFXLON
 70
     0
  9
$DIMJOGANG
 40
0.7853981633974483
  9
$DIMTFILL
 70
     0
  9
$DIMTFILLCLR
 70
     0
  9
$DIMARCSYM
 70
     0
  9
$DIMLTYPE
  6

  9
$DIMLTEX1
  6

  9
$DIMLTEX2
  6

  9
$LUNITS
 70
     2
  9
$LUPREC
 70
     0
  9
$SKETCHINC
 40
0.1
  9
$FILLETRAD
 40
0.0
  9
$AUNITS
 70
     0
  9
$AUPREC
 70
     0
  9
$MENU
  1
acad
  9
$ELEVATION
 40
0.0
  9
$PELEVATION
 40
0.0
  9
$THICKNESS
 40
0.0
  9
$LIMCHECK
 70
     0
  9
$CHAMFERA
 40
0.0
  9
$CHAMFERB
 40
0.0
  9
$CHAMFERC
 40
0.0
  9
$CHAMFERD
 40
0.0
  9
$SKPOLY
 70
     0
  9
$TDCREATE
 40
2447893.375
  9
$TDUCREATE
 40
0.0
  9
$TDUPDATE
 40
2458225.637804919
  9
$TDUUPDATE
 40
2458225.262804919
  9
$TDINDWG
 40
0.1576946991
  9
$TDUSRTIMER
 40
0.0076877662
  9
$USRTIMER
 70
     1
  9
$ANGBASE
 50
0.0
  9
$ANGDIR
 70
     0
  9
$PDMODE
 70
     1
  9
$PDSIZE
 40
-2.0
  9
$PLINEWID
 40
0.0
  9
$SPLFRAME
 70
     0
  9
$SPLINETYPE
 70
     6
  9
$SPLINESEGS
 70
     8
  9
$HANDSEED
  5
39A2
  9
$SURFTAB1
 70
     6
  9
$SURFTAB2
 70
     6
  9
$SURFTYPE
 70
     6
  9
$SURFU
 70
     6
  9
$SURFV
 70
     6
  9
$UCSBASE
  2

  9
$UCSNAME
  2

  9
$UCSORG
 10
0.0
 20
0.0
 30
0.0
  9
$UCSXDIR
 10
1.0
 20
0.0
 30
0.0
  9
$UCSYDIR
 10
0.0
 20
1.0
 30
0.0
  9
$UCSORTHOREF
  2

  9
$UCSORTHOVIEW
 70
     0
  9
$UCSORGTOP
 10
0.0
 20
0.0
 30
0.0
  9
$UCSORGBOTTOM
 10
0.0
 20
0.0
 30
0.0
  9
$UCSORGLEFT
 10
0.0
 20
0.0
 30
0.0
  9
$UCSORGRIGHT
 10
0.0
 20
0.0
 30
0.0
  9
$UCSORGFRONT
 10
0.0
 20
0.0
 30
0.0
  9
$UCSORGBACK
 10
0.0
 20
0.0
 30
0.0
  9
$PUCSBASE
  2

  9
$PUCSNAME
  2

  9
$PUCSORG
 10
0.0
 20
0.0
 30
0.0
  9
$PUCSXDIR
 10
1.0
 20
0.0
 30
0.0
  9
$PUCSYDIR
 10
0.0
 20
1.0
 30
0.0
  9
$PUCSORTHOREF
  2

  9
$PUCSORTHOVIEW
 70
     0
  9
$PUCSORGTOP
 10
0.0
 20
0.0
 30
0.0
  9
$PUCSORGBOTTOM
 10
0.0
 20
0.0
 30
0.0
  9
$PUCSORGLEFT
 10
0.0
 20
0.0
 30
0.0
  9
$PUCSORGRIGHT
 10
0.0
 20
0.0
 30
0.0
  9
$PUCSORGFRONT
 10
0.0
 20
0.0
 30
0.0
  9
$PUCSORGBACK
 10
0.0
 20
0.0
 30
0.0
  9
$USERI1
 70
     0
  9
$USERI2
 70
     0
  9
$USERI3
 70
     0
  9
$USERI4
 70
     0
  9
$USERI5
 70
     0
  9
$USERR1
 40
0.0
  9
$USERR2
 40
0.0
  9
$USERR3
 40
0.0
  9
$USERR4
 40
0.0
  9
$USERR5
 40
0.0
  9
$WORLDVIEW
 70
     1
  9
$SHADEDGE
 70
     3
  9
$SHADEDIF
 70
    70
  9
$TILEMODE
 70
     1
  9
$MAXACTVP
 70
    64
  9
$PINSBASE
 10
0.0
 20
0.0
 30
0.0
  9
$PLIMCHECK
 70
     0
  9
$PEXTMIN
 10
0.0
 20
0.0
 30
0.0
  9
$PEXTMAX
 10
0.0
 20
0.0
 30
0.0
  9
$PLIMMIN
 10
-7.5
 20
-20.0
  9
$PLIMMAX
 10
412.5
 20
277.0
  9
$UNITMODE
 70
     0
  9
$VISRETAIN
 70
     0
  9
$PLINEGEN
 70
     1
  9
$PSLTSCALE
 70
     0
  9
$TREEDEPTH
 70
  3020
  9
$CMLSTYLE
  2
Standard
  9
$CMLJUST
 70
     0
  9
$CMLSCALE
 40
1.0
  9
$PROXYGRAPHICS
 70
     0
  9
$MEASUREMENT
 70
     1
  9
$CELWEIGHT
370
    -1
  9
$ENDCAPS
280
     0
  9
$JOINSTYLE
280
     0
  9
$LWDISPLAY
290
     1
  9
$INSUNITS
 70
     4
  9
$HYPERLINKBASE
  1

  9
$STYLESHEET
  1

  9
$XEDIT
290
     1
  9
$CEPSNTYPE
380
     0
  9
$PSTYLEMODE
290
     1
  9
$FINGERPRINTGUID
  2

  9
$VERSIONGUID
  2

  9
$EXTNAMES
290
     1
  9
$PSVPSCALE
 40
0.0
  9
$OLESTARTUP
290
     0
  9
$SORTENTS
280
   127
  9
$INDEXCTL
280
     0
  9
$HIDETEXT
280
     1
  9
$XCLIPFRAME
290
     0
  9
$HALOGAP
280
     0
  9
$OBSCOLOR
 70
   257
  9
$OBSLTYPE
280
     0
  9
$INTERSECTIONDISPLAY
280
     0
  9
$INTERSECTIONCOLOR
 70
   257
  9
$DIMASSOC
280
     2
  9
$PROJECTNAME
  1

  9
$CAMERADISPLAY
290
     0
  9
$LENSLENGTH
 40
50.0
  9
$CAMERAHEIGHT
 40
0.0
  9
$STEPSPERSEC
 40
2.0
  9
$STEPSIZE
 40
6.0
  9
$3DDWFPREC
 40
2.0
  9
$PSOLWIDTH
 40
0.25
  9
$PSOLHEIGHT
 40
4.0
  9
$LOFTANG1
 40
1.570796326794897
  9
$LOFTANG2
 40
1.570796326794897
  9
$LOFTMAG1
 40
0.0
  9
$LOFTMAG2
 40
0.0
  9
$LOFTPARAM
 70
     7
  9
$LOFTNORMALS
280
     1
  9
$LATITUDE
 40
37.795
  9
$LONGITUDE
 40
-122.394
  9
$NORTHDIRECTION
 40
0.0
  9
$TIMEZONE
 70
 -8000
  9
$LIGHTGLYPHDISPLAY
280
     1
  9
$TILEMODELIGHTSYNCH
280
     1
  9
$SOLIDHIST
280
     1
  9
$SHOWHIST
280
     1
  9
$DWFFRAME
280
     2
  9
$DGNFRAME
280
     2
  9
$REALWORLDSCALE
290
     1
  9
$INTERFERECOLOR
 62
   256
  9
$CSHADOW
280
     0
  9
$SHADOWPLANELOCATION
 40
0.0
  0
ENDSEC
  0
SECTION
  2
CLASSES
  0
CLASS
  1
LWPOLYLINE
  2
AcDbPolyline
  3
ObjectDBX Classes
 90
        0
 91
        1
280
     0
281
     1
  0
CLASS
  1
IMAGE
  2
AcDbRasterImage
  3
ISM
 90
      127
 91
        8
280
     0
281
     1
  0
CLASS
  1
OLE2FRAME
  2
AcDbOle2Frame
  3
ObjectDBX Classes
 90
        0
 91
        1
280
     0
281
     1
  0
CLASS
  1
HATCH
  2
AcDbHatch
  3
ObjectDBX Classes
 90
        0
 91
        1
280
     0
281
     1
  0
CLASS
  1
DICTIONARYVAR
  2
AcDbDictionaryVar
  3
ObjectDBX Classes
 90
        0
 91
        7
280
     0
281
     0
  0
CLASS
  1
RASTERVARIABLES
  2
AcDbRasterVariables
  3
ISM
 90
        0
 91
        7
280
     0
281
     0
  0
CLASS
  1
IMAGEDEF
  2
AcDbRasterImageDef
  3
ISM
 90
        0
 91
        7
280
     0
281
     0
  0
CLASS
  1
IMAGEDEF_REACTOR
  2
AcDbRasterImageDefReactor
  3
ISM
 90
        1
 91
        7
280
     0
281
     0
  0
CLASS
  1
IDBUFFER
  2
AcDbIdBuffer
  3
ObjectDBX Classes
 90
        0
 91
        7
280
     0
281
     0
  0
CLASS
  1
SPATIAL_FILTER
  2
AcDbSpatialFilter
  3
ObjectDBX Classes
 90
        0
 91
        7
280
     0
281
     0
  0
CLASS
  1
XRECORD
  2
AcDbXrecord
  3
ObjectDBX Classes
 90
        0
 91
        1
280
     0
281
     0
  0
CLASS
  1
SORTENTSTABLE
  2
AcDbSortentsTable
  3
ObjectDBX Classes
 90
        0
 91
        7
280
     0
281
     0
  0
CLASS
  1
LAYER_INDEX
  2
AcDbLayerIndex
  3
ObjectDBX Classes
 90
        0
 91
        7
280
     0
281
     0
  0
CLASS
  1
SPATIAL_INDEX
  2
AcDbSpatialIndex
  3
AutoCAD 2000
 90
        0
 91
        7
280
     0
281
     0
  0
CLASS
  1
OBJECT_PTR
  2
CAseDLPNTableRecord
  3
ASE-LPNTableRecord
 90
        1
 91
        7
280
     0
281
     0
  0
CLASS
  1
LAYOUT
  2
AcDbLayout
  3
ObjectDBX Classes
 90
        0
 91
        1
280
     0
281
     0
  0
CLASS
  1
PLOTSETTINGS
  2
AcDbPlotSettings
  3
ObjectDBX Classes
 90
        0
 91
        7
280
     0
281
     0
  0
CLASS
  1
ACDBDICTIONARYWDFLT
  2
AcDbDictionaryWithDefault
  3
ObjectDBX Classes
 90
        0
 91
        7
280
     0
281
     0
  0
CLASS
  1
ACDBPLACEHOLDER
  2
AcDbPlaceHolder
  3
ObjectDBX Classes
 90
        0
 91
        1
280
     0
281
     0
  0
CLASS
  1
SCALE
  2
AcDbScale
  3
ObjectDBX Classes
 90
     1153
 91
        7
280
     0
281
     0
  0
CLASS
  1
MATERIAL
  2
AcDbMaterial
  3
ObjectDBX Classes
 90
     1153
 91
        7
280
     0
281
     0
  0
CLASS
  1
VISUALSTYLE
  2
AcDbVisualStyle
  3
ObjectDBX Classes
 90
     4095
 91
        7
280
     0
281
     0
  0
CLASS
  1
TABLESTYLE
  2
AcDbTableStyle
  3
ObjectDBX Classes
 90
     4095
 91
        7
280
     0
281
     0
  0
CLASS
  1
DIMASSOC
  2
AcDbDimAssoc
  3
"AcDbDimAssoc|Product Desc:     AcDim ARX App For Dimension|Company:          Autodesk, Inc.|WEB Address:      www.autodesk.com"
 90
        0
 91
        7
280
     0
281
     0
  0
CLASS
  1
CELLSTYLEMAP
  2
AcDbCellStyleMap
  3
ObjectDBX Classes
 90
     1152
 91
        7
280
     0
281
     0
  0
CLASS
  1
SUN
  2
AcDbSun
  3
SCENEOE
 90
     1153
 91
        7
280
     0
281
     0
  0
CLASS
  1
MLEADERSTYLE
  2
AcDbMLeaderStyle
  3
ACDB_MLEADERSTYLE_CLASS
 90
     4095
 91
        7
280
     0
281
     0
  0
CLASS
  1
FIELD
  2
AcDbField
  3
ObjectDBX Classes
 90
     1152
 91
        7
280
     0
281
     0
  0
CLASS
  1
FIELDLIST
  2
AcDbFieldList
  3
ObjectDBX Classes
 90
     1152
 91
        7
280
     0
281
     0
  0
CLASS
  1
MULTILEADER
  2
AcDbMLeader
  3
ACDB_MLEADER_CLASS
 90
     1025
 91
        4
280
     0
281
     1
  0
CLASS
  1
WIPEOUT
  2
AcDbWipeout
  3
WipeOut|AutoCAD Express Tool|expresstools@autodesk.com
 90
      127
 91
        4
280
     0
281
     1
  0
ENDSEC
  0
SECTION
  2
TABLES
  0
TABLE
  2
VPORT
  5
7
330
0
100
AcDbSymbolTable
 70
     1
  0
VPORT
  5
15
330
7
100
AcDbSymbolTableRecord
100
AcDbViewportTableRecord
  2
*ACTIVE
 70
     0
 10
0.0
 20
0.0
 11
1.0
 21
1.0
 12
1141.0201356709
 22
1411.401285469834
 13
0.0
 23
0.0
 14
1.0
 24
1.0
 15
0.0
 25
0.0
 16
0.0
 26
0.0
 36
1.0
 17
-91.02013567089966
 27
73.59871453016603
 37
-46.86809886248109
 40
3029.4
 41
2.293948126801153
 42
50.0
 43
0.0
 44
0.0
 50
0.0
 51
0.0
 71
    16
 72
  2000
 73
     1
 74
     1
 75
     0
 76
     0
 77
     0
 78
     0
281
     0
 65
     1
110
0.0
120
0.0
130
0.0
111
1.0
121
0.0
131
0.0
112
0.0
122
1.0
132
0.0
 79
     0
146
0.0
348
26C
 60
     3
 61
     5
292
     1
282
     1
141
0.0
142
0.0
 63
   256
361
904
  0
ENDTAB
  0
TABLE
  2
LTYPE
  5
4
330
0
100
AcDbSymbolTable
 70
     6
  0
LTYPE
  5
11
330
4
100
AcDbSymbolTableRecord
100
AcDbLinetypeTableRecord
  2
ByBlock
 70
     0
  3

 72
    65
 73
     0
 40
0.0
  0
LTYPE
  5
12
330
4
100
AcDbSymbolTableRecord
100
AcDbLinetypeTableRecord
  2
ByLayer
 70
     0
  3

 72
    65
 73
     0
 40
0.0
  0
LTYPE
  5
13
330
4
100
AcDbSymbolTableRecord
100
AcDbLinetypeTableRecord
  2
Continuous
 70
     0
  3
Solid line
 72
    65
 73
     0
 40
0.0
  0
LTYPE
  5
DAF
330
4
100
AcDbSymbolTableRecord
100
AcDbLinetypeTableRecord
  2
BORDER
 70
     0
  3
Border __  __  . __  __  . __  __  . __  __  . 
 72
    65
 73
     6
 40
44.45
 49
12.7
 74
     0
 49
-6.35
 74
     0
 49
12.7
 74
     0
 49
-6.35
 74
     0
 49
0.0
 74
     0
 49
-6.35
 74
     0
  0
LTYPE
  5
33DD
330
4
100
AcDbSymbolTableRecord
100
AcDbLinetypeTableRecord
  2
HIDDEN
 70
     0
  3
Hidden _ _ _ _ _ _ _ _ _ _ _ _ _ _ _ _ _ _ _ _ 
 72
    65
 73
     2
 40
9.524999999999999
 49
6.35
 74
     0
 49
-3.175
 74
     0
  0
LTYPE
  5
365F
330
4
100
AcDbSymbolTableRecord
100
AcDbLinetypeTableRecord
  2
STYLE_12
 70
     0
  3

 72
    65
 73
     2
 40
0.3937007874015748
 49
0.1968503937007874
 74
     0
 49
-0.1968503937007874
 74
     0
  0
ENDTAB
  0
TABLE
  2
LAYER
  5
2
102
{ACAD_XDICTIONARY
360
2E1
102
}
330
0
100
AcDbSymbolTable
 70
    17
  0
LAYER
  5
14
330
2
100
AcDbSymbolTableRecord
100
AcDbLayerTableRecord
  2
0
 70
     0
 62
     7
  6
Continuous
370
    -3
390
1D
347
266
  0
LAYER
  5
4B
330
2
100
AcDbSymbolTableRecord
100
AcDbLayerTableRecord
  2
TEMPLATE
 70
     0
 62
     7
  6
Continuous
370
    20
390
1D
347
266
  0
LAYER
  5
4C
330
2
100
AcDbSymbolTableRecord
100
AcDbLayerTableRecord
  2
DIM
 70
     0
 62
     3
  6
Continuous
370
    13
390
1D
347
266
  0
LAYER
  5
4D
330
2
100
AcDbSymbolTableRecord
100
AcDbLayerTableRecord
  2
MODEL
 70
     0
 62
     7
  6
Continuous
370
    20
390
1D
347
266
  0
LAYER
  5
667
330
2
100
AcDbSymbolTableRecord
100
AcDbLayerTableRecord
  2
LOGO
 70
     0
 62
     7
  6
Continuous
370
    -3
390
1D
347
266
  0
LAYER
  5
D5D
330
2
100
AcDbSymbolTableRecord
100
AcDbLayerTableRecord
  2
Defpoints
 70
     0
 62
     7
  6
Continuous
290
     0
370
    -3
390
1D
347
266
  0
LAYER
  5
DAE
330
2
100
AcDbSymbolTableRecord
100
AcDbLayerTableRecord
  2
BORDER
 70
     0
 62
     4
  6
BORDER
290
     0
370
    20
390
1D
347
266
1001
AcAecLayerStandard
1000

1000

  0
LAYER
  5
157B
330
2
100
AcDbSymbolTableRecord
100
AcDbLayerTableRecord
  2
Layer3
 70
     0
 62
     7
  6
Continuous
370
    -3
390
1D
347
266
  0
LAYER
  5
157F
330
2
100
AcDbSymbolTableRecord
100
AcDbLayerTableRecord
  2
Layer9
 70
     0
 62
     7
  6
Continuous
370
    -3
390
1D
347
266
  0
LAYER
  5
1582
330
2
100
AcDbSymbolTableRecord
100
AcDbLayerTableRecord
  2
Standard
 70
     0
 62
     7
  6
Continuous
370
    -3
390
1D
347
266
  0
LAYER
  5
33DC
330
2
100
AcDbSymbolTableRecord
100
AcDbLayerTableRecord
  2
HIDDEN
 70
     0
 62
     8
  6
HIDDEN
370
    20
390
1D
347
266
1001
AcAecLayerStandard
1000

1000

  0
LAYER
  5
365D
330
2
100
AcDbSymbolTableRecord
100
AcDbLayerTableRecord
  2
notes
 70
     0
 62
     7
  6
Continuous
370
    -3
390
1D
347
266
  0
LAYER
  5
365E
330
2
100
AcDbSymbolTableRecord
100
AcDbLayerTableRecord
  2
GAR70-1108
 70
     0
 62
     7
  6
Continuous
370
    -3
390
1D
347
266
  0
ENDTAB
  0
TABLE
  2
STYLE
  5
3
330
0
100
AcDbSymbolTable
 70
     7
  0
STYLE
  5
17
330
3
100
AcDbSymbolTableRecord
100
AcDbTextStyleTableRecord
  2
Standard
 70
     0
 40
0.0
 41
1.0
 50
0.0
 71
     0
 42
2.5
  3
txt
  4
BIGFONT.SHX
  0
STYLE
  5
39
330
3
100
AcDbSymbolTableRecord
100
AcDbTextStyleTableRecord
  2
ＭＳ ゴシック
 70
     0
 40
0.0
 41
1.0
 50
0.0
 71
     0
 42
2.5
  3
msgothic.ttc
  4
ＭＳ ゴシック
1001
ACAD
1000
ＭＳ ゴシック
1071
        0
  0
ENDTAB
  0
TABLE
  2
VIEW
  5
5
330
0
100
AcDbSymbolTable
 70
     0
  0
ENDTAB
  0
TABLE
  2
UCS
  5
6
330
0
100
AcDbSymbolTable
 70
     0
  0
ENDTAB
  0
TABLE
  2
APPID
  5
8
330
0
100
AcDbSymbolTable
 70
     3
  0
APPID
  5
16
330
8
100
AcDbSymbolTableRecord
100
AcDbRegAppTableRecord
  2
ACAD
 70
     0
  0
APPID
  5
7AC
330
8
100
AcDbSymbolTableRecord
100
AcDbRegAppTableRecord
  2
AcAecLayerStandard
 70
     0
  0
APPID
  5
F3A
330
8
100
AcDbSymbolTableRecord
100
AcDbRegAppTableRecord
  2
ACAD_MLEADERVER
 70
     0
  0
ENDTAB
  0
TABLE
  2
DIMSTYLE
  5
9
330
0
100
AcDbSymbolTable
 70
     3
100
AcDbDimStyleTable
  0
DIMSTYLE
105
18
330
9
100
AcDbSymbolTableRecord
100
AcDbDimStyleTableRecord
  2
Standard
 70
     0
178
     0
340
17
  0
DIMSTYLE
105
57
102
{ACAD_REACTORS
330
3846
330
3847
330
3848
330
3849
330
384A
330
384C
330
384D
330
384E
330
3851
330
3855
330
3856
330
3858
330
397D
102
}
330
9
100
AcDbSymbolTableRecord
100
AcDbDimStyleTableRecord
  2
tfrom線あり
 70
     0
  3
<>
  4
[]
 41
10.0
 42
30.0
 43
0.9999999999999999
 44
0.0
 73
     0
 74
     0
 77
     1
 78
    11
140
24.0
141
0.0
143
1.0
147
20.0
171
     1
174
     1
178
     0
179
     2
271
     0
272
     1
276
     2
284
    11
285
    11
286
    11
289
     0
340
39
341
4E
342
4E
  0
ENDTAB
  0
TABLE
  2
BLOCK_RECORD
  5
1
330
0
100
AcDbSymbolTable
 70
   205
  0
BLOCK_RECORD
  5
A
330
1
100
AcDbSymbolTableRecord
100
AcDbBlockTableRecord
  2
*MODEL_SPACE
340
20
 70
     0
280
     1
281
     0
  0
BLOCK_RECORD
  5
B
330
1
100
AcDbSymbolTableRecord
100
AcDbBlockTableRecord
  2
*PAPER_SPACE
340
21
 70
     0
280
     1
281
     0
  0
BLOCK_RECORD
  5
4E
330
1
100
AcDbSymbolTableRecord
100
AcDbBlockTableRecord
  2
_DOT
340
0
102
{BLKREFS
331
3106
331
3107
331
313D
331
313E
331
3216
331
3217
331
3225
331
3226
331
3449
331
344A
331
3458
331
3459
331
3465
331
3466
331
3472
331
3473
331
347F
331
3480
331
348C
331
348D
331
3499
331
349A
331
34BB
331
34BC
331
34CF
331
34D0
331
34DE
331
34DF
331
34ED
331
34EE
331
34FC
331
34FD
331
3509
331
350A
331
3516
331
3517
331
35B5
331
35B6
331
35C1
331
35C2
331
35CD
331
35CE
331
35D9
331
35DA
331
35E5
331
35E6
331
35F1
331
35F2
331
35FD
331
35FE
331
3609
331
360A
331
3615
331
3616
331
3621
331
3622
331
362D
331
362E
331
3639
331
363A
331
3645
331
3646
331
3651
331
3652
331
36B6
331
36B7
331
36C5
331
36C6
331
36D5
331
36D6
331
36E5
331
36E6
331
381D
331
381E
331
3705
331
3706
331
3715
331
3716
331
3725
331
3726
331
3829
331
382A
331
3748
331
3749
331
375C
331
375D
331
376B
331
376C
331
377C
331
377D
331
38A8
331
0
331
38B4
331
38B5
331
38C0
331
38C1
331
38CC
331
38CD
331
38D9
331
0
331
0
331
0
331
0
331
38F2
331
38FD
331
38FE
331
0
331
0
331
3915
331
3916
331
3922
331
0
331
392E
331
392F
331
393A
331
393B
331
38D8
331
0
331
0
331
0
331
390C
331
0
331
390B
331
0
331
0
331
38E5
331
38E6
102
}
 70
     0
280
     1
281
     0
  0
BLOCK_RECORD
  5
68A
330
1
100
AcDbSymbolTableRecord
100
AcDbBlockTableRecord
  2
名称未設定-1
340
0
102
{BLKREFS
331
6B5
102
}
 70
     1
280
     1
281
     0
  0
BLOCK_RECORD
  5
68D
330
1
100
AcDbSymbolTableRecord
100
AcDbBlockTableRecord
  2
block 2
340
0
102
{BLKREFS
331
68C
102
}
 70
     0
280
     1
281
     0
  0
BLOCK_RECORD
  5
690
330
1
100
AcDbSymbolTableRecord
100
AcDbBlockTableRecord
  2
block 3
340
0
102
{BLKREFS
331
68F
102
}
 70
     0
280
     1
281
     0
  0
BLOCK_RECORD
  5
693
330
1
100
AcDbSymbolTableRecord
100
AcDbBlockTableRecord
  2
block 4
340
0
102
{BLKREFS
331
692
102
}
 70
     0
280
     1
281
     0
  0
BLOCK_RECORD
  5
6A2
330
1
100
AcDbSymbolTableRecord
100
AcDbBlockTableRecord
  2
block 5
340
0
102
{BLKREFS
331
6A1
102
}
 70
     0
280
     1
281
     0
  0
BLOCK_RECORD
  5
199A
330
1
100
AcDbSymbolTableRecord
100
AcDbBlockTableRecord
  2
SEANNOT_GROUP
340
0
102
{BLKREFS
331
28CA
102
}
 70
     0
280
     1
281
     0
  0
BLOCK_RECORD
  5
1F2F
330
1
100
AcDbSymbolTableRecord
100
AcDbBlockTableRecord
  2
SEANNOT_GROUP1
340
0
102
{BLKREFS
331
2B9B
102
}
 70
     0
280
     1
281
     0
  0
BLOCK_RECORD
  5
3793
330
1
100
AcDbSymbolTableRecord
100
AcDbBlockTableRecord
  2
ƒOƒ‹[ƒv-1
340
0
102
{BLKREFS
331
3792
331
3792
331
3991
102
}
 70
     0
280
     1
281
     0
  0
BLOCK_RECORD
  5
37A3
330
1
100
AcDbSymbolTableRecord
100
AcDbBlockTableRecord
  2
ƒOƒ‹[ƒv-2
340
0
102
{BLKREFS
331
37A2
331
37A2
331
3994
102
}
 70
     0
280
     1
281
     0
  0
BLOCK_RECORD
  5
37AB
330
1
100
AcDbSymbolTableRecord
100
AcDbBlockTableRecord
  2
ƒOƒ‹[ƒv-7
340
0
102
{BLKREFS
331
37AA
331
385A
102
}
 70
     0
280
     1
281
     0
  0
BLOCK_RECORD
  5
37AE
330
1
100
AcDbSymbolTableRecord
100
AcDbBlockTableRecord
  2
ƒOƒ‹[ƒv-5
340
0
102
{BLKREFS
331
37AD
331
37AD
102
}
 70
     0
280
     1
281
     0
  0
BLOCK_RECORD
  5
37B5
330
1
100
AcDbSymbolTableRecord
100
AcDbBlockTableRecord
  2
ƒOƒ‹[ƒv-6
340
0
102
{BLKREFS
331
37B4
331
37B4
102
}
 70
     0
280
     1
281
     0
  0
BLOCK_RECORD
  5
37E8
330
1
100
AcDbSymbolTableRecord
100
AcDbBlockTableRecord
  2
ƒOƒ‹[ƒv-9
340
0
102
{BLKREFS
331
37E7
331
3886
102
}
 70
     0
280
     1
281
     0
  0
BLOCK_RECORD
  5
37EB
330
1
100
AcDbSymbolTableRecord
100
AcDbBlockTableRecord
  2
ƒOƒ‹[ƒv-8
340
0
102
{BLKREFS
331
37EA
331
37EA
102
}
 70
     0
280
     1
281
     0
  0
BLOCK_RECORD
  5
38A1
330
1
100
AcDbSymbolTableRecord
100
AcDbBlockTableRecord
  2
*D190
340
0
 70
     0
280
     1
281
     0
  0
BLOCK_RECORD
  5
38AE
330
1
100
AcDbSymbolTableRecord
100
AcDbBlockTableRecord
  2
*D191
340
0
 70
     0
280
     1
281
     0
  0
BLOCK_RECORD
  5
38BA
330
1
100
AcDbSymbolTableRecord
100
AcDbBlockTableRecord
  2
*D192
340
0
 70
     0
280
     1
281
     0
  0
BLOCK_RECORD
  5
38C6
330
1
100
AcDbSymbolTableRecord
100
AcDbBlockTableRecord
  2
*D193
340
0
 70
     0
280
     1
281
     0
  0
BLOCK_RECORD
  5
38D2
330
1
100
AcDbSymbolTableRecord
100
AcDbBlockTableRecord
  2
*D194
340
0
 70
     0
280
     1
281
     0
  0
BLOCK_RECORD
  5
38EB
330
1
100
AcDbSymbolTableRecord
100
AcDbBlockTableRecord
  2
*D196
340
0
 70
     0
280
     1
281
     0
  0
BLOCK_RECORD
  5
38F7
330
1
100
AcDbSymbolTableRecord
100
AcDbBlockTableRecord
  2
*D197
340
0
 70
     0
280
     1
281
     0
  0
BLOCK_RECORD
  5
3903
330
1
100
AcDbSymbolTableRecord
100
AcDbBlockTableRecord
  2
*D198
340
0
 70
     0
280
     1
281
     0
  0
BLOCK_RECORD
  5
390F
330
1
100
AcDbSymbolTableRecord
100
AcDbBlockTableRecord
  2
*D199
340
0
 70
     0
280
     1
281
     0
  0
BLOCK_RECORD
  5
391B
330
1
100
AcDbSymbolTableRecord
100
AcDbBlockTableRecord
  2
*D200
340
0
 70
     0
280
     1
281
     0
  0
BLOCK_RECORD
  5
3928
330
1
100
AcDbSymbolTableRecord
100
AcDbBlockTableRecord
  2
*D201
340
0
 70
     0
280
     1
281
     0
  0
BLOCK_RECORD
  5
3934
330
1
100
AcDbSymbolTableRecord
100
AcDbBlockTableRecord
  2
*D202
340
0
 70
     0
280
     1
281
     0
  0
BLOCK_RECORD
  5
397E
330
1
100
AcDbSymbolTableRecord
100
AcDbBlockTableRecord
  2
*D204
340
0
 70
     0
280
     1
281
     0
  0
ENDTAB
  0
ENDSEC
  0
SECTION
  2
BLOCKS
  0
BLOCK
  5
D
330
A
100
AcDbEntity
  8
0
390
1D
100
AcDbBlockBegin
  2
*MODEL_SPACE
 70
     0
 10
0.0
 20
0.0
 30
0.0
  3
*MODEL_SPACE
  1
*MODEL_SPACE
  0
ENDBLK
  5
E
330
A
100
AcDbEntity
  8
0
390
1D
100
AcDbBlockEnd
  0
BLOCK
  5
F
330
B
100
AcDbEntity
 67
     1
  8
0
390
1D
100
AcDbBlockBegin
  2
*PAPER_SPACE
 70
     0
 10
0.0
 20
0.0
 30
0.0
  3
*PAPER_SPACE
  1
*PAPER_SPACE
  0
ENDBLK
  5
10
330
B
100
AcDbEntity
 67
     1
  8
0
390
1D
100
AcDbBlockEnd
  0
BLOCK
  5
EC4
330
4E
100
AcDbEntity
  8
0
390
1D
100
AcDbBlockBegin
  2
_DOT
 70
     0
 10
0.0
 20
0.0
 30
0.0
  3
_DOT
  1
_DOT
  0
POLYLINE
  5
EC6
330
4E
100
AcDbEntity
  8
0
  6
ByBlock
 62
     0
370
    -2
390
1D
100
AcDb2dPolyline
 66
     1
 10
0.0
 20
0.0
 30
0.0
 70
     1
 40
0.5
 41
0.5
  0
VERTEX
  5
EC7
330
EC6
100
AcDbEntity
  8
0
  6
ByBlock
 62
     0
370
    -2
390
1D
100
AcDbVertex
100
AcDb2dVertex
 10
-0.25
 20
0.0
 30
0.0
 42
1.0
  0
VERTEX
  5
EC8
330
EC6
100
AcDbEntity
  8
0
  6
ByBlock
 62
     0
370
    -2
390
1D
100
AcDbVertex
100
AcDb2dVertex
 10
0.25
 20
0.0
 30
0.0
 42
1.0
  0
SEQEND
  5
EC9
330
EC6
100
AcDbEntity
  8
0
390
1D
  0
LINE
  5
ECA
330
4E
100
AcDbEntity
  8
0
  6
ByBlock
 62
     0
370
    -2
390
1D
100
AcDbLine
 10
-0.5
 20
0.0
 30
0.0
 11
-1.0
 21
0.0
 31
0.0
  0
ENDBLK
  5
ECB
330
4E
100
AcDbEntity
  8
0
390
1D
100
AcDbBlockEnd
  0
BLOCK
  5
68B
330
68A
100
AcDbEntity
  8
0
100
AcDbBlockBegin
  2
名称未設定-1
 70
     0
 10
0.0
 20
0.0
 30
0.0
  3
名称未設定-1
  1
名称未設定-1
  0
INSERT
  5
68F
330
68A
100
AcDbEntity
  8
LOGO
100
AcDbBlockReference
  2
block 3
 10
0.0
 20
0.0
 30
0.0
  0
ENDBLK
  5
6B1
330
68A
100
AcDbEntity
  8
0
100
AcDbBlockEnd
  0
BLOCK
  5
68E
330
68D
100
AcDbEntity
  8
0
100
AcDbBlockBegin
  2
block 2
 70
     0
 10
0.0
 20
0.0
 30
0.0
  3
block 2
  1
block 2
  0
ENDBLK
  5
6B0
330
68D
100
AcDbEntity
  8
0
100
AcDbBlockEnd
  0
BLOCK
  5
691
330
690
100
AcDbEntity
  8
0
100
AcDbBlockBegin
  2
block 3
 70
     0
 10
0.0
 20
0.0
 30
0.0
  3
block 3
  1
block 3
  0
INSERT
  5
692
330
690
100
AcDbEntity
  8
LOGO
100
AcDbBlockReference
  2
block 4
 10
0.0
 20
0.0
 30
0.0
  0
INSERT
  5
6A1
330
690
100
AcDbEntity
  8
LOGO
100
AcDbBlockReference
  2
block 5
 10
0.0
 20
0.0
 30
0.0
  0
ENDBLK
  5
6AF
330
690
100
AcDbEntity
  8
0
100
AcDbBlockEnd
  0
BLOCK
  5
694
330
693
100
AcDbEntity
  8
0
100
AcDbBlockBegin
  2
block 4
 70
     0
 10
0.0
 20
0.0
 30
0.0
  3
block 4
  1
block 4
  0
POLYLINE
  5
695
330
693
100
AcDbEntity
  8
LOGO
370
     0
100
AcDb2dPolyline
 66
     1
 10
0.0
 20
0.0
 30
0.0
  0
VERTEX
  5
696
330
695
100
AcDbEntity
  8
LOGO
370
     0
100
AcDbVertex
100
AcDb2dVertex
 10
83.79545727667795
 20
167.6444858234922
 30
0.0
  0
VERTEX
  5
697
330
695
100
AcDbEntity
  8
LOGO
370
     0
100
AcDbVertex
100
AcDb2dVertex
 10
83.79545727667795
 20
159.7968976406313
 30
0.0
  0
VERTEX
  5
698
330
695
100
AcDbEntity
  8
LOGO
370
     0
100
AcDbVertex
100
AcDb2dVertex
 10
71.3631329975216
 20
159.7968976406313
 30
0.0
  0
VERTEX
  5
699
330
695
100
AcDbEntity
  8
LOGO
370
     0
100
AcDbVertex
100
AcDb2dVertex
 10
71.3631329975216
 20
127.8027915271048
 30
0.0
  0
VERTEX
  5
69A
330
695
100
AcDbEntity
  8
LOGO
370
     0
100
AcDbVertex
100
AcDb2dVertex
 10
60.43011526263018
 20
127.8027915271048
 30
0.0
  0
VERTEX
  5
69B
330
695
100
AcDbEntity
  8
LOGO
370
     0
100
AcDbVertex
100
AcDb2dVertex
 10
60.43011526263018
 20
159.7968976406313
 30
0.0
  0
VERTEX
  5
69C
330
695
100
AcDbEntity
  8
LOGO
370
     0
100
AcDbVertex
100
AcDb2dVertex
 10
48.21793273020759
 20
159.7968976406313
 30
0.0
  0
VERTEX
  5
69D
330
695
100
AcDbEntity
  8
LOGO
370
     0
100
AcDbVertex
100
AcDb2dVertex
 10
48.21793273020759
 20
167.6444858234922
 30
0.0
  0
VERTEX
  5
69E
330
695
100
AcDbEntity
  8
LOGO
370
     0
100
AcDbVertex
100
AcDb2dVertex
 10
83.79545727667795
 20
167.6444858234922
 30
0.0
  0
SEQEND
  5
69F
330
695
100
AcDbEntity
  8
LOGO
370
     0
  0
HATCH
  5
6A0
330
693
100
AcDbEntity
  8
LOGO
 62
   250
420
  2234388
100
AcDbHatch
 10
0.0
 20
0.0
 30
0.0
210
0.0
220
0.0
230
1.0
  2
SOLID
 70
     1
 71
     0
 91
        1
 92
        1
 93
        8
 72
     1
 10
83.79545727667795
 20
167.6444858234922
 11
83.79545727667795
 21
159.7968976406313
 72
     1
 10
83.79545727667795
 20
159.7968976406313
 11
71.3631329975216
 21
159.7968976406313
 72
     1
 10
71.3631329975216
 20
159.7968976406313
 11
71.3631329975216
 21
127.8027915271048
 72
     1
 10
71.3631329975216
 20
127.8027915271048
 11
60.43011526263018
 21
127.8027915271048
 72
     1
 10
60.43011526263018
 20
127.8027915271048
 11
60.43011526263018
 21
159.7968976406313
 72
     1
 10
60.43011526263018
 20
159.7968976406313
 11
48.21793273020759
 21
159.7968976406313
 72
     1
 10
48.21793273020759
 20
159.7968976406313
 11
48.21793273020759
 21
167.6444858234922
 72
     1
 10
48.21793273020759
 20
167.6444858234922
 11
83.79545727667795
 21
167.6444858234922
 97
        0
 75
     2
 76
     1
 98
        0
  0
ENDBLK
  5
6AE
330
693
100
AcDbEntity
  8
0
100
AcDbBlockEnd
  0
BLOCK
  5
6A3
330
6A2
100
AcDbEntity
  8
0
100
AcDbBlockBegin
  2
block 5
 70
     0
 10
0.0
 20
0.0
 30
0.0
  3
block 5
  1
block 5
  0
SPLINE
  5
6A4
330
6A2
100
AcDbEntity
  8
LOGO
370
     0
100
AcDbSpline
210
0.0
220
0.0
230
1.0
 70
    11
 71
     3
 72
    56
 73
    52
 74
     0
 42
0.000000001
 43
0.0000000001
 40
0.0
 40
0.0
 40
0.0
 40
0.0
 40
1.0
 40
1.0
 40
1.0
 40
2.0
 40
2.0
 40
2.0
 40
3.0
 40
3.0
 40
3.0
 40
4.0
 40
4.0
 40
4.0
 40
5.0
 40
5.0
 40
5.0
 40
6.0
 40
6.0
 40
6.0
 40
7.0
 40
7.0
 40
7.0
 40
8.0
 40
8.0
 40
8.0
 40
9.0
 40
9.0
 40
9.0
 40
10.0
 40
10.0
 40
10.0
 40
11.0
 40
11.0
 40
11.0
 40
12.0
 40
12.0
 40
12.0
 40
13.0
 40
13.0
 40
13.0
 40
14.0
 40
14.0
 40
14.0
 40
15.0
 40
15.0
 40
15.0
 40
16.0
 40
16.0
 40
16.0
 40
17.0
 40
17.0
 40
17.0
 40
17.0
 10
100.4504378777679
 20
166.69157178364
 30
0.0
 10
101.9848844191641
 20
167.1313385124438
 30
0.0
 10
103.9637485713373
 20
166.7649523658846
 30
0.0
 10
103.9637485713373
 20
166.7649523658846
 30
0.0
 10
103.9637485713373
 20
166.7649523658846
 30
0.0
 10
103.0132460999156
 20
163.911205638077
 30
0.0
 10
103.0132460999156
 20
163.911205638077
 30
0.0
 10
103.0132460999156
 20
163.911205638077
 30
0.0
 10
101.0674548862189
 20
164.3601018759394
 30
0.0
 10
99.57090442016032
 20
163.1805004036133
 30
0.0
 10
98.40508333886608
 20
162.258247733807
 30
0.0
 10
97.65301849830304
 20
159.804132345923
 30
0.0
 10
97.3598406791005
 20
158.8699940888517
 30
0.0
 10
97.3598406791005
 20
158.8699940888517
 30
0.0
 10
96.07137411762282
 20
154.9119212747295
 30
0.0
 10
96.07137411762282
 20
154.9119212747295
 30
0.0
 10
96.07137411762282
 20
154.9119212747295
 30
0.0
 10
100.3012651448482
 20
154.9119212747295
 30
0.0
 10
100.3012651448482
 20
154.9119212747295
 30
0.0
 10
100.3012651448482
 20
154.9119212747295
 30
0.0
 10
99.64152892419852
 20
152.4199098115079
 30
0.0
 10
99.64152892419852
 20
152.4199098115079
 30
0.0
 10
99.64152892419852
 20
152.4199098115079
 30
0.0
 10
95.38097652692731
 20
152.4199098115079
 30
0.0
 10
95.38097652692731
 20
152.4199098115079
 30
0.0
 10
95.38097652692731
 20
152.4199098115079
 30
0.0
 10
87.75353009080013
 20
127.8027915271048
 30
0.0
 10
87.75353009080013
 20
127.8027915271048
 30
0.0
 10
87.75353009080013
 20
127.8027915271048
 30
0.0
 10
85.36538832498108
 20
127.8027915271048
 30
0.0
 10
85.36538832498108
 20
127.8027915271048
 30
0.0
 10
85.36538832498108
 20
127.8027915271048
 30
0.0
 10
93.00006946639998
 20
152.4199098115079
 30
0.0
 10
93.00006946639998
 20
152.4199098115079
 30
0.0
 10
93.00006946639998
 20
152.4199098115079
 30
0.0
 10
89.85297266450198
 20
152.4199098115079
 30
0.0
 10
89.85297266450198
 20
152.4199098115079
 30
0.0
 10
89.85297266450198
 20
152.4199098115079
 30
0.0
 10
90.51270888515164
 20
154.9119212747295
 30
0.0
 10
90.51270888515164
 20
154.9119212747295
 30
0.0
 10
90.51270888515164
 20
154.9119212747295
 30
0.0
 10
93.6904670570955
 20
154.9119212747295
 30
0.0
 10
93.6904670570955
 20
154.9119212747295
 30
0.0
 10
93.6904670570955
 20
154.9119212747295
 30
0.0
 10
94.81598049462158
 20
158.3616699146644
 30
0.0
 10
94.81598049462158
 20
158.3616699146644
 30
0.0
 10
95.7237637538445
 20
161.2605474231013
 30
0.0
 10
96.4968436907311
 20
162.8139420021662
 30
0.0
 10
97.15657991138076
 20
163.9844139654337
 30
0.0
 10
97.81183750494507
 20
165.1523021053827
 30
0.0
 10
99.1047826935081
 20
166.3084769129547
 30
0.0
 10
100.4504378777679
 20
166.69157178364
 30
0.0
  0
HATCH
  5
6A5
330
6A2
100
AcDbEntity
  8
LOGO
 62
   250
420
  2234388
100
AcDbHatch
 10
0.0
 20
0.0
 30
0.0
210
0.0
220
0.0
230
1.0
  2
SOLID
 70
     1
 71
     0
 91
        1
 92
        1
 93
        1
 72
     4
 94
        3
 73
     0
 74
     1
 95
       56
 96
       52
 40
0.0
 40
0.0
 40
0.0
 40
0.0
 40
1.0
 40
1.0
 40
1.0
 40
2.0
 40
2.0
 40
2.0
 40
3.0
 40
3.0
 40
3.0
 40
4.0
 40
4.0
 40
4.0
 40
5.0
 40
5.0
 40
5.0
 40
6.0
 40
6.0
 40
6.0
 40
7.0
 40
7.0
 40
7.0
 40
8.0
 40
8.0
 40
8.0
 40
9.0
 40
9.0
 40
9.0
 40
10.0
 40
10.0
 40
10.0
 40
11.0
 40
11.0
 40
11.0
 40
12.0
 40
12.0
 40
12.0
 40
13.0
 40
13.0
 40
13.0
 40
14.0
 40
14.0
 40
14.0
 40
15.0
 40
15.0
 40
15.0
 40
16.0
 40
16.0
 40
16.0
 40
17.0
 40
17.0
 40
17.0
 40
17.0
 10
100.4504378777679
 20
166.69157178364
 10
101.9848844191641
 20
167.1313385124438
 10
103.9637485713373
 20
166.7649523658846
 10
103.9637485713373
 20
166.7649523658846
 10
103.9637485713373
 20
166.7649523658846
 10
103.0132460999156
 20
163.911205638077
 10
103.0132460999156
 20
163.911205638077
 10
103.0132460999156
 20
163.911205638077
 10
101.0674548862189
 20
164.3601018759394
 10
99.57090442016032
 20
163.1805004036133
 10
98.40508333886608
 20
162.258247733807
 10
97.65301849830304
 20
159.804132345923
 10
97.3598406791005
 20
158.8699940888517
 10
97.3598406791005
 20
158.8699940888517
 10
96.07137411762282
 20
154.9119212747295
 10
96.07137411762282
 20
154.9119212747295
 10
96.07137411762282
 20
154.9119212747295
 10
100.3012651448482
 20
154.9119212747295
 10
100.3012651448482
 20
154.9119212747295
 10
100.3012651448482
 20
154.9119212747295
 10
99.64152892419852
 20
152.4199098115079
 10
99.64152892419852
 20
152.4199098115079
 10
99.64152892419852
 20
152.4199098115079
 10
95.38097652692731
 20
152.4199098115079
 10
95.38097652692731
 20
152.4199098115079
 10
95.38097652692731
 20
152.4199098115079
 10
87.75353009080013
 20
127.8027915271048
 10
87.75353009080013
 20
127.8027915271048
 10
87.75353009080013
 20
127.8027915271048
 10
85.36538832498108
 20
127.8027915271048
 10
85.36538832498108
 20
127.8027915271048
 10
85.36538832498108
 20
127.8027915271048
 10
93.00006946639998
 20
152.4199098115079
 10
93.00006946639998
 20
152.4199098115079
 10
93.00006946639998
 20
152.4199098115079
 10
89.85297266450198
 20
152.4199098115079
 10
89.85297266450198
 20
152.4199098115079
 10
89.85297266450198
 20
152.4199098115079
 10
90.51270888515164
 20
154.9119212747295
 10
90.51270888515164
 20
154.9119212747295
 10
90.51270888515164
 20
154.9119212747295
 10
93.6904670570955
 20
154.9119212747295
 10
93.6904670570955
 20
154.9119212747295
 10
93.6904670570955
 20
154.9119212747295
 10
94.81598049462158
 20
158.3616699146644
 10
94.81598049462158
 20
158.3616699146644
 10
95.7237637538445
 20
161.2605474231013
 10
96.4968436907311
 20
162.8139420021662
 10
97.15657991138076
 20
163.9844139654337
 10
97.81183750494507
 20
165.1523021053827
 10
99.1047826935081
 20
166.3084769129547
 10
100.4504378777679
 20
166.69157178364
 97
        0
 75
     2
 76
     1
 98
        0
  0
SPLINE
  5
6A6
330
6A2
100
AcDbEntity
  8
LOGO
370
     0
100
AcDbSpline
210
0.0
220
0.0
230
1.0
 70
    11
 71
     3
 72
    38
 73
    34
 74
     0
 42
0.000000001
 43
0.0000000001
 40
0.0
 40
0.0
 40
0.0
 40
0.0
 40
1.0
 40
1.0
 40
1.0
 40
2.0
 40
2.0
 40
2.0
 40
3.0
 40
3.0
 40
3.0
 40
4.0
 40
4.0
 40
4.0
 40
5.0
 40
5.0
 40
5.0
 40
6.0
 40
6.0
 40
6.0
 40
7.0
 40
7.0
 40
7.0
 40
8.0
 40
8.0
 40
8.0
 40
9.0
 40
9.0
 40
9.0
 40
10.0
 40
10.0
 40
10.0
 40
11.0
 40
11.0
 40
11.0
 40
11.0
 10
126.377554584636
 20
154.8151140277308
 30
0.0
 10
126.377554584636
 20
154.8151140277308
 30
0.0
 10
128.8311532078563
 20
154.8151140277308
 30
0.0
 10
128.8311532078563
 20
154.8151140277308
 30
0.0
 10
128.8311532078563
 20
154.8151140277308
 30
0.0
 10
127.7345785914971
 20
151.3062819612468
 30
0.0
 10
127.7345785914971
 20
151.3062819612468
 30
0.0
 10
128.571392836906
 20
152.2922689395754
 30
0.0
 10
129.8860421413442
 20
153.604506675583
 30
0.0
 10
131.0163787157314
 20
154.2664822097754
 30
0.0
 10
132.7044766171327
 20
155.2500576196734
 30
0.0
 10
133.6642808525008
 20
155.3847609420097
 30
0.0
 10
134.7284715499351
 20
155.3565111403944
 30
0.0
 10
134.7284715499351
 20
155.3565111403944
 30
0.0
 10
133.6877075172549
 20
152.0345756272799
 30
0.0
 10
133.6877075172549
 20
152.0345756272799
 30
0.0
 10
133.011434827367
 20
152.3184516825359
 30
0.0
 10
130.930940291334
 20
151.7768823149844
 30
0.0
 10
129.739280976855
 20
150.9162968950455
 30
0.0
 10
128.66613302525
 20
150.1454562717016
 30
0.0
 10
127.9192358313239
 20
149.4857200510519
 30
0.0
 10
127.0393578639405
 20
147.8282835196966
 30
0.0
 10
126.164647543194
 20
146.1699857139017
 30
0.0
 10
125.4742499524985
 20
143.5262176944419
 30
0.0
 10
124.2822461282437
 20
139.6959580071401
 30
0.0
 10
124.2822461282437
 20
139.6959580071401
 30
0.0
 10
120.5753209406769
 20
127.8027915271048
 30
0.0
 10
120.5753209406769
 20
127.8027915271048
 30
0.0
 10
120.5753209406769
 20
127.8027915271048
 30
0.0
 10
118.1964809388044
 20
127.8027915271048
 30
0.0
 10
118.1964809388044
 20
127.8027915271048
 30
0.0
 10
118.1964809388044
 20
127.8027915271048
 30
0.0
 10
126.377554584636
 20
154.8151140277308
 30
0.0
 10
126.377554584636
 20
154.8151140277308
 30
0.0
  0
HATCH
  5
6A7
330
6A2
100
AcDbEntity
  8
LOGO
 62
   250
420
  2234388
100
AcDbHatch
 10
0.0
 20
0.0
 30
0.0
210
0.0
220
0.0
230
1.0
  2
SOLID
 70
     1
 71
     0
 91
        1
 92
        1
 93
        1
 72
     4
 94
        3
 73
     0
 74
     1
 95
       38
 96
       34
 40
0.0
 40
0.0
 40
0.0
 40
0.0
 40
1.0
 40
1.0
 40
1.0
 40
2.0
 40
2.0
 40
2.0
 40
3.0
 40
3.0
 40
3.0
 40
4.0
 40
4.0
 40
4.0
 40
5.0
 40
5.0
 40
5.0
 40
6.0
 40
6.0
 40
6.0
 40
7.0
 40
7.0
 40
7.0
 40
8.0
 40
8.0
 40
8.0
 40
9.0
 40
9.0
 40
9.0
 40
10.0
 40
10.0
 40
10.0
 40
11.0
 40
11.0
 40
11.0
 40
11.0
 10
126.377554584636
 20
154.8151140277308
 10
126.377554584636
 20
154.8151140277308
 10
128.8311532078563
 20
154.8151140277308
 10
128.8311532078563
 20
154.8151140277308
 10
128.8311532078563
 20
154.8151140277308
 10
127.7345785914971
 20
151.3062819612468
 10
127.7345785914971
 20
151.3062819612468
 10
128.571392836906
 20
152.2922689395754
 10
129.8860421413442
 20
153.604506675583
 10
131.0163787157314
 20
154.2664822097754
 10
132.7044766171327
 20
155.2500576196734
 10
133.6642808525008
 20
155.3847609420097
 10
134.7284715499351
 20
155.3565111403944
 10
134.7284715499351
 20
155.3565111403944
 10
133.6877075172549
 20
152.0345756272799
 10
133.6877075172549
 20
152.0345756272799
 10
133.011434827367
 20
152.3184516825359
 10
130.930940291334
 20
151.7768823149844
 10
129.739280976855
 20
150.9162968950455
 10
128.66613302525
 20
150.1454562717016
 10
127.9192358313239
 20
149.4857200510519
 10
127.0393578639405
 20
147.8282835196966
 10
126.164647543194
 20
146.1699857139017
 10
125.4742499524985
 20
143.5262176944419
 10
124.2822461282437
 20
139.6959580071401
 10
124.2822461282437
 20
139.6959580071401
 10
120.5753209406769
 20
127.8027915271048
 10
120.5753209406769
 20
127.8027915271048
 10
120.5753209406769
 20
127.8027915271048
 10
118.1964809388044
 20
127.8027915271048
 10
118.1964809388044
 20
127.8027915271048
 10
118.1964809388044
 20
127.8027915271048
 10
126.377554584636
 20
154.8151140277308
 10
126.377554584636
 20
154.8151140277308
 97
        0
 75
     2
 76
     1
 98
        0
  0
SPLINE
  5
6A8
330
6A2
100
AcDbEntity
  8
LOGO
370
     0
100
AcDbSpline
210
0.0
220
0.0
230
1.0
 70
    11
 71
     3
 72
   104
 73
   100
 74
     0
 42
0.000000001
 43
0.0000000001
 40
0.0
 40
0.0
 40
0.0
 40
0.0
 40
1.0
 40
1.0
 40
1.0
 40
2.0
 40
2.0
 40
2.0
 40
3.0
 40
3.0
 40
3.0
 40
4.0
 40
4.0
 40
4.0
 40
5.0
 40
5.0
 40
5.0
 40
6.0
 40
6.0
 40
6.0
 40
7.0
 40
7.0
 40
7.0
 40
8.0
 40
8.0
 40
8.0
 40
9.0
 40
9.0
 40
9.0
 40
10.0
 40
10.0
 40
10.0
 40
11.0
 40
11.0
 40
11.0
 40
12.0
 40
12.0
 40
12.0
 40
13.0
 40
13.0
 40
13.0
 40
14.0
 40
14.0
 40
14.0
 40
15.0
 40
15.0
 40
15.0
 40
16.0
 40
16.0
 40
16.0
 40
17.0
 40
17.0
 40
17.0
 40
18.0
 40
18.0
 40
18.0
 40
19.0
 40
19.0
 40
19.0
 40
20.0
 40
20.0
 40
20.0
 40
21.0
 40
21.0
 40
21.0
 40
22.0
 40
22.0
 40
22.0
 40
23.0
 40
23.0
 40
23.0
 40
24.0
 40
24.0
 40
24.0
 40
25.0
 40
25.0
 40
25.0
 40
26.0
 40
26.0
 40
26.0
 40
27.0
 40
27.0
 40
27.0
 40
28.0
 40
28.0
 40
28.0
 40
29.0
 40
29.0
 40
29.0
 40
30.0
 40
30.0
 40
30.0
 40
31.0
 40
31.0
 40
31.0
 40
32.0
 40
32.0
 40
32.0
 40
33.0
 40
33.0
 40
33.0
 40
33.0
 10
139.8926730891197
 20
154.8294111834263
 30
0.0
 10
139.8926730891197
 20
154.8294111834263
 30
0.0
 10
142.0344903652445
 20
154.8294111834263
 30
0.0
 10
142.0344903652445
 20
154.8294111834263
 30
0.0
 10
142.0344903652445
 20
154.8294111834263
 30
0.0
 10
140.9516961399171
 20
151.3157559800812
 30
0.0
 10
140.9516961399171
 20
151.3157559800812
 30
0.0
 10
141.8928968473923
 20
152.7887075264977
 30
0.0
 10
142.7341897198865
 20
153.4484437471474
 30
0.0
 10
143.8552245303272
 20
154.2926649527359
 30
0.0
 10
144.9803934580775
 20
155.1296514530327
 30
0.0
 10
146.3139908001845
 20
155.3044901642492
 30
0.0
 10
147.241066606852
 20
155.3044901642492
 30
0.0
 10
148.3855280820469
 20
155.3044901642492
 30
0.0
 10
149.4969166187653
 20
155.0752189084569
 30
0.0
 10
150.0784491203092
 20
153.8172414621372
 30
0.0
 10
150.5228667310863
 20
152.833838307127
 30
0.0
 10
150.5414702589793
 20
152.7201500811143
 30
0.0
 10
150.4140016419347
 20
150.7765981809602
 30
0.0
 10
151.5818897818837
 20
152.7699317437168
 30
0.0
 10
152.4424752018226
 20
153.6256940267945
 30
0.0
 10
153.9038856707499
 20
154.4507949398263
 30
0.0
 10
155.4455669174378
 20
155.3044901642492
 30
0.0
 10
156.339225275853
 20
155.3659851592288
 30
0.0
 10
157.3748216618963
 20
155.2147453676543
 30
0.0
 10
158.911679771723
 20
154.9877134254046
 30
0.0
 10
159.8859534176746
 20
154.4390816074493
 30
0.0
 10
160.3965169054045
 20
152.7816450760939
 30
0.0
 10
160.9070803931344
 20
151.1219692311958
 30
0.0
 10
160.6328506116007
 20
150.2303779314354
 30
0.0
 10
159.9992971339115
 20
147.597634224801
 30
0.0
 10
159.7105979417943
 20
146.4014962832367
 30
0.0
 10
159.2947746424084
 20
144.9400858143094
 30
0.0
 10
158.7463150793409
 20
143.2092687007094
 30
0.0
 10
158.7463150793409
 20
143.2092687007094
 30
0.0
 10
153.9038856707499
 20
127.8027915271048
 30
0.0
 10
153.9038856707499
 20
127.8027915271048
 30
0.0
 10
153.9038856707499
 20
127.8027915271048
 30
0.0
 10
151.3882752878863
 20
127.8027915271048
 30
0.0
 10
151.3882752878863
 20
127.8027915271048
 30
0.0
 10
151.3882752878863
 20
127.8027915271048
 30
0.0
 10
155.6250565106276
 20
141.2751908193897
 30
0.0
 10
155.6250565106276
 20
141.2751908193897
 30
0.0
 10
156.5094131050963
 20
144.0936252951782
 30
0.0
 10
157.109893644309
 20
146.1506931664571
 30
0.0
 10
157.4220195011804
 20
147.4415712963654
 30
0.0
 10
157.8095929989511
 20
149.0530157726519
 30
0.0
 10
157.9656559273867
 20
149.5826995529385
 30
0.0
 10
157.7816877071116
 20
150.7529992613181
 30
0.0
 10
157.6111553680925
 20
151.8430281919372
 30
0.0
 10
157.0582171779396
 20
152.5547853887321
 30
0.0
 10
156.1170164704645
 20
152.5547853887321
 30
0.0
 10
155.1096698860365
 20
152.5547853887321
 30
0.0
 10
154.2962823053817
 20
152.4412694176073
 30
0.0
 10
153.156643967048
 20
151.2945686288697
 30
0.0
 10
152.0170056287143
 20
150.1476955852443
 30
0.0
 10
151.076149431015
 20
148.7930831468137
 30
0.0
 10
150.3337308641742
 20
147.2290087646991
 30
0.0
 10
149.5957909244188
 20
145.6683794803425
 30
0.0
 10
148.8530278478023
 20
143.6822806228776
 30
0.0
 10
148.0964843801539
 20
141.2751908193897
 30
0.0
 10
148.0964843801539
 20
141.2751908193897
 30
0.0
 10
143.8552245303272
 20
127.8027915271048
 30
0.0
 10
143.8552245303272
 20
127.8027915271048
 30
0.0
 10
143.8552245303272
 20
127.8027915271048
 30
0.0
 10
141.486030802177
 20
127.8027915271048
 30
0.0
 10
141.486030802177
 20
127.8027915271048
 30
0.0
 10
141.486030802177
 20
127.8027915271048
 30
0.0
 10
146.3329388378533
 20
143.2092687007094
 30
0.0
 10
146.3329388378533
 20
143.2092687007094
 30
0.0
 10
146.8483254624444
 20
144.8408669988801
 30
0.0
 10
147.2314203331297
 20
146.1837661049335
 30
0.0
 10
147.4867020769946
 20
147.224185627838
 30
0.0
 10
147.9169947869641
 20
149.0197705792876
 30
0.0
 10
148.0306830129768
 20
150.2400242051577
 30
0.0
 10
147.709255392159
 20
151.3157559800812
 30
0.0
 10
147.3874832615654
 20
152.3916600098926
 30
0.0
 10
146.8245542879144
 20
152.6683013598569
 30
0.0
 10
145.8840425999909
 20
152.6683013598569
 30
0.0
 10
145.0989048209514
 20
152.6683013598569
 30
0.0
 10
144.3282364524954
 20
152.3275811915945
 30
0.0
 10
143.4531816219731
 20
151.6538923250251
 30
0.0
 10
142.34627171234
 20
150.8074318058939
 30
0.0
 10
141.901854101563
 20
150.1097995099067
 30
0.0
 10
141.3578731655808
 20
149.289521733736
 30
0.0
 10
140.6299240093235
 20
148.192602607601
 30
0.0
 10
140.2850697237515
 20
147.455696197173
 30
0.0
 10
139.6652966370942
 20
145.8385673095858
 30
0.0
 10
139.0506911970739
 20
144.2214384219986
 30
0.0
 10
138.463991048893
 20
142.3252566160164
 30
0.0
 10
138.0571250036777
 20
141.0154304484394
 30
0.0
 10
138.0571250036777
 20
141.0154304484394
 30
0.0
 10
133.9009590684727
 20
127.8027915271048
 30
0.0
 10
133.9009590684727
 20
127.8027915271048
 30
0.0
 10
133.9009590684727
 20
127.8027915271048
 30
0.0
 10
131.4180771143097
 20
127.8027915271048
 30
0.0
 10
131.4180771143097
 20
127.8027915271048
 30
0.0
 10
131.4180771143097
 20
127.8027915271048
 30
0.0
 10
139.8926730891197
 20
154.8294111834263
 30
0.0
 10
139.8926730891197
 20
154.8294111834263
 30
0.0
  0
HATCH
  5
6A9
330
6A2
100
AcDbEntity
  8
LOGO
 62
   250
420
  2234388
100
AcDbHatch
 10
0.0
 20
0.0
 30
0.0
210
0.0
220
0.0
230
1.0
  2
SOLID
 70
     1
 71
     0
 91
        1
 92
        1
 93
        1
 72
     4
 94
        3
 73
     0
 74
     1
 95
      104
 96
      100
 40
0.0
 40
0.0
 40
0.0
 40
0.0
 40
1.0
 40
1.0
 40
1.0
 40
2.0
 40
2.0
 40
2.0
 40
3.0
 40
3.0
 40
3.0
 40
4.0
 40
4.0
 40
4.0
 40
5.0
 40
5.0
 40
5.0
 40
6.0
 40
6.0
 40
6.0
 40
7.0
 40
7.0
 40
7.0
 40
8.0
 40
8.0
 40
8.0
 40
9.0
 40
9.0
 40
9.0
 40
10.0
 40
10.0
 40
10.0
 40
11.0
 40
11.0
 40
11.0
 40
12.0
 40
12.0
 40
12.0
 40
13.0
 40
13.0
 40
13.0
 40
14.0
 40
14.0
 40
14.0
 40
15.0
 40
15.0
 40
15.0
 40
16.0
 40
16.0
 40
16.0
 40
17.0
 40
17.0
 40
17.0
 40
18.0
 40
18.0
 40
18.0
 40
19.0
 40
19.0
 40
19.0
 40
20.0
 40
20.0
 40
20.0
 40
21.0
 40
21.0
 40
21.0
 40
22.0
 40
22.0
 40
22.0
 40
23.0
 40
23.0
 40
23.0
 40
24.0
 40
24.0
 40
24.0
 40
25.0
 40
25.0
 40
25.0
 40
26.0
 40
26.0
 40
26.0
 40
27.0
 40
27.0
 40
27.0
 40
28.0
 40
28.0
 40
28.0
 40
29.0
 40
29.0
 40
29.0
 40
30.0
 40
30.0
 40
30.0
 40
31.0
 40
31.0
 40
31.0
 40
32.0
 40
32.0
 40
32.0
 40
33.0
 40
33.0
 40
33.0
 40
33.0
 10
139.8926730891197
 20
154.8294111834263
 10
139.8926730891197
 20
154.8294111834263
 10
142.0344903652445
 20
154.8294111834263
 10
142.0344903652445
 20
154.8294111834263
 10
142.0344903652445
 20
154.8294111834263
 10
140.9516961399171
 20
151.3157559800812
 10
140.9516961399171
 20
151.3157559800812
 10
141.8928968473923
 20
152.7887075264977
 10
142.7341897198865
 20
153.4484437471474
 10
143.8552245303272
 20
154.2926649527359
 10
144.9803934580775
 20
155.1296514530327
 10
146.3139908001845
 20
155.3044901642492
 10
147.241066606852
 20
155.3044901642492
 10
148.3855280820469
 20
155.3044901642492
 10
149.4969166187653
 20
155.0752189084569
 10
150.0784491203092
 20
153.8172414621372
 10
150.5228667310863
 20
152.833838307127
 10
150.5414702589793
 20
152.7201500811143
 10
150.4140016419347
 20
150.7765981809602
 10
151.5818897818837
 20
152.7699317437168
 10
152.4424752018226
 20
153.6256940267945
 10
153.9038856707499
 20
154.4507949398263
 10
155.4455669174378
 20
155.3044901642492
 10
156.339225275853
 20
155.3659851592288
 10
157.3748216618963
 20
155.2147453676543
 10
158.911679771723
 20
154.9877134254046
 10
159.8859534176746
 20
154.4390816074493
 10
160.3965169054045
 20
152.7816450760939
 10
160.9070803931344
 20
151.1219692311958
 10
160.6328506116007
 20
150.2303779314354
 10
159.9992971339115
 20
147.597634224801
 10
159.7105979417943
 20
146.4014962832367
 10
159.2947746424084
 20
144.9400858143094
 10
158.7463150793409
 20
143.2092687007094
 10
158.7463150793409
 20
143.2092687007094
 10
153.9038856707499
 20
127.8027915271048
 10
153.9038856707499
 20
127.8027915271048
 10
153.9038856707499
 20
127.8027915271048
 10
151.3882752878863
 20
127.8027915271048
 10
151.3882752878863
 20
127.8027915271048
 10
151.3882752878863
 20
127.8027915271048
 10
155.6250565106276
 20
141.2751908193897
 10
155.6250565106276
 20
141.2751908193897
 10
156.5094131050963
 20
144.0936252951782
 10
157.109893644309
 20
146.1506931664571
 10
157.4220195011804
 20
147.4415712963654
 10
157.8095929989511
 20
149.0530157726519
 10
157.9656559273867
 20
149.5826995529385
 10
157.7816877071116
 20
150.7529992613181
 10
157.6111553680925
 20
151.8430281919372
 10
157.0582171779396
 20
152.5547853887321
 10
156.1170164704645
 20
152.5547853887321
 10
155.1096698860365
 20
152.5547853887321
 10
154.2962823053817
 20
152.4412694176073
 10
153.156643967048
 20
151.2945686288697
 10
152.0170056287143
 20
150.1476955852443
 10
151.076149431015
 20
148.7930831468137
 10
150.3337308641742
 20
147.2290087646991
 10
149.5957909244188
 20
145.6683794803425
 10
148.8530278478023
 20
143.6822806228776
 10
148.0964843801539
 20
141.2751908193897
 10
148.0964843801539
 20
141.2751908193897
 10
143.8552245303272
 20
127.8027915271048
 10
143.8552245303272
 20
127.8027915271048
 10
143.8552245303272
 20
127.8027915271048
 10
141.486030802177
 20
127.8027915271048
 10
141.486030802177
 20
127.8027915271048
 10
141.486030802177
 20
127.8027915271048
 10
146.3329388378533
 20
143.2092687007094
 10
146.3329388378533
 20
143.2092687007094
 10
146.8483254624444
 20
144.8408669988801
 10
147.2314203331297
 20
146.1837661049335
 10
147.4867020769946
 20
147.224185627838
 10
147.9169947869641
 20
149.0197705792876
 10
148.0306830129768
 20
150.2400242051577
 10
147.709255392159
 20
151.3157559800812
 10
147.3874832615654
 20
152.3916600098926
 10
146.8245542879144
 20
152.6683013598569
 10
145.8840425999909
 20
152.6683013598569
 10
145.0989048209514
 20
152.6683013598569
 10
144.3282364524954
 20
152.3275811915945
 10
143.4531816219731
 20
151.6538923250251
 10
142.34627171234
 20
150.8074318058939
 10
141.901854101563
 20
150.1097995099067
 10
141.3578731655808
 20
149.289521733736
 10
140.6299240093235
 20
148.192602607601
 10
140.2850697237515
 20
147.455696197173
 10
139.6652966370942
 20
145.8385673095858
 10
139.0506911970739
 20
144.2214384219986
 10
138.463991048893
 20
142.3252566160164
 10
138.0571250036777
 20
141.0154304484394
 10
138.0571250036777
 20
141.0154304484394
 10
133.9009590684727
 20
127.8027915271048
 10
133.9009590684727
 20
127.8027915271048
 10
133.9009590684727
 20
127.8027915271048
 10
131.4180771143097
 20
127.8027915271048
 10
131.4180771143097
 20
127.8027915271048
 10
131.4180771143097
 20
127.8027915271048
 10
139.8926730891197
 20
154.8294111834263
 10
139.8926730891197
 20
154.8294111834263
 97
        0
 75
     2
 76
     1
 98
        0
  0
SPLINE
  5
6AA
330
6A2
100
AcDbEntity
  8
LOGO
370
     0
100
AcDbSpline
210
0.0
220
0.0
230
1.0
 70
    11
 71
     3
 72
    29
 73
    25
 74
     0
 42
0.000000001
 43
0.0000000001
 40
0.0
 40
0.0
 40
0.0
 40
0.0
 40
1.0
 40
1.0
 40
1.0
 40
2.0
 40
2.0
 40
2.0
 40
3.0
 40
3.0
 40
3.0
 40
4.0
 40
4.0
 40
4.0
 40
5.0
 40
5.0
 40
5.0
 40
6.0
 40
6.0
 40
6.0
 40
7.0
 40
7.0
 40
7.0
 40
8.0
 40
8.0
 40
8.0
 40
8.0
 10
101.6420971922469
 20
132.8388354296931
 30
0.0
 10
101.630039350094
 20
134.7164137077823
 30
0.0
 10
102.2236296937908
 20
138.0598810818841
 30
0.0
 10
103.7487744712405
 20
142.5378191476827
 30
0.0
 10
105.819967243327
 20
148.5896501242061
 30
0.0
 10
107.0602024361932
 20
150.8074318058939
 30
0.0
 10
108.1522984254671
 20
151.8833358357054
 30
0.0
 10
109.741177511439
 20
153.4532668840085
 30
0.0
 10
111.8740375333931
 20
153.5290590346837
 30
0.0
 10
112.5075910110823
 20
153.4532668840085
 30
0.0
 10
113.4012493694975
 20
153.3490526768302
 30
0.0
 10
114.6683563248758
 20
152.7580461564518
 30
0.0
 10
114.7493161221879
 20
150.7838328862519
 30
0.0
 10
114.8106388622796
 20
149.0909118479895
 30
0.0
 10
114.3186789024427
 20
145.9191825971221
 30
0.0
 10
112.6164561002338
 20
140.9489400617108
 30
0.0
 10
110.6444821435766
 20
135.1746117095912
 30
0.0
 10
109.4669477299053
 20
132.8960240524753
 30
0.0
 10
108.5212683953448
 20
131.9072809959403
 30
0.0
 10
106.7346406980658
 20
130.0538184021569
 30
0.0
 10
104.8222669326213
 20
130.2336525051225
 30
0.0
 10
104.5408024457958
 20
130.2336525051225
 30
0.0
 10
104.1721769856939
 20
130.2336525051225
 30
0.0
 10
101.6465758193322
 20
130.6305277668397
 30
0.0
 10
101.6420971922469
 20
132.8388354296931
 30
0.0
  0
SPLINE
  5
6AB
330
6A2
100
AcDbEntity
  8
LOGO
370
     0
100
AcDbSpline
210
0.0
220
0.0
230
1.0
 70
    11
 71
     3
 72
    32
 73
    28
 74
     0
 42
0.000000001
 43
0.0000000001
 40
0.0
 40
0.0
 40
0.0
 40
0.0
 40
1.0
 40
1.0
 40
1.0
 40
2.0
 40
2.0
 40
2.0
 40
3.0
 40
3.0
 40
3.0
 40
4.0
 40
4.0
 40
4.0
 40
5.0
 40
5.0
 40
5.0
 40
6.0
 40
6.0
 40
6.0
 40
7.0
 40
7.0
 40
7.0
 40
8.0
 40
8.0
 40
8.0
 40
9.0
 40
9.0
 40
9.0
 40
9.0
 10
106.2595617172429
 20
153.4105476718098
 30
0.0
 10
104.8222669326213
 20
151.5474388043041
 30
0.0
 10
103.7177685914188
 20
149.8758773721411
 30
0.0
 10
101.9232171692965
 20
144.6141795664062
 30
0.0
 10
100.2754269116635
 20
139.7999999594306
 30
0.0
 10
99.22777268346732
 20
136.3052927937542
 30
0.0
 10
99.06964269637689
 20
132.039572749846
 30
0.0
 10
98.94665270641765
 20
128.8673267343149
 30
0.0
 10
100.8807305877373
 20
127.8027915271048
 30
0.0
 10
103.7129454545577
 20
127.8027915271048
 30
0.0
 10
104.9352661390825
 20
127.8027915271048
 30
0.0
 10
108.0151835347002
 20
127.8827177950895
 30
0.0
 10
110.2045431598849
 20
130.5926316915021
 30
0.0
 10
111.7417457794874
 20
132.4984597712065
 30
0.0
 10
113.155269389579
 20
134.475256864725
 30
0.0
 10
115.0562743324223
 20
140.9489400617108
 30
0.0
 10
116.6361961642235
 20
146.3680788349845
 30
0.0
 10
117.7282921534974
 20
149.8639917848761
 30
0.0
 10
117.6480213757369
 20
151.8595646611754
 30
0.0
 10
117.6480213757369
 20
151.8595646611754
 30
0.0
 10
117.6480213757369
 20
151.8595646611754
 30
0.0
 10
117.6480213757369
 20
151.8595646611754
 30
0.0
 10
117.13229024137
 20
155.18150017429
 30
0.0
 10
114.7162431837115
 20
155.886194920681
 30
0.0
 10
113.3351034925446
 20
155.886194920681
 30
0.0
 10
111.9829026225447
 20
155.886194920681
 30
0.0
 10
108.3414342923792
 20
156.1251124501957
 30
0.0
 10
106.2595617172429
 20
153.4105476718098
 30
0.0
  0
HATCH
  5
6AC
330
6A2
100
AcDbEntity
  8
LOGO
 62
   250
420
  2234388
100
AcDbHatch
 10
0.0
 20
0.0
 30
0.0
210
0.0
220
0.0
230
1.0
  2
SOLID
 70
     1
 71
     0
 91
        2
 92
        1
 93
        1
 72
     4
 94
        3
 73
     0
 74
     1
 95
       29
 96
       25
 40
0.0
 40
0.0
 40
0.0
 40
0.0
 40
1.0
 40
1.0
 40
1.0
 40
2.0
 40
2.0
 40
2.0
 40
3.0
 40
3.0
 40
3.0
 40
4.0
 40
4.0
 40
4.0
 40
5.0
 40
5.0
 40
5.0
 40
6.0
 40
6.0
 40
6.0
 40
7.0
 40
7.0
 40
7.0
 40
8.0
 40
8.0
 40
8.0
 40
8.0
 10
101.6420971922469
 20
132.8388354296931
 10
101.630039350094
 20
134.7164137077823
 10
102.2236296937908
 20
138.0598810818841
 10
103.7487744712405
 20
142.5378191476827
 10
105.819967243327
 20
148.5896501242061
 10
107.0602024361932
 20
150.8074318058939
 10
108.1522984254671
 20
151.8833358357054
 10
109.741177511439
 20
153.4532668840085
 10
111.8740375333931
 20
153.5290590346837
 10
112.5075910110823
 20
153.4532668840085
 10
113.4012493694975
 20
153.3490526768302
 10
114.6683563248758
 20
152.7580461564518
 10
114.7493161221879
 20
150.7838328862519
 10
114.8106388622796
 20
149.0909118479895
 10
114.3186789024427
 20
145.9191825971221
 10
112.6164561002338
 20
140.9489400617108
 10
110.6444821435766
 20
135.1746117095912
 10
109.4669477299053
 20
132.8960240524753
 10
108.5212683953448
 20
131.9072809959403
 10
106.7346406980658
 20
130.0538184021569
 10
104.8222669326213
 20
130.2336525051225
 10
104.5408024457958
 20
130.2336525051225
 10
104.1721769856939
 20
130.2336525051225
 10
101.6465758193322
 20
130.6305277668397
 10
101.6420971922469
 20
132.8388354296931
 97
        0
 92
        1
 93
        1
 72
     4
 94
        3
 73
     0
 74
     1
 95
       32
 96
       28
 40
0.0
 40
0.0
 40
0.0
 40
0.0
 40
1.0
 40
1.0
 40
1.0
 40
2.0
 40
2.0
 40
2.0
 40
3.0
 40
3.0
 40
3.0
 40
4.0
 40
4.0
 40
4.0
 40
5.0
 40
5.0
 40
5.0
 40
6.0
 40
6.0
 40
6.0
 40
7.0
 40
7.0
 40
7.0
 40
8.0
 40
8.0
 40
8.0
 40
9.0
 40
9.0
 40
9.0
 40
9.0
 10
106.2595617172429
 20
153.4105476718098
 10
104.8222669326213
 20
151.5474388043041
 10
103.7177685914188
 20
149.8758773721411
 10
101.9232171692965
 20
144.6141795664062
 10
100.2754269116635
 20
139.7999999594306
 10
99.22777268346732
 20
136.3052927937542
 10
99.06964269637689
 20
132.039572749846
 10
98.94665270641765
 20
128.8673267343149
 10
100.8807305877373
 20
127.8027915271048
 10
103.7129454545577
 20
127.8027915271048
 10
104.9352661390825
 20
127.8027915271048
 10
108.0151835347002
 20
127.8827177950895
 10
110.2045431598849
 20
130.5926316915021
 10
111.7417457794874
 20
132.4984597712065
 10
113.155269389579
 20
134.475256864725
 10
115.0562743324223
 20
140.9489400617108
 10
116.6361961642235
 20
146.3680788349845
 10
117.7282921534974
 20
149.8639917848761
 10
117.6480213757369
 20
151.8595646611754
 10
117.6480213757369
 20
151.8595646611754
 10
117.6480213757369
 20
151.8595646611754
 10
117.6480213757369
 20
151.8595646611754
 10
117.13229024137
 20
155.18150017429
 10
114.7162431837115
 20
155.886194920681
 10
113.3351034925446
 20
155.886194920681
 10
111.9829026225447
 20
155.886194920681
 10
108.3414342923792
 20
156.1251124501957
 10
106.2595617172429
 20
153.4105476718098
 97
        0
 75
     2
 76
     1
 98
        0
  0
ENDBLK
  5
6AD
330
6A2
100
AcDbEntity
  8
0
100
AcDbBlockEnd
  0
BLOCK
  5
199B
330
199A
100
AcDbEntity
  8
0
100
AcDbBlockBegin
  2
SEANNOT_GROUP
 70
     0
 10
0.0
 20
0.0
 30
0.0
  3
SEANNOT_GROUP
  1
SEANNOT_GROUP
  0
ENDBLK
  5
199C
330
199A
100
AcDbEntity
  8
0
100
AcDbBlockEnd
  0
BLOCK
  5
1F30
330
1F2F
100
AcDbEntity
  8
0
100
AcDbBlockBegin
  2
SEANNOT_GROUP1
 70
     0
 10
0.0
 20
0.0
 30
0.0
  3
SEANNOT_GROUP1
  1
SEANNOT_GROUP1
  0
ENDBLK
  5
1F31
330
1F2F
100
AcDbEntity
  8
0
100
AcDbBlockEnd
  0
BLOCK
  5
3794
330
3793
100
AcDbEntity
  8
GAR70-1108
390
1D
100
AcDbBlockBegin
  2
ƒOƒ‹[ƒv-1
 70
     0
 10
0.0
 20
0.0
 30
0.0
  3
ƒOƒ‹[ƒv-1
  1

  0
LWPOLYLINE
  5
3795
330
3793
100
AcDbEntity
  8
0
  6
Continuous
 62
     7
370
    15
390
1D
100
AcDbPolyline
 90
       21
 70
   128
 43
0.0
 10
-671.8942464367683
 20
477.1095337869744
 10
-668.5809869268876
 20
477.0067982277982
 10
-665.2712316998673
 20
476.9095386371568
 10
-661.9673718546965
 20
476.8177859640067
 10
-658.671813465932
 20
476.7315332198734
 10
-655.386951626048
 20
476.6508023685326
 10
-652.1151894144867
 20
476.5755934099842
 10
-648.8589359009189
 20
476.5059223178831
 10
-645.6205821843338
 20
476.4418040675305
 10
-642.4025193637198
 20
476.3832456474004
 10
-639.2071714843154
 20
476.3302560426737
 10
-636.0369276483669
 20
476.2828482319451
 10
-632.8941819499768
 20
476.2410242119211
 10
-629.7813414620734
 20
476.2048059463772
 10
-626.7008112608419
 20
476.1742024204941
 10
-623.6549844420138
 20
476.1492106392118
 10
-620.6462670801454
 20
476.1298565597192
 10
-617.6770662481654
 20
476.1161541589643
 10
-614.7497730450618
 20
476.1080954501194
 10
-611.866781564938
 20
476.1057033953136
 10
-609.0304978823501
 20
476.1089869797278
  0
LINE
  5
3796
330
3793
100
AcDbEntity
  8
0
  6
Continuous
 62
     7
370
    15
390
1D
100
AcDbLine
 10
-609.0292778727617
 20
641.1057033953136
 30
0.0
 11
-716.2993397703369
 21
641.1057033953136
 31
0.0
  0
LWPOLYLINE
  5
3797
330
3793
100
AcDbEntity
  8
0
  6
Continuous
 62
     7
370
    15
390
1D
100
AcDbPolyline
 90
       21
 70
   128
 43
0.0
 10
-759.0290045187306
 20
567.0624931887871
 10
-758.7425308924306
 20
559.8293367679163
 10
-757.8975654299237
 20
552.753451960403
 10
-756.5157707891898
 20
545.8566238363296
 10
-754.6188335891173
 20
539.1606204937698
 10
-752.228423476285
 20
532.6872270028053
 10
-749.3662180842404
 20
526.4582124598636
 10
-746.0538810693348
 20
520.495374913621
 10
-742.3130970537142
 20
514.8204844588582
 10
-738.1655516578965
 20
509.4553251673037
 10
-733.6328915659219
 20
504.4216661353843
 10
-728.7368113836492
 20
499.7412904364756
 10
-723.498973769058
 20
495.4359971176075
 10
-717.9410703328927
 20
491.5275343097851
 10
-712.0847647315048
 20
488.0377070501585
 10
-705.9517196228743
 20
484.9882784450349
 10
-699.5636425916847
 20
482.4010385562631
 10
-692.94216634478
 20
480.2977644670977
 10
-686.1090004635868
 20
478.7002402492672
 10
-679.0858046109709
 20
477.6302359975521
 10
-671.8942464367683
 20
477.1095337869744
  0
LWPOLYLINE
  5
3798
330
3793
100
AcDbEntity
  8
0
  6
Continuous
 62
     7
370
    15
390
1D
100
AcDbPolyline
 90
       21
 70
   128
 43
0.0
 10
-723.5714105904121
 20
638.6515599917188
 10
-726.9617383655761
 20
635.9392673513137
 10
-730.1871282323193
 20
633.0978237184659
 10
-733.246680658204
 20
630.133504742804
 10
-736.1395140814734
 20
627.0526180212657
 10
-738.8647429468858
 20
623.8615001030382
 10
-741.4214846943136
 20
620.5664895340151
 10
-743.80884078969
 20
617.173860965471
 10
-746.0259496386817
 20
613.689966920248
 10
-748.0719127072224
 20
610.1211010183358
 10
-749.9458464368128
 20
606.4735828369135
 10
-751.646868267325
 20
602.7537349482193
 10
-753.1740926435174
 20
598.967879924493
 10
-754.5266380036336
 20
595.1223093890176
 10
-755.703611803834
 20
591.2233748662809
 10
-756.7041384725886
 20
587.2773679795664
 10
-757.5273194758307
 20
583.2906262764143
 10
-758.1722862306295
 20
579.269442378461
 10
-758.6381471915159
 20
575.2201508381864
 10
-758.9240118113927
 20
571.1490612492358
 10
-759.0290045187306
 20
567.0624931887871
  0
LWPOLYLINE
  5
3799
330
3793
100
AcDbEntity
  8
0
  6
Continuous
 62
     7
370
    15
390
1D
100
AcDbPolyline
 90
       21
 70
   128
 43
0.0
 10
-716.2993397703369
 20
641.1057033953136
 10
-716.7097262363086
 20
641.0988177517431
 10
-717.1166243933585
 20
641.0783435197079
 10
-717.5198066128567
 20
641.044494346841
 10
-717.919011321552
 20
640.9975447803342
 10
-718.3140118891858
 20
640.9376765205109
 10
-718.7045796887569
 20
640.8651331656067
 10
-719.0904551437566
 20
640.7801902611666
 10
-719.4714106255549
 20
640.6830305058679
 10
-719.8472015332111
 20
640.5739264501949
 10
-720.2175832657852
 20
640.453093738488
 10
-720.5823301913888
 20
640.3207739722754
 10
-720.9411807367717
 20
640.1772117481466
 10
-721.2939072733038
 20
640.0225897647781
 10
-721.6402811739833
 20
639.8572135183178
 10
-721.9800438606733
 20
639.6812946596922
 10
-722.3129657080012
 20
639.4950478348871
 10
-722.6388041117691
 20
639.2987166421385
 10
-722.9573154694074
 20
639.0925137307258
 10
-723.2682711539148
 20
638.8767445967969
 10
-723.5714105904121
 20
638.6515599917188
  0
LWPOLYLINE
  5
379A
330
3793
100
AcDbEntity
  8
0
  6
Continuous
 62
     7
370
    15
390
1D
100
AcDbPolyline
 90
       21
 70
   128
 43
0.0
 10
-546.1643123038685
 20
477.1095337869744
 10
-538.9438223310855
 20
477.6261147946148
 10
-531.8982789378564
 20
478.6958914217489
 10
-525.0487976747517
 20
480.2965225154372
 10
-518.4164301965861
 20
482.405630982017
 10
-512.0222900571875
 20
485.000876666902
 10
-505.8874009569776
 20
488.059895455024
 10
-500.0329083976623
 20
491.5603252280217
 10
-494.4798340829208
 20
495.479824832955
 10
-489.2492925649521
 20
499.7960241646354
 10
-484.3623684448202
 20
504.4865611047014
 10
-479.8401133773397
 20
509.5290865133859
 10
-475.7036129619454
 20
514.9012542459825
 10
-471.9739797540943
 20
520.5806991890692
 10
-468.6722374542077
 20
526.5450592242846
 10
-465.8195006144853
 20
532.7719722332672
 10
-463.4368518392479
 20
539.23908907625
 10
-461.5453757295594
 20
545.924062610173
 10
-460.166125936977
 20
552.8045297183212
 10
-459.3201860641931
 20
559.8581282823332
 10
-459.0286387155292
 20
567.0624931887871
  0
LWPOLYLINE
  5
379B
330
3793
100
AcDbEntity
  8
0
  6
Continuous
 62
     7
370
    15
390
1D
100
AcDbPolyline
 90
       21
 70
   128
 43
0.0
 10
-609.0280598599156
 20
476.1089869797278
 10
-605.7132468844702
 20
476.1116985076295
 10
-602.4020909426769
 20
476.1197871670769
 10
-599.09699611235
 20
476.1331850700374
 10
-595.8003724615309
 20
476.1518233301244
 10
-592.5145951152696
 20
476.1756490346068
 10
-589.2421020960006
 20
476.2045853102703
 10
-585.9852695271453
 20
476.2385642690824
 10
-582.7465044816319
 20
476.2775240131306
 10
-579.5281830828809
 20
476.3214046412098
 10
-576.3327433533274
 20
476.3701292801057
 10
-573.1625923658992
 20
476.4236380286134
 10
-570.0201052456462
 20
476.4818610019926
 10
-566.907660112732
 20
476.5447382990383
 10
-563.8277239423558
 20
476.6122000350104
 10
-560.7826439051744
 20
476.6841793202296
 10
-557.7748260757442
 20
476.7606062699563
 10
-554.8066755302509
 20
476.8414209829847
 10
-551.8806322878715
 20
476.9265625597561
 10
-548.9990415225207
 20
477.0159531287035
 10
-546.1643123038685
 20
477.1095337869744
  0
LWPOLYLINE
  5
379C
330
3793
100
AcDbEntity
  8
0
  6
Continuous
 62
     7
370
    15
390
1D
100
AcDbPolyline
 90
       21
 70
   128
 43
0.0
 10
-459.0286387155292
 20
567.0624931887871
 10
-459.1314979036437
 20
571.4029604955169
 10
-459.4371212876503
 20
575.6905060855531
 10
-459.9409992249042
 20
579.9206054211743
 10
-460.638652023897
 20
584.0887339646597
 10
-461.5255410892197
 20
588.1903522029866
 10
-462.5972486283773
 20
592.2209355984342
 10
-463.8492040980833
 20
596.175930661032
 10
-465.2769897058423
 20
600.0508408069547
 10
-466.8760648595031
 20
603.8410985692842
 10
-468.6419219131641
 20
607.542178411946
 10
-470.5701420759586
 20
611.1495707725201
 10
-472.656185754107
 20
614.6587221610364
 10
-474.8955443033359
 20
618.0651060430669
 10
-477.283738032137
 20
621.3641849022958
 10
-479.8163181985077
 20
624.5514332026492
 10
-482.4887162559043
 20
627.6223264064054
 10
-485.2965134134601
 20
630.5722950499396
 10
-488.2351700773951
 20
633.3968605197881
 10
-491.3002075545723
 20
636.0914513556186
 10
-494.4871461534823
 20
638.6515599917188
  0
LINE
  5
379D
330
3793
100
AcDbEntity
  8
0
  6
Continuous
 62
     7
370
    15
390
1D
100
AcDbLine
 10
-501.7598269783516
 20
641.1057033953136
 30
0.0
 11
-609.0292778727617
 21
641.1057033953136
 31
0.0
  0
LWPOLYLINE
  5
379E
330
3793
100
AcDbEntity
  8
0
  6
Continuous
 62
     7
370
    15
390
1D
100
AcDbPolyline
 90
       21
 70
   128
 43
0.0
 10
-494.4871461534823
 20
638.6515599917188
 10
-494.8177837275381
 20
638.8948417493277
 10
-495.1538754033795
 20
639.1251748630173
 10
-495.4951146810528
 20
639.3425902817437
 10
-495.841169102953
 20
639.5471479067123
 10
-496.1917321691262
 20
639.7389086374824
 10
-496.5464085245832
 20
639.9179044213633
 10
-496.9048936661124
 20
640.0841342600017
 10
-497.2668521409955
 20
640.2376890035589
 10
-497.6319484965142
 20
640.3786005993452
 10
-497.9998782294569
 20
640.5068989979627
 10
-498.3702459848343
 20
640.6226441006172
 10
-498.7427772105704
 20
640.7258369056617
 10
-499.1171055044401
 20
640.8165682632584
 10
-499.4928954137253
 20
640.8948701207169
 10
-499.8698134824498
 20
640.9607704319326
 10
-500.2475542090312
 20
641.014302142569
 10
-500.6257521896154
 20
641.0555241554778
 10
-501.0041019226198
 20
641.0844674196155
 10
-501.3822390025618
 20
641.1011638822913
 10
-501.7598269783516
 20
641.1057033953136
  0
ENDBLK
  5
379F
330
3793
100
AcDbEntity
  8
GAR70-1108
390
1D
100
AcDbBlockEnd
  0
BLOCK
  5
37A4
330
37A3
100
AcDbEntity
  8
GAR70-1108
390
1D
100
AcDbBlockBegin
  2
ƒOƒ‹[ƒv-2
 70
     0
 10
0.0
 20
0.0
 30
0.0
  3
ƒOƒ‹[ƒv-2
  1

  0
CIRCLE
  5
37A5
330
37A3
100
AcDbEntity
  8
0
  6
Continuous
 62
     7
370
    15
390
1D
100
AcDbCircle
 10
-609.0292778727617
 20
576.1246507961459
 30
0.0
 40
22.99999999999989
  0
CIRCLE
  5
37A6
330
37A3
100
AcDbEntity
  8
0
  6
Continuous
 62
     7
370
    15
390
1D
100
AcDbCircle
 10
-609.0292778727617
 20
576.1246507961459
 30
0.0
 40
37.49999999999977
  0
ENDBLK
  5
37A7
330
37A3
100
AcDbEntity
  8
GAR70-1108
390
1D
100
AcDbBlockEnd
  0
BLOCK
  5
37AC
330
37AB
100
AcDbEntity
  8
GAR70-1108
390
1D
100
AcDbBlockBegin
  2
ƒOƒ‹[ƒv-7
 70
     0
 10
0.0
 20
0.0
 30
0.0
  3
ƒOƒ‹[ƒv-7
  1

  0
INSERT
  5
37AD
330
37AB
100
AcDbEntity
  8
0
 62
     7
390
1D
100
AcDbBlockReference
  2
ƒOƒ‹[ƒv-5
 10
0.0
 20
0.0
 30
0.0
  0
INSERT
  5
37B4
330
37AB
100
AcDbEntity
  8
0
 62
     7
390
1D
100
AcDbBlockReference
  2
ƒOƒ‹[ƒv-6
 10
0.0
 20
0.0
 30
0.0
  0
ENDBLK
  5
37BB
330
37AB
100
AcDbEntity
  8
GAR70-1108
390
1D
100
AcDbBlockEnd
  0
BLOCK
  5
37AF
330
37AE
100
AcDbEntity
  8
GAR70-1108
390
1D
100
AcDbBlockBegin
  2
ƒOƒ‹[ƒv-5
 70
     0
 10
0.0
 20
0.0
 30
0.0
  3
ƒOƒ‹[ƒv-5
  1

  0
LINE
  5
37B0
330
37AE
100
AcDbEntity
  8
0
  6
STYLE_12
 62
     7
370
    15
390
1D
100
AcDbLine
 10
-812.6019164654095
 20
-484.7975470874061
 30
0.0
 11
-772.6019164654095
 21
-484.7975470874061
 31
0.0
  0
LINE
  5
37B1
330
37AE
100
AcDbEntity
  8
0
  6
STYLE_12
 62
     7
370
    15
390
1D
100
AcDbLine
 10
-792.6019164654095
 20
-504.7975470874061
 30
0.0
 11
-792.6019164654095
 21
-464.7975470874061
 31
0.0
  0
CIRCLE
  5
37B2
330
37AE
100
AcDbEntity
  8
0
  6
STYLE_12
 62
     7
370
    15
390
1D
100
AcDbCircle
 10
-792.6009089654095
 20
-484.7975470874061
 30
0.0
 40
10.0
  0
ENDBLK
  5
37B3
330
37AE
100
AcDbEntity
  8
GAR70-1108
390
1D
100
AcDbBlockEnd
  0
BLOCK
  5
37B6
330
37B5
100
AcDbEntity
  8
GAR70-1108
390
1D
100
AcDbBlockBegin
  2
ƒOƒ‹[ƒv-6
 70
     0
 10
0.0
 20
0.0
 30
0.0
  3
ƒOƒ‹[ƒv-6
  1

  0
LINE
  5
37B7
330
37B5
100
AcDbEntity
  8
0
  6
STYLE_12
 62
     7
370
    15
390
1D
100
AcDbLine
 10
-447.6019164654105
 20
-484.7975470874061
 30
0.0
 11
-407.6019164654105
 21
-484.7975470874061
 31
0.0
  0
LINE
  5
37B8
330
37B5
100
AcDbEntity
  8
0
  6
STYLE_12
 62
     7
370
    15
390
1D
100
AcDbLine
 10
-427.6019164654105
 20
-504.7975470874061
 30
0.0
 11
-427.6019164654105
 21
-464.7975470874061
 31
0.0
  0
CIRCLE
  5
37B9
330
37B5
100
AcDbEntity
  8
0
  6
STYLE_12
 62
     7
370
    15
390
1D
100
AcDbCircle
 10
-427.6009089654104
 20
-484.7975470874061
 30
0.0
 40
10.0
  0
ENDBLK
  5
37BA
330
37B5
100
AcDbEntity
  8
GAR70-1108
390
1D
100
AcDbBlockEnd
  0
BLOCK
  5
37E9
330
37E8
100
AcDbEntity
  8
GAR70-1108
390
1D
100
AcDbBlockBegin
  2
ƒOƒ‹[ƒv-9
 70
     0
 10
0.0
 20
0.0
 30
0.0
  3
ƒOƒ‹[ƒv-9
  1

  0
INSERT
  5
37EA
330
37E8
100
AcDbEntity
  8
0
 62
     7
390
1D
100
AcDbBlockReference
  2
ƒOƒ‹[ƒv-8
 10
0.0
 20
0.0
 30
0.0
  0
ENDBLK
  5
37F9
330
37E8
100
AcDbEntity
  8
GAR70-1108
390
1D
100
AcDbBlockEnd
  0
BLOCK
  5
37EC
330
37EB
100
AcDbEntity
  8
GAR70-1108
390
1D
100
AcDbBlockBegin
  2
ƒOƒ‹[ƒv-8
 70
     0
 10
0.0
 20
0.0
 30
0.0
  3
ƒOƒ‹[ƒv-8
  1

  0
LINE
  5
37ED
330
37EB
100
AcDbEntity
  8
0
  6
Continuous
 62
     7
370
    15
390
1D
100
AcDbLine
 10
287.5744887160594
 20
-462.8084483824169
 30
0.0
 11
504.6417315674193
 21
-462.8084483824169
 31
0.0
  0
LINE
  5
37EE
330
37EB
100
AcDbEntity
  8
0
  6
Continuous
 62
     7
370
    15
390
1D
100
AcDbLine
 10
482.5686025812079
 20
-439.7975470874061
 30
0.0
 11
502.9716086810166
 21
-439.7975470874061
 31
0.0
  0
LINE
  5
37EF
330
37EB
100
AcDbEntity
  8
0
  6
Continuous
 62
     7
370
    15
390
1D
100
AcDbLine
 10
504.7853718783369
 20
-569.519248860222
 30
0.0
 11
504.7853718783369
 21
-441.4806620192815
 31
0.0
  0
LWPOLYLINE
  5
37F0
330
37EB
100
AcDbEntity
  8
0
  6
Continuous
 62
     7
370
    15
390
1D
100
AcDbPolyline
 90
       21
 70
   128
 43
0.0
 10
504.7969354603601
 20
-441.5997319734591
 10
504.7935728871811
 20
-441.5869721975207
 10
504.7831959783734
 20
-441.5504441332369
 10
504.7654238018624
 20
-441.4927971280003
 10
504.7397996380411
 20
-441.4166815270754
 10
504.7059435520393
 20
-441.3246987800493
 10
504.6634297375855
 20
-441.2195311640568
 10
504.6118473464743
 20
-441.1038110626849
 10
504.5507845332956
 20
-440.9801578871977
 10
504.4798314470476
 20
-440.8512219828596
 10
504.3985772395251
 20
-440.7196516991926
 10
504.3065961044562
 20
-440.5880814155257
 10
504.2034911544969
 20
-440.4591445133166
 10
504.08883758058
 20
-440.3354923357004
 10
503.9622394925652
 20
-440.2197722343284
 10
503.8232561261156
 20
-440.1146036204649
 10
503.6714895966824
 20
-440.0226218713098
 10
503.5065470057385
 20
-439.946505272514
 10
503.3279855945385
 20
-439.8888582672775
 10
503.1354104701464
 20
-439.8523312008645
 10
502.9283948290862
 20
-439.839571424926
  0
LWPOLYLINE
  5
37F1
330
37EB
100
AcDbEntity
  8
0
  6
Continuous
 62
     7
370
    15
390
1D
100
AcDbPolyline
 90
       21
 70
   128
 43
0.0
 10
364.611935735044
 20
-569.7890581991674
 10
364.4782156133272
 20
-569.7920657822345
 10
364.0922127547956
 20
-569.7969683222506
 10
363.476507855494
 20
-569.7975470874061
 10
362.6538022731984
 20
-569.787597316085
 10
361.6467066200848
 20
-569.7609282168651
 10
360.4778644160745
 20
-569.7113280430327
 10
359.1699161894758
 20
-569.6325850478758
 10
357.7455343791362
 20
-569.5185104357133
 10
356.2273595133645
 20
-569.3628974491874
 10
354.6379742826141
 20
-569.1595273564882
 10
353.0001099607919
 20
-568.9022103640647
 10
351.336347243943
 20
-568.5847337273324
 10
349.669390481456
 20
-568.2009016655147
 10
348.0218173777625
 20
-567.7445084191236
 10
346.4162724499881
 20
-567.209342241447
 10
344.8754560587039
 20
-566.5892053559652
 10
343.4219808104953
 20
-565.8778939989331
 10
342.0785181470059
 20
-565.0691944278967
 10
340.8676497614851
 20
-564.156925830142
 10
339.8120760145043
 20
-563.13485949515
  0
LINE
  5
37F2
330
37EB
100
AcDbEntity
  8
0
  6
Continuous
 62
     7
370
    15
390
1D
100
AcDbLine
 10
482.5686025812079
 20
-439.7975470874061
 30
0.0
 11
306.9884455704707
 21
-439.7975470874061
 31
0.0
  0
LWPOLYLINE
  5
37F3
330
37EB
100
AcDbEntity
  8
0
  6
Continuous
 62
     7
370
    15
390
1D
100
AcDbPolyline
 90
       21
 70
   128
 43
0.0
 10
339.8120760145043
 20
-563.13485949515
 10
338.6430204087561
 20
-561.8103235047618
 10
337.1019606996025
 20
-560.0050931165454
 10
335.2266640086349
 20
-557.7348369002814
 10
333.0548356307726
 20
-555.0151755279444
 10
330.6242406931987
 20
-551.861777569315
 10
327.9726173985767
 20
-548.29026569211
 10
325.1376690474179
 20
-544.3162925001743
 10
322.1571946718537
 20
-539.955509599482
 10
319.0688975723947
 20
-535.2235556236855
 10
315.9104850383699
 20
-530.1360821787588
 10
312.7197840236327
 20
-524.7087119324183
 10
309.5344389936358
 20
-518.9571134544451
 10
306.392246986102
 20
-512.8969233827484
 10
303.3309142931553
 20
-506.5437943211736
 10
300.3882050447735
 20
-499.9133489374373
 10
297.6018584408257
 20
-493.0212548034493
 10
295.0095767846178
 20
-485.8831485571197
 10
292.6491591082817
 20
-478.5146838001641
 10
290.5582807906055
 20
-470.9314832002993
 10
288.774736874903
 20
-463.1492133315639
  0
LINE
  5
37F4
330
37EB
100
AcDbEntity
  8
0
  6
Continuous
 62
     7
370
    15
390
1D
100
AcDbLine
 10
290.9987260224181
 20
-439.7975470874061
 30
0.0
 11
306.9884455704707
 21
-439.7975470874061
 31
0.0
  0
LINE
  5
37F5
330
37EB
100
AcDbEntity
  8
0
  6
Continuous
 62
     7
370
    15
390
1D
100
AcDbLine
 10
287.9037656032733
 20
-462.8084483824169
 30
0.0
 11
285.0899988704104
 21
-446.8421478356281
 31
0.0
  0
LWPOLYLINE
  5
37F6
330
37EB
100
AcDbEntity
  8
0
  6
Continuous
 62
     7
370
    15
390
1D
100
AcDbPolyline
 90
       21
 70
   128
 43
0.0
 10
290.2117482787509
 20
-440.1319166815841
 10
290.1650342394366
 20
-440.1302113201172
 10
290.0320460657369
 20
-440.129053789806
 10
289.8235844783216
 20
-440.1343824207211
 10
289.5504551838837
 20
-440.1521215727391
 10
289.2233691546989
 20
-440.1882075801888
 10
288.8531909325185
 20
-440.248564802947
 10
288.4506634001588
 20
-440.3391465391482
 10
288.0265593565675
 20
-440.4658591869922
 10
287.5916825140284
 20
-440.6346580403555
 10
287.1568056714893
 20
-440.8514654633732
 10
286.7327016278979
 20
-441.1222347541801
 10
286.3301740955382
 20
-441.4528593386532
 10
285.9599958733581
 20
-441.8493064851207
 10
285.6329407575092
 20
-442.3174995555885
 10
285.3597805497351
 20
-442.8633629099335
 10
285.1513189623199
 20
-443.4928328824843
 10
285.0183307886202
 20
-444.2118497990529
 10
284.9716167493058
 20
-445.0263350259034
 10
285.0219516377339
 20
-445.9422428590416
 10
285.1800783367211
 20
-446.9654806945379
  0
LINE
  5
37F7
330
37EB
100
AcDbEntity
  8
0
  6
Continuous
 62
     7
370
    15
390
1D
100
AcDbLine
 10
364.2522261644749
 20
-569.7838812446381
 30
0.0
 11
504.9716167493067
 21
-569.7838812446381
 31
0.0
  0
ENDBLK
  5
37F8
330
37EB
100
AcDbEntity
  8
GAR70-1108
390
1D
100
AcDbBlockEnd
  0
BLOCK
  5
38A2
330
38A1
100
AcDbEntity
  8
0
100
AcDbBlockBegin
  2
*D190
 70
     1
 10
0.0
 20
0.0
 30
0.0
  3
*D190
  1

  0
LINE
  5
38A4
330
38A1
100
AcDbEntity
  8
DIM
 62
     0
370
    -2
100
AcDbLine
 10
419.1903764413837
 20
2213.911418789898
 30
0.0
 11
349.1903764413837
 21
2213.911418789898
 31
0.0
  0
LINE
  5
38A5
330
38A1
100
AcDbEntity
  8
DIM
 62
     0
370
    -2
100
AcDbLine
 10
419.1903764413837
 20
2243.93036619073
 30
0.0
 11
349.1903764413837
 21
2243.93036619073
 31
0.0
  0
LINE
  5
38A6
330
38A1
100
AcDbEntity
  8
DIM
 62
     0
370
    -2
100
AcDbLine
 10
349.1903764413837
 20
2223.911418789898
 30
0.0
 11
349.1903764413837
 21
2233.93036619073
 31
0.0
  0
INSERT
  5
38A7
330
38A1
100
AcDbEntity
  8
DIM
 62
     0
370
    -2
100
AcDbBlockReference
  2
_DOT
 10
349.1903764413837
 20
2213.911418789898
 30
0.0
 41
10.0
 42
10.0
 43
10.0
 50
270.0
  0
INSERT
  5
38A8
330
38A1
100
AcDbEntity
  8
DIM
 62
     0
370
    -2
100
AcDbBlockReference
  2
_DOT
 10
349.1903764413837
 20
2243.93036619073
 30
0.0
 41
10.0
 42
10.0
 43
10.0
 50
90.0
  0
MTEXT
  5
38A9
330
38A1
100
AcDbEntity
  8
DIM
 62
     0
100
AcDbMText
 10
317.1903764413837
 20
2228.920892490314
 30
0.0
 40
24.0
 41
0.0
 46
0.0
 71
     5
 72
     1
  1
\A1;30
  7
ＭＳ ゴシック
 11
0.0
 21
1.0
 31
0.0
 73
     1
 44
1.0
  0
POINT
  5
38AA
330
38A1
100
AcDbEntity
  8
Defpoints
 62
     0
100
AcDbPoint
 10
449.1903764413837
 20
2213.911418789898
 30
0.0
  0
POINT
  5
38AB
330
38A1
100
AcDbEntity
  8
Defpoints
 62
     0
100
AcDbPoint
 10
449.1903764413837
 20
2243.93036619073
 30
0.0
  0
POINT
  5
38AC
330
38A1
100
AcDbEntity
  8
Defpoints
 62
     0
100
AcDbPoint
 10
349.1903764413837
 20
2243.93036619073
 30
0.0
  0
ENDBLK
  5
38A3
330
38A1
100
AcDbEntity
  8
0
100
AcDbBlockEnd
  0
BLOCK
  5
38AF
330
38AE
100
AcDbEntity
  8
0
100
AcDbBlockBegin
  2
*D191
 70
     1
 10
0.0
 20
0.0
 30
0.0
  3
*D191
  1

  0
LINE
  5
38B1
330
38AE
100
AcDbEntity
  8
DIM
 62
     0
370
    -2
100
AcDbLine
 10
419.1903764413837
 20
2048.935571954304
 30
0.0
 11
349.1903764413837
 21
2048.935571954304
 31
0.0
  0
LINE
  5
38B2
330
38AE
100
AcDbEntity
  8
DIM
 62
     0
370
    -2
100
AcDbLine
 10
419.1903764413837
 20
2213.911418789898
 30
0.0
 11
349.1903764413837
 21
2213.911418789898
 31
0.0
  0
LINE
  5
38B3
330
38AE
100
AcDbEntity
  8
DIM
 62
     0
370
    -2
100
AcDbLine
 10
349.1903764413837
 20
2058.935571954304
 30
0.0
 11
349.1903764413837
 21
2203.911418789898
 31
0.0
  0
INSERT
  5
38B4
330
38AE
100
AcDbEntity
  8
DIM
 62
     0
370
    -2
100
AcDbBlockReference
  2
_DOT
 10
349.1903764413837
 20
2048.935571954304
 30
0.0
 41
10.0
 42
10.0
 43
10.0
 50
270.0
  0
INSERT
  5
38B5
330
38AE
100
AcDbEntity
  8
DIM
 62
     0
370
    -2
100
AcDbBlockReference
  2
_DOT
 10
349.1903764413837
 20
2213.911418789898
 30
0.0
 41
10.0
 42
10.0
 43
10.0
 50
90.0
  0
MTEXT
  5
38B6
330
38AE
100
AcDbEntity
  8
DIM
 62
     0
100
AcDbMText
 10
317.1903764413837
 20
2131.423495372101
 30
0.0
 40
24.0
 41
0.0
 46
0.0
 71
     5
 72
     1
  1
\A1;165
  7
ＭＳ ゴシック
 11
0.0
 21
1.0
 31
0.0
 73
     1
 44
1.0
  0
POINT
  5
38B7
330
38AE
100
AcDbEntity
  8
Defpoints
 62
     0
100
AcDbPoint
 10
449.1903764413837
 20
2048.935571954304
 30
0.0
  0
POINT
  5
38B8
330
38AE
100
AcDbEntity
  8
Defpoints
 62
     0
100
AcDbPoint
 10
449.1903764413837
 20
2213.911418789898
 30
0.0
  0
POINT
  5
38B9
330
38AE
100
AcDbEntity
  8
Defpoints
 62
     0
100
AcDbPoint
 10
349.1903764413837
 20
2213.911418789898
 30
0.0
  0
ENDBLK
  5
38B0
330
38AE
100
AcDbEntity
  8
0
100
AcDbBlockEnd
  0
BLOCK
  5
38BB
330
38BA
100
AcDbEntity
  8
0
100
AcDbBlockBegin
  2
*D192
 70
     1
 10
0.0
 20
0.0
 30
0.0
  3
*D192
  1

  0
LINE
  5
38BD
330
38BA
100
AcDbEntity
  8
DIM
 62
     0
370
    -2
100
AcDbLine
 10
449.1903764413837
 20
2273.93036619073
 30
0.0
 11
449.1903764413837
 21
2368.223903475325
 31
0.0
  0
LINE
  5
38BE
330
38BA
100
AcDbEntity
  8
DIM
 62
     0
370
    -2
100
AcDbLine
 10
949.1903764413833
 20
2273.93036619073
 30
0.0
 11
949.1903764413833
 21
2368.223903475325
 31
0.0
  0
LINE
  5
38BF
330
38BA
100
AcDbEntity
  8
DIM
 62
     0
370
    -2
100
AcDbLine
 10
459.1903764413837
 20
2368.223903475325
 30
0.0
 11
939.1903764413833
 21
2368.223903475325
 31
0.0
  0
INSERT
  5
38C0
330
38BA
100
AcDbEntity
  8
DIM
 62
     0
370
    -2
100
AcDbBlockReference
  2
_DOT
 10
449.1903764413837
 20
2368.223903475325
 30
0.0
 41
10.0
 42
10.0
 43
10.0
 50
180.0
  0
INSERT
  5
38C1
330
38BA
100
AcDbEntity
  8
DIM
 62
     0
370
    -2
100
AcDbBlockReference
  2
_DOT
 10
949.1903764413833
 20
2368.223903475325
 30
0.0
 41
10.0
 42
10.0
 43
10.0
  0
MTEXT
  5
38C2
330
38BA
100
AcDbEntity
  8
DIM
 62
     0
100
AcDbMText
 10
699.1903764413834
 20
2400.223903475325
 30
0.0
 40
24.0
 41
0.0
 46
0.0
 71
     5
 72
     1
  1
\A1;500
  7
ＭＳ ゴシック
 73
     1
 44
1.0
  0
POINT
  5
38C3
330
38BA
100
AcDbEntity
  8
Defpoints
 62
     0
100
AcDbPoint
 10
449.1903764413837
 20
2243.93036619073
 30
0.0
  0
POINT
  5
38C4
330
38BA
100
AcDbEntity
  8
Defpoints
 62
     0
100
AcDbPoint
 10
949.1903764413833
 20
2243.93036619073
 30
0.0
  0
POINT
  5
38C5
330
38BA
100
AcDbEntity
  8
Defpoints
 62
     0
100
AcDbPoint
 10
949.1903764413833
 20
2368.223903475325
 30
0.0
  0
ENDBLK
  5
38BC
330
38BA
100
AcDbEntity
  8
0
100
AcDbBlockEnd
  0
BLOCK
  5
38C7
330
38C6
100
AcDbEntity
  8
0
100
AcDbBlockBegin
  2
*D193
 70
     1
 10
0.0
 20
0.0
 30
0.0
  3
*D193
  1

  0
LINE
  5
38C9
330
38C6
100
AcDbEntity
  8
DIM
 62
     0
370
    -2
100
AcDbLine
 10
979.1903764413833
 20
2243.93036619073
 30
0.0
 11
1084.897469276906
 21
2243.93036619073
 31
0.0
  0
LINE
  5
38CA
330
38C6
100
AcDbEntity
  8
DIM
 62
     0
370
    -2
100
AcDbLine
 10
872.4371119033854
 20
2023.93036619073
 30
0.0
 11
1084.897469276906
 21
2023.93036619073
 31
0.0
  0
LINE
  5
38CB
330
38C6
100
AcDbEntity
  8
DIM
 62
     0
370
    -2
100
AcDbLine
 10
1084.897469276906
 20
2233.93036619073
 30
0.0
 11
1084.897469276906
 21
2033.93036619073
 31
0.0
  0
INSERT
  5
38CC
330
38C6
100
AcDbEntity
  8
DIM
 62
     0
370
    -2
100
AcDbBlockReference
  2
_DOT
 10
1084.897469276906
 20
2243.93036619073
 30
0.0
 41
10.0
 42
10.0
 43
10.0
 50
90.0
  0
INSERT
  5
38CD
330
38C6
100
AcDbEntity
  8
DIM
 62
     0
370
    -2
100
AcDbBlockReference
  2
_DOT
 10
1084.897469276906
 20
2023.93036619073
 30
0.0
 41
10.0
 42
10.0
 43
10.0
 50
270.0
  0
MTEXT
  5
38CE
330
38C6
100
AcDbEntity
  8
DIM
 62
     0
100
AcDbMText
 10
1052.897469276906
 20
2133.93036619073
 30
0.0
 40
24.0
 41
0.0
 46
0.0
 71
     5
 72
     1
  1
\A1;220
  7
ＭＳ ゴシック
 11
0.0
 21
1.0
 31
0.0
 73
     1
 44
1.0
  0
POINT
  5
38CF
330
38C6
100
AcDbEntity
  8
Defpoints
 62
     0
100
AcDbPoint
 10
949.1903764413833
 20
2243.93036619073
 30
0.0
  0
POINT
  5
38D0
330
38C6
100
AcDbEntity
  8
Defpoints
 62
     0
100
AcDbPoint
 10
842.4371119033854
 20
2023.93036619073
 30
0.0
  0
POINT
  5
38D1
330
38C6
100
AcDbEntity
  8
Defpoints
 62
     0
100
AcDbPoint
 10
1084.897469276906
 20
2023.93036619073
 30
0.0
  0
ENDBLK
  5
38C8
330
38C6
100
AcDbEntity
  8
0
100
AcDbBlockEnd
  0
BLOCK
  5
38D3
330
38D2
100
AcDbEntity
  8
0
100
AcDbBlockBegin
  2
*D194
 70
     1
 10
0.0
 20
0.0
 30
0.0
  3
*D194
  1

  0
LINE
  5
38D5
330
38D2
100
AcDbEntity
  8
DIM
 62
     0
370
    -2
100
AcDbLine
 10
850.4514085241949
 20
1993.966463100854
 30
0.0
 11
850.4514085241949
 21
1928.966463100854
 31
0.0
  0
LINE
  5
38D6
330
38D2
100
AcDbEntity
  8
DIM
 62
     0
370
    -2
100
AcDbLine
 10
550.4673637914807
 20
1993.966463100854
 30
0.0
 11
550.4673637914807
 21
1928.966463100854
 31
0.0
  0
LINE
  5
38D7
330
38D2
100
AcDbEntity
  8
DIM
 62
     0
370
    -2
100
AcDbLine
 10
840.4514085241949
 20
1928.966463100854
 30
0.0
 11
560.4673637914807
 21
1928.966463100854
 31
0.0
  0
INSERT
  5
38D8
330
38D2
100
AcDbEntity
  8
DIM
 62
     0
370
    -2
100
AcDbBlockReference
  2
_DOT
 10
850.4514085241949
 20
1928.966463100854
 30
0.0
 41
10.0
 42
10.0
 43
10.0
  0
INSERT
  5
38D9
330
38D2
100
AcDbEntity
  8
DIM
 62
     0
370
    -2
100
AcDbBlockReference
  2
_DOT
 10
550.4673637914807
 20
1928.966463100854
 30
0.0
 41
10.0
 42
10.0
 43
10.0
 50
180.0
  0
MTEXT
  5
38DA
330
38D2
100
AcDbEntity
  8
DIM
 62
     0
100
AcDbMText
 10
703.8995383487354
 20
1960.966463100854
 30
0.0
 40
24.0
 41
0.0
 46
0.0
 71
     5
 72
     1
  1
\A1;300
  7
ＭＳ ゴシック
 73
     1
 44
1.0
  0
POINT
  5
38DB
330
38D2
100
AcDbEntity
  8
Defpoints
 62
     0
100
AcDbPoint
 10
850.4514085241949
 20
2023.966463100854
 30
0.0
  0
POINT
  5
38DC
330
38D2
100
AcDbEntity
  8
Defpoints
 62
     0
100
AcDbPoint
 10
550.4673637914807
 20
2023.966463100854
 30
0.0
  0
POINT
  5
38DD
330
38D2
100
AcDbEntity
  8
Defpoints
 62
     0
100
AcDbPoint
 10
550.4673637914807
 20
1928.966463100854
 30
0.0
  0
ENDBLK
  5
38D4
330
38D2
100
AcDbEntity
  8
0
100
AcDbBlockEnd
  0
BLOCK
  5
38EC
330
38EB
100
AcDbEntity
  8
0
100
AcDbBlockBegin
  2
*D196
 70
     1
 10
0.0
 20
0.0
 30
0.0
  3
*D196
  1

  0
LINE
  5
38EE
330
38EB
100
AcDbEntity
  8
DIM
 62
     0
370
    -2
100
AcDbLine
 10
949.1903764413833
 20
2211.43036619073
 30
0.0
 11
949.1903764413833
 21
2299.537742824259
 31
0.0
  0
LINE
  5
38EF
330
38EB
100
AcDbEntity
  8
DIM
 62
     0
370
    -2
100
AcDbLine
 10
884.1903764413828
 20
2211.43036619073
 30
0.0
 11
884.1903764413828
 21
2299.537742824259
 31
0.0
  0
LINE
  5
38F0
330
38EB
100
AcDbEntity
  8
DIM
 62
     0
370
    -2
100
AcDbLine
 10
939.1903764413833
 20
2299.537742824259
 30
0.0
 11
894.1903764413828
 21
2299.537742824259
 31
0.0
  0
INSERT
  5
38F1
330
38EB
100
AcDbEntity
  8
DIM
 62
     0
370
    -2
100
AcDbBlockReference
  2
_DOT
 10
949.1903764413833
 20
2299.537742824259
 30
0.0
 41
10.0
 42
10.0
 43
10.0
  0
INSERT
  5
38F2
330
38EB
100
AcDbEntity
  8
DIM
 62
     0
370
    -2
100
AcDbBlockReference
  2
_DOT
 10
884.1903764413828
 20
2299.537742824259
 30
0.0
 41
10.0
 42
10.0
 43
10.0
 50
180.0
  0
MTEXT
  5
38F3
330
38EB
100
AcDbEntity
  8
DIM
 62
     0
100
AcDbMText
 10
916.6903764413831
 20
2331.537742824259
 30
0.0
 40
24.0
 41
0.0
 46
0.0
 71
     5
 72
     1
  1
\A1;65
  7
ＭＳ ゴシック
 73
     1
 44
1.0
  0
POINT
  5
38F4
330
38EB
100
AcDbEntity
  8
Defpoints
 62
     0
100
AcDbPoint
 10
949.1903764413833
 20
2181.43036619073
 30
0.0
  0
POINT
  5
38F5
330
38EB
100
AcDbEntity
  8
Defpoints
 62
     0
100
AcDbPoint
 10
884.1903764413828
 20
2181.43036619073
 30
0.0
  0
POINT
  5
38F6
330
38EB
100
AcDbEntity
  8
Defpoints
 62
     0
100
AcDbPoint
 10
884.1903764413828
 20
2299.537742824259
 30
0.0
  0
ENDBLK
  5
38ED
330
38EB
100
AcDbEntity
  8
0
100
AcDbBlockEnd
  0
BLOCK
  5
38F8
330
38F7
100
AcDbEntity
  8
0
100
AcDbBlockBegin
  2
*D197
 70
     1
 10
0.0
 20
0.0
 30
0.0
  3
*D197
  1

  0
LINE
  5
38FA
330
38F7
100
AcDbEntity
  8
DIM
 62
     0
370
    -2
100
AcDbLine
 10
881.8869692769058
 20
1128.008168307178
 30
0.0
 11
881.8869692769058
 21
1232.889083747642
 31
0.0
  0
LINE
  5
38FB
330
38F7
100
AcDbEntity
  8
DIM
 62
     0
370
    -2
100
AcDbLine
 10
516.8869692769067
 20
1128.008168307178
 30
0.0
 11
516.8869692769067
 21
1232.889083747642
 31
0.0
  0
LINE
  5
38FC
330
38F7
100
AcDbEntity
  8
DIM
 62
     0
370
    -2
100
AcDbLine
 10
871.8869692769058
 20
1232.889083747642
 30
0.0
 11
526.8869692769067
 21
1232.889083747642
 31
0.0
  0
INSERT
  5
38FD
330
38F7
100
AcDbEntity
  8
DIM
 62
     0
370
    -2
100
AcDbBlockReference
  2
_DOT
 10
881.8869692769058
 20
1232.889083747642
 30
0.0
 41
10.0
 42
10.0
 43
10.0
  0
INSERT
  5
38FE
330
38F7
100
AcDbEntity
  8
DIM
 62
     0
370
    -2
100
AcDbBlockReference
  2
_DOT
 10
516.8869692769067
 20
1232.889083747642
 30
0.0
 41
10.0
 42
10.0
 43
10.0
 50
180.0
  0
MTEXT
  5
38FF
330
38F7
100
AcDbEntity
  8
DIM
 62
     0
100
AcDbMText
 10
699.3869692769063
 20
1264.889083747642
 30
0.0
 40
24.0
 41
0.0
 46
0.0
 71
     5
 72
     1
  1
\A1;365
  7
ＭＳ ゴシック
 73
     1
 44
1.0
  0
POINT
  5
3900
330
38F7
100
AcDbEntity
  8
Defpoints
 62
     0
100
AcDbPoint
 10
881.8869692769058
 20
1098.008168307178
 30
0.0
  0
POINT
  5
3901
330
38F7
100
AcDbEntity
  8
Defpoints
 62
     0
100
AcDbPoint
 10
516.8869692769067
 20
1098.008168307178
 30
0.0
  0
POINT
  5
3902
330
38F7
100
AcDbEntity
  8
Defpoints
 62
     0
100
AcDbPoint
 10
516.8869692769067
 20
1232.889083747642
 30
0.0
  0
ENDBLK
  5
38F9
330
38F7
100
AcDbEntity
  8
0
100
AcDbBlockEnd
  0
BLOCK
  5
3904
330
3903
100
AcDbEntity
  8
0
100
AcDbBlockBegin
  2
*D198
 70
     1
 10
0.0
 20
0.0
 30
0.0
  3
*D198
  1

  0
LINE
  5
3906
330
3903
100
AcDbEntity
  8
DIM
 62
     0
370
    -2
100
AcDbLine
 10
1734.966402318156
 20
1133.017918405756
 30
0.0
 11
1718.380216971222
 21
1133.017918405756
 31
0.0
  0
LINE
  5
3907
330
3903
100
AcDbEntity
  8
DIM
 62
     0
370
    -2
100
AcDbLine
 10
1730.766402318155
 20
1018.017918405756
 30
0.0
 11
1718.380216971222
 21
1018.017918405756
 31
0.0
  0
LINE
  5
3908
330
3903
100
AcDbEntity
  8
DIM
 62
     0
370
    -2
100
AcDbLine
 10
1718.380216971222
 20
1133.017918405756
 30
0.0
 11
1718.380216971222
 21
1323.049918405756
 31
0.0
  0
LINE
  5
3909
330
3903
100
AcDbEntity
  8
DIM
 62
     0
370
    -2
100
AcDbLine
 10
1718.380216971222
 20
1123.017918405756
 30
0.0
 11
1718.380216971222
 21
1028.017918405756
 31
0.0
  0
LINE
  5
390A
330
3903
100
AcDbEntity
  8
DIM
 62
     0
370
    -2
100
AcDbLine
 10
1718.380216971222
 20
1123.017918405756
 30
0.0
 11
1718.380216971222
 21
1113.017918405756
 31
0.0
  0
INSERT
  5
390B
330
3903
100
AcDbEntity
  8
DIM
 62
     0
370
    -2
100
AcDbBlockReference
  2
_DOT
 10
1718.380216971222
 20
1133.017918405756
 30
0.0
 41
10.0
 42
10.0
 43
10.0
 50
90.0
  0
INSERT
  5
390C
330
3903
100
AcDbEntity
  8
DIM
 62
     0
370
    -2
100
AcDbBlockReference
  2
_DOT
 10
1718.380216971222
 20
1018.017918405756
 30
0.0
 41
10.0
 42
10.0
 43
10.0
 50
270.0
  0
MTEXT
  5
390D
330
3903
100
AcDbEntity
  8
DIM
 62
     0
100
AcDbMText
 10
1684.256216971222
 20
1238.033918405756
 30
0.0
 40
24.0
 41
0.0
 46
0.0
 71
     5
 72
     1
  1
\A1;115(深さ)
  7
ＭＳ ゴシック
 11
0.0
 21
1.0
 31
0.0
 73
     1
 44
1.0
  0
POINT
  5
390E
330
3903
100
AcDbEntity
  8
Defpoints
 62
     0
100
AcDbPoint
 10
1704.966402318156
 20
1133.017918405756
 30
0.0
  0
POINT
  5
3942
330
3903
100
AcDbEntity
  8
Defpoints
 62
     0
100
AcDbPoint
 10
1700.766402318155
 20
1018.017918405756
 30
0.0
  0
POINT
  5
3943
330
3903
100
AcDbEntity
  8
Defpoints
 62
     0
100
AcDbPoint
 10
1718.380216971222
 20
1018.017918405756
 30
0.0
  0
ENDBLK
  5
3905
330
3903
100
AcDbEntity
  8
0
100
AcDbBlockEnd
  0
BLOCK
  5
3910
330
390F
100
AcDbEntity
  8
0
100
AcDbBlockBegin
  2
*D199
 70
     1
 10
0.0
 20
0.0
 30
0.0
  3
*D199
  1

  0
LINE
  5
3912
330
390F
100
AcDbEntity
  8
DIM
 62
     0
370
    -2
100
AcDbLine
 10
758.9359197789695
 20
978.0081683071782
 30
0.0
 11
1049.190376441383
 21
978.0081683071782
 31
0.0
  0
LINE
  5
3913
330
390F
100
AcDbEntity
  8
DIM
 62
     0
370
    -2
100
AcDbLine
 10
979.080768171033
 20
1133.008168307178
 30
0.0
 11
1049.190376441383
 21
1133.008168307178
 31
0.0
  0
LINE
  5
3914
330
390F
100
AcDbEntity
  8
DIM
 62
     0
370
    -2
100
AcDbLine
 10
1049.190376441383
 20
988.0081683071782
 30
0.0
 11
1049.190376441383
 21
1123.008168307178
 31
0.0
  0
INSERT
  5
3915
330
390F
100
AcDbEntity
  8
DIM
 62
     0
370
    -2
100
AcDbBlockReference
  2
_DOT
 10
1049.190376441383
 20
978.0081683071782
 30
0.0
 41
10.0
 42
10.0
 43
10.0
 50
270.0
  0
INSERT
  5
3916
330
390F
100
AcDbEntity
  8
DIM
 62
     0
370
    -2
100
AcDbBlockReference
  2
_DOT
 10
1049.190376441383
 20
1133.008168307178
 30
0.0
 41
10.0
 42
10.0
 43
10.0
 50
90.0
  0
MTEXT
  5
3917
330
390F
100
AcDbEntity
  8
DIM
 62
     0
100
AcDbMText
 10
1017.190376441383
 20
1055.508168307178
 30
0.0
 40
24.0
 41
0.0
 46
0.0
 71
     5
 72
     1
  1
\A1;155
  7
ＭＳ ゴシック
 11
0.0
 21
1.0
 31
0.0
 73
     1
 44
1.0
  0
POINT
  5
3918
330
390F
100
AcDbEntity
  8
Defpoints
 62
     0
100
AcDbPoint
 10
728.9359197789695
 20
978.0081683071782
 30
0.0
  0
POINT
  5
3919
330
390F
100
AcDbEntity
  8
Defpoints
 62
     0
100
AcDbPoint
 10
949.080768171033
 20
1133.008168307178
 30
0.0
  0
POINT
  5
391A
330
390F
100
AcDbEntity
  8
Defpoints
 62
     0
100
AcDbPoint
 10
1049.190376441383
 20
1133.008168307178
 30
0.0
  0
ENDBLK
  5
3911
330
390F
100
AcDbEntity
  8
0
100
AcDbBlockEnd
  0
BLOCK
  5
391C
330
391B
100
AcDbEntity
  8
0
100
AcDbBlockBegin
  2
*D200
 70
     1
 10
0.0
 20
0.0
 30
0.0
  3
*D200
  1

  0
LINE
  5
391E
330
391B
100
AcDbEntity
  8
DIM
 62
     0
370
    -2
100
AcDbLine
 10
419.6927071390569
 20
1133.008168307178
 30
0.0
 11
351.5463712596515
 21
1133.008168307178
 31
0.0
  0
LINE
  5
391F
330
391B
100
AcDbEntity
  8
DIM
 62
     0
370
    -2
100
AcDbLine
 10
476.8869692769067
 20
1088.008168307178
 30
0.0
 11
351.5463712596515
 21
1088.008168307178
 31
0.0
  0
LINE
  5
3920
330
391B
100
AcDbEntity
  8
DIM
 62
     0
370
    -2
100
AcDbLine
 10
351.5463712596515
 20
1123.008168307178
 30
0.0
 11
351.5463712596515
 21
1098.008168307178
 31
0.0
  0
INSERT
  5
3921
330
391B
100
AcDbEntity
  8
DIM
 62
     0
370
    -2
100
AcDbBlockReference
  2
_DOT
 10
351.5463712596515
 20
1133.008168307178
 30
0.0
 41
10.0
 42
10.0
 43
10.0
 50
90.0
  0
INSERT
  5
3922
330
391B
100
AcDbEntity
  8
DIM
 62
     0
370
    -2
100
AcDbBlockReference
  2
_DOT
 10
351.5463712596515
 20
1088.008168307178
 30
0.0
 41
10.0
 42
10.0
 43
10.0
 50
270.0
  0
MTEXT
  5
3923
330
391B
100
AcDbEntity
  8
DIM
 62
     0
100
AcDbMText
 10
319.5463712596515
 20
1110.508168307178
 30
0.0
 40
24.0
 41
0.0
 46
0.0
 71
     5
 72
     1
  1
\A1;45
  7
ＭＳ ゴシック
 11
0.0
 21
1.0
 31
0.0
 73
     1
 44
1.0
  0
POINT
  5
3924
330
391B
100
AcDbEntity
  8
Defpoints
 62
     0
100
AcDbPoint
 10
449.6927071390569
 20
1133.008168307178
 30
0.0
  0
POINT
  5
3925
330
391B
100
AcDbEntity
  8
Defpoints
 62
     0
100
AcDbPoint
 10
506.8869692769067
 20
1088.008168307178
 30
0.0
  0
POINT
  5
3926
330
391B
100
AcDbEntity
  8
Defpoints
 62
     0
100
AcDbPoint
 10
351.5463712596515
 20
1088.008168307178
 30
0.0
  0
ENDBLK
  5
391D
330
391B
100
AcDbEntity
  8
0
100
AcDbBlockEnd
  0
BLOCK
  5
3929
330
3928
100
AcDbEntity
  8
0
100
AcDbBlockBegin
  2
*D201
 70
     1
 10
0.0
 20
0.0
 30
0.0
  3
*D201
  1

  0
LINE
  5
392B
330
3928
100
AcDbEntity
  8
DIM
 62
     0
370
    -2
100
AcDbLine
 10
1814.204978991624
 20
973.0218341499461
 30
0.0
 11
1814.204978991624
 21
877.8050174347509
 31
0.0
  0
LINE
  5
392C
330
3928
100
AcDbEntity
  8
DIM
 62
     0
370
    -2
100
AcDbLine
 10
1719.204978991623
 20
947.8050174347509
 30
0.0
 11
1719.204978991623
 21
877.8050174347509
 31
0.0
  0
LINE
  5
392D
330
3928
100
AcDbEntity
  8
DIM
 62
     0
370
    -2
100
AcDbLine
 10
1804.204978991624
 20
877.8050174347509
 30
0.0
 11
1729.204978991623
 21
877.8050174347509
 31
0.0
  0
INSERT
  5
392E
330
3928
100
AcDbEntity
  8
DIM
 62
     0
370
    -2
100
AcDbBlockReference
  2
_DOT
 10
1814.204978991624
 20
877.8050174347509
 30
0.0
 41
10.0
 42
10.0
 43
10.0
  0
INSERT
  5
392F
330
3928
100
AcDbEntity
  8
DIM
 62
     0
370
    -2
100
AcDbBlockReference
  2
_DOT
 10
1719.204978991623
 20
877.8050174347509
 30
0.0
 41
10.0
 42
10.0
 43
10.0
 50
180.0
  0
MTEXT
  5
3930
330
3928
100
AcDbEntity
  8
DIM
 62
     0
100
AcDbMText
 10
1766.704978991623
 20
909.8050174347509
 30
0.0
 40
24.0
 41
0.0
 46
0.0
 71
     5
 72
     1
  1
\A1;95
  7
ＭＳ ゴシック
 73
     1
 44
1.0
  0
POINT
  5
3931
330
3928
100
AcDbEntity
  8
Defpoints
 62
     0
100
AcDbPoint
 10
1814.204978991624
 20
1003.021834149946
 30
0.0
  0
POINT
  5
3932
330
3928
100
AcDbEntity
  8
Defpoints
 62
     0
100
AcDbPoint
 10
1719.204978991623
 20
977.8050174347509
 30
0.0
  0
POINT
  5
3933
330
3928
100
AcDbEntity
  8
Defpoints
 62
     0
100
AcDbPoint
 10
1719.204978991623
 20
877.8050174347509
 30
0.0
  0
ENDBLK
  5
392A
330
3928
100
AcDbEntity
  8
0
100
AcDbBlockEnd
  0
BLOCK
  5
3935
330
3934
100
AcDbEntity
  8
0
100
AcDbBlockBegin
  2
*D202
 70
     1
 10
0.0
 20
0.0
 30
0.0
  3
*D202
  1

  0
LINE
  5
3937
330
3934
100
AcDbEntity
  8
DIM
 62
     0
370
    -2
100
AcDbLine
 10
931.6903764413828
 20
2163.93036619073
 30
0.0
 11
1028.897469276907
 21
2163.93036619073
 31
0.0
  0
LINE
  5
3938
330
3934
100
AcDbEntity
  8
DIM
 62
     0
370
    -2
100
AcDbLine
 10
979.1903764413833
 20
2243.93036619073
 30
0.0
 11
1028.897469276907
 21
2243.93036619073
 31
0.0
  0
LINE
  5
3939
330
3934
100
AcDbEntity
  8
DIM
 62
     0
370
    -2
100
AcDbLine
 10
1028.897469276907
 20
2173.93036619073
 30
0.0
 11
1028.897469276907
 21
2233.93036619073
 31
0.0
  0
INSERT
  5
393A
330
3934
100
AcDbEntity
  8
DIM
 62
     0
370
    -2
100
AcDbBlockReference
  2
_DOT
 10
1028.897469276907
 20
2163.93036619073
 30
0.0
 41
10.0
 42
10.0
 43
10.0
 50
270.0
  0
INSERT
  5
393B
330
3934
100
AcDbEntity
  8
DIM
 62
     0
370
    -2
100
AcDbBlockReference
  2
_DOT
 10
1028.897469276907
 20
2243.93036619073
 30
0.0
 41
10.0
 42
10.0
 43
10.0
 50
90.0
  0
MTEXT
  5
393C
330
3934
100
AcDbEntity
  8
DIM
 62
     0
100
AcDbMText
 10
996.8974692769066
 20
2203.93036619073
 30
0.0
 40
24.0
 41
0.0
 46
0.0
 71
     5
 72
     1
  1
\A1;80
  7
ＭＳ ゴシック
 11
0.0
 21
1.0
 31
0.0
 73
     1
 44
1.0
  0
POINT
  5
393D
330
3934
100
AcDbEntity
  8
Defpoints
 62
     0
100
AcDbPoint
 10
901.6903764413828
 20
2163.93036619073
 30
0.0
  0
POINT
  5
393E
330
3934
100
AcDbEntity
  8
Defpoints
 62
     0
100
AcDbPoint
 10
949.1903764413833
 20
2243.93036619073
 30
0.0
  0
POINT
  5
393F
330
3934
100
AcDbEntity
  8
Defpoints
 62
     0
100
AcDbPoint
 10
1028.897469276907
 20
2243.93036619073
 30
0.0
  0
ENDBLK
  5
3936
330
3934
100
AcDbEntity
  8
0
100
AcDbBlockEnd
  0
BLOCK
  5
397F
330
397E
100
AcDbEntity
  8
0
100
AcDbBlockBegin
  2
*D204
 70
     1
 10
0.0
 20
0.0
 30
0.0
  3
*D204
  1

  0
LINE
  5
3981
330
397E
100
AcDbEntity
  8
DIM
 62
     0
370
    -2
100
AcDbLine
 10
449.1903764413842
 20
2211.43036619073
 30
0.0
 11
449.1903764413842
 21
2299.537742824259
 31
0.0
  0
LINE
  5
3982
330
397E
100
AcDbEntity
  8
DIM
 62
     0
370
    -2
100
AcDbLine
 10
514.1903764413846
 20
2211.43036619073
 30
0.0
 11
514.1903764413846
 21
2299.537742824259
 31
0.0
  0
LINE
  5
3983
330
397E
100
AcDbEntity
  8
DIM
 62
     0
370
    -2
100
AcDbLine
 10
459.1903764413842
 20
2299.537742824259
 30
0.0
 11
504.1903764413846
 21
2299.537742824259
 31
0.0
  0
INSERT
  5
3984
330
397E
100
AcDbEntity
  8
DIM
 62
     0
370
    -2
100
AcDbBlockReference
  2
_DOT
 10
449.1903764413842
 20
2299.537742824259
 30
0.0
 41
10.0
 42
10.0
 43
10.0
 50
180.0
  0
INSERT
  5
3985
330
397E
100
AcDbEntity
  8
DIM
 62
     0
370
    -2
100
AcDbBlockReference
  2
_DOT
 10
514.1903764413846
 20
2299.537742824259
 30
0.0
 41
10.0
 42
10.0
 43
10.0
  0
MTEXT
  5
3986
330
397E
100
AcDbEntity
  8
DIM
 62
     0
100
AcDbMText
 10
481.6903764413843
 20
2331.537742824259
 30
0.0
 40
24.0
 41
0.0
 46
0.0
 71
     5
 72
     1
  1
\A1;65
  7
ＭＳ ゴシック
 73
     1
 44
1.0
  0
POINT
  5
3987
330
397E
100
AcDbEntity
  8
Defpoints
 62
     0
100
AcDbPoint
 10
449.1903764413842
 20
2181.43036619073
 30
0.0
  0
POINT
  5
3988
330
397E
100
AcDbEntity
  8
Defpoints
 62
     0
100
AcDbPoint
 10
514.1903764413846
 20
2181.43036619073
 30
0.0
  0
POINT
  5
3989
330
397E
100
AcDbEntity
  8
Defpoints
 62
     0
100
AcDbPoint
 10
514.1903764413846
 20
2299.537742824259
 30
0.0
  0
ENDBLK
  5
3980
330
397E
100
AcDbEntity
  8
0
100
AcDbBlockEnd
  0
ENDSEC
  0
SECTION
  2
ENTITIES
  0
MTEXT
  5
177
330
A
100
AcDbEntity
  8
TEMPLATE
390
1D
100
AcDbMText
 10
79.20214454773075
 20
343.7317516314282
 30
0.0
 40
16.28841145833333
 41
0.0
 46
0.0
 71
     1
 72
     1
  1
品名
  7
ＭＳ ゴシック
 73
     1
 44
0.7828267384257843
  0
MTEXT
  5
178
330
A
100
AcDbEntity
  8
TEMPLATE
390
1D
100
AcDbMText
 10
79.20214454773075
 20
258.731751631428
 30
0.0
 40
16.28841145833333
 41
0.0
 46
0.0
 71
     1
 72
     1
  1
仕様
  7
ＭＳ ゴシック
 73
     1
 44
0.7828267384257843
  0
LINE
  5
179
330
A
100
AcDbEntity
  8
TEMPLATE
390
1D
100
AcDbLine
 10
2022.202144547248
 20
267.1466735064284
 30
0.0
 11
72.20214454724874
 21
267.1466735064284
 31
0.0
  0
LWPOLYLINE
  5
17A
330
A
100
AcDbEntity
  8
TEMPLATE
390
1D
100
AcDbPolyline
 90
        5
 70
   128
 43
0.0
 10
2022.202144547248
 20
2897.146673506426
 10
72.20214454724874
 20
2897.146673506426
 10
72.20214454724874
 20
97.14667350642826
 10
2022.202144547248
 20
97.14667350642826
 10
2022.202144547248
 20
2897.146673506426
  0
LINE
  5
17B
330
A
100
AcDbEntity
  8
TEMPLATE
390
1D
100
AcDbLine
 10
2022.202144547248
 20
352.1466735064282
 30
0.0
 11
72.20214454724874
 21
352.1466735064282
 31
0.0
  0
LINE
  5
17C
330
A
100
AcDbEntity
  8
TEMPLATE
390
1D
100
AcDbLine
 10
2022.202144547732
 20
182.1466735064282
 30
0.0
 11
1269.20214454773
 21
182.1466735064282
 31
0.0
  0
MTEXT
  5
17E
330
A
100
AcDbEntity
  8
TEMPLATE
390
1D
100
AcDbMText
 10
1299.073550799991
 20
152.2362790331201
 30
0.0
 40
24.4326171875
 41
0.0
 46
0.0
 71
     1
 72
     1
  1
大洋金物株式会社 ティーフォルム事業部
  7
ＭＳ ゴシック
 73
     1
 44
0.7828267384257843
  0
MTEXT
  5
180
330
A
100
AcDbEntity
  8
TEMPLATE
390
1D
100
AcDbMText
 10
1831.20214454799
 20
230.1492906939282
 30
0.0
 40
24.4326171875
 41
0.0
 46
24.4326171875
 71
     1
 72
     1
  1
{1:10}
  7
ＭＳ ゴシック
 73
     1
 44
0.7828267384257843
1001
ACAD
1000
ACAD_MTEXT_DEFINED_HEIGHT_BEGIN
1070
    46
1040
24.4326171875
1000
ACAD_MTEXT_DEFINED_HEIGHT_END
  0
MTEXT
  5
181
330
A
100
AcDbEntity
  8
TEMPLATE
390
1D
100
AcDbMText
 10
1778.20214454799
 20
258.731751631428
 30
0.0
 40
16.28841145833333
 41
0.0
 46
0.0
 71
     1
 72
     1
  1
縮尺
  7
ＭＳ ゴシック
 73
     1
 44
0.7828267384257843
  0
LINE
  5
182
330
A
100
AcDbEntity
  8
TEMPLATE
390
1D
100
AcDbLine
 10
1771.20214454799
 20
182.1466735064282
 30
0.0
 11
1771.20214454799
 21
267.1466735064284
 31
0.0
  0
MTEXT
  5
183
330
A
100
AcDbEntity
  8
TEMPLATE
390
1D
100
AcDbMText
 10
1527.20214454799
 20
258.731751631428
 30
0.0
 40
16.28841145833333
 41
0.0
 46
0.0
 71
     1
 72
     1
  1
容量
  7
ＭＳ ゴシック
 73
     1
 44
0.7828267384257843
  0
LINE
  5
184
330
A
100
AcDbEntity
  8
TEMPLATE
390
1D
100
AcDbLine
 10
1520.20214454799
 20
182.1466735064282
 30
0.0
 11
1520.20214454799
 21
267.1466735064284
 31
0.0
  0
MTEXT
  5
185
330
A
100
AcDbEntity
  8
TEMPLATE
390
1D
100
AcDbMText
 10
1276.20214454799
 20
343.7317516314282
 30
0.0
 40
16.28841145833333
 41
0.0
 46
0.0
 71
     1
 72
     1
  1
品番
  7
ＭＳ ゴシック
 73
     1
 44
0.7828267384257843
  0
MTEXT
  5
186
330
A
100
AcDbEntity
  8
TEMPLATE
390
1D
100
AcDbMText
 10
1276.20214454799
 20
258.731751631428
 30
0.0
 40
16.28841145833333
 41
0.0
 46
0.0
 71
     1
 72
     1
  1
重量
  7
ＭＳ ゴシック
 73
     1
 44
0.7828267384257843
  0
MTEXT
  5
187
330
A
100
AcDbEntity
  8
TEMPLATE
390
1D
100
AcDbMText
 10
1329.20214454799
 20
315.1492906939282
 30
0.0
 40
24.4326171875
 41
0.0
 46
24.4326171875
 71
     1
 72
     1
  1
{GAR70-1108}
  7
ＭＳ ゴシック
 73
     1
 44
0.7828267384257843
1001
ACAD
1000
ACAD_MTEXT_DEFINED_HEIGHT_BEGIN
1070
    46
1040
24.4326171875
1000
ACAD_MTEXT_DEFINED_HEIGHT_END
  0
LINE
  5
188
330
A
100
AcDbEntity
  8
TEMPLATE
390
1D
100
AcDbLine
 10
1269.20214454799
 20
97.14667350642826
 30
0.0
 11
1269.20214454799
 21
352.1466735064282
 31
0.0
  0
MTEXT
  5
189
330
A
100
AcDbEntity
  8
TEMPLATE
390
1D
100
AcDbMText
 10
132.2021445477307
 20
315.1492906939282
 30
0.0
 40
24.0
 41
0.0
 46
28.008
 71
     1
 72
     1
  1
{手洗器 -LAUFEN,Object}
  7
ＭＳ ゴシック
 73
     1
 44
0.7828267384257843
1001
ACAD
1000
ACAD_MTEXT_DEFINED_HEIGHT_BEGIN
1070
    46
1040
28.008
1000
ACAD_MTEXT_DEFINED_HEIGHT_END
  0
INSERT
  5
6B5
330
A
100
AcDbEntity
  8
TEMPLATE
100
AcDbBlockReference
  2
名称未設定-1
 10
1870.75074808845
 20
25.94676575665382
 30
0.0
 41
0.7619999999999998
 42
0.7619999999999998
 43
0.7619999999999998
  0
MTEXT
  5
7D9
330
A
100
AcDbEntity
  8
TEMPLATE
390
1D
100
AcDbMText
 10
125.2543452760364
 20
226.8119760293952
 30
0.0
 40
24.0
 41
0.0
 46
25.104
 71
     1
 72
     1
  1
{\fＭＳ ゴシック|b0|i0|c1|p0;壁掛け/オーバーフロー付き/壁取付ボルト付属/陶器/ホワイト}
  7
ＭＳ ゴシック
 73
     1
 44
0.9331787841240657
1001
ACAD
1000
ACAD_MTEXT_DEFINED_HEIGHT_BEGIN
1070
    46
1040
25.104
1000
ACAD_MTEXT_DEFINED_HEIGHT_END
  0
INSERT
  5
68C
330
A
100
AcDbEntity
  8
TEMPLATE
100
AcDbBlockReference
  2
block 2
 10
919.2743017702577
 20
8.373076514336368
 30
0.0
 41
0.3809999999999999
 42
0.3809999999999999
 43
0.3809999999999999
  0
LWPOLYLINE
  5
DAC
330
A
100
AcDbEntity
  8
BORDER
100
AcDbPolyline
 90
        4
 70
     1
 43
0.0
 10
0.0
 20
0.0
 10
0.0
 20
2970.0
 10
2100.0
 20
2970.0
 10
2100.0
 20
0.0
  0
MTEXT
  5
121B
330
A
100
AcDbEntity
  8
TEMPLATE
390
1D
100
AcDbMText
 10
1329.20214454799
 20
227.1688729773101
 30
0.0
 40
24.4326171875
 41
0.0
 46
28.390701171875
 71
     1
 72
     1
  1
{6.5kg}
  7
ＭＳ ゴシック
 73
     1
 44
0.7828267384257843
1001
ACAD
1000
ACAD_MTEXT_DEFINED_HEIGHT_BEGIN
1070
    46
1040
28.390701171875
1000
ACAD_MTEXT_DEFINED_HEIGHT_END
  0
MTEXT
  5
1466
102
{ACAD_XDICTIONARY
360
1468
102
}
330
A
100
AcDbEntity
  8
TEMPLATE
 48
0.05
100
AcDbMText
 10
74.728656548571
 20
83.86172105142839
 30
0.0
 40
22.0
 41
0.0
 46
22.0
 71
     1
 72
     1
  1
{20180417N}
  7
ＭＳ ゴシック
 73
     1
 44
1.0
1001
ACAD
1000
ACAD_MTEXT_DEFINED_HEIGHT_BEGIN
1070
    46
1040
22.0
1000
ACAD_MTEXT_DEFINED_HEIGHT_END
  0
MTEXT
  5
146D
330
A
100
AcDbEntity
  8
TEMPLATE
390
1D
100
AcDbMText
 10
1583.904999862276
 20
227.1688729773101
 30
0.0
 40
24.4326171875
 41
0.0
 46
24.4326171875
 71
     1
 72
     1
  1
{2.2L}
  7
ＭＳ ゴシック
 73
     1
 44
0.7828267384257843
1001
ACAD
1000
ACAD_MTEXT_DEFINED_HEIGHT_BEGIN
1070
    46
1040
24.4326171875
1000
ACAD_MTEXT_DEFINED_HEIGHT_END
  0
POINT
  5
262A
330
A
100
AcDbEntity
  8
Layer9
  6
Continuous
 62
     7
100
AcDbPoint
 10
1037.460145007193
 20
1010.220672371878
 30
0.0
  0
POINT
  5
262B
330
A
100
AcDbEntity
  8
Layer9
  6
Continuous
 62
     7
100
AcDbPoint
 10
1037.460146257193
 20
1010.220672788578
 30
0.0
  0
POINT
  5
262C
330
A
100
AcDbEntity
  8
Layer9
  6
Continuous
 62
     7
100
AcDbPoint
 10
1037.853693340493
 20
1015.267975288578
 30
0.0
  0
POINT
  5
2812
330
A
100
AcDbEntity
  8
Layer9
  6
Continuous
 62
     7
100
AcDbPoint
 10
925.7934783404928
 20
1010.220672371878
 30
0.0
  0
POINT
  5
2813
330
A
100
AcDbEntity
  8
Layer9
  6
Continuous
 62
     7
100
AcDbPoint
 10
925.7934795904928
 20
1010.220672788578
 30
0.0
  0
POINT
  5
2814
330
A
100
AcDbEntity
  8
Layer9
  6
Continuous
 62
     7
100
AcDbPoint
 10
926.1870266737928
 20
1015.267975288578
 30
0.0
  0
INSERT
  5
28CA
330
A
100
AcDbEntity
  8
Layer3
100
AcDbBlockReference
  2
SEANNOT_GROUP
 10
859.7083018867928
 20
826.1905269541776
 30
0.0
  0
POINT
  5
2A52
330
A
100
AcDbEntity
  8
Standard
  6
Continuous
 62
     7
100
AcDbPoint
 10
1036.111241014893
 20
1018.794321538578
 30
0.0
  0
INSERT
  5
2B9B
330
A
100
AcDbEntity
  8
Layer3
100
AcDbBlockReference
  2
SEANNOT_GROUP1
 10
859.7083018867928
 20
826.1905269541776
 30
0.0
  0
DIMENSION
  5
3846
330
A
100
AcDbEntity
  8
DIM
390
1D
100
AcDbDimension
  2
*D190
 10
349.1903764413837
 20
2243.93036619073
 30
0.0
 11
349.1903764413837
 21
2228.920892490314
 31
0.0
 70
   160
 71
     5
 42
30.01894740083253
 73
     0
 74
     0
 75
     0
  3
tfrom線あり
100
AcDbAlignedDimension
 13
449.1903764413837
 23
2213.911418789898
 33
0.0
 14
449.1903764413837
 24
2243.93036619073
 34
0.0
 50
90.0
100
AcDbRotatedDimension
  0
DIMENSION
  5
3847
330
A
100
AcDbEntity
  8
DIM
390
1D
100
AcDbDimension
  2
*D191
 10
349.1903764413837
 20
2213.911418789898
 30
0.0
 11
317.1903764413837
 21
2131.423495372101
 31
0.0
 70
    32
 71
     5
 42
164.975846835594
 73
     0
 74
     0
 75
     0
  3
tfrom線あり
100
AcDbAlignedDimension
 13
449.1903764413837
 23
2048.935571954304
 33
0.0
 14
449.1903764413837
 24
2213.911418789898
 34
0.0
 50
90.0
100
AcDbRotatedDimension
  0
DIMENSION
  5
3848
330
A
100
AcDbEntity
  8
DIM
390
1D
100
AcDbDimension
  2
*D192
 10
949.1903764413833
 20
2368.223903475325
 30
0.0
 11
699.1903764413834
 21
2368.223903475325
 31
0.0
 70
   160
 71
     5
 42
499.9999999999995
 73
     0
 74
     0
 75
     0
  3
tfrom線あり
100
AcDbAlignedDimension
 13
449.1903764413837
 23
2243.93036619073
 33
0.0
 14
949.1903764413833
 24
2243.93036619073
 34
0.0
100
AcDbRotatedDimension
  0
DIMENSION
  5
3849
330
A
100
AcDbEntity
  8
DIM
390
1D
100
AcDbDimension
  2
*D193
 10
1084.897469276906
 20
2023.93036619073
 30
0.0
 11
1052.897469276906
 21
2133.93036619073
 31
0.0
 70
    32
 71
     5
 42
220.0
 73
     0
 74
     0
 75
     0
  3
tfrom線あり
100
AcDbAlignedDimension
 13
949.1903764413833
 23
2243.93036619073
 33
0.0
 14
842.4371119033854
 24
2023.93036619073
 34
0.0
 50
90.0
100
AcDbRotatedDimension
  0
DIMENSION
  5
384A
330
A
100
AcDbEntity
  8
DIM
390
1D
100
AcDbDimension
  2
*D194
 10
550.4673637914807
 20
1928.966463100854
 30
0.0
 11
703.8995383487354
 21
1928.966463100854
 31
0.0
 70
   160
 71
     5
 42
299.9840447327142
 73
     0
 74
     0
 75
     0
  3
tfrom線あり
100
AcDbAlignedDimension
 13
850.4514085241949
 23
2023.966463100854
 33
0.0
 14
550.4673637914807
 24
2023.966463100854
 34
0.0
100
AcDbRotatedDimension
  0
DIMENSION
  5
384C
330
A
100
AcDbEntity
  8
DIM
390
1D
100
AcDbDimension
  2
*D196
 10
884.1903764413828
 20
2299.537742824259
 30
0.0
 11
916.6903764413831
 21
2299.537742824259
 31
0.0
 70
   160
 71
     5
 42
65.00000000000045
 73
     0
 74
     0
 75
     0
  3
tfrom線あり
100
AcDbAlignedDimension
 13
949.1903764413833
 23
2181.43036619073
 33
0.0
 14
884.1903764413828
 24
2181.43036619073
 34
0.0
100
AcDbRotatedDimension
  0
DIMENSION
  5
384D
330
A
100
AcDbEntity
  8
DIM
390
1D
100
AcDbDimension
  2
*D197
 10
516.8869692769067
 20
1232.889083747642
 30
0.0
 11
699.3869692769063
 21
1264.889083747642
 31
0.0
 70
    32
 71
     5
 42
364.9999999999991
 73
     0
 74
     0
 75
     0
  3
tfrom線あり
100
AcDbAlignedDimension
 13
881.8869692769058
 23
1098.008168307178
 33
0.0
 14
516.8869692769067
 24
1098.008168307178
 34
0.0
100
AcDbRotatedDimension
  0
DIMENSION
  5
384E
330
A
100
AcDbEntity
  8
DIM
390
1D
100
AcDbDimension
  2
*D198
 10
1718.380216971222
 20
1018.017918405756
 30
0.0
 11
1718.380216971222
 21
1238.033918405756
 31
0.0
 70
   160
 71
     5
 42
115.0
 73
     0
 74
     1
 75
     1
  3
tfrom線あり
100
AcDbAlignedDimension
 13
1704.966402318156
 23
1133.017918405756
 33
0.0
 14
1700.766402318155
 24
1018.017918405756
 34
0.0
 50
90.0
100
AcDbRotatedDimension
1001
ACAD
1000
DSTYLE
1002
{
1070
     3
1000
<>(深さ)
1070
   172
1070
     1
1002
}
  0
DIMENSION
  5
3851
330
A
100
AcDbEntity
  8
DIM
390
1D
100
AcDbDimension
  2
*D199
 10
1049.190376441383
 20
1133.008168307178
 30
0.0
 11
1017.190376441383
 21
1055.508168307178
 31
0.0
 70
    32
 71
     5
 42
154.9999999999999
 73
     0
 74
     0
 75
     0
  3
tfrom線あり
100
AcDbAlignedDimension
 13
728.9359197789695
 23
978.0081683071782
 33
0.0
 14
949.080768171033
 24
1133.008168307178
 34
0.0
 50
90.0
100
AcDbRotatedDimension
  0
LINE
  5
3854
330
A
100
AcDbEntity
  8
notes
  6
Continuous
 62
     7
370
     5
390
1D
100
AcDbLine
 10
879.2008169078576
 20
1088.023155387573
 30
0.0
 11
970.7853281583384
 21
1228.805715394584
 31
0.0
  0
DIMENSION
  5
3855
330
A
100
AcDbEntity
  8
DIM
390
1D
100
AcDbDimension
  2
*D200
 10
351.5463712596515
 20
1088.008168307178
 30
0.0
 11
351.5463712596515
 21
1110.508168307178
 31
0.0
 70
   160
 71
     5
 42
45.0
 73
     0
 74
     0
 75
     0
  3
tfrom線あり
100
AcDbAlignedDimension
 13
449.6927071390569
 23
1133.008168307178
 33
0.0
 14
506.8869692769067
 24
1088.008168307178
 34
0.0
 50
90.0
100
AcDbRotatedDimension
  0
DIMENSION
  5
3856
330
A
100
AcDbEntity
  8
DIM
390
1D
100
AcDbDimension
  2
*D201
 10
1719.204978991623
 20
877.8050174347509
 30
0.0
 11
1766.704978991623
 21
909.8050174347509
 31
0.0
 70
    32
 71
     5
 42
95.00000000000091
 73
     0
 74
     0
 75
     0
  3
tfrom線あり
100
AcDbAlignedDimension
 13
1814.204978991624
 23
1003.021834149946
 33
0.0
 14
1719.204978991623
 24
977.8050174347509
 34
0.0
100
AcDbRotatedDimension
  0
CIRCLE
  5
3857
330
A
100
AcDbEntity
  8
HIDDEN
 48
0.5
390
1D
100
AcDbCircle
 10
317.7237850685947
 20
1789.885408970454
 30
0.0
 40
17.50000000000011
  0
DIMENSION
  5
3858
330
A
100
AcDbEntity
  8
DIM
390
1D
100
AcDbDimension
  2
*D202
 10
1028.897469276907
 20
2243.93036619073
 30
0.0
 11
996.8974692769066
 21
2203.93036619073
 31
0.0
 70
    32
 71
     5
 42
80.0
 73
     0
 74
     0
 75
     0
  3
tfrom線あり
100
AcDbAlignedDimension
 13
901.6903764413828
 23
2163.93036619073
 33
0.0
 14
949.1903764413833
 24
2243.93036619073
 34
0.0
 50
90.0
100
AcDbRotatedDimension
  0
INSERT
  5
385A
330
A
100
AcDbEntity
  8
MODEL
390
1D
100
AcDbBlockReference
  2
ƒOƒ‹[ƒv-7
 10
1309.487878242317
 20
1572.805715394584
 30
0.0
  0
LINE
  5
385B
330
A
100
AcDbEntity
  8
MODEL
  6
Continuous
390
1D
100
AcDbLine
 10
451.4299599557003
 20
1109.787466147624
 30
0.0
 11
947.3445886022391
 21
1109.787466147624
 31
0.0
  0
LINE
  5
385C
330
A
100
AcDbEntity
  8
MODEL
  6
Continuous
390
1D
100
AcDbLine
 10
699.3869692769063
 20
1133.008168307178
 30
0.0
 11
455.3871226185661
 21
1133.008168307178
 31
0.0
  0
LWPOLYLINE
  5
385D
330
A
100
AcDbEntity
  8
MODEL
  6
Continuous
390
1D
100
AcDbPolyline
 90
       21
 70
   128
 43
0.0
 10
472.6057160938535
 20
1050.325945581419
 10
482.0853948736271
 20
1046.177561799889
 10
491.596098004039
 20
1042.219940260954
 10
501.1326609165981
 20
1038.452528597377
 10
510.6899420053255
 20
1034.874850039628
 10
520.2627836903216
 20
1031.486349196562
 10
529.8460383753868
 20
1028.286520067536
 10
539.4345404936607
 20
1025.274839516427
 10
549.0231654114559
 20
1022.450783399142
 10
558.6067475619116
 20
1019.813846723005
 10
568.1801223765369
 20
1017.363488208446
 10
577.7381572346849
 20
1015.09921798233
 10
587.2756875678638
 20
1013.020495773054
 10
596.7875787586863
 20
1011.126800460435
 10
606.268667237031
 20
1009.417624027888
 10
615.7137874360378
 20
1007.892427211781
 10
625.1178227089804
 20
1006.550703003501
 10
634.4755925134464
 20
1005.391944394435
 10
643.7819632304177
 20
1004.415612120947
 10
653.0317702914035
 20
1003.621200182396
 10
662.2198641034652
 20
1003.008168307178
  0
LINE
  5
385E
330
A
100
AcDbEntity
  8
MODEL
  6
Continuous
390
1D
100
AcDbLine
 10
451.4299599557003
 20
1109.787466147624
 30
0.0
 11
467.0806780940907
 21
1056.673741797421
 31
0.0
  0
LWPOLYLINE
  5
385F
330
A
100
AcDbEntity
  8
MODEL
  6
Continuous
390
1D
100
AcDbPolyline
 90
       21
 70
   128
 43
0.0
 10
467.0806780940907
 20
1056.673741797421
 10
467.2194445484179
 20
1056.238307076343
 10
467.3758012854123
 20
1055.81357799836
 10
467.5492401346969
 20
1055.399844858665
 10
467.7392259699018
 20
1054.997401984323
 10
467.9452496222798
 20
1054.606524550984
 10
468.1667879459019
 20
1054.227489750236
 10
468.4033177948395
 20
1053.860606020717
 10
468.6543200166443
 20
1053.506149546045
 10
468.919275458868
 20
1053.164397517809
 10
469.1976599772115
 20
1052.835641239168
 10
469.488955417597
 20
1052.520174029219
 10
469.7926436259463
 20
1052.218272071581
 10
470.1081994595897
 20
1051.930228685352
 10
470.4351037660799
 20
1051.656334165722
 10
470.7728393897087
 20
1051.396867720217
 10
471.1208811878064
 20
1051.152103516517
 10
471.478707012815
 20
1050.92235100123
 10
471.8458066976164
 20
1050.707887365944
 10
472.221646114212
 20
1050.508987786308
 10
472.6057160938535
 20
1050.325945581419
  0
LINE
  5
3860
330
A
100
AcDbEntity
  8
MODEL
  6
Continuous
390
1D
100
AcDbLine
 10
449.4324889629243
 20
1126.212803434348
 30
0.0
 11
451.4299599557003
 21
1109.787466147624
 31
0.0
  0
LWPOLYLINE
  5
3861
330
A
100
AcDbEntity
  8
MODEL
  6
Continuous
390
1D
100
AcDbPolyline
 90
       21
 70
   128
 43
0.0
 10
455.3871226185661
 20
1133.008168307178
 10
454.8950289948693
 20
1132.988081492789
 10
454.4138884894619
 20
1132.92889756095
 10
453.9452395906574
 20
1132.832124433899
 10
453.4906327672097
 20
1132.699360751117
 10
453.0516105009128
 20
1132.532144673924
 10
452.6297152735606
 20
1132.332045610691
 10
452.2264955571663
 20
1132.100632969787
 10
451.8434918367843
 20
1131.839442896592
 10
451.482254581168
 20
1131.550014560395
 10
451.1443242753717
 20
1131.233977847729
 10
450.8312443995583
 20
1130.892810441751
 10
450.5445644241127
 20
1130.528109973972
 10
450.2858238357176
 20
1130.141416621652
 10
450.0565731031274
 20
1129.734328016302
 10
449.858352711396
 20
1129.30835308813
 10
449.6927071390569
 20
1128.865090476619
 10
449.5611848581239
 20
1128.406077335117
 10
449.4653253552806
 20
1127.932884079964
 10
449.4066781009114
 20
1127.44704887248
 10
449.3867865751799
 20
1126.950139105095
  0
LWPOLYLINE
  5
3862
330
A
100
AcDbEntity
  8
MODEL
  6
Continuous
390
1D
100
AcDbPolyline
 90
       21
 70
   128
 43
0.0
 10
449.3867865751799
 20
1126.950139105095
 10
449.3869083763311
 20
1126.911134720831
 10
449.3872777732654
 20
1126.872222061784
 10
449.387883783912
 20
1126.833432375004
 10
449.3887323984909
 20
1126.794766668462
 10
449.3898146316715
 20
1126.75625417327
 10
449.391128486714
 20
1126.71792613648
 10
449.3926749619877
 20
1126.679782558092
 10
449.3944490656431
 20
1126.641884924239
 10
449.3964488009392
 20
1126.604202995841
 10
449.398669176026
 20
1126.566828498112
 10
449.4011101909032
 20
1126.52973119197
 10
449.4037648569802
 20
1126.492941316499
 10
449.4066361693676
 20
1126.456490118749
 10
449.4097171394742
 20
1126.420407837803
 10
449.4130077673008
 20
1126.384724712743
 10
449.4165040593662
 20
1126.349442759508
 10
449.4202020221901
 20
1126.314559962159
 10
449.4241026541436
 20
1126.280169053882
 10
449.4281959715245
 20
1126.246239795594
 10
449.4324889629243
 20
1126.212803434348
  0
LWPOLYLINE
  5
3863
330
A
100
AcDbEntity
  8
MODEL
  6
Continuous
390
1D
100
AcDbPolyline
 90
       21
 70
   128
 43
0.0
 10
926.1688324640863
 20
1050.325945581419
 10
917.7558402459658
 20
1046.546614679577
 10
909.2045538025723
 20
1042.898785482816
 10
900.5193010682578
 20
1039.385318608319
 10
891.7043460816903
 20
1036.009106928292
 10
882.764077677798
 20
1032.77304230697
 10
873.7027598952477
 20
1029.679983345598
 10
864.5247506194946
 20
1026.73282392435
 10
855.2343138892065
 20
1023.934469011063
 10
845.8358395376817
 20
1021.287765111351
 10
836.3335606541141
 20
1018.795603081478
 10
826.7318660734327
 20
1016.46087478568
 10
817.035049785406
 20
1014.286455960682
 10
807.2474397243882
 20
1012.275239478688
 10
797.3733019257857
 20
1010.430083940945
 10
787.4170212310473
 20
1008.753898347166
 10
777.3828656723194
 20
1007.249542306567
 10
767.275191138318
 20
1005.919922802923
 10
757.0982636644503
 20
1004.767885333878
 10
746.8564690905341
 20
1003.796352002749
 10
736.5540754487174
 20
1003.008168307178
  0
LINE
  5
3864
330
A
100
AcDbEntity
  8
MODEL
  6
Continuous
390
1D
100
AcDbLine
 10
699.3869692769063
 20
1133.008168307178
 30
0.0
 11
943.3874259393733
 21
1133.008168307178
 31
0.0
  0
LINE
  5
3865
330
A
100
AcDbEntity
  8
MODEL
  6
Continuous
390
1D
100
AcDbLine
 10
947.3445886022391
 20
1109.787466147624
 30
0.0
 11
931.6944794696055
 21
1056.673741797421
 31
0.0
  0
LWPOLYLINE
  5
3866
330
A
100
AcDbEntity
  8
MODEL
  6
Continuous
390
1D
100
AcDbPolyline
 90
       21
 70
   128
 43
0.0
 10
931.6944794696055
 20
1056.673741797421
 10
931.5638946581903
 20
1056.265714772552
 10
931.4167349064919
 20
1055.86388675955
 10
931.2531220156616
 20
1055.468811133621
 10
931.0733624853183
 20
1055.081025142461
 10
930.8776370204496
 20
1054.701129535837
 10
930.666129321151
 20
1054.329646441903
 10
930.4390829897261
 20
1053.967146371345
 10
930.1966807279018
 20
1053.614181691399
 10
929.9391661379809
 20
1053.271321904782
 10
929.6667838206358
 20
1052.9391203867
 10
929.3796545786481
 20
1052.618116400785
 10
929.0780230126907
 20
1052.308908680869
 10
928.7621327250658
 20
1052.012021371042
 10
928.4321664175004
 20
1051.728022966053
 10
928.0883666939276
 20
1051.457465833138
 10
927.7309182528143
 20
1051.20092149095
 10
927.3600027975172
 20
1050.958941298759
 10
926.9758649287096
 20
1050.732080647707
 10
926.5787462519534
 20
1050.520891905032
 10
926.1688324640863
 20
1050.325945581419
  0
LINE
  5
3867
330
A
100
AcDbEntity
  8
MODEL
  6
Continuous
390
1D
100
AcDbLine
 10
949.3426695991425
 20
1126.212803434348
 30
0.0
 11
947.3445886022391
 21
1109.787466147624
 31
0.0
  0
LWPOLYLINE
  5
3868
330
A
100
AcDbEntity
  8
MODEL
  6
Continuous
390
1D
100
AcDbPolyline
 90
       21
 70
   128
 43
0.0
 10
943.3874259393733
 20
1133.008168307178
 10
943.879481625007
 20
1132.988081492789
 10
944.360630117375
 20
1132.92889756095
 10
944.8292251041948
 20
1132.832124433899
 10
945.2838049716493
 20
1132.699360751117
 10
945.7227244058267
 20
1132.532144673924
 10
946.144582693486
 20
1132.332045610691
 10
946.5477325239735
 20
1132.100632969787
 10
946.9306523812675
 20
1131.839442896592
 10
947.2917578520314
 20
1131.550014560395
 10
947.6295853257084
 20
1131.233977847729
 10
947.9426112895367
 20
1130.892810441751
 10
948.2291914279731
 20
1130.528109973972
 10
948.4878641272021
 20
1130.141416621652
 10
948.7170429771454
 20
1129.734328016302
 10
948.9151445628358
 20
1129.30835308813
 10
949.080768171033
 20
1128.865090476619
 10
949.212206588878
 20
1128.406077335117
 10
949.3080581047607
 20
1127.932884079964
 10
949.3666784031375
 20
1127.44704887248
 10
949.3865429728762
 20
1126.950139105095
  0
LWPOLYLINE
  5
3869
330
A
100
AcDbEntity
  8
MODEL
  6
Continuous
390
1D
100
AcDbPolyline
 90
       21
 70
   128
 43
0.0
 10
949.3865429728762
 20
1126.950139105095
 10
949.386786575179
 20
1126.916517277477
 10
949.386786575179
 20
1126.882403560787
 10
949.3864820723006
 20
1126.847797955026
 10
949.3859339671199
 20
1126.812760938357
 10
949.3852021618413
 20
1126.777324765802
 10
949.3841059514793
 20
1126.74145819031
 10
949.38282604102
 20
1126.705221690045
 10
949.3813025282584
 20
1126.668677759109
 10
949.3794745126183
 20
1126.631795150452
 10
949.3774028946755
 20
1126.594606119094
 10
949.3750876744298
 20
1126.557200374314
 10
949.3725278535117
 20
1126.519518445915
 10
949.3696635297151
 20
1126.481652059114
 10
949.3665566019858
 20
1126.44356996686
 10
949.3632659741597
 20
1126.405365910307
 10
949.3596099428792
 20
1126.367006626466
 10
949.3557702115017
 20
1126.328555617408
 10
949.351687876192
 20
1126.290012883133
 10
949.3473010380035
 20
1126.251407654756
 10
949.3426695991425
 20
1126.212803434348
  0
LINE
  5
386A
330
A
100
AcDbEntity
  8
MODEL
  6
Continuous
390
1D
100
AcDbLine
 10
662.2198641034652
 20
1003.008168307178
 30
0.0
 11
736.5546844544738
 21
1003.008168307178
 31
0.0
  0
LINE
  5
386B
330
A
100
AcDbEntity
  8
HIDDEN
 48
0.5
390
1D
100
AcDbLine
 10
849.3869692769058
 20
1133.008168307178
 30
0.0
 11
844.811023835734
 21
1129.378391866685
 31
0.0
  0
LINE
  5
386C
330
A
100
AcDbEntity
  8
HIDDEN
 48
0.5
390
1D
100
AcDbLine
 10
844.811023835734
 20
1129.378391866685
 30
0.0
 11
833.1169410416278
 21
1093.104675098694
 31
0.0
  0
LINE
  5
386D
330
A
100
AcDbEntity
  8
HIDDEN
 48
0.5
390
1D
100
AcDbLine
 10
833.1169410416278
 20
1093.104675098694
 30
0.0
 11
814.8131592769396
 21
1068.595407012214
 31
0.0
  0
LINE
  5
386E
330
A
100
AcDbEntity
  8
HIDDEN
 48
0.5
390
1D
100
AcDbLine
 10
814.8131592769396
 20
1068.595407012214
 30
0.0
 11
794.4756239828421
 21
1051.438919351678
 31
0.0
  0
LINE
  5
386F
330
A
100
AcDbEntity
  8
HIDDEN
 48
0.5
390
1D
100
AcDbLine
 10
794.4756239828421
 20
1051.438919351678
 30
0.0
 11
771.595896776982
 21
1038.703530077045
 31
0.0
  0
LINE
  5
3870
330
A
100
AcDbEntity
  8
HIDDEN
 48
0.5
390
1D
100
AcDbLine
 10
771.595896776982
 20
1038.703530077045
 30
0.0
 11
736.8995254314273
 21
1022.012125734938
 31
0.0
  0
LINE
  5
3871
330
A
100
AcDbEntity
  8
HIDDEN
 48
0.5
390
1D
100
AcDbLine
 10
549.3869692769067
 20
1133.008167750601
 30
0.0
 11
553.9629147325686
 21
1129.378391327087
 31
0.0
  0
LINE
  5
3872
330
A
100
AcDbEntity
  8
HIDDEN
 48
0.5
390
1D
100
AcDbLine
 10
553.9629147325686
 20
1129.378391327087
 30
0.0
 11
565.6569976714791
 21
1093.104674602487
 31
0.0
  0
LINE
  5
3873
330
A
100
AcDbEntity
  8
HIDDEN
 48
0.5
390
1D
100
AcDbLine
 10
565.6569976714791
 20
1093.104674602487
 30
0.0
 11
583.960779534008
 21
1068.595406583923
 31
0.0
  0
LINE
  5
3874
330
A
100
AcDbEntity
  8
HIDDEN
 48
0.5
390
1D
100
AcDbLine
 10
583.960779534008
 20
1068.595406583923
 30
0.0
 11
604.2983148965941
 21
1051.43891899885
 31
0.0
  0
LINE
  5
3875
330
A
100
AcDbEntity
  8
HIDDEN
 48
0.5
390
1D
100
AcDbLine
 10
604.2983148965941
 20
1051.43891899885
 30
0.0
 11
627.1780421532935
 21
1038.703529809113
 31
0.0
  0
LINE
  5
3876
330
A
100
AcDbEntity
  8
HIDDEN
 48
0.5
390
1D
100
AcDbLine
 10
627.1780421532935
 20
1038.703529809113
 30
0.0
 11
661.8698709925102
 21
1021.991832793505
 31
0.0
  0
LINE
  5
3877
330
A
100
AcDbEntity
  8
MODEL
  6
Continuous
390
1D
100
AcDbLine
 10
662.1591857789699
 20
1003.008168307178
 30
0.0
 11
736.6153627789695
 21
1003.008168307178
 31
0.0
  0
LINE
  5
3878
330
A
100
AcDbEntity
  8
MODEL
  6
Continuous
390
1D
100
AcDbLine
 10
669.8392397789698
 20
978.0081683071782
 30
0.0
 11
699.3869687789693
 21
978.0081683071782
 31
0.0
  0
LWPOLYLINE
  5
3879
330
A
100
AcDbEntity
  8
MODEL
  6
Continuous
390
1D
100
AcDbPolyline
 90
       21
 70
   128
 43
0.0
 10
666.8344787789697
 20
980.9058301527427
 10
666.8444277789695
 20
980.668194315171
 10
666.8738157789694
 20
980.4358397239773
 10
666.9217897789695
 20
980.209517536899
 10
666.9876467789695
 20
979.989978911674
 10
667.0705937789694
 20
979.7779730775214
 10
667.1698667789697
 20
979.5742357640357
 10
667.2846437789694
 20
979.379519093213
 10
667.4141907789694
 20
979.1945559018707
 10
667.5577457789695
 20
979.0200992762642
 10
667.7145147789697
 20
978.8569129094974
 10
667.8837337789696
 20
978.7057171030211
 10
668.0646427789698
 20
978.5672784427163
 10
668.2564457789695
 20
978.4423326581768
 10
668.4583497789695
 20
978.331613550479
 10
668.6696227789698
 20
978.2359031336472
 10
668.8894717789694
 20
978.1559062809885
 10
669.1171327789698
 20
978.0923886141248
 10
669.3518437789694
 20
978.046100326535
 10
669.5927797789695
 20
978.0177761835539
 10
669.8392397789698
 20
978.0081683071782
  0
LINE
  5
387A
330
A
100
AcDbEntity
  8
MODEL
  6
Continuous
390
1D
100
AcDbLine
 10
666.8344787789697
 20
998.1892272139514
 30
0.0
 11
666.8344787789697
 21
980.9058301527434
 31
0.0
  0
LWPOLYLINE
  5
387B
330
A
100
AcDbEntity
  8
MODEL
  6
Continuous
390
1D
100
AcDbPolyline
 90
       21
 70
   128
 43
0.0
 10
662.1591857789699
 20
1003.008168307178
 10
662.5476287789697
 20
1002.967853603907
 10
662.92651977897
 20
1002.899891667451
 10
663.29471477897
 20
1002.805358610821
 10
663.6511137789698
 20
1002.685370081646
 10
663.9946047789699
 20
1002.540987729051
 10
664.3240417789698
 20
1002.373313701038
 10
664.6383117789696
 20
1002.183436645986
 10
664.9363007789698
 20
1001.972431712644
 10
665.2168947789696
 20
1001.741401049016
 10
665.4789487789694
 20
1001.491434267737
 10
665.7213807789694
 20
1001.22360651756
 10
665.9430607789695
 20
1000.939018982227
 10
666.1428287789695
 20
1000.638747774749
 10
666.3196167789697
 20
1000.323880579244
 10
666.4722657789698
 20
999.9955060440893
 10
666.5996767789698
 20
999.6547282458049
 10
666.7007207789698
 20
999.3026213688836
 10
666.7742977789694
 20
998.9402740617021
 10
666.8192507789695
 20
998.5687894365221
 10
666.8344787789697
 20
998.1892272139514
  0
LWPOLYLINE
  5
387C
330
A
100
AcDbEntity
  8
MODEL
  6
Continuous
390
1D
100
AcDbPolyline
 90
       21
 70
   128
 43
0.0
 10
731.9406797789693
 20
980.9058301527427
 10
731.9307007789694
 20
980.668194315171
 10
731.9013427789696
 20
980.4358397239773
 10
731.8533077789693
 20
980.209517536899
 10
731.7874517789692
 20
979.989978911674
 10
731.7044737789693
 20
979.7779730775214
 10
731.6052007789694
 20
979.5742357640357
 10
731.4903627789695
 20
979.379519093213
 10
731.3607847789694
 20
979.1945559018707
 10
731.2171997789692
 20
979.0200992762642
 10
731.0604007789693
 20
978.8569129094974
 10
730.8911497789695
 20
978.7057171030211
 10
730.7102417789692
 20
978.5672784427163
 10
730.5184697789696
 20
978.4423326581768
 10
730.3165347789695
 20
978.331613550479
 10
730.1052917789693
 20
978.2359031336472
 10
729.8854427789693
 20
978.1559062809885
 10
729.6578127789694
 20
978.0923886141248
 10
729.4231627789695
 20
978.046100326535
 10
729.1822877789696
 20
978.0177761835539
 10
728.9359197789695
 20
978.0081683071782
  0
LINE
  5
387D
330
A
100
AcDbEntity
  8
MODEL
  6
Continuous
390
1D
100
AcDbLine
 10
728.9359197789695
 20
978.0081683071782
 30
0.0
 11
699.3869687789693
 21
978.0081683071782
 31
0.0
  0
LINE
  5
387E
330
A
100
AcDbEntity
  8
MODEL
  6
Continuous
390
1D
100
AcDbLine
 10
731.9406797789693
 20
998.1892272139514
 30
0.0
 11
731.9406797789693
 21
980.9058301527434
 31
0.0
  0
LWPOLYLINE
  5
387F
330
A
100
AcDbEntity
  8
MODEL
  6
Continuous
390
1D
100
AcDbPolyline
 90
       21
 70
   128
 43
0.0
 10
736.6147527789694
 20
1003.008168307178
 10
736.2232117789695
 20
1002.968235450459
 10
735.8419557789693
 20
1002.900245550493
 10
735.4720217789695
 20
1002.805328718793
 10
735.1145077789693
 20
1002.68466424408
 10
734.7704227789695
 20
1002.53936873824
 10
734.4408627789694
 20
1002.370620525736
 10
734.1268377789693
 20
1002.179567074739
 10
733.8294437789696
 20
1001.967354889167
 10
733.5497197789696
 20
1001.735118901827
 10
733.2887027789693
 20
1001.484033580144
 10
733.0474917789693
 20
1001.215249285068
 10
732.8270937789694
 20
1000.929897092372
 10
732.6286077789696
 20
1000.629154362258
 10
732.4530697789692
 20
1000.31413963513
 10
732.3014897789694
 20
999.9860302711925
 10
732.1749937789696
 20
999.6459737386175
 10
732.0746217789692
 20
999.29511750558
 10
732.0014097789694
 20
998.9345945763696
 10
731.9563967789695
 20
998.5655823111883
 10
731.9406797789693
 20
998.1892272139514
  0
LINE
  5
3880
330
A
100
AcDbEntity
  8
HIDDEN
 48
0.5
390
1D
100
AcDbLine
 10
722.3846782070859
 20
1009.832722768539
 30
0.0
 11
722.3846782070859
 21
978.0081683071782
 31
0.0
  0
LINE
  5
3881
330
A
100
AcDbEntity
  8
HIDDEN
 48
0.5
390
1D
100
AcDbLine
 10
722.3846782070859
 20
1009.832722768539
 30
0.0
 11
736.8995254314273
 21
1022.012125734938
 31
0.0
  0
LINE
  5
3882
330
A
100
AcDbEntity
  8
HIDDEN
 48
0.5
390
1D
100
AcDbLine
 10
676.3847182168515
 20
1009.812429827106
 30
0.0
 11
676.3847182168515
 21
978.0081683071782
 31
0.0
  0
LINE
  5
3883
330
A
100
AcDbEntity
  8
HIDDEN
 48
0.5
390
1D
100
AcDbLine
 10
676.3847182168515
 20
1009.812429827106
 30
0.0
 11
661.8698709925102
 21
1021.991832793505
 31
0.0
  0
LINE
  5
3884
330
A
100
AcDbEntity
  8
HIDDEN
 48
0.5
390
1D
100
AcDbLine
 10
676.4689258530825
 20
1010.010403284383
 30
0.0
 11
722.468885843316
 21
1009.98552026183
 31
0.0
  0
LINE
  5
3885
330
A
100
AcDbEntity
  8
HIDDEN
 48
0.5
390
1D
100
AcDbLine
 10
666.5622344161911
 20
1018.054472370864
 30
0.0
 11
732.2027134090349
 21
1018.071032494754
 31
0.0
  0
INSERT
  5
3886
330
A
100
AcDbEntity
  8
MODEL
390
1D
100
AcDbBlockReference
  2
ƒOƒ‹[ƒv-9
 10
1309.487878242317
 20
1572.805715394584
 30
0.0
  0
LINE
  5
3887
330
A
100
AcDbEntity
  8
HIDDEN
 48
0.5
390
1D
100
AcDbLine
 10
1620.766402318155
 20
1133.008168307178
 30
0.0
 11
1623.266402318155
 21
1128.924799954121
 31
0.0
  0
LINE
  5
3888
330
A
100
AcDbEntity
  8
HIDDEN
 48
0.5
390
1D
100
AcDbLine
 10
1623.266402318155
 20
1128.924799954121
 30
0.0
 11
1627.266402318155
 21
1109.997267012167
 31
0.0
  0
LINE
  5
3889
330
A
100
AcDbEntity
  8
HIDDEN
 48
0.5
390
1D
100
AcDbLine
 10
1627.266402318155
 20
1109.997267012167
 30
0.0
 11
1642.266402318155
 21
1072.424799954121
 31
0.0
  0
LINE
  5
388A
330
A
100
AcDbEntity
  8
HIDDEN
 48
0.5
390
1D
100
AcDbLine
 10
1642.266402318155
 20
1072.424799954121
 30
0.0
 11
1656.122808778706
 21
1048.424799954121
 31
0.0
  0
LINE
  5
388B
330
A
100
AcDbEntity
  8
HIDDEN
 48
0.5
390
1D
100
AcDbLine
 10
1656.122808778706
 20
1048.424799954121
 30
0.0
 11
1679.053867777193
 21
1023.12341252293
 31
0.0
  0
LINE
  5
388C
330
A
100
AcDbEntity
  8
HIDDEN
 48
0.5
390
1D
100
AcDbLine
 10
1759.490367206053
 20
1023.103119581498
 30
0.0
 11
1766.266402318156
 21
1027.41523479295
 31
0.0
  0
LINE
  5
388D
330
A
100
AcDbEntity
  8
HIDDEN
 48
0.5
390
1D
100
AcDbLine
 10
1766.266402318156
 20
1027.41523479295
 30
0.0
 11
1774.766402318156
 21
1059.924799954121
 31
0.0
  0
LINE
  5
388E
330
A
100
AcDbEntity
  8
HIDDEN
 48
0.5
390
1D
100
AcDbLine
 10
1774.766402318156
 20
1059.924799954121
 30
0.0
 11
1774.766402318156
 21
1129.424799954121
 31
0.0
  0
LINE
  5
388F
330
A
100
AcDbEntity
  8
HIDDEN
 48
0.5
390
1D
100
AcDbLine
 10
1774.766402318156
 20
1129.424799954121
 30
0.0
 11
1779.266402318156
 21
1133.008168307178
 31
0.0
  0
LINE
  5
3890
330
A
100
AcDbEntity
  8
MODEL
  6
Continuous
390
1D
100
AcDbLine
 10
1806.772727991623
 20
996.0461370229549
 30
0.0
 11
1751.558493991623
 21
982.8238347644959
 31
0.0
  0
LINE
  5
3891
330
A
100
AcDbEntity
  8
MODEL
  6
Continuous
390
1D
100
AcDbLine
 10
1741.765403991622
 20
977.9586813654247
 30
0.0
 11
1691.617698991622
 21
977.9586813654247
 31
0.0
  0
LINE
  5
3892
330
A
100
AcDbEntity
  8
MODEL
  6
Continuous
390
1D
100
AcDbLine
 10
1751.791634603183
 20
982.8796655786076
 30
0.0
 11
1751.792262747707
 21
1003.021834149946
 31
0.0
  0
LINE
  5
3893
330
A
100
AcDbEntity
  8
MODEL
  6
Continuous
390
1D
100
AcDbLine
 10
1746.778830991623
 20
977.9586813654247
 30
0.0
 11
1741.765403991622
 21
977.9586813654247
 31
0.0
  0
LINE
  5
3894
330
A
100
AcDbEntity
  8
MODEL
  6
Continuous
390
1D
100
AcDbLine
 10
1686.617698991622
 20
982.9586813654247
 30
0.0
 11
1686.617698991622
 21
996.9283170166813
 31
0.0
  0
LWPOLYLINE
  5
3895
330
A
100
AcDbEntity
  8
MODEL
  6
Continuous
390
1D
100
AcDbPolyline
 90
       21
 70
   128
 43
0.0
 10
1686.501120991622
 20
996.9892447673348
 10
1686.503104991622
 20
997.0307727804922
 10
1686.506186991623
 20
997.1496285783925
 10
1686.506003991622
 20
997.3372093692454
 10
1686.498252991622
 20
997.584938186522
 10
1686.478629991622
 20
997.8842211779453
 10
1686.442771991622
 20
998.2264565450047
 10
1686.386374991622
 20
998.6030663278917
 10
1686.305136991622
 20
999.0054487280955
 10
1686.194663991622
 20
999.4250118798976
 10
1686.050681991623
 20
999.8531678906974
 10
1685.868857991622
 20
1000.281323901497
 10
1685.644858991622
 20
1000.700887053299
 10
1685.374350991622
 20
1001.103269453503
 10
1685.053000991622
 20
1001.47987923639
 10
1684.676535991623
 20
1001.82211460345
 10
1684.240561991623
 20
1002.121397594873
 10
1683.740805991622
 20
1002.36912641215
 10
1683.172934991622
 20
1002.556707203003
 10
1682.532584991623
 20
1002.675563000903
 10
1681.815451991622
 20
1002.71709101406
  0
LINE
  5
3896
330
A
100
AcDbEntity
  8
HIDDEN
 48
0.5
390
1D
100
AcDbLine
 10
1696.207269563506
 20
1009.783235826786
 30
0.0
 11
1696.207269563506
 21
977.9586813654247
 31
0.0
  0
LINE
  5
3897
330
A
100
AcDbEntity
  8
HIDDEN
 48
0.5
390
1D
100
AcDbLine
 10
1696.207269563506
 20
1009.783235826786
 30
0.0
 11
1681.692422339164
 21
1021.962638793185
 31
0.0
  0
ARC
  5
3898
330
A
100
AcDbEntity
  8
MODEL
  6
STYLE_12
390
1D
100
AcDbCircle
 10
1678.594980139163
 20
1018.043963435967
 30
0.0
 40
4.995013987729737
100
AcDbArc
 50
51.67606512624184
 51
85.47565938427962
  0
LINE
  5
3899
330
A
100
AcDbEntity
  8
HIDDEN
 48
0.5
390
1D
100
AcDbLine
 10
1742.207229553741
 20
1009.762942885353
 30
0.0
 11
1742.207229553741
 21
977.9586813654247
 31
0.0
  0
LINE
  5
389A
330
A
100
AcDbEntity
  8
HIDDEN
 48
0.5
390
1D
100
AcDbLine
 10
1742.207229553741
 20
1009.762942885353
 30
0.0
 11
1756.722076778082
 21
1021.942345851752
 31
0.0
  0
ARC
  5
389B
330
A
100
AcDbEntity
  8
MODEL
  6
STYLE_12
390
1D
100
AcDbCircle
 10
1759.819518978084
 20
1018.023670494534
 30
0.0
 40
4.995013987729799
100
AcDbArc
 50
94.52434061572039
 51
128.3239348737582
  0
LINE
  5
389C
330
A
100
AcDbEntity
  8
HIDDEN
 48
0.5
390
1D
100
AcDbLine
 10
1742.12302191751
 20
1009.96091634263
 30
0.0
 11
1696.123061927276
 21
1009.936033320077
 31
0.0
  0
LINE
  5
389D
330
A
100
AcDbEntity
  8
HIDDEN
 48
0.5
390
1D
100
AcDbLine
 10
1752.029713354402
 20
1018.004985429111
 30
0.0
 11
1686.389234361557
 21
1018.004985429111
 31
0.0
  0
ARC
  5
389E
330
A
100
AcDbEntity
  8
MODEL
  6
Continuous
390
1D
100
AcDbCircle
 10
1746.792258991622
 20
982.9586813654247
 30
0.0
 40
5.0
100
AcDbArc
 50
270.0
 51
0.0
  0
ARC
  5
389F
330
A
100
AcDbEntity
  8
MODEL
  6
Continuous
390
1D
100
AcDbCircle
 10
1691.617698991622
 20
982.9586813654247
 30
0.0
 40
5.000000000000057
100
AcDbArc
 50
180.0
 51
270.0
  0
ARC
  5
38A0
330
A
100
AcDbEntity
  8
MODEL
  6
Continuous
390
1D
100
AcDbCircle
 10
1805.199599218568
 20
1005.180995994611
 30
0.0
 40
9.269324817302337
100
AcDbArc
 50
279.7711568453107
 51
348.2063832245484
  0
MTEXT
  5
3974
330
A
100
AcDbEntity
  8
DIM
390
1D
100
AcDbMText
 10
349.6331013025926
 20
1805.00364114121
 30
0.0
 40
24.0
 41
949.7161250932047
 46
68.18007562252689
 71
     1
 72
     1
  1
{\fＭＳ ゴシック|b0|i0|c1|p0;=φ30もしくはφ35の水栓取付用穴あけ加工を承ります。\P 必要な場合、ご注文の際にご指示ください。}
  7
ＭＳ ゴシック
 73
     1
 44
0.9822934569727008
1001
ACAD
1000
ACAD_MTEXT_DEFINED_HEIGHT_BEGIN
1070
    46
1040
68.18007562252689
1000
ACAD_MTEXT_DEFINED_HEIGHT_END
  0
MTEXT
  5
3975
330
A
100
AcDbEntity
  8
DIM
390
1D
100
AcDbMText
 10
968.7132534639759
 20
1273.086398489914
 30
0.0
 40
24.0
 41
949.7161250932047
 46
26.808
 71
     1
 72
     1
  1
{壁取付ボルト穴(2ヶ所)}
  7
ＭＳ ゴシック
 73
     1
 44
0.9822934569727008
1001
ACAD
1000
ACAD_MTEXT_DEFINED_HEIGHT_BEGIN
1070
    46
1040
26.808
1000
ACAD_MTEXT_DEFINED_HEIGHT_END
  0
DIMENSION
  5
397D
330
A
100
AcDbEntity
  8
DIM
390
1D
100
AcDbDimension
  2
*D204
 10
514.1903764413846
 20
2299.537742824259
 30
0.0
 11
481.6903764413843
 21
2299.537742824259
 31
0.0
 70
   160
 71
     5
 42
65.00000000000045
 73
     0
 74
     0
 75
     0
 52
-89.99999999999999
  3
tfrom線あり
100
AcDbAlignedDimension
 13
449.1903764413842
 23
2181.43036619073
 33
0.0
 14
514.1903764413846
 24
2181.43036619073
 34
0.0
 50
180.0
100
AcDbRotatedDimension
  0
LWPOLYLINE
  5
398B
330
A
100
AcDbEntity
  8
MODEL
  6
Continuous
390
1D
100
AcDbPolyline
 90
       21
 70
   128
 43
0.0
 10
549.0850790311605
 20
2029.729413989417
 10
564.8767513599229
 20
2028.603017802775
 10
580.6400589649379
 20
2027.600367201288
 10
596.3660344762186
 20
2026.720595240582
 10
612.0456845661269
 20
2025.962846947891
 10
627.670034876078
 20
2025.32625737411
 10
643.2301300165389
 20
2024.809948600883
 10
658.7169636810464
 20
2024.41307064362
 10
674.121579481697
 20
2024.134761546116
 10
689.4350060550184
 20
2023.97414638292
 10
704.6482390912902
 20
2023.93036619073
 10
719.7523202058659
 20
2024.002560010978
 10
734.7382770369029
 20
2024.189859901654
 10
749.5971222469902
 20
2024.491405901821
 10
764.319867500346
 20
2024.906331067103
 10
778.8975863602024
 20
2025.433774438932
 10
793.3212585428992
 20
2026.07286907293
 10
807.581898707768
 20
2026.822754010529
 10
821.6705464734205
 20
2027.682562307352
 10
835.5782454519527
 20
2028.651434002464
 10
849.2959783548182
 20
2029.728500156219
  0
LINE
  5
398C
330
A
100
AcDbEntity
  8
MODEL
  6
Continuous
390
1D
100
AcDbLine
 10
949.1903764413834
 20
2243.93036619073
 30
0.0
 11
449.1903764413842
 21
2243.93036619073
 31
0.0
  0
LWPOLYLINE
  5
398D
330
A
100
AcDbEntity
  8
MODEL
  6
Continuous
390
1D
100
AcDbPolyline
 90
       21
 70
   128
 43
0.0
 10
449.1903764413842
 20
2137.34594696059
 10
449.5152174723378
 20
2128.913822485916
 10
450.4739323558492
 20
2120.659133292027
 10
452.0428007909256
 20
2112.605825599715
 10
454.1981074684302
 20
2104.77785959665
 10
456.9161330857401
 20
2097.199211432657
 10
460.1731623337189
 20
2089.893825333255
 10
463.9454749113731
 20
2082.885677448272
 10
468.2093575063082
 20
2076.198713000858
 10
472.9410908159023
 20
2069.856892178689
 10
478.1169535407907
 20
2063.884192129222
 10
483.7132343653213
 20
2058.304557077979
 10
489.7062119901298
 20
2053.141948210264
 10
496.0721721044501
 20
2048.420339680634
 10
502.7873904138046
 20
2044.163671724071
 10
509.8281645878812
 20
2040.395917497497
 10
517.1707533598922
 20
2037.141031202775
 10
524.7914613881239
 20
2034.422981008654
 10
532.6665683715835
 20
2032.265720119366
 10
540.7723390337098
 20
2030.693207724948
 10
549.0850790311605
 20
2029.729413989417
  0
LINE
  5
398E
330
A
100
AcDbEntity
  8
MODEL
  6
Continuous
390
1D
100
AcDbLine
 10
449.1903764413842
 20
2243.93036619073
 30
0.0
 11
449.1903764413842
 21
2137.34594696059
 31
0.0
  0
LWPOLYLINE
  5
398F
330
A
100
AcDbEntity
  8
MODEL
  6
Continuous
390
1D
100
AcDbPolyline
 90
       21
 70
   128
 43
0.0
 10
849.2965873612412
 20
2029.729413989417
 10
857.6866162640074
 20
2030.685938960015
 10
865.8520356109746
 20
2032.260772849904
 10
873.7706965373955
 20
2034.428476977089
 10
881.4204781329163
 20
2037.163629619361
 10
888.7792305344183
 20
2040.44078610892
 10
895.8248647794253
 20
2044.234525721193
 10
902.5352300064478
 20
2048.519409774184
 10
908.888177350738
 20
2053.270008564612
 10
914.8615859019421
 20
2058.460894384459
 10
920.4333377448195
 20
2064.066636532809
 10
925.5813109706448
 20
2070.061790341861
 10
930.2833257651641
 20
2076.420949053922
 10
934.5172931659008
 20
2083.118645055601
 10
938.2610633097368
 20
2090.129487551357
 10
941.4925162846887
 20
2097.428007930161
 10
944.189532178774
 20
2104.988800431958
 10
946.3299301793672
 20
2112.786412407871
 10
947.8916522734987
 20
2120.795438097844
 10
948.8524876974082
 20
2128.99042285773
 10
949.1903764413834
 20
2137.34594696059
  0
LINE
  5
3990
330
A
100
AcDbEntity
  8
MODEL
  6
Continuous
390
1D
100
AcDbLine
 10
949.1903764413834
 20
2137.34594696059
 30
0.0
 11
949.1903764413834
 21
2243.93036619073
 31
0.0
  0
INSERT
  5
3991
330
A
100
AcDbEntity
  8
MODEL
390
1D
100
AcDbBlockReference
  2
ƒOƒ‹[ƒv-1
 10
1309.487878242317
 20
1572.805715394584
 30
0.0
  0
CIRCLE
  5
3992
330
A
100
AcDbEntity
  8
HIDDEN
 48
0.5
390
1D
100
AcDbCircle
 10
884.1903764413833
 20
2163.93036619073
 30
0.0
 40
17.5
  0
CIRCLE
  5
3993
330
A
100
AcDbEntity
  8
HIDDEN
 48
0.5
390
1D
100
AcDbCircle
 10
514.1903764413842
 20
2163.93036619073
 30
0.0
 40
17.5
  0
INSERT
  5
3994
330
A
100
AcDbEntity
  8
MODEL
390
1D
100
AcDbBlockReference
  2
ƒOƒ‹[ƒv-2
 10
1309.487878242317
 20
1572.805715394584
 30
0.0
  0
VIEWPORT
  5
349
330
B
100
AcDbEntity
 67
     1
  8
0
100
AcDbViewport
 10
202.5
 20
128.5
 30
0.0
 40
486.0
 41
308.4
 68
     1
 69
     1
 12
202.5
 22
128.5
 13
0.0
 23
0.0
 14
0.5
 24
0.5
 15
0.0
 25
0.0
 16
0.0
 26
0.0
 36
1.0
 17
0.0
 27
0.0
 37
0.0
 42
50.0
 43
0.0
 44
0.0
 45
308.4
 50
0.0
 51
0.0
 72
   100
 90
   557152
  1

281
     0
 71
     1
 74
     0
110
0.0
120
0.0
130
0.0
111
1.0
121
0.0
131
0.0
112
0.0
122
1.0
132
0.0
 79
     0
146
0.0
170
     0
 61
     5
348
26C
292
     1
282
     1
141
0.0
142
0.0
 63
   256
  0
VIEWPORT
  5
34A
330
B
100
AcDbEntity
 67
     1
  8
0
100
AcDbViewport
 10
202.5
 20
128.5
 30
0.0
 40
324.0
 41
205.6
 68
     2
 69
     2
 12
986.6781359294573
 22
1427.077061889956
 13
0.0
 23
0.0
 14
0.5
 24
0.5
 15
0.0
 25
0.0
 16
0.0
 26
0.0
 36
1.0
 17
0.0
 27
0.0
 37
0.0
 42
50.0
 43
0.0
 44
0.0
 45
2890.021615685494
 50
0.0
 51
0.0
 72
   100
 90
   557152
  1

281
     0
 71
     1
 74
     0
110
0.0
120
0.0
130
0.0
111
1.0
121
0.0
131
0.0
112
0.0
122
1.0
132
0.0
 79
     0
146
0.0
170
     0
 61
     5
348
26C
292
     1
282
     1
141
0.0
142
0.0
 63
   256
  0
ENDSEC
  0
SECTION
  2
OBJECTS
  0
DICTIONARY
  5
19
330
0
100
AcDbDictionary
281
     1
  3
ACAD_COLOR
350
674
  3
ACAD_DETAILVIEWSTYLE
350
BBF
  3
ACAD_FIELDLIST
350
146A
  3
ACAD_GROUP
350
1A
  3
ACAD_IMAGE_VARS
350
27B
  3
ACAD_LAYOUT
350
1E
  3
ACAD_MATERIAL
350
263
  3
ACAD_MLEADERSTYLE
350
336
  3
ACAD_MLINESTYLE
350
1B
  3
ACAD_PLOTSETTINGS
350
22
  3
ACAD_PLOTSTYLENAME
350
1F
  3
ACAD_SCALELIST
350
241
  3
ACAD_SECTIONVIEWSTYLE
350
BC0
  3
ACAD_TABLESTYLE
350
278
  3
ACAD_VISUALSTYLE
350
267
  3
ACDB_RECOMPOSE_DATA
350
39A1
  3
AcDbVariableDictionary
350
330
  3
APPDATA
350
27A
  3
DimOffsetDictionary
350
E3E
  0
SUN
  5
904
330
15
100
AcDbSun
 90
        1
290
     0
 63
     7
421
 16777215
 40
1.0
291
     1
 91
  2455826
 92
 54000000
292
     0
 70
     2
 71
   256
280
     1
  0
DICTIONARY
  5
2E1
330
2
100
AcDbDictionary
280
     1
281
     1
  3
ACAD_LAYERSTATES
360
2E2
  3
ACLYDICTIONARY
360
DF9
  0
DICTIONARY
  5
1468
330
1466
100
AcDbDictionary
280
     1
281
     1
  3
ACAD_FIELD
360
3998
  0
DICTIONARY
  5
674
102
{ACAD_REACTORS
330
19
102
}
330
19
100
AcDbDictionary
281
     1
  0
DICTIONARY
  5
BBF
102
{ACAD_REACTORS
330
19
102
}
330
19
100
AcDbDictionary
281
     1
  0
FIELDLIST
  5
146A
102
{ACAD_REACTORS
330
19
102
}
330
19
100
AcDbIdSet
 90
        2
330
146B
330
1467
100
AcDbFieldList
  0
DICTIONARY
  5
1A
102
{ACAD_REACTORS
330
19
102
}
330
19
100
AcDbDictionary
281
     1
  0
RASTERVARIABLES
  5
27B
102
{ACAD_REACTORS
330
19
102
}
330
19
100
AcDbRasterVariables
 90
        0
 70
     1
 71
     1
 72
     1
  0
DICTIONARY
  5
1E
102
{ACAD_REACTORS
330
19
102
}
330
19
100
AcDbDictionary
281
     1
  3
Layout1
350
21
  3
Model
350
20
  0
DICTIONARY
  5
263
102
{ACAD_REACTORS
330
19
102
}
330
19
100
AcDbDictionary
281
     1
  3
ByBlock
350
265
  3
ByLayer
350
264
  3
Global
350
266
  0
DICTIONARY
  5
336
102
{ACAD_REACTORS
330
19
102
}
330
19
100
AcDbDictionary
281
     1
  3
Standard
350
DAB
  0
DICTIONARY
  5
1B
102
{ACAD_REACTORS
330
19
102
}
330
19
100
AcDbDictionary
281
     1
  3
Standard
350
1C
  0
DICTIONARY
  5
22
102
{ACAD_REACTORS
330
19
102
}
330
19
100
AcDbDictionary
281
     1
  0
ACDBDICTIONARYWDFLT
  5
1F
102
{ACAD_REACTORS
330
19
102
}
330
19
100
AcDbDictionary
281
     1
  3
Normal
350
1D
100
AcDbDictionaryWithDefault
340
1D
  0
DICTIONARY
  5
241
102
{ACAD_REACTORS
330
19
102
}
330
19
100
AcDbDictionary
281
     1
  3
A0
350
242
  3
A1
350
243
  3
A2
350
244
  3
A3
350
245
  3
A4
350
246
  3
A5
350
247
  3
A6
350
248
  3
A7
350
249
  3
A8
350
24A
  3
A9
350
24B
  3
B0
350
24C
  3
B1
350
24D
  3
B2
350
24E
  3
B3
350
24F
  3
B4
350
250
  3
B5
350
251
  3
B6
350
252
  3
B7
350
253
  3
B8
350
254
  3
B9
350
255
  3
C0
350
256
  3
C1
350
257
  3
C2
350
258
  3
C3
350
259
  3
C4
350
25A
  3
C5
350
25B
  3
C6
350
25C
  3
C7
350
25D
  3
C8
350
25E
  3
C9
350
25F
  3
D0
350
260
  3
D1
350
261
  3
D2
350
262
  0
DICTIONARY
  5
BC0
102
{ACAD_REACTORS
330
19
102
}
330
19
100
AcDbDictionary
281
     1
  0
DICTIONARY
  5
278
102
{ACAD_REACTORS
330
19
102
}
330
19
100
AcDbDictionary
281
     1
  3
Standard
350
279
  0
DICTIONARY
  5
267
102
{ACAD_REACTORS
330
19
102
}
330
19
100
AcDbDictionary
281
     1
  3
2dWireframe
350
26C
  3
3D Hidden
350
26E
  3
3dWireframe
350
26D
  3
Basic
350
26F
  3
Brighten
350
273
  3
ColorChange
350
277
  3
Conceptual
350
271
  3
Dim
350
272
  3
EdgeColorOff
350
8FE
  3
Facepattern
350
276
  3
Flat
350
268
  3
FlatWithEdges
350
269
  3
Gouraud
350
26A
  3
GouraudWithEdges
350
26B
  3
Hidden
350
8FB
  3
JitterOff
350
8FC
  3
Linepattern
350
275
  3
OverhangOff
350
8FD
  3
Realistic
350
270
  3
Shaded
350
903
  3
Shaded with edges
350
902
  3
Shades of Gray
350
8FF
  3
Sketchy
350
900
  3
Thicken
350
274
  3
Wireframe
350
8FA
  3
X-Ray
350
901
  0
XRECORD
  5
39A1
102
{ACAD_REACTORS
330
19
102
}
330
19
100
AcDbXrecord
280
     1
 90
        1
330
279
  0
DICTIONARY
  5
330
102
{ACAD_REACTORS
330
19
102
}
330
19
100
AcDbDictionary
281
     1
  3
CANNOSCALE
350
331
  3
CMLEADERSTYLE
350
DB1
  3
CTABLESTYLE
350
335
  3
HPTRANSPARENCY
350
D52
  3
XCLIPFRAME
350
896
  0
DICTIONARY
  5
27A
102
{ACAD_REACTORS
330
19
102
}
330
19
100
AcDbDictionary
281
     1
  0
DICTIONARY
  5
E3E
102
{ACAD_REACTORS
330
19
102
}
330
19
100
AcDbDictionary
281
     1
  3
DIMRAILANGLE
350
ECE
  3
DIMRAILFIRSTOFFSET
350
ECC
  3
DIMRAILOFFSET
350
ECD
  3
DIMRAILSENABLED
350
ECF
  0
DICTIONARY
  5
2E2
102
{ACAD_REACTORS
330
2E1
102
}
330
2E1
100
AcDbDictionary
281
     1
  0
DICTIONARY
  5
DF9
102
{ACAD_REACTORS
330
2E1
102
}
330
2E1
100
AcDbDictionary
281
     1
1001
ACAD
1000
<All
  0
DICTIONARY
  5
3998
102
{ACAD_REACTORS
330
1468
102
}
330
1468
100
AcDbDictionary
280
     1
281
     1
  3
TEXT
360
1467
  0
LAYOUT
  5
21
102
{ACAD_REACTORS
330
1E
102
}
330
1E
100
AcDbPlotSettings
  1

  2
none_device
  4
ISO_A3_(420.00_x_297.00_MM)
  6

 40
7.5
 41
20.0
 42
7.5
 43
20.0
 44
420.0
 45
297.0
 46
0.0
 47
0.0
 48
0.0
 49
0.0
140
0.0
141
0.0
142
1.0
143
1.0
 70
     0
 72
     1
 73
     0
 74
     0
  7

 75
     0
 76
     0
 77
     2
 78
   300
147
1.0
148
0.0
149
0.0
100
AcDbLayout
  1
Layout1
 70
     0
 71
     0
 10
-7.5
 20
-20.0
 11
412.5
 21
277.0
 12
0.0
 22
0.0
 32
0.0
 14
0.0
 24
0.0
 34
0.0
 15
0.0
 25
0.0
 35
0.0
146
0.0
 13
0.0
 23
0.0
 33
0.0
 16
0.0
 26
0.0
 36
0.0
 17
0.0
 27
0.0
 37
0.0
 76
     0
330
B
331
349
  0
LAYOUT
  5
20
102
{ACAD_REACTORS
330
1E
102
}
330
1E
100
AcDbPlotSettings
  1

  2
none_device
  4
ISO_A3_(420.00_x_297.00_MM)
  6

 40
7.5
 41
20.0
 42
7.5
 43
20.0
 44
420.0
 45
297.0
 46
0.0
 47
0.0
 48
0.0
 49
0.0
140
0.0
141
0.0
142
1.0
143
1.0
 70
  1024
 72
     1
 73
     0
 74
     0
  7

 75
     0
 76
     0
 77
     2
 78
   300
147
1.0
148
0.0
149
0.0
100
AcDbLayout
  1
Model
 70
     0
 71
     1
 10
0.0
 20
0.0
 11
2100.0
 21
2970.0
 12
0.0
 22
0.0
 32
0.0
 14
0.0
 24
0.0
 34
-0.0000000000000071
 15
2100.0
 25
2970.0
 35
0.0000000000000142
146
0.0
 13
0.0
 23
0.0
 33
0.0
 16
0.0
 26
0.0
 36
0.0
 17
0.0
 27
0.0
 37
0.0
 76
     0
330
A
331
15
  0
MATERIAL
  5
265
102
{ACAD_REACTORS
330
263
102
}
330
263
100
AcDbMaterial
  1
ByBlock
 72
     1
 94
      127
  0
MATERIAL
  5
264
102
{ACAD_REACTORS
330
263
102
}
330
263
100
AcDbMaterial
  1
ByLayer
 72
     1
 94
      127
  0
MATERIAL
  5
266
102
{ACAD_REACTORS
330
263
102
}
330
263
100
AcDbMaterial
  1
Global
 72
     1
 94
      127
  0
MLEADERSTYLE
  5
DAB
102
{ACAD_REACTORS
330
336
102
}
330
336
100
AcDbMLeaderStyle
170
     2
171
     1
172
     0
 90
        2
 40
0.0
 41
0.0
173
     1
 91
-1056964608
340
11
 92
       -2
290
     1
 42
2.0
291
     1
 43
8.0
  3
Standard
341
0
 44
4.0
300

342
17
174
     1
178
     6
175
     1
176
     0
 93
-1056964608
 45
4.0
292
     0
297
     0
 46
4.0
343
0
 94
-1056964608
 47
1.0
 49
1.0
140
1.0
293
     1
141
0.0
294
     1
177
     0
142
1.0
295
     0
296
     0
143
3.75
1001
ACAD_MLEADERVER
1070
     2
  0
MLINESTYLE
  5
1C
102
{ACAD_REACTORS
330
1B
102
}
330
1B
100
AcDbMlineStyle
  2
Standard
 70
     0
  3

 62
     0
 51
90.0
 52
90.0
 71
     2
 49
0.5
 62
   256
  6
BYLAYER
 49
-0.5
 62
   256
  6
BYLAYER
  0
ACDBPLACEHOLDER
  5
1D
102
{ACAD_REACTORS
330
1F
102
}
330
1F
  0
SCALE
  5
242
102
{ACAD_REACTORS
330
241
102
}
330
241
100
AcDbScale
 70
     0
300
1:1
140
1.0
141
1.0
290
     1
  0
SCALE
  5
243
102
{ACAD_REACTORS
330
241
102
}
330
241
100
AcDbScale
 70
     0
300
1:2
140
1.0
141
2.0
290
     0
  0
SCALE
  5
244
102
{ACAD_REACTORS
330
241
102
}
330
241
100
AcDbScale
 70
     0
300
1:4
140
1.0
141
4.0
290
     0
  0
SCALE
  5
245
102
{ACAD_REACTORS
330
241
102
}
330
241
100
AcDbScale
 70
     0
300
1:5
140
1.0
141
5.0
290
     0
  0
SCALE
  5
246
102
{ACAD_REACTORS
330
241
102
}
330
241
100
AcDbScale
 70
     0
300
1:8
140
1.0
141
8.0
290
     0
  0
SCALE
  5
247
102
{ACAD_REACTORS
330
241
102
}
330
241
100
AcDbScale
 70
     0
300
1:10
140
1.0
141
10.0
290
     0
  0
SCALE
  5
248
102
{ACAD_REACTORS
330
241
102
}
330
241
100
AcDbScale
 70
     0
300
1:16
140
1.0
141
16.0
290
     0
  0
SCALE
  5
249
102
{ACAD_REACTORS
330
241
102
}
330
241
100
AcDbScale
 70
     0
300
1:20
140
1.0
141
20.0
290
     0
  0
SCALE
  5
24A
102
{ACAD_REACTORS
330
241
102
}
330
241
100
AcDbScale
 70
     0
300
1:30
140
1.0
141
30.0
290
     0
  0
SCALE
  5
24B
102
{ACAD_REACTORS
330
241
102
}
330
241
100
AcDbScale
 70
     0
300
1:40
140
1.0
141
40.0
290
     0
  0
SCALE
  5
24C
102
{ACAD_REACTORS
330
241
102
}
330
241
100
AcDbScale
 70
     0
300
1:50
140
1.0
141
50.0
290
     0
  0
SCALE
  5
24D
102
{ACAD_REACTORS
330
241
102
}
330
241
100
AcDbScale
 70
     0
300
1:100
140
1.0
141
100.0
290
     0
  0
SCALE
  5
24E
102
{ACAD_REACTORS
330
241
102
}
330
241
100
AcDbScale
 70
     0
300
2:1
140
2.0
141
1.0
290
     0
  0
SCALE
  5
24F
102
{ACAD_REACTORS
330
241
102
}
330
241
100
AcDbScale
 70
     0
300
4:1
140
4.0
141
1.0
290
     0
  0
SCALE
  5
250
102
{ACAD_REACTORS
330
241
102
}
330
241
100
AcDbScale
 70
     0
300
8:1
140
8.0
141
1.0
290
     0
  0
SCALE
  5
251
102
{ACAD_REACTORS
330
241
102
}
330
241
100
AcDbScale
 70
     0
300
10:1
140
10.0
141
1.0
290
     0
  0
SCALE
  5
252
102
{ACAD_REACTORS
330
241
102
}
330
241
100
AcDbScale
 70
     0
300
100:1
140
100.0
141
1.0
290
     0
  0
SCALE
  5
253
102
{ACAD_REACTORS
330
241
102
}
330
241
100
AcDbScale
 70
     0
300
1/128" = 1'-0"
140
0.0078125
141
12.0
290
     0
  0
SCALE
  5
254
102
{ACAD_REACTORS
330
241
102
}
330
241
100
AcDbScale
 70
     0
300
1/64" = 1'-0"
140
0.015625
141
12.0
290
     0
  0
SCALE
  5
255
102
{ACAD_REACTORS
330
241
102
}
330
241
100
AcDbScale
 70
     0
300
1/32" = 1'-0"
140
0.03125
141
12.0
290
     0
  0
SCALE
  5
256
102
{ACAD_REACTORS
330
241
102
}
330
241
100
AcDbScale
 70
     0
300
1/16" = 1'-0"
140
0.0625
141
12.0
290
     0
  0
SCALE
  5
257
102
{ACAD_REACTORS
330
241
102
}
330
241
100
AcDbScale
 70
     0
300
3/32" = 1'-0"
140
0.09375
141
12.0
290
     0
  0
SCALE
  5
258
102
{ACAD_REACTORS
330
241
102
}
330
241
100
AcDbScale
 70
     0
300
1/8" = 1'-0"
140
0.125
141
12.0
290
     0
  0
SCALE
  5
259
102
{ACAD_REACTORS
330
241
102
}
330
241
100
AcDbScale
 70
     0
300
3/16" = 1'-0"
140
0.1875
141
12.0
290
     0
  0
SCALE
  5
25A
102
{ACAD_REACTORS
330
241
102
}
330
241
100
AcDbScale
 70
     0
300
1/4" = 1'-0"
140
0.25
141
12.0
290
     0
  0
SCALE
  5
25B
102
{ACAD_REACTORS
330
241
102
}
330
241
100
AcDbScale
 70
     0
300
3/8" = 1'-0"
140
0.375
141
12.0
290
     0
  0
SCALE
  5
25C
102
{ACAD_REACTORS
330
241
102
}
330
241
100
AcDbScale
 70
     0
300
1/2" = 1'-0"
140
0.5
141
12.0
290
     0
  0
SCALE
  5
25D
102
{ACAD_REACTORS
330
241
102
}
330
241
100
AcDbScale
 70
     0
300
3/4" = 1'-0"
140
0.75
141
12.0
290
     0
  0
SCALE
  5
25E
102
{ACAD_REACTORS
330
241
102
}
330
241
100
AcDbScale
 70
     0
300
1" = 1'-0"
140
1.0
141
12.0
290
     0
  0
SCALE
  5
25F
102
{ACAD_REACTORS
330
241
102
}
330
241
100
AcDbScale
 70
     0
300
1-1/2" = 1'-0"
140
1.5
141
12.0
290
     0
  0
SCALE
  5
260
102
{ACAD_REACTORS
330
241
102
}
330
241
100
AcDbScale
 70
     0
300
3" = 1'-0"
140
3.0
141
12.0
290
     0
  0
SCALE
  5
261
102
{ACAD_REACTORS
330
241
102
}
330
241
100
AcDbScale
 70
     0
300
6" = 1'-0"
140
6.0
141
12.0
290
     0
  0
SCALE
  5
262
102
{ACAD_REACTORS
330
241
102
}
330
241
100
AcDbScale
 70
     0
300
1'-0" = 1'-0"
140
12.0
141
12.0
290
     0
  0
TABLESTYLE
  5
279
102
{ACAD_REACTORS
330
278
102
}
102
{ACAD_XDICTIONARY
360
399F
102
}
330
278
100
AcDbTableStyle
  3
Standard
 70
     0
 71
     0
 40
0.06
 41
0.06
280
     0
281
     0
  7
Standard
140
4.5
170
     2
 62
     0
 63
   257
283
     0
 90
        4
 91
        0
  1

274
    -2
284
     1
 64
     0
275
    -2
285
     1
 65
     0
276
    -2
286
     1
 66
     0
277
    -2
287
     1
 67
     0
278
    -2
288
     1
 68
     0
279
    -2
289
     1
 69
     0
  7
Standard
140
6.0
170
     5
 62
     0
 63
   257
283
     0
 90
        4
 91
        0
  1

274
    -2
284
     1
 64
     0
275
    -2
285
     1
 65
     0
276
    -2
286
     1
 66
     0
277
    -2
287
     1
 67
     0
278
    -2
288
     1
 68
     0
279
    -2
289
     1
 69
     0
  7
Standard
140
4.5
170
     5
 62
     0
 63
   257
283
     0
 90
        4
 91
        0
  1

274
    -2
284
     1
 64
     0
275
    -2
285
     1
 65
     0
276
    -2
286
     1
 66
     0
277
    -2
287
     1
 67
     0
278
    -2
288
     1
 68
     0
279
    -2
289
     1
 69
     0
  0
VISUALSTYLE
  5
26C
102
{ACAD_REACTORS
330
267
102
}
330
267
100
AcDbVisualStyle
  2
2dWireframe
 70
     4
 71
     0
 72
     2
 73
     0
 90
        0
 40
-0.6
 41
-30.0
 62
     5
 63
     7
421
 16777215
 74
     1
 91
        4
 64
     7
 65
   257
 75
     1
175
     1
 42
1.0
 92
        0
 66
   257
 43
1.0
 76
     1
 77
     6
 78
     2
 67
     7
 79
     5
170
     0
171
     0
290
     0
174
     0
 93
        1
 44
0.0
173
     0
291
     0
 45
0.0
  0
VISUALSTYLE
  5
26E
102
{ACAD_REACTORS
330
267
102
}
330
267
100
AcDbVisualStyle
  2
3D Hidden
 70
     6
 71
     1
 72
     2
 73
     2
 90
        0
 40
-0.6
 41
-30.0
 62
     5
 63
     7
421
 16777215
 74
     2
 91
        2
 64
     7
 65
   257
 75
     2
175
     1
 42
40.0
 92
        0
 66
   257
 43
1.0
 76
     1
 77
     6
 78
     2
 67
     7
 79
     3
170
     0
171
     0
290
     0
174
     0
 93
        1
 44
0.0
173
     0
291
     0
 45
0.0
  0
VISUALSTYLE
  5
26D
102
{ACAD_REACTORS
330
267
102
}
330
267
100
AcDbVisualStyle
  2
3dWireframe
 70
     5
 71
     0
 72
     2
 73
     0
 90
        0
 40
-0.6
 41
-30.0
 62
     5
 63
     7
421
 16777215
 74
     1
 91
        4
 64
     7
 65
   257
 75
     1
175
     1
 42
1.0
 92
        0
 66
   257
 43
1.0
 76
     1
 77
     6
 78
     2
 67
     7
 79
     5
170
     0
171
     0
290
     0
174
     0
 93
        1
 44
0.0
173
     0
291
     0
 45
0.0
  0
VISUALSTYLE
  5
26F
102
{ACAD_REACTORS
330
267
102
}
330
267
100
AcDbVisualStyle
  2
Basic
 70
     7
 71
     1
 72
     0
 73
     1
 90
        0
 40
-0.6
 41
-30.0
 62
     5
 63
     7
421
 16777215
 74
     0
 91
        4
 64
     7
 65
   257
 75
     1
175
     1
 42
1.0
 92
        8
 66
     7
 43
1.0
 76
     1
 77
     6
 78
     2
 67
     7
 79
     5
170
     0
171
     0
290
     0
174
     0
 93
        1
 44
0.0
173
     0
291
     1
 45
0.0
  0
VISUALSTYLE
  5
273
102
{ACAD_REACTORS
330
267
102
}
330
267
100
AcDbVisualStyle
  2
Brighten
 70
    12
 71
     2
 72
     2
 73
     0
 90
        0
 40
-0.6
 41
-30.0
 62
     5
 63
     7
421
 16777215
 74
     1
 91
        4
 64
     7
 65
   257
 75
     1
175
     1
 42
1.0
 92
        8
 66
     7
 43
1.0
 76
     1
 77
     6
 78
     2
 67
     7
 79
     5
170
     0
171
     0
290
     0
174
     0
 93
        1
 44
50.0
173
     0
291
     1
 45
0.0
  0
VISUALSTYLE
  5
277
102
{ACAD_REACTORS
330
267
102
}
330
267
100
AcDbVisualStyle
  2
ColorChange
 70
    16
 71
     2
 72
     2
 73
     3
 90
        0
 40
-0.6
 41
-30.0
 62
     5
 63
     8
421
  8421504
 74
     1
 91
        4
 64
     7
 65
   257
 75
     1
175
     1
 42
1.0
 92
        8
 66
     8
424
  8421504
 43
1.0
 76
     1
 77
     6
 78
     2
 67
     7
 79
     5
170
     0
171
     0
290
     0
174
     0
 93
        1
 44
0.0
173
     0
291
     1
 45
0.0
  0
VISUALSTYLE
  5
271
102
{ACAD_REACTORS
330
267
102
}
330
267
100
AcDbVisualStyle
  2
Conceptual
 70
     9
 71
     3
 72
     2
 73
     0
 90
        0
 40
-0.6
 41
-30.0
 62
     5
 63
     7
421
 16777215
 74
     2
 91
        2
 64
     7
 65
   257
 75
     1
175
     1
 42
40.0
 92
        8
 66
     7
 43
1.0
 76
     1
 77
     6
 78
     2
 67
     7
 79
     3
170
     0
171
     0
290
     0
174
     0
 93
        1
 44
0.0
173
     0
291
     0
 45
0.0
  0
VISUALSTYLE
  5
272
102
{ACAD_REACTORS
330
267
102
}
330
267
100
AcDbVisualStyle
  2
Dim
 70
    11
 71
     2
 72
     2
 73
     0
 90
        0
 40
-0.6
 41
-30.0
 62
     5
 63
     7
421
 16777215
 74
     1
 91
        4
 64
     7
 65
   257
 75
     1
175
     1
 42
1.0
 92
        8
 66
     7
 43
1.0
 76
     1
 77
     6
 78
     2
 67
     7
 79
     5
170
     0
171
     0
290
     0
174
     0
 93
        1
 44
-50.0
173
     0
291
     1
 45
0.0
  0
VISUALSTYLE
  5
8FE
102
{ACAD_REACTORS
330
267
102
}
330
267
100
AcDbVisualStyle
  2
EdgeColorOff
 70
    22
 71
     2
 72
     2
 73
     0
 90
        0
 40
0.6
 41
30.0
 62
     5
 63
     7
421
 16777215
 74
     1
 91
        4
 64
     7
 65
   257
 75
     1
175
     1
 42
1.0
 92
        8
 66
     7
 43
1.0
 76
     1
 77
     6
 78
     2
 67
     7
 79
     5
170
     0
171
     0
290
     0
174
     0
 93
        1
 44
0.0
173
     0
291
     1
 45
0.0
  0
VISUALSTYLE
  5
276
102
{ACAD_REACTORS
330
267
102
}
330
267
100
AcDbVisualStyle
  2
Facepattern
 70
    15
 71
     2
 72
     2
 73
     0
 90
        0
 40
-0.6
 41
-30.0
 62
     5
 63
     7
421
 16777215
 74
     1
 91
        4
 64
     7
 65
   257
 75
     1
175
     1
 42
1.0
 92
        8
 66
     7
 43
1.0
 76
     1
 77
     6
 78
     2
 67
     7
 79
     5
170
     0
171
     0
290
     0
174
     0
 93
        1
 44
0.0
173
     0
291
     1
 45
0.0
  0
VISUALSTYLE
  5
268
102
{ACAD_REACTORS
330
267
102
}
330
267
100
AcDbVisualStyle
  2
Flat
 70
     0
 71
     2
 72
     1
 73
     1
 90
        2
 40
-0.6
 41
30.0
 62
     5
 63
     7
421
 16777215
 74
     0
 91
        4
 64
     7
 65
   257
 75
     1
175
     1
 42
1.0
 92
        8
 66
     7
 43
1.0
 76
     1
 77
     6
 78
     2
 67
     7
 79
     5
170
     0
171
     0
290
     0
174
     0
 93
       13
 44
0.0
173
     0
291
     1
 45
0.0
  0
VISUALSTYLE
  5
269
102
{ACAD_REACTORS
330
267
102
}
330
267
100
AcDbVisualStyle
  2
FlatWithEdges
 70
     1
 71
     2
 72
     1
 73
     1
 90
        2
 40
-0.6
 41
30.0
 62
     5
 63
     7
421
 16777215
 74
     1
 91
        4
 64
     7
 65
   257
 75
     1
175
     1
 42
1.0
 92
        0
 66
   257
 43
1.0
 76
     1
 77
     6
 78
     2
 67
     7
 79
     5
170
     0
171
     0
290
     0
174
     0
 93
       13
 44
0.0
173
     0
291
     1
 45
0.0
  0
VISUALSTYLE
  5
26A
102
{ACAD_REACTORS
330
267
102
}
330
267
100
AcDbVisualStyle
  2
Gouraud
 70
     2
 71
     2
 72
     2
 73
     1
 90
        2
 40
-0.6
 41
30.0
 62
     5
 63
     7
421
 16777215
 74
     0
 91
        4
 64
     7
 65
   257
 75
     1
175
     1
 42
1.0
 92
        0
 66
     7
 43
1.0
 76
     1
 77
     6
 78
     2
 67
     7
 79
     5
170
     0
171
     0
290
     0
174
     0
 93
       13
 44
0.0
173
     0
291
     1
 45
0.0
  0
VISUALSTYLE
  5
26B
102
{ACAD_REACTORS
330
267
102
}
330
267
100
AcDbVisualStyle
  2
GouraudWithEdges
 70
     3
 71
     2
 72
     2
 73
     1
 90
        2
 40
-0.6
 41
30.0
 62
     5
 63
     7
421
 16777215
 74
     1
 91
        4
 64
     7
 65
   257
 75
     1
175
     1
 42
1.0
 92
        0
 66
   257
 43
1.0
 76
     1
 77
     6
 78
     2
 67
     7
 79
     5
170
     0
171
     0
290
     0
174
     0
 93
       13
 44
0.0
173
     0
291
     1
 45
0.0
  0
VISUALSTYLE
  5
8FB
102
{ACAD_REACTORS
330
267
102
}
330
267
100
AcDbVisualStyle
  2
Hidden
 70
     6
 71
     1
 72
     2
 73
     2
 90
        0
 40
0.6
 41
30.0
 62
     5
 63
     7
421
 16777215
 74
     2
 91
        2
 64
     7
 65
   257
 75
     2
175
     1
 42
40.0
 92
        0
 66
   257
 43
1.0
 76
     1
 77
     6
 78
     2
 67
     7
 79
     3
170
     0
171
     0
290
     0
174
     0
 93
        1
 44
0.0
173
     0
291
     0
 45
0.0
  0
VISUALSTYLE
  5
8FC
102
{ACAD_REACTORS
330
267
102
}
330
267
100
AcDbVisualStyle
  2
JitterOff
 70
    20
 71
     2
 72
     2
 73
     0
 90
        0
 40
0.6
 41
30.0
 62
     5
 63
     7
421
 16777215
 74
     1
 91
        4
 64
     7
 65
   257
 75
     1
175
     1
 42
1.0
 92
       10
 66
     7
 43
1.0
 76
     1
 77
     6
 78
     2
 67
     7
 79
     5
170
     0
171
     0
290
     0
174
     0
 93
        1
 44
0.0
173
     0
291
     1
 45
0.0
  0
VISUALSTYLE
  5
275
102
{ACAD_REACTORS
330
267
102
}
330
267
100
AcDbVisualStyle
  2
Linepattern
 70
    14
 71
     2
 72
     2
 73
     0
 90
        0
 40
-0.6
 41
-30.0
 62
     5
 63
     7
421
 16777215
 74
     1
 91
        4
 64
     7
 65
   257
 75
     7
175
     7
 42
1.0
 92
        8
 66
     7
 43
1.0
 76
     1
 77
     6
 78
     2
 67
     7
 79
     5
170
     0
171
     0
290
     0
174
     0
 93
        1
 44
0.0
173
     0
291
     1
 45
0.0
  0
VISUALSTYLE
  5
8FD
102
{ACAD_REACTORS
330
267
102
}
330
267
100
AcDbVisualStyle
  2
OverhangOff
 70
    21
 71
     2
 72
     2
 73
     0
 90
        0
 40
0.6
 41
30.0
 62
     5
 63
     7
421
 16777215
 74
     1
 91
        4
 64
     7
 65
   257
 75
     1
175
     1
 42
1.0
 92
        9
 66
     7
 43
1.0
 76
     1
 77
     6
 78
     2
 67
     7
 79
     5
170
     0
171
     0
290
     0
174
     0
 93
        1
 44
0.0
173
     0
291
     1
 45
0.0
  0
VISUALSTYLE
  5
270
102
{ACAD_REACTORS
330
267
102
}
330
267
100
AcDbVisualStyle
  2
Realistic
 70
     8
 71
     2
 72
     2
 73
     0
 90
        0
 40
-0.6
 41
-30.0
 62
     5
 63
     7
421
 16777215
 74
     1
 91
        0
 64
     7
 65
   257
 75
     1
175
     1
 42
1.0
 92
        8
 66
     8
424
  7895160
 43
1.0
 76
     1
 77
     6
 78
     2
 67
     7
 79
     5
170
     0
171
     0
290
     0
174
     0
 93
       13
 44
0.0
173
     0
291
     0
 45
0.0
  0
VISUALSTYLE
  5
903
102
{ACAD_REACTORS
330
267
102
}
330
267
100
AcDbVisualStyle
  2
Shaded
 70
    27
 71
     2
 72
     2
 73
     1
 90
        2
 40
0.6
 41
30.0
 62
     5
 63
     7
421
 16777215
 74
     0
 91
        4
 64
     7
 65
   257
 75
     1
175
     1
 42
1.0
 92
        8
 66
   257
 43
1.0
 76
     1
 77
     6
 78
     2
 67
     8
425
  7895160
 79
     3
170
     0
171
     0
290
     0
174
     0
 93
        5
 44
0.0
173
     0
291
     0
 45
0.0
  0
VISUALSTYLE
  5
902
102
{ACAD_REACTORS
330
267
102
}
330
267
100
AcDbVisualStyle
  2
Shaded with edges
 70
    26
 71
     2
 72
     2
 73
     1
 90
        2
 40
0.6
 41
30.0
 62
     5
 63
     7
421
 16777215
 74
     1
 91
       10
 64
     7
 65
   257
 75
     2
175
     1
 42
1.0
 92
        8
 66
   257
 43
1.0
 76
     1
 77
     6
 78
     2
 67
     7
 79
     3
170
     0
171
     0
290
     0
174
     0
 93
        5
 44
0.0
173
     0
291
     0
 45
0.0
  0
VISUALSTYLE
  5
8FF
102
{ACAD_REACTORS
330
267
102
}
330
267
100
AcDbVisualStyle
  2
Shades of Gray
 70
    23
 71
     2
 72
     2
 73
     3
 90
        0
 40
0.6
 41
30.0
 62
     5
 63
     7
421
 16777215
 74
     2
 91
        2
 64
     7
 65
     7
 75
     1
175
     1
 42
40.0
 92
        8
 66
     7
 43
1.0
 76
     1
 77
     6
 78
     2
 67
     7
 79
     3
170
     0
171
     0
290
     0
174
     0
 93
        1
 44
0.0
173
     0
291
     0
 45
0.0
  0
VISUALSTYLE
  5
900
102
{ACAD_REACTORS
330
267
102
}
330
267
100
AcDbVisualStyle
  2
Sketchy
 70
    24
 71
     1
 72
     2
 73
     2
 90
        0
 40
0.6
 41
30.0
 62
     5
 63
     7
421
 16777215
 74
     2
 91
        2
 64
     7
 65
     7
 75
     1
175
     1
 42
40.0
 92
       11
 66
     7
 43
1.0
 76
     1
 77
     6
 78
     2
 67
     7
 79
     6
170
     0
171
     0
290
     0
174
     0
 93
        1
 44
0.0
173
     0
291
     0
 45
0.0
  0
VISUALSTYLE
  5
274
102
{ACAD_REACTORS
330
267
102
}
330
267
100
AcDbVisualStyle
  2
Thicken
 70
    13
 71
     2
 72
     2
 73
     0
 90
        0
 40
-0.6
 41
-30.0
 62
     5
 63
     7
421
 16777215
 74
     1
 91
        4
 64
     7
 65
   257
 75
     1
175
     1
 42
1.0
 92
       12
 66
     7
 43
1.0
 76
     1
 77
     6
 78
     2
 67
     7
 79
     5
170
     0
171
     0
290
     0
174
     0
 93
        1
 44
0.0
173
     0
291
     1
 45
0.0
  0
VISUALSTYLE
  5
8FA
102
{ACAD_REACTORS
330
267
102
}
330
267
100
AcDbVisualStyle
  2
Wireframe
 70
     5
 71
     0
 72
     2
 73
     0
 90
        0
 40
0.6
 41
30.0
 62
     5
 63
     7
421
 16777215
 74
     1
 91
        4
 64
     7
 65
   257
 75
     1
175
     1
 42
1.0
 92
        0
 66
   257
 43
1.0
 76
     1
 77
     6
 78
     2
 67
     7
 79
     3
170
     0
171
     0
290
     0
174
     0
 93
        1
 44
0.0
173
     0
291
     0
 45
0.0
  0
VISUALSTYLE
  5
901
102
{ACAD_REACTORS
330
267
102
}
330
267
100
AcDbVisualStyle
  2
X-Ray
 70
    25
 71
     2
 72
     2
 73
     1
 90
        1
 40
0.5
 41
30.0
 62
     5
 63
     7
421
 16777215
 74
     1
 91
        0
 64
     7
 65
   257
 75
     1
175
     1
 42
1.0
 92
        8
 66
     7
 43
1.0
 76
     1
 77
     6
 78
     2
 67
     7
 79
     3
170
     0
171
     0
290
     0
174
     0
 93
       13
 44
0.0
173
     0
291
     0
 45
0.0
  0
DICTIONARYVAR
  5
331
102
{ACAD_REACTORS
330
330
102
}
330
330
100
DictionaryVariables
280
     0
  1
1:1
  0
DICTIONARYVAR
  5
DB1
102
{ACAD_REACTORS
330
330
102
}
330
330
100
DictionaryVariables
280
     0
  1
Standard
  0
DICTIONARYVAR
  5
335
102
{ACAD_REACTORS
330
330
102
}
330
330
100
DictionaryVariables
280
     0
  1
Standard
  0
DICTIONARYVAR
  5
D52
102
{ACAD_REACTORS
330
330
102
}
330
330
100
DictionaryVariables
280
     0
  1
ByLayer
  0
DICTIONARYVAR
  5
896
102
{ACAD_REACTORS
330
330
102
}
330
330
100
DictionaryVariables
280
     0
  1
0
  0
DICTIONARYVAR
  5
ECE
102
{ACAD_REACTORS
330
E3E
102
}
330
E3E
100
DictionaryVariables
280
     0
  1
0.261799
  0
DICTIONARYVAR
  5
ECC
102
{ACAD_REACTORS
330
E3E
102
}
330
E3E
100
DictionaryVariables
280
     0
  1
0.400000
  0
DICTIONARYVAR
  5
ECD
102
{ACAD_REACTORS
330
E3E
102
}
330
E3E
100
DictionaryVariables
280
     0
  1
0.250000
  0
DICTIONARYVAR
  5
ECF
102
{ACAD_REACTORS
330
E3E
102
}
330
E3E
100
DictionaryVariables
280
     0
  1
1
  0
FIELD
  5
1467
102
{ACAD_REACTORS
330
146C
330
3998
102
}
330
3998
100
AcDbField
  1
_text
  2
{%<\_FldIdx 0>%N}
 90
        1
360
146B
 97
        0
 91
       63
 92
        0
 94
       11
 95
        2
 96
        0
300

 93
        1
  6
ACFD_FIELDTEXT_CHECKSUM
 93
        2
 90
        2
140
4537.0
 94
        0
300

302

304
ACVALUE_END
  7
ACFD_FIELD_VALUE
 93
        6
 90
        4
  1
{20180417N}
 94
        0
300

302

304
ACVALUE_END
301
{20180417N}
 98
       11
  0
DICTIONARY
  5
399F
330
279
100
AcDbDictionary
280
     1
281
     1
  3
ACAD_ROUNDTRIP_2008_TABLESTYLE_CELLSTYLEMAP
360
39A0
  0
FIELD
  5
146B
330
1467
100
AcDbField
  1
AcVar
  2
\AcVar Date \f "yyyyMMdd"
 90
        0
 97
        0
 91
       63
 92
        0
 94
        8
 95
       64
 96
        0
300
Variable not supported
 93
        1
  6
Variable
 93
        2
 90
        4
  1
Date
 94
        0
300

302

304
ACVALUE_END
  7
ACFD_FIELD_VALUE
 93
        6
 90
        8
 92
       16
310
E2070400000010000F0011001F000000
 94
        0
300
yyyyMMdd
302

304
ACVALUE_END
301
20180417
 98
        8
  0
CELLSTYLEMAP
  5
39A0
102
{ACAD_REACTORS
330
399F
102
}
330
399F
100
AcDbCellStyleMap
 90
        3
300
CELLSTYLE
  1
TABLEFORMAT_BEGIN
 90
        5
170
     1
 91
        0
 92
    32768
 62
   257
 93
        1
300
CONTENTFORMAT
  1
CONTENTFORMAT_BEGIN
 90
        0
 91
        0
 92
        4
 93
        0
300

 40
0.0
140
1.0
 94
        5
 62
     0
340
17
144
6.0
309
CONTENTFORMAT_END
171
     1
301
MARGIN
  1
CELLMARGIN_BEGIN
 40
0.06
 40
0.06
 40
0.06
 40
0.06
 40
0.18
 40
0.18
309
CELLMARGIN_END
 94
        6
 95
        1
302
GRIDFORMAT
  1
GRIDFORMAT_BEGIN
 90
        0
 91
        1
 62
     0
 92
       -2
340
0
 93
        0
 40
0.045
309
GRIDFORMAT_END
 95
        2
302
GRIDFORMAT
  1
GRIDFORMAT_BEGIN
 90
        0
 91
        1
 62
     0
 92
       -2
340
0
 93
        0
 40
0.045
309
GRIDFORMAT_END
 95
        4
302
GRIDFORMAT
  1
GRIDFORMAT_BEGIN
 90
        0
 91
        1
 62
     0
 92
       -2
340
0
 93
        0
 40
0.045
309
GRIDFORMAT_END
 95
        8
302
GRIDFORMAT
  1
GRIDFORMAT_BEGIN
 90
        0
 91
        1
 62
     0
 92
       -2
340
0
 93
        0
 40
0.045
309
GRIDFORMAT_END
 95
       16
302
GRIDFORMAT
  1
GRIDFORMAT_BEGIN
 90
        0
 91
        1
 62
     0
 92
       -2
340
0
 93
        0
 40
0.045
309
GRIDFORMAT_END
 95
       32
302
GRIDFORMAT
  1
GRIDFORMAT_BEGIN
 90
        0
 91
        1
 62
     0
 92
       -2
340
0
 93
        0
 40
0.045
309
GRIDFORMAT_END
309
TABLEFORMAT_END
  1
CELLSTYLE_BEGIN
 90
        1
 91
        1
300
_TITLE
309
CELLSTYLE_END
300
CELLSTYLE
  1
TABLEFORMAT_BEGIN
 90
        5
170
     1
 91
        0
 92
        0
 62
   257
 93
        1
300
CONTENTFORMAT
  1
CONTENTFORMAT_BEGIN
 90
        0
 91
        0
 92
        4
 93
        0
300

 40
0.0
140
1.0
 94
        5
 62
     0
340
17
144
4.5
309
CONTENTFORMAT_END
171
     1
301
MARGIN
  1
CELLMARGIN_BEGIN
 40
0.06
 40
0.06
 40
0.06
 40
0.06
 40
0.18
 40
0.18
309
CELLMARGIN_END
 94
        6
 95
        1
302
GRIDFORMAT
  1
GRIDFORMAT_BEGIN
 90
        0
 91
        1
 62
     0
 92
       -2
340
0
 93
        0
 40
0.045
309
GRIDFORMAT_END
 95
        2
302
GRIDFORMAT
  1
GRIDFORMAT_BEGIN
 90
        0
 91
        1
 62
     0
 92
       -2
340
0
 93
        0
 40
0.045
309
GRIDFORMAT_END
 95
        4
302
GRIDFORMAT
  1
GRIDFORMAT_BEGIN
 90
        0
 91
        1
 62
     0
 92
       -2
340
0
 93
        0
 40
0.045
309
GRIDFORMAT_END
 95
        8
302
GRIDFORMAT
  1
GRIDFORMAT_BEGIN
 90
        0
 91
        1
 62
     0
 92
       -2
340
0
 93
        0
 40
0.045
309
GRIDFORMAT_END
 95
       16
302
GRIDFORMAT
  1
GRIDFORMAT_BEGIN
 90
        0
 91
        1
 62
     0
 92
       -2
340
0
 93
        0
 40
0.045
309
GRIDFORMAT_END
 95
       32
302
GRIDFORMAT
  1
GRIDFORMAT_BEGIN
 90
        0
 91
        1
 62
     0
 92
       -2
340
0
 93
        0
 40
0.045
309
GRIDFORMAT_END
309
TABLEFORMAT_END
  1
CELLSTYLE_BEGIN
 90
        2
 91
        1
300
_HEADER
309
CELLSTYLE_END
300
CELLSTYLE
  1
TABLEFORMAT_BEGIN
 90
        5
170
     1
 91
        0
 92
        0
 62
   257
 93
        1
300
CONTENTFORMAT
  1
CONTENTFORMAT_BEGIN
 90
        0
 91
        0
 92
        4
 93
        0
300

 40
0.0
140
1.0
 94
        2
 62
     0
340
17
144
4.5
309
CONTENTFORMAT_END
171
     1
301
MARGIN
  1
CELLMARGIN_BEGIN
 40
0.06
 40
0.06
 40
0.06
 40
0.06
 40
0.18
 40
0.18
309
CELLMARGIN_END
 94
        6
 95
        1
302
GRIDFORMAT
  1
GRIDFORMAT_BEGIN
 90
        0
 91
        1
 62
     0
 92
       -2
340
0
 93
        0
 40
0.045
309
GRIDFORMAT_END
 95
        2
302
GRIDFORMAT
  1
GRIDFORMAT_BEGIN
 90
        0
 91
        1
 62
     0
 92
       -2
340
0
 93
        0
 40
0.045
309
GRIDFORMAT_END
 95
        4
302
GRIDFORMAT
  1
GRIDFORMAT_BEGIN
 90
        0
 91
        1
 62
     0
 92
       -2
340
0
 93
        0
 40
0.045
309
GRIDFORMAT_END
 95
        8
302
GRIDFORMAT
  1
GRIDFORMAT_BEGIN
 90
        0
 91
        1
 62
     0
 92
       -2
340
0
 93
        0
 40
0.045
309
GRIDFORMAT_END
 95
       16
302
GRIDFORMAT
  1
GRIDFORMAT_BEGIN
 90
        0
 91
        1
 62
     0
 92
       -2
340
0
 93
        0
 40
0.045
309
GRIDFORMAT_END
 95
       32
302
GRIDFORMAT
  1
GRIDFORMAT_BEGIN
 90
        0
 91
        1
 62
     0
 92
       -2
340
0
 93
        0
 40
0.045
309
GRIDFORMAT_END
309
TABLEFORMAT_END
  1
CELLSTYLE_BEGIN
 90
        3
 91
        2
300
_DATA
309
CELLSTYLE_END
  0
ENDSEC
  0
EOF
