  0
SECTION
  2
HEADER
  9
$ACADVER
  1
AC1021
  9
$ACADMAINTVER
 70
    25
  9
$DWGCODEPAGE
  3
ANSI_932
  9
$LASTSAVEDBY
  1
howeNelson
  9
$INSBASE
 10
0.0
 20
0.0
 30
0.0
  9
$EXTMIN
 10
0.0
 20
0.0
 30
-0.0000000000000071
  9
$EXTMAX
 10
1680.0
 20
2376.0
 30
0.0000000000000071
  9
$LIMMIN
 10
0.0
 20
0.0
  9
$LIMMAX
 10
1680.0
 20
2376.0
  9
$ORTHOMODE
 70
     0
  9
$REGENMODE
 70
     1
  9
$FILLMODE
 70
     1
  9
$QTEXTMODE
 70
     0
  9
$MIRRTEXT
 70
     1
  9
$LTSCALE
 40
4.0
  9
$ATTMODE
 70
     1
  9
$TEXTSIZE
 40
2.5
  9
$TRACEWID
 40
1.0
  9
$TEXTSTYLE
  7
ＭＳ ゴシック
  9
$CLAYER
  8
DIM
  9
$CELTYPE
  6
ByLayer
  9
$CECOLOR
 62
   256
  9
$CELTSCALE
 40
1.0
  9
$DISPSILH
 70
     0
  9
$DIMSCALE
 40
1.0
  9
$DIMASZ
 40
8.0
  9
$DIMEXO
 40
5.0
  9
$DIMDLI
 40
0.9999999999999999
  9
$DIMRND
 40
0.0
  9
$DIMDLE
 40
0.0
  9
$DIMEXE
 40
0.0
  9
$DIMTP
 40
0.0
  9
$DIMTM
 40
0.0
  9
$DIMTXT
 40
20.0
  9
$DIMCEN
 40
0.0
  9
$DIMTSZ
 40
0.0
  9
$DIMTOL
 70
     0
  9
$DIMLIM
 70
     0
  9
$DIMTIH
 70
     0
  9
$DIMTOH
 70
     0
  9
$DIMSE1
 70
     0
  9
$DIMSE2
 70
     0
  9
$DIMTAD
 70
     1
  9
$DIMZIN
 70
    11
  9
$DIMBLK
  1
DOT
  9
$DIMASO
 70
     1
  9
$DIMSHO
 70
     1
  9
$DIMPOST
  1
<>
  9
$DIMAPOST
  1
[]
  9
$DIMALT
 70
     0
  9
$DIMALTD
 70
     1
  9
$DIMALTF
 40
1.0
  9
$DIMLFAC
 40
1.0
  9
$DIMTOFL
 70
     0
  9
$DIMTVP
 40
0.0
  9
$DIMTIX
 70
     1
  9
$DIMSOXD
 70
     0
  9
$DIMSAH
 70
     0
  9
$DIMBLK1
  1

  9
$DIMBLK2
  1

  9
$DIMSTYLE
  2
tfrom線あり
  9
$DIMCLRD
 70
     0
  9
$DIMCLRE
 70
     0
  9
$DIMCLRT
 70
     0
  9
$DIMTFAC
 40
1.0
  9
$DIMGAP
 40
8.0
  9
$DIMJUST
 70
     0
  9
$DIMSD1
 70
     0
  9
$DIMSD2
 70
     0
  9
$DIMTOLJ
 70
     1
  9
$DIMTZIN
 70
    11
  9
$DIMALTZ
 70
    11
  9
$DIMALTTZ
 70
    11
  9
$DIMUPT
 70
     0
  9
$DIMDEC
 70
     0
  9
$DIMTDEC
 70
     1
  9
$DIMALTU
 70
     2
  9
$DIMALTTD
 70
     2
  9
$DIMTXSTY
  7
ＭＳ ゴシック
  9
$DIMAUNIT
 70
     0
  9
$DIMADEC
 70
     2
  9
$DIMALTRND
 40
0.0
  9
$DIMAZIN
 70
     0
  9
$DIMDSEP
 70
    46
  9
$DIMATFIT
 70
     0
  9
$DIMFRAC
 70
     2
  9
$DIMLDRBLK
  1
DOT
  9
$DIMLUNIT
 70
     2
  9
$DIMLWD
 70
    -2
  9
$DIMLWE
 70
    -2
  9
$DIMTMOVE
 70
     0
  9
$DIMFXL
 40
1.0
  9
$DIMFXLON
 70
     0
  9
$DIMJOGANG
 40
0.7853981633974483
  9
$DIMTFILL
 70
     0
  9
$DIMTFILLCLR
 70
     0
  9
$DIMARCSYM
 70
     0
  9
$DIMLTYPE
  6

  9
$DIMLTEX1
  6

  9
$DIMLTEX2
  6

  9
$LUNITS
 70
     2
  9
$LUPREC
 70
     0
  9
$SKETCHINC
 40
0.1
  9
$FILLETRAD
 40
0.0
  9
$AUNITS
 70
     0
  9
$AUPREC
 70
     0
  9
$MENU
  1
acad
  9
$ELEVATION
 40
0.0
  9
$PELEVATION
 40
0.0
  9
$THICKNESS
 40
0.0
  9
$LIMCHECK
 70
     0
  9
$CHAMFERA
 40
0.0
  9
$CHAMFERB
 40
0.0
  9
$CHAMFERC
 40
0.0
  9
$CHAMFERD
 40
0.0
  9
$SKPOLY
 70
     0
  9
$TDCREATE
 40
2447893.375
  9
$TDUCREATE
 40
0.0
  9
$TDUPDATE
 40
2458437.693077558
  9
$TDUUPDATE
 40
2458437.318077558
  9
$TDINDWG
 40
0.1541384722
  9
$TDUSRTIMER
 40
0.0070636343
  9
$USRTIMER
 70
     1
  9
$ANGBASE
 50
0.0
  9
$ANGDIR
 70
     0
  9
$PDMODE
 70
     1
  9
$PDSIZE
 40
-2.0
  9
$PLINEWID
 40
0.0
  9
$SPLFRAME
 70
     0
  9
$SPLINETYPE
 70
     6
  9
$SPLINESEGS
 70
     8
  9
$HANDSEED
  5
4313
  9
$SURFTAB1
 70
     6
  9
$SURFTAB2
 70
     6
  9
$SURFTYPE
 70
     6
  9
$SURFU
 70
     6
  9
$SURFV
 70
     6
  9
$UCSBASE
  2

  9
$UCSNAME
  2

  9
$UCSORG
 10
0.0
 20
0.0
 30
0.0
  9
$UCSXDIR
 10
1.0
 20
0.0
 30
0.0
  9
$UCSYDIR
 10
0.0
 20
1.0
 30
0.0
  9
$UCSORTHOREF
  2

  9
$UCSORTHOVIEW
 70
     0
  9
$UCSORGTOP
 10
0.0
 20
0.0
 30
0.0
  9
$UCSORGBOTTOM
 10
0.0
 20
0.0
 30
0.0
  9
$UCSORGLEFT
 10
0.0
 20
0.0
 30
0.0
  9
$UCSORGRIGHT
 10
0.0
 20
0.0
 30
0.0
  9
$UCSORGFRONT
 10
0.0
 20
0.0
 30
0.0
  9
$UCSORGBACK
 10
0.0
 20
0.0
 30
0.0
  9
$PUCSBASE
  2

  9
$PUCSNAME
  2

  9
$PUCSORG
 10
0.0
 20
0.0
 30
0.0
  9
$PUCSXDIR
 10
1.0
 20
0.0
 30
0.0
  9
$PUCSYDIR
 10
0.0
 20
1.0
 30
0.0
  9
$PUCSORTHOREF
  2

  9
$PUCSORTHOVIEW
 70
     0
  9
$PUCSORGTOP
 10
0.0
 20
0.0
 30
0.0
  9
$PUCSORGBOTTOM
 10
0.0
 20
0.0
 30
0.0
  9
$PUCSORGLEFT
 10
0.0
 20
0.0
 30
0.0
  9
$PUCSORGRIGHT
 10
0.0
 20
0.0
 30
0.0
  9
$PUCSORGFRONT
 10
0.0
 20
0.0
 30
0.0
  9
$PUCSORGBACK
 10
0.0
 20
0.0
 30
0.0
  9
$USERI1
 70
     0
  9
$USERI2
 70
     0
  9
$USERI3
 70
     0
  9
$USERI4
 70
     0
  9
$USERI5
 70
     0
  9
$USERR1
 40
0.0
  9
$USERR2
 40
0.0
  9
$USERR3
 40
0.0
  9
$USERR4
 40
0.0
  9
$USERR5
 40
0.0
  9
$WORLDVIEW
 70
     1
  9
$SHADEDGE
 70
     3
  9
$SHADEDIF
 70
    70
  9
$TILEMODE
 70
     1
  9
$MAXACTVP
 70
    64
  9
$PINSBASE
 10
0.0
 20
0.0
 30
0.0
  9
$PLIMCHECK
 70
     0
  9
$PEXTMIN
 10
0.0
 20
0.0
 30
0.0
  9
$PEXTMAX
 10
0.0
 20
0.0
 30
0.0
  9
$PLIMMIN
 10
-7.5
 20
-20.0
  9
$PLIMMAX
 10
412.5
 20
277.0
  9
$UNITMODE
 70
     0
  9
$VISRETAIN
 70
     0
  9
$PLINEGEN
 70
     1
  9
$PSLTSCALE
 70
     0
  9
$TREEDEPTH
 70
  3020
  9
$CMLSTYLE
  2
Standard
  9
$CMLJUST
 70
     0
  9
$CMLSCALE
 40
1.0
  9
$PROXYGRAPHICS
 70
     0
  9
$MEASUREMENT
 70
     1
  9
$CELWEIGHT
370
    -1
  9
$ENDCAPS
280
     0
  9
$JOINSTYLE
280
     0
  9
$LWDISPLAY
290
     1
  9
$INSUNITS
 70
     4
  9
$HYPERLINKBASE
  1

  9
$STYLESHEET
  1

  9
$XEDIT
290
     1
  9
$CEPSNTYPE
380
     0
  9
$PSTYLEMODE
290
     1
  9
$FINGERPRINTGUID
  2

  9
$VERSIONGUID
  2

  9
$EXTNAMES
290
     1
  9
$PSVPSCALE
 40
0.0
  9
$OLESTARTUP
290
     0
  9
$SORTENTS
280
   127
  9
$INDEXCTL
280
     0
  9
$HIDETEXT
280
     1
  9
$XCLIPFRAME
290
     0
  9
$HALOGAP
280
     0
  9
$OBSCOLOR
 70
   257
  9
$OBSLTYPE
280
     0
  9
$INTERSECTIONDISPLAY
280
     0
  9
$INTERSECTIONCOLOR
 70
   257
  9
$DIMASSOC
280
     2
  9
$PROJECTNAME
  1

  9
$CAMERADISPLAY
290
     0
  9
$LENSLENGTH
 40
50.0
  9
$CAMERAHEIGHT
 40
0.0
  9
$STEPSPERSEC
 40
2.0
  9
$STEPSIZE
 40
6.0
  9
$3DDWFPREC
 40
2.0
  9
$PSOLWIDTH
 40
0.25
  9
$PSOLHEIGHT
 40
4.0
  9
$LOFTANG1
 40
1.570796326794897
  9
$LOFTANG2
 40
1.570796326794897
  9
$LOFTMAG1
 40
0.0
  9
$LOFTMAG2
 40
0.0
  9
$LOFTPARAM
 70
     7
  9
$LOFTNORMALS
280
     1
  9
$LATITUDE
 40
37.795
  9
$LONGITUDE
 40
-122.394
  9
$NORTHDIRECTION
 40
0.0
  9
$TIMEZONE
 70
 -8000
  9
$LIGHTGLYPHDISPLAY
280
     1
  9
$TILEMODELIGHTSYNCH
280
     1
  9
$SOLIDHIST
280
     1
  9
$SHOWHIST
280
     1
  9
$DWFFRAME
280
     2
  9
$DGNFRAME
280
     2
  9
$REALWORLDSCALE
290
     1
  9
$INTERFERECOLOR
 62
   256
  9
$CSHADOW
280
     0
  9
$SHADOWPLANELOCATION
 40
0.0
  0
ENDSEC
  0
SECTION
  2
CLASSES
  0
CLASS
  1
LWPOLYLINE
  2
AcDbPolyline
  3
ObjectDBX Classes
 90
        0
 91
        1
280
     0
281
     1
  0
CLASS
  1
IMAGE
  2
AcDbRasterImage
  3
ISM
 90
      127
 91
        5
280
     0
281
     1
  0
CLASS
  1
OLE2FRAME
  2
AcDbOle2Frame
  3
ObjectDBX Classes
 90
        0
 91
        1
280
     0
281
     1
  0
CLASS
  1
HATCH
  2
AcDbHatch
  3
ObjectDBX Classes
 90
        0
 91
        1
280
     0
281
     1
  0
CLASS
  1
DICTIONARYVAR
  2
AcDbDictionaryVar
  3
ObjectDBX Classes
 90
        0
 91
        4
280
     0
281
     0
  0
CLASS
  1
RASTERVARIABLES
  2
AcDbRasterVariables
  3
ISM
 90
        0
 91
        4
280
     0
281
     0
  0
CLASS
  1
IMAGEDEF
  2
AcDbRasterImageDef
  3
ISM
 90
        0
 91
        4
280
     0
281
     0
  0
CLASS
  1
IMAGEDEF_REACTOR
  2
AcDbRasterImageDefReactor
  3
ISM
 90
        1
 91
        4
280
     0
281
     0
  0
CLASS
  1
IDBUFFER
  2
AcDbIdBuffer
  3
ObjectDBX Classes
 90
        0
 91
        4
280
     0
281
     0
  0
CLASS
  1
SPATIAL_FILTER
  2
AcDbSpatialFilter
  3
ObjectDBX Classes
 90
        0
 91
        4
280
     0
281
     0
  0
CLASS
  1
XRECORD
  2
AcDbXrecord
  3
ObjectDBX Classes
 90
        0
 91
        1
280
     0
281
     0
  0
CLASS
  1
SORTENTSTABLE
  2
AcDbSortentsTable
  3
ObjectDBX Classes
 90
        0
 91
        4
280
     0
281
     0
  0
CLASS
  1
LAYER_INDEX
  2
AcDbLayerIndex
  3
ObjectDBX Classes
 90
        0
 91
        4
280
     0
281
     0
  0
CLASS
  1
SPATIAL_INDEX
  2
AcDbSpatialIndex
  3
AutoCAD 2000
 90
        0
 91
        4
280
     0
281
     0
  0
CLASS
  1
OBJECT_PTR
  2
CAseDLPNTableRecord
  3
ASE-LPNTableRecord
 90
        1
 91
        4
280
     0
281
     0
  0
CLASS
  1
LAYOUT
  2
AcDbLayout
  3
ObjectDBX Classes
 90
        0
 91
        1
280
     0
281
     0
  0
CLASS
  1
PLOTSETTINGS
  2
AcDbPlotSettings
  3
ObjectDBX Classes
 90
        0
 91
        4
280
     0
281
     0
  0
CLASS
  1
ACDBDICTIONARYWDFLT
  2
AcDbDictionaryWithDefault
  3
ObjectDBX Classes
 90
        0
 91
        4
280
     0
281
     0
  0
CLASS
  1
ACDBPLACEHOLDER
  2
AcDbPlaceHolder
  3
ObjectDBX Classes
 90
        0
 91
        1
280
     0
281
     0
  0
CLASS
  1
SCALE
  2
AcDbScale
  3
ObjectDBX Classes
 90
     1153
 91
        4
280
     0
281
     0
  0
CLASS
  1
MATERIAL
  2
AcDbMaterial
  3
ObjectDBX Classes
 90
     1153
 91
        4
280
     0
281
     0
  0
CLASS
  1
VISUALSTYLE
  2
AcDbVisualStyle
  3
ObjectDBX Classes
 90
     4095
 91
        4
280
     0
281
     0
  0
CLASS
  1
TABLESTYLE
  2
AcDbTableStyle
  3
ObjectDBX Classes
 90
     4095
 91
        4
280
     0
281
     0
  0
CLASS
  1
DIMASSOC
  2
AcDbDimAssoc
  3
"AcDbDimAssoc|Product Desc:     AcDim ARX App For Dimension|Company:          Autodesk, Inc.|WEB Address:      www.autodesk.com"
 90
        0
 91
        4
280
     0
281
     0
  0
CLASS
  1
CELLSTYLEMAP
  2
AcDbCellStyleMap
  3
ObjectDBX Classes
 90
     1152
 91
        4
280
     0
281
     0
  0
CLASS
  1
SUN
  2
AcDbSun
  3
SCENEOE
 90
     1153
 91
        4
280
     0
281
     0
  0
CLASS
  1
MLEADERSTYLE
  2
AcDbMLeaderStyle
  3
ACDB_MLEADERSTYLE_CLASS
 90
     4095
 91
        4
280
     0
281
     0
  0
CLASS
  1
FIELD
  2
AcDbField
  3
ObjectDBX Classes
 90
     1152
 91
        4
280
     0
281
     0
  0
CLASS
  1
FIELDLIST
  2
AcDbFieldList
  3
ObjectDBX Classes
 90
     1152
 91
        4
280
     0
281
     0
  0
ENDSEC
  0
SECTION
  2
TABLES
  0
TABLE
  2
VPORT
  5
7
330
0
100
AcDbSymbolTable
 70
     1
  0
VPORT
  5
15
330
7
100
AcDbSymbolTableRecord
100
AcDbViewportTableRecord
  2
*ACTIVE
 70
     0
 10
0.0
 20
0.0
 11
1.0
 21
1.0
 12
931.0201356709006
 22
1114.401285469834
 13
0.0
 23
0.0
 14
1.0
 24
1.0
 15
0.0
 25
0.0
 16
0.0
 26
0.0
 36
1.0
 17
-91.02013567090057
 27
73.59871453016603
 37
-46.86809886248109
 40
2423.52
 41
2.419452887537994
 42
50.0
 43
0.0
 44
0.0
 50
0.0
 51
0.0
 71
    16
 72
  2000
 73
     1
 74
     1
 75
     0
 76
     0
 77
     0
 78
     0
281
     0
 65
     1
110
0.0
120
0.0
130
0.0
111
1.0
121
0.0
131
0.0
112
0.0
122
1.0
132
0.0
 79
     0
146
0.0
348
26C
 60
     3
 61
     5
292
     1
282
     1
141
0.0
142
0.0
 63
   256
361
904
  0
ENDTAB
  0
TABLE
  2
LTYPE
  5
4
330
0
100
AcDbSymbolTable
 70
     3
  0
LTYPE
  5
11
330
4
100
AcDbSymbolTableRecord
100
AcDbLinetypeTableRecord
  2
ByBlock
 70
     0
  3

 72
    65
 73
     0
 40
0.0
  0
LTYPE
  5
12
330
4
100
AcDbSymbolTableRecord
100
AcDbLinetypeTableRecord
  2
ByLayer
 70
     0
  3

 72
    65
 73
     0
 40
0.0
  0
LTYPE
  5
13
330
4
100
AcDbSymbolTableRecord
100
AcDbLinetypeTableRecord
  2
Continuous
 70
     0
  3
Solid line
 72
    65
 73
     0
 40
0.0
  0
LTYPE
  5
D6C
330
4
100
AcDbSymbolTableRecord
100
AcDbLinetypeTableRecord
  2
BORDER
 70
     0
  3
Border __  __  . __  __  . __  __  . __  __  . 
 72
    65
 73
     6
 40
44.45
 49
12.7
 74
     0
 49
-6.35
 74
     0
 49
12.7
 74
     0
 49
-6.35
 74
     0
 49
0.0
 74
     0
 49
-6.35
 74
     0
  0
LTYPE
  5
D6D
330
4
100
AcDbSymbolTableRecord
100
AcDbLinetypeTableRecord
  2
HIDDEN
 70
     0
  3
Hidden _ _ _ _ _ _ _ _ _ _ _ _ _ _ _ _ _ _ _ _ 
 72
    65
 73
     2
 40
9.524999999999999
 49
6.35
 74
     0
 49
-3.175
 74
     0
  0
ENDTAB
  0
TABLE
  2
LAYER
  5
2
102
{ACAD_XDICTIONARY
360
2E1
102
}
330
0
100
AcDbSymbolTable
 70
     8
  0
LAYER
  5
14
330
2
100
AcDbSymbolTableRecord
100
AcDbLayerTableRecord
  2
0
 70
     0
 62
     7
  6
Continuous
370
    -3
390
1D
347
266
  0
LAYER
  5
4B
330
2
100
AcDbSymbolTableRecord
100
AcDbLayerTableRecord
  2
TEMPLATE
 70
     0
 62
     7
  6
Continuous
370
    20
390
1D
347
266
  0
LAYER
  5
4C
330
2
100
AcDbSymbolTableRecord
100
AcDbLayerTableRecord
  2
DIM
 70
     0
 62
     3
  6
Continuous
370
    13
390
1D
347
266
  0
LAYER
  5
4D
330
2
100
AcDbSymbolTableRecord
100
AcDbLayerTableRecord
  2
MODEL
 70
     0
 62
     7
  6
Continuous
370
    20
390
1D
347
266
  0
LAYER
  5
88C
330
2
100
AcDbSymbolTableRecord
100
AcDbLayerTableRecord
  2
HIDDEN
 70
     0
 62
     8
  6
HIDDEN
370
    20
390
1D
347
266
1001
AcAecLayerStandard
1000

1000

  0
LAYER
  5
D6B
330
2
100
AcDbSymbolTableRecord
100
AcDbLayerTableRecord
  2
BORDER
 70
     0
 62
     4
  6
BORDER
290
     0
370
    20
390
1D
347
266
1001
AcAecLayerStandard
1000

1000

  0
LAYER
  5
D8C
330
2
100
AcDbSymbolTableRecord
100
AcDbLayerTableRecord
  2
Defpoints
 70
     0
 62
     7
  6
Continuous
290
     0
370
    -3
390
1D
347
266
  0
LAYER
  5
3653
330
2
100
AcDbSymbolTableRecord
100
AcDbLayerTableRecord
  2
Standard
 70
     0
 62
     7
  6
Continuous
370
    -3
390
1D
347
266
  0
ENDTAB
  0
TABLE
  2
STYLE
  5
3
330
0
100
AcDbSymbolTable
 70
     2
  0
STYLE
  5
17
330
3
100
AcDbSymbolTableRecord
100
AcDbTextStyleTableRecord
  2
Standard
 70
     0
 40
0.0
 41
1.0
 50
0.0
 71
     0
 42
2.5
  3
txt
  4
BIGFONT.SHX
  0
STYLE
  5
39
330
3
100
AcDbSymbolTableRecord
100
AcDbTextStyleTableRecord
  2
ＭＳ ゴシック
 70
     0
 40
0.0
 41
1.0
 50
0.0
 71
     0
 42
2.5
  3
msgothic.ttc
  4
ＭＳ ゴシック
1001
ACAD
1000
ＭＳ ゴシック
1071
        0
  0
ENDTAB
  0
TABLE
  2
VIEW
  5
5
330
0
100
AcDbSymbolTable
 70
     0
  0
ENDTAB
  0
TABLE
  2
UCS
  5
6
330
0
100
AcDbSymbolTable
 70
     0
  0
ENDTAB
  0
TABLE
  2
APPID
  5
8
330
0
100
AcDbSymbolTable
 70
     7
  0
APPID
  5
16
330
8
100
AcDbSymbolTableRecord
100
AcDbRegAppTableRecord
  2
ACAD
 70
     0
  0
APPID
  5
7AC
330
8
100
AcDbSymbolTableRecord
100
AcDbRegAppTableRecord
  2
AcAecLayerStandard
 70
     0
  0
APPID
  5
E29
330
8
100
AcDbSymbolTableRecord
100
AcDbRegAppTableRecord
  2
ACAD_MLEADERVER
 70
     0
  0
APPID
  5
3E5E
330
8
100
AcDbSymbolTableRecord
100
AcDbRegAppTableRecord
  2
ACAD_DSTYLE_DIMJAG
 70
     0
  0
APPID
  5
3E5F
330
8
100
AcDbSymbolTableRecord
100
AcDbRegAppTableRecord
  2
ACAD_DSTYLE_DIMBREAK
 70
     0
  0
APPID
  5
3E60
330
8
100
AcDbSymbolTableRecord
100
AcDbRegAppTableRecord
  2
ACAD_PSEXT
 70
     0
  0
APPID
  5
3E61
330
8
100
AcDbSymbolTableRecord
100
AcDbRegAppTableRecord
  2
ACAD_NAV_VCDISPLAY
 70
     0
  0
ENDTAB
  0
TABLE
  2
DIMSTYLE
  5
9
330
0
100
AcDbSymbolTable
 70
     3
100
AcDbDimStyleTable
  0
DIMSTYLE
105
18
330
9
100
AcDbSymbolTableRecord
100
AcDbDimStyleTableRecord
  2
Standard
 70
     0
178
     0
340
17
  0
DIMSTYLE
105
57
102
{ACAD_REACTORS
330
4273
330
428B
330
429A
330
42AF
330
42BF
330
42CE
102
}
330
9
100
AcDbSymbolTableRecord
100
AcDbDimStyleTableRecord
  2
tfrom線あり
 70
     0
  3
<>
  4
[]
 41
8.0
 42
5.0
 43
0.9999999999999999
 44
0.0
 73
     0
 74
     0
 77
     1
 78
    11
140
20.0
141
0.0
143
1.0
147
8.0
171
     1
174
     1
178
     0
179
     2
271
     0
272
     1
276
     2
284
    11
285
    11
286
    11
289
     0
340
39
341
4E
342
4E
  0
DIMSTYLE
105
3E5C
330
9
100
AcDbSymbolTableRecord
100
AcDbDimStyleTableRecord
  2
AM_DIN
 70
     0
  4
"
 41
3.5
 42
1.0
 43
10.0
 44
1.0
 47
0.1
 48
0.1
 50
89.99999999999996
 73
     0
 74
     0
 77
     1
 78
     8
 79
     2
140
3.5
141
0.0
143
0.0393701
146
0.71
147
1.5
172
     1
176
   256
177
   256
271
     2
178
     2
271
     2
272
     3
274
     4
283
     0
284
     8
340
17
371
    -1
372
    -1
345
11
346
11
347
11
1001
ACAD_DSTYLE_DIMJAG
1070
   388
1040
1.5
1001
ACAD_DSTYLE_DIMBREAK
1070
   391
1040
3.75
  0
ENDTAB
  0
TABLE
  2
BLOCK_RECORD
  5
1
330
0
100
AcDbSymbolTable
 70
    14
  0
BLOCK_RECORD
  5
A
102
{ACAD_XDICTIONARY
360
3E3E
102
}
330
1
100
AcDbSymbolTableRecord
100
AcDbBlockTableRecord
  2
*MODEL_SPACE
340
20
 70
     0
280
     1
281
     0
  0
BLOCK_RECORD
  5
B
330
1
100
AcDbSymbolTableRecord
100
AcDbBlockTableRecord
  2
*PAPER_SPACE
340
21
 70
     0
280
     1
281
     0
  0
BLOCK_RECORD
  5
4E
330
1
100
AcDbSymbolTableRecord
100
AcDbBlockTableRecord
  2
_DOT
340
0
102
{BLKREFS
331
3E2C
331
3E2D
331
3E38
331
3E39
331
4253
331
4254
331
4269
331
426A
331
427A
331
427B
331
4294
331
4295
331
42A3
331
42A4
331
42B6
331
42B7
331
42C8
331
42C9
331
42D7
331
42D8
102
}
 70
     0
280
     1
281
     0
  0
BLOCK_RECORD
  5
68D
330
1
100
AcDbSymbolTableRecord
100
AcDbBlockTableRecord
  2
block 2
340
0
102
{BLKREFS
331
68C
331
1343
102
}
 70
     0
280
     1
281
     0
  0
BLOCK_RECORD
  5
3E26
330
1
100
AcDbSymbolTableRecord
100
AcDbBlockTableRecord
  2
*D2
340
0
 70
     0
280
     1
281
     0
  0
BLOCK_RECORD
  5
3E32
330
1
100
AcDbSymbolTableRecord
100
AcDbBlockTableRecord
  2
*D3
340
0
 70
     0
280
     1
281
     0
  0
BLOCK_RECORD
  5
3E88
330
1
100
AcDbSymbolTableRecord
100
AcDbBlockTableRecord
  2
812343s
340
0
 70
     4
280
     1
281
     0
1001
ACAD
1000
DesignCenter Data
1002
{
1070
     1
1070
     4
1002
}
  0
BLOCK_RECORD
  5
3EFC
330
1
100
AcDbSymbolTableRecord
100
AcDbBlockTableRecord
  2
812343d
340
0
 70
     4
280
     1
281
     0
1001
ACAD
1000
DesignCenter Data
1002
{
1070
     1
1070
     4
1002
}
  0
BLOCK_RECORD
  5
424D
330
1
100
AcDbSymbolTableRecord
100
AcDbBlockTableRecord
  2
*D6
340
0
 70
     0
280
     1
281
     0
  0
BLOCK_RECORD
  5
4263
330
1
100
AcDbSymbolTableRecord
100
AcDbBlockTableRecord
  2
*D7
340
0
 70
     0
280
     1
281
     0
  0
BLOCK_RECORD
  5
4274
330
1
100
AcDbSymbolTableRecord
100
AcDbBlockTableRecord
  2
*D8
340
0
 70
     0
280
     1
281
     0
  0
BLOCK_RECORD
  5
428E
330
1
100
AcDbSymbolTableRecord
100
AcDbBlockTableRecord
  2
*D9
340
0
 70
     0
280
     1
281
     0
  0
BLOCK_RECORD
  5
429B
330
1
100
AcDbSymbolTableRecord
100
AcDbBlockTableRecord
  2
*D10
340
0
 70
     0
280
     1
281
     0
  0
BLOCK_RECORD
  5
42B0
330
1
100
AcDbSymbolTableRecord
100
AcDbBlockTableRecord
  2
*D11
340
0
 70
     0
280
     1
281
     0
  0
BLOCK_RECORD
  5
42C2
330
1
100
AcDbSymbolTableRecord
100
AcDbBlockTableRecord
  2
*D12
340
0
 70
     0
280
     1
281
     0
  0
BLOCK_RECORD
  5
42D1
330
1
100
AcDbSymbolTableRecord
100
AcDbBlockTableRecord
  2
*D13
340
0
 70
     0
280
     1
281
     0
  0
ENDTAB
  0
ENDSEC
  0
SECTION
  2
BLOCKS
  0
BLOCK
  5
D
330
A
100
AcDbEntity
  8
0
390
1D
100
AcDbBlockBegin
  2
*MODEL_SPACE
 70
     0
 10
0.0
 20
0.0
 30
0.0
  3
*MODEL_SPACE
  1
*MODEL_SPACE
  0
ENDBLK
  5
E
330
A
100
AcDbEntity
  8
0
390
1D
100
AcDbBlockEnd
  0
BLOCK
  5
F
330
B
100
AcDbEntity
 67
     1
  8
0
390
1D
100
AcDbBlockBegin
  2
*PAPER_SPACE
 70
     0
 10
0.0
 20
0.0
 30
0.0
  3
*PAPER_SPACE
  1
*PAPER_SPACE
  0
ENDBLK
  5
10
330
B
100
AcDbEntity
 67
     1
  8
0
390
1D
100
AcDbBlockEnd
  0
BLOCK
  5
4283
330
4E
100
AcDbEntity
  8
0
390
1D
100
AcDbBlockBegin
  2
_DOT
 70
     0
 10
0.0
 20
0.0
 30
0.0
  3
_DOT
  1
_DOT
  0
POLYLINE
  5
4285
330
4E
100
AcDbEntity
  8
0
  6
ByBlock
 62
     0
370
    -2
390
1D
100
AcDb2dPolyline
 66
     1
 10
0.0
 20
0.0
 30
0.0
 70
     1
 40
0.5
 41
0.5
  0
VERTEX
  5
4286
330
4285
100
AcDbEntity
  8
0
  6
ByBlock
 62
     0
370
    -2
390
1D
100
AcDbVertex
100
AcDb2dVertex
 10
-0.25
 20
0.0
 30
0.0
 42
1.0
  0
VERTEX
  5
4287
330
4285
100
AcDbEntity
  8
0
  6
ByBlock
 62
     0
370
    -2
390
1D
100
AcDbVertex
100
AcDb2dVertex
 10
0.25
 20
0.0
 30
0.0
 42
1.0
  0
SEQEND
  5
4288
330
4285
100
AcDbEntity
  8
0
390
1D
  0
LINE
  5
4289
330
4E
100
AcDbEntity
  8
0
  6
ByBlock
 62
     0
370
    -2
390
1D
100
AcDbLine
 10
-0.5
 20
0.0
 30
0.0
 11
-1.0
 21
0.0
 31
0.0
  0
ENDBLK
  5
428A
330
4E
100
AcDbEntity
  8
0
390
1D
100
AcDbBlockEnd
  0
BLOCK
  5
68E
330
68D
100
AcDbEntity
  8
0
100
AcDbBlockBegin
  2
block 2
 70
     0
 10
0.0
 20
0.0
 30
0.0
  3
block 2
  1
block 2
  0
ENDBLK
  5
6B0
330
68D
100
AcDbEntity
  8
0
100
AcDbBlockEnd
  0
BLOCK
  5
3E27
330
3E26
100
AcDbEntity
  8
0
100
AcDbBlockBegin
  2
*D2
 70
     1
 10
0.0
 20
0.0
 30
0.0
  3
*D2
  1

  0
LINE
  5
3E29
330
3E26
100
AcDbEntity
  8
DIM
 62
     0
370
    -2
100
AcDbLine
 10
-1207.837568389056
 20
1310.861155015197
 30
0.0
 11
-1207.837568389056
 21
1586.446135090576
 31
0.0
  0
LINE
  5
3E2A
330
3E26
100
AcDbEntity
  8
DIM
 62
     0
370
    -2
100
AcDbLine
 10
-751.1255927051666
 20
1310.861155015197
 30
0.0
 11
-751.1255927051666
 21
1586.446135090576
 31
0.0
  0
LINE
  5
3E2B
330
3E26
100
AcDbEntity
  8
DIM
 62
     0
370
    -2
100
AcDbLine
 10
-1199.837568389056
 20
1586.446135090576
 30
0.0
 11
-759.1255927051666
 21
1586.446135090576
 31
0.0
  0
INSERT
  5
3E2C
330
3E26
100
AcDbEntity
  8
DIM
 62
     0
370
    -2
100
AcDbBlockReference
  2
_DOT
 10
-1207.837568389056
 20
1586.446135090576
 30
0.0
 41
8.0
 42
8.0
 43
8.0
 50
180.0
  0
INSERT
  5
3E2D
330
3E26
100
AcDbEntity
  8
DIM
 62
     0
370
    -2
100
AcDbBlockReference
  2
_DOT
 10
-751.1255927051666
 20
1586.446135090576
 30
0.0
 41
8.0
 42
8.0
 43
8.0
  0
MTEXT
  5
3E2E
330
3E26
100
AcDbEntity
  8
DIM
 62
     0
100
AcDbMText
 10
-979.4815805471122
 20
1612.446135090576
 30
0.0
 40
20.0
 41
0.0
 46
0.0
 71
     5
 72
     1
  1
\A1;457
  7
ＭＳ ゴシック
 73
     1
 44
1.0
  0
POINT
  5
3E2F
330
3E26
100
AcDbEntity
  8
Defpoints
 62
     0
100
AcDbPoint
 10
-1207.837568389056
 20
1305.861155015197
 30
0.0
  0
POINT
  5
3E30
330
3E26
100
AcDbEntity
  8
Defpoints
 62
     0
100
AcDbPoint
 10
-751.1255927051666
 20
1305.861155015197
 30
0.0
  0
POINT
  5
3E31
330
3E26
100
AcDbEntity
  8
Defpoints
 62
     0
100
AcDbPoint
 10
-751.1255927051666
 20
1586.446135090576
 30
0.0
  0
ENDBLK
  5
3E28
330
3E26
100
AcDbEntity
  8
0
100
AcDbBlockEnd
  0
BLOCK
  5
3E33
330
3E32
100
AcDbEntity
  8
0
100
AcDbBlockBegin
  2
*D3
 70
     1
 10
0.0
 20
0.0
 30
0.0
  3
*D3
  1

  0
LINE
  5
3E35
330
3E32
100
AcDbEntity
  8
DIM
 62
     0
370
    -2
100
AcDbLine
 10
-1131.029226087049
 20
1300.861155015197
 30
0.0
 11
-1131.029226087049
 21
959.0664924984802
 31
0.0
  0
LINE
  5
3E36
330
3E32
100
AcDbEntity
  8
DIM
 62
     0
370
    -2
100
AcDbLine
 10
-827.9339350071735
 20
1300.861155015197
 30
0.0
 11
-827.9339350071735
 21
959.0664924984802
 31
0.0
  0
LINE
  5
3E37
330
3E32
100
AcDbEntity
  8
DIM
 62
     0
370
    -2
100
AcDbLine
 10
-1123.029226087049
 20
959.0664924984802
 30
0.0
 11
-835.9339350071735
 21
959.0664924984802
 31
0.0
  0
INSERT
  5
3E38
330
3E32
100
AcDbEntity
  8
DIM
 62
     0
370
    -2
100
AcDbBlockReference
  2
_DOT
 10
-1131.029226087049
 20
959.0664924984802
 30
0.0
 41
8.0
 42
8.0
 43
8.0
 50
180.0
  0
INSERT
  5
3E39
330
3E32
100
AcDbEntity
  8
DIM
 62
     0
370
    -2
100
AcDbBlockReference
  2
_DOT
 10
-827.9339350071735
 20
959.0664924984802
 30
0.0
 41
8.0
 42
8.0
 43
8.0
  0
MTEXT
  5
3E3A
330
3E32
100
AcDbEntity
  8
DIM
 62
     0
100
AcDbMText
 10
-979.4815805471112
 20
985.0664924984802
 30
0.0
 40
20.0
 41
0.0
 46
0.0
 71
     5
 72
     1
  1
\A1;303
  7
ＭＳ ゴシック
 73
     1
 44
1.0
  0
POINT
  5
3E3B
330
3E32
100
AcDbEntity
  8
Defpoints
 62
     0
100
AcDbPoint
 10
-1131.029226087049
 20
1305.861155015197
 30
0.0
  0
POINT
  5
3E3C
330
3E32
100
AcDbEntity
  8
Defpoints
 62
     0
100
AcDbPoint
 10
-827.9339350071735
 20
1305.861155015197
 30
0.0
  0
POINT
  5
3E3D
330
3E32
100
AcDbEntity
  8
Defpoints
 62
     0
100
AcDbPoint
 10
-827.9339350071735
 20
959.0664924984802
 30
0.0
  0
ENDBLK
  5
3E34
330
3E32
100
AcDbEntity
  8
0
100
AcDbBlockEnd
  0
BLOCK
  5
3E89
330
3E88
100
AcDbEntity
  8
0
100
AcDbBlockBegin
  2
812343s
 70
     0
 10
0.0
 20
0.0
 30
0.0
  3
812343s
  1

  0
SPLINE
  5
3E8A
330
3E88
100
AcDbEntity
  8
0
 62
     7
100
AcDbSpline
210
0.0
220
0.0
230
1.0
 70
     8
 71
     3
 72
    32
 73
    28
 74
     0
 42
0.000000001
 43
0.0000000001
 40
0.0
 40
0.0
 40
0.0
 40
0.0
 40
1.0
 40
1.0
 40
1.0
 40
2.0
 40
2.0
 40
2.0
 40
3.0
 40
3.0
 40
3.0
 40
4.0
 40
4.0
 40
4.0
 40
5.0
 40
5.0
 40
5.0
 40
6.0
 40
6.0
 40
6.0
 40
7.0
 40
7.0
 40
7.0
 40
8.0
 40
8.0
 40
8.0
 40
9.0
 40
9.0
 40
9.0
 40
9.0
 10
57.47538925429434
 20
758.0014323271663
 30
0.0
 10
57.47538925429434
 20
758.0014323271663
 30
0.0
 10
57.47538925429434
 20
767.5043837136795
 30
0.0
 10
57.47538925429434
 20
767.5043837136795
 30
0.0
 10
55.32564967149845
 20
770.2935330185377
 30
0.0
 10
52.91683890821176
 20
772.8677083651164
 30
0.0
 10
50.27100557553988
 20
775.1993489895335
 30
0.0
 10
50.27100557553988
 20
775.1993489895335
 30
0.0
 10
47.735415298396
 20
777.4427951695282
 30
0.0
 10
47.735415298396
 20
777.4427951695282
 30
0.0
 10
47.25585800684924
 20
777.8727430860874
 30
0.0
 10
46.64952120144526
 20
778.1263021138017
 30
0.0
 10
46.01011147938289
 20
778.186935794342
 30
0.0
 10
42.48233370248705
 20
778.5011285025969
 30
0.0
 10
38.97109238392042
 20
778.8208333636281
 30
0.0
 10
35.44331460702459
 20
779.2011719051997
 30
0.0
 10
29.0271687752953
 20
779.8957031550259
 30
0.0
 10
22.60551079078959
 20
780.6233073215109
 30
0.0
 10
16.18919270428603
 20
781.3674479463249
 30
0.0
 10
13.27877603834697
 20
781.7036892656852
 30
0.0
 10
11.04635416390508
 20
784.0849392650897
 30
0.0
 10
10.89201388616588
 20
787.0174045421346
 30
0.0
 10
10.89201388616588
 20
787.0174045421346
 30
0.0
 10
5.05464409595856
 20
898.1038194449185
 30
0.0
 10
5.05464409595856
 20
898.1038194449185
 30
0.0
 10
4.999522568194564
 20
899.1676649307636
 30
0.0
 10
4.128602429523406
 20
900.0
 30
0.0
 10
3.059244790901855
 20
900.0
 30
0.0
  0
POLYLINE
  5
3E8B
330
3E88
100
AcDbEntity
  8
0
 62
     7
100
AcDb2dPolyline
 66
     1
 10
0.0
 20
0.0
 30
0.0
  0
VERTEX
  5
3E8C
330
3E8B
100
AcDbEntity
  8
0
 62
     7
100
AcDbVertex
100
AcDb2dVertex
 10
119.3939181559154
 20
800.0095486361088
 30
0.0
  0
VERTEX
  5
3E8D
330
3E8B
100
AcDbEntity
  8
0
 62
     7
100
AcDbVertex
100
AcDb2dVertex
 10
117.9442219757223
 20
799.8386719000404
 30
0.0
  0
VERTEX
  5
3E8E
330
3E8B
100
AcDbEntity
  8
0
 62
     7
100
AcDbVertex
100
AcDb2dVertex
 10
117.8450032257471
 20
800.0867187749785
 30
0.0
  0
VERTEX
  5
3E8F
330
3E8B
100
AcDbEntity
  8
0
 62
     7
100
AcDbVertex
100
AcDb2dVertex
 10
116.251646563819
 20
803.267230926961
 30
0.0
  0
SEQEND
  5
3E90
330
3E8B
100
AcDbEntity
  8
0
  0
POLYLINE
  5
3E91
330
3E88
100
AcDbEntity
  8
0
 62
     7
100
AcDb2dPolyline
 66
     1
 10
0.0
 20
0.0
 30
0.0
  0
VERTEX
  5
3E92
330
3E91
100
AcDbEntity
  8
0
 62
     7
100
AcDbVertex
100
AcDb2dVertex
 10
127.6952202371734
 20
801.1119791913886
 30
0.0
  0
VERTEX
  5
3E93
330
3E91
100
AcDbEntity
  8
0
 62
     7
100
AcDbVertex
100
AcDb2dVertex
 10
128.9685275285217
 20
801.2938802330099
 30
0.0
  0
SEQEND
  5
3E94
330
3E91
100
AcDbEntity
  8
0
  0
SPLINE
  5
3E95
330
3E88
100
AcDbEntity
  8
0
 62
     7
100
AcDbSpline
210
0.0
220
0.0
230
1.0
 70
     8
 71
     3
 72
     8
 73
     4
 74
     0
 42
0.000000001
 43
0.0000000001
 40
0.0
 40
0.0
 40
0.0
 40
0.0
 40
1.0
 40
1.0
 40
1.0
 40
1.0
 10
129.5197428061617
 20
804.8492187737876
 30
0.0
 10
129.8449598199693
 20
804.8822916904461
 30
0.0
 10
130.1260796115657
 20
805.0752170376201
 30
0.0
 10
130.2859320420813
 20
805.3618489819928
 30
0.0
  0
SPLINE
  5
3E96
330
3E88
100
AcDbEntity
  8
0
 62
     7
100
AcDbSpline
210
0.0
220
0.0
230
1.0
 70
     8
 71
     3
 72
     8
 73
     4
 74
     0
 42
0.000000001
 43
0.0000000001
 40
0.0
 40
0.0
 40
0.0
 40
0.0
 40
1.0
 40
1.0
 40
1.0
 40
1.0
 10
131.2229980140692
 20
806.2382812734405
 30
0.0
 10
130.8261230141685
 20
806.0618923845957
 30
0.0
 10
130.4953938475845
 20
805.7476996763409
 30
0.0
 10
130.2859320420813
 20
805.3618489819928
 30
0.0
  0
SPLINE
  5
3E97
330
3E88
100
AcDbEntity
  8
0
 62
     7
100
AcDbSpline
210
0.0
220
0.0
230
1.0
 70
     8
 71
     3
 72
    26
 73
    22
 74
     0
 42
0.000000001
 43
0.0000000001
 40
0.0
 40
0.0
 40
0.0
 40
0.0
 40
1.0
 40
1.0
 40
1.0
 40
2.0
 40
2.0
 40
2.0
 40
3.0
 40
3.0
 40
3.0
 40
4.0
 40
4.0
 40
4.0
 40
5.0
 40
5.0
 40
5.0
 40
6.0
 40
6.0
 40
6.0
 40
7.0
 40
7.0
 40
7.0
 40
7.0
 10
129.6134494033605
 20
804.8547309265641
 30
0.0
 10
129.6134494033605
 20
804.8547309265641
 30
0.0
 10
129.6520344727953
 20
804.4909288433217
 30
0.0
 10
129.6520344727953
 20
804.4909288433217
 30
0.0
 10
129.6520344727953
 20
804.4909288433217
 30
0.0
 10
129.6520344727953
 20
804.2263455100544
 30
0.0
 10
129.6520344727953
 20
804.2263455100544
 30
0.0
 10
129.6520344727953
 20
804.2263455100544
 30
0.0
 10
129.2551594728945
 20
801.4427083579727
 30
0.0
 10
129.2551594728945
 20
801.4427083579727
 30
0.0
 10
129.2551594728945
 20
801.4427083579727
 30
0.0
 10
128.9685275285217
 20
801.2938802330099
 30
0.0
 10
128.9685275285217
 20
801.2938802330099
 30
0.0
 10
127.2983452372726
 20
802.054557316153
 30
0.0
 10
125.4407497516259
 20
802.3467014133023
 30
0.0
 10
123.6107150298612
 20
802.1317274550225
 30
0.0
 10
123.6107150298612
 20
802.1317274550225
 30
0.0
 10
123.1587185021964
 20
802.0766059272586
 30
0.0
 10
123.1587185021964
 20
802.0766059272586
 30
0.0
 10
121.3231716276553
 20
801.8561198162027
 30
0.0
 10
119.5978678086422
 20
801.1395399552707
 30
0.0
 10
118.1536837812255
 20
800.0040364833322
 30
0.0
  0
SPLINE
  5
3E98
330
3E88
100
AcDbEntity
  8
0
 62
     7
100
AcDbSpline
210
0.0
220
0.0
230
1.0
 70
     8
 71
     3
 72
    56
 73
    52
 74
     0
 42
0.000000001
 43
0.0000000001
 40
0.0
 40
0.0
 40
0.0
 40
0.0
 40
1.0
 40
1.0
 40
1.0
 40
2.0
 40
2.0
 40
2.0
 40
3.0
 40
3.0
 40
3.0
 40
4.0
 40
4.0
 40
4.0
 40
5.0
 40
5.0
 40
5.0
 40
6.0
 40
6.0
 40
6.0
 40
7.0
 40
7.0
 40
7.0
 40
8.0
 40
8.0
 40
8.0
 40
9.0
 40
9.0
 40
9.0
 40
10.0
 40
10.0
 40
10.0
 40
11.0
 40
11.0
 40
11.0
 40
12.0
 40
12.0
 40
12.0
 40
13.0
 40
13.0
 40
13.0
 40
14.0
 40
14.0
 40
14.0
 40
15.0
 40
15.0
 40
15.0
 40
16.0
 40
16.0
 40
16.0
 40
17.0
 40
17.0
 40
17.0
 40
17.0
 10
131.2229980140692
 20
806.2382812734405
 30
0.0
 10
132.5734754442872
 20
806.8391059260681
 30
0.0
 10
133.4829806523931
 20
808.1344618285219
 30
0.0
 10
133.5877115551447
 20
809.6062066198207
 30
0.0
 10
133.5877115551447
 20
809.6062066198207
 30
0.0
 10
133.8302462773063
 20
813.0402777995175
 30
0.0
 10
133.8302462773063
 20
813.0402777995175
 30
0.0
 10
133.9074164161759
 20
814.1427083547975
 30
0.0
 10
133.0695691941632
 20
815.0907986323383
 30
0.0
 10
131.9671386388832
 20
815.1734809239844
 30
0.0
 10
131.8458712778024
 20
815.1845052295373
 30
0.0
 10
131.7190917639452
 20
815.1734809239844
 30
0.0
 10
131.5978244028644
 20
815.1624566184317
 30
0.0
 10
131.5978244028644
 20
815.1624566184317
 30
0.0
 10
38.56319307846685
 20
804.1050781489738
 30
0.0
 10
38.56319307846685
 20
804.1050781489738
 30
0.0
 10
37.46627467596329
 20
803.9727864823401
 30
0.0
 10
36.68354898171454
 20
802.980598982588
 30
0.0
 10
36.81584064834813
 20
801.8836805800846
 30
0.0
 10
36.82135280112453
 20
801.8506076634261
 30
0.0
 10
36.82135280112453
 20
801.8175347467678
 30
0.0
 10
36.83788925945372
 20
801.778949677333
 30
0.0
 10
36.83788925945372
 20
801.778949677333
 30
0.0
 10
37.3560316204353
 20
798.7141927336547
 30
0.0
 10
37.3560316204353
 20
798.7141927336547
 30
0.0
 10
37.71983370367768
 20
796.6195746786229
 30
0.0
 10
39.6601114809704
 20
795.175390651206
 30
0.0
 10
41.76575384155509
 20
795.4234375261441
 30
0.0
 10
41.76575384155509
 20
795.4234375261441
 30
0.0
 10
81.17230629481111
 20
800.1087673860839
 30
0.0
 10
81.17230629481111
 20
800.1087673860839
 30
0.0
 10
81.17230629481111
 20
800.1087673860839
 30
0.0
 10
114.3611504162882
 20
804.0554687739861
 30
0.0
 10
114.3611504162882
 20
804.0554687739861
 30
0.0
 10
114.3611504162882
 20
804.0554687739861
 30
0.0
 10
114.3611504162882
 20
804.0499566212098
 30
0.0
 10
114.3611504162882
 20
804.0499566212098
 30
0.0
 10
114.9289021522574
 20
804.1161024545266
 30
0.0
 10
115.4964816334523
 20
803.9452257184581
 30
0.0
 10
115.920917397235
 20
803.5648871768866
 30
0.0
 10
115.920917397235
 20
803.5648871768866
 30
0.0
 10
116.251646563819
 20
803.267230926961
 30
0.0
 10
116.251646563819
 20
803.267230926961
 30
0.0
 10
116.251646563819
 20
803.267230926961
 30
0.0
 10
116.6984754482559
 20
803.3223524547249
 30
0.0
 10
116.6984754482559
 20
803.3223524547249
 30
0.0
 10
116.6984754482559
 20
803.3223524547249
 30
0.0
 10
116.6929632954795
 20
803.3223524547249
 30
0.0
 10
116.6929632954795
 20
803.3223524547249
 30
0.0
 10
116.6929632954795
 20
803.3223524547249
 30
0.0
 10
129.6134494033605
 20
804.8547309265641
 30
0.0
 10
129.6134494033605
 20
804.8547309265641
 30
0.0
  0
SPLINE
  5
3E99
330
3E88
100
AcDbEntity
  8
0
 62
     7
100
AcDbSpline
210
0.0
220
0.0
230
1.0
 70
     8
 71
     3
 72
     8
 73
     4
 74
     0
 42
0.000000001
 43
0.0000000001
 40
0.0
 40
0.0
 40
0.0
 40
0.0
 40
1.0
 40
1.0
 40
1.0
 40
1.0
 10
42.82959932740023
 20
790.5617187773596
 30
0.0
 10
42.59257675801504
 20
790.0490885691545
 30
0.0
 10
42.23979898032546
 20
789.6081163470425
 30
0.0
 10
41.78229029988429
 20
789.2828993332349
 30
0.0
  0
SPLINE
  5
3E9A
330
3E88
100
AcDbEntity
  8
0
 62
     7
100
AcDbSpline
210
0.0
220
0.0
230
1.0
 70
     8
 71
     3
 72
     8
 73
     4
 74
     0
 42
0.000000001
 43
0.0000000001
 40
0.0
 40
0.0
 40
0.0
 40
0.0
 40
1.0
 40
1.0
 40
1.0
 40
1.0
 10
52.95542397764656
 20
790.6113281523471
 30
0.0
 10
52.43728161666499
 20
790.8207899578504
 30
0.0
 10
51.97977293622381
 20
791.1625434299872
 30
0.0
 10
51.63250731131062
 20
791.6200521104283
 30
0.0
  0
SPLINE
  5
3E9B
330
3E88
100
AcDbEntity
  8
0
 62
     7
100
AcDbSpline
210
0.0
220
0.0
230
1.0
 70
     8
 71
     3
 72
     8
 73
     4
 74
     0
 42
0.000000001
 43
0.0000000001
 40
0.0
 40
0.0
 40
0.0
 40
0.0
 40
1.0
 40
1.0
 40
1.0
 40
1.0
 10
43.07764620233824
 20
791.0523003744592
 30
0.0
 10
42.97842745236303
 20
790.8924479439435
 30
0.0
 10
42.90125731349343
 20
790.7381076662044
 30
0.0
 10
42.82959932740023
 20
790.5617187773596
 30
0.0
  0
SPLINE
  5
3E9C
330
3E88
100
AcDbEntity
  8
0
 62
     7
100
AcDbSpline
210
0.0
220
0.0
230
1.0
 70
     8
 71
     3
 72
     8
 73
     4
 74
     0
 42
0.000000001
 43
0.0000000001
 40
0.0
 40
0.0
 40
0.0
 40
0.0
 40
1.0
 40
1.0
 40
1.0
 40
1.0
 10
51.63250731131062
 20
791.6200521104283
 30
0.0
 10
51.52226425578263
 20
791.7633680826146
 30
0.0
 10
51.40099689470184
 20
791.9011719020248
 30
0.0
 10
51.27972953362105
 20
792.0224392631055
 30
0.0
  0
POLYLINE
  5
3E9D
330
3E88
100
AcDbEntity
  8
0
 62
     7
100
AcDb2dPolyline
 66
     1
 10
0.0
 20
0.0
 30
0.0
  0
VERTEX
  5
3E9E
330
3E9D
100
AcDbEntity
  8
0
 62
     7
100
AcDbVertex
100
AcDb2dVertex
 10
47.18420002075602
 20
791.5428819715587
 30
0.0
  0
VERTEX
  5
3E9F
330
3E9D
100
AcDbEntity
  8
0
 62
     7
100
AcDbVertex
100
AcDb2dVertex
 10
41.99726425816388
 20
790.9089844022727
 30
0.0
  0
VERTEX
  5
3EA0
330
3E9D
100
AcDbEntity
  8
0
 62
     7
100
AcDbVertex
100
AcDb2dVertex
 10
41.4680975916295
 20
791.0137153050243
 30
0.0
  0
VERTEX
  5
3EA1
330
3E9D
100
AcDbEntity
  8
0
 62
     7
100
AcDbVertex
100
AcDb2dVertex
 10
39.94123127256677
 20
794.6241753735662
 30
0.0
  0
SEQEND
  5
3EA2
330
3E9D
100
AcDbEntity
  8
0
  0
POLYLINE
  5
3EA3
330
3E88
100
AcDbEntity
  8
0
 62
     7
100
AcDb2dPolyline
 66
     1
 10
0.0
 20
0.0
 30
0.0
  0
VERTEX
  5
3EA4
330
3EA3
100
AcDbEntity
  8
0
 62
     7
100
AcDbVertex
100
AcDb2dVertex
 10
47.18420002075602
 20
791.5428819715587
 30
0.0
  0
VERTEX
  5
3EA5
330
3EA3
100
AcDbEntity
  8
0
 62
     7
100
AcDbVertex
100
AcDb2dVertex
 10
52.67981633882657
 20
792.1988281519502
 30
0.0
  0
VERTEX
  5
3EA6
330
3EA3
100
AcDbEntity
  8
0
 62
     7
100
AcDbVertex
100
AcDb2dVertex
 10
52.86171738044776
 20
792.3641927352423
 30
0.0
  0
VERTEX
  5
3EA7
330
3EA3
100
AcDbEntity
  8
0
 62
     7
100
AcDbVertex
100
AcDb2dVertex
 10
53.19795869980815
 20
795.7707031510574
 30
0.0
  0
SEQEND
  5
3EA8
330
3EA3
100
AcDbEntity
  8
0
  0
SPLINE
  5
3EA9
330
3E88
100
AcDbEntity
  8
0
 62
     7
100
AcDbSpline
210
0.0
220
0.0
230
1.0
 70
     8
 71
     3
 72
    23
 73
    19
 74
     0
 42
0.000000001
 43
0.0000000001
 40
0.0
 40
0.0
 40
0.0
 40
0.0
 40
1.0
 40
1.0
 40
1.0
 40
2.0
 40
2.0
 40
2.0
 40
3.0
 40
3.0
 40
3.0
 40
4.0
 40
4.0
 40
4.0
 40
5.0
 40
5.0
 40
5.0
 40
6.0
 40
6.0
 40
6.0
 40
6.0
 10
38.98762884224963
 20
796.1400173870761
 30
0.0
 10
39.3293823143864
 20
795.8533854427034
 30
0.0
 10
39.57742918932439
 20
795.4785590539082
 30
0.0
 10
39.70420870318159
 20
795.0430989845726
 30
0.0
 10
39.81996391148598
 20
794.5580295402494
 30
0.0
 10
40.27747259192716
 20
794.2383246792183
 30
0.0
 10
40.78459064735593
 20
794.2989583597586
 30
0.0
 10
40.78459064735593
 20
794.2989583597586
 30
0.0
 10
46.77078856252605
 20
795.0100260679142
 30
0.0
 10
46.77078856252605
 20
795.0100260679142
 30
0.0
 10
46.77078856252605
 20
795.0100260679142
 30
0.0
 10
53.19795869980815
 20
795.7707031510574
 30
0.0
 10
53.19795869980815
 20
795.7707031510574
 30
0.0
 10
53.49561494973374
 20
795.8148003732686
 30
0.0
 10
53.74366182467174
 20
795.958116345455
 30
0.0
 10
53.92556286629291
 20
796.19513891484
 30
0.0
 10
54.25629203287691
 20
796.6526475952812
 30
0.0
 10
54.73584932442367
 20
796.9447916924305
 30
0.0
 10
55.29257675484005
 20
797.0329861368529
 30
0.0
  0
SPLINE
  5
3EAA
330
3E88
100
AcDbEntity
  8
0
 62
     7
100
AcDbSpline
210
0.0
220
0.0
230
1.0
 70
     8
 71
     3
 72
    17
 73
    13
 74
     0
 42
0.000000001
 43
0.0000000001
 40
0.0
 40
0.0
 40
0.0
 40
0.0
 40
1.0
 40
1.0
 40
1.0
 40
2.0
 40
2.0
 40
2.0
 40
3.0
 40
3.0
 40
3.0
 40
4.0
 40
4.0
 40
4.0
 40
4.0
 10
36.83788925945372
 20
802.3136284966438
 30
0.0
 10
36.83788925945372
 20
802.3136284966438
 30
0.0
 10
35.93940835690057
 20
787.2985243337309
 30
0.0
 10
35.93940835690057
 20
787.2985243337309
 30
0.0
 10
35.92287189857136
 20
786.3835069728486
 30
0.0
 10
35.79058023193777
 20
785.4629774591898
 30
0.0
 10
35.49843613478858
 20
784.5920573205187
 30
0.0
 10
35.31102294039099
 20
784.0022569734438
 30
0.0
 10
35.05195175990022
 20
783.4455295430275
 30
0.0
 10
34.69366182943422
 20
782.9384114875988
 30
0.0
 10
33.79518092688106
 20
781.6540798906976
 30
0.0
 10
32.40611842722834
 20
780.7611111409209
 30
0.0
 10
30.87373995538921
 20
780.4414062798896
 30
0.0
  0
SPLINE
  5
3EAB
330
3E88
100
AcDbEntity
  8
0
 62
     7
100
AcDbSpline
210
0.0
220
0.0
230
1.0
 70
    11
 71
     3
 72
    35
 73
    31
 74
     0
 42
0.000000001
 43
0.0000000001
 40
0.0
 40
0.0
 40
0.0
 40
0.0
 40
1.0
 40
1.0
 40
1.0
 40
2.0
 40
2.0
 40
2.0
 40
3.0
 40
3.0
 40
3.0
 40
4.0
 40
4.0
 40
4.0
 40
5.0
 40
5.0
 40
5.0
 40
6.0
 40
6.0
 40
6.0
 40
7.0
 40
7.0
 40
7.0
 40
8.0
 40
8.0
 40
8.0
 40
9.0
 40
9.0
 40
9.0
 40
10.0
 40
10.0
 40
10.0
 40
10.0
 10
364.9999429426042
 20
897.9605034727322
 30
0.0
 10
364.9999429426042
 20
897.9605034727322
 30
0.0
 10
362.7950818320443
 20
771.9967882264452
 30
0.0
 10
362.7950818320443
 20
771.9967882264452
 30
0.0
 10
362.7950818320443
 20
771.9967882264452
 30
0.0
 10
357.7679984999677
 20
769.9958767686121
 30
0.0
 10
357.7679984999677
 20
769.9958767686121
 30
0.0
 10
357.7679984999677
 20
769.9958767686121
 30
0.0
 10
7.237456595412858
 20
769.9958767686121
 30
0.0
 10
7.237456595412858
 20
769.9958767686121
 30
0.0
 10
7.237456595412858
 20
769.9958767686121
 30
0.0
 10
2.204861110559894
 20
771.9967882264452
 30
0.0
 10
2.204861110559894
 20
771.9967882264452
 30
0.0
 10
2.204861110559894
 20
771.9967882264452
 30
0.0
 10
0.0000000000000036
 20
897.9605034727322
 30
0.0
 10
0.0000000000000036
 20
897.9605034727322
 30
0.0
 10
0.0000000000000036
 20
897.9770399310615
 30
0.0
 10
0.0000000000000036
 20
897.988064236614
 30
0.0
 10
0.0000000000000036
 20
897.9935763893905
 30
0.0
 10
0.0000000000000036
 20
899.1070312502231
 30
0.0
 10
0.8984809025531586
 20
900.0
 30
0.0
 10
2.000911457833103
 20
900.0
 30
0.0
 10
2.000911457833103
 20
900.0
 30
0.0
 10
363.0045436375476
 20
900.0
 30
0.0
 10
363.0045436375476
 20
900.0
 30
0.0
 10
363.0100557903239
 20
900.0
 30
0.0
 10
363.0265922486531
 20
900.0
 30
0.0
 10
363.0321044014295
 20
899.9944878472236
 30
0.0
 10
364.1400471094858
 20
899.9779513888946
 30
0.0
 10
365.0164794009334
 20
899.062934028012
 30
0.0
 10
364.9999429426042
 20
897.9605034727322
 30
0.0
  0
SPLINE
  5
3EAC
330
3E88
100
AcDbEntity
  8
0
 62
     7
100
AcDbSpline
210
0.0
220
0.0
230
1.0
 70
     8
 71
     3
 72
    26
 73
    22
 74
     0
 42
0.000000001
 43
0.0000000001
 40
0.0
 40
0.0
 40
0.0
 40
0.0
 40
1.0
 40
1.0
 40
1.0
 40
2.0
 40
2.0
 40
2.0
 40
3.0
 40
3.0
 40
3.0
 40
4.0
 40
4.0
 40
4.0
 40
5.0
 40
5.0
 40
5.0
 40
6.0
 40
6.0
 40
6.0
 40
7.0
 40
7.0
 40
7.0
 40
7.0
 10
119.085237600437
 20
770.0013889213885
 30
0.0
 10
118.4954372533622
 20
769.1855903104813
 30
0.0
 10
118.0654893368031
 20
768.2650607968227
 30
0.0
 10
117.8229546146415
 20
767.2728732970706
 30
0.0
 10
117.8229546146415
 20
767.2728732970706
 30
0.0
 10
115.8713080222474
 20
759.5172743406763
 30
0.0
 10
115.8713080222474
 20
759.5172743406763
 30
0.0
 10
115.6508219111915
 20
758.6187934381229
 30
0.0
 10
114.8517320133877
 20
758.0014323271663
 30
0.0
 10
113.931202499729
 20
758.0014323271663
 30
0.0
 10
113.931202499729
 20
758.0014323271663
 30
0.0
 10
47.03537189579324
 20
758.0014323271663
 30
0.0
 10
47.03537189579324
 20
758.0014323271663
 30
0.0
 10
46.12035453491087
 20
758.0014323271663
 30
0.0
 10
45.31558022955652
 20
758.6187934381229
 30
0.0
 10
45.08406981294774
 20
759.5172743406763
 30
0.0
 10
45.08406981294774
 20
759.5172743406763
 30
0.0
 10
43.96510279933858
 20
764.0151910062185
 30
0.0
 10
43.96510279933858
 20
764.0151910062185
 30
0.0
 10
43.13827988287862
 20
767.3445312831637
 30
0.0
 10
40.28849689747995
 20
769.7698785047799
 30
0.0
 10
36.87096217611213
 20
770.0565104491525
 30
0.0
  0
SPLINE
  5
3EAD
330
3E88
100
AcDbEntity
  8
0
 62
     7
100
AcDbSpline
210
0.0
220
0.0
230
1.0
 70
     8
 71
     3
 72
    80
 73
    76
 74
     0
 42
0.000000001
 43
0.0000000001
 40
0.0
 40
0.0
 40
0.0
 40
0.0
 40
1.0
 40
1.0
 40
1.0
 40
2.0
 40
2.0
 40
2.0
 40
3.0
 40
3.0
 40
3.0
 40
4.0
 40
4.0
 40
4.0
 40
5.0
 40
5.0
 40
5.0
 40
6.0
 40
6.0
 40
6.0
 40
7.0
 40
7.0
 40
7.0
 40
8.0
 40
8.0
 40
8.0
 40
9.0
 40
9.0
 40
9.0
 40
10.0
 40
10.0
 40
10.0
 40
11.0
 40
11.0
 40
11.0
 40
12.0
 40
12.0
 40
12.0
 40
13.0
 40
13.0
 40
13.0
 40
14.0
 40
14.0
 40
14.0
 40
15.0
 40
15.0
 40
15.0
 40
16.0
 40
16.0
 40
16.0
 40
17.0
 40
17.0
 40
17.0
 40
18.0
 40
18.0
 40
18.0
 40
19.0
 40
19.0
 40
19.0
 40
20.0
 40
20.0
 40
20.0
 40
21.0
 40
21.0
 40
21.0
 40
22.0
 40
22.0
 40
22.0
 40
23.0
 40
23.0
 40
23.0
 40
24.0
 40
24.0
 40
24.0
 40
25.0
 40
25.0
 40
25.0
 40
25.0
 10
361.8580158600564
 20
900.0
 30
0.0
 10
360.7996825269875
 20
900.0
 30
0.0
 10
359.92325023554
 20
899.1676649307636
 30
0.0
 10
359.8626165549996
 20
898.098307292142
 30
0.0
 10
359.8626165549996
 20
898.098307292142
 30
0.0
 10
357.040394333483
 20
847.0833333465625
 30
0.0
 10
357.040394333483
 20
847.0833333465625
 30
0.0
 10
356.9191269724023
 20
844.8839843887791
 30
0.0
 10
355.5962103060662
 20
842.9216580003807
 30
0.0
 10
353.6114907970138
 20
841.9790798756164
 30
0.0
 10
353.0051539916098
 20
841.69796008402
 30
0.0
 10
352.3712564223239
 20
841.5105468896224
 30
0.0
 10
351.7097980891559
 20
841.4333767507528
 30
0.0
 10
351.2302407976091
 20
841.3782552229887
 30
0.0
 10
350.7341470477331
 20
841.3231336952247
 30
0.0
 10
350.2490776034099
 20
841.2680121674608
 30
0.0
 10
318.245518583633
 20
837.6355034878134
 30
0.0
 10
261.3321966577572
 20
830.9327257117113
 30
0.0
 10
229.3451740963095
 20
827.1513889071011
 30
0.0
 10
199.2653563954962
 20
823.5905382135468
 30
0.0
 10
167.6032063383074
 20
819.6328125200916
 30
0.0
 10
137.5454372485997
 20
815.8790364793635
 30
0.0
 10
136.6304198877174
 20
815.7632812710591
 30
0.0
 10
135.9138400267854
 20
815.0467014101273
 30
0.0
 10
135.8035969712574
 20
814.1371962020212
 30
0.0
 10
135.8035969712574
 20
814.1371962020212
 30
0.0
 10
134.5688747493439
 20
804.066493079539
 30
0.0
 10
134.5688747493439
 20
804.066493079539
 30
0.0
 10
134.3814615549463
 20
802.5175781493706
 30
0.0
 10
133.3121039163247
 20
801.2222222469165
 30
0.0
 10
131.8238226666968
 20
800.7481771081463
 30
0.0
 10
131.8238226666968
 20
800.7481771081463
 30
0.0
 10
131.2285101668456
 20
800.5607639137487
 30
0.0
 10
131.2285101668456
 20
800.5607639137487
 30
0.0
 10
130.8040744030629
 20
800.4229600943387
 30
0.0
 10
130.3631021809509
 20
800.3568142610218
 30
0.0
 10
129.9055935005097
 20
800.3678385665747
 30
0.0
 10
129.0016004451801
 20
800.3953993304566
 30
0.0
 10
128.130680306509
 20
800.7261284970407
 30
0.0
 10
127.441661209459
 20
801.3049045385626
 30
0.0
 10
126.5927896818935
 20
802.0214843994947
 30
0.0
 10
125.4848469738371
 20
802.3467014133023
 30
0.0
 10
124.39344072411
 20
802.2199218994451
 30
0.0
 10
124.39344072411
 20
802.2199218994451
 30
0.0
 10
122.3980414190533
 20
801.9828993300599
 30
0.0
 10
122.3980414190533
 20
801.9828993300599
 30
0.0
 10
120.3861056556674
 20
801.7403646078983
 30
0.0
 10
118.8702636421574
 20
800.0371093999908
 30
0.0
 10
118.8702636421574
 20
798.0141493310521
 30
0.0
 10
118.8702636421574
 20
798.0141493310521
 30
0.0
 10
118.8702636421574
 20
795.6053385677653
 30
0.0
 10
118.8702636421574
 20
795.6053385677653
 30
0.0
 10
118.8702636421574
 20
795.6053385677653
 30
0.0
 10
118.6222167672194
 20
793.9406684292926
 30
0.0
 10
118.6222167672194
 20
793.9406684292926
 30
0.0
 10
118.6222167672194
 20
793.9406684292926
 30
0.0
 10
117.6300292674675
 20
782.6187066265675
 30
0.0
 10
117.6300292674675
 20
782.6187066265675
 30
0.0
 10
117.6300292674675
 20
782.6187066265675
 30
0.0
 10
117.6300292674675
 20
782.6187066265675
 30
0.0
 10
117.6300292674675
 20
782.6187066265675
 30
0.0
 10
117.4646646841755
 20
780.77764759925
 30
0.0
 10
116.3012559388066
 20
779.1791232940941
 30
0.0
 10
114.6036851384498
 20
778.4570312803856
 30
0.0
 10
114.6036851384498
 20
778.4570312803856
 30
0.0
 10
113.7989108330954
 20
777.9388889194042
 30
0.0
 10
113.7989108330954
 20
777.9388889194042
 30
0.0
 10
113.7989108330954
 20
777.9388889194042
 30
0.0
 10
110.690056667206
 20
775.1993489895335
 30
0.0
 10
110.690056667206
 20
775.1993489895335
 30
0.0
 10
108.044223334534
 20
772.8677083651164
 30
0.0
 10
105.6354125712474
 20
770.2880208657614
 30
0.0
 10
103.4856729884515
 20
767.4933594081267
 30
0.0
 10
103.4856729884515
 20
767.4933594081267
 30
0.0
 10
103.4856729884515
 20
758.0014323271663
 30
0.0
 10
103.4856729884515
 20
758.0014323271663
 30
0.0
  0
POLYLINE
  5
3EAE
330
3E88
100
AcDbEntity
  8
0
 62
     7
100
AcDb2dPolyline
 66
     1
 10
0.0
 20
0.0
 30
0.0
  0
VERTEX
  5
3EAF
330
3EAE
100
AcDbEntity
  8
0
 62
     7
100
AcDbVertex
100
AcDb2dVertex
 10
80.48328719776111
 20
748.0023871907771
 30
0.0
  0
VERTEX
  5
3EB0
330
3EAE
100
AcDbEntity
  8
0
 62
     7
100
AcDbVertex
100
AcDb2dVertex
 10
80.48328719776111
 20
819.1642795340978
 30
0.0
  0
SEQEND
  5
3EB1
330
3EAE
100
AcDbEntity
  8
0
  0
POLYLINE
  5
3EB2
330
3E88
100
AcDbEntity
  8
0
 62
     7
100
AcDb2dPolyline
 66
     1
 10
0.0
 20
0.0
 30
0.0
  0
VERTEX
  5
3EB3
330
3EB2
100
AcDbEntity
  8
0
 62
     7
100
AcDbVertex
100
AcDb2dVertex
 10
12.49053819132181
 20
768.9981771160838
 30
0.0
  0
VERTEX
  5
3EB4
330
3EB2
100
AcDbEntity
  8
0
 62
     7
100
AcDbVertex
100
AcDb2dVertex
 10
12.49053819132181
 20
883.9982204901117
 30
0.0
  0
SEQEND
  5
3EB5
330
3EB2
100
AcDbEntity
  8
0
  0
POLYLINE
  5
3EB6
330
3E88
100
AcDbEntity
  8
0
 62
     7
100
AcDb2dPolyline
 66
     1
 10
0.0
 20
0.0
 30
0.0
  0
VERTEX
  5
3EB7
330
3EB6
100
AcDbEntity
  8
0
 62
     7
100
AcDbVertex
100
AcDb2dVertex
 10
32.49431287165072
 20
768.9981771160838
 30
0.0
  0
VERTEX
  5
3EB8
330
3EB6
100
AcDbEntity
  8
0
 62
     7
100
AcDbVertex
100
AcDb2dVertex
 10
32.49431287165072
 20
883.9982204901117
 30
0.0
  0
SEQEND
  5
3EB9
330
3EB6
100
AcDbEntity
  8
0
  0
POLYLINE
  5
3EBA
330
3E88
100
AcDbEntity
  8
0
 62
     7
100
AcDb2dPolyline
 66
     1
 10
0.0
 20
0.0
 30
0.0
  0
VERTEX
  5
3EBB
330
3EBA
100
AcDbEntity
  8
0
 62
     7
100
AcDbVertex
100
AcDb2dVertex
 10
52.49791529720538
 20
768.9981771160838
 30
0.0
  0
VERTEX
  5
3EBC
330
3EBA
100
AcDbEntity
  8
0
 62
     7
100
AcDbVertex
100
AcDb2dVertex
 10
52.49791529720538
 20
883.9982204901117
 30
0.0
  0
SEQEND
  5
3EBD
330
3EBA
100
AcDbEntity
  8
0
  0
POLYLINE
  5
3EBE
330
3E88
100
AcDbEntity
  8
0
 62
     7
100
AcDb2dPolyline
 66
     1
 10
0.0
 20
0.0
 30
0.0
  0
VERTEX
  5
3EBF
330
3EBE
100
AcDbEntity
  8
0
 62
     7
100
AcDbVertex
100
AcDb2dVertex
 10
72.50168997753431
 20
768.9981771160838
 30
0.0
  0
VERTEX
  5
3EC0
330
3EBE
100
AcDbEntity
  8
0
 62
     7
100
AcDbVertex
100
AcDb2dVertex
 10
72.50168997753431
 20
883.9982204901117
 30
0.0
  0
SEQEND
  5
3EC1
330
3EBE
100
AcDbEntity
  8
0
  0
POLYLINE
  5
3EC2
330
3E88
100
AcDbEntity
  8
0
 62
     7
100
AcDb2dPolyline
 66
     1
 10
0.0
 20
0.0
 30
0.0
  0
VERTEX
  5
3EC3
330
3EC2
100
AcDbEntity
  8
0
 62
     7
100
AcDbVertex
100
AcDb2dVertex
 10
92.49978025031255
 20
768.9981771160838
 30
0.0
  0
VERTEX
  5
3EC4
330
3EC2
100
AcDbEntity
  8
0
 62
     7
100
AcDbVertex
100
AcDb2dVertex
 10
92.49978025031255
 20
883.9982204901117
 30
0.0
  0
SEQEND
  5
3EC5
330
3EC2
100
AcDbEntity
  8
0
  0
POLYLINE
  5
3EC6
330
3E88
100
AcDbEntity
  8
0
 62
     7
100
AcDb2dPolyline
 66
     1
 10
0.0
 20
0.0
 30
0.0
  0
VERTEX
  5
3EC7
330
3EC6
100
AcDbEntity
  8
0
 62
     7
100
AcDbVertex
100
AcDb2dVertex
 10
112.5035549306415
 20
768.9981771160838
 30
0.0
  0
VERTEX
  5
3EC8
330
3EC6
100
AcDbEntity
  8
0
 62
     7
100
AcDbVertex
100
AcDb2dVertex
 10
112.5035549306415
 20
883.9982204901117
 30
0.0
  0
SEQEND
  5
3EC9
330
3EC6
100
AcDbEntity
  8
0
  0
POLYLINE
  5
3ECA
330
3E88
100
AcDbEntity
  8
0
 62
     7
100
AcDb2dPolyline
 66
     1
 10
0.0
 20
0.0
 30
0.0
  0
VERTEX
  5
3ECB
330
3ECA
100
AcDbEntity
  8
0
 62
     7
100
AcDbVertex
100
AcDb2dVertex
 10
132.5073296109704
 20
768.9981771160838
 30
0.0
  0
VERTEX
  5
3ECC
330
3ECA
100
AcDbEntity
  8
0
 62
     7
100
AcDbVertex
100
AcDb2dVertex
 10
132.5073296109704
 20
883.9982204901117
 30
0.0
  0
SEQEND
  5
3ECD
330
3ECA
100
AcDbEntity
  8
0
  0
POLYLINE
  5
3ECE
330
3E88
100
AcDbEntity
  8
0
 62
     7
100
AcDb2dPolyline
 66
     1
 10
0.0
 20
0.0
 30
0.0
  0
VERTEX
  5
3ECF
330
3ECE
100
AcDbEntity
  8
0
 62
     7
100
AcDbVertex
100
AcDb2dVertex
 10
152.5054198837485
 20
768.9981771160838
 30
0.0
  0
VERTEX
  5
3ED0
330
3ECE
100
AcDbEntity
  8
0
 62
     7
100
AcDbVertex
100
AcDb2dVertex
 10
152.5054198837485
 20
883.9982204901117
 30
0.0
  0
SEQEND
  5
3ED1
330
3ECE
100
AcDbEntity
  8
0
  0
POLYLINE
  5
3ED2
330
3E88
100
AcDbEntity
  8
0
 62
     7
100
AcDb2dPolyline
 66
     1
 10
0.0
 20
0.0
 30
0.0
  0
VERTEX
  5
3ED3
330
3ED2
100
AcDbEntity
  8
0
 62
     7
100
AcDbVertex
100
AcDb2dVertex
 10
172.5090223093033
 20
768.9981771160838
 30
0.0
  0
VERTEX
  5
3ED4
330
3ED2
100
AcDbEntity
  8
0
 62
     7
100
AcDbVertex
100
AcDb2dVertex
 10
172.5090223093033
 20
883.9982204901117
 30
0.0
  0
SEQEND
  5
3ED5
330
3ED2
100
AcDbEntity
  8
0
  0
POLYLINE
  5
3ED6
330
3E88
100
AcDbEntity
  8
0
 62
     7
100
AcDb2dPolyline
 66
     1
 10
0.0
 20
0.0
 30
0.0
  0
VERTEX
  5
3ED7
330
3ED6
100
AcDbEntity
  8
0
 62
     7
100
AcDbVertex
100
AcDb2dVertex
 10
192.512624734858
 20
768.9981771160838
 30
0.0
  0
VERTEX
  5
3ED8
330
3ED6
100
AcDbEntity
  8
0
 62
     7
100
AcDbVertex
100
AcDb2dVertex
 10
192.512624734858
 20
883.9982204901117
 30
0.0
  0
SEQEND
  5
3ED9
330
3ED6
100
AcDbEntity
  8
0
  0
POLYLINE
  5
3EDA
330
3E88
100
AcDbEntity
  8
0
 62
     7
100
AcDb2dPolyline
 66
     1
 10
0.0
 20
0.0
 30
0.0
  0
VERTEX
  5
3EDB
330
3EDA
100
AcDbEntity
  8
0
 62
     7
100
AcDbVertex
100
AcDb2dVertex
 10
212.5165716699611
 20
768.9981771160838
 30
0.0
  0
VERTEX
  5
3EDC
330
3EDA
100
AcDbEntity
  8
0
 62
     7
100
AcDbVertex
100
AcDb2dVertex
 10
212.5165716699611
 20
883.9982204901117
 30
0.0
  0
SEQEND
  5
3EDD
330
3EDA
100
AcDbEntity
  8
0
  0
POLYLINE
  5
3EDE
330
3E88
100
AcDbEntity
  8
0
 62
     7
100
AcDb2dPolyline
 66
     1
 10
0.0
 20
0.0
 30
0.0
  0
VERTEX
  5
3EDF
330
3EDE
100
AcDbEntity
  8
0
 62
     7
100
AcDbVertex
100
AcDb2dVertex
 10
232.5587591649506
 20
768.9981771160838
 30
0.0
  0
VERTEX
  5
3EE0
330
3EDE
100
AcDbEntity
  8
0
 62
     7
100
AcDbVertex
100
AcDb2dVertex
 10
232.5587591649506
 20
883.9982204901117
 30
0.0
  0
SEQEND
  5
3EE1
330
3EDE
100
AcDbEntity
  8
0
  0
POLYLINE
  5
3EE2
330
3E88
100
AcDbEntity
  8
0
 62
     7
100
AcDb2dPolyline
 66
     1
 10
0.0
 20
0.0
 30
0.0
  0
VERTEX
  5
3EE3
330
3EE2
100
AcDbEntity
  8
0
 62
     7
100
AcDbVertex
100
AcDb2dVertex
 10
252.518264368294
 20
768.9981771160838
 30
0.0
  0
VERTEX
  5
3EE4
330
3EE2
100
AcDbEntity
  8
0
 62
     7
100
AcDbVertex
100
AcDb2dVertex
 10
252.518264368294
 20
883.9982204901117
 30
0.0
  0
SEQEND
  5
3EE5
330
3EE2
100
AcDbEntity
  8
0
  0
POLYLINE
  5
3EE6
330
3E88
100
AcDbEntity
  8
0
 62
     7
100
AcDb2dPolyline
 66
     1
 10
0.0
 20
0.0
 30
0.0
  0
VERTEX
  5
3EE7
330
3EE6
100
AcDbEntity
  8
0
 62
     7
100
AcDbVertex
100
AcDb2dVertex
 10
272.5222113033972
 20
768.9981771160838
 30
0.0
  0
VERTEX
  5
3EE8
330
3EE6
100
AcDbEntity
  8
0
 62
     7
100
AcDbVertex
100
AcDb2dVertex
 10
272.5222113033972
 20
883.9982204901117
 30
0.0
  0
SEQEND
  5
3EE9
330
3EE6
100
AcDbEntity
  8
0
  0
POLYLINE
  5
3EEA
330
3E88
100
AcDbEntity
  8
0
 62
     7
100
AcDb2dPolyline
 66
     1
 10
0.0
 20
0.0
 30
0.0
  0
VERTEX
  5
3EEB
330
3EEA
100
AcDbEntity
  8
0
 62
     7
100
AcDbVertex
100
AcDb2dVertex
 10
292.5258137289519
 20
768.9981771160838
 30
0.0
  0
VERTEX
  5
3EEC
330
3EEA
100
AcDbEntity
  8
0
 62
     7
100
AcDbVertex
100
AcDb2dVertex
 10
292.5258137289519
 20
883.9982204901117
 30
0.0
  0
SEQEND
  5
3EED
330
3EEA
100
AcDbEntity
  8
0
  0
POLYLINE
  5
3EEE
330
3E88
100
AcDbEntity
  8
0
 62
     7
100
AcDb2dPolyline
 66
     1
 10
0.0
 20
0.0
 30
0.0
  0
VERTEX
  5
3EEF
330
3EEE
100
AcDbEntity
  8
0
 62
     7
100
AcDbVertex
100
AcDb2dVertex
 10
312.5239040017302
 20
768.9981771160838
 30
0.0
  0
VERTEX
  5
3EF0
330
3EEE
100
AcDbEntity
  8
0
 62
     7
100
AcDbVertex
100
AcDb2dVertex
 10
312.5239040017302
 20
883.9982204901117
 30
0.0
  0
SEQEND
  5
3EF1
330
3EEE
100
AcDbEntity
  8
0
  0
POLYLINE
  5
3EF2
330
3E88
100
AcDbEntity
  8
0
 62
     7
100
AcDb2dPolyline
 66
     1
 10
0.0
 20
0.0
 30
0.0
  0
VERTEX
  5
3EF3
330
3EF2
100
AcDbEntity
  8
0
 62
     7
100
AcDbVertex
100
AcDb2dVertex
 10
332.5219942745084
 20
768.9981771160838
 30
0.0
  0
VERTEX
  5
3EF4
330
3EF2
100
AcDbEntity
  8
0
 62
     7
100
AcDbVertex
100
AcDb2dVertex
 10
332.5219942745084
 20
883.9982204901117
 30
0.0
  0
SEQEND
  5
3EF5
330
3EF2
100
AcDbEntity
  8
0
  0
POLYLINE
  5
3EF6
330
3E88
100
AcDbEntity
  8
0
 62
     7
100
AcDb2dPolyline
 66
     1
 10
0.0
 20
0.0
 30
0.0
  0
VERTEX
  5
3EF7
330
3EF6
100
AcDbEntity
  8
0
 62
     7
100
AcDbVertex
100
AcDb2dVertex
 10
352.5200845472867
 20
768.9981771160838
 30
0.0
  0
VERTEX
  5
3EF8
330
3EF6
100
AcDbEntity
  8
0
 62
     7
100
AcDbVertex
100
AcDb2dVertex
 10
352.5200845472867
 20
883.9982204901117
 30
0.0
  0
SEQEND
  5
3EF9
330
3EF6
100
AcDbEntity
  8
0
  0
ENDBLK
  5
3EFA
330
3E88
100
AcDbEntity
  8
0
100
AcDbBlockEnd
  0
BLOCK
  5
3EFD
330
3EFC
100
AcDbEntity
  8
0
100
AcDbBlockBegin
  2
812343d
 70
     0
 10
0.0
 20
0.0
 30
0.0
  3
812343d
  1

  0
SPLINE
  5
3EFE
330
3EFC
100
AcDbEntity
  8
0
 62
     7
100
AcDbSpline
210
0.0
220
0.0
230
1.0
 70
     8
 71
     3
 72
     8
 73
     4
 74
     0
 42
0.000000001
 43
0.0000000001
 40
0.0
 40
0.0
 40
0.0
 40
0.0
 40
1.0
 40
1.0
 40
1.0
 40
1.0
 10
165.548206881356
 20
-37.35241427017576
 30
0.0
 10
132.9600151577322
 20
-37.18687743210955
 30
0.0
 10
83.71134166744022
 20
-36.79551458498508
 30
0.0
 10
51.12314994381643
 20
-36.79000243220873
 30
0.0
  0
SPLINE
  5
3EFF
330
3EFC
100
AcDbEntity
  8
0
 62
     7
100
AcDbSpline
210
0.0
220
0.0
230
1.0
 70
    11
 71
     3
 72
    29
 73
    25
 74
     0
 42
0.000000001
 43
0.0000000001
 40
0.0
 40
0.0
 40
0.0
 40
0.0
 40
1.0
 40
1.0
 40
1.0
 40
2.0
 40
2.0
 40
2.0
 40
3.0
 40
3.0
 40
3.0
 40
4.0
 40
4.0
 40
4.0
 40
5.0
 40
5.0
 40
5.0
 40
6.0
 40
6.0
 40
6.0
 40
7.0
 40
7.0
 40
7.0
 40
8.0
 40
8.0
 40
8.0
 40
8.0
 10
-205.0000623402431
 20
-178.9990654391912
 30
0.0
 10
-205.0000623402431
 20
-178.9990654391912
 30
0.0
 10
-205.0000623402431
 20
-20.0020521325863
 30
0.0
 10
-205.0000623402431
 20
-19.99653997980988
 30
0.0
 10
-205.0000623402431
 20
-8.953458656615794
 30
0.0
 10
-196.0412637856251
 20
0.0
 30
0.0
 10
-184.9985269719796
 20
0.0
 30
0.0
 10
-184.9985269719796
 20
0.0
 30
0.0
 10
185.0036946152074
 20
0.0
 30
0.0
 10
185.0036946152074
 20
0.0
 30
0.0
 10
196.0521158364036
 20
0.0
 30
0.0
 10
205.0055744930194
 20
-8.953458656615794
 30
0.0
 10
205.000062340243
 20
-20.0020521325863
 30
0.0
 10
205.000062340243
 20
-20.0020521325863
 30
0.0
 10
205.000062340243
 20
-178.9990654391912
 30
0.0
 10
205.000062340243
 20
-178.9990654391912
 30
0.0
 10
205.000062340243
 20
-178.9990654391912
 30
0.0
 10
205.000062340243
 20
-179.0045775919676
 30
0.0
 10
205.000062340243
 20
-179.0045775919676
 30
0.0
 10
205.000062340243
 20
-281.7278509495333
 30
0.0
 10
113.2175509699595
 20
-364.9999429426042
 30
0.0
 10
-0.0000000000000142
 20
-364.9999429426042
 30
0.0
 10
-113.2175509699595
 20
-364.9999429426042
 30
0.0
 10
-205.0000623402431
 20
-281.7223387967569
 30
0.0
 10
-205.0000623402431
 20
-178.9990654391912
 30
0.0
  0
SPLINE
  5
3F00
330
3EFC
100
AcDbEntity
  8
0
 62
     7
100
AcDbSpline
210
0.0
220
0.0
230
1.0
 70
    11
 71
     3
 72
    56
 73
    52
 74
     0
 42
0.000000001
 43
0.0000000001
 40
0.0
 40
0.0
 40
0.0
 40
0.0
 40
1.0
 40
1.0
 40
1.0
 40
2.0
 40
2.0
 40
2.0
 40
3.0
 40
3.0
 40
3.0
 40
4.0
 40
4.0
 40
4.0
 40
5.0
 40
5.0
 40
5.0
 40
6.0
 40
6.0
 40
6.0
 40
7.0
 40
7.0
 40
7.0
 40
8.0
 40
8.0
 40
8.0
 40
9.0
 40
9.0
 40
9.0
 40
10.0
 40
10.0
 40
10.0
 40
11.0
 40
11.0
 40
11.0
 40
12.0
 40
12.0
 40
12.0
 40
13.0
 40
13.0
 40
13.0
 40
14.0
 40
14.0
 40
14.0
 40
15.0
 40
15.0
 40
15.0
 40
16.0
 40
16.0
 40
16.0
 40
17.0
 40
17.0
 40
17.0
 40
17.0
 10
-185.9245686384147
 20
-4.465705022755059
 30
0.0
 10
-193.9628376793739
 20
-4.43814425887308
 30
0.0
 10
-200.5067965536059
 20
-10.93835042044253
 30
0.0
 10
-200.5288451647116
 20
-18.97661946140175
 30
0.0
 10
-200.5288451647116
 20
-19.00969237806009
 30
0.0
 10
-200.5288451647116
 20
-19.04276529471855
 30
0.0
 10
-200.5288451647116
 20
-19.07032605860053
 30
0.0
 10
-200.5288451647116
 20
-19.07032605860053
 30
0.0
 10
-200.5178208591588
 20
-19.0482774474948
 30
0.0
 10
-200.5178208591588
 20
-19.0482774474948
 30
0.0
 10
-200.5178208591588
 20
-19.0482774474948
 30
0.0
 10
-200.5178208591588
 20
-178.9990654391912
 30
0.0
 10
-200.5178208591588
 20
-178.9990654391912
 30
0.0
 10
-200.5178208591588
 20
-178.9990654391912
 30
0.0
 10
-200.5508937758172
 20
-178.9659925225328
 30
0.0
 10
-200.5508937758172
 20
-178.9659925225328
 30
0.0
 10
-200.0988972481524
 20
-208.3903808072774
 30
0.0
 10
-192.6340643507129
 20
-236.4858235085869
 30
0.0
 10
-178.2228854263644
 20
-262.1776230898376
 30
0.0
 10
-150.4862494198438
 20
-311.6316242710504
 30
0.0
 10
-97.95715600849684
 20
-346.1611273006125
 30
0.0
 10
-42.61100801886115
 20
-356.371701299796
 30
0.0
 10
14.36708170213737
 20
-366.879931548905
 30
0.0
 10
73.06530759892112
 20
-356.0354599804356
 30
0.0
 10
121.305257131132
 20
-323.5292615293607
 30
0.0
 10
169.4955972883553
 20
-291.0561359949443
 30
0.0
 10
199.6081433962785
 20
-237.0976724667672
 30
0.0
 10
200.5617458265956
 20
-178.9659925225328
 30
0.0
 10
200.5617458265956
 20
-178.9659925225328
 30
0.0
 10
200.5286729099372
 20
-178.9990654391912
 30
0.0
 10
200.5286729099372
 20
-178.9990654391912
 30
0.0
 10
200.5286729099372
 20
-178.9990654391912
 30
0.0
 10
200.5286729099372
 20
-19.0482774474948
 30
0.0
 10
200.5286729099372
 20
-19.0482774474948
 30
0.0
 10
200.5286729099372
 20
-19.0482774474948
 30
0.0
 10
200.5341850627137
 20
-19.07032605860053
 30
0.0
 10
200.5341850627137
 20
-19.07032605860053
 30
0.0
 10
200.5617458265956
 20
-11.03756917041761
 30
0.0
 10
194.0673963273512
 20
-4.493265786637152
 30
0.0
 10
186.0292995411663
 20
-4.465705022755059
 30
0.0
 10
185.9962266245079
 20
-4.465705022755059
 30
0.0
 10
185.9631537078495
 20
-4.465705022755059
 30
0.0
 10
185.9300807911911
 20
-4.465705022755059
 30
0.0
 10
185.9300807911911
 20
-4.465705022755059
 30
0.0
 10
185.9576415550731
 20
-4.476729328307897
 30
0.0
 10
185.9576415550731
 20
-4.476729328307897
 30
0.0
 10
185.9576415550731
 20
-4.476729328307897
 30
0.0
 10
-185.9521294022967
 20
-4.476729328307897
 30
0.0
 10
-185.9521294022967
 20
-4.476729328307897
 30
0.0
 10
-185.9521294022967
 20
-4.476729328307897
 30
0.0
 10
-185.9245686384147
 20
-4.465705022755059
 30
0.0
 10
-185.9245686384147
 20
-4.465705022755059
 30
0.0
  0
SPLINE
  5
3F01
330
3EFC
100
AcDbEntity
  8
0
 62
     7
100
AcDbSpline
210
0.0
220
0.0
230
1.0
 70
    11
 71
     3
 72
    17
 73
    13
 74
     0
 42
0.000000001
 43
0.0000000001
 40
0.0
 40
0.0
 40
0.0
 40
0.0
 40
1.0
 40
1.0
 40
1.0
 40
2.0
 40
2.0
 40
2.0
 40
3.0
 40
3.0
 40
3.0
 40
4.0
 40
4.0
 40
4.0
 40
4.0
 10
-23.00083549772203
 20
-80.4881103314404
 30
0.0
 10
-23.00083549772203
 20
-67.76899005467232
 30
0.0
 10
-12.70775146166683
 20
-57.47022161106645
 30
0.0
 10
-0.0000000000000142
 20
-57.47022161106645
 30
0.0
 10
12.70775146166679
 20
-57.47022161106645
 30
0.0
 10
23.00617539572414
 20
-67.76899005467232
 30
0.0
 10
23.00617539572414
 20
-80.4881103314404
 30
0.0
 10
23.00617539572414
 20
-93.18518199710302
 30
0.0
 10
12.70775146166679
 20
-103.4949747462617
 30
0.0
 10
-0.0000000000000142
 20
-103.4949747462617
 30
0.0
 10
-12.70775146166683
 20
-103.4949747462617
 30
0.0
 10
-23.00083549772203
 20
-93.18518199710302
 30
0.0
 10
-23.00083549772203
 20
-80.4881103314404
 30
0.0
  0
SPLINE
  5
3F02
330
3EFC
100
AcDbEntity
  8
0
 62
     7
100
AcDbSpline
210
0.0
220
0.0
230
1.0
 70
    11
 71
     3
 72
    17
 73
    13
 74
     0
 42
0.000000001
 43
0.0000000001
 40
0.0
 40
0.0
 40
0.0
 40
0.0
 40
1.0
 40
1.0
 40
1.0
 40
2.0
 40
2.0
 40
2.0
 40
3.0
 40
3.0
 40
3.0
 40
4.0
 40
4.0
 40
4.0
 40
4.0
 10
-37.46179605183249
 20
-80.4881103314404
 30
0.0
 10
-37.46179605183249
 20
-59.78584254147711
 30
0.0
 10
-20.68521456731136
 20
-43.01442870018393
 30
0.0
 10
-0.0000000000000142
 20
-43.01442870018393
 30
0.0
 10
20.69072672008771
 20
-43.01442870018393
 30
0.0
 10
37.46162379705821
 20
-59.78584254147711
 30
0.0
 10
37.46162379705821
 20
-80.4881103314404
 30
0.0
 10
37.46162379705821
 20
-101.179353815851
 30
0.0
 10
20.69072672008771
 20
-117.9507676571442
 30
0.0
 10
-0.0000000000000142
 20
-117.9507676571442
 30
0.0
 10
-20.68521456731136
 20
-117.9507676571442
 30
0.0
 10
-37.46179605183249
 20
-101.179353815851
 30
0.0
 10
-37.46179605183249
 20
-80.4881103314404
 30
0.0
  0
POLYLINE
  5
3F03
330
3EFC
100
AcDbEntity
  8
0
 62
     7
100
AcDb2dPolyline
 66
     1
 10
0.0
 20
0.0
 30
0.0
  0
VERTEX
  5
3F04
330
3F03
100
AcDbEntity
  8
0
 62
     7
100
AcDbVertex
100
AcDb2dVertex
 10
-0.0000000000000142
 20
-24.28034396094381
 30
0.0
  0
VERTEX
  5
3F05
330
3F03
100
AcDbEntity
  8
0
 62
     7
100
AcDbVertex
100
AcDb2dVertex
 10
-0.0000000000000142
 20
-136.6848523963843
 30
0.0
  0
SEQEND
  5
3F06
330
3F03
100
AcDbEntity
  8
0
  0
POLYLINE
  5
3F07
330
3EFC
100
AcDbEntity
  8
0
 62
     7
100
AcDb2dPolyline
 66
     1
 10
0.0
 20
0.0
 30
0.0
  0
VERTEX
  5
3F08
330
3F07
100
AcDbEntity
  8
0
 62
     7
100
AcDbVertex
100
AcDb2dVertex
 10
-56.20087617952619
 20
-80.4881103314404
 30
0.0
  0
VERTEX
  5
3F09
330
3F07
100
AcDbEntity
  8
0
 62
     7
100
AcDbVertex
100
AcDb2dVertex
 10
56.19519177197547
 20
-80.4881103314404
 30
0.0
  0
SEQEND
  5
3F0A
330
3F07
100
AcDbEntity
  8
0
  0
SPLINE
  5
3F0B
330
3EFC
100
AcDbEntity
  8
0
 62
     7
100
AcDbSpline
210
0.0
220
0.0
230
1.0
 70
    11
 71
     3
 72
    26
 73
    22
 74
     0
 42
0.000000001
 43
0.0000000001
 40
0.0
 40
0.0
 40
0.0
 40
0.0
 40
1.0
 40
1.0
 40
1.0
 40
2.0
 40
2.0
 40
2.0
 40
3.0
 40
3.0
 40
3.0
 40
4.0
 40
4.0
 40
4.0
 40
5.0
 40
5.0
 40
5.0
 40
6.0
 40
6.0
 40
6.0
 40
7.0
 40
7.0
 40
7.0
 40
7.0
 10
-51.12332219859071
 20
-36.79000243220873
 30
0.0
 10
-52.23143716142132
 20
-36.79000243220873
 30
0.0
 10
-53.12457816597235
 20
-37.68314343675979
 30
0.0
 10
-53.12457816597235
 20
-38.79125839959039
 30
0.0
 10
-53.12457816597235
 20
-38.79125839959039
 30
0.0
 10
-53.12457816597235
 20
-80.71410859527293
 30
0.0
 10
-53.12457816597235
 20
-80.71410859527293
 30
0.0
 10
-53.12457816597235
 20
-110.0558145883714
 30
0.0
 10
-29.34084471922731
 20
-133.8454046974414
 30
0.0
 10
-0.0000000000000142
 20
-133.8454046974414
 30
0.0
 10
29.34084471922728
 20
-133.8454046974414
 30
0.0
 10
53.11889375842167
 20
-110.0558145883714
 30
0.0
 10
53.11889375842167
 20
-80.71410859527293
 30
0.0
 10
53.11889375842167
 20
-80.71410859527293
 30
0.0
 10
53.11889375842167
 20
-38.79125839959039
 30
0.0
 10
53.11889375842167
 20
-38.79125839959039
 30
0.0
 10
53.11889375842167
 20
-37.68314343675979
 30
0.0
 10
52.23126490664703
 20
-36.79000243220873
 30
0.0
 10
51.12314994381643
 20
-36.79000243220873
 30
0.0
 10
51.12314994381643
 20
-36.79000243220873
 30
0.0
 10
-51.12332219859071
 20
-36.79000243220873
 30
0.0
 10
-51.12332219859071
 20
-36.79000243220873
 30
0.0
  0
SPLINE
  5
3F0C
330
3EFC
100
AcDbEntity
  8
0
 62
     7
100
AcDbSpline
210
0.0
220
0.0
230
1.0
 70
     8
 71
     3
 72
     8
 73
     4
 74
     0
 42
0.000000001
 43
0.0000000001
 40
0.0
 40
0.0
 40
0.0
 40
0.0
 40
1.0
 40
1.0
 40
1.0
 40
1.0
 10
-51.12332219859071
 20
-36.79000243220873
 30
0.0
 10
-83.71134166744027
 20
-36.79000243220873
 30
0.0
 10
-167.9298013903093
 20
-37.18687743210955
 30
0.0
 10
-200.5178208591588
 20
-37.35241427017576
 30
0.0
  0
SPLINE
  5
3F0D
330
3EFC
100
AcDbEntity
  8
0
 62
     7
100
AcDbSpline
210
0.0
220
0.0
230
1.0
 70
     8
 71
     3
 72
     8
 73
     4
 74
     0
 42
0.000000001
 43
0.0000000001
 40
0.0
 40
0.0
 40
0.0
 40
0.0
 40
1.0
 40
1.0
 40
1.0
 40
1.0
 10
200.5286729099372
 20
-37.35241427017576
 30
0.0
 10
167.9353135430856
 20
-37.18687743210955
 30
0.0
 10
83.71134166744022
 20
-36.79551458498508
 30
0.0
 10
51.12314994381643
 20
-36.79000243220873
 30
0.0
  0
ENDBLK
  5
3F0E
330
3EFC
100
AcDbEntity
  8
0
100
AcDbBlockEnd
  0
BLOCK
  5
424E
330
424D
100
AcDbEntity
  8
0
100
AcDbBlockBegin
  2
*D6
 70
     1
 10
0.0
 20
0.0
 30
0.0
  3
*D6
  1

  0
LINE
  5
4250
330
424D
100
AcDbEntity
  8
0
 62
     0
370
    -2
100
AcDbLine
 10
667.3291391476816
 20
1773.435573363854
 30
0.0
 11
845.7776697057253
 21
1773.435573363854
 31
0.0
  0
LINE
  5
4251
330
424D
100
AcDbEntity
  8
0
 62
     0
370
    -2
100
AcDbLine
 10
492.2814834225713
 20
1408.455304061115
 30
0.0
 11
845.7776697057253
 21
1408.455304061115
 31
0.0
  0
LINE
  5
4252
330
424D
100
AcDbEntity
  8
0
 62
     0
370
    -2
100
AcDbLine
 10
845.7776697057253
 20
1765.435573363854
 30
0.0
 11
845.7776697057253
 21
1416.455304061115
 31
0.0
  0
INSERT
  5
4253
330
424D
100
AcDbEntity
  8
0
 62
     0
370
    -2
100
AcDbBlockReference
  2
_DOT
 10
845.7776697057253
 20
1773.435573363854
 30
0.0
 41
8.0
 42
8.0
 43
8.0
 50
90.0
  0
INSERT
  5
4254
330
424D
100
AcDbEntity
  8
0
 62
     0
370
    -2
100
AcDbBlockReference
  2
_DOT
 10
845.7776697057253
 20
1408.455304061115
 30
0.0
 41
8.0
 42
8.0
 43
8.0
 50
270.0
  0
MTEXT
  5
4255
330
424D
100
AcDbEntity
  8
0
 62
     0
100
AcDbMText
 10
819.7776697057253
 20
1590.945438712484
 30
0.0
 40
20.0
 41
0.0
 46
0.0
 71
     5
 72
     1
  1
\A1;365
  7
ＭＳ ゴシック
 11
0.0
 21
1.0
 31
0.0
 73
     1
 44
1.0
  0
POINT
  5
4256
330
424D
100
AcDbEntity
  8
Defpoints
 62
     0
100
AcDbPoint
 10
662.3291391476816
 20
1773.435573363854
 30
0.0
  0
POINT
  5
4257
330
424D
100
AcDbEntity
  8
Defpoints
 62
     0
100
AcDbPoint
 10
487.2814834225713
 20
1408.455304061115
 30
0.0
  0
POINT
  5
4258
330
424D
100
AcDbEntity
  8
Defpoints
 62
     0
100
AcDbPoint
 10
845.7776697057253
 20
1408.455304061115
 30
0.0
  0
ENDBLK
  5
424F
330
424D
100
AcDbEntity
  8
0
100
AcDbBlockEnd
  0
BLOCK
  5
4264
330
4263
100
AcDbEntity
  8
0
100
AcDbBlockBegin
  2
*D7
 70
     1
 10
0.0
 20
0.0
 30
0.0
  3
*D7
  1

  0
LINE
  5
4266
330
4263
100
AcDbEntity
  8
0
 62
     0
370
    -2
100
AcDbLine
 10
1411.128826870966
 20
840.8756440791249
 30
0.0
 11
1411.128826870966
 21
775.4090365425991
 31
0.0
  0
LINE
  5
4267
330
4263
100
AcDbEntity
  8
0
 62
     0
370
    -2
100
AcDbLine
 10
1491.128826870966
 20
840.8756440791249
 30
0.0
 11
1491.128826870966
 21
775.4090365425991
 31
0.0
  0
LINE
  5
4268
330
4263
100
AcDbEntity
  8
0
 62
     0
370
    -2
100
AcDbLine
 10
1419.128826870966
 20
775.4090365425991
 30
0.0
 11
1483.128826870966
 21
775.4090365425991
 31
0.0
  0
INSERT
  5
4269
330
4263
100
AcDbEntity
  8
0
 62
     0
370
    -2
100
AcDbBlockReference
  2
_DOT
 10
1411.128826870966
 20
775.4090365425991
 30
0.0
 41
8.0
 42
8.0
 43
8.0
 50
180.0
  0
INSERT
  5
426A
330
4263
100
AcDbEntity
  8
0
 62
     0
370
    -2
100
AcDbBlockReference
  2
_DOT
 10
1491.128826870966
 20
775.4090365425991
 30
0.0
 41
8.0
 42
8.0
 43
8.0
  0
MTEXT
  5
426B
330
4263
100
AcDbEntity
  8
0
 62
     0
100
AcDbMText
 10
1451.128826870966
 20
801.4090365425991
 30
0.0
 40
20.0
 41
0.0
 46
0.0
 71
     5
 72
     1
  1
\A1;80
  7
ＭＳ ゴシック
 73
     1
 44
1.0
  0
POINT
  5
426C
330
4263
100
AcDbEntity
  8
Defpoints
 62
     0
100
AcDbPoint
 10
1411.128826870966
 20
845.8756440791249
 30
0.0
  0
POINT
  5
426D
330
4263
100
AcDbEntity
  8
Defpoints
 62
     0
100
AcDbPoint
 10
1491.128826870966
 20
845.8756440791249
 30
0.0
  0
POINT
  5
426E
330
4263
100
AcDbEntity
  8
Defpoints
 62
     0
100
AcDbPoint
 10
1491.128826870966
 20
775.4090365425991
 30
0.0
  0
ENDBLK
  5
4265
330
4263
100
AcDbEntity
  8
0
100
AcDbBlockEnd
  0
BLOCK
  5
4275
330
4274
100
AcDbEntity
  8
0
100
AcDbBlockBegin
  2
*D8
 70
     1
 10
0.0
 20
0.0
 30
0.0
  3
*D8
  1

  0
LINE
  5
4277
330
4274
100
AcDbEntity
  8
DIM
 62
     0
370
    -2
100
AcDbLine
 10
1411.128826870966
 20
830.8765989427357
 30
0.0
 11
1411.128826870966
 21
775.4090365425991
 31
0.0
  0
LINE
  5
4278
330
4274
100
AcDbEntity
  8
DIM
 62
     0
370
    -2
100
AcDbLine
 10
1491.128826870966
 20
849.5043187705771
 30
0.0
 11
1491.128826870966
 21
775.4090365425991
 31
0.0
  0
LINE
  5
4279
330
4274
100
AcDbEntity
  8
DIM
 62
     0
370
    -2
100
AcDbLine
 10
1419.128826870966
 20
775.4090365425991
 30
0.0
 11
1483.128826870966
 21
775.4090365425991
 31
0.0
  0
INSERT
  5
427A
330
4274
100
AcDbEntity
  8
DIM
 62
     0
370
    -2
100
AcDbBlockReference
  2
_DOT
 10
1411.128826870966
 20
775.4090365425991
 30
0.0
 41
8.0
 42
8.0
 43
8.0
 50
180.0
  0
INSERT
  5
427B
330
4274
100
AcDbEntity
  8
DIM
 62
     0
370
    -2
100
AcDbBlockReference
  2
_DOT
 10
1491.128826870966
 20
775.4090365425991
 30
0.0
 41
8.0
 42
8.0
 43
8.0
  0
MTEXT
  5
427C
330
4274
100
AcDbEntity
  8
DIM
 62
     0
100
AcDbMText
 10
1451.128826870966
 20
793.4090365425991
 30
0.0
 40
20.0
 41
0.0
 46
0.0
 71
     5
 72
     1
  1
\A1;80
  7
ＭＳ ゴシック
 73
     1
 44
1.0
  0
POINT
  5
427D
330
4274
100
AcDbEntity
  8
Defpoints
 62
     0
100
AcDbPoint
 10
1411.128826870966
 20
835.8765989427357
 30
0.0
  0
POINT
  5
427E
330
4274
100
AcDbEntity
  8
Defpoints
 62
     0
100
AcDbPoint
 10
1491.128826870966
 20
854.5043187705771
 30
0.0
  0
POINT
  5
427F
330
4274
100
AcDbEntity
  8
Defpoints
 62
     0
100
AcDbPoint
 10
1491.128826870966
 20
775.4090365425991
 30
0.0
  0
ENDBLK
  5
4276
330
4274
100
AcDbEntity
  8
0
100
AcDbBlockEnd
  0
BLOCK
  5
428F
330
428E
100
AcDbEntity
  8
0
100
AcDbBlockBegin
  2
*D9
 70
     1
 10
0.0
 20
0.0
 30
0.0
  3
*D9
  1

  0
LINE
  5
4291
330
428E
100
AcDbEntity
  8
DIM
 62
     0
370
    -2
100
AcDbLine
 10
1102.068851848689
 20
987.8742117519585
 30
0.0
 11
1039.343516440965
 21
987.8742117519585
 31
0.0
  0
LINE
  5
4292
330
428E
100
AcDbEntity
  8
DIM
 62
     0
370
    -2
100
AcDbLine
 10
1113.933144182873
 20
857.8700885205703
 30
0.0
 11
1039.343516440965
 21
857.8700885205703
 31
0.0
  0
LINE
  5
4293
330
428E
100
AcDbEntity
  8
DIM
 62
     0
370
    -2
100
AcDbLine
 10
1039.343516440965
 20
979.8742117519585
 30
0.0
 11
1039.343516440965
 21
865.8700885205703
 31
0.0
  0
INSERT
  5
4294
330
428E
100
AcDbEntity
  8
DIM
 62
     0
370
    -2
100
AcDbBlockReference
  2
_DOT
 10
1039.343516440965
 20
987.8742117519585
 30
0.0
 41
8.0
 42
8.0
 43
8.0
 50
90.0
  0
INSERT
  5
4295
330
428E
100
AcDbEntity
  8
DIM
 62
     0
370
    -2
100
AcDbBlockReference
  2
_DOT
 10
1039.343516440965
 20
857.8700885205703
 30
0.0
 41
8.0
 42
8.0
 43
8.0
 50
270.0
  0
MTEXT
  5
4296
330
428E
100
AcDbEntity
  8
DIM
 62
     0
100
AcDbMText
 10
1021.343516440965
 20
922.8721501362644
 30
0.0
 40
20.0
 41
0.0
 46
0.0
 71
     5
 72
     1
  1
\A1;130
  7
ＭＳ ゴシック
 11
0.0
 21
1.0
 31
0.0
 73
     1
 44
1.0
  0
POINT
  5
4297
330
428E
100
AcDbEntity
  8
Defpoints
 62
     0
100
AcDbPoint
 10
1107.068851848689
 20
987.8742117519585
 30
0.0
  0
POINT
  5
4298
330
428E
100
AcDbEntity
  8
Defpoints
 62
     0
100
AcDbPoint
 10
1118.933144182873
 20
857.8700885205703
 30
0.0
  0
POINT
  5
4299
330
428E
100
AcDbEntity
  8
Defpoints
 62
     0
100
AcDbPoint
 10
1039.343516440965
 20
857.8700885205703
 30
0.0
  0
ENDBLK
  5
4290
330
428E
100
AcDbEntity
  8
0
100
AcDbBlockEnd
  0
BLOCK
  5
429C
330
429B
100
AcDbEntity
  8
0
100
AcDbBlockBegin
  2
*D10
 70
     1
 10
0.0
 20
0.0
 30
0.0
  3
*D10
  1

  0
LINE
  5
429E
330
429B
100
AcDbEntity
  8
DIM
 62
     0
370
    -2
100
AcDbLine
 10
1462.941077013811
 20
987.8742117519585
 30
0.0
 11
1467.941077013811
 21
987.8742117519585
 31
0.0
  0
LINE
  5
429F
330
429B
100
AcDbEntity
  8
DIM
 62
     0
370
    -2
100
AcDbLine
 10
1462.941077013811
 20
867.8742117519585
 30
0.0
 11
1467.941077013811
 21
867.8742117519585
 31
0.0
  0
LINE
  5
42A0
330
429B
100
AcDbEntity
  8
DIM
 62
     0
370
    -2
100
AcDbLine
 10
1467.941077013811
 20
987.8742117519585
 30
0.0
 11
1467.941077013811
 21
1128.234211751959
 31
0.0
  0
LINE
  5
42A1
330
429B
100
AcDbEntity
  8
DIM
 62
     0
370
    -2
100
AcDbLine
 10
1467.941077013811
 20
979.8742117519585
 30
0.0
 11
1467.941077013811
 21
875.8742117519585
 31
0.0
  0
LINE
  5
42A2
330
429B
100
AcDbEntity
  8
DIM
 62
     0
370
    -2
100
AcDbLine
 10
1467.941077013811
 20
979.8742117519585
 30
0.0
 11
1467.941077013811
 21
971.8742117519585
 31
0.0
  0
INSERT
  5
42A3
330
429B
100
AcDbEntity
  8
DIM
 62
     0
370
    -2
100
AcDbBlockReference
  2
_DOT
 10
1467.941077013811
 20
987.8742117519585
 30
0.0
 41
8.0
 42
8.0
 43
8.0
 50
90.0
  0
INSERT
  5
42A4
330
429B
100
AcDbEntity
  8
DIM
 62
     0
370
    -2
100
AcDbBlockReference
  2
_DOT
 10
1467.941077013811
 20
867.8742117519585
 30
0.0
 41
8.0
 42
8.0
 43
8.0
 50
270.0
  0
MTEXT
  5
42A5
330
429B
100
AcDbEntity
  8
DIM
 62
     0
100
AcDbMText
 10
1448.171077013811
 20
1066.054211751959
 30
0.0
 40
20.0
 41
0.0
 46
0.0
 71
     5
 72
     1
  1
\A1;120(深さ)
  7
ＭＳ ゴシック
 11
0.0
 21
1.0
 31
0.0
 73
     1
 44
1.0
  0
POINT
  5
42A6
330
429B
100
AcDbEntity
  8
Defpoints
 62
     0
100
AcDbPoint
 10
1467.941077013811
 20
987.8742117519585
 30
0.0
  0
POINT
  5
42A7
330
429B
100
AcDbEntity
  8
Defpoints
 62
     0
100
AcDbPoint
 10
1467.941077013811
 20
867.8742117519585
 30
0.0
  0
POINT
  5
42A8
330
429B
100
AcDbEntity
  8
Defpoints
 62
     0
100
AcDbPoint
 10
1467.941077013811
 20
867.8742117519585
 30
0.0
  0
ENDBLK
  5
429D
330
429B
100
AcDbEntity
  8
0
100
AcDbBlockEnd
  0
BLOCK
  5
42B1
330
42B0
100
AcDbEntity
  8
0
100
AcDbBlockBegin
  2
*D11
 70
     1
 10
0.0
 20
0.0
 30
0.0
  3
*D11
  1

  0
LINE
  5
42B3
330
42B0
100
AcDbEntity
  8
DIM
 62
     0
370
    -2
100
AcDbLine
 10
669.7475304655843
 20
987.8742117519587
 30
0.0
 11
733.1649495927769
 21
987.8742117519587
 31
0.0
  0
LINE
  5
42B4
330
42B0
100
AcDbEntity
  8
DIM
 62
     0
370
    -2
100
AcDbLine
 10
524.607687577236
 20
847.8742117519586
 30
0.0
 11
733.1649495927769
 21
847.8742117519586
 31
0.0
  0
LINE
  5
42B5
330
42B0
100
AcDbEntity
  8
DIM
 62
     0
370
    -2
100
AcDbLine
 10
733.1649495927769
 20
979.8742117519587
 30
0.0
 11
733.1649495927769
 21
855.8742117519586
 31
0.0
  0
INSERT
  5
42B6
330
42B0
100
AcDbEntity
  8
DIM
 62
     0
370
    -2
100
AcDbBlockReference
  2
_DOT
 10
733.1649495927769
 20
987.8742117519587
 30
0.0
 41
8.0
 42
8.0
 43
8.0
 50
90.0
  0
INSERT
  5
42B7
330
42B0
100
AcDbEntity
  8
DIM
 62
     0
370
    -2
100
AcDbBlockReference
  2
_DOT
 10
733.1649495927769
 20
847.8742117519586
 30
0.0
 41
8.0
 42
8.0
 43
8.0
 50
270.0
  0
MTEXT
  5
42B8
330
42B0
100
AcDbEntity
  8
DIM
 62
     0
100
AcDbMText
 10
715.1649495927769
 20
917.8742117519587
 30
0.0
 40
20.0
 41
0.0
 46
0.0
 71
     5
 72
     1
  1
\A1;140
  7
ＭＳ ゴシック
 11
0.0
 21
1.0
 31
0.0
 73
     1
 44
1.0
  0
POINT
  5
42B9
330
42B0
100
AcDbEntity
  8
Defpoints
 62
     0
100
AcDbPoint
 10
664.7475304655843
 20
987.8742117519587
 30
0.0
  0
POINT
  5
42BA
330
42B0
100
AcDbEntity
  8
Defpoints
 62
     0
100
AcDbPoint
 10
519.607687577236
 20
847.8742117519586
 30
0.0
  0
POINT
  5
42BB
330
42B0
100
AcDbEntity
  8
Defpoints
 62
     0
100
AcDbPoint
 10
733.1649495927769
 20
847.8742117519586
 30
0.0
  0
ENDBLK
  5
42B2
330
42B0
100
AcDbEntity
  8
0
100
AcDbBlockEnd
  0
BLOCK
  5
42C3
330
42C2
100
AcDbEntity
  8
0
100
AcDbBlockBegin
  2
*D12
 70
     1
 10
0.0
 20
0.0
 30
0.0
  3
*D12
  1

  0
LINE
  5
42C5
330
42C2
100
AcDbEntity
  8
DIM
 62
     0
370
    -2
100
AcDbLine
 10
246.1205049424929
 20
1786.225448168836
 30
0.0
 11
246.1205049424929
 21
1871.937849974051
 31
0.0
  0
LINE
  5
42C6
330
42C2
100
AcDbEntity
  8
DIM
 62
     0
370
    -2
100
AcDbLine
 10
656.1206296229789
 20
1777.821574432116
 30
0.0
 11
656.1206296229789
 21
1871.937849974051
 31
0.0
  0
LINE
  5
42C7
330
42C2
100
AcDbEntity
  8
DIM
 62
     0
370
    -2
100
AcDbLine
 10
254.1205049424929
 20
1871.937849974051
 30
0.0
 11
648.1206296229789
 21
1871.937849974051
 31
0.0
  0
INSERT
  5
42C8
330
42C2
100
AcDbEntity
  8
DIM
 62
     0
370
    -2
100
AcDbBlockReference
  2
_DOT
 10
246.1205049424929
 20
1871.937849974051
 30
0.0
 41
8.0
 42
8.0
 43
8.0
 50
180.0
  0
INSERT
  5
42C9
330
42C2
100
AcDbEntity
  8
DIM
 62
     0
370
    -2
100
AcDbBlockReference
  2
_DOT
 10
656.1206296229789
 20
1871.937849974051
 30
0.0
 41
8.0
 42
8.0
 43
8.0
  0
MTEXT
  5
42CA
330
42C2
100
AcDbEntity
  8
DIM
 62
     0
100
AcDbMText
 10
451.1205672827359
 20
1889.937849974051
 30
0.0
 40
20.0
 41
0.0
 46
0.0
 71
     5
 72
     1
  1
\A1;410
  7
ＭＳ ゴシック
 73
     1
 44
1.0
  0
POINT
  5
42CB
330
42C2
100
AcDbEntity
  8
Defpoints
 62
     0
100
AcDbPoint
 10
246.1205049424929
 20
1781.225448168836
 30
0.0
  0
POINT
  5
42CC
330
42C2
100
AcDbEntity
  8
Defpoints
 62
     0
100
AcDbPoint
 10
656.1206296229789
 20
1772.821574432116
 30
0.0
  0
POINT
  5
42CD
330
42C2
100
AcDbEntity
  8
Defpoints
 62
     0
100
AcDbPoint
 10
656.1206296229789
 20
1871.937849974051
 30
0.0
  0
ENDBLK
  5
42C4
330
42C2
100
AcDbEntity
  8
0
100
AcDbBlockEnd
  0
BLOCK
  5
42D2
330
42D1
100
AcDbEntity
  8
0
100
AcDbBlockBegin
  2
*D13
 70
     1
 10
0.0
 20
0.0
 30
0.0
  3
*D13
  1

  0
LINE
  5
42D4
330
42D1
100
AcDbEntity
  8
DIM
 62
     0
370
    -2
100
AcDbLine
 10
672.7479760106044
 20
1773.435573363854
 30
0.0
 11
800.0240217288167
 21
1773.435573363854
 31
0.0
  0
LINE
  5
42D5
330
42D1
100
AcDbEntity
  8
DIM
 62
     0
370
    -2
100
AcDbLine
 10
525.9891515641964
 20
1408.435894635968
 30
0.0
 11
800.0240217288167
 21
1408.435894635968
 31
0.0
  0
LINE
  5
42D6
330
42D1
100
AcDbEntity
  8
DIM
 62
     0
370
    -2
100
AcDbLine
 10
800.0240217288167
 20
1765.435573363854
 30
0.0
 11
800.0240217288167
 21
1416.435894635968
 31
0.0
  0
INSERT
  5
42D7
330
42D1
100
AcDbEntity
  8
DIM
 62
     0
370
    -2
100
AcDbBlockReference
  2
_DOT
 10
800.0240217288167
 20
1773.435573363854
 30
0.0
 41
8.0
 42
8.0
 43
8.0
 50
90.0
  0
INSERT
  5
42D8
330
42D1
100
AcDbEntity
  8
DIM
 62
     0
370
    -2
100
AcDbBlockReference
  2
_DOT
 10
800.0240217288167
 20
1408.435894635968
 30
0.0
 41
8.0
 42
8.0
 43
8.0
 50
270.0
  0
MTEXT
  5
42D9
330
42D1
100
AcDbEntity
  8
DIM
 62
     0
100
AcDbMText
 10
782.0240217288167
 20
1590.935733999911
 30
0.0
 40
20.0
 41
0.0
 46
0.0
 71
     5
 72
     1
  1
\A1;365
  7
ＭＳ ゴシック
 11
0.0
 21
1.0
 31
0.0
 73
     1
 44
1.0
  0
POINT
  5
42DA
330
42D1
100
AcDbEntity
  8
Defpoints
 62
     0
100
AcDbPoint
 10
667.7479760106044
 20
1773.435573363854
 30
0.0
  0
POINT
  5
42DB
330
42D1
100
AcDbEntity
  8
Defpoints
 62
     0
100
AcDbPoint
 10
520.9891515641964
 20
1408.435894635968
 30
0.0
  0
POINT
  5
42DC
330
42D1
100
AcDbEntity
  8
Defpoints
 62
     0
100
AcDbPoint
 10
800.0240217288167
 20
1408.435894635968
 30
0.0
  0
ENDBLK
  5
42D3
330
42D1
100
AcDbEntity
  8
0
100
AcDbBlockEnd
  0
ENDSEC
  0
SECTION
  2
ENTITIES
  0
MTEXT
  5
177
330
A
100
AcDbEntity
  8
TEMPLATE
390
1D
100
AcDbMText
 10
63.3617156381846
 20
274.9854013051426
 30
0.0
 40
13.03072916666666
 41
0.0
 46
0.0
 71
     1
 72
     1
  1
品名
  7
ＭＳ ゴシック
 73
     1
 44
0.7828267384257843
  0
MTEXT
  5
178
330
A
100
AcDbEntity
  8
TEMPLATE
390
1D
100
AcDbMText
 10
63.3617156381846
 20
206.9854013051424
 30
0.0
 40
13.03072916666666
 41
0.0
 46
0.0
 71
     1
 72
     1
  1
仕様
  7
ＭＳ ゴシック
 73
     1
 44
0.7828267384257843
  0
LINE
  5
179
330
A
100
AcDbEntity
  8
TEMPLATE
390
1D
100
AcDbLine
 10
1617.761715637798
 20
213.7173388051428
 30
0.0
 11
57.761715637799
 21
213.7173388051428
 31
0.0
  0
LWPOLYLINE
  5
17A
330
A
100
AcDbEntity
  8
TEMPLATE
390
1D
100
AcDbPolyline
 90
        5
 70
   128
 43
0.0
 10
1617.761715637798
 20
2317.717338805142
 10
57.761715637799
 20
2317.717338805142
 10
57.761715637799
 20
77.7173388051426
 10
1617.761715637798
 20
77.7173388051426
 10
1617.761715637798
 20
2317.717338805142
  0
LINE
  5
17B
330
A
100
AcDbEntity
  8
TEMPLATE
390
1D
100
AcDbLine
 10
1617.761715637798
 20
281.7173388051426
 30
0.0
 11
57.761715637799
 21
281.7173388051426
 31
0.0
  0
LINE
  5
17C
330
A
100
AcDbEntity
  8
TEMPLATE
390
1D
100
AcDbLine
 10
1617.761715638186
 20
145.7173388051426
 30
0.0
 11
1015.361715638184
 21
145.7173388051426
 31
0.0
  0
MTEXT
  5
17E
330
A
100
AcDbEntity
  8
TEMPLATE
390
1D
100
AcDbMText
 10
1039.258840639993
 20
121.7890232264961
 30
0.0
 40
19.54609375
 41
0.0
 46
0.0
 71
     1
 72
     1
  1
大洋金物株式会社 ティーフォルム事業部
  7
ＭＳ ゴシック
 73
     1
 44
0.7828267384257843
  0
MTEXT
  5
180
330
A
100
AcDbEntity
  8
TEMPLATE
390
1D
100
AcDbMText
 10
1464.961715638392
 20
184.1194325551426
 30
0.0
 40
19.54609375
 41
0.0
 46
19.54609375
 71
     1
 72
     1
  1
{1:8}
  7
ＭＳ ゴシック
 73
     1
 44
0.7828267384257843
1001
ACAD
1000
ACAD_MTEXT_DEFINED_HEIGHT_BEGIN
1070
    46
1040
19.54609375
1000
ACAD_MTEXT_DEFINED_HEIGHT_END
  0
MTEXT
  5
181
330
A
100
AcDbEntity
  8
TEMPLATE
390
1D
100
AcDbMText
 10
1422.561715638392
 20
206.9854013051424
 30
0.0
 40
13.03072916666666
 41
0.0
 46
0.0
 71
     1
 72
     1
  1
縮尺
  7
ＭＳ ゴシック
 73
     1
 44
0.7828267384257843
  0
LINE
  5
182
330
A
100
AcDbEntity
  8
TEMPLATE
390
1D
100
AcDbLine
 10
1416.961715638392
 20
145.7173388051426
 30
0.0
 11
1416.961715638392
 21
213.7173388051428
 31
0.0
  0
MTEXT
  5
183
330
A
100
AcDbEntity
  8
TEMPLATE
390
1D
100
AcDbMText
 10
1221.761715638392
 20
206.9854013051424
 30
0.0
 40
13.03072916666666
 41
0.0
 46
0.0
 71
     1
 72
     1
  1
容量
  7
ＭＳ ゴシック
 73
     1
 44
0.7828267384257843
  0
LINE
  5
184
330
A
100
AcDbEntity
  8
TEMPLATE
390
1D
100
AcDbLine
 10
1216.161715638392
 20
145.7173388051426
 30
0.0
 11
1216.161715638392
 21
213.7173388051428
 31
0.0
  0
MTEXT
  5
185
330
A
100
AcDbEntity
  8
TEMPLATE
390
1D
100
AcDbMText
 10
1020.961715638392
 20
274.9854013051426
 30
0.0
 40
13.03072916666666
 41
0.0
 46
0.0
 71
     1
 72
     1
  1
品番
  7
ＭＳ ゴシック
 73
     1
 44
0.7828267384257843
  0
MTEXT
  5
186
330
A
100
AcDbEntity
  8
TEMPLATE
390
1D
100
AcDbMText
 10
1020.961715638392
 20
206.9854013051424
 30
0.0
 40
13.03072916666666
 41
0.0
 46
0.0
 71
     1
 72
     1
  1
重量
  7
ＭＳ ゴシック
 73
     1
 44
0.7828267384257843
  0
MTEXT
  5
187
330
A
100
AcDbEntity
  8
TEMPLATE
390
1D
100
AcDbMText
 10
1063.361715638392
 20
252.1194325551426
 30
0.0
 40
19.54609375
 41
0.0
 46
19.54609375
 71
     1
 72
     1
  1
{GAR70-1201}
  7
ＭＳ ゴシック
 73
     1
 44
0.7828267384257843
1001
ACAD
1000
ACAD_MTEXT_DEFINED_HEIGHT_BEGIN
1070
    46
1040
19.54609375
1000
ACAD_MTEXT_DEFINED_HEIGHT_END
  0
LINE
  5
188
330
A
100
AcDbEntity
  8
TEMPLATE
390
1D
100
AcDbLine
 10
1015.361715638392
 20
77.7173388051426
 30
0.0
 11
1015.361715638392
 21
281.7173388051426
 31
0.0
  0
MTEXT
  5
189
330
A
100
AcDbEntity
  8
TEMPLATE
390
1D
100
AcDbMText
 10
105.7617156381846
 20
252.1194325551426
 30
0.0
 40
19.54609375
 41
0.0
 46
22.02844765625
 71
     1
 72
     1
  1
{洗面器　-LAUFEN, Sonar-}
  7
ＭＳ ゴシック
 73
     1
 44
0.7828267384257843
1001
ACAD
1000
ACAD_MTEXT_DEFINED_HEIGHT_BEGIN
1070
    46
1040
22.02844765625
1000
ACAD_MTEXT_DEFINED_HEIGHT_END
  0
INSERT
  5
68C
330
A
100
AcDbEntity
  8
TEMPLATE
100
AcDbBlockReference
  2
block 2
 10
735.4194414162062
 20
6.698461211469094
 30
0.0
 41
0.3048
 42
0.3048
 43
0.3048
  0
MTEXT
  5
D60
330
A
100
AcDbEntity
  8
TEMPLATE
390
1D
100
AcDbMText
 10
1063.361715638184
 20
184.1194325551426
 30
0.0
 40
19.54609375
 41
0.0
 46
22.7125609375
 71
     1
 72
     1
  1
{6.5kg}
  7
ＭＳ ゴシック
 73
     1
 44
0.7828267384257843
1001
ACAD
1000
ACAD_MTEXT_DEFINED_HEIGHT_BEGIN
1070
    46
1040
22.7125609375
1000
ACAD_MTEXT_DEFINED_HEIGHT_END
  0
LWPOLYLINE
  5
D69
330
A
100
AcDbEntity
  8
BORDER
100
AcDbPolyline
 90
        4
 70
     1
 43
0.0
 10
0.0
 20
0.0
 10
0.0
 20
2376.0
 10
1680.0
 20
2376.0
 10
1680.0
 20
0.0
  0
INSERT
  5
1343
330
A
100
AcDbEntity
  8
TEMPLATE
100
AcDbBlockReference
  2
block 2
 10
1677.394776693175
 20
19.54825712983655
 30
0.0
 41
0.3048
 42
0.3048
 43
0.3048
  0
HATCH
  5
3CE3
102
{ACAD_REACTORS
330
3CF4
102
}
330
A
100
AcDbEntity
  8
TEMPLATE
100
AcDbHatch
 10
0.0
 20
0.0
 30
0.0
210
0.0
220
0.0
230
1.0
  2
SOLID
 70
     1
 71
     1
 91
        6
 92
        1
 93
        8
 72
     1
 10
1547.654180558225
 20
122.686885999047
 11
1547.654180558225
 21
117.9593598945186
 72
     1
 10
1547.654180558225
 20
117.9593598945186
 11
1540.165707317976
 21
117.9593598945186
 72
     1
 10
1540.165707317976
 20
117.9593598945186
 11
1540.165707317976
 21
98.68688600020374
 72
     1
 10
1540.165707317976
 20
98.68688600020374
 11
1533.579616795355
 21
98.68688600020374
 72
     1
 10
1533.579616795355
 20
98.68688600020374
 11
1533.579616795355
 21
117.9593598945186
 72
     1
 10
1533.579616795355
 20
117.9593598945186
 11
1526.22385564772
 21
117.9593598945186
 72
     1
 10
1526.22385564772
 20
117.9593598945186
 11
1526.22385564772
 21
122.686885999047
 72
     1
 10
1526.22385564772
 20
122.686885999047
 11
1547.654180558225
 21
122.686885999047
 97
        1
330
3CE4
 92
        1
 93
        1
 72
     4
 94
        3
 73
     0
 74
     1
 95
       56
 96
       52
 40
0.0
 40
0.0
 40
0.0
 40
0.0
 40
1.0
 40
1.0
 40
1.0
 40
2.0
 40
2.0
 40
2.0
 40
3.0
 40
3.0
 40
3.0
 40
4.0
 40
4.0
 40
4.0
 40
5.0
 40
5.0
 40
5.0
 40
6.0
 40
6.0
 40
6.0
 40
7.0
 40
7.0
 40
7.0
 40
8.0
 40
8.0
 40
8.0
 40
9.0
 40
9.0
 40
9.0
 40
10.0
 40
10.0
 40
10.0
 40
11.0
 40
11.0
 40
11.0
 40
12.0
 40
12.0
 40
12.0
 40
13.0
 40
13.0
 40
13.0
 40
14.0
 40
14.0
 40
14.0
 40
15.0
 40
15.0
 40
15.0
 40
16.0
 40
16.0
 40
16.0
 40
17.0
 40
17.0
 40
17.0
 40
17.0
 10
1557.687928905659
 20
122.1153908307171
 10
1558.611021851194
 20
122.3752208739253
 10
1559.802693125861
 20
122.1578825052133
 10
1559.802693125861
 20
122.1578825052133
 10
1559.802693125861
 20
122.1578825052133
 10
1559.230186250996
 20
120.4398262712745
 10
1559.230186250996
 20
120.4398262712745
 10
1559.230186250996
 20
120.4398262712745
 10
1558.060296422918
 20
120.710547037778
 10
1557.157973217439
 20
119.9990197824878
 10
1556.456801076102
 20
119.442581187894
 10
1556.002544841606
 20
117.9640613543017
 10
1555.828293268882
 20
117.4019095933891
 10
1555.828293268882
 20
117.4019095933891
 10
1555.051421673821
 20
115.0173768010701
 10
1555.051421673821
 20
115.0173768010701
 10
1555.051421673821
 20
115.0173768010701
 10
1557.598720194077
 20
115.0173768010701
 10
1557.598720194077
 20
115.0173768010701
 10
1557.598720194077
 20
115.0173768010701
 10
1557.202547817156
 20
113.516599423694
 10
1557.202547817156
 20
113.516599423694
 10
1557.202547817156
 20
113.516599423694
 10
1554.634479556845
 20
113.516599423694
 10
1554.634479556845
 20
113.516599423694
 10
1554.634479556845
 20
113.516599423694
 10
1550.03972505708
 20
98.68688600020374
 10
1550.03972505708
 20
98.68688600020374
 10
1550.03972505708
 20
98.68688600020374
 10
1548.60113787557
 20
98.68688600020374
 10
1548.60113787557
 20
98.68688600020374
 10
1548.60113787557
 20
98.68688600020374
 10
1553.200058225776
 20
113.516599423694
 10
1553.200058225776
 20
113.516599423694
 10
1553.200058225776
 20
113.516599423694
 10
1551.305072372401
 20
113.516599423694
 10
1551.305072372401
 20
113.516599423694
 10
1551.305072372401
 20
113.516599423694
 10
1551.702315968007
 20
115.0173768010701
 10
1551.702315968007
 20
115.0173768010701
 10
1551.702315968007
 20
115.0173768010701
 10
1553.617000342751
 20
115.0173768010701
 10
1553.617000342751
 20
115.0173768010701
 10
1553.617000342751
 20
115.0173768010701
 10
1554.294248600129
 20
117.0969693411219
 10
1554.294248600129
 20
117.0969693411219
 10
1554.841879396648
 20
118.8404967748988
 10
1555.306550257245
 20
119.7765633689486
 10
1555.704865071536
 20
120.4823179457708
 10
1556.098954523236
 20
121.1886676440845
 10
1556.878920750054
 20
121.8825197910759
 10
1557.687928905659
 20
122.1153908307171
 97
        1
330
3CEF
 92
        1
 93
        1
 72
     4
 94
        3
 73
     0
 74
     1
 95
       32
 96
       28
 40
0.0
 40
0.0
 40
0.0
 40
0.0
 40
1.0
 40
1.0
 40
1.0
 40
2.0
 40
2.0
 40
2.0
 40
3.0
 40
3.0
 40
3.0
 40
4.0
 40
4.0
 40
4.0
 40
5.0
 40
5.0
 40
5.0
 40
6.0
 40
6.0
 40
6.0
 40
7.0
 40
7.0
 40
7.0
 40
8.0
 40
8.0
 40
8.0
 40
9.0
 40
9.0
 40
9.0
 40
9.0
 10
1561.188374006773
 20
114.1104116479568
 10
1560.322353212278
 20
112.9902144644232
 10
1559.655460068853
 20
111.9820786577475
 10
1558.575790658894
 20
108.813473300319
 10
1557.583187523147
 20
105.9151126122006
 10
1556.951525572023
 20
103.8064781433614
 10
1556.856127596928
 20
101.2384098830501
 10
1556.78352277496
 20
99.32735574940358
 10
1557.947223339525
 20
98.68688600020374
 10
1559.653436655782
 20
98.68688600020374
 10
1560.388768770734
 20
98.68688600020374
 10
1562.244357581369
 20
98.73366254943912
 10
1563.565765341194
 20
100.3671520194295
 10
1564.490822187649
 20
101.5147843037232
 10
1565.343393236436
 20
102.70443216532
 10
1566.486383573095
 20
106.6068818339716
 10
1567.437506740881
 20
109.8693378506166
 10
1568.096068183424
 20
111.9779128073066
 10
1568.047387245416
 20
113.1784513921987
 10
1568.047387245416
 20
113.1784513921987
 10
1568.047387245416
 20
113.1784513921987
 10
1568.047387245416
 20
113.1784513921987
 10
1567.737209924023
 20
115.1812732598413
 10
1566.283090071584
 20
115.6044641524784
 10
1565.452300469388
 20
115.6044641524784
 10
1564.634008418515
 20
115.6044641524784
 10
1562.44134279507
 20
115.7460435553167
 10
1561.188374006773
 20
114.1104116479568
 97
        1
330
3CF2
 92
        1
 93
        1
 72
     4
 94
        3
 73
     0
 74
     1
 95
       38
 96
       34
 40
0.0
 40
0.0
 40
0.0
 40
0.0
 40
1.0
 40
1.0
 40
1.0
 40
2.0
 40
2.0
 40
2.0
 40
3.0
 40
3.0
 40
3.0
 40
4.0
 40
4.0
 40
4.0
 40
5.0
 40
5.0
 40
5.0
 40
6.0
 40
6.0
 40
6.0
 40
7.0
 40
7.0
 40
7.0
 40
8.0
 40
8.0
 40
8.0
 40
9.0
 40
9.0
 40
9.0
 40
10.0
 40
10.0
 40
10.0
 40
11.0
 40
11.0
 40
11.0
 40
11.0
 10
1573.306951963385
 20
114.9598285528377
 10
1573.306951963385
 20
114.9598285528377
 10
1574.78594789417
 20
114.9598285528377
 10
1574.78594789417
 20
114.9598285528377
 10
1574.78594789417
 20
114.9598285528377
 10
1574.125244014258
 20
112.8444692111441
 10
1574.125244014258
 20
112.8444692111441
 10
1574.627288504525
 20
113.4382814354068
 10
1575.419633258367
 20
114.2291383855198
 10
1576.100095171798
 20
114.6279292970036
 10
1577.116562679355
 20
115.2217415212663
 10
1577.697401255102
 20
115.3000595095535
 10
1578.336204664126
 20
115.2844673264751
 10
1578.336204664126
 20
115.2844673264751
 10
1577.711922219496
 20
113.2842639933952
 10
1577.711922219496
 20
113.2842639933952
 10
1577.305335216473
 20
113.4564326408989
 10
1576.052366428176
 20
113.1286992355056
 10
1575.333578690689
 20
112.611657683652
 10
1574.685372362099
 20
112.1454395071763
 10
1574.237245878966
 20
111.748731520913
 10
1573.706278484211
 20
110.7514269253833
 10
1573.179357915597
 20
109.7526345261248
 10
1572.763487017306
 20
108.1600299026035
 10
1572.047793911575
 20
105.8496492481308
 10
1572.047793911575
 20
105.8496492481308
 10
1569.812636613634
 20
98.68688600020374
 10
1569.812636613634
 20
98.68688600020374
 10
1569.812636613634
 20
98.68688600020374
 10
1568.377203576029
 20
98.68688600020374
 10
1568.377203576029
 20
98.68688600020374
 10
1568.377203576029
 20
98.68688600020374
 10
1573.306951963385
 20
114.9598285528377
 10
1573.306951963385
 20
114.9598285528377
 97
        1
330
3CF0
 92
        1
 93
        1
 72
     4
 94
        3
 73
     0
 74
     1
 95
      104
 96
      100
 40
0.0
 40
0.0
 40
0.0
 40
0.0
 40
1.0
 40
1.0
 40
1.0
 40
2.0
 40
2.0
 40
2.0
 40
3.0
 40
3.0
 40
3.0
 40
4.0
 40
4.0
 40
4.0
 40
5.0
 40
5.0
 40
5.0
 40
6.0
 40
6.0
 40
6.0
 40
7.0
 40
7.0
 40
7.0
 40
8.0
 40
8.0
 40
8.0
 40
9.0
 40
9.0
 40
9.0
 40
10.0
 40
10.0
 40
10.0
 40
11.0
 40
11.0
 40
11.0
 40
12.0
 40
12.0
 40
12.0
 40
13.0
 40
13.0
 40
13.0
 40
14.0
 40
14.0
 40
14.0
 40
15.0
 40
15.0
 40
15.0
 40
16.0
 40
16.0
 40
16.0
 40
17.0
 40
17.0
 40
17.0
 40
18.0
 40
18.0
 40
18.0
 40
19.0
 40
19.0
 40
19.0
 40
20.0
 40
20.0
 40
20.0
 40
21.0
 40
21.0
 40
21.0
 40
22.0
 40
22.0
 40
22.0
 40
23.0
 40
23.0
 40
23.0
 40
24.0
 40
24.0
 40
24.0
 40
25.0
 40
25.0
 40
25.0
 40
26.0
 40
26.0
 40
26.0
 40
27.0
 40
27.0
 40
27.0
 40
28.0
 40
28.0
 40
28.0
 40
29.0
 40
29.0
 40
29.0
 40
30.0
 40
30.0
 40
30.0
 40
31.0
 40
31.0
 40
31.0
 40
32.0
 40
32.0
 40
32.0
 40
33.0
 40
33.0
 40
33.0
 40
33.0
 10
1581.447856894813
 20
114.9686363509126
 10
1581.447856894813
 20
114.9686363509126
 10
1582.739151507166
 20
114.9686363509126
 10
1582.739151507166
 20
114.9686363509126
 10
1582.739151507166
 20
114.9686363509126
 10
1582.086779328135
 20
112.8512535961477
 10
1582.086779328135
 20
112.8512535961477
 10
1582.652977915191
 20
113.7390558372332
 10
1583.161211668969
 20
114.134752116961
 10
1583.836436513275
 20
114.6460805024957
 10
1584.513684770653
 20
115.1501484058336
 10
1585.31757488143
 20
115.2528663752741
 10
1585.875560791902
 20
115.2528663752741
 10
1586.566377819287
 20
115.2528663752741
 10
1587.233270962711
 20
115.1164645294122
 10
1587.58379752123
 20
114.3592914557206
 10
1587.852435362513
 20
113.7655387436069
 10
1587.864932913836
 20
113.6954929440522
 10
1587.788162241427
 20
112.5234606786051
 10
1588.490286577151
 20
113.725070482182
 10
1589.008875444882
 20
114.2426476433779
 10
1589.890488422455
 20
114.7399311617122
 10
1590.81566429321
 20
115.2528663752741
 10
1591.354963388847
 20
115.2912517114787
 10
1591.981507295145
 20
115.198888855991
 10
1592.90454072853
 20
115.0625465222783
 10
1593.493711005159
 20
114.7332062888577
 10
1593.801745889182
 20
113.7323309643788
 10
1594.11085199189
 20
112.7345502716558
 10
1593.943860901363
 20
112.1993575143102
 10
1593.562149976686
 20
110.6109187412297
 10
1593.387898403962
 20
109.8874890561087
 10
1593.135804940144
 20
109.0115297327048
 10
1592.80598860953
 20
107.9692339524144
 10
1592.80598860953
 20
107.9692339524144
 10
1589.890488422455
 20
98.68688600020374
 10
1589.890488422455
 20
98.68688600020374
 10
1589.890488422455
 20
98.68688600020374
 10
1588.374118862001
 20
98.68688600020374
 10
1588.374118862001
 20
98.68688600020374
 10
1588.374118862001
 20
98.68688600020374
 10
1590.926713963532
 20
106.8018436346014
 10
1590.926713963532
 20
106.8018436346014
 10
1591.459823795657
 20
108.4997252499769
 10
1591.82070546813
 20
109.7396608776091
 10
1592.007454592176
 20
110.5170680820132
 10
1592.241813435546
 20
111.4868185524844
 10
1592.335128485421
 20
111.8068153784877
 10
1592.224197839397
 20
112.5126294674591
 10
1592.122551088641
 20
113.1696435941238
 10
1591.790592320658
 20
113.5974764343949
 10
1591.222251296233
 20
113.5974764343949
 10
1590.616536642139
 20
113.5974764343949
 10
1590.12591848451
 20
113.5300491694029
 10
1589.439386331865
 20
112.8403628728524
 10
1588.752735154922
 20
112.1454395071763
 10
1588.185346324883
 20
111.3297064787168
 10
1587.740433497805
 20
110.3915569594466
 10
1587.296472865113
 20
109.4476942738576
 10
1586.846322968909
 20
108.2513215394063
 10
1586.389983809193
 20
106.8018436346014
 10
1586.389983809193
 20
106.8018436346014
 10
1583.836436513275
 20
98.68688600020374
 10
1583.836436513275
 20
98.68688600020374
 10
1583.836436513275
 20
98.68688600020374
 10
1582.410287370939
 20
98.68688600020374
 10
1582.410287370939
 20
98.68688600020374
 10
1582.410287370939
 20
98.68688600020374
 10
1585.329953408454
 20
107.9650681019736
 10
1585.329953408454
 20
107.9650681019736
 10
1585.637988292478
 20
108.9524936807437
 10
1585.86937152839
 20
109.757335985908
 10
1586.021841654524
 20
110.3863794024701
 10
1586.28107657624
 20
111.4692029563347
 10
1586.353681398209
 20
112.2014404395306
 10
1586.157648378894
 20
112.8512535961477
 10
1585.964709991335
 20
113.4989838275443
 10
1585.625609765454
 20
113.6644276021936
 10
1585.0592921541
 20
113.6644276021936
 10
1584.58426617955
 20
113.6644276021936
 10
1584.120666537637
 20
113.4605984913397
 10
1583.591722555952
 20
113.0550231948524
 10
1582.925781606914
 20
112.5447660280024
 10
1582.659286203001
 20
112.1257409858062
 10
1582.332564504143
 20
111.6278623459804
 10
1581.891698503207
 20
110.9692413912885
 10
1581.68531036994
 20
110.5258758800881
 10
1581.31300236483
 20
109.5529712657117
 10
1580.940575335421
 20
108.5743534850165
 10
1580.588025363831
 20
107.4355289987976
 10
1580.342121163525
 20
106.6478261925898
 10
1580.342121163525
 20
106.6478261925898
 10
1577.837373829914
 20
98.68688600020374
 10
1577.837373829914
 20
98.68688600020374
 10
1577.837373829914
 20
98.68688600020374
 10
1576.343856934735
 20
98.68688600020374
 10
1576.343856934735
 20
98.68688600020374
 10
1576.343856934735
 20
98.68688600020374
 10
1581.447856894813
 20
114.9686363509126
 10
1581.447856894813
 20
114.9686363509126
 97
        1
330
3CF1
 92
       16
 93
        1
 72
     4
 94
        3
 73
     0
 74
     1
 95
       29
 96
       25
 40
0.0
 40
0.0
 40
0.0
 40
0.0
 40
1.0
 40
1.0
 40
1.0
 40
2.0
 40
2.0
 40
2.0
 40
3.0
 40
3.0
 40
3.0
 40
4.0
 40
4.0
 40
4.0
 40
5.0
 40
5.0
 40
5.0
 40
6.0
 40
6.0
 40
6.0
 40
7.0
 40
7.0
 40
7.0
 40
8.0
 40
8.0
 40
8.0
 40
8.0
 10
1558.405704936611
 20
101.7185539024279
 10
1558.399396648801
 20
102.8522603438195
 10
1558.757302713815
 20
104.8665085440999
 10
1559.674146883688
 20
107.5615757307067
 10
1560.922949821544
 20
111.2109202290046
 10
1561.671850706503
 20
112.5447660280024
 10
1562.327198492992
 20
113.1940435752771
 10
1563.284629948588
 20
114.1394535767441
 10
1564.5717587105
 20
114.1865871988744
 10
1564.951446222105
 20
114.1394535767441
 10
1565.491816536427
 20
114.0745853341658
 10
1566.255119361481
 20
113.7209046317411
 10
1566.300705667734
 20
112.5302450636088
 10
1566.337127103016
 20
111.5112185336377
 10
1566.043494159088
 20
109.6027829345539
 10
1565.015719343191
 20
106.6068818339716
 10
1563.831189526422
 20
103.1255401327366
 10
1563.119662271132
 20
101.7569987507817
 10
1562.549297833636
 20
101.1605679919562
 10
1561.474746468504
 20
100.042453733643
 10
1560.322353212278
 20
100.1498136507176
 10
1560.152267489994
 20
100.1498136507176
 10
1559.931358392333
 20
100.1498136507176
 10
1558.408799568367
 20
100.3895285875116
 10
1558.405704936611
 20
101.7185539024279
 97
        1
330
3CF3
 75
     0
 76
     1
 98
        1
 10
1487.540661136605
 20
58.0166403409717
1001
ACAD
1010
0.0
1020
0.0
1030
0.0
  0
POLYLINE
  5
3CE4
102
{ACAD_REACTORS
330
3CE3
330
3CF4
102
}
330
A
100
AcDbEntity
  8
TEMPLATE
100
AcDb2dPolyline
 66
     1
 10
0.0
 20
0.0
 30
0.0
  0
VERTEX
  5
3CE5
330
3CE4
100
AcDbEntity
  8
TEMPLATE
100
AcDbVertex
100
AcDb2dVertex
 10
1547.654180558225
 20
122.686885999047
 30
0.0
  0
VERTEX
  5
3CE6
330
3CE4
100
AcDbEntity
  8
TEMPLATE
100
AcDbVertex
100
AcDb2dVertex
 10
1547.654180558225
 20
117.9593598945186
 30
0.0
  0
VERTEX
  5
3CE7
330
3CE4
100
AcDbEntity
  8
TEMPLATE
100
AcDbVertex
100
AcDb2dVertex
 10
1540.165707317976
 20
117.9593598945186
 30
0.0
  0
VERTEX
  5
3CE8
330
3CE4
100
AcDbEntity
  8
TEMPLATE
100
AcDbVertex
100
AcDb2dVertex
 10
1540.165707317976
 20
98.68688600020374
 30
0.0
  0
VERTEX
  5
3CE9
330
3CE4
100
AcDbEntity
  8
TEMPLATE
100
AcDbVertex
100
AcDb2dVertex
 10
1533.579616795355
 20
98.68688600020374
 30
0.0
  0
VERTEX
  5
3CEA
330
3CE4
100
AcDbEntity
  8
TEMPLATE
100
AcDbVertex
100
AcDb2dVertex
 10
1533.579616795355
 20
117.9593598945186
 30
0.0
  0
VERTEX
  5
3CEB
330
3CE4
100
AcDbEntity
  8
TEMPLATE
100
AcDbVertex
100
AcDb2dVertex
 10
1526.22385564772
 20
117.9593598945186
 30
0.0
  0
VERTEX
  5
3CEC
330
3CE4
100
AcDbEntity
  8
TEMPLATE
100
AcDbVertex
100
AcDb2dVertex
 10
1526.22385564772
 20
122.686885999047
 30
0.0
  0
VERTEX
  5
3CED
330
3CE4
100
AcDbEntity
  8
TEMPLATE
100
AcDbVertex
100
AcDb2dVertex
 10
1547.654180558225
 20
122.686885999047
 30
0.0
  0
SEQEND
  5
3CEE
330
3CE4
100
AcDbEntity
  8
TEMPLATE
  0
SPLINE
  5
3CEF
102
{ACAD_REACTORS
330
3CE3
330
3CF4
102
}
330
A
100
AcDbEntity
  8
TEMPLATE
100
AcDbSpline
210
0.0
220
0.0
230
1.0
 70
    11
 71
     3
 72
    56
 73
    52
 74
     0
 42
0.000000001
 43
0.0000000001
 40
0.0
 40
0.0
 40
0.0
 40
0.0
 40
1.0
 40
1.0
 40
1.0
 40
2.0
 40
2.0
 40
2.0
 40
3.0
 40
3.0
 40
3.0
 40
4.0
 40
4.0
 40
4.0
 40
5.0
 40
5.0
 40
5.0
 40
6.0
 40
6.0
 40
6.0
 40
7.0
 40
7.0
 40
7.0
 40
8.0
 40
8.0
 40
8.0
 40
9.0
 40
9.0
 40
9.0
 40
10.0
 40
10.0
 40
10.0
 40
11.0
 40
11.0
 40
11.0
 40
12.0
 40
12.0
 40
12.0
 40
13.0
 40
13.0
 40
13.0
 40
14.0
 40
14.0
 40
14.0
 40
15.0
 40
15.0
 40
15.0
 40
16.0
 40
16.0
 40
16.0
 40
17.0
 40
17.0
 40
17.0
 40
17.0
 10
1557.687928905659
 20
122.1153908307171
 30
0.0
 10
1558.611021851194
 20
122.3752208739253
 30
0.0
 10
1559.802693125861
 20
122.1578825052133
 30
0.0
 10
1559.802693125861
 20
122.1578825052133
 30
0.0
 10
1559.802693125861
 20
122.1578825052133
 30
0.0
 10
1559.230186250996
 20
120.4398262712745
 30
0.0
 10
1559.230186250996
 20
120.4398262712745
 30
0.0
 10
1559.230186250996
 20
120.4398262712745
 30
0.0
 10
1558.060296422918
 20
120.710547037778
 30
0.0
 10
1557.157973217439
 20
119.9990197824878
 30
0.0
 10
1556.456801076102
 20
119.442581187894
 30
0.0
 10
1556.002544841606
 20
117.9640613543017
 30
0.0
 10
1555.828293268882
 20
117.4019095933891
 30
0.0
 10
1555.828293268882
 20
117.4019095933891
 30
0.0
 10
1555.051421673821
 20
115.0173768010701
 30
0.0
 10
1555.051421673821
 20
115.0173768010701
 30
0.0
 10
1555.051421673821
 20
115.0173768010701
 30
0.0
 10
1557.598720194077
 20
115.0173768010701
 30
0.0
 10
1557.598720194077
 20
115.0173768010701
 30
0.0
 10
1557.598720194077
 20
115.0173768010701
 30
0.0
 10
1557.202547817156
 20
113.516599423694
 30
0.0
 10
1557.202547817156
 20
113.516599423694
 30
0.0
 10
1557.202547817156
 20
113.516599423694
 30
0.0
 10
1554.634479556845
 20
113.516599423694
 30
0.0
 10
1554.634479556845
 20
113.516599423694
 30
0.0
 10
1554.634479556845
 20
113.516599423694
 30
0.0
 10
1550.03972505708
 20
98.68688600020374
 30
0.0
 10
1550.03972505708
 20
98.68688600020374
 30
0.0
 10
1550.03972505708
 20
98.68688600020374
 30
0.0
 10
1548.60113787557
 20
98.68688600020374
 30
0.0
 10
1548.60113787557
 20
98.68688600020374
 30
0.0
 10
1548.60113787557
 20
98.68688600020374
 30
0.0
 10
1553.200058225776
 20
113.516599423694
 30
0.0
 10
1553.200058225776
 20
113.516599423694
 30
0.0
 10
1553.200058225776
 20
113.516599423694
 30
0.0
 10
1551.305072372401
 20
113.516599423694
 30
0.0
 10
1551.305072372401
 20
113.516599423694
 30
0.0
 10
1551.305072372401
 20
113.516599423694
 30
0.0
 10
1551.702315968007
 20
115.0173768010701
 30
0.0
 10
1551.702315968007
 20
115.0173768010701
 30
0.0
 10
1551.702315968007
 20
115.0173768010701
 30
0.0
 10
1553.617000342751
 20
115.0173768010701
 30
0.0
 10
1553.617000342751
 20
115.0173768010701
 30
0.0
 10
1553.617000342751
 20
115.0173768010701
 30
0.0
 10
1554.294248600129
 20
117.0969693411219
 30
0.0
 10
1554.294248600129
 20
117.0969693411219
 30
0.0
 10
1554.841879396648
 20
118.8404967748988
 30
0.0
 10
1555.306550257245
 20
119.7765633689486
 30
0.0
 10
1555.704865071536
 20
120.4823179457708
 30
0.0
 10
1556.098954523236
 20
121.1886676440845
 30
0.0
 10
1556.878920750054
 20
121.8825197910759
 30
0.0
 10
1557.687928905659
 20
122.1153908307171
 30
0.0
  0
SPLINE
  5
3CF0
102
{ACAD_REACTORS
330
3CE3
330
3CF4
102
}
330
A
100
AcDbEntity
  8
TEMPLATE
100
AcDbSpline
210
0.0
220
0.0
230
1.0
 70
    11
 71
     3
 72
    38
 73
    34
 74
     0
 42
0.000000001
 43
0.0000000001
 40
0.0
 40
0.0
 40
0.0
 40
0.0
 40
1.0
 40
1.0
 40
1.0
 40
2.0
 40
2.0
 40
2.0
 40
3.0
 40
3.0
 40
3.0
 40
4.0
 40
4.0
 40
4.0
 40
5.0
 40
5.0
 40
5.0
 40
6.0
 40
6.0
 40
6.0
 40
7.0
 40
7.0
 40
7.0
 40
8.0
 40
8.0
 40
8.0
 40
9.0
 40
9.0
 40
9.0
 40
10.0
 40
10.0
 40
10.0
 40
11.0
 40
11.0
 40
11.0
 40
11.0
 10
1573.306951963385
 20
114.9598285528377
 30
0.0
 10
1573.306951963385
 20
114.9598285528377
 30
0.0
 10
1574.78594789417
 20
114.9598285528377
 30
0.0
 10
1574.78594789417
 20
114.9598285528377
 30
0.0
 10
1574.78594789417
 20
114.9598285528377
 30
0.0
 10
1574.125244014258
 20
112.8444692111441
 30
0.0
 10
1574.125244014258
 20
112.8444692111441
 30
0.0
 10
1574.627288504525
 20
113.4382814354068
 30
0.0
 10
1575.419633258367
 20
114.2291383855198
 30
0.0
 10
1576.100095171798
 20
114.6279292970036
 30
0.0
 10
1577.116562679355
 20
115.2217415212663
 30
0.0
 10
1577.697401255102
 20
115.3000595095535
 30
0.0
 10
1578.336204664126
 20
115.2844673264751
 30
0.0
 10
1578.336204664126
 20
115.2844673264751
 30
0.0
 10
1577.711922219496
 20
113.2842639933952
 30
0.0
 10
1577.711922219496
 20
113.2842639933952
 30
0.0
 10
1577.305335216473
 20
113.4564326408989
 30
0.0
 10
1576.052366428176
 20
113.1286992355056
 30
0.0
 10
1575.333578690689
 20
112.611657683652
 30
0.0
 10
1574.685372362099
 20
112.1454395071763
 30
0.0
 10
1574.237245878966
 20
111.748731520913
 30
0.0
 10
1573.706278484211
 20
110.7514269253833
 30
0.0
 10
1573.179357915597
 20
109.7526345261248
 30
0.0
 10
1572.763487017306
 20
108.1600299026035
 30
0.0
 10
1572.047793911575
 20
105.8496492481308
 30
0.0
 10
1572.047793911575
 20
105.8496492481308
 30
0.0
 10
1569.812636613634
 20
98.68688600020374
 30
0.0
 10
1569.812636613634
 20
98.68688600020374
 30
0.0
 10
1569.812636613634
 20
98.68688600020374
 30
0.0
 10
1568.377203576029
 20
98.68688600020374
 30
0.0
 10
1568.377203576029
 20
98.68688600020374
 30
0.0
 10
1568.377203576029
 20
98.68688600020374
 30
0.0
 10
1573.306951963385
 20
114.9598285528377
 30
0.0
 10
1573.306951963385
 20
114.9598285528377
 30
0.0
  0
SPLINE
  5
3CF1
102
{ACAD_REACTORS
330
3CE3
330
3CF4
102
}
330
A
100
AcDbEntity
  8
TEMPLATE
100
AcDbSpline
210
0.0
220
0.0
230
1.0
 70
    11
 71
     3
 72
   104
 73
   100
 74
     0
 42
0.000000001
 43
0.0000000001
 40
0.0
 40
0.0
 40
0.0
 40
0.0
 40
1.0
 40
1.0
 40
1.0
 40
2.0
 40
2.0
 40
2.0
 40
3.0
 40
3.0
 40
3.0
 40
4.0
 40
4.0
 40
4.0
 40
5.0
 40
5.0
 40
5.0
 40
6.0
 40
6.0
 40
6.0
 40
7.0
 40
7.0
 40
7.0
 40
8.0
 40
8.0
 40
8.0
 40
9.0
 40
9.0
 40
9.0
 40
10.0
 40
10.0
 40
10.0
 40
11.0
 40
11.0
 40
11.0
 40
12.0
 40
12.0
 40
12.0
 40
13.0
 40
13.0
 40
13.0
 40
14.0
 40
14.0
 40
14.0
 40
15.0
 40
15.0
 40
15.0
 40
16.0
 40
16.0
 40
16.0
 40
17.0
 40
17.0
 40
17.0
 40
18.0
 40
18.0
 40
18.0
 40
19.0
 40
19.0
 40
19.0
 40
20.0
 40
20.0
 40
20.0
 40
21.0
 40
21.0
 40
21.0
 40
22.0
 40
22.0
 40
22.0
 40
23.0
 40
23.0
 40
23.0
 40
24.0
 40
24.0
 40
24.0
 40
25.0
 40
25.0
 40
25.0
 40
26.0
 40
26.0
 40
26.0
 40
27.0
 40
27.0
 40
27.0
 40
28.0
 40
28.0
 40
28.0
 40
29.0
 40
29.0
 40
29.0
 40
30.0
 40
30.0
 40
30.0
 40
31.0
 40
31.0
 40
31.0
 40
32.0
 40
32.0
 40
32.0
 40
33.0
 40
33.0
 40
33.0
 40
33.0
 10
1581.447856894813
 20
114.9686363509126
 30
0.0
 10
1581.447856894813
 20
114.9686363509126
 30
0.0
 10
1582.739151507166
 20
114.9686363509126
 30
0.0
 10
1582.739151507166
 20
114.9686363509126
 30
0.0
 10
1582.739151507166
 20
114.9686363509126
 30
0.0
 10
1582.086779328135
 20
112.8512535961477
 30
0.0
 10
1582.086779328135
 20
112.8512535961477
 30
0.0
 10
1582.652977915191
 20
113.7390558372332
 30
0.0
 10
1583.161211668969
 20
114.134752116961
 30
0.0
 10
1583.836436513275
 20
114.6460805024957
 30
0.0
 10
1584.513684770653
 20
115.1501484058336
 30
0.0
 10
1585.31757488143
 20
115.2528663752741
 30
0.0
 10
1585.875560791902
 20
115.2528663752741
 30
0.0
 10
1586.566377819287
 20
115.2528663752741
 30
0.0
 10
1587.233270962711
 20
115.1164645294122
 30
0.0
 10
1587.58379752123
 20
114.3592914557206
 30
0.0
 10
1587.852435362513
 20
113.7655387436069
 30
0.0
 10
1587.864932913836
 20
113.6954929440522
 30
0.0
 10
1587.788162241427
 20
112.5234606786051
 30
0.0
 10
1588.490286577151
 20
113.725070482182
 30
0.0
 10
1589.008875444882
 20
114.2426476433779
 30
0.0
 10
1589.890488422455
 20
114.7399311617122
 30
0.0
 10
1590.81566429321
 20
115.2528663752741
 30
0.0
 10
1591.354963388847
 20
115.2912517114787
 30
0.0
 10
1591.981507295145
 20
115.198888855991
 30
0.0
 10
1592.90454072853
 20
115.0625465222783
 30
0.0
 10
1593.493711005159
 20
114.7332062888577
 30
0.0
 10
1593.801745889182
 20
113.7323309643788
 30
0.0
 10
1594.11085199189
 20
112.7345502716558
 30
0.0
 10
1593.943860901363
 20
112.1993575143102
 30
0.0
 10
1593.562149976686
 20
110.6109187412297
 30
0.0
 10
1593.387898403962
 20
109.8874890561087
 30
0.0
 10
1593.135804940144
 20
109.0115297327048
 30
0.0
 10
1592.80598860953
 20
107.9692339524144
 30
0.0
 10
1592.80598860953
 20
107.9692339524144
 30
0.0
 10
1589.890488422455
 20
98.68688600020374
 30
0.0
 10
1589.890488422455
 20
98.68688600020374
 30
0.0
 10
1589.890488422455
 20
98.68688600020374
 30
0.0
 10
1588.374118862001
 20
98.68688600020374
 30
0.0
 10
1588.374118862001
 20
98.68688600020374
 30
0.0
 10
1588.374118862001
 20
98.68688600020374
 30
0.0
 10
1590.926713963532
 20
106.8018436346014
 30
0.0
 10
1590.926713963532
 20
106.8018436346014
 30
0.0
 10
1591.459823795657
 20
108.4997252499769
 30
0.0
 10
1591.82070546813
 20
109.7396608776091
 30
0.0
 10
1592.007454592176
 20
110.5170680820132
 30
0.0
 10
1592.241813435546
 20
111.4868185524844
 30
0.0
 10
1592.335128485421
 20
111.8068153784877
 30
0.0
 10
1592.224197839397
 20
112.5126294674591
 30
0.0
 10
1592.122551088641
 20
113.1696435941238
 30
0.0
 10
1591.790592320658
 20
113.5974764343949
 30
0.0
 10
1591.222251296233
 20
113.5974764343949
 30
0.0
 10
1590.616536642139
 20
113.5974764343949
 30
0.0
 10
1590.12591848451
 20
113.5300491694029
 30
0.0
 10
1589.439386331865
 20
112.8403628728524
 30
0.0
 10
1588.752735154922
 20
112.1454395071763
 30
0.0
 10
1588.185346324883
 20
111.3297064787168
 30
0.0
 10
1587.740433497805
 20
110.3915569594466
 30
0.0
 10
1587.296472865113
 20
109.4476942738576
 30
0.0
 10
1586.846322968909
 20
108.2513215394063
 30
0.0
 10
1586.389983809193
 20
106.8018436346014
 30
0.0
 10
1586.389983809193
 20
106.8018436346014
 30
0.0
 10
1583.836436513275
 20
98.68688600020374
 30
0.0
 10
1583.836436513275
 20
98.68688600020374
 30
0.0
 10
1583.836436513275
 20
98.68688600020374
 30
0.0
 10
1582.410287370939
 20
98.68688600020374
 30
0.0
 10
1582.410287370939
 20
98.68688600020374
 30
0.0
 10
1582.410287370939
 20
98.68688600020374
 30
0.0
 10
1585.329953408454
 20
107.9650681019736
 30
0.0
 10
1585.329953408454
 20
107.9650681019736
 30
0.0
 10
1585.637988292478
 20
108.9524936807437
 30
0.0
 10
1585.86937152839
 20
109.757335985908
 30
0.0
 10
1586.021841654524
 20
110.3863794024701
 30
0.0
 10
1586.28107657624
 20
111.4692029563347
 30
0.0
 10
1586.353681398209
 20
112.2014404395306
 30
0.0
 10
1586.157648378894
 20
112.8512535961477
 30
0.0
 10
1585.964709991335
 20
113.4989838275443
 30
0.0
 10
1585.625609765454
 20
113.6644276021936
 30
0.0
 10
1585.0592921541
 20
113.6644276021936
 30
0.0
 10
1584.58426617955
 20
113.6644276021936
 30
0.0
 10
1584.120666537637
 20
113.4605984913397
 30
0.0
 10
1583.591722555952
 20
113.0550231948524
 30
0.0
 10
1582.925781606914
 20
112.5447660280024
 30
0.0
 10
1582.659286203001
 20
112.1257409858062
 30
0.0
 10
1582.332564504143
 20
111.6278623459804
 30
0.0
 10
1581.891698503207
 20
110.9692413912885
 30
0.0
 10
1581.68531036994
 20
110.5258758800881
 30
0.0
 10
1581.31300236483
 20
109.5529712657117
 30
0.0
 10
1580.940575335421
 20
108.5743534850165
 30
0.0
 10
1580.588025363831
 20
107.4355289987976
 30
0.0
 10
1580.342121163525
 20
106.6478261925898
 30
0.0
 10
1580.342121163525
 20
106.6478261925898
 30
0.0
 10
1577.837373829914
 20
98.68688600020374
 30
0.0
 10
1577.837373829914
 20
98.68688600020374
 30
0.0
 10
1577.837373829914
 20
98.68688600020374
 30
0.0
 10
1576.343856934735
 20
98.68688600020374
 30
0.0
 10
1576.343856934735
 20
98.68688600020374
 30
0.0
 10
1576.343856934735
 20
98.68688600020374
 30
0.0
 10
1581.447856894813
 20
114.9686363509126
 30
0.0
 10
1581.447856894813
 20
114.9686363509126
 30
0.0
  0
SPLINE
  5
3CF2
102
{ACAD_REACTORS
330
3CE3
330
3CF4
102
}
330
A
100
AcDbEntity
  8
TEMPLATE
100
AcDbSpline
210
0.0
220
0.0
230
1.0
 70
    11
 71
     3
 72
    32
 73
    28
 74
     0
 42
0.000000001
 43
0.0000000001
 40
0.0
 40
0.0
 40
0.0
 40
0.0
 40
1.0
 40
1.0
 40
1.0
 40
2.0
 40
2.0
 40
2.0
 40
3.0
 40
3.0
 40
3.0
 40
4.0
 40
4.0
 40
4.0
 40
5.0
 40
5.0
 40
5.0
 40
6.0
 40
6.0
 40
6.0
 40
7.0
 40
7.0
 40
7.0
 40
8.0
 40
8.0
 40
8.0
 40
9.0
 40
9.0
 40
9.0
 40
9.0
 10
1561.188374006773
 20
114.1104116479568
 30
0.0
 10
1560.322353212278
 20
112.9902144644232
 30
0.0
 10
1559.655460068853
 20
111.9820786577475
 30
0.0
 10
1558.575790658894
 20
108.813473300319
 30
0.0
 10
1557.583187523147
 20
105.9151126122006
 30
0.0
 10
1556.951525572023
 20
103.8064781433614
 30
0.0
 10
1556.856127596928
 20
101.2384098830501
 30
0.0
 10
1556.78352277496
 20
99.32735574940358
 30
0.0
 10
1557.947223339525
 20
98.68688600020374
 30
0.0
 10
1559.653436655782
 20
98.68688600020374
 30
0.0
 10
1560.388768770734
 20
98.68688600020374
 30
0.0
 10
1562.244357581369
 20
98.73366254943912
 30
0.0
 10
1563.565765341194
 20
100.3671520194295
 30
0.0
 10
1564.490822187649
 20
101.5147843037232
 30
0.0
 10
1565.343393236436
 20
102.70443216532
 30
0.0
 10
1566.486383573095
 20
106.6068818339716
 30
0.0
 10
1567.437506740881
 20
109.8693378506166
 30
0.0
 10
1568.096068183424
 20
111.9779128073066
 30
0.0
 10
1568.047387245416
 20
113.1784513921987
 30
0.0
 10
1568.047387245416
 20
113.1784513921987
 30
0.0
 10
1568.047387245416
 20
113.1784513921987
 30
0.0
 10
1568.047387245416
 20
113.1784513921987
 30
0.0
 10
1567.737209924023
 20
115.1812732598413
 30
0.0
 10
1566.283090071584
 20
115.6044641524784
 30
0.0
 10
1565.452300469388
 20
115.6044641524784
 30
0.0
 10
1564.634008418515
 20
115.6044641524784
 30
0.0
 10
1562.44134279507
 20
115.7460435553167
 30
0.0
 10
1561.188374006773
 20
114.1104116479568
 30
0.0
  0
SPLINE
  5
3CF3
102
{ACAD_REACTORS
330
3CE3
330
3CF4
102
}
330
A
100
AcDbEntity
  8
TEMPLATE
100
AcDbSpline
210
0.0
220
0.0
230
1.0
 70
    11
 71
     3
 72
    29
 73
    25
 74
     0
 42
0.000000001
 43
0.0000000001
 40
0.0
 40
0.0
 40
0.0
 40
0.0
 40
1.0
 40
1.0
 40
1.0
 40
2.0
 40
2.0
 40
2.0
 40
3.0
 40
3.0
 40
3.0
 40
4.0
 40
4.0
 40
4.0
 40
5.0
 40
5.0
 40
5.0
 40
6.0
 40
6.0
 40
6.0
 40
7.0
 40
7.0
 40
7.0
 40
8.0
 40
8.0
 40
8.0
 40
8.0
 10
1558.405704936611
 20
101.7185539024279
 30
0.0
 10
1558.399396648801
 20
102.8522603438195
 30
0.0
 10
1558.757302713815
 20
104.8665085440999
 30
0.0
 10
1559.674146883688
 20
107.5615757307067
 30
0.0
 10
1560.922949821544
 20
111.2109202290046
 30
0.0
 10
1561.671850706503
 20
112.5447660280024
 30
0.0
 10
1562.327198492992
 20
113.1940435752771
 30
0.0
 10
1563.284629948588
 20
114.1394535767441
 30
0.0
 10
1564.5717587105
 20
114.1865871988744
 30
0.0
 10
1564.951446222105
 20
114.1394535767441
 30
0.0
 10
1565.491816536427
 20
114.0745853341658
 30
0.0
 10
1566.255119361481
 20
113.7209046317411
 30
0.0
 10
1566.300705667734
 20
112.5302450636088
 30
0.0
 10
1566.337127103016
 20
111.5112185336377
 30
0.0
 10
1566.043494159088
 20
109.6027829345539
 30
0.0
 10
1565.015719343191
 20
106.6068818339716
 30
0.0
 10
1563.831189526422
 20
103.1255401327366
 30
0.0
 10
1563.119662271132
 20
101.7569987507817
 30
0.0
 10
1562.549297833636
 20
101.1605679919562
 30
0.0
 10
1561.474746468504
 20
100.042453733643
 30
0.0
 10
1560.322353212278
 20
100.1498136507176
 30
0.0
 10
1560.152267489994
 20
100.1498136507176
 30
0.0
 10
1559.931358392333
 20
100.1498136507176
 30
0.0
 10
1558.408799568367
 20
100.3895285875116
 30
0.0
 10
1558.405704936611
 20
101.7185539024279
 30
0.0
  0
MTEXT
  5
3D0E
330
A
100
AcDbEntity
  8
TEMPLATE
390
1D
100
AcDbMText
 10
1268.051654997698
 20
184.1194325551426
 30
0.0
 40
19.54609375
 41
0.0
 46
19.54609375
 71
     1
 72
     1
  1
{9.6L}
  7
ＭＳ ゴシック
 73
     1
 44
0.7828267384257843
1001
ACAD
1000
ACAD_MTEXT_DEFINED_HEIGHT_BEGIN
1070
    46
1040
19.54609375
1000
ACAD_MTEXT_DEFINED_HEIGHT_END
  0
MTEXT
  5
3D12
330
A
100
AcDbEntity
  8
TEMPLATE
390
1D
100
AcDbMText
 10
105.7617156381846
 20
184.1194325551428
 30
0.0
 40
19.54609375
 41
0.0
 46
52.72521406250001
 71
     1
 72
     1
  1
{カウンター置き/オーバーフローなし/側面ﾃｸｽﾁｬｰ、排水ｶﾊﾞｰﾌﾟﾚｰﾄ付/\fＭＳ Ｐゴシック|b0|i0|c1|p0;\P\fＭＳ ゴシック|b0|i0|c0|p0;陶器/ホワイト}
  7
ＭＳ ゴシック
 73
     1
 44
0.9209001159119069
1001
ACAD
1000
ACAD_MTEXT_DEFINED_HEIGHT_BEGIN
1070
    46
1040
52.72521406250001
1000
ACAD_MTEXT_DEFINED_HEIGHT_END
  0
MTEXT
  5
3DB7
102
{ACAD_XDICTIONARY
360
3DB8
102
}
330
A
100
AcDbEntity
  8
TEMPLATE
100
AcDbMText
 10
58.76275698768336
 20
71.9342530318656
 30
0.0
 40
16.0
 41
0.0
 46
4.0
 71
     1
 72
     1
  1
{20181114N}
  7
ＭＳ ゴシック
 73
     1
 44
1.0
1001
ACAD
1000
ACAD_MTEXT_DEFINED_HEIGHT_BEGIN
1070
    46
1040
4.0
1000
ACAD_MTEXT_DEFINED_HEIGHT_END
  0
SPLINE
  5
40FC
330
A
100
AcDbEntity
  8
HIDDEN
100
AcDbSpline
210
0.0
220
0.0
230
1.0
 70
     8
 71
     3
 72
    59
 73
    55
 74
     0
 42
0.000000001
 43
0.0000000001
 40
0.0
 40
0.0
 40
0.0
 40
0.0
 40
1.0
 40
1.0
 40
1.0
 40
2.0
 40
2.0
 40
2.0
 40
3.0
 40
3.0
 40
3.0
 40
4.0
 40
4.0
 40
4.0
 40
5.0
 40
5.0
 40
5.0
 40
6.0
 40
6.0
 40
6.0
 40
7.0
 40
7.0
 40
7.0
 40
8.0
 40
8.0
 40
8.0
 40
9.0
 40
9.0
 40
9.0
 40
10.0
 40
10.0
 40
10.0
 40
11.0
 40
11.0
 40
11.0
 40
12.0
 40
12.0
 40
12.0
 40
13.0
 40
13.0
 40
13.0
 40
14.0
 40
14.0
 40
14.0
 40
15.0
 40
15.0
 40
15.0
 40
16.0
 40
16.0
 40
16.0
 40
17.0
 40
17.0
 40
17.0
 40
18.0
 40
18.0
 40
18.0
 40
18.0
 10
428.1128415940428
 20
845.8756440791251
 30
0.0
 10
428.1128415940428
 20
845.8756440791251
 30
0.0
 10
428.1128415940428
 20
855.3785954656383
 30
0.0
 10
428.1128415940428
 20
855.3785954656383
 30
0.0
 10
425.9631020112469
 20
858.1677447704965
 30
0.0
 10
423.5542912479602
 20
860.752944422628
 30
0.0
 10
420.9084579152884
 20
863.0790728942687
 30
0.0
 10
420.9084579152884
 20
863.0790728942687
 30
0.0
 10
417.7940915966225
 20
865.8351492824687
 30
0.0
 10
417.7940915966225
 20
865.8351492824687
 30
0.0
 10
417.7940915966225
 20
865.8351492824687
 30
0.0
 10
416.9782929857154
 20
866.3477794906738
 30
0.0
 10
416.9782929857154
 20
866.3477794906738
 30
0.0
 10
415.2750377778078
 20
867.0698715043821
 30
0.0
 10
414.1009492364347
 20
868.6739079623144
 30
0.0
 10
413.9466089586955
 20
870.514966989632
 30
0.0
 10
413.9466089586955
 20
870.514966989632
 30
0.0
 10
413.3843693755027
 20
876.8594548352681
 30
0.0
 10
413.3843693755027
 20
876.8594548352681
 30
0.0
 10
413.3237356949624
 20
877.6201319184111
 30
0.0
 10
413.0426159033659
 20
878.3422239321197
 30
0.0
 10
412.5851072229248
 20
878.9485607375237
 30
0.0
 10
412.0008190286264
 20
879.7202621262196
 30
0.0
 10
411.1519475010608
 20
880.2604530983068
 30
0.0
 10
410.1928329179673
 20
880.4588905982572
 30
0.0
 10
410.1928329179673
 20
880.4588905982572
 30
0.0
 10
400.3922252815286
 20
882.4542899033138
 30
0.0
 10
400.3922252815286
 20
882.4542899033138
 30
0.0
 10
398.7055065319502
 20
882.7960433754507
 30
0.0
 10
397.4266870878255
 20
884.1851058751034
 30
0.0
 10
397.2172252823223
 20
885.9104096941165
 30
0.0
 10
397.2172252823223
 20
885.9104096941165
 30
0.0
 10
396.0762096576076
 20
895.2149235806793
 30
0.0
 10
396.0762096576076
 20
895.2149235806793
 30
0.0
 10
395.9549422965267
 20
896.2181353859839
 30
0.0
 10
395.1115829217376
 20
896.9677881635743
 30
0.0
 10
394.1028589636564
 20
896.9788124691272
 30
0.0
 10
394.1028589636564
 20
896.9788124691272
 30
0.0
 10
394.1028589636564
 20
896.9788124691272
 30
0.0
 10
394.1028589636564
 20
896.9788124691272
 30
0.0
 10
364.0506020267251
 20
897.2654444135
 30
0.0
 10
299.0292478763138
 20
898.2631440660283
 30
0.0
 10
269.0321124671464
 20
900.1703489266625
 30
0.0
 10
266.3311576067105
 20
900.341225662731
 30
0.0
 10
263.635714899051
 20
900.534151009905
 30
0.0
 10
260.9347600386151
 20
900.7160520515262
 30
0.0
 10
257.9085881643717
 20
900.9310260098058
 30
0.0
 10
255.5163138594141
 20
903.3729096897508
 30
0.0
 10
255.3564614288987
 20
906.4211301750998
 30
0.0
 10
255.3564614288987
 20
906.4211301750998
 30
0.0
 10
251.1892739299404
 20
985.9835433496538
 30
0.0
 10
251.1892739299404
 20
985.9835433496538
 30
0.0
 10
251.1341524021765
 20
987.047388835499
 30
0.0
 10
250.2522079579525
 20
987.8742117519588
 30
0.0
 10
249.1883624721073
 20
987.8742117519588
 30
0.0
  0
SPLINE
  5
40FD
330
A
100
AcDbEntity
  8
HIDDEN
100
AcDbSpline
210
0.0
220
0.0
230
1.0
 70
     8
 71
     3
 72
    26
 73
    22
 74
     0
 42
0.000000001
 43
0.0000000001
 40
0.0
 40
0.0
 40
0.0
 40
0.0
 40
1.0
 40
1.0
 40
1.0
 40
2.0
 40
2.0
 40
2.0
 40
3.0
 40
3.0
 40
3.0
 40
4.0
 40
4.0
 40
4.0
 40
5.0
 40
5.0
 40
5.0
 40
6.0
 40
6.0
 40
6.0
 40
7.0
 40
7.0
 40
7.0
 40
7.0
 10
500.0188745621774
 20
896.9677881635743
 30
0.0
 10
500.0188745621774
 20
896.9677881635743
 30
0.0
 10
399.6370603511618
 20
896.9677881635743
 30
0.0
 10
399.6370603511618
 20
896.9677881635743
 30
0.0
 10
399.6370603511618
 20
896.9677881635743
 30
0.0
 10
399.6370603511618
 20
896.934715246916
 30
0.0
 10
399.6370603511618
 20
896.934715246916
 30
0.0
 10
398.688970073621
 20
896.7528142052947
 30
0.0
 10
398.0054631293475
 20
895.9204791360584
 30
0.0
 10
398.0054631293475
 20
894.9558524001885
 30
0.0
 10
398.0054631293475
 20
894.9558524001885
 30
0.0
 10
398.0109752821239
 20
894.812536428002
 30
0.0
 10
398.0109752821239
 20
894.812536428002
 30
0.0
 10
398.0109752821239
 20
894.812536428002
 30
0.0
 10
398.2314613931799
 20
891.6485607343487
 30
0.0
 10
398.2314613931799
 20
891.6485607343487
 30
0.0
 10
398.3802895181426
 20
889.5374062209875
 30
0.0
 10
400.1166176427085
 20
887.9058089991732
 30
0.0
 10
402.2222600032933
 20
887.9058089991732
 30
0.0
 10
402.2222600032933
 20
887.9058089991732
 30
0.0
 10
500.0188745621774
 20
887.9058089991732
 30
0.0
 10
500.0188745621774
 20
887.9058089991732
 30
0.0
  0
SPLINE
  5
40FE
330
A
100
AcDbEntity
  8
MODEL
100
AcDbSpline
210
0.0
220
0.0
230
1.0
 70
    11
 71
     3
 72
    38
 73
    34
 74
     0
 42
0.000000001
 43
0.0000000001
 40
0.0
 40
0.0
 40
0.0
 40
0.0
 40
1.0
 40
1.0
 40
1.0
 40
2.0
 40
2.0
 40
2.0
 40
3.0
 40
3.0
 40
3.0
 40
4.0
 40
4.0
 40
4.0
 40
5.0
 40
5.0
 40
5.0
 40
6.0
 40
6.0
 40
6.0
 40
7.0
 40
7.0
 40
7.0
 40
8.0
 40
8.0
 40
8.0
 40
9.0
 40
9.0
 40
9.0
 40
10.0
 40
10.0
 40
10.0
 40
11.0
 40
11.0
 40
11.0
 40
11.0
 10
451.1205672827354
 20
857.881112826124
 30
0.0
 10
451.1205672827354
 20
857.881112826124
 30
0.0
 10
648.9131453582872
 20
857.881112826124
 30
0.0
 10
648.9131453582872
 20
857.881112826124
 30
0.0
 10
648.9131453582872
 20
857.881112826124
 30
0.0
 10
653.9567651486929
 20
859.8765121311804
 30
0.0
 10
653.9567651486929
 20
859.8765121311804
 30
0.0
 10
653.9567651486929
 20
859.8765121311804
 30
0.0
 10
656.1561141064765
 20
985.8457395302437
 30
0.0
 10
656.1561141064765
 20
985.8457395302437
 30
0.0
 10
656.1561141064765
 20
985.8567638357966
 30
0.0
 10
656.1561141064765
 20
985.8733002941257
 30
0.0
 10
656.1561141064765
 20
985.878812446902
 30
0.0
 10
656.1561141064765
 20
986.9867551549585
 30
0.0
 10
655.2576332039233
 20
987.8742117519588
 30
0.0
 10
654.1552026486434
 20
987.8742117519588
 30
0.0
 10
654.1552026486434
 20
987.8742117519588
 30
0.0
 10
248.1190048334857
 20
987.8742117519588
 30
0.0
 10
248.1190048334857
 20
987.8742117519588
 30
0.0
 10
247.0165742782058
 20
987.8742117519588
 30
0.0
 10
246.123605528429
 20
986.9867551549585
 30
0.0
 10
246.123605528429
 20
985.878812446902
 30
0.0
 10
246.123605528429
 20
985.8733002941257
 30
0.0
 10
246.123605528429
 20
985.8567638357966
 30
0.0
 10
246.123605528429
 20
985.8457395302437
 30
0.0
 10
246.123605528429
 20
985.8457395302437
 30
0.0
 10
248.3229544862126
 20
859.8765121311804
 30
0.0
 10
248.3229544862126
 20
859.8765121311804
 30
0.0
 10
248.3229544862126
 20
859.8765121311804
 30
0.0
 10
253.3555499710656
 20
857.881112826124
 30
0.0
 10
253.3555499710656
 20
857.881112826124
 30
0.0
 10
253.3555499710656
 20
857.881112826124
 30
0.0
 10
451.1205672827354
 20
857.881112826124
 30
0.0
 10
451.1205672827354
 20
857.881112826124
 30
0.0
  0
SPLINE
  5
40FF
330
A
100
AcDbEntity
  8
HIDDEN
100
AcDbSpline
210
0.0
220
0.0
230
1.0
 70
     8
 71
     3
 72
    59
 73
    55
 74
     0
 42
0.000000001
 43
0.0000000001
 40
0.0
 40
0.0
 40
0.0
 40
0.0
 40
1.0
 40
1.0
 40
1.0
 40
2.0
 40
2.0
 40
2.0
 40
3.0
 40
3.0
 40
3.0
 40
4.0
 40
4.0
 40
4.0
 40
5.0
 40
5.0
 40
5.0
 40
6.0
 40
6.0
 40
6.0
 40
7.0
 40
7.0
 40
7.0
 40
8.0
 40
8.0
 40
8.0
 40
9.0
 40
9.0
 40
9.0
 40
10.0
 40
10.0
 40
10.0
 40
11.0
 40
11.0
 40
11.0
 40
12.0
 40
12.0
 40
12.0
 40
13.0
 40
13.0
 40
13.0
 40
14.0
 40
14.0
 40
14.0
 40
15.0
 40
15.0
 40
15.0
 40
16.0
 40
16.0
 40
16.0
 40
17.0
 40
17.0
 40
17.0
 40
18.0
 40
18.0
 40
18.0
 40
18.0
 10
474.1282929714279
 20
845.8756440791251
 30
0.0
 10
474.1282929714279
 20
845.8756440791251
 30
0.0
 10
474.1282929714279
 20
855.3785954656383
 30
0.0
 10
474.1282929714279
 20
855.3785954656383
 30
0.0
 10
476.2780325542237
 20
858.1677447704965
 30
0.0
 10
478.681331164734
 20
860.752944422628
 30
0.0
 10
481.327164497406
 20
863.0790728942687
 30
0.0
 10
481.327164497406
 20
863.0790728942687
 30
0.0
 10
484.4525551216246
 20
865.8351492824687
 30
0.0
 10
484.4525551216246
 20
865.8351492824687
 30
0.0
 10
484.4525551216246
 20
865.8351492824687
 30
0.0
 10
485.2628415797553
 20
866.3477794906738
 30
0.0
 10
485.2628415797553
 20
866.3477794906738
 30
0.0
 10
486.9660967876628
 20
867.0698715043821
 30
0.0
 10
488.1401853290361
 20
868.6739079623144
 30
0.0
 10
488.2945256067752
 20
870.514966989632
 30
0.0
 10
488.2945256067752
 20
870.514966989632
 30
0.0
 10
488.856765189968
 20
876.8594548352681
 30
0.0
 10
488.856765189968
 20
876.8594548352681
 30
0.0
 10
488.9173988705084
 20
877.6201319184111
 30
0.0
 10
489.1985186621048
 20
878.3422239321197
 30
0.0
 10
489.6505151897695
 20
878.9485607375237
 30
0.0
 10
490.2403155368443
 20
879.7202621262196
 30
0.0
 10
491.0836749116335
 20
880.2604530983068
 30
0.0
 10
492.042789494727
 20
880.4588905982572
 30
0.0
 10
492.042789494727
 20
880.4588905982572
 30
0.0
 10
501.8433971311657
 20
882.4542899033138
 30
0.0
 10
501.8433971311657
 20
882.4542899033138
 30
0.0
 10
503.5356280335204
 20
882.7960433754507
 30
0.0
 10
504.8144474776452
 20
884.1851058751034
 30
0.0
 10
505.0239092831484
 20
885.9104096941165
 30
0.0
 10
505.0239092831484
 20
885.9104096941165
 30
0.0
 10
506.1649249078631
 20
895.2149235806793
 30
0.0
 10
506.1649249078631
 20
895.2149235806793
 30
0.0
 10
506.2806801161676
 20
896.2181353859839
 30
0.0
 10
507.1295516437332
 20
896.9677881635743
 30
0.0
 10
508.1382756018143
 20
896.9788124691272
 30
0.0
 10
508.1382756018143
 20
896.9788124691272
 30
0.0
 10
508.1382756018143
 20
896.9788124691272
 30
0.0
 10
508.1382756018143
 20
896.9788124691272
 30
0.0
 10
538.1905325387456
 20
897.2654444135
 30
0.0
 10
603.2173988419333
 20
898.2631440660283
 30
0.0
 10
633.2365828622062
 20
900.1703489266625
 30
0.0
 10
635.9375377226422
 20
900.341225662731
 30
0.0
 10
638.6329804303016
 20
900.534151009905
 30
0.0
 10
641.3339352907376
 20
900.7160520515262
 30
0.0
 10
644.3656193177574
 20
900.9310260098058
 30
0.0
 10
646.7578936227148
 20
903.3729096897508
 30
0.0
 10
646.9122339004541
 20
906.4211301750998
 30
0.0
 10
646.9122339004541
 20
906.4211301750998
 30
0.0
 10
651.0849335521887
 20
985.9835433496538
 30
0.0
 10
651.0849335521887
 20
985.9835433496538
 30
0.0
 10
651.1400550799527
 20
987.047388835499
 30
0.0
 10
652.0219995241766
 20
987.8742117519588
 30
0.0
 10
653.0858450100218
 20
987.8742117519588
 30
0.0
  0
SPLINE
  5
4100
330
A
100
AcDbEntity
  8
MODEL
100
AcDbSpline
210
0.0
220
0.0
230
1.0
 70
     8
 71
     3
 72
    26
 73
    22
 74
     0
 42
0.000000001
 43
0.0000000001
 40
0.0
 40
0.0
 40
0.0
 40
0.0
 40
1.0
 40
1.0
 40
1.0
 40
2.0
 40
2.0
 40
2.0
 40
3.0
 40
3.0
 40
3.0
 40
4.0
 40
4.0
 40
4.0
 40
5.0
 40
5.0
 40
5.0
 40
6.0
 40
6.0
 40
6.0
 40
7.0
 40
7.0
 40
7.0
 40
7.0
 10
489.7221731758627
 20
857.8866249789
 30
0.0
 10
489.132372828788
 20
857.0598020624403
 30
0.0
 10
488.691400606676
 20
856.1282482432287
 30
0.0
 10
488.4378415789615
 20
855.1305485907003
 30
0.0
 10
488.4378415789615
 20
855.1305485907003
 30
0.0
 10
486.5085881072216
 20
847.3969982454115
 30
0.0
 10
486.5085881072216
 20
847.3969982454115
 30
0.0
 10
486.2881019961658
 20
846.5040294956347
 30
0.0
 10
485.4943519963641
 20
845.8756440791251
 30
0.0
 10
484.5738224827053
 20
845.8756440791251
 30
0.0
 10
484.5738224827053
 20
845.8756440791251
 30
0.0
 10
417.6617999299889
 20
845.8756440791251
 30
0.0
 10
417.6617999299889
 20
845.8756440791251
 30
0.0
 10
416.7467825691066
 20
845.8756440791251
 30
0.0
 10
415.9475204165286
 20
846.5040294956347
 30
0.0
 10
415.7270343054726
 20
847.3969982454115
 30
0.0
 10
415.7270343054726
 20
847.3969982454115
 30
0.0
 10
413.7977808337327
 20
855.1305485907003
 30
0.0
 10
413.7977808337327
 20
855.1305485907003
 30
0.0
 10
413.5497339587947
 20
856.1282482432287
 30
0.0
 10
413.1087617366827
 20
857.0653142152167
 30
0.0
 10
412.5134492368315
 20
857.8866249789
 30
0.0
  0
POLYLINE
  5
4102
102
{ACAD_REACTORS
330
42E3
102
}
330
A
100
AcDbEntity
  8
MODEL
 62
   253
370
    13
100
AcDb2dPolyline
 66
     1
 10
0.0
 20
0.0
 30
0.0
  0
VERTEX
  5
4103
330
4102
100
AcDbEntity
  8
MODEL
 62
   253
370
    13
100
AcDbVertex
100
AcDb2dVertex
 10
361.1181367496804
 20
857.881112826124
 30
0.0
  0
VERTEX
  5
4104
330
4102
100
AcDbEntity
  8
MODEL
 62
   253
370
    13
100
AcDbVertex
100
AcDb2dVertex
 10
361.1181367496804
 20
972.8811562001516
 30
0.0
  0
SEQEND
  5
4105
330
4102
100
AcDbEntity
  8
MODEL
 62
   253
370
    13
  0
POLYLINE
  5
4106
102
{ACAD_REACTORS
330
42E3
102
}
330
A
100
AcDbEntity
  8
MODEL
 62
   253
370
    13
100
AcDb2dPolyline
 66
     1
 10
0.0
 20
0.0
 30
0.0
  0
VERTEX
  5
4107
330
4106
100
AcDbEntity
  8
MODEL
 62
   253
370
    13
100
AcDbVertex
100
AcDb2dVertex
 10
341.1145343241258
 20
857.881112826124
 30
0.0
  0
VERTEX
  5
4108
330
4106
100
AcDbEntity
  8
MODEL
 62
   253
370
    13
100
AcDbVertex
100
AcDb2dVertex
 10
341.1145343241258
 20
972.8811562001516
 30
0.0
  0
SEQEND
  5
4109
330
4106
100
AcDbEntity
  8
MODEL
 62
   253
370
    13
  0
POLYLINE
  5
410A
102
{ACAD_REACTORS
330
42E3
102
}
330
A
100
AcDbEntity
  8
MODEL
 62
   253
370
    13
100
AcDb2dPolyline
 66
     1
 10
0.0
 20
0.0
 30
0.0
  0
VERTEX
  5
410B
330
410A
100
AcDbEntity
  8
MODEL
 62
   253
370
    13
100
AcDbVertex
100
AcDb2dVertex
 10
321.1109318985712
 20
857.881112826124
 30
0.0
  0
VERTEX
  5
410C
330
410A
100
AcDbEntity
  8
MODEL
 62
   253
370
    13
100
AcDbVertex
100
AcDb2dVertex
 10
321.1109318985712
 20
972.8811562001516
 30
0.0
  0
SEQEND
  5
410D
330
410A
100
AcDbEntity
  8
MODEL
 62
   253
370
    13
  0
POLYLINE
  5
410E
102
{ACAD_REACTORS
330
42E3
102
}
330
A
100
AcDbEntity
  8
MODEL
 62
   253
370
    13
100
AcDb2dPolyline
 66
     1
 10
0.0
 20
0.0
 30
0.0
  0
VERTEX
  5
410F
330
410E
100
AcDbEntity
  8
MODEL
 62
   253
370
    13
100
AcDbVertex
100
AcDb2dVertex
 10
301.1128416257928
 20
857.881112826124
 30
0.0
  0
VERTEX
  5
4110
330
410E
100
AcDbEntity
  8
MODEL
 62
   253
370
    13
100
AcDbVertex
100
AcDb2dVertex
 10
301.1128416257928
 20
972.8811562001516
 30
0.0
  0
SEQEND
  5
4111
330
410E
100
AcDbEntity
  8
MODEL
 62
   253
370
    13
  0
POLYLINE
  5
4112
102
{ACAD_REACTORS
330
42E3
102
}
330
A
100
AcDbEntity
  8
MODEL
 62
   253
370
    13
100
AcDb2dPolyline
 66
     1
 10
0.0
 20
0.0
 30
0.0
  0
VERTEX
  5
4113
330
4112
100
AcDbEntity
  8
MODEL
 62
   253
370
    13
100
AcDbVertex
100
AcDb2dVertex
 10
281.1092392002382
 20
857.881112826124
 30
0.0
  0
VERTEX
  5
4114
330
4112
100
AcDbEntity
  8
MODEL
 62
   253
370
    13
100
AcDbVertex
100
AcDb2dVertex
 10
281.1092392002382
 20
972.8811562001516
 30
0.0
  0
SEQEND
  5
4115
330
4112
100
AcDbEntity
  8
MODEL
 62
   253
370
    13
  0
POLYLINE
  5
4116
102
{ACAD_REACTORS
330
42E3
102
}
330
A
100
AcDbEntity
  8
MODEL
 62
   253
370
    13
100
AcDb2dPolyline
 66
     1
 10
0.0
 20
0.0
 30
0.0
  0
VERTEX
  5
4117
330
4116
100
AcDbEntity
  8
MODEL
 62
   253
370
    13
100
AcDbVertex
100
AcDb2dVertex
 10
261.1056367746835
 20
857.881112826124
 30
0.0
  0
VERTEX
  5
4118
330
4116
100
AcDbEntity
  8
MODEL
 62
   253
370
    13
100
AcDbVertex
100
AcDb2dVertex
 10
261.1056367746835
 20
972.8811562001516
 30
0.0
  0
SEQEND
  5
4119
330
4116
100
AcDbEntity
  8
MODEL
 62
   253
370
    13
  0
POLYLINE
  5
411A
102
{ACAD_REACTORS
330
42E3
102
}
330
A
100
AcDbEntity
  8
MODEL
 62
   253
370
    13
100
AcDb2dPolyline
 66
     1
 10
0.0
 20
0.0
 30
0.0
  0
VERTEX
  5
411B
330
411A
100
AcDbEntity
  8
MODEL
 62
   253
370
    13
100
AcDbVertex
100
AcDb2dVertex
 10
381.1162270224586
 20
857.881112826124
 30
0.0
  0
VERTEX
  5
411C
330
411A
100
AcDbEntity
  8
MODEL
 62
   253
370
    13
100
AcDbVertex
100
AcDb2dVertex
 10
381.1162270224586
 20
972.8811562001516
 30
0.0
  0
SEQEND
  5
411D
330
411A
100
AcDbEntity
  8
MODEL
 62
   253
370
    13
  0
POLYLINE
  5
411E
102
{ACAD_REACTORS
330
42E3
102
}
330
A
100
AcDbEntity
  8
MODEL
 62
   253
370
    13
100
AcDb2dPolyline
 66
     1
 10
0.0
 20
0.0
 30
0.0
  0
VERTEX
  5
411F
330
411E
100
AcDbEntity
  8
MODEL
 62
   253
370
    13
100
AcDbVertex
100
AcDb2dVertex
 10
401.1198294480133
 20
857.881112826124
 30
0.0
  0
VERTEX
  5
4120
330
411E
100
AcDbEntity
  8
MODEL
 62
   253
370
    13
100
AcDbVertex
100
AcDb2dVertex
 10
401.1198294480133
 20
972.8811562001516
 30
0.0
  0
SEQEND
  5
4121
330
411E
100
AcDbEntity
  8
MODEL
 62
   253
370
    13
  0
POLYLINE
  5
4122
102
{ACAD_REACTORS
330
42E3
102
}
330
A
100
AcDbEntity
  8
MODEL
 62
   253
370
    13
100
AcDb2dPolyline
 66
     1
 10
0.0
 20
0.0
 30
0.0
  0
VERTEX
  5
4123
330
4122
100
AcDbEntity
  8
MODEL
 62
   253
370
    13
100
AcDbVertex
100
AcDb2dVertex
 10
421.1234318735679
 20
857.881112826124
 30
0.0
  0
VERTEX
  5
4124
330
4122
100
AcDbEntity
  8
MODEL
 62
   253
370
    13
100
AcDbVertex
100
AcDb2dVertex
 10
421.1234318735679
 20
972.8811562001516
 30
0.0
  0
SEQEND
  5
4125
330
4122
100
AcDbEntity
  8
MODEL
 62
   253
370
    13
  0
POLYLINE
  5
4126
102
{ACAD_REACTORS
330
42E3
102
}
330
A
100
AcDbEntity
  8
MODEL
 62
   253
370
    13
100
AcDb2dPolyline
 66
     1
 10
0.0
 20
0.0
 30
0.0
  0
VERTEX
  5
4127
330
4126
100
AcDbEntity
  8
MODEL
 62
   253
370
    13
100
AcDbVertex
100
AcDb2dVertex
 10
441.1270342991227
 20
857.881112826124
 30
0.0
  0
VERTEX
  5
4128
330
4126
100
AcDbEntity
  8
MODEL
 62
   253
370
    13
100
AcDbVertex
100
AcDb2dVertex
 10
441.1270342991227
 20
972.8811562001516
 30
0.0
  0
SEQEND
  5
4129
330
4126
100
AcDbEntity
  8
MODEL
 62
   253
370
    13
  0
POLYLINE
  5
412A
102
{ACAD_REACTORS
330
42E3
102
}
330
A
100
AcDbEntity
  8
MODEL
 62
   253
370
    13
100
AcDb2dPolyline
 66
     1
 10
0.0
 20
0.0
 30
0.0
  0
VERTEX
  5
412B
330
412A
100
AcDbEntity
  8
MODEL
 62
   253
370
    13
100
AcDbVertex
100
AcDb2dVertex
 10
461.1306367246773
 20
857.881112826124
 30
0.0
  0
VERTEX
  5
412C
330
412A
100
AcDbEntity
  8
MODEL
 62
   253
370
    13
100
AcDbVertex
100
AcDb2dVertex
 10
461.1306367246773
 20
972.8811562001516
 30
0.0
  0
SEQEND
  5
412D
330
412A
100
AcDbEntity
  8
MODEL
 62
   253
370
    13
  0
POLYLINE
  5
412E
102
{ACAD_REACTORS
330
42E3
102
}
330
A
100
AcDbEntity
  8
MODEL
 62
   253
370
    13
100
AcDb2dPolyline
 66
     1
 10
0.0
 20
0.0
 30
0.0
  0
VERTEX
  5
412F
330
412E
100
AcDbEntity
  8
MODEL
 62
   253
370
    13
100
AcDbVertex
100
AcDb2dVertex
 10
481.1287269974555
 20
857.881112826124
 30
0.0
  0
VERTEX
  5
4130
330
412E
100
AcDbEntity
  8
MODEL
 62
   253
370
    13
100
AcDbVertex
100
AcDb2dVertex
 10
481.1287269974555
 20
972.8811562001516
 30
0.0
  0
SEQEND
  5
4131
330
412E
100
AcDbEntity
  8
MODEL
 62
   253
370
    13
  0
POLYLINE
  5
4132
102
{ACAD_REACTORS
330
42E3
102
}
330
A
100
AcDbEntity
  8
MODEL
 62
   253
370
    13
100
AcDb2dPolyline
 66
     1
 10
0.0
 20
0.0
 30
0.0
  0
VERTEX
  5
4133
330
4132
100
AcDbEntity
  8
MODEL
 62
   253
370
    13
100
AcDbVertex
100
AcDb2dVertex
 10
501.1323294230102
 20
857.881112826124
 30
0.0
  0
VERTEX
  5
4134
330
4132
100
AcDbEntity
  8
MODEL
 62
   253
370
    13
100
AcDbVertex
100
AcDb2dVertex
 10
501.1323294230102
 20
972.8811562001516
 30
0.0
  0
SEQEND
  5
4135
330
4132
100
AcDbEntity
  8
MODEL
 62
   253
370
    13
  0
POLYLINE
  5
4136
102
{ACAD_REACTORS
330
42E3
102
}
330
A
100
AcDbEntity
  8
MODEL
 62
   253
370
    13
100
AcDb2dPolyline
 66
     1
 10
0.0
 20
0.0
 30
0.0
  0
VERTEX
  5
4137
330
4136
100
AcDbEntity
  8
MODEL
 62
   253
370
    13
100
AcDbVertex
100
AcDb2dVertex
 10
521.1359318485648
 20
857.881112826124
 30
0.0
  0
VERTEX
  5
4138
330
4136
100
AcDbEntity
  8
MODEL
 62
   253
370
    13
100
AcDbVertex
100
AcDb2dVertex
 10
521.1359318485648
 20
972.8811562001516
 30
0.0
  0
SEQEND
  5
4139
330
4136
100
AcDbEntity
  8
MODEL
 62
   253
370
    13
  0
POLYLINE
  5
413A
102
{ACAD_REACTORS
330
42E3
102
}
330
A
100
AcDbEntity
  8
MODEL
 62
   253
370
    13
100
AcDb2dPolyline
 66
     1
 10
0.0
 20
0.0
 30
0.0
  0
VERTEX
  5
413B
330
413A
100
AcDbEntity
  8
MODEL
 62
   253
370
    13
100
AcDbVertex
100
AcDb2dVertex
 10
541.1340221213432
 20
857.881112826124
 30
0.0
  0
VERTEX
  5
413C
330
413A
100
AcDbEntity
  8
MODEL
 62
   253
370
    13
100
AcDbVertex
100
AcDb2dVertex
 10
541.1340221213432
 20
972.8811562001516
 30
0.0
  0
SEQEND
  5
413D
330
413A
100
AcDbEntity
  8
MODEL
 62
   253
370
    13
  0
POLYLINE
  5
413E
102
{ACAD_REACTORS
330
42E3
102
}
330
A
100
AcDbEntity
  8
MODEL
 62
   253
370
    13
100
AcDb2dPolyline
 66
     1
 10
0.0
 20
0.0
 30
0.0
  0
VERTEX
  5
413F
330
413E
100
AcDbEntity
  8
MODEL
 62
   253
370
    13
100
AcDbVertex
100
AcDb2dVertex
 10
561.1376245468978
 20
857.881112826124
 30
0.0
  0
VERTEX
  5
4140
330
413E
100
AcDbEntity
  8
MODEL
 62
   253
370
    13
100
AcDbVertex
100
AcDb2dVertex
 10
561.1376245468978
 20
972.8811562001516
 30
0.0
  0
SEQEND
  5
4141
330
413E
100
AcDbEntity
  8
MODEL
 62
   253
370
    13
  0
POLYLINE
  5
4142
102
{ACAD_REACTORS
330
42E3
102
}
330
A
100
AcDbEntity
  8
MODEL
 62
   253
370
    13
100
AcDb2dPolyline
 66
     1
 10
0.0
 20
0.0
 30
0.0
  0
VERTEX
  5
4143
330
4142
100
AcDbEntity
  8
MODEL
 62
   253
370
    13
100
AcDbVertex
100
AcDb2dVertex
 10
581.1412269724524
 20
857.881112826124
 30
0.0
  0
VERTEX
  5
4144
330
4142
100
AcDbEntity
  8
MODEL
 62
   253
370
    13
100
AcDbVertex
100
AcDb2dVertex
 10
581.1412269724524
 20
972.8811562001516
 30
0.0
  0
SEQEND
  5
4145
330
4142
100
AcDbEntity
  8
MODEL
 62
   253
370
    13
  0
POLYLINE
  5
4146
102
{ACAD_REACTORS
330
42E3
102
}
330
A
100
AcDbEntity
  8
MODEL
 62
   253
370
    13
100
AcDb2dPolyline
 66
     1
 10
0.0
 20
0.0
 30
0.0
  0
VERTEX
  5
4147
330
4146
100
AcDbEntity
  8
MODEL
 62
   253
370
    13
100
AcDbVertex
100
AcDb2dVertex
 10
601.144829398007
 20
857.881112826124
 30
0.0
  0
VERTEX
  5
4148
330
4146
100
AcDbEntity
  8
MODEL
 62
   253
370
    13
100
AcDbVertex
100
AcDb2dVertex
 10
601.144829398007
 20
972.8811562001516
 30
0.0
  0
SEQEND
  5
4149
330
4146
100
AcDbEntity
  8
MODEL
 62
   253
370
    13
  0
POLYLINE
  5
414A
102
{ACAD_REACTORS
330
42E3
102
}
330
A
100
AcDbEntity
  8
MODEL
 62
   253
370
    13
100
AcDb2dPolyline
 66
     1
 10
0.0
 20
0.0
 30
0.0
  0
VERTEX
  5
414B
330
414A
100
AcDbEntity
  8
MODEL
 62
   253
370
    13
100
AcDbVertex
100
AcDb2dVertex
 10
621.153943976338
 20
857.881112826124
 30
0.0
  0
VERTEX
  5
414C
330
414A
100
AcDbEntity
  8
MODEL
 62
   253
370
    13
100
AcDbVertex
100
AcDb2dVertex
 10
621.153943976338
 20
972.8811562001516
 30
0.0
  0
SEQEND
  5
414D
330
414A
100
AcDbEntity
  8
MODEL
 62
   253
370
    13
  0
POLYLINE
  5
414E
102
{ACAD_REACTORS
330
42E3
102
}
330
A
100
AcDbEntity
  8
MODEL
 62
   253
370
    13
100
AcDb2dPolyline
 66
     1
 10
0.0
 20
0.0
 30
0.0
  0
VERTEX
  5
414F
330
414E
100
AcDbEntity
  8
MODEL
 62
   253
370
    13
100
AcDbVertex
100
AcDb2dVertex
 10
641.1685707074456
 20
857.881112826124
 30
0.0
  0
VERTEX
  5
4150
330
414E
100
AcDbEntity
  8
MODEL
 62
   253
370
    13
100
AcDbVertex
100
AcDb2dVertex
 10
641.1685707074456
 20
972.8811562001516
 30
0.0
  0
SEQEND
  5
4151
330
414E
100
AcDbEntity
  8
MODEL
 62
   253
370
    13
  0
SPLINE
  5
4155
330
A
100
AcDbEntity
  8
HIDDEN
100
AcDbSpline
210
0.0
220
0.0
230
1.0
 70
     8
 71
     3
 72
    11
 73
     7
 74
     0
 42
0.000000001
 43
0.0000000001
 40
0.864344974400616
 40
0.864344974400616
 40
0.864344974400616
 40
0.864344974400616
 40
1.0
 40
1.0
 40
1.0
 40
2.0
 40
2.0
 40
2.0
 40
2.0
 10
500.0188745621774
 20
896.9677881635741
 30
0.0
 10
501.6566599969967
 20
896.9677881635743
 30
0.0
 10
502.604074214309
 20
896.9677881635741
 30
0.0
 10
502.604074214309
 20
896.9677881635743
 30
0.0
 10
502.604074214309
 20
896.9677881635743
 30
0.0
 10
502.604074214309
 20
896.934715246916
 30
0.0
 10
502.604074214309
 20
896.934715246916
 30
0.0
  0
SPLINE
  5
4156
330
A
100
AcDbEntity
  8
HIDDEN
100
AcDbSpline
210
0.0
220
0.0
230
1.0
 70
     8
 71
     3
 72
    14
 73
    10
 74
     0
 42
0.000000001
 43
0.0000000001
 40
2.0
 40
2.0
 40
2.0
 40
2.0
 40
3.0
 40
3.0
 40
3.0
 40
4.0
 40
4.0
 40
4.0
 40
5.0
 40
5.0
 40
5.0
 40
5.0
 10
502.604074214309
 20
896.934715246916
 30
0.0
 10
503.5521644918497
 20
896.7528142052947
 30
0.0
 10
504.2356714361232
 20
895.9204791360584
 30
0.0
 10
504.2356714361232
 20
894.9558524001885
 30
0.0
 10
504.2356714361232
 20
894.9558524001885
 30
0.0
 10
504.2301592833469
 20
894.812536428002
 30
0.0
 10
504.2301592833469
 20
894.812536428002
 30
0.0
 10
504.2301592833469
 20
894.812536428002
 30
0.0
 10
504.0096731722908
 20
891.6485607343487
 30
0.0
 10
504.0096731722908
 20
891.6485607343487
 30
0.0
  0
SPLINE
  5
4157
330
A
100
AcDbEntity
  8
HIDDEN
100
AcDbSpline
210
0.0
220
0.0
230
1.0
 70
     8
 71
     3
 72
     8
 73
     4
 74
     0
 42
0.000000001
 43
0.0000000001
 40
5.0
 40
5.0
 40
5.0
 40
5.0
 40
6.0
 40
6.0
 40
6.0
 40
6.0
 10
504.0096731722908
 20
891.6485607343487
 30
0.0
 10
503.8663572001044
 20
889.5374062209875
 30
0.0
 10
502.1190047699857
 20
887.9058089991732
 30
0.0
 10
500.0188745621774
 20
887.9058089991732
 30
0.0
  0
SPLINE
  5
41C9
102
{ACAD_REACTORS
330
4239
102
}
330
A
100
AcDbEntity
  8
HIDDEN
100
AcDbSpline
210
0.0
220
0.0
230
1.0
 70
     8
 71
     3
 72
    32
 73
    28
 74
     0
 42
0.000000001
 43
0.0000000001
 40
0.0
 40
0.0
 40
0.0
 40
0.0
 40
1.0
 40
1.0
 40
1.0
 40
2.0
 40
2.0
 40
2.0
 40
3.0
 40
3.0
 40
3.0
 40
4.0
 40
4.0
 40
4.0
 40
5.0
 40
5.0
 40
5.0
 40
6.0
 40
6.0
 40
6.0
 40
7.0
 40
7.0
 40
7.0
 40
8.0
 40
8.0
 40
8.0
 40
9.0
 40
9.0
 40
9.0
 40
9.0
 10
1434.136724814433
 20
845.8756440791249
 30
0.0
 10
1434.136724814433
 20
845.8756440791249
 30
0.0
 10
1434.136724814433
 20
855.3785954656381
 30
0.0
 10
1434.136724814433
 20
855.3785954656381
 30
0.0
 10
1436.286464397229
 20
858.1677447704963
 30
0.0
 10
1438.695275160516
 20
860.741920117075
 30
0.0
 10
1441.341108493187
 20
863.0735607414921
 30
0.0
 10
1441.341108493187
 20
863.0735607414921
 30
0.0
 10
1443.876698770331
 20
865.3170069214867
 30
0.0
 10
1443.876698770331
 20
865.3170069214867
 30
0.0
 10
1444.356256061878
 20
865.746954838046
 30
0.0
 10
1444.962592867282
 20
866.0005138657602
 30
0.0
 10
1445.602002589344
 20
866.0611475463006
 30
0.0
 10
1449.12978036624
 20
866.3753402545555
 30
0.0
 10
1452.641021684807
 20
866.6950451155867
 30
0.0
 10
1456.168799461703
 20
867.0753836571582
 30
0.0
 10
1462.584945293432
 20
867.7699149069845
 30
0.0
 10
1469.006603277938
 20
868.4975190734694
 30
0.0
 10
1475.422921364441
 20
869.2416596982835
 30
0.0
 10
1478.33333803038
 20
869.5779010176437
 30
0.0
 10
1480.565759904822
 20
871.9591510170483
 30
0.0
 10
1480.720100182562
 20
874.8916162940932
 30
0.0
 10
1480.720100182562
 20
874.8916162940932
 30
0.0
 10
1486.557469972769
 20
985.978031196877
 30
0.0
 10
1486.557469972769
 20
985.978031196877
 30
0.0
 10
1486.612591500533
 20
987.0418766827222
 30
0.0
 10
1487.483511639204
 20
987.8742117519586
 30
0.0
 10
1488.552869277825
 20
987.8742117519586
 30
0.0
  0
POLYLINE
  5
41CA
102
{ACAD_REACTORS
330
4239
102
}
330
A
100
AcDbEntity
  8
HIDDEN
100
AcDb2dPolyline
 66
     1
 10
0.0
 20
0.0
 30
0.0
  0
VERTEX
  5
41CB
330
41CA
100
AcDbEntity
  8
HIDDEN
100
AcDbVertex
100
AcDb2dVertex
 10
1372.218195912812
 20
887.8837603880673
 30
0.0
  0
VERTEX
  5
41CC
330
41CA
100
AcDbEntity
  8
HIDDEN
100
AcDbVertex
100
AcDb2dVertex
 10
1373.667892093005
 20
887.7128836519989
 30
0.0
  0
VERTEX
  5
41CD
330
41CA
100
AcDbEntity
  8
HIDDEN
100
AcDbVertex
100
AcDb2dVertex
 10
1373.76711084298
 20
887.9609305269371
 30
0.0
  0
VERTEX
  5
41CE
330
41CA
100
AcDbEntity
  8
HIDDEN
100
AcDbVertex
100
AcDb2dVertex
 10
1375.360467504908
 20
891.1414426789196
 30
0.0
  0
SEQEND
  5
4222
330
41CA
100
AcDbEntity
  8
HIDDEN
  0
POLYLINE
  5
41CF
102
{ACAD_REACTORS
330
4239
102
}
330
A
100
AcDbEntity
  8
HIDDEN
100
AcDb2dPolyline
 66
     1
 10
0.0
 20
0.0
 30
0.0
  0
VERTEX
  5
41D0
330
41CF
100
AcDbEntity
  8
HIDDEN
100
AcDbVertex
100
AcDb2dVertex
 10
1363.916893831554
 20
888.9861909433472
 30
0.0
  0
VERTEX
  5
41D1
330
41CF
100
AcDbEntity
  8
HIDDEN
100
AcDbVertex
100
AcDb2dVertex
 10
1362.643586540206
 20
889.1680919849684
 30
0.0
  0
SEQEND
  5
4223
330
41CF
100
AcDbEntity
  8
HIDDEN
  0
SPLINE
  5
41D2
102
{ACAD_REACTORS
330
4239
102
}
330
A
100
AcDbEntity
  8
HIDDEN
100
AcDbSpline
210
0.0
220
0.0
230
1.0
 70
     8
 71
     3
 72
     8
 73
     4
 74
     0
 42
0.000000001
 43
0.0000000001
 40
0.0
 40
0.0
 40
0.0
 40
0.0
 40
1.0
 40
1.0
 40
1.0
 40
1.0
 10
1362.092371262566
 20
892.7234305257462
 30
0.0
 10
1361.767154248758
 20
892.7565034424047
 30
0.0
 10
1361.486034457162
 20
892.9494287895786
 30
0.0
 10
1361.326182026646
 20
893.2360607339514
 30
0.0
  0
SPLINE
  5
41D3
102
{ACAD_REACTORS
330
4239
102
}
330
A
100
AcDbEntity
  8
HIDDEN
100
AcDbSpline
210
0.0
220
0.0
230
1.0
 70
     8
 71
     3
 72
     8
 73
     4
 74
     0
 42
0.000000001
 43
0.0000000001
 40
0.0
 40
0.0
 40
0.0
 40
0.0
 40
1.0
 40
1.0
 40
1.0
 40
1.0
 10
1360.389116054658
 20
894.1124930253991
 30
0.0
 10
1360.785991054559
 20
893.9361041365543
 30
0.0
 10
1361.116720221143
 20
893.6219114282994
 30
0.0
 10
1361.326182026646
 20
893.2360607339514
 30
0.0
  0
SPLINE
  5
41D4
102
{ACAD_REACTORS
330
4239
102
}
330
A
100
AcDbEntity
  8
HIDDEN
100
AcDbSpline
210
0.0
220
0.0
230
1.0
 70
     8
 71
     3
 72
    26
 73
    22
 74
     0
 42
0.000000001
 43
0.0000000001
 40
0.0
 40
0.0
 40
0.0
 40
0.0
 40
1.0
 40
1.0
 40
1.0
 40
2.0
 40
2.0
 40
2.0
 40
3.0
 40
3.0
 40
3.0
 40
4.0
 40
4.0
 40
4.0
 40
5.0
 40
5.0
 40
5.0
 40
6.0
 40
6.0
 40
6.0
 40
7.0
 40
7.0
 40
7.0
 40
7.0
 10
1361.998664665367
 20
892.7289426785227
 30
0.0
 10
1361.998664665367
 20
892.7289426785227
 30
0.0
 10
1361.960079595932
 20
892.3651405952803
 30
0.0
 10
1361.960079595932
 20
892.3651405952803
 30
0.0
 10
1361.960079595932
 20
892.3651405952803
 30
0.0
 10
1361.960079595932
 20
892.100557262013
 30
0.0
 10
1361.960079595932
 20
892.100557262013
 30
0.0
 10
1361.960079595932
 20
892.100557262013
 30
0.0
 10
1362.356954595833
 20
889.3169201099313
 30
0.0
 10
1362.356954595833
 20
889.3169201099313
 30
0.0
 10
1362.356954595833
 20
889.3169201099313
 30
0.0
 10
1362.643586540206
 20
889.1680919849684
 30
0.0
 10
1362.643586540206
 20
889.1680919849684
 30
0.0
 10
1364.313768831455
 20
889.9287690681116
 30
0.0
 10
1366.171364317102
 20
890.2209131652609
 30
0.0
 10
1368.001399038866
 20
890.0059392069811
 30
0.0
 10
1368.001399038866
 20
890.0059392069811
 30
0.0
 10
1368.453395566531
 20
889.9508176792172
 30
0.0
 10
1368.453395566531
 20
889.9508176792172
 30
0.0
 10
1370.288942441072
 20
889.7303315681613
 30
0.0
 10
1372.014246260085
 20
889.0137517072293
 30
0.0
 10
1373.458430287502
 20
887.8782482352908
 30
0.0
  0
SPLINE
  5
41D5
102
{ACAD_REACTORS
330
4239
102
}
330
A
100
AcDbEntity
  8
HIDDEN
100
AcDbSpline
210
0.0
220
0.0
230
1.0
 70
     8
 71
     3
 72
    56
 73
    52
 74
     0
 42
0.000000001
 43
0.0000000001
 40
0.0
 40
0.0
 40
0.0
 40
0.0
 40
1.0
 40
1.0
 40
1.0
 40
2.0
 40
2.0
 40
2.0
 40
3.0
 40
3.0
 40
3.0
 40
4.0
 40
4.0
 40
4.0
 40
5.0
 40
5.0
 40
5.0
 40
6.0
 40
6.0
 40
6.0
 40
7.0
 40
7.0
 40
7.0
 40
8.0
 40
8.0
 40
8.0
 40
9.0
 40
9.0
 40
9.0
 40
10.0
 40
10.0
 40
10.0
 40
11.0
 40
11.0
 40
11.0
 40
12.0
 40
12.0
 40
12.0
 40
13.0
 40
13.0
 40
13.0
 40
14.0
 40
14.0
 40
14.0
 40
15.0
 40
15.0
 40
15.0
 40
16.0
 40
16.0
 40
16.0
 40
17.0
 40
17.0
 40
17.0
 40
17.0
 10
1360.389116054658
 20
894.1124930253991
 30
0.0
 10
1359.03863862444
 20
894.7133176780267
 30
0.0
 10
1358.129133416334
 20
896.0086735804805
 30
0.0
 10
1358.024402513583
 20
897.4804183717793
 30
0.0
 10
1358.024402513583
 20
897.4804183717793
 30
0.0
 10
1357.781867791421
 20
900.9144895514761
 30
0.0
 10
1357.781867791421
 20
900.9144895514761
 30
0.0
 10
1357.704697652551
 20
902.0169201067561
 30
0.0
 10
1358.542544874564
 20
902.9650103842969
 30
0.0
 10
1359.644975429844
 20
903.0476926759429
 30
0.0
 10
1359.766242790925
 20
903.0587169814959
 30
0.0
 10
1359.893022304782
 20
903.0476926759429
 30
0.0
 10
1360.014289665863
 20
903.0366683703903
 30
0.0
 10
1360.014289665863
 20
903.0366683703903
 30
0.0
 10
1453.048920990261
 20
891.9792899009324
 30
0.0
 10
1453.048920990261
 20
891.9792899009324
 30
0.0
 10
1454.145839392764
 20
891.8469982342987
 30
0.0
 10
1454.928565087013
 20
890.8548107345466
 30
0.0
 10
1454.796273420379
 20
889.7578923320432
 30
0.0
 10
1454.790761267603
 20
889.7248194153847
 30
0.0
 10
1454.790761267603
 20
889.6917464987264
 30
0.0
 10
1454.774224809274
 20
889.6531614292916
 30
0.0
 10
1454.774224809274
 20
889.6531614292916
 30
0.0
 10
1454.256082448292
 20
886.5884044856133
 30
0.0
 10
1454.256082448292
 20
886.5884044856133
 30
0.0
 10
1453.89228036505
 20
884.4937864305815
 30
0.0
 10
1451.952002587757
 20
883.0496024031646
 30
0.0
 10
1449.846360227172
 20
883.2976492781027
 30
0.0
 10
1449.846360227172
 20
883.2976492781027
 30
0.0
 10
1410.439807773916
 20
887.9829791380424
 30
0.0
 10
1410.439807773916
 20
887.9829791380424
 30
0.0
 10
1410.439807773916
 20
887.9829791380424
 30
0.0
 10
1377.250963652439
 20
891.9296805259447
 30
0.0
 10
1377.250963652439
 20
891.9296805259447
 30
0.0
 10
1377.250963652439
 20
891.9296805259447
 30
0.0
 10
1377.250963652439
 20
891.9241683731684
 30
0.0
 10
1377.250963652439
 20
891.9241683731684
 30
0.0
 10
1376.68321191647
 20
891.9903142064852
 30
0.0
 10
1376.115632435275
 20
891.8194374704167
 30
0.0
 10
1375.691196671492
 20
891.4390989288452
 30
0.0
 10
1375.691196671492
 20
891.4390989288452
 30
0.0
 10
1375.360467504908
 20
891.1414426789196
 30
0.0
 10
1375.360467504908
 20
891.1414426789196
 30
0.0
 10
1375.360467504908
 20
891.1414426789196
 30
0.0
 10
1374.913638620471
 20
891.1965642066834
 30
0.0
 10
1374.913638620471
 20
891.1965642066834
 30
0.0
 10
1374.913638620471
 20
891.1965642066834
 30
0.0
 10
1374.919150773248
 20
891.1965642066834
 30
0.0
 10
1374.919150773248
 20
891.1965642066834
 30
0.0
 10
1374.919150773248
 20
891.1965642066834
 30
0.0
 10
1361.998664665367
 20
892.7289426785227
 30
0.0
 10
1361.998664665367
 20
892.7289426785227
 30
0.0
  0
SPLINE
  5
41D6
102
{ACAD_REACTORS
330
4239
102
}
330
A
100
AcDbEntity
  8
HIDDEN
100
AcDbSpline
210
0.0
220
0.0
230
1.0
 70
     8
 71
     3
 72
     8
 73
     4
 74
     0
 42
0.000000001
 43
0.0000000001
 40
0.0
 40
0.0
 40
0.0
 40
0.0
 40
1.0
 40
1.0
 40
1.0
 40
1.0
 10
1448.782514741327
 20
878.4359305293182
 30
0.0
 10
1449.019537310712
 20
877.9233003211131
 30
0.0
 10
1449.372315088402
 20
877.482328099001
 30
0.0
 10
1449.829823768843
 20
877.1571110851935
 30
0.0
  0
SPLINE
  5
41D7
102
{ACAD_REACTORS
330
4239
102
}
330
A
100
AcDbEntity
  8
HIDDEN
100
AcDbSpline
210
0.0
220
0.0
230
1.0
 70
     8
 71
     3
 72
     8
 73
     4
 74
     0
 42
0.000000001
 43
0.0000000001
 40
0.0
 40
0.0
 40
0.0
 40
0.0
 40
1.0
 40
1.0
 40
1.0
 40
1.0
 10
1438.656690091081
 20
878.4855399043057
 30
0.0
 10
1439.174832452062
 20
878.6950017098089
 30
0.0
 10
1439.632341132504
 20
879.0367551819458
 30
0.0
 10
1439.979606757417
 20
879.4942638623869
 30
0.0
  0
SPLINE
  5
41D8
102
{ACAD_REACTORS
330
4239
102
}
330
A
100
AcDbEntity
  8
HIDDEN
100
AcDbSpline
210
0.0
220
0.0
230
1.0
 70
     8
 71
     3
 72
     8
 73
     4
 74
     0
 42
0.000000001
 43
0.0000000001
 40
0.0
 40
0.0
 40
0.0
 40
0.0
 40
1.0
 40
1.0
 40
1.0
 40
1.0
 10
1448.534467866389
 20
878.9265121264177
 30
0.0
 10
1448.633686616364
 20
878.766659695902
 30
0.0
 10
1448.710856755234
 20
878.612319418163
 30
0.0
 10
1448.782514741327
 20
878.4359305293182
 30
0.0
  0
SPLINE
  5
41D9
102
{ACAD_REACTORS
330
4239
102
}
330
A
100
AcDbEntity
  8
HIDDEN
100
AcDbSpline
210
0.0
220
0.0
230
1.0
 70
     8
 71
     3
 72
     8
 73
     4
 74
     0
 42
0.000000001
 43
0.0000000001
 40
0.0
 40
0.0
 40
0.0
 40
0.0
 40
1.0
 40
1.0
 40
1.0
 40
1.0
 10
1439.979606757417
 20
879.4942638623869
 30
0.0
 10
1440.089849812945
 20
879.6375798345732
 30
0.0
 10
1440.211117174026
 20
879.7753836539833
 30
0.0
 10
1440.332384535106
 20
879.8966510150641
 30
0.0
  0
POLYLINE
  5
41DA
102
{ACAD_REACTORS
330
4239
102
}
330
A
100
AcDbEntity
  8
HIDDEN
100
AcDb2dPolyline
 66
     1
 10
0.0
 20
0.0
 30
0.0
  0
VERTEX
  5
41DB
330
41DA
100
AcDbEntity
  8
HIDDEN
100
AcDbVertex
100
AcDb2dVertex
 10
1444.427914047971
 20
879.4170937235173
 30
0.0
  0
VERTEX
  5
41DC
330
41DA
100
AcDbEntity
  8
HIDDEN
100
AcDbVertex
100
AcDb2dVertex
 10
1449.614849810564
 20
878.7831961542313
 30
0.0
  0
VERTEX
  5
41DD
330
41DA
100
AcDbEntity
  8
HIDDEN
100
AcDbVertex
100
AcDb2dVertex
 10
1450.144016477098
 20
878.8879270569829
 30
0.0
  0
VERTEX
  5
41DE
330
41DA
100
AcDbEntity
  8
HIDDEN
100
AcDbVertex
100
AcDb2dVertex
 10
1451.670882796161
 20
882.4983871255248
 30
0.0
  0
SEQEND
  5
4224
330
41DA
100
AcDbEntity
  8
HIDDEN
  0
POLYLINE
  5
41DF
102
{ACAD_REACTORS
330
4239
102
}
330
A
100
AcDbEntity
  8
HIDDEN
100
AcDb2dPolyline
 66
     1
 10
0.0
 20
0.0
 30
0.0
  0
VERTEX
  5
41E0
330
41DF
100
AcDbEntity
  8
HIDDEN
100
AcDbVertex
100
AcDb2dVertex
 10
1444.427914047971
 20
879.4170937235173
 30
0.0
  0
VERTEX
  5
41E1
330
41DF
100
AcDbEntity
  8
HIDDEN
100
AcDbVertex
100
AcDb2dVertex
 10
1438.932297729901
 20
880.0730399039088
 30
0.0
  0
VERTEX
  5
41E2
330
41DF
100
AcDbEntity
  8
HIDDEN
100
AcDbVertex
100
AcDb2dVertex
 10
1438.75039668828
 20
880.2384044872009
 30
0.0
  0
VERTEX
  5
41E3
330
41DF
100
AcDbEntity
  8
HIDDEN
100
AcDbVertex
100
AcDb2dVertex
 10
1438.414155368919
 20
883.644914903016
 30
0.0
  0
SEQEND
  5
4225
330
41DF
100
AcDbEntity
  8
HIDDEN
  0
SPLINE
  5
41E4
102
{ACAD_REACTORS
330
4239
102
}
330
A
100
AcDbEntity
  8
HIDDEN
100
AcDbSpline
210
0.0
220
0.0
230
1.0
 70
     8
 71
     3
 72
    23
 73
    19
 74
     0
 42
0.000000001
 43
0.0000000001
 40
0.0
 40
0.0
 40
0.0
 40
0.0
 40
1.0
 40
1.0
 40
1.0
 40
2.0
 40
2.0
 40
2.0
 40
3.0
 40
3.0
 40
3.0
 40
4.0
 40
4.0
 40
4.0
 40
5.0
 40
5.0
 40
5.0
 40
6.0
 40
6.0
 40
6.0
 40
6.0
 10
1452.624485226478
 20
884.0142291390347
 30
0.0
 10
1452.282731754341
 20
883.7275971946619
 30
0.0
 10
1452.034684879403
 20
883.3527708058667
 30
0.0
 10
1451.907905365546
 20
882.9173107365311
 30
0.0
 10
1451.792150157241
 20
882.432241292208
 30
0.0
 10
1451.3346414768
 20
882.1125364311769
 30
0.0
 10
1450.827523421371
 20
882.1731701117171
 30
0.0
 10
1450.827523421371
 20
882.1731701117171
 30
0.0
 10
1444.841325506201
 20
882.8842378198727
 30
0.0
 10
1444.841325506201
 20
882.8842378198727
 30
0.0
 10
1444.841325506201
 20
882.8842378198727
 30
0.0
 10
1438.414155368919
 20
883.644914903016
 30
0.0
 10
1438.414155368919
 20
883.644914903016
 30
0.0
 10
1438.116499118994
 20
883.6890121252271
 30
0.0
 10
1437.868452244056
 20
883.8323280974136
 30
0.0
 10
1437.686551202434
 20
884.0693506667985
 30
0.0
 10
1437.35582203585
 20
884.5268593472398
 30
0.0
 10
1436.876264744304
 20
884.8190034443891
 30
0.0
 10
1436.319537313887
 20
884.9071978888114
 30
0.0
  0
SPLINE
  5
41E5
102
{ACAD_REACTORS
330
4239
102
}
330
A
100
AcDbEntity
  8
HIDDEN
100
AcDbSpline
210
0.0
220
0.0
230
1.0
 70
     8
 71
     3
 72
    17
 73
    13
 74
     0
 42
0.000000001
 43
0.0000000001
 40
0.0
 40
0.0
 40
0.0
 40
0.0
 40
1.0
 40
1.0
 40
1.0
 40
2.0
 40
2.0
 40
2.0
 40
3.0
 40
3.0
 40
3.0
 40
4.0
 40
4.0
 40
4.0
 40
4.0
 10
1454.774224809274
 20
890.1878402486024
 30
0.0
 10
1454.774224809274
 20
890.1878402486024
 30
0.0
 10
1455.672705711827
 20
875.1727360856895
 30
0.0
 10
1455.672705711827
 20
875.1727360856895
 30
0.0
 10
1455.689242170156
 20
874.2577187248072
 30
0.0
 10
1455.82153383679
 20
873.3371892111484
 30
0.0
 10
1456.113677933939
 20
872.4662690724773
 30
0.0
 10
1456.301091128336
 20
871.8764687254023
 30
0.0
 10
1456.560162308827
 20
871.3197412949861
 30
0.0
 10
1456.918452239293
 20
870.8126232395574
 30
0.0
 10
1457.816933141846
 20
869.5282916426562
 30
0.0
 10
1459.205995641499
 20
868.6353228928795
 30
0.0
 10
1460.738374113338
 20
868.3156180318482
 30
0.0
  0
SPLINE
  5
41E6
330
A
100
AcDbEntity
  8
0
100
AcDbSpline
210
0.0
220
0.0
230
1.0
 70
    11
 71
     3
 72
    35
 73
    31
 74
     0
 42
0.000000001
 43
0.0000000001
 40
0.0
 40
0.0
 40
0.0
 40
0.0
 40
1.0
 40
1.0
 40
1.0
 40
2.0
 40
2.0
 40
2.0
 40
3.0
 40
3.0
 40
3.0
 40
4.0
 40
4.0
 40
4.0
 40
5.0
 40
5.0
 40
5.0
 40
6.0
 40
6.0
 40
6.0
 40
7.0
 40
7.0
 40
7.0
 40
8.0
 40
8.0
 40
8.0
 40
9.0
 40
9.0
 40
9.0
 40
10.0
 40
10.0
 40
10.0
 40
10.0
 10
1126.612171126123
 20
985.8347152246907
 30
0.0
 10
1126.612171126123
 20
985.8347152246907
 30
0.0
 10
1128.817032236683
 20
859.8709999784038
 30
0.0
 10
1128.817032236683
 20
859.8709999784038
 30
0.0
 10
1128.817032236683
 20
859.8709999784038
 30
0.0
 10
1133.84411556876
 20
857.8700885205707
 30
0.0
 10
1133.84411556876
 20
857.8700885205707
 30
0.0
 10
1133.84411556876
 20
857.8700885205707
 30
0.0
 10
1484.374657473315
 20
857.8700885205707
 30
0.0
 10
1484.374657473315
 20
857.8700885205707
 30
0.0
 10
1484.374657473315
 20
857.8700885205707
 30
0.0
 10
1489.407252958167
 20
859.8709999784038
 30
0.0
 10
1489.407252958167
 20
859.8709999784038
 30
0.0
 10
1489.407252958167
 20
859.8709999784038
 30
0.0
 10
1491.612114068727
 20
985.8347152246907
 30
0.0
 10
1491.612114068727
 20
985.8347152246907
 30
0.0
 10
1491.612114068727
 20
985.8512516830201
 30
0.0
 10
1491.612114068727
 20
985.8622759885726
 30
0.0
 10
1491.612114068727
 20
985.867788141349
 30
0.0
 10
1491.612114068727
 20
986.9812430021817
 30
0.0
 10
1490.713633166174
 20
987.8742117519586
 30
0.0
 10
1489.611202610894
 20
987.8742117519586
 30
0.0
 10
1489.611202610894
 20
987.8742117519586
 30
0.0
 10
1128.60757043118
 20
987.8742117519586
 30
0.0
 10
1128.60757043118
 20
987.8742117519586
 30
0.0
 10
1128.602058278404
 20
987.8742117519586
 30
0.0
 10
1128.585521820074
 20
987.8742117519586
 30
0.0
 10
1128.580009667298
 20
987.8686995991822
 30
0.0
 10
1127.472066959242
 20
987.8521631408531
 30
0.0
 10
1126.595634667794
 20
986.9371457799706
 30
0.0
 10
1126.612171126123
 20
985.8347152246907
 30
0.0
  0
SPLINE
  5
41E7
330
A
100
AcDbEntity
  8
0
100
AcDbSpline
210
0.0
220
0.0
230
1.0
 70
     8
 71
     3
 72
    26
 73
    22
 74
     0
 42
0.000000001
 43
0.0000000001
 40
0.0
 40
0.0
 40
0.0
 40
0.0
 40
1.0
 40
1.0
 40
1.0
 40
2.0
 40
2.0
 40
2.0
 40
3.0
 40
3.0
 40
3.0
 40
4.0
 40
4.0
 40
4.0
 40
5.0
 40
5.0
 40
5.0
 40
6.0
 40
6.0
 40
6.0
 40
7.0
 40
7.0
 40
7.0
 40
7.0
 10
1372.52687646829
 20
857.8756006733471
 30
0.0
 10
1373.116676815365
 20
857.0598020624399
 30
0.0
 10
1373.546624731924
 20
856.1392725487813
 30
0.0
 10
1373.789159454086
 20
855.1470850490292
 30
0.0
 10
1373.789159454086
 20
855.1470850490292
 30
0.0
 10
1375.74080604648
 20
847.3914860926349
 30
0.0
 10
1375.74080604648
 20
847.3914860926349
 30
0.0
 10
1375.961292157536
 20
846.4930051900815
 30
0.0
 10
1376.76038205534
 20
845.8756440791249
 30
0.0
 10
1377.680911568998
 20
845.8756440791249
 30
0.0
 10
1377.680911568998
 20
845.8756440791249
 30
0.0
 10
1444.576742172934
 20
845.8756440791249
 30
0.0
 10
1444.576742172934
 20
845.8756440791249
 30
0.0
 10
1445.491759533817
 20
845.8756440791249
 30
0.0
 10
1446.296533839171
 20
846.4930051900815
 30
0.0
 10
1446.52804425578
 20
847.3914860926349
 30
0.0
 10
1446.52804425578
 20
847.3914860926349
 30
0.0
 10
1447.647011269389
 20
851.8894027581771
 30
0.0
 10
1447.647011269389
 20
851.8894027581771
 30
0.0
 10
1448.473834185849
 20
855.2187430351223
 30
0.0
 10
1451.323617171247
 20
857.6440902567384
 30
0.0
 10
1454.741151892615
 20
857.930722201111
 30
0.0
  0
SPLINE
  5
41E8
102
{ACAD_REACTORS
330
4239
102
}
330
A
100
AcDbEntity
  8
HIDDEN
100
AcDbSpline
210
0.0
220
0.0
230
1.0
 70
     8
 71
     3
 72
    80
 73
    76
 74
     0
 42
0.000000001
 43
0.0000000001
 40
0.0
 40
0.0
 40
0.0
 40
0.0
 40
1.0
 40
1.0
 40
1.0
 40
2.0
 40
2.0
 40
2.0
 40
3.0
 40
3.0
 40
3.0
 40
4.0
 40
4.0
 40
4.0
 40
5.0
 40
5.0
 40
5.0
 40
6.0
 40
6.0
 40
6.0
 40
7.0
 40
7.0
 40
7.0
 40
8.0
 40
8.0
 40
8.0
 40
9.0
 40
9.0
 40
9.0
 40
10.0
 40
10.0
 40
10.0
 40
11.0
 40
11.0
 40
11.0
 40
12.0
 40
12.0
 40
12.0
 40
13.0
 40
13.0
 40
13.0
 40
14.0
 40
14.0
 40
14.0
 40
15.0
 40
15.0
 40
15.0
 40
16.0
 40
16.0
 40
16.0
 40
17.0
 40
17.0
 40
17.0
 40
18.0
 40
18.0
 40
18.0
 40
19.0
 40
19.0
 40
19.0
 40
20.0
 40
20.0
 40
20.0
 40
21.0
 40
21.0
 40
21.0
 40
22.0
 40
22.0
 40
22.0
 40
23.0
 40
23.0
 40
23.0
 40
24.0
 40
24.0
 40
24.0
 40
25.0
 40
25.0
 40
25.0
 40
25.0
 10
1129.754098208671
 20
987.8742117519586
 30
0.0
 10
1130.81243154174
 20
987.8742117519586
 30
0.0
 10
1131.688863833187
 20
987.0418766827222
 30
0.0
 10
1131.749497513728
 20
985.9725190441005
 30
0.0
 10
1131.749497513728
 20
985.9725190441005
 30
0.0
 10
1134.571719735244
 20
934.9575450985211
 30
0.0
 10
1134.571719735244
 20
934.9575450985211
 30
0.0
 10
1134.692987096325
 20
932.7581961407377
 30
0.0
 10
1136.015903762661
 20
930.7958697523393
 30
0.0
 10
1138.000623271713
 20
929.853291627575
 30
0.0
 10
1138.606960077117
 20
929.5721718359786
 30
0.0
 10
1139.240857646404
 20
929.384758641581
 30
0.0
 10
1139.902315979572
 20
929.3075885027114
 30
0.0
 10
1140.381873271118
 20
929.2524669749473
 30
0.0
 10
1140.877967020994
 20
929.1973454471832
 30
0.0
 10
1141.363036465317
 20
929.1422239194194
 30
0.0
 10
1173.366595485094
 20
925.5097152397719
 30
0.0
 10
1230.27991741097
 20
918.8069374636699
 30
0.0
 10
1262.266939972418
 20
915.0256006590597
 30
0.0
 10
1292.346757673231
 20
911.4647499655053
 30
0.0
 10
1324.00890773042
 20
907.5070242720502
 30
0.0
 10
1354.066676820128
 20
903.7532482313221
 30
0.0
 10
1354.98169418101
 20
903.6374930230177
 30
0.0
 10
1355.698274041942
 20
902.9209131620859
 30
0.0
 10
1355.80851709747
 20
902.0114079539798
 30
0.0
 10
1355.80851709747
 20
902.0114079539798
 30
0.0
 10
1357.043239319383
 20
891.9407048314976
 30
0.0
 10
1357.043239319383
 20
891.9407048314976
 30
0.0
 10
1357.230652513781
 20
890.3917899013292
 30
0.0
 10
1358.300010152403
 20
889.0964339988751
 30
0.0
 10
1359.788291402031
 20
888.6223888601048
 30
0.0
 10
1359.788291402031
 20
888.6223888601048
 30
0.0
 10
1360.383603901882
 20
888.4349756657073
 30
0.0
 10
1360.383603901882
 20
888.4349756657073
 30
0.0
 10
1360.808039665664
 20
888.2971718462973
 30
0.0
 10
1361.249011887777
 20
888.2310260129804
 30
0.0
 10
1361.706520568218
 20
888.2420503185333
 30
0.0
 10
1362.610513623547
 20
888.2696110824152
 30
0.0
 10
1363.481433762218
 20
888.6003402489993
 30
0.0
 10
1364.170452859268
 20
889.1791162905212
 30
0.0
 10
1365.019324386834
 20
889.8956961514533
 30
0.0
 10
1366.12726709489
 20
890.2209131652609
 30
0.0
 10
1367.218673344617
 20
890.0941336514037
 30
0.0
 10
1367.218673344617
 20
890.0941336514037
 30
0.0
 10
1369.214072649674
 20
889.8571110820185
 30
0.0
 10
1369.214072649674
 20
889.8571110820185
 30
0.0
 10
1371.22600841306
 20
889.6145763598569
 30
0.0
 10
1372.74185042657
 20
887.9113211519493
 30
0.0
 10
1372.74185042657
 20
885.8883610830106
 30
0.0
 10
1372.74185042657
 20
885.8883610830106
 30
0.0
 10
1372.74185042657
 20
883.4795503197239
 30
0.0
 10
1372.74185042657
 20
883.4795503197239
 30
0.0
 10
1372.74185042657
 20
883.4795503197239
 30
0.0
 10
1372.989897301508
 20
881.8148801812512
 30
0.0
 10
1372.989897301508
 20
881.8148801812512
 30
0.0
 10
1372.989897301508
 20
881.8148801812512
 30
0.0
 10
1373.98208480126
 20
870.492918378526
 30
0.0
 10
1373.98208480126
 20
870.492918378526
 30
0.0
 10
1373.98208480126
 20
870.492918378526
 30
0.0
 10
1373.98208480126
 20
870.492918378526
 30
0.0
 10
1373.98208480126
 20
870.492918378526
 30
0.0
 10
1374.147449384552
 20
868.6518593512086
 30
0.0
 10
1375.310858129921
 20
867.0533350460527
 30
0.0
 10
1377.008428930278
 20
866.3312430323442
 30
0.0
 10
1377.008428930278
 20
866.3312430323442
 30
0.0
 10
1377.813203235632
 20
865.8131006713628
 30
0.0
 10
1377.813203235632
 20
865.8131006713628
 30
0.0
 10
1377.813203235632
 20
865.8131006713628
 30
0.0
 10
1380.922057401521
 20
863.0735607414921
 30
0.0
 10
1380.922057401521
 20
863.0735607414921
 30
0.0
 10
1383.567890734193
 20
860.741920117075
 30
0.0
 10
1385.97670149748
 20
858.16223261772
 30
0.0
 10
1388.126441080276
 20
855.3675711600853
 30
0.0
 10
1388.126441080276
 20
855.3675711600853
 30
0.0
 10
1388.126441080276
 20
845.8756440791249
 30
0.0
 10
1388.126441080276
 20
845.8756440791249
 30
0.0
  0
POLYLINE
  5
41EC
102
{ACAD_REACTORS
330
42E3
102
}
330
A
100
AcDbEntity
  8
MODEL
 62
   253
370
    13
100
AcDb2dPolyline
 66
     1
 10
0.0
 20
0.0
 30
0.0
  0
VERTEX
  5
41ED
330
41EC
100
AcDbEntity
  8
MODEL
 62
   253
370
    13
100
AcDbVertex
100
AcDb2dVertex
 10
1479.121575877406
 20
856.8723888680423
 30
0.0
  0
VERTEX
  5
41EE
330
41EC
100
AcDbEntity
  8
MODEL
 62
   253
370
    13
100
AcDbVertex
100
AcDb2dVertex
 10
1479.121575877406
 20
971.8724322420703
 30
0.0
  0
SEQEND
  5
4227
330
41EC
100
AcDbEntity
  8
MODEL
 62
   253
370
    13
  0
POLYLINE
  5
41EF
102
{ACAD_REACTORS
330
42E3
102
}
330
A
100
AcDbEntity
  8
MODEL
 62
   253
370
    13
100
AcDb2dPolyline
 66
     1
 10
0.0
 20
0.0
 30
0.0
  0
VERTEX
  5
41F0
330
41EF
100
AcDbEntity
  8
MODEL
 62
   253
370
    13
100
AcDbVertex
100
AcDb2dVertex
 10
1459.117801197077
 20
856.8723888680423
 30
0.0
  0
VERTEX
  5
41F1
330
41EF
100
AcDbEntity
  8
MODEL
 62
   253
370
    13
100
AcDbVertex
100
AcDb2dVertex
 10
1459.117801197077
 20
971.8724322420703
 30
0.0
  0
SEQEND
  5
4228
330
41EF
100
AcDbEntity
  8
MODEL
 62
   253
370
    13
  0
POLYLINE
  5
41F2
102
{ACAD_REACTORS
330
42E3
102
}
330
A
100
AcDbEntity
  8
MODEL
 62
   253
370
    13
100
AcDb2dPolyline
 66
     1
 10
0.0
 20
0.0
 30
0.0
  0
VERTEX
  5
41F3
330
41F2
100
AcDbEntity
  8
MODEL
 62
   253
370
    13
100
AcDbVertex
100
AcDb2dVertex
 10
1439.114198771522
 20
856.8723888680423
 30
0.0
  0
VERTEX
  5
41F4
330
41F2
100
AcDbEntity
  8
MODEL
 62
   253
370
    13
100
AcDbVertex
100
AcDb2dVertex
 10
1439.114198771522
 20
971.8724322420703
 30
0.0
  0
SEQEND
  5
4229
330
41F2
100
AcDbEntity
  8
MODEL
 62
   253
370
    13
  0
POLYLINE
  5
41F5
102
{ACAD_REACTORS
330
42E3
102
}
330
A
100
AcDbEntity
  8
MODEL
 62
   253
370
    13
100
AcDb2dPolyline
 66
     1
 10
0.0
 20
0.0
 30
0.0
  0
VERTEX
  5
41F6
330
41F5
100
AcDbEntity
  8
MODEL
 62
   253
370
    13
100
AcDbVertex
100
AcDb2dVertex
 10
1419.110424091193
 20
856.8723888680423
 30
0.0
  0
VERTEX
  5
41F7
330
41F5
100
AcDbEntity
  8
MODEL
 62
   253
370
    13
100
AcDbVertex
100
AcDb2dVertex
 10
1419.110424091193
 20
971.8724322420703
 30
0.0
  0
SEQEND
  5
422A
330
41F5
100
AcDbEntity
  8
MODEL
 62
   253
370
    13
  0
POLYLINE
  5
41F8
102
{ACAD_REACTORS
330
42E3
102
}
330
A
100
AcDbEntity
  8
MODEL
 62
   253
370
    13
100
AcDb2dPolyline
 66
     1
 10
0.0
 20
0.0
 30
0.0
  0
VERTEX
  5
41F9
330
41F8
100
AcDbEntity
  8
MODEL
 62
   253
370
    13
100
AcDbVertex
100
AcDb2dVertex
 10
1399.112333818415
 20
856.8723888680423
 30
0.0
  0
VERTEX
  5
41FA
330
41F8
100
AcDbEntity
  8
MODEL
 62
   253
370
    13
100
AcDbVertex
100
AcDb2dVertex
 10
1399.112333818415
 20
971.8724322420703
 30
0.0
  0
SEQEND
  5
422B
330
41F8
100
AcDbEntity
  8
MODEL
 62
   253
370
    13
  0
POLYLINE
  5
41FB
102
{ACAD_REACTORS
330
42E3
102
}
330
A
100
AcDbEntity
  8
MODEL
 62
   253
370
    13
100
AcDb2dPolyline
 66
     1
 10
0.0
 20
0.0
 30
0.0
  0
VERTEX
  5
41FC
330
41FB
100
AcDbEntity
  8
MODEL
 62
   253
370
    13
100
AcDbVertex
100
AcDb2dVertex
 10
1379.108559138086
 20
856.8723888680423
 30
0.0
  0
VERTEX
  5
41FD
330
41FB
100
AcDbEntity
  8
MODEL
 62
   253
370
    13
100
AcDbVertex
100
AcDb2dVertex
 10
1379.108559138086
 20
971.8724322420703
 30
0.0
  0
SEQEND
  5
422C
330
41FB
100
AcDbEntity
  8
MODEL
 62
   253
370
    13
  0
POLYLINE
  5
41FE
102
{ACAD_REACTORS
330
42E3
102
}
330
A
100
AcDbEntity
  8
MODEL
 62
   253
370
    13
100
AcDb2dPolyline
 66
     1
 10
0.0
 20
0.0
 30
0.0
  0
VERTEX
  5
41FF
330
41FE
100
AcDbEntity
  8
MODEL
 62
   253
370
    13
100
AcDbVertex
100
AcDb2dVertex
 10
1359.104784457757
 20
856.8723888680423
 30
0.0
  0
VERTEX
  5
4200
330
41FE
100
AcDbEntity
  8
MODEL
 62
   253
370
    13
100
AcDbVertex
100
AcDb2dVertex
 10
1359.104784457757
 20
971.8724322420703
 30
0.0
  0
SEQEND
  5
422D
330
41FE
100
AcDbEntity
  8
MODEL
 62
   253
370
    13
  0
POLYLINE
  5
4201
102
{ACAD_REACTORS
330
42E3
102
}
330
A
100
AcDbEntity
  8
MODEL
 62
   253
370
    13
100
AcDb2dPolyline
 66
     1
 10
0.0
 20
0.0
 30
0.0
  0
VERTEX
  5
4202
330
4201
100
AcDbEntity
  8
MODEL
 62
   253
370
    13
100
AcDbVertex
100
AcDb2dVertex
 10
1339.106694184979
 20
856.8723888680423
 30
0.0
  0
VERTEX
  5
4203
330
4201
100
AcDbEntity
  8
MODEL
 62
   253
370
    13
100
AcDbVertex
100
AcDb2dVertex
 10
1339.106694184979
 20
971.8724322420703
 30
0.0
  0
SEQEND
  5
422E
330
4201
100
AcDbEntity
  8
MODEL
 62
   253
370
    13
  0
POLYLINE
  5
4204
102
{ACAD_REACTORS
330
42E3
102
}
330
A
100
AcDbEntity
  8
MODEL
 62
   253
370
    13
100
AcDb2dPolyline
 66
     1
 10
0.0
 20
0.0
 30
0.0
  0
VERTEX
  5
4205
330
4204
100
AcDbEntity
  8
MODEL
 62
   253
370
    13
100
AcDbVertex
100
AcDb2dVertex
 10
1319.103091759424
 20
856.8723888680423
 30
0.0
  0
VERTEX
  5
4206
330
4204
100
AcDbEntity
  8
MODEL
 62
   253
370
    13
100
AcDbVertex
100
AcDb2dVertex
 10
1319.103091759424
 20
971.8724322420703
 30
0.0
  0
SEQEND
  5
422F
330
4204
100
AcDbEntity
  8
MODEL
 62
   253
370
    13
  0
POLYLINE
  5
4207
102
{ACAD_REACTORS
330
42E3
102
}
330
A
100
AcDbEntity
  8
MODEL
 62
   253
370
    13
100
AcDb2dPolyline
 66
     1
 10
0.0
 20
0.0
 30
0.0
  0
VERTEX
  5
4208
330
4207
100
AcDbEntity
  8
MODEL
 62
   253
370
    13
100
AcDbVertex
100
AcDb2dVertex
 10
1299.099489333869
 20
856.8723888680423
 30
0.0
  0
VERTEX
  5
4209
330
4207
100
AcDbEntity
  8
MODEL
 62
   253
370
    13
100
AcDbVertex
100
AcDb2dVertex
 10
1299.099489333869
 20
971.8724322420703
 30
0.0
  0
SEQEND
  5
4230
330
4207
100
AcDbEntity
  8
MODEL
 62
   253
370
    13
  0
POLYLINE
  5
420A
102
{ACAD_REACTORS
330
42E3
102
}
330
A
100
AcDbEntity
  8
MODEL
 62
   253
370
    13
100
AcDb2dPolyline
 66
     1
 10
0.0
 20
0.0
 30
0.0
  0
VERTEX
  5
420B
330
420A
100
AcDbEntity
  8
MODEL
 62
   253
370
    13
100
AcDbVertex
100
AcDb2dVertex
 10
1279.095542398766
 20
856.8723888680423
 30
0.0
  0
VERTEX
  5
420C
330
420A
100
AcDbEntity
  8
MODEL
 62
   253
370
    13
100
AcDbVertex
100
AcDb2dVertex
 10
1279.095542398766
 20
971.8724322420703
 30
0.0
  0
SEQEND
  5
4231
330
420A
100
AcDbEntity
  8
MODEL
 62
   253
370
    13
  0
POLYLINE
  5
420D
102
{ACAD_REACTORS
330
42E3
102
}
330
A
100
AcDbEntity
  8
MODEL
 62
   253
370
    13
100
AcDb2dPolyline
 66
     1
 10
0.0
 20
0.0
 30
0.0
  0
VERTEX
  5
420E
330
420D
100
AcDbEntity
  8
MODEL
 62
   253
370
    13
100
AcDbVertex
100
AcDb2dVertex
 10
1259.053354903777
 20
856.8723888680423
 30
0.0
  0
VERTEX
  5
420F
330
420D
100
AcDbEntity
  8
MODEL
 62
   253
370
    13
100
AcDbVertex
100
AcDb2dVertex
 10
1259.053354903777
 20
971.8724322420703
 30
0.0
  0
SEQEND
  5
4232
330
420D
100
AcDbEntity
  8
MODEL
 62
   253
370
    13
  0
POLYLINE
  5
4210
102
{ACAD_REACTORS
330
42E3
102
}
330
A
100
AcDbEntity
  8
MODEL
 62
   253
370
    13
100
AcDb2dPolyline
 66
     1
 10
0.0
 20
0.0
 30
0.0
  0
VERTEX
  5
4211
330
4210
100
AcDbEntity
  8
MODEL
 62
   253
370
    13
100
AcDbVertex
100
AcDb2dVertex
 10
1239.093849700433
 20
856.8723888680423
 30
0.0
  0
VERTEX
  5
4212
330
4210
100
AcDbEntity
  8
MODEL
 62
   253
370
    13
100
AcDbVertex
100
AcDb2dVertex
 10
1239.093849700433
 20
971.8724322420703
 30
0.0
  0
SEQEND
  5
4233
330
4210
100
AcDbEntity
  8
MODEL
 62
   253
370
    13
  0
POLYLINE
  5
4213
102
{ACAD_REACTORS
330
42E3
102
}
330
A
100
AcDbEntity
  8
MODEL
 62
   253
370
    13
100
AcDb2dPolyline
 66
     1
 10
0.0
 20
0.0
 30
0.0
  0
VERTEX
  5
4214
330
4213
100
AcDbEntity
  8
MODEL
 62
   253
370
    13
100
AcDbVertex
100
AcDb2dVertex
 10
1219.08990276533
 20
856.8723888680423
 30
0.0
  0
VERTEX
  5
4215
330
4213
100
AcDbEntity
  8
MODEL
 62
   253
370
    13
100
AcDbVertex
100
AcDb2dVertex
 10
1219.08990276533
 20
971.8724322420703
 30
0.0
  0
SEQEND
  5
4234
330
4213
100
AcDbEntity
  8
MODEL
 62
   253
370
    13
  0
POLYLINE
  5
4216
102
{ACAD_REACTORS
330
42E3
102
}
330
A
100
AcDbEntity
  8
MODEL
 62
   253
370
    13
100
AcDb2dPolyline
 66
     1
 10
0.0
 20
0.0
 30
0.0
  0
VERTEX
  5
4217
330
4216
100
AcDbEntity
  8
MODEL
 62
   253
370
    13
100
AcDbVertex
100
AcDb2dVertex
 10
1199.086300339775
 20
856.8723888680423
 30
0.0
  0
VERTEX
  5
4218
330
4216
100
AcDbEntity
  8
MODEL
 62
   253
370
    13
100
AcDbVertex
100
AcDb2dVertex
 10
1199.086300339775
 20
971.8724322420703
 30
0.0
  0
SEQEND
  5
4235
330
4216
100
AcDbEntity
  8
MODEL
 62
   253
370
    13
  0
POLYLINE
  5
4219
102
{ACAD_REACTORS
330
42E3
102
}
330
A
100
AcDbEntity
  8
MODEL
 62
   253
370
    13
100
AcDb2dPolyline
 66
     1
 10
0.0
 20
0.0
 30
0.0
  0
VERTEX
  5
421A
330
4219
100
AcDbEntity
  8
MODEL
 62
   253
370
    13
100
AcDbVertex
100
AcDb2dVertex
 10
1179.088210066997
 20
856.8723888680423
 30
0.0
  0
VERTEX
  5
421B
330
4219
100
AcDbEntity
  8
MODEL
 62
   253
370
    13
100
AcDbVertex
100
AcDb2dVertex
 10
1179.088210066997
 20
971.8724322420703
 30
0.0
  0
SEQEND
  5
4236
330
4219
100
AcDbEntity
  8
MODEL
 62
   253
370
    13
  0
POLYLINE
  5
421C
102
{ACAD_REACTORS
330
42E3
102
}
330
A
100
AcDbEntity
  8
MODEL
 62
   253
370
    13
100
AcDb2dPolyline
 66
     1
 10
0.0
 20
0.0
 30
0.0
  0
VERTEX
  5
421D
330
421C
100
AcDbEntity
  8
MODEL
 62
   253
370
    13
100
AcDbVertex
100
AcDb2dVertex
 10
1159.090119794219
 20
856.8723888680423
 30
0.0
  0
VERTEX
  5
421E
330
421C
100
AcDbEntity
  8
MODEL
 62
   253
370
    13
100
AcDbVertex
100
AcDb2dVertex
 10
1159.090119794219
 20
971.8724322420703
 30
0.0
  0
SEQEND
  5
4237
330
421C
100
AcDbEntity
  8
MODEL
 62
   253
370
    13
  0
POLYLINE
  5
421F
102
{ACAD_REACTORS
330
42E3
102
}
330
A
100
AcDbEntity
  8
MODEL
 62
   253
370
    13
100
AcDb2dPolyline
 66
     1
 10
0.0
 20
0.0
 30
0.0
  0
VERTEX
  5
4220
330
421F
100
AcDbEntity
  8
MODEL
 62
   253
370
    13
100
AcDbVertex
100
AcDb2dVertex
 10
1139.092029521441
 20
856.8723888680423
 30
0.0
  0
VERTEX
  5
4221
330
421F
100
AcDbEntity
  8
MODEL
 62
   253
370
    13
100
AcDbVertex
100
AcDb2dVertex
 10
1139.092029521441
 20
971.8724322420703
 30
0.0
  0
SEQEND
  5
4238
330
421F
100
AcDbEntity
  8
MODEL
 62
   253
370
    13
  0
SPLINE
  5
423A
330
A
100
AcDbEntity
  8
0
100
AcDbSpline
210
0.0
220
0.0
230
1.0
 70
     8
 71
     3
 72
     8
 73
     4
 74
     0
 42
0.000000001
 43
0.0000000001
 40
0.0
 40
0.0
 40
0.0
 40
0.0
 40
1.0
 40
1.0
 40
1.0
 40
1.0
 10
616.6687741640919
 20
1736.083159093678
 30
0.0
 10
584.0805824404681
 20
1736.248695931744
 30
0.0
 10
534.8319089501762
 20
1736.640058778868
 30
0.0
 10
502.2437172265523
 20
1736.645570931645
 30
0.0
  0
SPLINE
  5
423B
330
A
100
AcDbEntity
  8
0
100
AcDbSpline
210
0.0
220
0.0
230
1.0
 70
    11
 71
     3
 72
    29
 73
    25
 74
     0
 42
0.000000001
 43
0.0000000001
 40
0.0
 40
0.0
 40
0.0
 40
0.0
 40
1.0
 40
1.0
 40
1.0
 40
2.0
 40
2.0
 40
2.0
 40
3.0
 40
3.0
 40
3.0
 40
4.0
 40
4.0
 40
4.0
 40
5.0
 40
5.0
 40
5.0
 40
6.0
 40
6.0
 40
6.0
 40
7.0
 40
7.0
 40
7.0
 40
8.0
 40
8.0
 40
8.0
 40
8.0
 10
246.1205049424929
 20
1594.436507924662
 30
0.0
 10
246.1205049424929
 20
1594.436507924662
 30
0.0
 10
246.1205049424929
 20
1753.433521231267
 30
0.0
 10
246.1205049424929
 20
1753.439033384044
 30
0.0
 10
246.1205049424929
 20
1764.482114707238
 30
0.0
 10
255.0793034971108
 20
1773.435573363854
 30
0.0
 10
266.1220403107563
 20
1773.435573363854
 30
0.0
 10
266.1220403107563
 20
1773.435573363854
 30
0.0
 10
636.1242618979434
 20
1773.435573363854
 30
0.0
 10
636.1242618979434
 20
1773.435573363854
 30
0.0
 10
647.1726831191395
 20
1773.435573363854
 30
0.0
 10
656.1261417757553
 20
1764.482114707238
 30
0.0
 10
656.1206296229789
 20
1753.433521231267
 30
0.0
 10
656.1206296229789
 20
1753.433521231267
 30
0.0
 10
656.1206296229789
 20
1594.436507924662
 30
0.0
 10
656.1206296229789
 20
1594.436507924662
 30
0.0
 10
656.1206296229789
 20
1594.436507924662
 30
0.0
 10
656.1206296229789
 20
1594.430995771886
 30
0.0
 10
656.1206296229789
 20
1594.430995771886
 30
0.0
 10
656.1206296229789
 20
1491.70772241432
 30
0.0
 10
564.3381182526954
 20
1408.435630421249
 30
0.0
 10
451.1205672827359
 20
1408.435630421249
 30
0.0
 10
337.9030163127764
 20
1408.435630421249
 30
0.0
 10
246.1205049424929
 20
1491.713234567097
 30
0.0
 10
246.1205049424929
 20
1594.436507924662
 30
0.0
  0
SPLINE
  5
423C
330
A
100
AcDbEntity
  8
0
100
AcDbSpline
210
0.0
220
0.0
230
1.0
 70
    11
 71
     3
 72
    56
 73
    52
 74
     0
 42
0.000000001
 43
0.0000000001
 40
0.0
 40
0.0
 40
0.0
 40
0.0
 40
1.0
 40
1.0
 40
1.0
 40
2.0
 40
2.0
 40
2.0
 40
3.0
 40
3.0
 40
3.0
 40
4.0
 40
4.0
 40
4.0
 40
5.0
 40
5.0
 40
5.0
 40
6.0
 40
6.0
 40
6.0
 40
7.0
 40
7.0
 40
7.0
 40
8.0
 40
8.0
 40
8.0
 40
9.0
 40
9.0
 40
9.0
 40
10.0
 40
10.0
 40
10.0
 40
11.0
 40
11.0
 40
11.0
 40
12.0
 40
12.0
 40
12.0
 40
13.0
 40
13.0
 40
13.0
 40
14.0
 40
14.0
 40
14.0
 40
15.0
 40
15.0
 40
15.0
 40
16.0
 40
16.0
 40
16.0
 40
17.0
 40
17.0
 40
17.0
 40
17.0
 10
265.1959986443212
 20
1768.969868341099
 30
0.0
 10
257.157729603362
 20
1768.99742910498
 30
0.0
 10
250.61377072913
 20
1762.497222943411
 30
0.0
 10
250.5917221180243
 20
1754.458953902452
 30
0.0
 10
250.5917221180243
 20
1754.425880985794
 30
0.0
 10
250.5917221180243
 20
1754.392808069135
 30
0.0
 10
250.5917221180243
 20
1754.365247305253
 30
0.0
 10
250.5917221180243
 20
1754.365247305253
 30
0.0
 10
250.6027464235771
 20
1754.387295916359
 30
0.0
 10
250.6027464235771
 20
1754.387295916359
 30
0.0
 10
250.6027464235771
 20
1754.387295916359
 30
0.0
 10
250.6027464235771
 20
1594.436507924662
 30
0.0
 10
250.6027464235771
 20
1594.436507924662
 30
0.0
 10
250.6027464235771
 20
1594.436507924662
 30
0.0
 10
250.5696735069187
 20
1594.469580841321
 30
0.0
 10
250.5696735069187
 20
1594.469580841321
 30
0.0
 10
251.0216700345835
 20
1565.045192556576
 30
0.0
 10
258.486502932023
 20
1536.949749855267
 30
0.0
 10
272.8976818563715
 20
1511.257950274016
 30
0.0
 10
300.6343178628921
 20
1461.803949092803
 30
0.0
 10
353.1634112742391
 20
1427.274446063241
 30
0.0
 10
408.5095592638748
 20
1417.063872064058
 30
0.0
 10
465.4876489848733
 20
1406.555641814949
 30
0.0
 10
524.185874881657
 20
1417.400113383418
 30
0.0
 10
572.4258244138679
 20
1449.906311834493
 30
0.0
 10
620.6161645710912
 20
1482.379437368909
 30
0.0
 10
650.7287106790144
 20
1536.337900897086
 30
0.0
 10
651.6823131093315
 20
1594.469580841321
 30
0.0
 10
651.6823131093315
 20
1594.469580841321
 30
0.0
 10
651.6492401926731
 20
1594.436507924662
 30
0.0
 10
651.6492401926731
 20
1594.436507924662
 30
0.0
 10
651.6492401926731
 20
1594.436507924662
 30
0.0
 10
651.6492401926731
 20
1754.387295916359
 30
0.0
 10
651.6492401926731
 20
1754.387295916359
 30
0.0
 10
651.6492401926731
 20
1754.387295916359
 30
0.0
 10
651.6547523454497
 20
1754.365247305253
 30
0.0
 10
651.6547523454497
 20
1754.365247305253
 30
0.0
 10
651.6823131093315
 20
1762.398004193436
 30
0.0
 10
645.1879636100871
 20
1768.942307577217
 30
0.0
 10
637.1498668239022
 20
1768.969868341099
 30
0.0
 10
637.1167939072438
 20
1768.969868341099
 30
0.0
 10
637.0837209905854
 20
1768.969868341099
 30
0.0
 10
637.050648073927
 20
1768.969868341099
 30
0.0
 10
637.050648073927
 20
1768.969868341099
 30
0.0
 10
637.078208837809
 20
1768.958844035546
 30
0.0
 10
637.078208837809
 20
1768.958844035546
 30
0.0
 10
637.078208837809
 20
1768.958844035546
 30
0.0
 10
265.1684378804392
 20
1768.958844035546
 30
0.0
 10
265.1684378804392
 20
1768.958844035546
 30
0.0
 10
265.1684378804392
 20
1768.958844035546
 30
0.0
 10
265.1959986443212
 20
1768.969868341099
 30
0.0
 10
265.1959986443212
 20
1768.969868341099
 30
0.0
  0
SPLINE
  5
4247
330
A
100
AcDbEntity
  8
0
100
AcDbSpline
210
0.0
220
0.0
230
1.0
 70
    11
 71
     3
 72
    26
 73
    22
 74
     0
 42
0.000000001
 43
0.0000000001
 40
0.0
 40
0.0
 40
0.0
 40
0.0
 40
1.0
 40
1.0
 40
1.0
 40
2.0
 40
2.0
 40
2.0
 40
3.0
 40
3.0
 40
3.0
 40
4.0
 40
4.0
 40
4.0
 40
5.0
 40
5.0
 40
5.0
 40
6.0
 40
6.0
 40
6.0
 40
7.0
 40
7.0
 40
7.0
 40
7.0
 10
399.9972450841452
 20
1736.645570931645
 30
0.0
 10
398.8891301213146
 20
1736.645570931645
 30
0.0
 10
397.9959891167636
 20
1735.752429927094
 30
0.0
 10
397.9959891167636
 20
1734.644314964263
 30
0.0
 10
397.9959891167636
 20
1734.644314964263
 30
0.0
 10
397.9959891167636
 20
1692.721464768581
 30
0.0
 10
397.9959891167636
 20
1692.721464768581
 30
0.0
 10
397.9959891167636
 20
1663.379758775482
 30
0.0
 10
421.7797225635086
 20
1639.590168666412
 30
0.0
 10
451.1205672827359
 20
1639.590168666412
 30
0.0
 10
480.4614120019633
 20
1639.590168666412
 30
0.0
 10
504.2394610411576
 20
1663.379758775482
 30
0.0
 10
504.2394610411576
 20
1692.721464768581
 30
0.0
 10
504.2394610411576
 20
1692.721464768581
 30
0.0
 10
504.2394610411576
 20
1734.644314964263
 30
0.0
 10
504.2394610411576
 20
1734.644314964263
 30
0.0
 10
504.2394610411576
 20
1735.752429927094
 30
0.0
 10
503.351832189383
 20
1736.645570931645
 30
0.0
 10
502.2437172265523
 20
1736.645570931645
 30
0.0
 10
502.2437172265523
 20
1736.645570931645
 30
0.0
 10
399.9972450841452
 20
1736.645570931645
 30
0.0
 10
399.9972450841452
 20
1736.645570931645
 30
0.0
  0
SPLINE
  5
4248
330
A
100
AcDbEntity
  8
0
100
AcDbSpline
210
0.0
220
0.0
230
1.0
 70
     8
 71
     3
 72
     8
 73
     4
 74
     0
 42
0.000000001
 43
0.0000000001
 40
0.0
 40
0.0
 40
0.0
 40
0.0
 40
1.0
 40
1.0
 40
1.0
 40
1.0
 10
399.9972450841452
 20
1736.645570931645
 30
0.0
 10
367.4092256152957
 20
1736.645570931645
 30
0.0
 10
283.1907658924266
 20
1736.248695931744
 30
0.0
 10
250.6027464235771
 20
1736.083159093678
 30
0.0
  0
SPLINE
  5
4249
330
A
100
AcDbEntity
  8
0
100
AcDbSpline
210
0.0
220
0.0
230
1.0
 70
     8
 71
     3
 72
     8
 73
     4
 74
     0
 42
0.000000001
 43
0.0000000001
 40
0.0
 40
0.0
 40
0.0
 40
0.0
 40
1.0
 40
1.0
 40
1.0
 40
1.0
 10
651.6492401926731
 20
1736.083159093678
 30
0.0
 10
619.0558808258215
 20
1736.248695931744
 30
0.0
 10
534.8319089501762
 20
1736.640058778868
 30
0.0
 10
502.2437172265523
 20
1736.645570931645
 30
0.0
  0
DIMENSION
  5
4273
330
A
100
AcDbEntity
  8
DIM
100
AcDbDimension
  2
*D8
 10
1491.128826870966
 20
775.4090365425991
 30
0.0
 11
1451.128826870966
 21
793.4090365425991
 31
0.0
 70
    32
 71
     5
 42
80.0
 73
     0
 74
     0
 75
     0
  3
tfrom線あり
100
AcDbAlignedDimension
 13
1411.128826870966
 23
835.8765989427357
 33
0.0
 14
1491.128826870966
 24
854.5043187705771
 34
0.0
100
AcDbRotatedDimension
1001
ACAD
1000
DSTYLE
1002
{
1070
   144
1040
1.0
1002
}
  0
DIMENSION
  5
428B
330
A
100
AcDbEntity
  8
DIM
100
AcDbDimension
  2
*D9
 10
1039.343516440965
 20
857.8700885205703
 30
0.0
 11
1021.343516440965
 21
922.8721501362644
 31
0.0
 70
    32
 71
     5
 42
130.0041232313881
 73
     0
 74
     0
 75
     0
  3
tfrom線あり
100
AcDbAlignedDimension
 13
1107.068851848689
 23
987.8742117519585
 33
0.0
 14
1118.933144182873
 24
857.8700885205703
 34
0.0
 50
90.0
100
AcDbRotatedDimension
1001
ACAD
1000
DSTYLE
1002
{
1070
   144
1040
1.0
1002
}
  0
DIMENSION
  5
429A
330
A
100
AcDbEntity
  8
DIM
100
AcDbDimension
  2
*D10
 10
1467.941077013811
 20
867.8742117519585
 30
0.0
 11
1467.941077013811
 21
1066.054211751959
 31
0.0
 70
   160
 71
     5
 42
120.0
 73
     0
 74
     1
 75
     1
  3
tfrom線あり
100
AcDbAlignedDimension
 13
1467.941077013811
 23
987.8742117519585
 33
0.0
 14
1467.941077013811
 24
867.8742117519585
 34
0.0
 50
90.0
100
AcDbRotatedDimension
1001
ACAD
1000
DSTYLE
1002
{
1070
     3
1000
<>(深さ)
1070
   172
1070
     1
1070
   144
1040
1.0
1002
}
  0
DIMENSION
  5
42AF
330
A
100
AcDbEntity
  8
DIM
100
AcDbDimension
  2
*D11
 10
733.1649495927769
 20
847.8742117519586
 30
0.0
 11
715.1649495927769
 21
917.8742117519587
 31
0.0
 70
    32
 71
     5
 42
140.0000000000001
 73
     0
 74
     0
 75
     0
  3
tfrom線あり
100
AcDbAlignedDimension
 13
664.7475304655843
 23
987.8742117519587
 33
0.0
 14
519.607687577236
 24
847.8742117519586
 34
0.0
 50
90.0
100
AcDbRotatedDimension
1001
ACAD
1000
DSTYLE
1002
{
1070
   144
1040
1.0
1002
}
  0
DIMENSION
  5
42BF
330
A
100
AcDbEntity
  8
DIM
100
AcDbDimension
  2
*D12
 10
656.1206296229789
 20
1871.937849974051
 30
0.0
 11
451.1205672827359
 21
1871.937849974051
 31
0.0
 70
   160
 71
     5
 42
410.000124680486
 73
     0
 74
     0
 75
     0
  3
tfrom線あり
100
AcDbAlignedDimension
 13
246.1205049424929
 23
1781.225448168836
 33
0.0
 14
656.1206296229789
 24
1772.821574432116
 34
0.0
100
AcDbRotatedDimension
1001
ACAD
1000
DSTYLE
1002
{
1070
   144
1040
1.0
1002
}
  0
DIMENSION
  5
42CE
330
A
100
AcDbEntity
  8
DIM
100
AcDbDimension
  2
*D13
 10
800.0240217288167
 20
1408.435894635968
 30
0.0
 11
782.0240217288167
 21
1590.935733999911
 31
0.0
 70
    32
 71
     5
 42
364.9996787278853
 73
     0
 74
     0
 75
     0
  3
tfrom線あり
100
AcDbAlignedDimension
 13
667.7479760106044
 23
1773.435573363854
 33
0.0
 14
520.9891515641964
 24
1408.435894635968
 34
0.0
 50
90.0
100
AcDbRotatedDimension
1001
ACAD
1000
DSTYLE
1002
{
1070
   144
1040
1.0
1002
}
  0
CIRCLE
  5
42EA
330
A
100
AcDbEntity
  8
HIDDEN
 48
0.75
100
AcDbCircle
 10
451.1204811553488
 20
1692.947463032413
 30
0.0
 40
37.46170992444536
  0
CIRCLE
  5
42EB
330
A
100
AcDbEntity
  8
HIDDEN
 48
0.75
100
AcDbCircle
 10
451.1204811553488
 20
1692.947463032413
 30
0.0
 40
23.01788872053514
  0
VIEWPORT
  5
349
330
B
100
AcDbEntity
 67
     1
  8
0
100
AcDbViewport
 10
202.5
 20
128.5
 30
0.0
 40
486.0
 41
308.4
 68
     1
 69
     1
 12
202.5
 22
128.5
 13
0.0
 23
0.0
 14
0.5
 24
0.5
 15
0.0
 25
0.0
 16
0.0
 26
0.0
 36
1.0
 17
0.0
 27
0.0
 37
0.0
 42
50.0
 43
0.0
 44
0.0
 45
308.4
 50
0.0
 51
0.0
 72
   100
 90
   557152
  1

281
     0
 71
     1
 74
     0
110
0.0
120
0.0
130
0.0
111
1.0
121
0.0
131
0.0
112
0.0
122
1.0
132
0.0
 79
     0
146
0.0
170
     0
 61
     5
348
26C
292
     1
282
     1
141
0.0
142
0.0
 63
   256
  0
VIEWPORT
  5
34A
330
B
100
AcDbEntity
 67
     1
  8
0
100
AcDbViewport
 10
202.5
 20
128.5
 30
0.0
 40
324.0
 41
205.6
 68
     2
 69
     2
 12
986.6781359294573
 22
1427.077061889956
 13
0.0
 23
0.0
 14
0.5
 24
0.5
 15
0.0
 25
0.0
 16
0.0
 26
0.0
 36
1.0
 17
0.0
 27
0.0
 37
0.0
 42
50.0
 43
0.0
 44
0.0
 45
2890.021615685494
 50
0.0
 51
0.0
 72
   100
 90
   557152
  1

281
     0
 71
     1
 74
     0
110
0.0
120
0.0
130
0.0
111
1.0
121
0.0
131
0.0
112
0.0
122
1.0
132
0.0
 79
     0
146
0.0
170
     0
 61
     5
348
26C
292
     1
282
     1
141
0.0
142
0.0
 63
   256
  0
ENDSEC
  0
SECTION
  2
OBJECTS
  0
DICTIONARY
  5
19
330
0
100
AcDbDictionary
281
     1
  3
ACAD_COLOR
350
674
  3
ACAD_DETAILVIEWSTYLE
350
BBF
  3
ACAD_FIELDLIST
350
3BE4
  3
ACAD_GROUP
350
1A
  3
ACAD_IMAGE_VARS
350
27B
  3
ACAD_LAYOUT
350
1E
  3
ACAD_MATERIAL
350
263
  3
ACAD_MLEADERSTYLE
350
336
  3
ACAD_MLINESTYLE
350
1B
  3
ACAD_PLOTSETTINGS
350
22
  3
ACAD_PLOTSTYLENAME
350
1F
  3
ACAD_SCALELIST
350
241
  3
ACAD_SECTIONVIEWSTYLE
350
BC0
  3
ACAD_TABLESTYLE
350
278
  3
ACAD_VISUALSTYLE
350
267
  3
ACDB_RECOMPOSE_DATA
350
4312
  3
AcDbVariableDictionary
350
330
  3
APPDATA
350
27A
  3
DimOffsetDictionary
350
E38
  0
SUN
  5
904
330
15
100
AcDbSun
 90
        1
290
     0
 63
     7
421
 16777215
 40
1.0
291
     1
 91
  2455826
 92
 54000000
292
     0
 70
     2
 71
   256
280
     1
  0
DICTIONARY
  5
2E1
330
2
100
AcDbDictionary
280
     1
281
     1
  3
ACAD_LAYERSTATES
360
2E2
  3
ACLYDICTIONARY
360
DDE
  0
DICTIONARY
  5
3E3E
330
A
100
AcDbDictionary
280
     1
281
     1
  3
ACAD_SORTENTS
360
3E3F
  0
DICTIONARY
  5
3DB8
330
3DB7
100
AcDbDictionary
280
     1
281
     1
  3
ACAD_FIELD
360
3DB9
  0
DICTIONARY
  5
674
102
{ACAD_REACTORS
330
19
102
}
330
19
100
AcDbDictionary
281
     1
  0
DICTIONARY
  5
BBF
102
{ACAD_REACTORS
330
19
102
}
330
19
100
AcDbDictionary
281
     1
  0
FIELDLIST
  5
3BE4
102
{ACAD_REACTORS
330
19
102
}
330
19
100
AcDbIdSet
 90
        1
330
3DBA
100
AcDbFieldList
  0
DICTIONARY
  5
1A
102
{ACAD_REACTORS
330
19
102
}
330
19
100
AcDbDictionary
281
     1
  3
*A1
350
3CF4
  3
*A2
350
4239
  3
*A3
350
42E3
  0
RASTERVARIABLES
  5
27B
102
{ACAD_REACTORS
330
19
102
}
330
19
100
AcDbRasterVariables
 90
        0
 70
     1
 71
     1
 72
     1
  0
DICTIONARY
  5
1E
102
{ACAD_REACTORS
330
19
102
}
330
19
100
AcDbDictionary
281
     1
  3
Layout1
350
21
  3
Model
350
20
  0
DICTIONARY
  5
263
102
{ACAD_REACTORS
330
19
102
}
330
19
100
AcDbDictionary
281
     1
  3
ByBlock
350
265
  3
ByLayer
350
264
  3
Global
350
266
  0
DICTIONARY
  5
336
102
{ACAD_REACTORS
330
19
102
}
330
19
100
AcDbDictionary
281
     1
  3
Standard
350
D59
  0
DICTIONARY
  5
1B
102
{ACAD_REACTORS
330
19
102
}
330
19
100
AcDbDictionary
281
     1
  3
Standard
350
1C
  0
DICTIONARY
  5
22
102
{ACAD_REACTORS
330
19
102
}
330
19
100
AcDbDictionary
281
     1
  0
ACDBDICTIONARYWDFLT
  5
1F
102
{ACAD_REACTORS
330
19
102
}
330
19
100
AcDbDictionary
281
     1
  3
Normal
350
1D
100
AcDbDictionaryWithDefault
340
1D
  0
DICTIONARY
  5
241
102
{ACAD_REACTORS
330
19
102
}
330
19
100
AcDbDictionary
281
     1
  3
A0
350
242
  3
A1
350
243
  3
A2
350
244
  3
A3
350
245
  3
A4
350
246
  3
A5
350
247
  3
A6
350
248
  3
A7
350
249
  3
A8
350
24A
  3
A9
350
24B
  3
B0
350
24C
  3
B1
350
24D
  3
B2
350
24E
  3
B3
350
24F
  3
B4
350
250
  3
B5
350
251
  3
B6
350
252
  3
B7
350
253
  3
B8
350
254
  3
B9
350
255
  3
C0
350
256
  3
C1
350
257
  3
C2
350
258
  3
C3
350
259
  3
C4
350
25A
  3
C5
350
25B
  3
C6
350
25C
  3
C7
350
25D
  3
C8
350
25E
  3
C9
350
25F
  3
D0
350
260
  3
D1
350
261
  3
D2
350
262
  0
DICTIONARY
  5
BC0
102
{ACAD_REACTORS
330
19
102
}
330
19
100
AcDbDictionary
281
     1
  0
DICTIONARY
  5
278
102
{ACAD_REACTORS
330
19
102
}
330
19
100
AcDbDictionary
281
     1
  3
Standard
350
279
  0
DICTIONARY
  5
267
102
{ACAD_REACTORS
330
19
102
}
330
19
100
AcDbDictionary
281
     1
  3
2dWireframe
350
26C
  3
3D Hidden
350
26E
  3
3dWireframe
350
26D
  3
Basic
350
26F
  3
Brighten
350
273
  3
ColorChange
350
277
  3
Conceptual
350
271
  3
Dim
350
272
  3
EdgeColorOff
350
8FE
  3
Facepattern
350
276
  3
Flat
350
268
  3
FlatWithEdges
350
269
  3
Gouraud
350
26A
  3
GouraudWithEdges
350
26B
  3
Hidden
350
8FB
  3
JitterOff
350
8FC
  3
Linepattern
350
275
  3
OverhangOff
350
8FD
  3
Realistic
350
270
  3
Shaded
350
903
  3
Shaded with edges
350
902
  3
Shades of Gray
350
8FF
  3
Sketchy
350
900
  3
Thicken
350
274
  3
Wireframe
350
8FA
  3
X-Ray
350
901
  0
XRECORD
  5
4312
102
{ACAD_REACTORS
330
19
102
}
330
19
100
AcDbXrecord
280
     1
 90
        1
330
279
  0
DICTIONARY
  5
330
102
{ACAD_REACTORS
330
19
102
}
330
19
100
AcDbDictionary
281
     1
  3
CANNOSCALE
350
331
  3
CMLEADERSTYLE
350
D5E
  3
CTABLESTYLE
350
335
  3
HPTRANSPARENCY
350
D52
  3
XCLIPFRAME
350
896
  0
DICTIONARY
  5
27A
102
{ACAD_REACTORS
330
19
102
}
330
19
100
AcDbDictionary
281
     1
  0
DICTIONARY
  5
E38
102
{ACAD_REACTORS
330
19
102
}
330
19
100
AcDbDictionary
281
     1
  3
DIMRAILANGLE
350
246C
  3
DIMRAILFIRSTOFFSET
350
246A
  3
DIMRAILOFFSET
350
246B
  3
DIMRAILSENABLED
350
246D
  0
DICTIONARY
  5
2E2
102
{ACAD_REACTORS
330
2E1
102
}
330
2E1
100
AcDbDictionary
281
     1
  0
DICTIONARY
  5
DDE
102
{ACAD_REACTORS
330
2E1
102
}
330
2E1
100
AcDbDictionary
281
     1
1001
ACAD
1000
<All
  0
SORTENTSTABLE
  5
3E3F
102
{ACAD_REACTORS
330
3E3E
102
}
330
3E3E
100
AcDbSortentsTable
330
A
331
0
  5
3E25
331
3CE3
  5
3C4B
331
3CE4
  5
3CE2
331
3CEF
  5
3CE3
331
3CF0
  5
3CE4
331
3CF1
  5
3CEF
331
3CF2
  5
3CF0
331
3CF3
  5
3CF1
331
3D0E
  5
3CF2
331
3D12
  5
3CF3
331
3DB7
  5
3D2F
331
4102
  5
42CE
331
4106
  5
42BF
331
410A
  5
42AF
331
410E
  5
429A
331
4112
  5
428B
331
4116
  5
4273
331
411A
  5
4262
331
411E
  5
424A
331
4122
  5
4249
331
4126
  5
4248
331
412A
  5
4247
331
412E
  5
4243
331
4132
  5
423F
331
4136
  5
423E
331
413A
  5
423D
331
413E
  5
423C
331
4142
  5
423B
331
4146
  5
423A
331
414A
  5
421F
331
414E
  5
421C
331
4155
  5
4102
331
4156
  5
4106
331
4157
  5
410A
331
41C9
  5
4112
331
41CA
  5
4116
331
41CF
  5
411A
331
41D2
  5
411E
331
41D3
  5
4122
331
41D4
  5
4126
331
41D5
  5
412A
331
41D6
  5
412E
331
41D7
  5
4132
331
41D8
  5
4136
331
41D9
  5
413A
331
41DA
  5
413E
331
41DF
  5
4142
331
41E4
  5
4146
331
41E5
  5
414A
331
41E6
  5
414E
331
41E7
  5
4155
331
41E8
  5
4156
331
41EC
  5
4219
331
41EF
  5
4216
331
41F2
  5
4213
331
41F5
  5
4210
331
41F8
  5
420D
331
41FB
  5
420A
331
41FE
  5
4207
331
4201
  5
4204
331
4204
  5
4201
331
4207
  5
41FE
331
420A
  5
41FB
331
420D
  5
41F8
331
4210
  5
41F5
331
4213
  5
41F2
331
4216
  5
41EF
331
4219
  5
41EC
331
421C
  5
41E9
331
421F
  5
41E8
331
423A
  5
4158
331
423B
  5
41C9
331
423C
  5
41CA
331
4247
  5
41D5
331
4248
  5
41D6
331
4249
  5
41D7
331
4273
  5
41DA
331
428B
  5
41DF
331
429A
  5
41E4
331
42AF
  5
41E5
331
42BF
  5
41E6
331
42CE
  5
41E7
  0
DICTIONARY
  5
3DB9
102
{ACAD_REACTORS
330
3DB8
102
}
330
3DB8
100
AcDbDictionary
280
     1
281
     1
  3
TEXT
360
3DBA
  0
GROUP
  5
3CF4
102
{ACAD_REACTORS
330
1A
102
}
330
1A
100
AcDbGroup
300

 70
     1
 71
     1
340
3CE3
340
3CE4
340
3CEF
340
3CF0
340
3CF1
340
3CF2
340
3CF3
  0
GROUP
  5
4239
102
{ACAD_REACTORS
330
1A
102
}
330
1A
100
AcDbGroup
300

 70
     1
 71
     1
340
41E8
340
41D5
340
41CA
340
41CF
340
41D4
340
41D2
340
41D3
340
41D6
340
41D7
340
41D8
340
41D9
340
41DA
340
41DF
340
41E4
340
41E5
340
41C9
  0
GROUP
  5
42E3
102
{ACAD_REACTORS
330
1A
102
}
330
1A
100
AcDbGroup
300

 70
     1
 71
     1
340
4102
340
4106
340
410A
340
410E
340
4112
340
4116
340
411A
340
411E
340
4122
340
4126
340
412A
340
412E
340
4132
340
4136
340
413A
340
413E
340
4142
340
4146
340
414A
340
414E
340
41EC
340
41EF
340
41F2
340
41F5
340
41F8
340
41FB
340
41FE
340
4201
340
4204
340
4207
340
420A
340
420D
340
4210
340
4213
340
4216
340
4219
340
421C
340
421F
  0
LAYOUT
  5
21
102
{ACAD_REACTORS
330
1E
102
}
330
1E
100
AcDbPlotSettings
  1

  2
none_device
  4
ISO_A3_(420.00_x_297.00_MM)
  6

 40
7.5
 41
20.0
 42
7.5
 43
20.0
 44
420.0
 45
297.0
 46
0.0
 47
0.0
 48
0.0
 49
0.0
140
0.0
141
0.0
142
1.0
143
1.0
 70
     0
 72
     1
 73
     0
 74
     0
  7

 75
     0
 76
     0
 77
     2
 78
   300
147
1.0
148
0.0
149
0.0
100
AcDbLayout
  1
Layout1
 70
     0
 71
     0
 10
-7.5
 20
-20.0
 11
412.5
 21
277.0
 12
0.0
 22
0.0
 32
0.0
 14
0.0
 24
0.0
 34
0.0
 15
0.0
 25
0.0
 35
0.0
146
0.0
 13
0.0
 23
0.0
 33
0.0
 16
0.0
 26
0.0
 36
0.0
 17
0.0
 27
0.0
 37
0.0
 76
     0
330
B
331
349
  0
LAYOUT
  5
20
102
{ACAD_REACTORS
330
1E
102
}
330
1E
100
AcDbPlotSettings
  1

  2
none_device
  4
ISO_A3_(420.00_x_297.00_MM)
  6

 40
7.5
 41
20.0
 42
7.5
 43
20.0
 44
420.0
 45
297.0
 46
0.0
 47
0.0
 48
0.0
 49
0.0
140
0.0
141
0.0
142
1.0
143
1.0
 70
  1024
 72
     1
 73
     0
 74
     0
  7

 75
     0
 76
     0
 77
     2
 78
   300
147
1.0
148
0.0
149
0.0
100
AcDbLayout
  1
Model
 70
     0
 71
     1
 10
0.0
 20
0.0
 11
1680.0
 21
2376.0
 12
0.0
 22
0.0
 32
0.0
 14
0.0
 24
0.0
 34
-0.0000000000000071
 15
1680.0
 25
2376.0
 35
0.0000000000000071
146
0.0
 13
0.0
 23
0.0
 33
0.0
 16
0.0
 26
0.0
 36
0.0
 17
0.0
 27
0.0
 37
0.0
 76
     0
330
A
331
15
  0
MATERIAL
  5
265
102
{ACAD_REACTORS
330
263
102
}
330
263
100
AcDbMaterial
  1
ByBlock
 72
     1
 94
      127
  0
MATERIAL
  5
264
102
{ACAD_REACTORS
330
263
102
}
330
263
100
AcDbMaterial
  1
ByLayer
 72
     1
 94
      127
  0
MATERIAL
  5
266
102
{ACAD_REACTORS
330
263
102
}
330
263
100
AcDbMaterial
  1
Global
 72
     1
 94
      127
  0
MLEADERSTYLE
  5
D59
102
{ACAD_REACTORS
330
336
102
}
330
336
100
AcDbMLeaderStyle
170
     2
171
     1
172
     0
 90
        2
 40
0.0
 41
0.0
173
     1
 91
-1056964608
340
11
 92
       -2
290
     1
 42
2.0
291
     1
 43
8.0
  3
Standard
341
0
 44
4.0
300

342
17
174
     1
178
     6
175
     1
176
     0
 93
-1056964608
 45
4.0
292
     0
297
     0
 46
4.0
343
0
 94
-1056964608
 47
1.0
 49
1.0
140
1.0
293
     1
141
0.0
294
     1
177
     0
142
1.0
295
     0
296
     0
143
3.75
1001
ACAD_MLEADERVER
1070
     2
  0
MLINESTYLE
  5
1C
102
{ACAD_REACTORS
330
1B
102
}
330
1B
100
AcDbMlineStyle
  2
Standard
 70
     0
  3

 62
     0
 51
90.0
 52
90.0
 71
     2
 49
0.5
 62
   256
  6
BYLAYER
 49
-0.5
 62
   256
  6
BYLAYER
  0
ACDBPLACEHOLDER
  5
1D
102
{ACAD_REACTORS
330
1F
102
}
330
1F
  0
SCALE
  5
242
102
{ACAD_REACTORS
330
241
102
}
330
241
100
AcDbScale
 70
     0
300
1:1
140
1.0
141
1.0
290
     1
  0
SCALE
  5
243
102
{ACAD_REACTORS
330
241
102
}
330
241
100
AcDbScale
 70
     0
300
1:2
140
1.0
141
2.0
290
     0
  0
SCALE
  5
244
102
{ACAD_REACTORS
330
241
102
}
330
241
100
AcDbScale
 70
     0
300
1:4
140
1.0
141
4.0
290
     0
  0
SCALE
  5
245
102
{ACAD_REACTORS
330
241
102
}
330
241
100
AcDbScale
 70
     0
300
1:5
140
1.0
141
5.0
290
     0
  0
SCALE
  5
246
102
{ACAD_REACTORS
330
241
102
}
330
241
100
AcDbScale
 70
     0
300
1:8
140
1.0
141
8.0
290
     0
  0
SCALE
  5
247
102
{ACAD_REACTORS
330
241
102
}
330
241
100
AcDbScale
 70
     0
300
1:10
140
1.0
141
10.0
290
     0
  0
SCALE
  5
248
102
{ACAD_REACTORS
330
241
102
}
330
241
100
AcDbScale
 70
     0
300
1:16
140
1.0
141
16.0
290
     0
  0
SCALE
  5
249
102
{ACAD_REACTORS
330
241
102
}
330
241
100
AcDbScale
 70
     0
300
1:20
140
1.0
141
20.0
290
     0
  0
SCALE
  5
24A
102
{ACAD_REACTORS
330
241
102
}
330
241
100
AcDbScale
 70
     0
300
1:30
140
1.0
141
30.0
290
     0
  0
SCALE
  5
24B
102
{ACAD_REACTORS
330
241
102
}
330
241
100
AcDbScale
 70
     0
300
1:40
140
1.0
141
40.0
290
     0
  0
SCALE
  5
24C
102
{ACAD_REACTORS
330
241
102
}
330
241
100
AcDbScale
 70
     0
300
1:50
140
1.0
141
50.0
290
     0
  0
SCALE
  5
24D
102
{ACAD_REACTORS
330
241
102
}
330
241
100
AcDbScale
 70
     0
300
1:100
140
1.0
141
100.0
290
     0
  0
SCALE
  5
24E
102
{ACAD_REACTORS
330
241
102
}
330
241
100
AcDbScale
 70
     0
300
2:1
140
2.0
141
1.0
290
     0
  0
SCALE
  5
24F
102
{ACAD_REACTORS
330
241
102
}
330
241
100
AcDbScale
 70
     0
300
4:1
140
4.0
141
1.0
290
     0
  0
SCALE
  5
250
102
{ACAD_REACTORS
330
241
102
}
330
241
100
AcDbScale
 70
     0
300
8:1
140
8.0
141
1.0
290
     0
  0
SCALE
  5
251
102
{ACAD_REACTORS
330
241
102
}
330
241
100
AcDbScale
 70
     0
300
10:1
140
10.0
141
1.0
290
     0
  0
SCALE
  5
252
102
{ACAD_REACTORS
330
241
102
}
330
241
100
AcDbScale
 70
     0
300
100:1
140
100.0
141
1.0
290
     0
  0
SCALE
  5
253
102
{ACAD_REACTORS
330
241
102
}
330
241
100
AcDbScale
 70
     0
300
1/128" = 1'-0"
140
0.0078125
141
12.0
290
     0
  0
SCALE
  5
254
102
{ACAD_REACTORS
330
241
102
}
330
241
100
AcDbScale
 70
     0
300
1/64" = 1'-0"
140
0.015625
141
12.0
290
     0
  0
SCALE
  5
255
102
{ACAD_REACTORS
330
241
102
}
330
241
100
AcDbScale
 70
     0
300
1/32" = 1'-0"
140
0.03125
141
12.0
290
     0
  0
SCALE
  5
256
102
{ACAD_REACTORS
330
241
102
}
330
241
100
AcDbScale
 70
     0
300
1/16" = 1'-0"
140
0.0625
141
12.0
290
     0
  0
SCALE
  5
257
102
{ACAD_REACTORS
330
241
102
}
330
241
100
AcDbScale
 70
     0
300
3/32" = 1'-0"
140
0.09375
141
12.0
290
     0
  0
SCALE
  5
258
102
{ACAD_REACTORS
330
241
102
}
330
241
100
AcDbScale
 70
     0
300
1/8" = 1'-0"
140
0.125
141
12.0
290
     0
  0
SCALE
  5
259
102
{ACAD_REACTORS
330
241
102
}
330
241
100
AcDbScale
 70
     0
300
3/16" = 1'-0"
140
0.1875
141
12.0
290
     0
  0
SCALE
  5
25A
102
{ACAD_REACTORS
330
241
102
}
330
241
100
AcDbScale
 70
     0
300
1/4" = 1'-0"
140
0.25
141
12.0
290
     0
  0
SCALE
  5
25B
102
{ACAD_REACTORS
330
241
102
}
330
241
100
AcDbScale
 70
     0
300
3/8" = 1'-0"
140
0.375
141
12.0
290
     0
  0
SCALE
  5
25C
102
{ACAD_REACTORS
330
241
102
}
330
241
100
AcDbScale
 70
     0
300
1/2" = 1'-0"
140
0.5
141
12.0
290
     0
  0
SCALE
  5
25D
102
{ACAD_REACTORS
330
241
102
}
330
241
100
AcDbScale
 70
     0
300
3/4" = 1'-0"
140
0.75
141
12.0
290
     0
  0
SCALE
  5
25E
102
{ACAD_REACTORS
330
241
102
}
330
241
100
AcDbScale
 70
     0
300
1" = 1'-0"
140
1.0
141
12.0
290
     0
  0
SCALE
  5
25F
102
{ACAD_REACTORS
330
241
102
}
330
241
100
AcDbScale
 70
     0
300
1-1/2" = 1'-0"
140
1.5
141
12.0
290
     0
  0
SCALE
  5
260
102
{ACAD_REACTORS
330
241
102
}
330
241
100
AcDbScale
 70
     0
300
3" = 1'-0"
140
3.0
141
12.0
290
     0
  0
SCALE
  5
261
102
{ACAD_REACTORS
330
241
102
}
330
241
100
AcDbScale
 70
     0
300
6" = 1'-0"
140
6.0
141
12.0
290
     0
  0
SCALE
  5
262
102
{ACAD_REACTORS
330
241
102
}
330
241
100
AcDbScale
 70
     0
300
1'-0" = 1'-0"
140
12.0
141
12.0
290
     0
  0
TABLESTYLE
  5
279
102
{ACAD_REACTORS
330
278
102
}
102
{ACAD_XDICTIONARY
360
4310
102
}
330
278
100
AcDbTableStyle
  3
Standard
 70
     0
 71
     0
 40
0.06
 41
0.06
280
     0
281
     0
  7
Standard
140
4.5
170
     2
 62
     0
 63
   257
283
     0
 90
        4
 91
        0
  1

274
    -2
284
     1
 64
     0
275
    -2
285
     1
 65
     0
276
    -2
286
     1
 66
     0
277
    -2
287
     1
 67
     0
278
    -2
288
     1
 68
     0
279
    -2
289
     1
 69
     0
  7
Standard
140
6.0
170
     5
 62
     0
 63
   257
283
     0
 90
        4
 91
        0
  1

274
    -2
284
     1
 64
     0
275
    -2
285
     1
 65
     0
276
    -2
286
     1
 66
     0
277
    -2
287
     1
 67
     0
278
    -2
288
     1
 68
     0
279
    -2
289
     1
 69
     0
  7
Standard
140
4.5
170
     5
 62
     0
 63
   257
283
     0
 90
        4
 91
        0
  1

274
    -2
284
     1
 64
     0
275
    -2
285
     1
 65
     0
276
    -2
286
     1
 66
     0
277
    -2
287
     1
 67
     0
278
    -2
288
     1
 68
     0
279
    -2
289
     1
 69
     0
  0
VISUALSTYLE
  5
26C
102
{ACAD_REACTORS
330
267
102
}
330
267
100
AcDbVisualStyle
  2
2dWireframe
 70
     4
 71
     0
 72
     2
 73
     0
 90
        0
 40
-0.6
 41
-30.0
 62
     5
 63
     7
421
 16777215
 74
     1
 91
        4
 64
     7
 65
   257
 75
     1
175
     1
 42
1.0
 92
        0
 66
   257
 43
1.0
 76
     1
 77
     6
 78
     2
 67
     7
 79
     5
170
     0
171
     0
290
     0
174
     0
 93
        1
 44
0.0
173
     0
291
     0
 45
0.0
  0
VISUALSTYLE
  5
26E
102
{ACAD_REACTORS
330
267
102
}
330
267
100
AcDbVisualStyle
  2
3D Hidden
 70
     6
 71
     1
 72
     2
 73
     2
 90
        0
 40
-0.6
 41
-30.0
 62
     5
 63
     7
421
 16777215
 74
     2
 91
        2
 64
     7
 65
   257
 75
     2
175
     1
 42
40.0
 92
        0
 66
   257
 43
1.0
 76
     1
 77
     6
 78
     2
 67
     7
 79
     3
170
     0
171
     0
290
     0
174
     0
 93
        1
 44
0.0
173
     0
291
     0
 45
0.0
  0
VISUALSTYLE
  5
26D
102
{ACAD_REACTORS
330
267
102
}
330
267
100
AcDbVisualStyle
  2
3dWireframe
 70
     5
 71
     0
 72
     2
 73
     0
 90
        0
 40
-0.6
 41
-30.0
 62
     5
 63
     7
421
 16777215
 74
     1
 91
        4
 64
     7
 65
   257
 75
     1
175
     1
 42
1.0
 92
        0
 66
   257
 43
1.0
 76
     1
 77
     6
 78
     2
 67
     7
 79
     5
170
     0
171
     0
290
     0
174
     0
 93
        1
 44
0.0
173
     0
291
     0
 45
0.0
  0
VISUALSTYLE
  5
26F
102
{ACAD_REACTORS
330
267
102
}
330
267
100
AcDbVisualStyle
  2
Basic
 70
     7
 71
     1
 72
     0
 73
     1
 90
        0
 40
-0.6
 41
-30.0
 62
     5
 63
     7
421
 16777215
 74
     0
 91
        4
 64
     7
 65
   257
 75
     1
175
     1
 42
1.0
 92
        8
 66
     7
 43
1.0
 76
     1
 77
     6
 78
     2
 67
     7
 79
     5
170
     0
171
     0
290
     0
174
     0
 93
        1
 44
0.0
173
     0
291
     1
 45
0.0
  0
VISUALSTYLE
  5
273
102
{ACAD_REACTORS
330
267
102
}
330
267
100
AcDbVisualStyle
  2
Brighten
 70
    12
 71
     2
 72
     2
 73
     0
 90
        0
 40
-0.6
 41
-30.0
 62
     5
 63
     7
421
 16777215
 74
     1
 91
        4
 64
     7
 65
   257
 75
     1
175
     1
 42
1.0
 92
        8
 66
     7
 43
1.0
 76
     1
 77
     6
 78
     2
 67
     7
 79
     5
170
     0
171
     0
290
     0
174
     0
 93
        1
 44
50.0
173
     0
291
     1
 45
0.0
  0
VISUALSTYLE
  5
277
102
{ACAD_REACTORS
330
267
102
}
330
267
100
AcDbVisualStyle
  2
ColorChange
 70
    16
 71
     2
 72
     2
 73
     3
 90
        0
 40
-0.6
 41
-30.0
 62
     5
 63
     8
421
  8421504
 74
     1
 91
        4
 64
     7
 65
   257
 75
     1
175
     1
 42
1.0
 92
        8
 66
     8
424
  8421504
 43
1.0
 76
     1
 77
     6
 78
     2
 67
     7
 79
     5
170
     0
171
     0
290
     0
174
     0
 93
        1
 44
0.0
173
     0
291
     1
 45
0.0
  0
VISUALSTYLE
  5
271
102
{ACAD_REACTORS
330
267
102
}
330
267
100
AcDbVisualStyle
  2
Conceptual
 70
     9
 71
     3
 72
     2
 73
     0
 90
        0
 40
-0.6
 41
-30.0
 62
     5
 63
     7
421
 16777215
 74
     2
 91
        2
 64
     7
 65
   257
 75
     1
175
     1
 42
40.0
 92
        8
 66
     7
 43
1.0
 76
     1
 77
     6
 78
     2
 67
     7
 79
     3
170
     0
171
     0
290
     0
174
     0
 93
        1
 44
0.0
173
     0
291
     0
 45
0.0
  0
VISUALSTYLE
  5
272
102
{ACAD_REACTORS
330
267
102
}
330
267
100
AcDbVisualStyle
  2
Dim
 70
    11
 71
     2
 72
     2
 73
     0
 90
        0
 40
-0.6
 41
-30.0
 62
     5
 63
     7
421
 16777215
 74
     1
 91
        4
 64
     7
 65
   257
 75
     1
175
     1
 42
1.0
 92
        8
 66
     7
 43
1.0
 76
     1
 77
     6
 78
     2
 67
     7
 79
     5
170
     0
171
     0
290
     0
174
     0
 93
        1
 44
-50.0
173
     0
291
     1
 45
0.0
  0
VISUALSTYLE
  5
8FE
102
{ACAD_REACTORS
330
267
102
}
330
267
100
AcDbVisualStyle
  2
EdgeColorOff
 70
    22
 71
     2
 72
     2
 73
     0
 90
        0
 40
0.6
 41
30.0
 62
     5
 63
     7
421
 16777215
 74
     1
 91
        4
 64
     7
 65
   257
 75
     1
175
     1
 42
1.0
 92
        8
 66
     7
 43
1.0
 76
     1
 77
     6
 78
     2
 67
     7
 79
     5
170
     0
171
     0
290
     0
174
     0
 93
        1
 44
0.0
173
     0
291
     1
 45
0.0
  0
VISUALSTYLE
  5
276
102
{ACAD_REACTORS
330
267
102
}
330
267
100
AcDbVisualStyle
  2
Facepattern
 70
    15
 71
     2
 72
     2
 73
     0
 90
        0
 40
-0.6
 41
-30.0
 62
     5
 63
     7
421
 16777215
 74
     1
 91
        4
 64
     7
 65
   257
 75
     1
175
     1
 42
1.0
 92
        8
 66
     7
 43
1.0
 76
     1
 77
     6
 78
     2
 67
     7
 79
     5
170
     0
171
     0
290
     0
174
     0
 93
        1
 44
0.0
173
     0
291
     1
 45
0.0
  0
VISUALSTYLE
  5
268
102
{ACAD_REACTORS
330
267
102
}
330
267
100
AcDbVisualStyle
  2
Flat
 70
     0
 71
     2
 72
     1
 73
     1
 90
        2
 40
-0.6
 41
30.0
 62
     5
 63
     7
421
 16777215
 74
     0
 91
        4
 64
     7
 65
   257
 75
     1
175
     1
 42
1.0
 92
        8
 66
     7
 43
1.0
 76
     1
 77
     6
 78
     2
 67
     7
 79
     5
170
     0
171
     0
290
     0
174
     0
 93
       13
 44
0.0
173
     0
291
     1
 45
0.0
  0
VISUALSTYLE
  5
269
102
{ACAD_REACTORS
330
267
102
}
330
267
100
AcDbVisualStyle
  2
FlatWithEdges
 70
     1
 71
     2
 72
     1
 73
     1
 90
        2
 40
-0.6
 41
30.0
 62
     5
 63
     7
421
 16777215
 74
     1
 91
        4
 64
     7
 65
   257
 75
     1
175
     1
 42
1.0
 92
        0
 66
   257
 43
1.0
 76
     1
 77
     6
 78
     2
 67
     7
 79
     5
170
     0
171
     0
290
     0
174
     0
 93
       13
 44
0.0
173
     0
291
     1
 45
0.0
  0
VISUALSTYLE
  5
26A
102
{ACAD_REACTORS
330
267
102
}
330
267
100
AcDbVisualStyle
  2
Gouraud
 70
     2
 71
     2
 72
     2
 73
     1
 90
        2
 40
-0.6
 41
30.0
 62
     5
 63
     7
421
 16777215
 74
     0
 91
        4
 64
     7
 65
   257
 75
     1
175
     1
 42
1.0
 92
        0
 66
     7
 43
1.0
 76
     1
 77
     6
 78
     2
 67
     7
 79
     5
170
     0
171
     0
290
     0
174
     0
 93
       13
 44
0.0
173
     0
291
     1
 45
0.0
  0
VISUALSTYLE
  5
26B
102
{ACAD_REACTORS
330
267
102
}
330
267
100
AcDbVisualStyle
  2
GouraudWithEdges
 70
     3
 71
     2
 72
     2
 73
     1
 90
        2
 40
-0.6
 41
30.0
 62
     5
 63
     7
421
 16777215
 74
     1
 91
        4
 64
     7
 65
   257
 75
     1
175
     1
 42
1.0
 92
        0
 66
   257
 43
1.0
 76
     1
 77
     6
 78
     2
 67
     7
 79
     5
170
     0
171
     0
290
     0
174
     0
 93
       13
 44
0.0
173
     0
291
     1
 45
0.0
  0
VISUALSTYLE
  5
8FB
102
{ACAD_REACTORS
330
267
102
}
330
267
100
AcDbVisualStyle
  2
Hidden
 70
     6
 71
     1
 72
     2
 73
     2
 90
        0
 40
0.6
 41
30.0
 62
     5
 63
     7
421
 16777215
 74
     2
 91
        2
 64
     7
 65
   257
 75
     2
175
     1
 42
40.0
 92
        0
 66
   257
 43
1.0
 76
     1
 77
     6
 78
     2
 67
     7
 79
     3
170
     0
171
     0
290
     0
174
     0
 93
        1
 44
0.0
173
     0
291
     0
 45
0.0
  0
VISUALSTYLE
  5
8FC
102
{ACAD_REACTORS
330
267
102
}
330
267
100
AcDbVisualStyle
  2
JitterOff
 70
    20
 71
     2
 72
     2
 73
     0
 90
        0
 40
0.6
 41
30.0
 62
     5
 63
     7
421
 16777215
 74
     1
 91
        4
 64
     7
 65
   257
 75
     1
175
     1
 42
1.0
 92
       10
 66
     7
 43
1.0
 76
     1
 77
     6
 78
     2
 67
     7
 79
     5
170
     0
171
     0
290
     0
174
     0
 93
        1
 44
0.0
173
     0
291
     1
 45
0.0
  0
VISUALSTYLE
  5
275
102
{ACAD_REACTORS
330
267
102
}
330
267
100
AcDbVisualStyle
  2
Linepattern
 70
    14
 71
     2
 72
     2
 73
     0
 90
        0
 40
-0.6
 41
-30.0
 62
     5
 63
     7
421
 16777215
 74
     1
 91
        4
 64
     7
 65
   257
 75
     7
175
     7
 42
1.0
 92
        8
 66
     7
 43
1.0
 76
     1
 77
     6
 78
     2
 67
     7
 79
     5
170
     0
171
     0
290
     0
174
     0
 93
        1
 44
0.0
173
     0
291
     1
 45
0.0
  0
VISUALSTYLE
  5
8FD
102
{ACAD_REACTORS
330
267
102
}
330
267
100
AcDbVisualStyle
  2
OverhangOff
 70
    21
 71
     2
 72
     2
 73
     0
 90
        0
 40
0.6
 41
30.0
 62
     5
 63
     7
421
 16777215
 74
     1
 91
        4
 64
     7
 65
   257
 75
     1
175
     1
 42
1.0
 92
        9
 66
     7
 43
1.0
 76
     1
 77
     6
 78
     2
 67
     7
 79
     5
170
     0
171
     0
290
     0
174
     0
 93
        1
 44
0.0
173
     0
291
     1
 45
0.0
  0
VISUALSTYLE
  5
270
102
{ACAD_REACTORS
330
267
102
}
330
267
100
AcDbVisualStyle
  2
Realistic
 70
     8
 71
     2
 72
     2
 73
     0
 90
        0
 40
-0.6
 41
-30.0
 62
     5
 63
     7
421
 16777215
 74
     1
 91
        0
 64
     7
 65
   257
 75
     1
175
     1
 42
1.0
 92
        8
 66
     8
424
  7895160
 43
1.0
 76
     1
 77
     6
 78
     2
 67
     7
 79
     5
170
     0
171
     0
290
     0
174
     0
 93
       13
 44
0.0
173
     0
291
     0
 45
0.0
  0
VISUALSTYLE
  5
903
102
{ACAD_REACTORS
330
267
102
}
330
267
100
AcDbVisualStyle
  2
Shaded
 70
    27
 71
     2
 72
     2
 73
     1
 90
        2
 40
0.6
 41
30.0
 62
     5
 63
     7
421
 16777215
 74
     0
 91
        4
 64
     7
 65
   257
 75
     1
175
     1
 42
1.0
 92
        8
 66
   257
 43
1.0
 76
     1
 77
     6
 78
     2
 67
     8
425
  7895160
 79
     3
170
     0
171
     0
290
     0
174
     0
 93
        5
 44
0.0
173
     0
291
     0
 45
0.0
  0
VISUALSTYLE
  5
902
102
{ACAD_REACTORS
330
267
102
}
330
267
100
AcDbVisualStyle
  2
Shaded with edges
 70
    26
 71
     2
 72
     2
 73
     1
 90
        2
 40
0.6
 41
30.0
 62
     5
 63
     7
421
 16777215
 74
     1
 91
       10
 64
     7
 65
   257
 75
     2
175
     1
 42
1.0
 92
        8
 66
   257
 43
1.0
 76
     1
 77
     6
 78
     2
 67
     7
 79
     3
170
     0
171
     0
290
     0
174
     0
 93
        5
 44
0.0
173
     0
291
     0
 45
0.0
  0
VISUALSTYLE
  5
8FF
102
{ACAD_REACTORS
330
267
102
}
330
267
100
AcDbVisualStyle
  2
Shades of Gray
 70
    23
 71
     2
 72
     2
 73
     3
 90
        0
 40
0.6
 41
30.0
 62
     5
 63
     7
421
 16777215
 74
     2
 91
        2
 64
     7
 65
     7
 75
     1
175
     1
 42
40.0
 92
        8
 66
     7
 43
1.0
 76
     1
 77
     6
 78
     2
 67
     7
 79
     3
170
     0
171
     0
290
     0
174
     0
 93
        1
 44
0.0
173
     0
291
     0
 45
0.0
  0
VISUALSTYLE
  5
900
102
{ACAD_REACTORS
330
267
102
}
330
267
100
AcDbVisualStyle
  2
Sketchy
 70
    24
 71
     1
 72
     2
 73
     2
 90
        0
 40
0.6
 41
30.0
 62
     5
 63
     7
421
 16777215
 74
     2
 91
        2
 64
     7
 65
     7
 75
     1
175
     1
 42
40.0
 92
       11
 66
     7
 43
1.0
 76
     1
 77
     6
 78
     2
 67
     7
 79
     6
170
     0
171
     0
290
     0
174
     0
 93
        1
 44
0.0
173
     0
291
     0
 45
0.0
  0
VISUALSTYLE
  5
274
102
{ACAD_REACTORS
330
267
102
}
330
267
100
AcDbVisualStyle
  2
Thicken
 70
    13
 71
     2
 72
     2
 73
     0
 90
        0
 40
-0.6
 41
-30.0
 62
     5
 63
     7
421
 16777215
 74
     1
 91
        4
 64
     7
 65
   257
 75
     1
175
     1
 42
1.0
 92
       12
 66
     7
 43
1.0
 76
     1
 77
     6
 78
     2
 67
     7
 79
     5
170
     0
171
     0
290
     0
174
     0
 93
        1
 44
0.0
173
     0
291
     1
 45
0.0
  0
VISUALSTYLE
  5
8FA
102
{ACAD_REACTORS
330
267
102
}
330
267
100
AcDbVisualStyle
  2
Wireframe
 70
     5
 71
     0
 72
     2
 73
     0
 90
        0
 40
0.6
 41
30.0
 62
     5
 63
     7
421
 16777215
 74
     1
 91
        4
 64
     7
 65
   257
 75
     1
175
     1
 42
1.0
 92
        0
 66
   257
 43
1.0
 76
     1
 77
     6
 78
     2
 67
     7
 79
     3
170
     0
171
     0
290
     0
174
     0
 93
        1
 44
0.0
173
     0
291
     0
 45
0.0
  0
VISUALSTYLE
  5
901
102
{ACAD_REACTORS
330
267
102
}
330
267
100
AcDbVisualStyle
  2
X-Ray
 70
    25
 71
     2
 72
     2
 73
     1
 90
        1
 40
0.5
 41
30.0
 62
     5
 63
     7
421
 16777215
 74
     1
 91
        0
 64
     7
 65
   257
 75
     1
175
     1
 42
1.0
 92
        8
 66
     7
 43
1.0
 76
     1
 77
     6
 78
     2
 67
     7
 79
     3
170
     0
171
     0
290
     0
174
     0
 93
       13
 44
0.0
173
     0
291
     0
 45
0.0
  0
DICTIONARYVAR
  5
331
102
{ACAD_REACTORS
330
330
102
}
330
330
100
DictionaryVariables
280
     0
  1
1:1
  0
DICTIONARYVAR
  5
D5E
102
{ACAD_REACTORS
330
330
102
}
330
330
100
DictionaryVariables
280
     0
  1
Standard
  0
DICTIONARYVAR
  5
335
102
{ACAD_REACTORS
330
330
102
}
330
330
100
DictionaryVariables
280
     0
  1
Standard
  0
DICTIONARYVAR
  5
D52
102
{ACAD_REACTORS
330
330
102
}
330
330
100
DictionaryVariables
280
     0
  1
ByLayer
  0
DICTIONARYVAR
  5
896
102
{ACAD_REACTORS
330
330
102
}
330
330
100
DictionaryVariables
280
     0
  1
0
  0
DICTIONARYVAR
  5
246C
102
{ACAD_REACTORS
330
E38
102
}
330
E38
100
DictionaryVariables
280
     0
  1
0.261799
  0
DICTIONARYVAR
  5
246A
102
{ACAD_REACTORS
330
E38
102
}
330
E38
100
DictionaryVariables
280
     0
  1
0.400000
  0
DICTIONARYVAR
  5
246B
102
{ACAD_REACTORS
330
E38
102
}
330
E38
100
DictionaryVariables
280
     0
  1
0.250000
  0
DICTIONARYVAR
  5
246D
102
{ACAD_REACTORS
330
E38
102
}
330
E38
100
DictionaryVariables
280
     0
  1
1
  0
FIELD
  5
3DBA
102
{ACAD_REACTORS
330
3DB9
102
}
330
3DB9
100
AcDbField
  1
_text
  2
{%<\_FldIdx 0>%N}
 90
        1
360
3DBB
 97
        0
 91
       63
 92
        0
 94
       11
 95
        2
 96
        0
300

 93
        1
  6
ACFD_FIELDTEXT_CHECKSUM
 93
        2
 90
        2
140
4495.0
 94
        0
300

302

304
ACVALUE_END
  7
ACFD_FIELD_VALUE
 93
        6
 90
        4
  1
{20181114N}
 94
        0
300

302

304
ACVALUE_END
301
{20181114N}
 98
       11
  0
DICTIONARY
  5
4310
330
279
100
AcDbDictionary
280
     1
281
     1
  3
ACAD_ROUNDTRIP_2008_TABLESTYLE_CELLSTYLEMAP
360
4311
  0
FIELD
  5
3DBB
330
3DBA
100
AcDbField
  1
AcVar
  2
\AcVar CreateDate \f "yyyyMMdd"
 90
        0
 97
        0
 91
       63
 92
        0
 94
       11
 95
        2
 96
        0
300

 93
        1
  6
Variable
 93
        2
 90
        4
  1
CreateDate
 94
        0
300

302

304
ACVALUE_END
  7
ACFD_FIELD_VALUE
 93
        6
 90
        8
 92
       16
310
E2070B0000000E00070025003A000000
 94
        0
300
yyyyMMdd
302

304
ACVALUE_END
301
20181114
 98
        8
  0
CELLSTYLEMAP
  5
4311
102
{ACAD_REACTORS
330
4310
102
}
330
4310
100
AcDbCellStyleMap
 90
        3
300
CELLSTYLE
  1
TABLEFORMAT_BEGIN
 90
        5
170
     1
 91
        0
 92
    32768
 62
   257
 93
        1
300
CONTENTFORMAT
  1
CONTENTFORMAT_BEGIN
 90
        0
 91
        0
 92
        4
 93
        0
300

 40
0.0
140
1.0
 94
        5
 62
     0
340
17
144
6.0
309
CONTENTFORMAT_END
171
     1
301
MARGIN
  1
CELLMARGIN_BEGIN
 40
0.06
 40
0.06
 40
0.06
 40
0.06
 40
0.18
 40
0.18
309
CELLMARGIN_END
 94
        6
 95
        1
302
GRIDFORMAT
  1
GRIDFORMAT_BEGIN
 90
        0
 91
        1
 62
     0
 92
       -2
340
0
 93
        0
 40
0.045
309
GRIDFORMAT_END
 95
        2
302
GRIDFORMAT
  1
GRIDFORMAT_BEGIN
 90
        0
 91
        1
 62
     0
 92
       -2
340
0
 93
        0
 40
0.045
309
GRIDFORMAT_END
 95
        4
302
GRIDFORMAT
  1
GRIDFORMAT_BEGIN
 90
        0
 91
        1
 62
     0
 92
       -2
340
0
 93
        0
 40
0.045
309
GRIDFORMAT_END
 95
        8
302
GRIDFORMAT
  1
GRIDFORMAT_BEGIN
 90
        0
 91
        1
 62
     0
 92
       -2
340
0
 93
        0
 40
0.045
309
GRIDFORMAT_END
 95
       16
302
GRIDFORMAT
  1
GRIDFORMAT_BEGIN
 90
        0
 91
        1
 62
     0
 92
       -2
340
0
 93
        0
 40
0.045
309
GRIDFORMAT_END
 95
       32
302
GRIDFORMAT
  1
GRIDFORMAT_BEGIN
 90
        0
 91
        1
 62
     0
 92
       -2
340
0
 93
        0
 40
0.045
309
GRIDFORMAT_END
309
TABLEFORMAT_END
  1
CELLSTYLE_BEGIN
 90
        1
 91
        1
300
_TITLE
309
CELLSTYLE_END
300
CELLSTYLE
  1
TABLEFORMAT_BEGIN
 90
        5
170
     1
 91
        0
 92
        0
 62
   257
 93
        1
300
CONTENTFORMAT
  1
CONTENTFORMAT_BEGIN
 90
        0
 91
        0
 92
        4
 93
        0
300

 40
0.0
140
1.0
 94
        5
 62
     0
340
17
144
4.5
309
CONTENTFORMAT_END
171
     1
301
MARGIN
  1
CELLMARGIN_BEGIN
 40
0.06
 40
0.06
 40
0.06
 40
0.06
 40
0.18
 40
0.18
309
CELLMARGIN_END
 94
        6
 95
        1
302
GRIDFORMAT
  1
GRIDFORMAT_BEGIN
 90
        0
 91
        1
 62
     0
 92
       -2
340
0
 93
        0
 40
0.045
309
GRIDFORMAT_END
 95
        2
302
GRIDFORMAT
  1
GRIDFORMAT_BEGIN
 90
        0
 91
        1
 62
     0
 92
       -2
340
0
 93
        0
 40
0.045
309
GRIDFORMAT_END
 95
        4
302
GRIDFORMAT
  1
GRIDFORMAT_BEGIN
 90
        0
 91
        1
 62
     0
 92
       -2
340
0
 93
        0
 40
0.045
309
GRIDFORMAT_END
 95
        8
302
GRIDFORMAT
  1
GRIDFORMAT_BEGIN
 90
        0
 91
        1
 62
     0
 92
       -2
340
0
 93
        0
 40
0.045
309
GRIDFORMAT_END
 95
       16
302
GRIDFORMAT
  1
GRIDFORMAT_BEGIN
 90
        0
 91
        1
 62
     0
 92
       -2
340
0
 93
        0
 40
0.045
309
GRIDFORMAT_END
 95
       32
302
GRIDFORMAT
  1
GRIDFORMAT_BEGIN
 90
        0
 91
        1
 62
     0
 92
       -2
340
0
 93
        0
 40
0.045
309
GRIDFORMAT_END
309
TABLEFORMAT_END
  1
CELLSTYLE_BEGIN
 90
        2
 91
        1
300
_HEADER
309
CELLSTYLE_END
300
CELLSTYLE
  1
TABLEFORMAT_BEGIN
 90
        5
170
     1
 91
        0
 92
        0
 62
   257
 93
        1
300
CONTENTFORMAT
  1
CONTENTFORMAT_BEGIN
 90
        0
 91
        0
 92
        4
 93
        0
300

 40
0.0
140
1.0
 94
        2
 62
     0
340
17
144
4.5
309
CONTENTFORMAT_END
171
     1
301
MARGIN
  1
CELLMARGIN_BEGIN
 40
0.06
 40
0.06
 40
0.06
 40
0.06
 40
0.18
 40
0.18
309
CELLMARGIN_END
 94
        6
 95
        1
302
GRIDFORMAT
  1
GRIDFORMAT_BEGIN
 90
        0
 91
        1
 62
     0
 92
       -2
340
0
 93
        0
 40
0.045
309
GRIDFORMAT_END
 95
        2
302
GRIDFORMAT
  1
GRIDFORMAT_BEGIN
 90
        0
 91
        1
 62
     0
 92
       -2
340
0
 93
        0
 40
0.045
309
GRIDFORMAT_END
 95
        4
302
GRIDFORMAT
  1
GRIDFORMAT_BEGIN
 90
        0
 91
        1
 62
     0
 92
       -2
340
0
 93
        0
 40
0.045
309
GRIDFORMAT_END
 95
        8
302
GRIDFORMAT
  1
GRIDFORMAT_BEGIN
 90
        0
 91
        1
 62
     0
 92
       -2
340
0
 93
        0
 40
0.045
309
GRIDFORMAT_END
 95
       16
302
GRIDFORMAT
  1
GRIDFORMAT_BEGIN
 90
        0
 91
        1
 62
     0
 92
       -2
340
0
 93
        0
 40
0.045
309
GRIDFORMAT_END
 95
       32
302
GRIDFORMAT
  1
GRIDFORMAT_BEGIN
 90
        0
 91
        1
 62
     0
 92
       -2
340
0
 93
        0
 40
0.045
309
GRIDFORMAT_END
309
TABLEFORMAT_END
  1
CELLSTYLE_BEGIN
 90
        3
 91
        2
300
_DATA
309
CELLSTYLE_END
  0
ENDSEC
  0
EOF
