  0
SECTION
  2
HEADER
  9
$ACADVER
  1
AC1021
  9
$ACADMAINTVER
 70
    25
  9
$DWGCODEPAGE
  3
ANSI_932
  9
$LASTSAVEDBY
  1
ネルソン
  9
$INSBASE
 10
0.0
 20
0.0
 30
0.0
  9
$EXTMIN
 10
40.0
 20
41.19837821319445
 30
0.0
  9
$EXTMAX
 10
1990.000000000482
 20
2874.552903395052
 30
0.0
  9
$LIMMIN
 10
-10.0
 20
-0.9201746284776391
  9
$LIMMAX
 10
2040.0
 20
2924.552903395052
  9
$ORTHOMODE
 70
     0
  9
$REGENMODE
 70
     1
  9
$FILLMODE
 70
     1
  9
$QTEXTMODE
 70
     0
  9
$MIRRTEXT
 70
     1
  9
$LTSCALE
 40
50.8
  9
$ATTMODE
 70
     1
  9
$TEXTSIZE
 40
533.0403732820173
  9
$TRACEWID
 40
1.0
  9
$TEXTSTYLE
  7
Standard
  9
$CLAYER
  8
MODEL
  9
$CELTYPE
  6
Continuous
  9
$CECOLOR
 62
   256
  9
$CELTSCALE
 40
1.0
  9
$DISPSILH
 70
     0
  9
$DIMSCALE
 40
1.0
  9
$DIMASZ
 40
9.0
  9
$DIMEXO
 40
25.0
  9
$DIMDLI
 40
25.0
  9
$DIMRND
 40
0.0
  9
$DIMDLE
 40
0.0
  9
$DIMEXE
 40
0.0
  9
$DIMTP
 40
0.0
  9
$DIMTM
 40
0.0
  9
$DIMTXT
 40
24.4326171875
  9
$DIMCEN
 40
0.0
  9
$DIMTSZ
 40
0.0
  9
$DIMTOL
 70
     0
  9
$DIMLIM
 70
     0
  9
$DIMTIH
 70
     0
  9
$DIMTOH
 70
     0
  9
$DIMSE1
 70
     0
  9
$DIMSE2
 70
     0
  9
$DIMTAD
 70
     1
  9
$DIMZIN
 70
    11
  9
$DIMBLK
  1
DOT
  9
$DIMASO
 70
     1
  9
$DIMSHO
 70
     1
  9
$DIMPOST
  1
<>
  9
$DIMAPOST
  1
[]
  9
$DIMALT
 70
     0
  9
$DIMALTD
 70
     1
  9
$DIMALTF
 40
1.0
  9
$DIMLFAC
 40
1.0
  9
$DIMTOFL
 70
     0
  9
$DIMTVP
 40
0.0
  9
$DIMTIX
 70
     1
  9
$DIMSOXD
 70
     0
  9
$DIMSAH
 70
     0
  9
$DIMBLK1
  1

  9
$DIMBLK2
  1

  9
$DIMSTYLE
  2
JIS
  9
$DIMCLRD
 70
     0
  9
$DIMCLRE
 70
     0
  9
$DIMCLRT
 70
     0
  9
$DIMTFAC
 40
1.0
  9
$DIMGAP
 40
10.0
  9
$DIMJUST
 70
     0
  9
$DIMSD1
 70
     0
  9
$DIMSD2
 70
     0
  9
$DIMTOLJ
 70
     1
  9
$DIMTZIN
 70
    11
  9
$DIMALTZ
 70
    11
  9
$DIMALTTZ
 70
    11
  9
$DIMUPT
 70
     0
  9
$DIMDEC
 70
     0
  9
$DIMTDEC
 70
     1
  9
$DIMALTU
 70
     2
  9
$DIMALTTD
 70
     2
  9
$DIMTXSTY
  7
ＭＳ ゴシック
  9
$DIMAUNIT
 70
     0
  9
$DIMADEC
 70
     0
  9
$DIMALTRND
 40
0.0
  9
$DIMAZIN
 70
     0
  9
$DIMDSEP
 70
    46
  9
$DIMATFIT
 70
     0
  9
$DIMFRAC
 70
     2
  9
$DIMLDRBLK
  1
DOT
  9
$DIMLUNIT
 70
     2
  9
$DIMLWD
 70
    -2
  9
$DIMLWE
 70
    -2
  9
$DIMTMOVE
 70
     0
  9
$DIMFXL
 40
1.0
  9
$DIMFXLON
 70
     0
  9
$DIMJOGANG
 40
0.7853981633974483
  9
$DIMTFILL
 70
     0
  9
$DIMTFILLCLR
 70
     0
  9
$DIMARCSYM
 70
     0
  9
$DIMLTYPE
  6

  9
$DIMLTEX1
  6

  9
$DIMLTEX2
  6

  9
$LUNITS
 70
     2
  9
$LUPREC
 70
     0
  9
$SKETCHINC
 40
0.1
  9
$FILLETRAD
 40
5.0
  9
$AUNITS
 70
     0
  9
$AUPREC
 70
     0
  9
$MENU
  1
acad
  9
$ELEVATION
 40
0.0
  9
$PELEVATION
 40
0.0
  9
$THICKNESS
 40
0.0
  9
$LIMCHECK
 70
     0
  9
$CHAMFERA
 40
0.0
  9
$CHAMFERB
 40
0.0
  9
$CHAMFERC
 40
0.0
  9
$CHAMFERD
 40
0.0
  9
$SKPOLY
 70
     0
  9
$TDCREATE
 40
2447893.375
  9
$TDUCREATE
 40
0.0
  9
$TDUPDATE
 40
2456962.664039769
  9
$TDUUPDATE
 40
2456962.289039769
  9
$TDINDWG
 40
0.3398178588
  9
$TDUSRTIMER
 40
2456962.289032222
  9
$USRTIMER
 70
     1
  9
$ANGBASE
 50
0.0
  9
$ANGDIR
 70
     0
  9
$PDMODE
 70
     1
  9
$PDSIZE
 40
-2.0
  9
$PLINEWID
 40
0.0
  9
$SPLFRAME
 70
     0
  9
$SPLINETYPE
 70
     6
  9
$SPLINESEGS
 70
     8
  9
$HANDSEED
  5
4761
  9
$SURFTAB1
 70
     6
  9
$SURFTAB2
 70
     6
  9
$SURFTYPE
 70
     6
  9
$SURFU
 70
     6
  9
$SURFV
 70
     6
  9
$UCSBASE
  2

  9
$UCSNAME
  2

  9
$UCSORG
 10
0.0
 20
0.0
 30
0.0
  9
$UCSXDIR
 10
1.0
 20
0.0
 30
0.0
  9
$UCSYDIR
 10
0.0
 20
1.0
 30
0.0
  9
$UCSORTHOREF
  2

  9
$UCSORTHOVIEW
 70
     0
  9
$UCSORGTOP
 10
0.0
 20
0.0
 30
0.0
  9
$UCSORGBOTTOM
 10
0.0
 20
0.0
 30
0.0
  9
$UCSORGLEFT
 10
0.0
 20
0.0
 30
0.0
  9
$UCSORGRIGHT
 10
0.0
 20
0.0
 30
0.0
  9
$UCSORGFRONT
 10
0.0
 20
0.0
 30
0.0
  9
$UCSORGBACK
 10
0.0
 20
0.0
 30
0.0
  9
$PUCSBASE
  2

  9
$PUCSNAME
  2

  9
$PUCSORG
 10
0.0
 20
0.0
 30
0.0
  9
$PUCSXDIR
 10
1.0
 20
0.0
 30
0.0
  9
$PUCSYDIR
 10
0.0
 20
1.0
 30
0.0
  9
$PUCSORTHOREF
  2

  9
$PUCSORTHOVIEW
 70
     0
  9
$PUCSORGTOP
 10
0.0
 20
0.0
 30
0.0
  9
$PUCSORGBOTTOM
 10
0.0
 20
0.0
 30
0.0
  9
$PUCSORGLEFT
 10
0.0
 20
0.0
 30
0.0
  9
$PUCSORGRIGHT
 10
0.0
 20
0.0
 30
0.0
  9
$PUCSORGFRONT
 10
0.0
 20
0.0
 30
0.0
  9
$PUCSORGBACK
 10
0.0
 20
0.0
 30
0.0
  9
$USERI1
 70
     0
  9
$USERI2
 70
     0
  9
$USERI3
 70
     0
  9
$USERI4
 70
     0
  9
$USERI5
 70
     0
  9
$USERR1
 40
0.0
  9
$USERR2
 40
0.0
  9
$USERR3
 40
0.0
  9
$USERR4
 40
0.0
  9
$USERR5
 40
0.0
  9
$WORLDVIEW
 70
     1
  9
$SHADEDGE
 70
     3
  9
$SHADEDIF
 70
    70
  9
$TILEMODE
 70
     1
  9
$MAXACTVP
 70
    64
  9
$PINSBASE
 10
0.0
 20
0.0
 30
0.0
  9
$PLIMCHECK
 70
     0
  9
$PEXTMIN
 10
0.0
 20
0.0
 30
0.0
  9
$PEXTMAX
 10
0.0
 20
0.0
 30
0.0
  9
$PLIMMIN
 10
-7.5
 20
-20.0
  9
$PLIMMAX
 10
412.5
 20
277.0
  9
$UNITMODE
 70
     0
  9
$VISRETAIN
 70
     0
  9
$PLINEGEN
 70
     1
  9
$PSLTSCALE
 70
     0
  9
$TREEDEPTH
 70
  3020
  9
$CMLSTYLE
  2
Standard
  9
$CMLJUST
 70
     0
  9
$CMLSCALE
 40
1.0
  9
$PROXYGRAPHICS
 70
     0
  9
$MEASUREMENT
 70
     1
  9
$CELWEIGHT
370
     0
  9
$ENDCAPS
280
     0
  9
$JOINSTYLE
280
     0
  9
$LWDISPLAY
290
     1
  9
$INSUNITS
 70
     4
  9
$HYPERLINKBASE
  1

  9
$STYLESHEET
  1

  9
$XEDIT
290
     1
  9
$CEPSNTYPE
380
     0
  9
$PSTYLEMODE
290
     1
  9
$FINGERPRINTGUID
  2

  9
$VERSIONGUID
  2

  9
$EXTNAMES
290
     1
  9
$PSVPSCALE
 40
0.0
  9
$OLESTARTUP
290
     0
  9
$SORTENTS
280
   127
  9
$INDEXCTL
280
     0
  9
$HIDETEXT
280
     1
  9
$XCLIPFRAME
290
     0
  9
$HALOGAP
280
     0
  9
$OBSCOLOR
 70
   257
  9
$OBSLTYPE
280
     0
  9
$INTERSECTIONDISPLAY
280
     0
  9
$INTERSECTIONCOLOR
 70
   257
  9
$DIMASSOC
280
     2
  9
$PROJECTNAME
  1

  9
$CAMERADISPLAY
290
     0
  9
$LENSLENGTH
 40
50.0
  9
$CAMERAHEIGHT
 40
0.0
  9
$STEPSPERSEC
 40
2.0
  9
$STEPSIZE
 40
6.0
  9
$3DDWFPREC
 40
2.0
  9
$PSOLWIDTH
 40
0.25
  9
$PSOLHEIGHT
 40
4.0
  9
$LOFTANG1
 40
1.570796326794897
  9
$LOFTANG2
 40
1.570796326794897
  9
$LOFTMAG1
 40
0.0
  9
$LOFTMAG2
 40
0.0
  9
$LOFTPARAM
 70
     7
  9
$LOFTNORMALS
280
     1
  9
$LATITUDE
 40
37.795
  9
$LONGITUDE
 40
-122.394
  9
$NORTHDIRECTION
 40
0.0
  9
$TIMEZONE
 70
 -8000
  9
$LIGHTGLYPHDISPLAY
280
     1
  9
$TILEMODELIGHTSYNCH
280
     1
  9
$SOLIDHIST
280
     1
  9
$SHOWHIST
280
     1
  9
$DWFFRAME
280
     2
  9
$DGNFRAME
280
     2
  9
$REALWORLDSCALE
290
     1
  9
$INTERFERECOLOR
 62
   256
  9
$CSHADOW
280
     0
  9
$SHADOWPLANELOCATION
 40
0.0
  0
ENDSEC
  0
SECTION
  2
CLASSES
  0
CLASS
  1
LWPOLYLINE
  2
AcDbPolyline
  3
ObjectDBX Classes
 90
        0
 91
        1
280
     0
281
     1
  0
CLASS
  1
IMAGE
  2
AcDbRasterImage
  3
ISM
 90
      127
 91
        7
280
     0
281
     1
  0
CLASS
  1
OLE2FRAME
  2
AcDbOle2Frame
  3
ObjectDBX Classes
 90
        0
 91
        1
280
     0
281
     1
  0
CLASS
  1
HATCH
  2
AcDbHatch
  3
ObjectDBX Classes
 90
        0
 91
        1
280
     0
281
     1
  0
CLASS
  1
DICTIONARYVAR
  2
AcDbDictionaryVar
  3
ObjectDBX Classes
 90
        0
 91
        6
280
     0
281
     0
  0
CLASS
  1
RASTERVARIABLES
  2
AcDbRasterVariables
  3
ISM
 90
        0
 91
        9
280
     0
281
     0
  0
CLASS
  1
IMAGEDEF
  2
AcDbRasterImageDef
  3
ISM
 90
        0
 91
        6
280
     0
281
     0
  0
CLASS
  1
IMAGEDEF_REACTOR
  2
AcDbRasterImageDefReactor
  3
ISM
 90
        1
 91
        6
280
     0
281
     0
  0
CLASS
  1
IDBUFFER
  2
AcDbIdBuffer
  3
ObjectDBX Classes
 90
        0
 91
        6
280
     0
281
     0
  0
CLASS
  1
SPATIAL_FILTER
  2
AcDbSpatialFilter
  3
ObjectDBX Classes
 90
        0
 91
        6
280
     0
281
     0
  0
CLASS
  1
XRECORD
  2
AcDbXrecord
  3
ObjectDBX Classes
 90
        0
 91
        1
280
     0
281
     0
  0
CLASS
  1
SORTENTSTABLE
  2
AcDbSortentsTable
  3
ObjectDBX Classes
 90
        0
 91
        6
280
     0
281
     0
  0
CLASS
  1
LAYER_INDEX
  2
AcDbLayerIndex
  3
ObjectDBX Classes
 90
        0
 91
        6
280
     0
281
     0
  0
CLASS
  1
SPATIAL_INDEX
  2
AcDbSpatialIndex
  3
AutoCAD 2000
 90
        0
 91
        6
280
     0
281
     0
  0
CLASS
  1
OBJECT_PTR
  2
CAseDLPNTableRecord
  3
ASE-LPNTableRecord
 90
        1
 91
        6
280
     0
281
     0
  0
CLASS
  1
LAYOUT
  2
AcDbLayout
  3
ObjectDBX Classes
 90
        0
 91
        1
280
     0
281
     0
  0
CLASS
  1
PLOTSETTINGS
  2
AcDbPlotSettings
  3
ObjectDBX Classes
 90
        0
 91
        6
280
     0
281
     0
  0
CLASS
  1
ACDBDICTIONARYWDFLT
  2
AcDbDictionaryWithDefault
  3
ObjectDBX Classes
 90
        0
 91
        9
280
     0
281
     0
  0
CLASS
  1
ACDBPLACEHOLDER
  2
AcDbPlaceHolder
  3
ObjectDBX Classes
 90
        0
 91
        1
280
     0
281
     0
  0
CLASS
  1
SCALE
  2
AcDbScale
  3
ObjectDBX Classes
 90
     1153
 91
        9
280
     0
281
     0
  0
CLASS
  1
MATERIAL
  2
AcDbMaterial
  3
ObjectDBX Classes
 90
     1153
 91
        9
280
     0
281
     0
  0
CLASS
  1
VISUALSTYLE
  2
AcDbVisualStyle
  3
ObjectDBX Classes
 90
     4095
 91
        9
280
     0
281
     0
  0
CLASS
  1
TABLESTYLE
  2
AcDbTableStyle
  3
ObjectDBX Classes
 90
     4095
 91
        9
280
     0
281
     0
  0
CLASS
  1
DIMASSOC
  2
AcDbDimAssoc
  3
"AcDbDimAssoc|Product Desc:     AcDim ARX App For Dimension|Company:          Autodesk, Inc.|WEB Address:      www.autodesk.com"
 90
        0
 91
        6
280
     0
281
     0
  0
CLASS
  1
CELLSTYLEMAP
  2
AcDbCellStyleMap
  3
ObjectDBX Classes
 90
     1152
 91
        6
280
     0
281
     0
  0
CLASS
  1
SUN
  2
AcDbSun
  3
SCENEOE
 90
     1153
 91
        9
280
     0
281
     0
  0
ENDSEC
  0
SECTION
  2
TABLES
  0
TABLE
  2
VPORT
  5
7
330
0
100
AcDbSymbolTable
 70
     1
  0
VPORT
  5
15
330
7
100
AcDbSymbolTableRecord
100
AcDbViewportTableRecord
  2
*ACTIVE
 70
     0
 10
0.0
 20
0.0
 11
1.0
 21
1.0
 12
1015.000000000241
 22
1457.875640804123
 13
0.0
 23
0.0
 14
1.0
 24
1.0
 15
0.0
 25
0.0
 16
0.0
 26
0.0
 36
1.0
 17
0.0
 27
0.0
 37
0.0
 40
2890.021615685495
 41
2.631578947368421
 42
50.0
 43
0.0
 44
0.0
 50
0.0
 51
0.0
 71
    16
 72
  2000
 73
     1
 74
     1
 75
     0
 76
     0
 77
     0
 78
     0
281
     0
 65
     0
110
0.0
120
0.0
130
0.0
111
1.0
121
0.0
131
0.0
112
0.0
122
1.0
132
0.0
 79
     0
146
0.0
348
26C
 60
     3
 61
     5
292
     1
282
     1
141
0.0
142
0.0
 63
   256
361
68F
  0
ENDTAB
  0
TABLE
  2
LTYPE
  5
4
330
0
100
AcDbSymbolTable
 70
    16
  0
LTYPE
  5
11
330
4
100
AcDbSymbolTableRecord
100
AcDbLinetypeTableRecord
  2
ByBlock
 70
     0
  3

 72
    65
 73
     0
 40
0.0
  0
LTYPE
  5
12
330
4
100
AcDbSymbolTableRecord
100
AcDbLinetypeTableRecord
  2
ByLayer
 70
     0
  3

 72
    65
 73
     0
 40
0.0
  0
LTYPE
  5
13
330
4
100
AcDbSymbolTableRecord
100
AcDbLinetypeTableRecord
  2
Continuous
 70
     0
  3
Solid line
 72
    65
 73
     0
 40
0.0
  0
LTYPE
  5
45
330
4
100
AcDbSymbolTableRecord
100
AcDbLinetypeTableRecord
  2
STYLE_12
 70
     0
  3

 72
    65
 73
     2
 40
0.3937007874015748
 49
0.1968503937007874
 74
     0
 49
-0.1968503937007874
 74
     0
  0
LTYPE
  5
653
330
4
100
AcDbSymbolTableRecord
100
AcDbLinetypeTableRecord
  2
STYLE_25
 70
     0
  3

 72
    65
 73
     2
 40
0.3937007874015748
 49
0.1968503937007874
 74
     0
 49
-0.1968503937007874
 74
     0
  0
LTYPE
  5
419F
330
4
100
AcDbSymbolTableRecord
100
AcDbLinetypeTableRecord
  2
AI-LINETYPE-1
 70
     0
  3
Adobe Illustrator Linetype No. 1
 72
    65
 73
     4
 40
10.79998128138732
 49
6.000013207316245
 74
     0
 49
-1.599989358023693
 74
     0
 49
1.599989358023693
 74
     0
 49
-1.599989358023693
 74
     0
  0
LTYPE
  5
41A0
330
4
100
AcDbSymbolTableRecord
100
AcDbLinetypeTableRecord
  2
AI-LINETYPE-2
 70
     0
  3
Adobe Illustrator Linetype No. 2
 72
    65
 73
     4
 40
10.79998128138732
 49
6.000013207316245
 74
     0
 49
-1.599989358023693
 74
     0
 49
1.599989358023693
 74
     0
 49
-1.599989358023693
 74
     0
  0
LTYPE
  5
41A1
330
4
100
AcDbSymbolTableRecord
100
AcDbLinetypeTableRecord
  2
AI-LINETYPE-3
 70
     0
  3
Adobe Illustrator Linetype No. 3
 72
    65
 73
     4
 40
10.79998128138732
 49
6.000013207316245
 74
     0
 49
-1.599989358023693
 74
     0
 49
1.599989358023693
 74
     0
 49
-1.599989358023693
 74
     0
  0
LTYPE
  5
41A2
330
4
100
AcDbSymbolTableRecord
100
AcDbLinetypeTableRecord
  2
AI-LINETYPE-4
 70
     0
  3
Adobe Illustrator Linetype No. 4
 72
    65
 73
     4
 40
10.79998128138732
 49
6.000013207316245
 74
     0
 49
-1.599989358023693
 74
     0
 49
1.599989358023693
 74
     0
 49
-1.599989358023693
 74
     0
  0
LTYPE
  5
41A3
330
4
100
AcDbSymbolTableRecord
100
AcDbLinetypeTableRecord
  2
AI-LINETYPE-5
 70
     0
  3
Adobe Illustrator Linetype No. 5
 72
    65
 73
     4
 40
10.79998128138732
 49
6.000013207316245
 74
     0
 49
-1.599989358023693
 74
     0
 49
1.599989358023693
 74
     0
 49
-1.599989358023693
 74
     0
  0
LTYPE
  5
41A4
330
4
100
AcDbSymbolTableRecord
100
AcDbLinetypeTableRecord
  2
AI-LINETYPE-6
 70
     0
  3
Adobe Illustrator Linetype No. 6
 72
    65
 73
     4
 40
10.79998128138732
 49
6.000013207316245
 74
     0
 49
-1.599989358023693
 74
     0
 49
1.599989358023693
 74
     0
 49
-1.599989358023693
 74
     0
  0
LTYPE
  5
41A5
330
4
100
AcDbSymbolTableRecord
100
AcDbLinetypeTableRecord
  2
AI-LINETYPE-7
 70
     0
  3
Adobe Illustrator Linetype No. 7
 72
    65
 73
     6
 40
2.999953615093974
 49
0.4999922691823291
 74
     0
 49
-0.4999922691823291
 74
     0
 49
0.4999922691823291
 74
     0
 49
-0.4999922691823291
 74
     0
 49
0.4999922691823291
 74
     0
 49
-0.4999922691823291
 74
     0
  0
LTYPE
  5
41A6
330
4
100
AcDbSymbolTableRecord
100
AcDbLinetypeTableRecord
  2
AI-LINETYPE-8
 70
     0
  3
Adobe Illustrator Linetype No. 8
 72
    65
 73
     6
 40
2.999953615093974
 49
0.4999922691823291
 74
     0
 49
-0.4999922691823291
 74
     0
 49
0.4999922691823291
 74
     0
 49
-0.4999922691823291
 74
     0
 49
0.4999922691823291
 74
     0
 49
-0.4999922691823291
 74
     0
  0
LTYPE
  5
41A7
330
4
100
AcDbSymbolTableRecord
100
AcDbLinetypeTableRecord
  2
AI-LINETYPE-9
 70
     0
  3
Adobe Illustrator Linetype No. 9
 72
    65
 73
     6
 40
2.999953615093974
 49
0.4999922691823291
 74
     0
 49
-0.4999922691823291
 74
     0
 49
0.4999922691823291
 74
     0
 49
-0.4999922691823291
 74
     0
 49
0.4999922691823291
 74
     0
 49
-0.4999922691823291
 74
     0
  0
LTYPE
  5
41A8
330
4
100
AcDbSymbolTableRecord
100
AcDbLinetypeTableRecord
  2
AI-LINETYPE-10
 70
     0
  3
Adobe Illustrator Linetype No. 10
 72
    65
 73
     6
 40
2.999953615093974
 49
0.4999922691823291
 74
     0
 49
-0.4999922691823291
 74
     0
 49
0.4999922691823291
 74
     0
 49
-0.4999922691823291
 74
     0
 49
0.4999922691823291
 74
     0
 49
-0.4999922691823291
 74
     0
  0
LTYPE
  5
41A9
330
4
100
AcDbSymbolTableRecord
100
AcDbLinetypeTableRecord
  2
AI-LINETYPE-11
 70
     0
  3
Adobe Illustrator Linetype No. 11
 72
    65
 73
     6
 40
2.999953615093974
 49
0.4999922691823291
 74
     0
 49
-0.4999922691823291
 74
     0
 49
0.4999922691823291
 74
     0
 49
-0.4999922691823291
 74
     0
 49
0.4999922691823291
 74
     0
 49
-0.4999922691823291
 74
     0
  0
LTYPE
  5
41AA
330
4
100
AcDbSymbolTableRecord
100
AcDbLinetypeTableRecord
  2
AI-LINETYPE-12
 70
     0
  3
Adobe Illustrator Linetype No. 12
 72
    65
 73
     6
 40
2.999953615093974
 49
0.4999922691823291
 74
     0
 49
-0.4999922691823291
 74
     0
 49
0.4999922691823291
 74
     0
 49
-0.4999922691823291
 74
     0
 49
0.4999922691823291
 74
     0
 49
-0.4999922691823291
 74
     0
  0
LTYPE
  5
41AB
330
4
100
AcDbSymbolTableRecord
100
AcDbLinetypeTableRecord
  2
AI-LINETYPE-13
 70
     0
  3
Adobe Illustrator Linetype No. 13
 72
    65
 73
     6
 40
2.999953615093974
 49
0.4999922691823291
 74
     0
 49
-0.4999922691823291
 74
     0
 49
0.4999922691823291
 74
     0
 49
-0.4999922691823291
 74
     0
 49
0.4999922691823291
 74
     0
 49
-0.4999922691823291
 74
     0
  0
ENDTAB
  0
TABLE
  2
LAYER
  5
2
102
{ACAD_XDICTIONARY
360
2E1
102
}
330
0
100
AcDbSymbolTable
 70
     8
  0
LAYER
  5
14
330
2
100
AcDbSymbolTableRecord
100
AcDbLayerTableRecord
  2
0
 70
     0
 62
     7
  6
Continuous
370
    -3
390
1D
347
266
  0
LAYER
  5
4A
330
2
100
AcDbSymbolTableRecord
100
AcDbLayerTableRecord
  2
Defpoints
 70
     0
 62
     7
  6
Continuous
290
     0
370
     9
390
1D
347
266
  0
LAYER
  5
4B
330
2
100
AcDbSymbolTableRecord
100
AcDbLayerTableRecord
  2
template
 70
     0
 62
     7
  6
Continuous
370
    -3
390
1D
347
266
  0
LAYER
  5
4C
330
2
100
AcDbSymbolTableRecord
100
AcDbLayerTableRecord
  2
notes
 70
     0
 62
     7
  6
Continuous
370
    -3
390
1D
347
266
  0
LAYER
  5
4D
330
2
100
AcDbSymbolTableRecord
100
AcDbLayerTableRecord
  2
MODEL
 70
     0
 62
     7
  6
Continuous
370
    -3
390
1D
347
266
  0
LAYER
  5
382
330
2
100
AcDbSymbolTableRecord
100
AcDbLayerTableRecord
  2
レイヤー 1
 70
     0
 62
     7
  6
Continuous
370
    -3
390
1D
347
266
  0
LAYER
  5
5EB
330
2
100
AcDbSymbolTableRecord
100
AcDbLayerTableRecord
  2
Dim
 70
     0
 62
     7
  6
Continuous
370
     9
390
1D
347
266
1001
AcAecLayerStandard
1000

1000

  0
LAYER
  5
2226
330
2
100
AcDbSymbolTableRecord
100
AcDbLayerTableRecord
  2
STANDARD
 70
     0
 62
     7
  6
Continuous
370
    -3
390
1D
347
266
  0
ENDTAB
  0
TABLE
  2
STYLE
  5
3
330
0
100
AcDbSymbolTable
 70
     2
  0
STYLE
  5
17
330
3
100
AcDbSymbolTableRecord
100
AcDbTextStyleTableRecord
  2
Standard
 70
     0
 40
0.0
 41
1.0
 50
0.0
 71
     0
 42
533.0403732820173
  3
txt
  4
BIGFONT.SHX
  0
STYLE
  5
39
330
3
100
AcDbSymbolTableRecord
100
AcDbTextStyleTableRecord
  2
ＭＳ ゴシック
 70
     0
 40
0.0
 41
1.0
 50
0.0
 71
     0
 42
2.5
  3
msgothic.ttc
  4
ＭＳ ゴシック
1001
ACAD
1000
ＭＳ ゴシック
1071
        0
  0
ENDTAB
  0
TABLE
  2
VIEW
  5
5
330
0
100
AcDbSymbolTable
 70
     0
  0
ENDTAB
  0
TABLE
  2
UCS
  5
6
330
0
100
AcDbSymbolTable
 70
     0
  0
ENDTAB
  0
TABLE
  2
APPID
  5
8
330
0
100
AcDbSymbolTable
 70
     3
  0
APPID
  5
16
330
8
100
AcDbSymbolTableRecord
100
AcDbRegAppTableRecord
  2
ACAD
 70
     0
  0
APPID
  5
5C5
330
8
100
AcDbSymbolTableRecord
100
AcDbRegAppTableRecord
  2
AcAecLayerStandard
 70
     0
  0
APPID
  5
697
330
8
100
AcDbSymbolTableRecord
100
AcDbRegAppTableRecord
  2
ACAD_PSEXT
 70
     0
  0
ENDTAB
  0
TABLE
  2
DIMSTYLE
  5
9
330
0
100
AcDbSymbolTable
 70
     3
100
AcDbDimStyleTable
  0
DIMSTYLE
105
18
330
9
100
AcDbSymbolTableRecord
100
AcDbDimStyleTableRecord
  2
Standard
 70
     0
178
     0
340
17
  0
DIMSTYLE
105
5C
102
{ACAD_REACTORS
330
4318
330
4343
330
4362
330
4373
330
4385
330
443B
330
446B
330
447D
330
448C
330
44A4
330
456A
330
458A
330
45DB
330
45FD
330
4637
330
4649
102
}
330
9
100
AcDbSymbolTableRecord
100
AcDbDimStyleTableRecord
  2
JIS
 70
     0
  3
<>
  4
[]
 41
9.0
 42
0.0
 43
6.99999999999994
 44
19.9999999999962
 73
     0
 74
     0
 77
     1
 78
    11
140
24.4326171875
141
0.0
143
1.0
147
10.0
171
     1
174
     1
178
     0
179
     2
271
     1
272
     1
276
     2
284
    11
285
    11
286
    11
289
     0
340
39
341
4E
342
4E
  0
DIMSTYLE
105
41AC
330
9
100
AcDbSymbolTableRecord
100
AcDbDimStyleTableRecord
  2
ISO-25
 70
     0
 41
2.5
 42
0.625
 43
3.75
 44
1.25
 73
     0
 74
     0
 77
     1
 78
     8
140
2.5
141
2.5
143
0.03937007874016
147
0.625
171
     3
172
     1
178
     0
271
     2
272
     2
274
     3
283
     0
284
     8
340
17
  0
ENDTAB
  0
TABLE
  2
BLOCK_RECORD
  5
1
330
0
100
AcDbSymbolTable
 70
    67
  0
BLOCK_RECORD
  5
A
330
1
100
AcDbSymbolTableRecord
100
AcDbBlockTableRecord
  2
*MODEL_SPACE
340
20
 70
     0
280
     1
281
     0
  0
BLOCK_RECORD
  5
B
330
1
100
AcDbSymbolTableRecord
100
AcDbBlockTableRecord
  2
*PAPER_SPACE
340
21
 70
     0
280
     1
281
     0
  0
BLOCK_RECORD
  5
4E
330
1
100
AcDbSymbolTableRecord
100
AcDbBlockTableRecord
  2
_DOT
340
0
102
{BLKREFS
331
3B74
331
3B75
331
3B83
331
3B84
331
3BA1
331
3BA2
331
3BB6
331
3BB7
331
3BC9
331
3BCA
331
3BD6
331
3BD7
331
3C3E
331
3C3F
331
3C7F
331
3C80
331
3C8E
331
3C8F
331
3CA7
331
3CA8
331
3F3B
331
3F3C
331
3F4A
331
3F4B
331
3F6B
331
3F6C
331
3F80
331
3F81
331
4026
331
4027
331
4088
331
4089
331
40DD
331
40DE
331
40EA
331
40EB
331
413E
331
413F
331
4297
331
4298
331
42A8
331
42A9
331
42BA
331
42BB
331
42D4
331
42D5
331
42EA
331
42EB
331
4300
331
4301
331
4312
331
4313
331
4321
331
4322
331
4331
331
4332
331
434C
331
434D
331
435B
331
435C
331
436B
331
436C
331
437C
331
437D
331
438E
331
438F
331
43D0
331
43D1
331
43DF
331
43E0
331
4405
331
4406
331
4411
331
4412
331
441D
331
441E
331
4429
331
442A
331
4435
331
4436
331
4444
331
4445
331
4454
331
4455
331
4474
331
4475
331
4486
331
4487
331
4495
331
4496
331
44AD
331
44AE
331
4564
331
4565
331
4573
331
4574
331
4593
331
4594
331
45BB
331
45BC
331
45CE
331
45CF
331
45E3
331
45E4
331
4606
331
4607
331
4615
331
4616
331
4624
331
4625
331
4640
331
4641
331
4652
331
4653
102
}
 70
     0
280
     1
281
     0
  0
BLOCK_RECORD
  5
58
330
1
100
AcDbSymbolTableRecord
100
AcDbBlockTableRecord
  2
VW_FILLEDARROW
340
0
 70
     0
280
     1
281
     0
  0
BLOCK_RECORD
  5
3A5
330
1
100
AcDbSymbolTableRecord
100
AcDbBlockTableRecord
  2
名称未設定-1
340
0
102
{BLKREFS
331
3D0
102
}
 70
     1
280
     1
281
     0
  0
BLOCK_RECORD
  5
3A8
330
1
100
AcDbSymbolTableRecord
100
AcDbBlockTableRecord
  2
block 2
340
0
102
{BLKREFS
331
3A7
102
}
 70
     0
280
     1
281
     0
  0
BLOCK_RECORD
  5
3AB
330
1
100
AcDbSymbolTableRecord
100
AcDbBlockTableRecord
  2
block 3
340
0
102
{BLKREFS
331
3AA
102
}
 70
     0
280
     1
281
     0
  0
BLOCK_RECORD
  5
3AE
330
1
100
AcDbSymbolTableRecord
100
AcDbBlockTableRecord
  2
block 4
340
0
102
{BLKREFS
331
3AD
102
}
 70
     0
280
     1
281
     0
  0
BLOCK_RECORD
  5
3BD
330
1
100
AcDbSymbolTableRecord
100
AcDbBlockTableRecord
  2
block 5
340
0
102
{BLKREFS
331
3BC
102
}
 70
     0
280
     1
281
     0
  0
BLOCK_RECORD
  5
3B6E
330
1
100
AcDbSymbolTableRecord
100
AcDbBlockTableRecord
  2
*D7
340
0
 70
     0
280
     1
281
     0
  0
BLOCK_RECORD
  5
3B7D
330
1
100
AcDbSymbolTableRecord
100
AcDbBlockTableRecord
  2
*D8
340
0
 70
     0
280
     1
281
     0
  0
BLOCK_RECORD
  5
3B9B
330
1
100
AcDbSymbolTableRecord
100
AcDbBlockTableRecord
  2
*D9
340
0
 70
     0
280
     1
281
     0
  0
BLOCK_RECORD
  5
3BB0
330
1
100
AcDbSymbolTableRecord
100
AcDbBlockTableRecord
  2
*D10
340
0
 70
     0
280
     1
281
     0
  0
BLOCK_RECORD
  5
3BC3
330
1
100
AcDbSymbolTableRecord
100
AcDbBlockTableRecord
  2
*D11
340
0
 70
     0
280
     1
281
     0
  0
BLOCK_RECORD
  5
3BD0
330
1
100
AcDbSymbolTableRecord
100
AcDbBlockTableRecord
  2
*D12
340
0
 70
     0
280
     1
281
     0
  0
BLOCK_RECORD
  5
3C38
330
1
100
AcDbSymbolTableRecord
100
AcDbBlockTableRecord
  2
*D13
340
0
 70
     0
280
     1
281
     0
  0
BLOCK_RECORD
  5
3C79
330
1
100
AcDbSymbolTableRecord
100
AcDbBlockTableRecord
  2
*D14
340
0
 70
     0
280
     1
281
     0
  0
BLOCK_RECORD
  5
3C88
330
1
100
AcDbSymbolTableRecord
100
AcDbBlockTableRecord
  2
*D15
340
0
 70
     0
280
     1
281
     0
  0
BLOCK_RECORD
  5
3CA1
330
1
100
AcDbSymbolTableRecord
100
AcDbBlockTableRecord
  2
*D16
340
0
 70
     0
280
     1
281
     0
  0
BLOCK_RECORD
  5
3F35
330
1
100
AcDbSymbolTableRecord
100
AcDbBlockTableRecord
  2
*D17
340
0
 70
     0
280
     1
281
     0
  0
BLOCK_RECORD
  5
3F44
330
1
100
AcDbSymbolTableRecord
100
AcDbBlockTableRecord
  2
*D18
340
0
 70
     0
280
     1
281
     0
  0
BLOCK_RECORD
  5
3F65
330
1
100
AcDbSymbolTableRecord
100
AcDbBlockTableRecord
  2
*D19
340
0
 70
     0
280
     1
281
     0
  0
BLOCK_RECORD
  5
3F7A
330
1
100
AcDbSymbolTableRecord
100
AcDbBlockTableRecord
  2
*D20
340
0
 70
     0
280
     1
281
     0
  0
BLOCK_RECORD
  5
4020
330
1
100
AcDbSymbolTableRecord
100
AcDbBlockTableRecord
  2
*D21
340
0
 70
     0
280
     1
281
     0
  0
BLOCK_RECORD
  5
4082
330
1
100
AcDbSymbolTableRecord
100
AcDbBlockTableRecord
  2
*D22
340
0
 70
     0
280
     1
281
     0
  0
BLOCK_RECORD
  5
40D7
330
1
100
AcDbSymbolTableRecord
100
AcDbBlockTableRecord
  2
*D23
340
0
 70
     0
280
     1
281
     0
  0
BLOCK_RECORD
  5
40E4
330
1
100
AcDbSymbolTableRecord
100
AcDbBlockTableRecord
  2
*D24
340
0
 70
     0
280
     1
281
     0
  0
BLOCK_RECORD
  5
4138
330
1
100
AcDbSymbolTableRecord
100
AcDbBlockTableRecord
  2
*D25
340
0
 70
     0
280
     1
281
     0
  0
BLOCK_RECORD
  5
41CD
330
1
100
AcDbSymbolTableRecord
100
AcDbBlockTableRecord
  2
811431D
340
0
 70
     0
280
     1
281
     0
  0
BLOCK_RECORD
  5
41E5
330
1
100
AcDbSymbolTableRecord
100
AcDbBlockTableRecord
  2
811431S
340
0
 70
     0
280
     1
281
     0
  0
BLOCK_RECORD
  5
41F7
330
1
100
AcDbSymbolTableRecord
100
AcDbBlockTableRecord
  2
811431V
340
0
 70
     0
280
     1
281
     0
  0
BLOCK_RECORD
  5
4291
330
1
100
AcDbSymbolTableRecord
100
AcDbBlockTableRecord
  2
*D29
340
0
 70
     0
280
     1
281
     0
  0
BLOCK_RECORD
  5
42A2
330
1
100
AcDbSymbolTableRecord
100
AcDbBlockTableRecord
  2
*D30
340
0
 70
     0
280
     1
281
     0
  0
BLOCK_RECORD
  5
42B4
330
1
100
AcDbSymbolTableRecord
100
AcDbBlockTableRecord
  2
*D31
340
0
 70
     0
280
     1
281
     0
  0
BLOCK_RECORD
  5
42CE
330
1
100
AcDbSymbolTableRecord
100
AcDbBlockTableRecord
  2
*D32
340
0
 70
     0
280
     1
281
     0
  0
BLOCK_RECORD
  5
42E4
330
1
100
AcDbSymbolTableRecord
100
AcDbBlockTableRecord
  2
*D33
340
0
 70
     0
280
     1
281
     0
  0
BLOCK_RECORD
  5
42F9
330
1
100
AcDbSymbolTableRecord
100
AcDbBlockTableRecord
  2
*D34
340
0
 70
     0
280
     1
281
     0
  0
BLOCK_RECORD
  5
430C
330
1
100
AcDbSymbolTableRecord
100
AcDbBlockTableRecord
  2
*D35
340
0
 70
     0
280
     1
281
     0
  0
BLOCK_RECORD
  5
431B
330
1
100
AcDbSymbolTableRecord
100
AcDbBlockTableRecord
  2
*D36
340
0
 70
     0
280
     1
281
     0
  0
BLOCK_RECORD
  5
432B
330
1
100
AcDbSymbolTableRecord
100
AcDbBlockTableRecord
  2
*D37
340
0
 70
     0
280
     1
281
     0
  0
BLOCK_RECORD
  5
4346
330
1
100
AcDbSymbolTableRecord
100
AcDbBlockTableRecord
  2
*D38
340
0
 70
     0
280
     1
281
     0
  0
BLOCK_RECORD
  5
4355
330
1
100
AcDbSymbolTableRecord
100
AcDbBlockTableRecord
  2
*D39
340
0
 70
     0
280
     1
281
     0
  0
BLOCK_RECORD
  5
4365
330
1
100
AcDbSymbolTableRecord
100
AcDbBlockTableRecord
  2
*D40
340
0
 70
     0
280
     1
281
     0
  0
BLOCK_RECORD
  5
4376
330
1
100
AcDbSymbolTableRecord
100
AcDbBlockTableRecord
  2
*D41
340
0
 70
     0
280
     1
281
     0
  0
BLOCK_RECORD
  5
4388
330
1
100
AcDbSymbolTableRecord
100
AcDbBlockTableRecord
  2
*D42
340
0
 70
     0
280
     1
281
     0
  0
BLOCK_RECORD
  5
43CA
330
1
100
AcDbSymbolTableRecord
100
AcDbBlockTableRecord
  2
*D43
340
0
 70
     0
280
     1
281
     0
  0
BLOCK_RECORD
  5
43D9
330
1
100
AcDbSymbolTableRecord
100
AcDbBlockTableRecord
  2
*D44
340
0
 70
     0
280
     1
281
     0
  0
BLOCK_RECORD
  5
43FF
330
1
100
AcDbSymbolTableRecord
100
AcDbBlockTableRecord
  2
*D45
340
0
 70
     0
280
     1
281
     0
  0
BLOCK_RECORD
  5
440B
330
1
100
AcDbSymbolTableRecord
100
AcDbBlockTableRecord
  2
*D46
340
0
 70
     0
280
     1
281
     0
  0
BLOCK_RECORD
  5
4417
330
1
100
AcDbSymbolTableRecord
100
AcDbBlockTableRecord
  2
*D47
340
0
 70
     0
280
     1
281
     0
  0
BLOCK_RECORD
  5
4423
330
1
100
AcDbSymbolTableRecord
100
AcDbBlockTableRecord
  2
*D48
340
0
 70
     0
280
     1
281
     0
  0
BLOCK_RECORD
  5
442F
330
1
100
AcDbSymbolTableRecord
100
AcDbBlockTableRecord
  2
*D49
340
0
 70
     0
280
     1
281
     0
  0
BLOCK_RECORD
  5
443E
330
1
100
AcDbSymbolTableRecord
100
AcDbBlockTableRecord
  2
*D50
340
0
 70
     0
280
     1
281
     0
  0
BLOCK_RECORD
  5
444D
330
1
100
AcDbSymbolTableRecord
100
AcDbBlockTableRecord
  2
*D51
340
0
 70
     0
280
     1
281
     0
  0
BLOCK_RECORD
  5
446E
330
1
100
AcDbSymbolTableRecord
100
AcDbBlockTableRecord
  2
*D52
340
0
 70
     0
280
     1
281
     0
  0
BLOCK_RECORD
  5
4480
330
1
100
AcDbSymbolTableRecord
100
AcDbBlockTableRecord
  2
*D53
340
0
 70
     0
280
     1
281
     0
  0
BLOCK_RECORD
  5
448F
330
1
100
AcDbSymbolTableRecord
100
AcDbBlockTableRecord
  2
*D54
340
0
 70
     0
280
     1
281
     0
  0
BLOCK_RECORD
  5
44A7
330
1
100
AcDbSymbolTableRecord
100
AcDbBlockTableRecord
  2
*D55
340
0
 70
     0
280
     1
281
     0
  0
BLOCK_RECORD
  5
455E
330
1
100
AcDbSymbolTableRecord
100
AcDbBlockTableRecord
  2
*D56
340
0
 70
     0
280
     1
281
     0
  0
BLOCK_RECORD
  5
456D
330
1
100
AcDbSymbolTableRecord
100
AcDbBlockTableRecord
  2
*D57
340
0
 70
     0
280
     1
281
     0
  0
BLOCK_RECORD
  5
458D
330
1
100
AcDbSymbolTableRecord
100
AcDbBlockTableRecord
  2
*D58
340
0
 70
     0
280
     1
281
     0
  0
BLOCK_RECORD
  5
45B5
330
1
100
AcDbSymbolTableRecord
100
AcDbBlockTableRecord
  2
*D59
340
0
 70
     0
280
     1
281
     0
  0
BLOCK_RECORD
  5
45C8
330
1
100
AcDbSymbolTableRecord
100
AcDbBlockTableRecord
  2
*D60
340
0
 70
     0
280
     1
281
     0
  0
BLOCK_RECORD
  5
45DE
330
1
100
AcDbSymbolTableRecord
100
AcDbBlockTableRecord
  2
*D61
340
0
 70
     0
280
     1
281
     0
  0
BLOCK_RECORD
  5
4600
330
1
100
AcDbSymbolTableRecord
100
AcDbBlockTableRecord
  2
*D62
340
0
 70
     0
280
     1
281
     0
  0
BLOCK_RECORD
  5
460F
330
1
100
AcDbSymbolTableRecord
100
AcDbBlockTableRecord
  2
*D63
340
0
 70
     0
280
     1
281
     0
  0
BLOCK_RECORD
  5
461E
330
1
100
AcDbSymbolTableRecord
100
AcDbBlockTableRecord
  2
*D64
340
0
 70
     0
280
     1
281
     0
  0
BLOCK_RECORD
  5
463A
330
1
100
AcDbSymbolTableRecord
100
AcDbBlockTableRecord
  2
*D65
340
0
 70
     0
280
     1
281
     0
  0
BLOCK_RECORD
  5
464C
330
1
100
AcDbSymbolTableRecord
100
AcDbBlockTableRecord
  2
*D66
340
0
 70
     0
280
     1
281
     0
  0
ENDTAB
  0
ENDSEC
  0
SECTION
  2
BLOCKS
  0
BLOCK
  5
D
330
A
100
AcDbEntity
  8
0
390
1D
100
AcDbBlockBegin
  2
*MODEL_SPACE
 70
     0
 10
0.0
 20
0.0
 30
0.0
  3
*MODEL_SPACE
  1
*MODEL_SPACE
  0
ENDBLK
  5
E
330
A
100
AcDbEntity
  8
0
390
1D
100
AcDbBlockEnd
  0
BLOCK
  5
F
330
B
100
AcDbEntity
 67
     1
  8
0
390
1D
100
AcDbBlockBegin
  2
*PAPER_SPACE
 70
     0
 10
0.0
 20
0.0
 30
0.0
  3
*PAPER_SPACE
  1
*PAPER_SPACE
  0
ENDBLK
  5
10
330
B
100
AcDbEntity
 67
     1
  8
0
390
1D
100
AcDbBlockEnd
  0
BLOCK
  5
2BB
330
4E
100
AcDbEntity
  8
0
390
1D
100
AcDbBlockBegin
  2
_DOT
 70
     0
 10
0.0
 20
0.0
 30
0.0
  3
_DOT
  1
_DOT
  0
POLYLINE
  5
2BD
330
4E
100
AcDbEntity
  8
0
  6
ByBlock
 62
     0
370
    -2
390
1D
100
AcDb2dPolyline
 66
     1
 10
0.0
 20
0.0
 30
0.0
 70
     1
 40
0.5
 41
0.5
  0
VERTEX
  5
2BE
330
2BD
100
AcDbEntity
  8
0
  6
ByBlock
 62
     0
370
    -2
390
1D
100
AcDbVertex
100
AcDb2dVertex
 10
-0.25
 20
0.0
 30
0.0
 42
1.0
  0
VERTEX
  5
2BF
330
2BD
100
AcDbEntity
  8
0
  6
ByBlock
 62
     0
370
    -2
390
1D
100
AcDbVertex
100
AcDb2dVertex
 10
0.25
 20
0.0
 30
0.0
 42
1.0
  0
SEQEND
  5
2C0
330
2BD
100
AcDbEntity
  8
0
390
1D
  0
LINE
  5
2C1
330
4E
100
AcDbEntity
  8
0
  6
ByBlock
 62
     0
370
    -2
390
1D
100
AcDbLine
 10
-0.5
 20
0.0
 30
0.0
 11
-1.0
 21
0.0
 31
0.0
  0
ENDBLK
  5
2C2
330
4E
100
AcDbEntity
  8
0
390
1D
100
AcDbBlockEnd
  0
BLOCK
  5
59
330
58
100
AcDbEntity
  8
0
  6
ByBlock
 62
     0
370
    -2
390
1D
100
AcDbBlockBegin
  2
VW_FILLEDARROW
 70
     0
 10
0.0
 20
0.0
 30
0.0
  3
VW_FILLEDARROW
  1
VW_FILLEDARROW
  0
SOLID
  5
5A
330
58
100
AcDbEntity
  8
0
 62
     0
370
    -2
390
1D
100
AcDbTrace
 10
0.0
 20
0.0
 30
0.0
 11
-0.9921874999999999
 21
-0.2658558393652545
 31
0.0
 12
-0.9921874999999999
 22
0.2658558393652548
 32
0.0
 13
-0.9921874999999999
 23
0.2658558393652548
 33
0.0
  0
ENDBLK
  5
5B
330
58
100
AcDbEntity
  8
0
390
1D
100
AcDbBlockEnd
  0
BLOCK
  5
3A6
330
3A5
100
AcDbEntity
  8
0
100
AcDbBlockBegin
  2
名称未設定-1
 70
     0
 10
0.0
 20
0.0
 30
0.0
  3
名称未設定-1
  1
名称未設定-1
  0
INSERT
  5
3A7
330
3A5
100
AcDbEntity
  8
レイヤー 1
100
AcDbBlockReference
  2
block 2
 10
0.0
 20
0.0
 30
0.0
  0
ENDBLK
  5
3CC
330
3A5
100
AcDbEntity
  8
0
100
AcDbBlockEnd
  0
BLOCK
  5
3A9
330
3A8
100
AcDbEntity
  8
0
100
AcDbBlockBegin
  2
block 2
 70
     0
 10
0.0
 20
0.0
 30
0.0
  3
block 2
  1
block 2
  0
INSERT
  5
3AA
330
3A8
100
AcDbEntity
  8
レイヤー 1
100
AcDbBlockReference
  2
block 3
 10
0.0
 20
0.0
 30
0.0
  0
ENDBLK
  5
3CB
330
3A8
100
AcDbEntity
  8
0
100
AcDbBlockEnd
  0
BLOCK
  5
3AC
330
3AB
100
AcDbEntity
  8
0
100
AcDbBlockBegin
  2
block 3
 70
     0
 10
0.0
 20
0.0
 30
0.0
  3
block 3
  1
block 3
  0
INSERT
  5
3AD
330
3AB
100
AcDbEntity
  8
レイヤー 1
100
AcDbBlockReference
  2
block 4
 10
0.0
 20
0.0
 30
0.0
  0
ENDBLK
  5
3CA
330
3AB
100
AcDbEntity
  8
0
100
AcDbBlockEnd
  0
BLOCK
  5
3AF
330
3AE
100
AcDbEntity
  8
0
100
AcDbBlockBegin
  2
block 4
 70
     0
 10
0.0
 20
0.0
 30
0.0
  3
block 4
  1
block 4
  0
POLYLINE
  5
3B0
330
3AE
100
AcDbEntity
  8
レイヤー 1
370
     0
100
AcDb2dPolyline
 66
     1
 10
0.0
 20
0.0
 30
0.0
  0
VERTEX
  5
3B1
330
3B0
100
AcDbEntity
  8
レイヤー 1
370
     0
100
AcDbVertex
100
AcDb2dVertex
 10
83.79545727667795
 20
167.6444858234922
 30
0.0
  0
VERTEX
  5
3B2
330
3B0
100
AcDbEntity
  8
レイヤー 1
370
     0
100
AcDbVertex
100
AcDb2dVertex
 10
83.79545727667795
 20
159.7968976406313
 30
0.0
  0
VERTEX
  5
3B3
330
3B0
100
AcDbEntity
  8
レイヤー 1
370
     0
100
AcDbVertex
100
AcDb2dVertex
 10
71.3631329975216
 20
159.7968976406313
 30
0.0
  0
VERTEX
  5
3B4
330
3B0
100
AcDbEntity
  8
レイヤー 1
370
     0
100
AcDbVertex
100
AcDb2dVertex
 10
71.3631329975216
 20
127.8027915271048
 30
0.0
  0
VERTEX
  5
3B5
330
3B0
100
AcDbEntity
  8
レイヤー 1
370
     0
100
AcDbVertex
100
AcDb2dVertex
 10
60.43011526263018
 20
127.8027915271048
 30
0.0
  0
VERTEX
  5
3B6
330
3B0
100
AcDbEntity
  8
レイヤー 1
370
     0
100
AcDbVertex
100
AcDb2dVertex
 10
60.43011526263018
 20
159.7968976406313
 30
0.0
  0
VERTEX
  5
3B7
330
3B0
100
AcDbEntity
  8
レイヤー 1
370
     0
100
AcDbVertex
100
AcDb2dVertex
 10
48.21793273020759
 20
159.7968976406313
 30
0.0
  0
VERTEX
  5
3B8
330
3B0
100
AcDbEntity
  8
レイヤー 1
370
     0
100
AcDbVertex
100
AcDb2dVertex
 10
48.21793273020759
 20
167.6444858234922
 30
0.0
  0
VERTEX
  5
3B9
330
3B0
100
AcDbEntity
  8
レイヤー 1
370
     0
100
AcDbVertex
100
AcDb2dVertex
 10
83.79545727667795
 20
167.6444858234922
 30
0.0
  0
SEQEND
  5
3BA
330
3B0
100
AcDbEntity
  8
レイヤー 1
370
     0
  0
HATCH
  5
3BB
330
3AE
100
AcDbEntity
  8
レイヤー 1
 62
   250
420
  2234388
100
AcDbHatch
 10
0.0
 20
0.0
 30
0.0
210
0.0
220
0.0
230
1.0
  2
SOLID
 70
     1
 71
     0
 91
        1
 92
        1
 93
        8
 72
     1
 10
83.79545727667795
 20
167.6444858234922
 11
83.79545727667795
 21
159.7968976406313
 72
     1
 10
83.79545727667795
 20
159.7968976406313
 11
71.3631329975216
 21
159.7968976406313
 72
     1
 10
71.3631329975216
 20
159.7968976406313
 11
71.3631329975216
 21
127.8027915271048
 72
     1
 10
71.3631329975216
 20
127.8027915271048
 11
60.43011526263018
 21
127.8027915271048
 72
     1
 10
60.43011526263018
 20
127.8027915271048
 11
60.43011526263018
 21
159.7968976406313
 72
     1
 10
60.43011526263018
 20
159.7968976406313
 11
48.21793273020759
 21
159.7968976406313
 72
     1
 10
48.21793273020759
 20
159.7968976406313
 11
48.21793273020759
 21
167.6444858234922
 72
     1
 10
48.21793273020759
 20
167.6444858234922
 11
83.79545727667795
 21
167.6444858234922
 97
        0
 75
     2
 76
     1
 98
        0
  0
INSERT
  5
3BC
330
3AE
100
AcDbEntity
  8
レイヤー 1
100
AcDbBlockReference
  2
block 5
 10
0.0
 20
0.0
 30
0.0
  0
ENDBLK
  5
3C9
330
3AE
100
AcDbEntity
  8
0
100
AcDbBlockEnd
  0
BLOCK
  5
3BE
330
3BD
100
AcDbEntity
  8
0
100
AcDbBlockBegin
  2
block 5
 70
     0
 10
0.0
 20
0.0
 30
0.0
  3
block 5
  1
block 5
  0
SPLINE
  5
3BF
330
3BD
100
AcDbEntity
  8
レイヤー 1
370
     0
100
AcDbSpline
210
0.0
220
0.0
230
1.0
 70
    11
 71
     3
 72
    56
 73
    52
 74
     0
 42
0.000000001
 43
0.0000000001
 40
0.0
 40
0.0
 40
0.0
 40
0.0
 40
1.0
 40
1.0
 40
1.0
 40
2.0
 40
2.0
 40
2.0
 40
3.0
 40
3.0
 40
3.0
 40
4.0
 40
4.0
 40
4.0
 40
5.0
 40
5.0
 40
5.0
 40
6.0
 40
6.0
 40
6.0
 40
7.0
 40
7.0
 40
7.0
 40
8.0
 40
8.0
 40
8.0
 40
9.0
 40
9.0
 40
9.0
 40
10.0
 40
10.0
 40
10.0
 40
11.0
 40
11.0
 40
11.0
 40
12.0
 40
12.0
 40
12.0
 40
13.0
 40
13.0
 40
13.0
 40
14.0
 40
14.0
 40
14.0
 40
15.0
 40
15.0
 40
15.0
 40
16.0
 40
16.0
 40
16.0
 40
17.0
 40
17.0
 40
17.0
 40
17.0
 10
100.4504378777679
 20
166.69157178364
 30
0.0
 10
101.9848844191641
 20
167.1313385124438
 30
0.0
 10
103.9637485713373
 20
166.7649523658846
 30
0.0
 10
103.9637485713373
 20
166.7649523658846
 30
0.0
 10
103.9637485713373
 20
166.7649523658846
 30
0.0
 10
103.0132460999156
 20
163.911205638077
 30
0.0
 10
103.0132460999156
 20
163.911205638077
 30
0.0
 10
103.0132460999156
 20
163.911205638077
 30
0.0
 10
101.0674548862189
 20
164.3601018759394
 30
0.0
 10
99.57090442016032
 20
163.1805004036133
 30
0.0
 10
98.40508333886608
 20
162.258247733807
 30
0.0
 10
97.65301849830304
 20
159.804132345923
 30
0.0
 10
97.3598406791005
 20
158.8699940888517
 30
0.0
 10
97.3598406791005
 20
158.8699940888517
 30
0.0
 10
96.07137411762282
 20
154.9119212747295
 30
0.0
 10
96.07137411762282
 20
154.9119212747295
 30
0.0
 10
96.07137411762282
 20
154.9119212747295
 30
0.0
 10
100.3012651448482
 20
154.9119212747295
 30
0.0
 10
100.3012651448482
 20
154.9119212747295
 30
0.0
 10
100.3012651448482
 20
154.9119212747295
 30
0.0
 10
99.64152892419852
 20
152.4199098115079
 30
0.0
 10
99.64152892419852
 20
152.4199098115079
 30
0.0
 10
99.64152892419852
 20
152.4199098115079
 30
0.0
 10
95.38097652692731
 20
152.4199098115079
 30
0.0
 10
95.38097652692731
 20
152.4199098115079
 30
0.0
 10
95.38097652692731
 20
152.4199098115079
 30
0.0
 10
87.75353009080013
 20
127.8027915271048
 30
0.0
 10
87.75353009080013
 20
127.8027915271048
 30
0.0
 10
87.75353009080013
 20
127.8027915271048
 30
0.0
 10
85.36538832498108
 20
127.8027915271048
 30
0.0
 10
85.36538832498108
 20
127.8027915271048
 30
0.0
 10
85.36538832498108
 20
127.8027915271048
 30
0.0
 10
93.00006946639998
 20
152.4199098115079
 30
0.0
 10
93.00006946639998
 20
152.4199098115079
 30
0.0
 10
93.00006946639998
 20
152.4199098115079
 30
0.0
 10
89.85297266450198
 20
152.4199098115079
 30
0.0
 10
89.85297266450198
 20
152.4199098115079
 30
0.0
 10
89.85297266450198
 20
152.4199098115079
 30
0.0
 10
90.51270888515164
 20
154.9119212747295
 30
0.0
 10
90.51270888515164
 20
154.9119212747295
 30
0.0
 10
90.51270888515164
 20
154.9119212747295
 30
0.0
 10
93.6904670570955
 20
154.9119212747295
 30
0.0
 10
93.6904670570955
 20
154.9119212747295
 30
0.0
 10
93.6904670570955
 20
154.9119212747295
 30
0.0
 10
94.81598049462158
 20
158.3616699146644
 30
0.0
 10
94.81598049462158
 20
158.3616699146644
 30
0.0
 10
95.7237637538445
 20
161.2605474231013
 30
0.0
 10
96.4968436907311
 20
162.8139420021662
 30
0.0
 10
97.15657991138076
 20
163.9844139654337
 30
0.0
 10
97.81183750494507
 20
165.1523021053827
 30
0.0
 10
99.1047826935081
 20
166.3084769129547
 30
0.0
 10
100.4504378777679
 20
166.69157178364
 30
0.0
  0
HATCH
  5
3C0
330
3BD
100
AcDbEntity
  8
レイヤー 1
 62
   250
420
  2234388
100
AcDbHatch
 10
0.0
 20
0.0
 30
0.0
210
0.0
220
0.0
230
1.0
  2
SOLID
 70
     1
 71
     0
 91
        1
 92
        1
 93
        1
 72
     4
 94
        3
 73
     0
 74
     1
 95
       56
 96
       52
 40
0.0
 40
0.0
 40
0.0
 40
0.0
 40
1.0
 40
1.0
 40
1.0
 40
2.0
 40
2.0
 40
2.0
 40
3.0
 40
3.0
 40
3.0
 40
4.0
 40
4.0
 40
4.0
 40
5.0
 40
5.0
 40
5.0
 40
6.0
 40
6.0
 40
6.0
 40
7.0
 40
7.0
 40
7.0
 40
8.0
 40
8.0
 40
8.0
 40
9.0
 40
9.0
 40
9.0
 40
10.0
 40
10.0
 40
10.0
 40
11.0
 40
11.0
 40
11.0
 40
12.0
 40
12.0
 40
12.0
 40
13.0
 40
13.0
 40
13.0
 40
14.0
 40
14.0
 40
14.0
 40
15.0
 40
15.0
 40
15.0
 40
16.0
 40
16.0
 40
16.0
 40
17.0
 40
17.0
 40
17.0
 40
17.0
 10
100.4504378777679
 20
166.69157178364
 10
101.9848844191641
 20
167.1313385124438
 10
103.9637485713373
 20
166.7649523658846
 10
103.9637485713373
 20
166.7649523658846
 10
103.9637485713373
 20
166.7649523658846
 10
103.0132460999156
 20
163.911205638077
 10
103.0132460999156
 20
163.911205638077
 10
103.0132460999156
 20
163.911205638077
 10
101.0674548862189
 20
164.3601018759394
 10
99.57090442016032
 20
163.1805004036133
 10
98.40508333886608
 20
162.258247733807
 10
97.65301849830304
 20
159.804132345923
 10
97.3598406791005
 20
158.8699940888517
 10
97.3598406791005
 20
158.8699940888517
 10
96.07137411762282
 20
154.9119212747295
 10
96.07137411762282
 20
154.9119212747295
 10
96.07137411762282
 20
154.9119212747295
 10
100.3012651448482
 20
154.9119212747295
 10
100.3012651448482
 20
154.9119212747295
 10
100.3012651448482
 20
154.9119212747295
 10
99.64152892419852
 20
152.4199098115079
 10
99.64152892419852
 20
152.4199098115079
 10
99.64152892419852
 20
152.4199098115079
 10
95.38097652692731
 20
152.4199098115079
 10
95.38097652692731
 20
152.4199098115079
 10
95.38097652692731
 20
152.4199098115079
 10
87.75353009080013
 20
127.8027915271048
 10
87.75353009080013
 20
127.8027915271048
 10
87.75353009080013
 20
127.8027915271048
 10
85.36538832498108
 20
127.8027915271048
 10
85.36538832498108
 20
127.8027915271048
 10
85.36538832498108
 20
127.8027915271048
 10
93.00006946639998
 20
152.4199098115079
 10
93.00006946639998
 20
152.4199098115079
 10
93.00006946639998
 20
152.4199098115079
 10
89.85297266450198
 20
152.4199098115079
 10
89.85297266450198
 20
152.4199098115079
 10
89.85297266450198
 20
152.4199098115079
 10
90.51270888515164
 20
154.9119212747295
 10
90.51270888515164
 20
154.9119212747295
 10
90.51270888515164
 20
154.9119212747295
 10
93.6904670570955
 20
154.9119212747295
 10
93.6904670570955
 20
154.9119212747295
 10
93.6904670570955
 20
154.9119212747295
 10
94.81598049462158
 20
158.3616699146644
 10
94.81598049462158
 20
158.3616699146644
 10
95.7237637538445
 20
161.2605474231013
 10
96.4968436907311
 20
162.8139420021662
 10
97.15657991138076
 20
163.9844139654337
 10
97.81183750494507
 20
165.1523021053827
 10
99.1047826935081
 20
166.3084769129547
 10
100.4504378777679
 20
166.69157178364
 97
        0
 75
     2
 76
     1
 98
        0
  0
SPLINE
  5
3C1
330
3BD
100
AcDbEntity
  8
レイヤー 1
370
     0
100
AcDbSpline
210
0.0
220
0.0
230
1.0
 70
    11
 71
     3
 72
    38
 73
    34
 74
     0
 42
0.000000001
 43
0.0000000001
 40
0.0
 40
0.0
 40
0.0
 40
0.0
 40
1.0
 40
1.0
 40
1.0
 40
2.0
 40
2.0
 40
2.0
 40
3.0
 40
3.0
 40
3.0
 40
4.0
 40
4.0
 40
4.0
 40
5.0
 40
5.0
 40
5.0
 40
6.0
 40
6.0
 40
6.0
 40
7.0
 40
7.0
 40
7.0
 40
8.0
 40
8.0
 40
8.0
 40
9.0
 40
9.0
 40
9.0
 40
10.0
 40
10.0
 40
10.0
 40
11.0
 40
11.0
 40
11.0
 40
11.0
 10
126.377554584636
 20
154.8151140277308
 30
0.0
 10
126.377554584636
 20
154.8151140277308
 30
0.0
 10
128.8311532078563
 20
154.8151140277308
 30
0.0
 10
128.8311532078563
 20
154.8151140277308
 30
0.0
 10
128.8311532078563
 20
154.8151140277308
 30
0.0
 10
127.7345785914971
 20
151.3062819612468
 30
0.0
 10
127.7345785914971
 20
151.3062819612468
 30
0.0
 10
128.571392836906
 20
152.2922689395754
 30
0.0
 10
129.8860421413442
 20
153.604506675583
 30
0.0
 10
131.0163787157314
 20
154.2664822097754
 30
0.0
 10
132.7044766171327
 20
155.2500576196734
 30
0.0
 10
133.6642808525008
 20
155.3847609420097
 30
0.0
 10
134.7284715499351
 20
155.3565111403944
 30
0.0
 10
134.7284715499351
 20
155.3565111403944
 30
0.0
 10
133.6877075172549
 20
152.0345756272799
 30
0.0
 10
133.6877075172549
 20
152.0345756272799
 30
0.0
 10
133.011434827367
 20
152.3184516825359
 30
0.0
 10
130.930940291334
 20
151.7768823149844
 30
0.0
 10
129.739280976855
 20
150.9162968950455
 30
0.0
 10
128.66613302525
 20
150.1454562717016
 30
0.0
 10
127.9192358313239
 20
149.4857200510519
 30
0.0
 10
127.0393578639405
 20
147.8282835196966
 30
0.0
 10
126.164647543194
 20
146.1699857139017
 30
0.0
 10
125.4742499524985
 20
143.5262176944419
 30
0.0
 10
124.2822461282437
 20
139.6959580071401
 30
0.0
 10
124.2822461282437
 20
139.6959580071401
 30
0.0
 10
120.5753209406769
 20
127.8027915271048
 30
0.0
 10
120.5753209406769
 20
127.8027915271048
 30
0.0
 10
120.5753209406769
 20
127.8027915271048
 30
0.0
 10
118.1964809388044
 20
127.8027915271048
 30
0.0
 10
118.1964809388044
 20
127.8027915271048
 30
0.0
 10
118.1964809388044
 20
127.8027915271048
 30
0.0
 10
126.377554584636
 20
154.8151140277308
 30
0.0
 10
126.377554584636
 20
154.8151140277308
 30
0.0
  0
HATCH
  5
3C2
330
3BD
100
AcDbEntity
  8
レイヤー 1
 62
   250
420
  2234388
100
AcDbHatch
 10
0.0
 20
0.0
 30
0.0
210
0.0
220
0.0
230
1.0
  2
SOLID
 70
     1
 71
     0
 91
        1
 92
        1
 93
        1
 72
     4
 94
        3
 73
     0
 74
     1
 95
       38
 96
       34
 40
0.0
 40
0.0
 40
0.0
 40
0.0
 40
1.0
 40
1.0
 40
1.0
 40
2.0
 40
2.0
 40
2.0
 40
3.0
 40
3.0
 40
3.0
 40
4.0
 40
4.0
 40
4.0
 40
5.0
 40
5.0
 40
5.0
 40
6.0
 40
6.0
 40
6.0
 40
7.0
 40
7.0
 40
7.0
 40
8.0
 40
8.0
 40
8.0
 40
9.0
 40
9.0
 40
9.0
 40
10.0
 40
10.0
 40
10.0
 40
11.0
 40
11.0
 40
11.0
 40
11.0
 10
126.377554584636
 20
154.8151140277308
 10
126.377554584636
 20
154.8151140277308
 10
128.8311532078563
 20
154.8151140277308
 10
128.8311532078563
 20
154.8151140277308
 10
128.8311532078563
 20
154.8151140277308
 10
127.7345785914971
 20
151.3062819612468
 10
127.7345785914971
 20
151.3062819612468
 10
128.571392836906
 20
152.2922689395754
 10
129.8860421413442
 20
153.604506675583
 10
131.0163787157314
 20
154.2664822097754
 10
132.7044766171327
 20
155.2500576196734
 10
133.6642808525008
 20
155.3847609420097
 10
134.7284715499351
 20
155.3565111403944
 10
134.7284715499351
 20
155.3565111403944
 10
133.6877075172549
 20
152.0345756272799
 10
133.6877075172549
 20
152.0345756272799
 10
133.011434827367
 20
152.3184516825359
 10
130.930940291334
 20
151.7768823149844
 10
129.739280976855
 20
150.9162968950455
 10
128.66613302525
 20
150.1454562717016
 10
127.9192358313239
 20
149.4857200510519
 10
127.0393578639405
 20
147.8282835196966
 10
126.164647543194
 20
146.1699857139017
 10
125.4742499524985
 20
143.5262176944419
 10
124.2822461282437
 20
139.6959580071401
 10
124.2822461282437
 20
139.6959580071401
 10
120.5753209406769
 20
127.8027915271048
 10
120.5753209406769
 20
127.8027915271048
 10
120.5753209406769
 20
127.8027915271048
 10
118.1964809388044
 20
127.8027915271048
 10
118.1964809388044
 20
127.8027915271048
 10
118.1964809388044
 20
127.8027915271048
 10
126.377554584636
 20
154.8151140277308
 10
126.377554584636
 20
154.8151140277308
 97
        0
 75
     2
 76
     1
 98
        0
  0
SPLINE
  5
3C3
330
3BD
100
AcDbEntity
  8
レイヤー 1
370
     0
100
AcDbSpline
210
0.0
220
0.0
230
1.0
 70
    11
 71
     3
 72
   104
 73
   100
 74
     0
 42
0.000000001
 43
0.0000000001
 40
0.0
 40
0.0
 40
0.0
 40
0.0
 40
1.0
 40
1.0
 40
1.0
 40
2.0
 40
2.0
 40
2.0
 40
3.0
 40
3.0
 40
3.0
 40
4.0
 40
4.0
 40
4.0
 40
5.0
 40
5.0
 40
5.0
 40
6.0
 40
6.0
 40
6.0
 40
7.0
 40
7.0
 40
7.0
 40
8.0
 40
8.0
 40
8.0
 40
9.0
 40
9.0
 40
9.0
 40
10.0
 40
10.0
 40
10.0
 40
11.0
 40
11.0
 40
11.0
 40
12.0
 40
12.0
 40
12.0
 40
13.0
 40
13.0
 40
13.0
 40
14.0
 40
14.0
 40
14.0
 40
15.0
 40
15.0
 40
15.0
 40
16.0
 40
16.0
 40
16.0
 40
17.0
 40
17.0
 40
17.0
 40
18.0
 40
18.0
 40
18.0
 40
19.0
 40
19.0
 40
19.0
 40
20.0
 40
20.0
 40
20.0
 40
21.0
 40
21.0
 40
21.0
 40
22.0
 40
22.0
 40
22.0
 40
23.0
 40
23.0
 40
23.0
 40
24.0
 40
24.0
 40
24.0
 40
25.0
 40
25.0
 40
25.0
 40
26.0
 40
26.0
 40
26.0
 40
27.0
 40
27.0
 40
27.0
 40
28.0
 40
28.0
 40
28.0
 40
29.0
 40
29.0
 40
29.0
 40
30.0
 40
30.0
 40
30.0
 40
31.0
 40
31.0
 40
31.0
 40
32.0
 40
32.0
 40
32.0
 40
33.0
 40
33.0
 40
33.0
 40
33.0
 10
139.8926730891197
 20
154.8294111834263
 30
0.0
 10
139.8926730891197
 20
154.8294111834263
 30
0.0
 10
142.0344903652445
 20
154.8294111834263
 30
0.0
 10
142.0344903652445
 20
154.8294111834263
 30
0.0
 10
142.0344903652445
 20
154.8294111834263
 30
0.0
 10
140.9516961399171
 20
151.3157559800812
 30
0.0
 10
140.9516961399171
 20
151.3157559800812
 30
0.0
 10
141.8928968473923
 20
152.7887075264977
 30
0.0
 10
142.7341897198865
 20
153.4484437471474
 30
0.0
 10
143.8552245303272
 20
154.2926649527359
 30
0.0
 10
144.9803934580775
 20
155.1296514530327
 30
0.0
 10
146.3139908001845
 20
155.3044901642492
 30
0.0
 10
147.241066606852
 20
155.3044901642492
 30
0.0
 10
148.3855280820469
 20
155.3044901642492
 30
0.0
 10
149.4969166187653
 20
155.0752189084569
 30
0.0
 10
150.0784491203092
 20
153.8172414621372
 30
0.0
 10
150.5228667310863
 20
152.833838307127
 30
0.0
 10
150.5414702589793
 20
152.7201500811143
 30
0.0
 10
150.4140016419347
 20
150.7765981809602
 30
0.0
 10
151.5818897818837
 20
152.7699317437168
 30
0.0
 10
152.4424752018226
 20
153.6256940267945
 30
0.0
 10
153.9038856707499
 20
154.4507949398263
 30
0.0
 10
155.4455669174378
 20
155.3044901642492
 30
0.0
 10
156.339225275853
 20
155.3659851592288
 30
0.0
 10
157.3748216618963
 20
155.2147453676543
 30
0.0
 10
158.911679771723
 20
154.9877134254046
 30
0.0
 10
159.8859534176746
 20
154.4390816074493
 30
0.0
 10
160.3965169054045
 20
152.7816450760939
 30
0.0
 10
160.9070803931344
 20
151.1219692311958
 30
0.0
 10
160.6328506116007
 20
150.2303779314354
 30
0.0
 10
159.9992971339115
 20
147.597634224801
 30
0.0
 10
159.7105979417943
 20
146.4014962832367
 30
0.0
 10
159.2947746424084
 20
144.9400858143094
 30
0.0
 10
158.7463150793409
 20
143.2092687007094
 30
0.0
 10
158.7463150793409
 20
143.2092687007094
 30
0.0
 10
153.9038856707499
 20
127.8027915271048
 30
0.0
 10
153.9038856707499
 20
127.8027915271048
 30
0.0
 10
153.9038856707499
 20
127.8027915271048
 30
0.0
 10
151.3882752878863
 20
127.8027915271048
 30
0.0
 10
151.3882752878863
 20
127.8027915271048
 30
0.0
 10
151.3882752878863
 20
127.8027915271048
 30
0.0
 10
155.6250565106276
 20
141.2751908193897
 30
0.0
 10
155.6250565106276
 20
141.2751908193897
 30
0.0
 10
156.5094131050963
 20
144.0936252951782
 30
0.0
 10
157.109893644309
 20
146.1506931664571
 30
0.0
 10
157.4220195011804
 20
147.4415712963654
 30
0.0
 10
157.8095929989511
 20
149.0530157726519
 30
0.0
 10
157.9656559273867
 20
149.5826995529385
 30
0.0
 10
157.7816877071116
 20
150.7529992613181
 30
0.0
 10
157.6111553680925
 20
151.8430281919372
 30
0.0
 10
157.0582171779396
 20
152.5547853887321
 30
0.0
 10
156.1170164704645
 20
152.5547853887321
 30
0.0
 10
155.1096698860365
 20
152.5547853887321
 30
0.0
 10
154.2962823053817
 20
152.4412694176073
 30
0.0
 10
153.156643967048
 20
151.2945686288697
 30
0.0
 10
152.0170056287143
 20
150.1476955852443
 30
0.0
 10
151.076149431015
 20
148.7930831468137
 30
0.0
 10
150.3337308641742
 20
147.2290087646991
 30
0.0
 10
149.5957909244188
 20
145.6683794803425
 30
0.0
 10
148.8530278478023
 20
143.6822806228776
 30
0.0
 10
148.0964843801539
 20
141.2751908193897
 30
0.0
 10
148.0964843801539
 20
141.2751908193897
 30
0.0
 10
143.8552245303272
 20
127.8027915271048
 30
0.0
 10
143.8552245303272
 20
127.8027915271048
 30
0.0
 10
143.8552245303272
 20
127.8027915271048
 30
0.0
 10
141.486030802177
 20
127.8027915271048
 30
0.0
 10
141.486030802177
 20
127.8027915271048
 30
0.0
 10
141.486030802177
 20
127.8027915271048
 30
0.0
 10
146.3329388378533
 20
143.2092687007094
 30
0.0
 10
146.3329388378533
 20
143.2092687007094
 30
0.0
 10
146.8483254624444
 20
144.8408669988801
 30
0.0
 10
147.2314203331297
 20
146.1837661049335
 30
0.0
 10
147.4867020769946
 20
147.224185627838
 30
0.0
 10
147.9169947869641
 20
149.0197705792876
 30
0.0
 10
148.0306830129768
 20
150.2400242051577
 30
0.0
 10
147.709255392159
 20
151.3157559800812
 30
0.0
 10
147.3874832615654
 20
152.3916600098926
 30
0.0
 10
146.8245542879144
 20
152.6683013598569
 30
0.0
 10
145.8840425999909
 20
152.6683013598569
 30
0.0
 10
145.0989048209514
 20
152.6683013598569
 30
0.0
 10
144.3282364524954
 20
152.3275811915945
 30
0.0
 10
143.4531816219731
 20
151.6538923250251
 30
0.0
 10
142.34627171234
 20
150.8074318058939
 30
0.0
 10
141.901854101563
 20
150.1097995099067
 30
0.0
 10
141.3578731655808
 20
149.289521733736
 30
0.0
 10
140.6299240093235
 20
148.192602607601
 30
0.0
 10
140.2850697237515
 20
147.455696197173
 30
0.0
 10
139.6652966370942
 20
145.8385673095858
 30
0.0
 10
139.0506911970739
 20
144.2214384219986
 30
0.0
 10
138.463991048893
 20
142.3252566160164
 30
0.0
 10
138.0571250036777
 20
141.0154304484394
 30
0.0
 10
138.0571250036777
 20
141.0154304484394
 30
0.0
 10
133.9009590684727
 20
127.8027915271048
 30
0.0
 10
133.9009590684727
 20
127.8027915271048
 30
0.0
 10
133.9009590684727
 20
127.8027915271048
 30
0.0
 10
131.4180771143097
 20
127.8027915271048
 30
0.0
 10
131.4180771143097
 20
127.8027915271048
 30
0.0
 10
131.4180771143097
 20
127.8027915271048
 30
0.0
 10
139.8926730891197
 20
154.8294111834263
 30
0.0
 10
139.8926730891197
 20
154.8294111834263
 30
0.0
  0
HATCH
  5
3C4
330
3BD
100
AcDbEntity
  8
レイヤー 1
 62
   250
420
  2234388
100
AcDbHatch
 10
0.0
 20
0.0
 30
0.0
210
0.0
220
0.0
230
1.0
  2
SOLID
 70
     1
 71
     0
 91
        1
 92
        1
 93
        1
 72
     4
 94
        3
 73
     0
 74
     1
 95
      104
 96
      100
 40
0.0
 40
0.0
 40
0.0
 40
0.0
 40
1.0
 40
1.0
 40
1.0
 40
2.0
 40
2.0
 40
2.0
 40
3.0
 40
3.0
 40
3.0
 40
4.0
 40
4.0
 40
4.0
 40
5.0
 40
5.0
 40
5.0
 40
6.0
 40
6.0
 40
6.0
 40
7.0
 40
7.0
 40
7.0
 40
8.0
 40
8.0
 40
8.0
 40
9.0
 40
9.0
 40
9.0
 40
10.0
 40
10.0
 40
10.0
 40
11.0
 40
11.0
 40
11.0
 40
12.0
 40
12.0
 40
12.0
 40
13.0
 40
13.0
 40
13.0
 40
14.0
 40
14.0
 40
14.0
 40
15.0
 40
15.0
 40
15.0
 40
16.0
 40
16.0
 40
16.0
 40
17.0
 40
17.0
 40
17.0
 40
18.0
 40
18.0
 40
18.0
 40
19.0
 40
19.0
 40
19.0
 40
20.0
 40
20.0
 40
20.0
 40
21.0
 40
21.0
 40
21.0
 40
22.0
 40
22.0
 40
22.0
 40
23.0
 40
23.0
 40
23.0
 40
24.0
 40
24.0
 40
24.0
 40
25.0
 40
25.0
 40
25.0
 40
26.0
 40
26.0
 40
26.0
 40
27.0
 40
27.0
 40
27.0
 40
28.0
 40
28.0
 40
28.0
 40
29.0
 40
29.0
 40
29.0
 40
30.0
 40
30.0
 40
30.0
 40
31.0
 40
31.0
 40
31.0
 40
32.0
 40
32.0
 40
32.0
 40
33.0
 40
33.0
 40
33.0
 40
33.0
 10
139.8926730891197
 20
154.8294111834263
 10
139.8926730891197
 20
154.8294111834263
 10
142.0344903652445
 20
154.8294111834263
 10
142.0344903652445
 20
154.8294111834263
 10
142.0344903652445
 20
154.8294111834263
 10
140.9516961399171
 20
151.3157559800812
 10
140.9516961399171
 20
151.3157559800812
 10
141.8928968473923
 20
152.7887075264977
 10
142.7341897198865
 20
153.4484437471474
 10
143.8552245303272
 20
154.2926649527359
 10
144.9803934580775
 20
155.1296514530327
 10
146.3139908001845
 20
155.3044901642492
 10
147.241066606852
 20
155.3044901642492
 10
148.3855280820469
 20
155.3044901642492
 10
149.4969166187653
 20
155.0752189084569
 10
150.0784491203092
 20
153.8172414621372
 10
150.5228667310863
 20
152.833838307127
 10
150.5414702589793
 20
152.7201500811143
 10
150.4140016419347
 20
150.7765981809602
 10
151.5818897818837
 20
152.7699317437168
 10
152.4424752018226
 20
153.6256940267945
 10
153.9038856707499
 20
154.4507949398263
 10
155.4455669174378
 20
155.3044901642492
 10
156.339225275853
 20
155.3659851592288
 10
157.3748216618963
 20
155.2147453676543
 10
158.911679771723
 20
154.9877134254046
 10
159.8859534176746
 20
154.4390816074493
 10
160.3965169054045
 20
152.7816450760939
 10
160.9070803931344
 20
151.1219692311958
 10
160.6328506116007
 20
150.2303779314354
 10
159.9992971339115
 20
147.597634224801
 10
159.7105979417943
 20
146.4014962832367
 10
159.2947746424084
 20
144.9400858143094
 10
158.7463150793409
 20
143.2092687007094
 10
158.7463150793409
 20
143.2092687007094
 10
153.9038856707499
 20
127.8027915271048
 10
153.9038856707499
 20
127.8027915271048
 10
153.9038856707499
 20
127.8027915271048
 10
151.3882752878863
 20
127.8027915271048
 10
151.3882752878863
 20
127.8027915271048
 10
151.3882752878863
 20
127.8027915271048
 10
155.6250565106276
 20
141.2751908193897
 10
155.6250565106276
 20
141.2751908193897
 10
156.5094131050963
 20
144.0936252951782
 10
157.109893644309
 20
146.1506931664571
 10
157.4220195011804
 20
147.4415712963654
 10
157.8095929989511
 20
149.0530157726519
 10
157.9656559273867
 20
149.5826995529385
 10
157.7816877071116
 20
150.7529992613181
 10
157.6111553680925
 20
151.8430281919372
 10
157.0582171779396
 20
152.5547853887321
 10
156.1170164704645
 20
152.5547853887321
 10
155.1096698860365
 20
152.5547853887321
 10
154.2962823053817
 20
152.4412694176073
 10
153.156643967048
 20
151.2945686288697
 10
152.0170056287143
 20
150.1476955852443
 10
151.076149431015
 20
148.7930831468137
 10
150.3337308641742
 20
147.2290087646991
 10
149.5957909244188
 20
145.6683794803425
 10
148.8530278478023
 20
143.6822806228776
 10
148.0964843801539
 20
141.2751908193897
 10
148.0964843801539
 20
141.2751908193897
 10
143.8552245303272
 20
127.8027915271048
 10
143.8552245303272
 20
127.8027915271048
 10
143.8552245303272
 20
127.8027915271048
 10
141.486030802177
 20
127.8027915271048
 10
141.486030802177
 20
127.8027915271048
 10
141.486030802177
 20
127.8027915271048
 10
146.3329388378533
 20
143.2092687007094
 10
146.3329388378533
 20
143.2092687007094
 10
146.8483254624444
 20
144.8408669988801
 10
147.2314203331297
 20
146.1837661049335
 10
147.4867020769946
 20
147.224185627838
 10
147.9169947869641
 20
149.0197705792876
 10
148.0306830129768
 20
150.2400242051577
 10
147.709255392159
 20
151.3157559800812
 10
147.3874832615654
 20
152.3916600098926
 10
146.8245542879144
 20
152.6683013598569
 10
145.8840425999909
 20
152.6683013598569
 10
145.0989048209514
 20
152.6683013598569
 10
144.3282364524954
 20
152.3275811915945
 10
143.4531816219731
 20
151.6538923250251
 10
142.34627171234
 20
150.8074318058939
 10
141.901854101563
 20
150.1097995099067
 10
141.3578731655808
 20
149.289521733736
 10
140.6299240093235
 20
148.192602607601
 10
140.2850697237515
 20
147.455696197173
 10
139.6652966370942
 20
145.8385673095858
 10
139.0506911970739
 20
144.2214384219986
 10
138.463991048893
 20
142.3252566160164
 10
138.0571250036777
 20
141.0154304484394
 10
138.0571250036777
 20
141.0154304484394
 10
133.9009590684727
 20
127.8027915271048
 10
133.9009590684727
 20
127.8027915271048
 10
133.9009590684727
 20
127.8027915271048
 10
131.4180771143097
 20
127.8027915271048
 10
131.4180771143097
 20
127.8027915271048
 10
131.4180771143097
 20
127.8027915271048
 10
139.8926730891197
 20
154.8294111834263
 10
139.8926730891197
 20
154.8294111834263
 97
        0
 75
     2
 76
     1
 98
        0
  0
SPLINE
  5
3C5
330
3BD
100
AcDbEntity
  8
レイヤー 1
370
     0
100
AcDbSpline
210
0.0
220
0.0
230
1.0
 70
    11
 71
     3
 72
    29
 73
    25
 74
     0
 42
0.000000001
 43
0.0000000001
 40
0.0
 40
0.0
 40
0.0
 40
0.0
 40
1.0
 40
1.0
 40
1.0
 40
2.0
 40
2.0
 40
2.0
 40
3.0
 40
3.0
 40
3.0
 40
4.0
 40
4.0
 40
4.0
 40
5.0
 40
5.0
 40
5.0
 40
6.0
 40
6.0
 40
6.0
 40
7.0
 40
7.0
 40
7.0
 40
8.0
 40
8.0
 40
8.0
 40
8.0
 10
101.6420971922469
 20
132.8388354296931
 30
0.0
 10
101.630039350094
 20
134.7164137077823
 30
0.0
 10
102.2236296937908
 20
138.0598810818841
 30
0.0
 10
103.7487744712405
 20
142.5378191476827
 30
0.0
 10
105.819967243327
 20
148.5896501242061
 30
0.0
 10
107.0602024361932
 20
150.8074318058939
 30
0.0
 10
108.1522984254671
 20
151.8833358357054
 30
0.0
 10
109.741177511439
 20
153.4532668840085
 30
0.0
 10
111.8740375333931
 20
153.5290590346837
 30
0.0
 10
112.5075910110823
 20
153.4532668840085
 30
0.0
 10
113.4012493694975
 20
153.3490526768302
 30
0.0
 10
114.6683563248758
 20
152.7580461564518
 30
0.0
 10
114.7493161221879
 20
150.7838328862519
 30
0.0
 10
114.8106388622796
 20
149.0909118479895
 30
0.0
 10
114.3186789024427
 20
145.9191825971221
 30
0.0
 10
112.6164561002338
 20
140.9489400617108
 30
0.0
 10
110.6444821435766
 20
135.1746117095912
 30
0.0
 10
109.4669477299053
 20
132.8960240524753
 30
0.0
 10
108.5212683953448
 20
131.9072809959403
 30
0.0
 10
106.7346406980658
 20
130.0538184021569
 30
0.0
 10
104.8222669326213
 20
130.2336525051225
 30
0.0
 10
104.5408024457958
 20
130.2336525051225
 30
0.0
 10
104.1721769856939
 20
130.2336525051225
 30
0.0
 10
101.6465758193322
 20
130.6305277668397
 30
0.0
 10
101.6420971922469
 20
132.8388354296931
 30
0.0
  0
SPLINE
  5
3C6
330
3BD
100
AcDbEntity
  8
レイヤー 1
370
     0
100
AcDbSpline
210
0.0
220
0.0
230
1.0
 70
    11
 71
     3
 72
    32
 73
    28
 74
     0
 42
0.000000001
 43
0.0000000001
 40
0.0
 40
0.0
 40
0.0
 40
0.0
 40
1.0
 40
1.0
 40
1.0
 40
2.0
 40
2.0
 40
2.0
 40
3.0
 40
3.0
 40
3.0
 40
4.0
 40
4.0
 40
4.0
 40
5.0
 40
5.0
 40
5.0
 40
6.0
 40
6.0
 40
6.0
 40
7.0
 40
7.0
 40
7.0
 40
8.0
 40
8.0
 40
8.0
 40
9.0
 40
9.0
 40
9.0
 40
9.0
 10
106.2595617172429
 20
153.4105476718098
 30
0.0
 10
104.8222669326213
 20
151.5474388043041
 30
0.0
 10
103.7177685914188
 20
149.8758773721411
 30
0.0
 10
101.9232171692965
 20
144.6141795664062
 30
0.0
 10
100.2754269116635
 20
139.7999999594306
 30
0.0
 10
99.22777268346732
 20
136.3052927937542
 30
0.0
 10
99.06964269637689
 20
132.039572749846
 30
0.0
 10
98.94665270641765
 20
128.8673267343149
 30
0.0
 10
100.8807305877373
 20
127.8027915271048
 30
0.0
 10
103.7129454545577
 20
127.8027915271048
 30
0.0
 10
104.9352661390825
 20
127.8027915271048
 30
0.0
 10
108.0151835347002
 20
127.8827177950895
 30
0.0
 10
110.2045431598849
 20
130.5926316915021
 30
0.0
 10
111.7417457794874
 20
132.4984597712065
 30
0.0
 10
113.155269389579
 20
134.475256864725
 30
0.0
 10
115.0562743324223
 20
140.9489400617108
 30
0.0
 10
116.6361961642235
 20
146.3680788349845
 30
0.0
 10
117.7282921534974
 20
149.8639917848761
 30
0.0
 10
117.6480213757369
 20
151.8595646611754
 30
0.0
 10
117.6480213757369
 20
151.8595646611754
 30
0.0
 10
117.6480213757369
 20
151.8595646611754
 30
0.0
 10
117.6480213757369
 20
151.8595646611754
 30
0.0
 10
117.13229024137
 20
155.18150017429
 30
0.0
 10
114.7162431837115
 20
155.886194920681
 30
0.0
 10
113.3351034925446
 20
155.886194920681
 30
0.0
 10
111.9829026225447
 20
155.886194920681
 30
0.0
 10
108.3414342923792
 20
156.1251124501957
 30
0.0
 10
106.2595617172429
 20
153.4105476718098
 30
0.0
  0
HATCH
  5
3C7
330
3BD
100
AcDbEntity
  8
レイヤー 1
 62
   250
420
  2234388
100
AcDbHatch
 10
0.0
 20
0.0
 30
0.0
210
0.0
220
0.0
230
1.0
  2
SOLID
 70
     1
 71
     0
 91
        2
 92
        1
 93
        1
 72
     4
 94
        3
 73
     0
 74
     1
 95
       29
 96
       25
 40
0.0
 40
0.0
 40
0.0
 40
0.0
 40
1.0
 40
1.0
 40
1.0
 40
2.0
 40
2.0
 40
2.0
 40
3.0
 40
3.0
 40
3.0
 40
4.0
 40
4.0
 40
4.0
 40
5.0
 40
5.0
 40
5.0
 40
6.0
 40
6.0
 40
6.0
 40
7.0
 40
7.0
 40
7.0
 40
8.0
 40
8.0
 40
8.0
 40
8.0
 10
101.6420971922469
 20
132.8388354296931
 10
101.630039350094
 20
134.7164137077823
 10
102.2236296937908
 20
138.0598810818841
 10
103.7487744712405
 20
142.5378191476827
 10
105.819967243327
 20
148.5896501242061
 10
107.0602024361932
 20
150.8074318058939
 10
108.1522984254671
 20
151.8833358357054
 10
109.741177511439
 20
153.4532668840085
 10
111.8740375333931
 20
153.5290590346837
 10
112.5075910110823
 20
153.4532668840085
 10
113.4012493694975
 20
153.3490526768302
 10
114.6683563248758
 20
152.7580461564518
 10
114.7493161221879
 20
150.7838328862519
 10
114.8106388622796
 20
149.0909118479895
 10
114.3186789024427
 20
145.9191825971221
 10
112.6164561002338
 20
140.9489400617108
 10
110.6444821435766
 20
135.1746117095912
 10
109.4669477299053
 20
132.8960240524753
 10
108.5212683953448
 20
131.9072809959403
 10
106.7346406980658
 20
130.0538184021569
 10
104.8222669326213
 20
130.2336525051225
 10
104.5408024457958
 20
130.2336525051225
 10
104.1721769856939
 20
130.2336525051225
 10
101.6465758193322
 20
130.6305277668397
 10
101.6420971922469
 20
132.8388354296931
 97
        0
 92
        1
 93
        1
 72
     4
 94
        3
 73
     0
 74
     1
 95
       32
 96
       28
 40
0.0
 40
0.0
 40
0.0
 40
0.0
 40
1.0
 40
1.0
 40
1.0
 40
2.0
 40
2.0
 40
2.0
 40
3.0
 40
3.0
 40
3.0
 40
4.0
 40
4.0
 40
4.0
 40
5.0
 40
5.0
 40
5.0
 40
6.0
 40
6.0
 40
6.0
 40
7.0
 40
7.0
 40
7.0
 40
8.0
 40
8.0
 40
8.0
 40
9.0
 40
9.0
 40
9.0
 40
9.0
 10
106.2595617172429
 20
153.4105476718098
 10
104.8222669326213
 20
151.5474388043041
 10
103.7177685914188
 20
149.8758773721411
 10
101.9232171692965
 20
144.6141795664062
 10
100.2754269116635
 20
139.7999999594306
 10
99.22777268346732
 20
136.3052927937542
 10
99.06964269637689
 20
132.039572749846
 10
98.94665270641765
 20
128.8673267343149
 10
100.8807305877373
 20
127.8027915271048
 10
103.7129454545577
 20
127.8027915271048
 10
104.9352661390825
 20
127.8027915271048
 10
108.0151835347002
 20
127.8827177950895
 10
110.2045431598849
 20
130.5926316915021
 10
111.7417457794874
 20
132.4984597712065
 10
113.155269389579
 20
134.475256864725
 10
115.0562743324223
 20
140.9489400617108
 10
116.6361961642235
 20
146.3680788349845
 10
117.7282921534974
 20
149.8639917848761
 10
117.6480213757369
 20
151.8595646611754
 10
117.6480213757369
 20
151.8595646611754
 10
117.6480213757369
 20
151.8595646611754
 10
117.6480213757369
 20
151.8595646611754
 10
117.13229024137
 20
155.18150017429
 10
114.7162431837115
 20
155.886194920681
 10
113.3351034925446
 20
155.886194920681
 10
111.9829026225447
 20
155.886194920681
 10
108.3414342923792
 20
156.1251124501957
 10
106.2595617172429
 20
153.4105476718098
 97
        0
 75
     2
 76
     1
 98
        0
  0
ENDBLK
  5
3C8
330
3BD
100
AcDbEntity
  8
0
100
AcDbBlockEnd
  0
BLOCK
  5
3B6F
330
3B6E
100
AcDbEntity
  8
0
100
AcDbBlockBegin
  2
*D7
 70
     1
 10
0.0
 20
0.0
 30
0.0
  3
*D7
  1
*D82
  0
LINE
  5
3B71
330
3B6E
100
AcDbEntity
  8
Dim
  6
Continuous
 62
     0
370
    -2
100
AcDbLine
 10
2545.073252769327
 20
960.1248001924378
 30
0.0
 11
2545.073252769327
 21
1030.658398309192
 31
0.0
  0
LINE
  5
3B72
330
3B6E
100
AcDbEntity
  8
Dim
  6
Continuous
 62
     0
370
    -2
100
AcDbLine
 10
2784.974093505051
 20
955.0683832879072
 30
0.0
 11
2784.974093505051
 21
1030.658398309192
 31
0.0
  0
LINE
  5
3B73
330
3B6E
100
AcDbEntity
  8
Dim
  6
Continuous
 62
     0
370
    -2
100
AcDbLine
 10
2554.073252769327
 20
1030.658398309192
 30
0.0
 11
2775.974093505051
 21
1030.658398309192
 31
0.0
  0
INSERT
  5
3B74
330
3B6E
100
AcDbEntity
  8
Dim
 62
     0
370
    -2
100
AcDbBlockReference
  2
_DOT
 10
2545.073252769327
 20
1030.658398309192
 30
0.0
 41
9.0
 42
9.0
 43
9.0
 50
180.0
  0
INSERT
  5
3B75
330
3B6E
100
AcDbEntity
  8
Dim
 62
     0
370
    -2
100
AcDbBlockReference
  2
_DOT
 10
2784.974093505051
 20
1030.658398309192
 30
0.0
 41
9.0
 42
9.0
 43
9.0
  0
MTEXT
  5
3B76
330
3B6E
100
AcDbEntity
  8
Dim
  6
Continuous
 62
     0
370
     0
100
AcDbMText
 10
2665.023673137189
 20
1052.874706902942
 30
0.0
 40
24.4326171875
 41
0.0
 46
0.0
 71
     5
 72
     1
  1
\A1;240
  7
ＭＳ ゴシック
 73
     1
 44
1.0
  0
POINT
  5
3B77
330
3B6E
100
AcDbEntity
  8
Defpoints
 62
     0
100
AcDbPoint
 10
2545.073252769327
 20
935.1248001924378
 30
0.0
  0
POINT
  5
3B78
330
3B6E
100
AcDbEntity
  8
Defpoints
 62
     0
100
AcDbPoint
 10
2784.974093505051
 20
930.0683832879072
 30
0.0
  0
POINT
  5
3B79
330
3B6E
100
AcDbEntity
  8
Defpoints
 62
     0
100
AcDbPoint
 10
2784.974093505051
 20
1030.658398309192
 30
0.0
  0
ENDBLK
  5
3B70
330
3B6E
100
AcDbEntity
  8
0
100
AcDbBlockEnd
  0
BLOCK
  5
3B7E
330
3B7D
100
AcDbEntity
  8
0
100
AcDbBlockBegin
  2
*D8
 70
     1
 10
0.0
 20
0.0
 30
0.0
  3
*D8
  1
*D83
  0
LINE
  5
3B80
330
3B7D
100
AcDbEntity
  8
Dim
  6
Continuous
 62
     0
370
    -2
100
AcDbLine
 10
2693.43151093701
 20
805.1704840789484
 30
0.0
 11
3068.955233298389
 21
805.1704840789484
 31
0.0
  0
LINE
  5
3B81
330
3B7D
100
AcDbEntity
  8
Dim
  6
Continuous
 62
     0
370
    -2
100
AcDbLine
 10
2931.991586093602
 20
985.1589871304254
 30
0.0
 11
3068.955233298389
 21
985.1589871304254
 31
0.0
  0
LINE
  5
3B82
330
3B7D
100
AcDbEntity
  8
Dim
  6
Continuous
 62
     0
370
    -2
100
AcDbLine
 10
3068.955233298389
 20
814.1704840789484
 30
0.0
 11
3068.955233298389
 21
976.1589871304254
 31
0.0
  0
INSERT
  5
3B83
330
3B7D
100
AcDbEntity
  8
Dim
 62
     0
370
    -2
100
AcDbBlockReference
  2
_DOT
 10
3068.955233298389
 20
805.1704840789484
 30
0.0
 41
9.0
 42
9.0
 43
9.0
 50
270.0
  0
INSERT
  5
3B84
330
3B7D
100
AcDbEntity
  8
Dim
 62
     0
370
    -2
100
AcDbBlockReference
  2
_DOT
 10
3068.955233298389
 20
985.1589871304254
 30
0.0
 41
9.0
 42
9.0
 43
9.0
 50
90.0
  0
MTEXT
  5
3B85
330
3B7D
100
AcDbEntity
  8
Dim
  6
Continuous
 62
     0
370
     0
100
AcDbMText
 10
3046.738924704639
 20
895.1647356046869
 30
0.0
 40
24.4326171875
 41
0.0
 46
0.0
 71
     5
 72
     1
  1
\A1;180
  7
ＭＳ ゴシック
 11
0.0
 21
1.0
 31
0.0
 73
     1
 44
1.0
  0
POINT
  5
3B86
330
3B7D
100
AcDbEntity
  8
Defpoints
 62
     0
100
AcDbPoint
 10
2668.43151093701
 20
805.1704840789484
 30
0.0
  0
POINT
  5
3B87
330
3B7D
100
AcDbEntity
  8
Defpoints
 62
     0
100
AcDbPoint
 10
2906.991586093602
 20
985.1589871304254
 30
0.0
  0
POINT
  5
3B88
330
3B7D
100
AcDbEntity
  8
Defpoints
 62
     0
100
AcDbPoint
 10
3068.955233298389
 20
985.1589871304254
 30
0.0
  0
ENDBLK
  5
3B7F
330
3B7D
100
AcDbEntity
  8
0
100
AcDbBlockEnd
  0
BLOCK
  5
3B9C
330
3B9B
100
AcDbEntity
  8
0
100
AcDbBlockBegin
  2
*D9
 70
     1
 10
0.0
 20
0.0
 30
0.0
  3
*D9
  1
*D85
  0
LINE
  5
3B9E
330
3B9B
100
AcDbEntity
  8
Dim
  6
Continuous
 62
     0
370
    -2
100
AcDbLine
 10
2520.073252769328
 20
930.0683832879072
 30
0.0
 11
2376.619106874173
 21
930.0683832879072
 31
0.0
  0
LINE
  5
3B9F
330
3B9B
100
AcDbEntity
  8
Dim
  6
Continuous
 62
     0
370
    -2
100
AcDbLine
 10
2399.939110591191
 20
985.1248001924378
 30
0.0
 11
2376.619106874173
 21
985.1248001924378
 31
0.0
  0
LINE
  5
3BA0
330
3B9B
100
AcDbEntity
  8
Dim
  6
Continuous
 62
     0
370
    -2
100
AcDbLine
 10
2376.619106874173
 20
939.0683832879072
 30
0.0
 11
2376.619106874173
 21
976.1248001924378
 31
0.0
  0
INSERT
  5
3BA1
330
3B9B
100
AcDbEntity
  8
Dim
 62
     0
370
    -2
100
AcDbBlockReference
  2
_DOT
 10
2376.619106874173
 20
930.0683832879072
 30
0.0
 41
9.0
 42
9.0
 43
9.0
 50
270.0
  0
INSERT
  5
3BA2
330
3B9B
100
AcDbEntity
  8
Dim
 62
     0
370
    -2
100
AcDbBlockReference
  2
_DOT
 10
2376.619106874173
 20
985.1248001924378
 30
0.0
 41
9.0
 42
9.0
 43
9.0
 50
90.0
  0
MTEXT
  5
3BA3
330
3B9B
100
AcDbEntity
  8
Dim
  6
Continuous
 62
     0
370
     0
100
AcDbMText
 10
2354.402798280423
 20
957.5965917401725
 30
0.0
 40
24.4326171875
 41
0.0
 46
0.0
 71
     5
 72
     1
  1
\A1;55
  7
ＭＳ ゴシック
 11
0.0
 21
1.0
 31
0.0
 73
     1
 44
1.0
  0
POINT
  5
3BA4
330
3B9B
100
AcDbEntity
  8
Defpoints
 62
     0
100
AcDbPoint
 10
2545.073252769328
 20
930.0683832879072
 30
0.0
  0
POINT
  5
3BA5
330
3B9B
100
AcDbEntity
  8
Defpoints
 62
     0
100
AcDbPoint
 10
2424.939110591191
 20
985.1248001924378
 30
0.0
  0
POINT
  5
3BA6
330
3B9B
100
AcDbEntity
  8
Defpoints
 62
     0
100
AcDbPoint
 10
2376.619106874173
 20
985.1248001924378
 30
0.0
  0
ENDBLK
  5
3B9D
330
3B9B
100
AcDbEntity
  8
0
100
AcDbBlockEnd
  0
BLOCK
  5
3BB1
330
3BB0
100
AcDbEntity
  8
0
100
AcDbBlockBegin
  2
*D10
 70
     1
 10
0.0
 20
0.0
 30
0.0
  3
*D10
  1
*D86
  0
LINE
  5
3BB3
330
3BB0
100
AcDbEntity
  8
Dim
  6
Continuous
 62
     0
370
    -2
100
AcDbLine
 10
3441.80782158181
 20
830.1704848854456
 30
0.0
 11
3340.369524906182
 21
830.1704848854456
 31
0.0
  0
LINE
  5
3BB4
330
3BB0
100
AcDbEntity
  8
Dim
  6
Continuous
 62
     0
370
    -2
100
AcDbLine
 10
3384.242418217296
 20
985.0097327842868
 30
0.0
 11
3340.369524906182
 21
985.0097327842868
 31
0.0
  0
LINE
  5
3BB5
330
3BB0
100
AcDbEntity
  8
Dim
  6
Continuous
 62
     0
370
    -2
100
AcDbLine
 10
3340.369524906182
 20
839.1704848854456
 30
0.0
 11
3340.369524906182
 21
976.0097327842868
 31
0.0
  0
INSERT
  5
3BB6
330
3BB0
100
AcDbEntity
  8
Dim
 62
     0
370
    -2
100
AcDbBlockReference
  2
_DOT
 10
3340.369524906182
 20
830.1704848854456
 30
0.0
 41
9.0
 42
9.0
 43
9.0
 50
270.0
  0
INSERT
  5
3BB7
330
3BB0
100
AcDbEntity
  8
Dim
 62
     0
370
    -2
100
AcDbBlockReference
  2
_DOT
 10
3340.369524906182
 20
985.0097327842868
 30
0.0
 41
9.0
 42
9.0
 43
9.0
 50
90.0
  0
MTEXT
  5
3BB8
330
3BB0
100
AcDbEntity
  8
Dim
  6
Continuous
 62
     0
370
     0
100
AcDbMText
 10
3318.153216312432
 20
907.5901088348662
 30
0.0
 40
24.4326171875
 41
0.0
 46
0.0
 71
     5
 72
     1
  1
\A1;155
  7
ＭＳ ゴシック
 11
0.0
 21
1.0
 31
0.0
 73
     1
 44
1.0
  0
POINT
  5
3BB9
330
3BB0
100
AcDbEntity
  8
Defpoints
 62
     0
100
AcDbPoint
 10
3466.80782158181
 20
830.1704848854456
 30
0.0
  0
POINT
  5
3BBA
330
3BB0
100
AcDbEntity
  8
Defpoints
 62
     0
100
AcDbPoint
 10
3409.242418217296
 20
985.0097327842868
 30
0.0
  0
POINT
  5
3BBB
330
3BB0
100
AcDbEntity
  8
Defpoints
 62
     0
100
AcDbPoint
 10
3340.369524906182
 20
985.0097327842868
 30
0.0
  0
ENDBLK
  5
3BB2
330
3BB0
100
AcDbEntity
  8
0
100
AcDbBlockEnd
  0
BLOCK
  5
3BC4
330
3BC3
100
AcDbEntity
  8
0
100
AcDbBlockBegin
  2
*D11
 70
     1
 10
0.0
 20
0.0
 30
0.0
  3
*D11
  1
*D87
  0
LINE
  5
3BC6
330
3BC3
100
AcDbEntity
  8
Dim
  6
Continuous
 62
     0
370
    -2
100
AcDbLine
 10
2659.787809403699
 20
2257.429001461474
 30
0.0
 11
2659.787809403699
 21
2380.877729177601
 31
0.0
  0
LINE
  5
3BC7
330
3BC3
100
AcDbEntity
  8
Dim
  6
Continuous
 62
     0
370
    -2
100
AcDbLine
 10
2559.787809403699
 20
2247.429011518177
 30
0.0
 11
2559.787809403699
 21
2380.877729177601
 31
0.0
  0
LINE
  5
3BC8
330
3BC3
100
AcDbEntity
  8
Dim
  6
Continuous
 62
     0
370
    -2
100
AcDbLine
 10
2650.787809403699
 20
2380.877729177601
 30
0.0
 11
2568.787809403699
 21
2380.877729177601
 31
0.0
  0
INSERT
  5
3BC9
330
3BC3
100
AcDbEntity
  8
Dim
 62
     0
370
    -2
100
AcDbBlockReference
  2
_DOT
 10
2659.787809403699
 20
2380.877729177601
 30
0.0
 41
9.0
 42
9.0
 43
9.0
  0
INSERT
  5
3BCA
330
3BC3
100
AcDbEntity
  8
Dim
 62
     0
370
    -2
100
AcDbBlockReference
  2
_DOT
 10
2559.787809403699
 20
2380.877729177601
 30
0.0
 41
9.0
 42
9.0
 43
9.0
 50
180.0
  0
MTEXT
  5
3BCB
330
3BC3
100
AcDbEntity
  8
Dim
  6
Continuous
 62
     0
370
     0
100
AcDbMText
 10
2609.787809403699
 20
2403.094037771351
 30
0.0
 40
24.4326171875
 41
0.0
 46
0.0
 71
     5
 72
     1
  1
\A1;100
  7
ＭＳ ゴシック
 73
     1
 44
1.0
  0
POINT
  5
3BCC
330
3BC3
100
AcDbEntity
  8
Defpoints
 62
     0
100
AcDbPoint
 10
2659.787809403699
 20
2232.429001461474
 30
0.0
  0
POINT
  5
3BCD
330
3BC3
100
AcDbEntity
  8
Defpoints
 62
     0
100
AcDbPoint
 10
2559.787809403699
 20
2222.429011518177
 30
0.0
  0
POINT
  5
3BCE
330
3BC3
100
AcDbEntity
  8
Defpoints
 62
     0
100
AcDbPoint
 10
2559.787809403699
 20
2380.877729177601
 30
0.0
  0
ENDBLK
  5
3BC5
330
3BC3
100
AcDbEntity
  8
0
100
AcDbBlockEnd
  0
BLOCK
  5
3BD1
330
3BD0
100
AcDbEntity
  8
0
100
AcDbBlockBegin
  2
*D12
 70
     1
 10
0.0
 20
0.0
 30
0.0
  3
*D12
  1
*D88
  0
LINE
  5
3BD3
330
3BD0
100
AcDbEntity
  8
Dim
  6
Continuous
 62
     0
370
    -2
100
AcDbLine
 10
2659.787809403699
 20
2257.429001461474
 30
0.0
 11
2659.787809403699
 21
2380.877729177601
 31
0.0
  0
LINE
  5
3BD4
330
3BD0
100
AcDbEntity
  8
Dim
  6
Continuous
 62
     0
370
    -2
100
AcDbLine
 10
2759.787809403699
 20
2247.429011518177
 30
0.0
 11
2759.787809403699
 21
2380.877729177601
 31
0.0
  0
LINE
  5
3BD5
330
3BD0
100
AcDbEntity
  8
Dim
  6
Continuous
 62
     0
370
    -2
100
AcDbLine
 10
2668.787809403699
 20
2380.877729177601
 30
0.0
 11
2750.787809403699
 21
2380.877729177601
 31
0.0
  0
INSERT
  5
3BD6
330
3BD0
100
AcDbEntity
  8
Dim
 62
     0
370
    -2
100
AcDbBlockReference
  2
_DOT
 10
2659.787809403699
 20
2380.877729177601
 30
0.0
 41
9.0
 42
9.0
 43
9.0
 50
180.0
  0
INSERT
  5
3BD7
330
3BD0
100
AcDbEntity
  8
Dim
 62
     0
370
    -2
100
AcDbBlockReference
  2
_DOT
 10
2759.787809403699
 20
2380.877729177601
 30
0.0
 41
9.0
 42
9.0
 43
9.0
  0
MTEXT
  5
3BD8
330
3BD0
100
AcDbEntity
  8
Dim
  6
Continuous
 62
     0
370
     0
100
AcDbMText
 10
2709.787809403699
 20
2403.094037771351
 30
0.0
 40
24.4326171875
 41
0.0
 46
0.0
 71
     5
 72
     1
  1
\A1;100
  7
ＭＳ ゴシック
 73
     1
 44
1.0
  0
POINT
  5
3BD9
330
3BD0
100
AcDbEntity
  8
Defpoints
 62
     0
100
AcDbPoint
 10
2659.787809403699
 20
2232.429001461474
 30
0.0
  0
POINT
  5
3BDA
330
3BD0
100
AcDbEntity
  8
Defpoints
 62
     0
100
AcDbPoint
 10
2759.787809403699
 20
2222.429011518177
 30
0.0
  0
POINT
  5
3BDB
330
3BD0
100
AcDbEntity
  8
Defpoints
 62
     0
100
AcDbPoint
 10
2759.787809403699
 20
2380.877729177601
 30
0.0
  0
ENDBLK
  5
3BD2
330
3BD0
100
AcDbEntity
  8
0
100
AcDbBlockEnd
  0
BLOCK
  5
3C39
330
3C38
100
AcDbEntity
  8
0
100
AcDbBlockBegin
  2
*D13
 70
     1
 10
0.0
 20
0.0
 30
0.0
  3
*D13
  1
*D91
  0
LINE
  5
3C3B
330
3C38
100
AcDbEntity
  8
Dim
  6
Continuous
 62
     0
370
    -2
100
AcDbLine
 10
3855.881165710382
 20
1010.864816939938
 30
0.0
 11
3855.881165710382
 21
1083.512322402838
 31
0.0
  0
LINE
  5
3C3C
330
3C38
100
AcDbEntity
  8
Dim
  6
Continuous
 62
     0
370
    -2
100
AcDbLine
 10
3795.881165710382
 20
1010.864816939938
 30
0.0
 11
3795.881165710382
 21
1083.512322402838
 31
0.0
  0
LINE
  5
3C3D
330
3C38
100
AcDbEntity
  8
Dim
  6
Continuous
 62
     0
370
    -2
100
AcDbLine
 10
3846.881165710382
 20
1083.512322402838
 30
0.0
 11
3804.881165710382
 21
1083.512322402838
 31
0.0
  0
INSERT
  5
3C3E
330
3C38
100
AcDbEntity
  8
Dim
 62
     0
370
    -2
100
AcDbBlockReference
  2
_DOT
 10
3855.881165710382
 20
1083.512322402838
 30
0.0
 41
9.0
 42
9.0
 43
9.0
  0
INSERT
  5
3C3F
330
3C38
100
AcDbEntity
  8
Dim
 62
     0
370
    -2
100
AcDbBlockReference
  2
_DOT
 10
3795.881165710382
 20
1083.512322402838
 30
0.0
 41
9.0
 42
9.0
 43
9.0
 50
180.0
  0
MTEXT
  5
3C40
330
3C38
100
AcDbEntity
  8
Dim
  6
Continuous
 62
     0
370
     0
100
AcDbMText
 10
3825.881165710382
 20
1105.728630996588
 30
0.0
 40
24.4326171875
 41
0.0
 46
0.0
 71
     5
 72
     1
  1
\A1;60
  7
ＭＳ ゴシック
 73
     1
 44
1.0
  0
POINT
  5
3C41
330
3C38
100
AcDbEntity
  8
Defpoints
 62
     0
100
AcDbPoint
 10
3855.881165710382
 20
985.8648169399376
 30
0.0
  0
POINT
  5
3C42
330
3C38
100
AcDbEntity
  8
Defpoints
 62
     0
100
AcDbPoint
 10
3795.881165710382
 20
985.8648169399376
 30
0.0
  0
POINT
  5
3C43
330
3C38
100
AcDbEntity
  8
Defpoints
 62
     0
100
AcDbPoint
 10
3795.881165710382
 20
1083.512322402838
 30
0.0
  0
ENDBLK
  5
3C3A
330
3C38
100
AcDbEntity
  8
0
100
AcDbBlockEnd
  0
BLOCK
  5
3C7A
330
3C79
100
AcDbEntity
  8
0
100
AcDbBlockBegin
  2
*D14
 70
     1
 10
0.0
 20
0.0
 30
0.0
  3
*D14
  1
*D93
  0
LINE
  5
3C7C
330
3C79
100
AcDbEntity
  8
Dim
  6
Continuous
 62
     0
370
    -2
100
AcDbLine
 10
2900.336995297071
 20
2292.429031925185
 30
0.0
 11
3080.248481350522
 21
2292.429031925185
 31
0.0
  0
LINE
  5
3C7D
330
3C79
100
AcDbEntity
  8
Dim
  6
Continuous
 62
     0
370
    -2
100
AcDbLine
 10
2907.516895861553
 20
1852.577667020429
 30
0.0
 11
3080.248481350522
 21
1852.577667020429
 31
0.0
  0
LINE
  5
3C7E
330
3C79
100
AcDbEntity
  8
Dim
  6
Continuous
 62
     0
370
    -2
100
AcDbLine
 10
3080.248481350522
 20
2283.429031925185
 30
0.0
 11
3080.248481350522
 21
1861.577667020429
 31
0.0
  0
INSERT
  5
3C7F
330
3C79
100
AcDbEntity
  8
Dim
 62
     0
370
    -2
100
AcDbBlockReference
  2
_DOT
 10
3080.248481350522
 20
2292.429031925185
 30
0.0
 41
9.0
 42
9.0
 43
9.0
 50
90.0
  0
INSERT
  5
3C80
330
3C79
100
AcDbEntity
  8
Dim
 62
     0
370
    -2
100
AcDbBlockReference
  2
_DOT
 10
3080.248481350522
 20
1852.577667020429
 30
0.0
 41
9.0
 42
9.0
 43
9.0
 50
270.0
  0
MTEXT
  5
3C81
330
3C79
100
AcDbEntity
  8
Dim
  6
Continuous
 62
     0
370
     0
100
AcDbMText
 10
3058.032172756772
 20
2072.503356283038
 30
0.0
 40
24.4326171875
 41
0.0
 46
0.0
 71
     5
 72
     1
  1
\A1;440
  7
ＭＳ ゴシック
 11
0.0
 21
1.0
 31
0.0
 73
     1
 44
1.0
  0
POINT
  5
3C82
330
3C79
100
AcDbEntity
  8
Defpoints
 62
     0
100
AcDbPoint
 10
2875.336995297071
 20
2292.429031925185
 30
0.0
  0
POINT
  5
3C83
330
3C79
100
AcDbEntity
  8
Defpoints
 62
     0
100
AcDbPoint
 10
2882.516895861553
 20
1852.577667020429
 30
0.0
  0
POINT
  5
3C84
330
3C79
100
AcDbEntity
  8
Defpoints
 62
     0
100
AcDbPoint
 10
3080.248481350522
 20
1852.577667020429
 30
0.0
  0
ENDBLK
  5
3C7B
330
3C79
100
AcDbEntity
  8
0
100
AcDbBlockEnd
  0
BLOCK
  5
3C89
330
3C88
100
AcDbEntity
  8
0
100
AcDbBlockBegin
  2
*D15
 70
     1
 10
0.0
 20
0.0
 30
0.0
  3
*D15
  1
*D94
  0
LINE
  5
3C8B
330
3C88
100
AcDbEntity
  8
Dim
  6
Continuous
 62
     0
370
    -2
100
AcDbLine
 10
2410.037435797313
 20
2114.121369809323
 30
0.0
 11
2410.037435797313
 21
2470.294690721189
 31
0.0
  0
LINE
  5
3C8C
330
3C88
100
AcDbEntity
  8
Dim
  6
Continuous
 62
     0
370
    -2
100
AcDbLine
 10
2909.534530216444
 20
2114.121369809323
 30
0.0
 11
2909.534530216444
 21
2470.294690721189
 31
0.0
  0
LINE
  5
3C8D
330
3C88
100
AcDbEntity
  8
Dim
  6
Continuous
 62
     0
370
    -2
100
AcDbLine
 10
2419.037435797313
 20
2470.294690721189
 30
0.0
 11
2900.534530216444
 21
2470.294690721189
 31
0.0
  0
INSERT
  5
3C8E
330
3C88
100
AcDbEntity
  8
Dim
 62
     0
370
    -2
100
AcDbBlockReference
  2
_DOT
 10
2410.037435797313
 20
2470.294690721189
 30
0.0
 41
9.0
 42
9.0
 43
9.0
 50
180.0
  0
INSERT
  5
3C8F
330
3C88
100
AcDbEntity
  8
Dim
 62
     0
370
    -2
100
AcDbBlockReference
  2
_DOT
 10
2909.534530216444
 20
2470.294690721189
 30
0.0
 41
9.0
 42
9.0
 43
9.0
  0
MTEXT
  5
3C90
330
3C88
100
AcDbEntity
  8
Dim
  6
Continuous
 62
     0
370
     0
100
AcDbMText
 10
2659.785983006879
 20
2492.510999314939
 30
0.0
 40
24.4326171875
 41
0.0
 46
0.0
 71
     5
 72
     1
  1
\A1;500
  7
ＭＳ ゴシック
 73
     1
 44
1.0
  0
POINT
  5
3C91
330
3C88
100
AcDbEntity
  8
Defpoints
 62
     0
100
AcDbPoint
 10
2410.037435797313
 20
2089.121369809323
 30
0.0
  0
POINT
  5
3C92
330
3C88
100
AcDbEntity
  8
Defpoints
 62
     0
100
AcDbPoint
 10
2909.534530216444
 20
2089.121369809323
 30
0.0
  0
POINT
  5
3C93
330
3C88
100
AcDbEntity
  8
Defpoints
 62
     0
100
AcDbPoint
 10
2909.534530216444
 20
2470.294690721189
 30
0.0
  0
ENDBLK
  5
3C8A
330
3C88
100
AcDbEntity
  8
0
100
AcDbBlockEnd
  0
BLOCK
  5
3CA2
330
3CA1
100
AcDbEntity
  8
0
100
AcDbBlockBegin
  2
*D16
 70
     1
 10
0.0
 20
0.0
 30
0.0
  3
*D16
  1
*D95
  0
LINE
  5
3CA4
330
3CA1
100
AcDbEntity
  8
Dim
  6
Continuous
 62
     0
370
    -2
100
AcDbLine
 10
3613.851683573612
 20
985.8648287897449
 30
0.0
 11
3638.851683573612
 21
985.8648287897449
 31
0.0
  0
LINE
  5
3CA5
330
3CA1
100
AcDbEntity
  8
Dim
  6
Continuous
 62
     0
370
    -2
100
AcDbLine
 10
3613.851683573612
 20
850.8648287897449
 30
0.0
 11
3638.851683573612
 21
850.8648287897449
 31
0.0
  0
LINE
  5
3CA6
330
3CA1
100
AcDbEntity
  8
Dim
  6
Continuous
 62
     0
370
    -2
100
AcDbLine
 10
3638.851683573612
 20
985.8648287897449
 30
0.0
 11
3638.851683573612
 21
1156.24074871162
 31
0.0
  0
INSERT
  5
3CA7
330
3CA1
100
AcDbEntity
  8
Dim
 62
     0
370
    -2
100
AcDbBlockReference
  2
_DOT
 10
3638.851683573612
 20
985.8648287897449
 30
0.0
 41
9.0
 42
9.0
 43
9.0
 50
90.0
  0
INSERT
  5
3CA8
330
3CA1
100
AcDbEntity
  8
Dim
 62
     0
370
    -2
100
AcDbBlockReference
  2
_DOT
 10
3638.851683573612
 20
850.8648287897449
 30
0.0
 41
9.0
 42
9.0
 43
9.0
 50
270.0
  0
MTEXT
  5
3CA9
330
3CA1
100
AcDbEntity
  8
Dim
  6
Continuous
 62
     0
370
     0
100
AcDbMText
 10
3614.473088358768
 20
1080.052788750682
 30
0.0
 40
24.4326171875
 41
0.0
 46
0.0
 71
     5
 72
     1
  1
\A1;135(深さ)
  7
ＭＳ ゴシック
 11
0.0
 21
1.0
 31
0.0
 73
     1
 44
1.0
  0
POINT
  5
3CAA
330
3CA1
100
AcDbEntity
  8
Defpoints
 62
     0
100
AcDbPoint
 10
3638.851683573612
 20
985.8648287897449
 30
0.0
  0
POINT
  5
3CAB
330
3CA1
100
AcDbEntity
  8
Defpoints
 62
     0
100
AcDbPoint
 10
3638.851683573612
 20
850.8648287897449
 30
0.0
  0
POINT
  5
3CAC
330
3CA1
100
AcDbEntity
  8
Defpoints
 62
     0
100
AcDbPoint
 10
3638.851683573612
 20
850.8648287897449
 30
0.0
  0
ENDBLK
  5
3CA3
330
3CA1
100
AcDbEntity
  8
0
100
AcDbBlockEnd
  0
BLOCK
  5
3F36
330
3F35
100
AcDbEntity
  8
0
100
AcDbBlockBegin
  2
*D17
 70
     1
 10
0.0
 20
0.0
 30
0.0
  3
*D17
  1
*D105
  0
LINE
  5
3F38
330
3F35
100
AcDbEntity
  8
Dim
  6
Continuous
 62
     0
370
    -2
100
AcDbLine
 10
2434.936978971625
 20
2010.109506413246
 30
0.0
 11
2434.936978971625
 21
1789.126745703904
 31
0.0
  0
LINE
  5
3F39
330
3F35
100
AcDbEntity
  8
Dim
  6
Continuous
 62
     0
370
    -2
100
AcDbLine
 10
2884.450008358116
 20
2010.109506413246
 30
0.0
 11
2884.450008358116
 21
1789.126745703904
 31
0.0
  0
LINE
  5
3F3A
330
3F35
100
AcDbEntity
  8
Dim
  6
Continuous
 62
     0
370
    -2
100
AcDbLine
 10
2443.936978971625
 20
1789.126745703904
 30
0.0
 11
2875.450008358116
 21
1789.126745703904
 31
0.0
  0
INSERT
  5
3F3B
330
3F35
100
AcDbEntity
  8
Dim
 62
     0
370
    -2
100
AcDbBlockReference
  2
_DOT
 10
2434.936978971625
 20
1789.126745703904
 30
0.0
 41
9.0
 42
9.0
 43
9.0
 50
180.0
  0
INSERT
  5
3F3C
330
3F35
100
AcDbEntity
  8
Dim
 62
     0
370
    -2
100
AcDbBlockReference
  2
_DOT
 10
2884.450008358116
 20
1789.126745703904
 30
0.0
 41
9.0
 42
9.0
 43
9.0
  0
MTEXT
  5
3F3D
330
3F35
100
AcDbEntity
  8
Dim
  6
Continuous
 62
     0
370
     0
100
AcDbMText
 10
2659.69349366487
 20
1811.343054297654
 30
0.0
 40
24.4326171875
 41
0.0
 46
0.0
 71
     5
 72
     1
  1
\A1;450
  7
ＭＳ ゴシック
 73
     1
 44
1.0
  0
POINT
  5
3F3E
330
3F35
100
AcDbEntity
  8
Defpoints
 62
     0
100
AcDbPoint
 10
2434.936978971625
 20
2035.109506413246
 30
0.0
  0
POINT
  5
3F3F
330
3F35
100
AcDbEntity
  8
Defpoints
 62
     0
100
AcDbPoint
 10
2884.450008358116
 20
2035.109506413246
 30
0.0
  0
POINT
  5
3F40
330
3F35
100
AcDbEntity
  8
Defpoints
 62
     0
100
AcDbPoint
 10
2884.450008358116
 20
1789.126745703904
 30
0.0
  0
ENDBLK
  5
3F37
330
3F35
100
AcDbEntity
  8
0
100
AcDbBlockEnd
  0
BLOCK
  5
3F45
330
3F44
100
AcDbEntity
  8
0
100
AcDbBlockBegin
  2
*D18
 70
     1
 10
0.0
 20
0.0
 30
0.0
  3
*D18
  1
*D106
  0
LINE
  5
3F47
330
3F44
100
AcDbEntity
  8
Dim
  6
Continuous
 62
     0
370
    -2
100
AcDbLine
 10
2449.137190266998
 20
2177.429001461474
 30
0.0
 11
2311.657927545507
 21
2177.429001461474
 31
0.0
  0
LINE
  5
3F48
330
3F44
100
AcDbEntity
  8
Dim
  6
Continuous
 62
     0
370
    -2
100
AcDbLine
 10
2448.221955276192
 20
1880.491943945472
 30
0.0
 11
2311.657927545507
 21
1880.491943945472
 31
0.0
  0
LINE
  5
3F49
330
3F44
100
AcDbEntity
  8
Dim
  6
Continuous
 62
     0
370
    -2
100
AcDbLine
 10
2311.657927545507
 20
2168.429001461474
 30
0.0
 11
2311.657927545507
 21
1889.491943945472
 31
0.0
  0
INSERT
  5
3F4A
330
3F44
100
AcDbEntity
  8
Dim
 62
     0
370
    -2
100
AcDbBlockReference
  2
_DOT
 10
2311.657927545507
 20
2177.429001461474
 30
0.0
 41
9.0
 42
9.0
 43
9.0
 50
90.0
  0
INSERT
  5
3F4B
330
3F44
100
AcDbEntity
  8
Dim
 62
     0
370
    -2
100
AcDbBlockReference
  2
_DOT
 10
2311.657927545507
 20
1880.491943945472
 30
0.0
 41
9.0
 42
9.0
 43
9.0
 50
270.0
  0
MTEXT
  5
3F4C
330
3F44
100
AcDbEntity
  8
Dim
  6
Continuous
 62
     0
370
     0
100
AcDbMText
 10
2289.441618951757
 20
2030.86234033531
 30
0.0
 40
24.4326171875
 41
0.0
 46
0.0
 71
     5
 72
     1
  1
\A1;300
  7
ＭＳ ゴシック
 11
0.0
 21
1.0
 31
0.0
 73
     1
 44
1.0
  0
POINT
  5
3F4D
330
3F44
100
AcDbEntity
  8
Defpoints
 62
     0
100
AcDbPoint
 10
2474.137190266998
 20
2177.429001461474
 30
0.0
  0
POINT
  5
3F4E
330
3F44
100
AcDbEntity
  8
Defpoints
 62
     0
100
AcDbPoint
 10
2473.221955276192
 20
1880.491943945472
 30
0.0
  0
POINT
  5
3F4F
330
3F44
100
AcDbEntity
  8
Defpoints
 62
     0
100
AcDbPoint
 10
2311.657927545507
 20
1880.491943945472
 30
0.0
  0
ENDBLK
  5
3F46
330
3F44
100
AcDbEntity
  8
0
100
AcDbBlockEnd
  0
BLOCK
  5
3F66
330
3F65
100
AcDbEntity
  8
0
100
AcDbBlockBegin
  2
*D19
 70
     1
 10
0.0
 20
0.0
 30
0.0
  3
*D19
  1
*D107
  0
LINE
  5
3F68
330
3F65
100
AcDbEntity
  8
Dim
  6
Continuous
 62
     0
370
    -2
100
AcDbLine
 10
3728.984810261801
 20
2272.429019370682
 30
0.0
 11
3883.55703976991
 21
2272.429019370682
 31
0.0
  0
LINE
  5
3F69
330
3F65
100
AcDbEntity
  8
Dim
  6
Continuous
 62
     0
370
    -2
100
AcDbLine
 10
3728.984814352211
 20
2292.429019980596
 30
0.0
 11
3883.55703976991
 21
2292.429019980596
 31
0.0
  0
LINE
  5
3F6A
330
3F65
100
AcDbEntity
  8
Dim
  6
Continuous
 62
     0
370
    -2
100
AcDbLine
 10
3883.55703976991
 20
2292.429019980596
 30
0.0
 11
3883.55703976991
 21
2359.454969199346
 31
0.0
  0
INSERT
  5
3F6B
330
3F65
100
AcDbEntity
  8
Dim
 62
     0
370
    -2
100
AcDbBlockReference
  2
_DOT
 10
3883.55703976991
 20
2272.429019370682
 30
0.0
 41
9.0
 42
9.0
 43
9.0
 50
270.0
  0
INSERT
  5
3F6C
330
3F65
100
AcDbEntity
  8
Dim
 62
     0
370
    -2
100
AcDbBlockReference
  2
_DOT
 10
3883.55703976991
 20
2292.429019980596
 30
0.0
 41
9.0
 42
9.0
 43
9.0
 50
90.0
  0
MTEXT
  5
3F6D
330
3F65
100
AcDbEntity
  8
Dim
  6
Continuous
 62
     0
370
     0
100
AcDbMText
 10
3861.34073117616
 20
2334.941994589971
 30
0.0
 40
24.4326171875
 41
0.0
 46
0.0
 71
     5
 72
     1
  1
\A1;20
  7
ＭＳ ゴシック
 11
0.0
 21
1.0
 31
0.0
 73
     1
 44
1.0
  0
POINT
  5
3F6E
330
3F65
100
AcDbEntity
  8
Defpoints
 62
     0
100
AcDbPoint
 10
3703.984810261801
 20
2272.429019370682
 30
0.0
  0
POINT
  5
3F6F
330
3F65
100
AcDbEntity
  8
Defpoints
 62
     0
100
AcDbPoint
 10
3703.984814352211
 20
2292.429019980596
 30
0.0
  0
POINT
  5
3F70
330
3F65
100
AcDbEntity
  8
Defpoints
 62
     0
100
AcDbPoint
 10
3883.55703976991
 20
2292.429019980596
 30
0.0
  0
ENDBLK
  5
3F67
330
3F65
100
AcDbEntity
  8
0
100
AcDbBlockEnd
  0
BLOCK
  5
3F7B
330
3F7A
100
AcDbEntity
  8
0
100
AcDbBlockBegin
  2
*D20
 70
     1
 10
0.0
 20
0.0
 30
0.0
  3
*D20
  1
*D108
  0
LINE
  5
3F7D
330
3F7A
100
AcDbEntity
  8
Dim
  6
Continuous
 62
     0
370
    -2
100
AcDbLine
 10
3728.984810261801
 20
2272.429019370682
 30
0.0
 11
3883.55703976991
 21
2272.429019370682
 31
0.0
  0
LINE
  5
3F7E
330
3F7A
100
AcDbEntity
  8
Dim
  6
Continuous
 62
     0
370
    -2
100
AcDbLine
 10
3728.984810261801
 20
2022.429019370682
 30
0.0
 11
3883.55703976991
 21
2022.429019370682
 31
0.0
  0
LINE
  5
3F7F
330
3F7A
100
AcDbEntity
  8
Dim
  6
Continuous
 62
     0
370
    -2
100
AcDbLine
 10
3883.55703976991
 20
2263.429019370682
 30
0.0
 11
3883.55703976991
 21
2031.429019370682
 31
0.0
  0
INSERT
  5
3F80
330
3F7A
100
AcDbEntity
  8
Dim
 62
     0
370
    -2
100
AcDbBlockReference
  2
_DOT
 10
3883.55703976991
 20
2272.429019370682
 30
0.0
 41
9.0
 42
9.0
 43
9.0
 50
90.0
  0
INSERT
  5
3F81
330
3F7A
100
AcDbEntity
  8
Dim
 62
     0
370
    -2
100
AcDbBlockReference
  2
_DOT
 10
3883.55703976991
 20
2022.429019370682
 30
0.0
 41
9.0
 42
9.0
 43
9.0
 50
270.0
  0
MTEXT
  5
3F82
330
3F7A
100
AcDbEntity
  8
Dim
  6
Continuous
 62
     0
370
     0
100
AcDbMText
 10
3861.34073117616
 20
2147.429019370682
 30
0.0
 40
24.4326171875
 41
0.0
 46
0.0
 71
     5
 72
     1
  1
\A1;250
  7
ＭＳ ゴシック
 11
0.0
 21
1.0
 31
0.0
 73
     1
 44
1.0
  0
POINT
  5
3F83
330
3F7A
100
AcDbEntity
  8
Defpoints
 62
     0
100
AcDbPoint
 10
3703.984810261801
 20
2272.429019370682
 30
0.0
  0
POINT
  5
3F84
330
3F7A
100
AcDbEntity
  8
Defpoints
 62
     0
100
AcDbPoint
 10
3703.984810261801
 20
2022.429019370682
 30
0.0
  0
POINT
  5
3F85
330
3F7A
100
AcDbEntity
  8
Defpoints
 62
     0
100
AcDbPoint
 10
3883.55703976991
 20
2022.429019370682
 30
0.0
  0
ENDBLK
  5
3F7C
330
3F7A
100
AcDbEntity
  8
0
100
AcDbBlockEnd
  0
BLOCK
  5
4021
330
4020
100
AcDbEntity
  8
0
100
AcDbBlockBegin
  2
*D21
 70
     1
 10
0.0
 20
0.0
 30
0.0
  3
*D21
  1
*D111
  0
LINE
  5
4023
330
4020
100
AcDbEntity
  8
MODEL
  6
Continuous
 62
     0
370
    -2
100
AcDbLine
 10
2534.787809403699
 20
2222.429011518177
 30
0.0
 11
2517.924460635551
 21
2222.429011518177
 31
0.0
  0
LINE
  5
4024
330
4020
100
AcDbEntity
  8
MODEL
  6
Continuous
 62
     0
370
    -2
100
AcDbLine
 10
2532.402462283093
 20
2292.429024605665
 30
0.0
 11
2517.924460635551
 21
2292.429024605665
 31
0.0
  0
LINE
  5
4025
330
4020
100
AcDbEntity
  8
MODEL
  6
Continuous
 62
     0
370
    -2
100
AcDbLine
 10
2517.924460635551
 20
2231.429011518177
 30
0.0
 11
2517.924460635551
 21
2283.429024605665
 31
0.0
  0
INSERT
  5
4026
330
4020
100
AcDbEntity
  8
MODEL
 62
     0
370
    -2
100
AcDbBlockReference
  2
_DOT
 10
2517.924460635551
 20
2222.429011518177
 30
0.0
 41
9.0
 42
9.0
 43
9.0
 50
270.0
  0
INSERT
  5
4027
330
4020
100
AcDbEntity
  8
MODEL
 62
     0
370
    -2
100
AcDbBlockReference
  2
_DOT
 10
2517.924460635551
 20
2292.429024605665
 30
0.0
 41
9.0
 42
9.0
 43
9.0
 50
90.0
  0
MTEXT
  5
4028
330
4020
100
AcDbEntity
  8
MODEL
  6
Continuous
 62
     0
370
     0
100
AcDbMText
 10
2495.708152041801
 20
2257.429018061921
 30
0.0
 40
24.4326171875
 41
0.0
 46
0.0
 71
     5
 72
     1
  1
\A1;70
  7
ＭＳ ゴシック
 11
0.0
 21
1.0
 31
0.0
 73
     1
 44
1.0
  0
POINT
  5
4029
330
4020
100
AcDbEntity
  8
Defpoints
 62
     0
100
AcDbPoint
 10
2559.787809403699
 20
2222.429011518177
 30
0.0
  0
POINT
  5
402A
330
4020
100
AcDbEntity
  8
Defpoints
 62
     0
100
AcDbPoint
 10
2557.402462283093
 20
2292.429024605665
 30
0.0
  0
POINT
  5
402B
330
4020
100
AcDbEntity
  8
Defpoints
 62
     0
100
AcDbPoint
 10
2517.924460635551
 20
2292.429024605665
 30
0.0
  0
ENDBLK
  5
4022
330
4020
100
AcDbEntity
  8
0
100
AcDbBlockEnd
  0
BLOCK
  5
4083
330
4082
100
AcDbEntity
  8
0
100
AcDbBlockBegin
  2
*D22
 70
     1
 10
0.0
 20
0.0
 30
0.0
  3
*D22
  1
*D113
  0
LINE
  5
4085
330
4082
100
AcDbEntity
  8
MODEL
  6
Continuous
 62
     0
370
    -2
100
AcDbLine
 10
3453.984810261801
 20
1997.429019370682
 30
0.0
 11
3453.984810261801
 21
1789.126745703904
 31
0.0
  0
LINE
  5
4086
330
4082
100
AcDbEntity
  8
MODEL
  6
Continuous
 62
     0
370
    -2
100
AcDbLine
 10
3703.984810261801
 20
1997.429019370682
 30
0.0
 11
3703.984810261801
 21
1789.126745703904
 31
0.0
  0
LINE
  5
4087
330
4082
100
AcDbEntity
  8
MODEL
  6
Continuous
 62
     0
370
    -2
100
AcDbLine
 10
3462.984810261801
 20
1789.126745703904
 30
0.0
 11
3694.984810261801
 21
1789.126745703904
 31
0.0
  0
INSERT
  5
4088
330
4082
100
AcDbEntity
  8
MODEL
 62
     0
370
    -2
100
AcDbBlockReference
  2
_DOT
 10
3453.984810261801
 20
1789.126745703904
 30
0.0
 41
9.0
 42
9.0
 43
9.0
 50
180.0
  0
INSERT
  5
4089
330
4082
100
AcDbEntity
  8
MODEL
 62
     0
370
    -2
100
AcDbBlockReference
  2
_DOT
 10
3703.984810261801
 20
1789.126745703904
 30
0.0
 41
9.0
 42
9.0
 43
9.0
  0
MTEXT
  5
408A
330
4082
100
AcDbEntity
  8
MODEL
  6
Continuous
 62
     0
370
     0
100
AcDbMText
 10
3578.984810261801
 20
1811.343054297654
 30
0.0
 40
24.4326171875
 41
0.0
 46
0.0
 71
     5
 72
     1
  1
\A1;250
  7
ＭＳ ゴシック
 73
     1
 44
1.0
  0
POINT
  5
408B
330
4082
100
AcDbEntity
  8
Defpoints
 62
     0
100
AcDbPoint
 10
3453.984810261801
 20
2022.429019370682
 30
0.0
  0
POINT
  5
408C
330
4082
100
AcDbEntity
  8
Defpoints
 62
     0
100
AcDbPoint
 10
3703.984810261801
 20
2022.429019370682
 30
0.0
  0
POINT
  5
408D
330
4082
100
AcDbEntity
  8
Defpoints
 62
     0
100
AcDbPoint
 10
3703.984810261801
 20
1789.126745703904
 30
0.0
  0
ENDBLK
  5
4084
330
4082
100
AcDbEntity
  8
0
100
AcDbBlockEnd
  0
BLOCK
  5
40D8
330
40D7
100
AcDbEntity
  8
0
100
AcDbBlockBegin
  2
*D23
 70
     1
 10
0.0
 20
0.0
 30
0.0
  3
*D23
  1
*D115
  0
LINE
  5
40DA
330
40D7
100
AcDbEntity
  8
MODEL
  6
Continuous
 62
     0
370
    -2
100
AcDbLine
 10
3635.893319800128
 20
780.8660207883322
 30
0.0
 11
3635.893319800128
 21
690.0666351105383
 31
0.0
  0
LINE
  5
40DB
330
40D7
100
AcDbEntity
  8
MODEL
  6
Continuous
 62
     0
370
    -2
100
AcDbLine
 10
3855.881149949254
 20
805.8645733472372
 30
0.0
 11
3855.881149949254
 21
690.0666351105383
 31
0.0
  0
LINE
  5
40DC
330
40D7
100
AcDbEntity
  8
MODEL
  6
Continuous
 62
     0
370
    -2
100
AcDbLine
 10
3644.893319800128
 20
690.0666351105383
 30
0.0
 11
3846.881149949254
 21
690.0666351105383
 31
0.0
  0
INSERT
  5
40DD
330
40D7
100
AcDbEntity
  8
MODEL
 62
     0
370
    -2
100
AcDbBlockReference
  2
_DOT
 10
3635.893319800128
 20
690.0666351105383
 30
0.0
 41
9.0
 42
9.0
 43
9.0
 50
180.0
  0
INSERT
  5
40DE
330
40D7
100
AcDbEntity
  8
MODEL
 62
     0
370
    -2
100
AcDbBlockReference
  2
_DOT
 10
3855.881149949254
 20
690.0666351105383
 30
0.0
 41
9.0
 42
9.0
 43
9.0
  0
MTEXT
  5
40DF
330
40D7
100
AcDbEntity
  8
MODEL
  6
Continuous
 62
     0
370
     0
100
AcDbMText
 10
3745.887234874691
 20
712.2829437042883
 30
0.0
 40
24.4326171875
 41
0.0
 46
0.0
 71
     5
 72
     1
  1
\A1;220
  7
ＭＳ ゴシック
 73
     1
 44
1.0
  0
POINT
  5
40E0
330
40D7
100
AcDbEntity
  8
Defpoints
 62
     0
100
AcDbPoint
 10
3635.893319800128
 20
805.8660207883322
 30
0.0
  0
POINT
  5
40E1
330
40D7
100
AcDbEntity
  8
Defpoints
 62
     0
100
AcDbPoint
 10
3855.881149949254
 20
830.8645733472372
 30
0.0
  0
POINT
  5
40E2
330
40D7
100
AcDbEntity
  8
Defpoints
 62
     0
100
AcDbPoint
 10
3855.881149949254
 20
690.0666351105383
 30
0.0
  0
ENDBLK
  5
40D9
330
40D7
100
AcDbEntity
  8
0
100
AcDbBlockEnd
  0
BLOCK
  5
40E5
330
40E4
100
AcDbEntity
  8
0
100
AcDbBlockBegin
  2
*D24
 70
     1
 10
0.0
 20
0.0
 30
0.0
  3
*D24
  1
*D116
  0
LINE
  5
40E7
330
40E4
100
AcDbEntity
  8
MODEL
  6
Continuous
 62
     0
370
    -2
100
AcDbLine
 10
3855.881149949254
 20
665.0666351105383
 30
0.0
 11
3855.881149949254
 21
609.2741697123615
 31
0.0
  0
LINE
  5
40E8
330
40E4
100
AcDbEntity
  8
MODEL
  6
Continuous
 62
     0
370
    -2
100
AcDbLine
 10
3486.225459619258
 20
801.6411328167648
 30
0.0
 11
3486.225459619258
 21
609.2741697123615
 31
0.0
  0
LINE
  5
40E9
330
40E4
100
AcDbEntity
  8
MODEL
  6
Continuous
 62
     0
370
    -2
100
AcDbLine
 10
3846.881149949254
 20
609.2741697123615
 30
0.0
 11
3495.225459619258
 21
609.2741697123615
 31
0.0
  0
INSERT
  5
40EA
330
40E4
100
AcDbEntity
  8
MODEL
 62
     0
370
    -2
100
AcDbBlockReference
  2
_DOT
 10
3855.881149949254
 20
609.2741697123615
 30
0.0
 41
9.0
 42
9.0
 43
9.0
  0
INSERT
  5
40EB
330
40E4
100
AcDbEntity
  8
MODEL
 62
     0
370
    -2
100
AcDbBlockReference
  2
_DOT
 10
3486.225459619258
 20
609.2741697123615
 30
0.0
 41
9.0
 42
9.0
 43
9.0
 50
180.0
  0
MTEXT
  5
40EC
330
40E4
100
AcDbEntity
  8
MODEL
  6
Continuous
 62
     0
370
     0
100
AcDbMText
 10
3671.053304784256
 20
631.4904783061115
 30
0.0
 40
24.4326171875
 41
0.0
 46
0.0
 71
     5
 72
     1
  1
\A1;370
  7
ＭＳ ゴシック
 73
     1
 44
1.0
  0
POINT
  5
40ED
330
40E4
100
AcDbEntity
  8
Defpoints
 62
     0
100
AcDbPoint
 10
3855.881149949254
 20
690.0666351105383
 30
0.0
  0
POINT
  5
40EE
330
40E4
100
AcDbEntity
  8
Defpoints
 62
     0
100
AcDbPoint
 10
3486.225459619258
 20
826.6411328167648
 30
0.0
  0
POINT
  5
40EF
330
40E4
100
AcDbEntity
  8
Defpoints
 62
     0
100
AcDbPoint
 10
3486.225459619258
 20
609.2741697123615
 30
0.0
  0
ENDBLK
  5
40E6
330
40E4
100
AcDbEntity
  8
0
100
AcDbBlockEnd
  0
BLOCK
  5
4139
330
4138
100
AcDbEntity
  8
0
100
AcDbBlockBegin
  2
*D25
 70
     1
 10
0.0
 20
0.0
 30
0.0
  3
*D25
  1
*D110
  0
LINE
  5
413B
330
4138
100
AcDbEntity
  8
MODEL
  6
Continuous
 62
     0
370
    -2
100
AcDbLine
 10
2419.239273912415
 20
2292.429001461474
 30
0.0
 11
2311.657927545507
 21
2292.429001461474
 31
0.0
  0
LINE
  5
413C
330
4138
100
AcDbEntity
  8
MODEL
  6
Continuous
 62
     0
370
    -2
100
AcDbLine
 10
2419.239273912415
 20
2177.429001461474
 30
0.0
 11
2311.657927545507
 21
2177.429001461474
 31
0.0
  0
LINE
  5
413D
330
4138
100
AcDbEntity
  8
MODEL
  6
Continuous
 62
     0
370
    -2
100
AcDbLine
 10
2311.657927545507
 20
2283.429001461474
 30
0.0
 11
2311.657927545507
 21
2186.429001461474
 31
0.0
  0
INSERT
  5
413E
330
4138
100
AcDbEntity
  8
MODEL
 62
     0
370
    -2
100
AcDbBlockReference
  2
_DOT
 10
2311.657927545507
 20
2292.429001461474
 30
0.0
 41
9.0
 42
9.0
 43
9.0
 50
90.0
  0
INSERT
  5
413F
330
4138
100
AcDbEntity
  8
MODEL
 62
     0
370
    -2
100
AcDbBlockReference
  2
_DOT
 10
2311.657927545507
 20
2177.429001461474
 30
0.0
 41
9.0
 42
9.0
 43
9.0
 50
270.0
  0
MTEXT
  5
4140
330
4138
100
AcDbEntity
  8
MODEL
  6
Continuous
 62
     0
370
     0
100
AcDbMText
 10
2289.441618951757
 20
2234.929001461474
 30
0.0
 40
24.4326171875
 41
0.0
 46
0.0
 71
     5
 72
     1
  1
\A1;115
  7
ＭＳ ゴシック
 11
0.0
 21
1.0
 31
0.0
 73
     1
 44
1.0
  0
POINT
  5
4141
330
4138
100
AcDbEntity
  8
Defpoints
 62
     0
100
AcDbPoint
 10
2444.239273912415
 20
2292.429001461474
 30
0.0
  0
POINT
  5
4142
330
4138
100
AcDbEntity
  8
Defpoints
 62
     0
100
AcDbPoint
 10
2444.239273912415
 20
2177.429001461474
 30
0.0
  0
POINT
  5
4143
330
4138
100
AcDbEntity
  8
Defpoints
 62
     0
100
AcDbPoint
 10
2311.657927545507
 20
2177.429001461474
 30
0.0
  0
ENDBLK
  5
413A
330
4138
100
AcDbEntity
  8
0
100
AcDbBlockEnd
  0
BLOCK
  5
41CE
330
41CD
100
AcDbEntity
  8
0
100
AcDbBlockBegin
  2
811431D
 70
     0
 10
0.0
 20
0.0
 30
0.0
  3
811431D
  1
811431D
  0
LWPOLYLINE
  5
41CF
330
41CD
100
AcDbEntity
  8
0
 62
     7
100
AcDbPolyline
 90
        3
 70
     0
 43
0.0
 10
210.002135012519
 20
-211.4683686183076
 10
210.002135012519
 20
-225.000712611581
 10
210.002135012519
 20
-238.5385687612673
  0
LWPOLYLINE
  5
41D0
330
41CD
100
AcDbEntity
  8
0
 62
     7
100
AcDbPolyline
 90
        3
 70
     0
 43
0.0
 10
223.5179425365543
 20
-225.000712611581
 10
210.002135012519
 20
-225.000712611581
 10
196.4697910192455
 20
-225.000712611581
  0
LWPOLYLINE
  5
41D1
330
41CD
100
AcDbEntity
  8
0
 62
     7
100
AcDbPolyline
 90
        3
 70
     0
 43
0.0
 10
-210.002135012519
 20
-211.4683686183076
 10
-210.002135012519
 20
-225.000712611581
 10
-210.002135012519
 20
-238.5330566048545
  0
LWPOLYLINE
  5
41D2
330
41CD
100
AcDbEntity
  8
0
 62
     7
100
AcDbPolyline
 90
        3
 70
     0
 43
0.0
 10
-196.480815332071
 20
-225.000712611581
 10
-210.002135012519
 20
-225.000712611581
 10
-223.5344790057925
 20
-225.000712611581
  0
LWPOLYLINE
  5
41D3
330
41CD
100
AcDbEntity
  8
0
  6
AI-LINETYPE-12
 62
     7
100
AcDbPolyline
 90
        2
 70
     0
 43
0.0
 10
0.0
 20
-59.72421473202388
 10
0.0
 20
-59.72421473202388
  0
SPLINE
  5
41D4
330
41CD
100
AcDbEntity
  8
0
  6
AI-LINETYPE-11
 62
     7
100
AcDbSpline
210
0.0
220
0.0
230
1.0
 70
     8
 71
     3
 72
    11
 73
     7
 74
     0
 42
0.000000001
 43
0.0000000001
 40
0.0
 40
0.0
 40
0.0
 40
0.0
 40
1.0
 40
1.0
 40
1.0
 40
2.0
 40
2.0
 40
2.0
 40
2.0
 10
-11.90625785151559
 20
-82.8477108834627
 30
0.0
 10
-20.27922344246568
 20
-78.5316924122883
 30
0.0
 10
-26.00084179888845
 20
-69.80043665451018
 30
0.0
 10
-26.00084179888845
 20
-59.72421473202388
 30
0.0
 10
-26.00084179888845
 20
-45.96036016941531
 30
0.0
 10
-15.30725835817537
 20
-34.6935124617774
 30
0.0
 10
-1.763890052076384
 20
-33.78400665367553
 30
0.0
  0
SPLINE
  5
41D5
330
41CD
100
AcDbEntity
  8
0
  6
AI-LINETYPE-10
 62
     7
100
AcDbSpline
210
0.0
220
0.0
230
1.0
 70
     8
 71
     3
 72
    11
 73
     7
 74
     0
 42
0.000000001
 43
0.0000000001
 40
0.0
 40
0.0
 40
0.0
 40
0.0
 40
1.0
 40
1.0
 40
1.0
 40
2.0
 40
2.0
 40
2.0
 40
2.0
 10
1.763890052076384
 20
-33.78400665367553
 30
0.0
 10
15.30174620176263
 20
-34.6935124617774
 30
0.0
 10
25.99532964247571
 20
-45.96036016941531
 30
0.0
 10
25.99532964247571
 20
-59.72421473202388
 30
0.0
 10
25.99532964247571
 20
-69.80043665451018
 30
0.0
 10
20.27371128605294
 20
-78.5316924122883
 30
0.0
 10
11.90625785151559
 20
-82.8477108834627
 30
0.0
  0
SPLINE
  5
41D6
330
41CD
100
AcDbEntity
  8
0
  6
AI-LINETYPE-9
 62
     7
100
AcDbSpline
210
0.0
220
0.0
230
1.0
 70
     8
 71
     3
 72
    11
 73
     7
 74
     0
 42
0.000000001
 43
0.0000000001
 40
0.0
 40
0.0
 40
0.0
 40
0.0
 40
1.0
 40
1.0
 40
1.0
 40
2.0
 40
2.0
 40
2.0
 40
2.0
 10
-11.90625785151559
 20
-178.1639195725403
 30
0.0
 10
-11.90625785151559
 20
-181.2066299123721
 30
0.0
 10
-6.581514756810008
 20
-183.676075985279
 30
0.0
 10
0.0
 20
-183.676075985279
 30
0.0
 10
6.57600260039727
 20
-183.676075985279
 30
0.0
 10
11.90625785151559
 20
-181.2066299123721
 30
0.0
 10
11.90625785151559
 20
-178.1639195725403
 30
0.0
  0
SPLINE
  5
41D7
330
41CD
100
AcDbEntity
  8
0
  6
AI-LINETYPE-8
 62
     7
100
AcDbSpline
210
0.0
220
0.0
230
1.0
 70
    11
 71
     3
 72
    23
 73
    19
 74
     0
 42
0.000000001
 43
0.0000000001
 40
0.0
 40
0.0
 40
0.0
 40
0.0
 40
1.0
 40
1.0
 40
1.0
 40
2.0
 40
2.0
 40
2.0
 40
3.0
 40
3.0
 40
3.0
 40
4.0
 40
4.0
 40
4.0
 40
5.0
 40
5.0
 40
5.0
 40
6.0
 40
6.0
 40
6.0
 40
6.0
 10
-1.763890052076384
 20
-43.11608746044214
 30
0.0
 10
-1.763890052076384
 20
-44.08622698908414
 30
0.0
 10
-0.9756516850547498
 20
-44.8799775125185
 30
0.0
 10
0.0
 20
-44.8799775125185
 30
0.0
 10
0.9701395286420115
 20
-44.8799775125185
 30
0.0
 10
1.763890052076384
 20
-44.08622698908414
 30
0.0
 10
1.763890052076384
 20
-43.11608746044214
 30
0.0
 10
1.763890052076384
 20
-43.11608746044214
 30
0.0
 10
1.763890052076384
 20
-32.72567262242967
 30
0.0
 10
1.763890052076384
 20
-32.72567262242967
 30
0.0
 10
1.763890052076384
 20
-31.74450878096223
 30
0.0
 10
0.9701395286420115
 20
-30.9617825703533
 30
0.0
 10
0.0
 20
-30.9617825703533
 30
0.0
 10
-0.9756516850547498
 20
-30.9617825703533
 30
0.0
 10
-1.763890052076384
 20
-31.74450878096223
 30
0.0
 10
-1.763890052076384
 20
-32.72567262242967
 30
0.0
 10
-1.763890052076384
 20
-32.72567262242967
 30
0.0
 10
-1.763890052076384
 20
-43.11608746044214
 30
0.0
 10
-1.763890052076384
 20
-43.11608746044214
 30
0.0
  0
SPLINE
  5
41D8
330
41CD
100
AcDbEntity
  8
0
  6
AI-LINETYPE-7
 62
     7
100
AcDbSpline
210
0.0
220
0.0
230
1.0
 70
    11
 71
     3
 72
    26
 73
    22
 74
     0
 42
0.000000001
 43
0.0000000001
 40
0.0
 40
0.0
 40
0.0
 40
0.0
 40
1.0
 40
1.0
 40
1.0
 40
2.0
 40
2.0
 40
2.0
 40
3.0
 40
3.0
 40
3.0
 40
4.0
 40
4.0
 40
4.0
 40
5.0
 40
5.0
 40
5.0
 40
6.0
 40
6.0
 40
6.0
 40
7.0
 40
7.0
 40
7.0
 40
7.0
 10
-11.90625785151559
 20
-59.72421473202388
 30
0.0
 10
-11.90625785151559
 20
-59.72421473202388
 30
0.0
 10
-11.90625785151559
 20
-184.7674829550012
 30
0.0
 10
-11.90625785151559
 20
-184.7674829550012
 30
0.0
 10
-11.90625785151559
 20
-184.7674829550012
 30
0.0
 10
-11.90625785151559
 20
-184.7674829550012
 30
0.0
 10
-11.90625785151559
 20
-184.7674829550012
 30
0.0
 10
-11.90625785151559
 20
-187.8157054512458
 30
0.0
 10
-6.581514756810008
 20
-190.27963936774
 30
0.0
 10
0.0
 20
-190.27963936774
 30
0.0
 10
6.57600260039727
 20
-190.27963936774
 30
0.0
 10
11.90625785151559
 20
-187.8157054512458
 30
0.0
 10
11.90625785151559
 20
-184.7674829550012
 30
0.0
 10
11.90625785151559
 20
-184.7674829550012
 30
0.0
 10
11.90625785151559
 20
-59.72421473202388
 30
0.0
 10
11.90625785151559
 20
-59.72421473202388
 30
0.0
 10
11.90625785151559
 20
-53.15372428803931
 30
0.0
 10
6.57600260039727
 20
-47.81795688050829
 30
0.0
 10
0.0
 20
-47.81795688050829
 30
0.0
 10
-6.581514756810008
 20
-47.81795688050829
 30
0.0
 10
-11.90625785151559
 20
-53.15372428803931
 30
0.0
 10
-11.90625785151559
 20
-59.72421473202388
 30
0.0
  0
SPLINE
  5
41D9
330
41CD
100
AcDbEntity
  8
0
 62
     7
100
AcDbSpline
210
0.0
220
0.0
230
1.0
 70
    11
 71
     3
 72
    17
 73
    13
 74
     0
 42
0.000000001
 43
0.0000000001
 40
0.0
 40
0.0
 40
0.0
 40
0.0
 40
1.0
 40
1.0
 40
1.0
 40
2.0
 40
2.0
 40
2.0
 40
3.0
 40
3.0
 40
3.0
 40
4.0
 40
4.0
 40
4.0
 40
4.0
 10
-23.0022287103586
 20
-225.000712611581
 30
0.0
 10
-23.0022287103586
 20
-212.3117285494565
 30
0.0
 10
-12.7055205313627
 20
-202.0039960576352
 30
0.0
 10
0.0
 20
-202.0039960576352
 30
0.0
 10
12.70000837494997
 20
-202.0039960576352
 30
0.0
 10
23.0022287103586
 20
-212.3117285494565
 30
0.0
 10
23.0022287103586
 20
-225.000712611581
 30
0.0
 10
23.0022287103586
 20
-237.7062331429438
 30
0.0
 10
12.70000837494997
 20
-248.0029413219396
 30
0.0
 10
0.0
 20
-248.0029413219396
 30
0.0
 10
-12.7055205313627
 20
-248.0029413219396
 30
0.0
 10
-23.0022287103586
 20
-237.7062331429438
 30
0.0
 10
-23.0022287103586
 20
-225.000712611581
 30
0.0
  0
SPLINE
  5
41DA
330
41CD
100
AcDbEntity
  8
0
 62
     7
100
AcDbSpline
210
0.0
220
0.0
230
1.0
 70
    11
 71
     3
 72
    17
 73
    13
 74
     0
 42
0.000000001
 43
0.0000000001
 40
0.0
 40
0.0
 40
0.0
 40
0.0
 40
1.0
 40
1.0
 40
1.0
 40
2.0
 40
2.0
 40
2.0
 40
3.0
 40
3.0
 40
3.0
 40
4.0
 40
4.0
 40
4.0
 40
4.0
 10
-37.46061498097221
 20
-225.000712611581
 30
0.0
 10
-37.46061498097221
 20
-204.3191017509854
 30
0.0
 10
-20.68712301700834
 20
-187.5456097870216
 30
0.0
 10
0.0
 20
-187.5456097870216
 30
0.0
 10
20.68712301700835
 20
-187.5456097870216
 30
0.0
 10
37.45510282455947
 20
-204.3191017509854
 30
0.0
 10
37.45510282455947
 20
-225.000712611581
 30
0.0
 10
37.45510282455947
 20
-245.6988599414149
 30
0.0
 10
20.68712301700835
 20
-262.4723519053787
 30
0.0
 10
0.0
 20
-262.4723519053787
 30
0.0
 10
-20.68712301700834
 20
-262.4723519053787
 30
0.0
 10
-37.46061498097221
 20
-245.6988599414149
 30
0.0
 10
-37.46061498097221
 20
-225.000712611581
 30
0.0
  0
LWPOLYLINE
  5
41DB
330
41CD
100
AcDbEntity
  8
0
  6
AI-LINETYPE-6
 62
     7
100
AcDbPolyline
 90
        3
 70
     0
 43
0.0
 10
-56.18541031504559
 20
-225.000712611581
 10
0.0
 20
-225.000712611581
 10
56.18541031504559
 20
-225.000712611581
  0
LWPOLYLINE
  5
41DC
330
41CD
100
AcDbEntity
  8
0
  6
AI-LINETYPE-5
 62
     7
100
AcDbPolyline
 90
        3
 70
     0
 43
0.0
 10
0.0
 20
-168.8208144529482
 10
0.0
 20
-225.000712611581
 10
0.0
 20
-281.1971472394521
  0
LWPOLYLINE
  5
41DD
330
41CD
100
AcDbEntity
  8
0
  6
AI-LINETYPE-4
 62
     7
100
AcDbPolyline
 90
        2
 70
     0
 43
0.0
 10
-100.0015416399055
 20
-36.43535388820282
 10
-100.0015416399055
 20
-88.93864371953894
  0
LWPOLYLINE
  5
41DE
330
41CD
100
AcDbEntity
  8
0
  6
AI-LINETYPE-3
 62
     7
100
AcDbPolyline
 90
        2
 70
     0
 43
0.0
 10
-73.75265280244383
 20
-62.68975488207729
 10
-126.2559426337799
 20
-62.68975488207729
  0
LWPOLYLINE
  5
41DF
330
41CD
100
AcDbEntity
  8
0
  6
AI-LINETYPE-2
 62
     7
100
AcDbPolyline
 90
        2
 70
     0
 43
0.0
 10
99.99602948349278
 20
-36.43535388820282
 10
99.99602948349278
 20
-88.93864371953894
  0
LWPOLYLINE
  5
41E0
330
41CD
100
AcDbEntity
  8
0
  6
AI-LINETYPE-1
 62
     7
100
AcDbPolyline
 90
        2
 70
     0
 43
0.0
 10
126.2504304773672
 20
-62.68975488207729
 10
73.74714064603108
 20
-62.68975488207729
  0
SPLINE
  5
41E1
330
41CD
100
AcDbEntity
  8
0
 62
     7
100
AcDbSpline
210
0.0
220
0.0
230
1.0
 70
    11
 71
     3
 72
    44
 73
    40
 74
     0
 42
0.000000001
 43
0.0000000001
 40
0.0
 40
0.0
 40
0.0
 40
0.0
 40
1.0
 40
1.0
 40
1.0
 40
2.0
 40
2.0
 40
2.0
 40
3.0
 40
3.0
 40
3.0
 40
4.0
 40
4.0
 40
4.0
 40
5.0
 40
5.0
 40
5.0
 40
6.0
 40
6.0
 40
6.0
 40
7.0
 40
7.0
 40
7.0
 40
8.0
 40
8.0
 40
8.0
 40
9.0
 40
9.0
 40
9.0
 40
10.0
 40
10.0
 40
10.0
 40
11.0
 40
11.0
 40
11.0
 40
12.0
 40
12.0
 40
12.0
 40
13.0
 40
13.0
 40
13.0
 40
13.0
 10
215.3985361405902
 20
-120.0437423566234
 30
0.0
 10
215.3985361405902
 20
-120.0437423566234
 30
0.0
 10
-213.166112793431
 20
-120.0437423566234
 30
0.0
 10
-213.166112793431
 20
-120.0437423566234
 30
0.0
 10
-213.166112793431
 20
-120.0437423566234
 30
0.0
 10
-213.0999669164781
 20
-120.0437423566234
 30
0.0
 10
-213.0999669164781
 20
-120.0437423566234
 30
0.0
 10
-217.449058326129
 20
-120.0161815745597
 30
0.0
 10
-221.0429843072346
 20
-123.6101075556654
 30
0.0
 10
-221.0154235251709
 20
-127.9647111217289
 30
0.0
 10
-221.0154235251709
 20
-127.9647111217289
 30
0.0
 10
-221.0154235251709
 20
-127.9371503396653
 30
0.0
 10
-221.0154235251709
 20
-127.9371503396653
 30
0.0
 10
-221.1918125303785
 20
-219.4003616962385
 30
0.0
 10
-221.1201544970129
 20
-275.9495743345249
 30
0.0
 10
-220.844546676376
 20
-367.374200596209
 30
0.0
 10
-220.866595302027
 20
-371.8169986648764
 30
0.0
 10
-217.2340842260322
 20
-375.6755081537935
 30
0.0
 10
-212.6755308726973
 20
-375.6203865896661
 30
0.0
 10
-212.6755308726973
 20
-375.6203865896661
 30
0.0
 10
214.9079542198565
 20
-375.6203865896661
 30
0.0
 10
214.9079542198565
 20
-375.6203865896661
 30
0.0
 10
214.9079542198565
 20
-375.6203865896661
 30
0.0
 10
214.8693691249673
 20
-375.6203865896661
 30
0.0
 10
214.8693691249673
 20
-375.6203865896661
 30
0.0
 10
219.3838252270003
 20
-375.6975567794444
 30
0.0
 10
223.0218484594078
 20
-371.8941688546547
 30
0.0
 10
223.0659457107098
 20
-367.374200596209
 30
0.0
 10
223.0659457107098
 20
-367.374200596209
 30
0.0
 10
223.0328727722333
 20
-367.4072735346854
 30
0.0
 10
223.0328727722333
 20
-367.4072735346854
 30
0.0
 10
223.3470656877594
 20
-275.9495743345249
 30
0.0
 10
223.4132115647123
 20
-219.4003616962385
 30
0.0
 10
223.2423347159174
 20
-127.9647111217289
 30
0.0
 10
223.2313104030919
 20
-123.5825467736016
 30
0.0
 10
219.7035302989391
 20
-120.0272058873852
 30
0.0
 10
215.3213659508118
 20
-120.0437423566234
 30
0.0
 10
215.3213659508118
 20
-120.0437423566234
 30
0.0
 10
215.3985361405902
 20
-120.0437423566234
 30
0.0
 10
215.3985361405902
 20
-120.0437423566234
 30
0.0
  0
SPLINE
  5
41E2
330
41CD
100
AcDbEntity
  8
0
 62
     7
100
AcDbSpline
210
0.0
220
0.0
230
1.0
 70
    11
 71
     3
 72
    32
 73
    28
 74
     0
 42
0.000000001
 43
0.0000000001
 40
0.0
 40
0.0
 40
0.0
 40
0.0
 40
1.0
 40
1.0
 40
1.0
 40
2.0
 40
2.0
 40
2.0
 40
3.0
 40
3.0
 40
3.0
 40
4.0
 40
4.0
 40
4.0
 40
5.0
 40
5.0
 40
5.0
 40
6.0
 40
6.0
 40
6.0
 40
7.0
 40
7.0
 40
7.0
 40
8.0
 40
8.0
 40
8.0
 40
9.0
 40
9.0
 40
9.0
 40
9.0
 10
243.8247267610837
 20
-425.0093080478048
 30
0.0
 10
243.8247267610837
 20
-425.0093080478048
 30
0.0
 10
-241.4930845984952
 20
-425.0313566734558
 30
0.0
 10
-241.4930845984952
 20
-425.0313566734558
 30
0.0
 10
-241.4930845984952
 20
-425.0313566734558
 30
0.0
 10
-241.4930845984952
 20
-425.0093080478048
 30
0.0
 10
-241.4930845984952
 20
-425.0093080478048
 30
0.0
 10
-245.2909603668722
 20
-425.0093080478048
 30
0.0
 10
-248.3281585502912
 20
-421.8894275181948
 30
0.0
 10
-248.3612314887676
 20
-418.086039593405
 30
0.0
 10
-248.9896173198198
 20
-268.6845521825353
 30
0.0
 10
-248.9896173198198
 20
-154.2301364284288
 30
0.0
 10
-248.3612314887676
 20
-4.867234112448272
 30
0.0
 10
-248.3061099246402
 20
-2.204862565095481
 30
0.0
 10
-246.2004661749741
 20
-0.0716580333656225
 30
0.0
 10
-243.5160460019703
 20
0.0
 30
0.0
 10
-243.5160460019703
 20
0.0
 30
0.0
 10
245.8476881645588
 20
0.0
 30
0.0
 10
245.8476881645588
 20
0.0
 30
0.0
 10
248.5321083375625
 20
-0.0716580333656225
 30
0.0
 10
250.632239930816
 20
-2.204862565095481
 30
0.0
 10
250.6928736513561
 20
-4.867234112448272
 30
0.0
 10
251.3212594824083
 20
-154.2301364284288
 30
0.0
 10
251.3212594824083
 20
-268.6845521825353
 30
0.0
 10
250.6928736513561
 20
-418.086039593405
 30
0.0
 10
250.6598007128797
 20
-421.8894275181948
 30
0.0
 10
247.6226025294606
 20
-425.0093080478048
 30
0.0
 10
243.8247267610837
 20
-425.0093080478048
 30
0.0
  0
ENDBLK
  5
41E3
330
41CD
100
AcDbEntity
  8
0
100
AcDbBlockEnd
  0
BLOCK
  5
41E6
330
41E5
100
AcDbEntity
  8
0
100
AcDbBlockBegin
  2
811431S
 70
     0
 10
0.0
 20
0.0
 30
0.0
  3
811431S
  1
811431S
  0
LWPOLYLINE
  5
41E7
330
41E5
100
AcDbEntity
  8
0
 62
     7
100
AcDbPolyline
 90
        2
 70
     0
 43
0.0
 10
-76.3102933779546
 20
603.104231297068
 10
-61.22352127628876
 20
623.526770806265
  0
LWPOLYLINE
  5
41E8
330
41E5
100
AcDbEntity
  8
0
 62
     7
100
AcDbPolyline
 90
        2
 70
     0
 43
0.0
 10
-56.63189498447742
 20
599.2843069030401
 10
-76.3102933779546
 20
603.104231297068
  0
LWPOLYLINE
  5
41E9
330
41E5
100
AcDbEntity
  8
0
 62
     7
100
AcDbPolyline
 90
        2
 70
     0
 43
0.0
 10
-66.65299534283639
 20
582.345450246694
 10
-56.63189498447742
 20
599.2843069030401
  0
LWPOLYLINE
  5
41EA
330
41E5
100
AcDbEntity
  8
0
 62
     7
100
AcDbPolyline
 90
        5
 70
     0
 43
0.0
 10
-57.58549804388121
 20
582.874617262317
 10
-74.39757510273427
 20
582.874617262317
 10
-73.44397204333046
 20
566.83975425766
 10
-57.58549804388121
 20
582.874617262317
 10
-57.58549804388121
 20
582.874617262317
  0
LWPOLYLINE
  5
41EB
330
41E5
100
AcDbEntity
  8
0
  6
AI-LINETYPE-6
 62
     7
100
AcDbPolyline
 90
        7
 70
     0
 43
0.0
 10
0.0
 20
580.0027837712802
 10
-20.00361562182874
 20
580.0027837712802
 10
-40.00171908724476
 20
580.0027837712802
 10
-40.00171908724476
 20
600.0008872366961
 10
-40.00171908724476
 20
620.0045028585249
 10
-20.00361562182874
 20
620.0045028585249
 10
0.0
 20
620.0045028585249
  0
LWPOLYLINE
  5
41EC
330
41E5
100
AcDbEntity
  8
0
  6
AI-LINETYPE-5
 62
     7
100
AcDbPolyline
 90
        5
 70
     0
 43
0.0
 10
55.00029668630677
 20
567.5012130271888
 10
0.0
 20
567.5012130271888
 10
0.0
 20
632.5005614462035
 10
55.00029668630677
 20
632.5005614462035
 10
55.00029668630677
 20
567.5012130271888
  0
SPLINE
  5
41ED
330
41E5
100
AcDbEntity
  8
0
  6
AI-LINETYPE-4
 62
     7
100
AcDbSpline
210
0.0
220
0.0
230
1.0
 70
    11
 71
     3
 72
    32
 73
    28
 74
     0
 42
0.000000001
 43
0.0000000001
 40
0.0
 40
0.0
 40
0.0
 40
0.0
 40
1.0
 40
1.0
 40
1.0
 40
2.0
 40
2.0
 40
2.0
 40
3.0
 40
3.0
 40
3.0
 40
4.0
 40
4.0
 40
4.0
 40
5.0
 40
5.0
 40
5.0
 40
6.0
 40
6.0
 40
6.0
 40
7.0
 40
7.0
 40
7.0
 40
8.0
 40
8.0
 40
8.0
 40
9.0
 40
9.0
 40
9.0
 40
9.0
 10
87.71494499591095
 20
933.0178169123049
 30
0.0
 10
86.74480546726895
 20
933.0178169123049
 30
0.0
 10
85.95105494383458
 20
932.2240663888704
 30
0.0
 10
85.95105494383458
 20
931.2539268602284
 30
0.0
 10
85.95105494383458
 20
930.2727630187609
 30
0.0
 10
86.74480546726895
 20
929.490036808152
 30
0.0
 10
87.71494499591095
 20
929.490036808152
 30
0.0
 10
87.71494499591095
 20
929.490036808152
 30
0.0
 10
95.60284082254003
 20
929.490036808152
 30
0.0
 10
95.60284082254003
 20
929.490036808152
 30
0.0
 10
96.01074039708271
 20
929.490036808152
 30
0.0
 10
96.34146978184702
 20
929.1593074233878
 30
0.0
 10
96.34146978184702
 20
928.7514078488451
 30
0.0
 10
96.34146978184702
 20
928.7514078488451
 30
0.0
 10
96.34146978184702
 20
907.9981389548839
 30
0.0
 10
96.34146978184702
 20
907.9981389548839
 30
0.0
 10
96.34146978184702
 20
907.9981389548839
 30
0.0
 10
99.8692498859998
 20
907.9981389548839
 30
0.0
 10
99.8692498859998
 20
907.9981389548839
 30
0.0
 10
99.8692498859998
 20
907.9981389548839
 30
0.0
 10
99.8692498859998
 20
928.7514078488451
 30
0.0
 10
99.8692498859998
 20
928.7514078488451
 30
0.0
 10
99.8692498859998
 20
931.0995864806717
 30
0.0
 10
97.9620437671922
 20
933.0178169123049
 30
0.0
 10
95.60284082254003
 20
933.0178169123049
 30
0.0
 10
95.60284082254003
 20
933.0178169123049
 30
0.0
 10
87.71494499591095
 20
933.0178169123049
 30
0.0
 10
87.71494499591095
 20
933.0178169123049
 30
0.0
  0
LWPOLYLINE
  5
41EE
330
41E5
100
AcDbEntity
  8
0
  6
AI-LINETYPE-3
 62
     7
100
AcDbPolyline
 90
        2
 70
     0
 43
0.0
 10
217.5648136107965
 20
1065.144206125651
 10
238.6763726715857
 20
1076.168518951128
  0
SPLINE
  5
41EF
330
41E5
100
AcDbEntity
  8
0
  6
AI-LINETYPE-2
 62
     7
100
AcDbSpline
210
0.0
220
0.0
230
1.0
 70
    11
 71
     3
 72
    35
 73
    31
 74
     0
 42
0.000000001
 43
0.0000000001
 40
0.0
 40
0.0
 40
0.0
 40
0.0
 40
1.0
 40
1.0
 40
1.0
 40
2.0
 40
2.0
 40
2.0
 40
3.0
 40
3.0
 40
3.0
 40
4.0
 40
4.0
 40
4.0
 40
5.0
 40
5.0
 40
5.0
 40
6.0
 40
6.0
 40
6.0
 40
7.0
 40
7.0
 40
7.0
 40
8.0
 40
8.0
 40
8.0
 40
9.0
 40
9.0
 40
9.0
 40
10.0
 40
10.0
 40
10.0
 40
10.0
 10
102.8182535668149
 20
1084.00129321363
 30
0.0
 10
102.8182535668149
 20
1084.00129321363
 30
0.0
 10
102.8182535668149
 20
907.9981389548839
 30
0.0
 10
102.8182535668149
 20
907.9981389548839
 30
0.0
 10
102.8182535668149
 20
907.9981389548839
 30
0.0
 10
126.6307692698461
 20
907.9981389548839
 30
0.0
 10
126.6307692698461
 20
907.9981389548839
 30
0.0
 10
126.6307692698461
 20
907.9981389548839
 30
0.0
 10
126.6307692698461
 20
1084.00129321363
 30
0.0
 10
126.6307692698461
 20
1084.00129321363
 30
0.0
 10
126.6307692698461
 20
1105.008121302577
 30
0.0
 10
143.7184541493361
 20
1122.095806182067
 30
0.0
 10
164.7252822382833
 20
1122.095806182067
 30
0.0
 10
178.9797187216256
 20
1122.095806182067
 30
0.0
 10
191.9332862915615
 20
1114.235471137502
 30
0.0
 10
198.5313375176098
 20
1101.585072170267
 30
0.0
 10
198.5313375176098
 20
1101.579560013854
 30
0.0
 10
224.1683769932575
 20
1052.493807158416
 30
0.0
 10
224.1683769932575
 20
1052.493807158416
 30
0.0
 10
224.1683769932575
 20
1052.493807158416
 30
0.0
 10
245.2799360540467
 20
1063.518119983893
 30
0.0
 10
245.2799360540467
 20
1063.518119983893
 30
0.0
 10
245.2799360540467
 20
1063.518119983893
 30
0.0
 10
219.6373844219862
 20
1112.603872839331
 30
0.0
 10
219.6373844219862
 20
1112.603872839331
 30
0.0
 10
208.927264512035
 20
1133.142167633196
 30
0.0
 10
187.8873634846113
 20
1145.908321885099
 30
0.0
 10
164.7252822382833
 20
1145.908321885099
 30
0.0
 10
130.5884975741925
 20
1145.908321885099
 30
0.0
 10
102.8182535668149
 20
1118.138077877721
 30
0.0
 10
102.8182535668149
 20
1084.00129321363
 30
0.0
  0
SPLINE
  5
41F0
330
41E5
100
AcDbEntity
  8
0
  6
AI-LINETYPE-1
 62
     7
100
AcDbSpline
210
0.0
220
0.0
230
1.0
 70
    11
 71
     3
 72
    23
 73
    19
 74
     0
 42
0.000000001
 43
0.0000000001
 40
0.0
 40
0.0
 40
0.0
 40
0.0
 40
1.0
 40
1.0
 40
1.0
 40
2.0
 40
2.0
 40
2.0
 40
3.0
 40
3.0
 40
3.0
 40
4.0
 40
4.0
 40
4.0
 40
5.0
 40
5.0
 40
5.0
 40
6.0
 40
6.0
 40
6.0
 40
6.0
 10
140.725353217219
 20
900.0
 30
0.0
 10
140.725353217219
 20
900.0
 30
0.0
 10
88.72366961944213
 20
900.0
 30
0.0
 10
88.72366961944213
 20
900.0
 30
0.0
 10
88.72366961944213
 20
900.0
 30
0.0
 10
88.72366961944213
 20
906.5043445670317
 30
0.0
 10
88.72366961944213
 20
906.5043445670317
 30
0.0
 10
88.72366961944213
 20
907.3311680289426
 30
0.0
 10
89.39615270179625
 20
907.9981389548839
 30
0.0
 10
90.22297616370705
 20
907.9981389548839
 30
0.0
 10
90.22297616370705
 20
907.9981389548839
 30
0.0
 10
139.2260466729541
 20
907.9981389548839
 30
0.0
 10
139.2260466729541
 20
907.9981389548839
 30
0.0
 10
140.0528701348649
 20
907.9981389548839
 30
0.0
 10
140.725353217219
 20
907.3311680289426
 30
0.0
 10
140.725353217219
 20
906.5043445670317
 30
0.0
 10
140.725353217219
 20
906.5043445670317
 30
0.0
 10
140.725353217219
 20
900.0
 30
0.0
 10
140.725353217219
 20
900.0
 30
0.0
  0
LWPOLYLINE
  5
41F1
330
41E5
100
AcDbEntity
  8
0
 62
     7
100
AcDbPolyline
 90
        2
 70
     0
 43
0.0
 10
277.9339506431107
 20
731.2177706419409
 10
277.9339506431107
 20
778.4404146298734
  0
SPLINE
  5
41F2
330
41E5
100
AcDbEntity
  8
0
 62
     7
100
AcDbSpline
210
0.0
220
0.0
230
1.0
 70
     8
 71
     3
 72
    29
 73
    25
 74
     0
 42
0.000000001
 43
0.0000000001
 40
0.0
 40
0.0
 40
0.0
 40
0.0
 40
1.0
 40
1.0
 40
1.0
 40
2.0
 40
2.0
 40
2.0
 40
3.0
 40
3.0
 40
3.0
 40
4.0
 40
4.0
 40
4.0
 40
5.0
 40
5.0
 40
5.0
 40
6.0
 40
6.0
 40
6.0
 40
7.0
 40
7.0
 40
7.0
 40
8.0
 40
8.0
 40
8.0
 40
8.0
 10
168.6609619169788
 20
759.9912271164368
 30
0.0
 10
171.2186024924895
 20
758.916356615953
 30
0.0
 10
173.9416077603824
 20
758.3100194105516
 30
0.0
 10
176.7583196872919
 20
758.0178751206765
 30
0.0
 10
176.7583196872919
 20
758.0178751206765
 30
0.0
 10
237.6841845172928
 20
753.7624903700423
 30
0.0
 10
237.6841845172928
 20
753.7624903700423
 30
0.0
 10
240.6717732929971
 20
753.5530284263582
 30
0.0
 10
243.0420005504748
 20
751.1442160739914
 30
0.0
 10
243.2018530864442
 20
748.1400908290487
 30
0.0
 10
243.2018530864442
 20
748.1400908290487
 30
0.0
 10
243.2128773992697
 20
747.82038575711
 30
0.0
 10
243.2128773992697
 20
747.82038575711
 30
0.0
 10
243.2955597454608
 20
746.2383968666539
 30
0.0
 10
244.5964286588671
 20
744.9981616737876
 30
0.0
 10
246.1839297057359
 20
744.9981616737876
 30
0.0
 10
246.1839297057359
 20
744.9981616737876
 30
0.0
 10
309.6839715804857
 20
744.9981616737876
 30
0.0
 10
309.6839715804857
 20
744.9981616737876
 30
0.0
 10
311.2714726273545
 20
744.9981616737876
 30
0.0
 10
312.5723415407608
 20
746.2383968666539
 30
0.0
 10
312.6550238869518
 20
747.82038575711
 30
0.0
 10
312.6550238869518
 20
747.82038575711
 30
0.0
 10
313.2944340308295
 20
760.0022514292625
 30
0.0
 10
313.2944340308295
 20
760.0022514292625
 30
0.0
  0
LWPOLYLINE
  5
41F3
330
41E5
100
AcDbEntity
  8
0
 62
     7
100
AcDbPolyline
 90
        2
 70
     0
 43
0.0
 10
237.6841845172928
 20
753.7624903700423
 10
251.2881865439319
 20
752.8088873106384
  0
SPLINE
  5
41F4
330
41E5
100
AcDbEntity
  8
0
 62
     7
100
AcDbSpline
210
0.0
220
0.0
230
1.0
 70
    11
 71
     3
 72
    32
 73
    28
 74
     0
 42
0.000000001
 43
0.0000000001
 40
0.0
 40
0.0
 40
0.0
 40
0.0
 40
1.0
 40
1.0
 40
1.0
 40
2.0
 40
2.0
 40
2.0
 40
3.0
 40
3.0
 40
3.0
 40
4.0
 40
4.0
 40
4.0
 40
5.0
 40
5.0
 40
5.0
 40
6.0
 40
6.0
 40
6.0
 40
7.0
 40
7.0
 40
7.0
 40
8.0
 40
8.0
 40
8.0
 40
9.0
 40
9.0
 40
9.0
 40
9.0
 10
60.2037723399321
 20
760.0022514292625
 30
0.0
 10
58.58319835458691
 20
760.0022514292625
 30
0.0
 10
57.26028081552962
 20
761.3141446554941
 30
0.0
 10
57.23272003346593
 20
762.9402307972521
 30
0.0
 10
57.23272003346593
 20
762.9402307972521
 30
0.0
 10
54.98927237348128
 20
892.8727817583288
 30
0.0
 10
54.98927237348128
 20
892.8727817583288
 30
0.0
 10
54.91761434011568
 20
896.7478277164842
 30
0.0
 10
57.97134899277292
 20
899.9283419666344
 30
0.0
 10
61.79678554321359
 20
900.0
 30
0.0
 10
61.79678554321359
 20
900.0
 30
0.0
 10
473.0587754976481
 20
900.0
 30
0.0
 10
473.0587754976481
 20
900.0
 30
0.0
 10
473.0973605925373
 20
900.0
 30
0.0
 10
473.1414578438392
 20
900.0
 30
0.0
 10
473.1800429387283
 20
900.0
 30
0.0
 10
477.005479489169
 20
899.9283419666344
 30
0.0
 10
480.0592141418262
 20
896.7478277164842
 30
0.0
 10
479.9875561084606
 20
892.8727817583288
 30
0.0
 10
479.9875561084606
 20
892.8727817583288
 30
0.0
 10
477.744108448476
 20
762.9402307972521
 30
0.0
 10
477.744108448476
 20
762.9402307972521
 30
0.0
 10
477.7165476664123
 20
761.3141446554941
 30
0.0
 10
476.393630127355
 20
760.0022514292625
 30
0.0
 10
474.7730561420098
 20
760.0022514292625
 30
0.0
 10
474.7730561420098
 20
760.0022514292625
 30
0.0
 10
60.2037723399321
 20
760.0022514292625
 30
0.0
 10
60.2037723399321
 20
760.0022514292625
 30
0.0
  0
ENDBLK
  5
41F5
330
41E5
100
AcDbEntity
  8
0
100
AcDbBlockEnd
  0
BLOCK
  5
41F8
330
41F7
100
AcDbEntity
  8
0
100
AcDbBlockBegin
  2
811431V
 70
     0
 10
0.0
 20
0.0
 30
0.0
  3
811431V
  1
811431V
  0
SPLINE
  5
41F9
330
41F7
100
AcDbEntity
  8
0
  6
AI-LINETYPE-13
 62
     7
100
AcDbSpline
210
0.0
220
0.0
230
1.0
 70
    11
 71
     3
 72
    29
 73
    25
 74
     0
 42
0.000000001
 43
0.0000000001
 40
0.0
 40
0.0
 40
0.0
 40
0.0
 40
1.0
 40
1.0
 40
1.0
 40
2.0
 40
2.0
 40
2.0
 40
3.0
 40
3.0
 40
3.0
 40
4.0
 40
4.0
 40
4.0
 40
5.0
 40
5.0
 40
5.0
 40
6.0
 40
6.0
 40
6.0
 40
7.0
 40
7.0
 40
7.0
 40
8.0
 40
8.0
 40
8.0
 40
8.0
 10
-97.818727700461
 20
685.2518983161129
 30
0.0
 10
-97.818727700461
 20
681.0295865039551
 30
0.0
 10
-101.236264676359
 20
677.6010252152316
 30
0.0
 10
-105.4696008013423
 20
677.6010252152316
 30
0.0
 10
-105.4696008013423
 20
677.6010252152316
 30
0.0
 10
-155.1727151750071
 20
677.6010252152316
 30
0.0
 10
-155.1727151750071
 20
677.6010252152316
 30
0.0
 10
-159.3895148307522
 20
677.6010252152316
 30
0.0
 10
-162.8235882758885
 20
681.0295865039551
 30
0.0
 10
-162.8235882758885
 20
685.2518983161129
 30
0.0
 10
-162.8235882758885
 20
685.2518983161129
 30
0.0
 10
-162.8235882758885
 20
734.9550126897777
 30
0.0
 10
-162.8235882758885
 20
734.9550126897777
 30
0.0
 10
-162.8235882758885
 20
739.1773245019355
 30
0.0
 10
-159.3895148307522
 20
742.6003736342464
 30
0.0
 10
-155.1727151750071
 20
742.6003736342464
 30
0.0
 10
-155.1727151750071
 20
742.6003736342464
 30
0.0
 10
-105.4696008013423
 20
742.6003736342464
 30
0.0
 10
-105.4696008013423
 20
742.6003736342464
 30
0.0
 10
-101.236264676359
 20
742.6003736342464
 30
0.0
 10
-97.818727700461
 20
739.1773245019355
 30
0.0
 10
-97.818727700461
 20
734.9550126897777
 30
0.0
 10
-97.818727700461
 20
734.9550126897777
 30
0.0
 10
-97.818727700461
 20
685.2518983161129
 30
0.0
 10
-97.818727700461
 20
685.2518983161129
 30
0.0
  0
LWPOLYLINE
  5
41FA
330
41F7
100
AcDbEntity
  8
0
  6
AI-LINETYPE-12
 62
     7
100
AcDbPolyline
 90
        5
 70
     0
 43
0.0
 10
194.7830711569475
 20
677.5900009024061
 10
9.72895606848381
 20
677.5900009024061
 10
9.72895606848381
 20
742.589349321421
 10
194.7830711569475
 20
742.589349321421
 10
194.7830711569475
 20
677.5900009024061
  0
SPLINE
  5
41FB
330
41F7
100
AcDbEntity
  8
0
  6
AI-LINETYPE-11
 62
     7
100
AcDbSpline
210
0.0
220
0.0
230
1.0
 70
    11
 71
     3
 72
    17
 73
    13
 74
     0
 42
0.000000001
 43
0.0000000001
 40
0.0
 40
0.0
 40
0.0
 40
0.0
 40
1.0
 40
1.0
 40
1.0
 40
2.0
 40
2.0
 40
2.0
 40
3.0
 40
3.0
 40
3.0
 40
4.0
 40
4.0
 40
4.0
 40
4.0
 10
-130.3128897535556
 20
707.1020863362091
 30
0.0
 10
-131.4153210361034
 20
707.1020863362091
 30
0.0
 10
-132.3138025313797
 20
706.2091169973455
 30
0.0
 10
-132.3138025313797
 20
705.1066857147977
 30
0.0
 10
-132.3138025313797
 20
704.00425443225
 30
0.0
 10
-131.4153210361034
 20
703.1057729369735
 30
0.0
 10
-130.3128897535556
 20
703.1057729369735
 30
0.0
 10
-129.2104584710079
 20
703.1057729369735
 30
0.0
 10
-128.3174891321442
 20
704.00425443225
 30
0.0
 10
-128.3174891321442
 20
705.1066857147977
 30
0.0
 10
-128.3174891321442
 20
706.2091169973455
 30
0.0
 10
-129.2104584710079
 20
707.1020863362091
 30
0.0
 10
-130.3128897535556
 20
707.1020863362091
 30
0.0
  0
LWPOLYLINE
  5
41FC
330
41F7
100
AcDbEntity
  8
0
 62
     7
100
AcDbPolyline
 90
        2
 70
     0
 43
0.0
 10
-190.9355859808558
 20
706.4571640359186
 10
-175.8433017227773
 20
726.8797035451155
  0
LWPOLYLINE
  5
41FD
330
41F7
100
AcDbEntity
  8
0
 62
     7
100
AcDbPolyline
 90
        2
 70
     0
 43
0.0
 10
-171.2571875873787
 20
702.6427517983035
 10
-190.9355859808558
 20
706.4571640359186
  0
LWPOLYLINE
  5
41FE
330
41F7
100
AcDbEntity
  8
0
 62
     7
100
AcDbPolyline
 90
        2
 70
     0
 43
0.0
 10
-181.2727757893249
 20
685.7038951419574
 10
-171.2571875873787
 20
702.6427517983035
  0
LWPOLYLINE
  5
41FF
330
41F7
100
AcDbEntity
  8
0
 62
     7
100
AcDbPolyline
 90
        5
 70
     0
 43
0.0
 10
-172.221814959608
 20
686.2275500011676
 10
-189.0173555492228
 20
686.2275500011676
 10
-188.0692646462317
 20
670.2037113093362
 10
-172.221814959608
 20
686.2275500011676
 10
-172.221814959608
 20
686.2275500011676
  0
SPLINE
  5
4200
330
41F7
100
AcDbEntity
  8
0
  6
AI-LINETYPE-10
 62
     7
100
AcDbSpline
210
0.0
220
0.0
230
1.0
 70
    11
 71
     3
 72
    41
 73
    37
 74
     0
 42
0.000000001
 43
0.0000000001
 40
0.0
 40
0.0
 40
0.0
 40
0.0
 40
1.0
 40
1.0
 40
1.0
 40
2.0
 40
2.0
 40
2.0
 40
3.0
 40
3.0
 40
3.0
 40
4.0
 40
4.0
 40
4.0
 40
5.0
 40
5.0
 40
5.0
 40
6.0
 40
6.0
 40
6.0
 40
7.0
 40
7.0
 40
7.0
 40
8.0
 40
8.0
 40
8.0
 40
9.0
 40
9.0
 40
9.0
 40
10.0
 40
10.0
 40
10.0
 40
11.0
 40
11.0
 40
11.0
 40
12.0
 40
12.0
 40
12.0
 40
12.0
 10
-122.4194817705138
 20
720.8769652116432
 30
0.0
 10
-122.5297248987686
 20
721.0257934347871
 30
0.0
 10
-122.667528809087
 20
721.1029636245654
 30
0.0
 10
-122.816357032231
 20
721.1029636245654
 30
0.0
 10
-122.816357032231
 20
721.1029636245654
 30
0.0
 10
-137.8259589441185
 20
721.1029636245654
 30
0.0
 10
-137.8259589441185
 20
721.1029636245654
 30
0.0
 10
-137.9637628544369
 20
721.1029636245654
 30
0.0
 10
-138.1125910775809
 20
721.0257934347871
 30
0.0
 10
-138.2118098930102
 20
720.8714530552303
 30
0.0
 10
-138.2118098930102
 20
720.8714530552303
 30
0.0
 10
-149.0983188081691
 20
710.6629393788382
 30
0.0
 10
-149.0983188081691
 20
710.6629393788382
 30
0.0
 10
-149.3022685954404
 20
710.3542586197249
 30
0.0
 10
-149.3022685954404
 20
709.8581645425785
 30
0.0
 10
-149.0983188081691
 20
709.549483783465
 30
0.0
 10
-149.0983188081691
 20
709.549483783465
 30
0.0
 10
-138.2118098930102
 20
699.3354579506602
 30
0.0
 10
-138.2118098930102
 20
699.3354579506602
 30
0.0
 10
-138.1125910775809
 20
699.1866297275163
 30
0.0
 10
-137.9637628544369
 20
699.1039473813252
 30
0.0
 10
-137.8259589441185
 20
699.1039473813252
 30
0.0
 10
-137.8259589441185
 20
699.1039473813252
 30
0.0
 10
-122.816357032231
 20
699.1039473813252
 30
0.0
 10
-122.816357032231
 20
699.1039473813252
 30
0.0
 10
-122.667528809087
 20
699.1039473813252
 30
0.0
 10
-122.5297248987686
 20
699.1811175711036
 30
0.0
 10
-122.4194817705138
 20
699.3354579506602
 30
0.0
 10
-122.4194817705138
 20
699.3354579506602
 30
0.0
 10
-111.3235109116708
 20
709.8802131682293
 30
0.0
 10
-111.3235109116708
 20
709.8802131682293
 30
0.0
 10
-111.2408285654797
 20
710.0014806093097
 30
0.0
 10
-111.2408285654797
 20
710.205430396581
 30
0.0
 10
-111.3235109116708
 20
710.3266978376613
 30
0.0
 10
-111.3235109116708
 20
710.3266978376613
 30
0.0
 10
-122.4194817705138
 20
720.8769652116432
 30
0.0
 10
-122.4194817705138
 20
720.8769652116432
 30
0.0
  0
SPLINE
  5
4201
330
41F7
100
AcDbEntity
  8
0
  6
AI-LINETYPE-9
 62
     7
100
AcDbSpline
210
0.0
220
0.0
230
1.0
 70
    11
 71
     3
 72
    17
 73
    13
 74
     0
 42
0.000000001
 43
0.0000000001
 40
0.0
 40
0.0
 40
0.0
 40
0.0
 40
1.0
 40
1.0
 40
1.0
 40
2.0
 40
2.0
 40
2.0
 40
3.0
 40
3.0
 40
3.0
 40
4.0
 40
4.0
 40
4.0
 40
4.0
 10
-137.8259589441185
 20
710.100699424739
 30
0.0
 10
-137.8259589441185
 20
711.2086428636994
 30
0.0
 10
-138.7189282829821
 20
712.101612202563
 30
0.0
 10
-139.8213595655299
 20
712.101612202563
 30
0.0
 10
-140.9237908480776
 20
712.101612202563
 30
0.0
 10
-141.822272343354
 20
711.2086428636994
 30
0.0
 10
-141.822272343354
 20
710.100699424739
 30
0.0
 10
-141.822272343354
 20
708.9982681421913
 30
0.0
 10
-140.9237908480776
 20
708.1052988033275
 30
0.0
 10
-139.8213595655299
 20
708.1052988033275
 30
0.0
 10
-138.7189282829821
 20
708.1052988033275
 30
0.0
 10
-137.8259589441185
 20
708.9982681421913
 30
0.0
 10
-137.8259589441185
 20
710.100699424739
 30
0.0
  0
SPLINE
  5
4202
330
41F7
100
AcDbEntity
  8
0
  6
AI-LINETYPE-8
 62
     7
100
AcDbSpline
210
0.0
220
0.0
230
1.0
 70
    11
 71
     3
 72
    17
 73
    13
 74
     0
 42
0.000000001
 43
0.0000000001
 40
0.0
 40
0.0
 40
0.0
 40
0.0
 40
1.0
 40
1.0
 40
1.0
 40
2.0
 40
2.0
 40
2.0
 40
3.0
 40
3.0
 40
3.0
 40
4.0
 40
4.0
 40
4.0
 40
4.0
 10
-118.8200436329954
 20
710.100699424739
 30
0.0
 10
-118.8200436329954
 20
711.2086428636994
 30
0.0
 10
-119.7185251282718
 20
712.1071243589759
 30
0.0
 10
-120.8209564108196
 20
712.1071243589759
 30
0.0
 10
-121.9233876933673
 20
712.1071243589759
 30
0.0
 10
-122.816357032231
 20
711.2086428636994
 30
0.0
 10
-122.816357032231
 20
710.100699424739
 30
0.0
 10
-122.816357032231
 20
708.9982681421913
 30
0.0
 10
-121.9233876933673
 20
708.1052988033275
 30
0.0
 10
-120.8209564108196
 20
708.1052988033275
 30
0.0
 10
-119.7185251282718
 20
708.1052988033275
 30
0.0
 10
-118.8200436329954
 20
708.9982681421913
 30
0.0
 10
-118.8200436329954
 20
710.100699424739
 30
0.0
  0
SPLINE
  5
4203
330
41F7
100
AcDbEntity
  8
0
  6
AI-LINETYPE-7
 62
     7
100
AcDbSpline
210
0.0
220
0.0
230
1.0
 70
     8
 71
     3
 72
    11
 73
     7
 74
     0
 42
0.000000001
 43
0.0000000001
 40
0.0
 40
0.0
 40
0.0
 40
0.0
 40
1.0
 40
1.0
 40
1.0
 40
2.0
 40
2.0
 40
2.0
 40
2.0
 10
-11.91177000792833
 20
1070.750069197406
 30
0.0
 10
-11.91177000792833
 20
1073.792779537238
 30
0.0
 10
-6.581514756810008
 20
1076.262225610145
 30
0.0
 10
0.0
 20
1076.262225610145
 30
0.0
 10
6.581514756810008
 20
1076.262225610145
 30
0.0
 10
11.91177000792832
 20
1073.792779537238
 30
0.0
 10
11.91177000792832
 20
1070.750069197406
 30
0.0
  0
SPLINE
  5
4204
330
41F7
100
AcDbEntity
  8
0
  6
AI-LINETYPE-6
 62
     7
100
AcDbSpline
210
0.0
220
0.0
230
1.0
 70
    11
 71
     3
 72
    17
 73
    13
 74
     0
 42
0.000000001
 43
0.0000000001
 40
0.0
 40
0.0
 40
0.0
 40
0.0
 40
1.0
 40
1.0
 40
1.0
 40
2.0
 40
2.0
 40
2.0
 40
3.0
 40
3.0
 40
3.0
 40
4.0
 40
4.0
 40
4.0
 40
4.0
 10
11.91177000792832
 20
1058.099670230171
 30
0.0
 10
11.91177000792832
 20
1055.051447733927
 30
0.0
 10
6.581514756810008
 20
1052.587513817432
 30
0.0
 10
0.0
 20
1052.587513817432
 30
0.0
 10
-6.581514756810008
 20
1052.587513817432
 30
0.0
 10
-11.91177000792833
 20
1055.051447733927
 30
0.0
 10
-11.91177000792833
 20
1058.099670230171
 30
0.0
 10
-11.91177000792833
 20
1061.13686841359
 30
0.0
 10
-6.581514756810008
 20
1063.61182664291
 30
0.0
 10
0.0
 20
1063.61182664291
 30
0.0
 10
6.581514756810008
 20
1063.61182664291
 30
0.0
 10
11.91177000792832
 20
1061.13686841359
 30
0.0
 10
11.91177000792832
 20
1058.099670230171
 30
0.0
  0
SPLINE
  5
4205
330
41F7
100
AcDbEntity
  8
0
  6
AI-LINETYPE-5
 62
     7
100
AcDbSpline
210
0.0
220
0.0
230
1.0
 70
    11
 71
     3
 72
    20
 73
    16
 74
     0
 42
0.000000001
 43
0.0000000001
 40
0.0
 40
0.0
 40
0.0
 40
0.0
 40
1.0
 40
1.0
 40
1.0
 40
2.0
 40
2.0
 40
2.0
 40
3.0
 40
3.0
 40
3.0
 40
4.0
 40
4.0
 40
4.0
 40
5.0
 40
5.0
 40
5.0
 40
5.0
 10
-11.91177000792833
 20
1134.0957706926
 30
0.0
 10
-11.91177000792833
 20
1134.0957706926
 30
0.0
 10
-11.91177000792833
 20
908.0918456139004
 30
0.0
 10
-11.91177000792833
 20
908.0918456139004
 30
0.0
 10
-11.91177000792833
 20
908.0918456139004
 30
0.0
 10
11.91177000792832
 20
908.0918456139004
 30
0.0
 10
11.91177000792832
 20
908.0918456139004
 30
0.0
 10
11.91177000792832
 20
908.0918456139004
 30
0.0
 10
11.91177000792832
 20
1134.0957706926
 30
0.0
 10
11.91177000792832
 20
1134.0957706926
 30
0.0
 10
11.91177000792832
 20
1140.671773292997
 30
0.0
 10
6.581514756810008
 20
1146.002028544115
 30
0.0
 10
0.0
 20
1146.002028544115
 30
0.0
 10
-6.581514756810008
 20
1146.002028544115
 30
0.0
 10
-11.91177000792833
 20
1140.671773292997
 30
0.0
 10
-11.91177000792833
 20
1134.0957706926
 30
0.0
  0
SPLINE
  5
4206
330
41F7
100
AcDbEntity
  8
0
  6
AI-LINETYPE-4
 62
     7
100
AcDbSpline
210
0.0
220
0.0
230
1.0
 70
    11
 71
     3
 72
    23
 73
    19
 74
     0
 42
0.000000001
 43
0.0000000001
 40
0.0
 40
0.0
 40
0.0
 40
0.0
 40
1.0
 40
1.0
 40
1.0
 40
2.0
 40
2.0
 40
2.0
 40
3.0
 40
3.0
 40
3.0
 40
4.0
 40
4.0
 40
4.0
 40
5.0
 40
5.0
 40
5.0
 40
6.0
 40
6.0
 40
6.0
 40
6.0
 10
26.01737826812666
 20
900.0937066590166
 30
0.0
 10
26.01737826812666
 20
900.0937066590166
 30
0.0
 10
-26.02289042453941
 20
900.0937066590166
 30
0.0
 10
-26.02289042453941
 20
900.0937066590166
 30
0.0
 10
-26.02289042453941
 20
900.0937066590166
 30
0.0
 10
-26.02289042453941
 20
906.5980512260483
 30
0.0
 10
-26.02289042453941
 20
906.5980512260483
 30
0.0
 10
-26.02289042453941
 20
907.424874687959
 30
0.0
 10
-25.33938302935981
 20
908.0918456139004
 30
0.0
 10
-24.51255956744901
 20
908.0918456139004
 30
0.0
 10
-24.51255956744901
 20
908.0918456139004
 30
0.0
 10
24.52358388027448
 20
908.0918456139004
 30
0.0
 10
24.52358388027448
 20
908.0918456139004
 30
0.0
 10
25.35040734218529
 20
908.0918456139004
 30
0.0
 10
26.01737826812666
 20
907.424874687959
 30
0.0
 10
26.01737826812666
 20
906.5980512260483
 30
0.0
 10
26.01737826812666
 20
906.5980512260483
 30
0.0
 10
26.01737826812666
 20
900.0937066590166
 30
0.0
 10
26.01737826812666
 20
900.0937066590166
 30
0.0
  0
LWPOLYLINE
  5
4207
330
41F7
100
AcDbEntity
  8
0
 62
     7
100
AcDbPolyline
 90
        3
 70
     0
 43
0.0
 10
0.0
 20
549.5150466524223
 10
0.0
 20
579.9972716148674
 10
0.0
 20
610.4794965773123
  0
SPLINE
  5
4208
330
41F7
100
AcDbEntity
  8
0
  6
AI-LINETYPE-3
 62
     7
100
AcDbSpline
210
0.0
220
0.0
230
1.0
 70
    11
 71
     3
 72
    17
 73
    13
 74
     0
 42
0.000000001
 43
0.0000000001
 40
0.0
 40
0.0
 40
0.0
 40
0.0
 40
1.0
 40
1.0
 40
1.0
 40
2.0
 40
2.0
 40
2.0
 40
3.0
 40
3.0
 40
3.0
 40
4.0
 40
4.0
 40
4.0
 40
4.0
 10
19.9705426833523
 20
579.9972716148674
 30
0.0
 10
19.9705426833523
 20
591.0215844403449
 30
0.0
 10
11.00777635623917
 20
599.9788386110451
 30
0.0
 10
0.0
 20
599.9788386110451
 30
0.0
 10
-11.0243128254774
 20
599.9788386110451
 30
0.0
 10
-19.97054268335232
 20
591.0215844403449
 30
0.0
 10
-19.97054268335232
 20
579.9972716148674
 30
0.0
 10
-19.97054268335232
 20
568.9564223201517
 30
0.0
 10
-11.0243128254774
 20
559.9991681494514
 30
0.0
 10
0.0
 20
559.9991681494514
 30
0.0
 10
11.00777635623917
 20
559.9991681494514
 30
0.0
 10
19.9705426833523
 20
568.9564223201517
 30
0.0
 10
19.9705426833523
 20
579.9972716148674
 30
0.0
  0
LWPOLYLINE
  5
4209
330
41F7
100
AcDbEntity
  8
0
 62
     7
100
AcDbPolyline
 90
        3
 70
     0
 43
0.0
 10
-74.35347785143234
 20
649.9961459002362
 10
-59.96674961418434
 20
649.9961459002362
 10
-45.5910456897618
 20
649.9961459002362
  0
SPLINE
  5
420A
330
41F7
100
AcDbEntity
  8
0
  6
AI-LINETYPE-2
 62
     7
100
AcDbSpline
210
0.0
220
0.0
230
1.0
 70
    11
 71
     3
 72
    17
 73
    13
 74
     0
 42
0.000000001
 43
0.0000000001
 40
0.0
 40
0.0
 40
0.0
 40
0.0
 40
1.0
 40
1.0
 40
1.0
 40
2.0
 40
2.0
 40
2.0
 40
3.0
 40
3.0
 40
3.0
 40
4.0
 40
4.0
 40
4.0
 40
4.0
 10
-49.97872219430181
 20
649.9961459002362
 30
0.0
 10
-49.97872219430181
 20
655.5083023129748
 30
0.0
 10
-54.46010535785838
 20
659.9896854765313
 30
0.0
 10
-59.96674961418434
 20
659.9896854765313
 30
0.0
 10
-65.46788171409754
 20
659.9896854765313
 30
0.0
 10
-69.9437527212414
 20
655.5083023129748
 30
0.0
 10
-69.9437527212414
 20
649.9961459002362
 30
0.0
 10
-69.9437527212414
 20
644.4839894874974
 30
0.0
 10
-65.46788171409754
 20
640.0081184803537
 30
0.0
 10
-59.96674961418434
 20
640.0081184803537
 30
0.0
 10
-54.46010535785838
 20
640.0081184803537
 30
0.0
 10
-49.97872219430181
 20
644.4839894874974
 30
0.0
 10
-49.97872219430181
 20
649.9961459002362
 30
0.0
  0
LWPOLYLINE
  5
420B
330
41F7
100
AcDbEntity
  8
0
 62
     7
100
AcDbPolyline
 90
        3
 70
     0
 43
0.0
 10
-59.96674961418434
 20
634.7550334190136
 10
-59.96674961418434
 20
649.9961459002362
 10
-59.96674961418434
 20
665.2372583814586
  0
LWPOLYLINE
  5
420C
330
41F7
100
AcDbEntity
  8
0
 62
     7
100
AcDbPolyline
 90
        3
 70
     0
 43
0.0
 10
59.95572530135885
 20
634.7550334190136
 10
59.95572530135885
 20
649.9961459002362
 10
59.95572530135885
 20
665.2372583814586
  0
LWPOLYLINE
  5
420D
330
41F7
100
AcDbEntity
  8
0
 62
     7
100
AcDbPolyline
 90
        3
 70
     0
 43
0.0
 10
44.72563713296182
 20
649.9961459002362
 10
59.95572530135885
 20
649.9961459002362
 10
75.18030131334314
 20
649.9961459002362
  0
SPLINE
  5
420E
330
41F7
100
AcDbEntity
  8
0
  6
AI-LINETYPE-1
 62
     7
100
AcDbSpline
210
0.0
220
0.0
230
1.0
 70
    11
 71
     3
 72
    17
 73
    13
 74
     0
 42
0.000000001
 43
0.0000000001
 40
0.0
 40
0.0
 40
0.0
 40
0.0
 40
1.0
 40
1.0
 40
1.0
 40
2.0
 40
2.0
 40
2.0
 40
3.0
 40
3.0
 40
3.0
 40
4.0
 40
4.0
 40
4.0
 40
4.0
 10
69.94375272124137
 20
649.9961459002362
 30
0.0
 10
69.94375272124137
 20
655.5083023129748
 30
0.0
 10
65.46788171409754
 20
659.9896854765313
 30
0.0
 10
59.95572530135885
 20
659.9896854765313
 30
0.0
 10
54.4380567322074
 20
659.9896854765313
 30
0.0
 10
49.97321003788906
 20
655.5083023129748
 30
0.0
 10
49.97321003788906
 20
649.9961459002362
 30
0.0
 10
49.97321003788906
 20
644.4839894874974
 30
0.0
 10
54.4380567322074
 20
640.0081184803537
 30
0.0
 10
59.95572530135885
 20
640.0081184803537
 30
0.0
 10
65.46788171409754
 20
640.0081184803537
 30
0.0
 10
69.94375272124137
 20
644.4839894874974
 30
0.0
 10
69.94375272124137
 20
649.9961459002362
 30
0.0
  0
LWPOLYLINE
  5
420F
330
41F7
100
AcDbEntity
  8
0
 62
     7
100
AcDbPolyline
 90
        3
 70
     0
 43
0.0
 10
30.46017633679406
 20
579.9972716148674
 10
0.0165364692382184
 20
579.9972716148674
 10
-30.45466418038133
 20
579.9972716148674
  0
SPLINE
  5
4210
330
41F7
100
AcDbEntity
  8
0
 62
     7
100
AcDbSpline
210
0.0
220
0.0
230
1.0
 70
    11
 71
     3
 72
    38
 73
    34
 74
     0
 42
0.000000001
 43
0.0000000001
 40
0.0
 40
0.0
 40
0.0
 40
0.0
 40
1.0
 40
1.0
 40
1.0
 40
2.0
 40
2.0
 40
2.0
 40
3.0
 40
3.0
 40
3.0
 40
4.0
 40
4.0
 40
4.0
 40
5.0
 40
5.0
 40
5.0
 40
6.0
 40
6.0
 40
6.0
 40
7.0
 40
7.0
 40
7.0
 40
8.0
 40
8.0
 40
8.0
 40
9.0
 40
9.0
 40
9.0
 40
10.0
 40
10.0
 40
10.0
 40
11.0
 40
11.0
 40
11.0
 40
11.0
 10
-243.1191707402531
 20
900.0
 30
0.0
 10
-246.9501194471065
 20
900.0
 30
0.0
 10
-250.0479513510657
 20
896.9021680960409
 30
0.0
 10
-250.0479513510657
 20
893.0822437020129
 30
0.0
 10
-250.0479513510657
 20
893.0436586071236
 30
0.0
 10
-250.0479513510657
 20
893.0105856686473
 30
0.0
 10
-250.0479513510657
 20
892.9775127301709
 30
0.0
 10
-250.0479513510657
 20
892.9775127301709
 30
0.0
 10
-250.5330211153867
 20
892.9775127301709
 30
0.0
 10
-250.5330211153867
 20
892.9775127301709
 30
0.0
 10
-250.5330211153867
 20
892.9775127301709
 30
0.0
 10
-248.2730369861638
 20
762.9236943280139
 30
0.0
 10
-248.2730369861638
 20
762.9236943280139
 30
0.0
 10
-248.2509883605128
 20
761.3251689683196
 30
0.0
 10
-246.9280708214556
 20
760.0022514292625
 30
0.0
 10
-245.3130089925231
 20
760.0022514292625
 30
0.0
 10
-245.3130089925231
 20
760.0022514292625
 30
0.0
 10
244.7783298204875
 20
760.0022514292625
 30
0.0
 10
244.7783298204875
 20
760.0022514292625
 30
0.0
 10
246.4154402750708
 20
760.0022514292625
 30
0.0
 10
247.7383578141282
 20
761.3251689683196
 30
0.0
 10
247.7714307526046
 20
762.9236943280139
 30
0.0
 10
247.7714307526046
 20
762.9236943280139
 30
0.0
 10
249.998341943351
 20
892.9775127301709
 30
0.0
 10
249.998341943351
 20
892.9775127301709
 30
0.0
 10
250.0644878203039
 20
896.7974371241988
 30
0.0
 10
247.0383139497104
 20
899.9338541230471
 30
0.0
 10
243.2128773992697
 20
900.0
 30
0.0
 10
243.1412193659041
 20
900.0
 30
0.0
 10
243.1136585838404
 20
900.0
 30
0.0
 10
243.0695613325385
 20
900.0
 30
0.0
 10
243.0695613325385
 20
900.0
 30
0.0
 10
-243.1191707402531
 20
900.0
 30
0.0
 10
-243.1191707402531
 20
900.0
 30
0.0
  0
LWPOLYLINE
  5
4211
330
41F7
100
AcDbEntity
  8
0
 62
     7
100
AcDbPolyline
 90
        2
 70
     0
 43
0.0
 10
0.0
 20
713.3969689595566
 10
0.0
 20
776.7867677060518
  0
SPLINE
  5
4212
330
41F7
100
AcDbEntity
  8
0
 62
     7
100
AcDbSpline
210
0.0
220
0.0
230
1.0
 70
     8
 71
     3
 72
    20
 73
    16
 74
     0
 42
0.000000001
 43
0.0000000001
 40
0.0
 40
0.0
 40
0.0
 40
0.0
 40
1.0
 40
1.0
 40
1.0
 40
2.0
 40
2.0
 40
2.0
 40
3.0
 40
3.0
 40
3.0
 40
4.0
 40
4.0
 40
4.0
 40
5.0
 40
5.0
 40
5.0
 40
5.0
 10
-35.42111710825889
 20
760.0959580882791
 30
0.0
 10
-35.42111710825889
 20
760.0959580882791
 30
0.0
 10
-34.68800030536465
 20
747.9030681033009
 30
0.0
 10
-34.68800030536465
 20
747.9030681033009
 30
0.0
 10
-34.61083011558631
 20
746.3321035256704
 30
0.0
 10
-33.30996120217998
 20
745.0918683328043
 30
0.0
 10
-31.72246015531122
 20
745.0918683328043
 30
0.0
 10
-31.72246015531122
 20
745.0918683328043
 30
0.0
 10
31.71694799889849
 20
745.0918683328043
 30
0.0
 10
31.71694799889849
 20
745.0918683328043
 30
0.0
 10
33.29342473294175
 20
745.0918683328043
 30
0.0
 10
34.59429364634809
 20
746.3321035256704
 30
0.0
 10
34.67697599253915
 20
747.9030681033009
 30
0.0
 10
34.67697599253915
 20
747.9030681033009
 30
0.0
 10
35.41560495184615
 20
760.0959580882791
 30
0.0
 10
35.41560495184615
 20
760.0959580882791
 30
0.0
  0
SPLINE
  5
4213
330
41F7
100
AcDbEntity
  8
0
 62
     7
100
AcDbSpline
210
0.0
220
0.0
230
1.0
 70
    11
 71
     3
 72
    35
 73
    31
 74
     0
 42
0.000000001
 43
0.0000000001
 40
0.0
 40
0.0
 40
0.0
 40
0.0
 40
1.0
 40
1.0
 40
1.0
 40
2.0
 40
2.0
 40
2.0
 40
3.0
 40
3.0
 40
3.0
 40
4.0
 40
4.0
 40
4.0
 40
5.0
 40
5.0
 40
5.0
 40
6.0
 40
6.0
 40
6.0
 40
7.0
 40
7.0
 40
7.0
 40
8.0
 40
8.0
 40
8.0
 40
9.0
 40
9.0
 40
9.0
 40
10.0
 40
10.0
 40
10.0
 40
10.0
 10
-250.0479513510657
 20
892.9775127301709
 30
0.0
 10
-250.0479513510657
 20
892.9775127301709
 30
0.0
 10
-247.804503691081
 20
763.0504739255069
 30
0.0
 10
-247.804503691081
 20
763.0504739255069
 30
0.0
 10
-247.7769429090173
 20
761.4078513145108
 30
0.0
 10
-246.45402536996
 20
760.0959580882791
 30
0.0
 10
-244.8279392282021
 20
760.0959580882791
 30
0.0
 10
-244.8279392282021
 20
760.0959580882791
 30
0.0
 10
244.7893541333129
 20
760.0959580882791
 30
0.0
 10
244.7893541333129
 20
760.0959580882791
 30
0.0
 10
246.4099281186581
 20
760.0959580882791
 30
0.0
 10
247.7328456577154
 20
761.4078513145108
 30
0.0
 10
247.7548942833664
 20
763.0504739255069
 30
0.0
 10
247.7548942833664
 20
763.0504739255069
 30
0.0
 10
249.998341943351
 20
892.9775127301709
 30
0.0
 10
249.998341943351
 20
892.9775127301709
 30
0.0
 10
250.0644878203039
 20
896.8415343755006
 30
0.0
 10
247.0217774804721
 20
900.0275607820636
 30
0.0
 10
243.1963409300315
 20
900.0937066590166
 30
0.0
 10
243.1577558351423
 20
900.0937066590166
 30
0.0
 10
243.1136585838404
 20
900.0937066590166
 30
0.0
 10
243.0805856453639
 20
900.0937066590166
 30
0.0
 10
243.0805856453639
 20
900.0937066590166
 30
0.0
 10
243.1963409300315
 20
900.0937066590166
 30
0.0
 10
243.1963409300315
 20
900.0937066590166
 30
0.0
 10
243.1963409300315
 20
900.0937066590166
 30
0.0
 10
-243.1191707402531
 20
900.0937066590166
 30
0.0
 10
-243.1191707402531
 20
900.0937066590166
 30
0.0
 10
-246.9501194471065
 20
900.0881945026038
 30
0.0
 10
-250.0920486023676
 20
896.8415343755006
 30
0.0
 10
-250.0479513510657
 20
892.9775127301709
 30
0.0
  0
ENDBLK
  5
4214
330
41F7
100
AcDbEntity
  8
0
100
AcDbBlockEnd
  0
BLOCK
  5
4292
330
4291
100
AcDbEntity
  8
0
100
AcDbBlockBegin
  2
*D29
 70
     1
 10
0.0
 20
0.0
 30
0.0
  3
*D29
  1
*D29
  0
LINE
  5
4294
330
4291
100
AcDbEntity
  8
MODEL
  6
Continuous
 62
     0
370
    -2
100
AcDbLine
 10
283.3133823206383
 20
2259.007478683714
 30
0.0
 11
871.5608599082396
 21
2259.007478683714
 31
0.0
  0
LINE
  5
4295
330
4291
100
AcDbEntity
  8
MODEL
  6
Continuous
 62
     0
370
    -2
100
AcDbLine
 10
779.2599635047861
 20
1837.879491469805
 30
0.0
 11
871.5608599082396
 21
1837.879491469805
 31
0.0
  0
LINE
  5
4296
330
4291
100
AcDbEntity
  8
MODEL
  6
Continuous
 62
     0
370
    -2
100
AcDbLine
 10
871.5608599082396
 20
2250.007478683714
 30
0.0
 11
871.5608599082396
 21
1846.879491469805
 31
0.0
  0
INSERT
  5
4297
330
4291
100
AcDbEntity
  8
MODEL
 62
     0
370
    -2
100
AcDbBlockReference
  2
_DOT
 10
871.5608599082396
 20
2259.007478683714
 30
0.0
 41
9.0
 42
9.0
 43
9.0
 50
90.0
  0
INSERT
  5
4298
330
4291
100
AcDbEntity
  8
MODEL
 62
     0
370
    -2
100
AcDbBlockReference
  2
_DOT
 10
871.5608599082396
 20
1837.879491469805
 30
0.0
 41
9.0
 42
9.0
 43
9.0
 50
270.0
  0
MTEXT
  5
4299
330
4291
100
AcDbEntity
  8
MODEL
  6
Continuous
 62
     0
370
     0
100
AcDbMText
 10
849.3445513144896
 20
2048.443485076759
 30
0.0
 40
24.4326171875
 41
0.0
 46
0.0
 71
     5
 72
     1
  1
\A1;421
  7
ＭＳ ゴシック
 11
0.0
 21
1.0
 31
0.0
 73
     1
 44
1.0
  0
POINT
  5
429A
330
4291
100
AcDbEntity
  8
Defpoints
 62
     0
100
AcDbPoint
 10
258.3133823206383
 20
2259.007478683714
 30
0.0
  0
POINT
  5
429B
330
4291
100
AcDbEntity
  8
Defpoints
 62
     0
100
AcDbPoint
 10
754.2599635047861
 20
1837.879491469805
 30
0.0
  0
POINT
  5
429C
330
4291
100
AcDbEntity
  8
Defpoints
 62
     0
100
AcDbPoint
 10
871.5608599082396
 20
1837.879491469805
 30
0.0
  0
ENDBLK
  5
4293
330
4291
100
AcDbEntity
  8
0
100
AcDbBlockEnd
  0
BLOCK
  5
42A3
330
42A2
100
AcDbEntity
  8
0
100
AcDbBlockBegin
  2
*D30
 70
     1
 10
0.0
 20
0.0
 30
0.0
  3
*D30
  1
*D30
  0
LINE
  5
42A5
330
42A2
100
AcDbEntity
  8
MODEL
  6
Continuous
 62
     0
370
    -2
100
AcDbLine
 10
258.3133823206383
 20
2234.007478683714
 30
0.0
 11
258.3133823206383
 21
1745.013787364848
 31
0.0
  0
LINE
  5
42A6
330
42A2
100
AcDbEntity
  8
MODEL
  6
Continuous
 62
     0
370
    -2
100
AcDbLine
 10
754.4922088719675
 20
2234.007478683714
 30
0.0
 11
754.4922088719675
 21
1745.013787364848
 31
0.0
  0
LINE
  5
42A7
330
42A2
100
AcDbEntity
  8
MODEL
  6
Continuous
 62
     0
370
    -2
100
AcDbLine
 10
267.3133823206383
 20
1745.013787364848
 30
0.0
 11
745.4922088719675
 21
1745.013787364848
 31
0.0
  0
INSERT
  5
42A8
330
42A2
100
AcDbEntity
  8
MODEL
 62
     0
370
    -2
100
AcDbBlockReference
  2
_DOT
 10
258.3133823206383
 20
1745.013787364848
 30
0.0
 41
9.0
 42
9.0
 43
9.0
 50
180.0
  0
INSERT
  5
42A9
330
42A2
100
AcDbEntity
  8
MODEL
 62
     0
370
    -2
100
AcDbBlockReference
  2
_DOT
 10
754.4922088719675
 20
1745.013787364848
 30
0.0
 41
9.0
 42
9.0
 43
9.0
  0
MTEXT
  5
42AA
330
42A2
100
AcDbEntity
  8
MODEL
  6
Continuous
 62
     0
370
     0
100
AcDbMText
 10
506.4027955963029
 20
1767.230095958598
 30
0.0
 40
24.4326171875
 41
0.0
 46
0.0
 71
     5
 72
     1
  1
\A1;496
  7
ＭＳ ゴシック
 73
     1
 44
1.0
  0
POINT
  5
42AB
330
42A2
100
AcDbEntity
  8
Defpoints
 62
     0
100
AcDbPoint
 10
258.3133823206383
 20
2259.007478683714
 30
0.0
  0
POINT
  5
42AC
330
42A2
100
AcDbEntity
  8
Defpoints
 62
     0
100
AcDbPoint
 10
754.4922088719675
 20
2259.007478683714
 30
0.0
  0
POINT
  5
42AD
330
42A2
100
AcDbEntity
  8
Defpoints
 62
     0
100
AcDbPoint
 10
754.4922088719675
 20
1745.013787364848
 30
0.0
  0
ENDBLK
  5
42A4
330
42A2
100
AcDbEntity
  8
0
100
AcDbBlockEnd
  0
BLOCK
  5
42B5
330
42B4
100
AcDbEntity
  8
0
100
AcDbBlockBegin
  2
*D31
 70
     1
 10
0.0
 20
0.0
 30
0.0
  3
*D31
  1
*D31
  0
LINE
  5
42B7
330
42B4
100
AcDbEntity
  8
MODEL
  6
Continuous
 62
     0
370
    -2
100
AcDbLine
 10
530.2380080443359
 20
2035.468865560612
 30
0.0
 11
606.1043461248103
 21
2035.468865560612
 31
0.0
  0
LINE
  5
42B8
330
42B4
100
AcDbEntity
  8
MODEL
  6
Continuous
 62
     0
370
    -2
100
AcDbLine
 10
530.2380080443359
 20
2200.745363440169
 30
0.0
 11
606.1043461248103
 21
2200.745363440169
 31
0.0
  0
LINE
  5
42B9
330
42B4
100
AcDbEntity
  8
MODEL
  6
Continuous
 62
     0
370
    -2
100
AcDbLine
 10
606.1043461248103
 20
2044.468865560612
 30
0.0
 11
606.1043461248103
 21
2191.745363440169
 31
0.0
  0
INSERT
  5
42BA
330
42B4
100
AcDbEntity
  8
MODEL
 62
     0
370
    -2
100
AcDbBlockReference
  2
_DOT
 10
606.1043461248103
 20
2035.468865560612
 30
0.0
 41
9.0
 42
9.0
 43
9.0
 50
270.0
  0
INSERT
  5
42BB
330
42B4
100
AcDbEntity
  8
MODEL
 62
     0
370
    -2
100
AcDbBlockReference
  2
_DOT
 10
606.1043461248103
 20
2200.745363440169
 30
0.0
 41
9.0
 42
9.0
 43
9.0
 50
90.0
  0
MTEXT
  5
42BC
330
42B4
100
AcDbEntity
  8
MODEL
  6
Continuous
 62
     0
370
     0
100
AcDbMText
 10
583.8880375310603
 20
2118.107114500391
 30
0.0
 40
24.4326171875
 41
0.0
 46
0.0
 71
     5
 72
     1
  1
\A1;165
  7
ＭＳ ゴシック
 11
0.0
 21
1.0
 31
0.0
 73
     1
 44
1.0
  0
POINT
  5
42BD
330
42B4
100
AcDbEntity
  8
Defpoints
 62
     0
100
AcDbPoint
 10
505.2380080443359
 20
2035.468865560612
 30
0.0
  0
POINT
  5
42BE
330
42B4
100
AcDbEntity
  8
Defpoints
 62
     0
100
AcDbPoint
 10
505.2380080443359
 20
2200.745363440169
 30
0.0
  0
POINT
  5
42BF
330
42B4
100
AcDbEntity
  8
Defpoints
 62
     0
100
AcDbPoint
 10
606.1043461248103
 20
2200.745363440169
 30
0.0
  0
ENDBLK
  5
42B6
330
42B4
100
AcDbEntity
  8
0
100
AcDbBlockEnd
  0
BLOCK
  5
42CF
330
42CE
100
AcDbEntity
  8
0
100
AcDbBlockBegin
  2
*D32
 70
     1
 10
0.0
 20
0.0
 30
0.0
  3
*D32
  1
*D32
  0
LINE
  5
42D1
330
42CE
100
AcDbEntity
  8
MODEL
  6
Continuous
 62
     0
370
    -2
100
AcDbLine
 10
781.0125805569601
 20
2235.468865560612
 30
0.0
 11
894.1488116651103
 21
2235.468865560612
 31
0.0
  0
LINE
  5
42D2
330
42CE
100
AcDbEntity
  8
MODEL
  6
Continuous
 62
     0
370
    -2
100
AcDbLine
 10
774.0627348054195
 20
1835.460270124388
 30
0.0
 11
894.1488116651103
 21
1835.460270124388
 31
0.0
  0
LINE
  5
42D3
330
42CE
100
AcDbEntity
  8
MODEL
  6
Continuous
 62
     0
370
    -2
100
AcDbLine
 10
894.1488116651103
 20
2226.468865560612
 30
0.0
 11
894.1488116651103
 21
1844.460270124388
 31
0.0
  0
INSERT
  5
42D4
330
42CE
100
AcDbEntity
  8
MODEL
 62
     0
370
    -2
100
AcDbBlockReference
  2
_DOT
 10
894.1488116651103
 20
2235.468865560612
 30
0.0
 41
9.0
 42
9.0
 43
9.0
 50
90.0
  0
INSERT
  5
42D5
330
42CE
100
AcDbEntity
  8
MODEL
 62
     0
370
    -2
100
AcDbBlockReference
  2
_DOT
 10
894.1488116651103
 20
1835.460270124388
 30
0.0
 41
9.0
 42
9.0
 43
9.0
 50
270.0
  0
MTEXT
  5
42D6
330
42CE
100
AcDbEntity
  8
MODEL
  6
Continuous
 62
     0
370
     0
100
AcDbMText
 10
871.9325030713603
 20
2035.4645678425
 30
0.0
 40
24.4326171875
 41
0.0
 46
0.0
 71
     5
 72
     1
  1
\A1;400
  7
ＭＳ ゴシック
 11
0.0
 21
1.0
 31
0.0
 73
     1
 44
1.0
  0
POINT
  5
42D7
330
42CE
100
AcDbEntity
  8
Defpoints
 62
     0
100
AcDbPoint
 10
756.0125805569601
 20
2235.468865560612
 30
0.0
  0
POINT
  5
42D8
330
42CE
100
AcDbEntity
  8
Defpoints
 62
     0
100
AcDbPoint
 10
749.0627348054195
 20
1835.460270124388
 30
0.0
  0
POINT
  5
42D9
330
42CE
100
AcDbEntity
  8
Defpoints
 62
     0
100
AcDbPoint
 10
894.1488116651103
 20
1835.460270124388
 30
0.0
  0
ENDBLK
  5
42D0
330
42CE
100
AcDbEntity
  8
0
100
AcDbBlockEnd
  0
BLOCK
  5
42E5
330
42E4
100
AcDbEntity
  8
0
100
AcDbBlockBegin
  2
*D33
 70
     1
 10
0.0
 20
0.0
 30
0.0
  3
*D33
  1
*D33
  0
LINE
  5
42E7
330
42E4
100
AcDbEntity
  8
MODEL
  6
Continuous
 62
     0
370
    -2
100
AcDbLine
 10
152.1166690675429
 20
2115.468865560612
 30
0.0
 11
97.36261860743421
 21
2115.468865560612
 31
0.0
  0
LINE
  5
42E8
330
42E4
100
AcDbEntity
  8
MODEL
  6
Continuous
 62
     0
370
    -2
100
AcDbLine
 10
152.1166690675429
 20
2235.468865560612
 30
0.0
 11
97.36261860743423
 21
2235.468865560612
 31
0.0
  0
LINE
  5
42E9
330
42E4
100
AcDbEntity
  8
MODEL
  6
Continuous
 62
     0
370
    -2
100
AcDbLine
 10
97.36261860743421
 20
2124.468865560612
 30
0.0
 11
97.36261860743423
 21
2226.468865560612
 31
0.0
  0
INSERT
  5
42EA
330
42E4
100
AcDbEntity
  8
MODEL
 62
     0
370
    -2
100
AcDbBlockReference
  2
_DOT
 10
97.36261860743421
 20
2115.468865560612
 30
0.0
 41
9.0
 42
9.0
 43
9.0
 50
270.0
  0
INSERT
  5
42EB
330
42E4
100
AcDbEntity
  8
MODEL
 62
     0
370
    -2
100
AcDbBlockReference
  2
_DOT
 10
97.36261860743423
 20
2235.468865560612
 30
0.0
 41
9.0
 42
9.0
 43
9.0
 50
90.0
  0
MTEXT
  5
42EC
330
42E4
100
AcDbEntity
  8
MODEL
  6
Continuous
 62
     0
370
     0
100
AcDbMText
 10
75.14631001368423
 20
2175.468865560612
 30
0.0
 40
24.4326171875
 41
0.0
 46
0.0
 71
     5
 72
     1
  1
\A1;120
  7
ＭＳ ゴシック
 11
1.184237892933500E-16
 21
1.0
 31
0.0
 73
     1
 44
1.0
  0
POINT
  5
42ED
330
42E4
100
AcDbEntity
  8
Defpoints
 62
     0
100
AcDbPoint
 10
177.1166690675429
 20
2115.468865560612
 30
0.0
  0
POINT
  5
42EE
330
42E4
100
AcDbEntity
  8
Defpoints
 62
     0
100
AcDbPoint
 10
177.1166690675429
 20
2235.468865560612
 30
0.0
  0
POINT
  5
42EF
330
42E4
100
AcDbEntity
  8
Defpoints
 62
     0
100
AcDbPoint
 10
97.36261860743423
 20
2235.468865560612
 30
0.0
  0
ENDBLK
  5
42E6
330
42E4
100
AcDbEntity
  8
0
100
AcDbBlockEnd
  0
BLOCK
  5
42FA
330
42F9
100
AcDbEntity
  8
0
100
AcDbBlockBegin
  2
*D34
 70
     1
 10
0.0
 20
0.0
 30
0.0
  3
*D34
  1
*D34
  0
LINE
  5
42FC
330
42F9
100
AcDbEntity
  8
MODEL
  6
Continuous
 62
     0
370
    -2
100
AcDbLine
 10
256.4063743468037
 20
2060.468865560612
 30
0.0
 11
256.4063743468037
 21
2099.148218718381
 31
0.0
  0
LINE
  5
42FD
330
42F9
100
AcDbEntity
  8
MODEL
  6
Continuous
 62
     0
370
    -2
100
AcDbLine
 10
286.4063743468037
 20
2060.468865560612
 30
0.0
 11
286.4063743468037
 21
2099.148218718381
 31
0.0
  0
LINE
  5
42FE
330
42F9
100
AcDbEntity
  8
MODEL
  6
Continuous
 62
     0
370
    -2
100
AcDbLine
 10
247.4063743468037
 20
2099.148218718381
 30
0.0
 11
238.4063743468037
 21
2099.148218718381
 31
0.0
  0
LINE
  5
42FF
330
42F9
100
AcDbEntity
  8
MODEL
  6
Continuous
 62
     0
370
    -2
100
AcDbLine
 10
295.4063743468037
 20
2099.148218718381
 30
0.0
 11
304.4063743468037
 21
2099.148218718381
 31
0.0
  0
INSERT
  5
4300
330
42F9
100
AcDbEntity
  8
MODEL
 62
     0
370
    -2
100
AcDbBlockReference
  2
_DOT
 10
256.4063743468037
 20
2099.148218718381
 30
0.0
 41
9.0
 42
9.0
 43
9.0
  0
INSERT
  5
4301
330
42F9
100
AcDbEntity
  8
MODEL
 62
     0
370
    -2
100
AcDbBlockReference
  2
_DOT
 10
286.4063743468037
 20
2099.148218718381
 30
0.0
 41
9.0
 42
9.0
 43
9.0
 50
180.0
  0
MTEXT
  5
4302
330
42F9
100
AcDbEntity
  8
MODEL
  6
Continuous
 62
     0
370
     0
100
AcDbMText
 10
271.4063743468037
 20
2121.364527312131
 30
0.0
 40
24.4326171875
 41
0.0
 46
0.0
 71
     5
 72
     1
  1
\A1;30
  7
ＭＳ ゴシック
 73
     1
 44
1.0
  0
POINT
  5
4303
330
42F9
100
AcDbEntity
  8
Defpoints
 62
     0
100
AcDbPoint
 10
256.4063743468037
 20
2035.468865560612
 30
0.0
  0
POINT
  5
4304
330
42F9
100
AcDbEntity
  8
Defpoints
 62
     0
100
AcDbPoint
 10
286.4063743468037
 20
2035.468865560612
 30
0.0
  0
POINT
  5
4305
330
42F9
100
AcDbEntity
  8
Defpoints
 62
     0
100
AcDbPoint
 10
286.4063743468037
 20
2099.148218718381
 30
0.0
  0
ENDBLK
  5
42FB
330
42F9
100
AcDbEntity
  8
0
100
AcDbBlockEnd
  0
BLOCK
  5
430D
330
430C
100
AcDbEntity
  8
0
100
AcDbBlockBegin
  2
*D35
 70
     1
 10
0.0
 20
0.0
 30
0.0
  3
*D35
  1
*D35
  0
LINE
  5
430F
330
430C
100
AcDbEntity
  8
MODEL
  6
Continuous
 62
     0
370
    -2
100
AcDbLine
 10
310.3472825944004
 20
2082.561632981465
 30
0.0
 11
310.3472825944004
 21
1747.753232953087
 31
0.0
  0
LINE
  5
4310
330
430C
100
AcDbEntity
  8
MODEL
  6
Continuous
 62
     0
370
    -2
100
AcDbLine
 10
700.1287334942713
 20
2082.561632981465
 30
0.0
 11
700.1287334942713
 21
1747.753232953087
 31
0.0
  0
LINE
  5
4311
330
430C
100
AcDbEntity
  8
MODEL
  6
Continuous
 62
     0
370
    -2
100
AcDbLine
 10
319.3472825944004
 20
1747.753232953087
 30
0.0
 11
691.1287334942713
 21
1747.753232953087
 31
0.0
  0
INSERT
  5
4312
330
430C
100
AcDbEntity
  8
MODEL
 62
     0
370
    -2
100
AcDbBlockReference
  2
_DOT
 10
310.3472825944004
 20
1747.753232953087
 30
0.0
 41
9.0
 42
9.0
 43
9.0
 50
180.0
  0
INSERT
  5
4313
330
430C
100
AcDbEntity
  8
MODEL
 62
     0
370
    -2
100
AcDbBlockReference
  2
_DOT
 10
700.1287334942713
 20
1747.753232953087
 30
0.0
 41
9.0
 42
9.0
 43
9.0
  0
MTEXT
  5
4314
330
430C
100
AcDbEntity
  8
MODEL
  6
Continuous
 62
     0
370
     0
100
AcDbMText
 10
505.2380080443359
 20
1769.969541546837
 30
0.0
 40
24.4326171875
 41
0.0
 46
0.0
 71
     5
 72
     1
  1
\A1;390
  7
ＭＳ ゴシック
 73
     1
 44
1.0
  0
POINT
  5
4315
330
430C
100
AcDbEntity
  8
Defpoints
 62
     0
100
AcDbPoint
 10
310.3472825944004
 20
2107.561632981465
 30
0.0
  0
POINT
  5
4316
330
430C
100
AcDbEntity
  8
Defpoints
 62
     0
100
AcDbPoint
 10
700.1287334942713
 20
2107.561632981465
 30
0.0
  0
POINT
  5
4317
330
430C
100
AcDbEntity
  8
Defpoints
 62
     0
100
AcDbPoint
 10
700.1287334942713
 20
1747.753232953087
 30
0.0
  0
ENDBLK
  5
430E
330
430C
100
AcDbEntity
  8
0
100
AcDbBlockEnd
  0
BLOCK
  5
431C
330
431B
100
AcDbEntity
  8
0
100
AcDbBlockBegin
  2
*D36
 70
     1
 10
0.0
 20
0.0
 30
0.0
  3
*D36
  1
*D36
  0
LINE
  5
431E
330
431B
100
AcDbEntity
  8
MODEL
  6
Continuous
 62
     0
370
    -2
100
AcDbLine
 10
292.4448002235673
 20
2115.468865560612
 30
0.0
 11
176.7583255788982
 21
2115.468865560612
 31
0.0
  0
LINE
  5
431F
330
431B
100
AcDbEntity
  8
MODEL
  6
Continuous
 62
     0
370
    -2
100
AcDbLine
 10
292.4493438017899
 20
1900.468865560612
 30
0.0
 11
176.7583255788982
 21
1900.468865560612
 31
0.0
  0
LINE
  5
4320
330
431B
100
AcDbEntity
  8
MODEL
  6
Continuous
 62
     0
370
    -2
100
AcDbLine
 10
176.7583255788982
 20
2106.468865560612
 30
0.0
 11
176.7583255788982
 21
1909.468865560612
 31
0.0
  0
INSERT
  5
4321
330
431B
100
AcDbEntity
  8
MODEL
 62
     0
370
    -2
100
AcDbBlockReference
  2
_DOT
 10
176.7583255788982
 20
2115.468865560612
 30
0.0
 41
9.0
 42
9.0
 43
9.0
 50
90.0
  0
INSERT
  5
4322
330
431B
100
AcDbEntity
  8
MODEL
 62
     0
370
    -2
100
AcDbBlockReference
  2
_DOT
 10
176.7583255788982
 20
1900.468865560612
 30
0.0
 41
9.0
 42
9.0
 43
9.0
 50
270.0
  0
MTEXT
  5
4323
330
431B
100
AcDbEntity
  8
MODEL
  6
Continuous
 62
     0
370
    13
100
AcDbMText
 10
154.5420169851482
 20
2007.968865560612
 30
0.0
 40
24.4326171875
 41
0.0
 46
0.0
 71
     5
 72
     1
  1
\A1;215
  7
ＭＳ ゴシック
 11
0.0
 21
1.0
 31
0.0
 73
     1
 44
1.0
  0
POINT
  5
4324
330
431B
100
AcDbEntity
  8
Defpoints
 62
     0
100
AcDbPoint
 10
317.4448002235673
 20
2115.468865560612
 30
0.0
  0
POINT
  5
4325
330
431B
100
AcDbEntity
  8
Defpoints
 62
     0
100
AcDbPoint
 10
317.4493438017899
 20
1900.468865560612
 30
0.0
  0
POINT
  5
4326
330
431B
100
AcDbEntity
  8
Defpoints
 62
     0
100
AcDbPoint
 10
176.7583255788982
 20
1900.468865560612
 30
0.0
  0
ENDBLK
  5
431D
330
431B
100
AcDbEntity
  8
0
100
AcDbBlockEnd
  0
BLOCK
  5
432C
330
432B
100
AcDbEntity
  8
0
100
AcDbBlockBegin
  2
*D37
 70
     1
 10
0.0
 20
0.0
 30
0.0
  3
*D37
  1
*D37
  0
LINE
  5
432E
330
432B
100
AcDbEntity
  8
MODEL
  6
Continuous
 62
     0
370
    -2
100
AcDbLine
 10
754.0695938421533
 20
2060.359511775715
 30
0.0
 11
754.0695938421533
 21
2299.056084319135
 31
0.0
  0
LINE
  5
432F
330
432B
100
AcDbEntity
  8
MODEL
  6
Continuous
 62
     0
370
    -2
100
AcDbLine
 10
256.4064222465186
 20
2060.359511775715
 30
0.0
 11
256.4064222465186
 21
2299.056084319135
 31
0.0
  0
LINE
  5
4330
330
432B
100
AcDbEntity
  8
MODEL
  6
Continuous
 62
     0
370
    -2
100
AcDbLine
 10
745.0695938421533
 20
2299.056084319135
 30
0.0
 11
265.4064222465186
 21
2299.056084319135
 31
0.0
  0
INSERT
  5
4331
330
432B
100
AcDbEntity
  8
MODEL
 62
     0
370
    -2
100
AcDbBlockReference
  2
_DOT
 10
754.0695938421533
 20
2299.056084319135
 30
0.0
 41
9.0
 42
9.0
 43
9.0
  0
INSERT
  5
4332
330
432B
100
AcDbEntity
  8
MODEL
 62
     0
370
    -2
100
AcDbBlockReference
  2
_DOT
 10
256.4064222465186
 20
2299.056084319135
 30
0.0
 41
9.0
 42
9.0
 43
9.0
 50
180.0
  0
MTEXT
  5
4333
330
432B
100
AcDbEntity
  8
MODEL
  6
Continuous
 62
     0
370
     0
100
AcDbMText
 10
505.2380080443359
 20
2321.272392912885
 30
0.0
 40
24.4326171875
 41
0.0
 46
0.0
 71
     5
 72
     1
  1
\A1;498
  7
ＭＳ ゴシック
 73
     1
 44
1.0
  0
POINT
  5
4334
330
432B
100
AcDbEntity
  8
Defpoints
 62
     0
100
AcDbPoint
 10
754.0695938421533
 20
2035.359511775715
 30
0.0
  0
POINT
  5
4335
330
432B
100
AcDbEntity
  8
Defpoints
 62
     0
100
AcDbPoint
 10
256.4064222465186
 20
2035.359511775715
 30
0.0
  0
POINT
  5
4336
330
432B
100
AcDbEntity
  8
Defpoints
 62
     0
100
AcDbPoint
 10
256.4064222465186
 20
2299.056084319135
 30
0.0
  0
ENDBLK
  5
432D
330
432B
100
AcDbEntity
  8
0
100
AcDbBlockEnd
  0
BLOCK
  5
4347
330
4346
100
AcDbEntity
  8
0
100
AcDbBlockBegin
  2
*D38
 70
     1
 10
0.0
 20
0.0
 30
0.0
  3
*D38
  1
*D38
  0
LINE
  5
4349
330
4346
100
AcDbEntity
  8
MODEL
  6
Continuous
 62
     0
370
    -2
100
AcDbLine
 10
310.3472825944004
 20
1879.080293994223
 30
0.0
 11
310.3472825944004
 21
1775.598955006981
 31
0.0
  0
LINE
  5
434A
330
4346
100
AcDbEntity
  8
MODEL
  6
Continuous
 62
     0
370
    -2
100
AcDbLine
 10
700.1287334942713
 20
1879.080293994223
 30
0.0
 11
700.1287334942713
 21
1775.598955006981
 31
0.0
  0
LINE
  5
434B
330
4346
100
AcDbEntity
  8
MODEL
  6
Continuous
 62
     0
370
    -2
100
AcDbLine
 10
319.3472825944004
 20
1775.598955006981
 30
0.0
 11
691.1287334942713
 21
1775.598955006981
 31
0.0
  0
INSERT
  5
434C
330
4346
100
AcDbEntity
  8
MODEL
 62
     0
370
    -2
100
AcDbBlockReference
  2
_DOT
 10
310.3472825944004
 20
1775.598955006981
 30
0.0
 41
9.0
 42
9.0
 43
9.0
 50
180.0
  0
INSERT
  5
434D
330
4346
100
AcDbEntity
  8
MODEL
 62
     0
370
    -2
100
AcDbBlockReference
  2
_DOT
 10
700.1287334942713
 20
1775.598955006981
 30
0.0
 41
9.0
 42
9.0
 43
9.0
  0
MTEXT
  5
434E
330
4346
100
AcDbEntity
  8
MODEL
  6
Continuous
 62
     0
370
    13
100
AcDbMText
 10
505.2380080443359
 20
1797.815263600731
 30
0.0
 40
24.4326171875
 41
0.0
 46
0.0
 71
     5
 72
     1
  1
\A1;390
  7
ＭＳ ゴシック
 73
     1
 44
1.0
  0
POINT
  5
434F
330
4346
100
AcDbEntity
  8
Defpoints
 62
     0
100
AcDbPoint
 10
310.3472825944004
 20
1904.080293994223
 30
0.0
  0
POINT
  5
4350
330
4346
100
AcDbEntity
  8
Defpoints
 62
     0
100
AcDbPoint
 10
700.1287334942713
 20
1904.080293994223
 30
0.0
  0
POINT
  5
4351
330
4346
100
AcDbEntity
  8
Defpoints
 62
     0
100
AcDbPoint
 10
700.1287334942713
 20
1775.598955006981
 30
0.0
  0
ENDBLK
  5
4348
330
4346
100
AcDbEntity
  8
0
100
AcDbBlockEnd
  0
BLOCK
  5
4356
330
4355
100
AcDbEntity
  8
0
100
AcDbBlockBegin
  2
*D39
 70
     1
 10
0.0
 20
0.0
 30
0.0
  3
*D39
  1
*D39
  0
LINE
  5
4358
330
4355
100
AcDbEntity
  8
MODEL
  6
Continuous
 62
     0
370
    -2
100
AcDbLine
 10
280.7645859864379
 20
2255.602016123771
 30
0.0
 11
280.7645859864379
 21
2289.458723409705
 31
0.0
  0
LINE
  5
4359
330
4355
100
AcDbEntity
  8
MODEL
  6
Continuous
 62
     0
370
    -2
100
AcDbLine
 10
729.7114301022339
 20
2255.602016123771
 30
0.0
 11
729.7114301022339
 21
2289.458723409705
 31
0.0
  0
LINE
  5
435A
330
4355
100
AcDbEntity
  8
MODEL
  6
Continuous
 62
     0
370
    -2
100
AcDbLine
 10
289.7645859864379
 20
2289.458723409705
 30
0.0
 11
720.7114301022339
 21
2289.458723409705
 31
0.0
  0
INSERT
  5
435B
330
4355
100
AcDbEntity
  8
MODEL
 62
     0
370
    -2
100
AcDbBlockReference
  2
_DOT
 10
280.7645859864379
 20
2289.458723409705
 30
0.0
 41
9.0
 42
9.0
 43
9.0
 50
180.0
  0
INSERT
  5
435C
330
4355
100
AcDbEntity
  8
MODEL
 62
     0
370
    -2
100
AcDbBlockReference
  2
_DOT
 10
729.7114301022339
 20
2289.458723409705
 30
0.0
 41
9.0
 42
9.0
 43
9.0
  0
MTEXT
  5
435D
330
4355
100
AcDbEntity
  8
MODEL
  6
Continuous
 62
     0
370
     0
100
AcDbMText
 10
505.2380080443359
 20
2311.675032003455
 30
0.0
 40
24.4326171875
 41
0.0
 46
0.0
 71
     5
 72
     1
  1
\A1;449
  7
ＭＳ ゴシック
 73
     1
 44
1.0
  0
POINT
  5
435E
330
4355
100
AcDbEntity
  8
Defpoints
 62
     0
100
AcDbPoint
 10
280.7645859864379
 20
2230.602016123771
 30
0.0
  0
POINT
  5
435F
330
4355
100
AcDbEntity
  8
Defpoints
 62
     0
100
AcDbPoint
 10
729.7114301022339
 20
2230.602016123771
 30
0.0
  0
POINT
  5
4360
330
4355
100
AcDbEntity
  8
Defpoints
 62
     0
100
AcDbPoint
 10
729.7114301022339
 20
2289.458723409705
 30
0.0
  0
ENDBLK
  5
4357
330
4355
100
AcDbEntity
  8
0
100
AcDbBlockEnd
  0
BLOCK
  5
4366
330
4365
100
AcDbEntity
  8
0
100
AcDbBlockBegin
  2
*D40
 70
     1
 10
0.0
 20
0.0
 30
0.0
  3
*D40
  1
*D40
  0
LINE
  5
4368
330
4365
100
AcDbEntity
  8
MODEL
  6
Continuous
 62
     0
370
    -2
100
AcDbLine
 10
280.2380080443359
 20
2261.123223841
 30
0.0
 11
280.2380080443359
 21
2341.377591861655
 31
0.0
  0
LINE
  5
4369
330
4365
100
AcDbEntity
  8
MODEL
  6
Continuous
 62
     0
370
    -2
100
AcDbLine
 10
730.2380080443359
 20
2260.461246683638
 30
0.0
 11
730.2380080443359
 21
2341.377591861655
 31
0.0
  0
LINE
  5
436A
330
4365
100
AcDbEntity
  8
MODEL
  6
Continuous
 62
     0
370
    -2
100
AcDbLine
 10
289.2380080443359
 20
2341.377591861655
 30
0.0
 11
721.2380080443359
 21
2341.377591861655
 31
0.0
  0
INSERT
  5
436B
330
4365
100
AcDbEntity
  8
MODEL
 62
     0
370
    -2
100
AcDbBlockReference
  2
_DOT
 10
280.2380080443359
 20
2341.377591861655
 30
0.0
 41
9.0
 42
9.0
 43
9.0
 50
180.0
  0
INSERT
  5
436C
330
4365
100
AcDbEntity
  8
MODEL
 62
     0
370
    -2
100
AcDbBlockReference
  2
_DOT
 10
730.2380080443359
 20
2341.377591861655
 30
0.0
 41
9.0
 42
9.0
 43
9.0
  0
MTEXT
  5
436D
330
4365
100
AcDbEntity
  8
MODEL
  6
Continuous
 62
     0
370
    13
100
AcDbMText
 10
501.5784386924913
 20
2363.593900455405
 30
0.0
 40
24.4326171875
 41
0.0
 46
0.0
 71
     5
 72
     1
  1
\A1;450
  7
ＭＳ ゴシック
 73
     1
 44
1.0
  0
POINT
  5
436E
330
4365
100
AcDbEntity
  8
Defpoints
 62
     0
100
AcDbPoint
 10
280.2380080443359
 20
2236.123223841
 30
0.0
  0
POINT
  5
436F
330
4365
100
AcDbEntity
  8
Defpoints
 62
     0
100
AcDbPoint
 10
730.2380080443359
 20
2235.461246683638
 30
0.0
  0
POINT
  5
4370
330
4365
100
AcDbEntity
  8
Defpoints
 62
     0
100
AcDbPoint
 10
730.2380080443359
 20
2341.377591861655
 30
0.0
  0
ENDBLK
  5
4367
330
4365
100
AcDbEntity
  8
0
100
AcDbBlockEnd
  0
BLOCK
  5
4377
330
4376
100
AcDbEntity
  8
0
100
AcDbBlockBegin
  2
*D41
 70
     1
 10
0.0
 20
0.0
 30
0.0
  3
*D41
  1
*D41
  0
LINE
  5
4379
330
4376
100
AcDbEntity
  8
MODEL
  6
Continuous
 62
     0
370
    -2
100
AcDbLine
 10
756.2287872670771
 20
2235.468865560612
 30
0.0
 11
833.6723518694057
 21
2235.468865560612
 31
0.0
  0
LINE
  5
437A
330
4376
100
AcDbEntity
  8
MODEL
  6
Continuous
 62
     0
370
    -2
100
AcDbLine
 10
756.2287872670771
 20
1855.468865560612
 30
0.0
 11
833.6723518694057
 21
1855.468865560612
 31
0.0
  0
LINE
  5
437B
330
4376
100
AcDbEntity
  8
MODEL
  6
Continuous
 62
     0
370
    -2
100
AcDbLine
 10
833.6723518694057
 20
2226.468865560612
 30
0.0
 11
833.6723518694057
 21
1864.468865560612
 31
0.0
  0
INSERT
  5
437C
330
4376
100
AcDbEntity
  8
MODEL
 62
     0
370
    -2
100
AcDbBlockReference
  2
_DOT
 10
833.6723518694057
 20
2235.468865560612
 30
0.0
 41
9.0
 42
9.0
 43
9.0
 50
90.0
  0
INSERT
  5
437D
330
4376
100
AcDbEntity
  8
MODEL
 62
     0
370
    -2
100
AcDbBlockReference
  2
_DOT
 10
833.6723518694057
 20
1855.468865560612
 30
0.0
 41
9.0
 42
9.0
 43
9.0
 50
270.0
  0
MTEXT
  5
437E
330
4376
100
AcDbEntity
  8
MODEL
  6
Continuous
 62
     0
370
    13
100
AcDbMText
 10
811.4560432756557
 20
2045.468865560612
 30
0.0
 40
24.4326171875
 41
0.0
 46
0.0
 71
     5
 72
     1
  1
\A1;380
  7
ＭＳ ゴシック
 11
0.0
 21
1.0
 31
0.0
 73
     1
 44
1.0
  0
POINT
  5
437F
330
4376
100
AcDbEntity
  8
Defpoints
 62
     0
100
AcDbPoint
 10
731.2287872670771
 20
2235.468865560612
 30
0.0
  0
POINT
  5
4380
330
4376
100
AcDbEntity
  8
Defpoints
 62
     0
100
AcDbPoint
 10
731.2287872670771
 20
1855.468865560612
 30
0.0
  0
POINT
  5
4381
330
4376
100
AcDbEntity
  8
Defpoints
 62
     0
100
AcDbPoint
 10
833.6723518694057
 20
1855.468865560612
 30
0.0
  0
ENDBLK
  5
4378
330
4376
100
AcDbEntity
  8
0
100
AcDbBlockEnd
  0
BLOCK
  5
4389
330
4388
100
AcDbEntity
  8
0
100
AcDbBlockBegin
  2
*D42
 70
     1
 10
0.0
 20
0.0
 30
0.0
  3
*D42
  1
*D42
  0
LINE
  5
438B
330
4388
100
AcDbEntity
  8
MODEL
  6
Continuous
 62
     0
370
    -2
100
AcDbLine
 10
278.498166811617
 20
2115.468865560612
 30
0.0
 11
176.7583255788982
 21
2115.468865560612
 31
0.0
  0
LINE
  5
438C
330
4388
100
AcDbEntity
  8
MODEL
  6
Continuous
 62
     0
370
    -2
100
AcDbLine
 10
258.7529388341098
 20
2235.390278359473
 30
0.0
 11
176.7583255788982
 21
2235.390278359473
 31
0.0
  0
LINE
  5
438D
330
4388
100
AcDbEntity
  8
MODEL
  6
Continuous
 62
     0
370
    -2
100
AcDbLine
 10
176.7583255788982
 20
2124.468865560612
 30
0.0
 11
176.7583255788982
 21
2226.390278359473
 31
0.0
  0
INSERT
  5
438E
330
4388
100
AcDbEntity
  8
MODEL
 62
     0
370
    -2
100
AcDbBlockReference
  2
_DOT
 10
176.7583255788982
 20
2115.468865560612
 30
0.0
 41
9.0
 42
9.0
 43
9.0
 50
270.0
  0
INSERT
  5
438F
330
4388
100
AcDbEntity
  8
MODEL
 62
     0
370
    -2
100
AcDbBlockReference
  2
_DOT
 10
176.7583255788982
 20
2235.390278359473
 30
0.0
 41
9.0
 42
9.0
 43
9.0
 50
90.0
  0
MTEXT
  5
4390
330
4388
100
AcDbEntity
  8
MODEL
  6
Continuous
 62
     0
370
    13
100
AcDbMText
 10
154.5420169851482
 20
2175.429571960042
 30
0.0
 40
24.4326171875
 41
0.0
 46
0.0
 71
     5
 72
     1
  1
\A1;120
  7
ＭＳ ゴシック
 11
0.0
 21
1.0
 31
0.0
 73
     1
 44
1.0
  0
POINT
  5
4391
330
4388
100
AcDbEntity
  8
Defpoints
 62
     0
100
AcDbPoint
 10
303.498166811617
 20
2115.468865560612
 30
0.0
  0
POINT
  5
4392
330
4388
100
AcDbEntity
  8
Defpoints
 62
     0
100
AcDbPoint
 10
283.7529388341098
 20
2235.390278359473
 30
0.0
  0
POINT
  5
4393
330
4388
100
AcDbEntity
  8
Defpoints
 62
     0
100
AcDbPoint
 10
176.7583255788982
 20
2235.390278359473
 30
0.0
  0
ENDBLK
  5
438A
330
4388
100
AcDbEntity
  8
0
100
AcDbBlockEnd
  0
BLOCK
  5
43CB
330
43CA
100
AcDbEntity
  8
0
100
AcDbBlockBegin
  2
*D43
 70
     1
 10
0.0
 20
0.0
 30
0.0
  3
*D43
  1
*D44
  0
LINE
  5
43CD
330
43CA
100
AcDbEntity
  8
MODEL
  6
Continuous
 62
     0
370
    -2
100
AcDbLine
 10
530.2380080443359
 20
2035.468865560612
 30
0.0
 11
572.7970455116013
 21
2035.468865560612
 31
0.0
  0
LINE
  5
43CE
330
43CA
100
AcDbEntity
  8
MODEL
  6
Continuous
 62
     0
370
    -2
100
AcDbLine
 10
530.2380080443359
 20
2175.468865560612
 30
0.0
 11
572.7970455116013
 21
2175.468865560612
 31
0.0
  0
LINE
  5
43CF
330
43CA
100
AcDbEntity
  8
MODEL
  6
Continuous
 62
     0
370
    -2
100
AcDbLine
 10
572.7970455116013
 20
2044.468865560612
 30
0.0
 11
572.7970455116013
 21
2166.468865560612
 31
0.0
  0
INSERT
  5
43D0
330
43CA
100
AcDbEntity
  8
MODEL
 62
     0
370
    -2
100
AcDbBlockReference
  2
_DOT
 10
572.7970455116013
 20
2035.468865560612
 30
0.0
 41
9.0
 42
9.0
 43
9.0
 50
270.0
  0
INSERT
  5
43D1
330
43CA
100
AcDbEntity
  8
MODEL
 62
     0
370
    -2
100
AcDbBlockReference
  2
_DOT
 10
572.7970455116013
 20
2175.468865560612
 30
0.0
 41
9.0
 42
9.0
 43
9.0
 50
90.0
  0
MTEXT
  5
43D2
330
43CA
100
AcDbEntity
  8
MODEL
  6
Continuous
 62
     0
370
     0
100
AcDbMText
 10
550.5807369178513
 20
2105.468865560612
 30
0.0
 40
24.4326171875
 41
0.0
 46
0.0
 71
     5
 72
     1
  1
\A1;140
  7
ＭＳ ゴシック
 11
0.0
 21
1.0
 31
0.0
 73
     1
 44
1.0
  0
POINT
  5
43D3
330
43CA
100
AcDbEntity
  8
Defpoints
 62
     0
100
AcDbPoint
 10
505.2380080443359
 20
2035.468865560612
 30
0.0
  0
POINT
  5
43D4
330
43CA
100
AcDbEntity
  8
Defpoints
 62
     0
100
AcDbPoint
 10
505.2380080443359
 20
2175.468865560612
 30
0.0
  0
POINT
  5
43D5
330
43CA
100
AcDbEntity
  8
Defpoints
 62
     0
100
AcDbPoint
 10
572.7970455116013
 20
2175.468865560612
 30
0.0
  0
ENDBLK
  5
43CC
330
43CA
100
AcDbEntity
  8
0
100
AcDbBlockEnd
  0
BLOCK
  5
43DA
330
43D9
100
AcDbEntity
  8
0
100
AcDbBlockBegin
  2
*D44
 70
     1
 10
0.0
 20
0.0
 30
0.0
  3
*D44
  1
*D45
  0
LINE
  5
43DC
330
43D9
100
AcDbEntity
  8
MODEL
  6
Continuous
 62
     0
370
    -2
100
AcDbLine
 10
530.2380080443359
 20
2035.468865560612
 30
0.0
 11
647.2694757148946
 21
2035.468865560612
 31
0.0
  0
LINE
  5
43DD
330
43D9
100
AcDbEntity
  8
MODEL
  6
Continuous
 62
     0
370
    -2
100
AcDbLine
 10
530.238008044341
 20
2235.468865560612
 30
0.0
 11
647.2694757148946
 21
2235.468865560612
 31
0.0
  0
LINE
  5
43DE
330
43D9
100
AcDbEntity
  8
MODEL
  6
Continuous
 62
     0
370
    -2
100
AcDbLine
 10
647.2694757148946
 20
2044.468865560612
 30
0.0
 11
647.2694757148946
 21
2226.468865560612
 31
0.0
  0
INSERT
  5
43DF
330
43D9
100
AcDbEntity
  8
MODEL
 62
     0
370
    -2
100
AcDbBlockReference
  2
_DOT
 10
647.2694757148946
 20
2035.468865560612
 30
0.0
 41
9.0
 42
9.0
 43
9.0
 50
270.0
  0
INSERT
  5
43E0
330
43D9
100
AcDbEntity
  8
MODEL
 62
     0
370
    -2
100
AcDbBlockReference
  2
_DOT
 10
647.2694757148946
 20
2235.468865560612
 30
0.0
 41
9.0
 42
9.0
 43
9.0
 50
90.0
  0
MTEXT
  5
43E1
330
43D9
100
AcDbEntity
  8
MODEL
  6
Continuous
 62
     0
370
     0
100
AcDbMText
 10
625.0531671211446
 20
2135.468865560612
 30
0.0
 40
24.4326171875
 41
0.0
 46
0.0
 71
     5
 72
     1
  1
\A1;200
  7
ＭＳ ゴシック
 11
0.0
 21
1.0
 31
0.0
 73
     1
 44
1.0
  0
POINT
  5
43E2
330
43D9
100
AcDbEntity
  8
Defpoints
 62
     0
100
AcDbPoint
 10
505.2380080443359
 20
2035.468865560612
 30
0.0
  0
POINT
  5
43E3
330
43D9
100
AcDbEntity
  8
Defpoints
 62
     0
100
AcDbPoint
 10
505.238008044341
 20
2235.468865560612
 30
0.0
  0
POINT
  5
43E4
330
43D9
100
AcDbEntity
  8
Defpoints
 62
     0
100
AcDbPoint
 10
647.2694757148946
 20
2235.468865560612
 30
0.0
  0
ENDBLK
  5
43DB
330
43D9
100
AcDbEntity
  8
0
100
AcDbBlockEnd
  0
BLOCK
  5
4400
330
43FF
100
AcDbEntity
  8
0
100
AcDbBlockBegin
  2
*D45
 70
     1
 10
0.0
 20
0.0
 30
0.0
  3
*D45
  1
*D46
  0
LINE
  5
4402
330
43FF
100
AcDbEntity
  8
MODEL
  6
Continuous
 62
     0
370
    -2
100
AcDbLine
 10
1208.135077308712
 20
2115.468865560612
 30
0.0
 11
1081.395236075994
 21
2115.468865560612
 31
0.0
  0
LINE
  5
4403
330
43FF
100
AcDbEntity
  8
MODEL
  6
Continuous
 62
     0
370
    -2
100
AcDbLine
 10
1208.139620886935
 20
1880.449193259621
 30
0.0
 11
1081.395236075994
 21
1880.449193259621
 31
0.0
  0
LINE
  5
4404
330
43FF
100
AcDbEntity
  8
MODEL
  6
Continuous
 62
     0
370
    -2
100
AcDbLine
 10
1081.395236075994
 20
2106.468865560612
 30
0.0
 11
1081.395236075994
 21
1889.449193259621
 31
0.0
  0
INSERT
  5
4405
330
43FF
100
AcDbEntity
  8
MODEL
 62
     0
370
    -2
100
AcDbBlockReference
  2
_DOT
 10
1081.395236075994
 20
2115.468865560612
 30
0.0
 41
9.0
 42
9.0
 43
9.0
 50
90.0
  0
INSERT
  5
4406
330
43FF
100
AcDbEntity
  8
MODEL
 62
     0
370
    -2
100
AcDbBlockReference
  2
_DOT
 10
1081.395236075994
 20
1880.449193259621
 30
0.0
 41
9.0
 42
9.0
 43
9.0
 50
270.0
  0
MTEXT
  5
4407
330
43FF
100
AcDbEntity
  8
MODEL
  6
Continuous
 62
     0
370
     0
100
AcDbMText
 10
1059.178927482244
 20
1997.959029410116
 30
0.0
 40
24.4326171875
 41
0.0
 46
0.0
 71
     5
 72
     1
  1
\A1;235
  7
ＭＳ ゴシック
 11
0.0
 21
1.0
 31
0.0
 73
     1
 44
1.0
  0
POINT
  5
4408
330
43FF
100
AcDbEntity
  8
Defpoints
 62
     0
100
AcDbPoint
 10
1233.135077308712
 20
2115.468865560612
 30
0.0
  0
POINT
  5
4409
330
43FF
100
AcDbEntity
  8
Defpoints
 62
     0
100
AcDbPoint
 10
1233.139620886935
 20
1880.449193259621
 30
0.0
  0
POINT
  5
440A
330
43FF
100
AcDbEntity
  8
Defpoints
 62
     0
100
AcDbPoint
 10
1081.395236075994
 20
1880.449193259621
 30
0.0
  0
ENDBLK
  5
4401
330
43FF
100
AcDbEntity
  8
0
100
AcDbBlockEnd
  0
BLOCK
  5
440C
330
440B
100
AcDbEntity
  8
0
100
AcDbBlockBegin
  2
*D46
 70
     1
 10
0.0
 20
0.0
 30
0.0
  3
*D46
  1
*D47
  0
LINE
  5
440E
330
440B
100
AcDbEntity
  8
MODEL
  6
Continuous
 62
     0
370
    -2
100
AcDbLine
 10
1214.984193091496
 20
2082.561632981465
 30
0.0
 11
1214.984193091496
 21
1775.598955006981
 31
0.0
  0
LINE
  5
440F
330
440B
100
AcDbEntity
  8
MODEL
  6
Continuous
 62
     0
370
    -2
100
AcDbLine
 10
1604.765643991367
 20
2082.561632981465
 30
0.0
 11
1604.765643991367
 21
1775.598955006981
 31
0.0
  0
LINE
  5
4410
330
440B
100
AcDbEntity
  8
MODEL
  6
Continuous
 62
     0
370
    -2
100
AcDbLine
 10
1223.984193091496
 20
1775.598955006981
 30
0.0
 11
1595.765643991367
 21
1775.598955006981
 31
0.0
  0
INSERT
  5
4411
330
440B
100
AcDbEntity
  8
MODEL
 62
     0
370
    -2
100
AcDbBlockReference
  2
_DOT
 10
1214.984193091496
 20
1775.598955006981
 30
0.0
 41
9.0
 42
9.0
 43
9.0
 50
180.0
  0
INSERT
  5
4412
330
440B
100
AcDbEntity
  8
MODEL
 62
     0
370
    -2
100
AcDbBlockReference
  2
_DOT
 10
1604.765643991367
 20
1775.598955006981
 30
0.0
 41
9.0
 42
9.0
 43
9.0
  0
MTEXT
  5
4413
330
440B
100
AcDbEntity
  8
MODEL
  6
Continuous
 62
     0
370
     0
100
AcDbMText
 10
1409.874918541431
 20
1797.815263600731
 30
0.0
 40
24.4326171875
 41
0.0
 46
0.0
 71
     5
 72
     1
  1
\A1;390
  7
ＭＳ ゴシック
 73
     1
 44
1.0
  0
POINT
  5
4414
330
440B
100
AcDbEntity
  8
Defpoints
 62
     0
100
AcDbPoint
 10
1214.984193091496
 20
2107.561632981465
 30
0.0
  0
POINT
  5
4415
330
440B
100
AcDbEntity
  8
Defpoints
 62
     0
100
AcDbPoint
 10
1604.765643991367
 20
2107.561632981465
 30
0.0
  0
POINT
  5
4416
330
440B
100
AcDbEntity
  8
Defpoints
 62
     0
100
AcDbPoint
 10
1604.765643991367
 20
1775.598955006981
 30
0.0
  0
ENDBLK
  5
440D
330
440B
100
AcDbEntity
  8
0
100
AcDbBlockEnd
  0
BLOCK
  5
4418
330
4417
100
AcDbEntity
  8
0
100
AcDbBlockBegin
  2
*D47
 70
     1
 10
0.0
 20
0.0
 30
0.0
  3
*D47
  1
*D48
  0
LINE
  5
441A
330
4417
100
AcDbEntity
  8
MODEL
  6
Continuous
 62
     0
370
    -2
100
AcDbLine
 10
1184.874918541431
 20
2261.123223841
 30
0.0
 11
1184.874918541431
 21
2341.377591861655
 31
0.0
  0
LINE
  5
441B
330
4417
100
AcDbEntity
  8
MODEL
  6
Continuous
 62
     0
370
    -2
100
AcDbLine
 10
1634.874918541431
 20
2260.461246683638
 30
0.0
 11
1634.874918541431
 21
2341.377591861655
 31
0.0
  0
LINE
  5
441C
330
4417
100
AcDbEntity
  8
MODEL
  6
Continuous
 62
     0
370
    -2
100
AcDbLine
 10
1193.874918541431
 20
2341.377591861655
 30
0.0
 11
1625.874918541431
 21
2341.377591861655
 31
0.0
  0
INSERT
  5
441D
330
4417
100
AcDbEntity
  8
MODEL
 62
     0
370
    -2
100
AcDbBlockReference
  2
_DOT
 10
1184.874918541431
 20
2341.377591861655
 30
0.0
 41
9.0
 42
9.0
 43
9.0
 50
180.0
  0
INSERT
  5
441E
330
4417
100
AcDbEntity
  8
MODEL
 62
     0
370
    -2
100
AcDbBlockReference
  2
_DOT
 10
1634.874918541431
 20
2341.377591861655
 30
0.0
 41
9.0
 42
9.0
 43
9.0
  0
MTEXT
  5
441F
330
4417
100
AcDbEntity
  8
MODEL
  6
Continuous
 62
     0
370
     0
100
AcDbMText
 10
1406.215349189587
 20
2363.593900455405
 30
0.0
 40
24.4326171875
 41
0.0
 46
0.0
 71
     5
 72
     1
  1
\A1;450
  7
ＭＳ ゴシック
 73
     1
 44
1.0
  0
POINT
  5
4420
330
4417
100
AcDbEntity
  8
Defpoints
 62
     0
100
AcDbPoint
 10
1184.874918541431
 20
2236.123223841
 30
0.0
  0
POINT
  5
4421
330
4417
100
AcDbEntity
  8
Defpoints
 62
     0
100
AcDbPoint
 10
1634.874918541431
 20
2235.461246683638
 30
0.0
  0
POINT
  5
4422
330
4417
100
AcDbEntity
  8
Defpoints
 62
     0
100
AcDbPoint
 10
1634.874918541431
 20
2341.377591861655
 30
0.0
  0
ENDBLK
  5
4419
330
4417
100
AcDbEntity
  8
0
100
AcDbBlockEnd
  0
BLOCK
  5
4424
330
4423
100
AcDbEntity
  8
0
100
AcDbBlockBegin
  2
*D48
 70
     1
 10
0.0
 20
0.0
 30
0.0
  3
*D48
  1
*D49
  0
LINE
  5
4426
330
4423
100
AcDbEntity
  8
MODEL
  6
Continuous
 62
     0
370
    -2
100
AcDbLine
 10
1660.865697764173
 20
2235.468865560612
 30
0.0
 11
1738.309262366501
 21
2235.468865560612
 31
0.0
  0
LINE
  5
4427
330
4423
100
AcDbEntity
  8
MODEL
  6
Continuous
 62
     0
370
    -2
100
AcDbLine
 10
1660.865697764173
 20
1855.468865560612
 30
0.0
 11
1738.309262366501
 21
1855.468865560612
 31
0.0
  0
LINE
  5
4428
330
4423
100
AcDbEntity
  8
MODEL
  6
Continuous
 62
     0
370
    -2
100
AcDbLine
 10
1738.309262366501
 20
2226.468865560612
 30
0.0
 11
1738.309262366501
 21
1864.468865560612
 31
0.0
  0
INSERT
  5
4429
330
4423
100
AcDbEntity
  8
MODEL
 62
     0
370
    -2
100
AcDbBlockReference
  2
_DOT
 10
1738.309262366501
 20
2235.468865560612
 30
0.0
 41
9.0
 42
9.0
 43
9.0
 50
90.0
  0
INSERT
  5
442A
330
4423
100
AcDbEntity
  8
MODEL
 62
     0
370
    -2
100
AcDbBlockReference
  2
_DOT
 10
1738.309262366501
 20
1855.468865560612
 30
0.0
 41
9.0
 42
9.0
 43
9.0
 50
270.0
  0
MTEXT
  5
442B
330
4423
100
AcDbEntity
  8
MODEL
  6
Continuous
 62
     0
370
     0
100
AcDbMText
 10
1716.092953772751
 20
2045.468865560612
 30
0.0
 40
24.4326171875
 41
0.0
 46
0.0
 71
     5
 72
     1
  1
\A1;380
  7
ＭＳ ゴシック
 11
0.0
 21
1.0
 31
0.0
 73
     1
 44
1.0
  0
POINT
  5
442C
330
4423
100
AcDbEntity
  8
Defpoints
 62
     0
100
AcDbPoint
 10
1635.865697764173
 20
2235.468865560612
 30
0.0
  0
POINT
  5
442D
330
4423
100
AcDbEntity
  8
Defpoints
 62
     0
100
AcDbPoint
 10
1635.865697764173
 20
1855.468865560612
 30
0.0
  0
POINT
  5
442E
330
4423
100
AcDbEntity
  8
Defpoints
 62
     0
100
AcDbPoint
 10
1738.309262366501
 20
1855.468865560612
 30
0.0
  0
ENDBLK
  5
4425
330
4423
100
AcDbEntity
  8
0
100
AcDbBlockEnd
  0
BLOCK
  5
4430
330
442F
100
AcDbEntity
  8
0
100
AcDbBlockBegin
  2
*D49
 70
     1
 10
0.0
 20
0.0
 30
0.0
  3
*D49
  1
*D50
  0
LINE
  5
4432
330
442F
100
AcDbEntity
  8
MODEL
  6
Continuous
 62
     0
370
    -2
100
AcDbLine
 10
1183.135077308712
 20
2115.468865560612
 30
0.0
 11
1081.395236075994
 21
2115.468865560612
 31
0.0
  0
LINE
  5
4433
330
442F
100
AcDbEntity
  8
MODEL
  6
Continuous
 62
     0
370
    -2
100
AcDbLine
 10
1183.040179800542
 20
2235.390278359473
 30
0.0
 11
1081.395236075994
 21
2235.390278359473
 31
0.0
  0
LINE
  5
4434
330
442F
100
AcDbEntity
  8
MODEL
  6
Continuous
 62
     0
370
    -2
100
AcDbLine
 10
1081.395236075994
 20
2124.468865560612
 30
0.0
 11
1081.395236075994
 21
2226.390278359473
 31
0.0
  0
INSERT
  5
4435
330
442F
100
AcDbEntity
  8
MODEL
 62
     0
370
    -2
100
AcDbBlockReference
  2
_DOT
 10
1081.395236075994
 20
2115.468865560612
 30
0.0
 41
9.0
 42
9.0
 43
9.0
 50
270.0
  0
INSERT
  5
4436
330
442F
100
AcDbEntity
  8
MODEL
 62
     0
370
    -2
100
AcDbBlockReference
  2
_DOT
 10
1081.395236075994
 20
2235.390278359473
 30
0.0
 41
9.0
 42
9.0
 43
9.0
 50
90.0
  0
MTEXT
  5
4437
330
442F
100
AcDbEntity
  8
MODEL
  6
Continuous
 62
     0
370
     0
100
AcDbMText
 10
1059.178927482244
 20
2175.429571960042
 30
0.0
 40
24.4326171875
 41
0.0
 46
0.0
 71
     5
 72
     1
  1
\A1;120
  7
ＭＳ ゴシック
 11
0.0
 21
1.0
 31
0.0
 73
     1
 44
1.0
  0
POINT
  5
4438
330
442F
100
AcDbEntity
  8
Defpoints
 62
     0
100
AcDbPoint
 10
1208.135077308712
 20
2115.468865560612
 30
0.0
  0
POINT
  5
4439
330
442F
100
AcDbEntity
  8
Defpoints
 62
     0
100
AcDbPoint
 10
1208.040179800542
 20
2235.390278359473
 30
0.0
  0
POINT
  5
443A
330
442F
100
AcDbEntity
  8
Defpoints
 62
     0
100
AcDbPoint
 10
1081.395236075994
 20
2235.390278359473
 30
0.0
  0
ENDBLK
  5
4431
330
442F
100
AcDbEntity
  8
0
100
AcDbBlockEnd
  0
BLOCK
  5
443F
330
443E
100
AcDbEntity
  8
0
100
AcDbBlockBegin
  2
*D50
 70
     1
 10
0.0
 20
0.0
 30
0.0
  3
*D50
  1
*D51
  0
LINE
  5
4441
330
443E
100
AcDbEntity
  8
MODEL
  6
Continuous
 62
     0
370
    -2
100
AcDbLine
 10
1268.47443973567
 20
2020.370116857478
 30
0.0
 11
1268.47443973567
 21
1783.842270291068
 31
0.0
  0
LINE
  5
4442
330
443E
100
AcDbEntity
  8
MODEL
  6
Continuous
 62
     0
370
    -2
100
AcDbLine
 10
1658.160976305688
 20
2020.370116857478
 30
0.0
 11
1658.160976305688
 21
1783.842270291068
 31
0.0
  0
LINE
  5
4443
330
443E
100
AcDbEntity
  8
MODEL
  6
Continuous
 62
     0
370
    -2
100
AcDbLine
 10
1277.47443973567
 20
1783.842270291068
 30
0.0
 11
1649.160976305688
 21
1783.842270291068
 31
0.0
  0
INSERT
  5
4444
330
443E
100
AcDbEntity
  8
MODEL
 62
     0
370
    -2
100
AcDbBlockReference
  2
_DOT
 10
1268.47443973567
 20
1783.842270291068
 30
0.0
 41
9.0
 42
9.0
 43
9.0
 50
180.0
  0
INSERT
  5
4445
330
443E
100
AcDbEntity
  8
MODEL
 62
     0
370
    -2
100
AcDbBlockReference
  2
_DOT
 10
1658.160976305688
 20
1783.842270291068
 30
0.0
 41
9.0
 42
9.0
 43
9.0
  0
MTEXT
  5
4446
330
443E
100
AcDbEntity
  8
MODEL
  6
Continuous
 62
     0
370
    13
100
AcDbMText
 10
1463.317708020679
 20
1806.058578884818
 30
0.0
 40
24.4326171875
 41
0.0
 46
0.0
 71
     5
 72
     1
  1
\A1;390
  7
ＭＳ ゴシック
 73
     1
 44
1.0
  0
POINT
  5
4447
330
443E
100
AcDbEntity
  8
Defpoints
 62
     0
100
AcDbPoint
 10
1268.47443973567
 20
2045.370116857478
 30
0.0
  0
POINT
  5
4448
330
443E
100
AcDbEntity
  8
Defpoints
 62
     0
100
AcDbPoint
 10
1658.160976305688
 20
2045.370116857478
 30
0.0
  0
POINT
  5
4449
330
443E
100
AcDbEntity
  8
Defpoints
 62
     0
100
AcDbPoint
 10
1658.160976305688
 20
1783.842270291068
 30
0.0
  0
ENDBLK
  5
4440
330
443E
100
AcDbEntity
  8
0
100
AcDbBlockEnd
  0
BLOCK
  5
444E
330
444D
100
AcDbEntity
  8
0
100
AcDbBlockBegin
  2
*D51
 70
     1
 10
0.0
 20
0.0
 30
0.0
  3
*D51
  1
*D52
  0
LINE
  5
4450
330
444D
100
AcDbEntity
  8
MODEL
  6
Continuous
 62
     0
370
    -2
100
AcDbLine
 10
280.3947397593267
 20
2060.370116857478
 30
0.0
 11
280.3947397593267
 21
2078.554863675397
 31
0.0
  0
LINE
  5
4451
330
444D
100
AcDbEntity
  8
MODEL
  6
Continuous
 62
     0
370
    -2
100
AcDbLine
 10
310.3947397593267
 20
2060.370116857478
 30
0.0
 11
310.3947397593267
 21
2078.554863675397
 31
0.0
  0
LINE
  5
4452
330
444D
100
AcDbEntity
  8
MODEL
  6
Continuous
 62
     0
370
    -2
100
AcDbLine
 10
271.3947397593267
 20
2078.554863675397
 30
0.0
 11
262.3947397593267
 21
2078.554863675397
 31
0.0
  0
LINE
  5
4453
330
444D
100
AcDbEntity
  8
MODEL
  6
Continuous
 62
     0
370
    -2
100
AcDbLine
 10
319.3947397593267
 20
2078.554863675397
 30
0.0
 11
328.3947397593267
 21
2078.554863675397
 31
0.0
  0
INSERT
  5
4454
330
444D
100
AcDbEntity
  8
MODEL
 62
     0
370
    -2
100
AcDbBlockReference
  2
_DOT
 10
280.3947397593267
 20
2078.554863675397
 30
0.0
 41
9.0
 42
9.0
 43
9.0
  0
INSERT
  5
4455
330
444D
100
AcDbEntity
  8
MODEL
 62
     0
370
    -2
100
AcDbBlockReference
  2
_DOT
 10
310.3947397593267
 20
2078.554863675397
 30
0.0
 41
9.0
 42
9.0
 43
9.0
 50
180.0
  0
MTEXT
  5
4456
330
444D
100
AcDbEntity
  8
MODEL
  6
Continuous
 62
     0
370
     0
100
AcDbMText
 10
295.3947397593267
 20
2100.771172269147
 30
0.0
 40
24.4326171875
 41
0.0
 46
0.0
 71
     5
 72
     1
  1
\A1;30
  7
ＭＳ ゴシック
 73
     1
 44
1.0
  0
POINT
  5
4457
330
444D
100
AcDbEntity
  8
Defpoints
 62
     0
100
AcDbPoint
 10
280.3947397593267
 20
2035.370116857478
 30
0.0
  0
POINT
  5
4458
330
444D
100
AcDbEntity
  8
Defpoints
 62
     0
100
AcDbPoint
 10
310.3947397593267
 20
2035.370116857478
 30
0.0
  0
POINT
  5
4459
330
444D
100
AcDbEntity
  8
Defpoints
 62
     0
100
AcDbPoint
 10
310.3947397593267
 20
2078.554863675397
 30
0.0
  0
ENDBLK
  5
444F
330
444D
100
AcDbEntity
  8
0
100
AcDbBlockEnd
  0
BLOCK
  5
446F
330
446E
100
AcDbEntity
  8
0
100
AcDbBlockBegin
  2
*D52
 70
     1
 10
0.0
 20
0.0
 30
0.0
  3
*D52
  1
*D53
  0
LINE
  5
4471
330
446E
100
AcDbEntity
  8
MODEL
  6
ByBlock
 62
     0
370
    -2
100
AcDbLine
 10
1548.317708020684
 20
2200.468865560612
 30
0.0
 11
1788.123354834187
 21
2200.468865560612
 31
0.0
  0
LINE
  5
4472
330
446E
100
AcDbEntity
  8
MODEL
  6
ByBlock
 62
     0
370
    -2
100
AcDbLine
 10
1693.224695546581
 20
2235.461598426568
 30
0.0
 11
1788.123354834187
 21
2235.461598426568
 31
0.0
  0
LINE
  5
4473
330
446E
100
AcDbEntity
  8
MODEL
  6
ByBlock
 62
     0
370
    -2
100
AcDbLine
 10
1788.123354834187
 20
2209.468865560612
 30
0.0
 11
1788.123354834187
 21
2226.461598426568
 31
0.0
  0
INSERT
  5
4474
330
446E
100
AcDbEntity
  8
MODEL
 62
     0
370
    -2
100
AcDbBlockReference
  2
_DOT
 10
1788.123354834187
 20
2200.468865560612
 30
0.0
 41
9.0
 42
9.0
 43
9.0
 50
270.0
  0
INSERT
  5
4475
330
446E
100
AcDbEntity
  8
MODEL
 62
     0
370
    -2
100
AcDbBlockReference
  2
_DOT
 10
1788.123354834187
 20
2235.461598426568
 30
0.0
 41
9.0
 42
9.0
 43
9.0
 50
90.0
  0
MTEXT
  5
4476
330
446E
100
AcDbEntity
  8
MODEL
  6
Continuous
 62
     0
370
    13
100
AcDbMText
 10
1765.907046240437
 20
2218.407150273789
 30
0.0
 40
24.4326171875
 41
0.0
 46
0.0
 71
     5
 72
     1
  1
\A1;35
  7
ＭＳ ゴシック
 11
0.0
 21
1.0
 31
0.0
 73
     1
 44
1.0
  0
POINT
  5
4477
330
446E
100
AcDbEntity
  8
Defpoints
 62
     0
100
AcDbPoint
 10
1523.317708020684
 20
2200.468865560612
 30
0.0
  0
POINT
  5
4478
330
446E
100
AcDbEntity
  8
Defpoints
 62
     0
100
AcDbPoint
 10
1668.224695546581
 20
2235.461598426568
 30
0.0
  0
POINT
  5
447B
330
446E
100
AcDbEntity
  8
Defpoints
 62
     0
100
AcDbPoint
 10
1788.123354834187
 20
2235.461598426568
 30
0.0
  0
ENDBLK
  5
4470
330
446E
100
AcDbEntity
  8
0
100
AcDbBlockEnd
  0
BLOCK
  5
4481
330
4480
100
AcDbEntity
  8
0
100
AcDbBlockBegin
  2
*D53
 70
     1
 10
0.0
 20
0.0
 30
0.0
  3
*D53
  1
*D54
  0
LINE
  5
4483
330
4480
100
AcDbEntity
  8
MODEL
  6
Continuous
 62
     0
370
    -2
100
AcDbLine
 10
1548.317708020684
 20
2200.468865560612
 30
0.0
 11
1788.123354834187
 21
2200.468865560612
 31
0.0
  0
LINE
  5
4484
330
4480
100
AcDbEntity
  8
MODEL
  6
Continuous
 62
     0
370
    -2
100
AcDbLine
 10
1548.317708020684
 20
1975.468865560612
 30
0.0
 11
1788.123354834187
 21
1975.468865560612
 31
0.0
  0
LINE
  5
4485
330
4480
100
AcDbEntity
  8
MODEL
  6
Continuous
 62
     0
370
    -2
100
AcDbLine
 10
1788.123354834187
 20
2191.468865560612
 30
0.0
 11
1788.123354834187
 21
1984.468865560612
 31
0.0
  0
INSERT
  5
4486
330
4480
100
AcDbEntity
  8
MODEL
 62
     0
370
    -2
100
AcDbBlockReference
  2
_DOT
 10
1788.123354834187
 20
2200.468865560612
 30
0.0
 41
9.0
 42
9.0
 43
9.0
 50
90.0
  0
INSERT
  5
4487
330
4480
100
AcDbEntity
  8
MODEL
 62
     0
370
    -2
100
AcDbBlockReference
  2
_DOT
 10
1788.123354834187
 20
1975.468865560612
 30
0.0
 41
9.0
 42
9.0
 43
9.0
 50
270.0
  0
MTEXT
  5
4488
330
4480
100
AcDbEntity
  8
MODEL
  6
Continuous
 62
     0
370
    13
100
AcDbMText
 10
1765.907046240437
 20
2087.968865560612
 30
0.0
 40
24.4326171875
 41
0.0
 46
0.0
 71
     5
 72
     1
  1
\A1;225
  7
ＭＳ ゴシック
 11
0.0
 21
1.0
 31
0.0
 73
     1
 44
1.0
  0
POINT
  5
4489
330
4480
100
AcDbEntity
  8
Defpoints
 62
     0
100
AcDbPoint
 10
1523.317708020684
 20
2200.468865560612
 30
0.0
  0
POINT
  5
448A
330
4480
100
AcDbEntity
  8
Defpoints
 62
     0
100
AcDbPoint
 10
1523.317708020684
 20
1975.468865560612
 30
0.0
  0
POINT
  5
448B
330
4480
100
AcDbEntity
  8
Defpoints
 62
     0
100
AcDbPoint
 10
1788.123354834187
 20
1975.468865560612
 30
0.0
  0
ENDBLK
  5
4482
330
4480
100
AcDbEntity
  8
0
100
AcDbBlockEnd
  0
BLOCK
  5
4490
330
448F
100
AcDbEntity
  8
0
100
AcDbBlockBegin
  2
*D54
 70
     1
 10
0.0
 20
0.0
 30
0.0
  3
*D54
  1
*D55
  0
LINE
  5
4492
330
448F
100
AcDbEntity
  8
MODEL
  6
Continuous
 62
     0
370
    -2
100
AcDbLine
 10
1523.317708020684
 20
1950.468865560612
 30
0.0
 11
1523.317708020684
 21
1895.711490431345
 31
0.0
  0
LINE
  5
4493
330
448F
100
AcDbEntity
  8
MODEL
  6
Continuous
 62
     0
370
    -2
100
AcDbLine
 10
1403.317708020674
 20
1950.468865560612
 30
0.0
 11
1403.317708020674
 21
1895.711490431345
 31
0.0
  0
LINE
  5
4494
330
448F
100
AcDbEntity
  8
MODEL
  6
Continuous
 62
     0
370
    -2
100
AcDbLine
 10
1514.317708020684
 20
1895.711490431345
 30
0.0
 11
1412.317708020674
 21
1895.711490431345
 31
0.0
  0
INSERT
  5
4495
330
448F
100
AcDbEntity
  8
MODEL
 62
     0
370
    -2
100
AcDbBlockReference
  2
_DOT
 10
1523.317708020684
 20
1895.711490431345
 30
0.0
 41
9.0
 42
9.0
 43
9.0
  0
INSERT
  5
4496
330
448F
100
AcDbEntity
  8
MODEL
 62
     0
370
    -2
100
AcDbBlockReference
  2
_DOT
 10
1403.317708020674
 20
1895.711490431345
 30
0.0
 41
9.0
 42
9.0
 43
9.0
 50
180.0
  0
MTEXT
  5
4497
330
448F
100
AcDbEntity
  8
MODEL
  6
Continuous
 62
     0
370
    13
100
AcDbMText
 10
1463.317708020679
 20
1917.927799025095
 30
0.0
 40
24.4326171875
 41
0.0
 46
0.0
 71
     5
 72
     1
  1
\A1;120
  7
ＭＳ ゴシック
 73
     1
 44
1.0
  0
POINT
  5
4498
330
448F
100
AcDbEntity
  8
Defpoints
 62
     0
100
AcDbPoint
 10
1523.317708020684
 20
1975.468865560612
 30
0.0
  0
POINT
  5
4499
330
448F
100
AcDbEntity
  8
Defpoints
 62
     0
100
AcDbPoint
 10
1403.317708020674
 20
1975.468865560612
 30
0.0
  0
POINT
  5
449A
330
448F
100
AcDbEntity
  8
Defpoints
 62
     0
100
AcDbPoint
 10
1403.317708020674
 20
1895.711490431345
 30
0.0
  0
ENDBLK
  5
4491
330
448F
100
AcDbEntity
  8
0
100
AcDbBlockEnd
  0
BLOCK
  5
44A8
330
44A7
100
AcDbEntity
  8
0
100
AcDbBlockBegin
  2
*D55
 70
     1
 10
0.0
 20
0.0
 30
0.0
  3
*D55
  1
*D56
  0
LINE
  5
44AA
330
44A7
100
AcDbEntity
  8
MODEL
  6
Continuous
 62
     0
370
    -2
100
AcDbLine
 10
1243.47443973567
 20
2045.370116857478
 30
0.0
 11
1178.278807697178
 21
2045.370116857478
 31
0.0
  0
LINE
  5
44AB
330
44A7
100
AcDbEntity
  8
MODEL
  6
Continuous
 62
     0
370
    -2
100
AcDbLine
 10
1243.323178906923
 20
2235.395568894818
 30
0.0
 11
1178.278807697178
 21
2235.395568894818
 31
0.0
  0
LINE
  5
44AC
330
44A7
100
AcDbEntity
  8
MODEL
  6
Continuous
 62
     0
370
    -2
100
AcDbLine
 10
1178.278807697178
 20
2054.370116857478
 30
0.0
 11
1178.278807697178
 21
2226.395568894818
 31
0.0
  0
INSERT
  5
44AD
330
44A7
100
AcDbEntity
  8
MODEL
 62
     0
370
    -2
100
AcDbBlockReference
  2
_DOT
 10
1178.278807697178
 20
2045.370116857478
 30
0.0
 41
9.0
 42
9.0
 43
9.0
 50
270.0
  0
INSERT
  5
44AE
330
44A7
100
AcDbEntity
  8
MODEL
 62
     0
370
    -2
100
AcDbBlockReference
  2
_DOT
 10
1178.278807697178
 20
2235.395568894818
 30
0.0
 41
9.0
 42
9.0
 43
9.0
 50
90.0
  0
MTEXT
  5
44AF
330
44A7
100
AcDbEntity
  8
MODEL
  6
Continuous
 62
     0
370
    13
100
AcDbMText
 10
1156.062499103428
 20
2140.382842876148
 30
0.0
 40
24.4326171875
 41
0.0
 46
0.0
 71
     5
 72
     1
  1
\A1;190
  7
ＭＳ ゴシック
 11
0.0
 21
1.0
 31
0.0
 73
     1
 44
1.0
  0
POINT
  5
44B0
330
44A7
100
AcDbEntity
  8
Defpoints
 62
     0
100
AcDbPoint
 10
1268.47443973567
 20
2045.370116857478
 30
0.0
  0
POINT
  5
44B1
330
44A7
100
AcDbEntity
  8
Defpoints
 62
     0
100
AcDbPoint
 10
1268.323178906923
 20
2235.395568894818
 30
0.0
  0
POINT
  5
44B2
330
44A7
100
AcDbEntity
  8
Defpoints
 62
     0
100
AcDbPoint
 10
1178.278807697178
 20
2235.395568894818
 30
0.0
  0
ENDBLK
  5
44A9
330
44A7
100
AcDbEntity
  8
0
100
AcDbBlockEnd
  0
BLOCK
  5
455F
330
455E
100
AcDbEntity
  8
0
100
AcDbBlockBegin
  2
*D56
 70
     1
 10
0.0
 20
0.0
 30
0.0
  3
*D56
  1
*D60
  0
LINE
  5
4561
330
455E
100
AcDbEntity
  8
MODEL
  6
Continuous
 62
     0
370
    -2
100
AcDbLine
 10
530.2380080443359
 20
1119.037482623692
 30
0.0
 11
796.3193047648697
 21
1119.037482623692
 31
0.0
  0
LINE
  5
4562
330
455E
100
AcDbEntity
  8
MODEL
  6
Continuous
 62
     0
370
    -2
100
AcDbLine
 10
530.2380080443359
 20
979.0397340529544
 30
0.0
 11
796.3193047648697
 21
979.0397340529544
 31
0.0
  0
LINE
  5
4563
330
455E
100
AcDbEntity
  8
MODEL
  6
Continuous
 62
     0
370
    -2
100
AcDbLine
 10
796.3193047648697
 20
1110.037482623692
 30
0.0
 11
796.3193047648697
 21
988.0397340529544
 31
0.0
  0
INSERT
  5
4564
330
455E
100
AcDbEntity
  8
MODEL
 62
     0
370
    -2
100
AcDbBlockReference
  2
_DOT
 10
796.3193047648697
 20
1119.037482623692
 30
0.0
 41
9.0
 42
9.0
 43
9.0
 50
90.0
  0
INSERT
  5
4565
330
455E
100
AcDbEntity
  8
MODEL
 62
     0
370
    -2
100
AcDbBlockReference
  2
_DOT
 10
796.3193047648697
 20
979.0397340529544
 30
0.0
 41
9.0
 42
9.0
 43
9.0
 50
270.0
  0
MTEXT
  5
4566
330
455E
100
AcDbEntity
  8
MODEL
  6
Continuous
 62
     0
370
     0
100
AcDbMText
 10
774.1029961711197
 20
1049.038608338323
 30
0.0
 40
24.4326171875
 41
0.0
 46
0.0
 71
     5
 72
     1
  1
\A1;140
  7
ＭＳ ゴシック
 11
0.0
 21
1.0
 31
0.0
 73
     1
 44
1.0
  0
POINT
  5
4567
330
455E
100
AcDbEntity
  8
Defpoints
 62
     0
100
AcDbPoint
 10
505.2380080443359
 20
1119.037482623692
 30
0.0
  0
POINT
  5
4568
330
455E
100
AcDbEntity
  8
Defpoints
 62
     0
100
AcDbPoint
 10
505.2380080443359
 20
979.0397340529544
 30
0.0
  0
POINT
  5
4569
330
455E
100
AcDbEntity
  8
Defpoints
 62
     0
100
AcDbPoint
 10
796.3193047648697
 20
979.0397340529544
 30
0.0
  0
ENDBLK
  5
4560
330
455E
100
AcDbEntity
  8
0
100
AcDbBlockEnd
  0
BLOCK
  5
456E
330
456D
100
AcDbEntity
  8
0
100
AcDbBlockBegin
  2
*D57
 70
     1
 10
0.0
 20
0.0
 30
0.0
  3
*D57
  1
*D61
  0
LINE
  5
4570
330
456D
100
AcDbEntity
  8
MODEL
  6
Continuous
 62
     0
370
    -2
100
AcDbLine
 10
740.8254919942601
 20
983.3750170225237
 30
0.0
 11
808.4727916383239
 21
983.3750170225237
 31
0.0
  0
LINE
  5
4571
330
456D
100
AcDbEntity
  8
MODEL
  6
Continuous
 62
     0
370
    -2
100
AcDbLine
 10
581.0889726206999
 20
828.3731786963112
 30
0.0
 11
808.4727916383239
 21
828.3731786963112
 31
0.0
  0
LINE
  5
4572
330
456D
100
AcDbEntity
  8
MODEL
  6
Continuous
 62
     0
370
    -2
100
AcDbLine
 10
808.4727916383239
 20
974.3750170225237
 30
0.0
 11
808.4727916383239
 21
837.3731786963112
 31
0.0
  0
INSERT
  5
4573
330
456D
100
AcDbEntity
  8
MODEL
 62
     0
370
    -2
100
AcDbBlockReference
  2
_DOT
 10
808.4727916383239
 20
983.3750170225237
 30
0.0
 41
9.0
 42
9.0
 43
9.0
 50
90.0
  0
INSERT
  5
4574
330
456D
100
AcDbEntity
  8
MODEL
 62
     0
370
    -2
100
AcDbBlockReference
  2
_DOT
 10
808.4727916383239
 20
828.3731786963112
 30
0.0
 41
9.0
 42
9.0
 43
9.0
 50
270.0
  0
MTEXT
  5
4575
330
456D
100
AcDbEntity
  8
MODEL
  6
Continuous
 62
     0
370
    13
100
AcDbMText
 10
786.2564830445739
 20
905.8740978594176
 30
0.0
 40
24.4326171875
 41
0.0
 46
0.0
 71
     5
 72
     1
  1
\A1;155
  7
ＭＳ ゴシック
 11
0.0
 21
1.0
 31
0.0
 73
     1
 44
1.0
  0
POINT
  5
4576
330
456D
100
AcDbEntity
  8
Defpoints
 62
     0
100
AcDbPoint
 10
715.8254919942601
 20
983.3750170225237
 30
0.0
  0
POINT
  5
4577
330
456D
100
AcDbEntity
  8
Defpoints
 62
     0
100
AcDbPoint
 10
556.0889726206999
 20
828.3731786963112
 30
0.0
  0
POINT
  5
4578
330
456D
100
AcDbEntity
  8
Defpoints
 62
     0
100
AcDbPoint
 10
808.4727916383239
 20
828.3731786963112
 30
0.0
  0
ENDBLK
  5
456F
330
456D
100
AcDbEntity
  8
0
100
AcDbBlockEnd
  0
BLOCK
  5
458E
330
458D
100
AcDbEntity
  8
0
100
AcDbBlockBegin
  2
*D58
 70
     1
 10
0.0
 20
0.0
 30
0.0
  3
*D58
  1
*D62
  0
LINE
  5
4590
330
458D
100
AcDbEntity
  8
MODEL
  6
Continuous
 62
     0
370
    -2
100
AcDbLine
 10
1243.132249445602
 20
983.2813103635069
 30
0.0
 11
1178.278807697178
 21
983.2813103635069
 31
0.0
  0
LINE
  5
4591
330
458D
100
AcDbEntity
  8
MODEL
  6
Continuous
 62
     0
370
    -2
100
AcDbLine
 10
1257.493149015567
 20
843.2835617927694
 30
0.0
 11
1178.278807697178
 21
843.2835617927694
 31
0.0
  0
LINE
  5
4592
330
458D
100
AcDbEntity
  8
MODEL
  6
Continuous
 62
     0
370
    -2
100
AcDbLine
 10
1178.278807697178
 20
974.2813103635069
 30
0.0
 11
1178.278807697178
 21
852.2835617927694
 31
0.0
  0
INSERT
  5
4593
330
458D
100
AcDbEntity
  8
MODEL
 62
     0
370
    -2
100
AcDbBlockReference
  2
_DOT
 10
1178.278807697178
 20
983.2813103635069
 30
0.0
 41
9.0
 42
9.0
 43
9.0
 50
90.0
  0
INSERT
  5
4594
330
458D
100
AcDbEntity
  8
MODEL
 62
     0
370
    -2
100
AcDbBlockReference
  2
_DOT
 10
1178.278807697178
 20
843.2835617927694
 30
0.0
 41
9.0
 42
9.0
 43
9.0
 50
270.0
  0
MTEXT
  5
4595
330
458D
100
AcDbEntity
  8
MODEL
  6
Continuous
 62
     0
370
    13
100
AcDbMText
 10
1156.062499103428
 20
913.2824360781382
 30
0.0
 40
24.4326171875
 41
0.0
 46
0.0
 71
     5
 72
     1
  1
\A1;140
  7
ＭＳ ゴシック
 11
0.0
 21
1.0
 31
0.0
 73
     1
 44
1.0
  0
POINT
  5
4596
330
458D
100
AcDbEntity
  8
Defpoints
 62
     0
100
AcDbPoint
 10
1268.132249445602
 20
983.2813103635069
 30
0.0
  0
POINT
  5
4597
330
458D
100
AcDbEntity
  8
Defpoints
 62
     0
100
AcDbPoint
 10
1282.493149015567
 20
843.2835617927694
 30
0.0
  0
POINT
  5
4598
330
458D
100
AcDbEntity
  8
Defpoints
 62
     0
100
AcDbPoint
 10
1178.278807697178
 20
843.2835617927694
 30
0.0
  0
ENDBLK
  5
458F
330
458D
100
AcDbEntity
  8
0
100
AcDbBlockEnd
  0
BLOCK
  5
45B6
330
45B5
100
AcDbEntity
  8
0
100
AcDbBlockBegin
  2
*D59
 70
     1
 10
0.0
 20
0.0
 30
0.0
  3
*D59
  1
*D63
  0
LINE
  5
45B8
330
45B5
100
AcDbEntity
  8
MODEL
  6
Continuous
 62
     0
370
    -2
100
AcDbLine
 10
1409.61033503362
 20
1033.943775964675
 30
0.0
 11
1409.61033503362
 21
1183.684753614309
 31
0.0
  0
LINE
  5
45B9
330
45B5
100
AcDbEntity
  8
MODEL
  6
Continuous
 62
     0
370
    -2
100
AcDbLine
 10
1549.61033503362
 20
1033.943775964675
 30
0.0
 11
1549.61033503362
 21
1183.684753614309
 31
0.0
  0
LINE
  5
45BA
330
45B5
100
AcDbEntity
  8
MODEL
  6
Continuous
 62
     0
370
    -2
100
AcDbLine
 10
1418.61033503362
 20
1183.684753614309
 30
0.0
 11
1540.61033503362
 21
1183.684753614309
 31
0.0
  0
INSERT
  5
45BB
330
45B5
100
AcDbEntity
  8
MODEL
 62
     0
370
    -2
100
AcDbBlockReference
  2
_DOT
 10
1409.61033503362
 20
1183.684753614309
 30
0.0
 41
9.0
 42
9.0
 43
9.0
 50
180.0
  0
INSERT
  5
45BC
330
45B5
100
AcDbEntity
  8
MODEL
 62
     0
370
    -2
100
AcDbBlockReference
  2
_DOT
 10
1549.61033503362
 20
1183.684753614309
 30
0.0
 41
9.0
 42
9.0
 43
9.0
  0
MTEXT
  5
45BD
330
45B5
100
AcDbEntity
  8
MODEL
  6
Continuous
 62
     0
370
     0
100
AcDbMText
 10
1479.61033503362
 20
1205.901062208059
 30
0.0
 40
24.4326171875
 41
0.0
 46
0.0
 71
     5
 72
     1
  1
\A1;140
  7
ＭＳ ゴシック
 73
     1
 44
1.0
  0
POINT
  5
45BE
330
45B5
100
AcDbEntity
  8
Defpoints
 62
     0
100
AcDbPoint
 10
1409.61033503362
 20
1008.943775964675
 30
0.0
  0
POINT
  5
45BF
330
45B5
100
AcDbEntity
  8
Defpoints
 62
     0
100
AcDbPoint
 10
1549.61033503362
 20
1008.943775964675
 30
0.0
  0
POINT
  5
45C0
330
45B5
100
AcDbEntity
  8
Defpoints
 62
     0
100
AcDbPoint
 10
1549.61033503362
 20
1183.684753614309
 30
0.0
  0
ENDBLK
  5
45B7
330
45B5
100
AcDbEntity
  8
0
100
AcDbBlockEnd
  0
BLOCK
  5
45C9
330
45C8
100
AcDbEntity
  8
0
100
AcDbBlockBegin
  2
*D60
 70
     1
 10
0.0
 20
0.0
 30
0.0
  3
*D60
  1
*D64
  0
LINE
  5
45CB
330
45C8
100
AcDbEntity
  8
MODEL
  6
Continuous
 62
     0
370
    -2
100
AcDbLine
 10
1409.874918541431
 20
1143.943775964675
 30
0.0
 11
1409.874918541431
 21
1207.751041452623
 31
0.0
  0
LINE
  5
45CC
330
45C8
100
AcDbEntity
  8
MODEL
  6
Continuous
 62
     0
370
    -2
100
AcDbLine
 10
1609.874918541431
 20
1143.943775964675
 30
0.0
 11
1609.874918541431
 21
1207.751041452623
 31
0.0
  0
LINE
  5
45CD
330
45C8
100
AcDbEntity
  8
MODEL
  6
Continuous
 62
     0
370
    -2
100
AcDbLine
 10
1418.874918541431
 20
1207.751041452623
 30
0.0
 11
1600.874918541431
 21
1207.751041452623
 31
0.0
  0
INSERT
  5
45CE
330
45C8
100
AcDbEntity
  8
MODEL
 62
     0
370
    -2
100
AcDbBlockReference
  2
_DOT
 10
1409.874918541431
 20
1207.751041452623
 30
0.0
 41
9.0
 42
9.0
 43
9.0
 50
180.0
  0
INSERT
  5
45CF
330
45C8
100
AcDbEntity
  8
MODEL
 62
     0
370
    -2
100
AcDbBlockReference
  2
_DOT
 10
1609.874918541431
 20
1207.751041452623
 30
0.0
 41
9.0
 42
9.0
 43
9.0
  0
MTEXT
  5
45D0
330
45C8
100
AcDbEntity
  8
MODEL
  6
Continuous
 62
     0
370
     0
100
AcDbMText
 10
1509.874918541431
 20
1229.967350046373
 30
0.0
 40
24.4326171875
 41
0.0
 46
0.0
 71
     5
 72
     1
  1
\A1;200
  7
ＭＳ ゴシック
 73
     1
 44
1.0
  0
POINT
  5
45D1
330
45C8
100
AcDbEntity
  8
Defpoints
 62
     0
100
AcDbPoint
 10
1409.874918541431
 20
1118.943775964675
 30
0.0
  0
POINT
  5
45D2
330
45C8
100
AcDbEntity
  8
Defpoints
 62
     0
100
AcDbPoint
 10
1609.874918541431
 20
1118.943775964675
 30
0.0
  0
POINT
  5
45D3
330
45C8
100
AcDbEntity
  8
Defpoints
 62
     0
100
AcDbPoint
 10
1609.874918541431
 20
1207.751041452623
 30
0.0
  0
ENDBLK
  5
45CA
330
45C8
100
AcDbEntity
  8
0
100
AcDbBlockEnd
  0
BLOCK
  5
45DF
330
45DE
100
AcDbEntity
  8
0
100
AcDbBlockBegin
  2
*D61
 70
     1
 10
0.0
 20
0.0
 30
0.0
  3
*D61
  1
*D65
  0
LINE
  5
45E1
330
45DE
100
AcDbEntity
  8
MODEL
  6
Continuous
 62
     0
370
    -2
100
AcDbLine
 10
1232.493149015567
 20
843.2835617927694
 30
0.0
 11
1178.278807697178
 21
843.2835617927694
 31
0.0
  0
LINE
  5
45E2
330
45DE
100
AcDbEntity
  8
MODEL
  6
Continuous
 62
     0
370
    -2
100
AcDbLine
 10
1413.317708020679
 20
828.2794720372946
 30
0.0
 11
1178.278807697178
 21
828.2794720372946
 31
0.0
  0
INSERT
  5
45E3
330
45DE
100
AcDbEntity
  8
MODEL
 62
     0
370
    -2
100
AcDbBlockReference
  2
_DOT
 10
1178.278807697178
 20
843.2835617927694
 30
0.0
 41
9.0
 42
9.0
 43
9.0
 50
90.0
  0
INSERT
  5
45E4
330
45DE
100
AcDbEntity
  8
MODEL
 62
     0
370
    -2
100
AcDbBlockReference
  2
_DOT
 10
1178.278807697178
 20
828.2794720372946
 30
0.0
 41
9.0
 42
9.0
 43
9.0
 50
270.0
  0
MTEXT
  5
45E5
330
45DE
100
AcDbEntity
  8
MODEL
  6
Continuous
 62
     0
370
    13
100
AcDbMText
 10
1156.062499103428
 20
835.781516915032
 30
0.0
 40
24.4326171875
 41
0.0
 46
0.0
 71
     5
 72
     1
  1
\A1;15
  7
ＭＳ ゴシック
 11
0.0
 21
1.0
 31
0.0
 73
     1
 44
1.0
  0
POINT
  5
45E6
330
45DE
100
AcDbEntity
  8
Defpoints
 62
     0
100
AcDbPoint
 10
1257.493149015567
 20
843.2835617927694
 30
0.0
  0
POINT
  5
45E7
330
45DE
100
AcDbEntity
  8
Defpoints
 62
     0
100
AcDbPoint
 10
1438.317708020679
 20
828.2794720372946
 30
0.0
  0
POINT
  5
45E8
330
45DE
100
AcDbEntity
  8
Defpoints
 62
     0
100
AcDbPoint
 10
1178.278807697178
 20
828.2794720372946
 30
0.0
  0
ENDBLK
  5
45E0
330
45DE
100
AcDbEntity
  8
0
100
AcDbBlockEnd
  0
BLOCK
  5
4601
330
4600
100
AcDbEntity
  8
0
100
AcDbBlockBegin
  2
*D62
 70
     1
 10
0.0
 20
0.0
 30
0.0
  3
*D62
  1
*D66
  0
LINE
  5
4603
330
4600
100
AcDbEntity
  8
MODEL
  6
Continuous
 62
     0
370
    -2
100
AcDbLine
 10
1663.261124953818
 20
997.8770010848432
 30
0.0
 11
1663.261124953818
 21
1037.510688215546
 31
0.0
  0
LINE
  5
4604
330
4600
100
AcDbEntity
  8
MODEL
  6
Continuous
 62
     0
370
    -2
100
AcDbLine
 10
1603.053124512868
 20
997.8770010848432
 30
0.0
 11
1603.053124512868
 21
1037.510688215546
 31
0.0
  0
LINE
  5
4605
330
4600
100
AcDbEntity
  8
MODEL
  6
Continuous
 62
     0
370
    -2
100
AcDbLine
 10
1654.261124953818
 20
1037.510688215546
 30
0.0
 11
1612.053124512868
 21
1037.510688215546
 31
0.0
  0
INSERT
  5
4606
330
4600
100
AcDbEntity
  8
MODEL
 62
     0
370
    -2
100
AcDbBlockReference
  2
_DOT
 10
1663.261124953818
 20
1037.510688215546
 30
0.0
 41
9.0
 42
9.0
 43
9.0
  0
INSERT
  5
4607
330
4600
100
AcDbEntity
  8
MODEL
 62
     0
370
    -2
100
AcDbBlockReference
  2
_DOT
 10
1603.053124512868
 20
1037.510688215546
 30
0.0
 41
9.0
 42
9.0
 43
9.0
 50
180.0
  0
MTEXT
  5
4608
330
4600
100
AcDbEntity
  8
MODEL
  6
Continuous
 62
     0
370
    13
100
AcDbMText
 10
1633.157124733343
 20
1059.726996809296
 30
0.0
 40
24.4326171875
 41
0.0
 46
0.0
 71
     5
 72
     1
  1
\A1;60
  7
ＭＳ ゴシック
 73
     1
 44
1.0
  0
POINT
  5
4609
330
4600
100
AcDbEntity
  8
Defpoints
 62
     0
100
AcDbPoint
 10
1663.261124953818
 20
972.8770010848432
 30
0.0
  0
POINT
  5
460A
330
4600
100
AcDbEntity
  8
Defpoints
 62
     0
100
AcDbPoint
 10
1603.053124512868
 20
972.8770010848432
 30
0.0
  0
POINT
  5
460B
330
4600
100
AcDbEntity
  8
Defpoints
 62
     0
100
AcDbPoint
 10
1603.053124512868
 20
1037.510688215546
 30
0.0
  0
ENDBLK
  5
4602
330
4600
100
AcDbEntity
  8
0
100
AcDbBlockEnd
  0
BLOCK
  5
4610
330
460F
100
AcDbEntity
  8
0
100
AcDbBlockBegin
  2
*D63
 70
     1
 10
0.0
 20
0.0
 30
0.0
  3
*D63
  1
*D67
  0
LINE
  5
4612
330
460F
100
AcDbEntity
  8
MODEL
  6
Continuous
 62
     0
370
    -2
100
AcDbLine
 10
1549.61033503362
 20
1156.202175087758
 30
0.0
 11
1549.61033503362
 21
1173.173153816715
 31
0.0
  0
LINE
  5
4613
330
460F
100
AcDbEntity
  8
MODEL
  6
Continuous
 62
     0
370
    -2
100
AcDbLine
 10
1409.874918541431
 20
1156.202175087758
 30
0.0
 11
1409.874918541431
 21
1173.173153816715
 31
0.0
  0
LINE
  5
4614
330
460F
100
AcDbEntity
  8
MODEL
  6
Continuous
 62
     0
370
    -2
100
AcDbLine
 10
1540.61033503362
 20
1173.173153816715
 30
0.0
 11
1418.874918541431
 21
1173.173153816715
 31
0.0
  0
INSERT
  5
4615
330
460F
100
AcDbEntity
  8
MODEL
 62
     0
370
    -2
100
AcDbBlockReference
  2
_DOT
 10
1549.61033503362
 20
1173.173153816715
 30
0.0
 41
9.0
 42
9.0
 43
9.0
  0
INSERT
  5
4616
330
460F
100
AcDbEntity
  8
MODEL
 62
     0
370
    -2
100
AcDbBlockReference
  2
_DOT
 10
1409.874918541431
 20
1173.173153816715
 30
0.0
 41
9.0
 42
9.0
 43
9.0
 50
180.0
  0
MTEXT
  5
4617
330
460F
100
AcDbEntity
  8
MODEL
  6
Continuous
 62
     0
370
     0
100
AcDbMText
 10
1479.742626787526
 20
1195.389462410465
 30
0.0
 40
24.4326171875
 41
0.0
 46
0.0
 71
     5
 72
     1
  1
\A1;140
  7
ＭＳ ゴシック
 73
     1
 44
1.0
  0
POINT
  5
4618
330
460F
100
AcDbEntity
  8
Defpoints
 62
     0
100
AcDbPoint
 10
1549.61033503362
 20
1131.202175087758
 30
0.0
  0
POINT
  5
4619
330
460F
100
AcDbEntity
  8
Defpoints
 62
     0
100
AcDbPoint
 10
1409.874918541431
 20
1131.202175087758
 30
0.0
  0
POINT
  5
461A
330
460F
100
AcDbEntity
  8
Defpoints
 62
     0
100
AcDbPoint
 10
1409.874918541431
 20
1173.173153816715
 30
0.0
  0
ENDBLK
  5
4611
330
460F
100
AcDbEntity
  8
0
100
AcDbBlockEnd
  0
BLOCK
  5
461F
330
461E
100
AcDbEntity
  8
0
100
AcDbBlockBegin
  2
*D64
 70
     1
 10
0.0
 20
0.0
 30
0.0
  3
*D64
  1
*D68
  0
LINE
  5
4621
330
461E
100
AcDbEntity
  8
MODEL
  6
Continuous
 62
     0
370
    -2
100
AcDbLine
 10
1409.874918541431
 20
1198.173153816715
 30
0.0
 11
1409.874918541431
 21
1173.173153816715
 31
0.0
  0
LINE
  5
4622
330
461E
100
AcDbEntity
  8
MODEL
  6
Continuous
 62
     0
370
    -2
100
AcDbLine
 10
1207.51725687902
 20
1156.202175087758
 30
0.0
 11
1207.51725687902
 21
1173.173153816715
 31
0.0
  0
LINE
  5
4623
330
461E
100
AcDbEntity
  8
MODEL
  6
Continuous
 62
     0
370
    -2
100
AcDbLine
 10
1400.874918541431
 20
1173.173153816715
 30
0.0
 11
1216.51725687902
 21
1173.173153816715
 31
0.0
  0
INSERT
  5
4624
330
461E
100
AcDbEntity
  8
MODEL
 62
     0
370
    -2
100
AcDbBlockReference
  2
_DOT
 10
1409.874918541431
 20
1173.173153816715
 30
0.0
 41
9.0
 42
9.0
 43
9.0
  0
INSERT
  5
4625
330
461E
100
AcDbEntity
  8
MODEL
 62
     0
370
    -2
100
AcDbBlockReference
  2
_DOT
 10
1207.51725687902
 20
1173.173153816715
 30
0.0
 41
9.0
 42
9.0
 43
9.0
 50
180.0
  0
MTEXT
  5
4626
330
461E
100
AcDbEntity
  8
MODEL
  6
Continuous
 62
     0
370
     0
100
AcDbMText
 10
1308.696087710226
 20
1195.389462410465
 30
0.0
 40
24.4326171875
 41
0.0
 46
0.0
 71
     5
 72
     1
  1
\A1;202
  7
ＭＳ ゴシック
 73
     1
 44
1.0
  0
POINT
  5
4627
330
461E
100
AcDbEntity
  8
Defpoints
 62
     0
100
AcDbPoint
 10
1409.874918541431
 20
1173.173153816715
 30
0.0
  0
POINT
  5
4628
330
461E
100
AcDbEntity
  8
Defpoints
 62
     0
100
AcDbPoint
 10
1207.51725687902
 20
1131.202175087758
 30
0.0
  0
POINT
  5
4629
330
461E
100
AcDbEntity
  8
Defpoints
 62
     0
100
AcDbPoint
 10
1207.51725687902
 20
1173.173153816715
 30
0.0
  0
ENDBLK
  5
4620
330
461E
100
AcDbEntity
  8
0
100
AcDbBlockEnd
  0
BLOCK
  5
463B
330
463A
100
AcDbEntity
  8
0
100
AcDbBlockBegin
  2
*D65
 70
     1
 10
0.0
 20
0.0
 30
0.0
  3
*D65
  1
*D69
  0
LINE
  5
463D
330
463A
100
AcDbEntity
  8
MODEL
  6
Continuous
 62
     0
370
    -2
100
AcDbLine
 10
1463.317708020679
 20
803.2794720372946
 30
0.0
 11
1463.317708020679
 21
775.4375480260288
 31
0.0
  0
LINE
  5
463E
330
463A
100
AcDbEntity
  8
MODEL
  6
Continuous
 62
     0
370
    -2
100
AcDbLine
 10
1663.261124953818
 20
824.1572745554361
 30
0.0
 11
1663.261124953818
 21
775.4375480260288
 31
0.0
  0
LINE
  5
463F
330
463A
100
AcDbEntity
  8
MODEL
  6
Continuous
 62
     0
370
    -2
100
AcDbLine
 10
1472.317708020679
 20
775.4375480260288
 30
0.0
 11
1654.261124953818
 21
775.4375480260288
 31
0.0
  0
INSERT
  5
4640
330
463A
100
AcDbEntity
  8
MODEL
 62
     0
370
    -2
100
AcDbBlockReference
  2
_DOT
 10
1463.317708020679
 20
775.4375480260288
 30
0.0
 41
9.0
 42
9.0
 43
9.0
 50
180.0
  0
INSERT
  5
4641
330
463A
100
AcDbEntity
  8
MODEL
 62
     0
370
    -2
100
AcDbBlockReference
  2
_DOT
 10
1663.261124953818
 20
775.4375480260288
 30
0.0
 41
9.0
 42
9.0
 43
9.0
  0
MTEXT
  5
4642
330
463A
100
AcDbEntity
  8
MODEL
  6
Continuous
 62
     0
370
    13
100
AcDbMText
 10
1563.289416487248
 20
797.6538566197788
 30
0.0
 40
24.4326171875
 41
0.0
 46
0.0
 71
     5
 72
     1
  1
\A1;200
  7
ＭＳ ゴシック
 73
     1
 44
1.0
  0
POINT
  5
4643
330
463A
100
AcDbEntity
  8
Defpoints
 62
     0
100
AcDbPoint
 10
1463.317708020679
 20
828.2794720372946
 30
0.0
  0
POINT
  5
4644
330
463A
100
AcDbEntity
  8
Defpoints
 62
     0
100
AcDbPoint
 10
1663.261124953818
 20
849.1572745554361
 30
0.0
  0
POINT
  5
4645
330
463A
100
AcDbEntity
  8
Defpoints
 62
     0
100
AcDbPoint
 10
1663.261124953818
 20
775.4375480260288
 30
0.0
  0
ENDBLK
  5
463C
330
463A
100
AcDbEntity
  8
0
100
AcDbBlockEnd
  0
BLOCK
  5
464D
330
464C
100
AcDbEntity
  8
0
100
AcDbBlockBegin
  2
*D66
 70
     1
 10
0.0
 20
0.0
 30
0.0
  3
*D66
  1
*D70
  0
LINE
  5
464F
330
464C
100
AcDbEntity
  8
MODEL
  6
Continuous
 62
     0
370
    -2
100
AcDbLine
 10
1488.053124512868
 20
873.281310363507
 30
0.0
 11
1466.450322010534
 21
873.281310363507
 31
0.0
  0
LINE
  5
4650
330
464C
100
AcDbEntity
  8
MODEL
  6
Continuous
 62
     0
370
    -2
100
AcDbLine
 10
1293.132249445602
 20
983.2813103635069
 30
0.0
 11
1466.450322010534
 21
983.2813103635069
 31
0.0
  0
LINE
  5
4651
330
464C
100
AcDbEntity
  8
MODEL
  6
Continuous
 62
     0
370
    -2
100
AcDbLine
 10
1466.450322010534
 20
983.2813103635069
 30
0.0
 11
1466.450322010534
 21
1153.657230285382
 31
0.0
  0
INSERT
  5
4652
330
464C
100
AcDbEntity
  8
MODEL
 62
     0
370
    -2
100
AcDbBlockReference
  2
_DOT
 10
1466.450322010534
 20
873.281310363507
 30
0.0
 41
9.0
 42
9.0
 43
9.0
 50
270.0
  0
INSERT
  5
4653
330
464C
100
AcDbEntity
  8
MODEL
 62
     0
370
    -2
100
AcDbBlockReference
  2
_DOT
 10
1466.450322010534
 20
983.2813103635069
 30
0.0
 41
9.0
 42
9.0
 43
9.0
 50
90.0
  0
MTEXT
  5
4654
330
464C
100
AcDbEntity
  8
MODEL
  6
Continuous
 62
     0
370
    13
100
AcDbMText
 10
1442.07172679569
 20
1077.469270324444
 30
0.0
 40
24.4326171875
 41
0.0
 46
0.0
 71
     5
 72
     1
  1
\A1;110(深さ)
  7
ＭＳ ゴシック
 11
0.0
 21
1.0
 31
0.0
 73
     1
 44
1.0
  0
POINT
  5
4655
330
464C
100
AcDbEntity
  8
Defpoints
 62
     0
100
AcDbPoint
 10
1463.053124512868
 20
873.281310363507
 30
0.0
  0
POINT
  5
4656
330
464C
100
AcDbEntity
  8
Defpoints
 62
     0
100
AcDbPoint
 10
1268.132249445602
 20
983.2813103635069
 30
0.0
  0
POINT
  5
4657
330
464C
100
AcDbEntity
  8
Defpoints
 62
     0
100
AcDbPoint
 10
1466.450322010534
 20
983.2813103635069
 30
0.0
  0
ENDBLK
  5
464E
330
464C
100
AcDbEntity
  8
0
100
AcDbBlockEnd
  0
ENDSEC
  0
SECTION
  2
ENTITIES
  0
MTEXT
  5
177
330
A
100
AcDbEntity
  8
template
370
    20
390
1D
100
AcDbMText
 10
47.00000000048203
 20
321.1379815200517
 30
0.0
 40
16.28841145833333
 41
0.0
 46
0.0
 71
     1
 72
     1
  1
品名
  7
ＭＳ ゴシック
 73
     1
 44
0.7828267384257843
  0
MTEXT
  5
178
330
A
100
AcDbEntity
  8
template
370
    20
390
1D
100
AcDbMText
 10
47.00000000048203
 20
236.1379815200515
 30
0.0
 40
16.28841145833333
 41
0.0
 46
0.0
 71
     1
 72
     1
  1
仕様
  7
ＭＳ ゴシック
 73
     1
 44
0.7828267384257843
  0
LINE
  5
179
330
A
100
AcDbEntity
  8
template
  6
Continuous
370
    20
390
1D
100
AcDbLine
 10
1990.0
 20
244.5529033950516
 30
0.0
 11
40.0
 21
244.5529033950516
 31
0.0
  0
LWPOLYLINE
  5
17A
330
A
100
AcDbEntity
  8
template
  6
Continuous
370
    20
390
1D
100
AcDbPolyline
 90
        5
 70
   128
 43
0.0
 10
1990.0
 20
2874.552903395052
 10
40.0
 20
2874.552903395052
 10
40.0
 20
74.55290339505154
 10
1990.0
 20
74.55290339505154
 10
1990.0
 20
2874.552903395052
  0
LINE
  5
17B
330
A
100
AcDbEntity
  8
template
  6
Continuous
370
    20
390
1D
100
AcDbLine
 10
1990.0
 20
329.5529033950515
 30
0.0
 11
40.0
 21
329.5529033950515
 31
0.0
  0
LINE
  5
17C
330
A
100
AcDbEntity
  8
template
  6
Continuous
370
    20
390
1D
100
AcDbLine
 10
1990.000000000482
 20
159.5529033950516
 30
0.0
 11
1237.000000000482
 21
159.5529033950516
 31
0.0
  0
MTEXT
  5
17D
330
A
100
AcDbEntity
  8
template
370
    20
390
1D
100
AcDbMText
 10
40.00000000068576
 20
62.69908133819445
 30
0.0
 40
21.71788194444445
 41
0.0
 46
21.71788194444445
 71
     1
 72
     1
  1
{141016HO}
  7
ＭＳ ゴシック
 73
     1
 44
0.7828267384257843
1001
ACAD
1000
ACAD_MTEXT_DEFINED_HEIGHT_BEGIN
1070
    46
1040
21.71788194444445
1000
ACAD_MTEXT_DEFINED_HEIGHT_END
  0
MTEXT
  5
17E
330
A
100
AcDbEntity
  8
template
370
    20
390
1D
100
AcDbMText
 10
1266.871406252743
 20
129.6425089217435
 30
0.0
 40
24.4326171875
 41
0.0
 46
0.0
 71
     1
 72
     1
  1
大洋金物株式会社 ティーフォルム事業部
  7
ＭＳ ゴシック
 73
     1
 44
0.7828267384257843
  0
MTEXT
  5
180
330
A
100
AcDbEntity
  8
template
370
    20
390
1D
100
AcDbMText
 10
1802.089894676016
 20
204.0242123822379
 30
0.0
 40
24.4326171875
 41
0.0
 46
0.0
 71
     1
 72
     1
  1
1:10
  7
ＭＳ ゴシック
 73
     1
 44
0.7828267384257843
  0
MTEXT
  5
181
330
A
100
AcDbEntity
  8
template
370
    20
390
1D
100
AcDbMText
 10
1746.000000000742
 20
236.1379815200515
 30
0.0
 40
16.28841145833333
 41
0.0
 46
0.0
 71
     1
 72
     1
  1
縮尺
  7
ＭＳ ゴシック
 73
     1
 44
0.7828267384257843
  0
LINE
  5
182
330
A
100
AcDbEntity
  8
template
  6
Continuous
370
    20
390
1D
100
AcDbLine
 10
1739.000000000742
 20
159.5529033950516
 30
0.0
 11
1739.000000000742
 21
244.5529033950516
 31
0.0
  0
MTEXT
  5
183
330
A
100
AcDbEntity
  8
template
370
    20
390
1D
100
AcDbMText
 10
1495.000000000742
 20
236.1379815200515
 30
0.0
 40
16.28841145833333
 41
0.0
 46
0.0
 71
     1
 72
     1
  1
容量
  7
ＭＳ ゴシック
 73
     1
 44
0.7828267384257843
  0
LINE
  5
184
330
A
100
AcDbEntity
  8
template
  6
Continuous
370
    20
390
1D
100
AcDbLine
 10
1488.000000000742
 20
159.5529033950516
 30
0.0
 11
1488.000000000742
 21
244.5529033950516
 31
0.0
  0
MTEXT
  5
185
330
A
100
AcDbEntity
  8
template
370
    20
390
1D
100
AcDbMText
 10
1244.000000000742
 20
321.1379815200517
 30
0.0
 40
16.28841145833333
 41
0.0
 46
0.0
 71
     1
 72
     1
  1
品番
  7
ＭＳ ゴシック
 73
     1
 44
0.7828267384257843
  0
MTEXT
  5
186
330
A
100
AcDbEntity
  8
template
370
    20
390
1D
100
AcDbMText
 10
1244.000000000742
 20
236.1379815200515
 30
0.0
 40
16.28841145833333
 41
0.0
 46
0.0
 71
     1
 72
     1
  1
重量
  7
ＭＳ ゴシック
 73
     1
 44
0.7828267384257843
  0
MTEXT
  5
187
330
A
100
AcDbEntity
  8
template
370
    20
390
1D
100
AcDbMText
 10
1297.000000000742
 20
292.5555205825515
 30
0.0
 40
24.4326171875
 41
0.0
 46
24.4326171875
 71
     1
 72
     1
  1
{GAR70-1505}
  7
ＭＳ ゴシック
 73
     1
 44
0.7828267384257843
1001
ACAD
1000
ACAD_MTEXT_DEFINED_HEIGHT_BEGIN
1070
    46
1040
24.4326171875
1000
ACAD_MTEXT_DEFINED_HEIGHT_END
  0
LINE
  5
188
330
A
100
AcDbEntity
  8
template
  6
Continuous
370
    20
390
1D
100
AcDbLine
 10
1237.000000000742
 20
74.55290339505154
 30
0.0
 11
1237.000000000742
 21
329.5529033950515
 31
0.0
  0
MTEXT
  5
189
330
A
100
AcDbEntity
  8
template
370
    20
390
1D
100
AcDbMText
 10
100.000000000482
 20
292.5555205825515
 30
0.0
 40
24.4326171875
 41
0.0
 46
24.4326171875
 71
     1
 72
     1
  1
{手洗器 -LAUFEN,Living City-}
  7
ＭＳ ゴシック
 73
     1
 44
0.7828267384257843
1001
ACAD
1000
ACAD_MTEXT_DEFINED_HEIGHT_BEGIN
1070
    46
1040
24.4326171875
1000
ACAD_MTEXT_DEFINED_HEIGHT_END
  0
MTEXT
  5
18A
330
A
100
AcDbEntity
  8
template
370
    20
390
1D
100
AcDbMText
 10
100.000000000482
 20
207.5555205825515
 30
0.0
 40
24.4326171875
 41
0.0
 46
79.29651640808025
 71
     1
 72
     1
  1
{カウンター置き/オーバーフロー付き/カウンター固定金具,型紙付属/\P陶器,背面釉薬あり/ホワイト}
  7
ＭＳ ゴシック
 73
     1
 44
1.304711230709641
1001
ACAD
1000
ACAD_MTEXT_DEFINED_HEIGHT_BEGIN
1070
    46
1040
79.29651640808025
1000
ACAD_MTEXT_DEFINED_HEIGHT_END
  0
MTEXT
  5
1A6
330
A
100
AcDbEntity
  8
template
370
    20
390
1D
100
AcDbMText
 10
1297.000000000742
 20
207.5555205825515
 30
0.0
 40
24.4326171875
 41
0.0
 46
24.4326171875
 71
     1
 72
     1
  1
{15.6kg}
  7
ＭＳ ゴシック
 73
     1
 44
0.7828267384257843
1001
ACAD
1000
ACAD_MTEXT_DEFINED_HEIGHT_BEGIN
1070
    46
1040
24.4326171875
1000
ACAD_MTEXT_DEFINED_HEIGHT_END
  0
MTEXT
  5
374
330
A
100
AcDbEntity
  8
template
370
    20
390
1D
100
AcDbMText
 10
1549.098684948396
 20
204.242570220137
 30
0.0
 40
24.4326171875
 41
0.0
 46
24.4326171875
 71
     1
 72
     1
  1
{6.5L}
  7
ＭＳ ゴシック
 73
     1
 44
0.7828267384257843
1001
ACAD
1000
ACAD_MTEXT_DEFINED_HEIGHT_BEGIN
1070
    46
1040
24.4326171875
1000
ACAD_MTEXT_DEFINED_HEIGHT_END
  0
INSERT
  5
3D0
330
A
100
AcDbEntity
  8
0
  6
Continuous
370
    20
100
AcDbBlockReference
  2
名称未設定-1
 10
1838.559250554905
 20
3.352995645277105
 30
0.0
 41
0.7619999999999999
 42
0.7619999999999999
 43
0.7619999999999999
  0
SPLINE
  5
422B
330
A
100
AcDbEntity
  8
0
 62
     7
370
    20
100
AcDbSpline
210
0.0
220
0.0
230
1.0
 70
     8
 71
     3
 72
    29
 73
    25
 74
     0
 42
0.000000001
 43
0.0000000001
 40
0.0
 40
0.0
 40
0.0
 40
0.0
 40
1.0
 40
1.0
 40
1.0
 40
2.0
 40
2.0
 40
2.0
 40
3.0
 40
3.0
 40
3.0
 40
4.0
 40
4.0
 40
4.0
 40
5.0
 40
5.0
 40
5.0
 40
6.0
 40
6.0
 40
6.0
 40
7.0
 40
7.0
 40
7.0
 40
8.0
 40
8.0
 40
8.0
 40
8.0
 10
1572.590696746811
 20
843.2725374799439
 30
0.0
 10
1570.0330561713
 20
842.19766697946
 30
0.0
 10
1567.310050903408
 20
841.5913297740586
 30
0.0
 10
1564.493338976498
 20
841.2991854841836
 30
0.0
 10
1564.493338976498
 20
841.2991854841836
 30
0.0
 10
1503.567474146497
 20
837.0438007335493
 30
0.0
 10
1503.567474146497
 20
837.0438007335493
 30
0.0
 10
1500.579885370793
 20
836.8343387898652
 30
0.0
 10
1498.209658113315
 20
834.4255264374984
 30
0.0
 10
1498.049805577346
 20
831.4214011925557
 30
0.0
 10
1498.049805577346
 20
831.4214011925557
 30
0.0
 10
1498.03878126452
 20
831.101696120617
 30
0.0
 10
1498.03878126452
 20
831.101696120617
 30
0.0
 10
1497.956098918329
 20
829.5197072301609
 30
0.0
 10
1496.655230004923
 20
828.2794720372946
 30
0.0
 10
1495.067728958054
 20
828.2794720372946
 30
0.0
 10
1495.067728958054
 20
828.2794720372946
 30
0.0
 10
1431.567687083304
 20
828.2794720372946
 30
0.0
 10
1431.567687083304
 20
828.2794720372946
 30
0.0
 10
1429.980186036436
 20
828.2794720372946
 30
0.0
 10
1428.679317123029
 20
829.5197072301609
 30
0.0
 10
1428.596634776838
 20
831.101696120617
 30
0.0
 10
1428.596634776838
 20
831.101696120617
 30
0.0
 10
1427.95722463296
 20
843.2835617927695
 30
0.0
 10
1427.95722463296
 20
843.2835617927695
 30
0.0
  0
LWPOLYLINE
  5
422C
330
A
100
AcDbEntity
  8
0
 62
     7
370
    20
100
AcDbPolyline
 90
        2
 70
     0
 43
0.0
 10
1503.567474146497
 20
837.0438007335493
 10
1489.963472119858
 20
836.0901976741453
  0
SPLINE
  5
422D
330
A
100
AcDbEntity
  8
0
 62
     7
370
    20
100
AcDbSpline
210
0.0
220
0.0
230
1.0
 70
    11
 71
     3
 72
    32
 73
    28
 74
     0
 42
0.000000001
 43
0.0000000001
 40
0.0
 40
0.0
 40
0.0
 40
0.0
 40
1.0
 40
1.0
 40
1.0
 40
2.0
 40
2.0
 40
2.0
 40
3.0
 40
3.0
 40
3.0
 40
4.0
 40
4.0
 40
4.0
 40
5.0
 40
5.0
 40
5.0
 40
6.0
 40
6.0
 40
6.0
 40
7.0
 40
7.0
 40
7.0
 40
8.0
 40
8.0
 40
8.0
 40
9.0
 40
9.0
 40
9.0
 40
9.0
 10
1658.103208054228
 20
843.2835617927695
 30
0.0
 10
1659.723782039573
 20
843.2835617927695
 30
0.0
 10
1661.04669957863
 20
844.5954550190012
 30
0.0
 10
1661.074260360694
 20
846.2215411607591
 30
0.0
 10
1661.074260360694
 20
846.2215411607591
 30
0.0
 10
1663.317708020679
 20
976.1540921218359
 30
0.0
 10
1663.317708020679
 20
976.1540921218359
 30
0.0
 10
1663.389366054044
 20
980.0291380799906
 30
0.0
 10
1660.335631401387
 20
983.2096523301418
 30
0.0
 10
1656.510194850946
 20
983.2813103635069
 30
0.0
 10
1656.510194850946
 20
983.2813103635069
 30
0.0
 10
1268.192883166142
 20
983.2813103635069
 30
0.0
 10
1268.192883166142
 20
983.2813103635069
 30
0.0
 10
1268.154298071252
 20
983.2813103635069
 30
0.0
 10
1268.11020081995
 20
983.2813103635069
 30
0.0
 10
1268.071615725062
 20
983.2813103635069
 30
0.0
 10
1264.246179174621
 20
983.2096523301418
 30
0.0
 10
1261.192444521964
 20
980.0291380799906
 30
0.0
 10
1261.264102555329
 20
976.1540921218359
 30
0.0
 10
1261.264102555329
 20
976.1540921218359
 30
0.0
 10
1263.507550215314
 20
846.2215411607591
 30
0.0
 10
1263.507550215314
 20
846.2215411607591
 30
0.0
 10
1263.535110997378
 20
844.5954550190012
 30
0.0
 10
1264.858028536435
 20
843.2835617927695
 30
0.0
 10
1266.47860252178
 20
843.2835617927695
 30
0.0
 10
1266.47860252178
 20
843.2835617927695
 30
0.0
 10
1658.103208054228
 20
843.2835617927695
 30
0.0
 10
1658.103208054228
 20
843.2835617927695
 30
0.0
  0
SPLINE
  5
4247
330
A
100
AcDbEntity
  8
0
 62
     7
370
    20
100
AcDbSpline
210
0.0
220
0.0
230
1.0
 70
     8
 71
     3
 72
    20
 73
    16
 74
     0
 42
0.000000001
 43
0.0000000001
 40
0.0
 40
0.0
 40
0.0
 40
0.0
 40
1.0
 40
1.0
 40
1.0
 40
2.0
 40
2.0
 40
2.0
 40
3.0
 40
3.0
 40
3.0
 40
4.0
 40
4.0
 40
4.0
 40
5.0
 40
5.0
 40
5.0
 40
5.0
 10
470.0842305220947
 20
843.377268451786
 30
0.0
 10
470.0842305220947
 20
843.377268451786
 30
0.0
 10
470.817347324989
 20
831.1843784668079
 30
0.0
 10
470.817347324989
 20
831.1843784668079
 30
0.0
 10
470.8945175147674
 20
829.6134138891773
 30
0.0
 10
472.1953864281737
 20
828.3731786963112
 30
0.0
 10
473.7828874750424
 20
828.3731786963112
 30
0.0
 10
473.7828874750424
 20
828.3731786963112
 30
0.0
 10
537.2222956292521
 20
828.3731786963112
 30
0.0
 10
537.2222956292521
 20
828.3731786963112
 30
0.0
 10
538.7987723632954
 20
828.3731786963112
 30
0.0
 10
540.0996412767017
 20
829.6134138891773
 30
0.0
 10
540.1823236228928
 20
831.1843784668079
 30
0.0
 10
540.1823236228928
 20
831.1843784668079
 30
0.0
 10
540.9209525821998
 20
843.377268451786
 30
0.0
 10
540.9209525821998
 20
843.377268451786
 30
0.0
  0
SPLINE
  5
4248
330
A
100
AcDbEntity
  8
0
 62
     7
370
    20
100
AcDbSpline
210
0.0
220
0.0
230
1.0
 70
     8
 71
     3
 72
    14
 73
    10
 74
     0
 42
0.000000001
 43
0.0000000001
 40
0.0
 40
0.0
 40
0.0
 40
0.0
 40
1.0
 40
1.0
 40
1.0
 40
2.0
 40
2.0
 40
2.0
 40
2.114613078384805
 40
2.114613078384805
 40
2.114613078384805
 40
2.114613078384805
 10
278.498166811617
 20
976.2588230936776
 30
0.0
 10
278.498166811617
 20
976.2588230936776
 30
0.0
 10
280.7416144716018
 20
846.3317842890139
 30
0.0
 10
280.7416144716018
 20
846.3317842890139
 30
0.0
 10
280.7691752536654
 20
844.6891616780177
 30
0.0
 10
282.0920927927227
 20
843.377268451786
 30
0.0
 10
283.7181789344806
 20
843.377268451786
 30
0.0
 10
283.7181789344806
 20
843.377268451786
 30
0.0
 10
290.1498689307629
 20
843.377268451786
 30
0.0
 10
505.2380080443359
 20
843.377268451786
 30
0.0
  0
SPLINE
  5
4276
330
A
100
AcDbEntity
  8
0
 62
     7
370
    20
100
AcDbSpline
210
0.0
220
0.0
230
1.0
 70
    11
 71
     3
 72
    17
 73
    13
 74
     0
 42
0.000000001
 43
0.0000000001
 40
0.0
 40
0.0
 40
0.0
 40
0.0
 40
1.0
 40
1.0
 40
1.0
 40
2.0
 40
2.0
 40
2.0
 40
3.0
 40
3.0
 40
3.0
 40
4.0
 40
4.0
 40
4.0
 40
4.0
 10
467.7773930633637
 20
2035.468865560612
 30
0.0
 10
467.7773930633637
 20
2056.150476421208
 30
0.0
 10
484.5508850273275
 20
2072.923968385172
 30
0.0
 10
505.2380080443359
 20
2072.923968385172
 30
0.0
 10
525.9251310613442
 20
2072.923968385172
 30
0.0
 10
542.6931108688954
 20
2056.150476421208
 30
0.0
 10
542.6931108688954
 20
2035.468865560612
 30
0.0
 10
542.6931108688954
 20
2014.770718230778
 30
0.0
 10
525.9251310613442
 20
1997.997226266814
 30
0.0
 10
505.2380080443359
 20
1997.997226266814
 30
0.0
 10
484.5508850273275
 20
1997.997226266814
 30
0.0
 10
467.7773930633637
 20
2014.770718230778
 30
0.0
 10
467.7773930633637
 20
2035.468865560612
 30
0.0
  0
SPLINE
  5
427E
330
A
100
AcDbEntity
  8
0
 62
     7
370
    20
100
AcDbSpline
210
0.0
220
0.0
230
1.0
 70
     8
 71
     3
 72
    17
 73
    13
 74
     0
 42
0.000000001
 43
0.0000000001
 40
0.501588976394281
 40
0.501588976394281
 40
0.501588976394281
 40
0.501588976394281
 40
1.0
 40
1.0
 40
1.0
 40
2.0
 40
2.0
 40
2.0
 40
3.0
 40
3.0
 40
3.0
 40
3.954600978830264
 40
3.954600978830264
 40
3.954600978830264
 40
3.954600978830264
 10
505.2459306410942
 20
1855.468865560612
 30
0.0
 10
384.3044430924866
 20
1855.468865560612
 30
0.0
 10
287.7332456177697
 20
1855.468865560612
 30
0.0
 10
287.7332456177697
 20
1855.468865560612
 30
0.0
 10
287.7332456177697
 20
1855.468865560612
 30
0.0
 10
287.7332456177697
 20
1855.490914186263
 30
0.0
 10
287.7332456177697
 20
1855.490914186263
 30
0.0
 10
283.9353698493928
 20
1855.490914186263
 30
0.0
 10
280.8981716659738
 20
1858.610794715873
 30
0.0
 10
280.8650987274975
 20
1862.414182640663
 30
0.0
 10
280.265240998092
 20
1985.002344699902
 30
0.0
 10
280.2380080443359
 20
2095.775176455952
 30
0.0
 10
280.7645859864379
 20
2230.602016123771
 30
0.0
  0
CIRCLE
  5
428D
330
A
100
AcDbEntity
  8
MODEL
  6
Continuous
370
    20
100
AcDbCircle
 10
505.2380080443359
 20
2175.468865560612
 30
0.0
 40
17.5
  0
CIRCLE
  5
42AF
330
A
100
AcDbEntity
  8
MODEL
  6
Continuous
370
    20
100
AcDbCircle
 10
505.2380080443359
 20
2035.468865560612
 30
0.0
 40
23.00222871035868
  0
SPLINE
  5
42DE
330
A
100
AcDbEntity
  8
0
 62
     7
370
    20
100
AcDbSpline
210
0.0
220
0.0
230
1.0
 70
     8
 71
     3
 72
    11
 73
     7
 74
     0
 42
0.000000001
 43
0.0000000001
 40
4.0
 40
4.0
 40
4.0
 40
4.0
 40
5.0
 40
5.0
 40
5.0
 40
5.498411781229562
 40
5.498411781229562
 40
5.498411781229562
 40
5.498411781229562
 10
280.7645859864379
 20
2230.602016123771
 30
0.0
 10
280.9198546106662
 20
2233.170353838994
 30
0.0
 10
283.0254983603322
 20
2235.303558370723
 30
0.0
 10
285.7099185333361
 20
2235.375216404089
 30
0.0
 10
285.7099185333361
 20
2235.375216404089
 30
0.0
 10
383.286913305924
 20
2235.468865560612
 30
0.0
 10
505.2380080443307
 20
2235.468865560612
 30
0.0
  0
SPLINE
  5
42F0
330
A
100
AcDbEntity
  8
0
370
    20
100
AcDbSpline
210
0.0
220
0.0
230
1.0
 70
     8
 71
     3
 72
    26
 73
    22
 74
     0
 42
0.000000001
 43
0.0000000001
 40
13.49786144716409
 40
13.49786144716409
 40
13.49786144716409
 40
13.49786144716409
 40
14.0
 40
14.0
 40
14.0
 40
15.0
 40
15.0
 40
15.0
 40
16.0
 40
16.0
 40
16.0
 40
17.0
 40
17.0
 40
17.0
 40
18.0
 40
18.0
 40
18.0
 40
19.0
 40
19.0
 40
19.0
 40
19.5
 40
19.5
 40
19.5
 40
19.5
 10
505.2380080443359
 20
2115.468865560612
 30
0.0
 10
400.1315256308501
 20
2115.468865560612
 30
0.0
 10
318.1965933261403
 20
2115.468865560612
 30
0.0
 10
318.1965933261403
 20
2115.468865560612
 30
0.0
 10
318.1965933261403
 20
2115.468865560612
 30
0.0
 10
318.2627392030932
 20
2115.468865560612
 30
0.0
 10
318.2627392030932
 20
2115.468865560612
 30
0.0
 10
313.9136477934423
 20
2115.496426342676
 30
0.0
 10
310.3197218123367
 20
2111.902500361571
 30
0.0
 10
310.3472825944005
 20
2107.547896795507
 30
0.0
 10
310.3472825944005
 20
2107.547896795507
 30
0.0
 10
310.3472825944005
 20
2107.575457577571
 30
0.0
 10
310.3472825944005
 20
2107.575457577571
 30
0.0
 10
310.1708935891928
 20
2041.069216475955
 30
0.0
 10
310.2425516225585
 20
1984.520003837668
 30
0.0
 10
310.503607407877
 20
1908.71505155407
 30
0.0
 10
310.481558782226
 20
1904.272253485402
 30
0.0
 10
314.1140698582207
 20
1900.413743996485
 30
0.0
 10
318.6726232115556
 20
1900.468865560613
 30
0.0
 10
318.6726232115556
 20
1900.468865560613
 30
0.0
 10
399.4437964094587
 20
1900.468865560613
 30
0.0
 10
505.2300854475775
 20
1900.468865560612
 30
0.0
  0
DIMENSION
  5
4318
330
A
100
AcDbEntity
  8
MODEL
  6
Continuous
370
    13
100
AcDbDimension
  2
*D36
 10
176.7583255788982
 20
1900.468865560612
 30
0.0
 11
154.5420169851482
 21
2007.968865560612
 31
0.0
 70
    32
 71
     5
 42
215.0
 73
     0
 74
     0
 75
     0
  3
JIS
100
AcDbAlignedDimension
 13
317.4448002235673
 23
2115.468865560612
 33
0.0
 14
317.4493438017899
 24
1900.468865560612
 34
0.0
 50
90.0
100
AcDbRotatedDimension
1001
ACAD
1000
DSTYLE
1002
{
1070
   179
1070
     0
1070
   271
1070
     0
1070
    43
1040
25.0
1070
    44
1040
0.0
1070
    42
1040
25.0
1002
}
  0
SPLINE
  5
433E
330
A
100
AcDbEntity
  8
0
 62
     7
370
    20
100
AcDbSpline
210
0.0
220
0.0
230
1.0
 70
     8
 71
     3
 72
    11
 73
     7
 74
     0
 42
0.000000001
 43
0.0000000001
 40
4.0
 40
4.0
 40
4.0
 40
4.0
 40
5.0
 40
5.0
 40
5.0
 40
5.498411781229562
 40
5.498411781229562
 40
5.498411781229562
 40
5.498411781229562
 10
729.7114301022339
 20
2230.602016123771
 30
0.0
 10
729.5561614780055
 20
2233.170353838994
 30
0.0
 10
727.4505177283395
 20
2235.303558370723
 30
0.0
 10
724.7660975553356
 20
2235.375216404089
 30
0.0
 10
724.7660975553356
 20
2235.375216404089
 30
0.0
 10
627.1891027827478
 20
2235.468865560612
 30
0.0
 10
505.238008044341
 20
2235.468865560612
 30
0.0
  0
SPLINE
  5
4340
330
A
100
AcDbEntity
  8
0
 62
     7
370
    20
100
AcDbSpline
210
0.0
220
0.0
230
1.0
 70
     8
 71
     3
 72
    17
 73
    13
 74
     0
 42
0.000000001
 43
0.0000000001
 40
0.501588976394281
 40
0.501588976394281
 40
0.501588976394281
 40
0.501588976394281
 40
1.0
 40
1.0
 40
1.0
 40
2.0
 40
2.0
 40
2.0
 40
3.0
 40
3.0
 40
3.0
 40
3.954600978830264
 40
3.954600978830264
 40
3.954600978830264
 40
3.954600978830264
 10
505.2300854475775
 20
1855.468865560612
 30
0.0
 10
626.1715729961851
 20
1855.468865560612
 30
0.0
 10
722.742770470902
 20
1855.468865560612
 30
0.0
 10
722.742770470902
 20
1855.468865560612
 30
0.0
 10
722.742770470902
 20
1855.468865560612
 30
0.0
 10
722.742770470902
 20
1855.490914186263
 30
0.0
 10
722.742770470902
 20
1855.490914186263
 30
0.0
 10
726.5406462392789
 20
1855.490914186263
 30
0.0
 10
729.5778444226978
 20
1858.610794715873
 30
0.0
 10
729.6109173611742
 20
1862.414182640663
 30
0.0
 10
730.2107750905798
 20
1985.002344699902
 30
0.0
 10
730.2380080443359
 20
2095.775176455952
 30
0.0
 10
729.7114301022339
 20
2230.602016123771
 30
0.0
  0
DIMENSION
  5
4343
330
A
100
AcDbEntity
  8
MODEL
  6
Continuous
370
    13
100
AcDbDimension
  2
*D38
 10
700.1287334942713
 20
1775.598955006981
 30
0.0
 11
505.2380080443359
 21
1797.815263600731
 31
0.0
 70
    32
 71
     5
 42
389.7814508998709
 73
     0
 74
     0
 75
     0
  3
JIS
100
AcDbAlignedDimension
 13
310.3472825944004
 23
1904.080293994223
 33
0.0
 14
700.1287334942713
 24
1904.080293994223
 34
0.0
100
AcDbRotatedDimension
1001
ACAD
1000
DSTYLE
1002
{
1070
   179
1070
     0
1070
   271
1070
     0
1070
    43
1040
25.0
1070
    44
1040
0.0
1070
    42
1040
25.0
1002
}
  0
DIMENSION
  5
4362
330
A
100
AcDbEntity
  8
MODEL
  6
Continuous
370
    13
100
AcDbDimension
  2
*D40
 10
730.2380080443359
 20
2341.377591861655
 30
0.0
 11
501.5784386924913
 21
2341.377591861655
 31
0.0
 70
   160
 71
     5
 42
449.9999999999999
 73
     0
 74
     0
 75
     0
  3
JIS
100
AcDbAlignedDimension
 13
280.2380080443359
 23
2236.123223841
 33
0.0
 14
730.2380080443359
 24
2235.461246683638
 34
0.0
100
AcDbRotatedDimension
1001
ACAD
1000
DSTYLE
1002
{
1070
   179
1070
     0
1070
   271
1070
     0
1070
    43
1040
25.0
1070
    44
1040
0.0
1070
    42
1040
25.0
1002
}
  0
DIMENSION
  5
4373
330
A
100
AcDbEntity
  8
MODEL
  6
Continuous
370
    13
100
AcDbDimension
  2
*D41
 10
833.6723518694057
 20
1855.468865560612
 30
0.0
 11
833.6723518694057
 21
2045.468865560612
 31
0.0
 70
   160
 71
     5
 42
380.0
 73
     0
 74
     0
 75
     0
  3
JIS
100
AcDbAlignedDimension
 13
731.2287872670771
 23
2235.468865560612
 33
0.0
 14
731.2287872670771
 24
1855.468865560612
 34
0.0
 50
90.0
100
AcDbRotatedDimension
1001
ACAD
1000
DSTYLE
1002
{
1070
   179
1070
     0
1070
   271
1070
     0
1070
    43
1040
25.0
1070
    44
1040
0.0
1070
    42
1040
25.0
1002
}
  0
DIMENSION
  5
4385
330
A
100
AcDbEntity
  8
MODEL
  6
Continuous
370
    13
100
AcDbDimension
  2
*D42
 10
176.7583255788982
 20
2235.390278359473
 30
0.0
 11
154.5420169851482
 21
2175.429571960042
 31
0.0
 70
    32
 71
     5
 42
119.9214127988612
 73
     0
 74
     0
 75
     0
  3
JIS
100
AcDbAlignedDimension
 13
303.498166811617
 23
2115.468865560612
 33
0.0
 14
283.7529388341098
 24
2235.390278359473
 34
0.0
 50
90.0
100
AcDbRotatedDimension
1001
ACAD
1000
DSTYLE
1002
{
1070
   179
1070
     0
1070
   271
1070
     0
1070
    43
1040
25.0
1070
    44
1040
0.0
1070
    42
1040
25.0
1002
}
  0
LWPOLYLINE
  5
43E5
330
A
100
AcDbEntity
  8
0
 62
     7
370
    20
100
AcDbPolyline
 90
        3
 70
     0
 43
0.0
 10
1268.47443973567
 20
2058.902460850751
 10
1268.47443973567
 20
2045.370116857478
 10
1268.47443973567
 20
2031.837772864205
  0
LWPOLYLINE
  5
43E6
330
A
100
AcDbEntity
  8
0
 62
     7
370
    20
100
AcDbPolyline
 90
        3
 70
     0
 43
0.0
 10
1281.995759416119
 20
2045.370116857478
 10
1268.47443973567
 20
2045.370116857478
 10
1254.942095742397
 20
2045.370116857478
  0
CIRCLE
  5
43EA
330
A
100
AcDbEntity
  8
MODEL
  6
STYLE_12
370
    20
100
AcDbCircle
 10
1463.317708020679
 20
2035.468865560612
 30
0.0
 40
23.00222871035868
  0
SPLINE
  5
43EC
330
A
100
AcDbEntity
  8
0
  6
STYLE_12
 62
     7
370
    20
100
AcDbSpline
210
0.0
220
0.0
230
1.0
 70
     8
 71
     3
 72
    11
 73
     7
 74
     0
 42
0.000000001
 43
0.0000000001
 40
4.0
 40
4.0
 40
4.0
 40
4.0
 40
5.0
 40
5.0
 40
5.0
 40
5.498411781229562
 40
5.498411781229562
 40
5.498411781229562
 40
5.498411781229562
 10
1238.844285962781
 20
2230.602016123771
 30
0.0
 10
1238.99955458701
 20
2233.170353838994
 30
0.0
 10
1241.105198336676
 20
2235.303558370723
 30
0.0
 10
1243.78961850968
 20
2235.375216404089
 30
0.0
 10
1243.78961850968
 20
2235.375216404089
 30
0.0
 10
1341.366613282267
 20
2235.468865560612
 30
0.0
 10
1463.317708020674
 20
2235.468865560612
 30
0.0
  0
SPLINE
  5
43ED
330
A
100
AcDbEntity
  8
0
  6
STYLE_12
 62
     7
370
    20
100
AcDbSpline
210
0.0
220
0.0
230
1.0
 70
     8
 71
     3
 72
    17
 73
    13
 74
     0
 42
0.000000001
 43
0.0000000001
 40
0.501588976394281
 40
0.501588976394281
 40
0.501588976394281
 40
0.501588976394281
 40
1.0
 40
1.0
 40
1.0
 40
2.0
 40
2.0
 40
2.0
 40
3.0
 40
3.0
 40
3.0
 40
3.954600978830264
 40
3.954600978830264
 40
3.954600978830264
 40
3.954600978830264
 10
1463.325630617438
 20
1855.468865560612
 30
0.0
 10
1342.38414306883
 20
1855.468865560612
 30
0.0
 10
1245.812945594113
 20
1855.468865560612
 30
0.0
 10
1245.812945594113
 20
1855.468865560612
 30
0.0
 10
1245.812945594113
 20
1855.468865560612
 30
0.0
 10
1245.812945594113
 20
1855.490914186263
 30
0.0
 10
1245.812945594113
 20
1855.490914186263
 30
0.0
 10
1242.015069825736
 20
1855.490914186263
 30
0.0
 10
1238.977871642317
 20
1858.610794715873
 30
0.0
 10
1238.944798703841
 20
1862.414182640663
 30
0.0
 10
1238.344940974435
 20
1985.002344699902
 30
0.0
 10
1238.317708020679
 20
2095.775176455952
 30
0.0
 10
1238.844285962781
 20
2230.602016123771
 30
0.0
  0
SPLINE
  5
43F1
330
A
100
AcDbEntity
  8
0
  6
STYLE_12
 62
     7
370
    20
100
AcDbSpline
210
0.0
220
0.0
230
1.0
 70
     8
 71
     3
 72
    11
 73
     7
 74
     0
 42
0.000000001
 43
0.0000000001
 40
4.0
 40
4.0
 40
4.0
 40
4.0
 40
5.0
 40
5.0
 40
5.0
 40
5.498411781229562
 40
5.498411781229562
 40
5.498411781229562
 40
5.498411781229562
 10
1687.791130078577
 20
2230.602016123771
 30
0.0
 10
1687.635861454349
 20
2233.170353838994
 30
0.0
 10
1685.530217704683
 20
2235.303558370723
 30
0.0
 10
1682.845797531679
 20
2235.375216404089
 30
0.0
 10
1682.845797531679
 20
2235.375216404089
 30
0.0
 10
1585.268802759091
 20
2235.468865560612
 30
0.0
 10
1463.317708020684
 20
2235.468865560612
 30
0.0
  0
SPLINE
  5
43F3
330
A
100
AcDbEntity
  8
0
  6
STYLE_12
 62
     7
370
    20
100
AcDbSpline
210
0.0
220
0.0
230
1.0
 70
     8
 71
     3
 72
    17
 73
    13
 74
     0
 42
0.000000001
 43
0.0000000001
 40
0.501588976394281
 40
0.501588976394281
 40
0.501588976394281
 40
0.501588976394281
 40
1.0
 40
1.0
 40
1.0
 40
2.0
 40
2.0
 40
2.0
 40
3.0
 40
3.0
 40
3.0
 40
3.954600978830264
 40
3.954600978830264
 40
3.954600978830264
 40
3.954600978830264
 10
1463.309785423921
 20
1855.468865560612
 30
0.0
 10
1584.251272972529
 20
1855.468865560612
 30
0.0
 10
1680.822470447246
 20
1855.468865560612
 30
0.0
 10
1680.822470447246
 20
1855.468865560612
 30
0.0
 10
1680.822470447246
 20
1855.468865560612
 30
0.0
 10
1680.822470447246
 20
1855.490914186263
 30
0.0
 10
1680.822470447246
 20
1855.490914186263
 30
0.0
 10
1684.620346215622
 20
1855.490914186263
 30
0.0
 10
1687.657544399041
 20
1858.610794715873
 30
0.0
 10
1687.690617337518
 20
1862.414182640663
 30
0.0
 10
1688.290475066923
 20
1985.002344699902
 30
0.0
 10
1688.317708020679
 20
2095.775176455952
 30
0.0
 10
1687.791130078577
 20
2230.602016123771
 30
0.0
  0
DIMENSION
  5
443B
330
A
100
AcDbEntity
  8
MODEL
  6
Continuous
370
    13
100
AcDbDimension
  2
*D50
 10
1658.160976305688
 20
1783.842270291068
 30
0.0
 11
1463.317708020679
 21
1806.058578884818
 31
0.0
 70
    32
 71
     5
 42
389.686536570018
 73
     0
 74
     0
 75
     0
  3
JIS
100
AcDbAlignedDimension
 13
1268.47443973567
 23
2045.370116857478
 33
0.0
 14
1658.160976305688
 24
2045.370116857478
 34
0.0
100
AcDbRotatedDimension
1001
ACAD
1000
DSTYLE
1002
{
1070
   179
1070
     0
1070
   271
1070
     0
1070
    43
1040
25.0
1070
    44
1040
0.0
1070
    42
1040
25.0
1002
}
  0
LINE
  5
4463
330
A
100
AcDbEntity
  8
MODEL
  6
Continuous
370
    20
100
AcDbLine
 10
1463.317708020674
 20
2200.468865560612
 30
0.0
 11
1403.317708020674
 21
2200.468865560612
 31
0.0
  0
LINE
  5
4466
102
{ACAD_REACTORS
330
448E
102
}
330
A
100
AcDbEntity
  8
MODEL
  6
Continuous
370
    20
100
AcDbLine
 10
1463.317708020674
 20
1975.468865560612
 30
0.0
 11
1403.317708020674
 21
1975.468865560612
 31
0.0
  0
LINE
  5
4467
330
A
100
AcDbEntity
  8
MODEL
  6
Continuous
370
    20
100
AcDbLine
 10
1403.317708020674
 20
1975.468865560612
 30
0.0
 11
1403.317708020674
 21
2200.468865560612
 31
0.0
  0
LINE
  5
4468
330
A
100
AcDbEntity
  8
MODEL
  6
Continuous
370
    20
100
AcDbLine
 10
1523.317708020684
 20
1975.468865560612
 30
0.0
 11
1523.317708020684
 21
2200.468865560612
 31
0.0
  0
LINE
  5
4469
102
{ACAD_REACTORS
330
446D
330
447F
102
}
330
A
100
AcDbEntity
  8
MODEL
  6
Continuous
370
    20
100
AcDbLine
 10
1463.317708020684
 20
2200.468865560612
 30
0.0
 11
1523.317708020684
 21
2200.468865560612
 31
0.0
  0
LINE
  5
446A
102
{ACAD_REACTORS
330
447F
330
448E
102
}
330
A
100
AcDbEntity
  8
MODEL
  6
Continuous
370
    20
100
AcDbLine
 10
1463.317708020684
 20
1975.468865560612
 30
0.0
 11
1523.317708020684
 21
1975.468865560612
 31
0.0
  0
DIMENSION
  5
446B
102
{ACAD_REACTORS
330
446D
102
}
102
{ACAD_XDICTIONARY
360
446C
102
}
330
A
100
AcDbEntity
  8
MODEL
  6
ByBlock
370
    13
100
AcDbDimension
  2
*D52
 10
1788.123354834187
 20
2235.461598426568
 30
0.0
 11
1788.123354834187
 21
2218.407150273789
 31
0.0
 70
   160
 71
     5
 42
34.99273286595599
 73
     0
 74
     0
 75
     0
  3
JIS
100
AcDbAlignedDimension
 13
1523.317708020684
 23
2200.468865560612
 33
0.0
 14
1668.224695546581
 24
2235.461598426568
 34
0.0
 50
90.0
100
AcDbRotatedDimension
1001
ACAD
1000
DSTYLE
1002
{
1070
   179
1070
     0
1070
   271
1070
     0
1070
    43
1040
25.0
1070
    44
1040
0.0
1070
    42
1040
25.0
1002
}
  0
DIMENSION
  5
447D
102
{ACAD_REACTORS
330
447F
102
}
102
{ACAD_XDICTIONARY
360
447E
102
}
330
A
100
AcDbEntity
  8
MODEL
  6
Continuous
370
    13
100
AcDbDimension
  2
*D53
 10
1788.123354834187
 20
1975.468865560612
 30
0.0
 11
1765.907046240437
 21
2087.968865560612
 31
0.0
 70
    32
 71
     5
 42
225.0
 73
     0
 74
     0
 75
     0
  3
JIS
100
AcDbAlignedDimension
 13
1523.317708020684
 23
2200.468865560612
 33
0.0
 14
1523.317708020684
 24
1975.468865560612
 34
0.0
 50
90.0
100
AcDbRotatedDimension
1001
ACAD
1000
DSTYLE
1002
{
1070
   179
1070
     0
1070
   271
1070
     0
1070
    43
1040
25.0
1070
    44
1040
0.0
1070
    42
1040
25.0
1002
}
  0
DIMENSION
  5
448C
102
{ACAD_REACTORS
330
448E
102
}
102
{ACAD_XDICTIONARY
360
448D
102
}
330
A
100
AcDbEntity
  8
MODEL
  6
Continuous
370
    13
100
AcDbDimension
  2
*D54
 10
1403.317708020674
 20
1895.711490431345
 30
0.0
 11
1463.317708020679
 21
1917.927799025095
 31
0.0
 70
    32
 71
     5
 42
120.00000000001
 73
     0
 74
     0
 75
     0
  3
JIS
100
AcDbAlignedDimension
 13
1523.317708020684
 23
1975.468865560612
 33
0.0
 14
1403.317708020674
 24
1975.468865560612
 34
0.0
100
AcDbRotatedDimension
1001
ACAD
1000
DSTYLE
1002
{
1070
   179
1070
     0
1070
   271
1070
     0
1070
    43
1040
25.0
1070
    44
1040
0.0
1070
    42
1040
25.0
1002
}
  0
DIMENSION
  5
44A4
330
A
100
AcDbEntity
  8
MODEL
  6
Continuous
370
    13
100
AcDbDimension
  2
*D55
 10
1178.278807697178
 20
2235.395568894818
 30
0.0
 11
1156.062499103428
 21
2140.382842876148
 31
0.0
 70
    32
 71
     5
 42
190.0254520373401
 73
     0
 74
     0
 75
     0
  3
JIS
100
AcDbAlignedDimension
 13
1268.47443973567
 23
2045.370116857478
 33
0.0
 14
1268.323178906923
 24
2235.395568894818
 34
0.0
 50
90.0
100
AcDbRotatedDimension
1001
ACAD
1000
DSTYLE
1002
{
1070
   179
1070
     0
1070
   271
1070
     0
1070
    43
1040
25.0
1070
    44
1040
0.0
1070
    42
1040
25.0
1002
}
  0
LWPOLYLINE
  5
44B5
330
A
100
AcDbEntity
  8
0
 62
     7
370
    20
100
AcDbPolyline
 90
        3
 70
     0
 43
0.0
 10
1644.63965662524
 20
2045.370116857478
 10
1658.160976305688
 20
2045.370116857478
 10
1671.693320298962
 20
2045.370116857478
  0
LWPOLYLINE
  5
44B6
330
A
100
AcDbEntity
  8
0
 62
     7
370
    20
100
AcDbPolyline
 90
        3
 70
     0
 43
0.0
 10
1658.160976305688
 20
2058.902460850751
 10
1658.160976305688
 20
2045.370116857478
 10
1658.160976305688
 20
2031.837772864205
  0
MTEXT
  5
44ED
330
A
100
AcDbEntity
  8
template
370
    13
390
1D
100
AcDbMText
 10
1127.375950211431
 20
1565.253630741337
 30
0.0
 40
24.4326171875
 41
0.0
 46
92.26788433813377
 71
     1
 72
     1
  1
{※陶器製品には寸法公差があります。\P　必ず現物を合わせて固定金具の穴あけ、\P　カウンターの切込を行ってください。}
  7
ＭＳ ゴシック
 73
     1
 44
0.7828267384257843
1001
ACAD
1000
ACAD_MTEXT_DEFINED_HEIGHT_BEGIN
1070
    46
1040
92.26788433813377
1000
ACAD_MTEXT_DEFINED_HEIGHT_END
  0
LINE
  5
44EE
330
A
100
AcDbEntity
  8
MODEL
  6
Continuous
370
    13
100
AcDbLine
 10
1268.47443973567
 20
2045.370116857478
 30
0.0
 11
1085.391090047147
 21
1727.372806941993
 31
0.0
  0
MTEXT
  5
451F
330
A
100
AcDbEntity
  8
template
370
    13
390
1D
100
AcDbMText
 10
1080.914340228068
 20
1720.291675187855
 30
0.0
 40
24.4326171875
 41
0.0
 46
24.4326171875
 71
     1
 72
     1
  1
{固定金具用2ヶ所}
  7
ＭＳ ゴシック
 73
     1
 44
0.7828267384257843
1001
ACAD
1000
ACAD_MTEXT_DEFINED_HEIGHT_BEGIN
1070
    46
1040
24.4326171875
1000
ACAD_MTEXT_DEFINED_HEIGHT_END
  0
MTEXT
  5
4550
330
A
100
AcDbEntity
  8
template
370
    13
390
1D
100
AcDbMText
 10
1328.544500919831
 20
2468.98457772806
 30
0.0
 40
24.4326171875
 41
0.0
 46
24.4326171875
 71
     1
 72
     1
  1
{カウンター切込寸法}
  7
ＭＳ ゴシック
 73
     1
 44
0.7828267384257843
1001
ACAD
1000
ACAD_MTEXT_DEFINED_HEIGHT_BEGIN
1070
    46
1040
24.4326171875
1000
ACAD_MTEXT_DEFINED_HEIGHT_END
  0
SPLINE
  5
4555
330
A
100
AcDbEntity
  8
0
 62
     7
370
    20
100
AcDbSpline
210
0.0
220
0.0
230
1.0
 70
     8
 71
     3
 72
    11
 73
     7
 74
     0
 42
0.000000001
 43
0.0000000001
 40
8.890866571987221
 40
8.890866571987221
 40
8.890866571987221
 40
8.890866571987221
 40
9.0
 40
9.0
 40
9.0
 40
10.0
 40
10.0
 40
10.0
 40
10.0
 10
505.2380080443359
 20
983.3750170225237
 30
0.0
 10
291.2190162829588
 20
983.3750170225237
 30
0.0
 10
285.4269474224296
 20
983.3750170225237
 30
0.0
 10
285.4269474224296
 20
983.3750170225237
 30
0.0
 10
281.5959987155763
 20
983.3695048661107
 30
0.0
 10
278.4540695603151
 20
980.1228447390076
 30
0.0
 10
278.498166811617
 20
976.2588230936776
 30
0.0
  0
SPLINE
  5
4556
330
A
100
AcDbEntity
  8
0
 62
     7
370
    20
100
AcDbSpline
210
0.0
220
0.0
230
1.0
 70
     8
 71
     3
 72
    11
 73
     7
 74
     0
 42
0.000000001
 43
0.0000000001
 40
8.890866571987221
 40
8.890866571987221
 40
8.890866571987221
 40
8.890866571987221
 40
9.0
 40
9.0
 40
9.0
 40
10.0
 40
10.0
 40
10.0
 40
10.0
 10
505.2380080443359
 20
983.3750170225237
 30
0.0
 10
719.2569998057129
 20
983.3750170225237
 30
0.0
 10
725.0490686662421
 20
983.3750170225237
 30
0.0
 10
725.0490686662421
 20
983.3750170225237
 30
0.0
 10
728.8800173730954
 20
983.3695048661107
 30
0.0
 10
732.0219465283566
 20
980.1228447390076
 30
0.0
 10
731.9778492770547
 20
976.2588230936776
 30
0.0
  0
SPLINE
  5
4557
330
A
100
AcDbEntity
  8
0
 62
     7
370
    20
100
AcDbSpline
210
0.0
220
0.0
230
1.0
 70
     8
 71
     3
 72
    14
 73
    10
 74
     0
 42
0.000000001
 43
0.0000000001
 40
0.0
 40
0.0
 40
0.0
 40
0.0
 40
1.0
 40
1.0
 40
1.0
 40
2.0
 40
2.0
 40
2.0
 40
2.114613078384805
 40
2.114613078384805
 40
2.114613078384805
 40
2.114613078384805
 10
731.9778492770547
 20
976.2588230936776
 30
0.0
 10
731.9778492770547
 20
976.2588230936776
 30
0.0
 10
729.7344016170699
 20
846.3317842890139
 30
0.0
 10
729.7344016170699
 20
846.3317842890139
 30
0.0
 10
729.7068408350063
 20
844.6891616780177
 30
0.0
 10
728.383923295949
 20
843.377268451786
 30
0.0
 10
726.7578371541911
 20
843.377268451786
 30
0.0
 10
726.7578371541911
 20
843.377268451786
 30
0.0
 10
720.3261471579088
 20
843.377268451786
 30
0.0
 10
505.2380080443359
 20
843.377268451786
 30
0.0
  0
DIMENSION
  5
456A
330
A
100
AcDbEntity
  8
MODEL
  6
Continuous
370
    13
100
AcDbDimension
  2
*D57
 10
808.4727916383239
 20
828.3731786963112
 30
0.0
 11
808.4727916383239
 21
905.8740978594176
 31
0.0
 70
   160
 71
     5
 42
155.0018383262125
 73
     0
 74
     0
 75
     0
  3
JIS
100
AcDbAlignedDimension
 13
715.8254919942601
 23
983.3750170225237
 33
0.0
 14
556.0889726206999
 24
828.3731786963112
 34
0.0
 50
90.0
100
AcDbRotatedDimension
1001
ACAD
1000
DSTYLE
1002
{
1070
   179
1070
     0
1070
   271
1070
     0
1070
    43
1040
25.0
1070
    44
1040
0.0
1070
    42
1040
25.0
1002
}
  0
DIMENSION
  5
458A
330
A
100
AcDbEntity
  8
MODEL
  6
Continuous
370
    13
100
AcDbDimension
  2
*D58
 10
1178.278807697178
 20
843.2835617927694
 30
0.0
 11
1156.062499103428
 21
913.2824360781382
 31
0.0
 70
    32
 71
     5
 42
139.9977485707375
 73
     0
 74
     0
 75
     0
  3
JIS
100
AcDbAlignedDimension
 13
1268.132249445602
 23
983.2813103635069
 33
0.0
 14
1282.493149015567
 24
843.2835617927694
 34
0.0
 50
90.0
100
AcDbRotatedDimension
1001
ACAD
1000
DSTYLE
1002
{
1070
   179
1070
     0
1070
   271
1070
     0
1070
    43
1040
25.0
1070
    44
1040
0.0
1070
    42
1040
25.0
1002
}
  0
LINE
  5
45A0
330
A
100
AcDbEntity
  8
MODEL
  6
STYLE_12
370
    20
100
AcDbLine
 10
505.2380080443359
 20
873.3750170225237
 30
0.0
 11
319.5687612837992
 21
878.3818475923598
 31
0.0
  0
LINE
  5
45A1
330
A
100
AcDbEntity
  8
MODEL
  6
STYLE_12
370
    20
100
AcDbLine
 10
482.2357793339772
 20
873.3750170225237
 30
0.0
 11
482.2357793339772
 21
828.373178696311
 31
0.0
  0
ARC
  5
45A2
330
A
100
AcDbEntity
  8
MODEL
  6
STYLE_12
370
    20
100
AcDbCircle
 10
2391.411316108504
 20
1023.706410415668
 30
0.0
 40
2081.454811635127
100
AcDbArc
 50
181.1102634726566
 51
183.8749900956894
  0
ARC
  5
45A4
330
A
100
AcDbEntity
  8
MODEL
  6
STYLE_12
370
    20
100
AcDbCircle
 10
319.7035442701981
 20
883.38003061688
 30
0.0
 40
5.0
100
AcDbArc
 50
183.874990095689
 51
268.4553136308176
  0
LINE
  5
45A5
330
A
100
AcDbEntity
  8
MODEL
  6
STYLE_12
370
    20
100
AcDbLine
 10
505.2380080443359
 20
873.3750170225237
 30
0.0
 11
690.9072548048725
 21
878.3818475923598
 31
0.0
  0
LINE
  5
45A6
330
A
100
AcDbEntity
  8
MODEL
  6
STYLE_12
370
    20
100
AcDbLine
 10
528.2402367546945
 20
873.3750170225237
 30
0.0
 11
528.2402367546945
 21
828.373178696311
 31
0.0
  0
ARC
  5
45A7
330
A
100
AcDbEntity
  8
MODEL
  6
STYLE_12
370
    20
100
AcDbCircle
 10
-1380.935300019833
 20
1023.706410415668
 30
0.0
 40
2081.454811635127
100
AcDbArc
 50
356.1250099043107
 51
358.8897365273434
  0
LINE
  5
45A8
102
{ACAD_REACTORS
330
464B
102
}
330
A
100
AcDbEntity
  8
MODEL
  6
STYLE_12
370
    20
100
AcDbLine
 10
1463.053124512868
 20
873.281310363507
 30
0.0
 11
1310.886260869854
 21
877.3847023785914
 31
0.0
  0
LINE
  5
45A9
330
A
100
AcDbEntity
  8
MODEL
  6
STYLE_12
370
    20
100
AcDbLine
 10
1440.050895802509
 20
873.281310363507
 30
0.0
 11
1440.050895802509
 21
828.2794720372943
 31
0.0
  0
LINE
  5
45AA
330
A
100
AcDbEntity
  8
MODEL
  6
STYLE_12
370
    20
100
AcDbLine
 10
1463.053124512868
 20
873.281310363507
 30
0.0
 11
1526.791381711725
 21
876.5802645349181
 31
0.0
  0
LINE
  5
45AB
330
A
100
AcDbEntity
  8
MODEL
  6
STYLE_12
370
    20
100
AcDbLine
 10
1486.055353223226
 20
873.281310363507
 30
0.0
 11
1486.055353223226
 21
828.2794720372943
 31
0.0
  0
ARC
  5
45AC
330
A
100
AcDbEntity
  8
MODEL
  6
STYLE_12
370
    20
100
AcDbCircle
 10
3362.761310688392
 20
1022.844656882033
 30
0.0
 40
2057.024506035835
100
AcDbArc
 50
181.1020542302146
 51
184.054984732147
  0
ARC
  5
45AD
330
A
100
AcDbEntity
  8
MODEL
  6
STYLE_12
370
    20
100
AcDbCircle
 10
-1583.73319492356
 20
1056.1268525203
 30
0.0
 40
3115.702187165729
100
AcDbArc
 50
356.6964224187222
 51
358.6602947861949
  0
DIMENSION
  5
45DB
330
A
100
AcDbEntity
  8
MODEL
  6
Continuous
370
    13
100
AcDbDimension
  2
*D61
 10
1178.278807697178
 20
828.2794720372946
 30
0.0
 11
1156.062499103428
 21
835.781516915032
 31
0.0
 70
    32
 71
     5
 42
15.00408975547485
 73
     0
 74
     1
 75
     1
  3
JIS
100
AcDbAlignedDimension
 13
1257.493149015567
 23
843.2835617927694
 33
0.0
 14
1438.317708020679
 24
828.2794720372946
 34
0.0
 50
90.0
100
AcDbRotatedDimension
1001
ACAD
1000
DSTYLE
1002
{
1070
   179
1070
     0
1070
   271
1070
     0
1070
    43
1040
25.0
1070
    44
1040
0.0
1070
    42
1040
25.0
1002
}
  0
DIMENSION
  5
45FD
330
A
100
AcDbEntity
  8
MODEL
  6
Continuous
370
    13
100
AcDbDimension
  2
*D62
 10
1603.053124512868
 20
1037.510688215546
 30
0.0
 11
1633.157124733343
 21
1059.726996809296
 31
0.0
 70
    32
 71
     5
 42
60.20800044094995
 73
     0
 74
     0
 75
     0
  3
JIS
100
AcDbAlignedDimension
 13
1663.261124953818
 23
972.8770010848432
 33
0.0
 14
1603.053124512868
 24
972.8770010848432
 34
0.0
100
AcDbRotatedDimension
1001
ACAD
1000
DSTYLE
1002
{
1070
   179
1070
     0
1070
   271
1070
     0
1070
    43
1040
25.0
1070
    44
1040
0.0
1070
    42
1040
25.0
1002
}
  0
LINE
  5
462B
330
A
100
AcDbEntity
  8
MODEL
  6
Continuous
370
    13
100
AcDbLine
 10
1620.553124512868
 20
983.2813103635076
 30
0.0
 11
1620.553124512868
 21
968.5765731068666
 31
0.0
  0
LINE
  5
462C
330
A
100
AcDbEntity
  8
MODEL
  6
Continuous
370
    13
100
AcDbLine
 10
1585.553124512868
 20
983.2813103635076
 30
0.0
 11
1585.553124512868
 21
968.5765731068666
 31
0.0
  0
DIMENSION
  5
4637
330
A
100
AcDbEntity
  8
MODEL
  6
Continuous
370
    13
100
AcDbDimension
  2
*D65
 10
1663.261124953818
 20
775.4375480260288
 30
0.0
 11
1563.289416487248
 21
797.6538566197788
 31
0.0
 70
    32
 71
     5
 42
199.9434169331389
 73
     0
 74
     0
 75
     0
  3
JIS
100
AcDbAlignedDimension
 13
1463.317708020679
 23
828.2794720372946
 33
0.0
 14
1663.261124953818
 24
849.1572745554361
 34
0.0
100
AcDbRotatedDimension
1001
ACAD
1000
DSTYLE
1002
{
1070
   179
1070
     0
1070
   271
1070
     0
1070
    43
1040
25.0
1070
    44
1040
0.0
1070
    42
1040
25.0
1002
}
  0
DIMENSION
  5
4649
102
{ACAD_REACTORS
330
464B
102
}
102
{ACAD_XDICTIONARY
360
464A
102
}
330
A
100
AcDbEntity
  8
MODEL
  6
Continuous
370
    13
100
AcDbDimension
  2
*D66
 10
1466.450322010534
 20
983.2813103635069
 30
0.0
 11
1466.450322010534
 21
1077.469270324444
 31
0.0
 70
   160
 71
     5
 42
109.9999999999999
 73
     0
 74
     1
 75
     1
  3
JIS
100
AcDbAlignedDimension
 13
1463.053124512868
 23
873.281310363507
 33
0.0
 14
1268.132249445602
 24
983.2813103635069
 34
0.0
 50
90.0
100
AcDbRotatedDimension
1001
ACAD
1000
DSTYLE
1002
{
1070
     3
1000
<>(深さ)
1070
   179
1070
     0
1070
   271
1070
     0
1070
    43
1040
25.0
1070
    44
1040
0.0
1070
    42
1040
25.0
1002
}
  0
LINE
  5
465A
330
A
100
AcDbEntity
  8
MODEL
  6
Continuous
370
    13
100
AcDbLine
 10
1466.450322010534
 20
978.7813103635069
 30
0.0
 11
1466.450322010534
 21
873.281310363507
 31
0.0
  0
LINE
  5
46FA
330
A
100
AcDbEntity
  8
MODEL
  6
Continuous
370
    13
100
AcDbLine
 10
574.0462400230331
 20
2263.150380298978
 30
0.0
 11
522.7380080443359
 21
2175.468865560612
 31
0.0
  0
LINE
  5
46FB
330
A
100
AcDbEntity
  8
MODEL
  6
Continuous
370
    13
100
AcDbLine
 10
574.0462400230331
 20
2263.150380298978
 30
0.0
 11
623.4293781367935
 21
2263.150380298978
 31
0.0
  0
MTEXT
  5
472D
330
A
100
AcDbEntity
  8
template
370
    13
390
1D
100
AcDbMText
 10
580.1156759923222
 20
2296.103827252838
 30
0.0
 40
24.4326171875
 41
0.0
 46
24.4326171875
 71
     1
 72
     1
  1
{%%c35}
  7
ＭＳ ゴシック
 73
     1
 44
0.7828267384257843
1001
ACAD
1000
ACAD_MTEXT_DEFINED_HEIGHT_BEGIN
1070
    46
1040
24.4326171875
1000
ACAD_MTEXT_DEFINED_HEIGHT_END
  0
LINE
  5
4731
330
A
100
AcDbEntity
  8
MODEL
  6
Continuous
370
    13
100
AcDbLine
 10
1085.391090047147
 20
1727.372806941993
 30
0.0
 11
1640.887553352148
 21
2029.804168247097
 31
0.0
  0
SPLINE
  5
4739
330
A
100
AcDbEntity
  8
0
370
    20
100
AcDbSpline
210
0.0
220
0.0
230
1.0
 70
     8
 71
     3
 72
    26
 73
    22
 74
     0
 42
0.000000001
 43
0.0000000001
 40
13.49786144716409
 40
13.49786144716409
 40
13.49786144716409
 40
13.49786144716409
 40
14.0
 40
14.0
 40
14.0
 40
15.0
 40
15.0
 40
15.0
 40
16.0
 40
16.0
 40
16.0
 40
17.0
 40
17.0
 40
17.0
 40
18.0
 40
18.0
 40
18.0
 40
19.0
 40
19.0
 40
19.0
 40
19.5
 40
19.5
 40
19.5
 40
19.5
 10
505.2221628508191
 20
2115.468865560612
 30
0.0
 10
610.3286452643049
 20
2115.468865560612
 30
0.0
 10
692.2635775690146
 20
2115.468865560612
 30
0.0
 10
692.2635775690146
 20
2115.468865560612
 30
0.0
 10
692.2635775690146
 20
2115.468865560612
 30
0.0
 10
692.1974316920619
 20
2115.468865560612
 30
0.0
 10
692.1974316920619
 20
2115.468865560612
 30
0.0
 10
696.5465231017126
 20
2115.496426342676
 30
0.0
 10
700.1404490828183
 20
2111.902500361571
 30
0.0
 10
700.1128883007545
 20
2107.547896795507
 30
0.0
 10
700.1128883007545
 20
2107.547896795507
 30
0.0
 10
700.1128883007545
 20
2107.575457577571
 30
0.0
 10
700.1128883007545
 20
2107.575457577571
 30
0.0
 10
700.2892773059622
 20
2041.069216475955
 30
0.0
 10
700.2176192725965
 20
1984.520003837668
 30
0.0
 10
699.956563487278
 20
1908.71505155407
 30
0.0
 10
699.978612112929
 20
1904.272253485402
 30
0.0
 10
696.3461010369343
 20
1900.413743996485
 30
0.0
 10
691.7875476835994
 20
1900.468865560613
 30
0.0
 10
691.7875476835994
 20
1900.468865560613
 30
0.0
 10
611.0163744856964
 20
1900.468865560613
 30
0.0
 10
505.2300854475775
 20
1900.468865560612
 30
0.0
  0
VIEWPORT
  5
349
330
B
100
AcDbEntity
 67
     1
  8
0
100
AcDbViewport
 10
202.5
 20
128.5
 30
0.0
 40
486.0
 41
308.4
 68
     1
 69
     1
 12
202.5
 22
128.5
 13
0.0
 23
0.0
 14
0.5
 24
0.5
 15
0.0
 25
0.0
 16
0.0
 26
0.0
 36
1.0
 17
0.0
 27
0.0
 37
0.0
 42
50.0
 43
0.0
 44
0.0
 45
308.4
 50
0.0
 51
0.0
 72
   100
 90
   557152
  1

281
     0
 71
     1
 74
     0
110
0.0
120
0.0
130
0.0
111
1.0
121
0.0
131
0.0
112
0.0
122
1.0
132
0.0
 79
     0
146
0.0
170
     0
 61
     5
348
26C
292
     1
282
     1
141
0.0
142
0.0
 63
   256
  0
VIEWPORT
  5
34A
330
B
100
AcDbEntity
 67
     1
  8
0
100
AcDbViewport
 10
202.5
 20
128.5
 30
0.0
 40
324.0
 41
205.6
 68
     2
 69
     2
 12
986.6781359294573
 22
1427.077061889956
 13
0.0
 23
0.0
 14
0.5
 24
0.5
 15
0.0
 25
0.0
 16
0.0
 26
0.0
 36
1.0
 17
0.0
 27
0.0
 37
0.0
 42
50.0
 43
0.0
 44
0.0
 45
2890.021615685494
 50
0.0
 51
0.0
 72
   100
 90
   557152
  1

281
     0
 71
     1
 74
     0
110
0.0
120
0.0
130
0.0
111
1.0
121
0.0
131
0.0
112
0.0
122
1.0
132
0.0
 79
     0
146
0.0
170
     0
 61
     5
348
26C
292
     1
282
     1
141
0.0
142
0.0
 63
   256
  0
ENDSEC
  0
SECTION
  2
OBJECTS
  0
DICTIONARY
  5
19
330
0
100
AcDbDictionary
281
     1
  3
ACAD_COLOR
350
38F
  3
ACAD_DETAILVIEWSTYLE
350
1EEA
  3
ACAD_GROUP
350
1A
  3
ACAD_IMAGE_VARS
350
27B
  3
ACAD_LAYOUT
350
1E
  3
ACAD_MATERIAL
350
263
  3
ACAD_MLEADERSTYLE
350
336
  3
ACAD_MLINESTYLE
350
1B
  3
ACAD_PLOTSETTINGS
350
22
  3
ACAD_PLOTSTYLENAME
350
1F
  3
ACAD_SCALELIST
350
241
  3
ACAD_SECTIONVIEWSTYLE
350
1EEB
  3
ACAD_TABLESTYLE
350
278
  3
ACAD_VISUALSTYLE
350
267
  3
ACDB_RECOMPOSE_DATA
350
4760
  3
AcDbVariableDictionary
350
330
  3
APPDATA
350
27A
  0
SUN
  5
68F
330
15
100
AcDbSun
 90
        1
290
     0
 63
     7
421
 16777215
 40
1.0
291
     1
 91
  2455826
 92
 54000000
292
     0
 70
     2
 71
   256
280
     1
  0
DICTIONARY
  5
2E1
330
2
100
AcDbDictionary
280
     1
281
     1
  3
ACAD_LAYERSTATES
360
2E2
  3
ACLYDICTIONARY
360
5EF
  0
DICTIONARY
  5
446C
330
446B
100
AcDbDictionary
280
     1
281
     1
  3
ACAD_DIMASSOC
360
446D
  0
DICTIONARY
  5
447E
330
447D
100
AcDbDictionary
280
     1
281
     1
  3
ACAD_DIMASSOC
360
447F
  0
DICTIONARY
  5
448D
330
448C
100
AcDbDictionary
280
     1
281
     1
  3
ACAD_DIMASSOC
360
448E
  0
DICTIONARY
  5
464A
330
4649
100
AcDbDictionary
280
     1
281
     1
  3
ACAD_DIMASSOC
360
464B
  0
DICTIONARY
  5
38F
102
{ACAD_REACTORS
330
19
102
}
330
19
100
AcDbDictionary
281
     1
  0
DICTIONARY
  5
1EEA
102
{ACAD_REACTORS
330
19
102
}
330
19
100
AcDbDictionary
281
     1
  0
DICTIONARY
  5
1A
102
{ACAD_REACTORS
330
19
102
}
330
19
100
AcDbDictionary
281
     1
  0
RASTERVARIABLES
  5
27B
102
{ACAD_REACTORS
330
19
102
}
330
19
100
AcDbRasterVariables
 90
        0
 70
     1
 71
     1
 72
     1
  0
DICTIONARY
  5
1E
102
{ACAD_REACTORS
330
19
102
}
330
19
100
AcDbDictionary
281
     1
  3
Layout1
350
21
  3
Model
350
20
  0
DICTIONARY
  5
263
102
{ACAD_REACTORS
330
19
102
}
330
19
100
AcDbDictionary
281
     1
  3
ByBlock
350
4191
  3
ByLayer
350
264
  3
Global
350
266
  0
DICTIONARY
  5
336
102
{ACAD_REACTORS
330
19
102
}
330
19
100
AcDbDictionary
281
     1
  0
DICTIONARY
  5
1B
102
{ACAD_REACTORS
330
19
102
}
330
19
100
AcDbDictionary
281
     1
  3
Standard
350
1C
  0
DICTIONARY
  5
22
102
{ACAD_REACTORS
330
19
102
}
330
19
100
AcDbDictionary
281
     1
  0
ACDBDICTIONARYWDFLT
  5
1F
102
{ACAD_REACTORS
330
19
102
}
330
19
100
AcDbDictionary
281
     1
  3
Normal
350
1D
100
AcDbDictionaryWithDefault
340
1D
  0
DICTIONARY
  5
241
102
{ACAD_REACTORS
330
19
102
}
330
19
100
AcDbDictionary
281
     1
  3
A0
350
242
  3
A1
350
243
  3
A2
350
244
  3
A3
350
245
  3
A4
350
246
  3
A5
350
247
  3
A6
350
248
  3
A7
350
249
  3
A8
350
24A
  3
A9
350
24B
  3
B0
350
24C
  3
B1
350
24D
  3
B2
350
24E
  3
B3
350
24F
  3
B4
350
250
  3
B5
350
251
  3
B6
350
252
  3
B7
350
253
  3
B8
350
254
  3
B9
350
255
  3
C0
350
256
  3
C1
350
257
  3
C2
350
258
  3
C3
350
259
  3
C4
350
25A
  3
C5
350
25B
  3
C6
350
25C
  3
C7
350
25D
  3
C8
350
25E
  3
C9
350
25F
  3
D0
350
260
  3
D1
350
261
  3
D2
350
262
  0
DICTIONARY
  5
1EEB
102
{ACAD_REACTORS
330
19
102
}
330
19
100
AcDbDictionary
281
     1
  0
DICTIONARY
  5
278
102
{ACAD_REACTORS
330
19
102
}
330
19
100
AcDbDictionary
281
     1
  3
Standard
350
279
  0
DICTIONARY
  5
267
102
{ACAD_REACTORS
330
19
102
}
330
19
100
AcDbDictionary
281
     1
  3
2dWireframe
350
26C
  3
3D Hidden
350
26E
  3
3dWireframe
350
26D
  3
Basic
350
26F
  3
Brighten
350
273
  3
ColorChange
350
277
  3
Conceptual
350
271
  3
Dim
350
272
  3
EdgeColorOff
350
689
  3
Facepattern
350
276
  3
Flat
350
268
  3
FlatWithEdges
350
269
  3
Gouraud
350
26A
  3
GouraudWithEdges
350
26B
  3
Hidden
350
686
  3
JitterOff
350
687
  3
Linepattern
350
275
  3
OverhangOff
350
688
  3
Realistic
350
270
  3
Shaded
350
68E
  3
Shaded with edges
350
68D
  3
Shades of Gray
350
68A
  3
Sketchy
350
68B
  3
Thicken
350
274
  3
Wireframe
350
685
  3
X-Ray
350
68C
  0
XRECORD
  5
4760
102
{ACAD_REACTORS
330
19
102
}
330
19
100
AcDbXrecord
280
     1
 90
        1
330
279
  0
DICTIONARY
  5
330
102
{ACAD_REACTORS
330
19
102
}
330
19
100
AcDbDictionary
281
     1
  3
CANNOSCALE
350
331
  3
CTABLESTYLE
350
335
  3
XCLIPFRAME
350
64A
  0
DICTIONARY
  5
27A
102
{ACAD_REACTORS
330
19
102
}
330
19
100
AcDbDictionary
281
     1
  0
DICTIONARY
  5
2E2
102
{ACAD_REACTORS
330
2E1
102
}
330
2E1
100
AcDbDictionary
281
     1
  3
ARGON_LAYERP_11
350
3FF2
  0
DICTIONARY
  5
5EF
102
{ACAD_REACTORS
330
2E1
102
}
330
2E1
100
AcDbDictionary
281
     1
1001
ACAD
1000
<All
  0
DIMASSOC
  5
446D
102
{ACAD_REACTORS
330
446C
102
}
330
446C
100
AcDbDimAssoc
330
446B
 90
        1
 70
     0
 71
     1
  1
AcDbOsnapPointRef
 72
     1
331
4469
 73
     0
 91
        0
 40
0.0
 10
0.0
 20
0.0
 30
0.0
 75
     0
  0
DIMASSOC
  5
447F
102
{ACAD_REACTORS
330
447E
102
}
330
447E
100
AcDbDimAssoc
330
447D
 90
        3
 70
     0
 71
     1
  1
AcDbOsnapPointRef
 72
     1
331
4469
 73
     0
 91
        0
 40
0.0
 10
0.0
 20
0.0
 30
0.0
 75
     0
  1
AcDbOsnapPointRef
 72
     1
331
446A
 73
     0
 91
        0
 40
0.0
 10
0.0
 20
0.0
 30
0.0
 75
     0
  0
DIMASSOC
  5
448E
102
{ACAD_REACTORS
330
448D
102
}
330
448D
100
AcDbDimAssoc
330
448C
 90
        3
 70
     0
 71
     1
  1
AcDbOsnapPointRef
 72
     1
331
446A
 73
     0
 91
        0
 40
0.0
 10
0.0
 20
0.0
 30
0.0
 75
     0
  1
AcDbOsnapPointRef
 72
     1
331
4466
 73
     0
 91
        0
 40
0.0
 10
0.0
 20
0.0
 30
0.0
 75
     0
  0
DIMASSOC
  5
464B
102
{ACAD_REACTORS
330
464A
102
}
330
464A
100
AcDbDimAssoc
330
4649
 90
        1
 70
     0
 71
     1
  1
AcDbOsnapPointRef
 72
    13
331
45A8
 73
     0
 91
        0
 40
0.0
 10
0.0
 20
0.0
 30
0.0
 75
     0
  0
LAYOUT
  5
21
102
{ACAD_REACTORS
330
1E
102
}
330
1E
100
AcDbPlotSettings
  1

  2
none_device
  4
ISO_A3_(420.00_x_297.00_MM)
  6

 40
7.5
 41
20.0
 42
7.5
 43
20.0
 44
420.0
 45
297.0
 46
0.0
 47
0.0
 48
0.0
 49
0.0
140
0.0
141
0.0
142
1.0
143
1.0
 70
     0
 72
     1
 73
     0
 74
     0
  7

 75
     0
 76
     0
 77
     2
 78
   300
147
1.0
148
0.0
149
0.0
100
AcDbLayout
  1
Layout1
 70
     0
 71
     0
 10
0.0
 20
0.0
 11
0.0
 21
0.0
 12
0.0
 22
0.0
 32
0.0
 14
0.0
 24
0.0
 34
0.0
 15
0.0
 25
0.0
 35
0.0
146
0.0
 13
0.0
 23
0.0
 33
0.0
 16
0.0
 26
0.0
 36
0.0
 17
0.0
 27
0.0
 37
0.0
 76
     0
330
B
331
349
  0
LAYOUT
  5
20
102
{ACAD_REACTORS
330
1E
102
}
330
1E
100
AcDbPlotSettings
  1

  2
none_device
  4
ISO_A3_(420.00_x_297.00_MM)
  6

 40
7.5
 41
20.0
 42
7.5
 43
20.0
 44
420.0
 45
297.0
 46
0.0
 47
0.0
 48
0.0
 49
0.0
140
0.0
141
0.0
142
1.0
143
1.0
 70
  1024
 72
     1
 73
     0
 74
     0
  7

 75
     0
 76
     0
 77
     2
 78
   300
147
1.0
148
0.0
149
0.0
100
AcDbLayout
  1
Model
 70
     0
 71
     1
 10
-10.0
 20
-0.9201746284776391
 11
2040.0
 21
2924.552903395052
 12
0.0
 22
0.0
 32
0.0
 14
40.0
 24
41.19837821319445
 34
0.0
 15
1990.000000000482
 25
2874.552903395052
 35
0.0
146
0.0
 13
0.0
 23
0.0
 33
0.0
 16
0.0
 26
0.0
 36
0.0
 17
0.0
 27
0.0
 37
0.0
 76
     0
330
A
331
15
  0
MATERIAL
  5
4191
102
{ACAD_REACTORS
330
263
102
}
330
263
100
AcDbMaterial
  1
ByBlock
 72
     1
 94
      127
  0
MATERIAL
  5
264
102
{ACAD_REACTORS
330
263
102
}
330
263
100
AcDbMaterial
  1
ByLayer
 72
     1
 94
      127
  0
MATERIAL
  5
266
102
{ACAD_REACTORS
330
263
102
}
330
263
100
AcDbMaterial
  1
Global
 72
     1
 94
      127
  0
MLINESTYLE
  5
1C
102
{ACAD_REACTORS
330
1B
102
}
330
1B
100
AcDbMlineStyle
  2
Standard
 70
     0
  3

 62
     0
 51
90.0
 52
90.0
 71
     2
 49
0.5
 62
   256
  6
BYLAYER
 49
-0.5
 62
   256
  6
BYLAYER
  0
ACDBPLACEHOLDER
  5
1D
102
{ACAD_REACTORS
330
1F
102
}
330
1F
  0
SCALE
  5
242
102
{ACAD_REACTORS
330
241
102
}
330
241
100
AcDbScale
 70
     0
300
1:1
140
1.0
141
1.0
290
     1
  0
SCALE
  5
243
102
{ACAD_REACTORS
330
241
102
}
330
241
100
AcDbScale
 70
     0
300
1:2
140
1.0
141
2.0
290
     0
  0
SCALE
  5
244
102
{ACAD_REACTORS
330
241
102
}
330
241
100
AcDbScale
 70
     0
300
1:4
140
1.0
141
4.0
290
     0
  0
SCALE
  5
245
102
{ACAD_REACTORS
330
241
102
}
330
241
100
AcDbScale
 70
     0
300
1:5
140
1.0
141
5.0
290
     0
  0
SCALE
  5
246
102
{ACAD_REACTORS
330
241
102
}
330
241
100
AcDbScale
 70
     0
300
1:8
140
1.0
141
8.0
290
     0
  0
SCALE
  5
247
102
{ACAD_REACTORS
330
241
102
}
330
241
100
AcDbScale
 70
     0
300
1:10
140
1.0
141
10.0
290
     0
  0
SCALE
  5
248
102
{ACAD_REACTORS
330
241
102
}
330
241
100
AcDbScale
 70
     0
300
1:16
140
1.0
141
16.0
290
     0
  0
SCALE
  5
249
102
{ACAD_REACTORS
330
241
102
}
330
241
100
AcDbScale
 70
     0
300
1:20
140
1.0
141
20.0
290
     0
  0
SCALE
  5
24A
102
{ACAD_REACTORS
330
241
102
}
330
241
100
AcDbScale
 70
     0
300
1:30
140
1.0
141
30.0
290
     0
  0
SCALE
  5
24B
102
{ACAD_REACTORS
330
241
102
}
330
241
100
AcDbScale
 70
     0
300
1:40
140
1.0
141
40.0
290
     0
  0
SCALE
  5
24C
102
{ACAD_REACTORS
330
241
102
}
330
241
100
AcDbScale
 70
     0
300
1:50
140
1.0
141
50.0
290
     0
  0
SCALE
  5
24D
102
{ACAD_REACTORS
330
241
102
}
330
241
100
AcDbScale
 70
     0
300
1:100
140
1.0
141
100.0
290
     0
  0
SCALE
  5
24E
102
{ACAD_REACTORS
330
241
102
}
330
241
100
AcDbScale
 70
     0
300
2:1
140
2.0
141
1.0
290
     0
  0
SCALE
  5
24F
102
{ACAD_REACTORS
330
241
102
}
330
241
100
AcDbScale
 70
     0
300
4:1
140
4.0
141
1.0
290
     0
  0
SCALE
  5
250
102
{ACAD_REACTORS
330
241
102
}
330
241
100
AcDbScale
 70
     0
300
8:1
140
8.0
141
1.0
290
     0
  0
SCALE
  5
251
102
{ACAD_REACTORS
330
241
102
}
330
241
100
AcDbScale
 70
     0
300
10:1
140
10.0
141
1.0
290
     0
  0
SCALE
  5
252
102
{ACAD_REACTORS
330
241
102
}
330
241
100
AcDbScale
 70
     0
300
100:1
140
100.0
141
1.0
290
     0
  0
SCALE
  5
253
102
{ACAD_REACTORS
330
241
102
}
330
241
100
AcDbScale
 70
     0
300
1/128" = 1'-0"
140
0.0078125
141
12.0
290
     0
  0
SCALE
  5
254
102
{ACAD_REACTORS
330
241
102
}
330
241
100
AcDbScale
 70
     0
300
1/64" = 1'-0"
140
0.015625
141
12.0
290
     0
  0
SCALE
  5
255
102
{ACAD_REACTORS
330
241
102
}
330
241
100
AcDbScale
 70
     0
300
1/32" = 1'-0"
140
0.03125
141
12.0
290
     0
  0
SCALE
  5
256
102
{ACAD_REACTORS
330
241
102
}
330
241
100
AcDbScale
 70
     0
300
1/16" = 1'-0"
140
0.0625
141
12.0
290
     0
  0
SCALE
  5
257
102
{ACAD_REACTORS
330
241
102
}
330
241
100
AcDbScale
 70
     0
300
3/32" = 1'-0"
140
0.09375
141
12.0
290
     0
  0
SCALE
  5
258
102
{ACAD_REACTORS
330
241
102
}
330
241
100
AcDbScale
 70
     0
300
1/8" = 1'-0"
140
0.125
141
12.0
290
     0
  0
SCALE
  5
259
102
{ACAD_REACTORS
330
241
102
}
330
241
100
AcDbScale
 70
     0
300
3/16" = 1'-0"
140
0.1875
141
12.0
290
     0
  0
SCALE
  5
25A
102
{ACAD_REACTORS
330
241
102
}
330
241
100
AcDbScale
 70
     0
300
1/4" = 1'-0"
140
0.25
141
12.0
290
     0
  0
SCALE
  5
25B
102
{ACAD_REACTORS
330
241
102
}
330
241
100
AcDbScale
 70
     0
300
3/8" = 1'-0"
140
0.375
141
12.0
290
     0
  0
SCALE
  5
25C
102
{ACAD_REACTORS
330
241
102
}
330
241
100
AcDbScale
 70
     0
300
1/2" = 1'-0"
140
0.5
141
12.0
290
     0
  0
SCALE
  5
25D
102
{ACAD_REACTORS
330
241
102
}
330
241
100
AcDbScale
 70
     0
300
3/4" = 1'-0"
140
0.75
141
12.0
290
     0
  0
SCALE
  5
25E
102
{ACAD_REACTORS
330
241
102
}
330
241
100
AcDbScale
 70
     0
300
1" = 1'-0"
140
1.0
141
12.0
290
     0
  0
SCALE
  5
25F
102
{ACAD_REACTORS
330
241
102
}
330
241
100
AcDbScale
 70
     0
300
1-1/2" = 1'-0"
140
1.5
141
12.0
290
     0
  0
SCALE
  5
260
102
{ACAD_REACTORS
330
241
102
}
330
241
100
AcDbScale
 70
     0
300
3" = 1'-0"
140
3.0
141
12.0
290
     0
  0
SCALE
  5
261
102
{ACAD_REACTORS
330
241
102
}
330
241
100
AcDbScale
 70
     0
300
6" = 1'-0"
140
6.0
141
12.0
290
     0
  0
SCALE
  5
262
102
{ACAD_REACTORS
330
241
102
}
330
241
100
AcDbScale
 70
     0
300
1'-0" = 1'-0"
140
12.0
141
12.0
290
     0
  0
TABLESTYLE
  5
279
102
{ACAD_REACTORS
330
278
102
}
102
{ACAD_XDICTIONARY
360
475E
102
}
330
278
100
AcDbTableStyle
  3
Standard
 70
     0
 71
     0
 40
0.06
 41
0.06
280
     0
281
     0
  7
Standard
140
4.5
170
     2
 62
     0
 63
   257
283
     0
 90
        4
 91
        0
  1

274
    -2
284
     1
 64
     0
275
    -2
285
     1
 65
     0
276
    -2
286
     1
 66
     0
277
    -2
287
     1
 67
     0
278
    -2
288
     1
 68
     0
279
    -2
289
     1
 69
     0
  7
Standard
140
6.0
170
     5
 62
     0
 63
   257
283
     0
 90
        4
 91
        0
  1

274
    -2
284
     1
 64
     0
275
    -2
285
     1
 65
     0
276
    -2
286
     1
 66
     0
277
    -2
287
     1
 67
     0
278
    -2
288
     1
 68
     0
279
    -2
289
     1
 69
     0
  7
Standard
140
4.5
170
     5
 62
     0
 63
   257
283
     0
 90
        4
 91
        0
  1

274
    -2
284
     1
 64
     0
275
    -2
285
     1
 65
     0
276
    -2
286
     1
 66
     0
277
    -2
287
     1
 67
     0
278
    -2
288
     1
 68
     0
279
    -2
289
     1
 69
     0
  0
VISUALSTYLE
  5
26C
102
{ACAD_REACTORS
330
267
102
}
330
267
100
AcDbVisualStyle
  2
2dWireframe
 70
     4
 71
     0
 72
     2
 73
     0
 90
        0
 40
-0.6
 41
-30.0
 62
     5
 63
     7
421
 16777215
 74
     1
 91
        4
 64
     7
 65
   257
 75
     1
175
     1
 42
1.0
 92
        0
 66
   257
 43
1.0
 76
     1
 77
     6
 78
     2
 67
     7
 79
     5
170
     0
171
     0
290
     0
174
     0
 93
        1
 44
0.0
173
     0
291
     0
 45
0.0
  0
VISUALSTYLE
  5
26E
102
{ACAD_REACTORS
330
267
102
}
330
267
100
AcDbVisualStyle
  2
3D Hidden
 70
     6
 71
     1
 72
     2
 73
     2
 90
        0
 40
-0.6
 41
-30.0
 62
     5
 63
     7
421
 16777215
 74
     2
 91
        2
 64
     7
 65
   257
 75
     2
175
     1
 42
40.0
 92
        0
 66
   257
 43
1.0
 76
     1
 77
     6
 78
     2
 67
     7
 79
     3
170
     0
171
     0
290
     0
174
     0
 93
        1
 44
0.0
173
     0
291
     0
 45
0.0
  0
VISUALSTYLE
  5
26D
102
{ACAD_REACTORS
330
267
102
}
330
267
100
AcDbVisualStyle
  2
3dWireframe
 70
     5
 71
     0
 72
     2
 73
     0
 90
        0
 40
-0.6
 41
-30.0
 62
     5
 63
     7
421
 16777215
 74
     1
 91
        4
 64
     7
 65
   257
 75
     1
175
     1
 42
1.0
 92
        0
 66
   257
 43
1.0
 76
     1
 77
     6
 78
     2
 67
     7
 79
     5
170
     0
171
     0
290
     0
174
     0
 93
        1
 44
0.0
173
     0
291
     0
 45
0.0
  0
VISUALSTYLE
  5
26F
102
{ACAD_REACTORS
330
267
102
}
330
267
100
AcDbVisualStyle
  2
Basic
 70
     7
 71
     1
 72
     0
 73
     1
 90
        0
 40
-0.6
 41
-30.0
 62
     5
 63
     7
421
 16777215
 74
     0
 91
        4
 64
     7
 65
   257
 75
     1
175
     1
 42
1.0
 92
        8
 66
     7
 43
1.0
 76
     1
 77
     6
 78
     2
 67
     7
 79
     5
170
     0
171
     0
290
     0
174
     0
 93
        1
 44
0.0
173
     0
291
     1
 45
0.0
  0
VISUALSTYLE
  5
273
102
{ACAD_REACTORS
330
267
102
}
330
267
100
AcDbVisualStyle
  2
Brighten
 70
    12
 71
     2
 72
     2
 73
     0
 90
        0
 40
-0.6
 41
-30.0
 62
     5
 63
     7
421
 16777215
 74
     1
 91
        4
 64
     7
 65
   257
 75
     1
175
     1
 42
1.0
 92
        8
 66
     7
 43
1.0
 76
     1
 77
     6
 78
     2
 67
     7
 79
     5
170
     0
171
     0
290
     0
174
     0
 93
        1
 44
50.0
173
     0
291
     1
 45
0.0
  0
VISUALSTYLE
  5
277
102
{ACAD_REACTORS
330
267
102
}
330
267
100
AcDbVisualStyle
  2
ColorChange
 70
    16
 71
     2
 72
     2
 73
     3
 90
        0
 40
-0.6
 41
-30.0
 62
     5
 63
     8
421
  8421504
 74
     1
 91
        4
 64
     7
 65
   257
 75
     1
175
     1
 42
1.0
 92
        8
 66
     8
424
  8421504
 43
1.0
 76
     1
 77
     6
 78
     2
 67
     7
 79
     5
170
     0
171
     0
290
     0
174
     0
 93
        1
 44
0.0
173
     0
291
     1
 45
0.0
  0
VISUALSTYLE
  5
271
102
{ACAD_REACTORS
330
267
102
}
330
267
100
AcDbVisualStyle
  2
Conceptual
 70
     9
 71
     3
 72
     2
 73
     0
 90
        0
 40
-0.6
 41
-30.0
 62
     5
 63
     7
421
 16777215
 74
     2
 91
        2
 64
     7
 65
   257
 75
     1
175
     1
 42
40.0
 92
        8
 66
     7
 43
1.0
 76
     1
 77
     6
 78
     2
 67
     7
 79
     3
170
     0
171
     0
290
     0
174
     0
 93
        1
 44
0.0
173
     0
291
     0
 45
0.0
  0
VISUALSTYLE
  5
272
102
{ACAD_REACTORS
330
267
102
}
330
267
100
AcDbVisualStyle
  2
Dim
 70
    11
 71
     2
 72
     2
 73
     0
 90
        0
 40
-0.6
 41
-30.0
 62
     5
 63
     7
421
 16777215
 74
     1
 91
        4
 64
     7
 65
   257
 75
     1
175
     1
 42
1.0
 92
        8
 66
     7
 43
1.0
 76
     1
 77
     6
 78
     2
 67
     7
 79
     5
170
     0
171
     0
290
     0
174
     0
 93
        1
 44
-50.0
173
     0
291
     1
 45
0.0
  0
VISUALSTYLE
  5
689
102
{ACAD_REACTORS
330
267
102
}
330
267
100
AcDbVisualStyle
  2
EdgeColorOff
 70
    22
 71
     2
 72
     2
 73
     0
 90
        0
 40
0.6
 41
30.0
 62
     5
 63
     7
421
 16777215
 74
     1
 91
        4
 64
     7
 65
   257
 75
     1
175
     1
 42
1.0
 92
        8
 66
     7
 43
1.0
 76
     1
 77
     6
 78
     2
 67
     7
 79
     5
170
     0
171
     0
290
     0
174
     0
 93
        1
 44
0.0
173
     0
291
     1
 45
0.0
  0
VISUALSTYLE
  5
276
102
{ACAD_REACTORS
330
267
102
}
330
267
100
AcDbVisualStyle
  2
Facepattern
 70
    15
 71
     2
 72
     2
 73
     0
 90
        0
 40
-0.6
 41
-30.0
 62
     5
 63
     7
421
 16777215
 74
     1
 91
        4
 64
     7
 65
   257
 75
     1
175
     1
 42
1.0
 92
        8
 66
     7
 43
1.0
 76
     1
 77
     6
 78
     2
 67
     7
 79
     5
170
     0
171
     0
290
     0
174
     0
 93
        1
 44
0.0
173
     0
291
     1
 45
0.0
  0
VISUALSTYLE
  5
268
102
{ACAD_REACTORS
330
267
102
}
330
267
100
AcDbVisualStyle
  2
Flat
 70
     0
 71
     2
 72
     1
 73
     1
 90
        2
 40
-0.6
 41
30.0
 62
     5
 63
     7
421
 16777215
 74
     0
 91
        4
 64
     7
 65
   257
 75
     1
175
     1
 42
1.0
 92
        8
 66
     7
 43
1.0
 76
     1
 77
     6
 78
     2
 67
     7
 79
     5
170
     0
171
     0
290
     0
174
     0
 93
       13
 44
0.0
173
     0
291
     1
 45
0.0
  0
VISUALSTYLE
  5
269
102
{ACAD_REACTORS
330
267
102
}
330
267
100
AcDbVisualStyle
  2
FlatWithEdges
 70
     1
 71
     2
 72
     1
 73
     1
 90
        2
 40
-0.6
 41
30.0
 62
     5
 63
     7
421
 16777215
 74
     1
 91
        4
 64
     7
 65
   257
 75
     1
175
     1
 42
1.0
 92
        0
 66
   257
 43
1.0
 76
     1
 77
     6
 78
     2
 67
     7
 79
     5
170
     0
171
     0
290
     0
174
     0
 93
       13
 44
0.0
173
     0
291
     1
 45
0.0
  0
VISUALSTYLE
  5
26A
102
{ACAD_REACTORS
330
267
102
}
330
267
100
AcDbVisualStyle
  2
Gouraud
 70
     2
 71
     2
 72
     2
 73
     1
 90
        2
 40
-0.6
 41
30.0
 62
     5
 63
     7
421
 16777215
 74
     0
 91
        4
 64
     7
 65
   257
 75
     1
175
     1
 42
1.0
 92
        0
 66
     7
 43
1.0
 76
     1
 77
     6
 78
     2
 67
     7
 79
     5
170
     0
171
     0
290
     0
174
     0
 93
       13
 44
0.0
173
     0
291
     1
 45
0.0
  0
VISUALSTYLE
  5
26B
102
{ACAD_REACTORS
330
267
102
}
330
267
100
AcDbVisualStyle
  2
GouraudWithEdges
 70
     3
 71
     2
 72
     2
 73
     1
 90
        2
 40
-0.6
 41
30.0
 62
     5
 63
     7
421
 16777215
 74
     1
 91
        4
 64
     7
 65
   257
 75
     1
175
     1
 42
1.0
 92
        0
 66
   257
 43
1.0
 76
     1
 77
     6
 78
     2
 67
     7
 79
     5
170
     0
171
     0
290
     0
174
     0
 93
       13
 44
0.0
173
     0
291
     1
 45
0.0
  0
VISUALSTYLE
  5
686
102
{ACAD_REACTORS
330
267
102
}
330
267
100
AcDbVisualStyle
  2
Hidden
 70
     6
 71
     1
 72
     2
 73
     2
 90
        0
 40
0.6
 41
30.0
 62
     5
 63
     7
421
 16777215
 74
     2
 91
        2
 64
     7
 65
   257
 75
     2
175
     1
 42
40.0
 92
        0
 66
   257
 43
1.0
 76
     1
 77
     6
 78
     2
 67
     7
 79
     3
170
     0
171
     0
290
     0
174
     0
 93
        1
 44
0.0
173
     0
291
     0
 45
0.0
  0
VISUALSTYLE
  5
687
102
{ACAD_REACTORS
330
267
102
}
330
267
100
AcDbVisualStyle
  2
JitterOff
 70
    20
 71
     2
 72
     2
 73
     0
 90
        0
 40
0.6
 41
30.0
 62
     5
 63
     7
421
 16777215
 74
     1
 91
        4
 64
     7
 65
   257
 75
     1
175
     1
 42
1.0
 92
       10
 66
     7
 43
1.0
 76
     1
 77
     6
 78
     2
 67
     7
 79
     5
170
     0
171
     0
290
     0
174
     0
 93
        1
 44
0.0
173
     0
291
     1
 45
0.0
  0
VISUALSTYLE
  5
275
102
{ACAD_REACTORS
330
267
102
}
330
267
100
AcDbVisualStyle
  2
Linepattern
 70
    14
 71
     2
 72
     2
 73
     0
 90
        0
 40
-0.6
 41
-30.0
 62
     5
 63
     7
421
 16777215
 74
     1
 91
        4
 64
     7
 65
   257
 75
     7
175
     7
 42
1.0
 92
        8
 66
     7
 43
1.0
 76
     1
 77
     6
 78
     2
 67
     7
 79
     5
170
     0
171
     0
290
     0
174
     0
 93
        1
 44
0.0
173
     0
291
     1
 45
0.0
  0
VISUALSTYLE
  5
688
102
{ACAD_REACTORS
330
267
102
}
330
267
100
AcDbVisualStyle
  2
OverhangOff
 70
    21
 71
     2
 72
     2
 73
     0
 90
        0
 40
0.6
 41
30.0
 62
     5
 63
     7
421
 16777215
 74
     1
 91
        4
 64
     7
 65
   257
 75
     1
175
     1
 42
1.0
 92
        9
 66
     7
 43
1.0
 76
     1
 77
     6
 78
     2
 67
     7
 79
     5
170
     0
171
     0
290
     0
174
     0
 93
        1
 44
0.0
173
     0
291
     1
 45
0.0
  0
VISUALSTYLE
  5
270
102
{ACAD_REACTORS
330
267
102
}
330
267
100
AcDbVisualStyle
  2
Realistic
 70
     8
 71
     2
 72
     2
 73
     0
 90
        0
 40
-0.6
 41
-30.0
 62
     5
 63
     7
421
 16777215
 74
     1
 91
        0
 64
     7
 65
   257
 75
     1
175
     1
 42
1.0
 92
        8
 66
     8
424
  7895160
 43
1.0
 76
     1
 77
     6
 78
     2
 67
     7
 79
     5
170
     0
171
     0
290
     0
174
     0
 93
       13
 44
0.0
173
     0
291
     0
 45
0.0
  0
VISUALSTYLE
  5
68E
102
{ACAD_REACTORS
330
267
102
}
330
267
100
AcDbVisualStyle
  2
Shaded
 70
    27
 71
     2
 72
     2
 73
     1
 90
        2
 40
0.6
 41
30.0
 62
     5
 63
     7
421
 16777215
 74
     0
 91
        4
 64
     7
 65
   257
 75
     1
175
     1
 42
1.0
 92
        8
 66
   257
 43
1.0
 76
     1
 77
     6
 78
     2
 67
     8
425
  7895160
 79
     3
170
     0
171
     0
290
     0
174
     0
 93
        5
 44
0.0
173
     0
291
     0
 45
0.0
  0
VISUALSTYLE
  5
68D
102
{ACAD_REACTORS
330
267
102
}
330
267
100
AcDbVisualStyle
  2
Shaded with edges
 70
    26
 71
     2
 72
     2
 73
     1
 90
        2
 40
0.6
 41
30.0
 62
     5
 63
     7
421
 16777215
 74
     1
 91
       10
 64
     7
 65
   257
 75
     2
175
     1
 42
1.0
 92
        8
 66
   257
 43
1.0
 76
     1
 77
     6
 78
     2
 67
     7
 79
     3
170
     0
171
     0
290
     0
174
     0
 93
        5
 44
0.0
173
     0
291
     0
 45
0.0
  0
VISUALSTYLE
  5
68A
102
{ACAD_REACTORS
330
267
102
}
330
267
100
AcDbVisualStyle
  2
Shades of Gray
 70
    23
 71
     2
 72
     2
 73
     3
 90
        0
 40
0.6
 41
30.0
 62
     5
 63
     7
421
 16777215
 74
     2
 91
        2
 64
     7
 65
     7
 75
     1
175
     1
 42
40.0
 92
        8
 66
     7
 43
1.0
 76
     1
 77
     6
 78
     2
 67
     7
 79
     3
170
     0
171
     0
290
     0
174
     0
 93
        1
 44
0.0
173
     0
291
     0
 45
0.0
  0
VISUALSTYLE
  5
68B
102
{ACAD_REACTORS
330
267
102
}
330
267
100
AcDbVisualStyle
  2
Sketchy
 70
    24
 71
     1
 72
     2
 73
     2
 90
        0
 40
0.6
 41
30.0
 62
     5
 63
     7
421
 16777215
 74
     2
 91
        2
 64
     7
 65
     7
 75
     1
175
     1
 42
40.0
 92
       11
 66
     7
 43
1.0
 76
     1
 77
     6
 78
     2
 67
     7
 79
     6
170
     0
171
     0
290
     0
174
     0
 93
        1
 44
0.0
173
     0
291
     0
 45
0.0
  0
VISUALSTYLE
  5
274
102
{ACAD_REACTORS
330
267
102
}
330
267
100
AcDbVisualStyle
  2
Thicken
 70
    13
 71
     2
 72
     2
 73
     0
 90
        0
 40
-0.6
 41
-30.0
 62
     5
 63
     7
421
 16777215
 74
     1
 91
        4
 64
     7
 65
   257
 75
     1
175
     1
 42
1.0
 92
       12
 66
     7
 43
1.0
 76
     1
 77
     6
 78
     2
 67
     7
 79
     5
170
     0
171
     0
290
     0
174
     0
 93
        1
 44
0.0
173
     0
291
     1
 45
0.0
  0
VISUALSTYLE
  5
685
102
{ACAD_REACTORS
330
267
102
}
330
267
100
AcDbVisualStyle
  2
Wireframe
 70
     5
 71
     0
 72
     2
 73
     0
 90
        0
 40
0.6
 41
30.0
 62
     5
 63
     7
421
 16777215
 74
     1
 91
        4
 64
     7
 65
   257
 75
     1
175
     1
 42
1.0
 92
        0
 66
   257
 43
1.0
 76
     1
 77
     6
 78
     2
 67
     7
 79
     3
170
     0
171
     0
290
     0
174
     0
 93
        1
 44
0.0
173
     0
291
     0
 45
0.0
  0
VISUALSTYLE
  5
68C
102
{ACAD_REACTORS
330
267
102
}
330
267
100
AcDbVisualStyle
  2
X-Ray
 70
    25
 71
     2
 72
     2
 73
     1
 90
        1
 40
0.5
 41
30.0
 62
     5
 63
     7
421
 16777215
 74
     1
 91
        0
 64
     7
 65
   257
 75
     1
175
     1
 42
1.0
 92
        8
 66
     7
 43
1.0
 76
     1
 77
     6
 78
     2
 67
     7
 79
     3
170
     0
171
     0
290
     0
174
     0
 93
       13
 44
0.0
173
     0
291
     0
 45
0.0
  0
DICTIONARYVAR
  5
331
102
{ACAD_REACTORS
330
330
102
}
330
330
100
DictionaryVariables
280
     0
  1
1:1
  0
DICTIONARYVAR
  5
335
102
{ACAD_REACTORS
330
330
102
}
330
330
100
DictionaryVariables
280
     0
  1
Standard
  0
DICTIONARYVAR
  5
64A
102
{ACAD_REACTORS
330
330
102
}
330
330
100
DictionaryVariables
280
     0
  1
0
  0
XRECORD
  5
3FF2
102
{ACAD_REACTORS
330
2E2
102
}
330
2E2
100
AcDbXrecord
280
     1
 91
     1023
301

290
     0
302
MODEL
330
14
 90
        8
 62
     7
370
    -3
331
13
  1
Color_7
330
4A
 90
        0
 62
     7
370
     9
331
13
  1
Color_7
330
4B
 90
        8
 62
     7
370
    -3
331
13
  1
Color_7
330
4C
 90
        8
 62
     7
370
    -3
331
13
  1
Color_7
330
4D
 90
        8
 62
     7
370
    -3
331
13
  1
Color_7
330
382
 90
        8
 62
     7
370
    -3
331
13
  1
Color_7
330
0
 90
        8
 62
     7
370
     9
331
45
  1
Color_7
330
5EB
 90
        9
 62
     7
370
     9
331
13
  1
Color_7
330
0
 90
        8
 62
     7
370
    35
331
13
  1
Color_7
330
0
 90
        8
 62
     7
370
    -3
331
0
  1
Color_7
330
0
 90
        8
 62
     7
370
    20
331
0
  1
Color_7
330
2226
 90
        8
 62
     7
370
    -3
331
13
  1
Color_7
  0
DICTIONARY
  5
475E
330
279
100
AcDbDictionary
280
     1
281
     1
  3
ACAD_ROUNDTRIP_2008_TABLESTYLE_CELLSTYLEMAP
360
475F
  0
CELLSTYLEMAP
  5
475F
102
{ACAD_REACTORS
330
475E
102
}
330
475E
100
AcDbCellStyleMap
 90
        3
300
CELLSTYLE
  1
TABLEFORMAT_BEGIN
 90
        5
170
     1
 91
        0
 92
    32768
 62
   257
 93
        1
300
CONTENTFORMAT
  1
CONTENTFORMAT_BEGIN
 90
        0
 91
        0
 92
        4
 93
        0
300

 40
0.0
140
1.0
 94
        5
 62
     0
340
17
144
6.0
309
CONTENTFORMAT_END
171
     1
301
MARGIN
  1
CELLMARGIN_BEGIN
 40
0.06
 40
0.06
 40
0.06
 40
0.06
 40
0.18
 40
0.18
309
CELLMARGIN_END
 94
        6
 95
        1
302
GRIDFORMAT
  1
GRIDFORMAT_BEGIN
 90
        0
 91
        1
 62
     0
 92
       -2
340
0
 93
        0
 40
0.045
309
GRIDFORMAT_END
 95
        2
302
GRIDFORMAT
  1
GRIDFORMAT_BEGIN
 90
        0
 91
        1
 62
     0
 92
       -2
340
0
 93
        0
 40
0.045
309
GRIDFORMAT_END
 95
        4
302
GRIDFORMAT
  1
GRIDFORMAT_BEGIN
 90
        0
 91
        1
 62
     0
 92
       -2
340
0
 93
        0
 40
0.045
309
GRIDFORMAT_END
 95
        8
302
GRIDFORMAT
  1
GRIDFORMAT_BEGIN
 90
        0
 91
        1
 62
     0
 92
       -2
340
0
 93
        0
 40
0.045
309
GRIDFORMAT_END
 95
       16
302
GRIDFORMAT
  1
GRIDFORMAT_BEGIN
 90
        0
 91
        1
 62
     0
 92
       -2
340
0
 93
        0
 40
0.045
309
GRIDFORMAT_END
 95
       32
302
GRIDFORMAT
  1
GRIDFORMAT_BEGIN
 90
        0
 91
        1
 62
     0
 92
       -2
340
0
 93
        0
 40
0.045
309
GRIDFORMAT_END
309
TABLEFORMAT_END
  1
CELLSTYLE_BEGIN
 90
        1
 91
        1
300
_TITLE
309
CELLSTYLE_END
300
CELLSTYLE
  1
TABLEFORMAT_BEGIN
 90
        5
170
     1
 91
        0
 92
        0
 62
   257
 93
        1
300
CONTENTFORMAT
  1
CONTENTFORMAT_BEGIN
 90
        0
 91
        0
 92
        4
 93
        0
300

 40
0.0
140
1.0
 94
        5
 62
     0
340
17
144
4.5
309
CONTENTFORMAT_END
171
     1
301
MARGIN
  1
CELLMARGIN_BEGIN
 40
0.06
 40
0.06
 40
0.06
 40
0.06
 40
0.18
 40
0.18
309
CELLMARGIN_END
 94
        6
 95
        1
302
GRIDFORMAT
  1
GRIDFORMAT_BEGIN
 90
        0
 91
        1
 62
     0
 92
       -2
340
0
 93
        0
 40
0.045
309
GRIDFORMAT_END
 95
        2
302
GRIDFORMAT
  1
GRIDFORMAT_BEGIN
 90
        0
 91
        1
 62
     0
 92
       -2
340
0
 93
        0
 40
0.045
309
GRIDFORMAT_END
 95
        4
302
GRIDFORMAT
  1
GRIDFORMAT_BEGIN
 90
        0
 91
        1
 62
     0
 92
       -2
340
0
 93
        0
 40
0.045
309
GRIDFORMAT_END
 95
        8
302
GRIDFORMAT
  1
GRIDFORMAT_BEGIN
 90
        0
 91
        1
 62
     0
 92
       -2
340
0
 93
        0
 40
0.045
309
GRIDFORMAT_END
 95
       16
302
GRIDFORMAT
  1
GRIDFORMAT_BEGIN
 90
        0
 91
        1
 62
     0
 92
       -2
340
0
 93
        0
 40
0.045
309
GRIDFORMAT_END
 95
       32
302
GRIDFORMAT
  1
GRIDFORMAT_BEGIN
 90
        0
 91
        1
 62
     0
 92
       -2
340
0
 93
        0
 40
0.045
309
GRIDFORMAT_END
309
TABLEFORMAT_END
  1
CELLSTYLE_BEGIN
 90
        2
 91
        1
300
_HEADER
309
CELLSTYLE_END
300
CELLSTYLE
  1
TABLEFORMAT_BEGIN
 90
        5
170
     1
 91
        0
 92
        0
 62
   257
 93
        1
300
CONTENTFORMAT
  1
CONTENTFORMAT_BEGIN
 90
        0
 91
        0
 92
        4
 93
        0
300

 40
0.0
140
1.0
 94
        2
 62
     0
340
17
144
4.5
309
CONTENTFORMAT_END
171
     1
301
MARGIN
  1
CELLMARGIN_BEGIN
 40
0.06
 40
0.06
 40
0.06
 40
0.06
 40
0.18
 40
0.18
309
CELLMARGIN_END
 94
        6
 95
        1
302
GRIDFORMAT
  1
GRIDFORMAT_BEGIN
 90
        0
 91
        1
 62
     0
 92
       -2
340
0
 93
        0
 40
0.045
309
GRIDFORMAT_END
 95
        2
302
GRIDFORMAT
  1
GRIDFORMAT_BEGIN
 90
        0
 91
        1
 62
     0
 92
       -2
340
0
 93
        0
 40
0.045
309
GRIDFORMAT_END
 95
        4
302
GRIDFORMAT
  1
GRIDFORMAT_BEGIN
 90
        0
 91
        1
 62
     0
 92
       -2
340
0
 93
        0
 40
0.045
309
GRIDFORMAT_END
 95
        8
302
GRIDFORMAT
  1
GRIDFORMAT_BEGIN
 90
        0
 91
        1
 62
     0
 92
       -2
340
0
 93
        0
 40
0.045
309
GRIDFORMAT_END
 95
       16
302
GRIDFORMAT
  1
GRIDFORMAT_BEGIN
 90
        0
 91
        1
 62
     0
 92
       -2
340
0
 93
        0
 40
0.045
309
GRIDFORMAT_END
 95
       32
302
GRIDFORMAT
  1
GRIDFORMAT_BEGIN
 90
        0
 91
        1
 62
     0
 92
       -2
340
0
 93
        0
 40
0.045
309
GRIDFORMAT_END
309
TABLEFORMAT_END
  1
CELLSTYLE_BEGIN
 90
        3
 91
        2
300
_DATA
309
CELLSTYLE_END
  0
ENDSEC
  0
EOF
