  0
SECTION
  2
HEADER
  9
$ACADVER
  1
AC1021
  9
$ACADMAINTVER
 70
    25
  9
$DWGCODEPAGE
  3
ANSI_932
  9
$LASTSAVEDBY
  1
howeNelson
  9
$INSBASE
 10
0.0
 20
0.0
 30
0.0
  9
$EXTMIN
 10
0.0
 20
0.0
 30
-0.0000000000000142
  9
$EXTMAX
 10
2100.0
 20
2970.0
 30
0.0000000000000071
  9
$LIMMIN
 10
0.0
 20
0.0
  9
$LIMMAX
 10
2100.0
 20
2970.0
  9
$ORTHOMODE
 70
     0
  9
$REGENMODE
 70
     1
  9
$FILLMODE
 70
     1
  9
$QTEXTMODE
 70
     0
  9
$MIRRTEXT
 70
     1
  9
$LTSCALE
 40
5.0
  9
$ATTMODE
 70
     1
  9
$TEXTSIZE
 40
2.5
  9
$TRACEWID
 40
1.0
  9
$TEXTSTYLE
  7
ＭＳ ゴシック
  9
$CLAYER
  8
MODEL
  9
$CELTYPE
  6
ByLayer
  9
$CECOLOR
 62
   256
  9
$CELTSCALE
 40
1.0
  9
$DISPSILH
 70
     0
  9
$DIMSCALE
 40
1.0
  9
$DIMASZ
 40
10.0
  9
$DIMEXO
 40
30.0
  9
$DIMDLI
 40
0.9999999999999999
  9
$DIMRND
 40
0.0
  9
$DIMDLE
 40
0.0
  9
$DIMEXE
 40
0.0
  9
$DIMTP
 40
0.0
  9
$DIMTM
 40
0.0
  9
$DIMTXT
 40
24.0
  9
$DIMCEN
 40
0.0
  9
$DIMTSZ
 40
0.0
  9
$DIMTOL
 70
     0
  9
$DIMLIM
 70
     0
  9
$DIMTIH
 70
     0
  9
$DIMTOH
 70
     0
  9
$DIMSE1
 70
     0
  9
$DIMSE2
 70
     0
  9
$DIMTAD
 70
     1
  9
$DIMZIN
 70
    11
  9
$DIMBLK
  1
DOT
  9
$DIMASO
 70
     1
  9
$DIMSHO
 70
     1
  9
$DIMPOST
  1
<>
  9
$DIMAPOST
  1
[]
  9
$DIMALT
 70
     0
  9
$DIMALTD
 70
     1
  9
$DIMALTF
 40
1.0
  9
$DIMLFAC
 40
1.0
  9
$DIMTOFL
 70
     0
  9
$DIMTVP
 40
0.0
  9
$DIMTIX
 70
     1
  9
$DIMSOXD
 70
     0
  9
$DIMSAH
 70
     0
  9
$DIMBLK1
  1

  9
$DIMBLK2
  1

  9
$DIMSTYLE
  2
tfrom線あり
  9
$DIMCLRD
 70
     0
  9
$DIMCLRE
 70
     0
  9
$DIMCLRT
 70
     0
  9
$DIMTFAC
 40
1.0
  9
$DIMGAP
 40
20.0
  9
$DIMJUST
 70
     0
  9
$DIMSD1
 70
     0
  9
$DIMSD2
 70
     0
  9
$DIMTOLJ
 70
     1
  9
$DIMTZIN
 70
    11
  9
$DIMALTZ
 70
    11
  9
$DIMALTTZ
 70
    11
  9
$DIMUPT
 70
     0
  9
$DIMDEC
 70
     0
  9
$DIMTDEC
 70
     1
  9
$DIMALTU
 70
     2
  9
$DIMALTTD
 70
     2
  9
$DIMTXSTY
  7
ＭＳ ゴシック
  9
$DIMAUNIT
 70
     0
  9
$DIMADEC
 70
     2
  9
$DIMALTRND
 40
0.0
  9
$DIMAZIN
 70
     0
  9
$DIMDSEP
 70
    46
  9
$DIMATFIT
 70
     0
  9
$DIMFRAC
 70
     2
  9
$DIMLDRBLK
  1
DOT
  9
$DIMLUNIT
 70
     2
  9
$DIMLWD
 70
    -2
  9
$DIMLWE
 70
    -2
  9
$DIMTMOVE
 70
     0
  9
$DIMFXL
 40
1.0
  9
$DIMFXLON
 70
     0
  9
$DIMJOGANG
 40
0.7853981633974483
  9
$DIMTFILL
 70
     0
  9
$DIMTFILLCLR
 70
     0
  9
$DIMARCSYM
 70
     0
  9
$DIMLTYPE
  6

  9
$DIMLTEX1
  6

  9
$DIMLTEX2
  6

  9
$LUNITS
 70
     2
  9
$LUPREC
 70
     0
  9
$SKETCHINC
 40
0.1
  9
$FILLETRAD
 40
18.0
  9
$AUNITS
 70
     0
  9
$AUPREC
 70
     0
  9
$MENU
  1
acad
  9
$ELEVATION
 40
0.0
  9
$PELEVATION
 40
0.0
  9
$THICKNESS
 40
0.0
  9
$LIMCHECK
 70
     0
  9
$CHAMFERA
 40
0.0
  9
$CHAMFERB
 40
0.0
  9
$CHAMFERC
 40
0.0
  9
$CHAMFERD
 40
0.0
  9
$SKPOLY
 70
     0
  9
$TDCREATE
 40
2447893.375
  9
$TDUCREATE
 40
0.0
  9
$TDUPDATE
 40
2458928.73090662
  9
$TDUUPDATE
 40
2458928.35590662
  9
$TDINDWG
 40
0.2291876273
  9
$TDUSRTIMER
 40
0.0019385069
  9
$USRTIMER
 70
     1
  9
$ANGBASE
 50
0.0
  9
$ANGDIR
 70
     0
  9
$PDMODE
 70
     1
  9
$PDSIZE
 40
-2.0
  9
$PLINEWID
 40
0.0
  9
$SPLFRAME
 70
     0
  9
$SPLINETYPE
 70
     6
  9
$SPLINESEGS
 70
     8
  9
$HANDSEED
  5
7F3D
  9
$SURFTAB1
 70
     6
  9
$SURFTAB2
 70
     6
  9
$SURFTYPE
 70
     6
  9
$SURFU
 70
     6
  9
$SURFV
 70
     6
  9
$UCSBASE
  2

  9
$UCSNAME
  2

  9
$UCSORG
 10
0.0
 20
0.0
 30
0.0
  9
$UCSXDIR
 10
1.0
 20
0.0
 30
0.0
  9
$UCSYDIR
 10
0.0
 20
1.0
 30
0.0
  9
$UCSORTHOREF
  2

  9
$UCSORTHOVIEW
 70
     0
  9
$UCSORGTOP
 10
0.0
 20
0.0
 30
0.0
  9
$UCSORGBOTTOM
 10
0.0
 20
0.0
 30
0.0
  9
$UCSORGLEFT
 10
0.0
 20
0.0
 30
0.0
  9
$UCSORGRIGHT
 10
0.0
 20
0.0
 30
0.0
  9
$UCSORGFRONT
 10
0.0
 20
0.0
 30
0.0
  9
$UCSORGBACK
 10
0.0
 20
0.0
 30
0.0
  9
$PUCSBASE
  2

  9
$PUCSNAME
  2

  9
$PUCSORG
 10
0.0
 20
0.0
 30
0.0
  9
$PUCSXDIR
 10
1.0
 20
0.0
 30
0.0
  9
$PUCSYDIR
 10
0.0
 20
1.0
 30
0.0
  9
$PUCSORTHOREF
  2

  9
$PUCSORTHOVIEW
 70
     0
  9
$PUCSORGTOP
 10
0.0
 20
0.0
 30
0.0
  9
$PUCSORGBOTTOM
 10
0.0
 20
0.0
 30
0.0
  9
$PUCSORGLEFT
 10
0.0
 20
0.0
 30
0.0
  9
$PUCSORGRIGHT
 10
0.0
 20
0.0
 30
0.0
  9
$PUCSORGFRONT
 10
0.0
 20
0.0
 30
0.0
  9
$PUCSORGBACK
 10
0.0
 20
0.0
 30
0.0
  9
$USERI1
 70
     0
  9
$USERI2
 70
     0
  9
$USERI3
 70
     0
  9
$USERI4
 70
     0
  9
$USERI5
 70
     0
  9
$USERR1
 40
0.0
  9
$USERR2
 40
0.0
  9
$USERR3
 40
0.0
  9
$USERR4
 40
0.0
  9
$USERR5
 40
0.0
  9
$WORLDVIEW
 70
     1
  9
$SHADEDGE
 70
     3
  9
$SHADEDIF
 70
    70
  9
$TILEMODE
 70
     1
  9
$MAXACTVP
 70
    64
  9
$PINSBASE
 10
0.0
 20
0.0
 30
0.0
  9
$PLIMCHECK
 70
     0
  9
$PEXTMIN
 10
0.0
 20
0.0
 30
0.0
  9
$PEXTMAX
 10
0.0
 20
0.0
 30
0.0
  9
$PLIMMIN
 10
-7.5
 20
-20.0
  9
$PLIMMAX
 10
412.5
 20
277.0
  9
$UNITMODE
 70
     0
  9
$VISRETAIN
 70
     0
  9
$PLINEGEN
 70
     1
  9
$PSLTSCALE
 70
     0
  9
$TREEDEPTH
 70
  3020
  9
$CMLSTYLE
  2
Standard
  9
$CMLJUST
 70
     0
  9
$CMLSCALE
 40
1.0
  9
$PROXYGRAPHICS
 70
     0
  9
$MEASUREMENT
 70
     1
  9
$CELWEIGHT
370
    -1
  9
$ENDCAPS
280
     0
  9
$JOINSTYLE
280
     0
  9
$LWDISPLAY
290
     1
  9
$INSUNITS
 70
     4
  9
$HYPERLINKBASE
  1

  9
$STYLESHEET
  1

  9
$XEDIT
290
     1
  9
$CEPSNTYPE
380
     0
  9
$PSTYLEMODE
290
     1
  9
$FINGERPRINTGUID
  2

  9
$VERSIONGUID
  2

  9
$EXTNAMES
290
     1
  9
$PSVPSCALE
 40
0.0
  9
$OLESTARTUP
290
     0
  9
$SORTENTS
280
   127
  9
$INDEXCTL
280
     0
  9
$HIDETEXT
280
     1
  9
$XCLIPFRAME
290
     0
  9
$HALOGAP
280
     0
  9
$OBSCOLOR
 70
   257
  9
$OBSLTYPE
280
     0
  9
$INTERSECTIONDISPLAY
280
     0
  9
$INTERSECTIONCOLOR
 70
   257
  9
$DIMASSOC
280
     2
  9
$PROJECTNAME
  1

  9
$CAMERADISPLAY
290
     0
  9
$LENSLENGTH
 40
50.0
  9
$CAMERAHEIGHT
 40
0.0
  9
$STEPSPERSEC
 40
2.0
  9
$STEPSIZE
 40
6.0
  9
$3DDWFPREC
 40
2.0
  9
$PSOLWIDTH
 40
0.25
  9
$PSOLHEIGHT
 40
4.0
  9
$LOFTANG1
 40
1.570796326794897
  9
$LOFTANG2
 40
1.570796326794897
  9
$LOFTMAG1
 40
0.0
  9
$LOFTMAG2
 40
0.0
  9
$LOFTPARAM
 70
     7
  9
$LOFTNORMALS
280
     1
  9
$LATITUDE
 40
37.795
  9
$LONGITUDE
 40
-122.394
  9
$NORTHDIRECTION
 40
0.0
  9
$TIMEZONE
 70
 -8000
  9
$LIGHTGLYPHDISPLAY
280
     1
  9
$TILEMODELIGHTSYNCH
280
     1
  9
$SOLIDHIST
280
     1
  9
$SHOWHIST
280
     1
  9
$DWFFRAME
280
     2
  9
$DGNFRAME
280
     2
  9
$REALWORLDSCALE
290
     1
  9
$INTERFERECOLOR
 62
   256
  9
$CSHADOW
280
     0
  9
$SHADOWPLANELOCATION
 40
0.0
  0
ENDSEC
  0
SECTION
  2
CLASSES
  0
CLASS
  1
LWPOLYLINE
  2
AcDbPolyline
  3
ObjectDBX Classes
 90
        0
 91
        1
280
     0
281
     1
  0
CLASS
  1
IMAGE
  2
AcDbRasterImage
  3
ISM
 90
      127
 91
        5
280
     0
281
     1
  0
CLASS
  1
OLE2FRAME
  2
AcDbOle2Frame
  3
ObjectDBX Classes
 90
        0
 91
        1
280
     0
281
     1
  0
CLASS
  1
HATCH
  2
AcDbHatch
  3
ObjectDBX Classes
 90
        0
 91
        1
280
     0
281
     1
  0
CLASS
  1
DICTIONARYVAR
  2
AcDbDictionaryVar
  3
ObjectDBX Classes
 90
        0
 91
        4
280
     0
281
     0
  0
CLASS
  1
RASTERVARIABLES
  2
AcDbRasterVariables
  3
ISM
 90
        0
 91
        4
280
     0
281
     0
  0
CLASS
  1
IMAGEDEF
  2
AcDbRasterImageDef
  3
ISM
 90
        0
 91
        4
280
     0
281
     0
  0
CLASS
  1
IMAGEDEF_REACTOR
  2
AcDbRasterImageDefReactor
  3
ISM
 90
        1
 91
        4
280
     0
281
     0
  0
CLASS
  1
IDBUFFER
  2
AcDbIdBuffer
  3
ObjectDBX Classes
 90
        0
 91
        4
280
     0
281
     0
  0
CLASS
  1
SPATIAL_FILTER
  2
AcDbSpatialFilter
  3
ObjectDBX Classes
 90
        0
 91
        4
280
     0
281
     0
  0
CLASS
  1
XRECORD
  2
AcDbXrecord
  3
ObjectDBX Classes
 90
        0
 91
        1
280
     0
281
     0
  0
CLASS
  1
SORTENTSTABLE
  2
AcDbSortentsTable
  3
ObjectDBX Classes
 90
        0
 91
        4
280
     0
281
     0
  0
CLASS
  1
LAYER_INDEX
  2
AcDbLayerIndex
  3
ObjectDBX Classes
 90
        0
 91
        4
280
     0
281
     0
  0
CLASS
  1
SPATIAL_INDEX
  2
AcDbSpatialIndex
  3
AutoCAD 2000
 90
        0
 91
        4
280
     0
281
     0
  0
CLASS
  1
OBJECT_PTR
  2
CAseDLPNTableRecord
  3
ASE-LPNTableRecord
 90
        1
 91
        4
280
     0
281
     0
  0
CLASS
  1
LAYOUT
  2
AcDbLayout
  3
ObjectDBX Classes
 90
        0
 91
        1
280
     0
281
     0
  0
CLASS
  1
PLOTSETTINGS
  2
AcDbPlotSettings
  3
ObjectDBX Classes
 90
        0
 91
        4
280
     0
281
     0
  0
CLASS
  1
ACDBDICTIONARYWDFLT
  2
AcDbDictionaryWithDefault
  3
ObjectDBX Classes
 90
        0
 91
        4
280
     0
281
     0
  0
CLASS
  1
ACDBPLACEHOLDER
  2
AcDbPlaceHolder
  3
ObjectDBX Classes
 90
        0
 91
        1
280
     0
281
     0
  0
CLASS
  1
SCALE
  2
AcDbScale
  3
ObjectDBX Classes
 90
     1153
 91
        4
280
     0
281
     0
  0
CLASS
  1
MATERIAL
  2
AcDbMaterial
  3
ObjectDBX Classes
 90
     1153
 91
        4
280
     0
281
     0
  0
CLASS
  1
VISUALSTYLE
  2
AcDbVisualStyle
  3
ObjectDBX Classes
 90
     4095
 91
        4
280
     0
281
     0
  0
CLASS
  1
TABLESTYLE
  2
AcDbTableStyle
  3
ObjectDBX Classes
 90
     4095
 91
        4
280
     0
281
     0
  0
CLASS
  1
DIMASSOC
  2
AcDbDimAssoc
  3
"AcDbDimAssoc|Product Desc:     AcDim ARX App For Dimension|Company:          Autodesk, Inc.|WEB Address:      www.autodesk.com"
 90
        0
 91
        4
280
     0
281
     0
  0
CLASS
  1
CELLSTYLEMAP
  2
AcDbCellStyleMap
  3
ObjectDBX Classes
 90
     1152
 91
        4
280
     0
281
     0
  0
CLASS
  1
SUN
  2
AcDbSun
  3
SCENEOE
 90
     1153
 91
        4
280
     0
281
     0
  0
CLASS
  1
MLEADERSTYLE
  2
AcDbMLeaderStyle
  3
ACDB_MLEADERSTYLE_CLASS
 90
     4095
 91
        4
280
     0
281
     0
  0
CLASS
  1
FIELD
  2
AcDbField
  3
ObjectDBX Classes
 90
     1152
 91
        4
280
     0
281
     0
  0
CLASS
  1
FIELDLIST
  2
AcDbFieldList
  3
ObjectDBX Classes
 90
     1152
 91
        4
280
     0
281
     0
  0
CLASS
  1
MULTILEADER
  2
AcDbMLeader
  3
ACDB_MLEADER_CLASS
 90
     1025
 91
        4
280
     0
281
     1
  0
ENDSEC
  0
SECTION
  2
TABLES
  0
TABLE
  2
VPORT
  5
7
330
0
100
AcDbSymbolTable
 70
     1
  0
VPORT
  5
15
330
7
100
AcDbSymbolTableRecord
100
AcDbViewportTableRecord
  2
*ACTIVE
 70
     0
 10
0.0
 20
0.0
 11
1.0
 21
1.0
 12
1141.020135670907
 22
1411.401285469834
 13
0.0
 23
0.0
 14
1.0
 24
1.0
 15
0.0
 25
0.0
 16
0.0
 26
0.0
 36
1.0
 17
-91.02013567090717
 27
73.59871453016603
 37
-46.86809886248109
 40
3029.4
 41
2.357037037037037
 42
50.0
 43
0.0
 44
0.0
 50
0.0
 51
0.0
 71
    16
 72
  2000
 73
     1
 74
     1
 75
     0
 76
     0
 77
     0
 78
     0
281
     0
 65
     1
110
0.0
120
0.0
130
0.0
111
1.0
121
0.0
131
0.0
112
0.0
122
1.0
132
0.0
 79
     0
146
0.0
348
26C
 60
     3
 61
     5
292
     1
282
     1
141
0.0
142
0.0
 63
   256
361
904
  0
ENDTAB
  0
TABLE
  2
LTYPE
  5
4
330
0
100
AcDbSymbolTable
 70
     3
  0
LTYPE
  5
11
330
4
100
AcDbSymbolTableRecord
100
AcDbLinetypeTableRecord
  2
ByBlock
 70
     0
  3

 72
    65
 73
     0
 40
0.0
  0
LTYPE
  5
12
330
4
100
AcDbSymbolTableRecord
100
AcDbLinetypeTableRecord
  2
ByLayer
 70
     0
  3

 72
    65
 73
     0
 40
0.0
  0
LTYPE
  5
13
330
4
100
AcDbSymbolTableRecord
100
AcDbLinetypeTableRecord
  2
Continuous
 70
     0
  3
Solid line
 72
    65
 73
     0
 40
0.0
  0
LTYPE
  5
DAF
330
4
100
AcDbSymbolTableRecord
100
AcDbLinetypeTableRecord
  2
BORDER
 70
     0
  3
Border __  __  . __  __  . __  __  . __  __  . 
 72
    65
 73
     6
 40
44.45
 49
12.7
 74
     0
 49
-6.35
 74
     0
 49
12.7
 74
     0
 49
-6.35
 74
     0
 49
0.0
 74
     0
 49
-6.35
 74
     0
  0
LTYPE
  5
33DD
330
4
100
AcDbSymbolTableRecord
100
AcDbLinetypeTableRecord
  2
HIDDEN
 70
     0
  3
Hidden _ _ _ _ _ _ _ _ _ _ _ _ _ _ _ _ _ _ _ _ 
 72
    65
 73
     2
 40
9.524999999999999
 49
6.35
 74
     0
 49
-3.175
 74
     0
  0
ENDTAB
  0
TABLE
  2
LAYER
  5
2
102
{ACAD_XDICTIONARY
360
2E1
102
}
330
0
100
AcDbSymbolTable
 70
    12
  0
LAYER
  5
14
330
2
100
AcDbSymbolTableRecord
100
AcDbLayerTableRecord
  2
0
 70
     0
 62
     7
  6
Continuous
370
    -3
390
1D
347
266
  0
LAYER
  5
4B
330
2
100
AcDbSymbolTableRecord
100
AcDbLayerTableRecord
  2
TEMPLATE
 70
     0
 62
     7
  6
Continuous
370
    20
390
1D
347
266
  0
LAYER
  5
4C
330
2
100
AcDbSymbolTableRecord
100
AcDbLayerTableRecord
  2
DIM
 70
     0
 62
     7
  6
Continuous
370
    13
390
1D
347
266
  0
LAYER
  5
4D
330
2
100
AcDbSymbolTableRecord
100
AcDbLayerTableRecord
  2
MODEL
 70
     0
 62
     7
  6
Continuous
370
    20
390
1D
347
266
  0
LAYER
  5
667
330
2
100
AcDbSymbolTableRecord
100
AcDbLayerTableRecord
  2
LOGO
 70
     0
 62
     7
  6
Continuous
370
    -3
390
1D
347
266
  0
LAYER
  5
D5D
330
2
100
AcDbSymbolTableRecord
100
AcDbLayerTableRecord
  2
Defpoints
 70
     0
 62
     7
  6
Continuous
290
     0
370
    -3
390
1D
347
266
  0
LAYER
  5
DAE
330
2
100
AcDbSymbolTableRecord
100
AcDbLayerTableRecord
  2
BORDER
 70
     0
 62
     4
  6
BORDER
290
     0
370
    20
390
1D
347
266
1001
AcAecLayerStandard
1000

1000

  0
LAYER
  5
157B
330
2
100
AcDbSymbolTableRecord
100
AcDbLayerTableRecord
  2
Layer3
 70
     0
 62
     7
  6
Continuous
370
    -3
390
1D
347
266
  0
LAYER
  5
157F
330
2
100
AcDbSymbolTableRecord
100
AcDbLayerTableRecord
  2
Layer9
 70
     0
 62
     7
  6
Continuous
370
    -3
390
1D
347
266
  0
LAYER
  5
1582
330
2
100
AcDbSymbolTableRecord
100
AcDbLayerTableRecord
  2
Standard
 70
     0
 62
     7
  6
Continuous
370
    -3
390
1D
347
266
  0
LAYER
  5
33DC
330
2
100
AcDbSymbolTableRecord
100
AcDbLayerTableRecord
  2
HIDDEN
 70
     0
 62
     8
  6
HIDDEN
370
    20
390
1D
347
266
1001
AcAecLayerStandard
1000

1000

  0
LAYER
  5
3A1B
330
2
100
AcDbSymbolTableRecord
100
AcDbLayerTableRecord
  2
notes
 70
     0
 62
     7
  6
Continuous
370
    -3
390
1D
347
266
  0
ENDTAB
  0
TABLE
  2
STYLE
  5
3
330
0
100
AcDbSymbolTable
 70
     2
  0
STYLE
  5
17
330
3
100
AcDbSymbolTableRecord
100
AcDbTextStyleTableRecord
  2
Standard
 70
     0
 40
0.0
 41
1.0
 50
0.0
 71
     0
 42
2.5
  3
txt
  4
BIGFONT.SHX
  0
STYLE
  5
39
330
3
100
AcDbSymbolTableRecord
100
AcDbTextStyleTableRecord
  2
ＭＳ ゴシック
 70
     0
 40
0.0
 41
1.0
 50
0.0
 71
     0
 42
2.5
  3
msgothic.ttc
  4
ＭＳ ゴシック
1001
ACAD
1000
ＭＳ ゴシック
1071
        0
  0
ENDTAB
  0
TABLE
  2
VIEW
  5
5
330
0
100
AcDbSymbolTable
 70
     0
  0
ENDTAB
  0
TABLE
  2
UCS
  5
6
330
0
100
AcDbSymbolTable
 70
     0
  0
ENDTAB
  0
TABLE
  2
APPID
  5
8
330
0
100
AcDbSymbolTable
 70
     7
  0
APPID
  5
16
330
8
100
AcDbSymbolTableRecord
100
AcDbRegAppTableRecord
  2
ACAD
 70
     0
  0
APPID
  5
7AC
330
8
100
AcDbSymbolTableRecord
100
AcDbRegAppTableRecord
  2
AcAecLayerStandard
 70
     0
  0
APPID
  5
F3A
330
8
100
AcDbSymbolTableRecord
100
AcDbRegAppTableRecord
  2
ACAD_MLEADERVER
 70
     0
  0
APPID
  5
3662
330
8
100
AcDbSymbolTableRecord
100
AcDbRegAppTableRecord
  2
GENIUS_GENODEF_13
 70
     0
  0
APPID
  5
3663
330
8
100
AcDbSymbolTableRecord
100
AcDbRegAppTableRecord
  2
GENIUS_GENOBJ-N-FIL_13
 70
     0
  0
APPID
  5
3664
330
8
100
AcDbSymbolTableRecord
100
AcDbRegAppTableRecord
  2
ACAD_PSEXT
 70
     0
  0
APPID
  5
71EB
330
8
100
AcDbSymbolTableRecord
100
AcDbRegAppTableRecord
  2
ACAD_DSTYLE_DIMRADIAL_EXTENSION
 70
     0
  0
ENDTAB
  0
TABLE
  2
DIMSTYLE
  5
9
330
0
100
AcDbSymbolTable
 70
     3
100
AcDbDimStyleTable
  0
DIMSTYLE
105
18
330
9
100
AcDbSymbolTableRecord
100
AcDbDimStyleTableRecord
  2
Standard
 70
     0
178
     0
340
17
  0
DIMSTYLE
105
57
102
{ACAD_REACTORS
330
7A8E
330
7AAB
330
7ABA
330
7AC9
330
7AD6
330
7AE3
330
7B07
330
7B15
330
7B22
330
7BF6
330
7C05
330
7C51
330
7C6B
102
}
330
9
100
AcDbSymbolTableRecord
100
AcDbDimStyleTableRecord
  2
tfrom線あり
 70
     0
  3
<>
  4
[]
 41
10.0
 42
30.0
 43
0.9999999999999999
 44
0.0
 73
     0
 74
     0
 77
     1
 78
    11
140
24.0
141
0.0
143
1.0
147
20.0
171
     1
174
     1
178
     0
179
     2
271
     0
272
     1
276
     2
284
    11
285
    11
286
    11
289
     0
340
39
341
4E
342
4E
  0
DIMSTYLE
105
7C83
102
{ACAD_REACTORS
330
7DB8
102
}
330
9
100
AcDbSymbolTableRecord
100
AcDbDimStyleTableRecord
  2
JIS
 70
     0
  3
<>
  4
[]
 41
9.0
 42
0.0
 43
6.99999999999994
 44
19.9999999999962
 73
     0
 74
     0
 77
     1
 78
    11
140
24.4326171875
141
0.0
143
1.0
147
10.0
171
     1
174
     1
178
     0
179
     2
271
     1
272
     1
276
     2
284
    11
285
    11
286
    11
289
     0
340
39
341
4E
342
4E
  0
ENDTAB
  0
TABLE
  2
BLOCK_RECORD
  5
1
330
0
100
AcDbSymbolTable
 70
    52
  0
BLOCK_RECORD
  5
A
102
{ACAD_XDICTIONARY
360
3BA6
102
}
330
1
100
AcDbSymbolTableRecord
100
AcDbBlockTableRecord
  2
*MODEL_SPACE
340
20
 70
     0
280
     1
281
     0
  0
BLOCK_RECORD
  5
B
330
1
100
AcDbSymbolTableRecord
100
AcDbBlockTableRecord
  2
*PAPER_SPACE
340
21
 70
     0
280
     1
281
     0
  0
BLOCK_RECORD
  5
4E
330
1
100
AcDbSymbolTableRecord
100
AcDbBlockTableRecord
  2
_DOT
340
0
102
{BLKREFS
331
75D4
331
75D5
331
75E3
331
75E4
331
7611
331
7612
331
761F
331
7620
331
762F
331
7630
331
763E
331
763F
331
765A
331
765B
331
7669
331
766A
331
7678
331
7679
331
7687
331
7688
331
7696
331
7697
331
7752
331
7753
331
7799
331
779A
331
77B6
331
77B7
331
77D6
331
77D7
331
7840
331
7841
331
784F
331
7850
331
78A6
331
78A7
331
7A79
331
7A7A
331
7A88
331
7A89
331
7A95
331
7A96
331
7AA5
331
7AA6
331
7AB4
331
7AB5
331
7AC3
331
7AC4
331
7AD0
331
7AD1
331
7ADD
331
7ADE
331
7AEE
331
7AEF
331
7B00
331
7B01
331
7B0E
331
7B0F
331
7B1C
331
7B1D
331
7B29
331
7B2A
331
7B84
331
7B85
331
7B93
331
7B94
331
7BFF
331
7C00
331
7C0E
331
7C0F
331
7C1C
331
7C1D
331
7C5C
331
7C5D
331
7C74
331
7C75
331
7D15
331
7D16
331
7D29
331
7D2A
331
7DDB
331
7DDC
331
7DE7
331
7DE8
331
7E89
331
7E8A
331
7EA2
331
7EA3
102
}
 70
     0
280
     1
281
     0
  0
BLOCK_RECORD
  5
68A
330
1
100
AcDbSymbolTableRecord
100
AcDbBlockTableRecord
  2
名称未設定-1
340
0
102
{BLKREFS
331
6B5
102
}
 70
     1
280
     1
281
     0
  0
BLOCK_RECORD
  5
68D
330
1
100
AcDbSymbolTableRecord
100
AcDbBlockTableRecord
  2
block 2
340
0
102
{BLKREFS
331
68C
102
}
 70
     0
280
     1
281
     0
  0
BLOCK_RECORD
  5
690
330
1
100
AcDbSymbolTableRecord
100
AcDbBlockTableRecord
  2
block 3
340
0
102
{BLKREFS
331
68F
102
}
 70
     0
280
     1
281
     0
  0
BLOCK_RECORD
  5
693
330
1
100
AcDbSymbolTableRecord
100
AcDbBlockTableRecord
  2
block 4
340
0
102
{BLKREFS
331
692
102
}
 70
     0
280
     1
281
     0
  0
BLOCK_RECORD
  5
6A2
330
1
100
AcDbSymbolTableRecord
100
AcDbBlockTableRecord
  2
block 5
340
0
102
{BLKREFS
331
6A1
102
}
 70
     0
280
     1
281
     0
  0
BLOCK_RECORD
  5
199A
330
1
100
AcDbSymbolTableRecord
100
AcDbBlockTableRecord
  2
SEANNOT_GROUP
340
0
102
{BLKREFS
331
28CA
102
}
 70
     0
280
     1
281
     0
  0
BLOCK_RECORD
  5
1F2F
330
1
100
AcDbSymbolTableRecord
100
AcDbBlockTableRecord
  2
SEANNOT_GROUP1
340
0
102
{BLKREFS
331
2B9B
102
}
 70
     0
280
     1
281
     0
  0
BLOCK_RECORD
  5
75CE
330
1
100
AcDbSymbolTableRecord
100
AcDbBlockTableRecord
  2
*D8
340
0
 70
     0
280
     1
281
     0
  0
BLOCK_RECORD
  5
75DD
330
1
100
AcDbSymbolTableRecord
100
AcDbBlockTableRecord
  2
*D9
340
0
 70
     0
280
     1
281
     0
  0
BLOCK_RECORD
  5
760B
330
1
100
AcDbSymbolTableRecord
100
AcDbBlockTableRecord
  2
*D10
340
0
 70
     0
280
     1
281
     0
  0
BLOCK_RECORD
  5
7619
330
1
100
AcDbSymbolTableRecord
100
AcDbBlockTableRecord
  2
*D11
340
0
 70
     0
280
     1
281
     0
  0
BLOCK_RECORD
  5
7629
330
1
100
AcDbSymbolTableRecord
100
AcDbBlockTableRecord
  2
*D12
340
0
 70
     0
280
     1
281
     0
  0
BLOCK_RECORD
  5
7638
330
1
100
AcDbSymbolTableRecord
100
AcDbBlockTableRecord
  2
*D13
340
0
 70
     0
280
     1
281
     0
  0
BLOCK_RECORD
  5
7654
330
1
100
AcDbSymbolTableRecord
100
AcDbBlockTableRecord
  2
*D14
340
0
 70
     0
280
     1
281
     0
  0
BLOCK_RECORD
  5
7663
330
1
100
AcDbSymbolTableRecord
100
AcDbBlockTableRecord
  2
*D15
340
0
 70
     0
280
     1
281
     0
  0
BLOCK_RECORD
  5
7672
330
1
100
AcDbSymbolTableRecord
100
AcDbBlockTableRecord
  2
*D16
340
0
 70
     0
280
     1
281
     0
  0
BLOCK_RECORD
  5
7681
330
1
100
AcDbSymbolTableRecord
100
AcDbBlockTableRecord
  2
*D17
340
0
 70
     0
280
     1
281
     0
  0
BLOCK_RECORD
  5
7690
330
1
100
AcDbSymbolTableRecord
100
AcDbBlockTableRecord
  2
*D18
340
0
 70
     0
280
     1
281
     0
  0
BLOCK_RECORD
  5
774A
330
1
100
AcDbSymbolTableRecord
100
AcDbBlockTableRecord
  2
*D19
340
0
 70
     0
280
     1
281
     0
  0
BLOCK_RECORD
  5
7793
330
1
100
AcDbSymbolTableRecord
100
AcDbBlockTableRecord
  2
*D20
340
0
 70
     0
280
     1
281
     0
  0
BLOCK_RECORD
  5
77B0
330
1
100
AcDbSymbolTableRecord
100
AcDbBlockTableRecord
  2
*D21
340
0
 70
     0
280
     1
281
     0
  0
BLOCK_RECORD
  5
77D0
330
1
100
AcDbSymbolTableRecord
100
AcDbBlockTableRecord
  2
*D22
340
0
 70
     0
280
     1
281
     0
  0
BLOCK_RECORD
  5
783A
330
1
100
AcDbSymbolTableRecord
100
AcDbBlockTableRecord
  2
*D23
340
0
 70
     0
280
     1
281
     0
  0
BLOCK_RECORD
  5
7849
330
1
100
AcDbSymbolTableRecord
100
AcDbBlockTableRecord
  2
*D24
340
0
 70
     0
280
     1
281
     0
  0
BLOCK_RECORD
  5
789E
330
1
100
AcDbSymbolTableRecord
100
AcDbBlockTableRecord
  2
*D25
340
0
 70
     0
280
     1
281
     0
  0
BLOCK_RECORD
  5
7A73
330
1
100
AcDbSymbolTableRecord
100
AcDbBlockTableRecord
  2
*D26
340
0
 70
     0
280
     1
281
     0
  0
BLOCK_RECORD
  5
7A82
330
1
100
AcDbSymbolTableRecord
100
AcDbBlockTableRecord
  2
*D27
340
0
 70
     0
280
     1
281
     0
  0
BLOCK_RECORD
  5
7A8F
330
1
100
AcDbSymbolTableRecord
100
AcDbBlockTableRecord
  2
*D28
340
0
 70
     0
280
     1
281
     0
  0
BLOCK_RECORD
  5
7A9F
330
1
100
AcDbSymbolTableRecord
100
AcDbBlockTableRecord
  2
*D29
340
0
 70
     0
280
     1
281
     0
  0
BLOCK_RECORD
  5
7AAE
330
1
100
AcDbSymbolTableRecord
100
AcDbBlockTableRecord
  2
*D30
340
0
 70
     0
280
     1
281
     0
  0
BLOCK_RECORD
  5
7ABD
330
1
100
AcDbSymbolTableRecord
100
AcDbBlockTableRecord
  2
*D31
340
0
 70
     0
280
     1
281
     0
  0
BLOCK_RECORD
  5
7ACA
330
1
100
AcDbSymbolTableRecord
100
AcDbBlockTableRecord
  2
*D32
340
0
 70
     0
280
     1
281
     0
  0
BLOCK_RECORD
  5
7AD7
330
1
100
AcDbSymbolTableRecord
100
AcDbBlockTableRecord
  2
*D33
340
0
 70
     0
280
     1
281
     0
  0
BLOCK_RECORD
  5
7AE6
330
1
100
AcDbSymbolTableRecord
100
AcDbBlockTableRecord
  2
*D34
340
0
 70
     0
280
     1
281
     0
  0
BLOCK_RECORD
  5
7AFA
330
1
100
AcDbSymbolTableRecord
100
AcDbBlockTableRecord
  2
*D35
340
0
 70
     0
280
     1
281
     0
  0
BLOCK_RECORD
  5
7B08
330
1
100
AcDbSymbolTableRecord
100
AcDbBlockTableRecord
  2
*D36
340
0
 70
     0
280
     1
281
     0
  0
BLOCK_RECORD
  5
7B16
330
1
100
AcDbSymbolTableRecord
100
AcDbBlockTableRecord
  2
*D37
340
0
 70
     0
280
     1
281
     0
  0
BLOCK_RECORD
  5
7B23
330
1
100
AcDbSymbolTableRecord
100
AcDbBlockTableRecord
  2
*D38
340
0
 70
     0
280
     1
281
     0
  0
BLOCK_RECORD
  5
7B7E
330
1
100
AcDbSymbolTableRecord
100
AcDbBlockTableRecord
  2
*D39
340
0
 70
     0
280
     1
281
     0
  0
BLOCK_RECORD
  5
7B8D
330
1
100
AcDbSymbolTableRecord
100
AcDbBlockTableRecord
  2
*D40
340
0
 70
     0
280
     1
281
     0
  0
BLOCK_RECORD
  5
7BF9
330
1
100
AcDbSymbolTableRecord
100
AcDbBlockTableRecord
  2
*D41
340
0
 70
     0
280
     1
281
     0
  0
BLOCK_RECORD
  5
7C08
330
1
100
AcDbSymbolTableRecord
100
AcDbBlockTableRecord
  2
*D42
340
0
 70
     0
280
     1
281
     0
  0
BLOCK_RECORD
  5
7C16
330
1
100
AcDbSymbolTableRecord
100
AcDbBlockTableRecord
  2
*D43
340
0
 70
     0
280
     1
281
     0
  0
BLOCK_RECORD
  5
7C54
330
1
100
AcDbSymbolTableRecord
100
AcDbBlockTableRecord
  2
*D44
340
0
 70
     0
280
     1
281
     0
  0
BLOCK_RECORD
  5
7C6E
330
1
100
AcDbSymbolTableRecord
100
AcDbBlockTableRecord
  2
*D45
340
0
 70
     0
280
     1
281
     0
  0
BLOCK_RECORD
  5
7D10
330
1
100
AcDbSymbolTableRecord
100
AcDbBlockTableRecord
  2
*D46
340
0
 70
     0
280
     1
281
     0
  0
BLOCK_RECORD
  5
7D24
330
1
100
AcDbSymbolTableRecord
100
AcDbBlockTableRecord
  2
*D47
340
0
 70
     0
280
     1
281
     0
  0
BLOCK_RECORD
  5
7DD5
330
1
100
AcDbSymbolTableRecord
100
AcDbBlockTableRecord
  2
*D48
340
0
 70
     0
280
     1
281
     0
  0
BLOCK_RECORD
  5
7DE1
330
1
100
AcDbSymbolTableRecord
100
AcDbBlockTableRecord
  2
*D49
340
0
 70
     0
280
     1
281
     0
  0
BLOCK_RECORD
  5
7E84
330
1
100
AcDbSymbolTableRecord
100
AcDbBlockTableRecord
  2
*D50
340
0
 70
     0
280
     1
281
     0
  0
BLOCK_RECORD
  5
7E9C
330
1
100
AcDbSymbolTableRecord
100
AcDbBlockTableRecord
  2
*D51
340
0
 70
     0
280
     1
281
     0
  0
ENDTAB
  0
ENDSEC
  0
SECTION
  2
BLOCKS
  0
BLOCK
  5
D
330
A
100
AcDbEntity
  8
0
390
1D
100
AcDbBlockBegin
  2
*MODEL_SPACE
 70
     0
 10
0.0
 20
0.0
 30
0.0
  3
*MODEL_SPACE
  1
*MODEL_SPACE
  0
ENDBLK
  5
E
330
A
100
AcDbEntity
  8
0
390
1D
100
AcDbBlockEnd
  0
BLOCK
  5
F
330
B
100
AcDbEntity
 67
     1
  8
0
390
1D
100
AcDbBlockBegin
  2
*PAPER_SPACE
 70
     0
 10
0.0
 20
0.0
 30
0.0
  3
*PAPER_SPACE
  1
*PAPER_SPACE
  0
ENDBLK
  5
10
330
B
100
AcDbEntity
 67
     1
  8
0
390
1D
100
AcDbBlockEnd
  0
BLOCK
  5
EC4
330
4E
100
AcDbEntity
  8
0
390
1D
100
AcDbBlockBegin
  2
_DOT
 70
     0
 10
0.0
 20
0.0
 30
0.0
  3
_DOT
  1
_DOT
  0
POLYLINE
  5
EC6
330
4E
100
AcDbEntity
  8
0
  6
ByBlock
 62
     0
370
    -2
390
1D
100
AcDb2dPolyline
 66
     1
 10
0.0
 20
0.0
 30
0.0
 70
     1
 40
0.5
 41
0.5
  0
VERTEX
  5
EC7
330
EC6
100
AcDbEntity
  8
0
  6
ByBlock
 62
     0
370
    -2
390
1D
100
AcDbVertex
100
AcDb2dVertex
 10
-0.25
 20
0.0
 30
0.0
 42
1.0
  0
VERTEX
  5
EC8
330
EC6
100
AcDbEntity
  8
0
  6
ByBlock
 62
     0
370
    -2
390
1D
100
AcDbVertex
100
AcDb2dVertex
 10
0.25
 20
0.0
 30
0.0
 42
1.0
  0
SEQEND
  5
EC9
330
EC6
100
AcDbEntity
  8
0
390
1D
  0
LINE
  5
ECA
330
4E
100
AcDbEntity
  8
0
  6
ByBlock
 62
     0
370
    -2
390
1D
100
AcDbLine
 10
-0.5
 20
0.0
 30
0.0
 11
-1.0
 21
0.0
 31
0.0
  0
ENDBLK
  5
ECB
330
4E
100
AcDbEntity
  8
0
390
1D
100
AcDbBlockEnd
  0
BLOCK
  5
68B
330
68A
100
AcDbEntity
  8
0
100
AcDbBlockBegin
  2
名称未設定-1
 70
     0
 10
0.0
 20
0.0
 30
0.0
  3
名称未設定-1
  1
名称未設定-1
  0
INSERT
  5
68F
330
68A
100
AcDbEntity
  8
LOGO
100
AcDbBlockReference
  2
block 3
 10
0.0
 20
0.0
 30
0.0
  0
ENDBLK
  5
6B1
330
68A
100
AcDbEntity
  8
0
100
AcDbBlockEnd
  0
BLOCK
  5
68E
330
68D
100
AcDbEntity
  8
0
100
AcDbBlockBegin
  2
block 2
 70
     0
 10
0.0
 20
0.0
 30
0.0
  3
block 2
  1
block 2
  0
ENDBLK
  5
6B0
330
68D
100
AcDbEntity
  8
0
100
AcDbBlockEnd
  0
BLOCK
  5
691
330
690
100
AcDbEntity
  8
0
100
AcDbBlockBegin
  2
block 3
 70
     0
 10
0.0
 20
0.0
 30
0.0
  3
block 3
  1
block 3
  0
INSERT
  5
692
330
690
100
AcDbEntity
  8
LOGO
100
AcDbBlockReference
  2
block 4
 10
0.0
 20
0.0
 30
0.0
  0
INSERT
  5
6A1
330
690
100
AcDbEntity
  8
LOGO
100
AcDbBlockReference
  2
block 5
 10
0.0
 20
0.0
 30
0.0
  0
ENDBLK
  5
6AF
330
690
100
AcDbEntity
  8
0
100
AcDbBlockEnd
  0
BLOCK
  5
694
330
693
100
AcDbEntity
  8
0
100
AcDbBlockBegin
  2
block 4
 70
     0
 10
0.0
 20
0.0
 30
0.0
  3
block 4
  1
block 4
  0
POLYLINE
  5
695
330
693
100
AcDbEntity
  8
LOGO
370
     0
100
AcDb2dPolyline
 66
     1
 10
0.0
 20
0.0
 30
0.0
  0
VERTEX
  5
696
330
695
100
AcDbEntity
  8
LOGO
370
     0
100
AcDbVertex
100
AcDb2dVertex
 10
83.79545727667795
 20
167.6444858234922
 30
0.0
  0
VERTEX
  5
697
330
695
100
AcDbEntity
  8
LOGO
370
     0
100
AcDbVertex
100
AcDb2dVertex
 10
83.79545727667795
 20
159.7968976406313
 30
0.0
  0
VERTEX
  5
698
330
695
100
AcDbEntity
  8
LOGO
370
     0
100
AcDbVertex
100
AcDb2dVertex
 10
71.3631329975216
 20
159.7968976406313
 30
0.0
  0
VERTEX
  5
699
330
695
100
AcDbEntity
  8
LOGO
370
     0
100
AcDbVertex
100
AcDb2dVertex
 10
71.3631329975216
 20
127.8027915271048
 30
0.0
  0
VERTEX
  5
69A
330
695
100
AcDbEntity
  8
LOGO
370
     0
100
AcDbVertex
100
AcDb2dVertex
 10
60.43011526263018
 20
127.8027915271048
 30
0.0
  0
VERTEX
  5
69B
330
695
100
AcDbEntity
  8
LOGO
370
     0
100
AcDbVertex
100
AcDb2dVertex
 10
60.43011526263018
 20
159.7968976406313
 30
0.0
  0
VERTEX
  5
69C
330
695
100
AcDbEntity
  8
LOGO
370
     0
100
AcDbVertex
100
AcDb2dVertex
 10
48.21793273020759
 20
159.7968976406313
 30
0.0
  0
VERTEX
  5
69D
330
695
100
AcDbEntity
  8
LOGO
370
     0
100
AcDbVertex
100
AcDb2dVertex
 10
48.21793273020759
 20
167.6444858234922
 30
0.0
  0
VERTEX
  5
69E
330
695
100
AcDbEntity
  8
LOGO
370
     0
100
AcDbVertex
100
AcDb2dVertex
 10
83.79545727667795
 20
167.6444858234922
 30
0.0
  0
SEQEND
  5
69F
330
695
100
AcDbEntity
  8
LOGO
370
     0
  0
HATCH
  5
6A0
330
693
100
AcDbEntity
  8
LOGO
 62
   250
420
  2234388
100
AcDbHatch
 10
0.0
 20
0.0
 30
0.0
210
0.0
220
0.0
230
1.0
  2
SOLID
 70
     1
 71
     0
 91
        1
 92
        1
 93
        8
 72
     1
 10
83.79545727667795
 20
167.6444858234922
 11
83.79545727667795
 21
159.7968976406313
 72
     1
 10
83.79545727667795
 20
159.7968976406313
 11
71.3631329975216
 21
159.7968976406313
 72
     1
 10
71.3631329975216
 20
159.7968976406313
 11
71.3631329975216
 21
127.8027915271048
 72
     1
 10
71.3631329975216
 20
127.8027915271048
 11
60.43011526263018
 21
127.8027915271048
 72
     1
 10
60.43011526263018
 20
127.8027915271048
 11
60.43011526263018
 21
159.7968976406313
 72
     1
 10
60.43011526263018
 20
159.7968976406313
 11
48.21793273020759
 21
159.7968976406313
 72
     1
 10
48.21793273020759
 20
159.7968976406313
 11
48.21793273020759
 21
167.6444858234922
 72
     1
 10
48.21793273020759
 20
167.6444858234922
 11
83.79545727667795
 21
167.6444858234922
 97
        0
 75
     2
 76
     1
 98
        0
  0
ENDBLK
  5
6AE
330
693
100
AcDbEntity
  8
0
100
AcDbBlockEnd
  0
BLOCK
  5
6A3
330
6A2
100
AcDbEntity
  8
0
100
AcDbBlockBegin
  2
block 5
 70
     0
 10
0.0
 20
0.0
 30
0.0
  3
block 5
  1
block 5
  0
SPLINE
  5
6A4
330
6A2
100
AcDbEntity
  8
LOGO
370
     0
100
AcDbSpline
210
0.0
220
0.0
230
1.0
 70
    11
 71
     3
 72
    56
 73
    52
 74
     0
 42
0.000000001
 43
0.0000000001
 40
0.0
 40
0.0
 40
0.0
 40
0.0
 40
1.0
 40
1.0
 40
1.0
 40
2.0
 40
2.0
 40
2.0
 40
3.0
 40
3.0
 40
3.0
 40
4.0
 40
4.0
 40
4.0
 40
5.0
 40
5.0
 40
5.0
 40
6.0
 40
6.0
 40
6.0
 40
7.0
 40
7.0
 40
7.0
 40
8.0
 40
8.0
 40
8.0
 40
9.0
 40
9.0
 40
9.0
 40
10.0
 40
10.0
 40
10.0
 40
11.0
 40
11.0
 40
11.0
 40
12.0
 40
12.0
 40
12.0
 40
13.0
 40
13.0
 40
13.0
 40
14.0
 40
14.0
 40
14.0
 40
15.0
 40
15.0
 40
15.0
 40
16.0
 40
16.0
 40
16.0
 40
17.0
 40
17.0
 40
17.0
 40
17.0
 10
100.4504378777679
 20
166.69157178364
 30
0.0
 10
101.9848844191641
 20
167.1313385124438
 30
0.0
 10
103.9637485713373
 20
166.7649523658846
 30
0.0
 10
103.9637485713373
 20
166.7649523658846
 30
0.0
 10
103.9637485713373
 20
166.7649523658846
 30
0.0
 10
103.0132460999156
 20
163.911205638077
 30
0.0
 10
103.0132460999156
 20
163.911205638077
 30
0.0
 10
103.0132460999156
 20
163.911205638077
 30
0.0
 10
101.0674548862189
 20
164.3601018759394
 30
0.0
 10
99.57090442016032
 20
163.1805004036133
 30
0.0
 10
98.40508333886608
 20
162.258247733807
 30
0.0
 10
97.65301849830304
 20
159.804132345923
 30
0.0
 10
97.3598406791005
 20
158.8699940888517
 30
0.0
 10
97.3598406791005
 20
158.8699940888517
 30
0.0
 10
96.07137411762282
 20
154.9119212747295
 30
0.0
 10
96.07137411762282
 20
154.9119212747295
 30
0.0
 10
96.07137411762282
 20
154.9119212747295
 30
0.0
 10
100.3012651448482
 20
154.9119212747295
 30
0.0
 10
100.3012651448482
 20
154.9119212747295
 30
0.0
 10
100.3012651448482
 20
154.9119212747295
 30
0.0
 10
99.64152892419852
 20
152.4199098115079
 30
0.0
 10
99.64152892419852
 20
152.4199098115079
 30
0.0
 10
99.64152892419852
 20
152.4199098115079
 30
0.0
 10
95.38097652692731
 20
152.4199098115079
 30
0.0
 10
95.38097652692731
 20
152.4199098115079
 30
0.0
 10
95.38097652692731
 20
152.4199098115079
 30
0.0
 10
87.75353009080013
 20
127.8027915271048
 30
0.0
 10
87.75353009080013
 20
127.8027915271048
 30
0.0
 10
87.75353009080013
 20
127.8027915271048
 30
0.0
 10
85.36538832498108
 20
127.8027915271048
 30
0.0
 10
85.36538832498108
 20
127.8027915271048
 30
0.0
 10
85.36538832498108
 20
127.8027915271048
 30
0.0
 10
93.00006946639998
 20
152.4199098115079
 30
0.0
 10
93.00006946639998
 20
152.4199098115079
 30
0.0
 10
93.00006946639998
 20
152.4199098115079
 30
0.0
 10
89.85297266450198
 20
152.4199098115079
 30
0.0
 10
89.85297266450198
 20
152.4199098115079
 30
0.0
 10
89.85297266450198
 20
152.4199098115079
 30
0.0
 10
90.51270888515164
 20
154.9119212747295
 30
0.0
 10
90.51270888515164
 20
154.9119212747295
 30
0.0
 10
90.51270888515164
 20
154.9119212747295
 30
0.0
 10
93.6904670570955
 20
154.9119212747295
 30
0.0
 10
93.6904670570955
 20
154.9119212747295
 30
0.0
 10
93.6904670570955
 20
154.9119212747295
 30
0.0
 10
94.81598049462158
 20
158.3616699146644
 30
0.0
 10
94.81598049462158
 20
158.3616699146644
 30
0.0
 10
95.7237637538445
 20
161.2605474231013
 30
0.0
 10
96.4968436907311
 20
162.8139420021662
 30
0.0
 10
97.15657991138076
 20
163.9844139654337
 30
0.0
 10
97.81183750494507
 20
165.1523021053827
 30
0.0
 10
99.1047826935081
 20
166.3084769129547
 30
0.0
 10
100.4504378777679
 20
166.69157178364
 30
0.0
  0
HATCH
  5
6A5
330
6A2
100
AcDbEntity
  8
LOGO
 62
   250
420
  2234388
100
AcDbHatch
 10
0.0
 20
0.0
 30
0.0
210
0.0
220
0.0
230
1.0
  2
SOLID
 70
     1
 71
     0
 91
        1
 92
        1
 93
        1
 72
     4
 94
        3
 73
     0
 74
     1
 95
       56
 96
       52
 40
0.0
 40
0.0
 40
0.0
 40
0.0
 40
1.0
 40
1.0
 40
1.0
 40
2.0
 40
2.0
 40
2.0
 40
3.0
 40
3.0
 40
3.0
 40
4.0
 40
4.0
 40
4.0
 40
5.0
 40
5.0
 40
5.0
 40
6.0
 40
6.0
 40
6.0
 40
7.0
 40
7.0
 40
7.0
 40
8.0
 40
8.0
 40
8.0
 40
9.0
 40
9.0
 40
9.0
 40
10.0
 40
10.0
 40
10.0
 40
11.0
 40
11.0
 40
11.0
 40
12.0
 40
12.0
 40
12.0
 40
13.0
 40
13.0
 40
13.0
 40
14.0
 40
14.0
 40
14.0
 40
15.0
 40
15.0
 40
15.0
 40
16.0
 40
16.0
 40
16.0
 40
17.0
 40
17.0
 40
17.0
 40
17.0
 10
100.4504378777679
 20
166.69157178364
 10
101.9848844191641
 20
167.1313385124438
 10
103.9637485713373
 20
166.7649523658846
 10
103.9637485713373
 20
166.7649523658846
 10
103.9637485713373
 20
166.7649523658846
 10
103.0132460999156
 20
163.911205638077
 10
103.0132460999156
 20
163.911205638077
 10
103.0132460999156
 20
163.911205638077
 10
101.0674548862189
 20
164.3601018759394
 10
99.57090442016032
 20
163.1805004036133
 10
98.40508333886608
 20
162.258247733807
 10
97.65301849830304
 20
159.804132345923
 10
97.3598406791005
 20
158.8699940888517
 10
97.3598406791005
 20
158.8699940888517
 10
96.07137411762282
 20
154.9119212747295
 10
96.07137411762282
 20
154.9119212747295
 10
96.07137411762282
 20
154.9119212747295
 10
100.3012651448482
 20
154.9119212747295
 10
100.3012651448482
 20
154.9119212747295
 10
100.3012651448482
 20
154.9119212747295
 10
99.64152892419852
 20
152.4199098115079
 10
99.64152892419852
 20
152.4199098115079
 10
99.64152892419852
 20
152.4199098115079
 10
95.38097652692731
 20
152.4199098115079
 10
95.38097652692731
 20
152.4199098115079
 10
95.38097652692731
 20
152.4199098115079
 10
87.75353009080013
 20
127.8027915271048
 10
87.75353009080013
 20
127.8027915271048
 10
87.75353009080013
 20
127.8027915271048
 10
85.36538832498108
 20
127.8027915271048
 10
85.36538832498108
 20
127.8027915271048
 10
85.36538832498108
 20
127.8027915271048
 10
93.00006946639998
 20
152.4199098115079
 10
93.00006946639998
 20
152.4199098115079
 10
93.00006946639998
 20
152.4199098115079
 10
89.85297266450198
 20
152.4199098115079
 10
89.85297266450198
 20
152.4199098115079
 10
89.85297266450198
 20
152.4199098115079
 10
90.51270888515164
 20
154.9119212747295
 10
90.51270888515164
 20
154.9119212747295
 10
90.51270888515164
 20
154.9119212747295
 10
93.6904670570955
 20
154.9119212747295
 10
93.6904670570955
 20
154.9119212747295
 10
93.6904670570955
 20
154.9119212747295
 10
94.81598049462158
 20
158.3616699146644
 10
94.81598049462158
 20
158.3616699146644
 10
95.7237637538445
 20
161.2605474231013
 10
96.4968436907311
 20
162.8139420021662
 10
97.15657991138076
 20
163.9844139654337
 10
97.81183750494507
 20
165.1523021053827
 10
99.1047826935081
 20
166.3084769129547
 10
100.4504378777679
 20
166.69157178364
 97
        0
 75
     2
 76
     1
 98
        0
  0
SPLINE
  5
6A6
330
6A2
100
AcDbEntity
  8
LOGO
370
     0
100
AcDbSpline
210
0.0
220
0.0
230
1.0
 70
    11
 71
     3
 72
    38
 73
    34
 74
     0
 42
0.000000001
 43
0.0000000001
 40
0.0
 40
0.0
 40
0.0
 40
0.0
 40
1.0
 40
1.0
 40
1.0
 40
2.0
 40
2.0
 40
2.0
 40
3.0
 40
3.0
 40
3.0
 40
4.0
 40
4.0
 40
4.0
 40
5.0
 40
5.0
 40
5.0
 40
6.0
 40
6.0
 40
6.0
 40
7.0
 40
7.0
 40
7.0
 40
8.0
 40
8.0
 40
8.0
 40
9.0
 40
9.0
 40
9.0
 40
10.0
 40
10.0
 40
10.0
 40
11.0
 40
11.0
 40
11.0
 40
11.0
 10
126.377554584636
 20
154.8151140277308
 30
0.0
 10
126.377554584636
 20
154.8151140277308
 30
0.0
 10
128.8311532078563
 20
154.8151140277308
 30
0.0
 10
128.8311532078563
 20
154.8151140277308
 30
0.0
 10
128.8311532078563
 20
154.8151140277308
 30
0.0
 10
127.7345785914971
 20
151.3062819612468
 30
0.0
 10
127.7345785914971
 20
151.3062819612468
 30
0.0
 10
128.571392836906
 20
152.2922689395754
 30
0.0
 10
129.8860421413442
 20
153.604506675583
 30
0.0
 10
131.0163787157314
 20
154.2664822097754
 30
0.0
 10
132.7044766171327
 20
155.2500576196734
 30
0.0
 10
133.6642808525008
 20
155.3847609420097
 30
0.0
 10
134.7284715499351
 20
155.3565111403944
 30
0.0
 10
134.7284715499351
 20
155.3565111403944
 30
0.0
 10
133.6877075172549
 20
152.0345756272799
 30
0.0
 10
133.6877075172549
 20
152.0345756272799
 30
0.0
 10
133.011434827367
 20
152.3184516825359
 30
0.0
 10
130.930940291334
 20
151.7768823149844
 30
0.0
 10
129.739280976855
 20
150.9162968950455
 30
0.0
 10
128.66613302525
 20
150.1454562717016
 30
0.0
 10
127.9192358313239
 20
149.4857200510519
 30
0.0
 10
127.0393578639405
 20
147.8282835196966
 30
0.0
 10
126.164647543194
 20
146.1699857139017
 30
0.0
 10
125.4742499524985
 20
143.5262176944419
 30
0.0
 10
124.2822461282437
 20
139.6959580071401
 30
0.0
 10
124.2822461282437
 20
139.6959580071401
 30
0.0
 10
120.5753209406769
 20
127.8027915271048
 30
0.0
 10
120.5753209406769
 20
127.8027915271048
 30
0.0
 10
120.5753209406769
 20
127.8027915271048
 30
0.0
 10
118.1964809388044
 20
127.8027915271048
 30
0.0
 10
118.1964809388044
 20
127.8027915271048
 30
0.0
 10
118.1964809388044
 20
127.8027915271048
 30
0.0
 10
126.377554584636
 20
154.8151140277308
 30
0.0
 10
126.377554584636
 20
154.8151140277308
 30
0.0
  0
HATCH
  5
6A7
330
6A2
100
AcDbEntity
  8
LOGO
 62
   250
420
  2234388
100
AcDbHatch
 10
0.0
 20
0.0
 30
0.0
210
0.0
220
0.0
230
1.0
  2
SOLID
 70
     1
 71
     0
 91
        1
 92
        1
 93
        1
 72
     4
 94
        3
 73
     0
 74
     1
 95
       38
 96
       34
 40
0.0
 40
0.0
 40
0.0
 40
0.0
 40
1.0
 40
1.0
 40
1.0
 40
2.0
 40
2.0
 40
2.0
 40
3.0
 40
3.0
 40
3.0
 40
4.0
 40
4.0
 40
4.0
 40
5.0
 40
5.0
 40
5.0
 40
6.0
 40
6.0
 40
6.0
 40
7.0
 40
7.0
 40
7.0
 40
8.0
 40
8.0
 40
8.0
 40
9.0
 40
9.0
 40
9.0
 40
10.0
 40
10.0
 40
10.0
 40
11.0
 40
11.0
 40
11.0
 40
11.0
 10
126.377554584636
 20
154.8151140277308
 10
126.377554584636
 20
154.8151140277308
 10
128.8311532078563
 20
154.8151140277308
 10
128.8311532078563
 20
154.8151140277308
 10
128.8311532078563
 20
154.8151140277308
 10
127.7345785914971
 20
151.3062819612468
 10
127.7345785914971
 20
151.3062819612468
 10
128.571392836906
 20
152.2922689395754
 10
129.8860421413442
 20
153.604506675583
 10
131.0163787157314
 20
154.2664822097754
 10
132.7044766171327
 20
155.2500576196734
 10
133.6642808525008
 20
155.3847609420097
 10
134.7284715499351
 20
155.3565111403944
 10
134.7284715499351
 20
155.3565111403944
 10
133.6877075172549
 20
152.0345756272799
 10
133.6877075172549
 20
152.0345756272799
 10
133.011434827367
 20
152.3184516825359
 10
130.930940291334
 20
151.7768823149844
 10
129.739280976855
 20
150.9162968950455
 10
128.66613302525
 20
150.1454562717016
 10
127.9192358313239
 20
149.4857200510519
 10
127.0393578639405
 20
147.8282835196966
 10
126.164647543194
 20
146.1699857139017
 10
125.4742499524985
 20
143.5262176944419
 10
124.2822461282437
 20
139.6959580071401
 10
124.2822461282437
 20
139.6959580071401
 10
120.5753209406769
 20
127.8027915271048
 10
120.5753209406769
 20
127.8027915271048
 10
120.5753209406769
 20
127.8027915271048
 10
118.1964809388044
 20
127.8027915271048
 10
118.1964809388044
 20
127.8027915271048
 10
118.1964809388044
 20
127.8027915271048
 10
126.377554584636
 20
154.8151140277308
 10
126.377554584636
 20
154.8151140277308
 97
        0
 75
     2
 76
     1
 98
        0
  0
SPLINE
  5
6A8
330
6A2
100
AcDbEntity
  8
LOGO
370
     0
100
AcDbSpline
210
0.0
220
0.0
230
1.0
 70
    11
 71
     3
 72
   104
 73
   100
 74
     0
 42
0.000000001
 43
0.0000000001
 40
0.0
 40
0.0
 40
0.0
 40
0.0
 40
1.0
 40
1.0
 40
1.0
 40
2.0
 40
2.0
 40
2.0
 40
3.0
 40
3.0
 40
3.0
 40
4.0
 40
4.0
 40
4.0
 40
5.0
 40
5.0
 40
5.0
 40
6.0
 40
6.0
 40
6.0
 40
7.0
 40
7.0
 40
7.0
 40
8.0
 40
8.0
 40
8.0
 40
9.0
 40
9.0
 40
9.0
 40
10.0
 40
10.0
 40
10.0
 40
11.0
 40
11.0
 40
11.0
 40
12.0
 40
12.0
 40
12.0
 40
13.0
 40
13.0
 40
13.0
 40
14.0
 40
14.0
 40
14.0
 40
15.0
 40
15.0
 40
15.0
 40
16.0
 40
16.0
 40
16.0
 40
17.0
 40
17.0
 40
17.0
 40
18.0
 40
18.0
 40
18.0
 40
19.0
 40
19.0
 40
19.0
 40
20.0
 40
20.0
 40
20.0
 40
21.0
 40
21.0
 40
21.0
 40
22.0
 40
22.0
 40
22.0
 40
23.0
 40
23.0
 40
23.0
 40
24.0
 40
24.0
 40
24.0
 40
25.0
 40
25.0
 40
25.0
 40
26.0
 40
26.0
 40
26.0
 40
27.0
 40
27.0
 40
27.0
 40
28.0
 40
28.0
 40
28.0
 40
29.0
 40
29.0
 40
29.0
 40
30.0
 40
30.0
 40
30.0
 40
31.0
 40
31.0
 40
31.0
 40
32.0
 40
32.0
 40
32.0
 40
33.0
 40
33.0
 40
33.0
 40
33.0
 10
139.8926730891197
 20
154.8294111834263
 30
0.0
 10
139.8926730891197
 20
154.8294111834263
 30
0.0
 10
142.0344903652445
 20
154.8294111834263
 30
0.0
 10
142.0344903652445
 20
154.8294111834263
 30
0.0
 10
142.0344903652445
 20
154.8294111834263
 30
0.0
 10
140.9516961399171
 20
151.3157559800812
 30
0.0
 10
140.9516961399171
 20
151.3157559800812
 30
0.0
 10
141.8928968473923
 20
152.7887075264977
 30
0.0
 10
142.7341897198865
 20
153.4484437471474
 30
0.0
 10
143.8552245303272
 20
154.2926649527359
 30
0.0
 10
144.9803934580775
 20
155.1296514530327
 30
0.0
 10
146.3139908001845
 20
155.3044901642492
 30
0.0
 10
147.241066606852
 20
155.3044901642492
 30
0.0
 10
148.3855280820469
 20
155.3044901642492
 30
0.0
 10
149.4969166187653
 20
155.0752189084569
 30
0.0
 10
150.0784491203092
 20
153.8172414621372
 30
0.0
 10
150.5228667310863
 20
152.833838307127
 30
0.0
 10
150.5414702589793
 20
152.7201500811143
 30
0.0
 10
150.4140016419347
 20
150.7765981809602
 30
0.0
 10
151.5818897818837
 20
152.7699317437168
 30
0.0
 10
152.4424752018226
 20
153.6256940267945
 30
0.0
 10
153.9038856707499
 20
154.4507949398263
 30
0.0
 10
155.4455669174378
 20
155.3044901642492
 30
0.0
 10
156.339225275853
 20
155.3659851592288
 30
0.0
 10
157.3748216618963
 20
155.2147453676543
 30
0.0
 10
158.911679771723
 20
154.9877134254046
 30
0.0
 10
159.8859534176746
 20
154.4390816074493
 30
0.0
 10
160.3965169054045
 20
152.7816450760939
 30
0.0
 10
160.9070803931344
 20
151.1219692311958
 30
0.0
 10
160.6328506116007
 20
150.2303779314354
 30
0.0
 10
159.9992971339115
 20
147.597634224801
 30
0.0
 10
159.7105979417943
 20
146.4014962832367
 30
0.0
 10
159.2947746424084
 20
144.9400858143094
 30
0.0
 10
158.7463150793409
 20
143.2092687007094
 30
0.0
 10
158.7463150793409
 20
143.2092687007094
 30
0.0
 10
153.9038856707499
 20
127.8027915271048
 30
0.0
 10
153.9038856707499
 20
127.8027915271048
 30
0.0
 10
153.9038856707499
 20
127.8027915271048
 30
0.0
 10
151.3882752878863
 20
127.8027915271048
 30
0.0
 10
151.3882752878863
 20
127.8027915271048
 30
0.0
 10
151.3882752878863
 20
127.8027915271048
 30
0.0
 10
155.6250565106276
 20
141.2751908193897
 30
0.0
 10
155.6250565106276
 20
141.2751908193897
 30
0.0
 10
156.5094131050963
 20
144.0936252951782
 30
0.0
 10
157.109893644309
 20
146.1506931664571
 30
0.0
 10
157.4220195011804
 20
147.4415712963654
 30
0.0
 10
157.8095929989511
 20
149.0530157726519
 30
0.0
 10
157.9656559273867
 20
149.5826995529385
 30
0.0
 10
157.7816877071116
 20
150.7529992613181
 30
0.0
 10
157.6111553680925
 20
151.8430281919372
 30
0.0
 10
157.0582171779396
 20
152.5547853887321
 30
0.0
 10
156.1170164704645
 20
152.5547853887321
 30
0.0
 10
155.1096698860365
 20
152.5547853887321
 30
0.0
 10
154.2962823053817
 20
152.4412694176073
 30
0.0
 10
153.156643967048
 20
151.2945686288697
 30
0.0
 10
152.0170056287143
 20
150.1476955852443
 30
0.0
 10
151.076149431015
 20
148.7930831468137
 30
0.0
 10
150.3337308641742
 20
147.2290087646991
 30
0.0
 10
149.5957909244188
 20
145.6683794803425
 30
0.0
 10
148.8530278478023
 20
143.6822806228776
 30
0.0
 10
148.0964843801539
 20
141.2751908193897
 30
0.0
 10
148.0964843801539
 20
141.2751908193897
 30
0.0
 10
143.8552245303272
 20
127.8027915271048
 30
0.0
 10
143.8552245303272
 20
127.8027915271048
 30
0.0
 10
143.8552245303272
 20
127.8027915271048
 30
0.0
 10
141.486030802177
 20
127.8027915271048
 30
0.0
 10
141.486030802177
 20
127.8027915271048
 30
0.0
 10
141.486030802177
 20
127.8027915271048
 30
0.0
 10
146.3329388378533
 20
143.2092687007094
 30
0.0
 10
146.3329388378533
 20
143.2092687007094
 30
0.0
 10
146.8483254624444
 20
144.8408669988801
 30
0.0
 10
147.2314203331297
 20
146.1837661049335
 30
0.0
 10
147.4867020769946
 20
147.224185627838
 30
0.0
 10
147.9169947869641
 20
149.0197705792876
 30
0.0
 10
148.0306830129768
 20
150.2400242051577
 30
0.0
 10
147.709255392159
 20
151.3157559800812
 30
0.0
 10
147.3874832615654
 20
152.3916600098926
 30
0.0
 10
146.8245542879144
 20
152.6683013598569
 30
0.0
 10
145.8840425999909
 20
152.6683013598569
 30
0.0
 10
145.0989048209514
 20
152.6683013598569
 30
0.0
 10
144.3282364524954
 20
152.3275811915945
 30
0.0
 10
143.4531816219731
 20
151.6538923250251
 30
0.0
 10
142.34627171234
 20
150.8074318058939
 30
0.0
 10
141.901854101563
 20
150.1097995099067
 30
0.0
 10
141.3578731655808
 20
149.289521733736
 30
0.0
 10
140.6299240093235
 20
148.192602607601
 30
0.0
 10
140.2850697237515
 20
147.455696197173
 30
0.0
 10
139.6652966370942
 20
145.8385673095858
 30
0.0
 10
139.0506911970739
 20
144.2214384219986
 30
0.0
 10
138.463991048893
 20
142.3252566160164
 30
0.0
 10
138.0571250036777
 20
141.0154304484394
 30
0.0
 10
138.0571250036777
 20
141.0154304484394
 30
0.0
 10
133.9009590684727
 20
127.8027915271048
 30
0.0
 10
133.9009590684727
 20
127.8027915271048
 30
0.0
 10
133.9009590684727
 20
127.8027915271048
 30
0.0
 10
131.4180771143097
 20
127.8027915271048
 30
0.0
 10
131.4180771143097
 20
127.8027915271048
 30
0.0
 10
131.4180771143097
 20
127.8027915271048
 30
0.0
 10
139.8926730891197
 20
154.8294111834263
 30
0.0
 10
139.8926730891197
 20
154.8294111834263
 30
0.0
  0
HATCH
  5
6A9
330
6A2
100
AcDbEntity
  8
LOGO
 62
   250
420
  2234388
100
AcDbHatch
 10
0.0
 20
0.0
 30
0.0
210
0.0
220
0.0
230
1.0
  2
SOLID
 70
     1
 71
     0
 91
        1
 92
        1
 93
        1
 72
     4
 94
        3
 73
     0
 74
     1
 95
      104
 96
      100
 40
0.0
 40
0.0
 40
0.0
 40
0.0
 40
1.0
 40
1.0
 40
1.0
 40
2.0
 40
2.0
 40
2.0
 40
3.0
 40
3.0
 40
3.0
 40
4.0
 40
4.0
 40
4.0
 40
5.0
 40
5.0
 40
5.0
 40
6.0
 40
6.0
 40
6.0
 40
7.0
 40
7.0
 40
7.0
 40
8.0
 40
8.0
 40
8.0
 40
9.0
 40
9.0
 40
9.0
 40
10.0
 40
10.0
 40
10.0
 40
11.0
 40
11.0
 40
11.0
 40
12.0
 40
12.0
 40
12.0
 40
13.0
 40
13.0
 40
13.0
 40
14.0
 40
14.0
 40
14.0
 40
15.0
 40
15.0
 40
15.0
 40
16.0
 40
16.0
 40
16.0
 40
17.0
 40
17.0
 40
17.0
 40
18.0
 40
18.0
 40
18.0
 40
19.0
 40
19.0
 40
19.0
 40
20.0
 40
20.0
 40
20.0
 40
21.0
 40
21.0
 40
21.0
 40
22.0
 40
22.0
 40
22.0
 40
23.0
 40
23.0
 40
23.0
 40
24.0
 40
24.0
 40
24.0
 40
25.0
 40
25.0
 40
25.0
 40
26.0
 40
26.0
 40
26.0
 40
27.0
 40
27.0
 40
27.0
 40
28.0
 40
28.0
 40
28.0
 40
29.0
 40
29.0
 40
29.0
 40
30.0
 40
30.0
 40
30.0
 40
31.0
 40
31.0
 40
31.0
 40
32.0
 40
32.0
 40
32.0
 40
33.0
 40
33.0
 40
33.0
 40
33.0
 10
139.8926730891197
 20
154.8294111834263
 10
139.8926730891197
 20
154.8294111834263
 10
142.0344903652445
 20
154.8294111834263
 10
142.0344903652445
 20
154.8294111834263
 10
142.0344903652445
 20
154.8294111834263
 10
140.9516961399171
 20
151.3157559800812
 10
140.9516961399171
 20
151.3157559800812
 10
141.8928968473923
 20
152.7887075264977
 10
142.7341897198865
 20
153.4484437471474
 10
143.8552245303272
 20
154.2926649527359
 10
144.9803934580775
 20
155.1296514530327
 10
146.3139908001845
 20
155.3044901642492
 10
147.241066606852
 20
155.3044901642492
 10
148.3855280820469
 20
155.3044901642492
 10
149.4969166187653
 20
155.0752189084569
 10
150.0784491203092
 20
153.8172414621372
 10
150.5228667310863
 20
152.833838307127
 10
150.5414702589793
 20
152.7201500811143
 10
150.4140016419347
 20
150.7765981809602
 10
151.5818897818837
 20
152.7699317437168
 10
152.4424752018226
 20
153.6256940267945
 10
153.9038856707499
 20
154.4507949398263
 10
155.4455669174378
 20
155.3044901642492
 10
156.339225275853
 20
155.3659851592288
 10
157.3748216618963
 20
155.2147453676543
 10
158.911679771723
 20
154.9877134254046
 10
159.8859534176746
 20
154.4390816074493
 10
160.3965169054045
 20
152.7816450760939
 10
160.9070803931344
 20
151.1219692311958
 10
160.6328506116007
 20
150.2303779314354
 10
159.9992971339115
 20
147.597634224801
 10
159.7105979417943
 20
146.4014962832367
 10
159.2947746424084
 20
144.9400858143094
 10
158.7463150793409
 20
143.2092687007094
 10
158.7463150793409
 20
143.2092687007094
 10
153.9038856707499
 20
127.8027915271048
 10
153.9038856707499
 20
127.8027915271048
 10
153.9038856707499
 20
127.8027915271048
 10
151.3882752878863
 20
127.8027915271048
 10
151.3882752878863
 20
127.8027915271048
 10
151.3882752878863
 20
127.8027915271048
 10
155.6250565106276
 20
141.2751908193897
 10
155.6250565106276
 20
141.2751908193897
 10
156.5094131050963
 20
144.0936252951782
 10
157.109893644309
 20
146.1506931664571
 10
157.4220195011804
 20
147.4415712963654
 10
157.8095929989511
 20
149.0530157726519
 10
157.9656559273867
 20
149.5826995529385
 10
157.7816877071116
 20
150.7529992613181
 10
157.6111553680925
 20
151.8430281919372
 10
157.0582171779396
 20
152.5547853887321
 10
156.1170164704645
 20
152.5547853887321
 10
155.1096698860365
 20
152.5547853887321
 10
154.2962823053817
 20
152.4412694176073
 10
153.156643967048
 20
151.2945686288697
 10
152.0170056287143
 20
150.1476955852443
 10
151.076149431015
 20
148.7930831468137
 10
150.3337308641742
 20
147.2290087646991
 10
149.5957909244188
 20
145.6683794803425
 10
148.8530278478023
 20
143.6822806228776
 10
148.0964843801539
 20
141.2751908193897
 10
148.0964843801539
 20
141.2751908193897
 10
143.8552245303272
 20
127.8027915271048
 10
143.8552245303272
 20
127.8027915271048
 10
143.8552245303272
 20
127.8027915271048
 10
141.486030802177
 20
127.8027915271048
 10
141.486030802177
 20
127.8027915271048
 10
141.486030802177
 20
127.8027915271048
 10
146.3329388378533
 20
143.2092687007094
 10
146.3329388378533
 20
143.2092687007094
 10
146.8483254624444
 20
144.8408669988801
 10
147.2314203331297
 20
146.1837661049335
 10
147.4867020769946
 20
147.224185627838
 10
147.9169947869641
 20
149.0197705792876
 10
148.0306830129768
 20
150.2400242051577
 10
147.709255392159
 20
151.3157559800812
 10
147.3874832615654
 20
152.3916600098926
 10
146.8245542879144
 20
152.6683013598569
 10
145.8840425999909
 20
152.6683013598569
 10
145.0989048209514
 20
152.6683013598569
 10
144.3282364524954
 20
152.3275811915945
 10
143.4531816219731
 20
151.6538923250251
 10
142.34627171234
 20
150.8074318058939
 10
141.901854101563
 20
150.1097995099067
 10
141.3578731655808
 20
149.289521733736
 10
140.6299240093235
 20
148.192602607601
 10
140.2850697237515
 20
147.455696197173
 10
139.6652966370942
 20
145.8385673095858
 10
139.0506911970739
 20
144.2214384219986
 10
138.463991048893
 20
142.3252566160164
 10
138.0571250036777
 20
141.0154304484394
 10
138.0571250036777
 20
141.0154304484394
 10
133.9009590684727
 20
127.8027915271048
 10
133.9009590684727
 20
127.8027915271048
 10
133.9009590684727
 20
127.8027915271048
 10
131.4180771143097
 20
127.8027915271048
 10
131.4180771143097
 20
127.8027915271048
 10
131.4180771143097
 20
127.8027915271048
 10
139.8926730891197
 20
154.8294111834263
 10
139.8926730891197
 20
154.8294111834263
 97
        0
 75
     2
 76
     1
 98
        0
  0
SPLINE
  5
6AA
330
6A2
100
AcDbEntity
  8
LOGO
370
     0
100
AcDbSpline
210
0.0
220
0.0
230
1.0
 70
    11
 71
     3
 72
    29
 73
    25
 74
     0
 42
0.000000001
 43
0.0000000001
 40
0.0
 40
0.0
 40
0.0
 40
0.0
 40
1.0
 40
1.0
 40
1.0
 40
2.0
 40
2.0
 40
2.0
 40
3.0
 40
3.0
 40
3.0
 40
4.0
 40
4.0
 40
4.0
 40
5.0
 40
5.0
 40
5.0
 40
6.0
 40
6.0
 40
6.0
 40
7.0
 40
7.0
 40
7.0
 40
8.0
 40
8.0
 40
8.0
 40
8.0
 10
101.6420971922469
 20
132.8388354296931
 30
0.0
 10
101.630039350094
 20
134.7164137077823
 30
0.0
 10
102.2236296937908
 20
138.0598810818841
 30
0.0
 10
103.7487744712405
 20
142.5378191476827
 30
0.0
 10
105.819967243327
 20
148.5896501242061
 30
0.0
 10
107.0602024361932
 20
150.8074318058939
 30
0.0
 10
108.1522984254671
 20
151.8833358357054
 30
0.0
 10
109.741177511439
 20
153.4532668840085
 30
0.0
 10
111.8740375333931
 20
153.5290590346837
 30
0.0
 10
112.5075910110823
 20
153.4532668840085
 30
0.0
 10
113.4012493694975
 20
153.3490526768302
 30
0.0
 10
114.6683563248758
 20
152.7580461564518
 30
0.0
 10
114.7493161221879
 20
150.7838328862519
 30
0.0
 10
114.8106388622796
 20
149.0909118479895
 30
0.0
 10
114.3186789024427
 20
145.9191825971221
 30
0.0
 10
112.6164561002338
 20
140.9489400617108
 30
0.0
 10
110.6444821435766
 20
135.1746117095912
 30
0.0
 10
109.4669477299053
 20
132.8960240524753
 30
0.0
 10
108.5212683953448
 20
131.9072809959403
 30
0.0
 10
106.7346406980658
 20
130.0538184021569
 30
0.0
 10
104.8222669326213
 20
130.2336525051225
 30
0.0
 10
104.5408024457958
 20
130.2336525051225
 30
0.0
 10
104.1721769856939
 20
130.2336525051225
 30
0.0
 10
101.6465758193322
 20
130.6305277668397
 30
0.0
 10
101.6420971922469
 20
132.8388354296931
 30
0.0
  0
SPLINE
  5
6AB
330
6A2
100
AcDbEntity
  8
LOGO
370
     0
100
AcDbSpline
210
0.0
220
0.0
230
1.0
 70
    11
 71
     3
 72
    32
 73
    28
 74
     0
 42
0.000000001
 43
0.0000000001
 40
0.0
 40
0.0
 40
0.0
 40
0.0
 40
1.0
 40
1.0
 40
1.0
 40
2.0
 40
2.0
 40
2.0
 40
3.0
 40
3.0
 40
3.0
 40
4.0
 40
4.0
 40
4.0
 40
5.0
 40
5.0
 40
5.0
 40
6.0
 40
6.0
 40
6.0
 40
7.0
 40
7.0
 40
7.0
 40
8.0
 40
8.0
 40
8.0
 40
9.0
 40
9.0
 40
9.0
 40
9.0
 10
106.2595617172429
 20
153.4105476718098
 30
0.0
 10
104.8222669326213
 20
151.5474388043041
 30
0.0
 10
103.7177685914188
 20
149.8758773721411
 30
0.0
 10
101.9232171692965
 20
144.6141795664062
 30
0.0
 10
100.2754269116635
 20
139.7999999594306
 30
0.0
 10
99.22777268346732
 20
136.3052927937542
 30
0.0
 10
99.06964269637689
 20
132.039572749846
 30
0.0
 10
98.94665270641765
 20
128.8673267343149
 30
0.0
 10
100.8807305877373
 20
127.8027915271048
 30
0.0
 10
103.7129454545577
 20
127.8027915271048
 30
0.0
 10
104.9352661390825
 20
127.8027915271048
 30
0.0
 10
108.0151835347002
 20
127.8827177950895
 30
0.0
 10
110.2045431598849
 20
130.5926316915021
 30
0.0
 10
111.7417457794874
 20
132.4984597712065
 30
0.0
 10
113.155269389579
 20
134.475256864725
 30
0.0
 10
115.0562743324223
 20
140.9489400617108
 30
0.0
 10
116.6361961642235
 20
146.3680788349845
 30
0.0
 10
117.7282921534974
 20
149.8639917848761
 30
0.0
 10
117.6480213757369
 20
151.8595646611754
 30
0.0
 10
117.6480213757369
 20
151.8595646611754
 30
0.0
 10
117.6480213757369
 20
151.8595646611754
 30
0.0
 10
117.6480213757369
 20
151.8595646611754
 30
0.0
 10
117.13229024137
 20
155.18150017429
 30
0.0
 10
114.7162431837115
 20
155.886194920681
 30
0.0
 10
113.3351034925446
 20
155.886194920681
 30
0.0
 10
111.9829026225447
 20
155.886194920681
 30
0.0
 10
108.3414342923792
 20
156.1251124501957
 30
0.0
 10
106.2595617172429
 20
153.4105476718098
 30
0.0
  0
HATCH
  5
6AC
330
6A2
100
AcDbEntity
  8
LOGO
 62
   250
420
  2234388
100
AcDbHatch
 10
0.0
 20
0.0
 30
0.0
210
0.0
220
0.0
230
1.0
  2
SOLID
 70
     1
 71
     0
 91
        2
 92
        1
 93
        1
 72
     4
 94
        3
 73
     0
 74
     1
 95
       29
 96
       25
 40
0.0
 40
0.0
 40
0.0
 40
0.0
 40
1.0
 40
1.0
 40
1.0
 40
2.0
 40
2.0
 40
2.0
 40
3.0
 40
3.0
 40
3.0
 40
4.0
 40
4.0
 40
4.0
 40
5.0
 40
5.0
 40
5.0
 40
6.0
 40
6.0
 40
6.0
 40
7.0
 40
7.0
 40
7.0
 40
8.0
 40
8.0
 40
8.0
 40
8.0
 10
101.6420971922469
 20
132.8388354296931
 10
101.630039350094
 20
134.7164137077823
 10
102.2236296937908
 20
138.0598810818841
 10
103.7487744712405
 20
142.5378191476827
 10
105.819967243327
 20
148.5896501242061
 10
107.0602024361932
 20
150.8074318058939
 10
108.1522984254671
 20
151.8833358357054
 10
109.741177511439
 20
153.4532668840085
 10
111.8740375333931
 20
153.5290590346837
 10
112.5075910110823
 20
153.4532668840085
 10
113.4012493694975
 20
153.3490526768302
 10
114.6683563248758
 20
152.7580461564518
 10
114.7493161221879
 20
150.7838328862519
 10
114.8106388622796
 20
149.0909118479895
 10
114.3186789024427
 20
145.9191825971221
 10
112.6164561002338
 20
140.9489400617108
 10
110.6444821435766
 20
135.1746117095912
 10
109.4669477299053
 20
132.8960240524753
 10
108.5212683953448
 20
131.9072809959403
 10
106.7346406980658
 20
130.0538184021569
 10
104.8222669326213
 20
130.2336525051225
 10
104.5408024457958
 20
130.2336525051225
 10
104.1721769856939
 20
130.2336525051225
 10
101.6465758193322
 20
130.6305277668397
 10
101.6420971922469
 20
132.8388354296931
 97
        0
 92
        1
 93
        1
 72
     4
 94
        3
 73
     0
 74
     1
 95
       32
 96
       28
 40
0.0
 40
0.0
 40
0.0
 40
0.0
 40
1.0
 40
1.0
 40
1.0
 40
2.0
 40
2.0
 40
2.0
 40
3.0
 40
3.0
 40
3.0
 40
4.0
 40
4.0
 40
4.0
 40
5.0
 40
5.0
 40
5.0
 40
6.0
 40
6.0
 40
6.0
 40
7.0
 40
7.0
 40
7.0
 40
8.0
 40
8.0
 40
8.0
 40
9.0
 40
9.0
 40
9.0
 40
9.0
 10
106.2595617172429
 20
153.4105476718098
 10
104.8222669326213
 20
151.5474388043041
 10
103.7177685914188
 20
149.8758773721411
 10
101.9232171692965
 20
144.6141795664062
 10
100.2754269116635
 20
139.7999999594306
 10
99.22777268346732
 20
136.3052927937542
 10
99.06964269637689
 20
132.039572749846
 10
98.94665270641765
 20
128.8673267343149
 10
100.8807305877373
 20
127.8027915271048
 10
103.7129454545577
 20
127.8027915271048
 10
104.9352661390825
 20
127.8027915271048
 10
108.0151835347002
 20
127.8827177950895
 10
110.2045431598849
 20
130.5926316915021
 10
111.7417457794874
 20
132.4984597712065
 10
113.155269389579
 20
134.475256864725
 10
115.0562743324223
 20
140.9489400617108
 10
116.6361961642235
 20
146.3680788349845
 10
117.7282921534974
 20
149.8639917848761
 10
117.6480213757369
 20
151.8595646611754
 10
117.6480213757369
 20
151.8595646611754
 10
117.6480213757369
 20
151.8595646611754
 10
117.6480213757369
 20
151.8595646611754
 10
117.13229024137
 20
155.18150017429
 10
114.7162431837115
 20
155.886194920681
 10
113.3351034925446
 20
155.886194920681
 10
111.9829026225447
 20
155.886194920681
 10
108.3414342923792
 20
156.1251124501957
 10
106.2595617172429
 20
153.4105476718098
 97
        0
 75
     2
 76
     1
 98
        0
  0
ENDBLK
  5
6AD
330
6A2
100
AcDbEntity
  8
0
100
AcDbBlockEnd
  0
BLOCK
  5
199B
330
199A
100
AcDbEntity
  8
0
100
AcDbBlockBegin
  2
SEANNOT_GROUP
 70
     0
 10
0.0
 20
0.0
 30
0.0
  3
SEANNOT_GROUP
  1
SEANNOT_GROUP
  0
ENDBLK
  5
199C
330
199A
100
AcDbEntity
  8
0
100
AcDbBlockEnd
  0
BLOCK
  5
1F30
330
1F2F
100
AcDbEntity
  8
0
100
AcDbBlockBegin
  2
SEANNOT_GROUP1
 70
     0
 10
0.0
 20
0.0
 30
0.0
  3
SEANNOT_GROUP1
  1
SEANNOT_GROUP1
  0
ENDBLK
  5
1F31
330
1F2F
100
AcDbEntity
  8
0
100
AcDbBlockEnd
  0
BLOCK
  5
75CF
330
75CE
100
AcDbEntity
  8
0
100
AcDbBlockBegin
  2
*D8
 70
     1
 10
0.0
 20
0.0
 30
0.0
  3
*D8
  1

  0
LINE
  5
75D1
330
75CE
100
AcDbEntity
  8
DIM
 62
     0
370
    -2
100
AcDbLine
 10
863.6594058410951
 20
882.100387501127
 30
0.0
 11
962.9967848294309
 21
882.100387501127
 31
0.0
  0
LINE
  5
75D2
330
75CE
100
AcDbEntity
  8
DIM
 62
     0
370
    -2
100
AcDbLine
 10
640.582502441589
 20
727.100387501127
 30
0.0
 11
962.9967848294309
 21
727.100387501127
 31
0.0
  0
LINE
  5
75D3
330
75CE
100
AcDbEntity
  8
DIM
 62
     0
370
    -2
100
AcDbLine
 10
962.9967848294309
 20
872.100387501127
 30
0.0
 11
962.9967848294309
 21
737.100387501127
 31
0.0
  0
INSERT
  5
75D4
330
75CE
100
AcDbEntity
  8
DIM
 62
     0
370
    -2
100
AcDbBlockReference
  2
_DOT
 10
962.9967848294309
 20
882.100387501127
 30
0.0
 41
10.0
 42
10.0
 43
10.0
 50
90.0
  0
INSERT
  5
75D5
330
75CE
100
AcDbEntity
  8
DIM
 62
     0
370
    -2
100
AcDbBlockReference
  2
_DOT
 10
962.9967848294309
 20
727.100387501127
 30
0.0
 41
10.0
 42
10.0
 43
10.0
 50
270.0
  0
MTEXT
  5
75D6
330
75CE
100
AcDbEntity
  8
DIM
 62
     0
100
AcDbMText
 10
930.9967848294309
 20
804.600387501127
 30
0.0
 40
24.0
 41
0.0
 46
0.0
 71
     5
 72
     1
  1
\A1;155
  7
ＭＳ ゴシック
 11
0.0
 21
1.0
 31
0.0
 73
     1
 44
1.0
  0
POINT
  5
75D7
330
75CE
100
AcDbEntity
  8
Defpoints
 62
     0
100
AcDbPoint
 10
833.6594058410951
 20
882.100387501127
 30
0.0
  0
POINT
  5
75D8
330
75CE
100
AcDbEntity
  8
Defpoints
 62
     0
100
AcDbPoint
 10
610.582502441589
 20
727.100387501127
 30
0.0
  0
POINT
  5
75D9
330
75CE
100
AcDbEntity
  8
Defpoints
 62
     0
100
AcDbPoint
 10
962.9967848294309
 20
727.100387501127
 30
0.0
  0
ENDBLK
  5
75D0
330
75CE
100
AcDbEntity
  8
0
100
AcDbBlockEnd
  0
BLOCK
  5
75DE
330
75DD
100
AcDbEntity
  8
0
100
AcDbBlockBegin
  2
*D9
 70
     1
 10
0.0
 20
0.0
 30
0.0
  3
*D9
  1

  0
LINE
  5
75E0
330
75DD
100
AcDbEntity
  8
DIM
 62
     0
370
    -2
100
AcDbLine
 10
1347.632328172841
 20
882.1003875011272
 30
0.0
 11
1295.549097601687
 21
882.1003875011272
 31
0.0
  0
LINE
  5
75E1
330
75DD
100
AcDbEntity
  8
DIM
 62
     0
370
    -2
100
AcDbLine
 10
1358.494412219066
 20
742.0420976055863
 30
0.0
 11
1295.549097601687
 21
742.0420976055863
 31
0.0
  0
LINE
  5
75E2
330
75DD
100
AcDbEntity
  8
DIM
 62
     0
370
    -2
100
AcDbLine
 10
1295.549097601687
 20
872.1003875011272
 30
0.0
 11
1295.549097601687
 21
752.0420976055863
 31
0.0
  0
INSERT
  5
75E3
330
75DD
100
AcDbEntity
  8
DIM
 62
     0
370
    -2
100
AcDbBlockReference
  2
_DOT
 10
1295.549097601687
 20
882.1003875011272
 30
0.0
 41
10.0
 42
10.0
 43
10.0
 50
90.0
  0
INSERT
  5
75E4
330
75DD
100
AcDbEntity
  8
DIM
 62
     0
370
    -2
100
AcDbBlockReference
  2
_DOT
 10
1295.549097601687
 20
742.0420976055863
 30
0.0
 41
10.0
 42
10.0
 43
10.0
 50
270.0
  0
MTEXT
  5
75E5
330
75DD
100
AcDbEntity
  8
DIM
 62
     0
100
AcDbMText
 10
1263.549097601687
 20
812.0712425533568
 30
0.0
 40
24.0
 41
0.0
 46
0.0
 71
     5
 72
     1
  1
\A1;140
  7
ＭＳ ゴシック
 11
0.0
 21
1.0
 31
0.0
 73
     1
 44
1.0
  0
POINT
  5
75E6
330
75DD
100
AcDbEntity
  8
Defpoints
 62
     0
100
AcDbPoint
 10
1377.632328172841
 20
882.1003875011272
 30
0.0
  0
POINT
  5
75E7
330
75DD
100
AcDbEntity
  8
Defpoints
 62
     0
100
AcDbPoint
 10
1388.494412219066
 20
742.0420976055863
 30
0.0
  0
POINT
  5
75E8
330
75DD
100
AcDbEntity
  8
Defpoints
 62
     0
100
AcDbPoint
 10
1295.549097601687
 20
742.0420976055863
 30
0.0
  0
ENDBLK
  5
75DF
330
75DD
100
AcDbEntity
  8
0
100
AcDbBlockEnd
  0
BLOCK
  5
760C
330
760B
100
AcDbEntity
  8
0
100
AcDbBlockBegin
  2
*D10
 70
     1
 10
0.0
 20
0.0
 30
0.0
  3
*D10
  1

  0
LINE
  5
760E
330
760B
100
AcDbEntity
  8
DIM
 62
     0
370
    -2
100
AcDbLine
 10
1843.464021634137
 20
882.1003875011272
 30
0.0
 11
1937.171089938248
 21
882.1003875011272
 31
0.0
  0
LINE
  5
760F
330
760B
100
AcDbEntity
  8
DIM
 62
     0
370
    -2
100
AcDbLine
 10
1847.989889986628
 20
822.073043766134
 30
0.0
 11
1937.171089938248
 21
822.073043766134
 31
0.0
  0
LINE
  5
7610
330
760B
100
AcDbEntity
  8
DIM
 62
     0
370
    -2
100
AcDbLine
 10
1937.171089938248
 20
872.1003875011272
 30
0.0
 11
1937.171089938248
 21
832.073043766134
 31
0.0
  0
INSERT
  5
7611
330
760B
100
AcDbEntity
  8
DIM
 62
     0
370
    -2
100
AcDbBlockReference
  2
_DOT
 10
1937.171089938248
 20
882.1003875011272
 30
0.0
 41
10.0
 42
10.0
 43
10.0
 50
90.0
  0
INSERT
  5
7612
330
760B
100
AcDbEntity
  8
DIM
 62
     0
370
    -2
100
AcDbBlockReference
  2
_DOT
 10
1937.171089938248
 20
822.073043766134
 30
0.0
 41
10.0
 42
10.0
 43
10.0
 50
270.0
  0
MTEXT
  5
7613
330
760B
100
AcDbEntity
  8
DIM
 62
     0
100
AcDbMText
 10
1905.171089938248
 20
852.0867156336308
 30
0.0
 40
24.0
 41
0.0
 46
0.0
 71
     5
 72
     1
  1
\A1;60
  7
ＭＳ ゴシック
 11
0.0
 21
1.0
 31
0.0
 73
     1
 44
1.0
  0
POINT
  5
7614
330
760B
100
AcDbEntity
  8
Defpoints
 62
     0
100
AcDbPoint
 10
1813.464021634137
 20
882.1003875011272
 30
0.0
  0
POINT
  5
7615
330
760B
100
AcDbEntity
  8
Defpoints
 62
     0
100
AcDbPoint
 10
1817.989889986628
 20
822.073043766134
 30
0.0
  0
POINT
  5
7616
330
760B
100
AcDbEntity
  8
Defpoints
 62
     0
100
AcDbPoint
 10
1937.171089938248
 20
822.073043766134
 30
0.0
  0
ENDBLK
  5
760D
330
760B
100
AcDbEntity
  8
0
100
AcDbBlockEnd
  0
BLOCK
  5
761A
330
7619
100
AcDbEntity
  8
0
100
AcDbBlockBegin
  2
*D11
 70
     1
 10
0.0
 20
0.0
 30
0.0
  3
*D11
  1

  0
LINE
  5
761C
330
7619
100
AcDbEntity
  8
DIM
 62
     0
370
    -2
100
AcDbLine
 10
1833.934442795156
 20
908.0995996045482
 30
0.0
 11
1833.934442795156
 21
946.5416613920046
 31
0.0
  0
LINE
  5
761D
330
7619
100
AcDbEntity
  8
DIM
 62
     0
370
    -2
100
AcDbLine
 10
1773.934442795156
 20
908.0995996045484
 30
0.0
 11
1773.934442795156
 21
946.5416613920046
 31
0.0
  0
LINE
  5
761E
330
7619
100
AcDbEntity
  8
DIM
 62
     0
370
    -2
100
AcDbLine
 10
1823.934442795156
 20
946.5416613920046
 30
0.0
 11
1783.934442795156
 21
946.5416613920046
 31
0.0
  0
INSERT
  5
761F
330
7619
100
AcDbEntity
  8
DIM
 62
     0
370
    -2
100
AcDbBlockReference
  2
_DOT
 10
1833.934442795156
 20
946.5416613920046
 30
0.0
 41
10.0
 42
10.0
 43
10.0
  0
INSERT
  5
7620
330
7619
100
AcDbEntity
  8
DIM
 62
     0
370
    -2
100
AcDbBlockReference
  2
_DOT
 10
1773.934442795156
 20
946.5416613920046
 30
0.0
 41
10.0
 42
10.0
 43
10.0
 50
180.0
  0
MTEXT
  5
7621
330
7619
100
AcDbEntity
  8
DIM
 62
     0
100
AcDbMText
 10
1803.934442795156
 20
978.5416613920046
 30
0.0
 40
24.0
 41
0.0
 46
0.0
 71
     5
 72
     1
  1
\A1;60
  7
ＭＳ ゴシック
 73
     1
 44
1.0
  0
POINT
  5
7622
330
7619
100
AcDbEntity
  8
Defpoints
 62
     0
100
AcDbPoint
 10
1833.934442795156
 20
878.0995996045482
 30
0.0
  0
POINT
  5
7623
330
7619
100
AcDbEntity
  8
Defpoints
 62
     0
100
AcDbPoint
 10
1773.934442795156
 20
878.0995996045484
 30
0.0
  0
POINT
  5
7624
330
7619
100
AcDbEntity
  8
Defpoints
 62
     0
100
AcDbPoint
 10
1773.934442795156
 20
946.5416613920046
 30
0.0
  0
ENDBLK
  5
761B
330
7619
100
AcDbEntity
  8
0
100
AcDbBlockEnd
  0
BLOCK
  5
762A
330
7629
100
AcDbEntity
  8
0
100
AcDbBlockBegin
  2
*D12
 70
     1
 10
0.0
 20
0.0
 30
0.0
  3
*D12
  1

  0
LINE
  5
762C
330
7629
100
AcDbEntity
  8
DIM
 62
     0
370
    -2
100
AcDbLine
 10
1833.934442795156
 20
778.3222000945318
 30
0.0
 11
1833.934442795156
 21
621.0115952089391
 31
0.0
  0
LINE
  5
762D
330
7629
100
AcDbEntity
  8
DIM
 62
     0
370
    -2
100
AcDbLine
 10
1623.814241676722
 20
697.0325055954497
 30
0.0
 11
1623.814241676722
 21
621.0115952089391
 31
0.0
  0
LINE
  5
762E
330
7629
100
AcDbEntity
  8
DIM
 62
     0
370
    -2
100
AcDbLine
 10
1823.934442795156
 20
621.0115952089391
 30
0.0
 11
1633.814241676722
 21
621.0115952089391
 31
0.0
  0
INSERT
  5
762F
330
7629
100
AcDbEntity
  8
DIM
 62
     0
370
    -2
100
AcDbBlockReference
  2
_DOT
 10
1833.934442795156
 20
621.0115952089391
 30
0.0
 41
10.0
 42
10.0
 43
10.0
  0
INSERT
  5
7630
330
7629
100
AcDbEntity
  8
DIM
 62
     0
370
    -2
100
AcDbBlockReference
  2
_DOT
 10
1623.814241676722
 20
621.0115952089391
 30
0.0
 41
10.0
 42
10.0
 43
10.0
 50
180.0
  0
MTEXT
  5
7631
330
7629
100
AcDbEntity
  8
DIM
 62
     0
100
AcDbMText
 10
1728.874342235939
 20
653.0115952089391
 30
0.0
 40
24.0
 41
0.0
 46
0.0
 71
     5
 72
     1
  1
\A1;210
  7
ＭＳ ゴシック
 73
     1
 44
1.0
  0
POINT
  5
7632
330
7629
100
AcDbEntity
  8
Defpoints
 62
     0
100
AcDbPoint
 10
1833.934442795156
 20
808.3222000945318
 30
0.0
  0
POINT
  5
7633
330
7629
100
AcDbEntity
  8
Defpoints
 62
     0
100
AcDbPoint
 10
1623.814241676722
 20
727.0325055954497
 30
0.0
  0
POINT
  5
7634
330
7629
100
AcDbEntity
  8
Defpoints
 62
     0
100
AcDbPoint
 10
1623.814241676722
 20
621.0115952089391
 30
0.0
  0
ENDBLK
  5
762B
330
7629
100
AcDbEntity
  8
0
100
AcDbBlockEnd
  0
BLOCK
  5
7639
330
7638
100
AcDbEntity
  8
0
100
AcDbBlockBegin
  2
*D13
 70
     1
 10
0.0
 20
0.0
 30
0.0
  3
*D13
  1

  0
LINE
  5
763B
330
7638
100
AcDbEntity
  8
DIM
 62
     0
370
    -2
100
AcDbLine
 10
1833.934442795156
 20
778.3222000945318
 30
0.0
 11
1833.934442795156
 21
545.2522470262933
 31
0.0
  0
LINE
  5
763C
330
7638
100
AcDbEntity
  8
DIM
 62
     0
370
    -2
100
AcDbLine
 10
1553.934442795156
 20
710.0784485532747
 30
0.0
 11
1553.934442795156
 21
545.2522470262933
 31
0.0
  0
LINE
  5
763D
330
7638
100
AcDbEntity
  8
DIM
 62
     0
370
    -2
100
AcDbLine
 10
1823.934442795156
 20
545.2522470262933
 30
0.0
 11
1563.934442795156
 21
545.2522470262933
 31
0.0
  0
INSERT
  5
763E
330
7638
100
AcDbEntity
  8
DIM
 62
     0
370
    -2
100
AcDbBlockReference
  2
_DOT
 10
1833.934442795156
 20
545.2522470262933
 30
0.0
 41
10.0
 42
10.0
 43
10.0
  0
INSERT
  5
763F
330
7638
100
AcDbEntity
  8
DIM
 62
     0
370
    -2
100
AcDbBlockReference
  2
_DOT
 10
1553.934442795156
 20
545.2522470262933
 30
0.0
 41
10.0
 42
10.0
 43
10.0
 50
180.0
  0
MTEXT
  5
7640
330
7638
100
AcDbEntity
  8
DIM
 62
     0
100
AcDbMText
 10
1693.934442795156
 20
577.2522470262933
 30
0.0
 40
24.0
 41
0.0
 46
0.0
 71
     5
 72
     1
  1
\A1;280
  7
ＭＳ ゴシック
 73
     1
 44
1.0
  0
POINT
  5
7641
330
7638
100
AcDbEntity
  8
Defpoints
 62
     0
100
AcDbPoint
 10
1833.934442795156
 20
808.3222000945318
 30
0.0
  0
POINT
  5
7642
330
7638
100
AcDbEntity
  8
Defpoints
 62
     0
100
AcDbPoint
 10
1553.934442795156
 20
740.0784485532747
 30
0.0
  0
POINT
  5
7643
330
7638
100
AcDbEntity
  8
Defpoints
 62
     0
100
AcDbPoint
 10
1553.934442795156
 20
545.2522470262933
 30
0.0
  0
ENDBLK
  5
763A
330
7638
100
AcDbEntity
  8
0
100
AcDbBlockEnd
  0
BLOCK
  5
7655
330
7654
100
AcDbEntity
  8
0
100
AcDbBlockBegin
  2
*D14
 70
     1
 10
0.0
 20
0.0
 30
0.0
  3
*D14
  1

  0
LINE
  5
7657
330
7654
100
AcDbEntity
  8
DIM
 62
     0
370
    -2
100
AcDbLine
 10
869.7640999020082
 20
2369.032045314803
 30
0.0
 11
979.3117074399852
 21
2369.032045314803
 31
0.0
  0
LINE
  5
7658
330
7654
100
AcDbEntity
  8
DIM
 62
     0
370
    -2
100
AcDbLine
 10
881.0787707833665
 20
1909.040484557406
 30
0.0
 11
979.3117074399852
 21
1909.040484557406
 31
0.0
  0
LINE
  5
7659
330
7654
100
AcDbEntity
  8
DIM
 62
     0
370
    -2
100
AcDbLine
 10
979.3117074399852
 20
2359.032045314803
 30
0.0
 11
979.3117074399852
 21
1919.040484557406
 31
0.0
  0
INSERT
  5
765A
330
7654
100
AcDbEntity
  8
DIM
 62
     0
370
    -2
100
AcDbBlockReference
  2
_DOT
 10
979.3117074399852
 20
2369.032045314803
 30
0.0
 41
10.0
 42
10.0
 43
10.0
 50
90.0
  0
INSERT
  5
765B
330
7654
100
AcDbEntity
  8
DIM
 62
     0
370
    -2
100
AcDbBlockReference
  2
_DOT
 10
979.3117074399852
 20
1909.040484557406
 30
0.0
 41
10.0
 42
10.0
 43
10.0
 50
270.0
  0
MTEXT
  5
765C
330
7654
100
AcDbEntity
  8
DIM
 62
     0
100
AcDbMText
 10
947.3117074399852
 20
2139.036264936105
 30
0.0
 40
24.0
 41
0.0
 46
0.0
 71
     5
 72
     1
  1
\A1;460
  7
ＭＳ ゴシック
 11
0.0
 21
1.0
 31
0.0
 73
     1
 44
1.0
  0
POINT
  5
765D
330
7654
100
AcDbEntity
  8
Defpoints
 62
     0
100
AcDbPoint
 10
839.7640999020082
 20
2369.032045314803
 30
0.0
  0
POINT
  5
765E
330
7654
100
AcDbEntity
  8
Defpoints
 62
     0
100
AcDbPoint
 10
851.0787707833665
 20
1909.040484557406
 30
0.0
  0
POINT
  5
765F
330
7654
100
AcDbEntity
  8
Defpoints
 62
     0
100
AcDbPoint
 10
979.3117074399852
 20
1909.040484557406
 30
0.0
  0
ENDBLK
  5
7656
330
7654
100
AcDbEntity
  8
0
100
AcDbBlockEnd
  0
BLOCK
  5
7664
330
7663
100
AcDbEntity
  8
0
100
AcDbBlockBegin
  2
*D15
 70
     1
 10
0.0
 20
0.0
 30
0.0
  3
*D15
  1

  0
LINE
  5
7666
330
7663
100
AcDbEntity
  8
DIM
 62
     0
370
    -2
100
AcDbLine
 10
839.6628292336923
 20
2407.330932894681
 30
0.0
 11
839.6628292336923
 21
2510.648592293895
 31
0.0
  0
LINE
  5
7667
330
7663
100
AcDbEntity
  8
DIM
 62
     0
370
    -2
100
AcDbLine
 10
289.6628090261397
 20
2403.55937593418
 30
0.0
 11
289.6628090261397
 21
2510.648592293895
 31
0.0
  0
LINE
  5
7668
330
7663
100
AcDbEntity
  8
DIM
 62
     0
370
    -2
100
AcDbLine
 10
829.6628292336923
 20
2510.648592293895
 30
0.0
 11
299.6628090261397
 21
2510.648592293895
 31
0.0
  0
INSERT
  5
7669
330
7663
100
AcDbEntity
  8
DIM
 62
     0
370
    -2
100
AcDbBlockReference
  2
_DOT
 10
839.6628292336923
 20
2510.648592293895
 30
0.0
 41
10.0
 42
10.0
 43
10.0
  0
INSERT
  5
766A
330
7663
100
AcDbEntity
  8
DIM
 62
     0
370
    -2
100
AcDbBlockReference
  2
_DOT
 10
289.6628090261397
 20
2510.648592293895
 30
0.0
 41
10.0
 42
10.0
 43
10.0
 50
180.0
  0
MTEXT
  5
766B
330
7663
100
AcDbEntity
  8
DIM
 62
     0
100
AcDbMText
 10
564.662819129916
 20
2542.648592293895
 30
0.0
 40
24.0
 41
0.0
 46
0.0
 71
     5
 72
     1
  1
\A1;550
  7
ＭＳ ゴシック
 73
     1
 44
1.0
  0
POINT
  5
766C
330
7663
100
AcDbEntity
  8
Defpoints
 62
     0
100
AcDbPoint
 10
839.6628292336923
 20
2377.330932894681
 30
0.0
  0
POINT
  5
766D
330
7663
100
AcDbEntity
  8
Defpoints
 62
     0
100
AcDbPoint
 10
289.6628090261397
 20
2373.55937593418
 30
0.0
  0
POINT
  5
766E
330
7663
100
AcDbEntity
  8
Defpoints
 62
     0
100
AcDbPoint
 10
289.6628090261397
 20
2510.648592293895
 30
0.0
  0
ENDBLK
  5
7665
330
7663
100
AcDbEntity
  8
0
100
AcDbBlockEnd
  0
BLOCK
  5
7673
330
7672
100
AcDbEntity
  8
0
100
AcDbBlockBegin
  2
*D16
 70
     1
 10
0.0
 20
0.0
 30
0.0
  3
*D16
  1

  0
LINE
  5
7675
330
7672
100
AcDbEntity
  8
DIM
 62
     0
370
    -2
100
AcDbLine
 10
317.6702295378004
 20
1928.853115897543
 30
0.0
 11
317.6702295378004
 21
1810.1896551862
 31
0.0
  0
LINE
  5
7676
330
7672
100
AcDbEntity
  8
DIM
 62
     0
370
    -2
100
AcDbLine
 10
811.6555809768042
 20
1933.567562098222
 30
0.0
 11
811.6555809768042
 21
1810.1896551862
 31
0.0
  0
LINE
  5
7677
330
7672
100
AcDbEntity
  8
DIM
 62
     0
370
    -2
100
AcDbLine
 10
327.6702295378004
 20
1810.1896551862
 30
0.0
 11
801.6555809768042
 21
1810.1896551862
 31
0.0
  0
INSERT
  5
7678
330
7672
100
AcDbEntity
  8
DIM
 62
     0
370
    -2
100
AcDbBlockReference
  2
_DOT
 10
317.6702295378004
 20
1810.1896551862
 30
0.0
 41
10.0
 42
10.0
 43
10.0
 50
180.0
  0
INSERT
  5
7679
330
7672
100
AcDbEntity
  8
DIM
 62
     0
370
    -2
100
AcDbBlockReference
  2
_DOT
 10
811.6555809768042
 20
1810.1896551862
 30
0.0
 41
10.0
 42
10.0
 43
10.0
  0
MTEXT
  5
767A
330
7672
100
AcDbEntity
  8
DIM
 62
     0
100
AcDbMText
 10
564.6629052573023
 20
1842.1896551862
 30
0.0
 40
24.0
 41
0.0
 46
0.0
 71
     5
 72
     1
  1
\A1;494
  7
ＭＳ ゴシック
 73
     1
 44
1.0
  0
POINT
  5
767B
330
7672
100
AcDbEntity
  8
Defpoints
 62
     0
100
AcDbPoint
 10
317.6702295378004
 20
1958.853115897543
 30
0.0
  0
POINT
  5
767C
330
7672
100
AcDbEntity
  8
Defpoints
 62
     0
100
AcDbPoint
 10
811.6555809768042
 20
1963.567562098222
 30
0.0
  0
POINT
  5
767D
330
7672
100
AcDbEntity
  8
Defpoints
 62
     0
100
AcDbPoint
 10
811.6555809768042
 20
1810.1896551862
 30
0.0
  0
ENDBLK
  5
7674
330
7672
100
AcDbEntity
  8
0
100
AcDbBlockEnd
  0
BLOCK
  5
7682
330
7681
100
AcDbEntity
  8
0
100
AcDbBlockBegin
  2
*D17
 70
     1
 10
0.0
 20
0.0
 30
0.0
  3
*D17
  1

  0
LINE
  5
7684
330
7681
100
AcDbEntity
  8
DIM
 62
     0
370
    -2
100
AcDbLine
 10
297.9607559737856
 20
1959.0360547489
 30
0.0
 11
190.6760826122654
 21
1959.0360547489
 31
0.0
  0
LINE
  5
7685
330
7681
100
AcDbEntity
  8
DIM
 62
     0
370
    -2
100
AcDbLine
 10
294.9435104055851
 20
2249.037474761035
 30
0.0
 11
190.6760826122654
 21
2249.037474761035
 31
0.0
  0
LINE
  5
7686
330
7681
100
AcDbEntity
  8
DIM
 62
     0
370
    -2
100
AcDbLine
 10
190.6760826122654
 20
1969.0360547489
 30
0.0
 11
190.6760826122654
 21
2239.037474761035
 31
0.0
  0
INSERT
  5
7687
330
7681
100
AcDbEntity
  8
DIM
 62
     0
370
    -2
100
AcDbBlockReference
  2
_DOT
 10
190.6760826122654
 20
1959.0360547489
 30
0.0
 41
10.0
 42
10.0
 43
10.0
 50
270.0
  0
INSERT
  5
7688
330
7681
100
AcDbEntity
  8
DIM
 62
     0
370
    -2
100
AcDbBlockReference
  2
_DOT
 10
190.6760826122654
 20
2249.037474761035
 30
0.0
 41
10.0
 42
10.0
 43
10.0
 50
90.0
  0
MTEXT
  5
7689
330
7681
100
AcDbEntity
  8
DIM
 62
     0
100
AcDbMText
 10
158.6760826122654
 20
2104.036764754967
 30
0.0
 40
24.0
 41
0.0
 46
0.0
 71
     5
 72
     1
  1
\A1;290
  7
ＭＳ ゴシック
 11
9.800541469491671E-17
 21
1.0
 31
0.0
 73
     1
 44
1.0
  0
POINT
  5
768A
330
7681
100
AcDbEntity
  8
Defpoints
 62
     0
100
AcDbPoint
 10
327.9607559737856
 20
1959.0360547489
 30
0.0
  0
POINT
  5
768B
330
7681
100
AcDbEntity
  8
Defpoints
 62
     0
100
AcDbPoint
 10
324.9435104055851
 20
2249.037474761035
 30
0.0
  0
POINT
  5
768C
330
7681
100
AcDbEntity
  8
Defpoints
 62
     0
100
AcDbPoint
 10
190.6760826122654
 20
2249.037474761035
 30
0.0
  0
ENDBLK
  5
7683
330
7681
100
AcDbEntity
  8
0
100
AcDbBlockEnd
  0
BLOCK
  5
7691
330
7690
100
AcDbEntity
  8
0
100
AcDbBlockBegin
  2
*D18
 70
     1
 10
0.0
 20
0.0
 30
0.0
  3
*D18
  1

  0
LINE
  5
7693
330
7690
100
AcDbEntity
  8
DIM
 62
     0
370
    -2
100
AcDbLine
 10
259.6628090261402
 20
2249.037474761035
 30
0.0
 11
190.6760826122654
 21
2249.037474761035
 31
0.0
  0
LINE
  5
7694
330
7690
100
AcDbEntity
  8
DIM
 62
     0
370
    -2
100
AcDbLine
 10
285.3142540408121
 20
2369.032045314803
 30
0.0
 11
190.6760826122654
 21
2369.032045314803
 31
0.0
  0
LINE
  5
7695
330
7690
100
AcDbEntity
  8
DIM
 62
     0
370
    -2
100
AcDbLine
 10
190.6760826122654
 20
2259.037474761035
 30
0.0
 11
190.6760826122654
 21
2359.032045314803
 31
0.0
  0
INSERT
  5
7696
330
7690
100
AcDbEntity
  8
DIM
 62
     0
370
    -2
100
AcDbBlockReference
  2
_DOT
 10
190.6760826122654
 20
2249.037474761035
 30
0.0
 41
10.0
 42
10.0
 43
10.0
 50
270.0
  0
INSERT
  5
7697
330
7690
100
AcDbEntity
  8
DIM
 62
     0
370
    -2
100
AcDbBlockReference
  2
_DOT
 10
190.6760826122654
 20
2369.032045314803
 30
0.0
 41
10.0
 42
10.0
 43
10.0
 50
90.0
  0
MTEXT
  5
7698
330
7690
100
AcDbEntity
  8
DIM
 62
     0
100
AcDbMText
 10
158.6760826122654
 20
2309.034760037919
 30
0.0
 40
24.0
 41
0.0
 46
0.0
 71
     5
 72
     1
  1
\A1;120
  7
ＭＳ ゴシック
 11
0.0
 21
1.0
 31
0.0
 73
     1
 44
1.0
  0
POINT
  5
7699
330
7690
100
AcDbEntity
  8
Defpoints
 62
     0
100
AcDbPoint
 10
289.6628090261402
 20
2249.037474761035
 30
0.0
  0
POINT
  5
769A
330
7690
100
AcDbEntity
  8
Defpoints
 62
     0
100
AcDbPoint
 10
315.3142540408121
 20
2369.032045314803
 30
0.0
  0
POINT
  5
769B
330
7690
100
AcDbEntity
  8
Defpoints
 62
     0
100
AcDbPoint
 10
190.6760826122654
 20
2369.032045314803
 30
0.0
  0
ENDBLK
  5
7692
330
7690
100
AcDbEntity
  8
0
100
AcDbBlockEnd
  0
BLOCK
  5
774B
330
774A
100
AcDbEntity
  8
0
100
AcDbBlockBegin
  2
*D19
 70
     1
 10
0.0
 20
0.0
 30
0.0
  3
*D19
  1

  0
LINE
  5
774D
330
774A
100
AcDbEntity
  8
DIM
 62
     0
370
    -2
100
AcDbLine
 10
1593.814241676722
 20
777.1003875011268
 30
0.0
 11
1623.814241676722
 21
777.1003875011268
 31
0.0
  0
LINE
  5
774E
330
774A
100
AcDbEntity
  8
DIM
 62
     0
370
    -2
100
AcDbLine
 10
1593.814241676722
 20
882.1003875011269
 30
0.0
 11
1623.814241676722
 21
882.1003875011269
 31
0.0
  0
LINE
  5
774F
330
774A
100
AcDbEntity
  8
DIM
 62
     0
370
    -2
100
AcDbLine
 10
1623.814241676722
 20
882.1003875011269
 30
0.0
 11
1623.814241676722
 21
1087.132387501127
 31
0.0
  0
LINE
  5
7750
330
774A
100
AcDbEntity
  8
DIM
 62
     0
370
    -2
100
AcDbLine
 10
1623.814241676722
 20
787.1003875011268
 30
0.0
 11
1623.814241676722
 21
872.1003875011269
 31
0.0
  0
LINE
  5
7751
330
774A
100
AcDbEntity
  8
DIM
 62
     0
370
    -2
100
AcDbLine
 10
1623.814241676722
 20
872.1003875011269
 30
0.0
 11
1623.814241676722
 21
862.1003875011269
 31
0.0
  0
INSERT
  5
7752
330
774A
100
AcDbEntity
  8
DIM
 62
     0
370
    -2
100
AcDbBlockReference
  2
_DOT
 10
1623.814241676722
 20
777.1003875011268
 30
0.0
 41
10.0
 42
10.0
 43
10.0
 50
270.0
  0
INSERT
  5
7753
330
774A
100
AcDbEntity
  8
DIM
 62
     0
370
    -2
100
AcDbBlockReference
  2
_DOT
 10
1623.814241676722
 20
882.1003875011269
 30
0.0
 41
10.0
 42
10.0
 43
10.0
 50
90.0
  0
MTEXT
  5
7754
330
774A
100
AcDbEntity
  8
DIM
 62
     0
100
AcDbMText
 10
1589.690241676722
 20
1002.116387501127
 30
0.0
 40
24.0
 41
0.0
 46
0.0
 71
     5
 72
     1
  1
\A1;105(深さ)
  7
ＭＳ ゴシック
 11
0.0
 21
1.0
 31
0.0
 73
     1
 44
1.0
  0
POINT
  5
7755
330
774A
100
AcDbEntity
  8
Defpoints
 62
     0
100
AcDbPoint
 10
1623.814241676722
 20
777.1003875011268
 30
0.0
  0
POINT
  5
7756
330
774A
100
AcDbEntity
  8
Defpoints
 62
     0
100
AcDbPoint
 10
1623.814241676722
 20
882.1003875011269
 30
0.0
  0
POINT
  5
7757
330
774A
100
AcDbEntity
  8
Defpoints
 62
     0
100
AcDbPoint
 10
1623.814241676722
 20
882.1003875011269
 30
0.0
  0
ENDBLK
  5
774C
330
774A
100
AcDbEntity
  8
0
100
AcDbBlockEnd
  0
BLOCK
  5
7794
330
7793
100
AcDbEntity
  8
0
100
AcDbBlockBegin
  2
*D20
 70
     1
 10
0.0
 20
0.0
 30
0.0
  3
*D20
  1

  0
LINE
  5
7796
330
7793
100
AcDbEntity
  8
DIM
 62
     0
370
    -2
100
AcDbLine
 10
1189.963568051321
 20
2359.032045314803
 30
0.0
 11
1089.77281012441
 21
2359.032045314803
 31
0.0
  0
LINE
  5
7797
330
7793
100
AcDbEntity
  8
DIM
 62
     0
370
    -2
100
AcDbLine
 10
1132.874571090835
 20
2098.032045314803
 30
0.0
 11
1089.77281012441
 21
2098.032045314803
 31
0.0
  0
LINE
  5
7798
330
7793
100
AcDbEntity
  8
DIM
 62
     0
370
    -2
100
AcDbLine
 10
1089.77281012441
 20
2349.032045314803
 30
0.0
 11
1089.77281012441
 21
2108.032045314803
 31
0.0
  0
INSERT
  5
7799
330
7793
100
AcDbEntity
  8
DIM
 62
     0
370
    -2
100
AcDbBlockReference
  2
_DOT
 10
1089.77281012441
 20
2359.032045314803
 30
0.0
 41
10.0
 42
10.0
 43
10.0
 50
90.0
  0
INSERT
  5
779A
330
7793
100
AcDbEntity
  8
DIM
 62
     0
370
    -2
100
AcDbBlockReference
  2
_DOT
 10
1089.77281012441
 20
2098.032045314803
 30
0.0
 41
10.0
 42
10.0
 43
10.0
 50
270.0
  0
MTEXT
  5
779B
330
7793
100
AcDbEntity
  8
DIM
 62
     0
100
AcDbMText
 10
1057.77281012441
 20
2228.532045314803
 30
0.0
 40
24.0
 41
0.0
 46
0.0
 71
     5
 72
     1
  1
\A1;261
  7
ＭＳ ゴシック
 11
0.0
 21
1.0
 31
0.0
 73
     1
 44
1.0
  0
POINT
  5
779C
330
7793
100
AcDbEntity
  8
Defpoints
 62
     0
100
AcDbPoint
 10
1219.963568051321
 20
2359.032045314803
 30
0.0
  0
POINT
  5
779D
330
7793
100
AcDbEntity
  8
Defpoints
 62
     0
100
AcDbPoint
 10
1162.874571090835
 20
2098.032045314803
 30
0.0
  0
POINT
  5
779E
330
7793
100
AcDbEntity
  8
Defpoints
 62
     0
100
AcDbPoint
 10
1089.77281012441
 20
2098.032045314803
 30
0.0
  0
ENDBLK
  5
7795
330
7793
100
AcDbEntity
  8
0
100
AcDbBlockEnd
  0
BLOCK
  5
77B1
330
77B0
100
AcDbEntity
  8
0
100
AcDbBlockBegin
  2
*D21
 70
     1
 10
0.0
 20
0.0
 30
0.0
  3
*D21
  1

  0
LINE
  5
77B3
330
77B0
100
AcDbEntity
  8
DIM
 62
     0
370
    -2
100
AcDbLine
 10
1263.703316442537
 20
2380.687231133648
 30
0.0
 11
1263.703316442537
 21
2480.308111380076
 31
0.0
  0
LINE
  5
77B4
330
77B0
100
AcDbEntity
  8
DIM
 62
     0
370
    -2
100
AcDbLine
 10
1780.262239112994
 20
2380.687231133648
 30
0.0
 11
1780.262239112994
 21
2480.308111380076
 31
0.0
  0
LINE
  5
77B5
330
77B0
100
AcDbEntity
  8
DIM
 62
     0
370
    -2
100
AcDbLine
 10
1273.703316442537
 20
2480.308111380076
 30
0.0
 11
1770.262239112994
 21
2480.308111380076
 31
0.0
  0
INSERT
  5
77B6
330
77B0
100
AcDbEntity
  8
DIM
 62
     0
370
    -2
100
AcDbBlockReference
  2
_DOT
 10
1263.703316442537
 20
2480.308111380076
 30
0.0
 41
10.0
 42
10.0
 43
10.0
 50
180.0
  0
INSERT
  5
77B7
330
77B0
100
AcDbEntity
  8
DIM
 62
     0
370
    -2
100
AcDbBlockReference
  2
_DOT
 10
1780.262239112994
 20
2480.308111380076
 30
0.0
 41
10.0
 42
10.0
 43
10.0
  0
MTEXT
  5
77B8
330
77B0
100
AcDbEntity
  8
DIM
 62
     0
100
AcDbMText
 10
1521.982777777765
 20
2512.308111380076
 30
0.0
 40
24.0
 41
0.0
 46
0.0
 71
     5
 72
     1
  1
\A1;518
  7
ＭＳ ゴシック
 73
     1
 44
1.0
  0
POINT
  5
77B9
330
77B0
100
AcDbEntity
  8
Defpoints
 62
     0
100
AcDbPoint
 10
1263.703316442537
 20
2350.687231133648
 30
0.0
  0
POINT
  5
77BA
330
77B0
100
AcDbEntity
  8
Defpoints
 62
     0
100
AcDbPoint
 10
1780.262239112994
 20
2350.687231133648
 30
0.0
  0
POINT
  5
77BB
330
77B0
100
AcDbEntity
  8
Defpoints
 62
     0
100
AcDbPoint
 10
1780.262239112994
 20
2480.308111380076
 30
0.0
  0
ENDBLK
  5
77B2
330
77B0
100
AcDbEntity
  8
0
100
AcDbBlockEnd
  0
BLOCK
  5
77D1
330
77D0
100
AcDbEntity
  8
0
100
AcDbBlockBegin
  2
*D22
 70
     1
 10
0.0
 20
0.0
 30
0.0
  3
*D22
  1

  0
LINE
  5
77D3
330
77D0
100
AcDbEntity
  8
DIM
 62
     0
370
    -2
100
AcDbLine
 10
1911.090984464696
 20
1644.577259741322
 30
0.0
 11
1963.861845619665
 21
1644.577259741322
 31
0.0
  0
LINE
  5
77D4
330
77D0
100
AcDbEntity
  8
DIM
 62
     0
370
    -2
100
AcDbLine
 10
1803.171925697489
 20
1574.524137489009
 30
0.0
 11
1963.861845619665
 21
1574.524137489009
 31
0.0
  0
LINE
  5
77D5
330
77D0
100
AcDbEntity
  8
DIM
 62
     0
370
    -2
100
AcDbLine
 10
1963.861845619665
 20
1634.577259741322
 30
0.0
 11
1963.861845619665
 21
1584.524137489009
 31
0.0
  0
INSERT
  5
77D6
330
77D0
100
AcDbEntity
  8
DIM
 62
     0
370
    -2
100
AcDbBlockReference
  2
_DOT
 10
1963.861845619665
 20
1644.577259741322
 30
0.0
 41
10.0
 42
10.0
 43
10.0
 50
90.0
  0
INSERT
  5
77D7
330
77D0
100
AcDbEntity
  8
DIM
 62
     0
370
    -2
100
AcDbBlockReference
  2
_DOT
 10
1963.861845619665
 20
1574.524137489009
 30
0.0
 41
10.0
 42
10.0
 43
10.0
 50
270.0
  0
MTEXT
  5
77D8
330
77D0
100
AcDbEntity
  8
DIM
 62
     0
100
AcDbMText
 10
1931.861845619665
 20
1609.550698615165
 30
0.0
 40
24.0
 41
0.0
 46
0.0
 71
     5
 72
     1
  1
\A1;65
  7
ＭＳ ゴシック
 11
0.0
 21
1.0
 31
0.0
 73
     1
 44
1.0
  0
POINT
  5
77D9
330
77D0
100
AcDbEntity
  8
Defpoints
 62
     0
100
AcDbPoint
 10
1881.090984464696
 20
1644.577259741322
 30
0.0
  0
POINT
  5
77DA
330
77D0
100
AcDbEntity
  8
Defpoints
 62
     0
100
AcDbPoint
 10
1773.171925697489
 20
1574.524137489009
 30
0.0
  0
POINT
  5
77DB
330
77D0
100
AcDbEntity
  8
Defpoints
 62
     0
100
AcDbPoint
 10
1963.861845619665
 20
1574.524137489009
 30
0.0
  0
ENDBLK
  5
77D2
330
77D0
100
AcDbEntity
  8
0
100
AcDbBlockEnd
  0
BLOCK
  5
783B
330
783A
100
AcDbEntity
  8
0
100
AcDbBlockBegin
  2
*D23
 70
     1
 10
0.0
 20
0.0
 30
0.0
  3
*D23
  1

  0
LINE
  5
783D
330
783A
100
AcDbEntity
  8
DIM
 62
     0
370
    -2
100
AcDbLine
 10
564.662819129916
 20
2355.158799472084
 30
0.0
 11
564.662819129916
 21
2427.172536099293
 31
0.0
  0
LINE
  5
783E
330
783A
100
AcDbEntity
  8
DIM
 62
     0
370
    -2
100
AcDbLine
 10
464.662819129916
 20
2355.158799472084
 30
0.0
 11
464.662819129916
 21
2427.172536099293
 31
0.0
  0
LINE
  5
783F
330
783A
100
AcDbEntity
  8
DIM
 62
     0
370
    -2
100
AcDbLine
 10
554.662819129916
 20
2427.172536099293
 30
0.0
 11
474.662819129916
 21
2427.172536099293
 31
0.0
  0
INSERT
  5
7840
330
783A
100
AcDbEntity
  8
DIM
 62
     0
370
    -2
100
AcDbBlockReference
  2
_DOT
 10
564.662819129916
 20
2427.172536099293
 30
0.0
 41
10.0
 42
10.0
 43
10.0
  0
INSERT
  5
7841
330
783A
100
AcDbEntity
  8
DIM
 62
     0
370
    -2
100
AcDbBlockReference
  2
_DOT
 10
464.662819129916
 20
2427.172536099293
 30
0.0
 41
10.0
 42
10.0
 43
10.0
 50
180.0
  0
MTEXT
  5
7842
330
783A
100
AcDbEntity
  8
DIM
 62
     0
100
AcDbMText
 10
514.662819129916
 20
2459.172536099293
 30
0.0
 40
24.0
 41
0.0
 46
0.0
 71
     5
 72
     1
  1
\A1;100
  7
ＭＳ ゴシック
 73
     1
 44
1.0
  0
POINT
  5
7843
330
783A
100
AcDbEntity
  8
Defpoints
 62
     0
100
AcDbPoint
 10
564.662819129916
 20
2325.158799472084
 30
0.0
  0
POINT
  5
7844
330
783A
100
AcDbEntity
  8
Defpoints
 62
     0
100
AcDbPoint
 10
464.662819129916
 20
2325.158799472084
 30
0.0
  0
POINT
  5
7845
330
783A
100
AcDbEntity
  8
Defpoints
 62
     0
100
AcDbPoint
 10
464.662819129916
 20
2427.172536099293
 30
0.0
  0
ENDBLK
  5
783C
330
783A
100
AcDbEntity
  8
0
100
AcDbBlockEnd
  0
BLOCK
  5
784A
330
7849
100
AcDbEntity
  8
0
100
AcDbBlockBegin
  2
*D24
 70
     1
 10
0.0
 20
0.0
 30
0.0
  3
*D24
  1

  0
LINE
  5
784C
330
7849
100
AcDbEntity
  8
DIM
 62
     0
370
    -2
100
AcDbLine
 10
564.662819129916
 20
2355.158799472084
 30
0.0
 11
564.662819129916
 21
2427.172536099293
 31
0.0
  0
LINE
  5
784D
330
7849
100
AcDbEntity
  8
DIM
 62
     0
370
    -2
100
AcDbLine
 10
664.662819129916
 20
2355.158799472084
 30
0.0
 11
664.662819129916
 21
2427.172536099293
 31
0.0
  0
LINE
  5
784E
330
7849
100
AcDbEntity
  8
DIM
 62
     0
370
    -2
100
AcDbLine
 10
574.662819129916
 20
2427.172536099293
 30
0.0
 11
654.662819129916
 21
2427.172536099293
 31
0.0
  0
INSERT
  5
784F
330
7849
100
AcDbEntity
  8
DIM
 62
     0
370
    -2
100
AcDbBlockReference
  2
_DOT
 10
564.662819129916
 20
2427.172536099293
 30
0.0
 41
10.0
 42
10.0
 43
10.0
 50
180.0
  0
INSERT
  5
7850
330
7849
100
AcDbEntity
  8
DIM
 62
     0
370
    -2
100
AcDbBlockReference
  2
_DOT
 10
664.662819129916
 20
2427.172536099293
 30
0.0
 41
10.0
 42
10.0
 43
10.0
  0
MTEXT
  5
7851
330
7849
100
AcDbEntity
  8
DIM
 62
     0
100
AcDbMText
 10
614.662819129916
 20
2459.172536099293
 30
0.0
 40
24.0
 41
0.0
 46
0.0
 71
     5
 72
     1
  1
\A1;100
  7
ＭＳ ゴシック
 73
     1
 44
1.0
  0
POINT
  5
7852
330
7849
100
AcDbEntity
  8
Defpoints
 62
     0
100
AcDbPoint
 10
564.662819129916
 20
2325.158799472084
 30
0.0
  0
POINT
  5
7853
330
7849
100
AcDbEntity
  8
Defpoints
 62
     0
100
AcDbPoint
 10
664.662819129916
 20
2325.158799472084
 30
0.0
  0
POINT
  5
7854
330
7849
100
AcDbEntity
  8
Defpoints
 62
     0
100
AcDbPoint
 10
664.662819129916
 20
2427.172536099293
 30
0.0
  0
ENDBLK
  5
784B
330
7849
100
AcDbEntity
  8
0
100
AcDbBlockEnd
  0
BLOCK
  5
789F
330
789E
100
AcDbEntity
  8
0
100
AcDbBlockBegin
  2
*D25
 70
     1
 10
0.0
 20
0.0
 30
0.0
  3
*D25
  1

  0
LINE
  5
78A1
330
789E
100
AcDbEntity
  8
DIM
 62
     0
370
    -2
100
AcDbLine
 10
1251.703316442537
 20
2359.032045314803
 30
0.0
 11
1089.77281012441
 21
2359.032045314803
 31
0.0
  0
LINE
  5
78A2
330
789E
100
AcDbEntity
  8
DIM
 62
     0
370
    -2
100
AcDbLine
 10
1231.60644444983
 20
2369.032045314802
 30
0.0
 11
1089.77281012441
 21
2369.032045314802
 31
0.0
  0
LINE
  5
78A3
330
789E
100
AcDbEntity
  8
DIM
 62
     0
370
    -2
100
AcDbLine
 10
1089.77281012441
 20
2369.032045314802
 30
0.0
 11
1089.77281012441
 21
2455.960045314802
 31
0.0
  0
LINE
  5
78A4
330
789E
100
AcDbEntity
  8
DIM
 62
     0
370
    -2
100
AcDbLine
 10
1089.77281012441
 20
2349.032045314803
 30
0.0
 11
1089.77281012441
 21
2339.032045314803
 31
0.0
  0
LINE
  5
78A5
330
789E
100
AcDbEntity
  8
DIM
 62
     0
370
    -2
100
AcDbLine
 10
1089.77281012441
 20
2379.032045314802
 30
0.0
 11
1089.77281012441
 21
2389.032045314802
 31
0.0
  0
INSERT
  5
78A6
330
789E
100
AcDbEntity
  8
DIM
 62
     0
370
    -2
100
AcDbBlockReference
  2
_DOT
 10
1089.77281012441
 20
2359.032045314803
 30
0.0
 41
10.0
 42
10.0
 43
10.0
 50
90.0
  0
INSERT
  5
78A7
330
789E
100
AcDbEntity
  8
DIM
 62
     0
370
    -2
100
AcDbBlockReference
  2
_DOT
 10
1089.77281012441
 20
2369.032045314802
 30
0.0
 41
10.0
 42
10.0
 43
10.0
 50
270.0
  0
MTEXT
  5
78A8
330
789E
100
AcDbEntity
  8
DIM
 62
     0
100
AcDbMText
 10
1057.77281012441
 20
2422.496045314802
 30
0.0
 40
24.0
 41
0.0
 46
0.0
 71
     5
 72
     1
  1
\A1;10
  7
ＭＳ ゴシック
 11
0.0
 21
1.0
 31
0.0
 73
     1
 44
1.0
  0
POINT
  5
78A9
330
789E
100
AcDbEntity
  8
Defpoints
 62
     0
100
AcDbPoint
 10
1281.703316442537
 20
2359.032045314803
 30
0.0
  0
POINT
  5
78AA
330
789E
100
AcDbEntity
  8
Defpoints
 62
     0
100
AcDbPoint
 10
1261.60644444983
 20
2369.032045314802
 30
0.0
  0
POINT
  5
78AB
330
789E
100
AcDbEntity
  8
Defpoints
 62
     0
100
AcDbPoint
 10
1089.77281012441
 20
2369.032045314802
 30
0.0
  0
ENDBLK
  5
78A0
330
789E
100
AcDbEntity
  8
0
100
AcDbBlockEnd
  0
BLOCK
  5
7A74
330
7A73
100
AcDbEntity
  8
0
100
AcDbBlockBegin
  2
*D26
 70
     1
 10
0.0
 20
0.0
 30
0.0
  3
*D26
  1

  0
LINE
  5
7A76
330
7A73
100
AcDbEntity
  8
DIM
 62
     0
370
    -2
100
AcDbLine
 10
2620.871188188406
 20
2103.890610622119
 30
0.0
 11
2620.871188188406
 21
2307.110966971425
 31
0.0
  0
LINE
  5
7A77
330
7A73
100
AcDbEntity
  8
DIM
 62
     0
370
    -2
100
AcDbLine
 10
3155.055106304748
 20
2100.107021156676
 30
0.0
 11
3155.055106304748
 21
2307.110966971425
 31
0.0
  0
LINE
  5
7A78
330
7A73
100
AcDbEntity
  8
DIM
 62
     0
370
    -2
100
AcDbLine
 10
2630.871188188406
 20
2307.110966971425
 30
0.0
 11
3145.055106304748
 21
2307.110966971425
 31
0.0
  0
INSERT
  5
7A79
330
7A73
100
AcDbEntity
  8
DIM
 62
     0
370
    -2
100
AcDbBlockReference
  2
_DOT
 10
2620.871188188406
 20
2307.110966971425
 30
0.0
 41
10.0
 42
10.0
 43
10.0
 50
180.0
  0
INSERT
  5
7A7A
330
7A73
100
AcDbEntity
  8
DIM
 62
     0
370
    -2
100
AcDbBlockReference
  2
_DOT
 10
3155.055106304748
 20
2307.110966971425
 30
0.0
 41
10.0
 42
10.0
 43
10.0
  0
MTEXT
  5
7A7B
330
7A73
100
AcDbEntity
  8
DIM
 62
     0
100
AcDbMText
 10
2887.963147246577
 20
2339.110966971425
 30
0.0
 40
24.0
 41
0.0
 46
0.0
 71
     5
 72
     1
  1
\A1;534
  7
ＭＳ ゴシック
 73
     1
 44
1.0
  0
POINT
  5
7A7C
330
7A73
100
AcDbEntity
  8
Defpoints
 62
     0
100
AcDbPoint
 10
2620.871188188406
 20
2073.890610622119
 30
0.0
  0
POINT
  5
7A7D
330
7A73
100
AcDbEntity
  8
Defpoints
 62
     0
100
AcDbPoint
 10
3155.055106304748
 20
2070.107021156676
 30
0.0
  0
POINT
  5
7A7E
330
7A73
100
AcDbEntity
  8
Defpoints
 62
     0
100
AcDbPoint
 10
3155.055106304748
 20
2307.110966971425
 30
0.0
  0
ENDBLK
  5
7A75
330
7A73
100
AcDbEntity
  8
0
100
AcDbBlockEnd
  0
BLOCK
  5
7A83
330
7A82
100
AcDbEntity
  8
0
100
AcDbBlockBegin
  2
*D27
 70
     1
 10
0.0
 20
0.0
 30
0.0
  3
*D27
  1

  0
LINE
  5
7A85
330
7A82
100
AcDbEntity
  8
DIM
 62
     0
370
    -2
100
AcDbLine
 10
2917.939492642473
 20
2122.010212644332
 30
0.0
 11
3234.480548025589
 21
2122.010212644332
 31
0.0
  0
LINE
  5
7A86
330
7A82
100
AcDbEntity
  8
DIM
 62
     0
370
    -2
100
AcDbLine
 10
2917.939492642473
 20
1760.568910067241
 30
0.0
 11
3234.480548025589
 21
1760.568910067241
 31
0.0
  0
LINE
  5
7A87
330
7A82
100
AcDbEntity
  8
DIM
 62
     0
370
    -2
100
AcDbLine
 10
3234.480548025589
 20
2112.010212644332
 30
0.0
 11
3234.480548025589
 21
1770.568910067241
 31
0.0
  0
INSERT
  5
7A88
330
7A82
100
AcDbEntity
  8
DIM
 62
     0
370
    -2
100
AcDbBlockReference
  2
_DOT
 10
3234.480548025589
 20
2122.010212644332
 30
0.0
 41
10.0
 42
10.0
 43
10.0
 50
90.0
  0
INSERT
  5
7A89
330
7A82
100
AcDbEntity
  8
DIM
 62
     0
370
    -2
100
AcDbBlockReference
  2
_DOT
 10
3234.480548025589
 20
1760.568910067241
 30
0.0
 41
10.0
 42
10.0
 43
10.0
 50
270.0
  0
MTEXT
  5
7A8A
330
7A82
100
AcDbEntity
  8
DIM
 62
     0
100
AcDbMText
 10
3202.480548025589
 20
1941.289561355786
 30
0.0
 40
24.0
 41
0.0
 46
0.0
 71
     5
 72
     1
  1
\A1;361
  7
ＭＳ ゴシック
 11
0.0
 21
1.0
 31
0.0
 73
     1
 44
1.0
  0
POINT
  5
7A8B
330
7A82
100
AcDbEntity
  8
Defpoints
 62
     0
100
AcDbPoint
 10
2887.939492642473
 20
2122.010212644332
 30
0.0
  0
POINT
  5
7A8C
330
7A82
100
AcDbEntity
  8
Defpoints
 62
     0
100
AcDbPoint
 10
2887.939492642473
 20
1760.568910067241
 30
0.0
  0
POINT
  5
7A8D
330
7A82
100
AcDbEntity
  8
Defpoints
 62
     0
100
AcDbPoint
 10
3234.480548025589
 20
1760.568910067241
 30
0.0
  0
ENDBLK
  5
7A84
330
7A82
100
AcDbEntity
  8
0
100
AcDbBlockEnd
  0
BLOCK
  5
7A90
330
7A8F
100
AcDbEntity
  8
0
100
AcDbBlockBegin
  2
*D28
 70
     1
 10
0.0
 20
0.0
 30
0.0
  3
*D28
  1

  0
LINE
  5
7A92
330
7A8F
100
AcDbEntity
  8
DIM
 62
     0
370
    -2
100
AcDbLine
 10
335.1794546050269
 20
2318.763177123597
 30
0.0
 11
335.1794546050269
 21
2464.59265313396
 31
0.0
  0
LINE
  5
7A93
330
7A8F
100
AcDbEntity
  8
DIM
 62
     0
370
    -2
100
AcDbLine
 10
880.1794546050269
 20
2318.763177123596
 30
0.0
 11
880.1794546050269
 21
2464.59265313396
 31
0.0
  0
LINE
  5
7A94
330
7A8F
100
AcDbEntity
  8
DIM
 62
     0
370
    -2
100
AcDbLine
 10
345.1794546050269
 20
2464.59265313396
 30
0.0
 11
870.1794546050269
 21
2464.59265313396
 31
0.0
  0
INSERT
  5
7A95
330
7A8F
100
AcDbEntity
  8
DIM
 62
     0
370
    -2
100
AcDbBlockReference
  2
_DOT
 10
335.1794546050269
 20
2464.59265313396
 30
0.0
 41
10.0
 42
10.0
 43
10.0
 50
180.0
  0
INSERT
  5
7A96
330
7A8F
100
AcDbEntity
  8
DIM
 62
     0
370
    -2
100
AcDbBlockReference
  2
_DOT
 10
880.1794546050269
 20
2464.59265313396
 30
0.0
 41
10.0
 42
10.0
 43
10.0
  0
MTEXT
  5
7A97
330
7A8F
100
AcDbEntity
  8
DIM
 62
     0
100
AcDbMText
 10
607.6794546050269
 20
2496.59265313396
 30
0.0
 40
24.0
 41
0.0
 46
0.0
 71
     5
 72
     1
  1
\A1;545
  7
ＭＳ ゴシック
 73
     1
 44
1.0
  0
POINT
  5
7A98
330
7A8F
100
AcDbEntity
  8
Defpoints
 62
     0
100
AcDbPoint
 10
335.1794546050269
 20
2288.763177123597
 30
0.0
  0
POINT
  5
7A99
330
7A8F
100
AcDbEntity
  8
Defpoints
 62
     0
100
AcDbPoint
 10
880.1794546050269
 20
2288.763177123596
 30
0.0
  0
POINT
  5
7A9A
330
7A8F
100
AcDbEntity
  8
Defpoints
 62
     0
100
AcDbPoint
 10
880.1794546050269
 20
2464.59265313396
 30
0.0
  0
ENDBLK
  5
7A91
330
7A8F
100
AcDbEntity
  8
0
100
AcDbBlockEnd
  0
BLOCK
  5
7AA0
330
7A9F
100
AcDbEntity
  8
0
100
AcDbBlockBegin
  2
*D29
 70
     1
 10
0.0
 20
0.0
 30
0.0
  3
*D29
  1

  0
LINE
  5
7AA2
330
7A9F
100
AcDbEntity
  8
DIM
 62
     0
370
    -2
100
AcDbLine
 10
2955.433155827545
 20
1998.951401911208
 30
0.0
 11
3325.586023815374
 21
1998.951401911208
 31
0.0
  0
LINE
  5
7AA3
330
7A9F
100
AcDbEntity
  8
DIM
 62
     0
370
    -2
100
AcDbLine
 10
2917.939492642473
 20
2122.010212644332
 30
0.0
 11
3325.586023815374
 21
2122.010212644332
 31
0.0
  0
LINE
  5
7AA4
330
7A9F
100
AcDbEntity
  8
DIM
 62
     0
370
    -2
100
AcDbLine
 10
3325.586023815374
 20
2008.951401911208
 30
0.0
 11
3325.586023815374
 21
2112.010212644332
 31
0.0
  0
INSERT
  5
7AA5
330
7A9F
100
AcDbEntity
  8
DIM
 62
     0
370
    -2
100
AcDbBlockReference
  2
_DOT
 10
3325.586023815374
 20
1998.951401911208
 30
0.0
 41
10.0
 42
10.0
 43
10.0
 50
270.0
  0
INSERT
  5
7AA6
330
7A9F
100
AcDbEntity
  8
DIM
 62
     0
370
    -2
100
AcDbBlockReference
  2
_DOT
 10
3325.586023815374
 20
2122.010212644332
 30
0.0
 41
10.0
 42
10.0
 43
10.0
 50
90.0
  0
MTEXT
  5
7AA7
330
7A9F
100
AcDbEntity
  8
DIM
 62
     0
100
AcDbMText
 10
3293.586023815374
 20
2060.48080727777
 30
0.0
 40
24.0
 41
0.0
 46
0.0
 71
     5
 72
     1
  1
\A1;123
  7
ＭＳ ゴシック
 11
0.0
 21
1.0
 31
0.0
 73
     1
 44
1.0
  0
POINT
  5
7AA8
330
7A9F
100
AcDbEntity
  8
Defpoints
 62
     0
100
AcDbPoint
 10
2925.433155827545
 20
1998.951401911208
 30
0.0
  0
POINT
  5
7AA9
330
7A9F
100
AcDbEntity
  8
Defpoints
 62
     0
100
AcDbPoint
 10
2887.939492642473
 20
2122.010212644332
 30
0.0
  0
POINT
  5
7AAA
330
7A9F
100
AcDbEntity
  8
Defpoints
 62
     0
100
AcDbPoint
 10
3325.586023815374
 20
2122.010212644332
 30
0.0
  0
ENDBLK
  5
7AA1
330
7A9F
100
AcDbEntity
  8
0
100
AcDbBlockEnd
  0
BLOCK
  5
7AAF
330
7AAE
100
AcDbEntity
  8
0
100
AcDbBlockBegin
  2
*D30
 70
     1
 10
0.0
 20
0.0
 30
0.0
  3
*D30
  1

  0
LINE
  5
7AB1
330
7AAE
100
AcDbEntity
  8
DIM
 62
     0
370
    -2
100
AcDbLine
 10
343.9299777538779
 20
2023.27298327412
 30
0.0
 11
216.9971145599999
 21
2023.27298327412
 31
0.0
  0
LINE
  5
7AB2
330
7AAE
100
AcDbEntity
  8
DIM
 62
     0
370
    -2
100
AcDbLine
 10
345.8026390243426
 20
2333.15243197956
 30
0.0
 11
216.9971145599997
 21
2333.15243197956
 31
0.0
  0
LINE
  5
7AB3
330
7AAE
100
AcDbEntity
  8
DIM
 62
     0
370
    -2
100
AcDbLine
 10
216.9971145599999
 20
2033.27298327412
 30
0.0
 11
216.9971145599997
 21
2323.15243197956
 31
0.0
  0
INSERT
  5
7AB4
330
7AAE
100
AcDbEntity
  8
DIM
 62
     0
370
    -2
100
AcDbBlockReference
  2
_DOT
 10
216.9971145599999
 20
2023.27298327412
 30
0.0
 41
10.0
 42
10.0
 43
10.0
 50
270.0
  0
INSERT
  5
7AB5
330
7AAE
100
AcDbEntity
  8
DIM
 62
     0
370
    -2
100
AcDbBlockReference
  2
_DOT
 10
216.9971145599997
 20
2333.15243197956
 30
0.0
 41
10.0
 42
10.0
 43
10.0
 50
90.00000000000001
  0
MTEXT
  5
7AB6
330
7AAE
100
AcDbEntity
  8
DIM
 62
     0
100
AcDbMText
 10
184.9971145599998
 20
2178.21270762684
 30
0.0
 40
24.0
 41
0.0
 46
0.0
 71
     5
 72
     1
  1
\A1;310
  7
ＭＳ ゴシック
 11
-3.668744029220301E-16
 21
1.0
 31
0.0
 73
     1
 44
1.0
  0
POINT
  5
7AB7
330
7AAE
100
AcDbEntity
  8
Defpoints
 62
     0
100
AcDbPoint
 10
373.9299777538779
 20
2023.27298327412
 30
0.0
  0
POINT
  5
7AB8
330
7AAE
100
AcDbEntity
  8
Defpoints
 62
     0
100
AcDbPoint
 10
375.8026390243426
 20
2333.15243197956
 30
0.0
  0
POINT
  5
7AB9
330
7AAE
100
AcDbEntity
  8
Defpoints
 62
     0
100
AcDbPoint
 10
216.9971145599998
 20
2333.15243197956
 30
0.0
  0
ENDBLK
  5
7AB0
330
7AAE
100
AcDbEntity
  8
0
100
AcDbBlockEnd
  0
BLOCK
  5
7ABE
330
7ABD
100
AcDbEntity
  8
0
100
AcDbBlockBegin
  2
*D31
 70
     1
 10
0.0
 20
0.0
 30
0.0
  3
*D31
  1

  0
LINE
  5
7AC0
330
7ABD
100
AcDbEntity
  8
DIM
 62
     0
370
    -2
100
AcDbLine
 10
289.2261952341514
 20
2333.15243197956
 30
0.0
 11
282.3967996799997
 21
2333.15243197956
 31
0.0
  0
LINE
  5
7AC1
330
7ABD
100
AcDbEntity
  8
DIM
 62
     0
370
    -2
100
AcDbLine
 10
506.8279021195049
 20
2233.15243197956
 30
0.0
 11
282.3967996799998
 21
2233.15243197956
 31
0.0
  0
LINE
  5
7AC2
330
7ABD
100
AcDbEntity
  8
DIM
 62
     0
370
    -2
100
AcDbLine
 10
282.3967996799997
 20
2323.15243197956
 30
0.0
 11
282.3967996799998
 21
2243.15243197956
 31
0.0
  0
INSERT
  5
7AC3
330
7ABD
100
AcDbEntity
  8
DIM
 62
     0
370
    -2
100
AcDbBlockReference
  2
_DOT
 10
282.3967996799997
 20
2333.15243197956
 30
0.0
 41
10.0
 42
10.0
 43
10.0
 50
90.00000000000004
  0
INSERT
  5
7AC4
330
7ABD
100
AcDbEntity
  8
DIM
 62
     0
370
    -2
100
AcDbBlockReference
  2
_DOT
 10
282.3967996799998
 20
2233.15243197956
 30
0.0
 41
10.0
 42
10.0
 43
10.0
 50
270.0
  0
MTEXT
  5
7AC5
330
7ABD
100
AcDbEntity
  8
DIM
 62
     0
100
AcDbMText
 10
250.3967996799997
 20
2283.15243197956
 30
0.0
 40
24.0
 41
0.0
 46
0.0
 71
     5
 72
     1
  1
\A1;100
  7
ＭＳ ゴシック
 11
-5.684341886080802E-16
 21
1.0
 31
0.0
 73
     1
 44
1.0
  0
POINT
  5
7AC6
330
7ABD
100
AcDbEntity
  8
Defpoints
 62
     0
100
AcDbPoint
 10
319.2261952341514
 20
2333.15243197956
 30
0.0
  0
POINT
  5
7AC7
330
7ABD
100
AcDbEntity
  8
Defpoints
 62
     0
100
AcDbPoint
 10
536.8279021195049
 20
2233.15243197956
 30
0.0
  0
POINT
  5
7AC8
330
7ABD
100
AcDbEntity
  8
Defpoints
 62
     0
100
AcDbPoint
 10
282.3967996799998
 20
2233.15243197956
 30
0.0
  0
ENDBLK
  5
7ABF
330
7ABD
100
AcDbEntity
  8
0
100
AcDbBlockEnd
  0
BLOCK
  5
7ACB
330
7ACA
100
AcDbEntity
  8
0
100
AcDbBlockBegin
  2
*D32
 70
     1
 10
0.0
 20
0.0
 30
0.0
  3
*D32
  1

  0
LINE
  5
7ACD
330
7ACA
100
AcDbEntity
  8
DIM
 62
     0
370
    -2
100
AcDbLine
 10
863.9402222185072
 20
2356.248352113704
 30
0.0
 11
993.0857975900285
 21
2356.248352113704
 31
0.0
  0
LINE
  5
7ACE
330
7ACA
100
AcDbEntity
  8
DIM
 62
     0
370
    -2
100
AcDbLine
 10
863.9402222185073
 20
2001.248352113704
 30
0.0
 11
993.0857975900285
 21
2001.248352113704
 31
0.0
  0
LINE
  5
7ACF
330
7ACA
100
AcDbEntity
  8
DIM
 62
     0
370
    -2
100
AcDbLine
 10
993.0857975900285
 20
2346.248352113704
 30
0.0
 11
993.0857975900285
 21
2011.248352113704
 31
0.0
  0
INSERT
  5
7AD0
330
7ACA
100
AcDbEntity
  8
DIM
 62
     0
370
    -2
100
AcDbBlockReference
  2
_DOT
 10
993.0857975900285
 20
2356.248352113704
 30
0.0
 41
10.0
 42
10.0
 43
10.0
 50
90.0
  0
INSERT
  5
7AD1
330
7ACA
100
AcDbEntity
  8
DIM
 62
     0
370
    -2
100
AcDbBlockReference
  2
_DOT
 10
993.0857975900285
 20
2001.248352113704
 30
0.0
 41
10.0
 42
10.0
 43
10.0
 50
270.0
  0
MTEXT
  5
7AD2
330
7ACA
100
AcDbEntity
  8
DIM
 62
     0
100
AcDbMText
 10
961.0857975900285
 20
2178.748352113704
 30
0.0
 40
24.0
 41
0.0
 46
0.0
 71
     5
 72
     1
  1
\A1;355
  7
ＭＳ ゴシック
 11
0.0
 21
1.0
 31
0.0
 73
     1
 44
1.0
  0
POINT
  5
7AD3
330
7ACA
100
AcDbEntity
  8
Defpoints
 62
     0
100
AcDbPoint
 10
833.9402222185072
 20
2356.248352113704
 30
0.0
  0
POINT
  5
7AD4
330
7ACA
100
AcDbEntity
  8
Defpoints
 62
     0
100
AcDbPoint
 10
833.9402222185073
 20
2001.248352113704
 30
0.0
  0
POINT
  5
7AD5
330
7ACA
100
AcDbEntity
  8
Defpoints
 62
     0
100
AcDbPoint
 10
993.0857975900285
 20
2001.248352113704
 30
0.0
  0
ENDBLK
  5
7ACC
330
7ACA
100
AcDbEntity
  8
0
100
AcDbBlockEnd
  0
BLOCK
  5
7AD8
330
7AD7
100
AcDbEntity
  8
0
100
AcDbBlockBegin
  2
*D33
 70
     1
 10
0.0
 20
0.0
 30
0.0
  3
*D33
  1

  0
LINE
  5
7ADA
330
7AD7
100
AcDbEntity
  8
DIM
 62
     0
370
    -2
100
AcDbLine
 10
1801.586712917764
 20
1282.878266972043
 30
0.0
 11
1801.586712917764
 21
1092.22074331086
 31
0.0
  0
LINE
  5
7ADB
330
7AD7
100
AcDbEntity
  8
DIM
 62
     0
370
    -2
100
AcDbLine
 10
1678.586712917764
 20
1156.191391406106
 30
0.0
 11
1678.586712917764
 21
1092.22074331086
 31
0.0
  0
LINE
  5
7ADC
330
7AD7
100
AcDbEntity
  8
DIM
 62
     0
370
    -2
100
AcDbLine
 10
1791.586712917764
 20
1092.22074331086
 30
0.0
 11
1688.586712917764
 21
1092.22074331086
 31
0.0
  0
INSERT
  5
7ADD
330
7AD7
100
AcDbEntity
  8
DIM
 62
     0
370
    -2
100
AcDbBlockReference
  2
_DOT
 10
1801.586712917764
 20
1092.22074331086
 30
0.0
 41
10.0
 42
10.0
 43
10.0
  0
INSERT
  5
7ADE
330
7AD7
100
AcDbEntity
  8
DIM
 62
     0
370
    -2
100
AcDbBlockReference
  2
_DOT
 10
1678.586712917764
 20
1092.22074331086
 30
0.0
 41
10.0
 42
10.0
 43
10.0
 50
180.0
  0
MTEXT
  5
7ADF
330
7AD7
100
AcDbEntity
  8
DIM
 62
     0
100
AcDbMText
 10
1740.086712917764
 20
1124.22074331086
 30
0.0
 40
24.0
 41
0.0
 46
0.0
 71
     5
 72
     1
  1
\A1;123
  7
ＭＳ ゴシック
 73
     1
 44
1.0
  0
POINT
  5
7AE0
330
7AD7
100
AcDbEntity
  8
Defpoints
 62
     0
100
AcDbPoint
 10
1801.586712917764
 20
1312.878266972043
 30
0.0
  0
POINT
  5
7AE1
330
7AD7
100
AcDbEntity
  8
Defpoints
 62
     0
100
AcDbPoint
 10
1678.586712917764
 20
1186.191391406106
 30
0.0
  0
POINT
  5
7AE2
330
7AD7
100
AcDbEntity
  8
Defpoints
 62
     0
100
AcDbPoint
 10
1678.586712917764
 20
1092.22074331086
 30
0.0
  0
ENDBLK
  5
7AD9
330
7AD7
100
AcDbEntity
  8
0
100
AcDbBlockEnd
  0
BLOCK
  5
7AE7
330
7AE6
100
AcDbEntity
  8
0
100
AcDbBlockBegin
  2
*D34
 70
     1
 10
0.0
 20
0.0
 30
0.0
  3
*D34
  1

  0
LINE
  5
7AE9
330
7AE6
100
AcDbEntity
  8
DIM
 62
     0
370
    -2
100
AcDbLine
 10
1708.154625987648
 20
1206.181292316412
 30
0.0
 11
1680.900736031392
 21
1206.181292316412
 31
0.0
  0
LINE
  5
7AEA
330
7AE6
100
AcDbEntity
  8
DIM
 62
     0
370
    -2
100
AcDbLine
 10
1708.154625987648
 20
1320.847710970498
 30
0.0
 11
1680.900736031392
 21
1320.847710970498
 31
0.0
  0
LINE
  5
7AEB
330
7AE6
100
AcDbEntity
  8
DIM
 62
     0
370
    -2
100
AcDbLine
 10
1680.900736031392
 20
1320.847710970498
 30
0.0
 11
1680.900736031392
 21
1528.063710970498
 31
0.0
  0
LINE
  5
7AEC
330
7AE6
100
AcDbEntity
  8
DIM
 62
     0
370
    -2
100
AcDbLine
 10
1680.900736031392
 20
1216.181292316412
 30
0.0
 11
1680.900736031392
 21
1310.847710970498
 31
0.0
  0
LINE
  5
7AED
330
7AE6
100
AcDbEntity
  8
DIM
 62
     0
370
    -2
100
AcDbLine
 10
1680.900736031392
 20
1310.847710970498
 30
0.0
 11
1680.900736031392
 21
1300.847710970498
 31
0.0
  0
INSERT
  5
7AEE
330
7AE6
100
AcDbEntity
  8
DIM
 62
     0
370
    -2
100
AcDbBlockReference
  2
_DOT
 10
1680.900736031392
 20
1206.181292316412
 30
0.0
 41
10.0
 42
10.0
 43
10.0
 50
270.0
  0
INSERT
  5
7AEF
330
7AE6
100
AcDbEntity
  8
DIM
 62
     0
370
    -2
100
AcDbBlockReference
  2
_DOT
 10
1680.900736031392
 20
1320.847710970498
 30
0.0
 41
10.0
 42
10.0
 43
10.0
 50
90.0
  0
MTEXT
  5
7AF0
330
7AE6
100
AcDbEntity
  8
DIM
 62
     0
100
AcDbMText
 10
1646.956736031392
 20
1434.455710970498
 30
0.0
 40
24.0
 41
0.0
 46
0.0
 71
     5
 72
     1
  1
\A1;105（深さ）
  7
ＭＳ ゴシック
 11
0.0
 21
1.0
 31
0.0
 73
     1
 44
1.0
  0
POINT
  5
7AF1
330
7AE6
100
AcDbEntity
  8
Defpoints
 62
     0
100
AcDbPoint
 10
1678.154625987648
 20
1206.181292316412
 30
0.0
  0
POINT
  5
7AF2
330
7AE6
100
AcDbEntity
  8
Defpoints
 62
     0
100
AcDbPoint
 10
1678.154625987648
 20
1320.847710970498
 30
0.0
  0
POINT
  5
7AF3
330
7AE6
100
AcDbEntity
  8
Defpoints
 62
     0
100
AcDbPoint
 10
1680.900736031392
 20
1320.847710970498
 30
0.0
  0
ENDBLK
  5
7AE8
330
7AE6
100
AcDbEntity
  8
0
100
AcDbBlockEnd
  0
BLOCK
  5
7AFB
330
7AFA
100
AcDbEntity
  8
0
100
AcDbBlockBegin
  2
*D35
 70
     1
 10
0.0
 20
0.0
 30
0.0
  3
*D35
  1

  0
LINE
  5
7AFD
330
7AFA
100
AcDbEntity
  8
DIM
 62
     0
370
    -2
100
AcDbLine
 10
3489.180238792519
 20
882.1003875011269
 30
0.0
 11
3448.733643038268
 21
882.1003875011269
 31
0.0
  0
LINE
  5
7AFE
330
7AFA
100
AcDbEntity
  8
DIM
 62
     0
370
    -2
100
AcDbLine
 10
3497.683055399742
 20
840.1308562616183
 30
0.0
 11
3448.733643038268
 21
840.1308562616183
 31
0.0
  0
LINE
  5
7AFF
330
7AFA
100
AcDbEntity
  8
DIM
 62
     0
370
    -2
100
AcDbLine
 10
3448.733643038268
 20
872.1003875011269
 30
0.0
 11
3448.733643038268
 21
850.1308562616183
 31
0.0
  0
INSERT
  5
7B00
330
7AFA
100
AcDbEntity
  8
DIM
 62
     0
370
    -2
100
AcDbBlockReference
  2
_DOT
 10
3448.733643038268
 20
882.1003875011269
 30
0.0
 41
10.0
 42
10.0
 43
10.0
 50
90.0
  0
INSERT
  5
7B01
330
7AFA
100
AcDbEntity
  8
DIM
 62
     0
370
    -2
100
AcDbBlockReference
  2
_DOT
 10
3448.733643038268
 20
840.1308562616183
 30
0.0
 41
10.0
 42
10.0
 43
10.0
 50
270.0
  0
MTEXT
  5
7B02
330
7AFA
100
AcDbEntity
  8
DIM
 62
     0
100
AcDbMText
 10
3416.733643038268
 20
859.3340274344667
 30
0.0
 40
24.0
 41
0.0
 46
0.0
 71
     5
 72
     1
  1
\A1;42
  7
ＭＳ ゴシック
 11
0.0
 21
1.0
 31
0.0
 73
     1
 44
1.0
  0
POINT
  5
7B03
330
7AFA
100
AcDbEntity
  8
Defpoints
 62
     0
100
AcDbPoint
 10
3519.180238792519
 20
882.1003875011269
 30
0.0
  0
POINT
  5
7B04
330
7AFA
100
AcDbEntity
  8
Defpoints
 62
     0
100
AcDbPoint
 10
3527.683055399742
 20
840.1308562616183
 30
0.0
  0
POINT
  5
7B05
330
7AFA
100
AcDbEntity
  8
Defpoints
 62
     0
100
AcDbPoint
 10
3448.733643038268
 20
840.1308562616183
 30
0.0
  0
ENDBLK
  5
7AFC
330
7AFA
100
AcDbEntity
  8
0
100
AcDbBlockEnd
  0
BLOCK
  5
7B09
330
7B08
100
AcDbEntity
  8
0
100
AcDbBlockBegin
  2
*D36
 70
     1
 10
0.0
 20
0.0
 30
0.0
  3
*D36
  1

  0
LINE
  5
7B0B
330
7B08
100
AcDbEntity
  8
DIM
 62
     0
370
    -2
100
AcDbLine
 10
1415.266171184758
 20
1320.847710970497
 30
0.0
 11
1366.777622743762
 21
1320.847710970497
 31
0.0
  0
LINE
  5
7B0C
330
7B08
100
AcDbEntity
  8
DIM
 62
     0
370
    -2
100
AcDbLine
 10
1415.266171184758
 20
1280.847710970497
 30
0.0
 11
1366.777622743762
 21
1280.847710970497
 31
0.0
  0
LINE
  5
7B0D
330
7B08
100
AcDbEntity
  8
DIM
 62
     0
370
    -2
100
AcDbLine
 10
1366.777622743762
 20
1310.847710970497
 30
0.0
 11
1366.777622743762
 21
1290.847710970497
 31
0.0
  0
INSERT
  5
7B0E
330
7B08
100
AcDbEntity
  8
DIM
 62
     0
370
    -2
100
AcDbBlockReference
  2
_DOT
 10
1366.777622743762
 20
1320.847710970497
 30
0.0
 41
10.0
 42
10.0
 43
10.0
 50
90.0
  0
INSERT
  5
7B0F
330
7B08
100
AcDbEntity
  8
DIM
 62
     0
370
    -2
100
AcDbBlockReference
  2
_DOT
 10
1366.777622743762
 20
1280.847710970497
 30
0.0
 41
10.0
 42
10.0
 43
10.0
 50
270.0
  0
MTEXT
  5
7B10
330
7B08
100
AcDbEntity
  8
DIM
 62
     0
100
AcDbMText
 10
1334.777622743762
 20
1300.847710970497
 30
0.0
 40
24.0
 41
0.0
 46
0.0
 71
     5
 72
     1
  1
\A1;40
  7
ＭＳ ゴシック
 11
0.0
 21
1.0
 31
0.0
 73
     1
 44
1.0
  0
POINT
  5
7B11
330
7B08
100
AcDbEntity
  8
Defpoints
 62
     0
100
AcDbPoint
 10
1445.266171184758
 20
1320.847710970497
 30
0.0
  0
POINT
  5
7B12
330
7B08
100
AcDbEntity
  8
Defpoints
 62
     0
100
AcDbPoint
 10
1445.266171184758
 20
1280.847710970497
 30
0.0
  0
POINT
  5
7B13
330
7B08
100
AcDbEntity
  8
Defpoints
 62
     0
100
AcDbPoint
 10
1366.777622743762
 20
1280.847710970497
 30
0.0
  0
ENDBLK
  5
7B0A
330
7B08
100
AcDbEntity
  8
0
100
AcDbBlockEnd
  0
BLOCK
  5
7B17
330
7B16
100
AcDbEntity
  8
0
100
AcDbBlockBegin
  2
*D37
 70
     1
 10
0.0
 20
0.0
 30
0.0
  3
*D37
  1

  0
LINE
  5
7B19
330
7B16
100
AcDbEntity
  8
DIM
 62
     0
370
    -2
100
AcDbLine
 10
905.66929828803
 20
1320.847710970499
 30
0.0
 11
990.7916357095437
 21
1320.847710970499
 31
0.0
  0
LINE
  5
7B1A
330
7B16
100
AcDbEntity
  8
DIM
 62
     0
370
    -2
100
AcDbLine
 10
691.2581155702128
 20
1165.847710970499
 30
0.0
 11
990.7916357095437
 21
1165.847710970499
 31
0.0
  0
LINE
  5
7B1B
330
7B16
100
AcDbEntity
  8
DIM
 62
     0
370
    -2
100
AcDbLine
 10
990.7916357095437
 20
1310.847710970499
 30
0.0
 11
990.7916357095437
 21
1175.847710970499
 31
0.0
  0
INSERT
  5
7B1C
330
7B16
100
AcDbEntity
  8
DIM
 62
     0
370
    -2
100
AcDbBlockReference
  2
_DOT
 10
990.7916357095437
 20
1320.847710970499
 30
0.0
 41
10.0
 42
10.0
 43
10.0
 50
90.0
  0
INSERT
  5
7B1D
330
7B16
100
AcDbEntity
  8
DIM
 62
     0
370
    -2
100
AcDbBlockReference
  2
_DOT
 10
990.7916357095437
 20
1165.847710970499
 30
0.0
 41
10.0
 42
10.0
 43
10.0
 50
270.0
  0
MTEXT
  5
7B1E
330
7B16
100
AcDbEntity
  8
DIM
 62
     0
100
AcDbMText
 10
958.7916357095437
 20
1243.347710970499
 30
0.0
 40
24.0
 41
0.0
 46
0.0
 71
     5
 72
     1
  1
\A1;155
  7
ＭＳ ゴシック
 11
0.0
 21
1.0
 31
0.0
 73
     1
 44
1.0
  0
POINT
  5
7B1F
330
7B16
100
AcDbEntity
  8
Defpoints
 62
     0
100
AcDbPoint
 10
875.66929828803
 20
1320.847710970499
 30
0.0
  0
POINT
  5
7B20
330
7B16
100
AcDbEntity
  8
Defpoints
 62
     0
100
AcDbPoint
 10
661.2581155702128
 20
1165.847710970499
 30
0.0
  0
POINT
  5
7B21
330
7B16
100
AcDbEntity
  8
Defpoints
 62
     0
100
AcDbPoint
 10
990.7916357095437
 20
1165.847710970499
 30
0.0
  0
ENDBLK
  5
7B18
330
7B16
100
AcDbEntity
  8
0
100
AcDbBlockEnd
  0
BLOCK
  5
7B24
330
7B23
100
AcDbEntity
  8
0
100
AcDbBlockBegin
  2
*D38
 70
     1
 10
0.0
 20
0.0
 30
0.0
  3
*D38
  1

  0
LINE
  5
7B26
330
7B23
100
AcDbEntity
  8
DIM
 62
     0
370
    -2
100
AcDbLine
 10
362.6794546050273
 20
2016.644375995451
 30
0.0
 11
362.6794546050273
 21
1897.45778112
 31
0.0
  0
LINE
  5
7B27
330
7B23
100
AcDbEntity
  8
DIM
 62
     0
370
    -2
100
AcDbLine
 10
852.6794546050273
 20
2016.64437599545
 30
0.0
 11
852.6794546050273
 21
1897.45778112
 31
0.0
  0
LINE
  5
7B28
330
7B23
100
AcDbEntity
  8
DIM
 62
     0
370
    -2
100
AcDbLine
 10
372.6794546050273
 20
1897.45778112
 30
0.0
 11
842.6794546050273
 21
1897.45778112
 31
0.0
  0
INSERT
  5
7B29
330
7B23
100
AcDbEntity
  8
DIM
 62
     0
370
    -2
100
AcDbBlockReference
  2
_DOT
 10
362.6794546050273
 20
1897.45778112
 30
0.0
 41
10.0
 42
10.0
 43
10.0
 50
180.0
  0
INSERT
  5
7B2A
330
7B23
100
AcDbEntity
  8
DIM
 62
     0
370
    -2
100
AcDbBlockReference
  2
_DOT
 10
852.6794546050273
 20
1897.45778112
 30
0.0
 41
10.0
 42
10.0
 43
10.0
  0
MTEXT
  5
7B2B
330
7B23
100
AcDbEntity
  8
DIM
 62
     0
100
AcDbMText
 10
607.6794546050273
 20
1929.45778112
 30
0.0
 40
24.0
 41
0.0
 46
0.0
 71
     5
 72
     1
  1
\A1;490
  7
ＭＳ ゴシック
 73
     1
 44
1.0
  0
POINT
  5
7B2C
330
7B23
100
AcDbEntity
  8
Defpoints
 62
     0
100
AcDbPoint
 10
362.6794546050273
 20
2046.644375995451
 30
0.0
  0
POINT
  5
7B2D
330
7B23
100
AcDbEntity
  8
Defpoints
 62
     0
100
AcDbPoint
 10
852.6794546050273
 20
2046.64437599545
 30
0.0
  0
POINT
  5
7B2E
330
7B23
100
AcDbEntity
  8
Defpoints
 62
     0
100
AcDbPoint
 10
852.6794546050273
 20
1897.45778112
 30
0.0
  0
ENDBLK
  5
7B25
330
7B23
100
AcDbEntity
  8
0
100
AcDbBlockEnd
  0
BLOCK
  5
7B7F
330
7B7E
100
AcDbEntity
  8
0
100
AcDbBlockBegin
  2
*D39
 70
     1
 10
0.0
 20
0.0
 30
0.0
  3
*D39
  1

  0
LINE
  5
7B81
330
7B7E
100
AcDbEntity
  8
DIM
 62
     0
370
    -2
100
AcDbLine
 10
2643.037271381979
 20
912.1003875011272
 30
0.0
 11
2643.037271381979
 21
902.7073697622209
 31
0.0
  0
LINE
  5
7B82
330
7B7E
100
AcDbEntity
  8
DIM
 62
     0
370
    -2
100
AcDbLine
 10
3132.841713902968
 20
912.1003875011272
 30
0.0
 11
3132.841713902968
 21
902.7073697622209
 31
0.0
  0
LINE
  5
7B83
330
7B7E
100
AcDbEntity
  8
DIM
 62
     0
370
    -2
100
AcDbLine
 10
2653.037271381979
 20
902.7073697622209
 30
0.0
 11
3122.841713902968
 21
902.7073697622209
 31
0.0
  0
INSERT
  5
7B84
330
7B7E
100
AcDbEntity
  8
DIM
 62
     0
370
    -2
100
AcDbBlockReference
  2
_DOT
 10
2643.037271381979
 20
902.7073697622209
 30
0.0
 41
10.0
 42
10.0
 43
10.0
 50
180.0
  0
INSERT
  5
7B85
330
7B7E
100
AcDbEntity
  8
DIM
 62
     0
370
    -2
100
AcDbBlockReference
  2
_DOT
 10
3132.841713902968
 20
902.7073697622209
 30
0.0
 41
10.0
 42
10.0
 43
10.0
  0
MTEXT
  5
7B86
330
7B7E
100
AcDbEntity
  8
DIM
 62
     0
100
AcDbMText
 10
2887.939492642474
 20
934.7073697622209
 30
0.0
 40
24.0
 41
0.0
 46
0.0
 71
     5
 72
     1
  1
\A1;490
  7
ＭＳ ゴシック
 73
     1
 44
1.0
  0
POINT
  5
7B87
330
7B7E
100
AcDbEntity
  8
Defpoints
 62
     0
100
AcDbPoint
 10
2643.037271381979
 20
882.1003875011272
 30
0.0
  0
POINT
  5
7B88
330
7B7E
100
AcDbEntity
  8
Defpoints
 62
     0
100
AcDbPoint
 10
3132.841713902968
 20
882.1003875011272
 30
0.0
  0
POINT
  5
7B89
330
7B7E
100
AcDbEntity
  8
Defpoints
 62
     0
100
AcDbPoint
 10
3132.841713902968
 20
902.7073697622209
 30
0.0
  0
ENDBLK
  5
7B80
330
7B7E
100
AcDbEntity
  8
0
100
AcDbBlockEnd
  0
BLOCK
  5
7B8E
330
7B8D
100
AcDbEntity
  8
0
100
AcDbBlockBegin
  2
*D40
 70
     1
 10
0.0
 20
0.0
 30
0.0
  3
*D40
  1

  0
LINE
  5
7B90
330
7B8D
100
AcDbEntity
  8
DIM
 62
     0
370
    -2
100
AcDbLine
 10
3748.871508227382
 20
912.1003875011259
 30
0.0
 11
3748.871508227382
 21
924.7918883187081
 31
0.0
  0
LINE
  5
7B91
330
7B8D
100
AcDbEntity
  8
DIM
 62
     0
370
    -2
100
AcDbLine
 10
4058.750830334217
 20
912.1003875011284
 30
0.0
 11
4058.750830334217
 21
924.7918883187081
 31
0.0
  0
LINE
  5
7B92
330
7B8D
100
AcDbEntity
  8
DIM
 62
     0
370
    -2
100
AcDbLine
 10
3758.871508227382
 20
924.7918883187081
 30
0.0
 11
4048.750830334217
 21
924.7918883187081
 31
0.0
  0
INSERT
  5
7B93
330
7B8D
100
AcDbEntity
  8
DIM
 62
     0
370
    -2
100
AcDbBlockReference
  2
_DOT
 10
3748.871508227382
 20
924.7918883187081
 30
0.0
 41
10.0
 42
10.0
 43
10.0
 50
180.0
  0
INSERT
  5
7B94
330
7B8D
100
AcDbEntity
  8
DIM
 62
     0
370
    -2
100
AcDbBlockReference
  2
_DOT
 10
4058.750830334217
 20
924.7918883187081
 30
0.0
 41
10.0
 42
10.0
 43
10.0
  0
MTEXT
  5
7B95
330
7B8D
100
AcDbEntity
  8
DIM
 62
     0
100
AcDbMText
 10
3903.8111692808
 20
956.7918883187081
 30
0.0
 40
24.0
 41
0.0
 46
0.0
 71
     5
 72
     1
  1
\A1;310
  7
ＭＳ ゴシック
 73
     1
 44
1.0
  0
POINT
  5
7B96
330
7B8D
100
AcDbEntity
  8
Defpoints
 62
     0
100
AcDbPoint
 10
3748.871508227382
 20
882.1003875011259
 30
0.0
  0
POINT
  5
7B97
330
7B8D
100
AcDbEntity
  8
Defpoints
 62
     0
100
AcDbPoint
 10
4058.750830334217
 20
882.1003875011284
 30
0.0
  0
POINT
  5
7B98
330
7B8D
100
AcDbEntity
  8
Defpoints
 62
     0
100
AcDbPoint
 10
4058.750830334217
 20
924.7918883187081
 30
0.0
  0
ENDBLK
  5
7B8F
330
7B8D
100
AcDbEntity
  8
0
100
AcDbBlockEnd
  0
BLOCK
  5
7BFA
330
7BF9
100
AcDbEntity
  8
0
100
AcDbBlockBegin
  2
*D41
 70
     1
 10
0.0
 20
0.0
 30
0.0
  3
*D41
  1

  0
LINE
  5
7BFC
330
7BF9
100
AcDbEntity
  8
DIM
 62
     0
370
    -2
100
AcDbLine
 10
1721.593005042492
 20
2323.152723126944
 30
0.0
 11
1847.580469440786
 21
2323.152723126944
 31
0.0
  0
LINE
  5
7BFD
330
7BF9
100
AcDbEntity
  8
DIM
 62
     0
370
    -2
100
AcDbLine
 10
1721.593005042492
 20
2033.268351236245
 30
0.0
 11
1847.580469440786
 21
2033.268351236245
 31
0.0
  0
LINE
  5
7BFE
330
7BF9
100
AcDbEntity
  8
DIM
 62
     0
370
    -2
100
AcDbLine
 10
1847.580469440786
 20
2313.152723126944
 30
0.0
 11
1847.580469440786
 21
2043.268351236245
 31
0.0
  0
INSERT
  5
7BFF
330
7BF9
100
AcDbEntity
  8
DIM
 62
     0
370
    -2
100
AcDbBlockReference
  2
_DOT
 10
1847.580469440786
 20
2323.152723126944
 30
0.0
 41
10.0
 42
10.0
 43
10.0
 50
90.0
  0
INSERT
  5
7C00
330
7BF9
100
AcDbEntity
  8
DIM
 62
     0
370
    -2
100
AcDbBlockReference
  2
_DOT
 10
1847.580469440786
 20
2033.268351236245
 30
0.0
 41
10.0
 42
10.0
 43
10.0
 50
270.0
  0
MTEXT
  5
7C01
330
7BF9
100
AcDbEntity
  8
DIM
 62
     0
100
AcDbMText
 10
1815.580469440786
 20
2178.210537181595
 30
0.0
 40
24.0
 41
0.0
 46
0.0
 71
     5
 72
     1
  1
\A1;295
  7
ＭＳ ゴシック
 11
0.0
 21
1.0
 31
0.0
 73
     1
 44
1.0
  0
POINT
  5
7C02
330
7BF9
100
AcDbEntity
  8
Defpoints
 62
     0
100
AcDbPoint
 10
1691.593005042492
 20
2323.152723126944
 30
0.0
  0
POINT
  5
7C03
330
7BF9
100
AcDbEntity
  8
Defpoints
 62
     0
100
AcDbPoint
 10
1691.593005042492
 20
2033.268351236245
 30
0.0
  0
POINT
  5
7C04
330
7BF9
100
AcDbEntity
  8
Defpoints
 62
     0
100
AcDbPoint
 10
1847.580469440786
 20
2033.268351236245
 30
0.0
  0
ENDBLK
  5
7BFB
330
7BF9
100
AcDbEntity
  8
0
100
AcDbBlockEnd
  0
BLOCK
  5
7C09
330
7C08
100
AcDbEntity
  8
0
100
AcDbBlockBegin
  2
*D42
 70
     1
 10
0.0
 20
0.0
 30
0.0
  3
*D42
  1

  0
LINE
  5
7C0B
330
7C08
100
AcDbEntity
  8
DIM
 62
     0
370
    -2
100
AcDbLine
 10
1704.407628172158
 20
2370.488392994048
 30
0.0
 11
1704.407628172158
 21
2464.59265313396
 31
0.0
  0
LINE
  5
7C0C
330
7C08
100
AcDbEntity
  8
DIM
 62
     0
370
    -2
100
AcDbLine
 10
1234.62455571792
 20
2366.037066824145
 30
0.0
 11
1234.62455571792
 21
2464.59265313396
 31
0.0
  0
LINE
  5
7C0D
330
7C08
100
AcDbEntity
  8
DIM
 62
     0
370
    -2
100
AcDbLine
 10
1694.407628172158
 20
2464.59265313396
 30
0.0
 11
1244.62455571792
 21
2464.59265313396
 31
0.0
  0
INSERT
  5
7C0E
330
7C08
100
AcDbEntity
  8
DIM
 62
     0
370
    -2
100
AcDbBlockReference
  2
_DOT
 10
1704.407628172158
 20
2464.59265313396
 30
0.0
 41
10.0
 42
10.0
 43
10.0
  0
INSERT
  5
7C0F
330
7C08
100
AcDbEntity
  8
DIM
 62
     0
370
    -2
100
AcDbBlockReference
  2
_DOT
 10
1234.62455571792
 20
2464.59265313396
 30
0.0
 41
10.0
 42
10.0
 43
10.0
 50
180.0
  0
MTEXT
  5
7C10
330
7C08
100
AcDbEntity
  8
DIM
 62
     0
100
AcDbMText
 10
1469.516091945039
 20
2496.59265313396
 30
0.0
 40
24.0
 41
0.0
 46
0.0
 71
     5
 72
     1
  1
\A1;470
  7
ＭＳ ゴシック
 73
     1
 44
1.0
  0
POINT
  5
7C11
330
7C08
100
AcDbEntity
  8
Defpoints
 62
     0
100
AcDbPoint
 10
1704.407628172158
 20
2340.488392994048
 30
0.0
  0
POINT
  5
7C12
330
7C08
100
AcDbEntity
  8
Defpoints
 62
     0
100
AcDbPoint
 10
1234.62455571792
 20
2336.037066824145
 30
0.0
  0
POINT
  5
7C13
330
7C08
100
AcDbEntity
  8
Defpoints
 62
     0
100
AcDbPoint
 10
1234.62455571792
 20
2464.59265313396
 30
0.0
  0
ENDBLK
  5
7C0A
330
7C08
100
AcDbEntity
  8
0
100
AcDbBlockEnd
  0
BLOCK
  5
7C17
330
7C16
100
AcDbEntity
  8
0
100
AcDbBlockBegin
  2
*D43
 70
     1
 10
0.0
 20
0.0
 30
0.0
  3
*D43
  1

  0
LINE
  5
7C19
330
7C16
100
AcDbEntity
  8
DIM
 62
     0
370
    -2
100
AcDbLine
 10
1232.636963336468
 20
2203.656348677112
 30
0.0
 11
1155.286299840787
 21
2203.656348677112
 31
0.0
  0
LINE
  5
7C1A
330
7C16
100
AcDbEntity
  8
DIM
 62
     0
370
    -2
100
AcDbLine
 10
1407.833376960787
 20
2080.656348677112
 30
0.0
 11
1155.286299840787
 21
2080.656348677112
 31
0.0
  0
LINE
  5
7C1B
330
7C16
100
AcDbEntity
  8
DIM
 62
     0
370
    -2
100
AcDbLine
 10
1155.286299840787
 20
2193.656348677112
 30
0.0
 11
1155.286299840787
 21
2090.656348677112
 31
0.0
  0
INSERT
  5
7C1C
330
7C16
100
AcDbEntity
  8
DIM
 62
     0
370
    -2
100
AcDbBlockReference
  2
_DOT
 10
1155.286299840787
 20
2203.656348677112
 30
0.0
 41
10.0
 42
10.0
 43
10.0
 50
90.0
  0
INSERT
  5
7C1D
330
7C16
100
AcDbEntity
  8
DIM
 62
     0
370
    -2
100
AcDbBlockReference
  2
_DOT
 10
1155.286299840787
 20
2080.656348677112
 30
0.0
 41
10.0
 42
10.0
 43
10.0
 50
270.0
  0
MTEXT
  5
7C1E
330
7C16
100
AcDbEntity
  8
DIM
 62
     0
100
AcDbMText
 10
1123.286299840787
 20
2142.156348677112
 30
0.0
 40
24.0
 41
0.0
 46
0.0
 71
     5
 72
     1
  1
\A1;123
  7
ＭＳ ゴシック
 11
0.0
 21
1.0
 31
0.0
 73
     1
 44
1.0
  0
POINT
  5
7C1F
330
7C16
100
AcDbEntity
  8
Defpoints
 62
     0
100
AcDbPoint
 10
1262.636963336468
 20
2203.656348677112
 30
0.0
  0
POINT
  5
7C20
330
7C16
100
AcDbEntity
  8
Defpoints
 62
     0
100
AcDbPoint
 10
1437.833376960787
 20
2080.656348677112
 30
0.0
  0
POINT
  5
7C21
330
7C16
100
AcDbEntity
  8
Defpoints
 62
     0
100
AcDbPoint
 10
1155.286299840787
 20
2080.656348677112
 30
0.0
  0
ENDBLK
  5
7C18
330
7C16
100
AcDbEntity
  8
0
100
AcDbBlockEnd
  0
BLOCK
  5
7C55
330
7C54
100
AcDbEntity
  8
0
100
AcDbBlockBegin
  2
*D44
 70
     1
 10
0.0
 20
0.0
 30
0.0
  3
*D44
  1

  0
LINE
  5
7C57
330
7C54
100
AcDbEntity
  8
DIM
 62
     0
370
    -2
100
AcDbLine
 10
893.9402222185073
 20
2001.248352113704
 30
0.0
 11
993.0857975900285
 21
2001.248352113704
 31
0.0
  0
LINE
  5
7C58
330
7C54
100
AcDbEntity
  8
DIM
 62
     0
370
    -2
100
AcDbLine
 10
683.5028552275443
 20
1996.248352113704
 30
0.0
 11
993.0857975900285
 21
1996.248352113704
 31
0.0
  0
LINE
  5
7C59
330
7C54
100
AcDbEntity
  8
DIM
 62
     0
370
    -2
100
AcDbLine
 10
993.0857975900285
 20
1996.248352113704
 30
0.0
 11
993.0857975900285
 21
1923.840352113704
 31
0.0
  0
LINE
  5
7C5A
330
7C54
100
AcDbEntity
  8
DIM
 62
     0
370
    -2
100
AcDbLine
 10
993.0857975900285
 20
2011.248352113704
 30
0.0
 11
993.0857975900285
 21
2021.248352113704
 31
0.0
  0
LINE
  5
7C5B
330
7C54
100
AcDbEntity
  8
DIM
 62
     0
370
    -2
100
AcDbLine
 10
993.0857975900285
 20
1986.248352113704
 30
0.0
 11
993.0857975900285
 21
1976.248352113704
 31
0.0
  0
INSERT
  5
7C5C
330
7C54
100
AcDbEntity
  8
DIM
 62
     0
370
    -2
100
AcDbBlockReference
  2
_DOT
 10
993.0857975900285
 20
2001.248352113704
 30
0.0
 41
10.0
 42
10.0
 43
10.0
 50
270.0
  0
INSERT
  5
7C5D
330
7C54
100
AcDbEntity
  8
DIM
 62
     0
370
    -2
100
AcDbBlockReference
  2
_DOT
 10
993.0857975900285
 20
1996.248352113704
 30
0.0
 41
10.0
 42
10.0
 43
10.0
 50
90.0
  0
MTEXT
  5
7C5E
330
7C54
100
AcDbEntity
  8
DIM
 62
     0
100
AcDbMText
 10
961.0857975900285
 20
1950.044352113704
 30
0.0
 40
24.0
 41
0.0
 46
0.0
 71
     5
 72
     1
  1
\A1;5
  7
ＭＳ ゴシック
 11
0.0
 21
1.0
 31
0.0
 73
     1
 44
1.0
  0
POINT
  5
7C5F
330
7C54
100
AcDbEntity
  8
Defpoints
 62
     0
100
AcDbPoint
 10
863.9402222185073
 20
2001.248352113704
 30
0.0
  0
POINT
  5
7C60
330
7C54
100
AcDbEntity
  8
Defpoints
 62
     0
100
AcDbPoint
 10
653.5028552275443
 20
1996.248352113704
 30
0.0
  0
POINT
  5
7C61
330
7C54
100
AcDbEntity
  8
Defpoints
 62
     0
100
AcDbPoint
 10
993.0857975900285
 20
1996.248352113704
 30
0.0
  0
ENDBLK
  5
7C56
330
7C54
100
AcDbEntity
  8
0
100
AcDbBlockEnd
  0
BLOCK
  5
7C6F
330
7C6E
100
AcDbEntity
  8
0
100
AcDbBlockBegin
  2
*D45
 70
     1
 10
0.0
 20
0.0
 30
0.0
  3
*D45
  1

  0
LINE
  5
7C71
330
7C6E
100
AcDbEntity
  8
DIM
 62
     0
370
    -2
100
AcDbLine
 10
893.9402222185072
 20
2356.248352113704
 30
0.0
 11
1068.82732896
 21
2356.248352113704
 31
0.0
  0
LINE
  5
7C72
330
7C6E
100
AcDbEntity
  8
DIM
 62
     0
370
    -2
100
AcDbLine
 10
893.9402222185071
 20
1996.248352113704
 30
0.0
 11
1068.82732896
 21
1996.248352113704
 31
0.0
  0
LINE
  5
7C73
330
7C6E
100
AcDbEntity
  8
DIM
 62
     0
370
    -2
100
AcDbLine
 10
1068.82732896
 20
2346.248352113704
 30
0.0
 11
1068.82732896
 21
2006.248352113704
 31
0.0
  0
INSERT
  5
7C74
330
7C6E
100
AcDbEntity
  8
DIM
 62
     0
370
    -2
100
AcDbBlockReference
  2
_DOT
 10
1068.82732896
 20
2356.248352113704
 30
0.0
 41
10.0
 42
10.0
 43
10.0
 50
90.0
  0
INSERT
  5
7C75
330
7C6E
100
AcDbEntity
  8
DIM
 62
     0
370
    -2
100
AcDbBlockReference
  2
_DOT
 10
1068.82732896
 20
1996.248352113704
 30
0.0
 41
10.0
 42
10.0
 43
10.0
 50
270.0
  0
MTEXT
  5
7C76
330
7C6E
100
AcDbEntity
  8
DIM
 62
     0
100
AcDbMText
 10
1036.82732896
 20
2176.248352113704
 30
0.0
 40
24.0
 41
0.0
 46
0.0
 71
     5
 72
     1
  1
\A1;360
  7
ＭＳ ゴシック
 11
0.0
 21
1.0
 31
0.0
 73
     1
 44
1.0
  0
POINT
  5
7C77
330
7C6E
100
AcDbEntity
  8
Defpoints
 62
     0
100
AcDbPoint
 10
863.9402222185072
 20
2356.248352113704
 30
0.0
  0
POINT
  5
7C78
330
7C6E
100
AcDbEntity
  8
Defpoints
 62
     0
100
AcDbPoint
 10
863.9402222185071
 20
1996.248352113704
 30
0.0
  0
POINT
  5
7C79
330
7C6E
100
AcDbEntity
  8
Defpoints
 62
     0
100
AcDbPoint
 10
1068.82732896
 20
1996.248352113704
 30
0.0
  0
ENDBLK
  5
7C70
330
7C6E
100
AcDbEntity
  8
0
100
AcDbBlockEnd
  0
BLOCK
  5
7D11
330
7D10
100
AcDbEntity
  8
0
100
AcDbBlockBegin
  2
*D46
 70
     1
 10
0.0
 20
0.0
 30
0.0
  3
*D46
  1

  0
LINE
  5
7D12
330
7D10
100
AcDbEntity
  8
DIM
  6
Continuous
 62
     0
370
    -2
100
AcDbLine
 10
326.5766015989423
 20
261.2126866716251
 30
0.0
 11
326.5766015989423
 21
222.8904984981654
 31
0.0
  0
LINE
  5
7D13
330
7D10
100
AcDbEntity
  8
DIM
  6
Continuous
 62
     0
370
    -2
100
AcDbLine
 10
382.5940896333097
 20
253.9422873275055
 30
0.0
 11
382.5940896333097
 21
222.8904984981654
 31
0.0
  0
LINE
  5
7D14
330
7D10
100
AcDbEntity
  8
DIM
  6
Continuous
 62
     0
370
    -2
100
AcDbLine
 10
335.5766015989423
 20
222.8904984981654
 30
0.0
 11
373.5940896333097
 21
222.8904984981654
 31
0.0
  0
INSERT
  5
7D15
330
7D10
100
AcDbEntity
  8
DIM
 62
     0
370
    -2
100
AcDbBlockReference
  2
_DOT
 10
326.5766015989423
 20
222.8904984981654
 30
0.0
 41
9.0
 42
9.0
 43
9.0
 50
180.0
  0
INSERT
  5
7D16
330
7D10
100
AcDbEntity
  8
DIM
 62
     0
370
    -2
100
AcDbBlockReference
  2
_DOT
 10
382.5940896333097
 20
222.8904984981654
 30
0.0
 41
9.0
 42
9.0
 43
9.0
  0
MTEXT
  5
7D17
330
7D10
100
AcDbEntity
  8
DIM
 62
     0
370
     0
100
AcDbMText
 10
354.585345616126
 20
242.8904984981654
 30
0.0
 40
20.0
 41
0.0
 46
0.0
 71
     5
 72
     1
  1
\A1;20
  7
ＭＳ ゴシック
 73
     1
 44
1.0
  0
POINT
  5
7D18
330
7D10
100
AcDbEntity
  8
Defpoints
 62
     0
100
AcDbPoint
 10
326.5766015989423
 20
286.2126866716251
 30
0.0
  0
POINT
  5
7D19
330
7D10
100
AcDbEntity
  8
Defpoints
 62
     0
100
AcDbPoint
 10
382.5940896333097
 20
278.9422873275055
 30
0.0
  0
POINT
  5
7D1A
330
7D10
100
AcDbEntity
  8
Defpoints
 62
     0
100
AcDbPoint
 10
382.5940896333097
 20
222.8904984981654
 30
0.0
  0
ENDBLK
  5
7D1B
330
7D10
100
AcDbEntity
  8
0
100
AcDbBlockEnd
  0
BLOCK
  5
7D25
330
7D24
100
AcDbEntity
  8
0
100
AcDbBlockBegin
  2
*D47
 70
     1
 10
0.0
 20
0.0
 30
0.0
  3
*D47
  1

  0
LINE
  5
7D26
330
7D24
100
AcDbEntity
  8
DIM
  6
Continuous
 62
     0
370
    -2
100
AcDbLine
 10
1423.201500051713
 20
305.6834719615675
 30
0.0
 11
1482.282322944012
 21
305.6834719615675
 31
0.0
  0
LINE
  5
7D27
330
7D24
100
AcDbEntity
  8
DIM
  6
Continuous
 62
     0
370
    -2
100
AcDbLine
 10
1423.201500051713
 20
105.6834719615675
 30
0.0
 11
1482.282322944012
 21
105.6834719615675
 31
0.0
  0
LINE
  5
7D28
330
7D24
100
AcDbEntity
  8
DIM
  6
Continuous
 62
     0
370
    -2
100
AcDbLine
 10
1482.282322944012
 20
296.6834719615675
 30
0.0
 11
1482.282322944012
 21
114.6834719615675
 31
0.0
  0
INSERT
  5
7D29
330
7D24
100
AcDbEntity
  8
DIM
 62
     0
370
    -2
100
AcDbBlockReference
  2
_DOT
 10
1482.282322944012
 20
305.6834719615675
 30
0.0
 41
9.0
 42
9.0
 43
9.0
 50
90.0
  0
INSERT
  5
7D2A
330
7D24
100
AcDbEntity
  8
DIM
 62
     0
370
    -2
100
AcDbBlockReference
  2
_DOT
 10
1482.282322944012
 20
105.6834719615675
 30
0.0
 41
9.0
 42
9.0
 43
9.0
 50
270.0
  0
MTEXT
  5
7D2B
330
7D24
100
AcDbEntity
  8
DIM
 62
     0
370
     0
100
AcDbMText
 10
1460.066014350262
 20
205.6834719615675
 30
0.0
 40
24.4326171875
 41
0.0
 46
0.0
 71
     5
 72
     1
  1
\A1;200
  7
ＭＳ ゴシック
 11
0.0
 21
1.0
 31
0.0
 73
     1
 44
1.0
  0
POINT
  5
7D2C
330
7D24
100
AcDbEntity
  8
Defpoints
 62
     0
100
AcDbPoint
 10
1398.201500051713
 20
305.6834719615675
 30
0.0
  0
POINT
  5
7D2D
330
7D24
100
AcDbEntity
  8
Defpoints
 62
     0
100
AcDbPoint
 10
1398.201500051713
 20
105.6834719615675
 30
0.0
  0
POINT
  5
7D2E
330
7D24
100
AcDbEntity
  8
Defpoints
 62
     0
100
AcDbPoint
 10
1482.282322944012
 20
105.6834719615675
 30
0.0
  0
ENDBLK
  5
7D2F
330
7D24
100
AcDbEntity
  8
0
100
AcDbBlockEnd
  0
BLOCK
  5
7DD6
330
7DD5
100
AcDbEntity
  8
0
100
AcDbBlockBegin
  2
*D48
 70
     1
 10
0.0
 20
0.0
 30
0.0
  3
*D48
  1

  0
LINE
  5
7DD8
330
7DD5
100
AcDbEntity
  8
DIM
  6
Continuous
 62
     0
370
    -2
100
AcDbLine
 10
676.6931796469426
 20
690.8776540956248
 30
0.0
 11
676.6931796469426
 21
652.5554659221652
 31
0.0
  0
LINE
  5
7DD9
330
7DD5
100
AcDbEntity
  8
DIM
  6
Continuous
 62
     0
370
    -2
100
AcDbLine
 10
732.71066768131
 20
683.6072547515053
 30
0.0
 11
732.71066768131
 21
652.5554659221652
 31
0.0
  0
LINE
  5
7DDA
330
7DD5
100
AcDbEntity
  8
DIM
  6
Continuous
 62
     0
370
    -2
100
AcDbLine
 10
685.6931796469426
 20
652.5554659221652
 30
0.0
 11
723.71066768131
 21
652.5554659221652
 31
0.0
  0
INSERT
  5
7DDB
330
7DD5
100
AcDbEntity
  8
DIM
 62
     0
370
    -2
100
AcDbBlockReference
  2
_DOT
 10
676.6931796469426
 20
652.5554659221652
 30
0.0
 41
9.0
 42
9.0
 43
9.0
 50
180.0
  0
INSERT
  5
7DDC
330
7DD5
100
AcDbEntity
  8
DIM
 62
     0
370
    -2
100
AcDbBlockReference
  2
_DOT
 10
732.71066768131
 20
652.5554659221652
 30
0.0
 41
9.0
 42
9.0
 43
9.0
  0
MTEXT
  5
7DDD
330
7DD5
100
AcDbEntity
  8
DIM
 62
     0
370
     0
100
AcDbMText
 10
704.7019236641263
 20
672.5554659221652
 30
0.0
 40
20.0
 41
0.0
 46
0.0
 71
     5
 72
     1
  1
\A1;20
  7
ＭＳ ゴシック
 73
     1
 44
1.0
  0
POINT
  5
7DDE
330
7DD5
100
AcDbEntity
  8
Defpoints
 62
     0
100
AcDbPoint
 10
676.6931796469426
 20
715.8776540956248
 30
0.0
  0
POINT
  5
7DDF
330
7DD5
100
AcDbEntity
  8
Defpoints
 62
     0
100
AcDbPoint
 10
732.71066768131
 20
708.6072547515053
 30
0.0
  0
POINT
  5
7DE0
330
7DD5
100
AcDbEntity
  8
Defpoints
 62
     0
100
AcDbPoint
 10
732.71066768131
 20
652.5554659221652
 30
0.0
  0
ENDBLK
  5
7DD7
330
7DD5
100
AcDbEntity
  8
0
100
AcDbBlockEnd
  0
BLOCK
  5
7DE2
330
7DE1
100
AcDbEntity
  8
0
100
AcDbBlockBegin
  2
*D49
 70
     1
 10
0.0
 20
0.0
 30
0.0
  3
*D49
  1

  0
LINE
  5
7DE4
330
7DE1
100
AcDbEntity
  8
DIM
  6
Continuous
 62
     0
370
    -2
100
AcDbLine
 10
1688.655009939714
 20
780.2284393855671
 30
0.0
 11
1747.735832832013
 21
780.2284393855671
 31
0.0
  0
LINE
  5
7DE5
330
7DE1
100
AcDbEntity
  8
DIM
  6
Continuous
 62
     0
370
    -2
100
AcDbLine
 10
1688.655009939714
 20
580.2284393855671
 30
0.0
 11
1747.735832832013
 21
580.2284393855671
 31
0.0
  0
LINE
  5
7DE6
330
7DE1
100
AcDbEntity
  8
DIM
  6
Continuous
 62
     0
370
    -2
100
AcDbLine
 10
1747.735832832013
 20
771.2284393855671
 30
0.0
 11
1747.735832832013
 21
589.2284393855671
 31
0.0
  0
INSERT
  5
7DE7
330
7DE1
100
AcDbEntity
  8
DIM
 62
     0
370
    -2
100
AcDbBlockReference
  2
_DOT
 10
1747.735832832013
 20
780.2284393855671
 30
0.0
 41
9.0
 42
9.0
 43
9.0
 50
90.0
  0
INSERT
  5
7DE8
330
7DE1
100
AcDbEntity
  8
DIM
 62
     0
370
    -2
100
AcDbBlockReference
  2
_DOT
 10
1747.735832832013
 20
580.2284393855671
 30
0.0
 41
9.0
 42
9.0
 43
9.0
 50
270.0
  0
MTEXT
  5
7DE9
330
7DE1
100
AcDbEntity
  8
DIM
 62
     0
370
     0
100
AcDbMText
 10
1725.519524238263
 20
680.2284393855671
 30
0.0
 40
24.4326171875
 41
0.0
 46
0.0
 71
     5
 72
     1
  1
\A1;150-200
  7
ＭＳ ゴシック
 11
0.0
 21
1.0
 31
0.0
 73
     1
 44
1.0
  0
POINT
  5
7DEA
330
7DE1
100
AcDbEntity
  8
Defpoints
 62
     0
100
AcDbPoint
 10
1663.655009939714
 20
780.2284393855671
 30
0.0
  0
POINT
  5
7DEB
330
7DE1
100
AcDbEntity
  8
Defpoints
 62
     0
100
AcDbPoint
 10
1663.655009939714
 20
580.2284393855671
 30
0.0
  0
POINT
  5
7DEC
330
7DE1
100
AcDbEntity
  8
Defpoints
 62
     0
100
AcDbPoint
 10
1747.735832832013
 20
580.2284393855671
 30
0.0
  0
ENDBLK
  5
7DE3
330
7DE1
100
AcDbEntity
  8
0
100
AcDbBlockEnd
  0
BLOCK
  5
7E85
330
7E84
100
AcDbEntity
  8
0
100
AcDbBlockBegin
  2
*D50
 70
     1
 10
0.0
 20
0.0
 30
0.0
  3
*D50
  1

  0
LINE
  5
7E86
330
7E84
100
AcDbEntity
  8
DIM
 62
     0
370
    -2
100
AcDbLine
 10
92.48854844099583
 20
155.2552951000736
 30
0.0
 11
44.0
 21
155.2552951000736
 31
0.0
  0
LINE
  5
7E87
330
7E84
100
AcDbEntity
  8
DIM
 62
     0
370
    -2
100
AcDbLine
 10
92.48854844099583
 20
115.2552951000736
 30
0.0
 11
44.0
 21
115.2552951000736
 31
0.0
  0
LINE
  5
7E88
330
7E84
100
AcDbEntity
  8
DIM
 62
     0
370
    -2
100
AcDbLine
 10
44.0
 20
145.2552951000736
 30
0.0
 11
44.0
 21
125.2552951000736
 31
0.0
  0
INSERT
  5
7E89
330
7E84
100
AcDbEntity
  8
DIM
 62
     0
370
    -2
100
AcDbBlockReference
  2
_DOT
 10
44.0
 20
155.2552951000736
 30
0.0
 41
10.0
 42
10.0
 43
10.0
 50
90.0
  0
INSERT
  5
7E8A
330
7E84
100
AcDbEntity
  8
DIM
 62
     0
370
    -2
100
AcDbBlockReference
  2
_DOT
 10
44.0
 20
115.2552951000736
 30
0.0
 41
10.0
 42
10.0
 43
10.0
 50
270.0
  0
MTEXT
  5
7E8B
330
7E84
100
AcDbEntity
  8
DIM
 62
     0
100
AcDbMText
 10
12.0
 20
135.2552951000736
 30
0.0
 40
24.0
 41
0.0
 46
0.0
 71
     5
 72
     1
  1
\A1;40
  7
ＭＳ ゴシック
 11
0.0
 21
1.0
 31
0.0
 73
     1
 44
1.0
  0
POINT
  5
7E8C
330
7E84
100
AcDbEntity
  8
Defpoints
 62
     0
100
AcDbPoint
 10
122.4885484409958
 20
155.2552951000736
 30
0.0
  0
POINT
  5
7E8D
330
7E84
100
AcDbEntity
  8
Defpoints
 62
     0
100
AcDbPoint
 10
122.4885484409958
 20
115.2552951000736
 30
0.0
  0
POINT
  5
7E8E
330
7E84
100
AcDbEntity
  8
Defpoints
 62
     0
100
AcDbPoint
 10
44.0
 20
115.2552951000736
 30
0.0
  0
ENDBLK
  5
7E8F
330
7E84
100
AcDbEntity
  8
0
100
AcDbBlockEnd
  0
BLOCK
  5
7E9D
330
7E9C
100
AcDbEntity
  8
0
100
AcDbBlockBegin
  2
*D51
 70
     1
 10
0.0
 20
0.0
 30
0.0
  3
*D51
  1

  0
LINE
  5
7E9F
330
7E9C
100
AcDbEntity
  8
DIM
 62
     0
370
    -2
100
AcDbLine
 10
-526.4632021392281
 20
605.0710483009196
 30
0.0
 11
-574.9517505802239
 21
605.0710483009196
 31
0.0
  0
LINE
  5
7EA0
330
7E9C
100
AcDbEntity
  8
DIM
 62
     0
370
    -2
100
AcDbLine
 10
-526.4632021392281
 20
565.0710483009196
 30
0.0
 11
-574.9517505802239
 21
565.0710483009196
 31
0.0
  0
LINE
  5
7EA1
330
7E9C
100
AcDbEntity
  8
DIM
 62
     0
370
    -2
100
AcDbLine
 10
-574.9517505802239
 20
595.0710483009196
 30
0.0
 11
-574.9517505802239
 21
575.0710483009196
 31
0.0
  0
INSERT
  5
7EA2
330
7E9C
100
AcDbEntity
  8
DIM
 62
     0
370
    -2
100
AcDbBlockReference
  2
_DOT
 10
-574.9517505802239
 20
605.0710483009196
 30
0.0
 41
10.0
 42
10.0
 43
10.0
 50
90.0
  0
INSERT
  5
7EA3
330
7E9C
100
AcDbEntity
  8
DIM
 62
     0
370
    -2
100
AcDbBlockReference
  2
_DOT
 10
-574.9517505802239
 20
565.0710483009196
 30
0.0
 41
10.0
 42
10.0
 43
10.0
 50
270.0
  0
MTEXT
  5
7EA4
330
7E9C
100
AcDbEntity
  8
DIM
 62
     0
100
AcDbMText
 10
-606.9517505802239
 20
585.0710483009196
 30
0.0
 40
24.0
 41
0.0
 46
0.0
 71
     5
 72
     1
  1
\A1;40
  7
ＭＳ ゴシック
 11
0.0
 21
1.0
 31
0.0
 73
     1
 44
1.0
  0
POINT
  5
7EA5
330
7E9C
100
AcDbEntity
  8
Defpoints
 62
     0
100
AcDbPoint
 10
-496.4632021392281
 20
605.0710483009196
 30
0.0
  0
POINT
  5
7EA6
330
7E9C
100
AcDbEntity
  8
Defpoints
 62
     0
100
AcDbPoint
 10
-496.4632021392281
 20
565.0710483009196
 30
0.0
  0
POINT
  5
7EA7
330
7E9C
100
AcDbEntity
  8
Defpoints
 62
     0
100
AcDbPoint
 10
-574.9517505802239
 20
565.0710483009196
 30
0.0
  0
ENDBLK
  5
7E9E
330
7E9C
100
AcDbEntity
  8
0
100
AcDbBlockEnd
  0
ENDSEC
  0
SECTION
  2
ENTITIES
  0
MTEXT
  5
177
330
A
100
AcDbEntity
  8
TEMPLATE
390
1D
100
AcDbMText
 10
79.20214454773075
 20
343.7317516314282
 30
0.0
 40
16.28841145833333
 41
0.0
 46
0.0
 71
     1
 72
     1
  1
品名
  7
ＭＳ ゴシック
 73
     1
 44
0.7828267384257843
  0
MTEXT
  5
178
330
A
100
AcDbEntity
  8
TEMPLATE
390
1D
100
AcDbMText
 10
79.20214454773075
 20
258.731751631428
 30
0.0
 40
16.28841145833333
 41
0.0
 46
0.0
 71
     1
 72
     1
  1
仕様
  7
ＭＳ ゴシック
 73
     1
 44
0.7828267384257843
  0
LINE
  5
179
330
A
100
AcDbEntity
  8
TEMPLATE
390
1D
100
AcDbLine
 10
2022.202144547248
 20
267.1466735064284
 30
0.0
 11
72.20214454724874
 21
267.1466735064284
 31
0.0
  0
LWPOLYLINE
  5
17A
330
A
100
AcDbEntity
  8
TEMPLATE
390
1D
100
AcDbPolyline
 90
        5
 70
   128
 43
0.0
 10
2022.202144547248
 20
2897.146673506426
 10
72.20214454724874
 20
2897.146673506426
 10
72.20214454724874
 20
97.14667350642826
 10
2022.202144547248
 20
97.14667350642826
 10
2022.202144547248
 20
2897.146673506426
  0
LINE
  5
17B
330
A
100
AcDbEntity
  8
TEMPLATE
390
1D
100
AcDbLine
 10
2022.202144547248
 20
352.1466735064282
 30
0.0
 11
72.20214454724874
 21
352.1466735064282
 31
0.0
  0
LINE
  5
17C
330
A
100
AcDbEntity
  8
TEMPLATE
390
1D
100
AcDbLine
 10
2022.202144547732
 20
182.1466735064282
 30
0.0
 11
1269.20214454773
 21
182.1466735064282
 31
0.0
  0
MTEXT
  5
17E
330
A
100
AcDbEntity
  8
TEMPLATE
390
1D
100
AcDbMText
 10
1299.073550799991
 20
152.2362790331201
 30
0.0
 40
24.4326171875
 41
0.0
 46
0.0
 71
     1
 72
     1
  1
大洋金物株式会社 ティーフォルム事業部
  7
ＭＳ ゴシック
 73
     1
 44
0.7828267384257843
  0
MTEXT
  5
180
330
A
100
AcDbEntity
  8
TEMPLATE
390
1D
100
AcDbMText
 10
1831.20214454799
 20
230.1492906939282
 30
0.0
 40
24.4326171875
 41
0.0
 46
24.4326171875
 71
     1
 72
     1
  1
{1:10}
  7
ＭＳ ゴシック
 73
     1
 44
0.7828267384257843
1001
ACAD
1000
ACAD_MTEXT_DEFINED_HEIGHT_BEGIN
1070
    46
1040
24.4326171875
1000
ACAD_MTEXT_DEFINED_HEIGHT_END
  0
MTEXT
  5
181
330
A
100
AcDbEntity
  8
TEMPLATE
390
1D
100
AcDbMText
 10
1778.20214454799
 20
258.731751631428
 30
0.0
 40
16.28841145833333
 41
0.0
 46
0.0
 71
     1
 72
     1
  1
縮尺
  7
ＭＳ ゴシック
 73
     1
 44
0.7828267384257843
  0
LINE
  5
182
330
A
100
AcDbEntity
  8
TEMPLATE
390
1D
100
AcDbLine
 10
1771.20214454799
 20
182.1466735064282
 30
0.0
 11
1771.20214454799
 21
267.1466735064284
 31
0.0
  0
MTEXT
  5
183
330
A
100
AcDbEntity
  8
TEMPLATE
390
1D
100
AcDbMText
 10
1527.20214454799
 20
258.731751631428
 30
0.0
 40
16.28841145833333
 41
0.0
 46
0.0
 71
     1
 72
     1
  1
容量
  7
ＭＳ ゴシック
 73
     1
 44
0.7828267384257843
  0
LINE
  5
184
330
A
100
AcDbEntity
  8
TEMPLATE
390
1D
100
AcDbLine
 10
1520.20214454799
 20
182.1466735064282
 30
0.0
 11
1520.20214454799
 21
267.1466735064284
 31
0.0
  0
MTEXT
  5
185
330
A
100
AcDbEntity
  8
TEMPLATE
390
1D
100
AcDbMText
 10
1276.20214454799
 20
343.7317516314282
 30
0.0
 40
16.28841145833333
 41
0.0
 46
0.0
 71
     1
 72
     1
  1
品番
  7
ＭＳ ゴシック
 73
     1
 44
0.7828267384257843
  0
MTEXT
  5
186
330
A
100
AcDbEntity
  8
TEMPLATE
390
1D
100
AcDbMText
 10
1276.20214454799
 20
258.731751631428
 30
0.0
 40
16.28841145833333
 41
0.0
 46
0.0
 71
     1
 72
     1
  1
重量
  7
ＭＳ ゴシック
 73
     1
 44
0.7828267384257843
  0
MTEXT
  5
187
330
A
100
AcDbEntity
  8
TEMPLATE
390
1D
100
AcDbMText
 10
1329.20214454799
 20
315.1492906939282
 30
0.0
 40
24.4326171875
 41
0.0
 46
24.4326171875
 71
     1
 72
     1
  1
{GAR70-1508}
  7
ＭＳ ゴシック
 73
     1
 44
0.7828267384257843
1001
ACAD
1000
ACAD_MTEXT_DEFINED_HEIGHT_BEGIN
1070
    46
1040
24.4326171875
1000
ACAD_MTEXT_DEFINED_HEIGHT_END
  0
LINE
  5
188
330
A
100
AcDbEntity
  8
TEMPLATE
390
1D
100
AcDbLine
 10
1269.20214454799
 20
97.14667350642826
 30
0.0
 11
1269.20214454799
 21
352.1466735064282
 31
0.0
  0
MTEXT
  5
189
330
A
100
AcDbEntity
  8
TEMPLATE
390
1D
100
AcDbMText
 10
132.2021445477307
 20
315.1492906939282
 30
0.0
 40
24.4326171875
 41
0.0
 46
28.5128642578125
 71
     1
 72
     1
  1
{洗面器　-LAUFEN, Living City-}
  7
ＭＳ ゴシック
 73
     1
 44
0.7828267384257843
1001
ACAD
1000
ACAD_MTEXT_DEFINED_HEIGHT_BEGIN
1070
    46
1040
28.5128642578125
1000
ACAD_MTEXT_DEFINED_HEIGHT_END
  0
INSERT
  5
6B5
330
A
100
AcDbEntity
  8
TEMPLATE
100
AcDbBlockReference
  2
名称未設定-1
 10
1870.75074808845
 20
25.94676575665382
 30
0.0
 41
0.7619999999999998
 42
0.7619999999999998
 43
0.7619999999999998
  0
MTEXT
  5
7D9
330
A
100
AcDbEntity
  8
TEMPLATE
390
1D
100
AcDbMText
 10
125.2543452760364
 20
235.1771251573806
 30
0.0
 40
24.0
 41
0.0
 46
65.82792213917423
 71
     1
 72
     1
  1
{\fＭＳ ゴシック|b0|i0|c1|p0;アンダーカウンター/オーバーフロー付き/カウンター固定金具、型紙付属/\P陶器/ホワイト}
  7
ＭＳ ゴシック
 73
     1
 44
0.9331787841240657
1001
ACAD
1000
ACAD_MTEXT_DEFINED_HEIGHT_BEGIN
1070
    46
1040
65.82792213917423
1000
ACAD_MTEXT_DEFINED_HEIGHT_END
  0
INSERT
  5
68C
330
A
100
AcDbEntity
  8
TEMPLATE
100
AcDbBlockReference
  2
block 2
 10
919.2743017702577
 20
8.373076514336368
 30
0.0
 41
0.3809999999999999
 42
0.3809999999999999
 43
0.3809999999999999
  0
LWPOLYLINE
  5
DAC
330
A
100
AcDbEntity
  8
BORDER
100
AcDbPolyline
 90
        4
 70
     1
 43
0.0
 10
0.0
 20
0.0
 10
0.0
 20
2970.0
 10
2100.0
 20
2970.0
 10
2100.0
 20
0.0
  0
MTEXT
  5
1466
102
{ACAD_XDICTIONARY
360
1468
102
}
330
A
100
AcDbEntity
  8
TEMPLATE
 48
0.05
100
AcDbMText
 10
74.728656548571
 20
83.86172105142839
 30
0.0
 40
22.0
 41
0.0
 46
22.0
 71
     1
 72
     1
  1
{20200320N}
  7
ＭＳ ゴシック
 73
     1
 44
1.0
1001
ACAD
1000
ACAD_MTEXT_DEFINED_HEIGHT_BEGIN
1070
    46
1040
22.0
1000
ACAD_MTEXT_DEFINED_HEIGHT_END
  0
POINT
  5
262A
330
A
100
AcDbEntity
  8
Layer9
  6
Continuous
 62
     7
100
AcDbPoint
 10
1037.460145007193
 20
1010.220672371878
 30
0.0
  0
POINT
  5
262B
330
A
100
AcDbEntity
  8
Layer9
  6
Continuous
 62
     7
100
AcDbPoint
 10
1037.460146257193
 20
1010.220672788578
 30
0.0
  0
POINT
  5
262C
330
A
100
AcDbEntity
  8
Layer9
  6
Continuous
 62
     7
100
AcDbPoint
 10
1037.853693340493
 20
1015.267975288578
 30
0.0
  0
POINT
  5
2812
330
A
100
AcDbEntity
  8
Layer9
  6
Continuous
 62
     7
100
AcDbPoint
 10
925.7934783404928
 20
1010.220672371878
 30
0.0
  0
POINT
  5
2813
330
A
100
AcDbEntity
  8
Layer9
  6
Continuous
 62
     7
100
AcDbPoint
 10
925.7934795904928
 20
1010.220672788578
 30
0.0
  0
POINT
  5
2814
330
A
100
AcDbEntity
  8
Layer9
  6
Continuous
 62
     7
100
AcDbPoint
 10
926.1870266737928
 20
1015.267975288578
 30
0.0
  0
INSERT
  5
28CA
330
A
100
AcDbEntity
  8
Layer3
100
AcDbBlockReference
  2
SEANNOT_GROUP
 10
859.7083018867928
 20
826.1905269541776
 30
0.0
  0
POINT
  5
2A52
330
A
100
AcDbEntity
  8
Standard
  6
Continuous
 62
     7
100
AcDbPoint
 10
1036.111241014893
 20
1018.794321538578
 30
0.0
  0
INSERT
  5
2B9B
330
A
100
AcDbEntity
  8
Layer3
100
AcDbBlockReference
  2
SEANNOT_GROUP1
 10
859.7083018867928
 20
826.1905269541776
 30
0.0
  0
POINT
  5
3DC5
330
A
100
AcDbEntity
  8
0
 62
     7
370
     5
390
1D
100
AcDbPoint
 10
2860.881281762558
 20
1768.55574720548
 30
0.0
  0
POINT
  5
44F2
330
A
100
AcDbEntity
  8
0
 62
     7
370
     5
390
1D
100
AcDbPoint
 10
5817.611311358976
 20
1551.534519945206
 30
0.0
  0
POINT
  5
44F3
330
A
100
AcDbEntity
  8
0
 62
     7
370
     5
390
1D
100
AcDbPoint
 10
5817.611311358976
 20
1551.534489945206
 30
0.0
  0
POINT
  5
44F4
330
A
100
AcDbEntity
  8
0
 62
     7
370
     5
390
1D
100
AcDbPoint
 10
6218.094556358977
 20
1764.774113945206
 30
0.0
  0
POINT
  5
44F5
330
A
100
AcDbEntity
  8
0
 62
     7
370
     5
390
1D
100
AcDbPoint
 10
5417.136762358977
 20
1750.298771945206
 30
0.0
  0
POINT
  5
44F6
330
A
100
AcDbEntity
  8
0
 62
     7
370
     5
390
1D
100
AcDbPoint
 10
5817.611311358976
 20
1551.075108945206
 30
0.0
  0
POINT
  5
4A0C
330
A
100
AcDbEntity
  8
0
 62
     7
370
     5
390
1D
100
AcDbPoint
 10
2962.169743257284
 20
1212.963434821918
 30
0.0
  0
POINT
  5
4A0D
330
A
100
AcDbEntity
  8
0
 62
     7
370
     5
390
1D
100
AcDbPoint
 10
2669.114873257284
 20
1211.245752821918
 30
0.0
  0
POINT
  5
4A0E
330
A
100
AcDbEntity
  8
0
 62
     7
370
     5
390
1D
100
AcDbPoint
 10
2969.602971257284
 20
1438.299677821918
 30
0.0
  0
POINT
  5
4A0F
330
A
100
AcDbEntity
  8
0
 62
     7
370
     5
390
1D
100
AcDbPoint
 10
2969.602971257284
 20
1438.299677821918
 30
0.0
  0
POINT
  5
4A10
330
A
100
AcDbEntity
  8
0
 62
     7
370
     5
390
1D
100
AcDbPoint
 10
2368.627812257283
 20
1433.663157821918
 30
0.0
  0
POINT
  5
6F8C
330
A
100
AcDbEntity
  8
0
 62
     7
370
     5
390
1D
100
AcDbPoint
 10
5003.123517647325
 20
2248.31005990411
 30
0.0
  0
POINT
  5
6F8D
330
A
100
AcDbEntity
  8
0
 62
     7
370
     5
390
1D
100
AcDbPoint
 10
4753.350873647325
 20
2230.00723390411
 30
0.0
  0
SPLINE
  5
79A9
330
A
100
AcDbEntity
  8
MODEL
100
AcDbSpline
210
0.0
220
0.0
230
1.0
 70
    24
 71
     3
 72
     8
 73
     4
 74
     0
 42
0.000000001
 43
0.0000000001
 40
51.0
 40
51.0
 40
51.0
 40
51.0
 40
52.0
 40
52.0
 40
52.0
 40
52.0
 10
640.8019806384141
 20
1163.905697120845
 30
0.0
 10
640.8019806384141
 20
1163.905697120845
 30
0.0
 10
607.6794546050278
 20
1163.905697120845
 30
0.0
 10
607.6794546050278
 20
1163.905697120845
 30
0.0
  0
SPLINE
  5
79AA
330
A
100
AcDbEntity
  8
MODEL
100
AcDbSpline
210
0.0
220
0.0
230
1.0
 70
     8
 71
     3
 72
     8
 73
     4
 74
     0
 42
0.000000001
 43
0.0000000001
 40
50.0
 40
50.0
 40
50.0
 40
50.0
 40
51.0
 40
51.0
 40
51.0
 40
51.0
 10
643.839176818211
 20
1166.722407189586
 30
0.0
 10
643.6958608460241
 20
1165.112858578877
 30
0.0
 10
642.383968485241
 20
1163.966330801386
 30
0.0
 10
640.8019806384141
 20
1163.905697120845
 30
0.0
  0
SPLINE
  5
79AB
330
A
100
AcDbEntity
  8
MODEL
100
AcDbSpline
210
0.0
220
0.0
230
1.0
 70
    24
 71
     3
 72
     8
 73
     4
 74
     0
 42
0.000000001
 43
0.0000000001
 40
49.0
 40
49.0
 40
49.0
 40
49.0
 40
50.0
 40
50.0
 40
50.0
 40
50.0
 10
645.388091748378
 20
1191.918457530509
 30
0.0
 10
645.388091748378
 20
1191.918457530509
 30
0.0
 10
643.839176818211
 20
1166.722407189586
 30
0.0
 10
643.839176818211
 20
1166.722407189586
 30
0.0
  0
SPLINE
  5
79AC
330
A
100
AcDbEntity
  8
MODEL
100
AcDbSpline
210
0.0
220
0.0
230
1.0
 70
    27
 71
     3
 72
     8
 73
     4
 74
     0
 42
0.000000001
 43
0.0000000001
 40
48.0
 40
48.0
 40
48.0
 40
48.0
 40
49.0
 40
49.0
 40
49.0
 40
49.0
 10
645.388091748378
 20
1191.918457530509
 30
0.0
 10
645.388091748378
 20
1191.918457530509
 30
0.0
 10
645.388091748378
 20
1191.918457530509
 30
0.0
 10
645.388091748378
 20
1191.918457530509
 30
0.0
  0
SPLINE
  5
79AD
330
A
100
AcDbEntity
  8
MODEL
100
AcDbSpline
210
0.0
220
0.0
230
1.0
 70
     8
 71
     3
 72
     8
 73
     4
 74
     0
 42
0.000000001
 43
0.0000000001
 40
47.0
 40
47.0
 40
47.0
 40
47.0
 40
48.0
 40
48.0
 40
48.0
 40
48.0
 10
652.8846195242818
 20
1199.40396100086
 30
0.0
 10
648.8497236919579
 20
1199.155914125922
 30
0.0
 10
645.636138623317
 20
1195.947841210057
 30
0.0
 10
645.388091748378
 20
1191.918457530509
 30
0.0
  0
SPLINE
  5
79AE
330
A
100
AcDbEntity
  8
MODEL
100
AcDbSpline
210
0.0
220
0.0
230
1.0
 70
    24
 71
     3
 72
     8
 73
     4
 74
     0
 42
0.000000001
 43
0.0000000001
 40
46.0
 40
46.0
 40
46.0
 40
46.0
 40
47.0
 40
47.0
 40
47.0
 40
47.0
 10
652.4877445243819
 20
1199.392936695307
 30
0.0
 10
652.4877445243819
 20
1199.392936695307
 30
0.0
 10
652.8846195242818
 20
1199.40396100086
 30
0.0
 10
652.8846195242818
 20
1199.40396100086
 30
0.0
  0
SPLINE
  5
79AF
330
A
100
AcDbEntity
  8
MODEL
100
AcDbSpline
210
0.0
220
0.0
230
1.0
 70
    24
 71
     3
 72
     8
 73
     4
 74
     0
 42
0.000000001
 43
0.0000000001
 40
45.0
 40
45.0
 40
45.0
 40
45.0
 40
46.0
 40
46.0
 40
46.0
 40
46.0
 10
663.9640466048459
 20
1200.026834264593
 30
0.0
 10
663.9640466048459
 20
1200.026834264593
 30
0.0
 10
652.4877445243819
 20
1199.392936695307
 30
0.0
 10
652.4877445243819
 20
1199.392936695307
 30
0.0
  0
SPLINE
  5
79B0
330
A
100
AcDbEntity
  8
MODEL
100
AcDbSpline
210
0.0
220
0.0
230
1.0
 70
    24
 71
     3
 72
     8
 73
     4
 74
     0
 42
0.000000001
 43
0.0000000001
 40
44.0
 40
44.0
 40
44.0
 40
44.0
 40
45.0
 40
45.0
 40
45.0
 40
45.0
 10
675.3907393103227
 20
1200.699316903314
 30
0.0
 10
675.3907393103227
 20
1200.699316903314
 30
0.0
 10
663.9640466048459
 20
1200.026834264593
 30
0.0
 10
663.9640466048459
 20
1200.026834264593
 30
0.0
  0
SPLINE
  5
79B1
330
A
100
AcDbEntity
  8
MODEL
100
AcDbSpline
210
0.0
220
0.0
230
1.0
 70
    24
 71
     3
 72
     8
 73
     4
 74
     0
 42
0.000000001
 43
0.0000000001
 40
43.0
 40
43.0
 40
43.0
 40
43.0
 40
44.0
 40
44.0
 40
44.0
 40
44.0
 10
688.5372236820358
 20
1201.482042597562
 30
0.0
 10
688.5372236820358
 20
1201.482042597562
 30
0.0
 10
675.3907393103227
 20
1200.699316903314
 30
0.0
 10
675.3907393103227
 20
1200.699316903314
 30
0.0
  0
SPLINE
  5
79B2
330
A
100
AcDbEntity
  8
MODEL
100
AcDbSpline
210
0.0
220
0.0
230
1.0
 70
    24
 71
     3
 72
     8
 73
     4
 74
     0
 42
0.000000001
 43
0.0000000001
 40
42.0
 40
42.0
 40
42.0
 40
42.0
 40
43.0
 40
43.0
 40
43.0
 40
43.0
 10
718.2146542301721
 20
1203.190809958246
 30
0.0
 10
718.2146542301721
 20
1203.190809958246
 30
0.0
 10
688.5372236820358
 20
1201.482042597562
 30
0.0
 10
688.5372236820358
 20
1201.482042597562
 30
0.0
  0
SPLINE
  5
79B3
330
A
100
AcDbEntity
  8
MODEL
100
AcDbSpline
210
0.0
220
0.0
230
1.0
 70
    24
 71
     3
 72
     8
 73
     4
 74
     0
 42
0.000000001
 43
0.0000000001
 40
41.0
 40
41.0
 40
41.0
 40
41.0
 40
42.0
 40
42.0
 40
42.0
 40
42.0
 10
748.7133955419918
 20
1204.849967943943
 30
0.0
 10
748.7133955419918
 20
1204.849967943943
 30
0.0
 10
718.2146542301721
 20
1203.190809958246
 30
0.0
 10
718.2146542301721
 20
1203.190809958246
 30
0.0
  0
SPLINE
  5
79B4
330
A
100
AcDbEntity
  8
MODEL
100
AcDbSpline
210
0.0
220
0.0
230
1.0
 70
    24
 71
     3
 72
     8
 73
     4
 74
     0
 42
0.000000001
 43
0.0000000001
 40
40.0
 40
40.0
 40
40.0
 40
40.0
 40
41.0
 40
41.0
 40
41.0
 40
41.0
 10
770.9273712308827
 20
1206.07917801308
 30
0.0
 10
770.9273712308827
 20
1206.07917801308
 30
0.0
 10
748.7133955419918
 20
1204.849967943943
 30
0.0
 10
748.7133955419918
 20
1204.849967943943
 30
0.0
  0
SPLINE
  5
79B5
330
A
100
AcDbEntity
  8
MODEL
100
AcDbSpline
210
0.0
220
0.0
230
1.0
 70
    24
 71
     3
 72
     8
 73
     4
 74
     0
 42
0.000000001
 43
0.0000000001
 40
39.0
 40
39.0
 40
39.0
 40
39.0
 40
40.0
 40
40.0
 40
40.0
 40
40.0
 10
793.152371225327
 20
1207.369021762757
 30
0.0
 10
793.152371225327
 20
1207.369021762757
 30
0.0
 10
770.9273712308827
 20
1206.07917801308
 30
0.0
 10
770.9273712308827
 20
1206.07917801308
 30
0.0
  0
SPLINE
  5
79B6
330
A
100
AcDbEntity
  8
MODEL
100
AcDbSpline
210
0.0
220
0.0
230
1.0
 70
    24
 71
     3
 72
     8
 73
     4
 74
     0
 42
0.000000001
 43
0.0000000001
 40
38.0
 40
38.0
 40
38.0
 40
38.0
 40
39.0
 40
39.0
 40
39.0
 40
39.0
 10
815.366346914218
 20
1208.725011345752
 30
0.0
 10
815.366346914218
 20
1208.725011345752
 30
0.0
 10
793.152371225327
 20
1207.369021762757
 30
0.0
 10
793.152371225327
 20
1207.369021762757
 30
0.0
  0
SPLINE
  5
79B7
330
A
100
AcDbEntity
  8
MODEL
100
AcDbSpline
210
0.0
220
0.0
230
1.0
 70
    24
 71
     3
 72
     8
 73
     4
 74
     0
 42
0.000000001
 43
0.0000000001
 40
37.0
 40
37.0
 40
37.0
 40
37.0
 40
38.0
 40
38.0
 40
38.0
 40
38.0
 10
815.366346914218
 20
1208.691938429093
 30
0.0
 10
815.366346914218
 20
1208.691938429093
 30
0.0
 10
815.366346914218
 20
1208.725011345752
 30
0.0
 10
815.366346914218
 20
1208.725011345752
 30
0.0
  0
SPLINE
  5
79B8
330
A
100
AcDbEntity
  8
MODEL
100
AcDbSpline
210
0.0
220
0.0
230
1.0
 70
     8
 71
     3
 72
     8
 73
     4
 74
     0
 42
0.000000001
 43
0.0000000001
 40
36.0
 40
36.0
 40
36.0
 40
36.0
 40
37.0
 40
37.0
 40
37.0
 40
37.0
 10
832.7406524654289
 20
1212.219716205989
 30
0.0
 10
827.217475383477
 20
1209.843978359361
 30
0.0
 10
821.3084476071758
 20
1209.099837734547
 30
0.0
 10
815.366346914218
 20
1208.691938429093
 30
0.0
  0
SPLINE
  5
79B9
330
A
100
AcDbEntity
  8
MODEL
100
AcDbSpline
210
0.0
220
0.0
230
1.0
 70
     8
 71
     3
 72
     8
 73
     4
 74
     0
 42
0.000000001
 43
0.0000000001
 40
35.0
 40
35.0
 40
35.0
 40
35.0
 40
36.0
 40
36.0
 40
36.0
 40
36.0
 10
847.5021976006278
 20
1222.681782175596
 30
0.0
 10
843.3956437822098
 20
1218.123231829513
 30
0.0
 10
838.3520239918039
 20
1214.639551274829
 30
0.0
 10
832.7406524654289
 20
1212.219716205989
 30
0.0
  0
SPLINE
  5
79BA
330
A
100
AcDbEntity
  8
MODEL
100
AcDbSpline
210
0.0
220
0.0
230
1.0
 70
     8
 71
     3
 72
     8
 73
     4
 74
     0
 42
0.000000001
 43
0.0000000001
 40
34.0
 40
34.0
 40
34.0
 40
34.0
 40
35.0
 40
35.0
 40
35.0
 40
35.0
 10
855.8145239874389
 20
1236.759820366521
 30
0.0
 10
853.9073191268039
 20
1231.583908909481
 30
0.0
 10
851.195339960816
 20
1226.788335994014
 30
0.0
 10
847.5021976006278
 20
1222.681782175596
 30
0.0
  0
SPLINE
  5
79BB
330
A
100
AcDbEntity
  8
MODEL
100
AcDbSpline
210
0.0
220
0.0
230
1.0
 70
     8
 71
     3
 72
     8
 73
     4
 74
     0
 42
0.000000001
 43
0.0000000001
 40
33.0
 40
33.0
 40
33.0
 40
33.0
 40
34.0
 40
34.0
 40
34.0
 40
34.0
 10
858.515478847874
 20
1252.259993973757
 30
0.0
 10
858.1682132229621
 20
1247.017936683401
 30
0.0
 10
857.6335344036511
 20
1241.731782170833
 30
0.0
 10
855.8145239874389
 20
1236.759820366521
 30
0.0
  0
SPLINE
  5
79BC
330
A
100
AcDbEntity
  8
MODEL
100
AcDbSpline
210
0.0
220
0.0
230
1.0
 70
    27
 71
     3
 72
     8
 73
     4
 74
     0
 42
0.000000001
 43
0.0000000001
 40
32.0
 40
32.0
 40
32.0
 40
32.0
 40
33.0
 40
33.0
 40
33.0
 40
33.0
 10
858.515478847874
 20
1252.259993973757
 30
0.0
 10
858.515478847874
 20
1252.259993973757
 30
0.0
 10
858.515478847874
 20
1252.259993973757
 30
0.0
 10
858.515478847874
 20
1252.259993973757
 30
0.0
  0
SPLINE
  5
79BD
330
A
100
AcDbEntity
  8
MODEL
100
AcDbSpline
210
0.0
220
0.0
230
1.0
 70
    24
 71
     3
 72
     8
 73
     4
 74
     0
 42
0.000000001
 43
0.0000000001
 40
31.0
 40
31.0
 40
31.0
 40
31.0
 40
32.0
 40
32.0
 40
32.0
 40
32.0
 10
859.9706871808439
 20
1276.050445356698
 30
0.0
 10
859.9706871808439
 20
1276.050445356698
 30
0.0
 10
858.515478847874
 20
1252.259993973757
 30
0.0
 10
858.515478847874
 20
1252.259993973757
 30
0.0
  0
SPLINE
  5
79BE
330
A
100
AcDbEntity
  8
MODEL
100
AcDbSpline
210
0.0
220
0.0
230
1.0
 70
     8
 71
     3
 72
     8
 73
     4
 74
     0
 42
0.000000001
 43
0.0000000001
 40
30.0
 40
30.0
 40
30.0
 40
30.0
 40
31.0
 40
31.0
 40
31.0
 40
31.0
 10
862.837006624572
 20
1278.861643272662
 30
0.0
 10
861.3377010693907
 20
1278.817546050451
 30
0.0
 10
860.0974666947009
 20
1277.527702300773
 30
0.0
 10
859.9706871808439
 20
1276.050445356698
 30
0.0
  0
SPLINE
  5
79BF
330
A
100
AcDbEntity
  8
MODEL
100
AcDbSpline
210
0.0
220
0.0
230
1.0
 70
    24
 71
     3
 72
     8
 73
     4
 74
     0
 42
0.000000001
 43
0.0000000001
 40
29.0
 40
29.0
 40
29.0
 40
29.0
 40
30.0
 40
30.0
 40
30.0
 40
30.0
 10
870.498898983768
 20
1278.861643272662
 30
0.0
 10
870.498898983768
 20
1278.861643272662
 30
0.0
 10
862.837006624572
 20
1278.861643272662
 30
0.0
 10
862.837006624572
 20
1278.861643272662
 30
0.0
  0
SPLINE
  5
79C0
330
A
100
AcDbEntity
  8
MODEL
100
AcDbSpline
210
0.0
220
0.0
230
1.0
 70
     8
 71
     3
 72
     8
 73
     4
 74
     0
 42
0.000000001
 43
0.0000000001
 40
28.0
 40
28.0
 40
28.0
 40
28.0
 40
29.0
 40
29.0
 40
29.0
 40
29.0
 10
873.61877745521
 20
1281.705914105284
 30
0.0
 10
873.4368764135888
 20
1280.096365494576
 30
0.0
 10
872.1690812750171
 20
1278.812033897674
 30
0.0
 10
870.498898983768
 20
1278.861643272662
 30
0.0
  0
SPLINE
  5
79C1
330
A
100
AcDbEntity
  8
MODEL
100
AcDbSpline
210
0.0
220
0.0
230
1.0
 70
    24
 71
     3
 72
     8
 73
     4
 74
     0
 42
0.000000001
 43
0.0000000001
 40
27.0
 40
27.0
 40
27.0
 40
27.0
 40
28.0
 40
28.0
 40
28.0
 40
28.0
 10
875.66929828803
 20
1320.847710970499
 30
0.0
 10
875.66929828803
 20
1320.847710970499
 30
0.0
 10
873.61877745521
 20
1281.705914105284
 30
0.0
 10
873.61877745521
 20
1281.705914105284
 30
0.0
  0
SPLINE
  5
79C2
330
A
100
AcDbEntity
  8
MODEL
100
AcDbSpline
210
0.0
220
0.0
230
1.0
 70
    24
 71
     3
 72
    11
 73
     7
 74
     0
 42
0.000000001
 43
0.0000000001
 40
25.0
 40
25.0
 40
25.0
 40
25.0
 40
26.0
 40
26.0
 40
26.0
 40
27.0
 40
27.0
 40
27.0
 40
27.0
 10
339.6785866164728
 20
1320.847710970499
 30
0.0
 10
339.6785866164728
 20
1320.847710970499
 30
0.0
 10
607.6794546050278
 20
1320.847710970499
 30
0.0
 10
607.6794546050278
 20
1320.847710970499
 30
0.0
 10
607.6794546050278
 20
1320.847710970499
 30
0.0
 10
875.66929828803
 20
1320.847710970499
 30
0.0
 10
875.66929828803
 20
1320.847710970499
 30
0.0
  0
SPLINE
  5
79C3
330
A
100
AcDbEntity
  8
MODEL
100
AcDbSpline
210
0.0
220
0.0
230
1.0
 70
    24
 71
     3
 72
     8
 73
     4
 74
     0
 42
0.000000001
 43
0.0000000001
 40
24.0
 40
24.0
 40
24.0
 40
24.0
 40
25.0
 40
25.0
 40
25.0
 40
25.0
 10
341.7291074492928
 20
1281.705914105284
 30
0.0
 10
341.7291074492928
 20
1281.705914105284
 30
0.0
 10
339.6785866164728
 20
1320.847710970499
 30
0.0
 10
339.6785866164728
 20
1320.847710970499
 30
0.0
  0
SPLINE
  5
79C4
330
A
100
AcDbEntity
  8
MODEL
100
AcDbSpline
210
0.0
220
0.0
230
1.0
 70
     8
 71
     3
 72
     8
 73
     4
 74
     0
 42
0.000000001
 43
0.0000000001
 40
23.0
 40
23.0
 40
23.0
 40
23.0
 40
24.0
 40
24.0
 40
24.0
 40
24.0
 10
344.8544980735119
 20
1278.861643272662
 30
0.0
 10
343.1843157822627
 20
1278.812033897674
 30
0.0
 10
341.9054963381377
 20
1280.096365494576
 30
0.0
 10
341.7291074492928
 20
1281.705914105284
 30
0.0
  0
SPLINE
  5
79C5
330
A
100
AcDbEntity
  8
MODEL
100
AcDbSpline
210
0.0
220
0.0
230
1.0
 70
    24
 71
     3
 72
     8
 73
     4
 74
     0
 42
0.000000001
 43
0.0000000001
 40
22.0
 40
22.0
 40
22.0
 40
22.0
 40
23.0
 40
23.0
 40
23.0
 40
23.0
 10
352.505366127155
 20
1278.861643272662
 30
0.0
 10
352.505366127155
 20
1278.861643272662
 30
0.0
 10
344.8544980735119
 20
1278.861643272662
 30
0.0
 10
344.8544980735119
 20
1278.861643272662
 30
0.0
  0
SPLINE
  5
79C6
330
A
100
AcDbEntity
  8
MODEL
100
AcDbSpline
210
0.0
220
0.0
230
1.0
 70
     8
 71
     3
 72
     8
 73
     4
 74
     0
 42
0.000000001
 43
0.0000000001
 40
21.0
 40
21.0
 40
21.0
 40
21.0
 40
22.0
 40
22.0
 40
22.0
 40
22.0
 10
355.3827098764359
 20
1276.050445356698
 30
0.0
 10
355.255930362579
 20
1277.527702300773
 30
0.0
 10
354.0212081406648
 20
1278.817546050451
 30
0.0
 10
352.505366127155
 20
1278.861643272662
 30
0.0
  0
SPLINE
  5
79C7
330
A
100
AcDbEntity
  8
MODEL
100
AcDbSpline
210
0.0
220
0.0
230
1.0
 70
    24
 71
     3
 72
     8
 73
     4
 74
     0
 42
0.000000001
 43
0.0000000001
 40
20.0
 40
20.0
 40
20.0
 40
20.0
 40
21.0
 40
21.0
 40
21.0
 40
21.0
 10
356.837918209405
 20
1252.259993973757
 30
0.0
 10
356.837918209405
 20
1252.259993973757
 30
0.0
 10
355.3827098764359
 20
1276.050445356698
 30
0.0
 10
355.3827098764359
 20
1276.050445356698
 30
0.0
  0
SPLINE
  5
79C8
330
A
100
AcDbEntity
  8
MODEL
100
AcDbSpline
210
0.0
220
0.0
230
1.0
 70
    27
 71
     3
 72
     8
 73
     4
 74
     0
 42
0.000000001
 43
0.0000000001
 40
19.0
 40
19.0
 40
19.0
 40
19.0
 40
20.0
 40
20.0
 40
20.0
 40
20.0
 10
356.837918209405
 20
1252.259993973757
 30
0.0
 10
356.837918209405
 20
1252.259993973757
 30
0.0
 10
356.837918209405
 20
1252.259993973757
 30
0.0
 10
356.837918209405
 20
1252.259993973757
 30
0.0
  0
SPLINE
  5
79C9
330
A
100
AcDbEntity
  8
MODEL
100
AcDbSpline
210
0.0
220
0.0
230
1.0
 70
     8
 71
     3
 72
     8
 73
     4
 74
     0
 42
0.000000001
 43
0.0000000001
 40
18.0
 40
18.0
 40
18.0
 40
18.0
 40
19.0
 40
19.0
 40
19.0
 40
19.0
 10
359.5443852226181
 20
1236.759820366521
 30
0.0
 10
357.714350500853
 20
1241.731782170833
 30
0.0
 10
357.1906959870948
 20
1247.017936683401
 30
0.0
 10
356.837918209405
 20
1252.259993973757
 30
0.0
  0
SPLINE
  5
79CA
330
A
100
AcDbEntity
  8
MODEL
100
AcDbSpline
210
0.0
220
0.0
230
1.0
 70
     8
 71
     3
 72
     8
 73
     4
 74
     0
 42
0.000000001
 43
0.0000000001
 40
17.0
 40
17.0
 40
17.0
 40
17.0
 40
18.0
 40
18.0
 40
18.0
 40
18.0
 10
367.8567116094277
 20
1222.681782175596
 30
0.0
 10
364.1525449436881
 20
1226.788335994014
 30
0.0
 10
361.4460779304759
 20
1231.583908909481
 30
0.0
 10
359.5443852226181
 20
1236.759820366521
 30
0.0
  0
SPLINE
  5
79CB
330
A
100
AcDbEntity
  8
MODEL
100
AcDbSpline
210
0.0
220
0.0
230
1.0
 70
     8
 71
     3
 72
     8
 73
     4
 74
     0
 42
0.000000001
 43
0.0000000001
 40
16.0
 40
16.0
 40
16.0
 40
16.0
 40
17.0
 40
17.0
 40
17.0
 40
17.0
 10
382.612744591851
 20
1212.219716205989
 30
0.0
 10
376.9958609126988
 20
1214.639551274829
 30
0.0
 10
371.95775327507
 20
1218.123231829513
 30
0.0
 10
367.8567116094277
 20
1222.681782175596
 30
0.0
  0
SPLINE
  5
79CC
330
A
100
AcDbEntity
  8
MODEL
100
AcDbSpline
210
0.0
220
0.0
230
1.0
 70
     8
 71
     3
 72
     8
 73
     4
 74
     0
 42
0.000000001
 43
0.0000000001
 40
15.0
 40
15.0
 40
15.0
 40
15.0
 40
16.0
 40
16.0
 40
16.0
 40
16.0
 10
399.9815379902861
 20
1208.691938429093
 30
0.0
 10
394.0504616028797
 20
1209.099837734547
 30
0.0
 10
388.1304095210271
 20
1209.843978359361
 30
0.0
 10
382.612744591851
 20
1212.219716205989
 30
0.0
  0
SPLINE
  5
79CD
330
A
100
AcDbEntity
  8
MODEL
100
AcDbSpline
210
0.0
220
0.0
230
1.0
 70
    24
 71
     3
 72
     8
 73
     4
 74
     0
 42
0.000000001
 43
0.0000000001
 40
14.0
 40
14.0
 40
14.0
 40
14.0
 40
15.0
 40
15.0
 40
15.0
 40
15.0
 10
399.9870501430619
 20
1208.725011345752
 30
0.0
 10
399.9870501430619
 20
1208.725011345752
 30
0.0
 10
399.9815379902861
 20
1208.691938429093
 30
0.0
 10
399.9815379902861
 20
1208.691938429093
 30
0.0
  0
SPLINE
  5
79CE
330
A
100
AcDbEntity
  8
MODEL
100
AcDbSpline
210
0.0
220
0.0
230
1.0
 70
    24
 71
     3
 72
     8
 73
     4
 74
     0
 42
0.000000001
 43
0.0000000001
 40
13.0
 40
13.0
 40
13.0
 40
13.0
 40
14.0
 40
14.0
 40
14.0
 40
14.0
 10
422.2010258319528
 20
1207.369021762757
 30
0.0
 10
422.2010258319528
 20
1207.369021762757
 30
0.0
 10
399.9870501430619
 20
1208.725011345752
 30
0.0
 10
399.9870501430619
 20
1208.725011345752
 30
0.0
  0
SPLINE
  5
79CF
330
A
100
AcDbEntity
  8
MODEL
100
AcDbSpline
210
0.0
220
0.0
230
1.0
 70
    24
 71
     3
 72
     8
 73
     4
 74
     0
 42
0.000000001
 43
0.0000000001
 40
12.0
 40
12.0
 40
12.0
 40
12.0
 40
13.0
 40
13.0
 40
13.0
 40
13.0
 10
444.4205136736209
 20
1206.07917801308
 30
0.0
 10
444.4205136736209
 20
1206.07917801308
 30
0.0
 10
422.2010258319528
 20
1207.369021762757
 30
0.0
 10
422.2010258319528
 20
1207.369021762757
 30
0.0
  0
SPLINE
  5
79D0
330
A
100
AcDbEntity
  8
MODEL
100
AcDbSpline
210
0.0
220
0.0
230
1.0
 70
    24
 71
     3
 72
     8
 73
     4
 74
     0
 42
0.000000001
 43
0.0000000001
 40
11.0
 40
11.0
 40
11.0
 40
11.0
 40
12.0
 40
12.0
 40
12.0
 40
12.0
 10
466.6510258208409
 20
1204.849967943943
 30
0.0
 10
466.6510258208409
 20
1204.849967943943
 30
0.0
 10
444.4205136736209
 20
1206.07917801308
 30
0.0
 10
444.4205136736209
 20
1206.07917801308
 30
0.0
  0
SPLINE
  5
79D1
330
A
100
AcDbEntity
  8
MODEL
100
AcDbSpline
210
0.0
220
0.0
230
1.0
 70
    24
 71
     3
 72
     8
 73
     4
 74
     0
 42
0.000000001
 43
0.0000000001
 40
10.0
 40
10.0
 40
10.0
 40
10.0
 40
11.0
 40
11.0
 40
11.0
 40
11.0
 10
497.1387428271078
 20
1203.190809958246
 30
0.0
 10
497.1387428271078
 20
1203.190809958246
 30
0.0
 10
466.6510258208409
 20
1204.849967943943
 30
0.0
 10
466.6510258208409
 20
1204.849967943943
 30
0.0
  0
SPLINE
  5
79D2
330
A
100
AcDbEntity
  8
MODEL
100
AcDbSpline
210
0.0
220
0.0
230
1.0
 70
    24
 71
     3
 72
     8
 73
     4
 74
     0
 42
0.000000001
 43
0.0000000001
 40
9.0
 40
9.0
 40
9.0
 40
9.0
 40
10.0
 40
10.0
 40
10.0
 40
10.0
 10
526.8216855280198
 20
1201.482042597562
 30
0.0
 10
526.8216855280198
 20
1201.482042597562
 30
0.0
 10
497.1387428271078
 20
1203.190809958246
 30
0.0
 10
497.1387428271078
 20
1203.190809958246
 30
0.0
  0
SPLINE
  5
79D3
330
A
100
AcDbEntity
  8
MODEL
100
AcDbSpline
210
0.0
220
0.0
230
1.0
 70
    24
 71
     3
 72
     8
 73
     4
 74
     0
 42
0.000000001
 43
0.0000000001
 40
8.0
 40
8.0
 40
8.0
 40
8.0
 40
9.0
 40
9.0
 40
9.0
 40
9.0
 10
539.9626577469571
 20
1200.699316903314
 30
0.0
 10
539.9626577469571
 20
1200.699316903314
 30
0.0
 10
526.8216855280198
 20
1201.482042597562
 30
0.0
 10
526.8216855280198
 20
1201.482042597562
 30
0.0
  0
SPLINE
  5
79D4
330
A
100
AcDbEntity
  8
MODEL
100
AcDbSpline
210
0.0
220
0.0
230
1.0
 70
    24
 71
     3
 72
     8
 73
     4
 74
     0
 42
0.000000001
 43
0.0000000001
 40
7.0
 40
7.0
 40
7.0
 40
7.0
 40
8.0
 40
8.0
 40
8.0
 40
8.0
 10
551.3948626052097
 20
1200.026834264593
 30
0.0
 10
551.3948626052097
 20
1200.026834264593
 30
0.0
 10
539.9626577469571
 20
1200.699316903314
 30
0.0
 10
539.9626577469571
 20
1200.699316903314
 30
0.0
  0
SPLINE
  5
79D5
330
A
100
AcDbEntity
  8
MODEL
100
AcDbSpline
210
0.0
220
0.0
230
1.0
 70
    24
 71
     3
 72
     8
 73
     4
 74
     0
 42
0.000000001
 43
0.0000000001
 40
6.0
 40
6.0
 40
6.0
 40
6.0
 40
7.0
 40
7.0
 40
7.0
 40
7.0
 10
562.8656525328979
 20
1199.392936695307
 30
0.0
 10
562.8656525328979
 20
1199.392936695307
 30
0.0
 10
551.3948626052097
 20
1200.026834264593
 30
0.0
 10
551.3948626052097
 20
1200.026834264593
 30
0.0
  0
SPLINE
  5
79D6
330
A
100
AcDbEntity
  8
MODEL
100
AcDbSpline
210
0.0
220
0.0
230
1.0
 70
    24
 71
     3
 72
     8
 73
     4
 74
     0
 42
0.000000001
 43
0.0000000001
 40
5.0
 40
5.0
 40
5.0
 40
5.0
 40
6.0
 40
6.0
 40
6.0
 40
6.0
 10
562.4742896857738
 20
1199.40396100086
 30
0.0
 10
562.4742896857738
 20
1199.40396100086
 30
0.0
 10
562.8656525328979
 20
1199.392936695307
 30
0.0
 10
562.8656525328979
 20
1199.392936695307
 30
0.0
  0
SPLINE
  5
79D7
330
A
100
AcDbEntity
  8
MODEL
100
AcDbSpline
210
0.0
220
0.0
230
1.0
 70
     8
 71
     3
 72
     8
 73
     4
 74
     0
 42
0.000000001
 43
0.0000000001
 40
4.0
 40
4.0
 40
4.0
 40
4.0
 40
5.0
 40
5.0
 40
5.0
 40
5.0
 10
569.965305308901
 20
1191.918457530509
 30
0.0
 10
569.7172584339628
 20
1195.947841210057
 30
0.0
 10
566.5036733653219
 20
1199.155914125922
 30
0.0
 10
562.4742896857738
 20
1199.40396100086
 30
0.0
  0
SPLINE
  5
79D8
330
A
100
AcDbEntity
  8
MODEL
100
AcDbSpline
210
0.0
220
0.0
230
1.0
 70
    27
 71
     3
 72
     8
 73
     4
 74
     0
 42
0.000000001
 43
0.0000000001
 40
3.0
 40
3.0
 40
3.0
 40
3.0
 40
4.0
 40
4.0
 40
4.0
 40
4.0
 10
569.965305308901
 20
1191.918457530509
 30
0.0
 10
569.965305308901
 20
1191.918457530509
 30
0.0
 10
569.965305308901
 20
1191.918457530509
 30
0.0
 10
569.965305308901
 20
1191.918457530509
 30
0.0
  0
SPLINE
  5
79D9
330
A
100
AcDbEntity
  8
MODEL
100
AcDbSpline
210
0.0
220
0.0
230
1.0
 70
    24
 71
     3
 72
     8
 73
     4
 74
     0
 42
0.000000001
 43
0.0000000001
 40
2.0
 40
2.0
 40
2.0
 40
2.0
 40
3.0
 40
3.0
 40
3.0
 40
3.0
 10
571.519732391846
 20
1166.722407189586
 30
0.0
 10
571.519732391846
 20
1166.722407189586
 30
0.0
 10
569.965305308901
 20
1191.918457530509
 30
0.0
 10
569.965305308901
 20
1191.918457530509
 30
0.0
  0
SPLINE
  5
79DA
330
A
100
AcDbEntity
  8
MODEL
100
AcDbSpline
210
0.0
220
0.0
230
1.0
 70
     8
 71
     3
 72
     8
 73
     4
 74
     0
 42
0.000000001
 43
0.0000000001
 40
1.0
 40
1.0
 40
1.0
 40
1.0
 40
2.0
 40
2.0
 40
2.0
 40
2.0
 10
574.556928571642
 20
1163.905697120845
 30
0.0
 10
572.9639164192631
 20
1163.966330801386
 30
0.0
 10
571.663048364032
 20
1165.112858578877
 30
0.0
 10
571.519732391846
 20
1166.722407189586
 30
0.0
  0
SPLINE
  5
79DB
330
A
100
AcDbEntity
  8
MODEL
100
AcDbSpline
210
0.0
220
0.0
230
1.0
 70
    24
 71
     3
 72
     8
 73
     4
 74
     0
 42
0.000000001
 43
0.0000000001
 40
0.0
 40
0.0
 40
0.0
 40
0.0
 40
1.0
 40
1.0
 40
1.0
 40
1.0
 10
607.6794546050278
 20
1163.905697120845
 30
0.0
 10
607.6794546050278
 20
1163.905697120845
 30
0.0
 10
574.556928571642
 20
1163.905697120845
 30
0.0
 10
574.556928571642
 20
1163.905697120845
 30
0.0
  0
SPLINE
  5
79DC
330
A
100
AcDbEntity
  8
MODEL
100
AcDbSpline
210
0.0
220
0.0
230
1.0
 70
     8
 71
     3
 72
    11
 73
     7
 74
     0
 42
0.000000001
 43
0.0000000001
 40
69.0
 40
69.0
 40
69.0
 40
69.0
 40
70.0
 40
70.0
 40
70.0
 40
71.0
 40
71.0
 40
71.0
 40
71.0
 10
688.9506351402661
 20
1281.083040841551
 30
0.0
 10
689.3034129179559
 20
1279.771148480768
 30
0.0
 10
690.4940379176578
 20
1278.861643272662
 30
0.0
 10
691.844515347876
 20
1278.861643272662
 30
0.0
 10
691.844515347876
 20
1278.861643272662
 30
0.0
 10
862.837006624572
 20
1278.861643272662
 30
0.0
 10
862.837006624572
 20
1278.861643272662
 30
0.0
  0
SPLINE
  5
79DD
330
A
100
AcDbEntity
  8
MODEL
100
AcDbSpline
210
0.0
220
0.0
230
1.0
 70
    24
 71
     3
 72
     8
 73
     4
 74
     0
 42
0.000000001
 43
0.0000000001
 40
68.0
 40
68.0
 40
68.0
 40
68.0
 40
69.0
 40
69.0
 40
69.0
 40
69.0
 10
682.80458479458
 20
1304.008084238598
 30
0.0
 10
682.80458479458
 20
1304.008084238598
 30
0.0
 10
688.9506351402661
 20
1281.083040841551
 30
0.0
 10
688.9506351402661
 20
1281.083040841551
 30
0.0
  0
SPLINE
  5
79DE
330
A
100
AcDbEntity
  8
MODEL
100
AcDbSpline
210
0.0
220
0.0
230
1.0
 70
    27
 71
     3
 72
     8
 73
     4
 74
     0
 42
0.000000001
 43
0.0000000001
 40
67.0
 40
67.0
 40
67.0
 40
67.0
 40
68.0
 40
68.0
 40
68.0
 40
68.0
 10
682.80458479458
 20
1304.008084238598
 30
0.0
 10
682.80458479458
 20
1304.008084238598
 30
0.0
 10
682.80458479458
 20
1304.008084238598
 30
0.0
 10
682.80458479458
 20
1304.008084238598
 30
0.0
  0
SPLINE
  5
79DF
330
A
100
AcDbEntity
  8
MODEL
100
AcDbSpline
210
0.0
220
0.0
230
1.0
 70
     8
 71
     3
 72
     8
 73
     4
 74
     0
 42
0.000000001
 43
0.0000000001
 40
66.0
 40
66.0
 40
66.0
 40
66.0
 40
67.0
 40
67.0
 40
67.0
 40
67.0
 10
679.8996802814167
 20
1306.22396965471
 30
0.0
 10
681.2501577116359
 20
1306.22396965471
 30
0.0
 10
682.446294864114
 20
1305.314464446604
 30
0.0
 10
682.80458479458
 20
1304.008084238598
 30
0.0
  0
SPLINE
  5
79E0
330
A
100
AcDbEntity
  8
MODEL
100
AcDbSpline
210
0.0
220
0.0
230
1.0
 70
    24
 71
     3
 72
     8
 73
     4
 74
     0
 42
0.000000001
 43
0.0000000001
 40
65.0
 40
65.0
 40
65.0
 40
65.0
 40
66.0
 40
66.0
 40
66.0
 40
66.0
 10
679.894168128641
 20
1306.22396965471
 30
0.0
 10
679.894168128641
 20
1306.22396965471
 30
0.0
 10
679.8996802814167
 20
1306.22396965471
 30
0.0
 10
679.8996802814167
 20
1306.22396965471
 30
0.0
  0
SPLINE
  5
79E1
330
A
100
AcDbEntity
  8
MODEL
100
AcDbSpline
210
0.0
220
0.0
230
1.0
 70
    24
 71
     3
 72
     8
 73
     4
 74
     0
 42
0.000000001
 43
0.0000000001
 40
64.0
 40
64.0
 40
64.0
 40
64.0
 40
65.0
 40
65.0
 40
65.0
 40
65.0
 10
654.9241160515498
 20
1306.218457501934
 30
0.0
 10
654.9241160515498
 20
1306.218457501934
 30
0.0
 10
679.894168128641
 20
1306.22396965471
 30
0.0
 10
679.894168128641
 20
1306.22396965471
 30
0.0
  0
SPLINE
  5
79E2
330
A
100
AcDbEntity
  8
MODEL
100
AcDbSpline
210
0.0
220
0.0
230
1.0
 70
     8
 71
     3
 72
     8
 73
     4
 74
     0
 42
0.000000001
 43
0.0000000001
 40
63.0
 40
63.0
 40
63.0
 40
63.0
 40
64.0
 40
64.0
 40
64.0
 40
64.0
 10
651.975114316177
 20
1303.787598127542
 30
0.0
 10
652.2507219549962
 20
1305.1987092383
 30
0.0
 10
653.4799320241341
 20
1306.218457501934
 30
0.0
 10
654.9241160515498
 20
1306.218457501934
 30
0.0
  0
SPLINE
  5
79E3
330
A
100
AcDbEntity
  8
MODEL
100
AcDbSpline
210
0.0
220
0.0
230
1.0
 70
    24
 71
     3
 72
     8
 73
     4
 74
     0
 42
0.000000001
 43
0.0000000001
 40
62.0
 40
62.0
 40
62.0
 40
62.0
 40
63.0
 40
63.0
 40
63.0
 40
63.0
 10
651.975114316177
 20
1303.765549516436
 30
0.0
 10
651.975114316177
 20
1303.765549516436
 30
0.0
 10
651.975114316177
 20
1303.787598127542
 30
0.0
 10
651.975114316177
 20
1303.787598127542
 30
0.0
  0
SPLINE
  5
79E4
330
A
100
AcDbEntity
  8
MODEL
100
AcDbSpline
210
0.0
220
0.0
230
1.0
 70
    24
 71
     3
 72
     8
 73
     4
 74
     0
 42
0.000000001
 43
0.0000000001
 40
61.0
 40
61.0
 40
61.0
 40
61.0
 40
62.0
 40
62.0
 40
62.0
 40
62.0
 10
644.065175082043
 20
1213.399316900139
 30
0.0
 10
644.065175082043
 20
1213.399316900139
 30
0.0
 10
651.975114316177
 20
1303.765549516436
 30
0.0
 10
651.975114316177
 20
1303.765549516436
 30
0.0
  0
SPLINE
  5
79E5
330
A
100
AcDbEntity
  8
MODEL
100
AcDbSpline
210
0.0
220
0.0
230
1.0
 70
    24
 71
     3
 72
     8
 73
     4
 74
     0
 42
0.000000001
 43
0.0000000001
 40
60.0
 40
60.0
 40
60.0
 40
60.0
 40
61.0
 40
61.0
 40
61.0
 40
61.0
 10
643.01235390175
 20
1201.663943639184
 30
0.0
 10
643.01235390175
 20
1201.663943639184
 30
0.0
 10
644.065175082043
 20
1213.399316900139
 30
0.0
 10
644.065175082043
 20
1213.399316900139
 30
0.0
  0
SPLINE
  5
79E6
330
A
100
AcDbEntity
  8
MODEL
100
AcDbSpline
210
0.0
220
0.0
230
1.0
 70
    24
 71
     3
 72
     8
 73
     4
 74
     0
 42
0.000000001
 43
0.0000000001
 40
59.0
 40
59.0
 40
59.0
 40
59.0
 40
60.0
 40
60.0
 40
60.0
 40
60.0
 10
641.998117790893
 20
1190.948318641862
 30
0.0
 10
641.998117790893
 20
1190.948318641862
 30
0.0
 10
643.01235390175
 20
1201.663943639184
 30
0.0
 10
643.01235390175
 20
1201.663943639184
 30
0.0
  0
SPLINE
  5
79E7
330
A
100
AcDbEntity
  8
MODEL
100
AcDbSpline
210
0.0
220
0.0
230
1.0
 70
    24
 71
     3
 72
     8
 73
     4
 74
     0
 42
0.000000001
 43
0.0000000001
 40
58.0
 40
58.0
 40
58.0
 40
58.0
 40
59.0
 40
59.0
 40
59.0
 40
59.0
 10
641.4193417493711
 20
1185.436165865463
 30
0.0
 10
641.4193417493711
 20
1185.436165865463
 30
0.0
 10
641.998117790893
 20
1190.948318641862
 30
0.0
 10
641.998117790893
 20
1190.948318641862
 30
0.0
  0
SPLINE
  5
79E8
330
A
100
AcDbEntity
  8
MODEL
100
AcDbSpline
210
0.0
220
0.0
230
1.0
 70
    24
 71
     3
 72
     8
 73
     4
 74
     0
 42
0.000000001
 43
0.0000000001
 40
57.0
 40
57.0
 40
57.0
 40
57.0
 40
58.0
 40
58.0
 40
58.0
 40
58.0
 10
641.1492462633269
 20
1183.137598157704
 30
0.0
 10
641.1492462633269
 20
1183.137598157704
 30
0.0
 10
641.4193417493711
 20
1185.436165865463
 30
0.0
 10
641.4193417493711
 20
1185.436165865463
 30
0.0
  0
SPLINE
  5
79E9
330
A
100
AcDbEntity
  8
MODEL
100
AcDbSpline
210
0.0
220
0.0
230
1.0
 70
    24
 71
     3
 72
     8
 73
     4
 74
     0
 42
0.000000001
 43
0.0000000001
 40
56.0
 40
56.0
 40
56.0
 40
56.0
 40
57.0
 40
57.0
 40
57.0
 40
57.0
 10
640.978369527259
 20
1181.969021769107
 30
0.0
 10
640.978369527259
 20
1181.969021769107
 30
0.0
 10
641.1492462633269
 20
1183.137598157704
 30
0.0
 10
641.1492462633269
 20
1183.137598157704
 30
0.0
  0
SPLINE
  5
79EA
330
A
100
AcDbEntity
  8
MODEL
100
AcDbSpline
210
0.0
220
0.0
230
1.0
 70
    24
 71
     3
 72
     8
 73
     4
 74
     0
 42
0.000000001
 43
0.0000000001
 40
55.0
 40
55.0
 40
55.0
 40
55.0
 40
56.0
 40
56.0
 40
56.0
 40
56.0
 10
640.835053555073
 20
1181.202832533188
 30
0.0
 10
640.835053555073
 20
1181.202832533188
 30
0.0
 10
640.978369527259
 20
1181.969021769107
 30
0.0
 10
640.978369527259
 20
1181.969021769107
 30
0.0
  0
SPLINE
  5
79EB
330
A
100
AcDbEntity
  8
MODEL
100
AcDbSpline
210
0.0
220
0.0
230
1.0
 70
    24
 71
     3
 72
     8
 73
     4
 74
     0
 42
0.000000001
 43
0.0000000001
 40
54.0
 40
54.0
 40
54.0
 40
54.0
 40
55.0
 40
55.0
 40
55.0
 40
55.0
 10
640.283838277433
 20
1178.523926283857
 30
0.0
 10
640.283838277433
 20
1178.523926283857
 30
0.0
 10
640.835053555073
 20
1181.202832533188
 30
0.0
 10
640.835053555073
 20
1181.202832533188
 30
0.0
  0
SPLINE
  5
79EC
330
A
100
AcDbEntity
  8
MODEL
100
AcDbSpline
210
0.0
220
0.0
230
1.0
 70
    24
 71
     3
 72
     8
 73
     4
 74
     0
 42
0.000000001
 43
0.0000000001
 40
53.0
 40
53.0
 40
53.0
 40
53.0
 40
54.0
 40
54.0
 40
54.0
 40
54.0
 10
639.7381351525692
 20
1176.379698853838
 30
0.0
 10
639.7381351525692
 20
1176.379698853838
 30
0.0
 10
640.283838277433
 20
1178.523926283857
 30
0.0
 10
640.283838277433
 20
1178.523926283857
 30
0.0
  0
SPLINE
  5
79ED
330
A
100
AcDbEntity
  8
MODEL
100
AcDbSpline
210
0.0
220
0.0
230
1.0
 70
    24
 71
     3
 72
     8
 73
     4
 74
     0
 42
0.000000001
 43
0.0000000001
 40
52.0
 40
52.0
 40
52.0
 40
52.0
 40
53.0
 40
53.0
 40
53.0
 40
53.0
 10
639.2696021665747
 20
1174.869368993104
 30
0.0
 10
639.2696021665747
 20
1174.869368993104
 30
0.0
 10
639.7381351525692
 20
1176.379698853838
 30
0.0
 10
639.7381351525692
 20
1176.379698853838
 30
0.0
  0
SPLINE
  5
79EE
330
A
100
AcDbEntity
  8
MODEL
100
AcDbSpline
210
0.0
220
0.0
230
1.0
 70
    24
 71
     3
 72
     8
 73
     4
 74
     0
 42
0.000000001
 43
0.0000000001
 40
51.0
 40
51.0
 40
51.0
 40
51.0
 40
52.0
 40
52.0
 40
52.0
 40
52.0
 10
638.8506785555687
 20
1173.772450590601
 30
0.0
 10
638.8506785555687
 20
1173.772450590601
 30
0.0
 10
639.2696021665747
 20
1174.869368993104
 30
0.0
 10
639.2696021665747
 20
1174.869368993104
 30
0.0
  0
SPLINE
  5
79EF
330
A
100
AcDbEntity
  8
MODEL
100
AcDbSpline
210
0.0
220
0.0
230
1.0
 70
    24
 71
     3
 72
     8
 73
     4
 74
     0
 42
0.000000001
 43
0.0000000001
 40
50.0
 40
50.0
 40
50.0
 40
50.0
 40
51.0
 40
51.0
 40
51.0
 40
51.0
 10
638.310487583482
 20
1172.631434965886
 30
0.0
 10
638.310487583482
 20
1172.631434965886
 30
0.0
 10
638.8506785555687
 20
1173.772450590601
 30
0.0
 10
638.8506785555687
 20
1173.772450590601
 30
0.0
  0
SPLINE
  5
79F0
330
A
100
AcDbEntity
  8
MODEL
100
AcDbSpline
210
0.0
220
0.0
230
1.0
 70
    24
 71
     3
 72
     8
 73
     4
 74
     0
 42
0.000000001
 43
0.0000000001
 40
49.0
 40
49.0
 40
49.0
 40
49.0
 40
50.0
 40
50.0
 40
50.0
 40
50.0
 10
637.6710778614188
 20
1171.567589480041
 30
0.0
 10
637.6710778614188
 20
1171.567589480041
 30
0.0
 10
638.310487583482
 20
1172.631434965886
 30
0.0
 10
638.310487583482
 20
1172.631434965886
 30
0.0
  0
SPLINE
  5
79F1
330
A
100
AcDbEntity
  8
MODEL
100
AcDbSpline
210
0.0
220
0.0
230
1.0
 70
    24
 71
     3
 72
     8
 73
     4
 74
     0
 42
0.000000001
 43
0.0000000001
 40
48.0
 40
48.0
 40
48.0
 40
48.0
 40
49.0
 40
49.0
 40
49.0
 40
49.0
 10
637.0096195282508
 20
1170.702181494146
 30
0.0
 10
637.0096195282508
 20
1170.702181494146
 30
0.0
 10
637.6710778614188
 20
1171.567589480041
 30
0.0
 10
637.6710778614188
 20
1171.567589480041
 30
0.0
  0
SPLINE
  5
79F2
330
A
100
AcDbEntity
  8
MODEL
100
AcDbSpline
210
0.0
220
0.0
230
1.0
 70
    24
 71
     3
 72
     8
 73
     4
 74
     0
 42
0.000000001
 43
0.0000000001
 40
47.0
 40
47.0
 40
47.0
 40
47.0
 40
48.0
 40
48.0
 40
48.0
 40
48.0
 10
636.3757219589647
 20
1170.057259619307
 30
0.0
 10
636.3757219589647
 20
1170.057259619307
 30
0.0
 10
637.0096195282508
 20
1170.702181494146
 30
0.0
 10
637.0096195282508
 20
1170.702181494146
 30
0.0
  0
SPLINE
  5
79F3
330
A
100
AcDbEntity
  8
MODEL
100
AcDbSpline
210
0.0
220
0.0
230
1.0
 70
    24
 71
     3
 72
     8
 73
     4
 74
     0
 42
0.000000001
 43
0.0000000001
 40
46.0
 40
46.0
 40
46.0
 40
46.0
 40
47.0
 40
47.0
 40
47.0
 40
47.0
 10
635.6315813341507
 20
1169.445410661127
 30
0.0
 10
635.6315813341507
 20
1169.445410661127
 30
0.0
 10
636.3757219589647
 20
1170.057259619307
 30
0.0
 10
636.3757219589647
 20
1170.057259619307
 30
0.0
  0
SPLINE
  5
79F4
330
A
100
AcDbEntity
  8
MODEL
100
AcDbSpline
210
0.0
220
0.0
230
1.0
 70
    24
 71
     3
 72
     8
 73
     4
 74
     0
 42
0.000000001
 43
0.0000000001
 40
45.0
 40
45.0
 40
45.0
 40
45.0
 40
46.0
 40
46.0
 40
46.0
 40
46.0
 10
634.7771976538088
 20
1168.916243994593
 30
0.0
 10
634.7771976538088
 20
1168.916243994593
 30
0.0
 10
635.6315813341507
 20
1169.445410661127
 30
0.0
 10
635.6315813341507
 20
1169.445410661127
 30
0.0
  0
SPLINE
  5
79F5
330
A
100
AcDbEntity
  8
MODEL
100
AcDbSpline
210
0.0
220
0.0
230
1.0
 70
    24
 71
     3
 72
     8
 73
     4
 74
     0
 42
0.000000001
 43
0.0000000001
 40
44.0
 40
44.0
 40
44.0
 40
44.0
 40
45.0
 40
45.0
 40
45.0
 40
45.0
 10
633.8842289040331
 20
1168.513856841915
 30
0.0
 10
633.8842289040331
 20
1168.513856841915
 30
0.0
 10
634.7771976538088
 20
1168.916243994593
 30
0.0
 10
634.7771976538088
 20
1168.916243994593
 30
0.0
  0
SPLINE
  5
79F6
330
A
100
AcDbEntity
  8
MODEL
100
AcDbSpline
210
0.0
220
0.0
230
1.0
 70
     8
 71
     3
 72
     8
 73
     4
 74
     0
 42
0.000000001
 43
0.0000000001
 40
43.0
 40
43.0
 40
43.0
 40
43.0
 40
44.0
 40
44.0
 40
44.0
 40
44.0
 10
632.5778486960257
 20
1168.111469689238
 30
0.0
 10
633.0188209181379
 20
1168.221712744766
 30
0.0
 10
633.4542809874729
 20
1168.359516564176
 30
0.0
 10
633.8842289040331
 20
1168.513856841915
 30
0.0
  0
SPLINE
  5
79F7
330
A
100
AcDbEntity
  8
MODEL
100
AcDbSpline
210
0.0
220
0.0
230
1.0
 70
    27
 71
     3
 72
     8
 73
     4
 74
     0
 42
0.000000001
 43
0.0000000001
 40
42.0
 40
42.0
 40
42.0
 40
42.0
 40
43.0
 40
43.0
 40
43.0
 40
43.0
 10
632.5778486960257
 20
1168.111469689238
 30
0.0
 10
632.5778486960257
 20
1168.111469689238
 30
0.0
 10
632.5778486960257
 20
1168.111469689238
 30
0.0
 10
632.5778486960257
 20
1168.111469689238
 30
0.0
  0
SPLINE
  5
79F8
330
A
100
AcDbEntity
  8
MODEL
100
AcDbSpline
210
0.0
220
0.0
230
1.0
 70
     8
 71
     3
 72
     8
 73
     4
 74
     0
 42
0.000000001
 43
0.0000000001
 40
41.0
 40
41.0
 40
41.0
 40
41.0
 40
42.0
 40
42.0
 40
42.0
 40
42.0
 10
630.3013295993719
 20
1167.642936703244
 30
0.0
 10
631.067518835292
 20
1167.758691911549
 30
0.0
 10
631.8281959184351
 20
1167.913032189288
 30
0.0
 10
632.5778486960257
 20
1168.111469689238
 30
0.0
  0
SPLINE
  5
79F9
330
A
100
AcDbEntity
  8
MODEL
100
AcDbSpline
210
0.0
220
0.0
230
1.0
 70
    27
 71
     3
 72
     8
 73
     4
 74
     0
 42
0.000000001
 43
0.0000000001
 40
40.0
 40
40.0
 40
40.0
 40
40.0
 40
41.0
 40
41.0
 40
41.0
 40
41.0
 10
630.3013295993719
 20
1167.642936703244
 30
0.0
 10
630.3013295993719
 20
1167.642936703244
 30
0.0
 10
630.3013295993719
 20
1167.642936703244
 30
0.0
 10
630.3013295993719
 20
1167.642936703244
 30
0.0
  0
SPLINE
  5
79FA
330
A
100
AcDbEntity
  8
MODEL
100
AcDbSpline
210
0.0
220
0.0
230
1.0
 70
     8
 71
     3
 72
     8
 73
     4
 74
     0
 42
0.000000001
 43
0.0000000001
 40
39.0
 40
39.0
 40
39.0
 40
39.0
 40
40.0
 40
40.0
 40
40.0
 40
40.0
 10
629.8768938355897
 20
1167.598839481033
 30
0.0
 10
630.0202098077762
 20
1167.609863786586
 30
0.0
 10
630.1580136271859
 20
1167.626400244915
 30
0.0
 10
630.3013295993719
 20
1167.642936703244
 30
0.0
  0
SPLINE
  5
79FB
330
A
100
AcDbEntity
  8
MODEL
100
AcDbSpline
210
0.0
220
0.0
230
1.0
 70
     8
 71
     3
 72
     8
 73
     4
 74
     0
 42
0.000000001
 43
0.0000000001
 40
38.0
 40
38.0
 40
38.0
 40
38.0
 40
39.0
 40
39.0
 40
39.0
 40
39.0
 10
618.5439077273118
 20
1167.229525245014
 30
0.0
 10
622.3252445319217
 20
1167.262598161673
 30
0.0
 10
626.1065813365321
 20
1167.383865522754
 30
0.0
 10
629.8768938355897
 20
1167.598839481033
 30
0.0
  0
SPLINE
  5
79FC
330
A
100
AcDbEntity
  8
MODEL
100
AcDbSpline
210
0.0
220
0.0
230
1.0
 70
     8
 71
     3
 72
     8
 73
     4
 74
     0
 42
0.000000001
 43
0.0000000001
 40
37.0
 40
37.0
 40
37.0
 40
37.0
 40
38.0
 40
38.0
 40
38.0
 40
38.0
 10
615.0988122420617
 20
1167.218500939462
 30
0.0
 10
616.2453400195527
 20
1167.212988786685
 30
0.0
 10
617.3973799498208
 20
1167.218500939462
 30
0.0
 10
618.5439077273118
 20
1167.229525245014
 30
0.0
  0
SPLINE
  5
79FD
330
A
100
AcDbEntity
  8
MODEL
100
AcDbSpline
210
0.0
220
0.0
230
1.0
 70
     8
 71
     3
 72
     8
 73
     4
 74
     0
 42
0.000000001
 43
0.0000000001
 40
36.0
 40
36.0
 40
36.0
 40
36.0
 40
37.0
 40
37.0
 40
37.0
 40
37.0
 10
607.6794546050278
 20
1167.224013092238
 30
0.0
 10
610.1488990488551
 20
1167.224013092238
 30
0.0
 10
612.6238556454591
 20
1167.224013092238
 30
0.0
 10
615.0988122420617
 20
1167.218500939462
 30
0.0
  0
SPLINE
  5
79FE
330
A
100
AcDbEntity
  8
MODEL
100
AcDbSpline
210
0.0
220
0.0
230
1.0
 70
    27
 71
     3
 72
     8
 73
     4
 74
     0
 42
0.000000001
 43
0.0000000001
 40
35.0
 40
35.0
 40
35.0
 40
35.0
 40
36.0
 40
36.0
 40
36.0
 40
36.0
 10
607.6794546050278
 20
1167.224013092238
 30
0.0
 10
607.6794546050278
 20
1167.224013092238
 30
0.0
 10
607.6794546050278
 20
1167.224013092238
 30
0.0
 10
607.6794546050278
 20
1167.224013092238
 30
0.0
  0
SPLINE
  5
79FF
330
A
100
AcDbEntity
  8
MODEL
100
AcDbSpline
210
0.0
220
0.0
230
1.0
 70
     8
 71
     3
 72
     8
 73
     4
 74
     0
 42
0.000000001
 43
0.0000000001
 40
34.0
 40
34.0
 40
34.0
 40
34.0
 40
35.0
 40
35.0
 40
35.0
 40
35.0
 10
600.2545848152181
 20
1167.218500939462
 30
0.0
 10
602.7295414118207
 20
1167.224013092238
 30
0.0
 10
605.2044980084247
 20
1167.224013092238
 30
0.0
 10
607.6794546050278
 20
1167.224013092238
 30
0.0
  0
SPLINE
  5
7A00
330
A
100
AcDbEntity
  8
MODEL
100
AcDbSpline
210
0.0
220
0.0
230
1.0
 70
     8
 71
     3
 72
     8
 73
     4
 74
     0
 42
0.000000001
 43
0.0000000001
 40
33.0
 40
33.0
 40
33.0
 40
33.0
 40
34.0
 40
34.0
 40
34.0
 40
34.0
 10
596.8094893299681
 20
1167.229525245014
 30
0.0
 10
597.9615292602348
 20
1167.218500939462
 30
0.0
 10
599.1080570377258
 20
1167.212988786685
 30
0.0
 10
600.2545848152181
 20
1167.218500939462
 30
0.0
  0
SPLINE
  5
7A01
330
A
100
AcDbEntity
  8
MODEL
100
AcDbSpline
210
0.0
220
0.0
230
1.0
 70
     8
 71
     3
 72
     8
 73
     4
 74
     0
 42
0.000000001
 43
0.0000000001
 40
32.0
 40
32.0
 40
32.0
 40
32.0
 40
33.0
 40
33.0
 40
33.0
 40
33.0
 10
585.4765032216901
 20
1167.598839481033
 30
0.0
 10
589.2468157207468
 20
1167.383865522754
 30
0.0
 10
593.0281525253581
 20
1167.262598161673
 30
0.0
 10
596.8094893299681
 20
1167.229525245014
 30
0.0
  0
SPLINE
  5
7A02
330
A
100
AcDbEntity
  8
MODEL
100
AcDbSpline
210
0.0
220
0.0
230
1.0
 70
     8
 71
     3
 72
     8
 73
     4
 74
     0
 42
0.000000001
 43
0.0000000001
 40
31.0
 40
31.0
 40
31.0
 40
31.0
 40
32.0
 40
32.0
 40
32.0
 40
32.0
 10
585.0575796106841
 20
1167.642936703244
 30
0.0
 10
585.2008955828701
 20
1167.626400244915
 30
0.0
 10
585.3386994022799
 20
1167.609863786586
 30
0.0
 10
585.4765032216901
 20
1167.598839481033
 30
0.0
  0
SPLINE
  5
7A03
330
A
100
AcDbEntity
  8
MODEL
100
AcDbSpline
210
0.0
220
0.0
230
1.0
 70
    27
 71
     3
 72
     8
 73
     4
 74
     0
 42
0.000000001
 43
0.0000000001
 40
30.0
 40
30.0
 40
30.0
 40
30.0
 40
31.0
 40
31.0
 40
31.0
 40
31.0
 10
585.0575796106841
 20
1167.642936703244
 30
0.0
 10
585.0575796106841
 20
1167.642936703244
 30
0.0
 10
585.0575796106841
 20
1167.642936703244
 30
0.0
 10
585.0575796106841
 20
1167.642936703244
 30
0.0
  0
SPLINE
  5
7A04
330
A
100
AcDbEntity
  8
MODEL
100
AcDbSpline
210
0.0
220
0.0
230
1.0
 70
     8
 71
     3
 72
     8
 73
     4
 74
     0
 42
0.000000001
 43
0.0000000001
 40
29.0
 40
29.0
 40
29.0
 40
29.0
 40
30.0
 40
30.0
 40
30.0
 40
30.0
 10
582.7755483612541
 20
1168.111469689238
 30
0.0
 10
583.5252011388438
 20
1167.913032189288
 30
0.0
 10
584.2858782219869
 20
1167.758691911549
 30
0.0
 10
585.0575796106841
 20
1167.642936703244
 30
0.0
  0
SPLINE
  5
7A05
330
A
100
AcDbEntity
  8
MODEL
100
AcDbSpline
210
0.0
220
0.0
230
1.0
 70
    27
 71
     3
 72
     8
 73
     4
 74
     0
 42
0.000000001
 43
0.0000000001
 40
28.0
 40
28.0
 40
28.0
 40
28.0
 40
29.0
 40
29.0
 40
29.0
 40
29.0
 10
582.7755483612541
 20
1168.111469689238
 30
0.0
 10
582.7755483612541
 20
1168.111469689238
 30
0.0
 10
582.7755483612541
 20
1168.111469689238
 30
0.0
 10
582.7755483612541
 20
1168.111469689238
 30
0.0
  0
SPLINE
  5
7A06
330
A
100
AcDbEntity
  8
MODEL
100
AcDbSpline
210
0.0
220
0.0
230
1.0
 70
     8
 71
     3
 72
     8
 73
     4
 74
     0
 42
0.000000001
 43
0.0000000001
 40
27.0
 40
27.0
 40
27.0
 40
27.0
 40
28.0
 40
28.0
 40
28.0
 40
28.0
 10
581.4746803060239
 20
1168.513856841915
 30
0.0
 10
581.9046282225831
 20
1168.359516564176
 30
0.0
 10
582.334576139142
 20
1168.221712744766
 30
0.0
 10
582.7755483612541
 20
1168.111469689238
 30
0.0
  0
SPLINE
  5
7A07
330
A
100
AcDbEntity
  8
MODEL
100
AcDbSpline
210
0.0
220
0.0
230
1.0
 70
    24
 71
     3
 72
     8
 73
     4
 74
     0
 42
0.000000001
 43
0.0000000001
 40
26.0
 40
26.0
 40
26.0
 40
26.0
 40
27.0
 40
27.0
 40
27.0
 40
27.0
 10
580.5706872506939
 20
1168.916243994593
 30
0.0
 10
580.5706872506939
 20
1168.916243994593
 30
0.0
 10
581.4746803060239
 20
1168.513856841915
 30
0.0
 10
581.4746803060239
 20
1168.513856841915
 30
0.0
  0
SPLINE
  5
7A08
330
A
100
AcDbEntity
  8
MODEL
100
AcDbSpline
210
0.0
220
0.0
230
1.0
 70
    24
 71
     3
 72
     8
 73
     4
 74
     0
 42
0.000000001
 43
0.0000000001
 40
25.0
 40
25.0
 40
25.0
 40
25.0
 40
26.0
 40
26.0
 40
26.0
 40
26.0
 10
579.716303570352
 20
1169.445410661127
 30
0.0
 10
579.716303570352
 20
1169.445410661127
 30
0.0
 10
580.5706872506939
 20
1168.916243994593
 30
0.0
 10
580.5706872506939
 20
1168.916243994593
 30
0.0
  0
SPLINE
  5
7A09
330
A
100
AcDbEntity
  8
MODEL
100
AcDbSpline
210
0.0
220
0.0
230
1.0
 70
    24
 71
     3
 72
     8
 73
     4
 74
     0
 42
0.000000001
 43
0.0000000001
 40
24.0
 40
24.0
 40
24.0
 40
24.0
 40
25.0
 40
25.0
 40
25.0
 40
25.0
 10
578.972162945538
 20
1170.057259619307
 30
0.0
 10
578.972162945538
 20
1170.057259619307
 30
0.0
 10
579.716303570352
 20
1169.445410661127
 30
0.0
 10
579.716303570352
 20
1169.445410661127
 30
0.0
  0
SPLINE
  5
7A0A
330
A
100
AcDbEntity
  8
MODEL
100
AcDbSpline
210
0.0
220
0.0
230
1.0
 70
    24
 71
     3
 72
     8
 73
     4
 74
     0
 42
0.000000001
 43
0.0000000001
 40
23.0
 40
23.0
 40
23.0
 40
23.0
 40
24.0
 40
24.0
 40
24.0
 40
24.0
 10
578.3492896818047
 20
1170.702181494146
 30
0.0
 10
578.3492896818047
 20
1170.702181494146
 30
0.0
 10
578.972162945538
 20
1170.057259619307
 30
0.0
 10
578.972162945538
 20
1170.057259619307
 30
0.0
  0
SPLINE
  5
7A0B
330
A
100
AcDbEntity
  8
MODEL
100
AcDbSpline
210
0.0
220
0.0
230
1.0
 70
    24
 71
     3
 72
     8
 73
     4
 74
     0
 42
0.000000001
 43
0.0000000001
 40
22.0
 40
22.0
 40
22.0
 40
22.0
 40
23.0
 40
23.0
 40
23.0
 40
23.0
 10
577.682319195861
 20
1171.567589480041
 30
0.0
 10
577.682319195861
 20
1171.567589480041
 30
0.0
 10
578.3492896818047
 20
1170.702181494146
 30
0.0
 10
578.3492896818047
 20
1170.702181494146
 30
0.0
  0
SPLINE
  5
7A0C
330
A
100
AcDbEntity
  8
MODEL
100
AcDbSpline
210
0.0
220
0.0
230
1.0
 70
    24
 71
     3
 72
     8
 73
     4
 74
     0
 42
0.000000001
 43
0.0000000001
 40
21.0
 40
21.0
 40
21.0
 40
21.0
 40
22.0
 40
22.0
 40
22.0
 40
22.0
 10
577.0429094737979
 20
1172.631434965886
 30
0.0
 10
577.0429094737979
 20
1172.631434965886
 30
0.0
 10
577.682319195861
 20
1171.567589480041
 30
0.0
 10
577.682319195861
 20
1171.567589480041
 30
0.0
  0
SPLINE
  5
7A0D
330
A
100
AcDbEntity
  8
MODEL
100
AcDbSpline
210
0.0
220
0.0
230
1.0
 70
    24
 71
     3
 72
     8
 73
     4
 74
     0
 42
0.000000001
 43
0.0000000001
 40
20.0
 40
20.0
 40
20.0
 40
20.0
 40
21.0
 40
21.0
 40
21.0
 40
21.0
 10
576.5027185017111
 20
1173.772450590601
 30
0.0
 10
576.5027185017111
 20
1173.772450590601
 30
0.0
 10
577.0429094737979
 20
1172.631434965886
 30
0.0
 10
577.0429094737979
 20
1172.631434965886
 30
0.0
  0
SPLINE
  5
7A0E
330
A
100
AcDbEntity
  8
MODEL
100
AcDbSpline
210
0.0
220
0.0
230
1.0
 70
    24
 71
     3
 72
     8
 73
     4
 74
     0
 42
0.000000001
 43
0.0000000001
 40
19.0
 40
19.0
 40
19.0
 40
19.0
 40
20.0
 40
20.0
 40
20.0
 40
20.0
 10
576.0837948907051
 20
1174.869368993104
 30
0.0
 10
576.0837948907051
 20
1174.869368993104
 30
0.0
 10
576.5027185017111
 20
1173.772450590601
 30
0.0
 10
576.5027185017111
 20
1173.772450590601
 30
0.0
  0
SPLINE
  5
7A0F
330
A
100
AcDbEntity
  8
MODEL
100
AcDbSpline
210
0.0
220
0.0
230
1.0
 70
    24
 71
     3
 72
     8
 73
     4
 74
     0
 42
0.000000001
 43
0.0000000001
 40
18.0
 40
18.0
 40
18.0
 40
18.0
 40
19.0
 40
19.0
 40
19.0
 40
19.0
 10
575.6152619047111
 20
1176.379698853838
 30
0.0
 10
575.6152619047111
 20
1176.379698853838
 30
0.0
 10
576.0837948907051
 20
1174.869368993104
 30
0.0
 10
576.0837948907051
 20
1174.869368993104
 30
0.0
  0
SPLINE
  5
7A10
330
A
100
AcDbEntity
  8
MODEL
100
AcDbSpline
210
0.0
220
0.0
230
1.0
 70
    24
 71
     3
 72
     8
 73
     4
 74
     0
 42
0.000000001
 43
0.0000000001
 40
17.0
 40
17.0
 40
17.0
 40
17.0
 40
18.0
 40
18.0
 40
18.0
 40
18.0
 10
575.0750709326239
 20
1178.523926283857
 30
0.0
 10
575.0750709326239
 20
1178.523926283857
 30
0.0
 10
575.6152619047111
 20
1176.379698853838
 30
0.0
 10
575.6152619047111
 20
1176.379698853838
 30
0.0
  0
SPLINE
  5
7A11
330
A
100
AcDbEntity
  8
MODEL
100
AcDbSpline
210
0.0
220
0.0
230
1.0
 70
    24
 71
     3
 72
     8
 73
     4
 74
     0
 42
0.000000001
 43
0.0000000001
 40
16.0
 40
16.0
 40
16.0
 40
16.0
 40
17.0
 40
17.0
 40
17.0
 40
17.0
 10
574.5183435022068
 20
1181.202832533188
 30
0.0
 10
574.5183435022068
 20
1181.202832533188
 30
0.0
 10
575.0750709326239
 20
1178.523926283857
 30
0.0
 10
575.0750709326239
 20
1178.523926283857
 30
0.0
  0
SPLINE
  5
7A12
330
A
100
AcDbEntity
  8
MODEL
100
AcDbSpline
210
0.0
220
0.0
230
1.0
 70
    24
 71
     3
 72
     8
 73
     4
 74
     0
 42
0.000000001
 43
0.0000000001
 40
15.0
 40
15.0
 40
15.0
 40
15.0
 40
16.0
 40
16.0
 40
16.0
 40
16.0
 10
574.3805396827979
 20
1181.969021769107
 30
0.0
 10
574.3805396827979
 20
1181.969021769107
 30
0.0
 10
574.5183435022068
 20
1181.202832533188
 30
0.0
 10
574.5183435022068
 20
1181.202832533188
 30
0.0
  0
SPLINE
  5
7A13
330
A
100
AcDbEntity
  8
MODEL
100
AcDbSpline
210
0.0
220
0.0
230
1.0
 70
    24
 71
     3
 72
     8
 73
     4
 74
     0
 42
0.000000001
 43
0.0000000001
 40
14.0
 40
14.0
 40
14.0
 40
14.0
 40
15.0
 40
15.0
 40
15.0
 40
15.0
 10
574.204150793953
 20
1183.137598157704
 30
0.0
 10
574.204150793953
 20
1183.137598157704
 30
0.0
 10
574.3805396827979
 20
1181.969021769107
 30
0.0
 10
574.3805396827979
 20
1181.969021769107
 30
0.0
  0
SPLINE
  5
7A14
330
A
100
AcDbEntity
  8
MODEL
100
AcDbSpline
210
0.0
220
0.0
230
1.0
 70
    24
 71
     3
 72
     8
 73
     4
 74
     0
 42
0.000000001
 43
0.0000000001
 40
13.0
 40
13.0
 40
13.0
 40
13.0
 40
14.0
 40
14.0
 40
14.0
 40
14.0
 10
573.9340553079091
 20
1185.436165865463
 30
0.0
 10
573.9340553079091
 20
1185.436165865463
 30
0.0
 10
574.204150793953
 20
1183.137598157704
 30
0.0
 10
574.204150793953
 20
1183.137598157704
 30
0.0
  0
SPLINE
  5
7A15
330
A
100
AcDbEntity
  8
MODEL
100
AcDbSpline
210
0.0
220
0.0
230
1.0
 70
    24
 71
     3
 72
     8
 73
     4
 74
     0
 42
0.000000001
 43
0.0000000001
 40
12.0
 40
12.0
 40
12.0
 40
12.0
 40
13.0
 40
13.0
 40
13.0
 40
13.0
 10
573.360791419163
 20
1190.948318641862
 30
0.0
 10
573.360791419163
 20
1190.948318641862
 30
0.0
 10
573.9340553079091
 20
1185.436165865463
 30
0.0
 10
573.9340553079091
 20
1185.436165865463
 30
0.0
  0
SPLINE
  5
7A16
330
A
100
AcDbEntity
  8
MODEL
100
AcDbSpline
210
0.0
220
0.0
230
1.0
 70
    24
 71
     3
 72
     8
 73
     4
 74
     0
 42
0.000000001
 43
0.0000000001
 40
11.0
 40
11.0
 40
11.0
 40
11.0
 40
12.0
 40
12.0
 40
12.0
 40
12.0
 10
572.341043155529
 20
1201.663943639184
 30
0.0
 10
572.341043155529
 20
1201.663943639184
 30
0.0
 10
573.360791419163
 20
1190.948318641862
 30
0.0
 10
573.360791419163
 20
1190.948318641862
 30
0.0
  0
SPLINE
  5
7A17
330
A
100
AcDbEntity
  8
MODEL
100
AcDbSpline
210
0.0
220
0.0
230
1.0
 70
    24
 71
     3
 72
     8
 73
     4
 74
     0
 42
0.000000001
 43
0.0000000001
 40
10.0
 40
10.0
 40
10.0
 40
10.0
 40
11.0
 40
11.0
 40
11.0
 40
11.0
 10
571.293734128014
 20
1213.399316900139
 30
0.0
 10
571.293734128014
 20
1213.399316900139
 30
0.0
 10
572.341043155529
 20
1201.663943639184
 30
0.0
 10
572.341043155529
 20
1201.663943639184
 30
0.0
  0
SPLINE
  5
7A18
330
A
100
AcDbEntity
  8
MODEL
100
AcDbSpline
210
0.0
220
0.0
230
1.0
 70
    24
 71
     3
 72
     8
 73
     4
 74
     0
 42
0.000000001
 43
0.0000000001
 40
9.0
 40
9.0
 40
9.0
 40
9.0
 40
10.0
 40
10.0
 40
10.0
 40
10.0
 10
563.3782827411028
 20
1303.765549516436
 30
0.0
 10
563.3782827411028
 20
1303.765549516436
 30
0.0
 10
571.293734128014
 20
1213.399316900139
 30
0.0
 10
571.293734128014
 20
1213.399316900139
 30
0.0
  0
SPLINE
  5
7A19
330
A
100
AcDbEntity
  8
MODEL
100
AcDbSpline
210
0.0
220
0.0
230
1.0
 70
    24
 71
     3
 72
     8
 73
     4
 74
     0
 42
0.000000001
 43
0.0000000001
 40
8.0
 40
8.0
 40
8.0
 40
8.0
 40
9.0
 40
9.0
 40
9.0
 40
9.0
 10
563.3727705883271
 20
1303.787598127542
 30
0.0
 10
563.3727705883271
 20
1303.787598127542
 30
0.0
 10
563.3782827411028
 20
1303.765549516436
 30
0.0
 10
563.3782827411028
 20
1303.765549516436
 30
0.0
  0
SPLINE
  5
7A1A
330
A
100
AcDbEntity
  8
MODEL
100
AcDbSpline
210
0.0
220
0.0
230
1.0
 70
     8
 71
     3
 72
     8
 73
     4
 74
     0
 42
0.000000001
 43
0.0000000001
 40
7.0
 40
7.0
 40
7.0
 40
7.0
 40
8.0
 40
8.0
 40
8.0
 40
8.0
 10
560.4347931585057
 20
1306.218457501934
 30
0.0
 10
561.8734650331457
 20
1306.218457501934
 30
0.0
 10
563.1081872550599
 20
1305.1987092383
 30
0.0
 10
563.3727705883271
 20
1303.787598127542
 30
0.0
  0
SPLINE
  5
7A1B
330
A
100
AcDbEntity
  8
MODEL
100
AcDbSpline
210
0.0
220
0.0
230
1.0
 70
    24
 71
     3
 72
     8
 73
     4
 74
     0
 42
0.000000001
 43
0.0000000001
 40
6.0
 40
6.0
 40
6.0
 40
6.0
 40
7.0
 40
7.0
 40
7.0
 40
7.0
 10
535.4592289286388
 20
1306.22396965471
 30
0.0
 10
535.4592289286388
 20
1306.22396965471
 30
0.0
 10
560.4347931585057
 20
1306.218457501934
 30
0.0
 10
560.4347931585057
 20
1306.218457501934
 30
0.0
  0
SPLINE
  5
7A1C
330
A
100
AcDbEntity
  8
MODEL
100
AcDbSpline
210
0.0
220
0.0
230
1.0
 70
    24
 71
     3
 72
     8
 73
     4
 74
     0
 42
0.000000001
 43
0.0000000001
 40
5.0
 40
5.0
 40
5.0
 40
5.0
 40
6.0
 40
6.0
 40
6.0
 40
6.0
 10
535.4537167758617
 20
1306.22396965471
 30
0.0
 10
535.4537167758617
 20
1306.22396965471
 30
0.0
 10
535.4592289286388
 20
1306.22396965471
 30
0.0
 10
535.4592289286388
 20
1306.22396965471
 30
0.0
  0
SPLINE
  5
7A1D
330
A
100
AcDbEntity
  8
MODEL
100
AcDbSpline
210
0.0
220
0.0
230
1.0
 70
     8
 71
     3
 72
     8
 73
     4
 74
     0
 42
0.000000001
 43
0.0000000001
 40
4.0
 40
4.0
 40
4.0
 40
4.0
 40
5.0
 40
5.0
 40
5.0
 40
5.0
 10
532.5598365682517
 20
1304.008084238598
 30
0.0
 10
532.9126143459421
 20
1305.314464446604
 30
0.0
 10
534.1032393456439
 20
1306.22396965471
 30
0.0
 10
535.4537167758617
 20
1306.22396965471
 30
0.0
  0
SPLINE
  5
7A1E
330
A
100
AcDbEntity
  8
MODEL
100
AcDbSpline
210
0.0
220
0.0
230
1.0
 70
    27
 71
     3
 72
     8
 73
     4
 74
     0
 42
0.000000001
 43
0.0000000001
 40
3.0
 40
3.0
 40
3.0
 40
3.0
 40
4.0
 40
4.0
 40
4.0
 40
4.0
 10
532.5598365682517
 20
1304.008084238598
 30
0.0
 10
532.5598365682517
 20
1304.008084238598
 30
0.0
 10
532.5598365682517
 20
1304.008084238598
 30
0.0
 10
532.5598365682517
 20
1304.008084238598
 30
0.0
  0
SPLINE
  5
7A1F
330
A
100
AcDbEntity
  8
MODEL
100
AcDbSpline
210
0.0
220
0.0
230
1.0
 70
    24
 71
     3
 72
     8
 73
     4
 74
     0
 42
0.000000001
 43
0.0000000001
 40
2.0
 40
2.0
 40
2.0
 40
2.0
 40
3.0
 40
3.0
 40
3.0
 40
3.0
 10
526.40827406979
 20
1281.083040841551
 30
0.0
 10
526.40827406979
 20
1281.083040841551
 30
0.0
 10
532.5598365682517
 20
1304.008084238598
 30
0.0
 10
532.5598365682517
 20
1304.008084238598
 30
0.0
  0
SPLINE
  5
7A20
330
A
100
AcDbEntity
  8
MODEL
100
AcDbSpline
210
0.0
220
0.0
230
1.0
 70
     8
 71
     3
 72
     8
 73
     4
 74
     0
 42
0.000000001
 43
0.0000000001
 40
1.0
 40
1.0
 40
1.0
 40
1.0
 40
2.0
 40
2.0
 40
2.0
 40
2.0
 10
523.5088817094038
 20
1278.861643272662
 30
0.0
 10
524.8648712923978
 20
1278.861643272662
 30
0.0
 10
526.055496292101
 20
1279.771148480768
 30
0.0
 10
526.40827406979
 20
1281.083040841551
 30
0.0
  0
SPLINE
  5
7A21
330
A
100
AcDbEntity
  8
MODEL
100
AcDbSpline
210
0.0
220
0.0
230
1.0
 70
    24
 71
     3
 72
     8
 73
     4
 74
     0
 42
0.000000001
 43
0.0000000001
 40
0.0
 40
0.0
 40
0.0
 40
0.0
 40
1.0
 40
1.0
 40
1.0
 40
1.0
 10
352.505366127155
 20
1278.861643272662
 30
0.0
 10
352.505366127155
 20
1278.861643272662
 30
0.0
 10
523.5088817094038
 20
1278.861643272662
 30
0.0
 10
523.5088817094038
 20
1278.861643272662
 30
0.0
  0
SPLINE
  5
7A24
330
A
100
AcDbEntity
  8
MODEL
100
AcDbSpline
210
0.0
220
0.0
230
1.0
 70
    11
 71
     3
 72
    17
 73
    13
 74
     0
 42
0.000000001
 43
0.0000000001
 40
0.0
 40
0.0
 40
0.0
 40
0.0
 40
1.0
 40
1.0
 40
1.0
 40
2.0
 40
2.0
 40
2.0
 40
3.0
 40
3.0
 40
3.0
 40
4.0
 40
4.0
 40
4.0
 40
4.0
 10
645.1731177900988
 20
2233.18954138058
 30
0.0
 10
645.1731177900988
 20
2253.860114292078
 30
0.0
 10
628.3775882804089
 20
2270.633595190663
 30
0.0
 10
607.6794546050278
 20
2270.633595190663
 30
0.0
 10
586.9813209296472
 20
2270.633595190663
 30
0.0
 10
570.1968157255101
 20
2253.860114292078
 30
0.0
 10
570.1968157255101
 20
2233.18954138058
 30
0.0
 10
570.1968157255101
 20
2212.507944163527
 30
0.0
 10
586.9813209296472
 20
2195.734463264943
 30
0.0
 10
607.6794546050278
 20
2195.734463264943
 30
0.0
 10
628.3775882804089
 20
2195.734463264943
 30
0.0
 10
645.1731177900988
 20
2212.507944163527
 30
0.0
 10
645.1731177900988
 20
2233.18954138058
 30
0.0
  0
SPLINE
  5
7A25
330
A
100
AcDbEntity
  8
MODEL
100
AcDbSpline
210
0.0
220
0.0
230
1.0
 70
    11
 71
     3
 72
    17
 73
    13
 74
     0
 42
0.000000001
 43
0.0000000001
 40
0.0
 40
0.0
 40
0.0
 40
0.0
 40
1.0
 40
1.0
 40
1.0
 40
2.0
 40
2.0
 40
2.0
 40
3.0
 40
3.0
 40
3.0
 40
4.0
 40
4.0
 40
4.0
 40
4.0
 10
630.6761559881679
 20
2233.18954138058
 30
0.0
 10
630.6761559881679
 20
2245.867492766299
 30
0.0
 10
620.3684302963011
 20
2256.164194152614
 30
0.0
 10
607.6794546050278
 20
2256.164194152614
 30
0.0
 10
594.9849667609801
 20
2256.164194152614
 30
0.0
 10
584.693777527441
 20
2245.867492766299
 30
0.0
 10
584.693777527441
 20
2233.18954138058
 30
0.0
 10
584.693777527441
 20
2220.51158999486
 30
0.0
 10
594.9849667609801
 20
2210.220400761321
 30
0.0
 10
607.6794546050278
 20
2210.220400761321
 30
0.0
 10
620.3684302963011
 20
2210.220400761321
 30
0.0
 10
630.6761559881679
 20
2220.51158999486
 30
0.0
 10
630.6761559881679
 20
2233.18954138058
 30
0.0
  0
SPLINE
  5
7A28
330
A
100
AcDbEntity
  8
MODEL
100
AcDbSpline
210
0.0
220
0.0
230
1.0
 70
    11
 71
     3
 72
    47
 73
    43
 74
     0
 42
0.000000001
 43
0.0000000001
 40
0.0
 40
0.0
 40
0.0
 40
0.0
 40
1.0
 40
1.0
 40
1.0
 40
2.0
 40
2.0
 40
2.0
 40
3.0
 40
3.0
 40
3.0
 40
4.0
 40
4.0
 40
4.0
 40
5.0
 40
5.0
 40
5.0
 40
6.0
 40
6.0
 40
6.0
 40
7.0
 40
7.0
 40
7.0
 40
8.0
 40
8.0
 40
8.0
 40
9.0
 40
9.0
 40
9.0
 40
10.0
 40
10.0
 40
10.0
 40
11.0
 40
11.0
 40
11.0
 40
12.0
 40
12.0
 40
12.0
 40
13.0
 40
13.0
 40
13.0
 40
14.0
 40
14.0
 40
14.0
 40
14.0
 10
363.9155223743028
 20
2321.488716705727
 30
0.0
 10
362.3886560552401
 20
2225.979645549049
 30
0.0
 10
362.3886560552401
 20
2130.448525781265
 30
0.0
 10
363.9155223743028
 20
2034.939454624587
 30
0.0
 10
363.9155223743028
 20
2034.939454624587
 30
0.0
 10
363.9155223743028
 20
2034.939454624587
 30
0.0
 10
363.9155223743028
 20
2034.939454624587
 30
0.0
 10
363.9982046659488
 20
2029.543057056491
 30
0.0
 10
368.3472932065279
 20
2025.204992821465
 30
0.0
 10
373.7436907746228
 20
2025.116798377041
 30
0.0
 10
529.6880049717479
 20
2022.658378238768
 30
0.0
 10
685.6598799327548
 20
2022.658378238768
 30
0.0
 10
841.609706282657
 20
2025.116798377041
 30
0.0
 10
841.609706282657
 20
2025.116798377041
 30
0.0
 10
841.609706282657
 20
2025.116798377041
 30
0.0
 10
841.609706282657
 20
2025.116798377041
 30
0.0
 10
847.0005916979758
 20
2025.204992821465
 30
0.0
 10
851.3496802385548
 20
2029.543057056491
 30
0.0
 10
851.437874682978
 20
2034.939454624587
 30
0.0
 10
851.437874682978
 20
2034.939454624587
 30
0.0
 10
851.437874682978
 20
2034.939454624587
 30
0.0
 10
851.437874682978
 20
2034.939454624587
 30
0.0
 10
852.959228849264
 20
2130.448525781265
 30
0.0
 10
852.959228849264
 20
2225.979645549049
 30
0.0
 10
851.437874682978
 20
2321.488716705727
 30
0.0
 10
851.3607045441081
 20
2326.879602121045
 30
0.0
 10
847.0005916979758
 20
2331.228690661624
 30
0.0
 10
841.6152184354328
 20
2331.305860800494
 30
0.0
 10
763.6403052604819
 20
2332.535070869631
 30
0.0
 10
685.6598799327548
 20
2333.152431980588
 30
0.0
 10
607.673942452252
 20
2333.152431980588
 30
0.0
 10
607.673942452252
 20
2333.152431980588
 30
0.0
 10
607.6794546050278
 20
2333.152431980588
 30
0.0
 10
607.6794546050278
 20
2333.152431980588
 30
0.0
 10
529.693517124525
 20
2333.152431980588
 30
0.0
 10
451.7130917967979
 20
2332.535070869631
 30
0.0
 10
373.7381786218471
 20
2331.305860800494
 30
0.0
 10
368.3472932065279
 20
2331.228690661624
 30
0.0
 10
363.9982046659488
 20
2326.879602121045
 30
0.0
 10
363.9155223743028
 20
2321.488716705727
 30
0.0
 10
363.9155223743028
 20
2321.488716705727
 30
0.0
 10
363.9155223743028
 20
2321.488716705727
 30
0.0
 10
363.9155223743028
 20
2321.488716705727
 30
0.0
  0
SPLINE
  5
7A29
330
A
100
AcDbEntity
  8
MODEL
100
AcDbSpline
210
0.0
220
0.0
230
1.0
 70
    11
 71
     3
 72
    95
 73
    91
 74
     0
 42
0.000000001
 43
0.0000000001
 40
0.0
 40
0.0
 40
0.0
 40
0.0
 40
1.0
 40
1.0
 40
1.0
 40
2.0
 40
2.0
 40
2.0
 40
3.0
 40
3.0
 40
3.0
 40
4.0
 40
4.0
 40
4.0
 40
5.0
 40
5.0
 40
5.0
 40
6.0
 40
6.0
 40
6.0
 40
7.0
 40
7.0
 40
7.0
 40
8.0
 40
8.0
 40
8.0
 40
9.0
 40
9.0
 40
9.0
 40
10.0
 40
10.0
 40
10.0
 40
11.0
 40
11.0
 40
11.0
 40
12.0
 40
12.0
 40
12.0
 40
13.0
 40
13.0
 40
13.0
 40
14.0
 40
14.0
 40
14.0
 40
15.0
 40
15.0
 40
15.0
 40
16.0
 40
16.0
 40
16.0
 40
17.0
 40
17.0
 40
17.0
 40
18.0
 40
18.0
 40
18.0
 40
19.0
 40
19.0
 40
19.0
 40
20.0
 40
20.0
 40
20.0
 40
21.0
 40
21.0
 40
21.0
 40
22.0
 40
22.0
 40
22.0
 40
23.0
 40
23.0
 40
23.0
 40
24.0
 40
24.0
 40
24.0
 40
25.0
 40
25.0
 40
25.0
 40
26.0
 40
26.0
 40
26.0
 40
27.0
 40
27.0
 40
27.0
 40
28.0
 40
28.0
 40
28.0
 40
29.0
 40
29.0
 40
29.0
 40
30.0
 40
30.0
 40
30.0
 40
30.0
 10
841.9735083658989
 20
2002.020878243926
 30
0.0
 10
859.8383955142108
 20
2002.3075101883
 30
0.0
 10
874.2416507189428
 20
2016.705253240256
 30
0.0
 10
874.5337948160918
 20
2034.570140388567
 30
0.0
 10
876.0551489823788
 20
2130.327258420184
 30
0.0
 10
876.0551489823788
 20
2226.100912910129
 30
0.0
 10
874.5337948160918
 20
2321.858030941746
 30
0.0
 10
874.247162871719
 20
2339.71740593728
 30
0.0
 10
859.8383955142108
 20
2354.120661142012
 30
0.0
 10
841.9845326714521
 20
2354.40178093361
 30
0.0
 10
763.888352135421
 20
2355.630991002747
 30
0.0
 10
685.781147293836
 20
2356.248352113704
 30
0.0
 10
607.6794546050278
 20
2356.248352113704
 30
0.0
 10
607.6794546050278
 20
2356.248352113704
 30
0.0
 10
607.6794546050278
 20
2356.248352113704
 30
0.0
 10
607.6794546050278
 20
2356.248352113704
 30
0.0
 10
529.5722497634438
 20
2356.248352113704
 30
0.0
 10
451.4650449218598
 20
2355.630991002747
 30
0.0
 10
373.3688643858281
 20
2354.40178093361
 30
0.0
 10
355.5094893902929
 20
2354.120661142012
 30
0.0
 10
341.1007220327838
 20
2339.71740593728
 30
0.0
 10
340.819602241188
 20
2321.858030941746
 30
0.0
 10
340.819602241188
 20
2321.858030941746
 30
0.0
 10
340.819602241188
 20
2321.858030941746
 30
0.0
 10
340.819602241188
 20
2321.858030941746
 30
0.0
 10
339.2927359221248
 20
2226.100912910129
 30
0.0
 10
339.2927359221248
 20
2130.327258420184
 30
0.0
 10
340.819602241188
 20
2034.570140388567
 30
0.0
 10
340.819602241188
 20
2034.570140388567
 30
0.0
 10
340.819602241188
 20
2034.570140388567
 30
0.0
 10
340.819602241188
 20
2034.570140388567
 30
0.0
 10
341.10623418556
 20
2016.705253240256
 30
0.0
 10
355.5094893902929
 20
2002.3075101883
 30
0.0
 10
373.3854008441567
 20
2002.020878243926
 30
0.0
 10
373.3854008441567
 20
2002.020878243926
 30
0.0
 10
373.3854008441567
 20
2002.026390396704
 30
0.0
 10
373.3854008441567
 20
2002.026390396704
 30
0.0
 10
435.5679963147231
 20
2001.045227202504
 30
0.0
 10
497.7505917852877
 20
2000.455426855429
 30
0.0
 10
559.9497237141827
 20
2000.256989355479
 30
0.0
 10
559.9497237141827
 20
2000.256989355479
 30
0.0
 10
559.9497237141827
 20
2000.256989355479
 30
0.0
 10
559.9497237141827
 20
2000.256989355479
 30
0.0
 10
561.0190813528038
 20
2000.251477202702
 30
0.0
 10
562.0112688525569
 20
1999.678213313956
 30
0.0
 10
562.5404355190908
 20
1998.746659494746
 30
0.0
 10
563.3617462827738
 20
1997.313499772882
 30
0.0
 10
564.827978921297
 20
1996.38194595367
 30
0.0
 10
566.4816247542171
 20
1996.255166439813
 30
0.0
 10
566.4816247542171
 20
1996.255166439813
 30
0.0
 10
567.6281525317081
 20
1996.155947689838
 30
0.0
 10
567.6281525317081
 20
1996.155947689838
 30
0.0
 10
575.951503224072
 20
1995.505513662223
 30
0.0
 10
584.3024146803168
 20
1995.180296648415
 30
0.0
 10
592.6588382893387
 20
1995.180296648415
 30
0.0
 10
592.6588382893387
 20
1995.180296648415
 30
0.0
 10
597.437874746478
 20
1995.180296648415
 30
0.0
 10
597.437874746478
 20
1995.180296648415
 30
0.0
 10
597.437874746478
 20
1995.180296648415
 30
0.0
 10
607.6794546050278
 20
1995.180296648415
 30
0.0
 10
607.6794546050278
 20
1995.180296648415
 30
0.0
 10
607.6794546050278
 20
1995.180296648415
 30
0.0
 10
617.9155223108028
 20
1995.180296648415
 30
0.0
 10
617.9155223108028
 20
1995.180296648415
 30
0.0
 10
617.9155223108028
 20
1995.180296648415
 30
0.0
 10
622.6945587679411
 20
1995.180296648415
 30
0.0
 10
622.6945587679411
 20
1995.180296648415
 30
0.0
 10
631.0454702241868
 20
1995.180296648415
 30
0.0
 10
639.4018938332088
 20
1995.505513662223
 30
0.0
 10
647.7307566783488
 20
1996.155947689838
 30
0.0
 10
647.7307566783488
 20
1996.155947689838
 30
0.0
 10
648.8827966086169
 20
1996.255166439813
 30
0.0
 10
648.8827966086169
 20
1996.255166439813
 30
0.0
 10
650.5309302887599
 20
1996.38194595367
 30
0.0
 10
651.9971629272818
 20
1997.319011925658
 30
0.0
 10
652.8184736909661
 20
1998.746659494746
 30
0.0
 10
652.8184736909661
 20
1998.746659494746
 30
0.0
 10
652.8184736909661
 20
1998.752171647522
 30
0.0
 10
652.8184736909661
 20
1998.752171647522
 30
0.0
 10
653.3476403575
 20
1999.678213313956
 30
0.0
 10
654.3398278572517
 20
2000.251477202702
 30
0.0
 10
655.4091854958738
 20
2000.256989355479
 30
0.0
 10
655.4091854958738
 20
2000.256989355479
 30
0.0
 10
655.4091854958738
 20
2000.256989355479
 30
0.0
 10
655.4091854958738
 20
2000.256989355479
 30
0.0
 10
717.5972931192159
 20
2000.455426855429
 30
0.0
 10
779.7854007425572
 20
2001.045227202504
 30
0.0
 10
841.9735083658989
 20
2002.020878243926
 30
0.0
 10
841.9735083658989
 20
2002.020878243926
 30
0.0
 10
841.9735083658989
 20
2002.020878243926
 30
0.0
 10
841.9735083658989
 20
2002.020878243926
 30
0.0
  0
SPLINE
  5
7A2A
330
A
100
AcDbEntity
  8
MODEL
100
AcDbSpline
210
0.0
220
0.0
230
1.0
 70
     8
 71
     3
 72
    11
 73
     7
 74
     0
 42
0.000000001
 43
0.0000000001
 40
0.0
 40
0.0
 40
0.0
 40
0.0
 40
1.0
 40
1.0
 40
1.0
 40
2.0
 40
2.0
 40
2.0
 40
2.0
 10
1722.979452365331
 20
1199.800836000761
 30
0.0
 10
1722.979452365331
 20
1199.800836000761
 30
0.0
 10
1697.375502718954
 20
1199.244108570344
 30
0.0
 10
1678.154625987648
 20
1199.244108570344
 30
0.0
 10
1658.928237103566
 20
1199.244108570344
 30
0.0
 10
1633.324287457189
 20
1199.806348153537
 30
0.0
 10
1633.324287457189
 20
1199.806348153537
 30
0.0
  0
SPLINE
  5
7A2B
330
A
100
AcDbEntity
  8
MODEL
100
AcDbSpline
210
0.0
220
0.0
230
1.0
 70
     8
 71
     3
 72
    56
 73
    52
 74
     0
 42
0.000000001
 43
0.0000000001
 40
0.0
 40
0.0
 40
0.0
 40
0.0
 40
1.0
 40
1.0
 40
1.0
 40
2.0
 40
2.0
 40
2.0
 40
3.0
 40
3.0
 40
3.0
 40
4.0
 40
4.0
 40
4.0
 40
5.0
 40
5.0
 40
5.0
 40
6.0
 40
6.0
 40
6.0
 40
7.0
 40
7.0
 40
7.0
 40
8.0
 40
8.0
 40
8.0
 40
9.0
 40
9.0
 40
9.0
 40
10.0
 40
10.0
 40
10.0
 40
11.0
 40
11.0
 40
11.0
 40
12.0
 40
12.0
 40
12.0
 40
13.0
 40
13.0
 40
13.0
 40
14.0
 40
14.0
 40
14.0
 40
15.0
 40
15.0
 40
15.0
 40
16.0
 40
16.0
 40
16.0
 40
17.0
 40
17.0
 40
17.0
 40
17.0
 10
1462.408966319361
 20
1278.87817973099
 30
0.0
 10
1463.42320243022
 20
1261.66923876307
 30
0.0
 10
1464.5256329855
 20
1244.471322100702
 30
0.0
 10
1465.699721526873
 20
1227.278917591112
 30
0.0
 10
1466.289521873947
 20
1218.509082523859
 30
0.0
 10
1473.11356701113
 20
1211.436990511739
 30
0.0
 10
1481.866865620053
 20
1210.555046067515
 30
0.0
 10
1481.866865620053
 20
1210.555046067515
 30
0.0
 10
1498.734053115836
 20
1208.928960998477
 30
0.0
 10
1498.734053115836
 20
1208.928960998477
 30
0.0
 10
1498.734053115836
 20
1208.928960998477
 30
0.0
 10
1515.546119083856
 20
1207.44067974885
 30
0.0
 10
1515.546119083856
 20
1207.44067974885
 30
0.0
 10
1515.546119083856
 20
1207.44067974885
 30
0.0
 10
1532.2589663019
 20
1206.079178013079
 30
0.0
 10
1532.2589663019
 20
1206.079178013079
 30
0.0
 10
1532.2589663019
 20
1206.079178013079
 30
0.0
 10
1548.905667686627
 20
1204.82240718006
 30
0.0
 10
1548.905667686627
 20
1204.82240718006
 30
0.0
 10
1548.905667686627
 20
1204.82240718006
 30
0.0
 10
1559.98509476719
 20
1204.039681485811
 30
0.0
 10
1559.98509476719
 20
1204.039681485811
 30
0.0
 10
1559.98509476719
 20
1204.039681485811
 30
0.0
 10
1571.064521847754
 20
1203.301053013774
 30
0.0
 10
1571.064521847754
 20
1203.301053013774
 30
0.0
 10
1571.064521847754
 20
1203.301053013774
 30
0.0
 10
1593.157230175564
 20
1201.917502666897
 30
0.0
 10
1593.157230175564
 20
1201.917502666897
 30
0.0
 10
1593.157230175564
 20
1201.917502666897
 30
0.0
 10
1605.046943714258
 20
1201.239507875401
 30
0.0
 10
1605.046943714258
 20
1201.239507875401
 30
0.0
 10
1605.046943714258
 20
1201.239507875401
 30
0.0
 10
1616.881535725189
 20
1200.605610306115
 30
0.0
 10
1616.881535725189
 20
1200.605610306115
 30
0.0
 10
1616.881535725189
 20
1200.605610306115
 30
0.0
 10
1626.615997528311
 20
1200.115028709015
 30
0.0
 10
1626.615997528311
 20
1200.115028709015
 30
0.0
 10
1626.615997528311
 20
1200.115028709015
 30
0.0
 10
1633.324287457189
 20
1199.806348153537
 30
0.0
 10
1633.324287457189
 20
1199.806348153537
 30
0.0
 10
1633.324287457189
 20
1199.806348153537
 30
0.0
 10
1633.324287457189
 20
1199.80083600076
 30
0.0
 10
1633.324287457189
 20
1199.80083600076
 30
0.0
 10
1637.199330858998
 20
1199.370888084201
 30
0.0
 10
1640.186917663807
 20
1196.223448848877
 30
0.0
 10
1640.418428080415
 20
1192.342893294292
 30
0.0
 10
1640.418428080415
 20
1192.342893294292
 30
0.0
 10
1642.005928080019
 20
1166.749967953468
 30
0.0
 10
1642.005928080019
 20
1166.749967953468
 30
0.0
 10
1642.016952385571
 20
1166.336556495237
 30
0.0
 10
1642.127195441099
 20
1165.945193648113
 30
0.0
 10
1642.30909648272
 20
1165.592415870424
 30
0.0
  0
SPLINE
  5
7A2C
330
A
100
AcDbEntity
  8
MODEL
100
AcDbSpline
210
0.0
220
0.0
230
1.0
 70
     8
 71
     3
 72
    17
 73
    13
 74
     0
 42
0.000000001
 43
0.0000000001
 40
0.0
 40
0.0
 40
0.0
 40
0.0
 40
1.0
 40
1.0
 40
1.0
 40
2.0
 40
2.0
 40
2.0
 40
3.0
 40
3.0
 40
3.0
 40
4.0
 40
4.0
 40
4.0
 40
4.0
 10
1445.266171184758
 20
1320.847710970497
 30
0.0
 10
1445.266171184758
 20
1320.847710970497
 30
0.0
 10
1447.305667712026
 20
1281.716938410836
 30
0.0
 10
1447.305667712026
 20
1281.716938410836
 30
0.0
 10
1447.382837850895
 20
1280.134950564009
 30
0.0
 10
1448.683705906126
 20
1278.883691883766
 30
0.0
 10
1450.265693752952
 20
1278.872667578213
 30
0.0
 10
1450.265693752952
 20
1278.872667578213
 30
0.0
 10
1450.458619100126
 20
1278.872667578213
 30
0.0
 10
1450.458619100126
 20
1278.872667578213
 30
0.0
 10
1450.458619100126
 20
1278.872667578213
 30
0.0
 10
1788.408705821195
 20
1278.872667578216
 30
0.0
 10
1788.408705821195
 20
1278.872667578216
 30
0.0
  0
DIMENSION
  5
7A8E
330
A
100
AcDbEntity
  8
DIM
100
AcDbDimension
  2
*D28
 10
880.1794546050269
 20
2464.59265313396
 30
0.0
 11
607.6794546050269
 21
2496.59265313396
 31
0.0
 70
    32
 71
     5
 42
545.0
 73
     0
 74
     0
 75
     0
  3
tfrom線あり
100
AcDbAlignedDimension
 13
335.1794546050269
 23
2288.763177123597
 33
0.0
 14
880.1794546050269
 24
2288.763177123596
 34
0.0
100
AcDbRotatedDimension
1001
ACAD
1000
DSTYLE
1002
{
1070
   144
1040
1.0
1002
}
  0
DIMENSION
  5
7AAB
330
A
100
AcDbEntity
  8
DIM
100
AcDbDimension
  2
*D30
 10
216.9971145599997
 20
2333.15243197956
 30
0.0
 11
216.9971145599998
 21
2178.21270762684
 31
0.0
 70
   160
 71
     5
 42
309.8794487054397
 73
     0
 74
     0
 75
     0
 52
-90.0
  3
tfrom線あり
100
AcDbAlignedDimension
 13
373.9299777538779
 23
2023.27298327412
 33
0.0
 14
375.8026390243426
 24
2333.15243197956
 34
0.0
 50
90.00000000000001
100
AcDbRotatedDimension
1001
ACAD
1000
DSTYLE
1002
{
1070
   144
1040
1.0
1002
}
  0
DIMENSION
  5
7ABA
102
{ACAD_REACTORS
330
7ABC
102
}
102
{ACAD_XDICTIONARY
360
7ABB
102
}
330
A
100
AcDbEntity
  8
DIM
100
AcDbDimension
  2
*D31
 10
282.3967996799998
 20
2233.15243197956
 30
0.0
 11
250.3967996799997
 21
2283.15243197956
 31
0.0
 70
    32
 71
     5
 42
100.0000000000001
 73
     0
 74
     0
 75
     0
 52
-90.0
  3
tfrom線あり
100
AcDbAlignedDimension
 13
319.2261952341514
 23
2333.15243197956
 33
0.0
 14
536.8279021195049
 24
2233.15243197956
 34
0.0
 50
90.00000000000001
100
AcDbRotatedDimension
1001
ACAD
1000
DSTYLE
1002
{
1070
   144
1040
1.0
1002
}
  0
DIMENSION
  5
7AC9
330
A
100
AcDbEntity
  8
DIM
100
AcDbDimension
  2
*D32
 10
993.0857975900285
 20
2001.248352113704
 30
0.0
 11
961.0857975900285
 21
2178.748352113704
 31
0.0
 70
    32
 71
     5
 42
355.0
 73
     0
 74
     0
 75
     0
  3
tfrom線あり
100
AcDbAlignedDimension
 13
833.9402222185072
 23
2356.248352113704
 33
0.0
 14
833.9402222185073
 24
2001.248352113704
 34
0.0
 50
90.0
100
AcDbRotatedDimension
1001
ACAD
1000
DSTYLE
1002
{
1070
   144
1040
1.0
1002
}
  0
DIMENSION
  5
7AD6
330
A
100
AcDbEntity
  8
DIM
100
AcDbDimension
  2
*D33
 10
1678.586712917764
 20
1092.22074331086
 30
0.0
 11
1740.086712917764
 21
1124.22074331086
 31
0.0
 70
    32
 71
     5
 42
123.0
 73
     0
 74
     0
 75
     0
  3
tfrom線あり
100
AcDbAlignedDimension
 13
1801.586712917764
 23
1312.878266972043
 33
0.0
 14
1678.586712917764
 24
1186.191391406106
 34
0.0
100
AcDbRotatedDimension
1001
ACAD
1000
DSTYLE
1002
{
1070
   144
1040
1.0
1002
}
  0
DIMENSION
  5
7AE3
330
A
100
AcDbEntity
  8
DIM
100
AcDbDimension
  2
*D34
 10
1680.900736031392
 20
1320.847710970498
 30
0.0
 11
1680.900736031392
 21
1434.455710970498
 31
0.0
 70
   160
  1
105（深さ）
 71
     5
 42
114.6664186540868
 73
     0
 74
     1
 75
     1
  3
tfrom線あり
100
AcDbAlignedDimension
 13
1678.154625987648
 23
1206.181292316412
 33
0.0
 14
1678.154625987648
 24
1320.847710970498
 34
0.0
 50
90.0
100
AcDbRotatedDimension
1001
ACAD
1000
DSTYLE
1002
{
1070
     3
1000
<>(深さ)
1070
   172
1070
     1
1070
   144
1040
1.0
1002
}
  0
DIMENSION
  5
7B07
330
A
100
AcDbEntity
  8
DIM
100
AcDbDimension
  2
*D36
 10
1366.777622743762
 20
1280.847710970497
 30
0.0
 11
1366.777622743762
 21
1300.847710970497
 31
0.0
 70
   160
 71
     5
 42
40.0
 73
     0
 74
     0
 75
     0
  3
tfrom線あり
100
AcDbAlignedDimension
 13
1445.266171184758
 23
1320.847710970497
 33
0.0
 14
1445.266171184758
 24
1280.847710970497
 34
0.0
 50
90.0
100
AcDbRotatedDimension
1001
ACAD
1000
DSTYLE
1002
{
1070
   144
1040
1.0
1002
}
  0
DIMENSION
  5
7B15
330
A
100
AcDbEntity
  8
DIM
100
AcDbDimension
  2
*D37
 10
990.7916357095437
 20
1165.847710970499
 30
0.0
 11
958.7916357095437
 21
1243.347710970499
 31
0.0
 70
    32
 71
     5
 42
155.0
 73
     0
 74
     0
 75
     0
  3
tfrom線あり
100
AcDbAlignedDimension
 13
875.66929828803
 23
1320.847710970499
 33
0.0
 14
661.2581155702128
 24
1165.847710970499
 34
0.0
 50
90.0
100
AcDbRotatedDimension
1001
ACAD
1000
DSTYLE
1002
{
1070
   144
1040
1.0
1002
}
  0
DIMENSION
  5
7B22
330
A
100
AcDbEntity
  8
DIM
100
AcDbDimension
  2
*D38
 10
852.6794546050273
 20
1897.45778112
 30
0.0
 11
607.6794546050273
 21
1929.45778112
 31
0.0
 70
    32
 71
     5
 42
490.0000000000001
 73
     0
 74
     0
 75
     0
  3
tfrom線あり
100
AcDbAlignedDimension
 13
362.6794546050273
 23
2046.644375995451
 33
0.0
 14
852.6794546050273
 24
2046.64437599545
 34
0.0
100
AcDbRotatedDimension
1001
ACAD
1000
DSTYLE
1002
{
1070
   144
1040
1.0
1002
}
  0
LINE
  5
7B3F
330
A
100
AcDbEntity
  8
HIDDEN
 48
0.5
100
AcDbLine
 10
570.1968157255096
 20
1206.390735074089
 30
0.0
 11
400.4618161698199
 21
1215.675442769341
 31
0.0
  0
LINE
  5
7B40
330
A
100
AcDbEntity
  8
HIDDEN
 48
0.5
100
AcDbLine
 10
584.244503050737
 20
1192.348559901638
 30
0.0
 11
585.2841205070326
 21
1163.905697120845
 31
0.0
  0
SPLINE
  5
7B43
330
A
100
AcDbEntity
  8
HIDDEN
 48
0.5
100
AcDbSpline
210
0.0
220
0.0
230
1.0
 70
  1064
 71
     3
 72
    15
 73
    11
 74
     9
 42
0.000000001
 43
0.0000000001
 44
0.0
 40
0.0
 40
0.0
 40
0.0
 40
0.0
 40
9.94770285759279
 40
18.1283447870364
 40
25.26255638324056
 40
34.12957211834038
 40
41.74003802980332
 40
49.7318205049497
 40
55.51631186992471
 40
58.13086209410827
 40
58.13086209410827
 40
58.13086209410827
 40
58.13086209410827
 10
363.822120474073
 20
1252.730013894829
 30
0.0
 10
364.0610269393114
 20
1249.406717973286
 30
0.0
 10
364.4964017022787
 20
1243.350460045447
 30
0.0
 10
367.4507148789745
 20
1235.363316625875
 30
0.0
 10
371.6846504564608
 20
1228.448389821006
 30
0.0
 10
377.4228373233727
 20
1222.913683287401
 30
0.0
 10
384.4816401747989
 20
1218.704024329992
 30
0.0
 10
391.3683969565592
 20
1216.601594423057
 30
0.0
 10
396.8010517505162
 20
1215.948742993776
 30
0.0
 10
399.5927761150052
 20
1215.740322344976
 30
0.0
 10
400.4618161698199
 20
1215.675442769341
 30
0.0
 11
363.822120474073
 21
1252.730013894829
 31
0.0
 11
365.0461044372751
 21
1242.857898852915
 31
0.0
 11
367.8271618017461
 21
1235.164484635983
 31
0.0
 11
371.5973503320147
 21
1229.107863998561
 31
0.0
 11
377.9450925093493
 21
1222.916730233523
 31
0.0
 11
384.4961265072943
 21
1219.043340897643
 31
0.0
 11
392.122906669154
 21
1216.65570367798
 31
0.0
 11
397.8554620180817
 21
1215.882302408941
 31
0.0
 11
400.4618161698199
 21
1215.675442769341
 31
0.0
  0
LINE
  5
7B44
330
A
100
AcDbEntity
  8
HIDDEN
 48
0.5
100
AcDbLine
 10
363.822120474073
 20
1252.730013894829
 30
0.0
 11
362.7772333445332
 21
1320.847710970499
 31
0.0
  0
ARC
  5
7B45
330
A
100
AcDbEntity
  8
HIDDEN
 48
0.5
100
AcDbCircle
 10
569.2797295771506
 20
1191.42560052319
 30
0.0
 40
14.99320843348807
100
AcDbArc
 50
3.52927347715152
 51
86.49321314670425
  0
LINE
  5
7B50
330
A
100
AcDbEntity
  8
HIDDEN
 48
0.5
100
AcDbLine
 10
571.9378979001635
 20
1206.181292316412
 30
0.0
 11
607.6794546050278
 21
1206.181292316412
 31
0.0
  0
LINE
  5
7B52
102
{ACAD_REACTORS
330
7B58
102
}
330
A
100
AcDbEntity
  8
HIDDEN
 48
0.5
100
AcDbLine
 10
645.162093484546
 20
1206.390735074089
 30
0.0
 11
814.8970930402356
 21
1215.675442769341
 31
0.0
  0
LINE
  5
7B53
102
{ACAD_REACTORS
330
7B58
102
}
330
A
100
AcDbEntity
  8
HIDDEN
 48
0.5
100
AcDbLine
 10
631.1144061593186
 20
1192.348559901638
 30
0.0
 11
630.0747887030229
 21
1163.905697120845
 31
0.0
  0
SPLINE
  5
7B54
102
{ACAD_REACTORS
330
7B58
102
}
330
A
100
AcDbEntity
  8
HIDDEN
 48
0.5
100
AcDbSpline
210
0.0
220
0.0
230
1.0
 70
  1064
 71
     3
 72
    15
 73
    11
 74
     9
 42
0.000000001
 43
0.0000000001
 44
0.0
 40
0.0
 40
0.0
 40
0.0
 40
0.0
 40
9.947702857592782
 40
18.12834478703641
 40
25.26255638324057
 40
34.12957211834035
 40
41.74003802980334
 40
49.73182050494967
 40
55.51631186992468
 40
58.13086209410834
 40
58.13086209410834
 40
58.13086209410834
 40
58.13086209410834
 10
851.5367887359826
 20
1252.730013894829
 30
0.0
 10
851.2978822707444
 20
1249.406717973286
 30
0.0
 10
850.8625075077771
 20
1243.350460045446
 30
0.0
 10
847.908194331081
 20
1235.363316625875
 30
0.0
 10
843.6742587535948
 20
1228.448389821006
 30
0.0
 10
837.9360718866828
 20
1222.913683287402
 30
0.0
 10
830.8772690352566
 20
1218.704024329991
 30
0.0
 10
823.9905122534963
 20
1216.601594423057
 30
0.0
 10
818.5578574595393
 20
1215.948742993776
 30
0.0
 10
815.7661330950503
 20
1215.740322344976
 30
0.0
 10
814.8970930402356
 20
1215.675442769341
 30
0.0
 11
851.5367887359826
 21
1252.730013894829
 31
0.0
 11
850.3128047727805
 21
1242.857898852915
 31
0.0
 11
847.5317474083095
 21
1235.164484635983
 31
0.0
 11
843.7615588780409
 21
1229.107863998561
 31
0.0
 11
837.4138167007063
 21
1222.916730233523
 31
0.0
 11
830.8627827027613
 21
1219.043340897643
 31
0.0
 11
823.2360025409016
 21
1216.65570367798
 31
0.0
 11
817.5034471919739
 21
1215.882302408941
 31
0.0
 11
814.8970930402356
 21
1215.675442769341
 31
0.0
  0
LINE
  5
7B55
102
{ACAD_REACTORS
330
7B58
102
}
330
A
100
AcDbEntity
  8
HIDDEN
 48
0.5
100
AcDbLine
 10
851.5367887359826
 20
1252.730013894829
 30
0.0
 11
852.5816758655224
 21
1320.847710970499
 31
0.0
  0
ARC
  5
7B56
102
{ACAD_REACTORS
330
7B58
102
}
330
A
100
AcDbEntity
  8
HIDDEN
 48
0.5
100
AcDbCircle
 10
646.0791796329049
 20
1191.42560052319
 30
0.0
 40
14.99320843348807
100
AcDbArc
 50
93.50678685329576
 51
176.4707265228485
  0
LINE
  5
7B57
102
{ACAD_REACTORS
330
7B58
102
}
330
A
100
AcDbEntity
  8
HIDDEN
 48
0.5
100
AcDbLine
 10
643.421011309892
 20
1206.181292316412
 30
0.0
 11
607.6794546050278
 21
1206.181292316412
 31
0.0
  0
SPLINE
  5
7B62
330
A
100
AcDbEntity
  8
HIDDEN
 48
0.5
100
AcDbSpline
210
0.0
220
0.0
230
1.0
 70
  1064
 71
     3
 72
   121
 73
   117
 74
   115
 42
0.000000001
 43
0.0000000001
 44
0.0000000001
 12
0.05883448630155049
 22
-0.9982677512679816
 32
0.0
 13
0.9989429977746396
 23
-0.04596615273238158
 33
0.0
 40
0.0
 40
0.0
 40
0.0
 40
0.0
 40
68.98395237450852
 40
82.70013212629665
 40
89.55828946663347
 40
92.98741601596927
 40
94.20078391024221
 40
96.27408289672726
 40
98.30747558162658
 40
100.3276191753225
 40
102.3451228983733
 40
104.3671337730759
 40
106.4103324641379
 40
108.5127862721758
 40
109.3377407483079
 40
110.2344136338436
 40
111.4078047650077
 40
114.3465539072297
 40
120.9246047122554
 40
123.6111549470675
 40
124.5953968976757
 40
125.2608874514184
 40
125.646216708619
 40
126.1828411299422
 40
127.0578785810665
 40
128.2120195619258
 40
129.5859545724499
 40
132.7559686822213
 40
136.0934449098339
 40
139.1239072547377
 40
140.3757344710035
 40
141.3728797163873
 40
142.0560334908205
 40
142.3658862942343
 40
142.4543832418369
 40
142.9659105818647
 40
143.8171195329279
 40
144.9490857339287
 40
147.8195924413519
 40
151.1060358153483
 40
154.3370209671345
 40
157.0411530079268
 40
158.0483382089557
 40
158.7470370489417
 40
159.0783251667873
 40
159.1623519852884
 40
159.6498978749824
 40
160.4790743520149
 40
161.5912175781562
 40
162.9276637151748
 40
166.0388093689305
 40
169.3432006074437
 40
172.3715267248753
 40
173.6355057676113
 40
174.6544770153871
 40
175.3697766299736
 40
175.7227407731402
 40
175.7758115688092
 40
176.0856037934231
 40
177.3549348353789
 40
179.2303899072988
 40
183.550689291409
 40
185.3710421787865
 40
186.5485362465047
 40
186.8448700838517
 40
187.1398611398835
 40
187.6666774960329
 40
189.2597057086039
 40
191.3117939214066
 40
195.5445071470776
 40
197.1008105596297
 40
197.6023786157662
 40
197.8675307717828
 40
197.9513625863555
 40
198.5098230111421
 40
199.5350054424733
 40
200.9491228792592
 40
202.6743883204086
 40
204.63301476483
 40
208.9392026591269
 40
213.2453905534241
 40
215.2040169978452
 40
216.9292824389937
 40
218.3433998757795
 40
219.3685823071106
 40
219.9270427318975
 40
220.0022915046327
 40
220.2866663915302
 40
220.8245966176221
 40
222.4937273294777
 40
227.033299486465
 40
229.2341578999346
 40
230.9426758489458
 40
231.5076848005832
 40
231.8240618176707
 40
232.1459687031258
 40
232.6676127336942
 40
233.4023913067037
 40
235.3447641618156
 40
239.9546572808021
 40
241.9558258717587
 40
243.3102413684129
 40
243.6407992574837
 40
243.6982677132335
 40
244.3219722313177
 40
245.6548700296553
 40
247.4229546136025
 40
251.1686581597533
 40
252.598264132671
 40
253.3670309126255
 40
253.5389322670858
 40
254.2221102403878
 40
256.5990252225606
 40
260.3787374652213
 40
264.6441308993132
 40
267.5817857962747
 40
267.5817857962747
 40
267.5817857962747
 40
267.5817857962747
 10
1468.611470189936
 20
1320.847710970497
 30
0.0
 10
1469.964348656938
 20
1297.892892633671
 30
0.0
 10
1469.737511829516
 20
1270.284017175364
 30
0.0
 10
1471.822265661911
 20
1240.502022272305
 30
0.0
 10
1472.370292860213
 20
1232.518905636854
 30
0.0
 10
1472.60409980136
 20
1228.693618369046
 30
0.0
 10
1472.795170113895
 20
1226.461082825685
 30
0.0
 10
1473.249064556304
 20
1224.732683126587
 30
0.0
 10
1474.11910446356
 20
1222.873613084235
 30
0.0
 10
1475.307999775365
 20
1221.221435574093
 30
0.0
 10
1476.772706850836
 20
1219.814485986285
 30
0.0
 10
1478.476071340841
 20
1218.693858547397
 30
0.0
 10
1480.383234084925
 20
1217.893752395731
 30
0.0
 10
1482.017219861975
 20
1217.559845277832
 30
0.0
 10
1483.287342572112
 20
1217.452882165104
 30
0.0
 10
1484.247626804636
 20
1217.357134926106
 30
0.0
 10
1485.909655671073
 20
1217.198434618136
 30
0.0
 10
1489.456498911396
 20
1216.855213016959
 30
0.0
 10
1493.505578732621
 20
1216.465651647827
 30
0.0
 10
1496.906066389491
 20
1216.137532329355
 30
0.0
 10
1498.344845621261
 20
1215.999051926031
 30
0.0
 10
1499.02003445047
 20
1215.933607815579
 30
0.0
 10
1499.546819106621
 20
1215.883622573809
 30
0.0
 10
1500.14358714474
 20
1215.831951348775
 30
0.0
 10
1500.995472299249
 20
1215.755974662705
 30
0.0
 10
1502.125445280588
 20
1215.656173732323
 30
0.0
 10
1504.017400651709
 20
1215.488587471604
 30
0.0
 10
1506.634312912762
 20
1215.256973244017
 30
0.0
 10
1509.801248285796
 20
1214.976654044202
 30
0.0
 10
1512.331264318702
 20
1214.752543965176
 30
0.0
 10
1514.084240787935
 20
1214.597601910858
 30
0.0
 10
1515.057768216242
 20
1214.510935412244
 30
0.0
 10
1515.718653719495
 20
1214.453453225539
 30
0.0
 10
1516.077630437414
 20
1214.420241857453
 30
0.0
 10
1516.379973861696
 20
1214.396250265652
 30
0.0
 10
1516.862077642554
 20
1214.356447679947
 30
0.0
 10
1517.690925001117
 20
1214.289236852849
 30
0.0
 10
1519.303463055957
 20
1214.157702812194
 30
0.0
 10
1521.72508798327
 20
1213.960527747937
 30
0.0
 10
1524.844066987672
 20
1213.706439344148
 30
0.0
 10
1527.907761572853
 20
1213.456732326516
 30
0.0
 10
1530.21424821544
 20
1213.26917654227
 30
0.0
 10
1531.679360805699
 20
1213.149320065886
 30
0.0
 10
1532.356237931235
 20
1213.094972521176
 30
0.0
 10
1532.726260406788
 20
1213.063681848656
 30
0.0
 10
1533.026380038142
 20
1213.041282659911
 30
0.0
 10
1533.491955337367
 20
1213.005925400558
 30
0.0
 10
1534.299289408512
 20
1212.945099702867
 30
0.0
 10
1535.388773465463
 20
1212.862794811658
 30
0.0
 10
1537.23676132471
 20
1212.723302401578
 30
0.0
 10
1539.813421410717
 20
1212.528753039624
 30
0.0
 10
1542.952444952538
 20
1212.291798474959
 30
0.0
 10
1545.477485723288
 20
1212.101090877227
 30
0.0
 10
1547.24289622294
 20
1211.967931967542
 30
0.0
 10
1548.239458055471
 20
1211.892439190803
 30
0.0
 10
1548.933269584523
 20
1211.840617338928
 30
0.0
 10
1549.305928485786
 20
1211.81168209304
 30
0.0
 10
1549.543932563718
 20
1211.79469936834
 30
0.0
 10
1550.086656931543
 20
1211.756534350076
 30
0.0
 10
1551.23530767819
 20
1211.675207235746
 30
0.0
 10
1553.717490370605
 20
1211.499954092329
 30
0.0
 10
1556.38288500009
 20
1211.311686486553
 30
0.0
 10
1558.816191029771
 20
1211.139608876044
 30
0.0
 10
1559.911538536779
 20
1211.062487243699
 30
0.0
 10
1560.499659410779
 20
1211.020641540104
 30
0.0
 10
1560.871575594538
 20
1210.996257492322
 30
0.0
 10
1561.674718609053
 20
1210.942430113022
 30
0.0
 10
1563.062298084309
 20
1210.850149434938
 30
0.0
 10
1565.682414357176
 20
1210.675312903355
 30
0.0
 10
1568.290347637594
 20
1210.501765763179
 30
0.0
 10
1570.382536938492
 20
1210.361854177063
 30
0.0
 10
1571.155187980112
 20
1210.310727808987
 30
0.0
 10
1571.438049520388
 20
1210.291440710782
 30
0.0
 10
1571.739930713062
 20
1210.272390022233
 30
0.0
 10
1572.294677445479
 20
1210.237789903586
 30
0.0
 10
1573.291971606944
 20
1210.175243582299
 30
0.0
 10
1574.677448317519
 20
1210.0885183659
 30
0.0
 10
1576.373461366817
 20
1209.982291506788
 30
0.0
 10
1579.031614315127
 20
1209.815831425776
 30
0.0
 10
1582.548392041842
 20
1209.59558960395
 30
0.0
 10
1586.065170379455
 20
1209.375357464727
 30
0.0
 10
1588.723322445973
 20
1209.208883407558
 30
0.0
 10
1590.419337603196
 20
1209.102689958442
 30
0.0
 10
1591.80480849472
 20
1209.015872511818
 30
0.0
 10
1592.802115925826
 20
1208.95353651033
 30
0.0
 10
1593.353986779528
 20
1208.918790927814
 30
0.0
 10
1593.659428695842
 20
1208.899852955945
 30
0.0
 10
1593.958167725406
 20
1208.883489342788
 30
0.0
 10
1594.787263412782
 20
1208.835601924292
 30
0.0
 10
1597.032533955006
 20
1208.708251142314
 30
0.0
 10
1599.831147280115
 20
1208.548198559511
 30
0.0
 10
1602.642905884437
 20
1208.388041354669
 30
0.0
 10
1604.131936843899
 20
1208.302918615568
 30
0.0
 10
1604.993852641004
 20
1208.254033907632
 30
0.0
 10
1605.394278508551
 20
1208.230817206846
 30
0.0
 10
1605.780377806061
 20
1208.210312317694
 30
0.0
 10
1606.305729946182
 20
1208.182092724011
 30
0.0
 10
1607.370471511147
 20
1208.125108659294
 30
0.0
 10
1609.796006903897
 20
1207.995145759107
 30
0.0
 10
1612.64307258501
 20
1207.842683832629
 30
0.0
 10
1615.294429437188
 20
1207.700640690498
 30
0.0
 10
1616.521386715865
 20
1207.63495922271
 30
0.0
 10
1617.101367232242
 20
1207.603856512821
 30
0.0
 10
1617.438130695618
 20
1207.585865423697
 30
0.0
 10
1618.108695240022
 20
1207.553204000049
 30
0.0
 10
1619.348641467117
 20
1207.489894124798
 30
0.0
 10
1621.62800457127
 20
1207.375553176916
 30
0.0
 10
1623.939495219931
 20
1207.258244079087
 30
0.0
 10
1625.91839703418
 20
1207.159627871701
 30
0.0
 10
1626.707423698971
 20
1207.118566996541
 30
0.0
 10
1627.248110542074
 20
1207.093180854573
 30
0.0
 10
1628.324291422547
 20
1207.043462431233
 30
0.0
 10
1630.602385640332
 20
1206.949987676034
 30
0.0
 10
1634.068671057642
 20
1206.709466639736
 30
0.0
 10
1637.729407045271
 20
1206.620510274061
 30
0.0
 10
1640.12589077518
 20
1206.468818888638
 30
0.0
 10
1641.104074038246
 20
1206.423807990748
 30
0.0
 11
1468.611470189936
 21
1320.847710970497
 31
0.0
 11
1471.083239912705
 21
1251.908055911554
 31
0.0
 11
1471.977820461258
 21
1238.221079889601
 31
0.0
 11
1472.437145564253
 21
1231.378321487131
 31
0.0
 11
1472.669715503685
 21
1227.957090697688
 31
0.0
 11
1472.796177712909
 21
1226.750331004754
 31
0.0
 11
1473.311805095811
 21
1224.742173369168
 31
0.0
 11
1474.175889262653
 21
1222.901509259773
 31
0.0
 11
1475.354893064394
 21
1221.261103768856
 31
0.0
 11
1476.8102288348
 21
1219.863849651703
 31
0.0
 11
1478.499491443945
 21
1218.752580190789
 31
0.0
 11
1480.38455772673
 21
1217.964426652026
 31
0.0
 11
1482.442318312575
 21
1217.533226714322
 31
0.0
 11
1483.263349920302
 21
1217.452871336136
 31
0.0
 11
1484.155884802841
 21
1217.36682630661
 31
0.0
 11
1485.323860920241
 21
1217.254227301828
 31
0.0
 11
1488.249048201774
 21
1216.972223952791
 31
0.0
 11
1494.79674234677
 21
1216.340992000904
 31
0.0
 11
1497.470894578808
 21
1216.083189743241
 31
0.0
 11
1498.450594409088
 21
1215.988741556988
 31
0.0
 11
1499.113013829589
 21
1215.924880861221
 31
0.0
 11
1499.496652642965
 21
1215.888826772325
 31
0.0
 11
1500.031186686102
 21
1215.841507365228
 31
0.0
 11
1500.902815497725
 21
1215.764346781904
 31
0.0
 11
1502.052460613256
 21
1215.662574919218
 31
0.0
 11
1503.421043568113
 21
1215.541421674033
 31
0.0
 11
1506.578709137487
 21
1215.26189062363
 31
0.0
 11
1509.903184489206
 21
1214.967592805609
 31
0.0
 11
1512.921841906626
 21
1214.700367394887
 31
0.0
 11
1514.168792728524
 21
1214.589981584424
 31
0.0
 11
1515.162053673107
 21
1214.502053566378
 31
0.0
 11
1515.842546275795
 21
1214.441813237616
 31
0.0
 11
1516.151192072007
 21
1214.414490495
 31
0.0
 11
1516.239403779483
 21
1214.407390889437
 31
0.0
 11
1516.749242159813
 21
1214.36585722191
 31
0.0
 11
1517.597640591281
 21
1214.296742969742
 31
0.0
 11
1518.725869269098
 21
1214.204832520065
 31
0.0
 11
1521.586898144622
 21
1213.971760576709
 31
0.0
 11
1524.862490348069
 21
1213.704916488895
 31
0.0
 11
1528.082807441126
 21
1213.442575353676
 31
0.0
 11
1530.778010985479
 21
1213.223012268104
 31
0.0
 11
1531.781870664919
 21
1213.141233461764
 31
0.0
 11
1532.478262542815
 21
1213.084502329231
 31
0.0
 11
1532.808456814378
 21
1213.057603257636
 31
0.0
 11
1532.892245997394
 21
1213.051288272527
 31
0.0
 11
1533.378408353787
 21
1213.014584624429
 31
0.0
 11
1534.205231835353
 21
1212.952162189397
 31
0.0
 11
1535.314219077163
 21
1212.868437324783
 31
0.0
 11
1536.646872714287
 21
1212.767826387941
 31
0.0
 11
1539.749189714768
 21
1212.533611726978
 31
0.0
 11
1543.044203917367
 21
1212.284849065324
 31
0.0
 11
1546.063936402655
 21
1212.056869261799
 31
0.0
 11
1547.324328588986
 21
1211.961713825216
 31
0.0
 11
1548.340408251203
 21
1211.88500317522
 31
0.0
 11
1549.053678024378
 21
1211.831153669166
 31
0.0
 11
1549.405640543582
 21
1211.804581664405
 31
0.0
 11
1549.4585759065
 21
1211.800792640036
 31
0.0
 11
1549.767597931783
 21
1211.778961233274
 31
0.0
 11
1551.033773187888
 21
1211.689510046027
 31
0.0
 11
1552.904565540325
 21
1211.557344616153
 31
0.0
 11
1557.214123881148
 21
1211.252888255757
 31
0.0
 11
1559.029951043009
 21
1211.124605938849
 31
0.0
 11
1560.204517648154
 21
1211.041626606545
 31
0.0
 11
1560.500124662452
 21
1211.020884469368
 31
0.0
 11
1560.794462359861
 21
1211.001261956207
 31
0.0
 11
1561.320111900943
 21
1210.966218653468
 31
0.0
 11
1562.909611807493
 21
1210.860251993032
 31
0.0
 11
1564.95715496884
 21
1210.723749115608
 31
0.0
 11
1569.180493402878
 21
1210.442193220006
 31
0.0
 11
1570.733349849044
 21
1210.338669456928
 31
0.0
 11
1571.233807011112
 21
1210.305305646124
 31
0.0
 11
1571.498371896959
 21
1210.287667987067
 31
0.0
 11
1571.582035305308
 21
1210.282356938395
 31
0.0
 11
1572.139403839103
 21
1210.24745187303
 31
0.0
 11
1573.162581853627
 21
1210.183375605155
 31
0.0
 11
1574.573934435426
 21
1210.094990001853
 31
0.0
 11
1576.295826671045
 21
1209.987156930212
 31
0.0
 11
1578.250623647028
 21
1209.864738257314
 31
0.0
 11
1582.548392166269
 21
1209.595591576095
 31
0.0
 11
1586.84616068551
 21
1209.326444894875
 31
0.0
 11
1588.800957661493
 21
1209.204026221978
 31
0.0
 11
1590.522849897111
 21
1209.096193150336
 31
0.0
 11
1591.93420247891
 21
1209.007807547035
 31
0.0
 11
1592.957380493434
 21
1208.943731279159
 31
0.0
 11
1593.514749027229
 21
1208.908826213794
 31
0.0
 11
1593.58985573383
 21
1208.904204480168
 31
0.0
 11
1593.873769394911
 21
1208.888014688646
 31
0.0
 11
1594.410827155398
 21
1208.857389698131
 31
0.0
 11
1596.077250714791
 21
1208.762364154411
 31
0.0
 11
1600.609460168632
 21
1208.503921056208
 31
0.0
 11
1602.806749023869
 21
1208.378623638872
 31
0.0
 11
1604.512495938509
 21
1208.281355734143
 31
0.0
 11
1605.076588505729
 21
1208.249189120435
 31
0.0
 11
1605.392452392949
 21
1208.231177410594
 31
0.0
 11
1605.713890892663
 21
1208.213818441583
 31
0.0
 11
1606.23478822939
 21
1208.18591755955
 31
0.0
 11
1606.968515022636
 21
1208.146616869646
 31
0.0
 11
1608.908107518416
 21
1208.042726260883
 31
0.0
 11
1613.511401925256
 21
1207.796159490139
 31
0.0
 11
1615.509705995247
 21
1207.689124106791
 31
0.0
 11
1616.862182748907
 21
1207.61668124388
 31
0.0
 11
1617.192267469446
 21
1207.599000879249
 31
0.0
 11
1617.249654465154
 21
1207.5959421001
 31
0.0
 11
1617.872568448049
 21
1207.564549492808
 31
0.0
 11
1619.203776820412
 21
1207.497461415152
 31
0.0
 11
1620.969620386312
 21
1207.408469298864
 31
0.0
 11
1624.710576315
 21
1207.219938677316
 31
0.0
 11
1626.138370285927
 21
1207.14798303552
 31
0.0
 11
1626.906162666668
 21
1207.109289082017
 31
0.0
 11
1627.077872766448
 21
1207.101182461338
 31
0.0
 11
1627.760328619112
 21
1207.069779398274
 31
0.0
 11
1630.134731196859
 21
1206.960521761172
 31
0.0
 11
1633.908423005354
 21
1206.747273615067
 31
0.0
 11
1638.170417329913
 21
1206.577022256715
 31
0.0
 11
1641.104074038246
 21
1206.423807990748
 31
0.0
  0
ARC
  5
7B65
330
A
100
AcDbEntity
  8
HIDDEN
 48
0.5
100
AcDbCircle
 10
1640.186987889887
 20
1191.458673439849
 30
0.0
 40
14.99320843348807
100
AcDbArc
 50
3.529273477150652
 51
86.49321314670425
  0
LINE
  5
7B66
330
A
100
AcDbEntity
  8
HIDDEN
 48
0.5
100
AcDbLine
 10
1655.151761363473
 20
1192.381632818297
 30
0.0
 11
1656.191378819769
 21
1163.938770037504
 31
0.0
  0
LINE
  5
7B67
330
A
100
AcDbEntity
  8
HIDDEN
 48
0.5
100
AcDbLine
 10
1642.8451562129
 20
1206.214365233071
 30
0.0
 11
1678.586712917764
 21
1206.214365233071
 31
0.0
  0
SPLINE
  5
7B69
330
A
100
AcDbEntity
  8
MODEL
100
AcDbSpline
210
0.0
220
0.0
230
1.0
 70
    24
 71
     3
 72
    11
 73
     7
 74
     0
 42
0.000000001
 43
0.0000000001
 40
0.0
 40
0.0
 40
0.0
 40
0.0
 40
1.0
 40
1.0
 40
1.0
 40
2.0
 40
2.0
 40
2.0
 40
2.0
 10
1440.19499063047
 20
1320.847710970497
 30
0.0
 10
1440.19499063047
 20
1320.847710970497
 30
0.0
 10
1445.784313545741
 20
1213.338683219597
 30
0.0
 10
1445.784313545741
 20
1213.338683219597
 30
0.0
 10
1445.784313545741
 20
1213.338683219597
 30
0.0
 10
1445.784313545741
 20
1213.338683219597
 30
0.0
 10
1445.784313545741
 20
1213.338683219597
 30
0.0
  0
SPLINE
  5
7B6A
330
A
100
AcDbEntity
  8
MODEL
100
AcDbSpline
210
0.0
220
0.0
230
1.0
 70
     8
 71
     3
 72
     8
 73
     4
 74
     0
 42
0.000000001
 43
0.0000000001
 40
2.0
 40
2.0
 40
2.0
 40
2.0
 40
3.0
 40
3.0
 40
3.0
 40
3.0
 10
1445.784313545741
 20
1213.338683219597
 30
0.0
 10
1446.737915976058
 20
1195.214724890795
 30
0.0
 10
1460.325372569883
 20
1180.282303019528
 30
0.0
 10
1478.283966315393
 20
1177.641981839632
 30
0.0
  0
SPLINE
  5
7B6B
330
A
100
AcDbEntity
  8
MODEL
100
AcDbSpline
210
0.0
220
0.0
230
1.0
 70
     8
 71
     3
 72
     8
 73
     4
 74
     0
 42
0.000000001
 43
0.0000000001
 40
3.0
 40
3.0
 40
3.0
 40
3.0
 40
4.0
 40
4.0
 40
4.0
 40
4.0
 10
1478.283966315393
 20
1177.641981839632
 30
0.0
 10
1518.06517290267
 20
1171.788075591096
 30
0.0
 10
1558.177108656531
 20
1168.508344689139
 30
0.0
 10
1598.404799618697
 20
1167.813813439312
 30
0.0
  0
SPLINE
  5
7B6C
330
A
100
AcDbEntity
  8
MODEL
100
AcDbSpline
210
0.0
220
0.0
230
1.0
 70
     8
 71
     3
 72
     8
 73
     4
 74
     0
 42
0.000000001
 43
0.0000000001
 40
4.0
 40
4.0
 40
4.0
 40
4.0
 40
5.0
 40
5.0
 40
5.0
 40
5.0
 10
1598.404799618697
 20
1167.813813439312
 30
0.0
 10
1612.141084337485
 20
1167.582303022704
 30
0.0
 10
1625.899417667378
 20
1167.394889828306
 30
0.0
 10
1639.663263150049
 20
1167.257086008896
 30
0.0
  0
SPLINE
  5
7B6D
330
A
100
AcDbEntity
  8
MODEL
100
AcDbSpline
210
0.0
220
0.0
230
1.0
 70
     8
 71
     3
 72
     8
 73
     4
 74
     0
 42
0.000000001
 43
0.0000000001
 40
5.0
 40
5.0
 40
5.0
 40
5.0
 40
6.0
 40
6.0
 40
6.0
 40
6.0
 10
1639.663263150049
 20
1167.257086008896
 30
0.0
 10
1640.782230163658
 20
1167.240549550567
 30
0.0
 10
1641.796466274516
 20
1166.601139828505
 30
0.0
 10
1642.30909648272
 20
1165.5979280232
 30
0.0
  0
SPLINE
  5
7B6E
330
A
100
AcDbEntity
  8
MODEL
100
AcDbSpline
210
0.0
220
0.0
230
1.0
 70
     8
 71
     3
 72
    17
 73
    13
 74
     0
 42
0.000000001
 43
0.0000000001
 40
6.0
 40
6.0
 40
6.0
 40
6.0
 40
7.0
 40
7.0
 40
7.0
 40
8.0
 40
8.0
 40
8.0
 40
9.0
 40
9.0
 40
9.0
 40
10.0
 40
10.0
 40
10.0
 40
10.0
 10
1642.30909648272
 20
1165.5979280232
 30
0.0
 10
1642.821726690926
 20
1164.578179759566
 30
0.0
 10
1643.852499260113
 20
1163.938770037504
 30
0.0
 10
1644.993514884827
 20
1163.938770037504
 30
0.0
 10
1644.993514884827
 20
1163.938770037504
 30
0.0
 10
1711.321249243245
 20
1163.938770037504
 30
0.0
 10
1711.321249243245
 20
1163.938770037504
 30
0.0
 10
1712.892212784519
 20
1163.938770037504
 30
0.0
 10
1714.204105145302
 20
1165.167980106641
 30
0.0
 10
1714.31434820083
 20
1166.749967953468
 30
0.0
 10
1714.31434820083
 20
1166.749967953468
 30
0.0
 10
1715.879799589328
 20
1192.342893294292
 30
0.0
 10
1715.879799589328
 20
1192.342893294292
 30
0.0
  0
SPLINE
  5
7B6F
330
A
100
AcDbEntity
  8
MODEL
100
AcDbSpline
210
0.0
220
0.0
230
1.0
 70
     8
 71
     3
 72
    32
 73
    28
 74
     0
 42
0.000000001
 43
0.0000000001
 40
10.0
 40
10.0
 40
10.0
 40
10.0
 40
11.0
 40
11.0
 40
11.0
 40
12.0
 40
12.0
 40
12.0
 40
13.0
 40
13.0
 40
13.0
 40
14.0
 40
14.0
 40
14.0
 40
15.0
 40
15.0
 40
15.0
 40
16.0
 40
16.0
 40
16.0
 40
17.0
 40
17.0
 40
17.0
 40
18.0
 40
18.0
 40
18.0
 40
19.0
 40
19.0
 40
19.0
 40
19.0
 10
1715.879799589328
 20
1192.342893294292
 30
0.0
 10
1716.133358617042
 20
1196.223448848878
 30
0.0
 10
1719.120945421851
 20
1199.370888084202
 30
0.0
 10
1722.979452365331
 20
1199.800836000761
 30
0.0
 10
1722.979452365331
 20
1199.800836000761
 30
0.0
 10
1727.223810003158
 20
1200.313466208966
 30
0.0
 10
1727.223810003158
 20
1200.313466208966
 30
0.0
 10
1727.223810003158
 20
1200.313466208966
 30
0.0
 10
1731.468167640986
 20
1200.903266556041
 30
0.0
 10
1731.468167640986
 20
1200.903266556041
 30
0.0
 10
1731.468167640986
 20
1200.903266556041
 30
0.0
 10
1736.473202361957
 20
1201.697016555843
 30
0.0
 10
1736.473202361957
 20
1201.697016555843
 30
0.0
 10
1736.473202361957
 20
1201.697016555843
 30
0.0
 10
1741.456188471823
 20
1202.595497458396
 30
0.0
 10
1741.456188471823
 20
1202.595497458396
 30
0.0
 10
1741.456188471823
 20
1202.595497458396
 30
0.0
 10
1746.433662428911
 20
1203.598709263701
 30
0.0
 10
1746.433662428911
 20
1203.598709263701
 30
0.0
 10
1746.433662428911
 20
1203.598709263701
 30
0.0
 10
1751.394599927671
 20
1204.701139818981
 30
0.0
 10
1751.394599927671
 20
1204.701139818981
 30
0.0
 10
1751.394599927671
 20
1204.701139818981
 30
0.0
 10
1756.9232891624
 20
1206.057129401975
 30
0.0
 10
1756.9232891624
 20
1206.057129401975
 30
0.0
 10
1756.9232891624
 20
1206.057129401975
 30
0.0
 10
1762.4354419388
 20
1207.53438634605
 30
0.0
 10
1762.4354419388
 20
1207.53438634605
 30
0.0
  0
SPLINE
  5
7B70
330
A
100
AcDbEntity
  8
MODEL
100
AcDbSpline
210
0.0
220
0.0
230
1.0
 70
     8
 71
     3
 72
    14
 73
    10
 74
     0
 42
0.000000001
 43
0.0000000001
 40
19.0
 40
19.0
 40
19.0
 40
19.0
 40
20.0
 40
20.0
 40
20.0
 40
21.0
 40
21.0
 40
21.0
 40
22.0
 40
22.0
 40
22.0
 40
22.0
 10
1762.4354419388
 20
1207.53438634605
 30
0.0
 10
1773.911744019264
 20
1210.736947109139
 30
0.0
 10
1782.113827350547
 20
1220.873796064938
 30
0.0
 10
1782.841431517032
 20
1232.780046061961
 30
0.0
 10
1782.841431517032
 20
1232.780046061961
 30
0.0
 10
1782.841431517032
 20
1232.79658252029
 30
0.0
 10
1782.841431517032
 20
1232.79658252029
 30
0.0
 10
1782.841431517032
 20
1232.79658252029
 30
0.0
 10
1785.514825613585
 20
1276.055957509476
 30
0.0
 10
1785.514825613585
 20
1276.055957509476
 30
0.0
  0
SPLINE
  5
7B71
330
A
100
AcDbEntity
  8
MODEL
100
AcDbSpline
210
0.0
220
0.0
230
1.0
 70
     8
 71
     3
 72
    20
 73
    16
 74
     0
 42
0.000000001
 43
0.0000000001
 40
22.0
 40
22.0
 40
22.0
 40
22.0
 40
23.0
 40
23.0
 40
23.0
 40
24.0
 40
24.0
 40
24.0
 40
25.0
 40
25.0
 40
25.0
 40
26.0
 40
26.0
 40
26.0
 40
27.0
 40
27.0
 40
27.0
 40
27.0
 10
1785.514825613585
 20
1276.055957509476
 30
0.0
 10
1785.597507905231
 20
1277.599360286868
 30
0.0
 10
1786.865303043803
 20
1278.823058203228
 30
0.0
 10
1788.408705821195
 20
1278.872667578216
 30
0.0
 10
1788.408705821195
 20
1278.872667578216
 30
0.0
 10
1796.136744013707
 20
1278.872667578216
 30
0.0
 10
1796.136744013707
 20
1278.872667578216
 30
0.0
 10
1797.735268318863
 20
1278.872667578216
 30
0.0
 10
1799.058184985199
 20
1280.123926258459
 30
0.0
 10
1799.129842971292
 20
1281.716938410838
 30
0.0
 10
1799.129842971292
 20
1281.716938410838
 30
0.0
 10
1801.18587595689
 20
1320.8477109705
 30
0.0
 10
1801.18587595689
 20
1320.8477109705
 30
0.0
 10
1801.18587595689
 20
1320.8477109705
 30
0.0
 10
1440.19499063047
 20
1320.847710970497
 30
0.0
 10
1440.19499063047
 20
1320.847710970497
 30
0.0
  0
SPLINE
  5
7B72
330
A
100
AcDbEntity
  8
HIDDEN
 48
0.5
100
AcDbSpline
210
0.0
220
0.0
230
1.0
 70
  1064
 71
     3
 72
    13
 73
     9
 74
     7
 42
0.000000001
 43
0.0000000001
 44
0.0
 40
0.0
 40
0.0
 40
0.0
 40
0.0
 40
26.17439220149097
 40
46.13609138329959
 40
57.90722926469427
 40
78.60604107387688
 40
100.1223018944074
 40
153.6571503133672
 40
153.6571503133672
 40
153.6571503133672
 40
153.6571503133672
 10
1721.786221697048
 20
1206.181292316412
 30
0.0
 10
1730.363598658565
 20
1207.283000366995
 30
0.0
 10
1745.482446281815
 20
1209.224917600761
 30
0.0
 10
1765.134042336664
 20
1213.371722060446
 30
0.0
 10
1777.319652967248
 20
1227.361131585333
 30
0.0
 10
1777.152521468883
 20
1246.321927284032
 30
0.0
 10
1778.400413913232
 20
1277.809197724787
 30
0.0
 10
1778.453164602804
 20
1302.929266960411
 30
0.0
 10
1778.49079229677
 20
1320.8477109705
 30
0.0
 11
1721.786221697048
 21
1206.181292316412
 31
0.0
 11
1747.69153269896
 21
1209.92477585607
 31
0.0
 11
1766.570597495468
 21
1216.409399718274
 31
0.0
 11
1774.239800695527
 21
1225.339293855329
 31
0.0
 11
1777.318741808749
 21
1245.807829023564
 31
0.0
 11
1777.907064246013
 21
1267.316045044585
 31
0.0
 11
1778.49079229677
 21
1320.8477109705
 31
0.0
  0
ARC
  5
7B73
330
A
100
AcDbEntity
  8
HIDDEN
 48
0.5
100
AcDbCircle
 10
1716.98643794564
 20
1191.458673439849
 30
0.0
 40
14.99320843348807
100
AcDbArc
 50
93.50678685329576
 51
176.4707265228494
  0
LINE
  5
7B74
330
A
100
AcDbEntity
  8
HIDDEN
 48
0.5
100
AcDbLine
 10
1702.021664472054
 20
1192.381632818297
 30
0.0
 11
1700.982047015758
 21
1163.938770037504
 31
0.0
  0
MTEXT
  5
7B9F
330
A
100
AcDbEntity
  8
DIM
390
1D
100
AcDbMText
 10
1329.704393245822
 20
2673.462977175694
 30
0.0
 40
24.0
 41
0.0
 46
0.0
 71
     1
 72
     1
  1
カウンター切込寸法
  7
ＭＳ ゴシック
 73
     1
 44
0.7828267384257843
  0
MTEXT
  5
7BA0
330
A
100
AcDbEntity
  8
DIM
390
1D
100
AcDbMText
 10
1125.952229297408
 20
1876.867808085128
 30
0.0
 40
24.0
 41
1529.335269416851
 46
319.765075822375
 71
     1
 72
     1
  1
{※ 陶器は寸法公差があります。必ず現物を合わせて\P   カウンターの切込を行ってください。\P※ 洗面器とカウンターの接する面にはシール材を\P   塗布してください。\P※ カウンター固定金具は強度のあるカウンター材に\P   固定する必要があります。\P※ 強度が不足していたり、直付けできない場合、\P   補強木を接着したうえで固定してください。}
  7
ＭＳ ゴシック
 73
     1
 44
0.9822934569727008
1001
ACAD
1000
ACAD_MTEXT_DEFINED_HEIGHT_BEGIN
1070
    46
1040
319.765075822375
1000
ACAD_MTEXT_DEFINED_HEIGHT_END
  0
SPLINE
  5
7BA2
330
A
100
AcDbEntity
  8
HIDDEN
 48
0.5
100
AcDbSpline
210
0.0
220
0.0
230
1.0
 70
    11
 71
     3
 72
    17
 73
    13
 74
     0
 42
0.000000001
 43
0.0000000001
 40
0.0
 40
0.0
 40
0.0
 40
0.0
 40
1.0
 40
1.0
 40
1.0
 40
2.0
 40
2.0
 40
2.0
 40
3.0
 40
3.0
 40
3.0
 40
4.0
 40
4.0
 40
4.0
 40
4.0
 10
1492.53093802938
 20
2233.18954138058
 30
0.0
 10
1492.53093802938
 20
2245.867492766299
 30
0.0
 10
1482.223212337513
 20
2256.164194152614
 30
0.0
 10
1469.53423664624
 20
2256.164194152614
 30
0.0
 10
1456.839748802192
 20
2256.164194152614
 30
0.0
 10
1446.548559568653
 20
2245.867492766299
 30
0.0
 10
1446.548559568653
 20
2233.18954138058
 30
0.0
 10
1446.548559568653
 20
2220.51158999486
 30
0.0
 10
1456.839748802192
 20
2210.220400761321
 30
0.0
 10
1469.53423664624
 20
2210.220400761321
 30
0.0
 10
1482.223212337513
 20
2210.220400761321
 30
0.0
 10
1492.53093802938
 20
2220.51158999486
 30
0.0
 10
1492.53093802938
 20
2233.18954138058
 30
0.0
  0
SPLINE
  5
7BA4
330
A
100
AcDbEntity
  8
HIDDEN
 48
0.5
100
AcDbSpline
210
0.0
220
0.0
230
1.0
 70
    11
 71
     3
 72
    95
 73
    91
 74
     0
 42
0.000000001
 43
0.0000000001
 40
0.0
 40
0.0
 40
0.0
 40
0.0
 40
1.0
 40
1.0
 40
1.0
 40
2.0
 40
2.0
 40
2.0
 40
3.0
 40
3.0
 40
3.0
 40
4.0
 40
4.0
 40
4.0
 40
5.0
 40
5.0
 40
5.0
 40
6.0
 40
6.0
 40
6.0
 40
7.0
 40
7.0
 40
7.0
 40
8.0
 40
8.0
 40
8.0
 40
9.0
 40
9.0
 40
9.0
 40
10.0
 40
10.0
 40
10.0
 40
11.0
 40
11.0
 40
11.0
 40
12.0
 40
12.0
 40
12.0
 40
13.0
 40
13.0
 40
13.0
 40
14.0
 40
14.0
 40
14.0
 40
15.0
 40
15.0
 40
15.0
 40
16.0
 40
16.0
 40
16.0
 40
17.0
 40
17.0
 40
17.0
 40
18.0
 40
18.0
 40
18.0
 40
19.0
 40
19.0
 40
19.0
 40
20.0
 40
20.0
 40
20.0
 40
21.0
 40
21.0
 40
21.0
 40
22.0
 40
22.0
 40
22.0
 40
23.0
 40
23.0
 40
23.0
 40
24.0
 40
24.0
 40
24.0
 40
25.0
 40
25.0
 40
25.0
 40
26.0
 40
26.0
 40
26.0
 40
27.0
 40
27.0
 40
27.0
 40
28.0
 40
28.0
 40
28.0
 40
29.0
 40
29.0
 40
29.0
 40
30.0
 40
30.0
 40
30.0
 40
30.0
 10
1703.828290407111
 20
2002.020878243926
 30
0.0
 10
1721.693177555423
 20
2002.3075101883
 30
0.0
 10
1736.096432760155
 20
2016.705253240256
 30
0.0
 10
1736.388576857304
 20
2034.570140388567
 30
0.0
 10
1737.909931023591
 20
2130.327258420184
 30
0.0
 10
1737.909931023591
 20
2226.100912910129
 30
0.0
 10
1736.388576857304
 20
2321.858030941746
 30
0.0
 10
1736.101944912931
 20
2339.71740593728
 30
0.0
 10
1721.693177555423
 20
2354.120661142012
 30
0.0
 10
1703.839314712664
 20
2354.40178093361
 30
0.0
 10
1625.743134176633
 20
2355.630991002747
 30
0.0
 10
1547.635929335048
 20
2356.248352113704
 30
0.0
 10
1469.53423664624
 20
2356.248352113704
 30
0.0
 10
1469.53423664624
 20
2356.248352113704
 30
0.0
 10
1469.53423664624
 20
2356.248352113704
 30
0.0
 10
1469.53423664624
 20
2356.248352113704
 30
0.0
 10
1391.427031804656
 20
2356.248352113704
 30
0.0
 10
1313.319826963072
 20
2355.630991002747
 30
0.0
 10
1235.22364642704
 20
2354.40178093361
 30
0.0
 10
1217.364271431505
 20
2354.120661142012
 30
0.0
 10
1202.955504073996
 20
2339.71740593728
 30
0.0
 10
1202.6743842824
 20
2321.858030941746
 30
0.0
 10
1202.6743842824
 20
2321.858030941746
 30
0.0
 10
1202.6743842824
 20
2321.858030941746
 30
0.0
 10
1202.6743842824
 20
2321.858030941746
 30
0.0
 10
1201.147517963337
 20
2226.100912910129
 30
0.0
 10
1201.147517963337
 20
2130.327258420184
 30
0.0
 10
1202.6743842824
 20
2034.570140388567
 30
0.0
 10
1202.6743842824
 20
2034.570140388567
 30
0.0
 10
1202.6743842824
 20
2034.570140388567
 30
0.0
 10
1202.6743842824
 20
2034.570140388567
 30
0.0
 10
1202.961016226772
 20
2016.705253240256
 30
0.0
 10
1217.364271431505
 20
2002.3075101883
 30
0.0
 10
1235.240182885369
 20
2002.020878243926
 30
0.0
 10
1235.240182885369
 20
2002.020878243926
 30
0.0
 10
1235.240182885369
 20
2002.026390396704
 30
0.0
 10
1235.240182885369
 20
2002.026390396704
 30
0.0
 10
1297.422778355935
 20
2001.045227202504
 30
0.0
 10
1359.6053738265
 20
2000.455426855429
 30
0.0
 10
1421.804505755395
 20
2000.256989355479
 30
0.0
 10
1421.804505755395
 20
2000.256989355479
 30
0.0
 10
1421.804505755395
 20
2000.256989355479
 30
0.0
 10
1421.804505755395
 20
2000.256989355479
 30
0.0
 10
1422.873863394016
 20
2000.251477202702
 30
0.0
 10
1423.866050893769
 20
1999.678213313956
 30
0.0
 10
1424.395217560303
 20
1998.746659494746
 30
0.0
 10
1425.216528323986
 20
1997.313499772882
 30
0.0
 10
1426.682760962509
 20
1996.38194595367
 30
0.0
 10
1428.336406795429
 20
1996.255166439813
 30
0.0
 10
1428.336406795429
 20
1996.255166439813
 30
0.0
 10
1429.48293457292
 20
1996.155947689838
 30
0.0
 10
1429.48293457292
 20
1996.155947689838
 30
0.0
 10
1437.806285265284
 20
1995.505513662223
 30
0.0
 10
1446.157196721529
 20
1995.180296648415
 30
0.0
 10
1454.513620330551
 20
1995.180296648415
 30
0.0
 10
1454.513620330551
 20
1995.180296648415
 30
0.0
 10
1459.29265678769
 20
1995.180296648415
 30
0.0
 10
1459.29265678769
 20
1995.180296648415
 30
0.0
 10
1459.29265678769
 20
1995.180296648415
 30
0.0
 10
1469.53423664624
 20
1995.180296648415
 30
0.0
 10
1469.53423664624
 20
1995.180296648415
 30
0.0
 10
1469.53423664624
 20
1995.180296648415
 30
0.0
 10
1479.770304352015
 20
1995.180296648415
 30
0.0
 10
1479.770304352015
 20
1995.180296648415
 30
0.0
 10
1479.770304352015
 20
1995.180296648415
 30
0.0
 10
1484.549340809153
 20
1995.180296648415
 30
0.0
 10
1484.549340809153
 20
1995.180296648415
 30
0.0
 10
1492.900252265399
 20
1995.180296648415
 30
0.0
 10
1501.256675874421
 20
1995.505513662223
 30
0.0
 10
1509.585538719561
 20
1996.155947689838
 30
0.0
 10
1509.585538719561
 20
1996.155947689838
 30
0.0
 10
1510.737578649829
 20
1996.255166439813
 30
0.0
 10
1510.737578649829
 20
1996.255166439813
 30
0.0
 10
1512.385712329972
 20
1996.38194595367
 30
0.0
 10
1513.851944968494
 20
1997.319011925658
 30
0.0
 10
1514.673255732178
 20
1998.746659494746
 30
0.0
 10
1514.673255732178
 20
1998.746659494746
 30
0.0
 10
1514.673255732178
 20
1998.752171647522
 30
0.0
 10
1514.673255732178
 20
1998.752171647522
 30
0.0
 10
1515.202422398712
 20
1999.678213313956
 30
0.0
 10
1516.194609898464
 20
2000.251477202702
 30
0.0
 10
1517.263967537086
 20
2000.256989355479
 30
0.0
 10
1517.263967537086
 20
2000.256989355479
 30
0.0
 10
1517.263967537086
 20
2000.256989355479
 30
0.0
 10
1517.263967537086
 20
2000.256989355479
 30
0.0
 10
1579.452075160428
 20
2000.455426855429
 30
0.0
 10
1641.640182783769
 20
2001.045227202504
 30
0.0
 10
1703.828290407111
 20
2002.020878243926
 30
0.0
 10
1703.828290407111
 20
2002.020878243926
 30
0.0
 10
1703.828290407111
 20
2002.020878243926
 30
0.0
 10
1703.828290407111
 20
2002.020878243926
 30
0.0
  0
MTEXT
  5
7BB5
330
A
100
AcDbEntity
  8
TEMPLATE
390
1D
100
AcDbMText
 10
1329.20214454799
 20
230.1492906939284
 30
0.0
 40
24.4326171875
 41
0.0
 46
28.390701171875
 71
     1
 72
     1
  1
{8.5kg}
  7
ＭＳ ゴシック
 73
     1
 44
0.7828267384257843
1001
ACAD
1000
ACAD_MTEXT_DEFINED_HEIGHT_BEGIN
1070
    46
1040
28.390701171875
1000
ACAD_MTEXT_DEFINED_HEIGHT_END
  0
MTEXT
  5
7BB6
330
A
100
AcDbEntity
  8
TEMPLATE
390
1D
100
AcDbMText
 10
1580.20214454799
 20
230.1492906939284
 30
0.0
 40
24.4326171875
 41
0.0
 46
24.4326171875
 71
     1
 72
     1
  1
{7.5L}
  7
ＭＳ ゴシック
 73
     1
 44
0.7828267384257843
1001
ACAD
1000
ACAD_MTEXT_DEFINED_HEIGHT_BEGIN
1070
    46
1040
24.4326171875
1000
ACAD_MTEXT_DEFINED_HEIGHT_END
  0
LINE
  5
7BD6
330
A
100
AcDbEntity
  8
HIDDEN
 48
0.5
100
AcDbLine
 10
1224.624794918409
 20
2178.212707443109
 30
0.0
 11
1225.598844827321
 21
2319.036938708049
 31
0.0
  0
LINE
  5
7BD7
330
A
100
AcDbEntity
  8
HIDDEN
 48
0.5
100
AcDbLine
 10
1239.483360524633
 20
2331.396940003859
 30
0.0
 11
1469.531480569852
 21
2333.152431980588
 31
0.0
  0
ARC
  5
7BD8
330
A
100
AcDbEntity
  8
HIDDEN
 48
0.5
100
AcDbCircle
 10
1238.380313745614
 20
2318.657504950087
 30
0.0
 40
12.78709965887458
100
AcDbArc
 50
85.05137434995085
 51
178.2996031072161
  0
LINE
  5
7BD9
330
A
100
AcDbEntity
  8
HIDDEN
 48
0.5
100
AcDbLine
 10
1714.438177805461
 20
2178.21270744311
 30
0.0
 11
1713.464127896549
 21
2319.03693870805
 31
0.0
  0
LINE
  5
7BDA
330
A
100
AcDbEntity
  8
HIDDEN
 48
0.5
100
AcDbLine
 10
1699.579612199237
 20
2331.39694000386
 30
0.0
 11
1469.531492154018
 21
2333.152431980588
 31
0.0
  0
ARC
  5
7BDB
330
A
100
AcDbEntity
  8
HIDDEN
 48
0.5
100
AcDbCircle
 10
1700.682658978256
 20
2318.657504950087
 30
0.0
 40
12.78709965887458
100
AcDbArc
 50
1.70039689278393
 51
94.94862565004917
  0
LINE
  5
7BDC
330
A
100
AcDbEntity
  8
HIDDEN
 48
0.5
100
AcDbLine
 10
1224.624794918409
 20
2178.208366920079
 30
0.0
 11
1225.598844827321
 21
2037.384135655139
 31
0.0
  0
LINE
  5
7BDD
330
A
100
AcDbEntity
  8
HIDDEN
 48
0.5
100
AcDbLine
 10
1239.483360524633
 20
2025.024134359329
 30
0.0
 11
1469.531480569852
 21
2023.2686423826
 31
0.0
  0
ARC
  5
7BDE
330
A
100
AcDbEntity
  8
HIDDEN
 48
0.5
100
AcDbCircle
 10
1238.380313745614
 20
2037.763569413102
 30
0.0
 40
12.78709965887458
100
AcDbArc
 50
181.7003968927839
 51
274.9486256500492
  0
LINE
  5
7BDF
330
A
100
AcDbEntity
  8
HIDDEN
 48
0.5
100
AcDbLine
 10
1714.438177805461
 20
2178.208366920078
 30
0.0
 11
1713.464127896549
 21
2037.384135655138
 31
0.0
  0
LINE
  5
7BE0
330
A
100
AcDbEntity
  8
HIDDEN
 48
0.5
100
AcDbLine
 10
1699.579612199237
 20
2025.024134359328
 30
0.0
 11
1469.531492154018
 21
2023.2686423826
 31
0.0
  0
ARC
  5
7BE1
330
A
100
AcDbEntity
  8
HIDDEN
 48
0.5
100
AcDbCircle
 10
1700.682658978256
 20
2037.763569413101
 30
0.0
 40
12.78709965887458
100
AcDbArc
 50
265.0513743499508
 51
358.2996031072161
  0
LINE
  5
7BE3
102
{ACAD_REACTORS
330
7BF3
330
7BF5
102
}
330
A
100
AcDbEntity
  8
MODEL
 48
0.5
100
AcDbLine
 10
1234.62455571792
 20
2178.143541320146
 30
0.0
 11
1235.598605626832
 21
2318.967772585086
 31
0.0
  0
ARC
  5
7BE4
102
{ACAD_REACTORS
330
7BF3
330
7BF5
102
}
330
A
100
AcDbEntity
  8
MODEL
 48
0.5
100
AcDbCircle
 10
1238.380313745614
 20
2318.657504950087
 30
0.0
 40
2.787099658874579
100
AcDbArc
 50
85.05137434995038
 51
178.2996031072165
  0
LINE
  5
7BE5
102
{ACAD_REACTORS
330
7BF3
330
7BF5
102
}
330
A
100
AcDbEntity
  8
MODEL
 48
0.5
100
AcDbLine
 10
1238.620735841597
 20
2321.434215544344
 30
0.0
 11
1469.607788120893
 21
2323.152723126944
 31
0.0
  0
LINE
  5
7BE6
102
{ACAD_REACTORS
330
7BF3
330
7BF5
102
}
330
A
100
AcDbEntity
  8
MODEL
 48
0.5
100
AcDbLine
 10
1700.442236882273
 20
2321.434215544345
 30
0.0
 11
1469.455184602977
 21
2323.152723126944
 31
0.0
  0
LINE
  5
7BE7
102
{ACAD_REACTORS
330
7BF3
330
7BF5
102
}
330
A
100
AcDbEntity
  8
MODEL
 48
0.5
100
AcDbLine
 10
1704.43841700595
 20
2178.143541320146
 30
0.0
 11
1703.464367097038
 21
2318.967772585086
 31
0.0
  0
LINE
  5
7BE8
102
{ACAD_REACTORS
330
7BF3
330
7BF5
102
}
330
A
100
AcDbEntity
  8
MODEL
 48
0.5
100
AcDbLine
 10
1704.43841700595
 20
2178.277533043042
 30
0.0
 11
1703.464367097038
 21
2037.453301778102
 31
0.0
  0
ARC
  5
7BE9
102
{ACAD_REACTORS
330
7BF3
330
7BF5
102
}
330
A
100
AcDbEntity
  8
MODEL
 48
0.5
100
AcDbCircle
 10
1700.682658978256
 20
2318.657504950087
 30
0.0
 40
2.787099658874579
100
AcDbArc
 50
1.700396892783467
 51
94.94862565004965
  0
ARC
  5
7BEA
102
{ACAD_REACTORS
330
7BF3
330
7BF5
102
}
330
A
100
AcDbEntity
  8
MODEL
 48
0.5
100
AcDbCircle
 10
1700.682658978256
 20
2037.763569413101
 30
0.0
 40
2.787099658874579
100
AcDbArc
 50
265.0513743499504
 51
358.2996031072165
  0
LINE
  5
7BEB
102
{ACAD_REACTORS
330
7BF3
330
7BF5
102
}
330
A
100
AcDbEntity
  8
MODEL
 48
0.5
100
AcDbLine
 10
1700.442236882273
 20
2034.986858818843
 30
0.0
 11
1469.455184602977
 21
2033.268351236245
 31
0.0
  0
LINE
  5
7BEC
102
{ACAD_REACTORS
330
7BF3
330
7BF5
102
}
330
A
100
AcDbEntity
  8
MODEL
 48
0.5
100
AcDbLine
 10
1238.620735841597
 20
2034.986858818844
 30
0.0
 11
1469.607788120893
 21
2033.268351236245
 31
0.0
  0
ARC
  5
7BED
102
{ACAD_REACTORS
330
7BF3
330
7BF5
102
}
330
A
100
AcDbEntity
  8
MODEL
 48
0.5
100
AcDbCircle
 10
1238.380313745614
 20
2037.763569413102
 30
0.0
 40
2.787099658874579
100
AcDbArc
 50
181.7003968927835
 51
274.9486256500496
  0
LINE
  5
7BEE
102
{ACAD_REACTORS
330
7BF3
330
7BF5
102
}
330
A
100
AcDbEntity
  8
MODEL
 48
0.5
100
AcDbLine
 10
1234.62455571792
 20
2178.277533043043
 30
0.0
 11
1235.598605626832
 21
2037.453301778103
 31
0.0
  0
HATCH
  5
7BF5
330
A
100
AcDbEntity
  8
DIM
100
AcDbHatch
 10
0.0
 20
0.0
 30
0.0
210
0.0
220
0.0
230
1.0
  2
ANSI31
 70
     0
 71
     1
 91
        8
 92
        1
 93
        1
 72
     1
 10
1234.62455571792
 20
2178.143541320146
 11
1235.598605626832
 21
2318.967772585086
 97
        1
330
7BE3
 92
        1
 93
        2
 72
     2
 10
1238.380313745614
 20
2318.657504950087
 40
2.787099658874579
 50
85.05137434995038
 51
178.2996031072165
 73
     1
 72
     1
 10
1238.620735841597
 20
2321.434215544344
 11
1469.607788120893
 21
2323.152723126944
 97
        2
330
7BE4
330
7BE5
 92
        1
 93
        2
 72
     1
 10
1700.442236882273
 20
2321.434215544345
 11
1469.455184602977
 21
2323.152723126944
 72
     2
 10
1700.682658978256
 20
2318.657504950087
 40
2.787099658874579
 50
1.700396892783467
 51
94.94862565004965
 73
     1
 97
        2
330
7BE6
330
7BE9
 92
        1
 93
        1
 72
     1
 10
1704.43841700595
 20
2178.143541320146
 11
1703.464367097038
 21
2318.967772585086
 97
        1
330
7BE7
 92
        1
 93
        1
 72
     1
 10
1704.43841700595
 20
2178.277533043042
 11
1703.464367097038
 21
2037.453301778102
 97
        1
330
7BE8
 92
        1
 93
        2
 72
     2
 10
1700.682658978256
 20
2037.763569413101
 40
2.787099658874579
 50
265.0513743499504
 51
358.2996031072165
 73
     1
 72
     1
 10
1700.442236882273
 20
2034.986858818843
 11
1469.455184602977
 21
2033.268351236245
 97
        2
330
7BEA
330
7BEB
 92
        1
 93
        2
 72
     1
 10
1238.620735841597
 20
2034.986858818844
 11
1469.607788120893
 21
2033.268351236245
 72
     2
 10
1238.380313745614
 20
2037.763569413102
 40
2.787099658874579
 50
181.7003968927835
 51
274.9486256500496
 73
     1
 97
        2
330
7BEC
330
7BED
 92
        1
 93
        1
 72
     1
 10
1234.62455571792
 20
2178.277533043043
 11
1235.598605626832
 21
2037.453301778103
 97
        1
330
7BEE
 75
     0
 76
     1
 52
0.0
 41
6.0
 77
     0
 78
     1
 53
45.0
 43
0.0
 44
152.5920000000001
 45
-13.47038418160373
 46
13.47038418160373
 79
     0
 98
        1
 10
0.0
 20
152.5920000000001
1001
ACAD
1010
0.0
1020
0.0
1030
0.0
  0
DIMENSION
  5
7BF6
330
A
100
AcDbEntity
  8
DIM
100
AcDbDimension
  2
*D41
 10
1847.580469440786
 20
2033.268351236245
 30
0.0
 11
1847.580469440786
 21
2178.210537181595
 31
0.0
 70
   160
  1
295
 71
     5
 42
289.8843718906992
 73
     0
 74
     0
 75
     0
  3
tfrom線あり
100
AcDbAlignedDimension
 13
1691.593005042492
 23
2323.152723126944
 33
0.0
 14
1691.593005042492
 24
2033.268351236245
 34
0.0
 50
90.0
100
AcDbRotatedDimension
1001
ACAD
1000
DSTYLE
1002
{
1070
   144
1040
1.0
1002
}
  0
DIMENSION
  5
7C05
330
A
100
AcDbEntity
  8
DIM
100
AcDbDimension
  2
*D42
 10
1234.62455571792
 20
2464.59265313396
 30
0.0
 11
1469.516091945039
 21
2496.59265313396
 31
0.0
 70
    32
 71
     5
 42
469.783072454238
 73
     0
 74
     0
 75
     0
  3
tfrom線あり
100
AcDbAlignedDimension
 13
1704.407628172158
 23
2340.488392994048
 33
0.0
 14
1234.62455571792
 24
2336.037066824145
 34
0.0
100
AcDbRotatedDimension
1001
ACAD
1000
DSTYLE
1002
{
1070
   144
1040
1.0
1002
}
  0
DIMENSION
  5
7C51
330
A
100
AcDbEntity
  8
DIM
100
AcDbDimension
  2
*D44
 10
993.0857975900285
 20
1996.248352113704
 30
0.0
 11
993.0857975900285
 21
1950.044352113704
 31
0.0
 70
   160
 71
     5
 42
5.000000000000013
 73
     0
 74
     0
 75
     0
  3
tfrom線あり
100
AcDbAlignedDimension
 13
863.9402222185073
 23
2001.248352113704
 33
0.0
 14
653.5028552275443
 24
1996.248352113704
 34
0.0
 50
90.0
100
AcDbRotatedDimension
1001
ACAD
1000
DSTYLE
1002
{
1070
   144
1040
1.0
1002
}
  0
DIMENSION
  5
7C6B
330
A
100
AcDbEntity
  8
DIM
100
AcDbDimension
  2
*D45
 10
1068.82732896
 20
1996.248352113704
 30
0.0
 11
1036.82732896
 21
2176.248352113704
 31
0.0
 70
    32
 71
     5
 42
360.0
 73
     0
 74
     0
 75
     0
  3
tfrom線あり
100
AcDbAlignedDimension
 13
863.9402222185072
 23
2356.248352113704
 33
0.0
 14
863.9402222185071
 24
1996.248352113704
 34
0.0
 50
90.0
100
AcDbRotatedDimension
1001
ACAD
1000
DSTYLE
1002
{
1070
   144
1040
1.0
1002
}
  0
MTEXT
  5
7D51
330
A
100
AcDbEntity
  8
DIM
100
AcDbMText
 10
436.0424998246439
 20
930.3927863612389
 30
0.0
 40
20.19553805759975
 41
0.0
 46
22.23528740141733
 71
     7
 72
     1
  1
{\fＭＳ ゴシック|b0|i0|c0|p34;カウンター固定金具使用例}
 73
     1
 44
1.0
1001
ACAD
1000
ACAD_MTEXT_DEFINED_HEIGHT_BEGIN
1070
    46
1040
22.23528740141733
1000
ACAD_MTEXT_DEFINED_HEIGHT_END
  0
POLYLINE
  5
7D6C
330
A
100
AcDbEntity
  8
DIM
100
AcDb2dPolyline
 66
     1
 10
0.0
 20
0.0
 30
0.0
  0
VERTEX
  5
7D6D
330
7D6C
100
AcDbEntity
  8
DIM
100
AcDbVertex
100
AcDb2dVertex
 10
406.7138977696403
 20
941.1272598381299
 30
0.0
  0
VERTEX
  5
7D6E
330
7D6C
100
AcDbEntity
  8
DIM
100
AcDbVertex
100
AcDb2dVertex
 10
300.7485780480008
 20
941.1272598381299
 30
0.0
  0
VERTEX
  5
7D6F
330
7D6C
100
AcDbEntity
  8
DIM
100
AcDbVertex
100
AcDb2dVertex
 10
300.748578048001
 20
474.5449674239996
 30
0.0
  0
VERTEX
  5
7D70
330
7D6C
100
AcDbEntity
  8
DIM
100
AcDbVertex
100
AcDb2dVertex
 10
1837.344538793212
 20
474.5449674239995
 30
0.0
  0
VERTEX
  5
7D71
330
7D6C
100
AcDbEntity
  8
DIM
100
AcDbVertex
100
AcDb2dVertex
 10
1837.344538793212
 20
941.1272598381299
 30
0.0
  0
VERTEX
  5
7D72
330
7D6C
100
AcDbEntity
  8
DIM
100
AcDbVertex
100
AcDb2dVertex
 10
773.1926079041607
 20
941.1272598381304
 30
0.0
  0
SEQEND
  5
7D73
330
7D6C
100
AcDbEntity
  8
DIM
  0
DIMENSION
  5
7DB8
330
A
100
AcDbEntity
  8
DIM
  6
Continuous
370
     0
100
AcDbDimension
  2
*D49
 10
1747.735832832013
 20
580.2284393855671
 30
0.0
 11
1725.519524238263
 21
680.2284393855671
 31
0.0
 70
    32
  1
150-200
 71
     5
 42
200.0
 73
     0
 74
     0
 75
     0
  3
JIS
100
AcDbAlignedDimension
 13
1663.655009939714
 23
780.2284393855671
 33
0.0
 14
1663.655009939714
 24
580.2284393855671
 34
0.0
 50
90.0
100
AcDbRotatedDimension
1001
ACAD
1000
DSTYLE
1002
{
1070
   144
1040
1.0
1070
   179
1070
     0
1070
   271
1070
     0
1070
    43
1040
25.0
1070
    44
1040
0.0
1070
    42
1040
25.0
1002
}
  0
LINE
  5
7DC9
330
A
100
AcDbEntity
  8
DIM
  6
Continuous
100
AcDbLine
 10
1659.177010085475
 20
770.8364325786614
 30
0.0
 11
1659.177010085475
 21
789.6204462035367
 31
0.0
  0
LINE
  5
7DCA
330
A
100
AcDbEntity
  8
DIM
  6
Continuous
100
AcDbLine
 10
1659.177010085475
 20
789.6204462035367
 30
0.0
 11
1607.196025952797
 21
789.6204462035367
 31
0.0
  0
LINE
  5
7DCB
330
A
100
AcDbEntity
  8
DIM
  6
Continuous
100
AcDbLine
 10
1659.177010085475
 20
770.8364325786616
 30
0.0
 11
1607.196025952797
 21
770.8364325786616
 31
0.0
  0
LINE
  5
7DCC
330
A
100
AcDbEntity
  8
DIM
  6
Continuous
100
AcDbLine
 10
1607.196025952797
 20
770.8364325786616
 30
0.0
 11
1607.196025952797
 21
789.6204462035367
 31
0.0
  0
LINE
  5
7DCD
330
A
100
AcDbEntity
  8
DIM
  6
Continuous
100
AcDbLine
 10
1659.177010085475
 20
589.6204461980047
 30
0.0
 11
1659.177010085475
 21
570.8364325731296
 31
0.0
  0
LINE
  5
7DCE
330
A
100
AcDbEntity
  8
DIM
  6
Continuous
100
AcDbLine
 10
1659.177010085475
 20
570.8364325731296
 30
0.0
 11
1607.196025952797
 21
570.8364325731296
 31
0.0
  0
LINE
  5
7DCF
330
A
100
AcDbEntity
  8
DIM
  6
Continuous
100
AcDbLine
 10
1659.177010085475
 20
589.6204461980047
 30
0.0
 11
1607.196025952797
 21
589.6204461980047
 31
0.0
  0
LINE
  5
7DD0
330
A
100
AcDbEntity
  8
DIM
  6
Continuous
100
AcDbLine
 10
1607.196025952797
 20
589.6204461980047
 30
0.0
 11
1607.196025952797
 21
570.8364325731294
 31
0.0
  0
MTEXT
  5
7DD4
330
A
100
AcDbEntity
  8
DIM
100
AcDbMText
 10
1126.534711024644
 20
893.897426361239
 30
0.0
 40
20.19553805759975
 41
0.0
 46
22.45743832005092
 71
     7
 72
     1
  1
{\fＭＳ ゴシック|b0|i0|c0|p34;固定金具位置}
 73
     1
 44
1.0
1001
ACAD
1000
ACAD_MTEXT_DEFINED_HEIGHT_BEGIN
1070
    46
1040
22.45743832005092
1000
ACAD_MTEXT_DEFINED_HEIGHT_END
  0
LINE
  5
7E2C
102
{ACAD_REACTORS
330
7E39
102
}
330
A
100
AcDbEntity
  8
MODEL
 48
0.5
100
AcDbLine
 10
1162.481313512785
 20
527.0420365646859
 30
0.0
 11
1392.529433558004
 21
525.2865445879569
 31
0.0
  0
ARC
  5
7E2D
102
{ACAD_REACTORS
330
7E39
102
}
330
A
100
AcDbEntity
  8
MODEL
 48
0.5
100
AcDbCircle
 10
1161.378266733766
 20
539.7814716184588
 30
0.0
 40
12.78709965887458
100
AcDbArc
 50
181.7003968927839
 51
274.9486256500512
  0
LINE
  5
7E2E
102
{ACAD_REACTORS
330
7E39
102
}
330
A
100
AcDbEntity
  8
MODEL
 48
0.5
100
AcDbLine
 10
1622.577565187389
 20
527.042036564685
 30
0.0
 11
1392.52944514217
 21
525.2865445879569
 31
0.0
  0
ARC
  5
7E2F
102
{ACAD_REACTORS
330
7E39
102
}
330
A
100
AcDbEntity
  8
MODEL
 48
0.5
100
AcDbCircle
 10
1623.680611966409
 20
539.7814716184579
 30
0.0
 40
12.78709965887458
100
AcDbArc
 50
265.0513743499508
 51
358.2996031072161
  0
LINE
  5
7E30
102
{ACAD_REACTORS
330
7E39
102
}
330
A
100
AcDbEntity
  8
MODEL
 48
0.5
100
AcDbLine
 10
1637.436130793613
 20
680.2262691254349
 30
0.0
 11
1636.462080884701
 21
539.4020378604949
 31
0.0
  0
LINE
  5
7E31
102
{ACAD_REACTORS
330
7E39
102
}
330
A
100
AcDbEntity
  8
MODEL
 48
0.5
100
AcDbLine
 10
1637.436130793613
 20
680.2306096484668
 30
0.0
 11
1636.462080884701
 21
821.0548409134068
 31
0.0
  0
LINE
  5
7E32
102
{ACAD_REACTORS
330
7E39
102
}
330
A
100
AcDbEntity
  8
MODEL
 48
0.5
100
AcDbLine
 10
1622.577565187389
 20
833.4148422092168
 30
0.0
 11
1392.52944514217
 21
835.1703341859449
 31
0.0
  0
LINE
  5
7E33
102
{ACAD_REACTORS
330
7E39
102
}
330
A
100
AcDbEntity
  8
MODEL
 48
0.5
100
AcDbLine
 10
1162.481313512785
 20
833.4148422092159
 30
0.0
 11
1392.529433558004
 21
835.1703341859449
 31
0.0
  0
ARC
  5
7E34
102
{ACAD_REACTORS
330
7E39
102
}
330
A
100
AcDbEntity
  8
MODEL
 48
0.5
100
AcDbCircle
 10
1161.378266733766
 20
820.6754071554438
 30
0.0
 40
12.78709965887458
100
AcDbArc
 50
85.05137434995085
 51
178.2996031072161
  0
LINE
  5
7E35
102
{ACAD_REACTORS
330
7E39
102
}
330
A
100
AcDbEntity
  8
MODEL
 48
0.5
100
AcDbLine
 10
1147.622747906561
 20
680.2306096484659
 30
0.0
 11
1148.596797815473
 21
821.0548409134059
 31
0.0
  0
LINE
  5
7E36
102
{ACAD_REACTORS
330
7E39
102
}
330
A
100
AcDbEntity
  8
MODEL
 48
0.5
100
AcDbLine
 10
1147.622747906561
 20
680.2262691254358
 30
0.0
 11
1148.596797815473
 21
539.4020378604959
 31
0.0
  0
ARC
  5
7E38
102
{ACAD_REACTORS
330
7E39
102
}
330
A
100
AcDbEntity
  8
MODEL
 48
0.5
100
AcDbCircle
 10
1623.680600382243
 20
820.6754071554456
 30
0.0
 40
12.78709965887458
100
AcDbArc
 50
1.700396892784439
 51
94.94862565005118
  0
LINE
  5
7E44
330
A
100
AcDbEntity
  8
DIM
  6
Continuous
100
AcDbLine
 10
1125.881880198865
 20
770.8364325786665
 30
0.0
 11
1125.881880198865
 21
789.6204462035419
 31
0.0
  0
LINE
  5
7E45
330
A
100
AcDbEntity
  8
DIM
  6
Continuous
100
AcDbLine
 10
1125.881880198865
 20
789.6204462035419
 30
0.0
 11
1177.862864331543
 21
789.620446203541
 31
0.0
  0
LINE
  5
7E46
330
A
100
AcDbEntity
  8
DIM
  6
Continuous
100
AcDbLine
 10
1125.881880198865
 20
770.8364325786667
 30
0.0
 11
1177.862864331543
 21
770.8364325786658
 31
0.0
  0
LINE
  5
7E47
330
A
100
AcDbEntity
  8
DIM
  6
Continuous
100
AcDbLine
 10
1177.862864331543
 20
770.8364325786658
 30
0.0
 11
1177.862864331543
 21
789.620446203541
 31
0.0
  0
LINE
  5
7E48
330
A
100
AcDbEntity
  8
DIM
  6
Continuous
100
AcDbLine
 10
1125.881880198861
 20
589.6204461980099
 30
0.0
 11
1125.881880198861
 21
570.8364325731347
 31
0.0
  0
LINE
  5
7E49
330
A
100
AcDbEntity
  8
DIM
  6
Continuous
100
AcDbLine
 10
1125.881880198861
 20
570.8364325731347
 30
0.0
 11
1177.862864331539
 21
570.8364325731338
 31
0.0
  0
LINE
  5
7E4A
330
A
100
AcDbEntity
  8
DIM
  6
Continuous
100
AcDbLine
 10
1125.881880198861
 20
589.6204461980099
 30
0.0
 11
1177.862864331539
 21
589.620446198009
 31
0.0
  0
LINE
  5
7E4B
330
A
100
AcDbEntity
  8
DIM
  6
Continuous
100
AcDbLine
 10
1177.862864331539
 20
589.620446198009
 30
0.0
 11
1177.862864331539
 21
570.8364325731336
 31
0.0
  0
SPLINE
  5
7E96
102
{ACAD_REACTORS
330
7EAC
330
7EAE
102
}
330
A
100
AcDbEntity
  8
MODEL
100
AcDbSpline
210
0.0
220
0.0
230
1.0
 70
     8
 71
     3
 72
    17
 73
    13
 74
     0
 42
0.000000001
 43
0.0000000001
 40
0.0
 40
0.0
 40
0.0
 40
0.0
 40
1.0
 40
1.0
 40
1.0
 40
2.0
 40
2.0
 40
2.0
 40
3.0
 40
3.0
 40
3.0
 40
3.865894317873223
 40
3.865894317873223
 40
3.865894317873223
 40
3.865894317873223
 10
736.7974635499909
 20
699.4982879627275
 30
0.0
 10
738.8259357717088
 20
665.0804060268872
 30
0.0
 10
741.0307968822685
 20
630.6845727021525
 30
0.0
 10
743.3789739650147
 20
596.2997636829712
 30
0.0
 10
744.5585746591628
 20
578.7600935484668
 30
0.0
 10
758.2066649335288
 20
564.6159095242258
 30
0.0
 10
775.7132621513747
 20
562.8520206357778
 30
0.0
 10
775.7132621513747
 20
562.8520206357778
 30
0.0
 10
809.447637142941
 20
559.5998504977022
 30
0.0
 10
809.447637142941
 20
559.5998504977022
 30
0.0
 10
809.447637142941
 20
559.5998504977022
 30
0.0
 10
834.6581023990552
 20
557.368104393063
 30
0.0
 10
841.4198356788645
 20
556.7695247256702
 30
0.0
  0
SPLINE
  5
7E97
102
{ACAD_REACTORS
330
7EAC
330
7EAE
102
}
330
A
100
AcDbEntity
  8
MODEL
100
AcDbSpline
210
0.0
220
0.0
230
1.0
 70
     8
 71
     3
 72
    17
 73
    13
 74
     0
 42
0.000000001
 43
0.0000000001
 40
0.0
 40
0.0
 40
0.0
 40
0.0
 40
1.0
 40
1.0
 40
1.0
 40
2.0
 40
2.0
 40
2.0
 40
3.0
 40
3.0
 40
3.0
 40
4.0
 40
4.0
 40
4.0
 40
4.0
 10
702.5118732807846
 20
783.4373504417424
 30
0.0
 10
702.5118732807846
 20
783.4373504417424
 30
0.0
 10
706.5908663353207
 20
705.1758053224191
 30
0.0
 10
706.5908663353207
 20
705.1758053224191
 30
0.0
 10
706.7452066130586
 20
702.0118296287653
 30
0.0
 10
709.3469427235209
 20
699.5093122682799
 30
0.0
 10
712.5109184171729
 20
699.4872636571743
 30
0.0
 10
712.5109184171729
 20
699.4872636571743
 30
0.0
 10
712.8967691115208
 20
699.4872636571743
 30
0.0
 10
712.8967691115208
 20
699.4872636571743
 30
0.0
 10
712.8967691115208
 20
699.4872636571743
 30
0.0
 10
736.7974635499909
 20
699.4982879627275
 30
0.0
 10
736.7974635499909
 20
699.4982879627275
 30
0.0
  0
SPLINE
  5
7E99
102
{ACAD_REACTORS
330
7EAC
330
7EAE
102
}
330
A
100
AcDbEntity
  8
MODEL
 48
0.5
100
AcDbSpline
210
0.0
220
0.0
230
1.0
 70
     8
 71
     3
 72
    37
 73
    33
 74
     0
 42
0.000000001
 43
0.0000000001
 40
0.0
 40
0.0
 40
0.0
 40
0.0
 40
69.09714534800386
 40
82.81332509979154
 40
89.67148244012904
 40
93.10060898946462
 40
94.31397688373755
 40
96.38727587022217
 40
98.42066855512189
 40
100.4408121488178
 40
102.4583158718683
 40
104.480326746571
 40
106.5235254376331
 40
108.625979245671
 40
109.4509337218031
 40
110.3476066073387
 40
111.5209977385029
 40
114.4597468807249
 40
121.0377976857505
 40
123.7243479205627
 40
124.7085898711709
 40
125.3740804249136
 40
125.7594096821142
 40
126.2960341034374
 40
127.1710715545616
 40
128.325212535421
 40
129.699147545945
 40
132.8691616557165
 40
136.2066378833291
 40
139.237100228233
 40
140.4889274444988
 40
141.0424534703348
 40
141.0424534703348
 40
141.0424534703348
 40
141.0424534703348
 10
744.8208929150001
 20
783.4373504417424
 30
0.0
 10
747.531089615969
 20
737.4523825046833
 30
0.0
 10
751.8492012440431
 20
682.4059329364557
 30
0.0
 10
755.6058394394693
 20
622.7450304116198
 30
0.0
 10
756.7217464599926
 20
606.7798240826571
 30
0.0
 10
757.1876386974598
 20
599.1291604893288
 30
0.0
 10
757.5698968943768
 20
594.6640954843972
 30
0.0
 10
758.4776518297301
 20
591.207294330052
 30
0.0
 10
760.2177420002192
 20
587.4891547810455
 30
0.0
 10
762.5955298852339
 20
584.1847996190991
 30
0.0
 10
765.5249447677429
 20
581.3709004813256
 30
0.0
 10
768.9316735509019
 20
579.1296455933677
 30
0.0
 10
772.745999093132
 20
577.5294332928295
 30
0.0
 10
776.0139706340688
 20
576.8616190563534
 30
0.0
 10
778.554216055695
 20
576.647692830966
 30
0.0
 10
780.4747845204672
 20
576.4561983529559
 30
0.0
 10
783.7988422534745
 20
576.1387977370223
 30
0.0
 10
790.8925287340089
 20
575.4523545346644
 30
0.0
 10
798.9906883765161
 20
574.6732317964065
 30
0.0
 10
805.7916636902505
 20
574.0169931594535
 30
0.0
 10
808.6692221537903
 20
573.7400323528125
 30
0.0
 10
810.019599812209
 20
573.6091441319047
 30
0.0
 10
811.0731691245098
 20
573.5091736483657
 30
0.0
 10
812.2667052007484
 20
573.4058311982965
 30
0.0
 10
813.970475509766
 20
573.2538778261585
 30
0.0
 10
816.2304214724459
 20
573.054275965392
 30
0.0
 10
820.0143322146857
 20
572.7191034439568
 30
0.0
 10
825.248156736792
 20
572.2558749887805
 30
0.0
 10
831.5820274828602
 20
571.695236589153
 30
0.0
 10
836.642059548672
 20
571.2470164310994
 30
0.0
 10
839.8534150229546
 20
570.9631711981103
 30
0.0
 10
841.0522579238198
 20
570.8565966152917
 30
0.0
 10
841.419835678857
 20
570.8240316888116
 30
0.0
  0
SPLINE
  5
7E9B
102
{ACAD_REACTORS
330
7EAC
330
7EAE
102
}
330
A
100
AcDbEntity
  8
MODEL
100
AcDbSpline
210
0.0
220
0.0
230
1.0
 70
    24
 71
     3
 72
     8
 73
     4
 74
     0
 42
0.000000001
 43
0.0000000001
 40
26.85172559117824
 40
26.85172559117824
 40
26.85172559117824
 40
26.85172559117824
 40
27.0
 40
27.0
 40
27.0
 40
27.0
 10
744.8208929150251
 20
783.4373504417424
 30
0.0
 10
718.1618764731345
 20
783.4373504417424
 30
0.0
 10
702.5118732807846
 20
783.4373504417424
 30
0.0
 10
702.5118732807846
 20
783.4373504417424
 30
0.0
  0
LINE
  5
7EAB
102
{ACAD_REACTORS
330
7EAC
330
7EAE
102
}
330
A
100
AcDbEntity
  8
MODEL
100
AcDbLine
 10
841.4198356788645
 20
556.7695247256702
 30
0.0
 11
841.419835678857
 21
570.8240316888116
 31
0.0
  0
HATCH
  5
7EAE
330
A
100
AcDbEntity
  8
MODEL
 62
   254
100
AcDbHatch
 10
0.0
 20
0.0
 30
0.0
210
0.0
220
0.0
230
1.0
  2
SOLID
 70
     1
 71
     1
 91
        1
 92
        1
 93
        5
 72
     4
 94
        3
 73
     0
 74
     0
 95
       17
 96
       13
 40
0.0
 40
0.0
 40
0.0
 40
0.0
 40
1.0
 40
1.0
 40
1.0
 40
2.0
 40
2.0
 40
2.0
 40
3.0
 40
3.0
 40
3.0
 40
4.0
 40
4.0
 40
4.0
 40
4.0
 10
702.5118732807846
 20
783.4373504417424
 10
702.5118732807846
 20
783.4373504417424
 10
706.5908663353207
 20
705.1758053224191
 10
706.5908663353207
 20
705.1758053224191
 10
706.7452066130586
 20
702.0118296287653
 10
709.3469427235209
 20
699.5093122682799
 10
712.5109184171729
 20
699.4872636571743
 10
712.5109184171729
 20
699.4872636571743
 10
712.8967691115208
 20
699.4872636571743
 10
712.8967691115208
 20
699.4872636571743
 10
712.8967691115208
 20
699.4872636571743
 10
736.7974635499909
 20
699.4982879627275
 10
736.7974635499909
 20
699.4982879627275
 72
     4
 94
        3
 73
     0
 74
     0
 95
       17
 96
       13
 40
0.0
 40
0.0
 40
0.0
 40
0.0
 40
1.0
 40
1.0
 40
1.0
 40
2.0
 40
2.0
 40
2.0
 40
3.0
 40
3.0
 40
3.0
 40
3.865894317873223
 40
3.865894317873223
 40
3.865894317873223
 40
3.865894317873223
 10
736.7974635499909
 20
699.4982879627275
 10
738.8259357717088
 20
665.0804060268872
 10
741.0307968822685
 20
630.6845727021525
 10
743.3789739650147
 20
596.2997636829712
 10
744.5585746591628
 20
578.7600935484668
 10
758.2066649335288
 20
564.6159095242258
 10
775.7132621513747
 20
562.8520206357778
 10
775.7132621513747
 20
562.8520206357778
 10
809.447637142941
 20
559.5998504977022
 10
809.447637142941
 20
559.5998504977022
 10
809.447637142941
 20
559.5998504977022
 10
834.6581023990552
 20
557.368104393063
 10
841.4198356788645
 20
556.7695247256702
 72
     1
 10
841.4198356788645
 20
556.7695247256702
 11
841.419835678857
 21
570.8240316888116
 72
     4
 94
        3
 73
     0
 74
     0
 95
       37
 96
       33
 40
0.0
 40
0.0
 40
0.0
 40
0.0
 40
0.5535260258360211
 40
1.80535324210183
 40
4.835815587005698
 40
8.173291814618267
 40
11.34330592438977
 40
12.7172409349138
 40
13.87138191577316
 40
14.74641936689744
 40
15.28304378822062
 40
15.66837304542123
 40
16.33386359916395
 40
17.3181055497721
 40
20.0046557845843
 40
26.58270658960994
 40
29.52145573183189
 40
30.69484686299609
 40
31.59151974853175
 40
32.41647422466379
 40
34.51892803270174
 40
36.56212672376385
 40
38.58413759846647
 40
40.60164132151699
 40
42.62178491521291
 40
44.65517760011264
 40
46.72847658659725
 40
47.94184448087019
 40
51.37097103020577
 40
58.22912837054326
 40
71.94530812233094
 40
141.0424534703348
 40
141.0424534703348
 40
141.0424534703348
 40
141.0424534703348
 10
841.419835678857
 20
570.8240316888116
 10
841.0522579238198
 20
570.8565966152917
 10
839.8534150229546
 20
570.9631711981103
 10
836.642059548672
 20
571.2470164310994
 10
831.5820274828602
 20
571.695236589153
 10
825.248156736792
 20
572.2558749887805
 10
820.0143322146857
 20
572.7191034439568
 10
816.2304214724459
 20
573.054275965392
 10
813.970475509766
 20
573.2538778261585
 10
812.2667052007484
 20
573.4058311982965
 10
811.0731691245098
 20
573.5091736483657
 10
810.019599812209
 20
573.6091441319047
 10
808.6692221537903
 20
573.7400323528125
 10
805.7916636902505
 20
574.0169931594535
 10
798.9906883765161
 20
574.6732317964065
 10
790.8925287340089
 20
575.4523545346644
 10
783.7988422534745
 20
576.1387977370223
 10
780.4747845204672
 20
576.4561983529559
 10
778.554216055695
 20
576.647692830966
 10
776.0139706340688
 20
576.8616190563534
 10
772.745999093132
 20
577.5294332928295
 10
768.9316735509019
 20
579.1296455933677
 10
765.5249447677429
 20
581.3709004813256
 10
762.5955298852339
 20
584.1847996190991
 10
760.2177420002192
 20
587.4891547810455
 10
758.4776518297301
 20
591.207294330052
 10
757.5698968943768
 20
594.6640954843972
 10
757.1876386974598
 20
599.1291604893288
 10
756.7217464599926
 20
606.7798240826571
 10
755.6058394394693
 20
622.7450304116198
 10
751.8492012440431
 20
682.4059329364557
 10
747.531089615969
 20
737.4523825046833
 10
744.8208929150001
 20
783.4373504417424
 72
     4
 94
        3
 73
     0
 74
     0
 95
        8
 96
        4
 40
26.85172559117824
 40
26.85172559117824
 40
26.85172559117824
 40
26.85172559117824
 40
27.0
 40
27.0
 40
27.0
 40
27.0
 10
744.8208929150251
 20
783.4373504417424
 10
718.1618764731345
 20
783.4373504417424
 10
702.5118732807846
 20
783.4373504417424
 10
702.5118732807846
 20
783.4373504417424
 97
        5
330
7E97
330
7E9B
330
7E96
330
7E99
330
7EAB
 75
     0
 76
     1
 98
        1
 10
1433.407691539401
 20
-537.0135991828167
1001
ACAD
1010
0.0
1020
0.0
1030
0.0
  0
ARC
  5
7EB7
102
{ACAD_REACTORS
330
7EBC
330
7EBE
102
}
330
A
100
AcDbEntity
  8
MODEL
100
AcDbCircle
 10
703.1459975127709
 20
787.2557160794006
 30
0.0
 40
3.763145747001041
100
AcDbArc
 50
119.5696653920343
 51
231.2824920881594
  0
ARC
  5
7EB8
102
{ACAD_REACTORS
330
7EBC
330
7EBE
102
}
330
A
100
AcDbEntity
  8
MODEL
100
AcDbCircle
 10
744.4691213974486
 20
787.2557160793997
 30
0.0
 40
3.763145747001041
100
AcDbArc
 50
308.7175079118344
 51
60.43033460796178
  0
LINE
  5
7EBA
102
{ACAD_REACTORS
330
7EBC
330
7EBE
102
}
330
A
100
AcDbEntity
  8
MODEL
100
AcDbLine
 10
701.288954881546
 20
790.5287358744806
 30
0.0
 11
746.3261640286735
 21
790.5287358744795
 31
0.0
  0
LINE
  5
7EBB
102
{ACAD_REACTORS
330
7EBC
330
7EBE
102
}
330
A
100
AcDbEntity
  8
MODEL
100
AcDbLine
 10
746.8228979530902
 20
784.319561819269
 30
0.0
 11
700.7922209571291
 21
784.3195618192701
 31
0.0
  0
HATCH
  5
7EBE
330
A
100
AcDbEntity
  8
MODEL
 62
   251
100
AcDbHatch
 10
0.0
 20
0.0
 30
0.0
210
0.0
220
0.0
230
1.0
  2
SOLID
 70
     1
 71
     1
 91
        1
 92
        1
 93
        4
 72
     2
 10
703.1459975127709
 20
787.2557160794006
 40
3.763145747001041
 50
119.5696653920343
 51
231.2824920881594
 73
     1
 72
     1
 10
700.7922209571291
 20
784.3195618192701
 11
746.8228979530902
 21
784.319561819269
 72
     2
 10
744.4691213974486
 20
787.2557160793997
 40
3.763145747001041
 50
308.7175079118344
 51
420.4303346079618
 73
     1
 72
     1
 10
746.3261640286735
 20
790.5287358744795
 11
701.288954881546
 21
790.5287358744806
 97
        4
330
7EB7
330
7EBA
330
7EB8
330
7EBB
 75
     0
 76
     1
 98
        1
 10
418.4156514395611
 20
-537.0135991828165
1001
ACAD
1010
0.0
1020
0.0
1030
0.0
  0
POLYLINE
  5
7EC3
330
A
100
AcDbEntity
  8
DIM
100
AcDb2dPolyline
 66
     1
 10
0.0
 20
0.0
 30
0.0
  0
VERTEX
  5
7EC4
330
7EC3
100
AcDbEntity
  8
DIM
100
AcDbVertex
100
AcDb2dVertex
 10
418.9290852917902
 20
834.8322465680848
 30
0.0
  0
VERTEX
  5
7EC5
330
7EC3
100
AcDbEntity
  8
DIM
100
AcDbVertex
100
AcDb2dVertex
 10
757.4722351674651
 20
834.8322465680848
 30
0.0
  0
VERTEX
  5
7EC6
330
7EC3
100
AcDbEntity
  8
DIM
100
AcDbVertex
100
AcDb2dVertex
 10
757.4722351674651
 20
792.2272045512781
 30
0.0
  0
VERTEX
  5
7EC7
330
7EC3
100
AcDbEntity
  8
DIM
100
AcDbVertex
100
AcDb2dVertex
 10
418.9290852917902
 20
792.2272045512781
 30
0.0
  0
SEQEND
  5
7EC8
330
7EC3
100
AcDbEntity
  8
DIM
  0
HATCH
  5
7EC9
330
A
100
AcDbEntity
  8
DIM
100
AcDbHatch
 10
0.0
 20
0.0
 30
0.0
210
0.0
220
0.0
230
1.0
  2
AI_USER_DEFINED_HATCH
 70
     0
 71
     0
 91
        1
 92
        1
 93
        4
 72
     1
 10
418.9290852917902
 20
834.8322465680848
 11
745.6376183143743
 21
834.8322465680848
 72
     1
 10
745.6376183143743
 20
834.8322465680848
 11
745.6376183143743
 21
792.2272045512781
 72
     1
 10
745.6376183143743
 20
792.2272045512781
 11
418.9290852917902
 21
792.2272045512781
 72
     1
 10
418.9290852917902
 20
792.2272045512781
 11
418.9290852917902
 21
834.8322465680848
 97
        0
 75
     2
 76
     0
 52
45.0
 41
32.77310924369755
 77
     0
 78
     1
 53
45.0
 43
104.8721246168952
 44
137.3155054966563
 45
-23.17408778678601
 46
23.17408778678601
 79
     0
 98
        0
  0
POLYLINE
  5
7ECA
330
A
100
AcDbEntity
  8
DIM
100
AcDb2dPolyline
 66
     1
 10
0.0
 20
0.0
 30
0.0
  0
VERTEX
  5
7ECB
330
7ECA
100
AcDbEntity
  8
DIM
100
AcDbVertex
100
AcDb2dVertex
 10
620.8845923373062
 20
792.2272045512783
 30
0.0
  0
VERTEX
  5
7ECC
330
7ECA
100
AcDbEntity
  8
DIM
100
AcDbVertex
100
AcDb2dVertex
 10
620.2790235113521
 20
781.795136965918
 30
0.0
  0
VERTEX
  5
7ECD
330
7ECA
100
AcDbEntity
  8
DIM
100
AcDbVertex
100
AcDb2dVertex
 10
657.8776205234313
 20
780.1306444715832
 30
0.0
  0
VERTEX
  5
7ECE
330
7ECA
100
AcDbEntity
  8
DIM
100
AcDbVertex
100
AcDb2dVertex
 10
699.4183927826653
 20
688.132559790412
 30
0.0
  0
VERTEX
  5
7ECF
330
7ECA
100
AcDbEntity
  8
DIM
100
AcDbVertex
100
AcDb2dVertex
 10
734.6030407243028
 20
688.3302958189249
 30
0.0
  0
VERTEX
  5
7ED0
330
7ECA
100
AcDbEntity
  8
DIM
100
AcDbVertex
100
AcDb2dVertex
 10
734.5672078884431
 20
699.3431068314944
 30
0.0
  0
VERTEX
  5
7ED1
330
7ECA
100
AcDbEntity
  8
DIM
100
AcDbVertex
100
AcDb2dVertex
 10
706.3078497874494
 20
699.2610038174901
 30
0.0
  0
VERTEX
  5
7ED2
330
7ECA
100
AcDbEntity
  8
DIM
100
AcDbVertex
100
AcDb2dVertex
 10
666.4630021501317
 20
790.0994936364776
 30
0.0
  0
VERTEX
  5
7ED3
330
7ECA
100
AcDbEntity
  8
DIM
100
AcDbVertex
100
AcDb2dVertex
 10
620.8845923373062
 20
792.2272045512783
 30
0.0
  0
SEQEND
  5
7ED4
330
7ECA
100
AcDbEntity
  8
DIM
  0
SPLINE
  5
7ED5
330
A
100
AcDbEntity
  8
DIM
100
AcDbSpline
210
0.0
220
0.0
230
1.0
 70
    11
 71
     3
 72
    17
 73
    13
 74
     0
 42
0.000000001
 43
0.0000000001
 40
0.0
 40
0.0
 40
0.0
 40
0.0
 40
1.0
 40
1.0
 40
1.0
 40
2.0
 40
2.0
 40
2.0
 40
3.0
 40
3.0
 40
3.0
 40
4.0
 40
4.0
 40
4.0
 40
4.0
 10
629.2252504310125
 20
781.5271358330735
 30
0.0
 10
629.2252504310125
 20
781.5271358330735
 30
0.0
 10
639.4505937280958
 20
780.9503723063879
 30
0.0
 10
639.4505937280958
 20
780.9503723063879
 30
0.0
 10
639.4505937280958
 20
780.9503723063879
 30
0.0
 10
649.6759370251789
 20
780.3736087797024
 30
0.0
 10
649.6759370251789
 20
780.3736087797024
 30
0.0
 10
649.3545715976536
 20
774.676175311359
 30
0.0
 10
644.6414130949456
 20
772.5282160142569
 30
0.0
 10
638.9935086331975
 20
772.8467877434496
 30
0.0
 10
633.3456041714492
 20
773.1653594726422
 30
0.0
 10
628.9038850034874
 20
775.8297023647301
 30
0.0
 10
629.2252504310125
 20
781.5271358330735
 30
0.0
  0
POLYLINE
  5
7ED6
330
A
100
AcDbEntity
  8
DIM
100
AcDb2dPolyline
 66
     1
 10
0.0
 20
0.0
 30
0.0
  0
VERTEX
  5
7ED7
330
7ED6
100
AcDbEntity
  8
DIM
100
AcDbVertex
100
AcDb2dVertex
 10
641.761973561288
 20
821.9284355694488
 30
0.0
  0
VERTEX
  5
7ED8
330
7ED6
100
AcDbEntity
  8
DIM
100
AcDbVertex
100
AcDb2dVertex
 10
638.2082120069183
 20
814.6758986488114
 30
0.0
  0
VERTEX
  5
7ED9
330
7ED6
100
AcDbEntity
  8
DIM
100
AcDbVertex
100
AcDb2dVertex
 10
636.9043659594047
 20
791.5602319578427
 30
0.0
  0
SEQEND
  5
7EDA
330
7ED6
100
AcDbEntity
  8
DIM
  0
POLYLINE
  5
7EDB
330
A
100
AcDbEntity
  8
DIM
100
AcDb2dPolyline
 66
     1
 10
0.0
 20
0.0
 30
0.0
  0
VERTEX
  5
7EDC
330
7EDB
100
AcDbEntity
  8
DIM
100
AcDbVertex
100
AcDb2dVertex
 10
641.761973561288
 20
821.9284355694488
 30
0.0
  0
VERTEX
  5
7EDD
330
7EDB
100
AcDbEntity
  8
DIM
100
AcDbVertex
100
AcDb2dVertex
 10
644.4776256159425
 20
814.3222705115122
 30
0.0
  0
VERTEX
  5
7EDE
330
7EDB
100
AcDbEntity
  8
DIM
100
AcDbVertex
100
AcDb2dVertex
 10
643.1737795684289
 20
791.2066038205437
 30
0.0
  0
SEQEND
  5
7EDF
330
7EDB
100
AcDbEntity
  8
DIM
  0
POLYLINE
  5
7EE0
330
A
100
AcDbEntity
  8
DIM
100
AcDb2dPolyline
 66
     1
 10
0.0
 20
0.0
 30
0.0
  0
VERTEX
  5
7EE1
330
7EE0
100
AcDbEntity
  8
DIM
100
AcDbVertex
100
AcDb2dVertex
 10
647.6212954755017
 20
814.2475296372315
 30
0.0
  0
VERTEX
  5
7EE2
330
7EE0
100
AcDbEntity
  8
DIM
100
AcDbVertex
100
AcDb2dVertex
 10
634.038268970397
 20
808.7179130012962
 30
0.0
  0
SEQEND
  5
7EE3
330
7EE0
100
AcDbEntity
  8
DIM
  0
POLYLINE
  5
7EE4
330
A
100
AcDbEntity
  8
DIM
100
AcDb2dPolyline
 66
     1
 10
0.0
 20
0.0
 30
0.0
  0
VERTEX
  5
7EE5
330
7EE4
100
AcDbEntity
  8
DIM
100
AcDbVertex
100
AcDb2dVertex
 10
647.3500363793576
 20
809.438422867822
 30
0.0
  0
VERTEX
  5
7EE6
330
7EE4
100
AcDbEntity
  8
DIM
100
AcDbVertex
100
AcDb2dVertex
 10
633.7670098742526
 20
803.9088062318867
 30
0.0
  0
SEQEND
  5
7EE7
330
7EE4
100
AcDbEntity
  8
DIM
  0
POLYLINE
  5
7EE8
330
A
100
AcDbEntity
  8
DIM
100
AcDb2dPolyline
 66
     1
 10
0.0
 20
0.0
 30
0.0
  0
VERTEX
  5
7EE9
330
7EE8
100
AcDbEntity
  8
DIM
100
AcDbVertex
100
AcDb2dVertex
 10
647.0789575218153
 20
804.632511518193
 30
0.0
  0
VERTEX
  5
7EEA
330
7EE8
100
AcDbEntity
  8
DIM
100
AcDbVertex
100
AcDb2dVertex
 10
633.4959310167105
 20
799.1028948822577
 30
0.0
  0
SEQEND
  5
7EEB
330
7EE8
100
AcDbEntity
  8
DIM
  0
POLYLINE
  5
7EEC
330
A
100
AcDbEntity
  8
DIM
100
AcDb2dPolyline
 66
     1
 10
0.0
 20
0.0
 30
0.0
  0
VERTEX
  5
7EED
330
7EEC
100
AcDbEntity
  8
DIM
100
AcDbVertex
100
AcDb2dVertex
 10
646.8078786642732
 20
799.8266001685638
 30
0.0
  0
VERTEX
  5
7EEE
330
7EEC
100
AcDbEntity
  8
DIM
100
AcDbVertex
100
AcDb2dVertex
 10
633.2248521591682
 20
794.2969835326285
 30
0.0
  0
SEQEND
  5
7EEF
330
7EEC
100
AcDbEntity
  8
DIM
  0
POLYLINE
  5
7EF0
330
A
100
AcDbEntity
  8
DIM
100
AcDb2dPolyline
 66
     1
 10
0.0
 20
0.0
 30
0.0
  0
VERTEX
  5
7EF1
330
7EF0
100
AcDbEntity
  8
DIM
100
AcDbVertex
100
AcDb2dVertex
 10
646.5367998067309
 20
795.0206888189348
 30
0.0
  0
VERTEX
  5
7EF2
330
7EF0
100
AcDbEntity
  8
DIM
100
AcDbVertex
100
AcDb2dVertex
 10
637.9029346407603
 20
791.5039073946898
 30
0.0
  0
SEQEND
  5
7EF3
330
7EF0
100
AcDbEntity
  8
DIM
  0
LINE
  5
7EF7
330
A
100
AcDbEntity
  8
DIM
100
AcDbLine
 10
717.3864289938308
 20
670.2745976263436
 30
0.0
 11
717.3864289938308
 21
699.4257039350065
 31
0.0
  0
LINE
  5
7EF8
330
A
100
AcDbEntity
  8
DIM
100
AcDbLine
 10
727.5640583763393
 20
670.2745976263435
 30
0.0
 11
727.5640583763393
 21
699.4940290120015
 31
0.0
  0
LINE
  5
7EF9
330
A
100
AcDbEntity
  8
DIM
100
AcDbLine
 10
732.8181824418066
 20
670.2745976263435
 30
0.0
 11
712.1323049283637
 21
670.2745976263435
 31
0.0
  0
LINE
  5
7EFC
330
A
100
AcDbEntity
  8
DIM
100
AcDbLine
 10
732.8181824418065
 20
661.273872296067
 30
0.0
 11
712.1323049283637
 21
661.273872296067
 31
0.0
  0
LINE
  5
7EFD
330
A
100
AcDbEntity
  8
DIM
100
AcDbLine
 10
732.8181824418066
 20
670.2745976263435
 30
0.0
 11
732.8181824418065
 21
661.273872296067
 31
0.0
  0
LINE
  5
7EFE
330
A
100
AcDbEntity
  8
DIM
100
AcDbLine
 10
712.1323049283637
 20
670.2745976263435
 30
0.0
 11
712.1323049283637
 21
661.273872296067
 31
0.0
  0
MTEXT
  5
7F14
330
A
100
AcDbEntity
  8
DIM
100
AcDbMText
 10
436.6353311939912
 20
726.1842709106396
 30
0.0
 40
20.19553805759975
 41
0.0
 46
22.65939370062692
 71
     7
 72
     1
  1
{\fＭＳ ゴシック|b0|i0|c0|p34;固定金具}
 73
     1
 44
1.0
1001
ACAD
1000
ACAD_MTEXT_DEFINED_HEIGHT_BEGIN
1070
    46
1040
22.65939370062692
1000
ACAD_MTEXT_DEFINED_HEIGHT_END
  0
POLYLINE
  5
7F15
330
A
100
AcDbEntity
  8
DIM
100
AcDb2dPolyline
 66
     1
 10
0.0
 20
0.0
 30
0.0
  0
VERTEX
  5
7F16
330
7F15
100
AcDbEntity
  8
DIM
100
AcDbVertex
100
AcDb2dVertex
 10
624.210173630967
 20
773.5900613518162
 30
0.0
  0
VERTEX
  5
7F17
330
7F15
100
AcDbEntity
  8
DIM
100
AcDbVertex
100
AcDb2dVertex
 10
558.1454743137402
 20
741.8123072814379
 30
0.0
  0
SEQEND
  5
7F18
330
7F15
100
AcDbEntity
  8
DIM
  0
MTEXT
  5
7F19
330
A
100
AcDbEntity
  8
DIM
100
AcDbMText
 10
882.8798370118038
 20
551.8858101538411
 30
0.0
 40
20.19553805759975
 41
0.0
 46
22.35646062976292
 71
     7
 72
     1
  1
{\fＭＳ ゴシック|b0|i0|c0|p34;陶器}
 73
     1
 44
1.0
1001
ACAD
1000
ACAD_MTEXT_DEFINED_HEIGHT_BEGIN
1070
    46
1040
22.35646062976292
1000
ACAD_MTEXT_DEFINED_HEIGHT_END
  0
POLYLINE
  5
7F1A
330
A
100
AcDbEntity
  8
DIM
100
AcDb2dPolyline
 66
     1
 10
0.0
 20
0.0
 30
0.0
  0
VERTEX
  5
7F1B
330
7F1A
100
AcDbEntity
  8
DIM
100
AcDbVertex
100
AcDb2dVertex
 10
873.4879728442611
 20
562.6234841296815
 30
0.0
  0
VERTEX
  5
7F1C
330
7F1A
100
AcDbEntity
  8
DIM
100
AcDbVertex
100
AcDb2dVertex
 10
846.791010856341
 20
562.6234841296815
 30
0.0
  0
SEQEND
  5
7F1D
330
7F1A
100
AcDbEntity
  8
DIM
  0
LINE
  5
7F1E
330
A
100
AcDbEntity
  8
DIM
100
AcDbLine
 10
745.8743898115468
 20
788.7308009569049
 30
0.0
 11
859.0928308801431
 21
748.2462567651189
 31
0.0
  0
MTEXT
  5
7F1F
330
A
100
AcDbEntity
  8
DIM
100
AcDbMText
 10
868.3979623659745
 20
738.0715339409437
 30
0.0
 40
20.19553805759975
 41
0.0
 46
22.13430971112933
 71
     7
 72
     1
  1
{\fＭＳ ゴシック|b0|i0|c0|p34;コーキング}
 73
     1
 44
1.0
1001
ACAD
1000
ACAD_MTEXT_DEFINED_HEIGHT_BEGIN
1070
    46
1040
22.13430971112933
1000
ACAD_MTEXT_DEFINED_HEIGHT_END
  0
MTEXT
  5
7F20
330
A
100
AcDbEntity
  8
DIM
100
AcDbMText
 10
824.473572653887
 20
803.2093977887318
 30
0.0
 40
20.19553805759975
 41
0.0
 46
22.03333202084133
 71
     7
 72
     1
  1
{\fＭＳ ゴシック|b0|i0|c0|p34;カウンター}
 73
     1
 44
1.0
1001
ACAD
1000
ACAD_MTEXT_DEFINED_HEIGHT_BEGIN
1070
    46
1040
22.03333202084133
1000
ACAD_MTEXT_DEFINED_HEIGHT_END
  0
POLYLINE
  5
7F21
330
A
100
AcDbEntity
  8
DIM
100
AcDb2dPolyline
 66
     1
 10
0.0
 20
0.0
 30
0.0
  0
VERTEX
  5
7F22
330
7F21
100
AcDbEntity
  8
DIM
100
AcDbVertex
100
AcDb2dVertex
 10
815.0817084863443
 20
809.4887767278076
 30
0.0
  0
VERTEX
  5
7F23
330
7F21
100
AcDbEntity
  8
DIM
100
AcDbVertex
100
AcDb2dVertex
 10
750.967713278887
 20
809.4887767278076
 30
0.0
  0
SEQEND
  5
7F24
330
7F21
100
AcDbEntity
  8
DIM
  0
VIEWPORT
  5
349
330
B
100
AcDbEntity
 67
     1
  8
0
100
AcDbViewport
 10
202.5
 20
128.5
 30
0.0
 40
486.0
 41
308.4
 68
     1
 69
     1
 12
202.5
 22
128.5
 13
0.0
 23
0.0
 14
0.5
 24
0.5
 15
0.0
 25
0.0
 16
0.0
 26
0.0
 36
1.0
 17
0.0
 27
0.0
 37
0.0
 42
50.0
 43
0.0
 44
0.0
 45
308.4
 50
0.0
 51
0.0
 72
   100
 90
   557152
  1

281
     0
 71
     1
 74
     0
110
0.0
120
0.0
130
0.0
111
1.0
121
0.0
131
0.0
112
0.0
122
1.0
132
0.0
 79
     0
146
0.0
170
     0
 61
     5
348
26C
292
     1
282
     1
141
0.0
142
0.0
 63
   256
  0
VIEWPORT
  5
34A
330
B
100
AcDbEntity
 67
     1
  8
0
100
AcDbViewport
 10
202.5
 20
128.5
 30
0.0
 40
324.0
 41
205.6
 68
     2
 69
     2
 12
986.6781359294573
 22
1427.077061889956
 13
0.0
 23
0.0
 14
0.5
 24
0.5
 15
0.0
 25
0.0
 16
0.0
 26
0.0
 36
1.0
 17
0.0
 27
0.0
 37
0.0
 42
50.0
 43
0.0
 44
0.0
 45
2890.021615685494
 50
0.0
 51
0.0
 72
   100
 90
   557152
  1

281
     0
 71
     1
 74
     0
110
0.0
120
0.0
130
0.0
111
1.0
121
0.0
131
0.0
112
0.0
122
1.0
132
0.0
 79
     0
146
0.0
170
     0
 61
     5
348
26C
292
     1
282
     1
141
0.0
142
0.0
 63
   256
  0
ENDSEC
  0
SECTION
  2
OBJECTS
  0
DICTIONARY
  5
19
330
0
100
AcDbDictionary
281
     1
  3
ACAD_COLOR
350
674
  3
ACAD_DETAILVIEWSTYLE
350
BBF
  3
ACAD_FIELDLIST
350
146A
  3
ACAD_GROUP
350
1A
  3
ACAD_IMAGE_VARS
350
27B
  3
ACAD_LAYOUT
350
1E
  3
ACAD_MATERIAL
350
263
  3
ACAD_MLEADERSTYLE
350
336
  3
ACAD_MLINESTYLE
350
1B
  3
ACAD_PLOTSETTINGS
350
22
  3
ACAD_PLOTSTYLENAME
350
1F
  3
ACAD_SCALELIST
350
241
  3
ACAD_SECTIONVIEWSTYLE
350
BC0
  3
ACAD_TABLESTYLE
350
278
  3
ACAD_VISUALSTYLE
350
267
  3
ACDB_RECOMPOSE_DATA
350
7F3C
  3
AcDbVariableDictionary
350
330
  3
APPDATA
350
27A
  3
DimOffsetDictionary
350
E3E
  0
SUN
  5
904
330
15
100
AcDbSun
 90
        1
290
     0
 63
     7
421
 16777215
 40
1.0
291
     1
 91
  2455826
 92
 54000000
292
     0
 70
     2
 71
   256
280
     1
  0
DICTIONARY
  5
2E1
330
2
100
AcDbDictionary
280
     1
281
     1
  3
ACAD_LAYERSTATES
360
2E2
  3
ACLYDICTIONARY
360
7F2D
  0
DICTIONARY
  5
3BA6
330
A
100
AcDbDictionary
280
     1
281
     1
  3
ACAD_SORTENTS
360
3BA7
  0
DICTIONARY
  5
1468
330
1466
100
AcDbDictionary
280
     1
281
     1
  3
ACAD_FIELD
360
7C7D
  0
DICTIONARY
  5
7ABB
330
7ABA
100
AcDbDictionary
280
     1
281
     1
  3
ACAD_DIMASSOC
360
7ABC
  0
DICTIONARY
  5
674
102
{ACAD_REACTORS
330
19
102
}
330
19
100
AcDbDictionary
281
     1
  0
DICTIONARY
  5
BBF
102
{ACAD_REACTORS
330
19
102
}
330
19
100
AcDbDictionary
281
     1
  0
FIELDLIST
  5
146A
102
{ACAD_REACTORS
330
19
102
}
330
19
100
AcDbIdSet
 90
        2
330
146B
330
1467
100
AcDbFieldList
  0
DICTIONARY
  5
1A
102
{ACAD_REACTORS
330
19
102
}
330
19
100
AcDbDictionary
281
     1
  3
*A1
350
7B58
  3
*A2
350
7BF3
  3
*A3
350
7E39
  3
*A4
350
7EAC
  3
*A5
350
7EBC
  0
RASTERVARIABLES
  5
27B
102
{ACAD_REACTORS
330
19
102
}
330
19
100
AcDbRasterVariables
 90
        0
 70
     1
 71
     1
 72
     1
  0
DICTIONARY
  5
1E
102
{ACAD_REACTORS
330
19
102
}
330
19
100
AcDbDictionary
281
     1
  3
Layout1
350
21
  3
Model
350
20
  0
DICTIONARY
  5
263
102
{ACAD_REACTORS
330
19
102
}
330
19
100
AcDbDictionary
281
     1
  3
ByBlock
350
265
  3
ByLayer
350
264
  3
Global
350
266
  0
DICTIONARY
  5
336
102
{ACAD_REACTORS
330
19
102
}
330
19
100
AcDbDictionary
281
     1
  3
Standard
350
DAB
  0
DICTIONARY
  5
1B
102
{ACAD_REACTORS
330
19
102
}
330
19
100
AcDbDictionary
281
     1
  3
Standard
350
1C
  0
DICTIONARY
  5
22
102
{ACAD_REACTORS
330
19
102
}
330
19
100
AcDbDictionary
281
     1
  0
ACDBDICTIONARYWDFLT
  5
1F
102
{ACAD_REACTORS
330
19
102
}
330
19
100
AcDbDictionary
281
     1
  3
Normal
350
1D
100
AcDbDictionaryWithDefault
340
1D
  0
DICTIONARY
  5
241
102
{ACAD_REACTORS
330
19
102
}
330
19
100
AcDbDictionary
281
     1
  3
A0
350
242
  3
A1
350
243
  3
A2
350
244
  3
A3
350
245
  3
A4
350
246
  3
A5
350
247
  3
A6
350
248
  3
A7
350
249
  3
A8
350
24A
  3
A9
350
24B
  3
B0
350
24C
  3
B1
350
24D
  3
B2
350
24E
  3
B3
350
24F
  3
B4
350
250
  3
B5
350
251
  3
B6
350
252
  3
B7
350
253
  3
B8
350
254
  3
B9
350
255
  3
C0
350
256
  3
C1
350
257
  3
C2
350
258
  3
C3
350
259
  3
C4
350
25A
  3
C5
350
25B
  3
C6
350
25C
  3
C7
350
25D
  3
C8
350
25E
  3
C9
350
25F
  3
D0
350
260
  3
D1
350
261
  3
D2
350
262
  0
DICTIONARY
  5
BC0
102
{ACAD_REACTORS
330
19
102
}
330
19
100
AcDbDictionary
281
     1
  0
DICTIONARY
  5
278
102
{ACAD_REACTORS
330
19
102
}
330
19
100
AcDbDictionary
281
     1
  3
Standard
350
279
  0
DICTIONARY
  5
267
102
{ACAD_REACTORS
330
19
102
}
330
19
100
AcDbDictionary
281
     1
  3
2dWireframe
350
26C
  3
3D Hidden
350
26E
  3
3dWireframe
350
26D
  3
Basic
350
26F
  3
Brighten
350
273
  3
ColorChange
350
277
  3
Conceptual
350
271
  3
Dim
350
272
  3
EdgeColorOff
350
8FE
  3
Facepattern
350
276
  3
Flat
350
268
  3
FlatWithEdges
350
269
  3
Gouraud
350
26A
  3
GouraudWithEdges
350
26B
  3
Hidden
350
8FB
  3
JitterOff
350
8FC
  3
Linepattern
350
275
  3
OverhangOff
350
8FD
  3
Realistic
350
270
  3
Shaded
350
903
  3
Shaded with edges
350
902
  3
Shades of Gray
350
8FF
  3
Sketchy
350
900
  3
Thicken
350
274
  3
Wireframe
350
8FA
  3
X-Ray
350
901
  0
XRECORD
  5
7F3C
102
{ACAD_REACTORS
330
19
102
}
330
19
100
AcDbXrecord
280
     1
 90
        1
330
279
  0
DICTIONARY
  5
330
102
{ACAD_REACTORS
330
19
102
}
330
19
100
AcDbDictionary
281
     1
  3
CANNOSCALE
350
331
  3
CMLEADERSTYLE
350
DB1
  3
CTABLESTYLE
350
335
  3
HPTRANSPARENCY
350
D52
  3
XCLIPFRAME
350
896
  0
DICTIONARY
  5
27A
102
{ACAD_REACTORS
330
19
102
}
330
19
100
AcDbDictionary
281
     1
  0
DICTIONARY
  5
E3E
102
{ACAD_REACTORS
330
19
102
}
330
19
100
AcDbDictionary
281
     1
  3
DIMRAILANGLE
350
ECE
  3
DIMRAILFIRSTOFFSET
350
ECC
  3
DIMRAILOFFSET
350
ECD
  3
DIMRAILSENABLED
350
ECF
  0
DICTIONARY
  5
2E2
102
{ACAD_REACTORS
330
2E1
102
}
330
2E1
100
AcDbDictionary
281
     1
  0
DICTIONARY
  5
7F2D
102
{ACAD_REACTORS
330
2E1
102
}
330
2E1
100
AcDbDictionary
281
     1
1001
ACAD
1000
<All
  0
SORTENTSTABLE
  5
3BA7
102
{ACAD_REACTORS
330
3BA6
102
}
330
3BA6
100
AcDbSortentsTable
330
A
331
0
  5
7E9A
331
7BE3
  5
7BE5
331
7BE4
  5
7BE6
331
7BE5
  5
7BE7
331
7BE6
  5
7BE8
331
7BE7
  5
7BE9
331
7BE8
  5
7BEA
331
7BE9
  5
7BEB
331
7BEA
  5
7BEC
331
7BEB
  5
7BED
331
7BEC
  5
7BEE
331
7BED
  5
7BF4
331
7BEE
  5
7BF5
331
7BF5
  5
7BE4
331
7E96
  5
7E98
331
7E97
  5
7E99
331
7E99
  5
7E9B
331
7E9B
  5
7EAA
331
7EAB
  5
7EAE
331
7EAE
  5
7E97
331
7EB7
  5
7EBA
331
7EB8
  5
7EBB
331
7EBA
  5
7EBD
331
7EBB
  5
7EBE
331
7EBE
  5
7EB8
  0
DICTIONARY
  5
7C7D
102
{ACAD_REACTORS
330
1468
102
}
330
1468
100
AcDbDictionary
280
     1
281
     1
  3
TEXT
360
1467
  0
DIMASSOC
  5
7ABC
102
{ACAD_REACTORS
330
7ABB
102
}
330
7ABB
100
AcDbDimAssoc
330
7ABA
 90
        0
 70
     0
 71
     1
  0
GROUP
  5
7B58
102
{ACAD_REACTORS
330
1A
102
}
330
1A
100
AcDbGroup
300

 70
     1
 71
     1
340
7B52
340
7B53
340
7B54
340
7B55
340
7B56
340
7B57
  0
GROUP
  5
7BF3
102
{ACAD_REACTORS
330
1A
102
}
330
1A
100
AcDbGroup
300

 70
     1
 71
     1
340
7BE8
340
7BEA
340
7BEB
340
7BEC
340
7BED
340
7BEE
340
7BE3
340
7BE4
340
7BE5
340
7BE6
340
7BE7
340
7BE9
  0
GROUP
  5
7E39
102
{ACAD_REACTORS
330
1A
102
}
330
1A
100
AcDbGroup
300

 70
     1
 71
     1
340
7E2C
340
7E2D
340
7E2E
340
7E2F
340
7E30
340
7E31
340
7E32
340
7E33
340
7E34
340
7E35
340
7E36
340
7E38
  0
GROUP
  5
7EAC
102
{ACAD_REACTORS
330
1A
102
}
330
1A
100
AcDbGroup
300

 70
     1
 71
     1
340
7E97
340
7E9B
340
7E96
340
7E99
340
7EAB
  0
GROUP
  5
7EBC
102
{ACAD_REACTORS
330
1A
102
}
330
1A
100
AcDbGroup
300

 70
     1
 71
     1
340
7EB7
340
7EB8
340
7EBA
340
7EBB
  0
LAYOUT
  5
21
102
{ACAD_REACTORS
330
1E
102
}
330
1E
100
AcDbPlotSettings
  1

  2
none_device
  4
ISO_A3_(420.00_x_297.00_MM)
  6

 40
7.5
 41
20.0
 42
7.5
 43
20.0
 44
420.0
 45
297.0
 46
0.0
 47
0.0
 48
0.0
 49
0.0
140
0.0
141
0.0
142
1.0
143
1.0
 70
     0
 72
     1
 73
     0
 74
     0
  7

 75
     0
 76
     0
 77
     2
 78
   300
147
1.0
148
0.0
149
0.0
100
AcDbLayout
  1
Layout1
 70
     0
 71
     0
 10
-7.5
 20
-20.0
 11
412.5
 21
277.0
 12
0.0
 22
0.0
 32
0.0
 14
0.0
 24
0.0
 34
0.0
 15
0.0
 25
0.0
 35
0.0
146
0.0
 13
0.0
 23
0.0
 33
0.0
 16
0.0
 26
0.0
 36
0.0
 17
0.0
 27
0.0
 37
0.0
 76
     0
330
B
331
349
  0
LAYOUT
  5
20
102
{ACAD_REACTORS
330
1E
102
}
330
1E
100
AcDbPlotSettings
  1

  2
none_device
  4
ISO_A3_(420.00_x_297.00_MM)
  6

 40
7.5
 41
20.0
 42
7.5
 43
20.0
 44
420.0
 45
297.0
 46
0.0
 47
0.0
 48
0.0
 49
0.0
140
0.0
141
0.0
142
1.0
143
1.0
 70
  1024
 72
     1
 73
     0
 74
     0
  7

 75
     0
 76
     0
 77
     2
 78
   300
147
1.0
148
0.0
149
0.0
100
AcDbLayout
  1
Model
 70
     0
 71
     1
 10
0.0
 20
0.0
 11
2100.0
 21
2970.0
 12
0.0
 22
0.0
 32
0.0
 14
0.0
 24
0.0
 34
-0.0000000000000142
 15
2100.0
 25
2970.0
 35
0.0000000000000071
146
0.0
 13
0.0
 23
0.0
 33
0.0
 16
0.0
 26
0.0
 36
0.0
 17
0.0
 27
0.0
 37
0.0
 76
     0
330
A
331
15
  0
MATERIAL
  5
265
102
{ACAD_REACTORS
330
263
102
}
330
263
100
AcDbMaterial
  1
ByBlock
 72
     1
 94
      127
  0
MATERIAL
  5
264
102
{ACAD_REACTORS
330
263
102
}
330
263
100
AcDbMaterial
  1
ByLayer
 72
     1
 94
      127
  0
MATERIAL
  5
266
102
{ACAD_REACTORS
330
263
102
}
330
263
100
AcDbMaterial
  1
Global
 72
     1
 94
      127
  0
MLEADERSTYLE
  5
DAB
102
{ACAD_REACTORS
330
336
102
}
330
336
100
AcDbMLeaderStyle
170
     2
171
     1
172
     0
 90
        2
 40
0.0
 41
0.0
173
     1
 91
-1056964608
340
11
 92
       -2
290
     1
 42
2.0
291
     1
 43
8.0
  3
Standard
341
0
 44
4.0
300

342
17
174
     1
178
     6
175
     1
176
     0
 93
-1056964608
 45
4.0
292
     0
297
     0
 46
4.0
343
0
 94
-1056964608
 47
1.0
 49
1.0
140
1.0
293
     1
141
0.0
294
     1
177
     0
142
1.0
295
     0
296
     0
143
3.75
1001
ACAD_MLEADERVER
1070
     2
  0
MLINESTYLE
  5
1C
102
{ACAD_REACTORS
330
1B
102
}
330
1B
100
AcDbMlineStyle
  2
Standard
 70
     0
  3

 62
     0
 51
90.0
 52
90.0
 71
     2
 49
0.5
 62
   256
  6
BYLAYER
 49
-0.5
 62
   256
  6
BYLAYER
  0
ACDBPLACEHOLDER
  5
1D
102
{ACAD_REACTORS
330
1F
102
}
330
1F
  0
SCALE
  5
242
102
{ACAD_REACTORS
330
241
102
}
330
241
100
AcDbScale
 70
     0
300
1:1
140
1.0
141
1.0
290
     1
  0
SCALE
  5
243
102
{ACAD_REACTORS
330
241
102
}
330
241
100
AcDbScale
 70
     0
300
1:2
140
1.0
141
2.0
290
     0
  0
SCALE
  5
244
102
{ACAD_REACTORS
330
241
102
}
330
241
100
AcDbScale
 70
     0
300
1:4
140
1.0
141
4.0
290
     0
  0
SCALE
  5
245
102
{ACAD_REACTORS
330
241
102
}
330
241
100
AcDbScale
 70
     0
300
1:5
140
1.0
141
5.0
290
     0
  0
SCALE
  5
246
102
{ACAD_REACTORS
330
241
102
}
330
241
100
AcDbScale
 70
     0
300
1:8
140
1.0
141
8.0
290
     0
  0
SCALE
  5
247
102
{ACAD_REACTORS
330
241
102
}
330
241
100
AcDbScale
 70
     0
300
1:10
140
1.0
141
10.0
290
     0
  0
SCALE
  5
248
102
{ACAD_REACTORS
330
241
102
}
330
241
100
AcDbScale
 70
     0
300
1:16
140
1.0
141
16.0
290
     0
  0
SCALE
  5
249
102
{ACAD_REACTORS
330
241
102
}
330
241
100
AcDbScale
 70
     0
300
1:20
140
1.0
141
20.0
290
     0
  0
SCALE
  5
24A
102
{ACAD_REACTORS
330
241
102
}
330
241
100
AcDbScale
 70
     0
300
1:30
140
1.0
141
30.0
290
     0
  0
SCALE
  5
24B
102
{ACAD_REACTORS
330
241
102
}
330
241
100
AcDbScale
 70
     0
300
1:40
140
1.0
141
40.0
290
     0
  0
SCALE
  5
24C
102
{ACAD_REACTORS
330
241
102
}
330
241
100
AcDbScale
 70
     0
300
1:50
140
1.0
141
50.0
290
     0
  0
SCALE
  5
24D
102
{ACAD_REACTORS
330
241
102
}
330
241
100
AcDbScale
 70
     0
300
1:100
140
1.0
141
100.0
290
     0
  0
SCALE
  5
24E
102
{ACAD_REACTORS
330
241
102
}
330
241
100
AcDbScale
 70
     0
300
2:1
140
2.0
141
1.0
290
     0
  0
SCALE
  5
24F
102
{ACAD_REACTORS
330
241
102
}
330
241
100
AcDbScale
 70
     0
300
4:1
140
4.0
141
1.0
290
     0
  0
SCALE
  5
250
102
{ACAD_REACTORS
330
241
102
}
330
241
100
AcDbScale
 70
     0
300
8:1
140
8.0
141
1.0
290
     0
  0
SCALE
  5
251
102
{ACAD_REACTORS
330
241
102
}
330
241
100
AcDbScale
 70
     0
300
10:1
140
10.0
141
1.0
290
     0
  0
SCALE
  5
252
102
{ACAD_REACTORS
330
241
102
}
330
241
100
AcDbScale
 70
     0
300
100:1
140
100.0
141
1.0
290
     0
  0
SCALE
  5
253
102
{ACAD_REACTORS
330
241
102
}
330
241
100
AcDbScale
 70
     0
300
1/128" = 1'-0"
140
0.0078125
141
12.0
290
     0
  0
SCALE
  5
254
102
{ACAD_REACTORS
330
241
102
}
330
241
100
AcDbScale
 70
     0
300
1/64" = 1'-0"
140
0.015625
141
12.0
290
     0
  0
SCALE
  5
255
102
{ACAD_REACTORS
330
241
102
}
330
241
100
AcDbScale
 70
     0
300
1/32" = 1'-0"
140
0.03125
141
12.0
290
     0
  0
SCALE
  5
256
102
{ACAD_REACTORS
330
241
102
}
330
241
100
AcDbScale
 70
     0
300
1/16" = 1'-0"
140
0.0625
141
12.0
290
     0
  0
SCALE
  5
257
102
{ACAD_REACTORS
330
241
102
}
330
241
100
AcDbScale
 70
     0
300
3/32" = 1'-0"
140
0.09375
141
12.0
290
     0
  0
SCALE
  5
258
102
{ACAD_REACTORS
330
241
102
}
330
241
100
AcDbScale
 70
     0
300
1/8" = 1'-0"
140
0.125
141
12.0
290
     0
  0
SCALE
  5
259
102
{ACAD_REACTORS
330
241
102
}
330
241
100
AcDbScale
 70
     0
300
3/16" = 1'-0"
140
0.1875
141
12.0
290
     0
  0
SCALE
  5
25A
102
{ACAD_REACTORS
330
241
102
}
330
241
100
AcDbScale
 70
     0
300
1/4" = 1'-0"
140
0.25
141
12.0
290
     0
  0
SCALE
  5
25B
102
{ACAD_REACTORS
330
241
102
}
330
241
100
AcDbScale
 70
     0
300
3/8" = 1'-0"
140
0.375
141
12.0
290
     0
  0
SCALE
  5
25C
102
{ACAD_REACTORS
330
241
102
}
330
241
100
AcDbScale
 70
     0
300
1/2" = 1'-0"
140
0.5
141
12.0
290
     0
  0
SCALE
  5
25D
102
{ACAD_REACTORS
330
241
102
}
330
241
100
AcDbScale
 70
     0
300
3/4" = 1'-0"
140
0.75
141
12.0
290
     0
  0
SCALE
  5
25E
102
{ACAD_REACTORS
330
241
102
}
330
241
100
AcDbScale
 70
     0
300
1" = 1'-0"
140
1.0
141
12.0
290
     0
  0
SCALE
  5
25F
102
{ACAD_REACTORS
330
241
102
}
330
241
100
AcDbScale
 70
     0
300
1-1/2" = 1'-0"
140
1.5
141
12.0
290
     0
  0
SCALE
  5
260
102
{ACAD_REACTORS
330
241
102
}
330
241
100
AcDbScale
 70
     0
300
3" = 1'-0"
140
3.0
141
12.0
290
     0
  0
SCALE
  5
261
102
{ACAD_REACTORS
330
241
102
}
330
241
100
AcDbScale
 70
     0
300
6" = 1'-0"
140
6.0
141
12.0
290
     0
  0
SCALE
  5
262
102
{ACAD_REACTORS
330
241
102
}
330
241
100
AcDbScale
 70
     0
300
1'-0" = 1'-0"
140
12.0
141
12.0
290
     0
  0
TABLESTYLE
  5
279
102
{ACAD_REACTORS
330
278
102
}
102
{ACAD_XDICTIONARY
360
7F3A
102
}
330
278
100
AcDbTableStyle
  3
Standard
 70
     0
 71
     0
 40
0.06
 41
0.06
280
     0
281
     0
  7
Standard
140
4.5
170
     2
 62
     0
 63
   257
283
     0
 90
        4
 91
        0
  1

274
    -2
284
     1
 64
     0
275
    -2
285
     1
 65
     0
276
    -2
286
     1
 66
     0
277
    -2
287
     1
 67
     0
278
    -2
288
     1
 68
     0
279
    -2
289
     1
 69
     0
  7
Standard
140
6.0
170
     5
 62
     0
 63
   257
283
     0
 90
        4
 91
        0
  1

274
    -2
284
     1
 64
     0
275
    -2
285
     1
 65
     0
276
    -2
286
     1
 66
     0
277
    -2
287
     1
 67
     0
278
    -2
288
     1
 68
     0
279
    -2
289
     1
 69
     0
  7
Standard
140
4.5
170
     5
 62
     0
 63
   257
283
     0
 90
        4
 91
        0
  1

274
    -2
284
     1
 64
     0
275
    -2
285
     1
 65
     0
276
    -2
286
     1
 66
     0
277
    -2
287
     1
 67
     0
278
    -2
288
     1
 68
     0
279
    -2
289
     1
 69
     0
  0
VISUALSTYLE
  5
26C
102
{ACAD_REACTORS
330
267
102
}
330
267
100
AcDbVisualStyle
  2
2dWireframe
 70
     4
 71
     0
 72
     2
 73
     0
 90
        0
 40
-0.6
 41
-30.0
 62
     5
 63
     7
421
 16777215
 74
     1
 91
        4
 64
     7
 65
   257
 75
     1
175
     1
 42
1.0
 92
        0
 66
   257
 43
1.0
 76
     1
 77
     6
 78
     2
 67
     7
 79
     5
170
     0
171
     0
290
     0
174
     0
 93
        1
 44
0.0
173
     0
291
     0
 45
0.0
  0
VISUALSTYLE
  5
26E
102
{ACAD_REACTORS
330
267
102
}
330
267
100
AcDbVisualStyle
  2
3D Hidden
 70
     6
 71
     1
 72
     2
 73
     2
 90
        0
 40
-0.6
 41
-30.0
 62
     5
 63
     7
421
 16777215
 74
     2
 91
        2
 64
     7
 65
   257
 75
     2
175
     1
 42
40.0
 92
        0
 66
   257
 43
1.0
 76
     1
 77
     6
 78
     2
 67
     7
 79
     3
170
     0
171
     0
290
     0
174
     0
 93
        1
 44
0.0
173
     0
291
     0
 45
0.0
  0
VISUALSTYLE
  5
26D
102
{ACAD_REACTORS
330
267
102
}
330
267
100
AcDbVisualStyle
  2
3dWireframe
 70
     5
 71
     0
 72
     2
 73
     0
 90
        0
 40
-0.6
 41
-30.0
 62
     5
 63
     7
421
 16777215
 74
     1
 91
        4
 64
     7
 65
   257
 75
     1
175
     1
 42
1.0
 92
        0
 66
   257
 43
1.0
 76
     1
 77
     6
 78
     2
 67
     7
 79
     5
170
     0
171
     0
290
     0
174
     0
 93
        1
 44
0.0
173
     0
291
     0
 45
0.0
  0
VISUALSTYLE
  5
26F
102
{ACAD_REACTORS
330
267
102
}
330
267
100
AcDbVisualStyle
  2
Basic
 70
     7
 71
     1
 72
     0
 73
     1
 90
        0
 40
-0.6
 41
-30.0
 62
     5
 63
     7
421
 16777215
 74
     0
 91
        4
 64
     7
 65
   257
 75
     1
175
     1
 42
1.0
 92
        8
 66
     7
 43
1.0
 76
     1
 77
     6
 78
     2
 67
     7
 79
     5
170
     0
171
     0
290
     0
174
     0
 93
        1
 44
0.0
173
     0
291
     1
 45
0.0
  0
VISUALSTYLE
  5
273
102
{ACAD_REACTORS
330
267
102
}
330
267
100
AcDbVisualStyle
  2
Brighten
 70
    12
 71
     2
 72
     2
 73
     0
 90
        0
 40
-0.6
 41
-30.0
 62
     5
 63
     7
421
 16777215
 74
     1
 91
        4
 64
     7
 65
   257
 75
     1
175
     1
 42
1.0
 92
        8
 66
     7
 43
1.0
 76
     1
 77
     6
 78
     2
 67
     7
 79
     5
170
     0
171
     0
290
     0
174
     0
 93
        1
 44
50.0
173
     0
291
     1
 45
0.0
  0
VISUALSTYLE
  5
277
102
{ACAD_REACTORS
330
267
102
}
330
267
100
AcDbVisualStyle
  2
ColorChange
 70
    16
 71
     2
 72
     2
 73
     3
 90
        0
 40
-0.6
 41
-30.0
 62
     5
 63
     8
421
  8421504
 74
     1
 91
        4
 64
     7
 65
   257
 75
     1
175
     1
 42
1.0
 92
        8
 66
     8
424
  8421504
 43
1.0
 76
     1
 77
     6
 78
     2
 67
     7
 79
     5
170
     0
171
     0
290
     0
174
     0
 93
        1
 44
0.0
173
     0
291
     1
 45
0.0
  0
VISUALSTYLE
  5
271
102
{ACAD_REACTORS
330
267
102
}
330
267
100
AcDbVisualStyle
  2
Conceptual
 70
     9
 71
     3
 72
     2
 73
     0
 90
        0
 40
-0.6
 41
-30.0
 62
     5
 63
     7
421
 16777215
 74
     2
 91
        2
 64
     7
 65
   257
 75
     1
175
     1
 42
40.0
 92
        8
 66
     7
 43
1.0
 76
     1
 77
     6
 78
     2
 67
     7
 79
     3
170
     0
171
     0
290
     0
174
     0
 93
        1
 44
0.0
173
     0
291
     0
 45
0.0
  0
VISUALSTYLE
  5
272
102
{ACAD_REACTORS
330
267
102
}
330
267
100
AcDbVisualStyle
  2
Dim
 70
    11
 71
     2
 72
     2
 73
     0
 90
        0
 40
-0.6
 41
-30.0
 62
     5
 63
     7
421
 16777215
 74
     1
 91
        4
 64
     7
 65
   257
 75
     1
175
     1
 42
1.0
 92
        8
 66
     7
 43
1.0
 76
     1
 77
     6
 78
     2
 67
     7
 79
     5
170
     0
171
     0
290
     0
174
     0
 93
        1
 44
-50.0
173
     0
291
     1
 45
0.0
  0
VISUALSTYLE
  5
8FE
102
{ACAD_REACTORS
330
267
102
}
330
267
100
AcDbVisualStyle
  2
EdgeColorOff
 70
    22
 71
     2
 72
     2
 73
     0
 90
        0
 40
0.6
 41
30.0
 62
     5
 63
     7
421
 16777215
 74
     1
 91
        4
 64
     7
 65
   257
 75
     1
175
     1
 42
1.0
 92
        8
 66
     7
 43
1.0
 76
     1
 77
     6
 78
     2
 67
     7
 79
     5
170
     0
171
     0
290
     0
174
     0
 93
        1
 44
0.0
173
     0
291
     1
 45
0.0
  0
VISUALSTYLE
  5
276
102
{ACAD_REACTORS
330
267
102
}
330
267
100
AcDbVisualStyle
  2
Facepattern
 70
    15
 71
     2
 72
     2
 73
     0
 90
        0
 40
-0.6
 41
-30.0
 62
     5
 63
     7
421
 16777215
 74
     1
 91
        4
 64
     7
 65
   257
 75
     1
175
     1
 42
1.0
 92
        8
 66
     7
 43
1.0
 76
     1
 77
     6
 78
     2
 67
     7
 79
     5
170
     0
171
     0
290
     0
174
     0
 93
        1
 44
0.0
173
     0
291
     1
 45
0.0
  0
VISUALSTYLE
  5
268
102
{ACAD_REACTORS
330
267
102
}
330
267
100
AcDbVisualStyle
  2
Flat
 70
     0
 71
     2
 72
     1
 73
     1
 90
        2
 40
-0.6
 41
30.0
 62
     5
 63
     7
421
 16777215
 74
     0
 91
        4
 64
     7
 65
   257
 75
     1
175
     1
 42
1.0
 92
        8
 66
     7
 43
1.0
 76
     1
 77
     6
 78
     2
 67
     7
 79
     5
170
     0
171
     0
290
     0
174
     0
 93
       13
 44
0.0
173
     0
291
     1
 45
0.0
  0
VISUALSTYLE
  5
269
102
{ACAD_REACTORS
330
267
102
}
330
267
100
AcDbVisualStyle
  2
FlatWithEdges
 70
     1
 71
     2
 72
     1
 73
     1
 90
        2
 40
-0.6
 41
30.0
 62
     5
 63
     7
421
 16777215
 74
     1
 91
        4
 64
     7
 65
   257
 75
     1
175
     1
 42
1.0
 92
        0
 66
   257
 43
1.0
 76
     1
 77
     6
 78
     2
 67
     7
 79
     5
170
     0
171
     0
290
     0
174
     0
 93
       13
 44
0.0
173
     0
291
     1
 45
0.0
  0
VISUALSTYLE
  5
26A
102
{ACAD_REACTORS
330
267
102
}
330
267
100
AcDbVisualStyle
  2
Gouraud
 70
     2
 71
     2
 72
     2
 73
     1
 90
        2
 40
-0.6
 41
30.0
 62
     5
 63
     7
421
 16777215
 74
     0
 91
        4
 64
     7
 65
   257
 75
     1
175
     1
 42
1.0
 92
        0
 66
     7
 43
1.0
 76
     1
 77
     6
 78
     2
 67
     7
 79
     5
170
     0
171
     0
290
     0
174
     0
 93
       13
 44
0.0
173
     0
291
     1
 45
0.0
  0
VISUALSTYLE
  5
26B
102
{ACAD_REACTORS
330
267
102
}
330
267
100
AcDbVisualStyle
  2
GouraudWithEdges
 70
     3
 71
     2
 72
     2
 73
     1
 90
        2
 40
-0.6
 41
30.0
 62
     5
 63
     7
421
 16777215
 74
     1
 91
        4
 64
     7
 65
   257
 75
     1
175
     1
 42
1.0
 92
        0
 66
   257
 43
1.0
 76
     1
 77
     6
 78
     2
 67
     7
 79
     5
170
     0
171
     0
290
     0
174
     0
 93
       13
 44
0.0
173
     0
291
     1
 45
0.0
  0
VISUALSTYLE
  5
8FB
102
{ACAD_REACTORS
330
267
102
}
330
267
100
AcDbVisualStyle
  2
Hidden
 70
     6
 71
     1
 72
     2
 73
     2
 90
        0
 40
0.6
 41
30.0
 62
     5
 63
     7
421
 16777215
 74
     2
 91
        2
 64
     7
 65
   257
 75
     2
175
     1
 42
40.0
 92
        0
 66
   257
 43
1.0
 76
     1
 77
     6
 78
     2
 67
     7
 79
     3
170
     0
171
     0
290
     0
174
     0
 93
        1
 44
0.0
173
     0
291
     0
 45
0.0
  0
VISUALSTYLE
  5
8FC
102
{ACAD_REACTORS
330
267
102
}
330
267
100
AcDbVisualStyle
  2
JitterOff
 70
    20
 71
     2
 72
     2
 73
     0
 90
        0
 40
0.6
 41
30.0
 62
     5
 63
     7
421
 16777215
 74
     1
 91
        4
 64
     7
 65
   257
 75
     1
175
     1
 42
1.0
 92
       10
 66
     7
 43
1.0
 76
     1
 77
     6
 78
     2
 67
     7
 79
     5
170
     0
171
     0
290
     0
174
     0
 93
        1
 44
0.0
173
     0
291
     1
 45
0.0
  0
VISUALSTYLE
  5
275
102
{ACAD_REACTORS
330
267
102
}
330
267
100
AcDbVisualStyle
  2
Linepattern
 70
    14
 71
     2
 72
     2
 73
     0
 90
        0
 40
-0.6
 41
-30.0
 62
     5
 63
     7
421
 16777215
 74
     1
 91
        4
 64
     7
 65
   257
 75
     7
175
     7
 42
1.0
 92
        8
 66
     7
 43
1.0
 76
     1
 77
     6
 78
     2
 67
     7
 79
     5
170
     0
171
     0
290
     0
174
     0
 93
        1
 44
0.0
173
     0
291
     1
 45
0.0
  0
VISUALSTYLE
  5
8FD
102
{ACAD_REACTORS
330
267
102
}
330
267
100
AcDbVisualStyle
  2
OverhangOff
 70
    21
 71
     2
 72
     2
 73
     0
 90
        0
 40
0.6
 41
30.0
 62
     5
 63
     7
421
 16777215
 74
     1
 91
        4
 64
     7
 65
   257
 75
     1
175
     1
 42
1.0
 92
        9
 66
     7
 43
1.0
 76
     1
 77
     6
 78
     2
 67
     7
 79
     5
170
     0
171
     0
290
     0
174
     0
 93
        1
 44
0.0
173
     0
291
     1
 45
0.0
  0
VISUALSTYLE
  5
270
102
{ACAD_REACTORS
330
267
102
}
330
267
100
AcDbVisualStyle
  2
Realistic
 70
     8
 71
     2
 72
     2
 73
     0
 90
        0
 40
-0.6
 41
-30.0
 62
     5
 63
     7
421
 16777215
 74
     1
 91
        0
 64
     7
 65
   257
 75
     1
175
     1
 42
1.0
 92
        8
 66
     8
424
  7895160
 43
1.0
 76
     1
 77
     6
 78
     2
 67
     7
 79
     5
170
     0
171
     0
290
     0
174
     0
 93
       13
 44
0.0
173
     0
291
     0
 45
0.0
  0
VISUALSTYLE
  5
903
102
{ACAD_REACTORS
330
267
102
}
330
267
100
AcDbVisualStyle
  2
Shaded
 70
    27
 71
     2
 72
     2
 73
     1
 90
        2
 40
0.6
 41
30.0
 62
     5
 63
     7
421
 16777215
 74
     0
 91
        4
 64
     7
 65
   257
 75
     1
175
     1
 42
1.0
 92
        8
 66
   257
 43
1.0
 76
     1
 77
     6
 78
     2
 67
     8
425
  7895160
 79
     3
170
     0
171
     0
290
     0
174
     0
 93
        5
 44
0.0
173
     0
291
     0
 45
0.0
  0
VISUALSTYLE
  5
902
102
{ACAD_REACTORS
330
267
102
}
330
267
100
AcDbVisualStyle
  2
Shaded with edges
 70
    26
 71
     2
 72
     2
 73
     1
 90
        2
 40
0.6
 41
30.0
 62
     5
 63
     7
421
 16777215
 74
     1
 91
       10
 64
     7
 65
   257
 75
     2
175
     1
 42
1.0
 92
        8
 66
   257
 43
1.0
 76
     1
 77
     6
 78
     2
 67
     7
 79
     3
170
     0
171
     0
290
     0
174
     0
 93
        5
 44
0.0
173
     0
291
     0
 45
0.0
  0
VISUALSTYLE
  5
8FF
102
{ACAD_REACTORS
330
267
102
}
330
267
100
AcDbVisualStyle
  2
Shades of Gray
 70
    23
 71
     2
 72
     2
 73
     3
 90
        0
 40
0.6
 41
30.0
 62
     5
 63
     7
421
 16777215
 74
     2
 91
        2
 64
     7
 65
     7
 75
     1
175
     1
 42
40.0
 92
        8
 66
     7
 43
1.0
 76
     1
 77
     6
 78
     2
 67
     7
 79
     3
170
     0
171
     0
290
     0
174
     0
 93
        1
 44
0.0
173
     0
291
     0
 45
0.0
  0
VISUALSTYLE
  5
900
102
{ACAD_REACTORS
330
267
102
}
330
267
100
AcDbVisualStyle
  2
Sketchy
 70
    24
 71
     1
 72
     2
 73
     2
 90
        0
 40
0.6
 41
30.0
 62
     5
 63
     7
421
 16777215
 74
     2
 91
        2
 64
     7
 65
     7
 75
     1
175
     1
 42
40.0
 92
       11
 66
     7
 43
1.0
 76
     1
 77
     6
 78
     2
 67
     7
 79
     6
170
     0
171
     0
290
     0
174
     0
 93
        1
 44
0.0
173
     0
291
     0
 45
0.0
  0
VISUALSTYLE
  5
274
102
{ACAD_REACTORS
330
267
102
}
330
267
100
AcDbVisualStyle
  2
Thicken
 70
    13
 71
     2
 72
     2
 73
     0
 90
        0
 40
-0.6
 41
-30.0
 62
     5
 63
     7
421
 16777215
 74
     1
 91
        4
 64
     7
 65
   257
 75
     1
175
     1
 42
1.0
 92
       12
 66
     7
 43
1.0
 76
     1
 77
     6
 78
     2
 67
     7
 79
     5
170
     0
171
     0
290
     0
174
     0
 93
        1
 44
0.0
173
     0
291
     1
 45
0.0
  0
VISUALSTYLE
  5
8FA
102
{ACAD_REACTORS
330
267
102
}
330
267
100
AcDbVisualStyle
  2
Wireframe
 70
     5
 71
     0
 72
     2
 73
     0
 90
        0
 40
0.6
 41
30.0
 62
     5
 63
     7
421
 16777215
 74
     1
 91
        4
 64
     7
 65
   257
 75
     1
175
     1
 42
1.0
 92
        0
 66
   257
 43
1.0
 76
     1
 77
     6
 78
     2
 67
     7
 79
     3
170
     0
171
     0
290
     0
174
     0
 93
        1
 44
0.0
173
     0
291
     0
 45
0.0
  0
VISUALSTYLE
  5
901
102
{ACAD_REACTORS
330
267
102
}
330
267
100
AcDbVisualStyle
  2
X-Ray
 70
    25
 71
     2
 72
     2
 73
     1
 90
        1
 40
0.5
 41
30.0
 62
     5
 63
     7
421
 16777215
 74
     1
 91
        0
 64
     7
 65
   257
 75
     1
175
     1
 42
1.0
 92
        8
 66
     7
 43
1.0
 76
     1
 77
     6
 78
     2
 67
     7
 79
     3
170
     0
171
     0
290
     0
174
     0
 93
       13
 44
0.0
173
     0
291
     0
 45
0.0
  0
DICTIONARYVAR
  5
331
102
{ACAD_REACTORS
330
330
102
}
330
330
100
DictionaryVariables
280
     0
  1
1:1
  0
DICTIONARYVAR
  5
DB1
102
{ACAD_REACTORS
330
330
102
}
330
330
100
DictionaryVariables
280
     0
  1
Standard
  0
DICTIONARYVAR
  5
335
102
{ACAD_REACTORS
330
330
102
}
330
330
100
DictionaryVariables
280
     0
  1
Standard
  0
DICTIONARYVAR
  5
D52
102
{ACAD_REACTORS
330
330
102
}
330
330
100
DictionaryVariables
280
     0
  1
ByLayer
  0
DICTIONARYVAR
  5
896
102
{ACAD_REACTORS
330
330
102
}
330
330
100
DictionaryVariables
280
     0
  1
0
  0
DICTIONARYVAR
  5
ECE
102
{ACAD_REACTORS
330
E3E
102
}
330
E3E
100
DictionaryVariables
280
     0
  1
0.261799
  0
DICTIONARYVAR
  5
ECC
102
{ACAD_REACTORS
330
E3E
102
}
330
E3E
100
DictionaryVariables
280
     0
  1
0.400000
  0
DICTIONARYVAR
  5
ECD
102
{ACAD_REACTORS
330
E3E
102
}
330
E3E
100
DictionaryVariables
280
     0
  1
0.250000
  0
DICTIONARYVAR
  5
ECF
102
{ACAD_REACTORS
330
E3E
102
}
330
E3E
100
DictionaryVariables
280
     0
  1
1
  0
FIELD
  5
1467
102
{ACAD_REACTORS
330
7C7D
102
}
330
7C7D
100
AcDbField
  1
_text
  2
{%<\_FldIdx 0>%N}
 90
        1
360
146B
 97
        0
 91
       63
 92
        0
 94
       11
 95
        2
 96
        0
300

 93
        1
  6
ACFD_FIELDTEXT_CHECKSUM
 93
        2
 90
        2
140
4439.0
 94
        0
300

302

304
ACVALUE_END
  7
ACFD_FIELD_VALUE
 93
        6
 90
        4
  1
{20200320N}
 94
        0
300

302

304
ACVALUE_END
301
{20200320N}
 98
       11
  0
DICTIONARY
  5
7F3A
330
279
100
AcDbDictionary
280
     1
281
     1
  3
ACAD_ROUNDTRIP_2008_TABLESTYLE_CELLSTYLEMAP
360
7F3B
  0
FIELD
  5
146B
330
1467
100
AcDbField
  1
AcVar
  2
\AcVar Date \f "yyyyMMdd"
 90
        0
 97
        0
 91
       63
 92
        0
 94
        8
 95
       64
 96
        0
300
Variable not supported
 93
        1
  6
Variable
 93
        2
 90
        4
  1
Date
 94
        0
300

302

304
ACVALUE_END
  7
ACFD_FIELD_VALUE
 93
        6
 90
        8
 92
       16
310
E407030000001300100018000B000000
 94
        0
300
yyyyMMdd
302

304
ACVALUE_END
301
20200320
 98
        8
  0
CELLSTYLEMAP
  5
7F3B
102
{ACAD_REACTORS
330
7F3A
102
}
330
7F3A
100
AcDbCellStyleMap
 90
        3
300
CELLSTYLE
  1
TABLEFORMAT_BEGIN
 90
        5
170
     1
 91
        0
 92
    32768
 62
   257
 93
        1
300
CONTENTFORMAT
  1
CONTENTFORMAT_BEGIN
 90
        0
 91
        0
 92
        4
 93
        0
300

 40
0.0
140
1.0
 94
        5
 62
     0
340
17
144
6.0
309
CONTENTFORMAT_END
171
     1
301
MARGIN
  1
CELLMARGIN_BEGIN
 40
0.06
 40
0.06
 40
0.06
 40
0.06
 40
0.18
 40
0.18
309
CELLMARGIN_END
 94
        6
 95
        1
302
GRIDFORMAT
  1
GRIDFORMAT_BEGIN
 90
        0
 91
        1
 62
     0
 92
       -2
340
0
 93
        0
 40
0.045
309
GRIDFORMAT_END
 95
        2
302
GRIDFORMAT
  1
GRIDFORMAT_BEGIN
 90
        0
 91
        1
 62
     0
 92
       -2
340
0
 93
        0
 40
0.045
309
GRIDFORMAT_END
 95
        4
302
GRIDFORMAT
  1
GRIDFORMAT_BEGIN
 90
        0
 91
        1
 62
     0
 92
       -2
340
0
 93
        0
 40
0.045
309
GRIDFORMAT_END
 95
        8
302
GRIDFORMAT
  1
GRIDFORMAT_BEGIN
 90
        0
 91
        1
 62
     0
 92
       -2
340
0
 93
        0
 40
0.045
309
GRIDFORMAT_END
 95
       16
302
GRIDFORMAT
  1
GRIDFORMAT_BEGIN
 90
        0
 91
        1
 62
     0
 92
       -2
340
0
 93
        0
 40
0.045
309
GRIDFORMAT_END
 95
       32
302
GRIDFORMAT
  1
GRIDFORMAT_BEGIN
 90
        0
 91
        1
 62
     0
 92
       -2
340
0
 93
        0
 40
0.045
309
GRIDFORMAT_END
309
TABLEFORMAT_END
  1
CELLSTYLE_BEGIN
 90
        1
 91
        1
300
_TITLE
309
CELLSTYLE_END
300
CELLSTYLE
  1
TABLEFORMAT_BEGIN
 90
        5
170
     1
 91
        0
 92
        0
 62
   257
 93
        1
300
CONTENTFORMAT
  1
CONTENTFORMAT_BEGIN
 90
        0
 91
        0
 92
        4
 93
        0
300

 40
0.0
140
1.0
 94
        5
 62
     0
340
17
144
4.5
309
CONTENTFORMAT_END
171
     1
301
MARGIN
  1
CELLMARGIN_BEGIN
 40
0.06
 40
0.06
 40
0.06
 40
0.06
 40
0.18
 40
0.18
309
CELLMARGIN_END
 94
        6
 95
        1
302
GRIDFORMAT
  1
GRIDFORMAT_BEGIN
 90
        0
 91
        1
 62
     0
 92
       -2
340
0
 93
        0
 40
0.045
309
GRIDFORMAT_END
 95
        2
302
GRIDFORMAT
  1
GRIDFORMAT_BEGIN
 90
        0
 91
        1
 62
     0
 92
       -2
340
0
 93
        0
 40
0.045
309
GRIDFORMAT_END
 95
        4
302
GRIDFORMAT
  1
GRIDFORMAT_BEGIN
 90
        0
 91
        1
 62
     0
 92
       -2
340
0
 93
        0
 40
0.045
309
GRIDFORMAT_END
 95
        8
302
GRIDFORMAT
  1
GRIDFORMAT_BEGIN
 90
        0
 91
        1
 62
     0
 92
       -2
340
0
 93
        0
 40
0.045
309
GRIDFORMAT_END
 95
       16
302
GRIDFORMAT
  1
GRIDFORMAT_BEGIN
 90
        0
 91
        1
 62
     0
 92
       -2
340
0
 93
        0
 40
0.045
309
GRIDFORMAT_END
 95
       32
302
GRIDFORMAT
  1
GRIDFORMAT_BEGIN
 90
        0
 91
        1
 62
     0
 92
       -2
340
0
 93
        0
 40
0.045
309
GRIDFORMAT_END
309
TABLEFORMAT_END
  1
CELLSTYLE_BEGIN
 90
        2
 91
        1
300
_HEADER
309
CELLSTYLE_END
300
CELLSTYLE
  1
TABLEFORMAT_BEGIN
 90
        5
170
     1
 91
        0
 92
        0
 62
   257
 93
        1
300
CONTENTFORMAT
  1
CONTENTFORMAT_BEGIN
 90
        0
 91
        0
 92
        4
 93
        0
300

 40
0.0
140
1.0
 94
        2
 62
     0
340
17
144
4.5
309
CONTENTFORMAT_END
171
     1
301
MARGIN
  1
CELLMARGIN_BEGIN
 40
0.06
 40
0.06
 40
0.06
 40
0.06
 40
0.18
 40
0.18
309
CELLMARGIN_END
 94
        6
 95
        1
302
GRIDFORMAT
  1
GRIDFORMAT_BEGIN
 90
        0
 91
        1
 62
     0
 92
       -2
340
0
 93
        0
 40
0.045
309
GRIDFORMAT_END
 95
        2
302
GRIDFORMAT
  1
GRIDFORMAT_BEGIN
 90
        0
 91
        1
 62
     0
 92
       -2
340
0
 93
        0
 40
0.045
309
GRIDFORMAT_END
 95
        4
302
GRIDFORMAT
  1
GRIDFORMAT_BEGIN
 90
        0
 91
        1
 62
     0
 92
       -2
340
0
 93
        0
 40
0.045
309
GRIDFORMAT_END
 95
        8
302
GRIDFORMAT
  1
GRIDFORMAT_BEGIN
 90
        0
 91
        1
 62
     0
 92
       -2
340
0
 93
        0
 40
0.045
309
GRIDFORMAT_END
 95
       16
302
GRIDFORMAT
  1
GRIDFORMAT_BEGIN
 90
        0
 91
        1
 62
     0
 92
       -2
340
0
 93
        0
 40
0.045
309
GRIDFORMAT_END
 95
       32
302
GRIDFORMAT
  1
GRIDFORMAT_BEGIN
 90
        0
 91
        1
 62
     0
 92
       -2
340
0
 93
        0
 40
0.045
309
GRIDFORMAT_END
309
TABLEFORMAT_END
  1
CELLSTYLE_BEGIN
 90
        3
 91
        2
300
_DATA
309
CELLSTYLE_END
  0
ENDSEC
  0
EOF
