  0
SECTION
  2
HEADER
  9
$ACADVER
  1
AC1021
  9
$ACADMAINTVER
 70
    25
  9
$DWGCODEPAGE
  3
ANSI_932
  9
$LASTSAVEDBY
  1
howeNelson
  9
$INSBASE
 10
0.0
 20
0.0
 30
0.0
  9
$EXTMIN
 10
0.0
 20
0.0
 30
-0.0000000000000071
  9
$EXTMAX
 10
2100.0
 20
2970.0
 30
0.0000000000000071
  9
$LIMMIN
 10
0.0
 20
0.0
  9
$LIMMAX
 10
2100.0
 20
2970.0
  9
$ORTHOMODE
 70
     0
  9
$REGENMODE
 70
     1
  9
$FILLMODE
 70
     1
  9
$QTEXTMODE
 70
     0
  9
$MIRRTEXT
 70
     1
  9
$LTSCALE
 40
5.0
  9
$ATTMODE
 70
     1
  9
$TEXTSIZE
 40
2.5
  9
$TRACEWID
 40
1.0
  9
$TEXTSTYLE
  7
ＭＳ ゴシック
  9
$CLAYER
  8
DIM
  9
$CELTYPE
  6
ByLayer
  9
$CECOLOR
 62
   256
  9
$CELTSCALE
 40
1.0
  9
$DISPSILH
 70
     0
  9
$DIMSCALE
 40
1.0
  9
$DIMASZ
 40
10.0
  9
$DIMEXO
 40
30.0
  9
$DIMDLI
 40
0.9999999999999999
  9
$DIMRND
 40
0.0
  9
$DIMDLE
 40
0.0
  9
$DIMEXE
 40
0.0
  9
$DIMTP
 40
0.0
  9
$DIMTM
 40
0.0
  9
$DIMTXT
 40
24.0
  9
$DIMCEN
 40
0.0
  9
$DIMTSZ
 40
0.0
  9
$DIMTOL
 70
     0
  9
$DIMLIM
 70
     0
  9
$DIMTIH
 70
     0
  9
$DIMTOH
 70
     0
  9
$DIMSE1
 70
     0
  9
$DIMSE2
 70
     0
  9
$DIMTAD
 70
     1
  9
$DIMZIN
 70
    11
  9
$DIMBLK
  1
DOT
  9
$DIMASO
 70
     1
  9
$DIMSHO
 70
     1
  9
$DIMPOST
  1
<>
  9
$DIMAPOST
  1
[]
  9
$DIMALT
 70
     0
  9
$DIMALTD
 70
     1
  9
$DIMALTF
 40
1.0
  9
$DIMLFAC
 40
1.0
  9
$DIMTOFL
 70
     0
  9
$DIMTVP
 40
0.0
  9
$DIMTIX
 70
     1
  9
$DIMSOXD
 70
     0
  9
$DIMSAH
 70
     0
  9
$DIMBLK1
  1

  9
$DIMBLK2
  1

  9
$DIMSTYLE
  2
tfrom線あり
  9
$DIMCLRD
 70
     0
  9
$DIMCLRE
 70
     0
  9
$DIMCLRT
 70
     0
  9
$DIMTFAC
 40
1.0
  9
$DIMGAP
 40
20.0
  9
$DIMJUST
 70
     0
  9
$DIMSD1
 70
     0
  9
$DIMSD2
 70
     0
  9
$DIMTOLJ
 70
     1
  9
$DIMTZIN
 70
    11
  9
$DIMALTZ
 70
    11
  9
$DIMALTTZ
 70
    11
  9
$DIMUPT
 70
     0
  9
$DIMDEC
 70
     0
  9
$DIMTDEC
 70
     1
  9
$DIMALTU
 70
     2
  9
$DIMALTTD
 70
     2
  9
$DIMTXSTY
  7
ＭＳ ゴシック
  9
$DIMAUNIT
 70
     0
  9
$DIMADEC
 70
     2
  9
$DIMALTRND
 40
0.0
  9
$DIMAZIN
 70
     0
  9
$DIMDSEP
 70
    46
  9
$DIMATFIT
 70
     0
  9
$DIMFRAC
 70
     2
  9
$DIMLDRBLK
  1
DOT
  9
$DIMLUNIT
 70
     2
  9
$DIMLWD
 70
    -2
  9
$DIMLWE
 70
    -2
  9
$DIMTMOVE
 70
     0
  9
$DIMFXL
 40
1.0
  9
$DIMFXLON
 70
     0
  9
$DIMJOGANG
 40
0.7853981633974483
  9
$DIMTFILL
 70
     0
  9
$DIMTFILLCLR
 70
     0
  9
$DIMARCSYM
 70
     0
  9
$DIMLTYPE
  6

  9
$DIMLTEX1
  6

  9
$DIMLTEX2
  6

  9
$LUNITS
 70
     2
  9
$LUPREC
 70
     0
  9
$SKETCHINC
 40
0.1
  9
$FILLETRAD
 40
6.0
  9
$AUNITS
 70
     0
  9
$AUPREC
 70
     0
  9
$MENU
  1
acad
  9
$ELEVATION
 40
0.0
  9
$PELEVATION
 40
0.0
  9
$THICKNESS
 40
0.0
  9
$LIMCHECK
 70
     0
  9
$CHAMFERA
 40
0.0
  9
$CHAMFERB
 40
0.0
  9
$CHAMFERC
 40
0.0
  9
$CHAMFERD
 40
0.0
  9
$SKPOLY
 70
     0
  9
$TDCREATE
 40
2447893.375
  9
$TDUCREATE
 40
0.0
  9
$TDUPDATE
 40
2458474.566294873
  9
$TDUUPDATE
 40
2458474.191294873
  9
$TDINDWG
 40
0.0122832292
  9
$TDUSRTIMER
 40
0.0000071065
  9
$USRTIMER
 70
     1
  9
$ANGBASE
 50
0.0
  9
$ANGDIR
 70
     0
  9
$PDMODE
 70
     1
  9
$PDSIZE
 40
-2.0
  9
$PLINEWID
 40
0.0
  9
$SPLFRAME
 70
     0
  9
$SPLINETYPE
 70
     6
  9
$SPLINESEGS
 70
     8
  9
$HANDSEED
  5
7C10
  9
$SURFTAB1
 70
     6
  9
$SURFTAB2
 70
     6
  9
$SURFTYPE
 70
     6
  9
$SURFU
 70
     6
  9
$SURFV
 70
     6
  9
$UCSBASE
  2

  9
$UCSNAME
  2

  9
$UCSORG
 10
0.0
 20
0.0
 30
0.0
  9
$UCSXDIR
 10
1.0
 20
0.0
 30
0.0
  9
$UCSYDIR
 10
0.0
 20
1.0
 30
0.0
  9
$UCSORTHOREF
  2

  9
$UCSORTHOVIEW
 70
     0
  9
$UCSORGTOP
 10
0.0
 20
0.0
 30
0.0
  9
$UCSORGBOTTOM
 10
0.0
 20
0.0
 30
0.0
  9
$UCSORGLEFT
 10
0.0
 20
0.0
 30
0.0
  9
$UCSORGRIGHT
 10
0.0
 20
0.0
 30
0.0
  9
$UCSORGFRONT
 10
0.0
 20
0.0
 30
0.0
  9
$UCSORGBACK
 10
0.0
 20
0.0
 30
0.0
  9
$PUCSBASE
  2

  9
$PUCSNAME
  2

  9
$PUCSORG
 10
0.0
 20
0.0
 30
0.0
  9
$PUCSXDIR
 10
1.0
 20
0.0
 30
0.0
  9
$PUCSYDIR
 10
0.0
 20
1.0
 30
0.0
  9
$PUCSORTHOREF
  2

  9
$PUCSORTHOVIEW
 70
     0
  9
$PUCSORGTOP
 10
0.0
 20
0.0
 30
0.0
  9
$PUCSORGBOTTOM
 10
0.0
 20
0.0
 30
0.0
  9
$PUCSORGLEFT
 10
0.0
 20
0.0
 30
0.0
  9
$PUCSORGRIGHT
 10
0.0
 20
0.0
 30
0.0
  9
$PUCSORGFRONT
 10
0.0
 20
0.0
 30
0.0
  9
$PUCSORGBACK
 10
0.0
 20
0.0
 30
0.0
  9
$USERI1
 70
     0
  9
$USERI2
 70
     0
  9
$USERI3
 70
     0
  9
$USERI4
 70
     0
  9
$USERI5
 70
     0
  9
$USERR1
 40
0.0
  9
$USERR2
 40
0.0
  9
$USERR3
 40
0.0
  9
$USERR4
 40
0.0
  9
$USERR5
 40
0.0
  9
$WORLDVIEW
 70
     1
  9
$SHADEDGE
 70
     3
  9
$SHADEDIF
 70
    70
  9
$TILEMODE
 70
     1
  9
$MAXACTVP
 70
    64
  9
$PINSBASE
 10
0.0
 20
0.0
 30
0.0
  9
$PLIMCHECK
 70
     0
  9
$PEXTMIN
 10
0.0
 20
0.0
 30
0.0
  9
$PEXTMAX
 10
0.0
 20
0.0
 30
0.0
  9
$PLIMMIN
 10
-7.5
 20
-20.0
  9
$PLIMMAX
 10
412.5
 20
277.0
  9
$UNITMODE
 70
     0
  9
$VISRETAIN
 70
     0
  9
$PLINEGEN
 70
     1
  9
$PSLTSCALE
 70
     0
  9
$TREEDEPTH
 70
  3020
  9
$CMLSTYLE
  2
Standard
  9
$CMLJUST
 70
     0
  9
$CMLSCALE
 40
1.0
  9
$PROXYGRAPHICS
 70
     0
  9
$MEASUREMENT
 70
     1
  9
$CELWEIGHT
370
    -1
  9
$ENDCAPS
280
     0
  9
$JOINSTYLE
280
     0
  9
$LWDISPLAY
290
     1
  9
$INSUNITS
 70
     4
  9
$HYPERLINKBASE
  1

  9
$STYLESHEET
  1

  9
$XEDIT
290
     1
  9
$CEPSNTYPE
380
     0
  9
$PSTYLEMODE
290
     1
  9
$FINGERPRINTGUID
  2

  9
$VERSIONGUID
  2

  9
$EXTNAMES
290
     1
  9
$PSVPSCALE
 40
0.0
  9
$OLESTARTUP
290
     0
  9
$SORTENTS
280
   127
  9
$INDEXCTL
280
     0
  9
$HIDETEXT
280
     1
  9
$XCLIPFRAME
290
     0
  9
$HALOGAP
280
     0
  9
$OBSCOLOR
 70
   257
  9
$OBSLTYPE
280
     0
  9
$INTERSECTIONDISPLAY
280
     0
  9
$INTERSECTIONCOLOR
 70
   257
  9
$DIMASSOC
280
     2
  9
$PROJECTNAME
  1

  9
$CAMERADISPLAY
290
     0
  9
$LENSLENGTH
 40
50.0
  9
$CAMERAHEIGHT
 40
0.0
  9
$STEPSPERSEC
 40
2.0
  9
$STEPSIZE
 40
6.0
  9
$3DDWFPREC
 40
2.0
  9
$PSOLWIDTH
 40
0.25
  9
$PSOLHEIGHT
 40
4.0
  9
$LOFTANG1
 40
1.570796326794897
  9
$LOFTANG2
 40
1.570796326794897
  9
$LOFTMAG1
 40
0.0
  9
$LOFTMAG2
 40
0.0
  9
$LOFTPARAM
 70
     7
  9
$LOFTNORMALS
280
     1
  9
$LATITUDE
 40
37.795
  9
$LONGITUDE
 40
-122.394
  9
$NORTHDIRECTION
 40
0.0
  9
$TIMEZONE
 70
 -8000
  9
$LIGHTGLYPHDISPLAY
280
     1
  9
$TILEMODELIGHTSYNCH
280
     1
  9
$SOLIDHIST
280
     1
  9
$SHOWHIST
280
     1
  9
$DWFFRAME
280
     2
  9
$DGNFRAME
280
     2
  9
$REALWORLDSCALE
290
     1
  9
$INTERFERECOLOR
 62
   256
  9
$CSHADOW
280
     0
  9
$SHADOWPLANELOCATION
 40
0.0
  0
ENDSEC
  0
SECTION
  2
CLASSES
  0
CLASS
  1
LWPOLYLINE
  2
AcDbPolyline
  3
ObjectDBX Classes
 90
        0
 91
        1
280
     0
281
     1
  0
CLASS
  1
IMAGE
  2
AcDbRasterImage
  3
ISM
 90
      127
 91
        6
280
     0
281
     1
  0
CLASS
  1
OLE2FRAME
  2
AcDbOle2Frame
  3
ObjectDBX Classes
 90
        0
 91
        1
280
     0
281
     1
  0
CLASS
  1
HATCH
  2
AcDbHatch
  3
ObjectDBX Classes
 90
        0
 91
        1
280
     0
281
     1
  0
CLASS
  1
DICTIONARYVAR
  2
AcDbDictionaryVar
  3
ObjectDBX Classes
 90
        0
 91
        5
280
     0
281
     0
  0
CLASS
  1
RASTERVARIABLES
  2
AcDbRasterVariables
  3
ISM
 90
        0
 91
        5
280
     0
281
     0
  0
CLASS
  1
IMAGEDEF
  2
AcDbRasterImageDef
  3
ISM
 90
        0
 91
        5
280
     0
281
     0
  0
CLASS
  1
IMAGEDEF_REACTOR
  2
AcDbRasterImageDefReactor
  3
ISM
 90
        1
 91
        5
280
     0
281
     0
  0
CLASS
  1
IDBUFFER
  2
AcDbIdBuffer
  3
ObjectDBX Classes
 90
        0
 91
        5
280
     0
281
     0
  0
CLASS
  1
SPATIAL_FILTER
  2
AcDbSpatialFilter
  3
ObjectDBX Classes
 90
        0
 91
        5
280
     0
281
     0
  0
CLASS
  1
XRECORD
  2
AcDbXrecord
  3
ObjectDBX Classes
 90
        0
 91
        1
280
     0
281
     0
  0
CLASS
  1
SORTENTSTABLE
  2
AcDbSortentsTable
  3
ObjectDBX Classes
 90
        0
 91
        5
280
     0
281
     0
  0
CLASS
  1
LAYER_INDEX
  2
AcDbLayerIndex
  3
ObjectDBX Classes
 90
        0
 91
        5
280
     0
281
     0
  0
CLASS
  1
SPATIAL_INDEX
  2
AcDbSpatialIndex
  3
AutoCAD 2000
 90
        0
 91
        5
280
     0
281
     0
  0
CLASS
  1
OBJECT_PTR
  2
CAseDLPNTableRecord
  3
ASE-LPNTableRecord
 90
        1
 91
        5
280
     0
281
     0
  0
CLASS
  1
LAYOUT
  2
AcDbLayout
  3
ObjectDBX Classes
 90
        0
 91
        1
280
     0
281
     0
  0
CLASS
  1
PLOTSETTINGS
  2
AcDbPlotSettings
  3
ObjectDBX Classes
 90
        0
 91
        5
280
     0
281
     0
  0
CLASS
  1
ACDBDICTIONARYWDFLT
  2
AcDbDictionaryWithDefault
  3
ObjectDBX Classes
 90
        0
 91
        5
280
     0
281
     0
  0
CLASS
  1
ACDBPLACEHOLDER
  2
AcDbPlaceHolder
  3
ObjectDBX Classes
 90
        0
 91
        1
280
     0
281
     0
  0
CLASS
  1
SCALE
  2
AcDbScale
  3
ObjectDBX Classes
 90
     1153
 91
        5
280
     0
281
     0
  0
CLASS
  1
MATERIAL
  2
AcDbMaterial
  3
ObjectDBX Classes
 90
     1153
 91
        5
280
     0
281
     0
  0
CLASS
  1
VISUALSTYLE
  2
AcDbVisualStyle
  3
ObjectDBX Classes
 90
     4095
 91
        5
280
     0
281
     0
  0
CLASS
  1
TABLESTYLE
  2
AcDbTableStyle
  3
ObjectDBX Classes
 90
     4095
 91
        5
280
     0
281
     0
  0
CLASS
  1
DIMASSOC
  2
AcDbDimAssoc
  3
"AcDbDimAssoc|Product Desc:     AcDim ARX App For Dimension|Company:          Autodesk, Inc.|WEB Address:      www.autodesk.com"
 90
        0
 91
        5
280
     0
281
     0
  0
CLASS
  1
CELLSTYLEMAP
  2
AcDbCellStyleMap
  3
ObjectDBX Classes
 90
     1152
 91
        5
280
     0
281
     0
  0
CLASS
  1
SUN
  2
AcDbSun
  3
SCENEOE
 90
     1153
 91
        5
280
     0
281
     0
  0
CLASS
  1
MLEADERSTYLE
  2
AcDbMLeaderStyle
  3
ACDB_MLEADERSTYLE_CLASS
 90
     4095
 91
        5
280
     0
281
     0
  0
CLASS
  1
FIELD
  2
AcDbField
  3
ObjectDBX Classes
 90
     1152
 91
        5
280
     0
281
     0
  0
CLASS
  1
FIELDLIST
  2
AcDbFieldList
  3
ObjectDBX Classes
 90
     1152
 91
        5
280
     0
281
     0
  0
CLASS
  1
MULTILEADER
  2
AcDbMLeader
  3
ACDB_MLEADER_CLASS
 90
     1025
 91
        5
280
     0
281
     1
  0
ENDSEC
  0
SECTION
  2
TABLES
  0
TABLE
  2
VPORT
  5
7
330
0
100
AcDbSymbolTable
 70
     1
  0
VPORT
  5
15
330
7
100
AcDbSymbolTableRecord
100
AcDbViewportTableRecord
  2
*ACTIVE
 70
     0
 10
0.0
 20
0.0
 11
1.0
 21
1.0
 12
1141.020135670904
 22
1411.401285469834
 13
0.0
 23
0.0
 14
1.0
 24
1.0
 15
0.0
 25
0.0
 16
0.0
 26
0.0
 36
1.0
 17
-91.02013567090398
 27
73.59871453016603
 37
-46.86809886248109
 40
3029.4
 41
2.419452887537994
 42
50.0
 43
0.0
 44
0.0
 50
0.0
 51
0.0
 71
    16
 72
  2000
 73
     1
 74
     1
 75
     0
 76
     0
 77
     0
 78
     0
281
     0
 65
     1
110
0.0
120
0.0
130
0.0
111
1.0
121
0.0
131
0.0
112
0.0
122
1.0
132
0.0
 79
     0
146
0.0
348
26C
 60
     3
 61
     5
292
     1
282
     1
141
0.0
142
0.0
 63
   256
361
904
  0
ENDTAB
  0
TABLE
  2
LTYPE
  5
4
330
0
100
AcDbSymbolTable
 70
     3
  0
LTYPE
  5
11
330
4
100
AcDbSymbolTableRecord
100
AcDbLinetypeTableRecord
  2
ByBlock
 70
     0
  3

 72
    65
 73
     0
 40
0.0
  0
LTYPE
  5
12
330
4
100
AcDbSymbolTableRecord
100
AcDbLinetypeTableRecord
  2
ByLayer
 70
     0
  3

 72
    65
 73
     0
 40
0.0
  0
LTYPE
  5
13
330
4
100
AcDbSymbolTableRecord
100
AcDbLinetypeTableRecord
  2
Continuous
 70
     0
  3
Solid line
 72
    65
 73
     0
 40
0.0
  0
LTYPE
  5
DAF
330
4
100
AcDbSymbolTableRecord
100
AcDbLinetypeTableRecord
  2
BORDER
 70
     0
  3
Border __  __  . __  __  . __  __  . __  __  . 
 72
    65
 73
     6
 40
44.45
 49
12.7
 74
     0
 49
-6.35
 74
     0
 49
12.7
 74
     0
 49
-6.35
 74
     0
 49
0.0
 74
     0
 49
-6.35
 74
     0
  0
LTYPE
  5
33DD
330
4
100
AcDbSymbolTableRecord
100
AcDbLinetypeTableRecord
  2
HIDDEN
 70
     0
  3
Hidden _ _ _ _ _ _ _ _ _ _ _ _ _ _ _ _ _ _ _ _ 
 72
    65
 73
     2
 40
9.524999999999999
 49
6.35
 74
     0
 49
-3.175
 74
     0
  0
ENDTAB
  0
TABLE
  2
LAYER
  5
2
102
{ACAD_XDICTIONARY
360
2E1
102
}
330
0
100
AcDbSymbolTable
 70
    12
  0
LAYER
  5
14
330
2
100
AcDbSymbolTableRecord
100
AcDbLayerTableRecord
  2
0
 70
     0
 62
     7
  6
Continuous
370
    -3
390
1D
347
266
  0
LAYER
  5
4B
330
2
100
AcDbSymbolTableRecord
100
AcDbLayerTableRecord
  2
TEMPLATE
 70
     0
 62
     7
  6
Continuous
370
    20
390
1D
347
266
  0
LAYER
  5
4C
330
2
100
AcDbSymbolTableRecord
100
AcDbLayerTableRecord
  2
DIM
 70
     0
 62
     3
  6
Continuous
370
    13
390
1D
347
266
  0
LAYER
  5
4D
330
2
100
AcDbSymbolTableRecord
100
AcDbLayerTableRecord
  2
MODEL
 70
     0
 62
     7
  6
Continuous
370
    20
390
1D
347
266
  0
LAYER
  5
667
330
2
100
AcDbSymbolTableRecord
100
AcDbLayerTableRecord
  2
LOGO
 70
     0
 62
     7
  6
Continuous
370
    -3
390
1D
347
266
  0
LAYER
  5
D5D
330
2
100
AcDbSymbolTableRecord
100
AcDbLayerTableRecord
  2
Defpoints
 70
     0
 62
     7
  6
Continuous
290
     0
370
    -3
390
1D
347
266
  0
LAYER
  5
DAE
330
2
100
AcDbSymbolTableRecord
100
AcDbLayerTableRecord
  2
BORDER
 70
     0
 62
     4
  6
BORDER
290
     0
370
    20
390
1D
347
266
1001
AcAecLayerStandard
1000

1000

  0
LAYER
  5
157B
330
2
100
AcDbSymbolTableRecord
100
AcDbLayerTableRecord
  2
Layer3
 70
     0
 62
     7
  6
Continuous
370
    -3
390
1D
347
266
  0
LAYER
  5
157F
330
2
100
AcDbSymbolTableRecord
100
AcDbLayerTableRecord
  2
Layer9
 70
     0
 62
     7
  6
Continuous
370
    -3
390
1D
347
266
  0
LAYER
  5
1582
330
2
100
AcDbSymbolTableRecord
100
AcDbLayerTableRecord
  2
Standard
 70
     0
 62
     7
  6
Continuous
370
    -3
390
1D
347
266
  0
LAYER
  5
33DC
330
2
100
AcDbSymbolTableRecord
100
AcDbLayerTableRecord
  2
HIDDEN
 70
     0
 62
     8
  6
HIDDEN
370
    20
390
1D
347
266
1001
AcAecLayerStandard
1000

1000

  0
LAYER
  5
3A1B
330
2
100
AcDbSymbolTableRecord
100
AcDbLayerTableRecord
  2
notes
 70
     0
 62
     7
  6
Continuous
370
    -3
390
1D
347
266
  0
ENDTAB
  0
TABLE
  2
STYLE
  5
3
330
0
100
AcDbSymbolTable
 70
     2
  0
STYLE
  5
17
330
3
100
AcDbSymbolTableRecord
100
AcDbTextStyleTableRecord
  2
Standard
 70
     0
 40
0.0
 41
1.0
 50
0.0
 71
     0
 42
2.5
  3
txt
  4
BIGFONT.SHX
  0
STYLE
  5
39
330
3
100
AcDbSymbolTableRecord
100
AcDbTextStyleTableRecord
  2
ＭＳ ゴシック
 70
     0
 40
0.0
 41
1.0
 50
0.0
 71
     0
 42
2.5
  3
msgothic.ttc
  4
ＭＳ ゴシック
1001
ACAD
1000
ＭＳ ゴシック
1071
        0
  0
ENDTAB
  0
TABLE
  2
VIEW
  5
5
330
0
100
AcDbSymbolTable
 70
     0
  0
ENDTAB
  0
TABLE
  2
UCS
  5
6
330
0
100
AcDbSymbolTable
 70
     0
  0
ENDTAB
  0
TABLE
  2
APPID
  5
8
330
0
100
AcDbSymbolTable
 70
     7
  0
APPID
  5
16
330
8
100
AcDbSymbolTableRecord
100
AcDbRegAppTableRecord
  2
ACAD
 70
     0
  0
APPID
  5
7AC
330
8
100
AcDbSymbolTableRecord
100
AcDbRegAppTableRecord
  2
AcAecLayerStandard
 70
     0
  0
APPID
  5
F3A
330
8
100
AcDbSymbolTableRecord
100
AcDbRegAppTableRecord
  2
ACAD_MLEADERVER
 70
     0
  0
APPID
  5
3662
330
8
100
AcDbSymbolTableRecord
100
AcDbRegAppTableRecord
  2
GENIUS_GENODEF_13
 70
     0
  0
APPID
  5
3663
330
8
100
AcDbSymbolTableRecord
100
AcDbRegAppTableRecord
  2
GENIUS_GENOBJ-N-FIL_13
 70
     0
  0
APPID
  5
3664
330
8
100
AcDbSymbolTableRecord
100
AcDbRegAppTableRecord
  2
ACAD_PSEXT
 70
     0
  0
APPID
  5
71EB
330
8
100
AcDbSymbolTableRecord
100
AcDbRegAppTableRecord
  2
ACAD_DSTYLE_DIMRADIAL_EXTENSION
 70
     0
  0
ENDTAB
  0
TABLE
  2
DIMSTYLE
  5
9
330
0
100
AcDbSymbolTable
 70
     2
100
AcDbDimStyleTable
  0
DIMSTYLE
105
18
330
9
100
AcDbSymbolTableRecord
100
AcDbDimStyleTableRecord
  2
Standard
 70
     0
178
     0
340
17
  0
DIMSTYLE
105
57
102
{ACAD_REACTORS
330
7944
330
7953
330
7962
330
7971
330
7983
330
7993
330
79A1
330
79AE
330
79C0
330
79CF
330
7A1E
330
7B1F
330
7B30
330
7B42
330
7BCF
102
}
330
9
100
AcDbSymbolTableRecord
100
AcDbDimStyleTableRecord
  2
tfrom線あり
 70
     0
  3
<>
  4
[]
 41
10.0
 42
30.0
 43
0.9999999999999999
 44
0.0
 73
     0
 74
     0
 77
     1
 78
    11
140
24.0
141
0.0
143
1.0
147
20.0
171
     1
174
     1
178
     0
179
     2
271
     0
272
     1
276
     2
284
    11
285
    11
286
    11
289
     0
340
39
341
4E
342
4E
  0
ENDTAB
  0
TABLE
  2
BLOCK_RECORD
  5
1
330
0
100
AcDbSymbolTable
 70
    49
  0
BLOCK_RECORD
  5
A
102
{ACAD_XDICTIONARY
360
3BA6
102
}
330
1
100
AcDbSymbolTableRecord
100
AcDbBlockTableRecord
  2
*MODEL_SPACE
340
20
 70
     0
280
     1
281
     0
  0
BLOCK_RECORD
  5
B
330
1
100
AcDbSymbolTableRecord
100
AcDbBlockTableRecord
  2
*PAPER_SPACE
340
21
 70
     0
280
     1
281
     0
  0
BLOCK_RECORD
  5
4E
330
1
100
AcDbSymbolTableRecord
100
AcDbBlockTableRecord
  2
_DOT
340
0
102
{BLKREFS
331
75D4
331
75D5
331
75E3
331
75E4
331
7611
331
7612
331
761F
331
7620
331
762F
331
7630
331
763E
331
763F
331
765A
331
765B
331
7669
331
766A
331
7678
331
7679
331
7687
331
7688
331
7696
331
7697
331
7752
331
7753
331
7799
331
779A
331
77B6
331
77B7
331
77D6
331
77D7
331
7818
331
7819
331
793E
331
793F
331
794D
331
794E
331
795C
331
795D
331
796B
331
796C
331
797A
331
797B
331
798A
331
798B
331
799A
331
799B
331
79A8
331
79A9
331
79B7
331
79B8
331
79C9
331
79CA
331
79D6
331
79D7
331
7A14
331
7A15
331
7A29
331
7A2A
331
7A59
331
7A5A
331
7A6D
331
7A6E
331
7AE5
331
7AE6
331
7AF1
331
7AF2
331
7B2A
331
0
331
7B3A
331
7B39
331
7B4A
331
7B49
331
7B59
331
7B58
331
0
331
0
331
7BB8
331
7BC6
331
7BC5
331
0
331
7BD9
102
}
 70
     0
280
     1
281
     0
  0
BLOCK_RECORD
  5
68A
330
1
100
AcDbSymbolTableRecord
100
AcDbBlockTableRecord
  2
名称未設定-1
340
0
102
{BLKREFS
331
6B5
102
}
 70
     1
280
     1
281
     0
  0
BLOCK_RECORD
  5
68D
330
1
100
AcDbSymbolTableRecord
100
AcDbBlockTableRecord
  2
block 2
340
0
102
{BLKREFS
331
68C
102
}
 70
     0
280
     1
281
     0
  0
BLOCK_RECORD
  5
690
330
1
100
AcDbSymbolTableRecord
100
AcDbBlockTableRecord
  2
block 3
340
0
102
{BLKREFS
331
68F
102
}
 70
     0
280
     1
281
     0
  0
BLOCK_RECORD
  5
693
330
1
100
AcDbSymbolTableRecord
100
AcDbBlockTableRecord
  2
block 4
340
0
102
{BLKREFS
331
692
102
}
 70
     0
280
     1
281
     0
  0
BLOCK_RECORD
  5
6A2
330
1
100
AcDbSymbolTableRecord
100
AcDbBlockTableRecord
  2
block 5
340
0
102
{BLKREFS
331
6A1
102
}
 70
     0
280
     1
281
     0
  0
BLOCK_RECORD
  5
199A
330
1
100
AcDbSymbolTableRecord
100
AcDbBlockTableRecord
  2
SEANNOT_GROUP
340
0
102
{BLKREFS
331
28CA
102
}
 70
     0
280
     1
281
     0
  0
BLOCK_RECORD
  5
1F2F
330
1
100
AcDbSymbolTableRecord
100
AcDbBlockTableRecord
  2
SEANNOT_GROUP1
340
0
102
{BLKREFS
331
2B9B
102
}
 70
     0
280
     1
281
     0
  0
BLOCK_RECORD
  5
75CE
330
1
100
AcDbSymbolTableRecord
100
AcDbBlockTableRecord
  2
*D8
340
0
 70
     0
280
     1
281
     0
  0
BLOCK_RECORD
  5
75DD
330
1
100
AcDbSymbolTableRecord
100
AcDbBlockTableRecord
  2
*D9
340
0
 70
     0
280
     1
281
     0
  0
BLOCK_RECORD
  5
760B
330
1
100
AcDbSymbolTableRecord
100
AcDbBlockTableRecord
  2
*D10
340
0
 70
     0
280
     1
281
     0
  0
BLOCK_RECORD
  5
7619
330
1
100
AcDbSymbolTableRecord
100
AcDbBlockTableRecord
  2
*D11
340
0
 70
     0
280
     1
281
     0
  0
BLOCK_RECORD
  5
7629
330
1
100
AcDbSymbolTableRecord
100
AcDbBlockTableRecord
  2
*D12
340
0
 70
     0
280
     1
281
     0
  0
BLOCK_RECORD
  5
7638
330
1
100
AcDbSymbolTableRecord
100
AcDbBlockTableRecord
  2
*D13
340
0
 70
     0
280
     1
281
     0
  0
BLOCK_RECORD
  5
7654
330
1
100
AcDbSymbolTableRecord
100
AcDbBlockTableRecord
  2
*D14
340
0
 70
     0
280
     1
281
     0
  0
BLOCK_RECORD
  5
7663
330
1
100
AcDbSymbolTableRecord
100
AcDbBlockTableRecord
  2
*D15
340
0
 70
     0
280
     1
281
     0
  0
BLOCK_RECORD
  5
7672
330
1
100
AcDbSymbolTableRecord
100
AcDbBlockTableRecord
  2
*D16
340
0
 70
     0
280
     1
281
     0
  0
BLOCK_RECORD
  5
7681
330
1
100
AcDbSymbolTableRecord
100
AcDbBlockTableRecord
  2
*D17
340
0
 70
     0
280
     1
281
     0
  0
BLOCK_RECORD
  5
7690
330
1
100
AcDbSymbolTableRecord
100
AcDbBlockTableRecord
  2
*D18
340
0
 70
     0
280
     1
281
     0
  0
BLOCK_RECORD
  5
774A
330
1
100
AcDbSymbolTableRecord
100
AcDbBlockTableRecord
  2
*D19
340
0
 70
     0
280
     1
281
     0
  0
BLOCK_RECORD
  5
7793
330
1
100
AcDbSymbolTableRecord
100
AcDbBlockTableRecord
  2
*D20
340
0
 70
     0
280
     1
281
     0
  0
BLOCK_RECORD
  5
77B0
330
1
100
AcDbSymbolTableRecord
100
AcDbBlockTableRecord
  2
*D21
340
0
 70
     0
280
     1
281
     0
  0
BLOCK_RECORD
  5
77D0
330
1
100
AcDbSymbolTableRecord
100
AcDbBlockTableRecord
  2
*D22
340
0
 70
     0
280
     1
281
     0
  0
BLOCK_RECORD
  5
7812
330
1
100
AcDbSymbolTableRecord
100
AcDbBlockTableRecord
  2
*D23
340
0
 70
     0
280
     1
281
     0
  0
BLOCK_RECORD
  5
7937
330
1
100
AcDbSymbolTableRecord
100
AcDbBlockTableRecord
  2
*D24
340
0
 70
     0
280
     1
281
     0
  0
BLOCK_RECORD
  5
7947
330
1
100
AcDbSymbolTableRecord
100
AcDbBlockTableRecord
  2
*D25
340
0
 70
     0
280
     1
281
     0
  0
BLOCK_RECORD
  5
7956
330
1
100
AcDbSymbolTableRecord
100
AcDbBlockTableRecord
  2
*D26
340
0
 70
     0
280
     1
281
     0
  0
BLOCK_RECORD
  5
7965
330
1
100
AcDbSymbolTableRecord
100
AcDbBlockTableRecord
  2
*D27
340
0
 70
     0
280
     1
281
     0
  0
BLOCK_RECORD
  5
7974
330
1
100
AcDbSymbolTableRecord
100
AcDbBlockTableRecord
  2
*D28
340
0
 70
     0
280
     1
281
     0
  0
BLOCK_RECORD
  5
7984
330
1
100
AcDbSymbolTableRecord
100
AcDbBlockTableRecord
  2
*D29
340
0
 70
     0
280
     1
281
     0
  0
BLOCK_RECORD
  5
7994
330
1
100
AcDbSymbolTableRecord
100
AcDbBlockTableRecord
  2
*D30
340
0
 70
     0
280
     1
281
     0
  0
BLOCK_RECORD
  5
79A2
330
1
100
AcDbSymbolTableRecord
100
AcDbBlockTableRecord
  2
*D31
340
0
 70
     0
280
     1
281
     0
  0
BLOCK_RECORD
  5
79B1
330
1
100
AcDbSymbolTableRecord
100
AcDbBlockTableRecord
  2
*D32
340
0
 70
     0
280
     1
281
     0
  0
BLOCK_RECORD
  5
79C3
330
1
100
AcDbSymbolTableRecord
100
AcDbBlockTableRecord
  2
*D33
340
0
 70
     0
280
     1
281
     0
  0
BLOCK_RECORD
  5
79D0
330
1
100
AcDbSymbolTableRecord
100
AcDbBlockTableRecord
  2
*D34
340
0
 70
     0
280
     1
281
     0
  0
BLOCK_RECORD
  5
7A0D
330
1
100
AcDbSymbolTableRecord
100
AcDbBlockTableRecord
  2
*D35
340
0
 70
     0
280
     1
281
     0
  0
BLOCK_RECORD
  5
7A21
330
1
100
AcDbSymbolTableRecord
100
AcDbBlockTableRecord
  2
*D36
340
0
 70
     0
280
     1
281
     0
  0
BLOCK_RECORD
  5
7A53
330
1
100
AcDbSymbolTableRecord
100
AcDbBlockTableRecord
  2
*D37
340
0
 70
     0
280
     1
281
     0
  0
BLOCK_RECORD
  5
7A67
330
1
100
AcDbSymbolTableRecord
100
AcDbBlockTableRecord
  2
*D38
340
0
 70
     0
280
     1
281
     0
  0
BLOCK_RECORD
  5
7ADF
330
1
100
AcDbSymbolTableRecord
100
AcDbBlockTableRecord
  2
*D39
340
0
 70
     0
280
     1
281
     0
  0
BLOCK_RECORD
  5
7AEB
330
1
100
AcDbSymbolTableRecord
100
AcDbBlockTableRecord
  2
*D40
340
0
 70
     0
280
     1
281
     0
  0
BLOCK_RECORD
  5
7B22
330
1
100
AcDbSymbolTableRecord
100
AcDbBlockTableRecord
  2
*D41
340
0
 70
     0
280
     1
281
     0
  0
BLOCK_RECORD
  5
7B33
330
1
100
AcDbSymbolTableRecord
100
AcDbBlockTableRecord
  2
*D42
340
0
 70
     0
280
     1
281
     0
  0
BLOCK_RECORD
  5
7B43
330
1
100
AcDbSymbolTableRecord
100
AcDbBlockTableRecord
  2
*D43
340
0
 70
     0
280
     1
281
     0
  0
BLOCK_RECORD
  5
7B52
330
1
100
AcDbSymbolTableRecord
100
AcDbBlockTableRecord
  2
*D44
340
0
 70
     0
280
     1
281
     0
  0
BLOCK_RECORD
  5
7BB1
330
1
100
AcDbSymbolTableRecord
100
AcDbBlockTableRecord
  2
*D46
340
0
 70
     0
280
     1
281
     0
  0
BLOCK_RECORD
  5
7BBF
330
1
100
AcDbSymbolTableRecord
100
AcDbBlockTableRecord
  2
*D47
340
0
 70
     0
280
     1
281
     0
  0
BLOCK_RECORD
  5
7BD2
330
1
100
AcDbSymbolTableRecord
100
AcDbBlockTableRecord
  2
*D48
340
0
 70
     0
280
     1
281
     0
  0
ENDTAB
  0
ENDSEC
  0
SECTION
  2
BLOCKS
  0
BLOCK
  5
D
330
A
100
AcDbEntity
  8
0
390
1D
100
AcDbBlockBegin
  2
*MODEL_SPACE
 70
     0
 10
0.0
 20
0.0
 30
0.0
  3
*MODEL_SPACE
  1
*MODEL_SPACE
  0
ENDBLK
  5
E
330
A
100
AcDbEntity
  8
0
390
1D
100
AcDbBlockEnd
  0
BLOCK
  5
F
330
B
100
AcDbEntity
 67
     1
  8
0
390
1D
100
AcDbBlockBegin
  2
*PAPER_SPACE
 70
     0
 10
0.0
 20
0.0
 30
0.0
  3
*PAPER_SPACE
  1
*PAPER_SPACE
  0
ENDBLK
  5
10
330
B
100
AcDbEntity
 67
     1
  8
0
390
1D
100
AcDbBlockEnd
  0
BLOCK
  5
EC4
330
4E
100
AcDbEntity
  8
0
390
1D
100
AcDbBlockBegin
  2
_DOT
 70
     0
 10
0.0
 20
0.0
 30
0.0
  3
_DOT
  1
_DOT
  0
POLYLINE
  5
EC6
330
4E
100
AcDbEntity
  8
0
  6
ByBlock
 62
     0
370
    -2
390
1D
100
AcDb2dPolyline
 66
     1
 10
0.0
 20
0.0
 30
0.0
 70
     1
 40
0.5
 41
0.5
  0
VERTEX
  5
EC7
330
EC6
100
AcDbEntity
  8
0
  6
ByBlock
 62
     0
370
    -2
390
1D
100
AcDbVertex
100
AcDb2dVertex
 10
-0.25
 20
0.0
 30
0.0
 42
1.0
  0
VERTEX
  5
EC8
330
EC6
100
AcDbEntity
  8
0
  6
ByBlock
 62
     0
370
    -2
390
1D
100
AcDbVertex
100
AcDb2dVertex
 10
0.25
 20
0.0
 30
0.0
 42
1.0
  0
SEQEND
  5
EC9
330
EC6
100
AcDbEntity
  8
0
390
1D
  0
LINE
  5
ECA
330
4E
100
AcDbEntity
  8
0
  6
ByBlock
 62
     0
370
    -2
390
1D
100
AcDbLine
 10
-0.5
 20
0.0
 30
0.0
 11
-1.0
 21
0.0
 31
0.0
  0
ENDBLK
  5
ECB
330
4E
100
AcDbEntity
  8
0
390
1D
100
AcDbBlockEnd
  0
BLOCK
  5
68B
330
68A
100
AcDbEntity
  8
0
100
AcDbBlockBegin
  2
名称未設定-1
 70
     0
 10
0.0
 20
0.0
 30
0.0
  3
名称未設定-1
  1
名称未設定-1
  0
INSERT
  5
68F
330
68A
100
AcDbEntity
  8
LOGO
100
AcDbBlockReference
  2
block 3
 10
0.0
 20
0.0
 30
0.0
  0
ENDBLK
  5
6B1
330
68A
100
AcDbEntity
  8
0
100
AcDbBlockEnd
  0
BLOCK
  5
68E
330
68D
100
AcDbEntity
  8
0
100
AcDbBlockBegin
  2
block 2
 70
     0
 10
0.0
 20
0.0
 30
0.0
  3
block 2
  1
block 2
  0
ENDBLK
  5
6B0
330
68D
100
AcDbEntity
  8
0
100
AcDbBlockEnd
  0
BLOCK
  5
691
330
690
100
AcDbEntity
  8
0
100
AcDbBlockBegin
  2
block 3
 70
     0
 10
0.0
 20
0.0
 30
0.0
  3
block 3
  1
block 3
  0
INSERT
  5
692
330
690
100
AcDbEntity
  8
LOGO
100
AcDbBlockReference
  2
block 4
 10
0.0
 20
0.0
 30
0.0
  0
INSERT
  5
6A1
330
690
100
AcDbEntity
  8
LOGO
100
AcDbBlockReference
  2
block 5
 10
0.0
 20
0.0
 30
0.0
  0
ENDBLK
  5
6AF
330
690
100
AcDbEntity
  8
0
100
AcDbBlockEnd
  0
BLOCK
  5
694
330
693
100
AcDbEntity
  8
0
100
AcDbBlockBegin
  2
block 4
 70
     0
 10
0.0
 20
0.0
 30
0.0
  3
block 4
  1
block 4
  0
POLYLINE
  5
695
330
693
100
AcDbEntity
  8
LOGO
370
     0
100
AcDb2dPolyline
 66
     1
 10
0.0
 20
0.0
 30
0.0
  0
VERTEX
  5
696
330
695
100
AcDbEntity
  8
LOGO
370
     0
100
AcDbVertex
100
AcDb2dVertex
 10
83.79545727667795
 20
167.6444858234922
 30
0.0
  0
VERTEX
  5
697
330
695
100
AcDbEntity
  8
LOGO
370
     0
100
AcDbVertex
100
AcDb2dVertex
 10
83.79545727667795
 20
159.7968976406313
 30
0.0
  0
VERTEX
  5
698
330
695
100
AcDbEntity
  8
LOGO
370
     0
100
AcDbVertex
100
AcDb2dVertex
 10
71.3631329975216
 20
159.7968976406313
 30
0.0
  0
VERTEX
  5
699
330
695
100
AcDbEntity
  8
LOGO
370
     0
100
AcDbVertex
100
AcDb2dVertex
 10
71.3631329975216
 20
127.8027915271048
 30
0.0
  0
VERTEX
  5
69A
330
695
100
AcDbEntity
  8
LOGO
370
     0
100
AcDbVertex
100
AcDb2dVertex
 10
60.43011526263018
 20
127.8027915271048
 30
0.0
  0
VERTEX
  5
69B
330
695
100
AcDbEntity
  8
LOGO
370
     0
100
AcDbVertex
100
AcDb2dVertex
 10
60.43011526263018
 20
159.7968976406313
 30
0.0
  0
VERTEX
  5
69C
330
695
100
AcDbEntity
  8
LOGO
370
     0
100
AcDbVertex
100
AcDb2dVertex
 10
48.21793273020759
 20
159.7968976406313
 30
0.0
  0
VERTEX
  5
69D
330
695
100
AcDbEntity
  8
LOGO
370
     0
100
AcDbVertex
100
AcDb2dVertex
 10
48.21793273020759
 20
167.6444858234922
 30
0.0
  0
VERTEX
  5
69E
330
695
100
AcDbEntity
  8
LOGO
370
     0
100
AcDbVertex
100
AcDb2dVertex
 10
83.79545727667795
 20
167.6444858234922
 30
0.0
  0
SEQEND
  5
69F
330
695
100
AcDbEntity
  8
LOGO
370
     0
  0
HATCH
  5
6A0
330
693
100
AcDbEntity
  8
LOGO
 62
   250
420
  2234388
100
AcDbHatch
 10
0.0
 20
0.0
 30
0.0
210
0.0
220
0.0
230
1.0
  2
SOLID
 70
     1
 71
     0
 91
        1
 92
        1
 93
        8
 72
     1
 10
83.79545727667795
 20
167.6444858234922
 11
83.79545727667795
 21
159.7968976406313
 72
     1
 10
83.79545727667795
 20
159.7968976406313
 11
71.3631329975216
 21
159.7968976406313
 72
     1
 10
71.3631329975216
 20
159.7968976406313
 11
71.3631329975216
 21
127.8027915271048
 72
     1
 10
71.3631329975216
 20
127.8027915271048
 11
60.43011526263018
 21
127.8027915271048
 72
     1
 10
60.43011526263018
 20
127.8027915271048
 11
60.43011526263018
 21
159.7968976406313
 72
     1
 10
60.43011526263018
 20
159.7968976406313
 11
48.21793273020759
 21
159.7968976406313
 72
     1
 10
48.21793273020759
 20
159.7968976406313
 11
48.21793273020759
 21
167.6444858234922
 72
     1
 10
48.21793273020759
 20
167.6444858234922
 11
83.79545727667795
 21
167.6444858234922
 97
        0
 75
     2
 76
     1
 98
        0
  0
ENDBLK
  5
6AE
330
693
100
AcDbEntity
  8
0
100
AcDbBlockEnd
  0
BLOCK
  5
6A3
330
6A2
100
AcDbEntity
  8
0
100
AcDbBlockBegin
  2
block 5
 70
     0
 10
0.0
 20
0.0
 30
0.0
  3
block 5
  1
block 5
  0
SPLINE
  5
6A4
330
6A2
100
AcDbEntity
  8
LOGO
370
     0
100
AcDbSpline
210
0.0
220
0.0
230
1.0
 70
    11
 71
     3
 72
    56
 73
    52
 74
     0
 42
0.000000001
 43
0.0000000001
 40
0.0
 40
0.0
 40
0.0
 40
0.0
 40
1.0
 40
1.0
 40
1.0
 40
2.0
 40
2.0
 40
2.0
 40
3.0
 40
3.0
 40
3.0
 40
4.0
 40
4.0
 40
4.0
 40
5.0
 40
5.0
 40
5.0
 40
6.0
 40
6.0
 40
6.0
 40
7.0
 40
7.0
 40
7.0
 40
8.0
 40
8.0
 40
8.0
 40
9.0
 40
9.0
 40
9.0
 40
10.0
 40
10.0
 40
10.0
 40
11.0
 40
11.0
 40
11.0
 40
12.0
 40
12.0
 40
12.0
 40
13.0
 40
13.0
 40
13.0
 40
14.0
 40
14.0
 40
14.0
 40
15.0
 40
15.0
 40
15.0
 40
16.0
 40
16.0
 40
16.0
 40
17.0
 40
17.0
 40
17.0
 40
17.0
 10
100.4504378777679
 20
166.69157178364
 30
0.0
 10
101.9848844191641
 20
167.1313385124438
 30
0.0
 10
103.9637485713373
 20
166.7649523658846
 30
0.0
 10
103.9637485713373
 20
166.7649523658846
 30
0.0
 10
103.9637485713373
 20
166.7649523658846
 30
0.0
 10
103.0132460999156
 20
163.911205638077
 30
0.0
 10
103.0132460999156
 20
163.911205638077
 30
0.0
 10
103.0132460999156
 20
163.911205638077
 30
0.0
 10
101.0674548862189
 20
164.3601018759394
 30
0.0
 10
99.57090442016032
 20
163.1805004036133
 30
0.0
 10
98.40508333886608
 20
162.258247733807
 30
0.0
 10
97.65301849830304
 20
159.804132345923
 30
0.0
 10
97.3598406791005
 20
158.8699940888517
 30
0.0
 10
97.3598406791005
 20
158.8699940888517
 30
0.0
 10
96.07137411762282
 20
154.9119212747295
 30
0.0
 10
96.07137411762282
 20
154.9119212747295
 30
0.0
 10
96.07137411762282
 20
154.9119212747295
 30
0.0
 10
100.3012651448482
 20
154.9119212747295
 30
0.0
 10
100.3012651448482
 20
154.9119212747295
 30
0.0
 10
100.3012651448482
 20
154.9119212747295
 30
0.0
 10
99.64152892419852
 20
152.4199098115079
 30
0.0
 10
99.64152892419852
 20
152.4199098115079
 30
0.0
 10
99.64152892419852
 20
152.4199098115079
 30
0.0
 10
95.38097652692731
 20
152.4199098115079
 30
0.0
 10
95.38097652692731
 20
152.4199098115079
 30
0.0
 10
95.38097652692731
 20
152.4199098115079
 30
0.0
 10
87.75353009080013
 20
127.8027915271048
 30
0.0
 10
87.75353009080013
 20
127.8027915271048
 30
0.0
 10
87.75353009080013
 20
127.8027915271048
 30
0.0
 10
85.36538832498108
 20
127.8027915271048
 30
0.0
 10
85.36538832498108
 20
127.8027915271048
 30
0.0
 10
85.36538832498108
 20
127.8027915271048
 30
0.0
 10
93.00006946639998
 20
152.4199098115079
 30
0.0
 10
93.00006946639998
 20
152.4199098115079
 30
0.0
 10
93.00006946639998
 20
152.4199098115079
 30
0.0
 10
89.85297266450198
 20
152.4199098115079
 30
0.0
 10
89.85297266450198
 20
152.4199098115079
 30
0.0
 10
89.85297266450198
 20
152.4199098115079
 30
0.0
 10
90.51270888515164
 20
154.9119212747295
 30
0.0
 10
90.51270888515164
 20
154.9119212747295
 30
0.0
 10
90.51270888515164
 20
154.9119212747295
 30
0.0
 10
93.6904670570955
 20
154.9119212747295
 30
0.0
 10
93.6904670570955
 20
154.9119212747295
 30
0.0
 10
93.6904670570955
 20
154.9119212747295
 30
0.0
 10
94.81598049462158
 20
158.3616699146644
 30
0.0
 10
94.81598049462158
 20
158.3616699146644
 30
0.0
 10
95.7237637538445
 20
161.2605474231013
 30
0.0
 10
96.4968436907311
 20
162.8139420021662
 30
0.0
 10
97.15657991138076
 20
163.9844139654337
 30
0.0
 10
97.81183750494507
 20
165.1523021053827
 30
0.0
 10
99.1047826935081
 20
166.3084769129547
 30
0.0
 10
100.4504378777679
 20
166.69157178364
 30
0.0
  0
HATCH
  5
6A5
330
6A2
100
AcDbEntity
  8
LOGO
 62
   250
420
  2234388
100
AcDbHatch
 10
0.0
 20
0.0
 30
0.0
210
0.0
220
0.0
230
1.0
  2
SOLID
 70
     1
 71
     0
 91
        1
 92
        1
 93
        1
 72
     4
 94
        3
 73
     0
 74
     1
 95
       56
 96
       52
 40
0.0
 40
0.0
 40
0.0
 40
0.0
 40
1.0
 40
1.0
 40
1.0
 40
2.0
 40
2.0
 40
2.0
 40
3.0
 40
3.0
 40
3.0
 40
4.0
 40
4.0
 40
4.0
 40
5.0
 40
5.0
 40
5.0
 40
6.0
 40
6.0
 40
6.0
 40
7.0
 40
7.0
 40
7.0
 40
8.0
 40
8.0
 40
8.0
 40
9.0
 40
9.0
 40
9.0
 40
10.0
 40
10.0
 40
10.0
 40
11.0
 40
11.0
 40
11.0
 40
12.0
 40
12.0
 40
12.0
 40
13.0
 40
13.0
 40
13.0
 40
14.0
 40
14.0
 40
14.0
 40
15.0
 40
15.0
 40
15.0
 40
16.0
 40
16.0
 40
16.0
 40
17.0
 40
17.0
 40
17.0
 40
17.0
 10
100.4504378777679
 20
166.69157178364
 10
101.9848844191641
 20
167.1313385124438
 10
103.9637485713373
 20
166.7649523658846
 10
103.9637485713373
 20
166.7649523658846
 10
103.9637485713373
 20
166.7649523658846
 10
103.0132460999156
 20
163.911205638077
 10
103.0132460999156
 20
163.911205638077
 10
103.0132460999156
 20
163.911205638077
 10
101.0674548862189
 20
164.3601018759394
 10
99.57090442016032
 20
163.1805004036133
 10
98.40508333886608
 20
162.258247733807
 10
97.65301849830304
 20
159.804132345923
 10
97.3598406791005
 20
158.8699940888517
 10
97.3598406791005
 20
158.8699940888517
 10
96.07137411762282
 20
154.9119212747295
 10
96.07137411762282
 20
154.9119212747295
 10
96.07137411762282
 20
154.9119212747295
 10
100.3012651448482
 20
154.9119212747295
 10
100.3012651448482
 20
154.9119212747295
 10
100.3012651448482
 20
154.9119212747295
 10
99.64152892419852
 20
152.4199098115079
 10
99.64152892419852
 20
152.4199098115079
 10
99.64152892419852
 20
152.4199098115079
 10
95.38097652692731
 20
152.4199098115079
 10
95.38097652692731
 20
152.4199098115079
 10
95.38097652692731
 20
152.4199098115079
 10
87.75353009080013
 20
127.8027915271048
 10
87.75353009080013
 20
127.8027915271048
 10
87.75353009080013
 20
127.8027915271048
 10
85.36538832498108
 20
127.8027915271048
 10
85.36538832498108
 20
127.8027915271048
 10
85.36538832498108
 20
127.8027915271048
 10
93.00006946639998
 20
152.4199098115079
 10
93.00006946639998
 20
152.4199098115079
 10
93.00006946639998
 20
152.4199098115079
 10
89.85297266450198
 20
152.4199098115079
 10
89.85297266450198
 20
152.4199098115079
 10
89.85297266450198
 20
152.4199098115079
 10
90.51270888515164
 20
154.9119212747295
 10
90.51270888515164
 20
154.9119212747295
 10
90.51270888515164
 20
154.9119212747295
 10
93.6904670570955
 20
154.9119212747295
 10
93.6904670570955
 20
154.9119212747295
 10
93.6904670570955
 20
154.9119212747295
 10
94.81598049462158
 20
158.3616699146644
 10
94.81598049462158
 20
158.3616699146644
 10
95.7237637538445
 20
161.2605474231013
 10
96.4968436907311
 20
162.8139420021662
 10
97.15657991138076
 20
163.9844139654337
 10
97.81183750494507
 20
165.1523021053827
 10
99.1047826935081
 20
166.3084769129547
 10
100.4504378777679
 20
166.69157178364
 97
        0
 75
     2
 76
     1
 98
        0
  0
SPLINE
  5
6A6
330
6A2
100
AcDbEntity
  8
LOGO
370
     0
100
AcDbSpline
210
0.0
220
0.0
230
1.0
 70
    11
 71
     3
 72
    38
 73
    34
 74
     0
 42
0.000000001
 43
0.0000000001
 40
0.0
 40
0.0
 40
0.0
 40
0.0
 40
1.0
 40
1.0
 40
1.0
 40
2.0
 40
2.0
 40
2.0
 40
3.0
 40
3.0
 40
3.0
 40
4.0
 40
4.0
 40
4.0
 40
5.0
 40
5.0
 40
5.0
 40
6.0
 40
6.0
 40
6.0
 40
7.0
 40
7.0
 40
7.0
 40
8.0
 40
8.0
 40
8.0
 40
9.0
 40
9.0
 40
9.0
 40
10.0
 40
10.0
 40
10.0
 40
11.0
 40
11.0
 40
11.0
 40
11.0
 10
126.377554584636
 20
154.8151140277308
 30
0.0
 10
126.377554584636
 20
154.8151140277308
 30
0.0
 10
128.8311532078563
 20
154.8151140277308
 30
0.0
 10
128.8311532078563
 20
154.8151140277308
 30
0.0
 10
128.8311532078563
 20
154.8151140277308
 30
0.0
 10
127.7345785914971
 20
151.3062819612468
 30
0.0
 10
127.7345785914971
 20
151.3062819612468
 30
0.0
 10
128.571392836906
 20
152.2922689395754
 30
0.0
 10
129.8860421413442
 20
153.604506675583
 30
0.0
 10
131.0163787157314
 20
154.2664822097754
 30
0.0
 10
132.7044766171327
 20
155.2500576196734
 30
0.0
 10
133.6642808525008
 20
155.3847609420097
 30
0.0
 10
134.7284715499351
 20
155.3565111403944
 30
0.0
 10
134.7284715499351
 20
155.3565111403944
 30
0.0
 10
133.6877075172549
 20
152.0345756272799
 30
0.0
 10
133.6877075172549
 20
152.0345756272799
 30
0.0
 10
133.011434827367
 20
152.3184516825359
 30
0.0
 10
130.930940291334
 20
151.7768823149844
 30
0.0
 10
129.739280976855
 20
150.9162968950455
 30
0.0
 10
128.66613302525
 20
150.1454562717016
 30
0.0
 10
127.9192358313239
 20
149.4857200510519
 30
0.0
 10
127.0393578639405
 20
147.8282835196966
 30
0.0
 10
126.164647543194
 20
146.1699857139017
 30
0.0
 10
125.4742499524985
 20
143.5262176944419
 30
0.0
 10
124.2822461282437
 20
139.6959580071401
 30
0.0
 10
124.2822461282437
 20
139.6959580071401
 30
0.0
 10
120.5753209406769
 20
127.8027915271048
 30
0.0
 10
120.5753209406769
 20
127.8027915271048
 30
0.0
 10
120.5753209406769
 20
127.8027915271048
 30
0.0
 10
118.1964809388044
 20
127.8027915271048
 30
0.0
 10
118.1964809388044
 20
127.8027915271048
 30
0.0
 10
118.1964809388044
 20
127.8027915271048
 30
0.0
 10
126.377554584636
 20
154.8151140277308
 30
0.0
 10
126.377554584636
 20
154.8151140277308
 30
0.0
  0
HATCH
  5
6A7
330
6A2
100
AcDbEntity
  8
LOGO
 62
   250
420
  2234388
100
AcDbHatch
 10
0.0
 20
0.0
 30
0.0
210
0.0
220
0.0
230
1.0
  2
SOLID
 70
     1
 71
     0
 91
        1
 92
        1
 93
        1
 72
     4
 94
        3
 73
     0
 74
     1
 95
       38
 96
       34
 40
0.0
 40
0.0
 40
0.0
 40
0.0
 40
1.0
 40
1.0
 40
1.0
 40
2.0
 40
2.0
 40
2.0
 40
3.0
 40
3.0
 40
3.0
 40
4.0
 40
4.0
 40
4.0
 40
5.0
 40
5.0
 40
5.0
 40
6.0
 40
6.0
 40
6.0
 40
7.0
 40
7.0
 40
7.0
 40
8.0
 40
8.0
 40
8.0
 40
9.0
 40
9.0
 40
9.0
 40
10.0
 40
10.0
 40
10.0
 40
11.0
 40
11.0
 40
11.0
 40
11.0
 10
126.377554584636
 20
154.8151140277308
 10
126.377554584636
 20
154.8151140277308
 10
128.8311532078563
 20
154.8151140277308
 10
128.8311532078563
 20
154.8151140277308
 10
128.8311532078563
 20
154.8151140277308
 10
127.7345785914971
 20
151.3062819612468
 10
127.7345785914971
 20
151.3062819612468
 10
128.571392836906
 20
152.2922689395754
 10
129.8860421413442
 20
153.604506675583
 10
131.0163787157314
 20
154.2664822097754
 10
132.7044766171327
 20
155.2500576196734
 10
133.6642808525008
 20
155.3847609420097
 10
134.7284715499351
 20
155.3565111403944
 10
134.7284715499351
 20
155.3565111403944
 10
133.6877075172549
 20
152.0345756272799
 10
133.6877075172549
 20
152.0345756272799
 10
133.011434827367
 20
152.3184516825359
 10
130.930940291334
 20
151.7768823149844
 10
129.739280976855
 20
150.9162968950455
 10
128.66613302525
 20
150.1454562717016
 10
127.9192358313239
 20
149.4857200510519
 10
127.0393578639405
 20
147.8282835196966
 10
126.164647543194
 20
146.1699857139017
 10
125.4742499524985
 20
143.5262176944419
 10
124.2822461282437
 20
139.6959580071401
 10
124.2822461282437
 20
139.6959580071401
 10
120.5753209406769
 20
127.8027915271048
 10
120.5753209406769
 20
127.8027915271048
 10
120.5753209406769
 20
127.8027915271048
 10
118.1964809388044
 20
127.8027915271048
 10
118.1964809388044
 20
127.8027915271048
 10
118.1964809388044
 20
127.8027915271048
 10
126.377554584636
 20
154.8151140277308
 10
126.377554584636
 20
154.8151140277308
 97
        0
 75
     2
 76
     1
 98
        0
  0
SPLINE
  5
6A8
330
6A2
100
AcDbEntity
  8
LOGO
370
     0
100
AcDbSpline
210
0.0
220
0.0
230
1.0
 70
    11
 71
     3
 72
   104
 73
   100
 74
     0
 42
0.000000001
 43
0.0000000001
 40
0.0
 40
0.0
 40
0.0
 40
0.0
 40
1.0
 40
1.0
 40
1.0
 40
2.0
 40
2.0
 40
2.0
 40
3.0
 40
3.0
 40
3.0
 40
4.0
 40
4.0
 40
4.0
 40
5.0
 40
5.0
 40
5.0
 40
6.0
 40
6.0
 40
6.0
 40
7.0
 40
7.0
 40
7.0
 40
8.0
 40
8.0
 40
8.0
 40
9.0
 40
9.0
 40
9.0
 40
10.0
 40
10.0
 40
10.0
 40
11.0
 40
11.0
 40
11.0
 40
12.0
 40
12.0
 40
12.0
 40
13.0
 40
13.0
 40
13.0
 40
14.0
 40
14.0
 40
14.0
 40
15.0
 40
15.0
 40
15.0
 40
16.0
 40
16.0
 40
16.0
 40
17.0
 40
17.0
 40
17.0
 40
18.0
 40
18.0
 40
18.0
 40
19.0
 40
19.0
 40
19.0
 40
20.0
 40
20.0
 40
20.0
 40
21.0
 40
21.0
 40
21.0
 40
22.0
 40
22.0
 40
22.0
 40
23.0
 40
23.0
 40
23.0
 40
24.0
 40
24.0
 40
24.0
 40
25.0
 40
25.0
 40
25.0
 40
26.0
 40
26.0
 40
26.0
 40
27.0
 40
27.0
 40
27.0
 40
28.0
 40
28.0
 40
28.0
 40
29.0
 40
29.0
 40
29.0
 40
30.0
 40
30.0
 40
30.0
 40
31.0
 40
31.0
 40
31.0
 40
32.0
 40
32.0
 40
32.0
 40
33.0
 40
33.0
 40
33.0
 40
33.0
 10
139.8926730891197
 20
154.8294111834263
 30
0.0
 10
139.8926730891197
 20
154.8294111834263
 30
0.0
 10
142.0344903652445
 20
154.8294111834263
 30
0.0
 10
142.0344903652445
 20
154.8294111834263
 30
0.0
 10
142.0344903652445
 20
154.8294111834263
 30
0.0
 10
140.9516961399171
 20
151.3157559800812
 30
0.0
 10
140.9516961399171
 20
151.3157559800812
 30
0.0
 10
141.8928968473923
 20
152.7887075264977
 30
0.0
 10
142.7341897198865
 20
153.4484437471474
 30
0.0
 10
143.8552245303272
 20
154.2926649527359
 30
0.0
 10
144.9803934580775
 20
155.1296514530327
 30
0.0
 10
146.3139908001845
 20
155.3044901642492
 30
0.0
 10
147.241066606852
 20
155.3044901642492
 30
0.0
 10
148.3855280820469
 20
155.3044901642492
 30
0.0
 10
149.4969166187653
 20
155.0752189084569
 30
0.0
 10
150.0784491203092
 20
153.8172414621372
 30
0.0
 10
150.5228667310863
 20
152.833838307127
 30
0.0
 10
150.5414702589793
 20
152.7201500811143
 30
0.0
 10
150.4140016419347
 20
150.7765981809602
 30
0.0
 10
151.5818897818837
 20
152.7699317437168
 30
0.0
 10
152.4424752018226
 20
153.6256940267945
 30
0.0
 10
153.9038856707499
 20
154.4507949398263
 30
0.0
 10
155.4455669174378
 20
155.3044901642492
 30
0.0
 10
156.339225275853
 20
155.3659851592288
 30
0.0
 10
157.3748216618963
 20
155.2147453676543
 30
0.0
 10
158.911679771723
 20
154.9877134254046
 30
0.0
 10
159.8859534176746
 20
154.4390816074493
 30
0.0
 10
160.3965169054045
 20
152.7816450760939
 30
0.0
 10
160.9070803931344
 20
151.1219692311958
 30
0.0
 10
160.6328506116007
 20
150.2303779314354
 30
0.0
 10
159.9992971339115
 20
147.597634224801
 30
0.0
 10
159.7105979417943
 20
146.4014962832367
 30
0.0
 10
159.2947746424084
 20
144.9400858143094
 30
0.0
 10
158.7463150793409
 20
143.2092687007094
 30
0.0
 10
158.7463150793409
 20
143.2092687007094
 30
0.0
 10
153.9038856707499
 20
127.8027915271048
 30
0.0
 10
153.9038856707499
 20
127.8027915271048
 30
0.0
 10
153.9038856707499
 20
127.8027915271048
 30
0.0
 10
151.3882752878863
 20
127.8027915271048
 30
0.0
 10
151.3882752878863
 20
127.8027915271048
 30
0.0
 10
151.3882752878863
 20
127.8027915271048
 30
0.0
 10
155.6250565106276
 20
141.2751908193897
 30
0.0
 10
155.6250565106276
 20
141.2751908193897
 30
0.0
 10
156.5094131050963
 20
144.0936252951782
 30
0.0
 10
157.109893644309
 20
146.1506931664571
 30
0.0
 10
157.4220195011804
 20
147.4415712963654
 30
0.0
 10
157.8095929989511
 20
149.0530157726519
 30
0.0
 10
157.9656559273867
 20
149.5826995529385
 30
0.0
 10
157.7816877071116
 20
150.7529992613181
 30
0.0
 10
157.6111553680925
 20
151.8430281919372
 30
0.0
 10
157.0582171779396
 20
152.5547853887321
 30
0.0
 10
156.1170164704645
 20
152.5547853887321
 30
0.0
 10
155.1096698860365
 20
152.5547853887321
 30
0.0
 10
154.2962823053817
 20
152.4412694176073
 30
0.0
 10
153.156643967048
 20
151.2945686288697
 30
0.0
 10
152.0170056287143
 20
150.1476955852443
 30
0.0
 10
151.076149431015
 20
148.7930831468137
 30
0.0
 10
150.3337308641742
 20
147.2290087646991
 30
0.0
 10
149.5957909244188
 20
145.6683794803425
 30
0.0
 10
148.8530278478023
 20
143.6822806228776
 30
0.0
 10
148.0964843801539
 20
141.2751908193897
 30
0.0
 10
148.0964843801539
 20
141.2751908193897
 30
0.0
 10
143.8552245303272
 20
127.8027915271048
 30
0.0
 10
143.8552245303272
 20
127.8027915271048
 30
0.0
 10
143.8552245303272
 20
127.8027915271048
 30
0.0
 10
141.486030802177
 20
127.8027915271048
 30
0.0
 10
141.486030802177
 20
127.8027915271048
 30
0.0
 10
141.486030802177
 20
127.8027915271048
 30
0.0
 10
146.3329388378533
 20
143.2092687007094
 30
0.0
 10
146.3329388378533
 20
143.2092687007094
 30
0.0
 10
146.8483254624444
 20
144.8408669988801
 30
0.0
 10
147.2314203331297
 20
146.1837661049335
 30
0.0
 10
147.4867020769946
 20
147.224185627838
 30
0.0
 10
147.9169947869641
 20
149.0197705792876
 30
0.0
 10
148.0306830129768
 20
150.2400242051577
 30
0.0
 10
147.709255392159
 20
151.3157559800812
 30
0.0
 10
147.3874832615654
 20
152.3916600098926
 30
0.0
 10
146.8245542879144
 20
152.6683013598569
 30
0.0
 10
145.8840425999909
 20
152.6683013598569
 30
0.0
 10
145.0989048209514
 20
152.6683013598569
 30
0.0
 10
144.3282364524954
 20
152.3275811915945
 30
0.0
 10
143.4531816219731
 20
151.6538923250251
 30
0.0
 10
142.34627171234
 20
150.8074318058939
 30
0.0
 10
141.901854101563
 20
150.1097995099067
 30
0.0
 10
141.3578731655808
 20
149.289521733736
 30
0.0
 10
140.6299240093235
 20
148.192602607601
 30
0.0
 10
140.2850697237515
 20
147.455696197173
 30
0.0
 10
139.6652966370942
 20
145.8385673095858
 30
0.0
 10
139.0506911970739
 20
144.2214384219986
 30
0.0
 10
138.463991048893
 20
142.3252566160164
 30
0.0
 10
138.0571250036777
 20
141.0154304484394
 30
0.0
 10
138.0571250036777
 20
141.0154304484394
 30
0.0
 10
133.9009590684727
 20
127.8027915271048
 30
0.0
 10
133.9009590684727
 20
127.8027915271048
 30
0.0
 10
133.9009590684727
 20
127.8027915271048
 30
0.0
 10
131.4180771143097
 20
127.8027915271048
 30
0.0
 10
131.4180771143097
 20
127.8027915271048
 30
0.0
 10
131.4180771143097
 20
127.8027915271048
 30
0.0
 10
139.8926730891197
 20
154.8294111834263
 30
0.0
 10
139.8926730891197
 20
154.8294111834263
 30
0.0
  0
HATCH
  5
6A9
330
6A2
100
AcDbEntity
  8
LOGO
 62
   250
420
  2234388
100
AcDbHatch
 10
0.0
 20
0.0
 30
0.0
210
0.0
220
0.0
230
1.0
  2
SOLID
 70
     1
 71
     0
 91
        1
 92
        1
 93
        1
 72
     4
 94
        3
 73
     0
 74
     1
 95
      104
 96
      100
 40
0.0
 40
0.0
 40
0.0
 40
0.0
 40
1.0
 40
1.0
 40
1.0
 40
2.0
 40
2.0
 40
2.0
 40
3.0
 40
3.0
 40
3.0
 40
4.0
 40
4.0
 40
4.0
 40
5.0
 40
5.0
 40
5.0
 40
6.0
 40
6.0
 40
6.0
 40
7.0
 40
7.0
 40
7.0
 40
8.0
 40
8.0
 40
8.0
 40
9.0
 40
9.0
 40
9.0
 40
10.0
 40
10.0
 40
10.0
 40
11.0
 40
11.0
 40
11.0
 40
12.0
 40
12.0
 40
12.0
 40
13.0
 40
13.0
 40
13.0
 40
14.0
 40
14.0
 40
14.0
 40
15.0
 40
15.0
 40
15.0
 40
16.0
 40
16.0
 40
16.0
 40
17.0
 40
17.0
 40
17.0
 40
18.0
 40
18.0
 40
18.0
 40
19.0
 40
19.0
 40
19.0
 40
20.0
 40
20.0
 40
20.0
 40
21.0
 40
21.0
 40
21.0
 40
22.0
 40
22.0
 40
22.0
 40
23.0
 40
23.0
 40
23.0
 40
24.0
 40
24.0
 40
24.0
 40
25.0
 40
25.0
 40
25.0
 40
26.0
 40
26.0
 40
26.0
 40
27.0
 40
27.0
 40
27.0
 40
28.0
 40
28.0
 40
28.0
 40
29.0
 40
29.0
 40
29.0
 40
30.0
 40
30.0
 40
30.0
 40
31.0
 40
31.0
 40
31.0
 40
32.0
 40
32.0
 40
32.0
 40
33.0
 40
33.0
 40
33.0
 40
33.0
 10
139.8926730891197
 20
154.8294111834263
 10
139.8926730891197
 20
154.8294111834263
 10
142.0344903652445
 20
154.8294111834263
 10
142.0344903652445
 20
154.8294111834263
 10
142.0344903652445
 20
154.8294111834263
 10
140.9516961399171
 20
151.3157559800812
 10
140.9516961399171
 20
151.3157559800812
 10
141.8928968473923
 20
152.7887075264977
 10
142.7341897198865
 20
153.4484437471474
 10
143.8552245303272
 20
154.2926649527359
 10
144.9803934580775
 20
155.1296514530327
 10
146.3139908001845
 20
155.3044901642492
 10
147.241066606852
 20
155.3044901642492
 10
148.3855280820469
 20
155.3044901642492
 10
149.4969166187653
 20
155.0752189084569
 10
150.0784491203092
 20
153.8172414621372
 10
150.5228667310863
 20
152.833838307127
 10
150.5414702589793
 20
152.7201500811143
 10
150.4140016419347
 20
150.7765981809602
 10
151.5818897818837
 20
152.7699317437168
 10
152.4424752018226
 20
153.6256940267945
 10
153.9038856707499
 20
154.4507949398263
 10
155.4455669174378
 20
155.3044901642492
 10
156.339225275853
 20
155.3659851592288
 10
157.3748216618963
 20
155.2147453676543
 10
158.911679771723
 20
154.9877134254046
 10
159.8859534176746
 20
154.4390816074493
 10
160.3965169054045
 20
152.7816450760939
 10
160.9070803931344
 20
151.1219692311958
 10
160.6328506116007
 20
150.2303779314354
 10
159.9992971339115
 20
147.597634224801
 10
159.7105979417943
 20
146.4014962832367
 10
159.2947746424084
 20
144.9400858143094
 10
158.7463150793409
 20
143.2092687007094
 10
158.7463150793409
 20
143.2092687007094
 10
153.9038856707499
 20
127.8027915271048
 10
153.9038856707499
 20
127.8027915271048
 10
153.9038856707499
 20
127.8027915271048
 10
151.3882752878863
 20
127.8027915271048
 10
151.3882752878863
 20
127.8027915271048
 10
151.3882752878863
 20
127.8027915271048
 10
155.6250565106276
 20
141.2751908193897
 10
155.6250565106276
 20
141.2751908193897
 10
156.5094131050963
 20
144.0936252951782
 10
157.109893644309
 20
146.1506931664571
 10
157.4220195011804
 20
147.4415712963654
 10
157.8095929989511
 20
149.0530157726519
 10
157.9656559273867
 20
149.5826995529385
 10
157.7816877071116
 20
150.7529992613181
 10
157.6111553680925
 20
151.8430281919372
 10
157.0582171779396
 20
152.5547853887321
 10
156.1170164704645
 20
152.5547853887321
 10
155.1096698860365
 20
152.5547853887321
 10
154.2962823053817
 20
152.4412694176073
 10
153.156643967048
 20
151.2945686288697
 10
152.0170056287143
 20
150.1476955852443
 10
151.076149431015
 20
148.7930831468137
 10
150.3337308641742
 20
147.2290087646991
 10
149.5957909244188
 20
145.6683794803425
 10
148.8530278478023
 20
143.6822806228776
 10
148.0964843801539
 20
141.2751908193897
 10
148.0964843801539
 20
141.2751908193897
 10
143.8552245303272
 20
127.8027915271048
 10
143.8552245303272
 20
127.8027915271048
 10
143.8552245303272
 20
127.8027915271048
 10
141.486030802177
 20
127.8027915271048
 10
141.486030802177
 20
127.8027915271048
 10
141.486030802177
 20
127.8027915271048
 10
146.3329388378533
 20
143.2092687007094
 10
146.3329388378533
 20
143.2092687007094
 10
146.8483254624444
 20
144.8408669988801
 10
147.2314203331297
 20
146.1837661049335
 10
147.4867020769946
 20
147.224185627838
 10
147.9169947869641
 20
149.0197705792876
 10
148.0306830129768
 20
150.2400242051577
 10
147.709255392159
 20
151.3157559800812
 10
147.3874832615654
 20
152.3916600098926
 10
146.8245542879144
 20
152.6683013598569
 10
145.8840425999909
 20
152.6683013598569
 10
145.0989048209514
 20
152.6683013598569
 10
144.3282364524954
 20
152.3275811915945
 10
143.4531816219731
 20
151.6538923250251
 10
142.34627171234
 20
150.8074318058939
 10
141.901854101563
 20
150.1097995099067
 10
141.3578731655808
 20
149.289521733736
 10
140.6299240093235
 20
148.192602607601
 10
140.2850697237515
 20
147.455696197173
 10
139.6652966370942
 20
145.8385673095858
 10
139.0506911970739
 20
144.2214384219986
 10
138.463991048893
 20
142.3252566160164
 10
138.0571250036777
 20
141.0154304484394
 10
138.0571250036777
 20
141.0154304484394
 10
133.9009590684727
 20
127.8027915271048
 10
133.9009590684727
 20
127.8027915271048
 10
133.9009590684727
 20
127.8027915271048
 10
131.4180771143097
 20
127.8027915271048
 10
131.4180771143097
 20
127.8027915271048
 10
131.4180771143097
 20
127.8027915271048
 10
139.8926730891197
 20
154.8294111834263
 10
139.8926730891197
 20
154.8294111834263
 97
        0
 75
     2
 76
     1
 98
        0
  0
SPLINE
  5
6AA
330
6A2
100
AcDbEntity
  8
LOGO
370
     0
100
AcDbSpline
210
0.0
220
0.0
230
1.0
 70
    11
 71
     3
 72
    29
 73
    25
 74
     0
 42
0.000000001
 43
0.0000000001
 40
0.0
 40
0.0
 40
0.0
 40
0.0
 40
1.0
 40
1.0
 40
1.0
 40
2.0
 40
2.0
 40
2.0
 40
3.0
 40
3.0
 40
3.0
 40
4.0
 40
4.0
 40
4.0
 40
5.0
 40
5.0
 40
5.0
 40
6.0
 40
6.0
 40
6.0
 40
7.0
 40
7.0
 40
7.0
 40
8.0
 40
8.0
 40
8.0
 40
8.0
 10
101.6420971922469
 20
132.8388354296931
 30
0.0
 10
101.630039350094
 20
134.7164137077823
 30
0.0
 10
102.2236296937908
 20
138.0598810818841
 30
0.0
 10
103.7487744712405
 20
142.5378191476827
 30
0.0
 10
105.819967243327
 20
148.5896501242061
 30
0.0
 10
107.0602024361932
 20
150.8074318058939
 30
0.0
 10
108.1522984254671
 20
151.8833358357054
 30
0.0
 10
109.741177511439
 20
153.4532668840085
 30
0.0
 10
111.8740375333931
 20
153.5290590346837
 30
0.0
 10
112.5075910110823
 20
153.4532668840085
 30
0.0
 10
113.4012493694975
 20
153.3490526768302
 30
0.0
 10
114.6683563248758
 20
152.7580461564518
 30
0.0
 10
114.7493161221879
 20
150.7838328862519
 30
0.0
 10
114.8106388622796
 20
149.0909118479895
 30
0.0
 10
114.3186789024427
 20
145.9191825971221
 30
0.0
 10
112.6164561002338
 20
140.9489400617108
 30
0.0
 10
110.6444821435766
 20
135.1746117095912
 30
0.0
 10
109.4669477299053
 20
132.8960240524753
 30
0.0
 10
108.5212683953448
 20
131.9072809959403
 30
0.0
 10
106.7346406980658
 20
130.0538184021569
 30
0.0
 10
104.8222669326213
 20
130.2336525051225
 30
0.0
 10
104.5408024457958
 20
130.2336525051225
 30
0.0
 10
104.1721769856939
 20
130.2336525051225
 30
0.0
 10
101.6465758193322
 20
130.6305277668397
 30
0.0
 10
101.6420971922469
 20
132.8388354296931
 30
0.0
  0
SPLINE
  5
6AB
330
6A2
100
AcDbEntity
  8
LOGO
370
     0
100
AcDbSpline
210
0.0
220
0.0
230
1.0
 70
    11
 71
     3
 72
    32
 73
    28
 74
     0
 42
0.000000001
 43
0.0000000001
 40
0.0
 40
0.0
 40
0.0
 40
0.0
 40
1.0
 40
1.0
 40
1.0
 40
2.0
 40
2.0
 40
2.0
 40
3.0
 40
3.0
 40
3.0
 40
4.0
 40
4.0
 40
4.0
 40
5.0
 40
5.0
 40
5.0
 40
6.0
 40
6.0
 40
6.0
 40
7.0
 40
7.0
 40
7.0
 40
8.0
 40
8.0
 40
8.0
 40
9.0
 40
9.0
 40
9.0
 40
9.0
 10
106.2595617172429
 20
153.4105476718098
 30
0.0
 10
104.8222669326213
 20
151.5474388043041
 30
0.0
 10
103.7177685914188
 20
149.8758773721411
 30
0.0
 10
101.9232171692965
 20
144.6141795664062
 30
0.0
 10
100.2754269116635
 20
139.7999999594306
 30
0.0
 10
99.22777268346732
 20
136.3052927937542
 30
0.0
 10
99.06964269637689
 20
132.039572749846
 30
0.0
 10
98.94665270641765
 20
128.8673267343149
 30
0.0
 10
100.8807305877373
 20
127.8027915271048
 30
0.0
 10
103.7129454545577
 20
127.8027915271048
 30
0.0
 10
104.9352661390825
 20
127.8027915271048
 30
0.0
 10
108.0151835347002
 20
127.8827177950895
 30
0.0
 10
110.2045431598849
 20
130.5926316915021
 30
0.0
 10
111.7417457794874
 20
132.4984597712065
 30
0.0
 10
113.155269389579
 20
134.475256864725
 30
0.0
 10
115.0562743324223
 20
140.9489400617108
 30
0.0
 10
116.6361961642235
 20
146.3680788349845
 30
0.0
 10
117.7282921534974
 20
149.8639917848761
 30
0.0
 10
117.6480213757369
 20
151.8595646611754
 30
0.0
 10
117.6480213757369
 20
151.8595646611754
 30
0.0
 10
117.6480213757369
 20
151.8595646611754
 30
0.0
 10
117.6480213757369
 20
151.8595646611754
 30
0.0
 10
117.13229024137
 20
155.18150017429
 30
0.0
 10
114.7162431837115
 20
155.886194920681
 30
0.0
 10
113.3351034925446
 20
155.886194920681
 30
0.0
 10
111.9829026225447
 20
155.886194920681
 30
0.0
 10
108.3414342923792
 20
156.1251124501957
 30
0.0
 10
106.2595617172429
 20
153.4105476718098
 30
0.0
  0
HATCH
  5
6AC
330
6A2
100
AcDbEntity
  8
LOGO
 62
   250
420
  2234388
100
AcDbHatch
 10
0.0
 20
0.0
 30
0.0
210
0.0
220
0.0
230
1.0
  2
SOLID
 70
     1
 71
     0
 91
        2
 92
        1
 93
        1
 72
     4
 94
        3
 73
     0
 74
     1
 95
       29
 96
       25
 40
0.0
 40
0.0
 40
0.0
 40
0.0
 40
1.0
 40
1.0
 40
1.0
 40
2.0
 40
2.0
 40
2.0
 40
3.0
 40
3.0
 40
3.0
 40
4.0
 40
4.0
 40
4.0
 40
5.0
 40
5.0
 40
5.0
 40
6.0
 40
6.0
 40
6.0
 40
7.0
 40
7.0
 40
7.0
 40
8.0
 40
8.0
 40
8.0
 40
8.0
 10
101.6420971922469
 20
132.8388354296931
 10
101.630039350094
 20
134.7164137077823
 10
102.2236296937908
 20
138.0598810818841
 10
103.7487744712405
 20
142.5378191476827
 10
105.819967243327
 20
148.5896501242061
 10
107.0602024361932
 20
150.8074318058939
 10
108.1522984254671
 20
151.8833358357054
 10
109.741177511439
 20
153.4532668840085
 10
111.8740375333931
 20
153.5290590346837
 10
112.5075910110823
 20
153.4532668840085
 10
113.4012493694975
 20
153.3490526768302
 10
114.6683563248758
 20
152.7580461564518
 10
114.7493161221879
 20
150.7838328862519
 10
114.8106388622796
 20
149.0909118479895
 10
114.3186789024427
 20
145.9191825971221
 10
112.6164561002338
 20
140.9489400617108
 10
110.6444821435766
 20
135.1746117095912
 10
109.4669477299053
 20
132.8960240524753
 10
108.5212683953448
 20
131.9072809959403
 10
106.7346406980658
 20
130.0538184021569
 10
104.8222669326213
 20
130.2336525051225
 10
104.5408024457958
 20
130.2336525051225
 10
104.1721769856939
 20
130.2336525051225
 10
101.6465758193322
 20
130.6305277668397
 10
101.6420971922469
 20
132.8388354296931
 97
        0
 92
        1
 93
        1
 72
     4
 94
        3
 73
     0
 74
     1
 95
       32
 96
       28
 40
0.0
 40
0.0
 40
0.0
 40
0.0
 40
1.0
 40
1.0
 40
1.0
 40
2.0
 40
2.0
 40
2.0
 40
3.0
 40
3.0
 40
3.0
 40
4.0
 40
4.0
 40
4.0
 40
5.0
 40
5.0
 40
5.0
 40
6.0
 40
6.0
 40
6.0
 40
7.0
 40
7.0
 40
7.0
 40
8.0
 40
8.0
 40
8.0
 40
9.0
 40
9.0
 40
9.0
 40
9.0
 10
106.2595617172429
 20
153.4105476718098
 10
104.8222669326213
 20
151.5474388043041
 10
103.7177685914188
 20
149.8758773721411
 10
101.9232171692965
 20
144.6141795664062
 10
100.2754269116635
 20
139.7999999594306
 10
99.22777268346732
 20
136.3052927937542
 10
99.06964269637689
 20
132.039572749846
 10
98.94665270641765
 20
128.8673267343149
 10
100.8807305877373
 20
127.8027915271048
 10
103.7129454545577
 20
127.8027915271048
 10
104.9352661390825
 20
127.8027915271048
 10
108.0151835347002
 20
127.8827177950895
 10
110.2045431598849
 20
130.5926316915021
 10
111.7417457794874
 20
132.4984597712065
 10
113.155269389579
 20
134.475256864725
 10
115.0562743324223
 20
140.9489400617108
 10
116.6361961642235
 20
146.3680788349845
 10
117.7282921534974
 20
149.8639917848761
 10
117.6480213757369
 20
151.8595646611754
 10
117.6480213757369
 20
151.8595646611754
 10
117.6480213757369
 20
151.8595646611754
 10
117.6480213757369
 20
151.8595646611754
 10
117.13229024137
 20
155.18150017429
 10
114.7162431837115
 20
155.886194920681
 10
113.3351034925446
 20
155.886194920681
 10
111.9829026225447
 20
155.886194920681
 10
108.3414342923792
 20
156.1251124501957
 10
106.2595617172429
 20
153.4105476718098
 97
        0
 75
     2
 76
     1
 98
        0
  0
ENDBLK
  5
6AD
330
6A2
100
AcDbEntity
  8
0
100
AcDbBlockEnd
  0
BLOCK
  5
199B
330
199A
100
AcDbEntity
  8
0
100
AcDbBlockBegin
  2
SEANNOT_GROUP
 70
     0
 10
0.0
 20
0.0
 30
0.0
  3
SEANNOT_GROUP
  1
SEANNOT_GROUP
  0
ENDBLK
  5
199C
330
199A
100
AcDbEntity
  8
0
100
AcDbBlockEnd
  0
BLOCK
  5
1F30
330
1F2F
100
AcDbEntity
  8
0
100
AcDbBlockBegin
  2
SEANNOT_GROUP1
 70
     0
 10
0.0
 20
0.0
 30
0.0
  3
SEANNOT_GROUP1
  1
SEANNOT_GROUP1
  0
ENDBLK
  5
1F31
330
1F2F
100
AcDbEntity
  8
0
100
AcDbBlockEnd
  0
BLOCK
  5
75CF
330
75CE
100
AcDbEntity
  8
0
100
AcDbBlockBegin
  2
*D8
 70
     1
 10
0.0
 20
0.0
 30
0.0
  3
*D8
  1

  0
LINE
  5
75D1
330
75CE
100
AcDbEntity
  8
DIM
 62
     0
370
    -2
100
AcDbLine
 10
3248.506214351733
 20
882.100387501127
 30
0.0
 11
3347.843593340069
 21
882.100387501127
 31
0.0
  0
LINE
  5
75D2
330
75CE
100
AcDbEntity
  8
DIM
 62
     0
370
    -2
100
AcDbLine
 10
3025.429310952227
 20
727.100387501127
 30
0.0
 11
3347.843593340069
 21
727.100387501127
 31
0.0
  0
LINE
  5
75D3
330
75CE
100
AcDbEntity
  8
DIM
 62
     0
370
    -2
100
AcDbLine
 10
3347.843593340069
 20
872.100387501127
 30
0.0
 11
3347.843593340069
 21
737.100387501127
 31
0.0
  0
INSERT
  5
75D4
330
75CE
100
AcDbEntity
  8
DIM
 62
     0
370
    -2
100
AcDbBlockReference
  2
_DOT
 10
3347.843593340069
 20
882.100387501127
 30
0.0
 41
10.0
 42
10.0
 43
10.0
 50
90.0
  0
INSERT
  5
75D5
330
75CE
100
AcDbEntity
  8
DIM
 62
     0
370
    -2
100
AcDbBlockReference
  2
_DOT
 10
3347.843593340069
 20
727.100387501127
 30
0.0
 41
10.0
 42
10.0
 43
10.0
 50
270.0
  0
MTEXT
  5
75D6
330
75CE
100
AcDbEntity
  8
DIM
 62
     0
100
AcDbMText
 10
3315.843593340069
 20
804.600387501127
 30
0.0
 40
24.0
 41
0.0
 46
0.0
 71
     5
 72
     1
  1
\A1;155
  7
ＭＳ ゴシック
 11
0.0
 21
1.0
 31
0.0
 73
     1
 44
1.0
  0
POINT
  5
75D7
330
75CE
100
AcDbEntity
  8
Defpoints
 62
     0
100
AcDbPoint
 10
3218.506214351733
 20
882.100387501127
 30
0.0
  0
POINT
  5
75D8
330
75CE
100
AcDbEntity
  8
Defpoints
 62
     0
100
AcDbPoint
 10
2995.429310952227
 20
727.100387501127
 30
0.0
  0
POINT
  5
75D9
330
75CE
100
AcDbEntity
  8
Defpoints
 62
     0
100
AcDbPoint
 10
3347.843593340069
 20
727.100387501127
 30
0.0
  0
ENDBLK
  5
75D0
330
75CE
100
AcDbEntity
  8
0
100
AcDbBlockEnd
  0
BLOCK
  5
75DE
330
75DD
100
AcDbEntity
  8
0
100
AcDbBlockBegin
  2
*D9
 70
     1
 10
0.0
 20
0.0
 30
0.0
  3
*D9
  1

  0
LINE
  5
75E0
330
75DD
100
AcDbEntity
  8
DIM
 62
     0
370
    -2
100
AcDbLine
 10
3732.479136683479
 20
882.1003875011272
 30
0.0
 11
3680.395906112326
 21
882.1003875011272
 31
0.0
  0
LINE
  5
75E1
330
75DD
100
AcDbEntity
  8
DIM
 62
     0
370
    -2
100
AcDbLine
 10
3743.341220729705
 20
742.0420976055863
 30
0.0
 11
3680.395906112326
 21
742.0420976055863
 31
0.0
  0
LINE
  5
75E2
330
75DD
100
AcDbEntity
  8
DIM
 62
     0
370
    -2
100
AcDbLine
 10
3680.395906112326
 20
872.1003875011272
 30
0.0
 11
3680.395906112326
 21
752.0420976055863
 31
0.0
  0
INSERT
  5
75E3
330
75DD
100
AcDbEntity
  8
DIM
 62
     0
370
    -2
100
AcDbBlockReference
  2
_DOT
 10
3680.395906112326
 20
882.1003875011272
 30
0.0
 41
10.0
 42
10.0
 43
10.0
 50
90.0
  0
INSERT
  5
75E4
330
75DD
100
AcDbEntity
  8
DIM
 62
     0
370
    -2
100
AcDbBlockReference
  2
_DOT
 10
3680.395906112326
 20
742.0420976055863
 30
0.0
 41
10.0
 42
10.0
 43
10.0
 50
270.0
  0
MTEXT
  5
75E5
330
75DD
100
AcDbEntity
  8
DIM
 62
     0
100
AcDbMText
 10
3648.395906112326
 20
812.0712425533568
 30
0.0
 40
24.0
 41
0.0
 46
0.0
 71
     5
 72
     1
  1
\A1;140
  7
ＭＳ ゴシック
 11
0.0
 21
1.0
 31
0.0
 73
     1
 44
1.0
  0
POINT
  5
75E6
330
75DD
100
AcDbEntity
  8
Defpoints
 62
     0
100
AcDbPoint
 10
3762.479136683479
 20
882.1003875011272
 30
0.0
  0
POINT
  5
75E7
330
75DD
100
AcDbEntity
  8
Defpoints
 62
     0
100
AcDbPoint
 10
3773.341220729705
 20
742.0420976055863
 30
0.0
  0
POINT
  5
75E8
330
75DD
100
AcDbEntity
  8
Defpoints
 62
     0
100
AcDbPoint
 10
3680.395906112326
 20
742.0420976055863
 30
0.0
  0
ENDBLK
  5
75DF
330
75DD
100
AcDbEntity
  8
0
100
AcDbBlockEnd
  0
BLOCK
  5
760C
330
760B
100
AcDbEntity
  8
0
100
AcDbBlockBegin
  2
*D10
 70
     1
 10
0.0
 20
0.0
 30
0.0
  3
*D10
  1

  0
LINE
  5
760E
330
760B
100
AcDbEntity
  8
DIM
 62
     0
370
    -2
100
AcDbLine
 10
4228.310830144776
 20
882.1003875011272
 30
0.0
 11
4322.017898448887
 21
882.1003875011272
 31
0.0
  0
LINE
  5
760F
330
760B
100
AcDbEntity
  8
DIM
 62
     0
370
    -2
100
AcDbLine
 10
4232.836698497267
 20
822.073043766134
 30
0.0
 11
4322.017898448887
 21
822.073043766134
 31
0.0
  0
LINE
  5
7610
330
760B
100
AcDbEntity
  8
DIM
 62
     0
370
    -2
100
AcDbLine
 10
4322.017898448887
 20
872.1003875011272
 30
0.0
 11
4322.017898448887
 21
832.073043766134
 31
0.0
  0
INSERT
  5
7611
330
760B
100
AcDbEntity
  8
DIM
 62
     0
370
    -2
100
AcDbBlockReference
  2
_DOT
 10
4322.017898448887
 20
882.1003875011272
 30
0.0
 41
10.0
 42
10.0
 43
10.0
 50
90.0
  0
INSERT
  5
7612
330
760B
100
AcDbEntity
  8
DIM
 62
     0
370
    -2
100
AcDbBlockReference
  2
_DOT
 10
4322.017898448887
 20
822.073043766134
 30
0.0
 41
10.0
 42
10.0
 43
10.0
 50
270.0
  0
MTEXT
  5
7613
330
760B
100
AcDbEntity
  8
DIM
 62
     0
100
AcDbMText
 10
4290.017898448887
 20
852.0867156336308
 30
0.0
 40
24.0
 41
0.0
 46
0.0
 71
     5
 72
     1
  1
\A1;60
  7
ＭＳ ゴシック
 11
0.0
 21
1.0
 31
0.0
 73
     1
 44
1.0
  0
POINT
  5
7614
330
760B
100
AcDbEntity
  8
Defpoints
 62
     0
100
AcDbPoint
 10
4198.310830144776
 20
882.1003875011272
 30
0.0
  0
POINT
  5
7615
330
760B
100
AcDbEntity
  8
Defpoints
 62
     0
100
AcDbPoint
 10
4202.836698497267
 20
822.073043766134
 30
0.0
  0
POINT
  5
7616
330
760B
100
AcDbEntity
  8
Defpoints
 62
     0
100
AcDbPoint
 10
4322.017898448887
 20
822.073043766134
 30
0.0
  0
ENDBLK
  5
760D
330
760B
100
AcDbEntity
  8
0
100
AcDbBlockEnd
  0
BLOCK
  5
761A
330
7619
100
AcDbEntity
  8
0
100
AcDbBlockBegin
  2
*D11
 70
     1
 10
0.0
 20
0.0
 30
0.0
  3
*D11
  1

  0
LINE
  5
761C
330
7619
100
AcDbEntity
  8
DIM
 62
     0
370
    -2
100
AcDbLine
 10
4218.781251305794
 20
908.0995996045482
 30
0.0
 11
4218.781251305794
 21
946.5416613920046
 31
0.0
  0
LINE
  5
761D
330
7619
100
AcDbEntity
  8
DIM
 62
     0
370
    -2
100
AcDbLine
 10
4158.781251305794
 20
908.0995996045484
 30
0.0
 11
4158.781251305794
 21
946.5416613920046
 31
0.0
  0
LINE
  5
761E
330
7619
100
AcDbEntity
  8
DIM
 62
     0
370
    -2
100
AcDbLine
 10
4208.781251305794
 20
946.5416613920046
 30
0.0
 11
4168.781251305794
 21
946.5416613920046
 31
0.0
  0
INSERT
  5
761F
330
7619
100
AcDbEntity
  8
DIM
 62
     0
370
    -2
100
AcDbBlockReference
  2
_DOT
 10
4218.781251305794
 20
946.5416613920046
 30
0.0
 41
10.0
 42
10.0
 43
10.0
  0
INSERT
  5
7620
330
7619
100
AcDbEntity
  8
DIM
 62
     0
370
    -2
100
AcDbBlockReference
  2
_DOT
 10
4158.781251305794
 20
946.5416613920046
 30
0.0
 41
10.0
 42
10.0
 43
10.0
 50
180.0
  0
MTEXT
  5
7621
330
7619
100
AcDbEntity
  8
DIM
 62
     0
100
AcDbMText
 10
4188.781251305794
 20
978.5416613920046
 30
0.0
 40
24.0
 41
0.0
 46
0.0
 71
     5
 72
     1
  1
\A1;60
  7
ＭＳ ゴシック
 73
     1
 44
1.0
  0
POINT
  5
7622
330
7619
100
AcDbEntity
  8
Defpoints
 62
     0
100
AcDbPoint
 10
4218.781251305794
 20
878.0995996045482
 30
0.0
  0
POINT
  5
7623
330
7619
100
AcDbEntity
  8
Defpoints
 62
     0
100
AcDbPoint
 10
4158.781251305794
 20
878.0995996045484
 30
0.0
  0
POINT
  5
7624
330
7619
100
AcDbEntity
  8
Defpoints
 62
     0
100
AcDbPoint
 10
4158.781251305794
 20
946.5416613920046
 30
0.0
  0
ENDBLK
  5
761B
330
7619
100
AcDbEntity
  8
0
100
AcDbBlockEnd
  0
BLOCK
  5
762A
330
7629
100
AcDbEntity
  8
0
100
AcDbBlockBegin
  2
*D12
 70
     1
 10
0.0
 20
0.0
 30
0.0
  3
*D12
  1

  0
LINE
  5
762C
330
7629
100
AcDbEntity
  8
DIM
 62
     0
370
    -2
100
AcDbLine
 10
4218.781251305794
 20
778.3222000945318
 30
0.0
 11
4218.781251305794
 21
621.0115952089391
 31
0.0
  0
LINE
  5
762D
330
7629
100
AcDbEntity
  8
DIM
 62
     0
370
    -2
100
AcDbLine
 10
4008.661050187361
 20
697.0325055954497
 30
0.0
 11
4008.661050187361
 21
621.0115952089391
 31
0.0
  0
LINE
  5
762E
330
7629
100
AcDbEntity
  8
DIM
 62
     0
370
    -2
100
AcDbLine
 10
4208.781251305794
 20
621.0115952089391
 30
0.0
 11
4018.661050187361
 21
621.0115952089391
 31
0.0
  0
INSERT
  5
762F
330
7629
100
AcDbEntity
  8
DIM
 62
     0
370
    -2
100
AcDbBlockReference
  2
_DOT
 10
4218.781251305794
 20
621.0115952089391
 30
0.0
 41
10.0
 42
10.0
 43
10.0
  0
INSERT
  5
7630
330
7629
100
AcDbEntity
  8
DIM
 62
     0
370
    -2
100
AcDbBlockReference
  2
_DOT
 10
4008.661050187361
 20
621.0115952089391
 30
0.0
 41
10.0
 42
10.0
 43
10.0
 50
180.0
  0
MTEXT
  5
7631
330
7629
100
AcDbEntity
  8
DIM
 62
     0
100
AcDbMText
 10
4113.721150746577
 20
653.0115952089391
 30
0.0
 40
24.0
 41
0.0
 46
0.0
 71
     5
 72
     1
  1
\A1;210
  7
ＭＳ ゴシック
 73
     1
 44
1.0
  0
POINT
  5
7632
330
7629
100
AcDbEntity
  8
Defpoints
 62
     0
100
AcDbPoint
 10
4218.781251305794
 20
808.3222000945318
 30
0.0
  0
POINT
  5
7633
330
7629
100
AcDbEntity
  8
Defpoints
 62
     0
100
AcDbPoint
 10
4008.661050187361
 20
727.0325055954497
 30
0.0
  0
POINT
  5
7634
330
7629
100
AcDbEntity
  8
Defpoints
 62
     0
100
AcDbPoint
 10
4008.661050187361
 20
621.0115952089391
 30
0.0
  0
ENDBLK
  5
762B
330
7629
100
AcDbEntity
  8
0
100
AcDbBlockEnd
  0
BLOCK
  5
7639
330
7638
100
AcDbEntity
  8
0
100
AcDbBlockBegin
  2
*D13
 70
     1
 10
0.0
 20
0.0
 30
0.0
  3
*D13
  1

  0
LINE
  5
763B
330
7638
100
AcDbEntity
  8
DIM
 62
     0
370
    -2
100
AcDbLine
 10
4218.781251305794
 20
778.3222000945318
 30
0.0
 11
4218.781251305794
 21
545.2522470262933
 31
0.0
  0
LINE
  5
763C
330
7638
100
AcDbEntity
  8
DIM
 62
     0
370
    -2
100
AcDbLine
 10
3938.781251305795
 20
710.0784485532747
 30
0.0
 11
3938.781251305795
 21
545.2522470262933
 31
0.0
  0
LINE
  5
763D
330
7638
100
AcDbEntity
  8
DIM
 62
     0
370
    -2
100
AcDbLine
 10
4208.781251305794
 20
545.2522470262933
 30
0.0
 11
3948.781251305795
 21
545.2522470262933
 31
0.0
  0
INSERT
  5
763E
330
7638
100
AcDbEntity
  8
DIM
 62
     0
370
    -2
100
AcDbBlockReference
  2
_DOT
 10
4218.781251305794
 20
545.2522470262933
 30
0.0
 41
10.0
 42
10.0
 43
10.0
  0
INSERT
  5
763F
330
7638
100
AcDbEntity
  8
DIM
 62
     0
370
    -2
100
AcDbBlockReference
  2
_DOT
 10
3938.781251305795
 20
545.2522470262933
 30
0.0
 41
10.0
 42
10.0
 43
10.0
 50
180.0
  0
MTEXT
  5
7640
330
7638
100
AcDbEntity
  8
DIM
 62
     0
100
AcDbMText
 10
4078.781251305794
 20
577.2522470262933
 30
0.0
 40
24.0
 41
0.0
 46
0.0
 71
     5
 72
     1
  1
\A1;280
  7
ＭＳ ゴシック
 73
     1
 44
1.0
  0
POINT
  5
7641
330
7638
100
AcDbEntity
  8
Defpoints
 62
     0
100
AcDbPoint
 10
4218.781251305794
 20
808.3222000945318
 30
0.0
  0
POINT
  5
7642
330
7638
100
AcDbEntity
  8
Defpoints
 62
     0
100
AcDbPoint
 10
3938.781251305795
 20
740.0784485532747
 30
0.0
  0
POINT
  5
7643
330
7638
100
AcDbEntity
  8
Defpoints
 62
     0
100
AcDbPoint
 10
3938.781251305795
 20
545.2522470262933
 30
0.0
  0
ENDBLK
  5
763A
330
7638
100
AcDbEntity
  8
0
100
AcDbBlockEnd
  0
BLOCK
  5
7655
330
7654
100
AcDbEntity
  8
0
100
AcDbBlockBegin
  2
*D14
 70
     1
 10
0.0
 20
0.0
 30
0.0
  3
*D14
  1

  0
LINE
  5
7657
330
7654
100
AcDbEntity
  8
DIM
 62
     0
370
    -2
100
AcDbLine
 10
3254.610908412646
 20
2369.032045314803
 30
0.0
 11
3364.158515950623
 21
2369.032045314803
 31
0.0
  0
LINE
  5
7658
330
7654
100
AcDbEntity
  8
DIM
 62
     0
370
    -2
100
AcDbLine
 10
3265.925579294005
 20
1909.040484557406
 30
0.0
 11
3364.158515950623
 21
1909.040484557406
 31
0.0
  0
LINE
  5
7659
330
7654
100
AcDbEntity
  8
DIM
 62
     0
370
    -2
100
AcDbLine
 10
3364.158515950623
 20
2359.032045314803
 30
0.0
 11
3364.158515950623
 21
1919.040484557406
 31
0.0
  0
INSERT
  5
765A
330
7654
100
AcDbEntity
  8
DIM
 62
     0
370
    -2
100
AcDbBlockReference
  2
_DOT
 10
3364.158515950623
 20
2369.032045314803
 30
0.0
 41
10.0
 42
10.0
 43
10.0
 50
90.0
  0
INSERT
  5
765B
330
7654
100
AcDbEntity
  8
DIM
 62
     0
370
    -2
100
AcDbBlockReference
  2
_DOT
 10
3364.158515950623
 20
1909.040484557406
 30
0.0
 41
10.0
 42
10.0
 43
10.0
 50
270.0
  0
MTEXT
  5
765C
330
7654
100
AcDbEntity
  8
DIM
 62
     0
100
AcDbMText
 10
3332.158515950623
 20
2139.036264936105
 30
0.0
 40
24.0
 41
0.0
 46
0.0
 71
     5
 72
     1
  1
\A1;460
  7
ＭＳ ゴシック
 11
0.0
 21
1.0
 31
0.0
 73
     1
 44
1.0
  0
POINT
  5
765D
330
7654
100
AcDbEntity
  8
Defpoints
 62
     0
100
AcDbPoint
 10
3224.610908412646
 20
2369.032045314803
 30
0.0
  0
POINT
  5
765E
330
7654
100
AcDbEntity
  8
Defpoints
 62
     0
100
AcDbPoint
 10
3235.925579294005
 20
1909.040484557406
 30
0.0
  0
POINT
  5
765F
330
7654
100
AcDbEntity
  8
Defpoints
 62
     0
100
AcDbPoint
 10
3364.158515950623
 20
1909.040484557406
 30
0.0
  0
ENDBLK
  5
7656
330
7654
100
AcDbEntity
  8
0
100
AcDbBlockEnd
  0
BLOCK
  5
7664
330
7663
100
AcDbEntity
  8
0
100
AcDbBlockBegin
  2
*D15
 70
     1
 10
0.0
 20
0.0
 30
0.0
  3
*D15
  1

  0
LINE
  5
7666
330
7663
100
AcDbEntity
  8
DIM
 62
     0
370
    -2
100
AcDbLine
 10
3224.509637744331
 20
2407.330932894681
 30
0.0
 11
3224.509637744331
 21
2481.048749308023
 31
0.0
  0
LINE
  5
7667
330
7663
100
AcDbEntity
  8
DIM
 62
     0
370
    -2
100
AcDbLine
 10
2674.509617536778
 20
2403.55937593418
 30
0.0
 11
2674.509617536778
 21
2481.048749308023
 31
0.0
  0
LINE
  5
7668
330
7663
100
AcDbEntity
  8
DIM
 62
     0
370
    -2
100
AcDbLine
 10
3214.509637744331
 20
2481.048749308023
 30
0.0
 11
2684.509617536778
 21
2481.048749308023
 31
0.0
  0
INSERT
  5
7669
330
7663
100
AcDbEntity
  8
DIM
 62
     0
370
    -2
100
AcDbBlockReference
  2
_DOT
 10
3224.509637744331
 20
2481.048749308023
 30
0.0
 41
10.0
 42
10.0
 43
10.0
  0
INSERT
  5
766A
330
7663
100
AcDbEntity
  8
DIM
 62
     0
370
    -2
100
AcDbBlockReference
  2
_DOT
 10
2674.509617536778
 20
2481.048749308023
 30
0.0
 41
10.0
 42
10.0
 43
10.0
 50
180.0
  0
MTEXT
  5
766B
330
7663
100
AcDbEntity
  8
DIM
 62
     0
100
AcDbMText
 10
2949.509627640554
 20
2513.048749308023
 30
0.0
 40
24.0
 41
0.0
 46
0.0
 71
     5
 72
     1
  1
\A1;550
  7
ＭＳ ゴシック
 73
     1
 44
1.0
  0
POINT
  5
766C
330
7663
100
AcDbEntity
  8
Defpoints
 62
     0
100
AcDbPoint
 10
3224.509637744331
 20
2377.330932894681
 30
0.0
  0
POINT
  5
766D
330
7663
100
AcDbEntity
  8
Defpoints
 62
     0
100
AcDbPoint
 10
2674.509617536778
 20
2373.55937593418
 30
0.0
  0
POINT
  5
766E
330
7663
100
AcDbEntity
  8
Defpoints
 62
     0
100
AcDbPoint
 10
2674.509617536778
 20
2481.048749308023
 30
0.0
  0
ENDBLK
  5
7665
330
7663
100
AcDbEntity
  8
0
100
AcDbBlockEnd
  0
BLOCK
  5
7673
330
7672
100
AcDbEntity
  8
0
100
AcDbBlockBegin
  2
*D16
 70
     1
 10
0.0
 20
0.0
 30
0.0
  3
*D16
  1

  0
LINE
  5
7675
330
7672
100
AcDbEntity
  8
DIM
 62
     0
370
    -2
100
AcDbLine
 10
2702.517038048439
 20
1928.853115897543
 30
0.0
 11
2702.517038048439
 21
1810.1896551862
 31
0.0
  0
LINE
  5
7676
330
7672
100
AcDbEntity
  8
DIM
 62
     0
370
    -2
100
AcDbLine
 10
3196.502389487443
 20
1933.567562098222
 30
0.0
 11
3196.502389487443
 21
1810.1896551862
 31
0.0
  0
LINE
  5
7677
330
7672
100
AcDbEntity
  8
DIM
 62
     0
370
    -2
100
AcDbLine
 10
2712.517038048439
 20
1810.1896551862
 30
0.0
 11
3186.502389487443
 21
1810.1896551862
 31
0.0
  0
INSERT
  5
7678
330
7672
100
AcDbEntity
  8
DIM
 62
     0
370
    -2
100
AcDbBlockReference
  2
_DOT
 10
2702.517038048439
 20
1810.1896551862
 30
0.0
 41
10.0
 42
10.0
 43
10.0
 50
180.0
  0
INSERT
  5
7679
330
7672
100
AcDbEntity
  8
DIM
 62
     0
370
    -2
100
AcDbBlockReference
  2
_DOT
 10
3196.502389487443
 20
1810.1896551862
 30
0.0
 41
10.0
 42
10.0
 43
10.0
  0
MTEXT
  5
767A
330
7672
100
AcDbEntity
  8
DIM
 62
     0
100
AcDbMText
 10
2949.50971376794
 20
1842.1896551862
 30
0.0
 40
24.0
 41
0.0
 46
0.0
 71
     5
 72
     1
  1
\A1;494
  7
ＭＳ ゴシック
 73
     1
 44
1.0
  0
POINT
  5
767B
330
7672
100
AcDbEntity
  8
Defpoints
 62
     0
100
AcDbPoint
 10
2702.517038048439
 20
1958.853115897543
 30
0.0
  0
POINT
  5
767C
330
7672
100
AcDbEntity
  8
Defpoints
 62
     0
100
AcDbPoint
 10
3196.502389487443
 20
1963.567562098222
 30
0.0
  0
POINT
  5
767D
330
7672
100
AcDbEntity
  8
Defpoints
 62
     0
100
AcDbPoint
 10
3196.502389487443
 20
1810.1896551862
 30
0.0
  0
ENDBLK
  5
7674
330
7672
100
AcDbEntity
  8
0
100
AcDbBlockEnd
  0
BLOCK
  5
7682
330
7681
100
AcDbEntity
  8
0
100
AcDbBlockBegin
  2
*D17
 70
     1
 10
0.0
 20
0.0
 30
0.0
  3
*D17
  1

  0
LINE
  5
7684
330
7681
100
AcDbEntity
  8
DIM
 62
     0
370
    -2
100
AcDbLine
 10
2682.807564484424
 20
1959.0360547489
 30
0.0
 11
2575.522891122904
 21
1959.0360547489
 31
0.0
  0
LINE
  5
7685
330
7681
100
AcDbEntity
  8
DIM
 62
     0
370
    -2
100
AcDbLine
 10
2679.790318916223
 20
2249.037474761035
 30
0.0
 11
2575.522891122904
 21
2249.037474761035
 31
0.0
  0
LINE
  5
7686
330
7681
100
AcDbEntity
  8
DIM
 62
     0
370
    -2
100
AcDbLine
 10
2575.522891122904
 20
1969.0360547489
 30
0.0
 11
2575.522891122904
 21
2239.037474761035
 31
0.0
  0
INSERT
  5
7687
330
7681
100
AcDbEntity
  8
DIM
 62
     0
370
    -2
100
AcDbBlockReference
  2
_DOT
 10
2575.522891122904
 20
1959.0360547489
 30
0.0
 41
10.0
 42
10.0
 43
10.0
 50
270.0
  0
INSERT
  5
7688
330
7681
100
AcDbEntity
  8
DIM
 62
     0
370
    -2
100
AcDbBlockReference
  2
_DOT
 10
2575.522891122904
 20
2249.037474761035
 30
0.0
 41
10.0
 42
10.0
 43
10.0
 50
90.0
  0
MTEXT
  5
7689
330
7681
100
AcDbEntity
  8
DIM
 62
     0
100
AcDbMText
 10
2543.522891122904
 20
2104.036764754967
 30
0.0
 40
24.0
 41
0.0
 46
0.0
 71
     5
 72
     1
  1
\A1;290
  7
ＭＳ ゴシック
 11
0.0
 21
1.0
 31
0.0
 73
     1
 44
1.0
  0
POINT
  5
768A
330
7681
100
AcDbEntity
  8
Defpoints
 62
     0
100
AcDbPoint
 10
2712.807564484424
 20
1959.0360547489
 30
0.0
  0
POINT
  5
768B
330
7681
100
AcDbEntity
  8
Defpoints
 62
     0
100
AcDbPoint
 10
2709.790318916223
 20
2249.037474761035
 30
0.0
  0
POINT
  5
768C
330
7681
100
AcDbEntity
  8
Defpoints
 62
     0
100
AcDbPoint
 10
2575.522891122904
 20
2249.037474761035
 30
0.0
  0
ENDBLK
  5
7683
330
7681
100
AcDbEntity
  8
0
100
AcDbBlockEnd
  0
BLOCK
  5
7691
330
7690
100
AcDbEntity
  8
0
100
AcDbBlockBegin
  2
*D18
 70
     1
 10
0.0
 20
0.0
 30
0.0
  3
*D18
  1

  0
LINE
  5
7693
330
7690
100
AcDbEntity
  8
DIM
 62
     0
370
    -2
100
AcDbLine
 10
2644.509617536778
 20
2249.037474761035
 30
0.0
 11
2575.522891122904
 21
2249.037474761035
 31
0.0
  0
LINE
  5
7694
330
7690
100
AcDbEntity
  8
DIM
 62
     0
370
    -2
100
AcDbLine
 10
2670.16106255145
 20
2369.032045314803
 30
0.0
 11
2575.522891122904
 21
2369.032045314803
 31
0.0
  0
LINE
  5
7695
330
7690
100
AcDbEntity
  8
DIM
 62
     0
370
    -2
100
AcDbLine
 10
2575.522891122904
 20
2259.037474761035
 30
0.0
 11
2575.522891122904
 21
2359.032045314803
 31
0.0
  0
INSERT
  5
7696
330
7690
100
AcDbEntity
  8
DIM
 62
     0
370
    -2
100
AcDbBlockReference
  2
_DOT
 10
2575.522891122904
 20
2249.037474761035
 30
0.0
 41
10.0
 42
10.0
 43
10.0
 50
270.0
  0
INSERT
  5
7697
330
7690
100
AcDbEntity
  8
DIM
 62
     0
370
    -2
100
AcDbBlockReference
  2
_DOT
 10
2575.522891122904
 20
2369.032045314803
 30
0.0
 41
10.0
 42
10.0
 43
10.0
 50
90.0
  0
MTEXT
  5
7698
330
7690
100
AcDbEntity
  8
DIM
 62
     0
100
AcDbMText
 10
2543.522891122904
 20
2309.034760037919
 30
0.0
 40
24.0
 41
0.0
 46
0.0
 71
     5
 72
     1
  1
\A1;120
  7
ＭＳ ゴシック
 11
0.0
 21
1.0
 31
0.0
 73
     1
 44
1.0
  0
POINT
  5
7699
330
7690
100
AcDbEntity
  8
Defpoints
 62
     0
100
AcDbPoint
 10
2674.509617536778
 20
2249.037474761035
 30
0.0
  0
POINT
  5
769A
330
7690
100
AcDbEntity
  8
Defpoints
 62
     0
100
AcDbPoint
 10
2700.16106255145
 20
2369.032045314803
 30
0.0
  0
POINT
  5
769B
330
7690
100
AcDbEntity
  8
Defpoints
 62
     0
100
AcDbPoint
 10
2575.522891122904
 20
2369.032045314803
 30
0.0
  0
ENDBLK
  5
7692
330
7690
100
AcDbEntity
  8
0
100
AcDbBlockEnd
  0
BLOCK
  5
774B
330
774A
100
AcDbEntity
  8
0
100
AcDbBlockBegin
  2
*D19
 70
     1
 10
0.0
 20
0.0
 30
0.0
  3
*D19
  1

  0
LINE
  5
774D
330
774A
100
AcDbEntity
  8
DIM
 62
     0
370
    -2
100
AcDbLine
 10
3978.661050187361
 20
777.1003875011268
 30
0.0
 11
4008.661050187361
 21
777.1003875011268
 31
0.0
  0
LINE
  5
774E
330
774A
100
AcDbEntity
  8
DIM
 62
     0
370
    -2
100
AcDbLine
 10
3978.661050187361
 20
882.1003875011269
 30
0.0
 11
4008.661050187361
 21
882.1003875011269
 31
0.0
  0
LINE
  5
774F
330
774A
100
AcDbEntity
  8
DIM
 62
     0
370
    -2
100
AcDbLine
 10
4008.661050187361
 20
882.1003875011269
 30
0.0
 11
4008.661050187361
 21
1087.132387501127
 31
0.0
  0
LINE
  5
7750
330
774A
100
AcDbEntity
  8
DIM
 62
     0
370
    -2
100
AcDbLine
 10
4008.661050187361
 20
787.1003875011268
 30
0.0
 11
4008.661050187361
 21
872.1003875011269
 31
0.0
  0
LINE
  5
7751
330
774A
100
AcDbEntity
  8
DIM
 62
     0
370
    -2
100
AcDbLine
 10
4008.661050187361
 20
872.1003875011269
 30
0.0
 11
4008.661050187361
 21
862.1003875011269
 31
0.0
  0
INSERT
  5
7752
330
774A
100
AcDbEntity
  8
DIM
 62
     0
370
    -2
100
AcDbBlockReference
  2
_DOT
 10
4008.661050187361
 20
777.1003875011268
 30
0.0
 41
10.0
 42
10.0
 43
10.0
 50
270.0
  0
INSERT
  5
7753
330
774A
100
AcDbEntity
  8
DIM
 62
     0
370
    -2
100
AcDbBlockReference
  2
_DOT
 10
4008.661050187361
 20
882.1003875011269
 30
0.0
 41
10.0
 42
10.0
 43
10.0
 50
90.0
  0
MTEXT
  5
7754
330
774A
100
AcDbEntity
  8
DIM
 62
     0
100
AcDbMText
 10
3974.53705018736
 20
1002.116387501127
 30
0.0
 40
24.0
 41
0.0
 46
0.0
 71
     5
 72
     1
  1
\A1;115(深さ)
  7
ＭＳ ゴシック
 11
0.0
 21
1.0
 31
0.0
 73
     1
 44
1.0
  0
POINT
  5
7755
330
774A
100
AcDbEntity
  8
Defpoints
 62
     0
100
AcDbPoint
 10
4008.661050187361
 20
777.1003875011268
 30
0.0
  0
POINT
  5
7756
330
774A
100
AcDbEntity
  8
Defpoints
 62
     0
100
AcDbPoint
 10
4008.661050187361
 20
882.1003875011269
 30
0.0
  0
POINT
  5
7757
330
774A
100
AcDbEntity
  8
Defpoints
 62
     0
100
AcDbPoint
 10
4008.661050187361
 20
882.1003875011269
 30
0.0
  0
ENDBLK
  5
774C
330
774A
100
AcDbEntity
  8
0
100
AcDbBlockEnd
  0
BLOCK
  5
7794
330
7793
100
AcDbEntity
  8
0
100
AcDbBlockBegin
  2
*D20
 70
     1
 10
0.0
 20
0.0
 30
0.0
  3
*D20
  1

  0
LINE
  5
7796
330
7793
100
AcDbEntity
  8
DIM
 62
     0
370
    -2
100
AcDbLine
 10
3574.810376561959
 20
2369.032045314803
 30
0.0
 11
3474.619618635048
 21
2369.032045314803
 31
0.0
  0
LINE
  5
7797
330
7793
100
AcDbEntity
  8
DIM
 62
     0
370
    -2
100
AcDbLine
 10
3517.721379601473
 20
2089.032045314803
 30
0.0
 11
3474.619618635048
 21
2089.032045314803
 31
0.0
  0
LINE
  5
7798
330
7793
100
AcDbEntity
  8
DIM
 62
     0
370
    -2
100
AcDbLine
 10
3474.619618635048
 20
2359.032045314803
 30
0.0
 11
3474.619618635048
 21
2099.032045314803
 31
0.0
  0
INSERT
  5
7799
330
7793
100
AcDbEntity
  8
DIM
 62
     0
370
    -2
100
AcDbBlockReference
  2
_DOT
 10
3474.619618635048
 20
2369.032045314803
 30
0.0
 41
10.0
 42
10.0
 43
10.0
 50
90.0
  0
INSERT
  5
779A
330
7793
100
AcDbEntity
  8
DIM
 62
     0
370
    -2
100
AcDbBlockReference
  2
_DOT
 10
3474.619618635048
 20
2089.032045314803
 30
0.0
 41
10.0
 42
10.0
 43
10.0
 50
270.0
  0
MTEXT
  5
779B
330
7793
100
AcDbEntity
  8
DIM
 62
     0
100
AcDbMText
 10
3442.619618635048
 20
2229.032045314803
 30
0.0
 40
24.0
 41
0.0
 46
0.0
 71
     5
 72
     1
  1
\A1;280
  7
ＭＳ ゴシック
 11
0.0
 21
1.0
 31
0.0
 73
     1
 44
1.0
  0
POINT
  5
779C
330
7793
100
AcDbEntity
  8
Defpoints
 62
     0
100
AcDbPoint
 10
3604.810376561959
 20
2369.032045314803
 30
0.0
  0
POINT
  5
779D
330
7793
100
AcDbEntity
  8
Defpoints
 62
     0
100
AcDbPoint
 10
3547.721379601473
 20
2089.032045314803
 30
0.0
  0
POINT
  5
779E
330
7793
100
AcDbEntity
  8
Defpoints
 62
     0
100
AcDbPoint
 10
3474.619618635048
 20
2089.032045314803
 30
0.0
  0
ENDBLK
  5
7795
330
7793
100
AcDbEntity
  8
0
100
AcDbBlockEnd
  0
BLOCK
  5
77B1
330
77B0
100
AcDbEntity
  8
0
100
AcDbBlockBegin
  2
*D21
 70
     1
 10
0.0
 20
0.0
 30
0.0
  3
*D21
  1

  0
LINE
  5
77B3
330
77B0
100
AcDbEntity
  8
DIM
 62
     0
370
    -2
100
AcDbLine
 10
3648.550124953175
 20
2399.032045314803
 30
0.0
 11
3648.550124953175
 21
2480.652925561231
 31
0.0
  0
LINE
  5
77B4
330
77B0
100
AcDbEntity
  8
DIM
 62
     0
370
    -2
100
AcDbLine
 10
4165.109047623633
 20
2399.032045314803
 30
0.0
 11
4165.109047623633
 21
2480.652925561231
 31
0.0
  0
LINE
  5
77B5
330
77B0
100
AcDbEntity
  8
DIM
 62
     0
370
    -2
100
AcDbLine
 10
3658.550124953175
 20
2480.652925561231
 30
0.0
 11
4155.109047623633
 21
2480.652925561231
 31
0.0
  0
INSERT
  5
77B6
330
77B0
100
AcDbEntity
  8
DIM
 62
     0
370
    -2
100
AcDbBlockReference
  2
_DOT
 10
3648.550124953175
 20
2480.652925561231
 30
0.0
 41
10.0
 42
10.0
 43
10.0
 50
180.0
  0
INSERT
  5
77B7
330
77B0
100
AcDbEntity
  8
DIM
 62
     0
370
    -2
100
AcDbBlockReference
  2
_DOT
 10
4165.109047623633
 20
2480.652925561231
 30
0.0
 41
10.0
 42
10.0
 43
10.0
  0
MTEXT
  5
77B8
330
77B0
100
AcDbEntity
  8
DIM
 62
     0
100
AcDbMText
 10
3906.829586288404
 20
2512.652925561231
 30
0.0
 40
24.0
 41
0.0
 46
0.0
 71
     5
 72
     1
  1
\A1;517
  7
ＭＳ ゴシック
 73
     1
 44
1.0
  0
POINT
  5
77B9
330
77B0
100
AcDbEntity
  8
Defpoints
 62
     0
100
AcDbPoint
 10
3648.550124953175
 20
2369.032045314803
 30
0.0
  0
POINT
  5
77BA
330
77B0
100
AcDbEntity
  8
Defpoints
 62
     0
100
AcDbPoint
 10
4165.109047623633
 20
2369.032045314803
 30
0.0
  0
POINT
  5
77BB
330
77B0
100
AcDbEntity
  8
Defpoints
 62
     0
100
AcDbPoint
 10
4165.109047623633
 20
2480.652925561231
 30
0.0
  0
ENDBLK
  5
77B2
330
77B0
100
AcDbEntity
  8
0
100
AcDbBlockEnd
  0
BLOCK
  5
77D1
330
77D0
100
AcDbEntity
  8
0
100
AcDbBlockBegin
  2
*D22
 70
     1
 10
0.0
 20
0.0
 30
0.0
  3
*D22
  1

  0
LINE
  5
77D3
330
77D0
100
AcDbEntity
  8
DIM
 62
     0
370
    -2
100
AcDbLine
 10
4295.937792975334
 20
1654.577259741322
 30
0.0
 11
4348.708654130303
 21
1654.577259741322
 31
0.0
  0
LINE
  5
77D4
330
77D0
100
AcDbEntity
  8
DIM
 62
     0
370
    -2
100
AcDbLine
 10
4188.018734208126
 20
1574.524137489009
 30
0.0
 11
4348.708654130303
 21
1574.524137489009
 31
0.0
  0
LINE
  5
77D5
330
77D0
100
AcDbEntity
  8
DIM
 62
     0
370
    -2
100
AcDbLine
 10
4348.708654130303
 20
1644.577259741322
 30
0.0
 11
4348.708654130303
 21
1584.524137489009
 31
0.0
  0
INSERT
  5
77D6
330
77D0
100
AcDbEntity
  8
DIM
 62
     0
370
    -2
100
AcDbBlockReference
  2
_DOT
 10
4348.708654130303
 20
1654.577259741322
 30
0.0
 41
10.0
 42
10.0
 43
10.0
 50
90.0
  0
INSERT
  5
77D7
330
77D0
100
AcDbEntity
  8
DIM
 62
     0
370
    -2
100
AcDbBlockReference
  2
_DOT
 10
4348.708654130303
 20
1574.524137489009
 30
0.0
 41
10.0
 42
10.0
 43
10.0
 50
270.0
  0
MTEXT
  5
77D8
330
77D0
100
AcDbEntity
  8
DIM
 62
     0
100
AcDbMText
 10
4316.708654130303
 20
1614.550698615165
 30
0.0
 40
24.0
 41
0.0
 46
0.0
 71
     5
 72
     1
  1
\A1;80
  7
ＭＳ ゴシック
 11
0.0
 21
1.0
 31
0.0
 73
     1
 44
1.0
  0
POINT
  5
77D9
330
77D0
100
AcDbEntity
  8
Defpoints
 62
     0
100
AcDbPoint
 10
4265.937792975334
 20
1654.577259741322
 30
0.0
  0
POINT
  5
77DA
330
77D0
100
AcDbEntity
  8
Defpoints
 62
     0
100
AcDbPoint
 10
4158.018734208126
 20
1574.524137489009
 30
0.0
  0
POINT
  5
77DB
330
77D0
100
AcDbEntity
  8
Defpoints
 62
     0
100
AcDbPoint
 10
4348.708654130303
 20
1574.524137489009
 30
0.0
  0
ENDBLK
  5
77D2
330
77D0
100
AcDbEntity
  8
0
100
AcDbBlockEnd
  0
BLOCK
  5
7813
330
7812
100
AcDbEntity
  8
0
100
AcDbBlockBegin
  2
*D23
 70
     1
 10
0.0
 20
0.0
 30
0.0
  3
*D23
  1

  0
LINE
  5
7815
330
7812
100
AcDbEntity
  8
DIM
 62
     0
370
    -2
100
AcDbLine
 10
3648.550124953174
 20
1684.577259741322
 30
0.0
 11
3648.550124953174
 21
1779.54201758611
 31
0.0
  0
LINE
  5
7816
330
7812
100
AcDbEntity
  8
DIM
 62
     0
370
    -2
100
AcDbLine
 10
4165.109047623633
 20
1684.577259741322
 30
0.0
 11
4165.109047623633
 21
1779.54201758611
 31
0.0
  0
LINE
  5
7817
330
7812
100
AcDbEntity
  8
DIM
 62
     0
370
    -2
100
AcDbLine
 10
3658.550124953174
 20
1779.54201758611
 30
0.0
 11
4155.109047623633
 21
1779.54201758611
 31
0.0
  0
INSERT
  5
7818
330
7812
100
AcDbEntity
  8
DIM
 62
     0
370
    -2
100
AcDbBlockReference
  2
_DOT
 10
3648.550124953174
 20
1779.54201758611
 30
0.0
 41
10.0
 42
10.0
 43
10.0
 50
180.0
  0
INSERT
  5
7819
330
7812
100
AcDbEntity
  8
DIM
 62
     0
370
    -2
100
AcDbBlockReference
  2
_DOT
 10
4165.109047623633
 20
1779.54201758611
 30
0.0
 41
10.0
 42
10.0
 43
10.0
  0
MTEXT
  5
781A
330
7812
100
AcDbEntity
  8
DIM
 62
     0
100
AcDbMText
 10
3906.829586288403
 20
1811.54201758611
 30
0.0
 40
24.0
 41
0.0
 46
0.0
 71
     5
 72
     1
  1
\A1;517
  7
ＭＳ ゴシック
 73
     1
 44
1.0
  0
POINT
  5
781B
330
7812
100
AcDbEntity
  8
Defpoints
 62
     0
100
AcDbPoint
 10
3648.550124953174
 20
1654.577259741322
 30
0.0
  0
POINT
  5
781C
330
7812
100
AcDbEntity
  8
Defpoints
 62
     0
100
AcDbPoint
 10
4165.109047623633
 20
1654.577259741322
 30
0.0
  0
POINT
  5
781D
330
7812
100
AcDbEntity
  8
Defpoints
 62
     0
100
AcDbPoint
 10
4165.109047623633
 20
1779.54201758611
 30
0.0
  0
ENDBLK
  5
7814
330
7812
100
AcDbEntity
  8
0
100
AcDbBlockEnd
  0
BLOCK
  5
7938
330
7937
100
AcDbEntity
  8
0
100
AcDbBlockBegin
  2
*D24
 70
     1
 10
0.0
 20
0.0
 30
0.0
  3
*D24
  1

  0
LINE
  5
793A
330
7937
100
AcDbEntity
  8
DIM
 62
     0
370
    -2
100
AcDbLine
 10
616.4924872159582
 20
2308.935627415331
 30
0.0
 11
866.5923681506006
 21
2308.935627415331
 31
0.0
  0
LINE
  5
793B
330
7937
100
AcDbEntity
  8
DIM
 62
     0
370
    -2
100
AcDbLine
 10
586.6789760233308
 20
2368.785001445114
 30
0.0
 11
866.5923681506006
 21
2368.785001445114
 31
0.0
  0
LINE
  5
793C
330
7937
100
AcDbEntity
  8
DIM
 62
     0
370
    -2
100
AcDbLine
 10
866.5923681506006
 20
2298.935627415331
 30
0.0
 11
866.5923681506006
 21
2288.935627415331
 31
0.0
  0
LINE
  5
793D
330
7937
100
AcDbEntity
  8
DIM
 62
     0
370
    -2
100
AcDbLine
 10
866.5923681506006
 20
2378.785001445114
 30
0.0
 11
866.5923681506006
 21
2388.785001445114
 31
0.0
  0
INSERT
  5
793E
330
7937
100
AcDbEntity
  8
DIM
 62
     0
370
    -2
100
AcDbBlockReference
  2
_DOT
 10
866.5923681506006
 20
2308.935627415331
 30
0.0
 41
10.0
 42
10.0
 43
10.0
 50
90.0
  0
INSERT
  5
793F
330
7937
100
AcDbEntity
  8
DIM
 62
     0
370
    -2
100
AcDbBlockReference
  2
_DOT
 10
866.5923681506006
 20
2368.785001445114
 30
0.0
 41
10.0
 42
10.0
 43
10.0
 50
270.0
  0
MTEXT
  5
7940
330
7937
100
AcDbEntity
  8
DIM
 62
     0
100
AcDbMText
 10
834.5923681506006
 20
2338.860314430222
 30
0.0
 40
24.0
 41
0.0
 46
0.0
 71
     5
 72
     1
  1
\A1;60
  7
ＭＳ ゴシック
 11
0.0
 21
1.0
 31
0.0
 73
     1
 44
1.0
  0
POINT
  5
7941
330
7937
100
AcDbEntity
  8
Defpoints
 62
     0
100
AcDbPoint
 10
586.4924872159582
 20
2308.935627415331
 30
0.0
  0
POINT
  5
7942
330
7937
100
AcDbEntity
  8
Defpoints
 62
     0
100
AcDbPoint
 10
556.6789760233308
 20
2368.785001445114
 30
0.0
  0
POINT
  5
7943
330
7937
100
AcDbEntity
  8
Defpoints
 62
     0
100
AcDbPoint
 10
866.5923681506006
 20
2368.785001445114
 30
0.0
  0
ENDBLK
  5
7939
330
7937
100
AcDbEntity
  8
0
100
AcDbBlockEnd
  0
BLOCK
  5
7948
330
7947
100
AcDbEntity
  8
0
100
AcDbBlockBegin
  2
*D25
 70
     1
 10
0.0
 20
0.0
 30
0.0
  3
*D25
  1

  0
LINE
  5
794A
330
7947
100
AcDbEntity
  8
DIM
 62
     0
370
    -2
100
AcDbLine
 10
328.4134942249225
 20
2206.509644328355
 30
0.0
 11
328.4134942249225
 21
2436.784699670568
 31
0.0
  0
LINE
  5
794B
330
7947
100
AcDbEntity
  8
DIM
 62
     0
370
    -2
100
AcDbLine
 10
788.4136677210336
 20
2206.509644328355
 30
0.0
 11
788.4136677210336
 21
2436.784699670568
 31
0.0
  0
LINE
  5
794C
330
7947
100
AcDbEntity
  8
DIM
 62
     0
370
    -2
100
AcDbLine
 10
338.4134942249225
 20
2436.784699670568
 30
0.0
 11
778.4136677210336
 21
2436.784699670568
 31
0.0
  0
INSERT
  5
794D
330
7947
100
AcDbEntity
  8
DIM
 62
     0
370
    -2
100
AcDbBlockReference
  2
_DOT
 10
328.4134942249225
 20
2436.784699670568
 30
0.0
 41
10.0
 42
10.0
 43
10.0
 50
180.0
  0
INSERT
  5
794E
330
7947
100
AcDbEntity
  8
DIM
 62
     0
370
    -2
100
AcDbBlockReference
  2
_DOT
 10
788.4136677210336
 20
2436.784699670568
 30
0.0
 41
10.0
 42
10.0
 43
10.0
  0
MTEXT
  5
794F
330
7947
100
AcDbEntity
  8
DIM
 62
     0
100
AcDbMText
 10
558.413580972978
 20
2468.784699670568
 30
0.0
 40
24.0
 41
0.0
 46
0.0
 71
     5
 72
     1
  1
\A1;460
  7
ＭＳ ゴシック
 73
     1
 44
1.0
  0
POINT
  5
7950
330
7947
100
AcDbEntity
  8
Defpoints
 62
     0
100
AcDbPoint
 10
328.4134942249225
 20
2176.509644328355
 30
0.0
  0
POINT
  5
7951
330
7947
100
AcDbEntity
  8
Defpoints
 62
     0
100
AcDbPoint
 10
788.4136677210336
 20
2176.509644328355
 30
0.0
  0
POINT
  5
7952
330
7947
100
AcDbEntity
  8
Defpoints
 62
     0
100
AcDbPoint
 10
788.4136677210336
 20
2436.784699670568
 30
0.0
  0
ENDBLK
  5
7949
330
7947
100
AcDbEntity
  8
0
100
AcDbBlockEnd
  0
BLOCK
  5
7957
330
7956
100
AcDbEntity
  8
0
100
AcDbBlockBegin
  2
*D26
 70
     1
 10
0.0
 20
0.0
 30
0.0
  3
*D26
  1

  0
LINE
  5
7959
330
7956
100
AcDbEntity
  8
DIM
 62
     0
370
    -2
100
AcDbLine
 10
600.7705670638184
 20
2368.790712041077
 30
0.0
 11
910.2098056275604
 21
2368.790712041077
 31
0.0
  0
LINE
  5
795A
330
7956
100
AcDbEntity
  8
DIM
 62
     0
370
    -2
100
AcDbLine
 10
599.6035791815565
 20
1908.792160236471
 30
0.0
 11
910.2098056275604
 21
1908.792160236471
 31
0.0
  0
LINE
  5
795B
330
7956
100
AcDbEntity
  8
DIM
 62
     0
370
    -2
100
AcDbLine
 10
910.2098056275604
 20
2358.790712041077
 30
0.0
 11
910.2098056275604
 21
1918.792160236471
 31
0.0
  0
INSERT
  5
795C
330
7956
100
AcDbEntity
  8
DIM
 62
     0
370
    -2
100
AcDbBlockReference
  2
_DOT
 10
910.2098056275604
 20
2368.790712041077
 30
0.0
 41
10.0
 42
10.0
 43
10.0
 50
90.0
  0
INSERT
  5
795D
330
7956
100
AcDbEntity
  8
DIM
 62
     0
370
    -2
100
AcDbBlockReference
  2
_DOT
 10
910.2098056275604
 20
1908.792160236471
 30
0.0
 41
10.0
 42
10.0
 43
10.0
 50
270.0
  0
MTEXT
  5
795E
330
7956
100
AcDbEntity
  8
DIM
 62
     0
100
AcDbMText
 10
878.2098056275604
 20
2138.791436138774
 30
0.0
 40
24.0
 41
0.0
 46
0.0
 71
     5
 72
     1
  1
\A1;460
  7
ＭＳ ゴシック
 11
0.0
 21
1.0
 31
0.0
 73
     1
 44
1.0
  0
POINT
  5
795F
330
7956
100
AcDbEntity
  8
Defpoints
 62
     0
100
AcDbPoint
 10
570.7705670638184
 20
2368.790712041077
 30
0.0
  0
POINT
  5
7960
330
7956
100
AcDbEntity
  8
Defpoints
 62
     0
100
AcDbPoint
 10
569.6035791815565
 20
1908.792160236471
 30
0.0
  0
POINT
  5
7961
330
7956
100
AcDbEntity
  8
Defpoints
 62
     0
100
AcDbPoint
 10
910.2098056275604
 20
1908.792160236471
 30
0.0
  0
ENDBLK
  5
7958
330
7956
100
AcDbEntity
  8
0
100
AcDbBlockEnd
  0
BLOCK
  5
7966
330
7965
100
AcDbEntity
  8
0
100
AcDbBlockBegin
  2
*D27
 70
     1
 10
0.0
 20
0.0
 30
0.0
  3
*D27
  1

  0
LINE
  5
7968
330
7965
100
AcDbEntity
  8
DIM
 62
     0
370
    -2
100
AcDbLine
 10
519.4569489371491
 20
2368.620224946531
 30
0.0
 11
210.1145448372868
 21
2368.620224946531
 31
0.0
  0
LINE
  5
7969
330
7965
100
AcDbEntity
  8
DIM
 62
     0
370
    -2
100
AcDbLine
 10
389.9074007643436
 20
2248.975290787526
 30
0.0
 11
210.1145448372868
 21
2248.975290787526
 31
0.0
  0
LINE
  5
796A
330
7965
100
AcDbEntity
  8
DIM
 62
     0
370
    -2
100
AcDbLine
 10
210.1145448372868
 20
2358.620224946531
 30
0.0
 11
210.1145448372868
 21
2258.975290787526
 31
0.0
  0
INSERT
  5
796B
330
7965
100
AcDbEntity
  8
DIM
 62
     0
370
    -2
100
AcDbBlockReference
  2
_DOT
 10
210.1145448372868
 20
2368.620224946531
 30
0.0
 41
10.0
 42
10.0
 43
10.0
 50
90.0
  0
INSERT
  5
796C
330
7965
100
AcDbEntity
  8
DIM
 62
     0
370
    -2
100
AcDbBlockReference
  2
_DOT
 10
210.1145448372868
 20
2248.975290787526
 30
0.0
 41
10.0
 42
10.0
 43
10.0
 50
270.0
  0
MTEXT
  5
796D
330
7965
100
AcDbEntity
  8
DIM
 62
     0
100
AcDbMText
 10
178.1145448372868
 20
2308.797757867028
 30
0.0
 40
24.0
 41
0.0
 46
0.0
 71
     5
 72
     1
  1
\A1;120
  7
ＭＳ ゴシック
 11
0.0
 21
1.0
 31
0.0
 73
     1
 44
1.0
  0
POINT
  5
796E
330
7965
100
AcDbEntity
  8
Defpoints
 62
     0
100
AcDbPoint
 10
549.4569489371491
 20
2368.620224946531
 30
0.0
  0
POINT
  5
796F
330
7965
100
AcDbEntity
  8
Defpoints
 62
     0
100
AcDbPoint
 10
419.9074007643436
 20
2248.975290787526
 30
0.0
  0
POINT
  5
7970
330
7965
100
AcDbEntity
  8
Defpoints
 62
     0
100
AcDbPoint
 10
210.1145448372868
 20
2248.975290787526
 30
0.0
  0
ENDBLK
  5
7967
330
7965
100
AcDbEntity
  8
0
100
AcDbBlockEnd
  0
BLOCK
  5
7975
330
7974
100
AcDbEntity
  8
0
100
AcDbBlockBegin
  2
*D28
 70
     1
 10
0.0
 20
0.0
 30
0.0
  3
*D28
  1

  0
LINE
  5
7977
330
7974
100
AcDbEntity
  8
DIM
 62
     0
370
    -2
100
AcDbLine
 10
326.4725780138309
 20
2248.975290787526
 30
0.0
 11
210.1145448372867
 21
2248.975290787526
 31
0.0
  0
LINE
  5
7978
330
7974
100
AcDbEntity
  8
DIM
 62
     0
370
    -2
100
AcDbLine
 10
520.318456217954
 20
1938.90417954886
 30
0.0
 11
210.1145448372867
 21
1938.90417954886
 31
0.0
  0
LINE
  5
7979
330
7974
100
AcDbEntity
  8
DIM
 62
     0
370
    -2
100
AcDbLine
 10
210.1145448372867
 20
2238.975290787526
 30
0.0
 11
210.1145448372867
 21
1948.90417954886
 31
0.0
  0
INSERT
  5
797A
330
7974
100
AcDbEntity
  8
DIM
 62
     0
370
    -2
100
AcDbBlockReference
  2
_DOT
 10
210.1145448372867
 20
2248.975290787526
 30
0.0
 41
10.0
 42
10.0
 43
10.0
 50
90.0
  0
INSERT
  5
797B
330
7974
100
AcDbEntity
  8
DIM
 62
     0
370
    -2
100
AcDbBlockReference
  2
_DOT
 10
210.1145448372867
 20
1938.90417954886
 30
0.0
 41
10.0
 42
10.0
 43
10.0
 50
270.0
  0
MTEXT
  5
797C
330
7974
100
AcDbEntity
  8
DIM
 62
     0
100
AcDbMText
 10
178.1145448372867
 20
2093.939735168193
 30
0.0
 40
24.0
 41
0.0
 46
0.0
 71
     5
 72
     1
  1
\A1;310
  7
ＭＳ ゴシック
 11
9.166190722142913E-17
 21
1.0
 31
0.0
 73
     1
 44
1.0
  0
POINT
  5
797D
330
7974
100
AcDbEntity
  8
Defpoints
 62
     0
100
AcDbPoint
 10
356.4725780138309
 20
2248.975290787526
 30
0.0
  0
POINT
  5
797E
330
7974
100
AcDbEntity
  8
Defpoints
 62
     0
100
AcDbPoint
 10
550.318456217954
 20
1938.90417954886
 30
0.0
  0
POINT
  5
797F
330
7974
100
AcDbEntity
  8
Defpoints
 62
     0
100
AcDbPoint
 10
210.1145448372867
 20
1938.90417954886
 30
0.0
  0
ENDBLK
  5
7976
330
7974
100
AcDbEntity
  8
0
100
AcDbBlockEnd
  0
BLOCK
  5
7985
330
7984
100
AcDbEntity
  8
0
100
AcDbBlockBegin
  2
*D29
 70
     1
 10
0.0
 20
0.0
 30
0.0
  3
*D29
  1

  0
LINE
  5
7987
330
7984
100
AcDbEntity
  8
DIM
 62
     0
370
    -2
100
AcDbLine
 10
355.8610817220847
 20
2081.63886460799
 30
0.0
 11
355.8610817220847
 21
1820.214668302533
 31
0.0
  0
LINE
  5
7988
330
7984
100
AcDbEntity
  8
DIM
 62
     0
370
    -2
100
AcDbLine
 10
760.9161291749646
 20
2081.767498544923
 30
0.0
 11
760.9161291749646
 21
1820.214668302533
 31
0.0
  0
LINE
  5
7989
330
7984
100
AcDbEntity
  8
DIM
 62
     0
370
    -2
100
AcDbLine
 10
365.8610817220847
 20
1820.214668302533
 30
0.0
 11
750.9161291749646
 21
1820.214668302533
 31
0.0
  0
INSERT
  5
798A
330
7984
100
AcDbEntity
  8
DIM
 62
     0
370
    -2
100
AcDbBlockReference
  2
_DOT
 10
355.8610817220847
 20
1820.214668302533
 30
0.0
 41
10.0
 42
10.0
 43
10.0
 50
180.0
  0
INSERT
  5
798B
330
7984
100
AcDbEntity
  8
DIM
 62
     0
370
    -2
100
AcDbBlockReference
  2
_DOT
 10
760.9161291749646
 20
1820.214668302533
 30
0.0
 41
10.0
 42
10.0
 43
10.0
  0
MTEXT
  5
798C
330
7984
100
AcDbEntity
  8
DIM
 62
     0
100
AcDbMText
 10
558.3886054485247
 20
1852.214668302533
 30
0.0
 40
24.0
 41
0.0
 46
0.0
 71
     5
 72
     1
  1
\A1;400
  7
ＭＳ ゴシック
 73
     1
 44
1.0
  0
POINT
  5
798D
330
7984
100
AcDbEntity
  8
Defpoints
 62
     0
100
AcDbPoint
 10
355.8610817220847
 20
2111.63886460799
 30
0.0
  0
POINT
  5
798E
330
7984
100
AcDbEntity
  8
Defpoints
 62
     0
100
AcDbPoint
 10
760.9161291749646
 20
2111.767498544923
 30
0.0
  0
POINT
  5
798F
330
7984
100
AcDbEntity
  8
Defpoints
 62
     0
100
AcDbPoint
 10
760.9161291749646
 20
1820.214668302533
 30
0.0
  0
ENDBLK
  5
7986
330
7984
100
AcDbEntity
  8
0
100
AcDbBlockEnd
  0
BLOCK
  5
7995
330
7994
100
AcDbEntity
  8
0
100
AcDbBlockBegin
  2
*D30
 70
     1
 10
0.0
 20
0.0
 30
0.0
  3
*D30
  1

  0
LINE
  5
7997
330
7994
100
AcDbEntity
  8
DIM
 62
     0
370
    -2
100
AcDbLine
 10
1756.80618643841
 20
916.5425102447194
 30
0.0
 11
1756.80618643841
 21
967.940903893984
 31
0.0
  0
LINE
  5
7998
330
7994
100
AcDbEntity
  8
DIM
 62
     0
370
    -2
100
AcDbLine
 10
1696.80618643841
 20
916.5425102447196
 30
0.0
 11
1696.80618643841
 21
967.940903893984
 31
0.0
  0
LINE
  5
7999
330
7994
100
AcDbEntity
  8
DIM
 62
     0
370
    -2
100
AcDbLine
 10
1746.80618643841
 20
967.940903893984
 30
0.0
 11
1706.80618643841
 21
967.940903893984
 31
0.0
  0
INSERT
  5
799A
330
7994
100
AcDbEntity
  8
DIM
 62
     0
370
    -2
100
AcDbBlockReference
  2
_DOT
 10
1756.80618643841
 20
967.940903893984
 30
0.0
 41
10.0
 42
10.0
 43
10.0
  0
INSERT
  5
799B
330
7994
100
AcDbEntity
  8
DIM
 62
     0
370
    -2
100
AcDbBlockReference
  2
_DOT
 10
1696.80618643841
 20
967.940903893984
 30
0.0
 41
10.0
 42
10.0
 43
10.0
 50
180.0
  0
MTEXT
  5
799C
330
7994
100
AcDbEntity
  8
DIM
 62
     0
100
AcDbMText
 10
1726.80618643841
 20
999.940903893984
 30
0.0
 40
24.0
 41
0.0
 46
0.0
 71
     5
 72
     1
  1
\A1;60
  7
ＭＳ ゴシック
 73
     1
 44
1.0
  0
POINT
  5
799D
330
7994
100
AcDbEntity
  8
Defpoints
 62
     0
100
AcDbPoint
 10
1756.80618643841
 20
886.5425102447194
 30
0.0
  0
POINT
  5
799E
330
7994
100
AcDbEntity
  8
Defpoints
 62
     0
100
AcDbPoint
 10
1696.80618643841
 20
886.5425102447196
 30
0.0
  0
POINT
  5
799F
330
7994
100
AcDbEntity
  8
Defpoints
 62
     0
100
AcDbPoint
 10
1696.80618643841
 20
967.940903893984
 30
0.0
  0
ENDBLK
  5
7996
330
7994
100
AcDbEntity
  8
0
100
AcDbBlockEnd
  0
BLOCK
  5
79A3
330
79A2
100
AcDbEntity
  8
0
100
AcDbBlockBegin
  2
*D31
 70
     1
 10
0.0
 20
0.0
 30
0.0
  3
*D31
  1

  0
LINE
  5
79A5
330
79A2
100
AcDbEntity
  8
DIM
 62
     0
370
    -2
100
AcDbLine
 10
1756.35971045258
 20
781.0441343377526
 30
0.0
 11
1756.35971045258
 21
512.3368230672361
 31
0.0
  0
LINE
  5
79A6
330
79A2
100
AcDbEntity
  8
DIM
 62
     0
370
    -2
100
AcDbLine
 10
1476.35971045258
 20
707.1703772339316
 30
0.0
 11
1476.35971045258
 21
512.3368230672361
 31
0.0
  0
LINE
  5
79A7
330
79A2
100
AcDbEntity
  8
DIM
 62
     0
370
    -2
100
AcDbLine
 10
1746.35971045258
 20
512.3368230672361
 30
0.0
 11
1486.35971045258
 21
512.3368230672361
 31
0.0
  0
INSERT
  5
79A8
330
79A2
100
AcDbEntity
  8
DIM
 62
     0
370
    -2
100
AcDbBlockReference
  2
_DOT
 10
1756.35971045258
 20
512.3368230672361
 30
0.0
 41
10.0
 42
10.0
 43
10.0
  0
INSERT
  5
79A9
330
79A2
100
AcDbEntity
  8
DIM
 62
     0
370
    -2
100
AcDbBlockReference
  2
_DOT
 10
1476.35971045258
 20
512.3368230672361
 30
0.0
 41
10.0
 42
10.0
 43
10.0
 50
180.0
  0
MTEXT
  5
79AA
330
79A2
100
AcDbEntity
  8
DIM
 62
     0
100
AcDbMText
 10
1616.35971045258
 20
544.3368230672361
 30
0.0
 40
24.0
 41
0.0
 46
0.0
 71
     5
 72
     1
  1
\A1;280
  7
ＭＳ ゴシック
 73
     1
 44
1.0
  0
POINT
  5
79AB
330
79A2
100
AcDbEntity
  8
Defpoints
 62
     0
100
AcDbPoint
 10
1756.35971045258
 20
811.0441343377526
 30
0.0
  0
POINT
  5
79AC
330
79A2
100
AcDbEntity
  8
Defpoints
 62
     0
100
AcDbPoint
 10
1476.35971045258
 20
737.1703772339316
 30
0.0
  0
POINT
  5
79AD
330
79A2
100
AcDbEntity
  8
Defpoints
 62
     0
100
AcDbPoint
 10
1476.35971045258
 20
512.3368230672361
 30
0.0
  0
ENDBLK
  5
79A4
330
79A2
100
AcDbEntity
  8
0
100
AcDbBlockEnd
  0
BLOCK
  5
79B2
330
79B1
100
AcDbEntity
  8
0
100
AcDbBlockBegin
  2
*D32
 70
     1
 10
0.0
 20
0.0
 30
0.0
  3
*D32
  1

  0
LINE
  5
79B4
330
79B1
100
AcDbEntity
  8
DIM
 62
     0
370
    -2
100
AcDbLine
 10
1756.35971045258
 20
751.0441343377526
 30
0.0
 11
1756.35971045258
 21
597.2534280325858
 31
0.0
  0
LINE
  5
79B5
330
79B1
100
AcDbEntity
  8
DIM
 62
     0
370
    -2
100
AcDbLine
 10
1546.35971045258
 20
690.3570472228594
 30
0.0
 11
1546.35971045258
 21
597.2534280325858
 31
0.0
  0
LINE
  5
79B6
330
79B1
100
AcDbEntity
  8
DIM
 62
     0
370
    -2
100
AcDbLine
 10
1746.35971045258
 20
597.2534280325858
 30
0.0
 11
1556.35971045258
 21
597.2534280325858
 31
0.0
  0
INSERT
  5
79B7
330
79B1
100
AcDbEntity
  8
DIM
 62
     0
370
    -2
100
AcDbBlockReference
  2
_DOT
 10
1756.35971045258
 20
597.2534280325858
 30
0.0
 41
10.0
 42
10.0
 43
10.0
  0
INSERT
  5
79B8
330
79B1
100
AcDbEntity
  8
DIM
 62
     0
370
    -2
100
AcDbBlockReference
  2
_DOT
 10
1546.35971045258
 20
597.2534280325858
 30
0.0
 41
10.0
 42
10.0
 43
10.0
 50
180.0
  0
MTEXT
  5
79B9
330
79B1
100
AcDbEntity
  8
DIM
 62
     0
100
AcDbMText
 10
1651.35971045258
 20
629.2534280325858
 30
0.0
 40
24.0
 41
0.0
 46
0.0
 71
     5
 72
     1
  1
\A1;210
  7
ＭＳ ゴシック
 73
     1
 44
1.0
  0
POINT
  5
79BA
330
79B1
100
AcDbEntity
  8
Defpoints
 62
     0
100
AcDbPoint
 10
1756.35971045258
 20
781.0441343377526
 30
0.0
  0
POINT
  5
79BB
330
79B1
100
AcDbEntity
  8
Defpoints
 62
     0
100
AcDbPoint
 10
1546.35971045258
 20
720.3570472228594
 30
0.0
  0
POINT
  5
79BC
330
79B1
100
AcDbEntity
  8
Defpoints
 62
     0
100
AcDbPoint
 10
1546.35971045258
 20
597.2534280325858
 30
0.0
  0
ENDBLK
  5
79B3
330
79B1
100
AcDbEntity
  8
0
100
AcDbBlockEnd
  0
BLOCK
  5
79C4
330
79C3
100
AcDbEntity
  8
0
100
AcDbBlockBegin
  2
*D33
 70
     1
 10
0.0
 20
0.0
 30
0.0
  3
*D33
  1

  0
LINE
  5
79C6
330
79C3
100
AcDbEntity
  8
DIM
 62
     0
370
    -2
100
AcDbLine
 10
1277.292407908865
 20
742.1879973993866
 30
0.0
 11
1209.533651492995
 21
742.1879973993866
 31
0.0
  0
LINE
  5
79C7
330
79C3
100
AcDbEntity
  8
DIM
 62
     0
370
    -2
100
AcDbLine
 10
1279.706204363485
 20
882.1003875011272
 30
0.0
 11
1209.533651492995
 21
882.1003875011272
 31
0.0
  0
LINE
  5
79C8
330
79C3
100
AcDbEntity
  8
DIM
 62
     0
370
    -2
100
AcDbLine
 10
1209.533651492995
 20
752.1879973993866
 30
0.0
 11
1209.533651492995
 21
872.1003875011272
 31
0.0
  0
INSERT
  5
79C9
330
79C3
100
AcDbEntity
  8
DIM
 62
     0
370
    -2
100
AcDbBlockReference
  2
_DOT
 10
1209.533651492995
 20
742.1879973993866
 30
0.0
 41
10.0
 42
10.0
 43
10.0
 50
270.0
  0
INSERT
  5
79CA
330
79C3
100
AcDbEntity
  8
DIM
 62
     0
370
    -2
100
AcDbBlockReference
  2
_DOT
 10
1209.533651492995
 20
882.1003875011272
 30
0.0
 41
10.0
 42
10.0
 43
10.0
 50
90.0
  0
MTEXT
  5
79CB
330
79C3
100
AcDbEntity
  8
DIM
 62
     0
100
AcDbMText
 10
1177.533651492995
 20
812.1441924502569
 30
0.0
 40
24.0
 41
0.0
 46
0.0
 71
     5
 72
     1
  1
\A1;140
  7
ＭＳ ゴシック
 11
0.0
 21
1.0
 31
0.0
 73
     1
 44
1.0
  0
POINT
  5
79CC
330
79C3
100
AcDbEntity
  8
Defpoints
 62
     0
100
AcDbPoint
 10
1307.292407908865
 20
742.1879973993866
 30
0.0
  0
POINT
  5
79CD
330
79C3
100
AcDbEntity
  8
Defpoints
 62
     0
100
AcDbPoint
 10
1309.706204363485
 20
882.1003875011272
 30
0.0
  0
POINT
  5
79CE
330
79C3
100
AcDbEntity
  8
Defpoints
 62
     0
100
AcDbPoint
 10
1209.533651492995
 20
882.1003875011272
 30
0.0
  0
ENDBLK
  5
79C5
330
79C3
100
AcDbEntity
  8
0
100
AcDbBlockEnd
  0
BLOCK
  5
79D1
330
79D0
100
AcDbEntity
  8
0
100
AcDbBlockBegin
  2
*D34
 70
     1
 10
0.0
 20
0.0
 30
0.0
  3
*D34
  1

  0
LINE
  5
79D3
330
79D0
100
AcDbEntity
  8
DIM
 62
     0
370
    -2
100
AcDbLine
 10
805.0077860193958
 20
882.1003875011268
 30
0.0
 11
905.545898290223
 21
882.1003875011268
 31
0.0
  0
LINE
  5
79D4
330
79D0
100
AcDbEntity
  8
DIM
 62
     0
370
    -2
100
AcDbLine
 10
632.7592710112442
 20
727.1003875011268
 30
0.0
 11
905.545898290223
 21
727.1003875011268
 31
0.0
  0
LINE
  5
79D5
330
79D0
100
AcDbEntity
  8
DIM
 62
     0
370
    -2
100
AcDbLine
 10
905.545898290223
 20
872.1003875011268
 30
0.0
 11
905.545898290223
 21
737.1003875011268
 31
0.0
  0
INSERT
  5
79D6
330
79D0
100
AcDbEntity
  8
DIM
 62
     0
370
    -2
100
AcDbBlockReference
  2
_DOT
 10
905.545898290223
 20
882.1003875011268
 30
0.0
 41
10.0
 42
10.0
 43
10.0
 50
90.0
  0
INSERT
  5
79D7
330
79D0
100
AcDbEntity
  8
DIM
 62
     0
370
    -2
100
AcDbBlockReference
  2
_DOT
 10
905.545898290223
 20
727.1003875011268
 30
0.0
 41
10.0
 42
10.0
 43
10.0
 50
270.0
  0
MTEXT
  5
79D8
330
79D0
100
AcDbEntity
  8
DIM
 62
     0
100
AcDbMText
 10
873.545898290223
 20
804.6003875011268
 30
0.0
 40
24.0
 41
0.0
 46
0.0
 71
     5
 72
     1
  1
\A1;155
  7
ＭＳ ゴシック
 11
0.0
 21
1.0
 31
0.0
 73
     1
 44
1.0
  0
POINT
  5
79D9
330
79D0
100
AcDbEntity
  8
Defpoints
 62
     0
100
AcDbPoint
 10
775.0077860193958
 20
882.1003875011268
 30
0.0
  0
POINT
  5
79DA
330
79D0
100
AcDbEntity
  8
Defpoints
 62
     0
100
AcDbPoint
 10
602.7592710112442
 20
727.1003875011268
 30
0.0
  0
POINT
  5
79DB
330
79D0
100
AcDbEntity
  8
Defpoints
 62
     0
100
AcDbPoint
 10
905.545898290223
 20
727.1003875011268
 30
0.0
  0
ENDBLK
  5
79D2
330
79D0
100
AcDbEntity
  8
0
100
AcDbBlockEnd
  0
BLOCK
  5
7A0E
330
7A0D
100
AcDbEntity
  8
0
100
AcDbBlockBegin
  2
*D35
 70
     1
 10
0.0
 20
0.0
 30
0.0
  3
*D35
  1

  0
LINE
  5
7A0F
330
7A0D
100
AcDbEntity
  8
DIM
 62
     0
370
    -2
100
AcDbLine
 10
18.84800000000041
 20
5.000000000000009
 30
0.0
 11
48.84800000000035
 21
5.0
 31
0.0
  0
LINE
  5
7A10
330
7A0D
100
AcDbEntity
  8
DIM
 62
     0
370
    -2
100
AcDbLine
 10
18.84800000000041
 20
110.0000000000001
 30
0.0
 11
48.84800000000038
 21
110.0000000000001
 31
0.0
  0
LINE
  5
7A11
330
7A0D
100
AcDbEntity
  8
DIM
 62
     0
370
    -2
100
AcDbLine
 10
48.84800000000038
 20
110.0000000000001
 30
0.0
 11
48.84800000000043
 21
315.0320000000004
 31
0.0
  0
LINE
  5
7A12
330
7A0D
100
AcDbEntity
  8
DIM
 62
     0
370
    -2
100
AcDbLine
 10
48.84800000000035
 20
15.0
 30
0.0
 11
48.84800000000038
 21
100.0000000000001
 31
0.0
  0
LINE
  5
7A13
330
7A0D
100
AcDbEntity
  8
DIM
 62
     0
370
    -2
100
AcDbLine
 10
48.84800000000038
 20
100.0000000000001
 30
0.0
 11
48.84800000000038
 21
90.00000000000011
 31
0.0
  0
INSERT
  5
7A14
330
7A0D
100
AcDbEntity
  8
DIM
 62
     0
370
    -2
100
AcDbBlockReference
  2
_DOT
 10
48.84800000000035
 20
5.0
 30
0.0
 41
10.0
 42
10.0
 43
10.0
 50
270.0
  0
INSERT
  5
7A15
330
7A0D
100
AcDbEntity
  8
DIM
 62
     0
370
    -2
100
AcDbBlockReference
  2
_DOT
 10
48.84800000000038
 20
110.0000000000001
 30
0.0
 41
10.0
 42
10.0
 43
10.0
 50
89.99999999999999
  0
MTEXT
  5
7A16
330
7A0D
100
AcDbEntity
  8
DIM
 62
     0
100
AcDbMText
 10
14.72400000000042
 20
230.0160000000004
 30
0.0
 40
24.0
 41
0.0
 46
0.0
 71
     5
 72
     1
  1
\A1;115(深さ)
  7
ＭＳ ゴシック
 11
2.706829469562284E-16
 21
1.0
 31
0.0
 73
     1
 44
1.0
  0
POINT
  5
7A17
330
7A0D
100
AcDbEntity
  8
Defpoints
 62
     0
100
AcDbPoint
 10
48.84800000000041
 20
5.0
 30
0.0
  0
POINT
  5
7A18
330
7A0D
100
AcDbEntity
  8
Defpoints
 62
     0
100
AcDbPoint
 10
48.84800000000041
 20
110.0000000000001
 30
0.0
  0
POINT
  5
7A19
330
7A0D
100
AcDbEntity
  8
Defpoints
 62
     0
100
AcDbPoint
 10
48.84800000000041
 20
110.0000000000001
 30
0.0
  0
ENDBLK
  5
7A1A
330
7A0D
100
AcDbEntity
  8
0
100
AcDbBlockEnd
  0
BLOCK
  5
7A22
330
7A21
100
AcDbEntity
  8
0
100
AcDbBlockBegin
  2
*D36
 70
     1
 10
0.0
 20
0.0
 30
0.0
  3
*D36
  1

  0
LINE
  5
7A24
330
7A21
100
AcDbEntity
  8
DIM
 62
     0
370
    -2
100
AcDbLine
 10
1516.35971045258
 20
782.1003875011273
 30
0.0
 11
1546.35971045258
 21
782.1003875011273
 31
0.0
  0
LINE
  5
7A25
330
7A21
100
AcDbEntity
  8
DIM
 62
     0
370
    -2
100
AcDbLine
 10
1516.35971045258
 20
882.1003875011274
 30
0.0
 11
1546.35971045258
 21
882.1003875011274
 31
0.0
  0
LINE
  5
7A26
330
7A21
100
AcDbEntity
  8
DIM
 62
     0
370
    -2
100
AcDbLine
 10
1546.35971045258
 20
882.1003875011274
 30
0.0
 11
1546.35971045258
 21
1092.132387501128
 31
0.0
  0
LINE
  5
7A27
330
7A21
100
AcDbEntity
  8
DIM
 62
     0
370
    -2
100
AcDbLine
 10
1546.35971045258
 20
792.1003875011273
 30
0.0
 11
1546.35971045258
 21
872.1003875011274
 31
0.0
  0
LINE
  5
7A28
330
7A21
100
AcDbEntity
  8
DIM
 62
     0
370
    -2
100
AcDbLine
 10
1546.35971045258
 20
872.1003875011274
 30
0.0
 11
1546.35971045258
 21
862.1003875011274
 31
0.0
  0
INSERT
  5
7A29
330
7A21
100
AcDbEntity
  8
DIM
 62
     0
370
    -2
100
AcDbBlockReference
  2
_DOT
 10
1546.35971045258
 20
782.1003875011273
 30
0.0
 41
10.0
 42
10.0
 43
10.0
 50
270.0
  0
INSERT
  5
7A2A
330
7A21
100
AcDbEntity
  8
DIM
 62
     0
370
    -2
100
AcDbBlockReference
  2
_DOT
 10
1546.35971045258
 20
882.1003875011274
 30
0.0
 41
10.0
 42
10.0
 43
10.0
 50
90.0
  0
MTEXT
  5
7A2B
330
7A21
100
AcDbEntity
  8
DIM
 62
     0
100
AcDbMText
 10
1512.23571045258
 20
1007.116387501128
 30
0.0
 40
24.0
 41
0.0
 46
0.0
 71
     5
 72
     1
  1
\A1;100(深さ)
  7
ＭＳ ゴシック
 11
0.0
 21
1.0
 31
0.0
 73
     1
 44
1.0
  0
POINT
  5
7A2C
330
7A21
100
AcDbEntity
  8
Defpoints
 62
     0
100
AcDbPoint
 10
1546.35971045258
 20
782.1003875011273
 30
0.0
  0
POINT
  5
7A2D
330
7A21
100
AcDbEntity
  8
Defpoints
 62
     0
100
AcDbPoint
 10
1546.35971045258
 20
882.1003875011274
 30
0.0
  0
POINT
  5
7A2E
330
7A21
100
AcDbEntity
  8
Defpoints
 62
     0
100
AcDbPoint
 10
1546.35971045258
 20
882.1003875011274
 30
0.0
  0
ENDBLK
  5
7A23
330
7A21
100
AcDbEntity
  8
0
100
AcDbBlockEnd
  0
BLOCK
  5
7A54
330
7A53
100
AcDbEntity
  8
0
100
AcDbBlockBegin
  2
*D37
 70
     1
 10
0.0
 20
0.0
 30
0.0
  3
*D37
  1

  0
LINE
  5
7A56
330
7A53
100
AcDbEntity
  8
DIM
 62
     0
370
    -2
100
AcDbLine
 10
1369.481179757175
 20
2363.501884452141
 30
0.0
 11
1136.377366193649
 21
2363.501884452141
 31
0.0
  0
LINE
  5
7A57
330
7A53
100
AcDbEntity
  8
DIM
 62
     0
370
    -2
100
AcDbLine
 10
1221.451789702003
 20
2097.569932777837
 30
0.0
 11
1136.377366193649
 21
2097.569932777837
 31
0.0
  0
LINE
  5
7A58
330
7A53
100
AcDbEntity
  8
DIM
 62
     0
370
    -2
100
AcDbLine
 10
1136.377366193649
 20
2353.501884452141
 30
0.0
 11
1136.377366193649
 21
2107.569932777837
 31
0.0
  0
INSERT
  5
7A59
330
7A53
100
AcDbEntity
  8
DIM
 62
     0
370
    -2
100
AcDbBlockReference
  2
_DOT
 10
1136.377366193649
 20
2363.501884452141
 30
0.0
 41
10.0
 42
10.0
 43
10.0
 50
90.0
  0
INSERT
  5
7A5A
330
7A53
100
AcDbEntity
  8
DIM
 62
     0
370
    -2
100
AcDbBlockReference
  2
_DOT
 10
1136.377366193649
 20
2097.569932777837
 30
0.0
 41
10.0
 42
10.0
 43
10.0
 50
270.0
  0
MTEXT
  5
7A5B
330
7A53
100
AcDbEntity
  8
DIM
 62
     0
100
AcDbMText
 10
1104.377366193649
 20
2230.535908614989
 30
0.0
 40
24.0
 41
0.0
 46
0.0
 71
     5
 72
     1
  1
\A1;258
  7
ＭＳ ゴシック
 11
0.0
 21
1.0
 31
0.0
 73
     1
 44
1.0
  0
POINT
  5
7A5C
330
7A53
100
AcDbEntity
  8
Defpoints
 62
     0
100
AcDbPoint
 10
1399.481179757175
 20
2363.501884452141
 30
0.0
  0
POINT
  5
7A5D
330
7A53
100
AcDbEntity
  8
Defpoints
 62
     0
100
AcDbPoint
 10
1251.451789702003
 20
2097.569932777837
 30
0.0
  0
POINT
  5
7A5E
330
7A53
100
AcDbEntity
  8
Defpoints
 62
     0
100
AcDbPoint
 10
1136.377366193649
 20
2097.569932777837
 30
0.0
  0
ENDBLK
  5
7A55
330
7A53
100
AcDbEntity
  8
0
100
AcDbBlockEnd
  0
BLOCK
  5
7A68
330
7A67
100
AcDbEntity
  8
0
100
AcDbBlockBegin
  2
*D38
 70
     1
 10
0.0
 20
0.0
 30
0.0
  3
*D38
  1

  0
LINE
  5
7A6A
330
7A67
100
AcDbEntity
  8
DIM
 62
     0
370
    -2
100
AcDbLine
 10
1219.421216807336
 20
2063.501884452141
 30
0.0
 11
1219.421216807336
 21
1820.214668302533
 31
0.0
  0
LINE
  5
7A6B
330
7A67
100
AcDbEntity
  8
DIM
 62
     0
370
    -2
100
AcDbLine
 10
1639.541142707014
 20
2063.501884452141
 30
0.0
 11
1639.541142707014
 21
1820.214668302533
 31
0.0
  0
LINE
  5
7A6C
330
7A67
100
AcDbEntity
  8
DIM
 62
     0
370
    -2
100
AcDbLine
 10
1229.421216807336
 20
1820.214668302533
 30
0.0
 11
1629.541142707014
 21
1820.214668302533
 31
0.0
  0
INSERT
  5
7A6D
330
7A67
100
AcDbEntity
  8
DIM
 62
     0
370
    -2
100
AcDbBlockReference
  2
_DOT
 10
1219.421216807336
 20
1820.214668302533
 30
0.0
 41
10.0
 42
10.0
 43
10.0
 50
180.0
  0
INSERT
  5
7A6E
330
7A67
100
AcDbEntity
  8
DIM
 62
     0
370
    -2
100
AcDbBlockReference
  2
_DOT
 10
1639.541142707014
 20
1820.214668302533
 30
0.0
 41
10.0
 42
10.0
 43
10.0
  0
MTEXT
  5
7A6F
330
7A67
100
AcDbEntity
  8
DIM
 62
     0
100
AcDbMText
 10
1429.481179757175
 20
1852.214668302533
 30
0.0
 40
24.0
 41
0.0
 46
0.0
 71
     5
 72
     1
  1
\A1;425
  7
ＭＳ ゴシック
 73
     1
 44
1.0
  0
POINT
  5
7A70
330
7A67
100
AcDbEntity
  8
Defpoints
 62
     0
100
AcDbPoint
 10
1219.421216807336
 20
2093.501884452141
 30
0.0
  0
POINT
  5
7A71
330
7A67
100
AcDbEntity
  8
Defpoints
 62
     0
100
AcDbPoint
 10
1639.541142707014
 20
2093.501884452141
 30
0.0
  0
POINT
  5
7A72
330
7A67
100
AcDbEntity
  8
Defpoints
 62
     0
100
AcDbPoint
 10
1639.541142707014
 20
1820.214668302533
 30
0.0
  0
ENDBLK
  5
7A69
330
7A67
100
AcDbEntity
  8
0
100
AcDbBlockEnd
  0
BLOCK
  5
7AE0
330
7ADF
100
AcDbEntity
  8
0
100
AcDbBlockBegin
  2
*D39
 70
     1
 10
0.0
 20
0.0
 30
0.0
  3
*D39
  1

  0
LINE
  5
7AE2
330
7ADF
100
AcDbEntity
  8
DIM
 62
     0
370
    -2
100
AcDbLine
 10
1818.589386444104
 20
1567.0276246218
 30
0.0
 11
1871.360247599074
 21
1567.0276246218
 31
0.0
  0
LINE
  5
7AE3
330
7ADF
100
AcDbEntity
  8
DIM
 62
     0
370
    -2
100
AcDbLine
 10
1710.670327676897
 20
1486.974502369488
 30
0.0
 11
1871.360247599074
 21
1486.974502369488
 31
0.0
  0
LINE
  5
7AE4
330
7ADF
100
AcDbEntity
  8
DIM
 62
     0
370
    -2
100
AcDbLine
 10
1871.360247599074
 20
1557.0276246218
 30
0.0
 11
1871.360247599074
 21
1496.974502369488
 31
0.0
  0
INSERT
  5
7AE5
330
7ADF
100
AcDbEntity
  8
DIM
 62
     0
370
    -2
100
AcDbBlockReference
  2
_DOT
 10
1871.360247599074
 20
1567.0276246218
 30
0.0
 41
10.0
 42
10.0
 43
10.0
 50
90.0
  0
INSERT
  5
7AE6
330
7ADF
100
AcDbEntity
  8
DIM
 62
     0
370
    -2
100
AcDbBlockReference
  2
_DOT
 10
1871.360247599074
 20
1486.974502369488
 30
0.0
 41
10.0
 42
10.0
 43
10.0
 50
270.0
  0
MTEXT
  5
7AE7
330
7ADF
100
AcDbEntity
  8
DIM
 62
     0
100
AcDbMText
 10
1839.360247599074
 20
1527.001063495644
 30
0.0
 40
24.0
 41
0.0
 46
0.0
 71
     5
 72
     1
  1
\A1;80
  7
ＭＳ ゴシック
 11
0.0
 21
1.0
 31
0.0
 73
     1
 44
1.0
  0
POINT
  5
7AE8
330
7ADF
100
AcDbEntity
  8
Defpoints
 62
     0
100
AcDbPoint
 10
1788.589386444104
 20
1567.0276246218
 30
0.0
  0
POINT
  5
7AE9
330
7ADF
100
AcDbEntity
  8
Defpoints
 62
     0
100
AcDbPoint
 10
1680.670327676897
 20
1486.974502369488
 30
0.0
  0
POINT
  5
7AEA
330
7ADF
100
AcDbEntity
  8
Defpoints
 62
     0
100
AcDbPoint
 10
1871.360247599074
 20
1486.974502369488
 30
0.0
  0
ENDBLK
  5
7AE1
330
7ADF
100
AcDbEntity
  8
0
100
AcDbBlockEnd
  0
BLOCK
  5
7AEC
330
7AEB
100
AcDbEntity
  8
0
100
AcDbBlockBegin
  2
*D40
 70
     1
 10
0.0
 20
0.0
 30
0.0
  3
*D40
  1

  0
LINE
  5
7AEE
330
7AEB
100
AcDbEntity
  8
DIM
 62
     0
370
    -2
100
AcDbLine
 10
1216.981179757175
 20
1597.027624621798
 30
0.0
 11
1216.981179757175
 21
1691.992382466589
 31
0.0
  0
LINE
  5
7AEF
330
7AEB
100
AcDbEntity
  8
DIM
 62
     0
370
    -2
100
AcDbLine
 10
1641.981179757175
 20
1597.027624621798
 30
0.0
 11
1641.981179757175
 21
1691.992382466589
 31
0.0
  0
LINE
  5
7AF0
330
7AEB
100
AcDbEntity
  8
DIM
 62
     0
370
    -2
100
AcDbLine
 10
1226.981179757175
 20
1691.992382466589
 30
0.0
 11
1631.981179757175
 21
1691.992382466589
 31
0.0
  0
INSERT
  5
7AF1
330
7AEB
100
AcDbEntity
  8
DIM
 62
     0
370
    -2
100
AcDbBlockReference
  2
_DOT
 10
1216.981179757175
 20
1691.992382466589
 30
0.0
 41
10.0
 42
10.0
 43
10.0
 50
180.0
  0
INSERT
  5
7AF2
330
7AEB
100
AcDbEntity
  8
DIM
 62
     0
370
    -2
100
AcDbBlockReference
  2
_DOT
 10
1641.981179757175
 20
1691.992382466589
 30
0.0
 41
10.0
 42
10.0
 43
10.0
  0
MTEXT
  5
7AF3
330
7AEB
100
AcDbEntity
  8
DIM
 62
     0
100
AcDbMText
 10
1429.481179757175
 20
1723.992382466589
 30
0.0
 40
24.0
 41
0.0
 46
0.0
 71
     5
 72
     1
  1
\A1;425
  7
ＭＳ ゴシック
 73
     1
 44
1.0
  0
POINT
  5
7AF4
330
7AEB
100
AcDbEntity
  8
Defpoints
 62
     0
100
AcDbPoint
 10
1216.981179757175
 20
1567.027624621798
 30
0.0
  0
POINT
  5
7AF5
330
7AEB
100
AcDbEntity
  8
Defpoints
 62
     0
100
AcDbPoint
 10
1641.981179757175
 20
1567.027624621798
 30
0.0
  0
POINT
  5
7AF6
330
7AEB
100
AcDbEntity
  8
Defpoints
 62
     0
100
AcDbPoint
 10
1641.981179757175
 20
1691.992382466589
 30
0.0
  0
ENDBLK
  5
7AED
330
7AEB
100
AcDbEntity
  8
0
100
AcDbBlockEnd
  0
BLOCK
  5
7B23
330
7B22
100
AcDbEntity
  8
0
100
AcDbBlockBegin
  2
*D41
 70
     1
 10
0.0
 20
0.0
 30
0.0
  3
*D41
  1

  0
LINE
  5
7B25
330
7B22
100
AcDbEntity
  8
DIM
 62
     0
370
    -2
100
AcDbLine
 10
1399.481179757175
 20
2363.501884452141
 30
0.0
 11
1155.917208519459
 21
2363.501884452141
 31
0.0
  0
LINE
  5
7B26
330
7B22
100
AcDbEntity
  8
DIM
 62
     0
370
    -2
100
AcDbLine
 10
1399.481179757175
 20
2373.501884452141
 30
0.0
 11
1155.917208519459
 21
2373.501884452141
 31
0.0
  0
LINE
  5
7B27
330
7B22
100
AcDbEntity
  8
DIM
 62
     0
370
    -2
100
AcDbLine
 10
1155.917208519459
 20
2373.501884452141
 30
0.0
 11
1155.917208519459
 21
2460.429884452141
 31
0.0
  0
LINE
  5
7B28
330
7B22
100
AcDbEntity
  8
DIM
 62
     0
370
    -2
100
AcDbLine
 10
1155.917208519459
 20
2353.501884452141
 30
0.0
 11
1155.917208519459
 21
2343.501884452141
 31
0.0
  0
LINE
  5
7B29
330
7B22
100
AcDbEntity
  8
DIM
 62
     0
370
    -2
100
AcDbLine
 10
1155.917208519459
 20
2383.501884452141
 30
0.0
 11
1155.917208519459
 21
2393.501884452141
 31
0.0
  0
INSERT
  5
7B2A
330
7B22
100
AcDbEntity
  8
DIM
 62
     0
370
    -2
100
AcDbBlockReference
  2
_DOT
 10
1155.917208519459
 20
2363.501884452141
 30
0.0
 41
10.0
 42
10.0
 43
10.0
 50
90.0
  0
INSERT
  5
7B2B
330
7B22
100
AcDbEntity
  8
DIM
 62
     0
370
    -2
100
AcDbBlockReference
  2
_DOT
 10
1155.917208519459
 20
2373.501884452141
 30
0.0
 41
10.0
 42
10.0
 43
10.0
 50
270.0
  0
MTEXT
  5
7B2C
330
7B22
100
AcDbEntity
  8
DIM
 62
     0
100
AcDbMText
 10
1123.917208519459
 20
2426.965884452141
 30
0.0
 40
24.0
 41
0.0
 46
0.0
 71
     5
 72
     1
  1
\A1;10
  7
ＭＳ ゴシック
 11
0.0
 21
1.0
 31
0.0
 73
     1
 44
1.0
  0
POINT
  5
7B2D
330
7B22
100
AcDbEntity
  8
Defpoints
 62
     0
100
AcDbPoint
 10
1429.481179757175
 20
2363.501884452141
 30
0.0
  0
POINT
  5
7B2E
330
7B22
100
AcDbEntity
  8
Defpoints
 62
     0
100
AcDbPoint
 10
1429.481179757175
 20
2373.501884452141
 30
0.0
  0
POINT
  5
7B5F
330
7B22
100
AcDbEntity
  8
Defpoints
 62
     0
100
AcDbPoint
 10
1155.917208519459
 20
2373.501884452141
 30
0.0
  0
ENDBLK
  5
7B24
330
7B22
100
AcDbEntity
  8
0
100
AcDbBlockEnd
  0
BLOCK
  5
7B34
330
7B33
100
AcDbEntity
  8
0
100
AcDbBlockBegin
  2
*D42
 70
     1
 10
0.0
 20
0.0
 30
0.0
  3
*D42
  1

  0
LINE
  5
7B36
330
7B33
100
AcDbEntity
  8
DIM
 62
     0
370
    -2
100
AcDbLine
 10
1399.481179757175
 20
2363.501884452141
 30
0.0
 11
1155.917208519459
 21
2363.501884452141
 31
0.0
  0
LINE
  5
7B37
330
7B33
100
AcDbEntity
  8
DIM
 62
     0
370
    -2
100
AcDbLine
 10
1208.075850677758
 20
2105.501884452141
 30
0.0
 11
1155.917208519459
 21
2105.501884452141
 31
0.0
  0
LINE
  5
7B38
330
7B33
100
AcDbEntity
  8
DIM
 62
     0
370
    -2
100
AcDbLine
 10
1155.917208519459
 20
2353.501884452141
 30
0.0
 11
1155.917208519459
 21
2115.501884452141
 31
0.0
  0
INSERT
  5
7B39
330
7B33
100
AcDbEntity
  8
DIM
 62
     0
370
    -2
100
AcDbBlockReference
  2
_DOT
 10
1155.917208519459
 20
2363.501884452141
 30
0.0
 41
10.0
 42
10.0
 43
10.0
 50
90.0
  0
INSERT
  5
7B3A
330
7B33
100
AcDbEntity
  8
DIM
 62
     0
370
    -2
100
AcDbBlockReference
  2
_DOT
 10
1155.917208519459
 20
2105.501884452141
 30
0.0
 41
10.0
 42
10.0
 43
10.0
 50
270.0
  0
MTEXT
  5
7B3B
330
7B33
100
AcDbEntity
  8
DIM
 62
     0
100
AcDbMText
 10
1123.917208519459
 20
2234.501884452141
 30
0.0
 40
24.0
 41
0.0
 46
0.0
 71
     5
 72
     1
  1
\A1;258
  7
ＭＳ ゴシック
 11
0.0
 21
1.0
 31
0.0
 73
     1
 44
1.0
  0
POINT
  5
7B3C
330
7B33
100
AcDbEntity
  8
Defpoints
 62
     0
100
AcDbPoint
 10
1429.481179757175
 20
2363.501884452141
 30
0.0
  0
POINT
  5
7B3D
330
7B33
100
AcDbEntity
  8
Defpoints
 62
     0
100
AcDbPoint
 10
1238.075850677758
 20
2105.501884452141
 30
0.0
  0
POINT
  5
7B3E
330
7B33
100
AcDbEntity
  8
Defpoints
 62
     0
100
AcDbPoint
 10
1155.917208519459
 20
2105.501884452141
 30
0.0
  0
ENDBLK
  5
7B35
330
7B33
100
AcDbEntity
  8
0
100
AcDbBlockEnd
  0
BLOCK
  5
7B44
330
7B43
100
AcDbEntity
  8
0
100
AcDbBlockBegin
  2
*D43
 70
     1
 10
0.0
 20
0.0
 30
0.0
  3
*D43
  1

  0
LINE
  5
7B46
330
7B43
100
AcDbEntity
  8
DIM
 62
     0
370
    -2
100
AcDbLine
 10
1216.981179757175
 20
2202.701400669295
 30
0.0
 11
1216.981179757175
 21
2459.704307383751
 31
0.0
  0
LINE
  5
7B47
330
7B43
100
AcDbEntity
  8
DIM
 62
     0
370
    -2
100
AcDbLine
 10
1641.981179757175
 20
2202.701400669295
 30
0.0
 11
1641.981179757175
 21
2459.704307383751
 31
0.0
  0
LINE
  5
7B48
330
7B43
100
AcDbEntity
  8
DIM
 62
     0
370
    -2
100
AcDbLine
 10
1226.981179757175
 20
2459.704307383751
 30
0.0
 11
1631.981179757175
 21
2459.704307383751
 31
0.0
  0
INSERT
  5
7B49
330
7B43
100
AcDbEntity
  8
DIM
 62
     0
370
    -2
100
AcDbBlockReference
  2
_DOT
 10
1216.981179757175
 20
2459.704307383751
 30
0.0
 41
10.0
 42
10.0
 43
10.0
 50
180.0
  0
INSERT
  5
7B4A
330
7B43
100
AcDbEntity
  8
DIM
 62
     0
370
    -2
100
AcDbBlockReference
  2
_DOT
 10
1641.981179757175
 20
2459.704307383751
 30
0.0
 41
10.0
 42
10.0
 43
10.0
  0
MTEXT
  5
7B4B
330
7B43
100
AcDbEntity
  8
DIM
 62
     0
100
AcDbMText
 10
1429.481179757175
 20
2491.704307383751
 30
0.0
 40
24.0
 41
0.0
 46
0.0
 71
     5
 72
     1
  1
\A1;425
  7
ＭＳ ゴシック
 73
     1
 44
1.0
  0
POINT
  5
7B4C
330
7B43
100
AcDbEntity
  8
Defpoints
 62
     0
100
AcDbPoint
 10
1216.981179757175
 20
2172.701400669295
 30
0.0
  0
POINT
  5
7B4D
330
7B43
100
AcDbEntity
  8
Defpoints
 62
     0
100
AcDbPoint
 10
1641.981179757175
 20
2172.701400669295
 30
0.0
  0
POINT
  5
7B4E
330
7B43
100
AcDbEntity
  8
Defpoints
 62
     0
100
AcDbPoint
 10
1641.981179757175
 20
2459.704307383751
 30
0.0
  0
ENDBLK
  5
7B45
330
7B43
100
AcDbEntity
  8
0
100
AcDbBlockEnd
  0
BLOCK
  5
7B53
330
7B52
100
AcDbEntity
  8
0
100
AcDbBlockBegin
  2
*D44
 70
     1
 10
0.0
 20
0.0
 30
0.0
  3
*D44
  1

  0
LINE
  5
7B55
330
7B52
100
AcDbEntity
  8
DIM
 62
     0
370
    -2
100
AcDbLine
 10
1459.481179757175
 20
1913.501883210804
 30
0.0
 11
1821.293609579367
 21
1913.501883210804
 31
0.0
  0
LINE
  5
7B56
330
7B52
100
AcDbEntity
  8
DIM
 62
     0
370
    -2
100
AcDbLine
 10
1459.481179757175
 20
2373.501884452141
 30
0.0
 11
1821.293609579367
 21
2373.501884452141
 31
0.0
  0
LINE
  5
7B57
330
7B52
100
AcDbEntity
  8
DIM
 62
     0
370
    -2
100
AcDbLine
 10
1821.293609579367
 20
1923.501883210804
 30
0.0
 11
1821.293609579367
 21
2363.501884452141
 31
0.0
  0
INSERT
  5
7B58
330
7B52
100
AcDbEntity
  8
DIM
 62
     0
370
    -2
100
AcDbBlockReference
  2
_DOT
 10
1821.293609579367
 20
1913.501883210804
 30
0.0
 41
10.0
 42
10.0
 43
10.0
 50
270.0
  0
INSERT
  5
7B59
330
7B52
100
AcDbEntity
  8
DIM
 62
     0
370
    -2
100
AcDbBlockReference
  2
_DOT
 10
1821.293609579367
 20
2373.501884452141
 30
0.0
 41
10.0
 42
10.0
 43
10.0
 50
90.0
  0
MTEXT
  5
7B5A
330
7B52
100
AcDbEntity
  8
DIM
 62
     0
100
AcDbMText
 10
1789.293609579367
 20
2143.501883831473
 30
0.0
 40
24.0
 41
0.0
 46
0.0
 71
     5
 72
     1
  1
\A1;460
  7
ＭＳ ゴシック
 11
0.0
 21
1.0
 31
0.0
 73
     1
 44
1.0
  0
POINT
  5
7B5B
330
7B52
100
AcDbEntity
  8
Defpoints
 62
     0
100
AcDbPoint
 10
1429.481179757175
 20
1913.501883210804
 30
0.0
  0
POINT
  5
7B5C
330
7B52
100
AcDbEntity
  8
Defpoints
 62
     0
100
AcDbPoint
 10
1429.481179757175
 20
2373.501884452141
 30
0.0
  0
POINT
  5
7B5D
330
7B52
100
AcDbEntity
  8
Defpoints
 62
     0
100
AcDbPoint
 10
1821.293609579367
 20
2373.501884452141
 30
0.0
  0
ENDBLK
  5
7B54
330
7B52
100
AcDbEntity
  8
0
100
AcDbBlockEnd
  0
BLOCK
  5
7BB2
330
7BB1
100
AcDbEntity
  8
0
100
AcDbBlockBegin
  2
*D46
 70
     1
 10
0.0
 20
0.0
 30
0.0
  3
*D46
  1

  0
LINE
  5
7BB4
330
7BB1
100
AcDbEntity
  8
DIM
 62
     0
370
    -2
100
AcDbLine
 10
1818.589386444104
 20
1567.0276246218
 30
0.0
 11
1936.521370914143
 21
1567.0276246218
 31
0.0
  0
LINE
  5
7BB5
330
7BB1
100
AcDbEntity
  8
DIM
 62
     0
370
    -2
100
AcDbLine
 10
1074.382201252866
 20
1501.0276246218
 30
0.0
 11
1936.521370914143
 21
1501.0276246218
 31
0.0
  0
LINE
  5
7BB6
330
7BB1
100
AcDbEntity
  8
DIM
 62
     0
370
    -2
100
AcDbLine
 10
1936.521370914143
 20
1557.0276246218
 30
0.0
 11
1936.521370914143
 21
1511.0276246218
 31
0.0
  0
INSERT
  5
7BB7
330
7BB1
100
AcDbEntity
  8
DIM
 62
     0
370
    -2
100
AcDbBlockReference
  2
_DOT
 10
1936.521370914143
 20
1567.0276246218
 30
0.0
 41
10.0
 42
10.0
 43
10.0
 50
90.0
  0
INSERT
  5
7BB8
330
7BB1
100
AcDbEntity
  8
DIM
 62
     0
370
    -2
100
AcDbBlockReference
  2
_DOT
 10
1936.521370914143
 20
1501.0276246218
 30
0.0
 41
10.0
 42
10.0
 43
10.0
 50
270.0
  0
MTEXT
  5
7BB9
330
7BB1
100
AcDbEntity
  8
DIM
 62
     0
100
AcDbMText
 10
1904.521370914143
 20
1534.0276246218
 30
0.0
 40
24.0
 41
0.0
 46
0.0
 71
     5
 72
     1
  1
\A1;66
  7
ＭＳ ゴシック
 11
0.0
 21
1.0
 31
0.0
 73
     1
 44
1.0
  0
POINT
  5
7BBA
330
7BB1
100
AcDbEntity
  8
Defpoints
 62
     0
100
AcDbPoint
 10
1788.589386444104
 20
1567.0276246218
 30
0.0
  0
POINT
  5
7BBB
330
7BB1
100
AcDbEntity
  8
Defpoints
 62
     0
100
AcDbPoint
 10
1044.382201252866
 20
1501.0276246218
 30
0.0
  0
POINT
  5
7BBC
330
7BB1
100
AcDbEntity
  8
Defpoints
 62
     0
100
AcDbPoint
 10
1936.521370914143
 20
1501.0276246218
 30
0.0
  0
ENDBLK
  5
7BB3
330
7BB1
100
AcDbEntity
  8
0
100
AcDbBlockEnd
  0
BLOCK
  5
7BC0
330
7BBF
100
AcDbEntity
  8
0
100
AcDbBlockBegin
  2
*D47
 70
     1
 10
0.0
 20
0.0
 30
0.0
  3
*D47
  1

  0
LINE
  5
7BC2
330
7BBF
100
AcDbEntity
  8
DIM
 62
     0
370
    -2
100
AcDbLine
 10
1216.981179757175
 20
2075.501884452141
 30
0.0
 11
1216.981179757175
 21
1932.489232011303
 31
0.0
  0
LINE
  5
7BC3
330
7BBF
100
AcDbEntity
  8
DIM
 62
     0
370
    -2
100
AcDbLine
 10
1641.981179757175
 20
2075.501884452141
 30
0.0
 11
1641.981179757175
 21
1932.489232011303
 31
0.0
  0
LINE
  5
7BC4
330
7BBF
100
AcDbEntity
  8
DIM
 62
     0
370
    -2
100
AcDbLine
 10
1226.981179757175
 20
1932.489232011303
 30
0.0
 11
1631.981179757175
 21
1932.489232011303
 31
0.0
  0
INSERT
  5
7BC5
330
7BBF
100
AcDbEntity
  8
DIM
 62
     0
370
    -2
100
AcDbBlockReference
  2
_DOT
 10
1216.981179757175
 20
1932.489232011303
 30
0.0
 41
10.0
 42
10.0
 43
10.0
 50
180.0
  0
INSERT
  5
7BC6
330
7BBF
100
AcDbEntity
  8
DIM
 62
     0
370
    -2
100
AcDbBlockReference
  2
_DOT
 10
1641.981179757175
 20
1932.489232011303
 30
0.0
 41
10.0
 42
10.0
 43
10.0
  0
MTEXT
  5
7BC7
330
7BBF
100
AcDbEntity
  8
DIM
 62
     0
100
AcDbMText
 10
1429.481179757175
 20
1964.489232011303
 30
0.0
 40
24.0
 41
0.0
 46
0.0
 71
     5
 72
     1
  1
\A1;425
  7
ＭＳ ゴシック
 73
     1
 44
1.0
  0
POINT
  5
7BC8
330
7BBF
100
AcDbEntity
  8
Defpoints
 62
     0
100
AcDbPoint
 10
1216.981179757175
 20
2105.501884452141
 30
0.0
  0
POINT
  5
7BC9
330
7BBF
100
AcDbEntity
  8
Defpoints
 62
     0
100
AcDbPoint
 10
1641.981179757175
 20
2105.501884452141
 30
0.0
  0
POINT
  5
7BCA
330
7BBF
100
AcDbEntity
  8
Defpoints
 62
     0
100
AcDbPoint
 10
1641.981179757175
 20
1932.489232011303
 30
0.0
  0
ENDBLK
  5
7BC1
330
7BBF
100
AcDbEntity
  8
0
100
AcDbBlockEnd
  0
BLOCK
  5
7BD3
330
7BD2
100
AcDbEntity
  8
0
100
AcDbBlockBegin
  2
*D48
 70
     1
 10
0.0
 20
0.0
 30
0.0
  3
*D48
  1

  0
LINE
  5
7BD5
330
7BD2
100
AcDbEntity
  8
DIM
 62
     0
370
    -2
100
AcDbLine
 10
1818.589386444105
 20
1691.737654426574
 30
0.0
 11
1857.526882198177
 21
1691.737654426574
 31
0.0
  0
LINE
  5
7BD6
330
7BD2
100
AcDbEntity
  8
DIM
 62
     0
370
    -2
100
AcDbLine
 10
1693.193902022412
 20
1625.737654426576
 30
0.0
 11
1857.526882198177
 21
1625.737654426576
 31
0.0
  0
LINE
  5
7BD7
330
7BD2
100
AcDbEntity
  8
DIM
 62
     0
370
    -2
100
AcDbLine
 10
1857.526882198177
 20
1681.737654426574
 30
0.0
 11
1857.526882198177
 21
1635.737654426576
 31
0.0
  0
INSERT
  5
7BD8
330
7BD2
100
AcDbEntity
  8
DIM
 62
     0
370
    -2
100
AcDbBlockReference
  2
_DOT
 10
1857.526882198177
 20
1691.737654426574
 30
0.0
 41
10.0
 42
10.0
 43
10.0
 50
90.0
  0
INSERT
  5
7BD9
330
7BD2
100
AcDbEntity
  8
DIM
 62
     0
370
    -2
100
AcDbBlockReference
  2
_DOT
 10
1857.526882198177
 20
1625.737654426576
 30
0.0
 41
10.0
 42
10.0
 43
10.0
 50
270.0
  0
MTEXT
  5
7BDA
330
7BD2
100
AcDbEntity
  8
DIM
 62
     0
100
AcDbMText
 10
1825.526882198177
 20
1658.737654426575
 30
0.0
 40
24.0
 41
0.0
 46
0.0
 71
     5
 72
     1
  1
\A1;66
  7
ＭＳ ゴシック
 11
0.0
 21
1.0
 31
0.0
 73
     1
 44
1.0
  0
POINT
  5
7BDB
330
7BD2
100
AcDbEntity
  8
Defpoints
 62
     0
100
AcDbPoint
 10
1788.589386444105
 20
1691.737654426574
 30
0.0
  0
POINT
  5
7BDC
330
7BD2
100
AcDbEntity
  8
Defpoints
 62
     0
100
AcDbPoint
 10
1663.193902022412
 20
1625.737654426576
 30
0.0
  0
POINT
  5
7BDD
330
7BD2
100
AcDbEntity
  8
Defpoints
 62
     0
100
AcDbPoint
 10
1857.526882198177
 20
1625.737654426576
 30
0.0
  0
ENDBLK
  5
7BD4
330
7BD2
100
AcDbEntity
  8
0
100
AcDbBlockEnd
  0
ENDSEC
  0
SECTION
  2
ENTITIES
  0
MTEXT
  5
177
330
A
100
AcDbEntity
  8
TEMPLATE
390
1D
100
AcDbMText
 10
79.20214454773075
 20
343.7317516314282
 30
0.0
 40
16.28841145833333
 41
0.0
 46
0.0
 71
     1
 72
     1
  1
品名
  7
ＭＳ ゴシック
 73
     1
 44
0.7828267384257843
  0
MTEXT
  5
178
330
A
100
AcDbEntity
  8
TEMPLATE
390
1D
100
AcDbMText
 10
79.20214454773075
 20
258.731751631428
 30
0.0
 40
16.28841145833333
 41
0.0
 46
0.0
 71
     1
 72
     1
  1
仕様
  7
ＭＳ ゴシック
 73
     1
 44
0.7828267384257843
  0
LINE
  5
179
330
A
100
AcDbEntity
  8
TEMPLATE
390
1D
100
AcDbLine
 10
2022.202144547248
 20
267.1466735064284
 30
0.0
 11
72.20214454724874
 21
267.1466735064284
 31
0.0
  0
LWPOLYLINE
  5
17A
330
A
100
AcDbEntity
  8
TEMPLATE
390
1D
100
AcDbPolyline
 90
        5
 70
   128
 43
0.0
 10
2022.202144547248
 20
2897.146673506426
 10
72.20214454724874
 20
2897.146673506426
 10
72.20214454724874
 20
97.14667350642826
 10
2022.202144547248
 20
97.14667350642826
 10
2022.202144547248
 20
2897.146673506426
  0
LINE
  5
17B
330
A
100
AcDbEntity
  8
TEMPLATE
390
1D
100
AcDbLine
 10
2022.202144547248
 20
352.1466735064282
 30
0.0
 11
72.20214454724874
 21
352.1466735064282
 31
0.0
  0
LINE
  5
17C
330
A
100
AcDbEntity
  8
TEMPLATE
390
1D
100
AcDbLine
 10
2022.202144547732
 20
182.1466735064282
 30
0.0
 11
1269.20214454773
 21
182.1466735064282
 31
0.0
  0
MTEXT
  5
17E
330
A
100
AcDbEntity
  8
TEMPLATE
390
1D
100
AcDbMText
 10
1299.073550799991
 20
152.2362790331201
 30
0.0
 40
24.4326171875
 41
0.0
 46
0.0
 71
     1
 72
     1
  1
大洋金物株式会社 ティーフォルム事業部
  7
ＭＳ ゴシック
 73
     1
 44
0.7828267384257843
  0
MTEXT
  5
180
330
A
100
AcDbEntity
  8
TEMPLATE
390
1D
100
AcDbMText
 10
1831.20214454799
 20
230.1492906939282
 30
0.0
 40
24.4326171875
 41
0.0
 46
24.4326171875
 71
     1
 72
     1
  1
{1:10}
  7
ＭＳ ゴシック
 73
     1
 44
0.7828267384257843
1001
ACAD
1000
ACAD_MTEXT_DEFINED_HEIGHT_BEGIN
1070
    46
1040
24.4326171875
1000
ACAD_MTEXT_DEFINED_HEIGHT_END
  0
MTEXT
  5
181
330
A
100
AcDbEntity
  8
TEMPLATE
390
1D
100
AcDbMText
 10
1778.20214454799
 20
258.731751631428
 30
0.0
 40
16.28841145833333
 41
0.0
 46
0.0
 71
     1
 72
     1
  1
縮尺
  7
ＭＳ ゴシック
 73
     1
 44
0.7828267384257843
  0
LINE
  5
182
330
A
100
AcDbEntity
  8
TEMPLATE
390
1D
100
AcDbLine
 10
1771.20214454799
 20
182.1466735064282
 30
0.0
 11
1771.20214454799
 21
267.1466735064284
 31
0.0
  0
MTEXT
  5
183
330
A
100
AcDbEntity
  8
TEMPLATE
390
1D
100
AcDbMText
 10
1527.20214454799
 20
258.731751631428
 30
0.0
 40
16.28841145833333
 41
0.0
 46
0.0
 71
     1
 72
     1
  1
容量
  7
ＭＳ ゴシック
 73
     1
 44
0.7828267384257843
  0
LINE
  5
184
330
A
100
AcDbEntity
  8
TEMPLATE
390
1D
100
AcDbLine
 10
1520.20214454799
 20
182.1466735064282
 30
0.0
 11
1520.20214454799
 21
267.1466735064284
 31
0.0
  0
MTEXT
  5
185
330
A
100
AcDbEntity
  8
TEMPLATE
390
1D
100
AcDbMText
 10
1276.20214454799
 20
343.7317516314282
 30
0.0
 40
16.28841145833333
 41
0.0
 46
0.0
 71
     1
 72
     1
  1
品番
  7
ＭＳ ゴシック
 73
     1
 44
0.7828267384257843
  0
MTEXT
  5
186
330
A
100
AcDbEntity
  8
TEMPLATE
390
1D
100
AcDbMText
 10
1276.20214454799
 20
258.731751631428
 30
0.0
 40
16.28841145833333
 41
0.0
 46
0.0
 71
     1
 72
     1
  1
重量
  7
ＭＳ ゴシック
 73
     1
 44
0.7828267384257843
  0
MTEXT
  5
187
330
A
100
AcDbEntity
  8
TEMPLATE
390
1D
100
AcDbMText
 10
1329.20214454799
 20
315.1492906939282
 30
0.0
 40
24.4326171875
 41
0.0
 46
24.4326171875
 71
     1
 72
     1
  1
{GAR70-1509}
  7
ＭＳ ゴシック
 73
     1
 44
0.7828267384257843
1001
ACAD
1000
ACAD_MTEXT_DEFINED_HEIGHT_BEGIN
1070
    46
1040
24.4326171875
1000
ACAD_MTEXT_DEFINED_HEIGHT_END
  0
LINE
  5
188
330
A
100
AcDbEntity
  8
TEMPLATE
390
1D
100
AcDbLine
 10
1269.20214454799
 20
97.14667350642826
 30
0.0
 11
1269.20214454799
 21
352.1466735064282
 31
0.0
  0
MTEXT
  5
189
330
A
100
AcDbEntity
  8
TEMPLATE
390
1D
100
AcDbMText
 10
132.2021445477307
 20
315.1492906939282
 30
0.0
 40
24.4326171875
 41
0.0
 46
28.5128642578125
 71
     1
 72
     1
  1
{洗面器　-LAUFEN, Living City-}
  7
ＭＳ ゴシック
 73
     1
 44
0.7828267384257843
1001
ACAD
1000
ACAD_MTEXT_DEFINED_HEIGHT_BEGIN
1070
    46
1040
28.5128642578125
1000
ACAD_MTEXT_DEFINED_HEIGHT_END
  0
INSERT
  5
6B5
330
A
100
AcDbEntity
  8
TEMPLATE
100
AcDbBlockReference
  2
名称未設定-1
 10
1870.75074808845
 20
25.94676575665382
 30
0.0
 41
0.7619999999999998
 42
0.7619999999999998
 43
0.7619999999999998
  0
MTEXT
  5
7D9
330
A
100
AcDbEntity
  8
TEMPLATE
390
1D
100
AcDbMText
 10
125.2543452760364
 20
226.8119760293952
 30
0.0
 40
24.0
 41
0.0
 46
65.08137911187498
 71
     1
 72
     1
  1
{\fＭＳ ゴシック|b0|i0|c1|p0;せり出し半埋め込み/オーバーフロー付き/カウンター固定金具、型紙付属\P陶器/ホワイト}
  7
ＭＳ ゴシック
 73
     1
 44
0.9331787841240657
1001
ACAD
1000
ACAD_MTEXT_DEFINED_HEIGHT_BEGIN
1070
    46
1040
65.08137911187498
1000
ACAD_MTEXT_DEFINED_HEIGHT_END
  0
INSERT
  5
68C
330
A
100
AcDbEntity
  8
TEMPLATE
100
AcDbBlockReference
  2
block 2
 10
919.2743017702577
 20
8.373076514336368
 30
0.0
 41
0.3809999999999999
 42
0.3809999999999999
 43
0.3809999999999999
  0
LWPOLYLINE
  5
DAC
330
A
100
AcDbEntity
  8
BORDER
100
AcDbPolyline
 90
        4
 70
     1
 43
0.0
 10
0.0
 20
0.0
 10
0.0
 20
2970.0
 10
2100.0
 20
2970.0
 10
2100.0
 20
0.0
  0
MTEXT
  5
121B
330
A
100
AcDbEntity
  8
TEMPLATE
390
1D
100
AcDbMText
 10
1329.20214454799
 20
227.1688729773101
 30
0.0
 40
24.4326171875
 41
0.0
 46
28.390701171875
 71
     1
 72
     1
  1
{11kg}
  7
ＭＳ ゴシック
 73
     1
 44
0.7828267384257843
1001
ACAD
1000
ACAD_MTEXT_DEFINED_HEIGHT_BEGIN
1070
    46
1040
28.390701171875
1000
ACAD_MTEXT_DEFINED_HEIGHT_END
  0
MTEXT
  5
1466
102
{ACAD_XDICTIONARY
360
1468
102
}
330
A
100
AcDbEntity
  8
TEMPLATE
 48
0.05
100
AcDbMText
 10
74.728656548571
 20
83.86172105142839
 30
0.0
 40
22.0
 41
0.0
 46
22.0
 71
     1
 72
     1
  1
{20180922N}
  7
ＭＳ ゴシック
 73
     1
 44
1.0
1001
ACAD
1000
ACAD_MTEXT_DEFINED_HEIGHT_BEGIN
1070
    46
1040
22.0
1000
ACAD_MTEXT_DEFINED_HEIGHT_END
  0
MTEXT
  5
146D
330
A
100
AcDbEntity
  8
TEMPLATE
390
1D
100
AcDbMText
 10
1583.904999862276
 20
227.1688729773101
 30
0.0
 40
24.4326171875
 41
0.0
 46
24.4326171875
 71
     1
 72
     1
  1
{7.5L}
  7
ＭＳ ゴシック
 73
     1
 44
0.7828267384257843
1001
ACAD
1000
ACAD_MTEXT_DEFINED_HEIGHT_BEGIN
1070
    46
1040
24.4326171875
1000
ACAD_MTEXT_DEFINED_HEIGHT_END
  0
POINT
  5
262A
330
A
100
AcDbEntity
  8
Layer9
  6
Continuous
 62
     7
100
AcDbPoint
 10
1037.460145007193
 20
1010.220672371878
 30
0.0
  0
POINT
  5
262B
330
A
100
AcDbEntity
  8
Layer9
  6
Continuous
 62
     7
100
AcDbPoint
 10
1037.460146257193
 20
1010.220672788578
 30
0.0
  0
POINT
  5
262C
330
A
100
AcDbEntity
  8
Layer9
  6
Continuous
 62
     7
100
AcDbPoint
 10
1037.853693340493
 20
1015.267975288578
 30
0.0
  0
POINT
  5
2812
330
A
100
AcDbEntity
  8
Layer9
  6
Continuous
 62
     7
100
AcDbPoint
 10
925.7934783404928
 20
1010.220672371878
 30
0.0
  0
POINT
  5
2813
330
A
100
AcDbEntity
  8
Layer9
  6
Continuous
 62
     7
100
AcDbPoint
 10
925.7934795904928
 20
1010.220672788578
 30
0.0
  0
POINT
  5
2814
330
A
100
AcDbEntity
  8
Layer9
  6
Continuous
 62
     7
100
AcDbPoint
 10
926.1870266737928
 20
1015.267975288578
 30
0.0
  0
INSERT
  5
28CA
330
A
100
AcDbEntity
  8
Layer3
100
AcDbBlockReference
  2
SEANNOT_GROUP
 10
859.7083018867928
 20
826.1905269541776
 30
0.0
  0
POINT
  5
2A52
330
A
100
AcDbEntity
  8
Standard
  6
Continuous
 62
     7
100
AcDbPoint
 10
1036.111241014893
 20
1018.794321538578
 30
0.0
  0
INSERT
  5
2B9B
330
A
100
AcDbEntity
  8
Layer3
100
AcDbBlockReference
  2
SEANNOT_GROUP1
 10
859.7083018867928
 20
826.1905269541776
 30
0.0
  0
POINT
  5
3DC5
330
A
100
AcDbEntity
  8
0
 62
     7
370
     5
390
1D
100
AcDbPoint
 10
2860.881281762558
 20
1768.55574720548
 30
0.0
  0
POINT
  5
44F2
330
A
100
AcDbEntity
  8
0
 62
     7
370
     5
390
1D
100
AcDbPoint
 10
5817.611311358976
 20
1551.534519945206
 30
0.0
  0
POINT
  5
44F3
330
A
100
AcDbEntity
  8
0
 62
     7
370
     5
390
1D
100
AcDbPoint
 10
5817.611311358976
 20
1551.534489945206
 30
0.0
  0
POINT
  5
44F4
330
A
100
AcDbEntity
  8
0
 62
     7
370
     5
390
1D
100
AcDbPoint
 10
6218.094556358977
 20
1764.774113945206
 30
0.0
  0
POINT
  5
44F5
330
A
100
AcDbEntity
  8
0
 62
     7
370
     5
390
1D
100
AcDbPoint
 10
5417.136762358977
 20
1750.298771945206
 30
0.0
  0
POINT
  5
44F6
330
A
100
AcDbEntity
  8
0
 62
     7
370
     5
390
1D
100
AcDbPoint
 10
5817.611311358976
 20
1551.075108945206
 30
0.0
  0
POINT
  5
4A0C
330
A
100
AcDbEntity
  8
0
 62
     7
370
     5
390
1D
100
AcDbPoint
 10
2962.169743257284
 20
1212.963434821918
 30
0.0
  0
POINT
  5
4A0D
330
A
100
AcDbEntity
  8
0
 62
     7
370
     5
390
1D
100
AcDbPoint
 10
2669.114873257284
 20
1211.245752821918
 30
0.0
  0
POINT
  5
4A0E
330
A
100
AcDbEntity
  8
0
 62
     7
370
     5
390
1D
100
AcDbPoint
 10
2969.602971257284
 20
1438.299677821918
 30
0.0
  0
POINT
  5
4A0F
330
A
100
AcDbEntity
  8
0
 62
     7
370
     5
390
1D
100
AcDbPoint
 10
2969.602971257284
 20
1438.299677821918
 30
0.0
  0
POINT
  5
4A10
330
A
100
AcDbEntity
  8
0
 62
     7
370
     5
390
1D
100
AcDbPoint
 10
2368.627812257283
 20
1433.663157821918
 30
0.0
  0
POINT
  5
6F8C
330
A
100
AcDbEntity
  8
0
 62
     7
370
     5
390
1D
100
AcDbPoint
 10
5003.123517647325
 20
2248.31005990411
 30
0.0
  0
POINT
  5
6F8D
330
A
100
AcDbEntity
  8
0
 62
     7
370
     5
390
1D
100
AcDbPoint
 10
4753.350873647325
 20
2230.00723390411
 30
0.0
  0
SPLINE
  5
789B
330
A
100
AcDbEntity
  8
MODEL
100
AcDbSpline
210
0.0
220
0.0
230
1.0
 70
    11
 71
     3
 72
    89
 73
    85
 74
     0
 42
0.000000001
 43
0.0000000001
 40
0.0
 40
0.0
 40
0.0
 40
0.0
 40
1.0
 40
1.0
 40
1.0
 40
2.0
 40
2.0
 40
2.0
 40
3.0
 40
3.0
 40
3.0
 40
4.0
 40
4.0
 40
4.0
 40
5.0
 40
5.0
 40
5.0
 40
6.0
 40
6.0
 40
6.0
 40
7.0
 40
7.0
 40
7.0
 40
8.0
 40
8.0
 40
8.0
 40
9.0
 40
9.0
 40
9.0
 40
10.0
 40
10.0
 40
10.0
 40
11.0
 40
11.0
 40
11.0
 40
12.0
 40
12.0
 40
12.0
 40
13.0
 40
13.0
 40
13.0
 40
14.0
 40
14.0
 40
14.0
 40
15.0
 40
15.0
 40
15.0
 40
16.0
 40
16.0
 40
16.0
 40
17.0
 40
17.0
 40
17.0
 40
18.0
 40
18.0
 40
18.0
 40
19.0
 40
19.0
 40
19.0
 40
20.0
 40
20.0
 40
20.0
 40
21.0
 40
21.0
 40
21.0
 40
22.0
 40
22.0
 40
22.0
 40
23.0
 40
23.0
 40
23.0
 40
24.0
 40
24.0
 40
24.0
 40
25.0
 40
25.0
 40
25.0
 40
26.0
 40
26.0
 40
26.0
 40
27.0
 40
27.0
 40
27.0
 40
28.0
 40
28.0
 40
28.0
 40
28.0
 10
558.413580972978
 20
742.1983326858417
 30
0.0
 10
558.413580972978
 20
742.1983326858417
 30
0.0
 10
343.7265991473096
 20
742.1983326858417
 30
0.0
 10
343.7265991473096
 20
742.1983326858417
 30
0.0
 10
340.4139675834676
 20
742.2038448386181
 30
0.0
 10
337.2556762973647
 20
744.6069711943544
 30
0.0
 10
337.1674818529424
 20
748.068430883159
 30
0.0
 10
337.1674818529424
 20
748.068430883159
 30
0.0
 10
337.1674818529424
 20
748.0904794942646
 30
0.0
 10
337.1674818529424
 20
748.0904794942646
 30
0.0
 10
337.1674818529424
 20
748.0904794942646
 30
0.0
 10
336.6438273391843
 20
774.073389644019
 30
0.0
 10
336.6438273391843
 20
774.073389644019
 30
0.0
 10
336.6438273391843
 20
774.073389644019
 30
0.0
 10
336.3075860198242
 20
791.3751759352663
 30
0.0
 10
336.3075860198242
 20
791.3751759352663
 30
0.0
 10
336.3075860198242
 20
791.3751759352663
 30
0.0
 10
335.9878811587929
 20
809.0736649716403
 30
0.0
 10
335.9878811587929
 20
809.0736649716403
 30
0.0
 10
335.9878811587929
 20
809.0736649716403
 30
0.0
 10
335.8225165755009
 20
818.2178096633645
 30
0.0
 10
335.8225165755009
 20
818.2178096633645
 30
0.0
 10
335.8170044227245
 20
818.5375145243959
 30
0.0
 10
335.7729072005133
 20
818.857219385427
 30
0.0
 10
335.6902249088673
 20
819.1658999409053
 30
0.0
 10
335.5193481727989
 20
819.8163339685207
 30
0.0
 10
335.1996433117677
 20
821.960389143766
 30
0.0
 10
334.3288954278707
 20
822.1422901853871
 30
0.0
 10
334.3288954278707
 20
822.1422901853871
 30
0.0
 10
329.3515937255561
 20
822.1422901853871
 30
0.0
 10
329.3515937255561
 20
822.1422901853871
 30
0.0
 10
329.3515937255561
 20
822.1422901853871
 30
0.0
 10
328.4090156007918
 20
876.0042910399773
 30
0.0
 10
328.4090156007918
 20
876.0042910399773
 30
0.0
 10
328.3538940730277
 20
879.3114104510425
 30
0.0
 10
330.9942152529233
 20
882.0452659733628
 30
0.0
 10
334.3013346639888
 20
882.1003875011268
 30
0.0
 10
334.3399197334236
 20
882.1003875011268
 30
0.0
 10
334.372992650082
 20
882.1003875011268
 30
0.0
 10
334.4060655667404
 20
882.1003875011268
 30
0.0
 10
334.4060655667404
 20
882.1003875011268
 30
0.0
 10
558.413580972978
 20
882.1003875011268
 30
0.0
 10
558.413580972978
 20
882.1003875011268
 30
0.0
 10
558.413580972978
 20
882.1003875011268
 30
0.0
 10
782.4102443284371
 20
882.1003875011268
 30
0.0
 10
782.4102443284371
 20
882.1003875011268
 30
0.0
 10
782.4543415506485
 20
882.1003875011268
 30
0.0
 10
782.4929266200832
 20
882.1003875011268
 30
0.0
 10
782.5204873839652
 20
882.1003875011268
 30
0.0
 10
785.8274345402565
 20
882.0452659733628
 30
0.0
 10
788.4732678729283
 20
879.3114104510425
 30
0.0
 10
788.4071220396115
 20
876.0042910399773
 30
0.0
 10
788.4071220396115
 20
876.0042910399773
 30
0.0
 10
787.4700560676235
 20
822.1422901853871
 30
0.0
 10
787.4700560676235
 20
822.1422901853871
 30
0.0
 10
787.4700560676235
 20
822.1422901853871
 30
0.0
 10
782.4929266200832
 20
822.1422901853871
 30
0.0
 10
782.4929266200832
 20
822.1422901853871
 30
0.0
 10
781.6275186341884
 20
821.960389143766
 30
0.0
 10
781.3078137731572
 20
819.8163339685207
 30
0.0
 10
781.1314248843123
 20
819.1658999409053
 30
0.0
 10
781.0432304398901
 20
818.857219385427
 30
0.0
 10
781.0046453704554
 20
818.5375145243959
 30
0.0
 10
781.0046453704554
 20
818.2178096633645
 30
0.0
 10
781.0046453704554
 20
818.2178096633645
 30
0.0
 10
780.8392807871633
 20
809.0736649716403
 30
0.0
 10
780.8392807871633
 20
809.0736649716403
 30
0.0
 10
780.8392807871633
 20
809.0736649716403
 30
0.0
 10
780.5085516205793
 20
791.3751759352663
 30
0.0
 10
780.5085516205793
 20
791.3751759352663
 30
0.0
 10
780.5085516205793
 20
791.3751759352663
 30
0.0
 10
780.1778224539953
 20
774.073389644019
 30
0.0
 10
780.1778224539953
 20
774.073389644019
 30
0.0
 10
780.1778224539953
 20
774.073389644019
 30
0.0
 10
779.6541679402374
 20
748.0904794942646
 30
0.0
 10
779.6541679402374
 20
748.0904794942646
 30
0.0
 10
779.6541679402374
 20
748.0904794942646
 30
0.0
 10
779.6541679402374
 20
748.068430883159
 30
0.0
 10
779.6541679402374
 20
748.068430883159
 30
0.0
 10
779.5714856485913
 20
744.6069711943544
 30
0.0
 10
776.4133666172627
 20
742.2038448386181
 30
0.0
 10
773.0950506458703
 20
742.1983326858417
 30
0.0
 10
773.0950506458703
 20
742.1983326858417
 30
0.0
 10
558.413580972978
 20
742.1983326858417
 30
0.0
 10
558.413580972978
 20
742.1983326858417
 30
0.0
  0
SPLINE
  5
789C
330
A
100
AcDbEntity
  8
MODEL
100
AcDbSpline
210
0.0
220
0.0
230
1.0
 70
     8
 71
     3
 72
    35
 73
    31
 74
     0
 42
0.000000001
 43
0.0000000001
 40
0.0
 40
0.0
 40
0.0
 40
0.0
 40
1.0
 40
1.0
 40
1.0
 40
2.0
 40
2.0
 40
2.0
 40
3.0
 40
3.0
 40
3.0
 40
4.0
 40
4.0
 40
4.0
 40
5.0
 40
5.0
 40
5.0
 40
6.0
 40
6.0
 40
6.0
 40
7.0
 40
7.0
 40
7.0
 40
8.0
 40
8.0
 40
8.0
 40
9.0
 40
9.0
 40
9.0
 40
10.0
 40
10.0
 40
10.0
 40
10.0
 10
376.130822772021
 20
742.1983326858417
 30
0.0
 10
379.1898953081486
 20
737.2761525112912
 30
0.0
 10
382.6237942330715
 20
733.2083560170825
 30
0.0
 10
386.4325195467893
 20
730.000455355992
 30
0.0
 10
390.2191962494016
 20
726.8311397643363
 30
0.0
 10
394.7884263914887
 20
724.6374752141035
 30
0.0
 10
399.6885579549337
 20
723.871285978184
 30
0.0
 10
399.6885579549337
 20
723.871285978184
 30
0.0
 10
399.7657280938033
 20
723.8547495198547
 30
0.0
 10
399.7657280938033
 20
723.8547495198547
 30
0.0
 10
405.9996283743628
 20
722.8847828859828
 30
0.0
 10
412.255577266028
 20
722.0744964278517
 30
0.0
 10
418.5501112271279
 20
721.6169877474108
 30
0.0
 10
420.3965101524475
 20
721.4846960807772
 30
0.0
 10
422.2541056380944
 20
721.3909894835786
 30
0.0
 10
424.1060167161904
 20
721.3358679558144
 30
0.0
 10
427.5344034883367
 20
721.2366492058393
 30
0.0
 10
430.9627902604832
 20
721.2256249002864
 30
0.0
 10
434.3966891854061
 20
721.2862585808268
 30
0.0
 10
434.3966891854061
 20
721.2862585808268
 30
0.0
 10
434.3966891854061
 20
721.2862585808268
 30
0.0
 10
434.3966891854061
 20
721.2862585808268
 30
0.0
 10
444.103073460323
 20
721.4626474696718
 30
0.0
 10
453.8149698880168
 20
721.6555728168455
 30
0.0
 10
463.5268663157101
 20
721.8705467751249
 30
0.0
 10
466.0402357269743
 20
721.9256683028891
 30
0.0
 10
468.1183173236768
 20
723.8382130615257
 30
0.0
 10
468.382900656944
 20
726.3407304220111
 30
0.0
 10
468.382900656944
 20
726.3407304220111
 30
0.0
 10
470.0473985406425
 20
742.1928205330655
 30
0.0
 10
470.0473985406425
 20
742.1928205330655
 30
0.0
  0
SPLINE
  5
789D
330
A
100
AcDbEntity
  8
MODEL
100
AcDbSpline
210
0.0
220
0.0
230
1.0
 70
     8
 71
     3
 72
    23
 73
    19
 74
     0
 42
0.000000001
 43
0.0000000001
 40
0.0
 40
0.0
 40
0.0
 40
0.0
 40
1.0
 40
1.0
 40
1.0
 40
2.0
 40
2.0
 40
2.0
 40
3.0
 40
3.0
 40
3.0
 40
4.0
 40
4.0
 40
4.0
 40
5.0
 40
5.0
 40
5.0
 40
6.0
 40
6.0
 40
6.0
 40
6.0
 10
522.3770209233935
 20
742.1983326858417
 30
0.0
 10
522.3770209233935
 20
742.1983326858417
 30
0.0
 10
523.225892450959
 20
729.9949432032156
 30
0.0
 10
523.225892450959
 20
729.9949432032156
 30
0.0
 10
523.3416476592633
 20
728.424151916716
 30
0.0
 10
524.6423434597195
 20
727.2059661531316
 30
0.0
 10
526.2243313065462
 20
727.2059661531316
 30
0.0
 10
526.2243313065462
 20
727.2059661531316
 30
0.0
 10
558.413580972978
 20
727.2059661531316
 30
0.0
 10
558.413580972978
 20
727.2059661531316
 30
0.0
 10
558.413580972978
 20
727.2059661531316
 30
0.0
 10
590.6083427921862
 20
727.2059661531316
 30
0.0
 10
590.6083427921862
 20
727.2059661531316
 30
0.0
 10
592.1848184862367
 20
727.2059661531316
 30
0.0
 10
593.4911986942434
 20
728.424151916716
 30
0.0
 10
593.6014417497713
 20
729.9949432032156
 30
0.0
 10
593.6014417497713
 20
729.9949432032156
 30
0.0
 10
594.4444566150121
 20
742.1983326858417
 30
0.0
 10
594.4444566150121
 20
742.1983326858417
 30
0.0
  0
SPLINE
  5
789F
330
A
100
AcDbEntity
  8
MODEL
100
AcDbSpline
210
0.0
220
0.0
230
1.0
 70
     8
 71
     3
 72
    35
 73
    31
 74
     0
 42
0.000000001
 43
0.0000000001
 40
0.0
 40
0.0
 40
0.0
 40
0.0
 40
1.0
 40
1.0
 40
1.0
 40
2.0
 40
2.0
 40
2.0
 40
3.0
 40
3.0
 40
3.0
 40
4.0
 40
4.0
 40
4.0
 40
5.0
 40
5.0
 40
5.0
 40
6.0
 40
6.0
 40
6.0
 40
7.0
 40
7.0
 40
7.0
 40
8.0
 40
8.0
 40
8.0
 40
9.0
 40
9.0
 40
9.0
 40
10.0
 40
10.0
 40
10.0
 40
10.0
 10
740.6853148683824
 20
742.1983326858417
 30
0.0
 10
737.6260700774806
 20
737.2761525112912
 30
0.0
 10
734.1923434073319
 20
733.2083560170825
 30
0.0
 10
730.3893025011646
 20
730.000455355992
 30
0.0
 10
726.602453543778
 20
726.8311397643363
 30
0.0
 10
722.0277112489148
 20
724.6374752141035
 30
0.0
 10
717.1387762457966
 20
723.871285978184
 30
0.0
 10
717.1387762457966
 20
723.871285978184
 30
0.0
 10
717.0505818013744
 20
723.8547495198547
 30
0.0
 10
717.0505818013744
 20
723.8547495198547
 30
0.0
 10
710.8221936735911
 20
722.8847828859828
 30
0.0
 10
704.5717569347023
 20
722.0744964278517
 30
0.0
 10
698.2713663112775
 20
721.6169877474108
 30
0.0
 10
696.4251396407321
 20
721.4846960807772
 30
0.0
 10
694.562032002309
 20
721.3909894835786
 30
0.0
 10
692.7209729749916
 20
721.3358679558144
 30
0.0
 10
689.2872463048429
 20
721.2366492058393
 30
0.0
 10
685.853175125146
 20
721.2256249002864
 30
0.0
 10
682.4249606077738
 20
721.2862585808268
 30
0.0
 10
682.4249606077738
 20
721.2862585808268
 30
0.0
 10
682.4249606077738
 20
721.2862585808268
 30
0.0
 10
682.4249606077738
 20
721.2862585808268
 30
0.0
 10
672.7239162308588
 20
721.4626474696718
 30
0.0
 10
663.0121920579395
 20
721.6555728168455
 30
0.0
 10
653.2949557322438
 20
721.8705467751249
 30
0.0
 10
650.786926218982
 20
721.9256683028891
 30
0.0
 10
648.7033324695028
 20
723.8382130615257
 30
0.0
 10
648.444261289012
 20
726.3407304220111
 30
0.0
 10
648.444261289012
 20
726.3407304220111
 30
0.0
 10
646.7740789977629
 20
742.1928205330655
 30
0.0
 10
646.7740789977629
 20
742.1928205330655
 30
0.0
  0
SPLINE
  5
78AC
330
A
100
AcDbEntity
  8
MODEL
100
AcDbSpline
210
0.0
220
0.0
230
1.0
 70
     8
 71
     3
 72
    23
 73
    19
 74
     0
 42
0.000000001
 43
0.0000000001
 40
0.0
 40
0.0
 40
0.0
 40
0.0
 40
1.0
 40
1.0
 40
1.0
 40
2.0
 40
2.0
 40
2.0
 40
3.0
 40
3.0
 40
3.0
 40
4.0
 40
4.0
 40
4.0
 40
5.0
 40
5.0
 40
5.0
 40
6.0
 40
6.0
 40
6.0
 40
6.0
 10
1509.566862776607
 20
759.5185502379356
 30
0.0
 10
1509.969249929284
 20
758.8460675992148
 30
0.0
 10
1510.200760345893
 20
758.0964148216242
 30
0.0
 10
1510.244857568104
 20
757.3247134329283
 30
0.0
 10
1510.244857568104
 20
757.3247134329283
 30
0.0
 10
1512.157574581515
 20
729.9837466428883
 30
0.0
 10
1512.157574581515
 20
729.9837466428883
 30
0.0
 10
1512.267817637043
 20
728.4127831016147
 30
0.0
 10
1513.574197845049
 20
727.19459733803
 30
0.0
 10
1515.1506735391
 20
727.19459733803
 30
0.0
 10
1515.1506735391
 20
727.19459733803
 30
0.0
 10
1579.572581075078
 20
727.19459733803
 30
0.0
 10
1579.572581075078
 20
727.19459733803
 30
0.0
 10
1581.005740796942
 20
727.19459733803
 30
0.0
 10
1582.245975171631
 20
728.2198577544407
 30
0.0
 10
1582.521582810451
 20
729.6254567124226
 30
0.0
 10
1582.808214754824
 20
731.1192501148269
 30
0.0
 10
1583.761817185141
 20
732.3980695589519
 30
0.0
 10
1585.101614819355
 20
733.1036251143307
 30
0.0
  0
SPLINE
  5
78AE
330
A
100
AcDbEntity
  8
MODEL
100
AcDbSpline
210
0.0
220
0.0
230
1.0
 70
     8
 71
     3
 72
    11
 73
     7
 74
     0
 42
0.000000001
 43
0.0000000001
 40
0.0
 40
0.0
 40
0.0
 40
0.0
 40
1.0
 40
1.0
 40
1.0
 40
2.0
 40
2.0
 40
2.0
 40
2.0
 10
1472.855236266688
 20
818.2076466316832
 30
0.0
 10
1474.6742466829
 20
820.0762664228826
 30
0.0
 10
1476.807449807366
 20
822.1267872557034
 30
0.0
 10
1479.607623417777
 20
822.1378115612563
 30
0.0
 10
1479.607623417777
 20
822.1378115612563
 30
0.0
 10
1482.154238000474
 20
822.1378115612563
 30
0.0
 10
1482.154238000474
 20
822.1378115612563
 30
0.0
  0
SPLINE
  5
78AF
330
A
100
AcDbEntity
  8
MODEL
100
AcDbSpline
210
0.0
220
0.0
230
1.0
 70
    11
 71
     3
 72
    20
 73
    16
 74
     0
 42
0.000000001
 43
0.0000000001
 40
0.0
 40
0.0
 40
0.0
 40
0.0
 40
1.0
 40
1.0
 40
1.0
 40
2.0
 40
2.0
 40
2.0
 40
3.0
 40
3.0
 40
3.0
 40
4.0
 40
4.0
 40
4.0
 40
5.0
 40
5.0
 40
5.0
 40
5.0
 10
1638.416190001339
 20
742.6565303853797
 30
0.0
 10
1637.68841358008
 20
744.2109574683248
 30
0.0
 10
1638.019315001438
 20
746.1843081622758
 30
0.0
 10
1638.664236876277
 20
747.7056623285623
 30
0.0
 10
1639.298134445563
 20
749.1939435781899
 30
0.0
 10
1640.94075597293
 20
751.5696814248183
 30
0.0
 10
1642.87000944467
 20
750.913735244427
 30
0.0
 10
1645.141016388547
 20
750.1475460085073
 30
0.0
 10
1644.600825416459
 20
746.5646467038475
 30
0.0
 10
1643.97243999995
 20
744.9165130237036
 30
0.0
 10
1643.377127500099
 20
743.3786223990885
 30
0.0
 10
1641.679384444968
 20
740.7603498302985
 30
0.0
 10
1639.656424376029
 20
741.454881080125
 30
0.0
 10
1639.132769862271
 20
741.6312699689695
 30
0.0
 10
1638.702821945712
 20
742.0446814271997
 30
0.0
 10
1638.416190001339
 20
742.6565303853797
 30
0.0
  0
SPLINE
  5
78B0
102
{ACAD_REACTORS
330
79C2
102
}
330
A
100
AcDbEntity
  8
MODEL
100
AcDbSpline
210
0.0
220
0.0
230
1.0
 70
     8
 71
     3
 72
   104
 73
   100
 74
     0
 42
0.000000001
 43
0.0000000001
 40
0.0
 40
0.0
 40
0.0
 40
0.0
 40
1.0
 40
1.0
 40
1.0
 40
2.0
 40
2.0
 40
2.0
 40
3.0
 40
3.0
 40
3.0
 40
4.0
 40
4.0
 40
4.0
 40
5.0
 40
5.0
 40
5.0
 40
6.0
 40
6.0
 40
6.0
 40
7.0
 40
7.0
 40
7.0
 40
8.0
 40
8.0
 40
8.0
 40
9.0
 40
9.0
 40
9.0
 40
10.0
 40
10.0
 40
10.0
 40
11.0
 40
11.0
 40
11.0
 40
12.0
 40
12.0
 40
12.0
 40
13.0
 40
13.0
 40
13.0
 40
14.0
 40
14.0
 40
14.0
 40
15.0
 40
15.0
 40
15.0
 40
16.0
 40
16.0
 40
16.0
 40
17.0
 40
17.0
 40
17.0
 40
18.0
 40
18.0
 40
18.0
 40
19.0
 40
19.0
 40
19.0
 40
20.0
 40
20.0
 40
20.0
 40
21.0
 40
21.0
 40
21.0
 40
22.0
 40
22.0
 40
22.0
 40
23.0
 40
23.0
 40
23.0
 40
24.0
 40
24.0
 40
24.0
 40
25.0
 40
25.0
 40
25.0
 40
26.0
 40
26.0
 40
26.0
 40
27.0
 40
27.0
 40
27.0
 40
28.0
 40
28.0
 40
28.0
 40
29.0
 40
29.0
 40
29.0
 40
30.0
 40
30.0
 40
30.0
 40
31.0
 40
31.0
 40
31.0
 40
32.0
 40
32.0
 40
32.0
 40
33.0
 40
33.0
 40
33.0
 40
33.0
 10
1661.07148242189
 20
822.1378115612563
 30
0.0
 10
1661.07148242189
 20
822.1378115612563
 30
0.0
 10
1482.154238000474
 20
822.1378115612563
 30
0.0
 10
1482.154238000474
 20
822.1378115612563
 30
0.0
 10
1480.544689389765
 20
822.1322994084796
 30
0.0
 10
1478.863482792963
 20
821.046405311529
 30
0.0
 10
1478.450071334733
 20
819.4203202424912
 30
0.0
 10
1478.450071334733
 20
819.4203202424912
 30
0.0
 10
1477.926416820975
 20
747.5733706619287
 30
0.0
 10
1477.926416820975
 20
747.5733706619287
 30
0.0
 10
1477.623248418273
 20
744.5141258710266
 30
0.0
 10
1475.043560918918
 20
742.1879973993862
 30
0.0
 10
1471.956755364134
 20
742.1879973993862
 30
0.0
 10
1471.956755364134
 20
742.1879973993862
 30
0.0
 10
1471.477198072588
 20
742.1879973993862
 30
0.0
 10
1471.477198072588
 20
742.1879973993862
 30
0.0
 10
1471.477198072588
 20
742.1879973993862
 30
0.0
 10
1305.320587328536
 20
742.1879973993866
 30
0.0
 10
1305.320587328536
 20
742.1879973993866
 30
0.0
 10
1302.046368579355
 20
742.1879973993866
 30
0.0
 10
1299.383998788354
 20
744.8062699681766
 30
0.0
 10
1299.32887726059
 20
748.0804887173579
 30
0.0
 10
1299.32887726059
 20
748.0804887173579
 30
0.0
 10
1297.096455386148
 20
876.0037742756547
 30
0.0
 10
1297.096455386148
 20
876.0037742756547
 30
0.0
 10
1297.030309552831
 20
879.3110659414945
 30
0.0
 10
1299.676142885503
 20
882.0452659733635
 30
0.0
 10
1302.983434551343
 20
882.1003875011272
 30
0.0
 10
1303.022019620778
 20
882.1003875011272
 30
0.0
 10
1303.04958038466
 20
882.1003875011272
 30
0.0
 10
1303.093677606871
 20
882.1003875011272
 30
0.0
 10
1303.093677606871
 20
882.1003875011272
 30
0.0
 10
1751.097856368568
 20
882.1003875011268
 30
0.0
 10
1751.097856368568
 20
882.1003875011268
 30
0.0
 10
1754.421856747511
 20
882.1003875011268
 30
0.0
 10
1757.095250844065
 20
879.4157968442457
 30
0.0
 10
1757.095250844065
 20
876.1029930256293
 30
0.0
 10
1757.095250844065
 20
876.0699201089712
 30
0.0
 10
1757.095250844065
 20
876.0368471923127
 30
0.0
 10
1757.095250844065
 20
876.0037742756542
 30
0.0
 10
1757.095250844065
 20
876.0037742756542
 30
0.0
 10
1756.158184872077
 20
822.1378115612563
 30
0.0
 10
1756.158184872077
 20
822.1378115612563
 30
0.0
 10
1756.158184872077
 20
822.1378115612563
 30
0.0
 10
1661.07148242189
 20
822.1378115612563
 30
0.0
 10
1661.07148242189
 20
822.1378115612563
 30
0.0
 10
1660.454121310934
 20
821.3220129503491
 30
0.0
 10
1660.10685568602
 20
820.3353376033735
 30
0.0
 10
1660.068270616586
 20
819.3155893397395
 30
0.0
 10
1660.068270616586
 20
819.3155893397395
 30
0.0
 10
1656.838149089615
 20
726.6764549770489
 30
0.0
 10
1656.838149089615
 20
726.6764549770489
 30
0.0
 10
1656.744442492417
 20
724.1298403943517
 30
0.0
 10
1654.743531034584
 20
722.0517587976494
 30
0.0
 10
1652.196744197112
 20
721.8698577560283
 30
0.0
 10
1645.681207360634
 20
721.4123490755867
 30
0.0
 10
1639.143794167824
 20
721.086787552231
 30
0.0
 10
1632.617233025792
 20
721.3241546311644
 30
0.0
 10
1631.15100038727
 20
721.3847883117048
 30
0.0
 10
1629.706644105079
 20
721.4784949089037
 30
0.0
 10
1628.262460077662
 20
721.6107865755373
 30
0.0
 10
1623.477911467747
 20
722.0627831032018
 30
0.0
 10
1618.748312130822
 20
722.8951181724385
 30
0.0
 10
1614.051957965329
 20
723.8983299777431
 30
0.0
 10
1614.051957965329
 20
723.8983299777431
 30
0.0
 10
1613.875569076485
 20
723.9369150471778
 30
0.0
 10
1613.875569076485
 20
723.9369150471778
 30
0.0
 10
1611.284685016803
 20
724.5322275470292
 30
0.0
 10
1608.693973211894
 20
725.1936858801971
 30
0.0
 10
1606.125310018092
 20
725.9047535883526
 30
0.0
 10
1598.011248876458
 20
728.1537119211237
 30
0.0
 10
1590.08460092922
 20
731.0861771981683
 30
0.0
 10
1582.290072393843
 20
734.2336164334927
 30
0.0
 10
1582.290072393843
 20
734.2336164334927
 30
0.0
 10
1582.273535935513
 20
734.2391285862689
 30
0.0
 10
1582.273535935513
 20
734.2391285862689
 30
0.0
 10
1574.462815451355
 20
737.4141285854755
 30
0.0
 10
1566.547019554896
 20
740.3689869831744
 30
0.0
 10
1558.570934487446
 20
743.086478301939
 30
0.0
 10
1558.570934487446
 20
743.086478301939
 30
0.0
 10
1558.543373723564
 20
743.0919904547156
 30
0.0
 10
1558.543373723564
 20
743.0919904547156
 30
0.0
 10
1550.05431393836
 20
745.9858706623256
 30
0.0
 10
1541.565598662704
 20
748.874238717159
 30
0.0
 10
1533.065514571947
 20
751.7350460081104
 30
0.0
 10
1524.780748949019
 20
754.5190276697406
 30
0.0
 10
1516.473590205436
 20
757.2585675996118
 30
0.0
 10
1508.172288124178
 20
759.9705467656001
 30
0.0
 10
1504.826411388903
 20
761.0619530153274
 30
0.0
 10
1501.463653685751
 20
762.1423349595018
 30
0.0
 10
1498.117776950476
 20
763.2227169036757
 30
0.0
 10
1498.117776950476
 20
763.2227169036757
 30
0.0
 10
1501.298289102459
 20
762.1974564872655
 30
0.0
 10
1501.298289102459
 20
762.1974564872655
 30
0.0
 10
1498.194947089346
 20
762.2084807928184
 30
0.0
 10
1485.120120703725
 20
762.2195050983712
 30
0.0
 10
1482.02194633384
 20
762.2470658622535
 30
0.0
 10
1479.949376889914
 20
762.2580901678059
 30
0.0
 10
1478.218560918125
 20
760.6926387793085
 30
0.0
 10
1478.009099112621
 20
758.6310936409348
 30
0.0
  0
SPLINE
  5
78B1
102
{ACAD_REACTORS
330
7964
102
}
330
A
100
AcDbEntity
  8
MODEL
100
AcDbSpline
210
0.0
220
0.0
230
1.0
 70
    11
 71
     3
 72
   113
 73
   109
 74
     0
 42
0.000000001
 43
0.0000000001
 40
0.0
 40
0.0
 40
0.0
 40
0.0
 40
1.0
 40
1.0
 40
1.0
 40
2.0
 40
2.0
 40
2.0
 40
3.0
 40
3.0
 40
3.0
 40
4.0
 40
4.0
 40
4.0
 40
5.0
 40
5.0
 40
5.0
 40
6.0
 40
6.0
 40
6.0
 40
7.0
 40
7.0
 40
7.0
 40
8.0
 40
8.0
 40
8.0
 40
9.0
 40
9.0
 40
9.0
 40
10.0
 40
10.0
 40
10.0
 40
11.0
 40
11.0
 40
11.0
 40
12.0
 40
12.0
 40
12.0
 40
13.0
 40
13.0
 40
13.0
 40
14.0
 40
14.0
 40
14.0
 40
15.0
 40
15.0
 40
15.0
 40
16.0
 40
16.0
 40
16.0
 40
17.0
 40
17.0
 40
17.0
 40
18.0
 40
18.0
 40
18.0
 40
19.0
 40
19.0
 40
19.0
 40
20.0
 40
20.0
 40
20.0
 40
21.0
 40
21.0
 40
21.0
 40
22.0
 40
22.0
 40
22.0
 40
23.0
 40
23.0
 40
23.0
 40
24.0
 40
24.0
 40
24.0
 40
25.0
 40
25.0
 40
25.0
 40
26.0
 40
26.0
 40
26.0
 40
27.0
 40
27.0
 40
27.0
 40
28.0
 40
28.0
 40
28.0
 40
29.0
 40
29.0
 40
29.0
 40
30.0
 40
30.0
 40
30.0
 40
31.0
 40
31.0
 40
31.0
 40
32.0
 40
32.0
 40
32.0
 40
33.0
 40
33.0
 40
33.0
 40
34.0
 40
34.0
 40
34.0
 40
35.0
 40
35.0
 40
35.0
 40
36.0
 40
36.0
 40
36.0
 40
36.0
 10
393.7655775419178
 20
2248.975290787526
 30
0.0
 10
393.7655775419178
 20
2248.975290787526
 30
0.0
 10
723.0670965568146
 20
2248.975290787526
 30
0.0
 10
723.0670965568146
 20
2248.975290787526
 30
0.0
 10
726.175950722704
 20
2249.035924468067
 30
0.0
 10
728.9210028053511
 20
2247.520082454556
 30
0.0
 10
730.4919663466251
 20
2244.830151899673
 30
0.0
 10
732.3881469017066
 20
2240.657452247939
 30
0.0
 10
734.3063760678938
 20
2236.50680120731
 30
0.0
 10
736.1694837063169
 20
2232.323249504797
 30
0.0
 10
739.730334399871
 20
2224.32511582624
 30
0.0
 10
743.3242580100837
 20
2216.305105791354
 30
0.0
 10
746.4276000231966
 20
2208.114046765623
 30
0.0
 10
749.5860635640738
 20
2199.768819716928
 30
0.0
 10
752.6067232855407
 20
2191.368471140469
 30
0.0
 10
754.9328517571817
 20
2182.741952045404
 30
0.0
 10
757.214883006611
 20
2174.247896871746
 30
0.0
 10
758.9346746728477
 20
2165.627062184231
 30
0.0
 10
759.8993014087177
 20
2156.879275728084
 30
0.0
 10
760.8584159918112
 20
2148.214343818358
 30
0.0
 10
761.1395357834076
 20
2139.472069514988
 30
0.0
 10
760.7426607835068
 20
2130.757528230275
 30
0.0
 10
760.3623222419353
 20
2122.180618510197
 30
0.0
 10
759.4969142560406
 20
2113.598541146891
 30
0.0
 10
757.9314628675429
 20
2105.14841094067
 30
0.0
 10
756.3053777985051
 20
2096.373063720642
 30
0.0
 10
754.1225652990506
 20
2087.790986357336
 30
0.0
 10
751.5649264108013
 20
2079.247149553917
 30
0.0
 10
749.123042730856
 20
2071.105699903173
 30
0.0
 10
746.0086764121902
 20
2062.969762405208
 30
0.0
 10
742.3816798853193
 20
2055.286165944455
 30
0.0
 10
738.6334159973674
 20
2047.343153793663
 30
0.0
 10
734.670178151136
 20
2039.499360392846
 30
0.0
 10
729.9683118328671
 20
2032.069322959808
 30
0.0
 10
725.1947875285049
 20
2024.51767365614
 30
0.0
 10
720.1015583631115
 20
2017.214071227411
 30
0.0
 10
714.4130166978671
 20
2010.323880256911
 30
0.0
 10
708.6473048937529
 20
2003.323790740432
 30
0.0
 10
702.4130601036447
 20
1996.813938311504
 30
0.0
 10
695.8260375358471
 20
1990.585205674172
 30
0.0
 10
689.674475037385
 20
1984.76988449507
 30
0.0
 10
682.9992580251649
 20
1979.274268177
 30
0.0
 10
676.0374090685721
 20
1974.445966854423
 30
0.0
 10
668.6180514315379
 20
1969.292104008489
 30
0.0
 10
661.0498656695411
 20
1964.507555398574
 30
0.0
 10
653.0792927548671
 20
1960.24114914964
 30
0.0
 10
645.4229125484479
 20
1956.134595331222
 30
0.0
 10
637.4578517865502
 20
1952.562720332115
 30
0.0
 10
629.3164021358078
 20
1949.520011999543
 30
0.0
 10
621.2851955405935
 20
1946.516233245953
 30
0.0
 10
613.0114542232175
 20
1943.931033593822
 30
0.0
 10
604.6384941558663
 20
1942.062413802623
 30
0.0
 10
595.6867580469931
 20
1940.055990192013
 30
0.0
 10
586.7184854797907
 20
1938.556684636832
 30
0.0
 10
577.5958726348491
 20
1937.603082206515
 30
0.0
 10
569.0134507619947
 20
1936.710113456738
 30
0.0
 10
560.3428344447179
 20
1936.528212415117
 30
0.0
 10
551.7273396552051
 20
1936.809332206713
 30
0.0
 10
542.803164310214
 20
1937.101476303862
 30
0.0
 10
533.9561591040924
 20
1938.060590886956
 30
0.0
 10
525.1422268146292
 20
1939.460677692162
 30
0.0
 10
516.824388275042
 20
1940.783594358498
 30
0.0
 10
508.4459160549144
 20
1942.668750608026
 30
0.0
 10
500.4036851541472
 20
1945.187804426841
 30
0.0
 10
491.7992146701872
 20
1947.888759287277
 30
0.0
 10
483.4097181445068
 20
1950.986244638065
 30
0.0
 10
475.1580254382363
 20
1954.629777623265
 30
0.0
 10
467.4465237040531
 20
1958.03628803908
 30
0.0
 10
459.8948744003854
 20
1962.043623107523
 30
0.0
 10
452.7511244021714
 20
1966.519491161959
 30
0.0
 10
444.9569403763422
 20
1971.403258521849
 30
0.0
 10
437.5430948920846
 20
1976.694925187193
 30
0.0
 10
430.3552476716593
 20
1982.432731717877
 30
0.0
 10
423.6304212844516
 20
1987.807080674867
 30
0.0
 10
417.3575914249087
 20
1993.809815048366
 30
0.0
 10
411.4485636486082
 20
2000.055084144027
 30
0.0
 10
405.2584160807113
 20
2006.597664980065
 30
0.0
 10
399.6801174709948
 20
2013.576050394987
 30
0.0
 10
394.3388414306635
 20
2020.819019143176
 30
0.0
 10
389.2731730291521
 20
2027.681649349794
 30
0.0
 10
384.6264282386471
 20
2035.122711088385
 30
0.0
 10
380.6907511562977
 20
2042.690896850382
 30
0.0
 10
376.6503431711966
 20
2050.463032265106
 30
0.0
 10
372.7973483804932
 20
2058.339898582581
 30
0.0
 10
369.7160549784858
 20
2066.547149557091
 30
0.0
 10
366.5520792848323
 20
2074.975231152206
 30
0.0
 10
363.7684421327505
 20
2083.508043650073
 30
0.0
 10
361.6297268555073
 20
2092.244461291119
 30
0.0
 10
359.4965237310406
 20
2100.920589761172
 30
0.0
 10
357.9861938703071
 20
2109.729009897858
 30
0.0
 10
356.9995185233315
 20
2118.603231358314
 30
0.0
 10
356.0624525513437
 20
2127.036825106205
 30
0.0
 10
355.6104560236788
 20
2135.619246979059
 30
0.0
 10
355.9963067180269
 20
2144.102277847164
 30
0.0
 10
356.4097181762568
 20
2152.954622951288
 30
0.0
 10
357.2200046343876
 20
2161.763043087974
 30
0.0
 10
359.0004299811648
 20
2170.450023608807
 30
0.0
 10
360.769831022389
 20
2179.087567009425
 30
0.0
 10
363.0628865773713
 20
2187.642255863623
 30
0.0
 10
365.9622789377576
 20
2195.976458606765
 30
0.0
 10
368.9167928259078
 20
2204.470686035197
 30
0.0
 10
372.2185723389712
 20
2212.821425236669
 30
0.0
 10
375.729813657538
 20
2221.106190859598
 30
0.0
 10
379.1142754622473
 20
2229.076591519497
 30
0.0
 10
382.7522962946712
 20
2236.936749123869
 30
0.0
 10
386.335195599331
 20
2244.830151899673
 30
0.0
 10
387.9171834461578
 20
2247.51457030178
 30
0.0
 10
390.6456990704756
 20
2249.035924468067
 30
0.0
 10
393.7655775419178
 20
2248.975290787526
 30
0.0
  0
SPLINE
  5
78B2
102
{ACAD_REACTORS
330
7946
330
7955
330
7964
102
}
330
A
100
AcDbEntity
  8
MODEL
100
AcDbSpline
210
0.0
220
0.0
230
1.0
 70
    11
 71
     3
 72
    17
 73
    13
 74
     0
 42
0.000000001
 43
0.0000000001
 40
0.0
 40
0.0
 40
0.0
 40
0.0
 40
1.0
 40
1.0
 40
1.0
 40
2.0
 40
2.0
 40
2.0
 40
3.0
 40
3.0
 40
3.0
 40
4.0
 40
4.0
 40
4.0
 40
4.0
 10
788.4136677210336
 20
2138.794074723492
 30
0.0
 10
788.4136677210336
 20
2265.820085162655
 30
0.0
 10
685.4411417051099
 20
2368.791405395159
 30
0.0
 10
558.413580972978
 20
2368.791405395159
 30
0.0
 10
431.3860202408462
 20
2368.791405395159
 30
0.0
 10
328.4134942249225
 20
2265.820085162655
 30
0.0
 10
328.4134942249225
 20
2138.794074723492
 30
0.0
 10
328.4134942249225
 20
2011.768064284328
 30
0.0
 10
431.3860202408462
 20
1908.791404153822
 30
0.0
 10
558.413580972978
 20
1908.791404153822
 30
0.0
 10
685.4411417051099
 20
1908.791404153822
 30
0.0
 10
788.4136677210336
 20
2011.768064284328
 30
0.0
 10
788.4136677210336
 20
2138.794074723492
 30
0.0
  0
SPLINE
  5
78B3
330
A
100
AcDbEntity
  8
MODEL
100
AcDbSpline
210
0.0
220
0.0
230
1.0
 70
    11
 71
     3
 72
    17
 73
    13
 74
     0
 42
0.000000001
 43
0.0000000001
 40
0.0
 40
0.0
 40
0.0
 40
0.0
 40
1.0
 40
1.0
 40
1.0
 40
2.0
 40
2.0
 40
2.0
 40
3.0
 40
3.0
 40
3.0
 40
4.0
 40
4.0
 40
4.0
 40
4.0
 10
595.907244158049
 20
2159.034527463657
 30
0.0
 10
595.907244158049
 20
2179.704755865608
 30
0.0
 10
579.1062024955827
 20
2196.478064509418
 30
0.0
 10
558.413580972978
 20
2196.478064509418
 30
0.0
 10
537.715447297597
 20
2196.478064509418
 30
0.0
 10
520.9254299406834
 20
2179.704755865608
 30
0.0
 10
520.9254299406834
 20
2159.034527463657
 30
0.0
 10
520.9254299406834
 20
2138.353102501379
 30
0.0
 10
537.715447297597
 20
2121.579793857569
 30
0.0
 10
558.413580972978
 20
2121.579793857569
 30
0.0
 10
579.1062024955827
 20
2121.579793857569
 30
0.0
 10
595.907244158049
 20
2138.353102501379
 30
0.0
 10
595.907244158049
 20
2159.034527463657
 30
0.0
  0
SPLINE
  5
78B4
330
A
100
AcDbEntity
  8
MODEL
100
AcDbSpline
210
0.0
220
0.0
230
1.0
 70
    11
 71
     3
 72
    17
 73
    13
 74
     0
 42
0.000000001
 43
0.0000000001
 40
0.0
 40
0.0
 40
0.0
 40
0.0
 40
1.0
 40
1.0
 40
1.0
 40
2.0
 40
2.0
 40
2.0
 40
3.0
 40
3.0
 40
3.0
 40
4.0
 40
4.0
 40
4.0
 40
4.0
 10
581.4102823561177
 20
2159.034527463657
 30
0.0
 10
581.4102823561177
 20
2171.717818747378
 30
0.0
 10
571.1080688170266
 20
2182.003323573366
 30
0.0
 10
558.413580972978
 20
2182.003323573366
 30
0.0
 10
545.713580976153
 20
2182.003323573366
 30
0.0
 10
535.4223917426148
 20
2171.717818747378
 30
0.0
 10
535.4223917426148
 20
2159.034527463657
 30
0.0
 10
535.4223917426148
 20
2146.356748332712
 30
0.0
 10
545.713580976153
 20
2136.065731353948
 30
0.0
 10
558.413580972978
 20
2136.065731353948
 30
0.0
 10
571.1080688170266
 20
2136.065731353948
 30
0.0
 10
581.4102823561177
 20
2146.356748332712
 30
0.0
 10
581.4102823561177
 20
2159.034527463657
 30
0.0
  0
SPLINE
  5
78B9
330
A
100
AcDbEntity
  8
MODEL
100
AcDbSpline
210
0.0
220
0.0
230
1.0
 70
    11
 71
     3
 72
    17
 73
    13
 74
     0
 42
0.000000001
 43
0.0000000001
 40
0.0
 40
0.0
 40
0.0
 40
0.0
 40
1.0
 40
1.0
 40
1.0
 40
2.0
 40
2.0
 40
2.0
 40
3.0
 40
3.0
 40
3.0
 40
4.0
 40
4.0
 40
4.0
 40
4.0
 10
575.9146660380472
 20
2308.935627415331
 30
0.0
 10
575.9146660380472
 20
2318.603943385136
 30
0.0
 10
568.0763847900067
 20
2326.436540225626
 30
0.0
 10
558.413580972978
 20
2326.436540225626
 30
0.0
 10
548.7562893087256
 20
2326.436540225626
 30
0.0
 10
540.9180080606852
 20
2318.603943385136
 30
0.0
 10
540.9180080606852
 20
2308.935627415331
 30
0.0
 10
540.9180080606852
 20
2299.278508005853
 30
0.0
 10
548.7562893087256
 20
2291.440226757813
 30
0.0
 10
558.413580972978
 20
2291.440226757813
 30
0.0
 10
568.0763847900067
 20
2291.440226757813
 30
0.0
 10
575.9146660380472
 20
2299.278508005853
 30
0.0
 10
575.9146660380472
 20
2308.935627415331
 30
0.0
  0
SPLINE
  5
78C2
330
A
100
AcDbEntity
  8
HIDDEN
100
AcDbSpline
210
0.0
220
0.0
230
1.0
 70
    11
 71
     3
 72
   113
 73
   109
 74
     0
 42
0.000000001
 43
0.0000000001
 40
0.0
 40
0.0
 40
0.0
 40
0.0
 40
1.0
 40
1.0
 40
1.0
 40
2.0
 40
2.0
 40
2.0
 40
3.0
 40
3.0
 40
3.0
 40
4.0
 40
4.0
 40
4.0
 40
5.0
 40
5.0
 40
5.0
 40
6.0
 40
6.0
 40
6.0
 40
7.0
 40
7.0
 40
7.0
 40
8.0
 40
8.0
 40
8.0
 40
9.0
 40
9.0
 40
9.0
 40
10.0
 40
10.0
 40
10.0
 40
11.0
 40
11.0
 40
11.0
 40
12.0
 40
12.0
 40
12.0
 40
13.0
 40
13.0
 40
13.0
 40
14.0
 40
14.0
 40
14.0
 40
15.0
 40
15.0
 40
15.0
 40
16.0
 40
16.0
 40
16.0
 40
17.0
 40
17.0
 40
17.0
 40
18.0
 40
18.0
 40
18.0
 40
19.0
 40
19.0
 40
19.0
 40
20.0
 40
20.0
 40
20.0
 40
21.0
 40
21.0
 40
21.0
 40
22.0
 40
22.0
 40
22.0
 40
23.0
 40
23.0
 40
23.0
 40
24.0
 40
24.0
 40
24.0
 40
25.0
 40
25.0
 40
25.0
 40
26.0
 40
26.0
 40
26.0
 40
27.0
 40
27.0
 40
27.0
 40
28.0
 40
28.0
 40
28.0
 40
29.0
 40
29.0
 40
29.0
 40
30.0
 40
30.0
 40
30.0
 40
31.0
 40
31.0
 40
31.0
 40
32.0
 40
32.0
 40
32.0
 40
33.0
 40
33.0
 40
33.0
 40
34.0
 40
34.0
 40
34.0
 40
35.0
 40
35.0
 40
35.0
 40
36.0
 40
36.0
 40
36.0
 40
36.0
 10
1264.833176326115
 20
2253.685769844508
 30
0.0
 10
1264.833176326115
 20
2253.685769844508
 30
0.0
 10
1594.134695341012
 20
2253.685769844508
 30
0.0
 10
1594.134695341012
 20
2253.685769844508
 30
0.0
 10
1597.243549506901
 20
2253.746403525049
 30
0.0
 10
1599.988601589548
 20
2252.230561511538
 30
0.0
 10
1601.559565130822
 20
2249.540630956655
 30
0.0
 10
1603.455745685904
 20
2245.367931304921
 30
0.0
 10
1605.373974852091
 20
2241.217280264292
 30
0.0
 10
1607.237082490514
 20
2237.033728561779
 30
0.0
 10
1610.797933184068
 20
2229.035594883222
 30
0.0
 10
1614.391856794281
 20
2221.015584848335
 30
0.0
 10
1617.495198807394
 20
2212.824525822605
 30
0.0
 10
1620.653662348271
 20
2204.47929877391
 30
0.0
 10
1623.674322069738
 20
2196.078950197451
 30
0.0
 10
1626.000450541379
 20
2187.452431102386
 30
0.0
 10
1628.282481790808
 20
2178.958375928728
 30
0.0
 10
1630.002273457045
 20
2170.337541241213
 30
0.0
 10
1630.966900192915
 20
2161.589754785066
 30
0.0
 10
1631.926014776008
 20
2152.92482287534
 30
0.0
 10
1632.207134567605
 20
2144.18254857197
 30
0.0
 10
1631.810259567704
 20
2135.468007287257
 30
0.0
 10
1631.429921026132
 20
2126.891097567179
 30
0.0
 10
1630.564513040238
 20
2118.309020203873
 30
0.0
 10
1628.99906165174
 20
2109.858889997652
 30
0.0
 10
1627.372976582702
 20
2101.083542777624
 30
0.0
 10
1625.190164083248
 20
2092.501465414318
 30
0.0
 10
1622.632525194998
 20
2083.957628610899
 30
0.0
 10
1620.190641515053
 20
2075.816178960155
 30
0.0
 10
1617.076275196387
 20
2067.68024146219
 30
0.0
 10
1613.449278669516
 20
2059.996645001437
 30
0.0
 10
1609.701014781564
 20
2052.053632850645
 30
0.0
 10
1605.737776935333
 20
2044.209839449828
 30
0.0
 10
1601.035910617064
 20
2036.77980201679
 30
0.0
 10
1596.262386312702
 20
2029.228152713122
 30
0.0
 10
1591.169157147309
 20
2021.924550284393
 30
0.0
 10
1585.480615482064
 20
2015.034359313893
 30
0.0
 10
1579.71490367795
 20
2008.034269797414
 30
0.0
 10
1573.480658887842
 20
2001.524417368486
 30
0.0
 10
1566.893636320044
 20
1995.295684731154
 30
0.0
 10
1560.742073821582
 20
1989.480363552052
 30
0.0
 10
1554.066856809362
 20
1983.984747233982
 30
0.0
 10
1547.105007852769
 20
1979.156445911404
 30
0.0
 10
1539.685650215735
 20
1974.002583065471
 30
0.0
 10
1532.117464453738
 20
1969.218034455556
 30
0.0
 10
1524.146891539064
 20
1964.951628206622
 30
0.0
 10
1516.490511332645
 20
1960.845074388204
 30
0.0
 10
1508.525450570747
 20
1957.273199389097
 30
0.0
 10
1500.384000920005
 20
1954.230491056525
 30
0.0
 10
1492.35279432479
 20
1951.226712302935
 30
0.0
 10
1484.079053007415
 20
1948.641512650804
 30
0.0
 10
1475.706092940063
 20
1946.772892859605
 30
0.0
 10
1466.75435683119
 20
1944.766469248995
 30
0.0
 10
1457.786084263988
 20
1943.267163693814
 30
0.0
 10
1448.663471419046
 20
1942.313561263497
 30
0.0
 10
1440.081049546192
 20
1941.42059251372
 30
0.0
 10
1431.410433228915
 20
1941.238691472099
 30
0.0
 10
1422.794938439402
 20
1941.519811263695
 30
0.0
 10
1413.870763094411
 20
1941.811955360844
 30
0.0
 10
1405.02375788829
 20
1942.771069943938
 30
0.0
 10
1396.209825598826
 20
1944.171156749144
 30
0.0
 10
1387.891987059239
 20
1945.49407341548
 30
0.0
 10
1379.513514839111
 20
1947.379229665008
 30
0.0
 10
1371.471283938344
 20
1949.898283483823
 30
0.0
 10
1362.866813454384
 20
1952.599238344259
 30
0.0
 10
1354.477316928704
 20
1955.696723695047
 30
0.0
 10
1346.225624222433
 20
1959.340256680247
 30
0.0
 10
1338.51412248825
 20
1962.746767096062
 30
0.0
 10
1330.962473184582
 20
1966.754102164505
 30
0.0
 10
1323.818723186369
 20
1971.229970218941
 30
0.0
 10
1316.024539160539
 20
1976.113737578831
 30
0.0
 10
1308.610693676282
 20
1981.405404244175
 30
0.0
 10
1301.422846455856
 20
1987.143210774859
 30
0.0
 10
1294.698020068649
 20
1992.517559731849
 30
0.0
 10
1288.425190209106
 20
1998.520294105348
 30
0.0
 10
1282.516162432805
 20
2004.765563201009
 30
0.0
 10
1276.326014864908
 20
2011.308144037047
 30
0.0
 10
1270.747716255192
 20
2018.286529451969
 30
0.0
 10
1265.406440214861
 20
2025.529498200158
 30
0.0
 10
1260.340771813349
 20
2032.392128406776
 30
0.0
 10
1255.694027022844
 20
2039.833190145367
 30
0.0
 10
1251.758349940495
 20
2047.401375907364
 30
0.0
 10
1247.717941955394
 20
2055.173511322088
 30
0.0
 10
1243.86494716469
 20
2063.050377639563
 30
0.0
 10
1240.783653762683
 20
2071.257628614073
 30
0.0
 10
1237.619678069029
 20
2079.685710209188
 30
0.0
 10
1234.836040916948
 20
2088.218522707055
 30
0.0
 10
1232.697325639705
 20
2096.954940348101
 30
0.0
 10
1230.564122515238
 20
2105.631068818154
 30
0.0
 10
1229.053792654504
 20
2114.43948895484
 30
0.0
 10
1228.067117307529
 20
2123.313710415296
 30
0.0
 10
1227.130051335541
 20
2131.747304163187
 30
0.0
 10
1226.678054807876
 20
2140.329726036041
 30
0.0
 10
1227.063905502224
 20
2148.812756904146
 30
0.0
 10
1227.477316960454
 20
2157.66510200827
 30
0.0
 10
1228.287603418585
 20
2166.473522144956
 30
0.0
 10
1230.068028765362
 20
2175.160502665789
 30
0.0
 10
1231.837429806586
 20
2183.798046066407
 30
0.0
 10
1234.130485361568
 20
2192.352734920605
 30
0.0
 10
1237.029877721955
 20
2200.686937663747
 30
0.0
 10
1239.984391610105
 20
2209.181165092179
 30
0.0
 10
1243.286171123168
 20
2217.531904293651
 30
0.0
 10
1246.797412441735
 20
2225.816669916579
 30
0.0
 10
1250.181874246444
 20
2233.787070576479
 30
0.0
 10
1253.819895078868
 20
2241.647228180851
 30
0.0
 10
1257.402794383528
 20
2249.540630956655
 30
0.0
 10
1258.984782230355
 20
2252.225049358762
 30
0.0
 10
1261.713297854673
 20
2253.746403525049
 30
0.0
 10
1264.833176326115
 20
2253.685769844508
 30
0.0
  0
SPLINE
  5
78C3
102
{ACAD_REACTORS
330
7B21
102
}
330
A
100
AcDbEntity
  8
HIDDEN
100
AcDbSpline
210
0.0
220
0.0
230
1.0
 70
    11
 71
     3
 72
    17
 73
    13
 74
     0
 42
0.000000001
 43
0.0000000001
 40
0.0
 40
0.0
 40
0.0
 40
0.0
 40
1.0
 40
1.0
 40
1.0
 40
2.0
 40
2.0
 40
2.0
 40
3.0
 40
3.0
 40
3.0
 40
4.0
 40
4.0
 40
4.0
 40
4.0
 10
1659.481266505231
 20
2143.504553780474
 30
0.0
 10
1659.481266505231
 20
2270.530564219637
 30
0.0
 10
1556.508740489307
 20
2373.501884452141
 30
0.0
 10
1429.481179757175
 20
2373.501884452141
 30
0.0
 10
1302.453619025043
 20
2373.501884452141
 30
0.0
 10
1199.48109300912
 20
2270.530564219637
 30
0.0
 10
1199.48109300912
 20
2143.504553780474
 30
0.0
 10
1199.48109300912
 20
2016.47854334131
 30
0.0
 10
1302.453619025043
 20
1913.501883210804
 30
0.0
 10
1429.481179757175
 20
1913.501883210804
 30
0.0
 10
1556.508740489307
 20
1913.501883210804
 30
0.0
 10
1659.481266505231
 20
2016.47854334131
 30
0.0
 10
1659.481266505231
 20
2143.504553780474
 30
0.0
  0
SPLINE
  5
78C4
330
A
100
AcDbEntity
  8
HIDDEN
100
AcDbSpline
210
0.0
220
0.0
230
1.0
 70
    11
 71
     3
 72
    17
 73
    13
 74
     0
 42
0.000000001
 43
0.0000000001
 40
0.0
 40
0.0
 40
0.0
 40
0.0
 40
1.0
 40
1.0
 40
1.0
 40
2.0
 40
2.0
 40
2.0
 40
3.0
 40
3.0
 40
3.0
 40
4.0
 40
4.0
 40
4.0
 40
4.0
 10
1466.974842942246
 20
2163.745006520639
 30
0.0
 10
1466.974842942246
 20
2184.41523492259
 30
0.0
 10
1450.17380127978
 20
2201.1885435664
 30
0.0
 10
1429.481179757175
 20
2201.1885435664
 30
0.0
 10
1408.783046081794
 20
2201.1885435664
 30
0.0
 10
1391.993028724881
 20
2184.41523492259
 30
0.0
 10
1391.993028724881
 20
2163.745006520639
 30
0.0
 10
1391.993028724881
 20
2143.063581558361
 30
0.0
 10
1408.783046081794
 20
2126.290272914551
 30
0.0
 10
1429.481179757175
 20
2126.290272914551
 30
0.0
 10
1450.17380127978
 20
2126.290272914551
 30
0.0
 10
1466.974842942246
 20
2143.063581558361
 30
0.0
 10
1466.974842942246
 20
2163.745006520639
 30
0.0
  0
SPLINE
  5
78C5
330
A
100
AcDbEntity
  8
HIDDEN
100
AcDbSpline
210
0.0
220
0.0
230
1.0
 70
    11
 71
     3
 72
    17
 73
    13
 74
     0
 42
0.000000001
 43
0.0000000001
 40
0.0
 40
0.0
 40
0.0
 40
0.0
 40
1.0
 40
1.0
 40
1.0
 40
2.0
 40
2.0
 40
2.0
 40
3.0
 40
3.0
 40
3.0
 40
4.0
 40
4.0
 40
4.0
 40
4.0
 10
1452.477881140315
 20
2163.745006520639
 30
0.0
 10
1452.477881140315
 20
2176.42829780436
 30
0.0
 10
1442.175667601224
 20
2186.713802630348
 30
0.0
 10
1429.481179757175
 20
2186.713802630348
 30
0.0
 10
1416.78117976035
 20
2186.713802630348
 30
0.0
 10
1406.489990526812
 20
2176.42829780436
 30
0.0
 10
1406.489990526812
 20
2163.745006520639
 30
0.0
 10
1406.489990526812
 20
2151.067227389693
 30
0.0
 10
1416.78117976035
 20
2140.77621041093
 30
0.0
 10
1429.481179757175
 20
2140.77621041093
 30
0.0
 10
1442.175667601224
 20
2140.77621041093
 30
0.0
 10
1452.477881140315
 20
2151.067227389693
 30
0.0
 10
1452.477881140315
 20
2163.745006520639
 30
0.0
  0
SPLINE
  5
78CA
330
A
100
AcDbEntity
  8
HIDDEN
100
AcDbSpline
210
0.0
220
0.0
230
1.0
 70
    11
 71
     3
 72
    17
 73
    13
 74
     0
 42
0.000000001
 43
0.0000000001
 40
0.0
 40
0.0
 40
0.0
 40
0.0
 40
1.0
 40
1.0
 40
1.0
 40
2.0
 40
2.0
 40
2.0
 40
3.0
 40
3.0
 40
3.0
 40
4.0
 40
4.0
 40
4.0
 40
4.0
 10
1446.982264822244
 20
2313.646106472313
 30
0.0
 10
1446.982264822244
 20
2323.314422442118
 30
0.0
 10
1439.143983574204
 20
2331.147019282608
 30
0.0
 10
1429.481179757175
 20
2331.147019282608
 30
0.0
 10
1419.823888092923
 20
2331.147019282608
 30
0.0
 10
1411.985606844882
 20
2323.314422442118
 30
0.0
 10
1411.985606844882
 20
2313.646106472313
 30
0.0
 10
1411.985606844882
 20
2303.988987062835
 30
0.0
 10
1419.823888092923
 20
2296.150705814794
 30
0.0
 10
1429.481179757175
 20
2296.150705814794
 30
0.0
 10
1439.143983574204
 20
2296.150705814794
 30
0.0
 10
1446.982264822244
 20
2303.988987062835
 30
0.0
 10
1446.982264822244
 20
2313.646106472313
 30
0.0
  0
LINE
  5
78CE
330
A
100
AcDbEntity
  8
HIDDEN
100
AcDbLine
 10
355.9502635695916
 20
882.1003875011265
 30
0.0
 11
355.9502635695916
 21
782.100387501127
 31
0.0
  0
LINE
  5
78CF
330
A
100
AcDbEntity
  8
HIDDEN
100
AcDbLine
 10
1398.932140384228
 20
882.1003875011271
 30
0.0
 11
1398.932140384228
 21
782.1003875011271
 31
0.0
  0
LINE
  5
78D0
330
A
100
AcDbEntity
  8
HIDDEN
100
AcDbLine
 10
558.413580972978
 20
782.100387501127
 30
0.0
 11
355.9502635695917
 21
782.100387501127
 31
0.0
  0
LINE
  5
78D1
330
A
100
AcDbEntity
  8
HIDDEN
100
AcDbLine
 10
558.4135809729779
 20
782.1003875011271
 30
0.0
 11
760.8768983763644
 21
782.1003875011272
 31
0.0
  0
LINE
  5
78D2
330
A
100
AcDbEntity
  8
HIDDEN
100
AcDbLine
 10
760.8768983763644
 20
882.1003875011268
 30
0.0
 11
760.8768983763644
 21
782.1003875011272
 31
0.0
  0
LINE
  5
78D3
330
A
100
AcDbEntity
  8
HIDDEN
100
AcDbLine
 10
1398.932140384228
 20
782.1003875011273
 30
0.0
 11
1637.139075126399
 21
782.1003875011273
 31
0.0
  0
LINE
  5
7911
330
A
100
AcDbEntity
  8
HIDDEN
100
AcDbLine
 10
1637.139075126399
 20
882.1003875011268
 30
0.0
 11
1637.139075126399
 21
782.1003875011273
 31
0.0
  0
LINE
  5
7913
330
A
100
AcDbEntity
  8
HIDDEN
100
AcDbLine
 10
532.6084516312516
 20
776.2959119049509
 30
0.0
 11
532.6084516312521
 21
727.2059661531314
 31
0.0
  0
LINE
  5
7914
330
A
100
AcDbEntity
  8
HIDDEN
100
AcDbLine
 10
532.6084516312516
 20
776.2959119049509
 30
0.0
 11
520.9023498615109
 21
782.100387501127
 31
0.0
  0
LINE
  5
7917
330
A
100
AcDbEntity
  8
HIDDEN
100
AcDbLine
 10
532.6084516312516
 20
776.2959119049509
 30
0.0
 11
558.413580972978
 21
776.2959119049509
 31
0.0
  0
LINE
  5
7918
330
A
100
AcDbEntity
  8
HIDDEN
100
AcDbLine
 10
584.2187103147045
 20
776.2959119049509
 30
0.0
 11
584.2187103147039
 21
727.2059661531314
 31
0.0
  0
LINE
  5
7919
330
A
100
AcDbEntity
  8
HIDDEN
100
AcDbLine
 10
584.2187103147045
 20
776.2959119049509
 30
0.0
 11
595.9248120844452
 21
782.100387501127
 31
0.0
  0
LINE
  5
791A
330
A
100
AcDbEntity
  8
HIDDEN
100
AcDbLine
 10
584.2187103147045
 20
776.2959119049509
 30
0.0
 11
558.413580972978
 21
776.2959119049509
 31
0.0
  0
LINE
  5
791B
330
A
100
AcDbEntity
  8
HIDDEN
100
AcDbLine
 10
1521.537205430645
 20
776.2959119049481
 30
0.0
 11
1521.537205430645
 21
727.2059661531285
 31
0.0
  0
LINE
  5
791C
330
A
100
AcDbEntity
  8
HIDDEN
100
AcDbLine
 10
1521.537205430645
 20
776.2959119049481
 30
0.0
 11
1509.831103660904
 21
782.1003875011241
 31
0.0
  0
LINE
  5
791D
330
A
100
AcDbEntity
  8
HIDDEN
100
AcDbLine
 10
1521.537205430645
 20
776.2959119049481
 30
0.0
 11
1547.342334772371
 21
776.2959119049481
 31
0.0
  0
LINE
  5
791E
330
A
100
AcDbEntity
  8
HIDDEN
100
AcDbLine
 10
1573.147464114098
 20
776.2959119049481
 30
0.0
 11
1573.147464114097
 21
727.2059661531285
 31
0.0
  0
LINE
  5
791F
330
A
100
AcDbEntity
  8
HIDDEN
100
AcDbLine
 10
1573.147464114098
 20
776.2959119049481
 30
0.0
 11
1584.853565883838
 21
782.1003875011241
 31
0.0
  0
LINE
  5
7920
330
A
100
AcDbEntity
  8
HIDDEN
100
AcDbLine
 10
1573.147464114098
 20
776.2959119049481
 30
0.0
 11
1547.342334772371
 21
776.2959119049481
 31
0.0
  0
ARC
  5
7923
330
A
100
AcDbEntity
  8
HIDDEN
 48
0.5
100
AcDbCircle
 10
542.2781433984705
 20
861.9484232303871
 30
0.0
 40
6.0
100
AcDbArc
 50
90.0
 51
270.0
  0
LINE
  5
7924
330
A
100
AcDbEntity
  8
HIDDEN
 48
0.5
100
AcDbLine
 10
542.2781433984705
 20
867.9484232303871
 30
0.0
 11
574.549018547486
 21
867.9484232303871
 31
0.0
  0
ARC
  5
7925
330
A
100
AcDbEntity
  8
HIDDEN
 48
0.5
100
AcDbCircle
 10
574.5490185474869
 20
861.9484232303847
 30
0.0
 40
6.0
100
AcDbArc
 50
269.9999999999913
 51
89.99999999999133
  0
LINE
  5
7926
330
A
100
AcDbEntity
  8
HIDDEN
 48
0.5
100
AcDbLine
 10
542.2781433984705
 20
855.9484232303871
 30
0.0
 11
574.549018547486
 21
855.9484232303871
 31
0.0
  0
MTEXT
  5
792F
330
A
100
AcDbEntity
  8
TEMPLATE
390
1D
100
AcDbMText
 10
1175.531614812646
 20
1456.943216929399
 30
0.0
 40
24.0
 41
949.7161250932045
 46
111.8331968503937
 71
     1
 72
     1
  1
{{\C7;※陶器製品には寸法公差があります。\P  洗面器の収め方をご確認の上、必ず現物を合わせて\P  カウンターの切込を行ってください。}}
  7
ＭＳ ゴシック
 73
     1
 44
0.9822934569727008
1001
ACAD
1000
ACAD_MTEXT_DEFINED_HEIGHT_BEGIN
1070
    46
1040
111.8331968503937
1000
ACAD_MTEXT_DEFINED_HEIGHT_END
  0
MTEXT
  5
7930
330
A
100
AcDbEntity
  8
DIM
390
1D
100
AcDbMText
 10
1295.398750918145
 20
2650.6124747776
 30
0.0
 40
24.0
 41
0.0
 46
0.0
 71
     1
 72
     1
  1
カウンター切込寸法
  7
ＭＳ ゴシック
 73
     1
 44
0.7828267384257843
  0
DIMENSION
  5
7944
102
{ACAD_REACTORS
330
7946
102
}
102
{ACAD_XDICTIONARY
360
7945
102
}
330
A
100
AcDbEntity
  8
DIM
100
AcDbDimension
  2
*D25
 10
788.4136677210336
 20
2436.784699670568
 30
0.0
 11
558.413580972978
 21
2468.784699670568
 31
0.0
 70
    32
 71
     5
 42
460.0001734961111
 73
     0
 74
     0
 75
     0
  3
tfrom線あり
100
AcDbAlignedDimension
 13
328.4134942249225
 23
2176.509644328355
 33
0.0
 14
788.4136677210336
 24
2176.509644328355
 34
0.0
100
AcDbRotatedDimension
1001
ACAD
1000
DSTYLE
1002
{
1070
   144
1040
1.0
1002
}
  0
DIMENSION
  5
7953
102
{ACAD_REACTORS
330
7955
102
}
102
{ACAD_XDICTIONARY
360
7954
102
}
330
A
100
AcDbEntity
  8
DIM
100
AcDbDimension
  2
*D26
 10
910.2098056275604
 20
1908.792160236471
 30
0.0
 11
878.2098056275604
 21
2138.791436138774
 31
0.0
 70
    32
 71
     5
 42
459.9985518046064
 73
     0
 74
     0
 75
     0
  3
tfrom線あり
100
AcDbAlignedDimension
 13
570.7705670638184
 23
2368.790712041077
 33
0.0
 14
569.6035791815565
 24
1908.792160236471
 34
0.0
 50
90.0
100
AcDbRotatedDimension
1001
ACAD
1000
DSTYLE
1002
{
1070
   144
1040
1.0
1002
}
  0
DIMENSION
  5
7962
102
{ACAD_REACTORS
330
7964
102
}
102
{ACAD_XDICTIONARY
360
7963
102
}
330
A
100
AcDbEntity
  8
DIM
100
AcDbDimension
  2
*D27
 10
210.1145448372868
 20
2248.975290787526
 30
0.0
 11
178.1145448372868
 21
2308.797757867028
 31
0.0
 70
    32
 71
     5
 42
119.6449341590051
 73
     0
 74
     0
 75
     0
  3
tfrom線あり
100
AcDbAlignedDimension
 13
549.4569489371491
 23
2368.620224946531
 33
0.0
 14
419.9074007643436
 24
2248.975290787526
 34
0.0
 50
90.0
100
AcDbRotatedDimension
1001
ACAD
1000
DSTYLE
1002
{
1070
   144
1040
1.0
1002
}
  0
DIMENSION
  5
7971
330
A
100
AcDbEntity
  8
DIM
100
AcDbDimension
  2
*D28
 10
210.1145448372867
 20
1938.90417954886
 30
0.0
 11
178.1145448372867
 21
2093.939735168193
 31
0.0
 70
    32
 71
     5
 42
310.0711112386657
 73
     0
 74
     0
 75
     0
  3
tfrom線あり
100
AcDbAlignedDimension
 13
356.4725780138309
 23
2248.975290787526
 33
0.0
 14
550.318456217954
 24
1938.90417954886
 34
0.0
 50
90.0
100
AcDbRotatedDimension
1001
ACAD
1000
DSTYLE
1002
{
1070
   144
1040
1.0
1002
}
  0
DIMENSION
  5
7983
330
A
100
AcDbEntity
  8
DIM
100
AcDbDimension
  2
*D29
 10
760.9161291749646
 20
1820.214668302533
 30
0.0
 11
558.3886054485247
 21
1852.214668302533
 31
0.0
 70
    32
  1
400
 71
     5
 42
405.0550474528799
 73
     0
 74
     0
 75
     0
  3
tfrom線あり
100
AcDbAlignedDimension
 13
355.8610817220847
 23
2111.63886460799
 33
0.0
 14
760.9161291749646
 24
2111.767498544923
 34
0.0
100
AcDbRotatedDimension
1001
ACAD
1000
DSTYLE
1002
{
1070
   144
1040
1.0
1002
}
  0
DIMENSION
  5
7993
330
A
100
AcDbEntity
  8
DIM
100
AcDbDimension
  2
*D30
 10
1696.80618643841
 20
967.940903893984
 30
0.0
 11
1726.80618643841
 21
967.940903893984
 31
0.0
 70
   160
 71
     5
 42
60.0
 73
     0
 74
     0
 75
     0
  3
tfrom線あり
100
AcDbAlignedDimension
 13
1756.80618643841
 23
886.5425102447194
 33
0.0
 14
1696.80618643841
 24
886.5425102447196
 34
0.0
100
AcDbRotatedDimension
1001
ACAD
1000
DSTYLE
1002
{
1070
   144
1040
1.0
1002
}
  0
DIMENSION
  5
79A1
102
{ACAD_REACTORS
330
79B0
102
}
330
A
100
AcDbEntity
  8
DIM
100
AcDbDimension
  2
*D31
 10
1476.35971045258
 20
512.3368230672361
 30
0.0
 11
1616.35971045258
 21
544.3368230672361
 31
0.0
 70
    32
 71
     5
 42
280.0
 73
     0
 74
     0
 75
     0
  3
tfrom線あり
100
AcDbAlignedDimension
 13
1756.35971045258
 23
811.0441343377526
 33
0.0
 14
1476.35971045258
 24
737.1703772339316
 34
0.0
100
AcDbRotatedDimension
1001
ACAD
1000
DSTYLE
1002
{
1070
   144
1040
1.0
1002
}
  0
DIMENSION
  5
79AE
102
{ACAD_REACTORS
330
79B0
102
}
102
{ACAD_XDICTIONARY
360
79AF
102
}
330
A
100
AcDbEntity
  8
DIM
100
AcDbDimension
  2
*D32
 10
1546.35971045258
 20
597.2534280325858
 30
0.0
 11
1651.35971045258
 21
629.2534280325858
 31
0.0
 70
    32
 71
     5
 42
210.0
 73
     0
 74
     0
 75
     0
  3
tfrom線あり
100
AcDbAlignedDimension
 13
1756.35971045258
 23
781.0441343377526
 33
0.0
 14
1546.35971045258
 24
720.3570472228594
 34
0.0
100
AcDbRotatedDimension
1001
ACAD
1000
DSTYLE
1002
{
1070
   144
1040
1.0
1002
}
  0
DIMENSION
  5
79C0
102
{ACAD_REACTORS
330
79C2
102
}
102
{ACAD_XDICTIONARY
360
79C1
102
}
330
A
100
AcDbEntity
  8
DIM
100
AcDbDimension
  2
*D33
 10
1209.533651492995
 20
882.1003875011272
 30
0.0
 11
1177.533651492995
 21
812.1441924502569
 31
0.0
 70
    32
 71
     5
 42
139.9123901017406
 73
     0
 74
     0
 75
     0
  3
tfrom線あり
100
AcDbAlignedDimension
 13
1307.292407908865
 23
742.1879973993866
 33
0.0
 14
1309.706204363485
 24
882.1003875011272
 34
0.0
 50
90.0
100
AcDbRotatedDimension
1001
ACAD
1000
DSTYLE
1002
{
1070
   144
1040
1.0
1002
}
  0
DIMENSION
  5
79CF
330
A
100
AcDbEntity
  8
DIM
100
AcDbDimension
  2
*D34
 10
905.545898290223
 20
727.1003875011268
 30
0.0
 11
873.545898290223
 21
804.6003875011268
 31
0.0
 70
    32
 71
     5
 42
155.0
 73
     0
 74
     0
 75
     0
  3
tfrom線あり
100
AcDbAlignedDimension
 13
775.0077860193958
 23
882.1003875011268
 33
0.0
 14
602.7592710112442
 24
727.1003875011268
 34
0.0
 50
90.0
100
AcDbRotatedDimension
1001
ACAD
1000
DSTYLE
1002
{
1070
   144
1040
1.0
1002
}
  0
DIMENSION
  5
7A1E
102
{ACAD_XDICTIONARY
360
7A1F
102
}
330
A
100
AcDbEntity
  8
DIM
100
AcDbDimension
  2
*D36
 10
1546.35971045258
 20
882.1003875011274
 30
0.0
 11
1546.35971045258
 21
1007.116387501128
 31
0.0
 70
   160
  1
100(深さ)
 71
     5
 42
100.0000000000001
 73
     0
 74
     1
 75
     1
  3
tfrom線あり
100
AcDbAlignedDimension
 13
1546.35971045258
 23
782.1003875011273
 33
0.0
 14
1546.35971045258
 24
882.1003875011274
 34
0.0
 50
89.99999999999999
100
AcDbRotatedDimension
1001
ACAD
1000
DSTYLE
1002
{
1070
   172
1070
     1
1070
   144
1040
1.0
1002
}
  0
CIRCLE
  5
7A3E
330
A
100
AcDbEntity
  8
DIM
100
AcDbCircle
 10
1429.481179757175
 20
2143.504553780474
 30
0.0
 40
0.0
  0
CIRCLE
  5
7A3F
330
A
100
AcDbEntity
  8
DIM
100
AcDbCircle
 10
1429.481179757175
 20
2143.504553780474
 30
0.0
 40
0.0
  0
CIRCLE
  5
7A40
330
A
100
AcDbEntity
  8
DIM
100
AcDbCircle
 10
1429.481179757175
 20
2143.504553780474
 30
0.0
 40
0.0
  0
LINE
  5
7A76
330
A
100
AcDbEntity
  8
DIM
100
AcDbLine
 10
563.9146239374826
 20
2325.554421623011
 30
0.0
 11
705.7403670375843
 21
2490.3283542218
 31
0.0
  0
LINE
  5
7A77
330
A
100
AcDbEntity
  8
DIM
100
AcDbLine
 10
705.7403670375843
 20
2490.3283542218
 30
0.0
 11
792.8633328248185
 21
2490.3283542218
 31
0.0
  0
MTEXT
  5
7AAC
330
A
100
AcDbEntity
  8
DIM
390
1D
100
AcDbMText
 10
728.156584061002
 20
2533.543346724105
 30
0.0
 40
24.0
 41
0.0
 46
24.0
 71
     1
 72
     1
  1
{%%c35}
  7
ＭＳ ゴシック
 73
     1
 44
0.7828267384257843
1001
ACAD
1000
ACAD_MTEXT_DEFINED_HEIGHT_BEGIN
1070
    46
1040
24.0
1000
ACAD_MTEXT_DEFINED_HEIGHT_END
  0
SPLINE
  5
7ABA
330
A
100
AcDbEntity
  8
HIDDEN
100
AcDbSpline
210
0.0
220
0.0
230
1.0
 70
    11
 71
     3
 72
    89
 73
    85
 74
     0
 42
0.000000001
 43
0.0000000001
 40
0.0
 40
0.0
 40
0.0
 40
0.0
 40
1.0
 40
1.0
 40
1.0
 40
2.0
 40
2.0
 40
2.0
 40
3.0
 40
3.0
 40
3.0
 40
4.0
 40
4.0
 40
4.0
 40
5.0
 40
5.0
 40
5.0
 40
6.0
 40
6.0
 40
6.0
 40
7.0
 40
7.0
 40
7.0
 40
8.0
 40
8.0
 40
8.0
 40
9.0
 40
9.0
 40
9.0
 40
10.0
 40
10.0
 40
10.0
 40
11.0
 40
11.0
 40
11.0
 40
12.0
 40
12.0
 40
12.0
 40
13.0
 40
13.0
 40
13.0
 40
14.0
 40
14.0
 40
14.0
 40
15.0
 40
15.0
 40
15.0
 40
16.0
 40
16.0
 40
16.0
 40
17.0
 40
17.0
 40
17.0
 40
18.0
 40
18.0
 40
18.0
 40
19.0
 40
19.0
 40
19.0
 40
20.0
 40
20.0
 40
20.0
 40
21.0
 40
21.0
 40
21.0
 40
22.0
 40
22.0
 40
22.0
 40
23.0
 40
23.0
 40
23.0
 40
24.0
 40
24.0
 40
24.0
 40
25.0
 40
25.0
 40
25.0
 40
26.0
 40
26.0
 40
26.0
 40
27.0
 40
27.0
 40
27.0
 40
28.0
 40
28.0
 40
28.0
 40
28.0
 10
1429.481179757175
 20
1625.737654426576
 30
0.0
 10
1429.481179757175
 20
1625.737654426576
 30
0.0
 10
1214.794197931506
 20
1625.737654426576
 30
0.0
 10
1214.794197931506
 20
1625.737654426576
 30
0.0
 10
1211.481566367665
 20
1625.743166579354
 30
0.0
 10
1208.323275081562
 20
1628.14629293509
 30
0.0
 10
1208.235080637139
 20
1631.607752623895
 30
0.0
 10
1208.235080637139
 20
1631.607752623895
 30
0.0
 10
1208.235080637139
 20
1631.629801235
 30
0.0
 10
1208.235080637139
 20
1631.629801235
 30
0.0
 10
1208.235080637139
 20
1631.629801235
 30
0.0
 10
1207.711426123381
 20
1657.612711384754
 30
0.0
 10
1207.711426123381
 20
1657.612711384754
 30
0.0
 10
1207.711426123381
 20
1657.612711384754
 30
0.0
 10
1207.375184804021
 20
1674.914497676001
 30
0.0
 10
1207.375184804021
 20
1674.914497676001
 30
0.0
 10
1207.375184804021
 20
1674.914497676001
 30
0.0
 10
1207.05547994299
 20
1692.612986712375
 30
0.0
 10
1207.05547994299
 20
1692.612986712375
 30
0.0
 10
1207.05547994299
 20
1692.612986712375
 30
0.0
 10
1206.890115359698
 20
1701.757131404099
 30
0.0
 10
1206.890115359698
 20
1701.757131404099
 30
0.0
 10
1206.884603206921
 20
1702.076836265132
 30
0.0
 10
1206.84050598471
 20
1702.396541126162
 30
0.0
 10
1206.757823693064
 20
1702.705221681641
 30
0.0
 10
1206.586946956996
 20
1703.355655709255
 30
0.0
 10
1206.267242095965
 20
1705.499710884502
 30
0.0
 10
1205.396494212068
 20
1705.681611926123
 30
0.0
 10
1205.396494212068
 20
1705.681611926123
 30
0.0
 10
1200.419192509753
 20
1705.681611926123
 30
0.0
 10
1200.419192509753
 20
1705.681611926123
 30
0.0
 10
1200.419192509753
 20
1705.681611926123
 30
0.0
 10
1199.476614384989
 20
1759.543612780712
 30
0.0
 10
1199.476614384989
 20
1759.543612780712
 30
0.0
 10
1199.421492857225
 20
1762.850732191778
 30
0.0
 10
1202.06181403712
 20
1765.584587714098
 30
0.0
 10
1205.368933448186
 20
1765.639709241862
 30
0.0
 10
1205.40751851762
 20
1765.639709241862
 30
0.0
 10
1205.440591434279
 20
1765.639709241862
 30
0.0
 10
1205.473664350937
 20
1765.639709241862
 30
0.0
 10
1205.473664350937
 20
1765.639709241862
 30
0.0
 10
1429.481179757175
 20
1765.639709241862
 30
0.0
 10
1429.481179757175
 20
1765.639709241862
 30
0.0
 10
1429.481179757175
 20
1765.639709241862
 30
0.0
 10
1653.477843112634
 20
1765.639709241862
 30
0.0
 10
1653.477843112634
 20
1765.639709241862
 30
0.0
 10
1653.521940334845
 20
1765.639709241862
 30
0.0
 10
1653.56052540428
 20
1765.639709241862
 30
0.0
 10
1653.588086168162
 20
1765.639709241862
 30
0.0
 10
1656.895033324453
 20
1765.584587714098
 30
0.0
 10
1659.540866657125
 20
1762.850732191778
 30
0.0
 10
1659.474720823808
 20
1759.543612780712
 30
0.0
 10
1659.474720823808
 20
1759.543612780712
 30
0.0
 10
1658.53765485182
 20
1705.681611926123
 30
0.0
 10
1658.53765485182
 20
1705.681611926123
 30
0.0
 10
1658.53765485182
 20
1705.681611926123
 30
0.0
 10
1653.56052540428
 20
1705.681611926123
 30
0.0
 10
1653.56052540428
 20
1705.681611926123
 30
0.0
 10
1652.695117418385
 20
1705.499710884502
 30
0.0
 10
1652.375412557354
 20
1703.355655709255
 30
0.0
 10
1652.199023668509
 20
1702.705221681641
 30
0.0
 10
1652.110829224087
 20
1702.396541126162
 30
0.0
 10
1652.072244154652
 20
1702.076836265132
 30
0.0
 10
1652.072244154652
 20
1701.757131404099
 30
0.0
 10
1652.072244154652
 20
1701.757131404099
 30
0.0
 10
1651.90687957136
 20
1692.612986712375
 30
0.0
 10
1651.90687957136
 20
1692.612986712375
 30
0.0
 10
1651.90687957136
 20
1692.612986712375
 30
0.0
 10
1651.576150404776
 20
1674.914497676001
 30
0.0
 10
1651.576150404776
 20
1674.914497676001
 30
0.0
 10
1651.576150404776
 20
1674.914497676001
 30
0.0
 10
1651.245421238192
 20
1657.612711384754
 30
0.0
 10
1651.245421238192
 20
1657.612711384754
 30
0.0
 10
1651.245421238192
 20
1657.612711384754
 30
0.0
 10
1650.721766724434
 20
1631.629801235
 30
0.0
 10
1650.721766724434
 20
1631.629801235
 30
0.0
 10
1650.721766724434
 20
1631.629801235
 30
0.0
 10
1650.721766724434
 20
1631.607752623895
 30
0.0
 10
1650.721766724434
 20
1631.607752623895
 30
0.0
 10
1650.639084432788
 20
1628.14629293509
 30
0.0
 10
1647.48096540146
 20
1625.743166579354
 30
0.0
 10
1644.162649430067
 20
1625.737654426576
 30
0.0
 10
1644.162649430067
 20
1625.737654426576
 30
0.0
 10
1429.481179757175
 20
1625.737654426576
 30
0.0
 10
1429.481179757175
 20
1625.737654426576
 30
0.0
  0
SPLINE
  5
7ABB
330
A
100
AcDbEntity
  8
HIDDEN
100
AcDbSpline
210
0.0
220
0.0
230
1.0
 70
     8
 71
     3
 72
    35
 73
    31
 74
     0
 42
0.000000001
 43
0.0000000001
 40
0.0
 40
0.0
 40
0.0
 40
0.0
 40
1.0
 40
1.0
 40
1.0
 40
2.0
 40
2.0
 40
2.0
 40
3.0
 40
3.0
 40
3.0
 40
4.0
 40
4.0
 40
4.0
 40
5.0
 40
5.0
 40
5.0
 40
6.0
 40
6.0
 40
6.0
 40
7.0
 40
7.0
 40
7.0
 40
8.0
 40
8.0
 40
8.0
 40
9.0
 40
9.0
 40
9.0
 40
10.0
 40
10.0
 40
10.0
 40
10.0
 10
1247.198421556218
 20
1625.737654426576
 30
0.0
 10
1250.257494092345
 20
1620.815474252026
 30
0.0
 10
1253.691393017268
 20
1616.747677757817
 30
0.0
 10
1257.500118330986
 20
1613.539777096727
 30
0.0
 10
1261.286795033599
 20
1610.370461505071
 30
0.0
 10
1265.856025175686
 20
1608.176796954838
 30
0.0
 10
1270.756156739131
 20
1607.410607718919
 30
0.0
 10
1270.756156739131
 20
1607.410607718919
 30
0.0
 10
1270.833326878
 20
1607.394071260589
 30
0.0
 10
1270.833326878
 20
1607.394071260589
 30
0.0
 10
1277.06722715856
 20
1606.424104626718
 30
0.0
 10
1283.323176050225
 20
1605.613818168586
 30
0.0
 10
1289.617710011325
 20
1605.156309488146
 30
0.0
 10
1291.464108936644
 20
1605.024017821512
 30
0.0
 10
1293.321704422291
 20
1604.930311224314
 30
0.0
 10
1295.173615500387
 20
1604.87518969655
 30
0.0
 10
1298.602002272534
 20
1604.775970946574
 30
0.0
 10
1302.03038904468
 20
1604.764946641021
 30
0.0
 10
1305.464287969603
 20
1604.825580321562
 30
0.0
 10
1305.464287969603
 20
1604.825580321562
 30
0.0
 10
1305.464287969603
 20
1604.825580321562
 30
0.0
 10
1305.464287969603
 20
1604.825580321562
 30
0.0
 10
1315.17067224452
 20
1605.001969210407
 30
0.0
 10
1324.882568672214
 20
1605.19489455758
 30
0.0
 10
1334.594465099907
 20
1605.409868515861
 30
0.0
 10
1337.107834511171
 20
1605.464990043625
 30
0.0
 10
1339.185916107874
 20
1607.37753480226
 30
0.0
 10
1339.450499441141
 20
1609.880052162747
 30
0.0
 10
1339.450499441141
 20
1609.880052162747
 30
0.0
 10
1341.114997324839
 20
1625.7321422738
 30
0.0
 10
1341.114997324839
 20
1625.7321422738
 30
0.0
  0
SPLINE
  5
7ABC
330
A
100
AcDbEntity
  8
HIDDEN
100
AcDbSpline
210
0.0
220
0.0
230
1.0
 70
     8
 71
     3
 72
    23
 73
    19
 74
     0
 42
0.000000001
 43
0.0000000001
 40
0.0
 40
0.0
 40
0.0
 40
0.0
 40
1.0
 40
1.0
 40
1.0
 40
2.0
 40
2.0
 40
2.0
 40
3.0
 40
3.0
 40
3.0
 40
4.0
 40
4.0
 40
4.0
 40
5.0
 40
5.0
 40
5.0
 40
6.0
 40
6.0
 40
6.0
 40
6.0
 10
1393.44461970759
 20
1625.737654426576
 30
0.0
 10
1393.44461970759
 20
1625.737654426576
 30
0.0
 10
1394.293491235156
 20
1613.534264943951
 30
0.0
 10
1394.293491235156
 20
1613.534264943951
 30
0.0
 10
1394.40924644346
 20
1611.963473657451
 30
0.0
 10
1395.709942243916
 20
1610.745287893867
 30
0.0
 10
1397.291930090743
 20
1610.745287893867
 30
0.0
 10
1397.291930090743
 20
1610.745287893867
 30
0.0
 10
1429.481179757175
 20
1610.745287893867
 30
0.0
 10
1429.481179757175
 20
1610.745287893867
 30
0.0
 10
1429.481179757175
 20
1610.745287893867
 30
0.0
 10
1461.675941576383
 20
1610.745287893867
 30
0.0
 10
1461.675941576383
 20
1610.745287893867
 30
0.0
 10
1463.252417270434
 20
1610.745287893867
 30
0.0
 10
1464.55879747844
 20
1611.963473657451
 30
0.0
 10
1464.669040533968
 20
1613.534264943951
 30
0.0
 10
1464.669040533968
 20
1613.534264943951
 30
0.0
 10
1465.512055399209
 20
1625.737654426576
 30
0.0
 10
1465.512055399209
 20
1625.737654426576
 30
0.0
  0
SPLINE
  5
7ABD
330
A
100
AcDbEntity
  8
HIDDEN
100
AcDbSpline
210
0.0
220
0.0
230
1.0
 70
     8
 71
     3
 72
    35
 73
    31
 74
     0
 42
0.000000001
 43
0.0000000001
 40
0.0
 40
0.0
 40
0.0
 40
0.0
 40
1.0
 40
1.0
 40
1.0
 40
2.0
 40
2.0
 40
2.0
 40
3.0
 40
3.0
 40
3.0
 40
4.0
 40
4.0
 40
4.0
 40
5.0
 40
5.0
 40
5.0
 40
6.0
 40
6.0
 40
6.0
 40
7.0
 40
7.0
 40
7.0
 40
8.0
 40
8.0
 40
8.0
 40
9.0
 40
9.0
 40
9.0
 40
10.0
 40
10.0
 40
10.0
 40
10.0
 10
1611.752913652579
 20
1625.737654426576
 30
0.0
 10
1608.693668861677
 20
1620.815474252026
 30
0.0
 10
1605.259942191529
 20
1616.747677757817
 30
0.0
 10
1601.456901285361
 20
1613.539777096727
 30
0.0
 10
1597.670052327975
 20
1610.370461505071
 30
0.0
 10
1593.095310033112
 20
1608.176796954838
 30
0.0
 10
1588.206375029994
 20
1607.410607718919
 30
0.0
 10
1588.206375029994
 20
1607.410607718919
 30
0.0
 10
1588.118180585571
 20
1607.394071260589
 30
0.0
 10
1588.118180585571
 20
1607.394071260589
 30
0.0
 10
1581.889792457788
 20
1606.424104626718
 30
0.0
 10
1575.639355718899
 20
1605.613818168586
 30
0.0
 10
1569.338965095474
 20
1605.156309488146
 30
0.0
 10
1567.492738424929
 20
1605.024017821512
 30
0.0
 10
1565.629630786506
 20
1604.930311224314
 30
0.0
 10
1563.788571759188
 20
1604.87518969655
 30
0.0
 10
1560.35484508904
 20
1604.775970946574
 30
0.0
 10
1556.920773909343
 20
1604.764946641021
 30
0.0
 10
1553.492559391971
 20
1604.825580321562
 30
0.0
 10
1553.492559391971
 20
1604.825580321562
 30
0.0
 10
1553.492559391971
 20
1604.825580321562
 30
0.0
 10
1553.492559391971
 20
1604.825580321562
 30
0.0
 10
1543.791515015056
 20
1605.001969210407
 30
0.0
 10
1534.079790842136
 20
1605.19489455758
 30
0.0
 10
1524.362554516441
 20
1605.409868515861
 30
0.0
 10
1521.854525003179
 20
1605.464990043625
 30
0.0
 10
1519.7709312537
 20
1607.37753480226
 30
0.0
 10
1519.511860073209
 20
1609.880052162747
 30
0.0
 10
1519.511860073209
 20
1609.880052162747
 30
0.0
 10
1517.84167778196
 20
1625.7321422738
 30
0.0
 10
1517.84167778196
 20
1625.7321422738
 30
0.0
  0
LINE
  5
7ADD
102
{ACAD_REACTORS
102
}
330
A
100
AcDbEntity
  8
MODEL
100
AcDbLine
 10
1788.589386444105
 20
1691.737654426574
 30
0.0
 11
1070.372973070245
 21
1691.737654426574
 31
0.0
  0
ARC
  5
7B1D
102
{ACAD_REACTORS
330
7B21
330
7BFA
102
}
330
A
100
AcDbEntity
  8
MODEL
100
AcDbCircle
 10
1429.481179757175
 20
2151.001884452141
 30
0.0
 40
212.5
100
AcDbArc
 50
0.0
 51
180.0
  0
DIMENSION
  5
7B1F
102
{ACAD_REACTORS
330
7B21
102
}
102
{ACAD_XDICTIONARY
360
7B20
102
}
330
A
100
AcDbEntity
  8
DIM
100
AcDbDimension
  2
*D41
 10
1155.917208519459
 20
2373.501884452141
 30
0.0
 11
1155.917208519459
 21
2426.965884452141
 31
0.0
 70
   160
 71
     5
 42
10.0
 73
     0
 74
     0
 75
     0
  3
tfrom線あり
100
AcDbAlignedDimension
 13
1429.481179757175
 23
2363.501884452141
 33
0.0
 14
1429.481179757175
 24
2373.501884452141
 34
0.0
 50
90.0
100
AcDbRotatedDimension
1001
ACAD
1000
DSTYLE
1002
{
1070
   144
1040
1.0
1002
}
  0
DIMENSION
  5
7B30
102
{ACAD_REACTORS
330
7B32
102
}
102
{ACAD_XDICTIONARY
360
7B31
102
}
330
A
100
AcDbEntity
  8
DIM
100
AcDbDimension
  2
*D42
 10
1155.917208519459
 20
2105.501884452141
 30
0.0
 11
1123.917208519459
 21
2234.501884452141
 31
0.0
 70
    32
 71
     5
 42
258.0
 73
     0
 74
     0
 75
     0
  3
tfrom線あり
100
AcDbAlignedDimension
 13
1429.481179757175
 23
2363.501884452141
 33
0.0
 14
1238.075850677758
 24
2105.501884452141
 34
0.0
 50
90.0
100
AcDbRotatedDimension
1001
ACAD
1000
DSTYLE
1002
{
1070
   144
1040
1.0
1002
}
  0
DIMENSION
  5
7B42
330
A
100
AcDbEntity
  8
DIM
100
AcDbDimension
  2
*D43
 10
1641.981179757175
 20
2459.704307383751
 30
0.0
 11
1429.481179757175
 21
2459.704307383751
 31
0.0
 70
   160
 71
     5
 42
425.0
 73
     0
 74
     0
 75
     0
  3
tfrom線あり
100
AcDbAlignedDimension
 13
1216.981179757175
 23
2172.701400669295
 33
0.0
 14
1641.981179757175
 24
2172.701400669295
 34
0.0
100
AcDbRotatedDimension
1001
ACAD
1000
DSTYLE
1002
{
1070
   144
1040
1.0
1002
}
  0
LINE
  5
7B60
102
{ACAD_REACTORS
330
7BFA
102
}
330
A
100
AcDbEntity
  8
MODEL
100
AcDbLine
 10
1216.981179757175
 20
2105.501884452141
 30
0.0
 11
1641.981179757175
 21
2105.501884452141
 31
0.0
  0
LINE
  5
7B61
102
{ACAD_REACTORS
330
7BFA
102
}
330
A
100
AcDbEntity
  8
MODEL
100
AcDbLine
 10
1216.981179757175
 20
2151.001884452141
 30
0.0
 11
1216.981179757175
 21
2105.501884452141
 31
0.0
  0
LINE
  5
7B62
102
{ACAD_REACTORS
330
7BFA
102
}
330
A
100
AcDbEntity
  8
MODEL
100
AcDbLine
 10
1641.981179757175
 20
2151.001884452141
 30
0.0
 11
1641.981179757175
 21
2105.501884452141
 31
0.0
  0
SPLINE
  5
7BAF
102
{ACAD_REACTORS
330
7BEA
102
}
330
A
100
AcDbEntity
  8
MODEL
100
AcDbSpline
210
0.0
220
0.0
230
1.0
 70
     8
 71
     3
 72
    16
 73
    12
 74
     0
 42
0.000000001
 43
0.0000000001
 40
4.091256650435075
 40
4.091256650435075
 40
4.091256650435075
 40
4.091256650435075
 40
27.15005958251948
 40
46.0158681565448
 40
61.66471583258819
 40
81.08970341889216
 40
103.0156189912237
 40
129.591826033601
 40
161.7084653822715
 40
178.8601522513434
 40
200.7617609823322
 40
200.7617609823322
 40
200.7617609823322
 40
200.7617609823322
 10
1216.981179757175
 20
1691.737654426574
 30
0.0
 10
1218.040085226035
 20
1684.123281524167
 30
0.0
 10
1219.985359071334
 20
1670.282991908979
 30
0.0
 10
1222.988334090501
 20
1651.340688088681
 30
0.0
 10
1231.798831957223
 20
1634.66406583933
 30
0.0
 10
1250.627707359771
 20
1627.107194832498
 30
0.0
 10
1273.17077229423
 20
1626.498405863822
 30
0.0
 10
1300.060573214223
 20
1625.461644818196
 30
0.0
 10
1325.336952896161
 20
1625.776808140913
 30
0.0
 10
1349.061058350443
 20
1625.728053825148
 30
0.0
 10
1362.078723401126
 20
1625.734204849903
 30
0.0
 10
1369.379203479706
 20
1625.737654426576
 30
0.0
  0
LINE
  5
7BCC
102
{ACAD_REACTORS
330
7BEA
102
}
330
A
100
AcDbEntity
  8
MODEL
100
AcDbLine
 10
1369.379203479706
 20
1625.737654426576
 30
0.0
 11
1429.481179757175
 21
1625.737654426576
 31
0.0
  0
SPLINE
  5
7BCD
102
{ACAD_REACTORS
330
7BEA
102
}
330
A
100
AcDbEntity
  8
MODEL
100
AcDbSpline
210
0.0
220
0.0
230
1.0
 70
     8
 71
     3
 72
    16
 73
    12
 74
     0
 42
0.000000001
 43
0.0000000001
 40
4.091256650435075
 40
4.091256650435075
 40
4.091256650435075
 40
4.091256650435075
 40
27.15005958251948
 40
46.0158681565448
 40
61.66471583258819
 40
81.08970341889216
 40
103.0156189912237
 40
129.591826033601
 40
161.7084653822715
 40
178.8601522513434
 40
200.7617609823322
 40
200.7617609823322
 40
200.7617609823322
 40
200.7617609823322
 10
1641.981179757175
 20
1691.737654426574
 30
0.0
 10
1640.922274288315
 20
1684.123281524167
 30
0.0
 10
1638.977000443015
 20
1670.282991908979
 30
0.0
 10
1635.974025423849
 20
1651.340688088681
 30
0.0
 10
1627.163527557127
 20
1634.66406583933
 30
0.0
 10
1608.334652154579
 20
1627.107194832498
 30
0.0
 10
1585.79158722012
 20
1626.498405863822
 30
0.0
 10
1558.901786300127
 20
1625.461644818196
 30
0.0
 10
1533.625406618189
 20
1625.776808140913
 30
0.0
 10
1509.901301163907
 20
1625.728053825148
 30
0.0
 10
1496.883636113224
 20
1625.734204849903
 30
0.0
 10
1489.583156034644
 20
1625.737654426576
 30
0.0
  0
LINE
  5
7BCE
102
{ACAD_REACTORS
330
7BEA
102
}
330
A
100
AcDbEntity
  8
MODEL
100
AcDbLine
 10
1489.583156034644
 20
1625.737654426576
 30
0.0
 11
1429.481179757175
 21
1625.737654426576
 31
0.0
  0
DIMENSION
  5
7BCF
102
{ACAD_XDICTIONARY
360
7BD0
102
}
330
A
100
AcDbEntity
  8
DIM
100
AcDbDimension
  2
*D48
 10
1857.526882198177
 20
1625.737654426576
 30
0.0
 11
1857.526882198177
 21
1658.737654426575
 31
0.0
 70
   160
 71
     5
 42
65.9999999999982
 73
     0
 74
     0
 75
     0
  3
tfrom線あり
100
AcDbAlignedDimension
 13
1788.589386444105
 23
1691.737654426574
 33
0.0
 14
1663.193902022412
 24
1625.737654426576
 34
0.0
 50
90.0
100
AcDbRotatedDimension
1001
ACAD
1000
DSTYLE
1002
{
1070
   144
1040
1.0
1002
}
  0
LINE
  5
7BE5
102
{ACAD_REACTORS
330
7BEA
102
}
330
A
100
AcDbEntity
  8
MODEL
100
AcDbLine
 10
1216.981179757175
 20
1691.737654426574
 30
0.0
 11
1641.981179757175
 21
1691.737654426574
 31
0.0
  0
HATCH
  5
7BEA
330
A
100
AcDbEntity
  8
DIM
100
AcDbHatch
 10
0.0
 20
0.0
 30
0.0
210
0.0
220
0.0
230
1.0
  2
ANSI31
 70
     0
 71
     1
 91
        1
 92
        1
 93
        5
 72
     4
 94
        3
 73
     0
 74
     0
 95
       16
 96
       12
 40
4.091256650435075
 40
4.091256650435075
 40
4.091256650435075
 40
4.091256650435075
 40
27.15005958251948
 40
46.0158681565448
 40
61.66471583258819
 40
81.08970341889216
 40
103.0156189912237
 40
129.591826033601
 40
161.7084653822715
 40
178.8601522513434
 40
200.7617609823322
 40
200.7617609823322
 40
200.7617609823322
 40
200.7617609823322
 10
1641.981179757175
 20
1691.737654426574
 10
1640.922274288315
 20
1684.123281524167
 10
1638.977000443015
 20
1670.282991908979
 10
1635.974025423849
 20
1651.340688088681
 10
1627.163527557127
 20
1634.66406583933
 10
1608.334652154579
 20
1627.107194832498
 10
1585.79158722012
 20
1626.498405863822
 10
1558.901786300127
 20
1625.461644818196
 10
1533.625406618189
 20
1625.776808140913
 10
1509.901301163907
 20
1625.728053825148
 10
1496.883636113224
 20
1625.734204849903
 10
1489.583156034644
 20
1625.737654426576
 72
     1
 10
1216.981179757175
 20
1691.737654426574
 11
1641.981179757175
 21
1691.737654426574
 72
     4
 94
        3
 73
     0
 74
     0
 95
       16
 96
       12
 40
4.091256650435075
 40
4.091256650435075
 40
4.091256650435075
 40
4.091256650435075
 40
27.15005958251948
 40
46.0158681565448
 40
61.66471583258819
 40
81.08970341889216
 40
103.0156189912237
 40
129.591826033601
 40
161.7084653822715
 40
178.8601522513434
 40
200.7617609823322
 40
200.7617609823322
 40
200.7617609823322
 40
200.7617609823322
 10
1216.981179757175
 20
1691.737654426574
 10
1218.040085226035
 20
1684.123281524167
 10
1219.985359071334
 20
1670.282991908979
 10
1222.988334090501
 20
1651.340688088681
 10
1231.798831957223
 20
1634.66406583933
 10
1250.627707359771
 20
1627.107194832498
 10
1273.17077229423
 20
1626.498405863822
 10
1300.060573214223
 20
1625.461644818196
 10
1325.336952896161
 20
1625.776808140913
 10
1349.061058350443
 20
1625.728053825148
 10
1362.078723401126
 20
1625.734204849903
 10
1369.379203479706
 20
1625.737654426576
 72
     1
 10
1489.583156034644
 20
1625.737654426576
 11
1429.481179757175
 21
1625.737654426576
 72
     1
 10
1369.379203479706
 20
1625.737654426576
 11
1429.481179757175
 21
1625.737654426576
 97
        5
330
7BCD
330
7BE5
330
7BAF
330
7BCE
330
7BCC
 75
     0
 76
     1
 52
0.0
 41
6.0
 77
     0
 78
     1
 53
45.0
 43
-0.0000000000002274
 44
124.7100298047765
 45
-13.47038418160373
 46
13.47038418160373
 79
     0
 98
        1
 10
-0.0000000000002274
 20
124.7100298047765
1001
ACAD
1010
0.0
1020
0.0
1030
0.0
  0
HATCH
  5
7BFA
330
A
100
AcDbEntity
  8
DIM
100
AcDbHatch
 10
0.0
 20
0.0
 30
0.0
210
0.0
220
0.0
230
1.0
  2
ANSI31
 70
     0
 71
     1
 91
        1
 92
        1
 93
        4
 72
     2
 10
1429.481179757175
 20
2151.001884452141
 40
212.5
 50
0.0
 51
180.0
 73
     1
 72
     1
 10
1216.981179757175
 20
2151.001884452141
 11
1216.981179757175
 21
2105.501884452141
 72
     1
 10
1216.981179757175
 20
2105.501884452141
 11
1641.981179757175
 21
2105.501884452141
 72
     1
 10
1641.981179757175
 20
2105.501884452141
 11
1641.981179757175
 21
2151.001884452141
 97
        4
330
7B1D
330
7B62
330
7B60
330
7B61
 75
     0
 76
     1
 52
0.0
 41
6.0
 77
     0
 78
     1
 53
45.0
 43
0.0
 44
0.0
 45
-13.47038418160373
 46
13.47038418160373
 79
     0
 98
        1
 10
0.0
 20
0.0
1001
ACAD
1010
0.0
1020
0.0
1030
0.0
  0
VIEWPORT
  5
349
330
B
100
AcDbEntity
 67
     1
  8
0
100
AcDbViewport
 10
202.5
 20
128.5
 30
0.0
 40
486.0
 41
308.4
 68
     1
 69
     1
 12
202.5
 22
128.5
 13
0.0
 23
0.0
 14
0.5
 24
0.5
 15
0.0
 25
0.0
 16
0.0
 26
0.0
 36
1.0
 17
0.0
 27
0.0
 37
0.0
 42
50.0
 43
0.0
 44
0.0
 45
308.4
 50
0.0
 51
0.0
 72
   100
 90
   557152
  1

281
     0
 71
     1
 74
     0
110
0.0
120
0.0
130
0.0
111
1.0
121
0.0
131
0.0
112
0.0
122
1.0
132
0.0
 79
     0
146
0.0
170
     0
 61
     5
348
26C
292
     1
282
     1
141
0.0
142
0.0
 63
   256
  0
VIEWPORT
  5
34A
330
B
100
AcDbEntity
 67
     1
  8
0
100
AcDbViewport
 10
202.5
 20
128.5
 30
0.0
 40
324.0
 41
205.6
 68
     2
 69
     2
 12
986.6781359294573
 22
1427.077061889956
 13
0.0
 23
0.0
 14
0.5
 24
0.5
 15
0.0
 25
0.0
 16
0.0
 26
0.0
 36
1.0
 17
0.0
 27
0.0
 37
0.0
 42
50.0
 43
0.0
 44
0.0
 45
2890.021615685494
 50
0.0
 51
0.0
 72
   100
 90
   557152
  1

281
     0
 71
     1
 74
     0
110
0.0
120
0.0
130
0.0
111
1.0
121
0.0
131
0.0
112
0.0
122
1.0
132
0.0
 79
     0
146
0.0
170
     0
 61
     5
348
26C
292
     1
282
     1
141
0.0
142
0.0
 63
   256
  0
ENDSEC
  0
SECTION
  2
OBJECTS
  0
DICTIONARY
  5
19
330
0
100
AcDbDictionary
281
     1
  3
ACAD_COLOR
350
674
  3
ACAD_DETAILVIEWSTYLE
350
BBF
  3
ACAD_FIELDLIST
350
146A
  3
ACAD_GROUP
350
1A
  3
ACAD_IMAGE_VARS
350
27B
  3
ACAD_LAYOUT
350
1E
  3
ACAD_MATERIAL
350
263
  3
ACAD_MLEADERSTYLE
350
336
  3
ACAD_MLINESTYLE
350
1B
  3
ACAD_PLOTSETTINGS
350
22
  3
ACAD_PLOTSTYLENAME
350
1F
  3
ACAD_SCALELIST
350
241
  3
ACAD_SECTIONVIEWSTYLE
350
BC0
  3
ACAD_TABLESTYLE
350
278
  3
ACAD_VISUALSTYLE
350
267
  3
ACDB_RECOMPOSE_DATA
350
7C0F
  3
AcDbVariableDictionary
350
330
  3
APPDATA
350
27A
  3
DimOffsetDictionary
350
E3E
  0
SUN
  5
904
330
15
100
AcDbSun
 90
        1
290
     0
 63
     7
421
 16777215
 40
1.0
291
     1
 91
  2455826
 92
 54000000
292
     0
 70
     2
 71
   256
280
     1
  0
DICTIONARY
  5
2E1
330
2
100
AcDbDictionary
280
     1
281
     1
  3
ACAD_LAYERSTATES
360
2E2
  3
ACLYDICTIONARY
360
DF9
  0
DICTIONARY
  5
3BA6
330
A
100
AcDbDictionary
280
     1
281
     1
  3
ACAD_SORTENTS
360
3BA7
  0
DICTIONARY
  5
1468
330
1466
100
AcDbDictionary
280
     1
281
     1
  3
ACAD_FIELD
360
7893
  0
DICTIONARY
  5
7945
330
7944
100
AcDbDictionary
280
     1
281
     1
  3
ACAD_DIMASSOC
360
7946
  0
DICTIONARY
  5
7954
330
7953
100
AcDbDictionary
280
     1
281
     1
  3
ACAD_DIMASSOC
360
7955
  0
DICTIONARY
  5
7963
330
7962
100
AcDbDictionary
280
     1
281
     1
  3
ACAD_DIMASSOC
360
7964
  0
DICTIONARY
  5
79AF
330
79AE
100
AcDbDictionary
280
     1
281
     1
  3
ACAD_DIMASSOC
360
79B0
  0
DICTIONARY
  5
79C1
330
79C0
100
AcDbDictionary
280
     1
281
     1
  3
ACAD_DIMASSOC
360
79C2
  0
DICTIONARY
  5
7A1F
330
7A1E
100
AcDbDictionary
280
     1
281
     1
  3
ACAD_DIMASSOC
360
7A20
  0
DICTIONARY
  5
7B20
330
7B1F
100
AcDbDictionary
280
     1
281
     1
  3
ACAD_DIMASSOC
360
7B21
  0
DICTIONARY
  5
7B31
330
7B30
100
AcDbDictionary
280
     1
281
     1
  3
ACAD_DIMASSOC
360
7B32
  0
DICTIONARY
  5
7BD0
330
7BCF
100
AcDbDictionary
280
     1
281
     1
  0
DICTIONARY
  5
674
102
{ACAD_REACTORS
330
19
102
}
330
19
100
AcDbDictionary
281
     1
  0
DICTIONARY
  5
BBF
102
{ACAD_REACTORS
330
19
102
}
330
19
100
AcDbDictionary
281
     1
  0
FIELDLIST
  5
146A
102
{ACAD_REACTORS
330
19
102
}
330
19
100
AcDbIdSet
 90
        2
330
146B
330
1467
100
AcDbFieldList
  0
DICTIONARY
  5
1A
102
{ACAD_REACTORS
330
19
102
}
330
19
100
AcDbDictionary
281
     1
  3
*A1
350
7A4F
  3
*A2
350
7ADE
  0
RASTERVARIABLES
  5
27B
102
{ACAD_REACTORS
330
19
102
}
330
19
100
AcDbRasterVariables
 90
        0
 70
     1
 71
     1
 72
     1
  0
DICTIONARY
  5
1E
102
{ACAD_REACTORS
330
19
102
}
330
19
100
AcDbDictionary
281
     1
  3
Layout1
350
21
  3
Model
350
20
  0
DICTIONARY
  5
263
102
{ACAD_REACTORS
330
19
102
}
330
19
100
AcDbDictionary
281
     1
  3
ByBlock
350
265
  3
ByLayer
350
264
  3
Global
350
266
  0
DICTIONARY
  5
336
102
{ACAD_REACTORS
330
19
102
}
330
19
100
AcDbDictionary
281
     1
  3
Standard
350
DAB
  0
DICTIONARY
  5
1B
102
{ACAD_REACTORS
330
19
102
}
330
19
100
AcDbDictionary
281
     1
  3
Standard
350
1C
  0
DICTIONARY
  5
22
102
{ACAD_REACTORS
330
19
102
}
330
19
100
AcDbDictionary
281
     1
  0
ACDBDICTIONARYWDFLT
  5
1F
102
{ACAD_REACTORS
330
19
102
}
330
19
100
AcDbDictionary
281
     1
  3
Normal
350
1D
100
AcDbDictionaryWithDefault
340
1D
  0
DICTIONARY
  5
241
102
{ACAD_REACTORS
330
19
102
}
330
19
100
AcDbDictionary
281
     1
  3
A0
350
242
  3
A1
350
243
  3
A2
350
244
  3
A3
350
245
  3
A4
350
246
  3
A5
350
247
  3
A6
350
248
  3
A7
350
249
  3
A8
350
24A
  3
A9
350
24B
  3
B0
350
24C
  3
B1
350
24D
  3
B2
350
24E
  3
B3
350
24F
  3
B4
350
250
  3
B5
350
251
  3
B6
350
252
  3
B7
350
253
  3
B8
350
254
  3
B9
350
255
  3
C0
350
256
  3
C1
350
257
  3
C2
350
258
  3
C3
350
259
  3
C4
350
25A
  3
C5
350
25B
  3
C6
350
25C
  3
C7
350
25D
  3
C8
350
25E
  3
C9
350
25F
  3
D0
350
260
  3
D1
350
261
  3
D2
350
262
  0
DICTIONARY
  5
BC0
102
{ACAD_REACTORS
330
19
102
}
330
19
100
AcDbDictionary
281
     1
  0
DICTIONARY
  5
278
102
{ACAD_REACTORS
330
19
102
}
330
19
100
AcDbDictionary
281
     1
  3
Standard
350
279
  0
DICTIONARY
  5
267
102
{ACAD_REACTORS
330
19
102
}
330
19
100
AcDbDictionary
281
     1
  3
2dWireframe
350
26C
  3
3D Hidden
350
26E
  3
3dWireframe
350
26D
  3
Basic
350
26F
  3
Brighten
350
273
  3
ColorChange
350
277
  3
Conceptual
350
271
  3
Dim
350
272
  3
EdgeColorOff
350
8FE
  3
Facepattern
350
276
  3
Flat
350
268
  3
FlatWithEdges
350
269
  3
Gouraud
350
26A
  3
GouraudWithEdges
350
26B
  3
Hidden
350
8FB
  3
JitterOff
350
8FC
  3
Linepattern
350
275
  3
OverhangOff
350
8FD
  3
Realistic
350
270
  3
Shaded
350
903
  3
Shaded with edges
350
902
  3
Shades of Gray
350
8FF
  3
Sketchy
350
900
  3
Thicken
350
274
  3
Wireframe
350
8FA
  3
X-Ray
350
901
  0
XRECORD
  5
7C0F
102
{ACAD_REACTORS
330
19
102
}
330
19
100
AcDbXrecord
280
     1
 90
        1
330
279
  0
DICTIONARY
  5
330
102
{ACAD_REACTORS
330
19
102
}
330
19
100
AcDbDictionary
281
     1
  3
CANNOSCALE
350
331
  3
CMLEADERSTYLE
350
DB1
  3
CTABLESTYLE
350
335
  3
HPTRANSPARENCY
350
D52
  3
XCLIPFRAME
350
896
  0
DICTIONARY
  5
27A
102
{ACAD_REACTORS
330
19
102
}
330
19
100
AcDbDictionary
281
     1
  0
DICTIONARY
  5
E3E
102
{ACAD_REACTORS
330
19
102
}
330
19
100
AcDbDictionary
281
     1
  3
DIMRAILANGLE
350
ECE
  3
DIMRAILFIRSTOFFSET
350
ECC
  3
DIMRAILOFFSET
350
ECD
  3
DIMRAILSENABLED
350
ECF
  0
DICTIONARY
  5
2E2
102
{ACAD_REACTORS
330
2E1
102
}
330
2E1
100
AcDbDictionary
281
     1
  0
DICTIONARY
  5
DF9
102
{ACAD_REACTORS
330
2E1
102
}
330
2E1
100
AcDbDictionary
281
     1
1001
ACAD
1000
<All
  0
SORTENTSTABLE
  5
3BA7
102
{ACAD_REACTORS
330
3BA6
102
}
330
3BA6
100
AcDbSortentsTable
330
A
331
0
  5
7A49
331
0
  5
7A5F
331
0
  5
7A60
331
0
  5
7A48
331
7B1D
  5
7B5E
331
0
  5
7B60
331
7B1F
  5
7B61
331
7B30
  5
7B62
331
0
  5
7B66
331
0
  5
7B67
331
0
  5
7B7A
331
7B42
  5
7B7B
331
0
  5
7BAE
331
0
  5
7BAF
331
7B60
  5
7BB0
331
7B61
  5
7BBE
331
7B62
  5
7BCB
331
0
  5
7BCC
331
0
  5
7BCD
331
0
  5
7BCE
331
0
  5
7BCF
331
0
  5
7BE5
331
7BAF
  5
7BEA
331
0
  5
7BEE
331
0
  5
7BEF
331
0
  5
7BF0
331
7BCC
  5
7BF1
331
7BCD
  5
7BF6
331
7BCE
  5
7BF7
331
7BCF
  5
7BF8
331
7BE5
  5
7BF9
331
0
  5
7BF2
331
0
  5
7BE6
331
0
  5
7BE7
331
0
  5
7BE8
331
7BEA
  5
7BE9
331
0
  5
7B1D
331
0
  5
7BFA
331
0
  5
7B1E
331
0
  5
7B1F
331
0
  5
7B30
331
0
  5
7B3F
331
0
  5
7B40
331
0
  5
7B41
331
0
  5
7B42
331
7BFA
  5
7B4F
  0
DICTIONARY
  5
7893
102
{ACAD_REACTORS
330
1468
102
}
330
1468
100
AcDbDictionary
280
     1
281
     1
  3
TEXT
360
1467
  0
DIMASSOC
  5
7946
102
{ACAD_REACTORS
330
7945
102
}
330
7945
100
AcDbDimAssoc
330
7944
 90
        3
 70
     0
 71
     1
  1
AcDbOsnapPointRef
 72
     2
331
78B2
 73
     0
 91
        0
 40
2.0
 10
0.0
 20
0.0
 30
0.0
 75
     0
  1
AcDbOsnapPointRef
 72
    13
331
78B2
 73
     0
 91
        0
 40
0.0
 10
0.0
 20
0.0
 30
0.0
 75
     0
  0
DIMASSOC
  5
7955
102
{ACAD_REACTORS
330
7954
102
}
330
7954
100
AcDbDimAssoc
330
7953
 90
        3
 70
     0
 71
     1
  1
AcDbOsnapPointRef
 72
    10
331
78B2
 73
     0
 91
        0
 40
0.9985015511925588
 10
0.0
 20
0.0
 30
0.0
 75
     0
  1
AcDbOsnapPointRef
 72
     8
331
78B2
 73
     0
 91
        0
 40
2.998435262707063
 10
0.0
 20
0.0
 30
0.0
 75
     1
  1
AcDbOsnapPointRef
 72
    10
331
78B2
 73
     0
 91
        0
 40
0.9985015511925588
 10
0.0
 20
0.0
 30
0.0
 75
     0
  0
DIMASSOC
  5
7964
102
{ACAD_REACTORS
330
7963
102
}
330
7963
100
AcDbDimAssoc
330
7962
 90
        3
 70
     0
 71
     1
  1
AcDbOsnapPointRef
 72
    10
331
78B2
 73
     0
 91
        0
 40
1.023611418873245
 10
0.0
 20
0.0
 30
0.0
 75
     0
  1
AcDbOsnapPointRef
 72
    10
331
78B1
 73
     0
 91
        0
 40
0.1729465334885489
 10
0.0
 20
0.0
 30
0.0
 75
     0
  0
DIMASSOC
  5
79B0
102
{ACAD_REACTORS
330
79AF
102
}
330
79AF
100
AcDbDimAssoc
330
79AE
 90
        1
 70
     0
 71
     1
  1
AcDbOsnapPointRef
 72
    13
331
79A1
331
79A5
 73
     0
 91
        0
 40
0.0
 10
0.0
 20
0.0
 30
0.0
 75
     0
  0
DIMASSOC
  5
79C2
102
{ACAD_REACTORS
330
79C1
102
}
330
79C1
100
AcDbDimAssoc
330
79C0
 90
        3
 70
     0
 71
     1
  1
AcDbOsnapPointRef
 72
    10
331
78B0
 73
     0
 91
        0
 40
5.808780855162006
 10
0.0
 20
0.0
 30
0.0
 75
     0
  1
AcDbOsnapPointRef
 72
    10
331
78B0
 73
     0
 91
        0
 40
10.12933529891369
 10
0.0
 20
0.0
 30
0.0
 75
     0
  0
DIMASSOC
  5
7A20
102
{ACAD_REACTORS
330
7A1F
102
}
330
7A1F
100
AcDbDimAssoc
330
7A1E
 90
        0
 70
     0
 71
     1
  0
DIMASSOC
  5
7B21
102
{ACAD_REACTORS
330
7B20
102
}
330
7B20
100
AcDbDimAssoc
330
7B1F
 90
        1
 70
     0
 71
     1
  1
AcDbOsnapPointRef
 72
     5
331
7B1D
 73
     0
 91
        0
 40
1.570796326794897
 10
0.0
 20
0.0
 30
0.0
 75
     0
  0
DIMASSOC
  5
7B32
102
{ACAD_REACTORS
330
7B31
102
}
330
7B31
100
AcDbDimAssoc
330
7B30
 90
        0
 70
     0
 71
     1
  0
GROUP
  5
7A4F
102
{ACAD_REACTORS
330
1A
102
}
330
1A
100
AcDbGroup
300

 70
     1
 71
     1
  0
GROUP
  5
7ADE
102
{ACAD_REACTORS
330
1A
102
}
330
1A
100
AcDbGroup
300

 70
     1
 71
     1
  0
LAYOUT
  5
21
102
{ACAD_REACTORS
330
1E
102
}
330
1E
100
AcDbPlotSettings
  1

  2
none_device
  4
ISO_A3_(420.00_x_297.00_MM)
  6

 40
7.5
 41
20.0
 42
7.5
 43
20.0
 44
420.0
 45
297.0
 46
0.0
 47
0.0
 48
0.0
 49
0.0
140
0.0
141
0.0
142
1.0
143
1.0
 70
     0
 72
     1
 73
     0
 74
     0
  7

 75
     0
 76
     0
 77
     2
 78
   300
147
1.0
148
0.0
149
0.0
100
AcDbLayout
  1
Layout1
 70
     0
 71
     0
 10
-7.5
 20
-20.0
 11
412.5
 21
277.0
 12
0.0
 22
0.0
 32
0.0
 14
0.0
 24
0.0
 34
0.0
 15
0.0
 25
0.0
 35
0.0
146
0.0
 13
0.0
 23
0.0
 33
0.0
 16
0.0
 26
0.0
 36
0.0
 17
0.0
 27
0.0
 37
0.0
 76
     0
330
B
331
349
  0
LAYOUT
  5
20
102
{ACAD_REACTORS
330
1E
102
}
330
1E
100
AcDbPlotSettings
  1

  2
none_device
  4
ISO_A3_(420.00_x_297.00_MM)
  6

 40
7.5
 41
20.0
 42
7.5
 43
20.0
 44
420.0
 45
297.0
 46
0.0
 47
0.0
 48
0.0
 49
0.0
140
0.0
141
0.0
142
1.0
143
1.0
 70
  1024
 72
     1
 73
     0
 74
     0
  7

 75
     0
 76
     0
 77
     2
 78
   300
147
1.0
148
0.0
149
0.0
100
AcDbLayout
  1
Model
 70
     0
 71
     1
 10
0.0
 20
0.0
 11
2100.0
 21
2970.0
 12
0.0
 22
0.0
 32
0.0
 14
0.0
 24
0.0
 34
-0.0000000000000071
 15
2100.0
 25
2970.0
 35
0.0000000000000071
146
0.0
 13
0.0
 23
0.0
 33
0.0
 16
0.0
 26
0.0
 36
0.0
 17
0.0
 27
0.0
 37
0.0
 76
     0
330
A
331
15
  0
MATERIAL
  5
265
102
{ACAD_REACTORS
330
263
102
}
330
263
100
AcDbMaterial
  1
ByBlock
 72
     1
 94
      127
  0
MATERIAL
  5
264
102
{ACAD_REACTORS
330
263
102
}
330
263
100
AcDbMaterial
  1
ByLayer
 72
     1
 94
      127
  0
MATERIAL
  5
266
102
{ACAD_REACTORS
330
263
102
}
330
263
100
AcDbMaterial
  1
Global
 72
     1
 94
      127
  0
MLEADERSTYLE
  5
DAB
102
{ACAD_REACTORS
330
336
102
}
330
336
100
AcDbMLeaderStyle
170
     2
171
     1
172
     0
 90
        2
 40
0.0
 41
0.0
173
     1
 91
-1056964608
340
11
 92
       -2
290
     1
 42
2.0
291
     1
 43
8.0
  3
Standard
341
0
 44
4.0
300

342
17
174
     1
178
     6
175
     1
176
     0
 93
-1056964608
 45
4.0
292
     0
297
     0
 46
4.0
343
0
 94
-1056964608
 47
1.0
 49
1.0
140
1.0
293
     1
141
0.0
294
     1
177
     0
142
1.0
295
     0
296
     0
143
3.75
1001
ACAD_MLEADERVER
1070
     2
  0
MLINESTYLE
  5
1C
102
{ACAD_REACTORS
330
1B
102
}
330
1B
100
AcDbMlineStyle
  2
Standard
 70
     0
  3

 62
     0
 51
90.0
 52
90.0
 71
     2
 49
0.5
 62
   256
  6
BYLAYER
 49
-0.5
 62
   256
  6
BYLAYER
  0
ACDBPLACEHOLDER
  5
1D
102
{ACAD_REACTORS
330
1F
102
}
330
1F
  0
SCALE
  5
242
102
{ACAD_REACTORS
330
241
102
}
330
241
100
AcDbScale
 70
     0
300
1:1
140
1.0
141
1.0
290
     1
  0
SCALE
  5
243
102
{ACAD_REACTORS
330
241
102
}
330
241
100
AcDbScale
 70
     0
300
1:2
140
1.0
141
2.0
290
     0
  0
SCALE
  5
244
102
{ACAD_REACTORS
330
241
102
}
330
241
100
AcDbScale
 70
     0
300
1:4
140
1.0
141
4.0
290
     0
  0
SCALE
  5
245
102
{ACAD_REACTORS
330
241
102
}
330
241
100
AcDbScale
 70
     0
300
1:5
140
1.0
141
5.0
290
     0
  0
SCALE
  5
246
102
{ACAD_REACTORS
330
241
102
}
330
241
100
AcDbScale
 70
     0
300
1:8
140
1.0
141
8.0
290
     0
  0
SCALE
  5
247
102
{ACAD_REACTORS
330
241
102
}
330
241
100
AcDbScale
 70
     0
300
1:10
140
1.0
141
10.0
290
     0
  0
SCALE
  5
248
102
{ACAD_REACTORS
330
241
102
}
330
241
100
AcDbScale
 70
     0
300
1:16
140
1.0
141
16.0
290
     0
  0
SCALE
  5
249
102
{ACAD_REACTORS
330
241
102
}
330
241
100
AcDbScale
 70
     0
300
1:20
140
1.0
141
20.0
290
     0
  0
SCALE
  5
24A
102
{ACAD_REACTORS
330
241
102
}
330
241
100
AcDbScale
 70
     0
300
1:30
140
1.0
141
30.0
290
     0
  0
SCALE
  5
24B
102
{ACAD_REACTORS
330
241
102
}
330
241
100
AcDbScale
 70
     0
300
1:40
140
1.0
141
40.0
290
     0
  0
SCALE
  5
24C
102
{ACAD_REACTORS
330
241
102
}
330
241
100
AcDbScale
 70
     0
300
1:50
140
1.0
141
50.0
290
     0
  0
SCALE
  5
24D
102
{ACAD_REACTORS
330
241
102
}
330
241
100
AcDbScale
 70
     0
300
1:100
140
1.0
141
100.0
290
     0
  0
SCALE
  5
24E
102
{ACAD_REACTORS
330
241
102
}
330
241
100
AcDbScale
 70
     0
300
2:1
140
2.0
141
1.0
290
     0
  0
SCALE
  5
24F
102
{ACAD_REACTORS
330
241
102
}
330
241
100
AcDbScale
 70
     0
300
4:1
140
4.0
141
1.0
290
     0
  0
SCALE
  5
250
102
{ACAD_REACTORS
330
241
102
}
330
241
100
AcDbScale
 70
     0
300
8:1
140
8.0
141
1.0
290
     0
  0
SCALE
  5
251
102
{ACAD_REACTORS
330
241
102
}
330
241
100
AcDbScale
 70
     0
300
10:1
140
10.0
141
1.0
290
     0
  0
SCALE
  5
252
102
{ACAD_REACTORS
330
241
102
}
330
241
100
AcDbScale
 70
     0
300
100:1
140
100.0
141
1.0
290
     0
  0
SCALE
  5
253
102
{ACAD_REACTORS
330
241
102
}
330
241
100
AcDbScale
 70
     0
300
1/128" = 1'-0"
140
0.0078125
141
12.0
290
     0
  0
SCALE
  5
254
102
{ACAD_REACTORS
330
241
102
}
330
241
100
AcDbScale
 70
     0
300
1/64" = 1'-0"
140
0.015625
141
12.0
290
     0
  0
SCALE
  5
255
102
{ACAD_REACTORS
330
241
102
}
330
241
100
AcDbScale
 70
     0
300
1/32" = 1'-0"
140
0.03125
141
12.0
290
     0
  0
SCALE
  5
256
102
{ACAD_REACTORS
330
241
102
}
330
241
100
AcDbScale
 70
     0
300
1/16" = 1'-0"
140
0.0625
141
12.0
290
     0
  0
SCALE
  5
257
102
{ACAD_REACTORS
330
241
102
}
330
241
100
AcDbScale
 70
     0
300
3/32" = 1'-0"
140
0.09375
141
12.0
290
     0
  0
SCALE
  5
258
102
{ACAD_REACTORS
330
241
102
}
330
241
100
AcDbScale
 70
     0
300
1/8" = 1'-0"
140
0.125
141
12.0
290
     0
  0
SCALE
  5
259
102
{ACAD_REACTORS
330
241
102
}
330
241
100
AcDbScale
 70
     0
300
3/16" = 1'-0"
140
0.1875
141
12.0
290
     0
  0
SCALE
  5
25A
102
{ACAD_REACTORS
330
241
102
}
330
241
100
AcDbScale
 70
     0
300
1/4" = 1'-0"
140
0.25
141
12.0
290
     0
  0
SCALE
  5
25B
102
{ACAD_REACTORS
330
241
102
}
330
241
100
AcDbScale
 70
     0
300
3/8" = 1'-0"
140
0.375
141
12.0
290
     0
  0
SCALE
  5
25C
102
{ACAD_REACTORS
330
241
102
}
330
241
100
AcDbScale
 70
     0
300
1/2" = 1'-0"
140
0.5
141
12.0
290
     0
  0
SCALE
  5
25D
102
{ACAD_REACTORS
330
241
102
}
330
241
100
AcDbScale
 70
     0
300
3/4" = 1'-0"
140
0.75
141
12.0
290
     0
  0
SCALE
  5
25E
102
{ACAD_REACTORS
330
241
102
}
330
241
100
AcDbScale
 70
     0
300
1" = 1'-0"
140
1.0
141
12.0
290
     0
  0
SCALE
  5
25F
102
{ACAD_REACTORS
330
241
102
}
330
241
100
AcDbScale
 70
     0
300
1-1/2" = 1'-0"
140
1.5
141
12.0
290
     0
  0
SCALE
  5
260
102
{ACAD_REACTORS
330
241
102
}
330
241
100
AcDbScale
 70
     0
300
3" = 1'-0"
140
3.0
141
12.0
290
     0
  0
SCALE
  5
261
102
{ACAD_REACTORS
330
241
102
}
330
241
100
AcDbScale
 70
     0
300
6" = 1'-0"
140
6.0
141
12.0
290
     0
  0
SCALE
  5
262
102
{ACAD_REACTORS
330
241
102
}
330
241
100
AcDbScale
 70
     0
300
1'-0" = 1'-0"
140
12.0
141
12.0
290
     0
  0
TABLESTYLE
  5
279
102
{ACAD_REACTORS
330
278
102
}
102
{ACAD_XDICTIONARY
360
7C0D
102
}
330
278
100
AcDbTableStyle
  3
Standard
 70
     0
 71
     0
 40
0.06
 41
0.06
280
     0
281
     0
  7
Standard
140
4.5
170
     2
 62
     0
 63
   257
283
     0
 90
        4
 91
        0
  1

274
    -2
284
     1
 64
     0
275
    -2
285
     1
 65
     0
276
    -2
286
     1
 66
     0
277
    -2
287
     1
 67
     0
278
    -2
288
     1
 68
     0
279
    -2
289
     1
 69
     0
  7
Standard
140
6.0
170
     5
 62
     0
 63
   257
283
     0
 90
        4
 91
        0
  1

274
    -2
284
     1
 64
     0
275
    -2
285
     1
 65
     0
276
    -2
286
     1
 66
     0
277
    -2
287
     1
 67
     0
278
    -2
288
     1
 68
     0
279
    -2
289
     1
 69
     0
  7
Standard
140
4.5
170
     5
 62
     0
 63
   257
283
     0
 90
        4
 91
        0
  1

274
    -2
284
     1
 64
     0
275
    -2
285
     1
 65
     0
276
    -2
286
     1
 66
     0
277
    -2
287
     1
 67
     0
278
    -2
288
     1
 68
     0
279
    -2
289
     1
 69
     0
  0
VISUALSTYLE
  5
26C
102
{ACAD_REACTORS
330
267
102
}
330
267
100
AcDbVisualStyle
  2
2dWireframe
 70
     4
 71
     0
 72
     2
 73
     0
 90
        0
 40
-0.6
 41
-30.0
 62
     5
 63
     7
421
 16777215
 74
     1
 91
        4
 64
     7
 65
   257
 75
     1
175
     1
 42
1.0
 92
        0
 66
   257
 43
1.0
 76
     1
 77
     6
 78
     2
 67
     7
 79
     5
170
     0
171
     0
290
     0
174
     0
 93
        1
 44
0.0
173
     0
291
     0
 45
0.0
  0
VISUALSTYLE
  5
26E
102
{ACAD_REACTORS
330
267
102
}
330
267
100
AcDbVisualStyle
  2
3D Hidden
 70
     6
 71
     1
 72
     2
 73
     2
 90
        0
 40
-0.6
 41
-30.0
 62
     5
 63
     7
421
 16777215
 74
     2
 91
        2
 64
     7
 65
   257
 75
     2
175
     1
 42
40.0
 92
        0
 66
   257
 43
1.0
 76
     1
 77
     6
 78
     2
 67
     7
 79
     3
170
     0
171
     0
290
     0
174
     0
 93
        1
 44
0.0
173
     0
291
     0
 45
0.0
  0
VISUALSTYLE
  5
26D
102
{ACAD_REACTORS
330
267
102
}
330
267
100
AcDbVisualStyle
  2
3dWireframe
 70
     5
 71
     0
 72
     2
 73
     0
 90
        0
 40
-0.6
 41
-30.0
 62
     5
 63
     7
421
 16777215
 74
     1
 91
        4
 64
     7
 65
   257
 75
     1
175
     1
 42
1.0
 92
        0
 66
   257
 43
1.0
 76
     1
 77
     6
 78
     2
 67
     7
 79
     5
170
     0
171
     0
290
     0
174
     0
 93
        1
 44
0.0
173
     0
291
     0
 45
0.0
  0
VISUALSTYLE
  5
26F
102
{ACAD_REACTORS
330
267
102
}
330
267
100
AcDbVisualStyle
  2
Basic
 70
     7
 71
     1
 72
     0
 73
     1
 90
        0
 40
-0.6
 41
-30.0
 62
     5
 63
     7
421
 16777215
 74
     0
 91
        4
 64
     7
 65
   257
 75
     1
175
     1
 42
1.0
 92
        8
 66
     7
 43
1.0
 76
     1
 77
     6
 78
     2
 67
     7
 79
     5
170
     0
171
     0
290
     0
174
     0
 93
        1
 44
0.0
173
     0
291
     1
 45
0.0
  0
VISUALSTYLE
  5
273
102
{ACAD_REACTORS
330
267
102
}
330
267
100
AcDbVisualStyle
  2
Brighten
 70
    12
 71
     2
 72
     2
 73
     0
 90
        0
 40
-0.6
 41
-30.0
 62
     5
 63
     7
421
 16777215
 74
     1
 91
        4
 64
     7
 65
   257
 75
     1
175
     1
 42
1.0
 92
        8
 66
     7
 43
1.0
 76
     1
 77
     6
 78
     2
 67
     7
 79
     5
170
     0
171
     0
290
     0
174
     0
 93
        1
 44
50.0
173
     0
291
     1
 45
0.0
  0
VISUALSTYLE
  5
277
102
{ACAD_REACTORS
330
267
102
}
330
267
100
AcDbVisualStyle
  2
ColorChange
 70
    16
 71
     2
 72
     2
 73
     3
 90
        0
 40
-0.6
 41
-30.0
 62
     5
 63
     8
421
  8421504
 74
     1
 91
        4
 64
     7
 65
   257
 75
     1
175
     1
 42
1.0
 92
        8
 66
     8
424
  8421504
 43
1.0
 76
     1
 77
     6
 78
     2
 67
     7
 79
     5
170
     0
171
     0
290
     0
174
     0
 93
        1
 44
0.0
173
     0
291
     1
 45
0.0
  0
VISUALSTYLE
  5
271
102
{ACAD_REACTORS
330
267
102
}
330
267
100
AcDbVisualStyle
  2
Conceptual
 70
     9
 71
     3
 72
     2
 73
     0
 90
        0
 40
-0.6
 41
-30.0
 62
     5
 63
     7
421
 16777215
 74
     2
 91
        2
 64
     7
 65
   257
 75
     1
175
     1
 42
40.0
 92
        8
 66
     7
 43
1.0
 76
     1
 77
     6
 78
     2
 67
     7
 79
     3
170
     0
171
     0
290
     0
174
     0
 93
        1
 44
0.0
173
     0
291
     0
 45
0.0
  0
VISUALSTYLE
  5
272
102
{ACAD_REACTORS
330
267
102
}
330
267
100
AcDbVisualStyle
  2
Dim
 70
    11
 71
     2
 72
     2
 73
     0
 90
        0
 40
-0.6
 41
-30.0
 62
     5
 63
     7
421
 16777215
 74
     1
 91
        4
 64
     7
 65
   257
 75
     1
175
     1
 42
1.0
 92
        8
 66
     7
 43
1.0
 76
     1
 77
     6
 78
     2
 67
     7
 79
     5
170
     0
171
     0
290
     0
174
     0
 93
        1
 44
-50.0
173
     0
291
     1
 45
0.0
  0
VISUALSTYLE
  5
8FE
102
{ACAD_REACTORS
330
267
102
}
330
267
100
AcDbVisualStyle
  2
EdgeColorOff
 70
    22
 71
     2
 72
     2
 73
     0
 90
        0
 40
0.6
 41
30.0
 62
     5
 63
     7
421
 16777215
 74
     1
 91
        4
 64
     7
 65
   257
 75
     1
175
     1
 42
1.0
 92
        8
 66
     7
 43
1.0
 76
     1
 77
     6
 78
     2
 67
     7
 79
     5
170
     0
171
     0
290
     0
174
     0
 93
        1
 44
0.0
173
     0
291
     1
 45
0.0
  0
VISUALSTYLE
  5
276
102
{ACAD_REACTORS
330
267
102
}
330
267
100
AcDbVisualStyle
  2
Facepattern
 70
    15
 71
     2
 72
     2
 73
     0
 90
        0
 40
-0.6
 41
-30.0
 62
     5
 63
     7
421
 16777215
 74
     1
 91
        4
 64
     7
 65
   257
 75
     1
175
     1
 42
1.0
 92
        8
 66
     7
 43
1.0
 76
     1
 77
     6
 78
     2
 67
     7
 79
     5
170
     0
171
     0
290
     0
174
     0
 93
        1
 44
0.0
173
     0
291
     1
 45
0.0
  0
VISUALSTYLE
  5
268
102
{ACAD_REACTORS
330
267
102
}
330
267
100
AcDbVisualStyle
  2
Flat
 70
     0
 71
     2
 72
     1
 73
     1
 90
        2
 40
-0.6
 41
30.0
 62
     5
 63
     7
421
 16777215
 74
     0
 91
        4
 64
     7
 65
   257
 75
     1
175
     1
 42
1.0
 92
        8
 66
     7
 43
1.0
 76
     1
 77
     6
 78
     2
 67
     7
 79
     5
170
     0
171
     0
290
     0
174
     0
 93
       13
 44
0.0
173
     0
291
     1
 45
0.0
  0
VISUALSTYLE
  5
269
102
{ACAD_REACTORS
330
267
102
}
330
267
100
AcDbVisualStyle
  2
FlatWithEdges
 70
     1
 71
     2
 72
     1
 73
     1
 90
        2
 40
-0.6
 41
30.0
 62
     5
 63
     7
421
 16777215
 74
     1
 91
        4
 64
     7
 65
   257
 75
     1
175
     1
 42
1.0
 92
        0
 66
   257
 43
1.0
 76
     1
 77
     6
 78
     2
 67
     7
 79
     5
170
     0
171
     0
290
     0
174
     0
 93
       13
 44
0.0
173
     0
291
     1
 45
0.0
  0
VISUALSTYLE
  5
26A
102
{ACAD_REACTORS
330
267
102
}
330
267
100
AcDbVisualStyle
  2
Gouraud
 70
     2
 71
     2
 72
     2
 73
     1
 90
        2
 40
-0.6
 41
30.0
 62
     5
 63
     7
421
 16777215
 74
     0
 91
        4
 64
     7
 65
   257
 75
     1
175
     1
 42
1.0
 92
        0
 66
     7
 43
1.0
 76
     1
 77
     6
 78
     2
 67
     7
 79
     5
170
     0
171
     0
290
     0
174
     0
 93
       13
 44
0.0
173
     0
291
     1
 45
0.0
  0
VISUALSTYLE
  5
26B
102
{ACAD_REACTORS
330
267
102
}
330
267
100
AcDbVisualStyle
  2
GouraudWithEdges
 70
     3
 71
     2
 72
     2
 73
     1
 90
        2
 40
-0.6
 41
30.0
 62
     5
 63
     7
421
 16777215
 74
     1
 91
        4
 64
     7
 65
   257
 75
     1
175
     1
 42
1.0
 92
        0
 66
   257
 43
1.0
 76
     1
 77
     6
 78
     2
 67
     7
 79
     5
170
     0
171
     0
290
     0
174
     0
 93
       13
 44
0.0
173
     0
291
     1
 45
0.0
  0
VISUALSTYLE
  5
8FB
102
{ACAD_REACTORS
330
267
102
}
330
267
100
AcDbVisualStyle
  2
Hidden
 70
     6
 71
     1
 72
     2
 73
     2
 90
        0
 40
0.6
 41
30.0
 62
     5
 63
     7
421
 16777215
 74
     2
 91
        2
 64
     7
 65
   257
 75
     2
175
     1
 42
40.0
 92
        0
 66
   257
 43
1.0
 76
     1
 77
     6
 78
     2
 67
     7
 79
     3
170
     0
171
     0
290
     0
174
     0
 93
        1
 44
0.0
173
     0
291
     0
 45
0.0
  0
VISUALSTYLE
  5
8FC
102
{ACAD_REACTORS
330
267
102
}
330
267
100
AcDbVisualStyle
  2
JitterOff
 70
    20
 71
     2
 72
     2
 73
     0
 90
        0
 40
0.6
 41
30.0
 62
     5
 63
     7
421
 16777215
 74
     1
 91
        4
 64
     7
 65
   257
 75
     1
175
     1
 42
1.0
 92
       10
 66
     7
 43
1.0
 76
     1
 77
     6
 78
     2
 67
     7
 79
     5
170
     0
171
     0
290
     0
174
     0
 93
        1
 44
0.0
173
     0
291
     1
 45
0.0
  0
VISUALSTYLE
  5
275
102
{ACAD_REACTORS
330
267
102
}
330
267
100
AcDbVisualStyle
  2
Linepattern
 70
    14
 71
     2
 72
     2
 73
     0
 90
        0
 40
-0.6
 41
-30.0
 62
     5
 63
     7
421
 16777215
 74
     1
 91
        4
 64
     7
 65
   257
 75
     7
175
     7
 42
1.0
 92
        8
 66
     7
 43
1.0
 76
     1
 77
     6
 78
     2
 67
     7
 79
     5
170
     0
171
     0
290
     0
174
     0
 93
        1
 44
0.0
173
     0
291
     1
 45
0.0
  0
VISUALSTYLE
  5
8FD
102
{ACAD_REACTORS
330
267
102
}
330
267
100
AcDbVisualStyle
  2
OverhangOff
 70
    21
 71
     2
 72
     2
 73
     0
 90
        0
 40
0.6
 41
30.0
 62
     5
 63
     7
421
 16777215
 74
     1
 91
        4
 64
     7
 65
   257
 75
     1
175
     1
 42
1.0
 92
        9
 66
     7
 43
1.0
 76
     1
 77
     6
 78
     2
 67
     7
 79
     5
170
     0
171
     0
290
     0
174
     0
 93
        1
 44
0.0
173
     0
291
     1
 45
0.0
  0
VISUALSTYLE
  5
270
102
{ACAD_REACTORS
330
267
102
}
330
267
100
AcDbVisualStyle
  2
Realistic
 70
     8
 71
     2
 72
     2
 73
     0
 90
        0
 40
-0.6
 41
-30.0
 62
     5
 63
     7
421
 16777215
 74
     1
 91
        0
 64
     7
 65
   257
 75
     1
175
     1
 42
1.0
 92
        8
 66
     8
424
  7895160
 43
1.0
 76
     1
 77
     6
 78
     2
 67
     7
 79
     5
170
     0
171
     0
290
     0
174
     0
 93
       13
 44
0.0
173
     0
291
     0
 45
0.0
  0
VISUALSTYLE
  5
903
102
{ACAD_REACTORS
330
267
102
}
330
267
100
AcDbVisualStyle
  2
Shaded
 70
    27
 71
     2
 72
     2
 73
     1
 90
        2
 40
0.6
 41
30.0
 62
     5
 63
     7
421
 16777215
 74
     0
 91
        4
 64
     7
 65
   257
 75
     1
175
     1
 42
1.0
 92
        8
 66
   257
 43
1.0
 76
     1
 77
     6
 78
     2
 67
     8
425
  7895160
 79
     3
170
     0
171
     0
290
     0
174
     0
 93
        5
 44
0.0
173
     0
291
     0
 45
0.0
  0
VISUALSTYLE
  5
902
102
{ACAD_REACTORS
330
267
102
}
330
267
100
AcDbVisualStyle
  2
Shaded with edges
 70
    26
 71
     2
 72
     2
 73
     1
 90
        2
 40
0.6
 41
30.0
 62
     5
 63
     7
421
 16777215
 74
     1
 91
       10
 64
     7
 65
   257
 75
     2
175
     1
 42
1.0
 92
        8
 66
   257
 43
1.0
 76
     1
 77
     6
 78
     2
 67
     7
 79
     3
170
     0
171
     0
290
     0
174
     0
 93
        5
 44
0.0
173
     0
291
     0
 45
0.0
  0
VISUALSTYLE
  5
8FF
102
{ACAD_REACTORS
330
267
102
}
330
267
100
AcDbVisualStyle
  2
Shades of Gray
 70
    23
 71
     2
 72
     2
 73
     3
 90
        0
 40
0.6
 41
30.0
 62
     5
 63
     7
421
 16777215
 74
     2
 91
        2
 64
     7
 65
     7
 75
     1
175
     1
 42
40.0
 92
        8
 66
     7
 43
1.0
 76
     1
 77
     6
 78
     2
 67
     7
 79
     3
170
     0
171
     0
290
     0
174
     0
 93
        1
 44
0.0
173
     0
291
     0
 45
0.0
  0
VISUALSTYLE
  5
900
102
{ACAD_REACTORS
330
267
102
}
330
267
100
AcDbVisualStyle
  2
Sketchy
 70
    24
 71
     1
 72
     2
 73
     2
 90
        0
 40
0.6
 41
30.0
 62
     5
 63
     7
421
 16777215
 74
     2
 91
        2
 64
     7
 65
     7
 75
     1
175
     1
 42
40.0
 92
       11
 66
     7
 43
1.0
 76
     1
 77
     6
 78
     2
 67
     7
 79
     6
170
     0
171
     0
290
     0
174
     0
 93
        1
 44
0.0
173
     0
291
     0
 45
0.0
  0
VISUALSTYLE
  5
274
102
{ACAD_REACTORS
330
267
102
}
330
267
100
AcDbVisualStyle
  2
Thicken
 70
    13
 71
     2
 72
     2
 73
     0
 90
        0
 40
-0.6
 41
-30.0
 62
     5
 63
     7
421
 16777215
 74
     1
 91
        4
 64
     7
 65
   257
 75
     1
175
     1
 42
1.0
 92
       12
 66
     7
 43
1.0
 76
     1
 77
     6
 78
     2
 67
     7
 79
     5
170
     0
171
     0
290
     0
174
     0
 93
        1
 44
0.0
173
     0
291
     1
 45
0.0
  0
VISUALSTYLE
  5
8FA
102
{ACAD_REACTORS
330
267
102
}
330
267
100
AcDbVisualStyle
  2
Wireframe
 70
     5
 71
     0
 72
     2
 73
     0
 90
        0
 40
0.6
 41
30.0
 62
     5
 63
     7
421
 16777215
 74
     1
 91
        4
 64
     7
 65
   257
 75
     1
175
     1
 42
1.0
 92
        0
 66
   257
 43
1.0
 76
     1
 77
     6
 78
     2
 67
     7
 79
     3
170
     0
171
     0
290
     0
174
     0
 93
        1
 44
0.0
173
     0
291
     0
 45
0.0
  0
VISUALSTYLE
  5
901
102
{ACAD_REACTORS
330
267
102
}
330
267
100
AcDbVisualStyle
  2
X-Ray
 70
    25
 71
     2
 72
     2
 73
     1
 90
        1
 40
0.5
 41
30.0
 62
     5
 63
     7
421
 16777215
 74
     1
 91
        0
 64
     7
 65
   257
 75
     1
175
     1
 42
1.0
 92
        8
 66
     7
 43
1.0
 76
     1
 77
     6
 78
     2
 67
     7
 79
     3
170
     0
171
     0
290
     0
174
     0
 93
       13
 44
0.0
173
     0
291
     0
 45
0.0
  0
DICTIONARYVAR
  5
331
102
{ACAD_REACTORS
330
330
102
}
330
330
100
DictionaryVariables
280
     0
  1
1:1
  0
DICTIONARYVAR
  5
DB1
102
{ACAD_REACTORS
330
330
102
}
330
330
100
DictionaryVariables
280
     0
  1
Standard
  0
DICTIONARYVAR
  5
335
102
{ACAD_REACTORS
330
330
102
}
330
330
100
DictionaryVariables
280
     0
  1
Standard
  0
DICTIONARYVAR
  5
D52
102
{ACAD_REACTORS
330
330
102
}
330
330
100
DictionaryVariables
280
     0
  1
ByLayer
  0
DICTIONARYVAR
  5
896
102
{ACAD_REACTORS
330
330
102
}
330
330
100
DictionaryVariables
280
     0
  1
0
  0
DICTIONARYVAR
  5
ECE
102
{ACAD_REACTORS
330
E3E
102
}
330
E3E
100
DictionaryVariables
280
     0
  1
0.261799
  0
DICTIONARYVAR
  5
ECC
102
{ACAD_REACTORS
330
E3E
102
}
330
E3E
100
DictionaryVariables
280
     0
  1
0.400000
  0
DICTIONARYVAR
  5
ECD
102
{ACAD_REACTORS
330
E3E
102
}
330
E3E
100
DictionaryVariables
280
     0
  1
0.250000
  0
DICTIONARYVAR
  5
ECF
102
{ACAD_REACTORS
330
E3E
102
}
330
E3E
100
DictionaryVariables
280
     0
  1
1
  0
FIELD
  5
1467
102
{ACAD_REACTORS
330
7893
102
}
330
7893
100
AcDbField
  1
_text
  2
{%<\_FldIdx 0>%N}
 90
        1
360
146B
 97
        0
 91
       63
 92
        0
 94
       11
 95
        2
 96
        0
300

 93
        1
  6
ACFD_FIELDTEXT_CHECKSUM
 93
        2
 90
        2
140
4535.0
 94
        0
300

302

304
ACVALUE_END
  7
ACFD_FIELD_VALUE
 93
        6
 90
        4
  1
{20180922N}
 94
        0
300

302

304
ACVALUE_END
301
{20180922N}
 98
       11
  0
DICTIONARY
  5
7C0D
330
279
100
AcDbDictionary
280
     1
281
     1
  3
ACAD_ROUNDTRIP_2008_TABLESTYLE_CELLSTYLEMAP
360
7C0E
  0
FIELD
  5
146B
330
1467
100
AcDbField
  1
AcVar
  2
\AcVar Date \f "yyyyMMdd"
 90
        0
 97
        0
 91
       63
 92
        0
 94
        8
 95
       64
 96
        0
300
Variable not supported
 93
        1
  6
Variable
 93
        2
 90
        4
  1
Date
 94
        0
300

302

304
ACVALUE_END
  7
ACFD_FIELD_VALUE
 93
        6
 90
        8
 92
       16
310
E2070900000015001000110028000000
 94
        0
300
yyyyMMdd
302

304
ACVALUE_END
301
20180922
 98
        8
  0
CELLSTYLEMAP
  5
7C0E
102
{ACAD_REACTORS
330
7C0D
102
}
330
7C0D
100
AcDbCellStyleMap
 90
        3
300
CELLSTYLE
  1
TABLEFORMAT_BEGIN
 90
        5
170
     1
 91
        0
 92
    32768
 62
   257
 93
        1
300
CONTENTFORMAT
  1
CONTENTFORMAT_BEGIN
 90
        0
 91
        0
 92
        4
 93
        0
300

 40
0.0
140
1.0
 94
        5
 62
     0
340
17
144
6.0
309
CONTENTFORMAT_END
171
     1
301
MARGIN
  1
CELLMARGIN_BEGIN
 40
0.06
 40
0.06
 40
0.06
 40
0.06
 40
0.18
 40
0.18
309
CELLMARGIN_END
 94
        6
 95
        1
302
GRIDFORMAT
  1
GRIDFORMAT_BEGIN
 90
        0
 91
        1
 62
     0
 92
       -2
340
0
 93
        0
 40
0.045
309
GRIDFORMAT_END
 95
        2
302
GRIDFORMAT
  1
GRIDFORMAT_BEGIN
 90
        0
 91
        1
 62
     0
 92
       -2
340
0
 93
        0
 40
0.045
309
GRIDFORMAT_END
 95
        4
302
GRIDFORMAT
  1
GRIDFORMAT_BEGIN
 90
        0
 91
        1
 62
     0
 92
       -2
340
0
 93
        0
 40
0.045
309
GRIDFORMAT_END
 95
        8
302
GRIDFORMAT
  1
GRIDFORMAT_BEGIN
 90
        0
 91
        1
 62
     0
 92
       -2
340
0
 93
        0
 40
0.045
309
GRIDFORMAT_END
 95
       16
302
GRIDFORMAT
  1
GRIDFORMAT_BEGIN
 90
        0
 91
        1
 62
     0
 92
       -2
340
0
 93
        0
 40
0.045
309
GRIDFORMAT_END
 95
       32
302
GRIDFORMAT
  1
GRIDFORMAT_BEGIN
 90
        0
 91
        1
 62
     0
 92
       -2
340
0
 93
        0
 40
0.045
309
GRIDFORMAT_END
309
TABLEFORMAT_END
  1
CELLSTYLE_BEGIN
 90
        1
 91
        1
300
_TITLE
309
CELLSTYLE_END
300
CELLSTYLE
  1
TABLEFORMAT_BEGIN
 90
        5
170
     1
 91
        0
 92
        0
 62
   257
 93
        1
300
CONTENTFORMAT
  1
CONTENTFORMAT_BEGIN
 90
        0
 91
        0
 92
        4
 93
        0
300

 40
0.0
140
1.0
 94
        5
 62
     0
340
17
144
4.5
309
CONTENTFORMAT_END
171
     1
301
MARGIN
  1
CELLMARGIN_BEGIN
 40
0.06
 40
0.06
 40
0.06
 40
0.06
 40
0.18
 40
0.18
309
CELLMARGIN_END
 94
        6
 95
        1
302
GRIDFORMAT
  1
GRIDFORMAT_BEGIN
 90
        0
 91
        1
 62
     0
 92
       -2
340
0
 93
        0
 40
0.045
309
GRIDFORMAT_END
 95
        2
302
GRIDFORMAT
  1
GRIDFORMAT_BEGIN
 90
        0
 91
        1
 62
     0
 92
       -2
340
0
 93
        0
 40
0.045
309
GRIDFORMAT_END
 95
        4
302
GRIDFORMAT
  1
GRIDFORMAT_BEGIN
 90
        0
 91
        1
 62
     0
 92
       -2
340
0
 93
        0
 40
0.045
309
GRIDFORMAT_END
 95
        8
302
GRIDFORMAT
  1
GRIDFORMAT_BEGIN
 90
        0
 91
        1
 62
     0
 92
       -2
340
0
 93
        0
 40
0.045
309
GRIDFORMAT_END
 95
       16
302
GRIDFORMAT
  1
GRIDFORMAT_BEGIN
 90
        0
 91
        1
 62
     0
 92
       -2
340
0
 93
        0
 40
0.045
309
GRIDFORMAT_END
 95
       32
302
GRIDFORMAT
  1
GRIDFORMAT_BEGIN
 90
        0
 91
        1
 62
     0
 92
       -2
340
0
 93
        0
 40
0.045
309
GRIDFORMAT_END
309
TABLEFORMAT_END
  1
CELLSTYLE_BEGIN
 90
        2
 91
        1
300
_HEADER
309
CELLSTYLE_END
300
CELLSTYLE
  1
TABLEFORMAT_BEGIN
 90
        5
170
     1
 91
        0
 92
        0
 62
   257
 93
        1
300
CONTENTFORMAT
  1
CONTENTFORMAT_BEGIN
 90
        0
 91
        0
 92
        4
 93
        0
300

 40
0.0
140
1.0
 94
        2
 62
     0
340
17
144
4.5
309
CONTENTFORMAT_END
171
     1
301
MARGIN
  1
CELLMARGIN_BEGIN
 40
0.06
 40
0.06
 40
0.06
 40
0.06
 40
0.18
 40
0.18
309
CELLMARGIN_END
 94
        6
 95
        1
302
GRIDFORMAT
  1
GRIDFORMAT_BEGIN
 90
        0
 91
        1
 62
     0
 92
       -2
340
0
 93
        0
 40
0.045
309
GRIDFORMAT_END
 95
        2
302
GRIDFORMAT
  1
GRIDFORMAT_BEGIN
 90
        0
 91
        1
 62
     0
 92
       -2
340
0
 93
        0
 40
0.045
309
GRIDFORMAT_END
 95
        4
302
GRIDFORMAT
  1
GRIDFORMAT_BEGIN
 90
        0
 91
        1
 62
     0
 92
       -2
340
0
 93
        0
 40
0.045
309
GRIDFORMAT_END
 95
        8
302
GRIDFORMAT
  1
GRIDFORMAT_BEGIN
 90
        0
 91
        1
 62
     0
 92
       -2
340
0
 93
        0
 40
0.045
309
GRIDFORMAT_END
 95
       16
302
GRIDFORMAT
  1
GRIDFORMAT_BEGIN
 90
        0
 91
        1
 62
     0
 92
       -2
340
0
 93
        0
 40
0.045
309
GRIDFORMAT_END
 95
       32
302
GRIDFORMAT
  1
GRIDFORMAT_BEGIN
 90
        0
 91
        1
 62
     0
 92
       -2
340
0
 93
        0
 40
0.045
309
GRIDFORMAT_END
309
TABLEFORMAT_END
  1
CELLSTYLE_BEGIN
 90
        3
 91
        2
300
_DATA
309
CELLSTYLE_END
  0
ENDSEC
  0
EOF
