  0
SECTION
  2
HEADER
  9
$ACADVER
  1
AC1021
  9
$ACADMAINTVER
 70
    25
  9
$DWGCODEPAGE
  3
ANSI_932
  9
$LASTSAVEDBY
  1
howeNelson
  9
$INSBASE
 10
0.0
 20
0.0
 30
0.0
  9
$EXTMIN
 10
0.0
 20
0.0
 30
0.0
  9
$EXTMAX
 10
2100.0
 20
2970.0
 30
0.0
  9
$LIMMIN
 10
0.0
 20
0.0
  9
$LIMMAX
 10
2100.0
 20
2970.0
  9
$ORTHOMODE
 70
     0
  9
$REGENMODE
 70
     1
  9
$FILLMODE
 70
     1
  9
$QTEXTMODE
 70
     0
  9
$MIRRTEXT
 70
     1
  9
$LTSCALE
 40
1.0
  9
$ATTMODE
 70
     1
  9
$TEXTSIZE
 40
533.0403732820173
  9
$TRACEWID
 40
1.0
  9
$TEXTSTYLE
  7
Standard
  9
$CLAYER
  8
MODEL
  9
$CELTYPE
  6
Continuous
  9
$CECOLOR
 62
   256
  9
$CELTSCALE
 40
1.0
  9
$DISPSILH
 70
     0
  9
$DIMSCALE
 40
1.0
  9
$DIMASZ
 40
9.0
  9
$DIMEXO
 40
0.0
  9
$DIMDLI
 40
6.99999999999994
  9
$DIMRND
 40
0.0
  9
$DIMDLE
 40
0.0
  9
$DIMEXE
 40
19.9999999999962
  9
$DIMTP
 40
0.0
  9
$DIMTM
 40
0.0
  9
$DIMTXT
 40
24.4326171875
  9
$DIMCEN
 40
0.0
  9
$DIMTSZ
 40
0.0
  9
$DIMTOL
 70
     0
  9
$DIMLIM
 70
     0
  9
$DIMTIH
 70
     0
  9
$DIMTOH
 70
     0
  9
$DIMSE1
 70
     0
  9
$DIMSE2
 70
     0
  9
$DIMTAD
 70
     1
  9
$DIMZIN
 70
    11
  9
$DIMBLK
  1
DOT
  9
$DIMASO
 70
     1
  9
$DIMSHO
 70
     1
  9
$DIMPOST
  1
<>
  9
$DIMAPOST
  1
[]
  9
$DIMALT
 70
     0
  9
$DIMALTD
 70
     1
  9
$DIMALTF
 40
1.0
  9
$DIMLFAC
 40
1.0
  9
$DIMTOFL
 70
     0
  9
$DIMTVP
 40
0.0
  9
$DIMTIX
 70
     1
  9
$DIMSOXD
 70
     0
  9
$DIMSAH
 70
     0
  9
$DIMBLK1
  1

  9
$DIMBLK2
  1

  9
$DIMSTYLE
  2
JIS
  9
$DIMCLRD
 70
     0
  9
$DIMCLRE
 70
     0
  9
$DIMCLRT
 70
     0
  9
$DIMTFAC
 40
1.0
  9
$DIMGAP
 40
10.0
  9
$DIMJUST
 70
     0
  9
$DIMSD1
 70
     0
  9
$DIMSD2
 70
     0
  9
$DIMTOLJ
 70
     1
  9
$DIMTZIN
 70
    11
  9
$DIMALTZ
 70
    11
  9
$DIMALTTZ
 70
    11
  9
$DIMUPT
 70
     0
  9
$DIMDEC
 70
     1
  9
$DIMTDEC
 70
     1
  9
$DIMALTU
 70
     2
  9
$DIMALTTD
 70
     2
  9
$DIMTXSTY
  7
ＭＳ ゴシック
  9
$DIMAUNIT
 70
     0
  9
$DIMADEC
 70
     2
  9
$DIMALTRND
 40
0.0
  9
$DIMAZIN
 70
     0
  9
$DIMDSEP
 70
    46
  9
$DIMATFIT
 70
     0
  9
$DIMFRAC
 70
     2
  9
$DIMLDRBLK
  1
DOT
  9
$DIMLUNIT
 70
     2
  9
$DIMLWD
 70
    -2
  9
$DIMLWE
 70
    -2
  9
$DIMTMOVE
 70
     0
  9
$DIMFXL
 40
1.0
  9
$DIMFXLON
 70
     0
  9
$DIMJOGANG
 40
0.7853981633974483
  9
$DIMTFILL
 70
     0
  9
$DIMTFILLCLR
 70
     0
  9
$DIMARCSYM
 70
     0
  9
$DIMLTYPE
  6

  9
$DIMLTEX1
  6

  9
$DIMLTEX2
  6

  9
$LUNITS
 70
     2
  9
$LUPREC
 70
     0
  9
$SKETCHINC
 40
0.1
  9
$FILLETRAD
 40
0.0
  9
$AUNITS
 70
     0
  9
$AUPREC
 70
     0
  9
$MENU
  1
acad
  9
$ELEVATION
 40
0.0
  9
$PELEVATION
 40
0.0
  9
$THICKNESS
 40
0.0
  9
$LIMCHECK
 70
     0
  9
$CHAMFERA
 40
0.0
  9
$CHAMFERB
 40
0.0
  9
$CHAMFERC
 40
0.0
  9
$CHAMFERD
 40
0.0
  9
$SKPOLY
 70
     0
  9
$TDCREATE
 40
2447893.375
  9
$TDUCREATE
 40
0.0
  9
$TDUPDATE
 40
2457862.406522003
  9
$TDUUPDATE
 40
2457862.031522003
  9
$TDINDWG
 40
0.3238545718
  9
$TDUSRTIMER
 40
2457862.030573484
  9
$USRTIMER
 70
     1
  9
$ANGBASE
 50
0.0
  9
$ANGDIR
 70
     0
  9
$PDMODE
 70
     1
  9
$PDSIZE
 40
-2.0
  9
$PLINEWID
 40
0.0
  9
$SPLFRAME
 70
     0
  9
$SPLINETYPE
 70
     6
  9
$SPLINESEGS
 70
     8
  9
$HANDSEED
  5
4D96
  9
$SURFTAB1
 70
     6
  9
$SURFTAB2
 70
     6
  9
$SURFTYPE
 70
     6
  9
$SURFU
 70
     6
  9
$SURFV
 70
     6
  9
$UCSBASE
  2

  9
$UCSNAME
  2

  9
$UCSORG
 10
0.0
 20
0.0
 30
0.0
  9
$UCSXDIR
 10
1.0
 20
0.0
 30
0.0
  9
$UCSYDIR
 10
0.0
 20
1.0
 30
0.0
  9
$UCSORTHOREF
  2

  9
$UCSORTHOVIEW
 70
     1
  9
$UCSORGTOP
 10
0.0
 20
0.0
 30
0.0
  9
$UCSORGBOTTOM
 10
0.0
 20
0.0
 30
0.0
  9
$UCSORGLEFT
 10
0.0
 20
0.0
 30
0.0
  9
$UCSORGRIGHT
 10
0.0
 20
0.0
 30
0.0
  9
$UCSORGFRONT
 10
0.0
 20
0.0
 30
0.0
  9
$UCSORGBACK
 10
0.0
 20
0.0
 30
0.0
  9
$PUCSBASE
  2

  9
$PUCSNAME
  2

  9
$PUCSORG
 10
0.0
 20
0.0
 30
0.0
  9
$PUCSXDIR
 10
1.0
 20
0.0
 30
0.0
  9
$PUCSYDIR
 10
0.0
 20
1.0
 30
0.0
  9
$PUCSORTHOREF
  2

  9
$PUCSORTHOVIEW
 70
     0
  9
$PUCSORGTOP
 10
0.0
 20
0.0
 30
0.0
  9
$PUCSORGBOTTOM
 10
0.0
 20
0.0
 30
0.0
  9
$PUCSORGLEFT
 10
0.0
 20
0.0
 30
0.0
  9
$PUCSORGRIGHT
 10
0.0
 20
0.0
 30
0.0
  9
$PUCSORGFRONT
 10
0.0
 20
0.0
 30
0.0
  9
$PUCSORGBACK
 10
0.0
 20
0.0
 30
0.0
  9
$USERI1
 70
     0
  9
$USERI2
 70
     0
  9
$USERI3
 70
     0
  9
$USERI4
 70
     0
  9
$USERI5
 70
     0
  9
$USERR1
 40
0.0
  9
$USERR2
 40
0.0
  9
$USERR3
 40
0.0
  9
$USERR4
 40
0.0
  9
$USERR5
 40
0.0
  9
$WORLDVIEW
 70
     1
  9
$SHADEDGE
 70
     3
  9
$SHADEDIF
 70
    70
  9
$TILEMODE
 70
     1
  9
$MAXACTVP
 70
    64
  9
$PINSBASE
 10
0.0
 20
0.0
 30
0.0
  9
$PLIMCHECK
 70
     0
  9
$PEXTMIN
 10
0.0
 20
0.0
 30
0.0
  9
$PEXTMAX
 10
0.0
 20
0.0
 30
0.0
  9
$PLIMMIN
 10
-95.87226993865028
 20
-25.69999999999999
  9
$PLIMMAX
 10
201.1277300613497
 20
184.3
  9
$UNITMODE
 70
     0
  9
$VISRETAIN
 70
     0
  9
$PLINEGEN
 70
     1
  9
$PSLTSCALE
 70
     0
  9
$TREEDEPTH
 70
  3020
  9
$CMLSTYLE
  2
Standard
  9
$CMLJUST
 70
     0
  9
$CMLSCALE
 40
1.0
  9
$PROXYGRAPHICS
 70
     0
  9
$MEASUREMENT
 70
     1
  9
$CELWEIGHT
370
     0
  9
$ENDCAPS
280
     0
  9
$JOINSTYLE
280
     0
  9
$LWDISPLAY
290
     1
  9
$INSUNITS
 70
     4
  9
$HYPERLINKBASE
  1

  9
$STYLESHEET
  1

  9
$XEDIT
290
     1
  9
$CEPSNTYPE
380
     0
  9
$PSTYLEMODE
290
     1
  9
$FINGERPRINTGUID
  2

  9
$VERSIONGUID
  2

  9
$EXTNAMES
290
     1
  9
$PSVPSCALE
 40
0.0
  9
$OLESTARTUP
290
     0
  9
$SORTENTS
280
   127
  9
$INDEXCTL
280
     0
  9
$HIDETEXT
280
     1
  9
$XCLIPFRAME
290
     0
  9
$HALOGAP
280
     0
  9
$OBSCOLOR
 70
   257
  9
$OBSLTYPE
280
     0
  9
$INTERSECTIONDISPLAY
280
     0
  9
$INTERSECTIONCOLOR
 70
   257
  9
$DIMASSOC
280
     2
  9
$PROJECTNAME
  1

  9
$CAMERADISPLAY
290
     0
  9
$LENSLENGTH
 40
50.0
  9
$CAMERAHEIGHT
 40
0.0
  9
$STEPSPERSEC
 40
2.0
  9
$STEPSIZE
 40
6.0
  9
$3DDWFPREC
 40
2.0
  9
$PSOLWIDTH
 40
0.25
  9
$PSOLHEIGHT
 40
4.0
  9
$LOFTANG1
 40
1.570796326794897
  9
$LOFTANG2
 40
1.570796326794897
  9
$LOFTMAG1
 40
0.0
  9
$LOFTMAG2
 40
0.0
  9
$LOFTPARAM
 70
     7
  9
$LOFTNORMALS
280
     1
  9
$LATITUDE
 40
37.795
  9
$LONGITUDE
 40
-122.394
  9
$NORTHDIRECTION
 40
0.0
  9
$TIMEZONE
 70
 -8000
  9
$LIGHTGLYPHDISPLAY
280
     1
  9
$TILEMODELIGHTSYNCH
280
     1
  9
$SOLIDHIST
280
     1
  9
$SHOWHIST
280
     1
  9
$DWFFRAME
280
     2
  9
$DGNFRAME
280
     2
  9
$REALWORLDSCALE
290
     1
  9
$INTERFERECOLOR
 62
   256
  9
$CSHADOW
280
     0
  9
$SHADOWPLANELOCATION
 40
0.0
  0
ENDSEC
  0
SECTION
  2
CLASSES
  0
CLASS
  1
LWPOLYLINE
  2
AcDbPolyline
  3
ObjectDBX Classes
 90
        0
 91
        1
280
     0
281
     1
  0
CLASS
  1
IMAGE
  2
AcDbRasterImage
  3
ISM
 90
      127
 91
        6
280
     0
281
     1
  0
CLASS
  1
OLE2FRAME
  2
AcDbOle2Frame
  3
ObjectDBX Classes
 90
        0
 91
        1
280
     0
281
     1
  0
CLASS
  1
HATCH
  2
AcDbHatch
  3
ObjectDBX Classes
 90
        0
 91
        1
280
     0
281
     1
  0
CLASS
  1
DICTIONARYVAR
  2
AcDbDictionaryVar
  3
ObjectDBX Classes
 90
        0
 91
        5
280
     0
281
     0
  0
CLASS
  1
RASTERVARIABLES
  2
AcDbRasterVariables
  3
ISM
 90
        0
 91
        5
280
     0
281
     0
  0
CLASS
  1
IMAGEDEF
  2
AcDbRasterImageDef
  3
ISM
 90
        0
 91
        5
280
     0
281
     0
  0
CLASS
  1
IMAGEDEF_REACTOR
  2
AcDbRasterImageDefReactor
  3
ISM
 90
        1
 91
        5
280
     0
281
     0
  0
CLASS
  1
IDBUFFER
  2
AcDbIdBuffer
  3
ObjectDBX Classes
 90
        0
 91
        5
280
     0
281
     0
  0
CLASS
  1
SPATIAL_FILTER
  2
AcDbSpatialFilter
  3
ObjectDBX Classes
 90
        0
 91
        5
280
     0
281
     0
  0
CLASS
  1
XRECORD
  2
AcDbXrecord
  3
ObjectDBX Classes
 90
        0
 91
        1
280
     0
281
     0
  0
CLASS
  1
SORTENTSTABLE
  2
AcDbSortentsTable
  3
ObjectDBX Classes
 90
        0
 91
        5
280
     0
281
     0
  0
CLASS
  1
LAYER_INDEX
  2
AcDbLayerIndex
  3
ObjectDBX Classes
 90
        0
 91
        5
280
     0
281
     0
  0
CLASS
  1
SPATIAL_INDEX
  2
AcDbSpatialIndex
  3
AutoCAD 2000
 90
        0
 91
        5
280
     0
281
     0
  0
CLASS
  1
OBJECT_PTR
  2
CAseDLPNTableRecord
  3
ASE-LPNTableRecord
 90
        1
 91
        5
280
     0
281
     0
  0
CLASS
  1
LAYOUT
  2
AcDbLayout
  3
ObjectDBX Classes
 90
        0
 91
        1
280
     0
281
     0
  0
CLASS
  1
PLOTSETTINGS
  2
AcDbPlotSettings
  3
ObjectDBX Classes
 90
        0
 91
        5
280
     0
281
     0
  0
CLASS
  1
ACDBDICTIONARYWDFLT
  2
AcDbDictionaryWithDefault
  3
ObjectDBX Classes
 90
        0
 91
        5
280
     0
281
     0
  0
CLASS
  1
ACDBPLACEHOLDER
  2
AcDbPlaceHolder
  3
ObjectDBX Classes
 90
        0
 91
        1
280
     0
281
     0
  0
CLASS
  1
SCALE
  2
AcDbScale
  3
ObjectDBX Classes
 90
     1153
 91
        5
280
     0
281
     0
  0
CLASS
  1
MATERIAL
  2
AcDbMaterial
  3
ObjectDBX Classes
 90
     1153
 91
        5
280
     0
281
     0
  0
CLASS
  1
VISUALSTYLE
  2
AcDbVisualStyle
  3
ObjectDBX Classes
 90
     4095
 91
        5
280
     0
281
     0
  0
CLASS
  1
TABLESTYLE
  2
AcDbTableStyle
  3
ObjectDBX Classes
 90
     4095
 91
        5
280
     0
281
     0
  0
CLASS
  1
DIMASSOC
  2
AcDbDimAssoc
  3
"AcDbDimAssoc|Product Desc:     AcDim ARX App For Dimension|Company:          Autodesk, Inc.|WEB Address:      www.autodesk.com"
 90
        0
 91
        4
280
     0
281
     0
  0
CLASS
  1
CELLSTYLEMAP
  2
AcDbCellStyleMap
  3
ObjectDBX Classes
 90
     1152
 91
        5
280
     0
281
     0
  0
CLASS
  1
SUN
  2
AcDbSun
  3
SCENEOE
 90
     1153
 91
        5
280
     0
281
     0
  0
CLASS
  1
MLEADERSTYLE
  2
AcDbMLeaderStyle
  3
ACDB_MLEADERSTYLE_CLASS
 90
     4095
 91
        5
280
     0
281
     0
  0
CLASS
  1
FIELD
  2
AcDbField
  3
ObjectDBX Classes
 90
     1152
 91
        4
280
     0
281
     0
  0
CLASS
  1
FIELDLIST
  2
AcDbFieldList
  3
ObjectDBX Classes
 90
     1152
 91
        4
280
     0
281
     0
  0
ENDSEC
  0
SECTION
  2
TABLES
  0
TABLE
  2
VPORT
  5
7
330
0
100
AcDbSymbolTable
 70
     1
  0
VPORT
  5
15
330
7
100
AcDbSymbolTableRecord
100
AcDbViewportTableRecord
  2
*ACTIVE
 70
     0
 10
0.0
 20
0.0
 11
1.0
 21
1.0
 12
1050.0
 22
27.12435919587665
 13
0.0
 23
0.0
 14
1.0
 24
1.0
 15
0.0
 25
0.0
 16
0.0
 26
0.0
 36
1.0
 17
0.0
 27
1457.875640804123
 37
0.0
 40
3029.400000000004
 41
2.197050938337802
 42
50.0
 43
0.0
 44
0.0
 50
0.0
 51
0.0
 71
    16
 72
  2000
 73
     1
 74
     1
 75
     0
 76
     0
 77
     0
 78
     0
281
     0
 65
     0
110
0.0
120
0.0
130
0.0
111
1.0
121
0.0
131
0.0
112
0.0
122
1.0
132
0.0
 79
     0
146
0.0
348
26C
 60
     3
 61
     5
292
     1
282
     1
141
0.0
142
0.0
 63
   256
361
68F
  0
ENDTAB
  0
TABLE
  2
LTYPE
  5
4
330
0
100
AcDbSymbolTable
 70
     5
  0
LTYPE
  5
11
330
4
100
AcDbSymbolTableRecord
100
AcDbLinetypeTableRecord
  2
ByBlock
 70
     0
  3

 72
    65
 73
     0
 40
0.0
  0
LTYPE
  5
12
330
4
100
AcDbSymbolTableRecord
100
AcDbLinetypeTableRecord
  2
ByLayer
 70
     0
  3

 72
    65
 73
     0
 40
0.0
  0
LTYPE
  5
13
330
4
100
AcDbSymbolTableRecord
100
AcDbLinetypeTableRecord
  2
Continuous
 70
     0
  3
Solid line
 72
    65
 73
     0
 40
0.0
  0
LTYPE
  5
45
330
4
100
AcDbSymbolTableRecord
100
AcDbLinetypeTableRecord
  2
STYLE_12
 70
     0
  3

 72
    65
 73
     2
 40
0.3937007874015748
 49
0.1968503937007874
 74
     0
 49
-0.1968503937007874
 74
     0
  0
LTYPE
  5
653
330
4
100
AcDbSymbolTableRecord
100
AcDbLinetypeTableRecord
  2
STYLE_25
 70
     0
  3

 72
    65
 73
     2
 40
0.3937007874015748
 49
0.1968503937007874
 74
     0
 49
-0.1968503937007874
 74
     0
  0
LTYPE
  5
4C8C
330
4
100
AcDbSymbolTableRecord
100
AcDbLinetypeTableRecord
  2
BORDER
 70
     0
  3
Border __  __  . __  __  . __  __  . __  __  . 
 72
    65
 73
     6
 40
44.45
 49
12.7
 74
     0
 49
-6.35
 74
     0
 49
12.7
 74
     0
 49
-6.35
 74
     0
 49
0.0
 74
     0
 49
-6.35
 74
     0
  0
LTYPE
  5
4C91
330
4
100
AcDbSymbolTableRecord
100
AcDbLinetypeTableRecord
  2
HIDDEN
 70
     0
  3
Hidden _ _ _ _ _ _ _ _ _ _ _ _ _ _ _ _ _ _ _ _ 
 72
    65
 73
     2
 40
9.524999999999999
 49
6.35
 74
     0
 49
-3.175
 74
     0
  0
ENDTAB
  0
TABLE
  2
LAYER
  5
2
102
{ACAD_XDICTIONARY
360
2E1
102
}
330
0
100
AcDbSymbolTable
 70
    11
  0
LAYER
  5
14
330
2
100
AcDbSymbolTableRecord
100
AcDbLayerTableRecord
  2
0
 70
     0
 62
     7
  6
Continuous
370
    -3
390
1D
347
266
  0
LAYER
  5
4A
330
2
100
AcDbSymbolTableRecord
100
AcDbLayerTableRecord
  2
Defpoints
 70
     0
 62
     7
  6
Continuous
290
     0
370
     9
390
1D
347
266
  0
LAYER
  5
4B
330
2
100
AcDbSymbolTableRecord
100
AcDbLayerTableRecord
  2
template
 70
     0
 62
     7
  6
Continuous
370
    20
390
1D
347
266
  0
LAYER
  5
4C
330
2
100
AcDbSymbolTableRecord
100
AcDbLayerTableRecord
  2
notes
 70
     0
 62
     7
  6
Continuous
370
    -3
390
1D
347
266
  0
LAYER
  5
4D
330
2
100
AcDbSymbolTableRecord
100
AcDbLayerTableRecord
  2
MODEL
 70
     0
 62
     7
  6
Continuous
370
    20
390
1D
347
266
  0
LAYER
  5
382
330
2
100
AcDbSymbolTableRecord
100
AcDbLayerTableRecord
  2
レイヤー 1
 70
     0
 62
     7
  6
Continuous
370
    -3
390
1D
347
266
  0
LAYER
  5
5EB
330
2
100
AcDbSymbolTableRecord
100
AcDbLayerTableRecord
  2
Dim
 70
     0
 62
     3
  6
Continuous
370
    13
390
1D
347
266
1001
AcAecLayerStandard
1000

1000

  0
LAYER
  5
2226
330
2
100
AcDbSymbolTableRecord
100
AcDbLayerTableRecord
  2
STANDARD
 70
     0
 62
     7
  6
Continuous
370
    -3
390
1D
347
266
  0
LAYER
  5
4AB7
330
2
100
AcDbSymbolTableRecord
100
AcDbLayerTableRecord
  2
ATB73-1901
 70
     0
 62
     7
  6
Continuous
370
    -3
390
1D
347
266
  0
LAYER
  5
4C8B
330
2
100
AcDbSymbolTableRecord
100
AcDbLayerTableRecord
  2
Border
 70
     0
 62
     4
  6
BORDER
290
     0
370
    13
390
1D
347
266
1001
AcAecLayerStandard
1000

1000

  0
LAYER
  5
4C94
330
2
100
AcDbSymbolTableRecord
100
AcDbLayerTableRecord
  2
HIDDEN
 70
     0
 62
   252
  6
HIDDEN
370
    20
390
1D
347
266
1001
AcAecLayerStandard
1000

1000

  0
ENDTAB
  0
TABLE
  2
STYLE
  5
3
330
0
100
AcDbSymbolTable
 70
     2
  0
STYLE
  5
17
330
3
100
AcDbSymbolTableRecord
100
AcDbTextStyleTableRecord
  2
Standard
 70
     0
 40
0.0
 41
1.0
 50
0.0
 71
     0
 42
533.0403732820173
  3
txt
  4
BIGFONT.SHX
  0
STYLE
  5
39
330
3
100
AcDbSymbolTableRecord
100
AcDbTextStyleTableRecord
  2
ＭＳ ゴシック
 70
     0
 40
0.0
 41
1.0
 50
0.0
 71
     0
 42
2.5
  3
msgothic.ttc
  4
ＭＳ ゴシック
1001
ACAD
1000
ＭＳ ゴシック
1071
        0
  0
ENDTAB
  0
TABLE
  2
VIEW
  5
5
330
0
100
AcDbSymbolTable
 70
     0
  0
ENDTAB
  0
TABLE
  2
UCS
  5
6
330
0
100
AcDbSymbolTable
 70
     0
  0
ENDTAB
  0
TABLE
  2
APPID
  5
8
330
0
100
AcDbSymbolTable
 70
     5
  0
APPID
  5
16
330
8
100
AcDbSymbolTableRecord
100
AcDbRegAppTableRecord
  2
ACAD
 70
     0
  0
APPID
  5
5C5
330
8
100
AcDbSymbolTableRecord
100
AcDbRegAppTableRecord
  2
AcAecLayerStandard
 70
     0
  0
APPID
  5
697
330
8
100
AcDbSymbolTableRecord
100
AcDbRegAppTableRecord
  2
ACAD_PSEXT
 70
     0
  0
APPID
  5
4A61
330
8
100
AcDbSymbolTableRecord
100
AcDbRegAppTableRecord
  2
ACAD_DSTYLE_DIMRADIAL_EXTENSION
 70
     0
  0
APPID
  5
4A8B
330
8
100
AcDbSymbolTableRecord
100
AcDbRegAppTableRecord
  2
ACAD_MLEADERVER
 70
     0
  0
ENDTAB
  0
TABLE
  2
DIMSTYLE
  5
9
330
0
100
AcDbSymbolTable
 70
     4
100
AcDbDimStyleTable
  0
DIMSTYLE
105
18
330
9
100
AcDbSymbolTableRecord
100
AcDbDimStyleTableRecord
  2
Standard
 70
     0
178
     0
340
17
  0
DIMSTYLE
105
5C
102
{ACAD_REACTORS
330
47F7
330
4806
330
4817
330
4828
330
483E
330
48FF
330
4950
330
4965
330
4A7C
330
4A99
330
4AA6
330
4C61
330
4CE7
102
}
330
9
100
AcDbSymbolTableRecord
100
AcDbDimStyleTableRecord
  2
JIS
 70
     0
  3
<>
  4
[]
 41
9.0
 42
0.0
 43
6.99999999999994
 44
19.9999999999962
 73
     0
 74
     0
 77
     1
 78
    11
140
24.4326171875
141
0.0
143
1.0
147
10.0
171
     1
174
     1
178
     0
179
     2
271
     1
272
     1
276
     2
284
    11
285
    11
286
    11
289
     0
340
39
341
4E
342
4E
  0
DIMSTYLE
105
419C
330
9
100
AcDbSymbolTableRecord
100
AcDbDimStyleTableRecord
  2
ISO-25
 70
     0
 41
2.5
 42
0.625
 43
3.75
 44
1.25
 73
     0
 74
     0
 77
     1
 78
     8
140
2.5
141
2.5
143
0.03937007874016
147
0.625
171
     3
172
     1
178
     0
271
     2
272
     2
274
     3
283
     0
284
     8
340
17
  0
DIMSTYLE
105
4AB9
102
{ACAD_REACTORS
102
}
330
9
100
AcDbSymbolTableRecord
100
AcDbDimStyleTableRecord
  2
tfrom線あり
 70
     0
  3
<>
  4
[]
 41
0.3999755859375
 42
2.5
 43
0.9999999999999999
 44
0.0
 73
     0
 74
     0
 77
     1
 78
    11
140
2.44326171875
141
0.0
143
0.0393700787401575
147
0.4999999999999999
171
     3
174
     1
178
     0
179
     2
271
     1
272
     1
273
     4
276
     2
284
    11
285
    15
286
    15
289
     0
340
39
341
4E
342
4E
  0
ENDTAB
  0
TABLE
  2
BLOCK_RECORD
  5
1
330
0
100
AcDbSymbolTable
 70
    61
  0
BLOCK_RECORD
  5
A
330
1
100
AcDbSymbolTableRecord
100
AcDbBlockTableRecord
  2
*MODEL_SPACE
340
20
 70
     0
280
     1
281
     0
  0
BLOCK_RECORD
  5
B
330
1
100
AcDbSymbolTableRecord
100
AcDbBlockTableRecord
  2
*PAPER_SPACE
340
21
 70
     0
280
     1
281
     0
  0
BLOCK_RECORD
  5
4E
330
1
100
AcDbSymbolTableRecord
100
AcDbBlockTableRecord
  2
_DOT
340
0
102
{BLKREFS
331
3B74
331
3B75
331
3B83
331
3B84
331
3BA1
331
3BA2
331
3BB6
331
3BB7
331
3BC9
331
3BCA
331
3BD6
331
3BD7
331
3C3E
331
3C3F
331
3C7F
331
3C80
331
3C8E
331
3C8F
331
3CA7
331
3CA8
331
3F3B
331
3F3C
331
3F4A
331
3F4B
331
3F6B
331
3F6C
331
3F80
331
3F81
331
4026
331
4027
331
4088
331
4089
331
40DD
331
40DE
331
40EA
331
40EB
331
413E
331
413F
331
47E9
331
47EA
331
4800
331
4801
331
480F
331
4810
331
4820
331
4821
331
4831
331
4832
331
48E5
331
48E6
331
48F9
331
48FA
331
4906
331
4907
331
495B
331
495C
331
496E
331
496F
331
4A6A
331
4A84
331
4AA0
331
4AA1
331
4AAD
331
4AAE
331
4AED
331
4AEE
331
4AFC
331
4AFD
331
4B0B
331
4B0C
331
4B18
331
4B19
331
4B25
331
4B26
331
4B32
331
4B33
331
4BE8
331
4BE9
331
4BF4
331
4BF5
331
4C00
331
4C01
331
4C0C
331
4C0D
331
4C18
331
4C19
331
4C24
331
4C25
331
4C31
331
4C32
331
4C68
331
4C69
331
4CA6
331
4CA7
331
4CE2
331
4CE1
331
0
331
0
331
0
331
0
331
4CF1
331
4D00
331
4CFF
331
4D0E
331
4D0D
102
}
 70
     0
280
     1
281
     0
  0
BLOCK_RECORD
  5
58
330
1
100
AcDbSymbolTableRecord
100
AcDbBlockTableRecord
  2
VW_FILLEDARROW
340
0
 70
     0
280
     1
281
     0
  0
BLOCK_RECORD
  5
3A5
330
1
100
AcDbSymbolTableRecord
100
AcDbBlockTableRecord
  2
名称未設定-1
340
0
102
{BLKREFS
331
3D0
102
}
 70
     1
280
     1
281
     0
  0
BLOCK_RECORD
  5
3A8
330
1
100
AcDbSymbolTableRecord
100
AcDbBlockTableRecord
  2
block 2
340
0
102
{BLKREFS
331
3A7
102
}
 70
     0
280
     1
281
     0
  0
BLOCK_RECORD
  5
3AB
330
1
100
AcDbSymbolTableRecord
100
AcDbBlockTableRecord
  2
block 3
340
0
102
{BLKREFS
331
3AA
102
}
 70
     0
280
     1
281
     0
  0
BLOCK_RECORD
  5
3AE
330
1
100
AcDbSymbolTableRecord
100
AcDbBlockTableRecord
  2
block 4
340
0
102
{BLKREFS
331
3AD
102
}
 70
     0
280
     1
281
     0
  0
BLOCK_RECORD
  5
3BD
330
1
100
AcDbSymbolTableRecord
100
AcDbBlockTableRecord
  2
block 5
340
0
102
{BLKREFS
331
3BC
102
}
 70
     0
280
     1
281
     0
  0
BLOCK_RECORD
  5
3B6E
330
1
100
AcDbSymbolTableRecord
100
AcDbBlockTableRecord
  2
*D7
340
0
 70
     0
280
     1
281
     0
  0
BLOCK_RECORD
  5
3B7D
330
1
100
AcDbSymbolTableRecord
100
AcDbBlockTableRecord
  2
*D8
340
0
 70
     0
280
     1
281
     0
  0
BLOCK_RECORD
  5
3B9B
330
1
100
AcDbSymbolTableRecord
100
AcDbBlockTableRecord
  2
*D9
340
0
 70
     0
280
     1
281
     0
  0
BLOCK_RECORD
  5
3BB0
330
1
100
AcDbSymbolTableRecord
100
AcDbBlockTableRecord
  2
*D10
340
0
 70
     0
280
     1
281
     0
  0
BLOCK_RECORD
  5
3BC3
330
1
100
AcDbSymbolTableRecord
100
AcDbBlockTableRecord
  2
*D11
340
0
 70
     0
280
     1
281
     0
  0
BLOCK_RECORD
  5
3BD0
330
1
100
AcDbSymbolTableRecord
100
AcDbBlockTableRecord
  2
*D12
340
0
 70
     0
280
     1
281
     0
  0
BLOCK_RECORD
  5
3C38
330
1
100
AcDbSymbolTableRecord
100
AcDbBlockTableRecord
  2
*D13
340
0
 70
     0
280
     1
281
     0
  0
BLOCK_RECORD
  5
3C79
330
1
100
AcDbSymbolTableRecord
100
AcDbBlockTableRecord
  2
*D14
340
0
 70
     0
280
     1
281
     0
  0
BLOCK_RECORD
  5
3C88
330
1
100
AcDbSymbolTableRecord
100
AcDbBlockTableRecord
  2
*D15
340
0
 70
     0
280
     1
281
     0
  0
BLOCK_RECORD
  5
3CA1
330
1
100
AcDbSymbolTableRecord
100
AcDbBlockTableRecord
  2
*D16
340
0
 70
     0
280
     1
281
     0
  0
BLOCK_RECORD
  5
3F35
330
1
100
AcDbSymbolTableRecord
100
AcDbBlockTableRecord
  2
*D17
340
0
 70
     0
280
     1
281
     0
  0
BLOCK_RECORD
  5
3F44
330
1
100
AcDbSymbolTableRecord
100
AcDbBlockTableRecord
  2
*D18
340
0
 70
     0
280
     1
281
     0
  0
BLOCK_RECORD
  5
3F65
330
1
100
AcDbSymbolTableRecord
100
AcDbBlockTableRecord
  2
*D19
340
0
 70
     0
280
     1
281
     0
  0
BLOCK_RECORD
  5
3F7A
330
1
100
AcDbSymbolTableRecord
100
AcDbBlockTableRecord
  2
*D20
340
0
 70
     0
280
     1
281
     0
  0
BLOCK_RECORD
  5
4020
330
1
100
AcDbSymbolTableRecord
100
AcDbBlockTableRecord
  2
*D21
340
0
 70
     0
280
     1
281
     0
  0
BLOCK_RECORD
  5
4082
330
1
100
AcDbSymbolTableRecord
100
AcDbBlockTableRecord
  2
*D22
340
0
 70
     0
280
     1
281
     0
  0
BLOCK_RECORD
  5
40D7
330
1
100
AcDbSymbolTableRecord
100
AcDbBlockTableRecord
  2
*D23
340
0
 70
     0
280
     1
281
     0
  0
BLOCK_RECORD
  5
40E4
330
1
100
AcDbSymbolTableRecord
100
AcDbBlockTableRecord
  2
*D24
340
0
 70
     0
280
     1
281
     0
  0
BLOCK_RECORD
  5
4138
330
1
100
AcDbSymbolTableRecord
100
AcDbBlockTableRecord
  2
*D25
340
0
 70
     0
280
     1
281
     0
  0
BLOCK_RECORD
  5
41BD
330
1
100
AcDbSymbolTableRecord
100
AcDbBlockTableRecord
  2
812331D
340
0
 70
     0
280
     1
281
     0
  0
BLOCK_RECORD
  5
41CB
330
1
100
AcDbSymbolTableRecord
100
AcDbBlockTableRecord
  2
812331S
340
0
 70
     0
280
     1
281
     0
  0
BLOCK_RECORD
  5
47E3
330
1
100
AcDbSymbolTableRecord
100
AcDbBlockTableRecord
  2
*D28
340
0
 70
     0
280
     1
281
     0
  0
BLOCK_RECORD
  5
47FA
330
1
100
AcDbSymbolTableRecord
100
AcDbBlockTableRecord
  2
*D29
340
0
 70
     0
280
     1
281
     0
  0
BLOCK_RECORD
  5
4809
330
1
100
AcDbSymbolTableRecord
100
AcDbBlockTableRecord
  2
*D30
340
0
 70
     0
280
     1
281
     0
  0
BLOCK_RECORD
  5
481A
330
1
100
AcDbSymbolTableRecord
100
AcDbBlockTableRecord
  2
*D31
340
0
 70
     0
280
     1
281
     0
  0
BLOCK_RECORD
  5
482B
330
1
100
AcDbSymbolTableRecord
100
AcDbBlockTableRecord
  2
*D32
340
0
 70
     0
280
     1
281
     0
  0
BLOCK_RECORD
  5
48DF
330
1
100
AcDbSymbolTableRecord
100
AcDbBlockTableRecord
  2
*D33
340
0
 70
     0
280
     1
281
     0
  0
BLOCK_RECORD
  5
48F3
330
1
100
AcDbSymbolTableRecord
100
AcDbBlockTableRecord
  2
*D34
340
0
 70
     0
280
     1
281
     0
  0
BLOCK_RECORD
  5
4900
330
1
100
AcDbSymbolTableRecord
100
AcDbBlockTableRecord
  2
*D35
340
0
 70
     0
280
     1
281
     0
  0
BLOCK_RECORD
  5
4953
330
1
100
AcDbSymbolTableRecord
100
AcDbBlockTableRecord
  2
*D36
340
0
 70
     0
280
     1
281
     0
  0
BLOCK_RECORD
  5
4968
330
1
100
AcDbSymbolTableRecord
100
AcDbBlockTableRecord
  2
*D37
340
0
 70
     0
280
     1
281
     0
  0
BLOCK_RECORD
  5
4A65
330
1
100
AcDbSymbolTableRecord
100
AcDbBlockTableRecord
  2
*D38
340
0
 70
     0
280
     1
281
     0
  0
BLOCK_RECORD
  5
4A7F
330
1
100
AcDbSymbolTableRecord
100
AcDbBlockTableRecord
  2
*D39
340
0
 70
     0
280
     1
281
     0
  0
BLOCK_RECORD
  5
4A9A
330
1
100
AcDbSymbolTableRecord
100
AcDbBlockTableRecord
  2
*D40
340
0
 70
     0
280
     1
281
     0
  0
BLOCK_RECORD
  5
4AA7
330
1
100
AcDbSymbolTableRecord
100
AcDbBlockTableRecord
  2
*D41
340
0
 70
     0
280
     1
281
     0
  0
BLOCK_RECORD
  5
4AE8
330
1
100
AcDbSymbolTableRecord
100
AcDbBlockTableRecord
  2
*D42
340
0
 70
     0
280
     1
281
     0
  0
BLOCK_RECORD
  5
4AF7
330
1
100
AcDbSymbolTableRecord
100
AcDbBlockTableRecord
  2
*D43
340
0
 70
     0
280
     1
281
     0
  0
BLOCK_RECORD
  5
4B06
330
1
100
AcDbSymbolTableRecord
100
AcDbBlockTableRecord
  2
*D44
340
0
 70
     0
280
     1
281
     0
  0
BLOCK_RECORD
  5
4B13
330
1
100
AcDbSymbolTableRecord
100
AcDbBlockTableRecord
  2
*D45
340
0
 70
     0
280
     1
281
     0
  0
BLOCK_RECORD
  5
4B20
330
1
100
AcDbSymbolTableRecord
100
AcDbBlockTableRecord
  2
*D46
340
0
 70
     0
280
     1
281
     0
  0
BLOCK_RECORD
  5
4B2D
330
1
100
AcDbSymbolTableRecord
100
AcDbBlockTableRecord
  2
*D47
340
0
 70
     0
280
     1
281
     0
  0
BLOCK_RECORD
  5
4BE2
330
1
100
AcDbSymbolTableRecord
100
AcDbBlockTableRecord
  2
*D48
340
0
 70
     0
280
     1
281
     0
  0
BLOCK_RECORD
  5
4BEE
330
1
100
AcDbSymbolTableRecord
100
AcDbBlockTableRecord
  2
*D49
340
0
 70
     0
280
     1
281
     0
  0
BLOCK_RECORD
  5
4BFA
330
1
100
AcDbSymbolTableRecord
100
AcDbBlockTableRecord
  2
*D50
340
0
 70
     0
280
     1
281
     0
  0
BLOCK_RECORD
  5
4C06
330
1
100
AcDbSymbolTableRecord
100
AcDbBlockTableRecord
  2
*D51
340
0
 70
     0
280
     1
281
     0
  0
BLOCK_RECORD
  5
4C12
330
1
100
AcDbSymbolTableRecord
100
AcDbBlockTableRecord
  2
*D52
340
0
 70
     0
280
     1
281
     0
  0
BLOCK_RECORD
  5
4C1E
330
1
100
AcDbSymbolTableRecord
100
AcDbBlockTableRecord
  2
*D53
340
0
 70
     0
280
     1
281
     0
  0
BLOCK_RECORD
  5
4C2B
330
1
100
AcDbSymbolTableRecord
100
AcDbBlockTableRecord
  2
*D54
340
0
 70
     0
280
     1
281
     0
  0
BLOCK_RECORD
  5
4C62
330
1
100
AcDbSymbolTableRecord
100
AcDbBlockTableRecord
  2
*D55
340
0
 70
     0
280
     1
281
     0
  0
BLOCK_RECORD
  5
4CA0
330
1
100
AcDbSymbolTableRecord
100
AcDbBlockTableRecord
  2
*D56
340
0
 70
     0
280
     1
281
     0
  0
BLOCK_RECORD
  5
4CDB
330
1
100
AcDbSymbolTableRecord
100
AcDbBlockTableRecord
  2
*D57
340
0
 70
     0
280
     1
281
     0
  0
BLOCK_RECORD
  5
4CEA
330
1
100
AcDbSymbolTableRecord
100
AcDbBlockTableRecord
  2
*D58
340
0
 70
     0
280
     1
281
     0
  0
BLOCK_RECORD
  5
4CF9
330
1
100
AcDbSymbolTableRecord
100
AcDbBlockTableRecord
  2
*D59
340
0
 70
     0
280
     1
281
     0
  0
BLOCK_RECORD
  5
4D06
330
1
100
AcDbSymbolTableRecord
100
AcDbBlockTableRecord
  2
*D60
340
0
 70
     0
280
     1
281
     0
  0
ENDTAB
  0
ENDSEC
  0
SECTION
  2
BLOCKS
  0
BLOCK
  5
D
330
A
100
AcDbEntity
  8
0
390
1D
100
AcDbBlockBegin
  2
*MODEL_SPACE
 70
     0
 10
0.0
 20
0.0
 30
0.0
  3
*MODEL_SPACE
  1
*MODEL_SPACE
  0
ENDBLK
  5
E
330
A
100
AcDbEntity
  8
0
390
1D
100
AcDbBlockEnd
  0
BLOCK
  5
F
330
B
100
AcDbEntity
 67
     1
  8
0
390
1D
100
AcDbBlockBegin
  2
*PAPER_SPACE
 70
     0
 10
0.0
 20
0.0
 30
0.0
  3
*PAPER_SPACE
  1
*PAPER_SPACE
  0
ENDBLK
  5
10
330
B
100
AcDbEntity
 67
     1
  8
0
390
1D
100
AcDbBlockEnd
  0
BLOCK
  5
2BB
330
4E
100
AcDbEntity
  8
0
390
1D
100
AcDbBlockBegin
  2
_DOT
 70
     0
 10
0.0
 20
0.0
 30
0.0
  3
_DOT
  1
_DOT
  0
POLYLINE
  5
2BD
330
4E
100
AcDbEntity
  8
0
  6
ByBlock
 62
     0
370
    -2
390
1D
100
AcDb2dPolyline
 66
     1
 10
0.0
 20
0.0
 30
0.0
 70
     1
 40
0.5
 41
0.5
  0
VERTEX
  5
2BE
330
2BD
100
AcDbEntity
  8
0
  6
ByBlock
 62
     0
370
    -2
390
1D
100
AcDbVertex
100
AcDb2dVertex
 10
-0.25
 20
0.0
 30
0.0
 42
1.0
  0
VERTEX
  5
2BF
330
2BD
100
AcDbEntity
  8
0
  6
ByBlock
 62
     0
370
    -2
390
1D
100
AcDbVertex
100
AcDb2dVertex
 10
0.25
 20
0.0
 30
0.0
 42
1.0
  0
SEQEND
  5
2C0
330
2BD
100
AcDbEntity
  8
0
390
1D
  0
LINE
  5
2C1
330
4E
100
AcDbEntity
  8
0
  6
ByBlock
 62
     0
370
    -2
390
1D
100
AcDbLine
 10
-0.5
 20
0.0
 30
0.0
 11
-1.0
 21
0.0
 31
0.0
  0
ENDBLK
  5
2C2
330
4E
100
AcDbEntity
  8
0
390
1D
100
AcDbBlockEnd
  0
BLOCK
  5
59
330
58
100
AcDbEntity
  8
0
  6
ByBlock
 62
     0
370
    -2
390
1D
100
AcDbBlockBegin
  2
VW_FILLEDARROW
 70
     0
 10
0.0
 20
0.0
 30
0.0
  3
VW_FILLEDARROW
  1
VW_FILLEDARROW
  0
SOLID
  5
5A
330
58
100
AcDbEntity
  8
0
 62
     0
370
    -2
390
1D
100
AcDbTrace
 10
0.0
 20
0.0
 30
0.0
 11
-0.9921874999999999
 21
-0.2658558393652545
 31
0.0
 12
-0.9921874999999999
 22
0.2658558393652548
 32
0.0
 13
-0.9921874999999999
 23
0.2658558393652548
 33
0.0
  0
ENDBLK
  5
5B
330
58
100
AcDbEntity
  8
0
390
1D
100
AcDbBlockEnd
  0
BLOCK
  5
3A6
330
3A5
100
AcDbEntity
  8
0
100
AcDbBlockBegin
  2
名称未設定-1
 70
     0
 10
0.0
 20
0.0
 30
0.0
  3
名称未設定-1
  1
名称未設定-1
  0
INSERT
  5
3A7
330
3A5
100
AcDbEntity
  8
レイヤー 1
100
AcDbBlockReference
  2
block 2
 10
0.0
 20
0.0
 30
0.0
  0
ENDBLK
  5
3CC
330
3A5
100
AcDbEntity
  8
0
100
AcDbBlockEnd
  0
BLOCK
  5
3A9
330
3A8
100
AcDbEntity
  8
0
100
AcDbBlockBegin
  2
block 2
 70
     0
 10
0.0
 20
0.0
 30
0.0
  3
block 2
  1
block 2
  0
INSERT
  5
3AA
330
3A8
100
AcDbEntity
  8
レイヤー 1
100
AcDbBlockReference
  2
block 3
 10
0.0
 20
0.0
 30
0.0
  0
ENDBLK
  5
3CB
330
3A8
100
AcDbEntity
  8
0
100
AcDbBlockEnd
  0
BLOCK
  5
3AC
330
3AB
100
AcDbEntity
  8
0
100
AcDbBlockBegin
  2
block 3
 70
     0
 10
0.0
 20
0.0
 30
0.0
  3
block 3
  1
block 3
  0
INSERT
  5
3AD
330
3AB
100
AcDbEntity
  8
レイヤー 1
100
AcDbBlockReference
  2
block 4
 10
0.0
 20
0.0
 30
0.0
  0
ENDBLK
  5
3CA
330
3AB
100
AcDbEntity
  8
0
100
AcDbBlockEnd
  0
BLOCK
  5
3AF
330
3AE
100
AcDbEntity
  8
0
100
AcDbBlockBegin
  2
block 4
 70
     0
 10
0.0
 20
0.0
 30
0.0
  3
block 4
  1
block 4
  0
POLYLINE
  5
3B0
330
3AE
100
AcDbEntity
  8
レイヤー 1
370
     0
100
AcDb2dPolyline
 66
     1
 10
0.0
 20
0.0
 30
0.0
  0
VERTEX
  5
3B1
330
3B0
100
AcDbEntity
  8
レイヤー 1
370
     0
100
AcDbVertex
100
AcDb2dVertex
 10
83.79545727667795
 20
167.6444858234922
 30
0.0
  0
VERTEX
  5
3B2
330
3B0
100
AcDbEntity
  8
レイヤー 1
370
     0
100
AcDbVertex
100
AcDb2dVertex
 10
83.79545727667795
 20
159.7968976406313
 30
0.0
  0
VERTEX
  5
3B3
330
3B0
100
AcDbEntity
  8
レイヤー 1
370
     0
100
AcDbVertex
100
AcDb2dVertex
 10
71.3631329975216
 20
159.7968976406313
 30
0.0
  0
VERTEX
  5
3B4
330
3B0
100
AcDbEntity
  8
レイヤー 1
370
     0
100
AcDbVertex
100
AcDb2dVertex
 10
71.3631329975216
 20
127.8027915271048
 30
0.0
  0
VERTEX
  5
3B5
330
3B0
100
AcDbEntity
  8
レイヤー 1
370
     0
100
AcDbVertex
100
AcDb2dVertex
 10
60.43011526263018
 20
127.8027915271048
 30
0.0
  0
VERTEX
  5
3B6
330
3B0
100
AcDbEntity
  8
レイヤー 1
370
     0
100
AcDbVertex
100
AcDb2dVertex
 10
60.43011526263018
 20
159.7968976406313
 30
0.0
  0
VERTEX
  5
3B7
330
3B0
100
AcDbEntity
  8
レイヤー 1
370
     0
100
AcDbVertex
100
AcDb2dVertex
 10
48.21793273020759
 20
159.7968976406313
 30
0.0
  0
VERTEX
  5
3B8
330
3B0
100
AcDbEntity
  8
レイヤー 1
370
     0
100
AcDbVertex
100
AcDb2dVertex
 10
48.21793273020759
 20
167.6444858234922
 30
0.0
  0
VERTEX
  5
3B9
330
3B0
100
AcDbEntity
  8
レイヤー 1
370
     0
100
AcDbVertex
100
AcDb2dVertex
 10
83.79545727667795
 20
167.6444858234922
 30
0.0
  0
SEQEND
  5
3BA
330
3B0
100
AcDbEntity
  8
レイヤー 1
370
     0
  0
HATCH
  5
3BB
330
3AE
100
AcDbEntity
  8
レイヤー 1
 62
   250
420
  2234388
100
AcDbHatch
 10
0.0
 20
0.0
 30
0.0
210
0.0
220
0.0
230
1.0
  2
SOLID
 70
     1
 71
     0
 91
        1
 92
        1
 93
        8
 72
     1
 10
83.79545727667795
 20
167.6444858234922
 11
83.79545727667795
 21
159.7968976406313
 72
     1
 10
83.79545727667795
 20
159.7968976406313
 11
71.3631329975216
 21
159.7968976406313
 72
     1
 10
71.3631329975216
 20
159.7968976406313
 11
71.3631329975216
 21
127.8027915271048
 72
     1
 10
71.3631329975216
 20
127.8027915271048
 11
60.43011526263018
 21
127.8027915271048
 72
     1
 10
60.43011526263018
 20
127.8027915271048
 11
60.43011526263018
 21
159.7968976406313
 72
     1
 10
60.43011526263018
 20
159.7968976406313
 11
48.21793273020759
 21
159.7968976406313
 72
     1
 10
48.21793273020759
 20
159.7968976406313
 11
48.21793273020759
 21
167.6444858234922
 72
     1
 10
48.21793273020759
 20
167.6444858234922
 11
83.79545727667795
 21
167.6444858234922
 97
        0
 75
     2
 76
     1
 98
        0
  0
INSERT
  5
3BC
330
3AE
100
AcDbEntity
  8
レイヤー 1
100
AcDbBlockReference
  2
block 5
 10
0.0
 20
0.0
 30
0.0
  0
ENDBLK
  5
3C9
330
3AE
100
AcDbEntity
  8
0
100
AcDbBlockEnd
  0
BLOCK
  5
3BE
330
3BD
100
AcDbEntity
  8
0
100
AcDbBlockBegin
  2
block 5
 70
     0
 10
0.0
 20
0.0
 30
0.0
  3
block 5
  1
block 5
  0
SPLINE
  5
3BF
330
3BD
100
AcDbEntity
  8
レイヤー 1
370
     0
100
AcDbSpline
210
0.0
220
0.0
230
1.0
 70
    11
 71
     3
 72
    56
 73
    52
 74
     0
 42
0.000000001
 43
0.0000000001
 40
0.0
 40
0.0
 40
0.0
 40
0.0
 40
1.0
 40
1.0
 40
1.0
 40
2.0
 40
2.0
 40
2.0
 40
3.0
 40
3.0
 40
3.0
 40
4.0
 40
4.0
 40
4.0
 40
5.0
 40
5.0
 40
5.0
 40
6.0
 40
6.0
 40
6.0
 40
7.0
 40
7.0
 40
7.0
 40
8.0
 40
8.0
 40
8.0
 40
9.0
 40
9.0
 40
9.0
 40
10.0
 40
10.0
 40
10.0
 40
11.0
 40
11.0
 40
11.0
 40
12.0
 40
12.0
 40
12.0
 40
13.0
 40
13.0
 40
13.0
 40
14.0
 40
14.0
 40
14.0
 40
15.0
 40
15.0
 40
15.0
 40
16.0
 40
16.0
 40
16.0
 40
17.0
 40
17.0
 40
17.0
 40
17.0
 10
100.4504378777679
 20
166.69157178364
 30
0.0
 10
101.9848844191641
 20
167.1313385124438
 30
0.0
 10
103.9637485713373
 20
166.7649523658846
 30
0.0
 10
103.9637485713373
 20
166.7649523658846
 30
0.0
 10
103.9637485713373
 20
166.7649523658846
 30
0.0
 10
103.0132460999156
 20
163.911205638077
 30
0.0
 10
103.0132460999156
 20
163.911205638077
 30
0.0
 10
103.0132460999156
 20
163.911205638077
 30
0.0
 10
101.0674548862189
 20
164.3601018759394
 30
0.0
 10
99.57090442016032
 20
163.1805004036133
 30
0.0
 10
98.40508333886608
 20
162.258247733807
 30
0.0
 10
97.65301849830304
 20
159.804132345923
 30
0.0
 10
97.3598406791005
 20
158.8699940888517
 30
0.0
 10
97.3598406791005
 20
158.8699940888517
 30
0.0
 10
96.07137411762282
 20
154.9119212747295
 30
0.0
 10
96.07137411762282
 20
154.9119212747295
 30
0.0
 10
96.07137411762282
 20
154.9119212747295
 30
0.0
 10
100.3012651448482
 20
154.9119212747295
 30
0.0
 10
100.3012651448482
 20
154.9119212747295
 30
0.0
 10
100.3012651448482
 20
154.9119212747295
 30
0.0
 10
99.64152892419852
 20
152.4199098115079
 30
0.0
 10
99.64152892419852
 20
152.4199098115079
 30
0.0
 10
99.64152892419852
 20
152.4199098115079
 30
0.0
 10
95.38097652692731
 20
152.4199098115079
 30
0.0
 10
95.38097652692731
 20
152.4199098115079
 30
0.0
 10
95.38097652692731
 20
152.4199098115079
 30
0.0
 10
87.75353009080013
 20
127.8027915271048
 30
0.0
 10
87.75353009080013
 20
127.8027915271048
 30
0.0
 10
87.75353009080013
 20
127.8027915271048
 30
0.0
 10
85.36538832498108
 20
127.8027915271048
 30
0.0
 10
85.36538832498108
 20
127.8027915271048
 30
0.0
 10
85.36538832498108
 20
127.8027915271048
 30
0.0
 10
93.00006946639998
 20
152.4199098115079
 30
0.0
 10
93.00006946639998
 20
152.4199098115079
 30
0.0
 10
93.00006946639998
 20
152.4199098115079
 30
0.0
 10
89.85297266450198
 20
152.4199098115079
 30
0.0
 10
89.85297266450198
 20
152.4199098115079
 30
0.0
 10
89.85297266450198
 20
152.4199098115079
 30
0.0
 10
90.51270888515164
 20
154.9119212747295
 30
0.0
 10
90.51270888515164
 20
154.9119212747295
 30
0.0
 10
90.51270888515164
 20
154.9119212747295
 30
0.0
 10
93.6904670570955
 20
154.9119212747295
 30
0.0
 10
93.6904670570955
 20
154.9119212747295
 30
0.0
 10
93.6904670570955
 20
154.9119212747295
 30
0.0
 10
94.81598049462158
 20
158.3616699146644
 30
0.0
 10
94.81598049462158
 20
158.3616699146644
 30
0.0
 10
95.7237637538445
 20
161.2605474231013
 30
0.0
 10
96.4968436907311
 20
162.8139420021662
 30
0.0
 10
97.15657991138076
 20
163.9844139654337
 30
0.0
 10
97.81183750494507
 20
165.1523021053827
 30
0.0
 10
99.1047826935081
 20
166.3084769129547
 30
0.0
 10
100.4504378777679
 20
166.69157178364
 30
0.0
  0
HATCH
  5
3C0
330
3BD
100
AcDbEntity
  8
レイヤー 1
 62
   250
420
  2234388
100
AcDbHatch
 10
0.0
 20
0.0
 30
0.0
210
0.0
220
0.0
230
1.0
  2
SOLID
 70
     1
 71
     0
 91
        1
 92
        1
 93
        1
 72
     4
 94
        3
 73
     0
 74
     1
 95
       56
 96
       52
 40
0.0
 40
0.0
 40
0.0
 40
0.0
 40
1.0
 40
1.0
 40
1.0
 40
2.0
 40
2.0
 40
2.0
 40
3.0
 40
3.0
 40
3.0
 40
4.0
 40
4.0
 40
4.0
 40
5.0
 40
5.0
 40
5.0
 40
6.0
 40
6.0
 40
6.0
 40
7.0
 40
7.0
 40
7.0
 40
8.0
 40
8.0
 40
8.0
 40
9.0
 40
9.0
 40
9.0
 40
10.0
 40
10.0
 40
10.0
 40
11.0
 40
11.0
 40
11.0
 40
12.0
 40
12.0
 40
12.0
 40
13.0
 40
13.0
 40
13.0
 40
14.0
 40
14.0
 40
14.0
 40
15.0
 40
15.0
 40
15.0
 40
16.0
 40
16.0
 40
16.0
 40
17.0
 40
17.0
 40
17.0
 40
17.0
 10
100.4504378777679
 20
166.69157178364
 10
101.9848844191641
 20
167.1313385124438
 10
103.9637485713373
 20
166.7649523658846
 10
103.9637485713373
 20
166.7649523658846
 10
103.9637485713373
 20
166.7649523658846
 10
103.0132460999156
 20
163.911205638077
 10
103.0132460999156
 20
163.911205638077
 10
103.0132460999156
 20
163.911205638077
 10
101.0674548862189
 20
164.3601018759394
 10
99.57090442016032
 20
163.1805004036133
 10
98.40508333886608
 20
162.258247733807
 10
97.65301849830304
 20
159.804132345923
 10
97.3598406791005
 20
158.8699940888517
 10
97.3598406791005
 20
158.8699940888517
 10
96.07137411762282
 20
154.9119212747295
 10
96.07137411762282
 20
154.9119212747295
 10
96.07137411762282
 20
154.9119212747295
 10
100.3012651448482
 20
154.9119212747295
 10
100.3012651448482
 20
154.9119212747295
 10
100.3012651448482
 20
154.9119212747295
 10
99.64152892419852
 20
152.4199098115079
 10
99.64152892419852
 20
152.4199098115079
 10
99.64152892419852
 20
152.4199098115079
 10
95.38097652692731
 20
152.4199098115079
 10
95.38097652692731
 20
152.4199098115079
 10
95.38097652692731
 20
152.4199098115079
 10
87.75353009080013
 20
127.8027915271048
 10
87.75353009080013
 20
127.8027915271048
 10
87.75353009080013
 20
127.8027915271048
 10
85.36538832498108
 20
127.8027915271048
 10
85.36538832498108
 20
127.8027915271048
 10
85.36538832498108
 20
127.8027915271048
 10
93.00006946639998
 20
152.4199098115079
 10
93.00006946639998
 20
152.4199098115079
 10
93.00006946639998
 20
152.4199098115079
 10
89.85297266450198
 20
152.4199098115079
 10
89.85297266450198
 20
152.4199098115079
 10
89.85297266450198
 20
152.4199098115079
 10
90.51270888515164
 20
154.9119212747295
 10
90.51270888515164
 20
154.9119212747295
 10
90.51270888515164
 20
154.9119212747295
 10
93.6904670570955
 20
154.9119212747295
 10
93.6904670570955
 20
154.9119212747295
 10
93.6904670570955
 20
154.9119212747295
 10
94.81598049462158
 20
158.3616699146644
 10
94.81598049462158
 20
158.3616699146644
 10
95.7237637538445
 20
161.2605474231013
 10
96.4968436907311
 20
162.8139420021662
 10
97.15657991138076
 20
163.9844139654337
 10
97.81183750494507
 20
165.1523021053827
 10
99.1047826935081
 20
166.3084769129547
 10
100.4504378777679
 20
166.69157178364
 97
        0
 75
     2
 76
     1
 98
        0
  0
SPLINE
  5
3C1
330
3BD
100
AcDbEntity
  8
レイヤー 1
370
     0
100
AcDbSpline
210
0.0
220
0.0
230
1.0
 70
    11
 71
     3
 72
    38
 73
    34
 74
     0
 42
0.000000001
 43
0.0000000001
 40
0.0
 40
0.0
 40
0.0
 40
0.0
 40
1.0
 40
1.0
 40
1.0
 40
2.0
 40
2.0
 40
2.0
 40
3.0
 40
3.0
 40
3.0
 40
4.0
 40
4.0
 40
4.0
 40
5.0
 40
5.0
 40
5.0
 40
6.0
 40
6.0
 40
6.0
 40
7.0
 40
7.0
 40
7.0
 40
8.0
 40
8.0
 40
8.0
 40
9.0
 40
9.0
 40
9.0
 40
10.0
 40
10.0
 40
10.0
 40
11.0
 40
11.0
 40
11.0
 40
11.0
 10
126.377554584636
 20
154.8151140277308
 30
0.0
 10
126.377554584636
 20
154.8151140277308
 30
0.0
 10
128.8311532078563
 20
154.8151140277308
 30
0.0
 10
128.8311532078563
 20
154.8151140277308
 30
0.0
 10
128.8311532078563
 20
154.8151140277308
 30
0.0
 10
127.7345785914971
 20
151.3062819612468
 30
0.0
 10
127.7345785914971
 20
151.3062819612468
 30
0.0
 10
128.571392836906
 20
152.2922689395754
 30
0.0
 10
129.8860421413442
 20
153.604506675583
 30
0.0
 10
131.0163787157314
 20
154.2664822097754
 30
0.0
 10
132.7044766171327
 20
155.2500576196734
 30
0.0
 10
133.6642808525008
 20
155.3847609420097
 30
0.0
 10
134.7284715499351
 20
155.3565111403944
 30
0.0
 10
134.7284715499351
 20
155.3565111403944
 30
0.0
 10
133.6877075172549
 20
152.0345756272799
 30
0.0
 10
133.6877075172549
 20
152.0345756272799
 30
0.0
 10
133.011434827367
 20
152.3184516825359
 30
0.0
 10
130.930940291334
 20
151.7768823149844
 30
0.0
 10
129.739280976855
 20
150.9162968950455
 30
0.0
 10
128.66613302525
 20
150.1454562717016
 30
0.0
 10
127.9192358313239
 20
149.4857200510519
 30
0.0
 10
127.0393578639405
 20
147.8282835196966
 30
0.0
 10
126.164647543194
 20
146.1699857139017
 30
0.0
 10
125.4742499524985
 20
143.5262176944419
 30
0.0
 10
124.2822461282437
 20
139.6959580071401
 30
0.0
 10
124.2822461282437
 20
139.6959580071401
 30
0.0
 10
120.5753209406769
 20
127.8027915271048
 30
0.0
 10
120.5753209406769
 20
127.8027915271048
 30
0.0
 10
120.5753209406769
 20
127.8027915271048
 30
0.0
 10
118.1964809388044
 20
127.8027915271048
 30
0.0
 10
118.1964809388044
 20
127.8027915271048
 30
0.0
 10
118.1964809388044
 20
127.8027915271048
 30
0.0
 10
126.377554584636
 20
154.8151140277308
 30
0.0
 10
126.377554584636
 20
154.8151140277308
 30
0.0
  0
HATCH
  5
3C2
330
3BD
100
AcDbEntity
  8
レイヤー 1
 62
   250
420
  2234388
100
AcDbHatch
 10
0.0
 20
0.0
 30
0.0
210
0.0
220
0.0
230
1.0
  2
SOLID
 70
     1
 71
     0
 91
        1
 92
        1
 93
        1
 72
     4
 94
        3
 73
     0
 74
     1
 95
       38
 96
       34
 40
0.0
 40
0.0
 40
0.0
 40
0.0
 40
1.0
 40
1.0
 40
1.0
 40
2.0
 40
2.0
 40
2.0
 40
3.0
 40
3.0
 40
3.0
 40
4.0
 40
4.0
 40
4.0
 40
5.0
 40
5.0
 40
5.0
 40
6.0
 40
6.0
 40
6.0
 40
7.0
 40
7.0
 40
7.0
 40
8.0
 40
8.0
 40
8.0
 40
9.0
 40
9.0
 40
9.0
 40
10.0
 40
10.0
 40
10.0
 40
11.0
 40
11.0
 40
11.0
 40
11.0
 10
126.377554584636
 20
154.8151140277308
 10
126.377554584636
 20
154.8151140277308
 10
128.8311532078563
 20
154.8151140277308
 10
128.8311532078563
 20
154.8151140277308
 10
128.8311532078563
 20
154.8151140277308
 10
127.7345785914971
 20
151.3062819612468
 10
127.7345785914971
 20
151.3062819612468
 10
128.571392836906
 20
152.2922689395754
 10
129.8860421413442
 20
153.604506675583
 10
131.0163787157314
 20
154.2664822097754
 10
132.7044766171327
 20
155.2500576196734
 10
133.6642808525008
 20
155.3847609420097
 10
134.7284715499351
 20
155.3565111403944
 10
134.7284715499351
 20
155.3565111403944
 10
133.6877075172549
 20
152.0345756272799
 10
133.6877075172549
 20
152.0345756272799
 10
133.011434827367
 20
152.3184516825359
 10
130.930940291334
 20
151.7768823149844
 10
129.739280976855
 20
150.9162968950455
 10
128.66613302525
 20
150.1454562717016
 10
127.9192358313239
 20
149.4857200510519
 10
127.0393578639405
 20
147.8282835196966
 10
126.164647543194
 20
146.1699857139017
 10
125.4742499524985
 20
143.5262176944419
 10
124.2822461282437
 20
139.6959580071401
 10
124.2822461282437
 20
139.6959580071401
 10
120.5753209406769
 20
127.8027915271048
 10
120.5753209406769
 20
127.8027915271048
 10
120.5753209406769
 20
127.8027915271048
 10
118.1964809388044
 20
127.8027915271048
 10
118.1964809388044
 20
127.8027915271048
 10
118.1964809388044
 20
127.8027915271048
 10
126.377554584636
 20
154.8151140277308
 10
126.377554584636
 20
154.8151140277308
 97
        0
 75
     2
 76
     1
 98
        0
  0
SPLINE
  5
3C3
330
3BD
100
AcDbEntity
  8
レイヤー 1
370
     0
100
AcDbSpline
210
0.0
220
0.0
230
1.0
 70
    11
 71
     3
 72
   104
 73
   100
 74
     0
 42
0.000000001
 43
0.0000000001
 40
0.0
 40
0.0
 40
0.0
 40
0.0
 40
1.0
 40
1.0
 40
1.0
 40
2.0
 40
2.0
 40
2.0
 40
3.0
 40
3.0
 40
3.0
 40
4.0
 40
4.0
 40
4.0
 40
5.0
 40
5.0
 40
5.0
 40
6.0
 40
6.0
 40
6.0
 40
7.0
 40
7.0
 40
7.0
 40
8.0
 40
8.0
 40
8.0
 40
9.0
 40
9.0
 40
9.0
 40
10.0
 40
10.0
 40
10.0
 40
11.0
 40
11.0
 40
11.0
 40
12.0
 40
12.0
 40
12.0
 40
13.0
 40
13.0
 40
13.0
 40
14.0
 40
14.0
 40
14.0
 40
15.0
 40
15.0
 40
15.0
 40
16.0
 40
16.0
 40
16.0
 40
17.0
 40
17.0
 40
17.0
 40
18.0
 40
18.0
 40
18.0
 40
19.0
 40
19.0
 40
19.0
 40
20.0
 40
20.0
 40
20.0
 40
21.0
 40
21.0
 40
21.0
 40
22.0
 40
22.0
 40
22.0
 40
23.0
 40
23.0
 40
23.0
 40
24.0
 40
24.0
 40
24.0
 40
25.0
 40
25.0
 40
25.0
 40
26.0
 40
26.0
 40
26.0
 40
27.0
 40
27.0
 40
27.0
 40
28.0
 40
28.0
 40
28.0
 40
29.0
 40
29.0
 40
29.0
 40
30.0
 40
30.0
 40
30.0
 40
31.0
 40
31.0
 40
31.0
 40
32.0
 40
32.0
 40
32.0
 40
33.0
 40
33.0
 40
33.0
 40
33.0
 10
139.8926730891197
 20
154.8294111834263
 30
0.0
 10
139.8926730891197
 20
154.8294111834263
 30
0.0
 10
142.0344903652445
 20
154.8294111834263
 30
0.0
 10
142.0344903652445
 20
154.8294111834263
 30
0.0
 10
142.0344903652445
 20
154.8294111834263
 30
0.0
 10
140.9516961399171
 20
151.3157559800812
 30
0.0
 10
140.9516961399171
 20
151.3157559800812
 30
0.0
 10
141.8928968473923
 20
152.7887075264977
 30
0.0
 10
142.7341897198865
 20
153.4484437471474
 30
0.0
 10
143.8552245303272
 20
154.2926649527359
 30
0.0
 10
144.9803934580775
 20
155.1296514530327
 30
0.0
 10
146.3139908001845
 20
155.3044901642492
 30
0.0
 10
147.241066606852
 20
155.3044901642492
 30
0.0
 10
148.3855280820469
 20
155.3044901642492
 30
0.0
 10
149.4969166187653
 20
155.0752189084569
 30
0.0
 10
150.0784491203092
 20
153.8172414621372
 30
0.0
 10
150.5228667310863
 20
152.833838307127
 30
0.0
 10
150.5414702589793
 20
152.7201500811143
 30
0.0
 10
150.4140016419347
 20
150.7765981809602
 30
0.0
 10
151.5818897818837
 20
152.7699317437168
 30
0.0
 10
152.4424752018226
 20
153.6256940267945
 30
0.0
 10
153.9038856707499
 20
154.4507949398263
 30
0.0
 10
155.4455669174378
 20
155.3044901642492
 30
0.0
 10
156.339225275853
 20
155.3659851592288
 30
0.0
 10
157.3748216618963
 20
155.2147453676543
 30
0.0
 10
158.911679771723
 20
154.9877134254046
 30
0.0
 10
159.8859534176746
 20
154.4390816074493
 30
0.0
 10
160.3965169054045
 20
152.7816450760939
 30
0.0
 10
160.9070803931344
 20
151.1219692311958
 30
0.0
 10
160.6328506116007
 20
150.2303779314354
 30
0.0
 10
159.9992971339115
 20
147.597634224801
 30
0.0
 10
159.7105979417943
 20
146.4014962832367
 30
0.0
 10
159.2947746424084
 20
144.9400858143094
 30
0.0
 10
158.7463150793409
 20
143.2092687007094
 30
0.0
 10
158.7463150793409
 20
143.2092687007094
 30
0.0
 10
153.9038856707499
 20
127.8027915271048
 30
0.0
 10
153.9038856707499
 20
127.8027915271048
 30
0.0
 10
153.9038856707499
 20
127.8027915271048
 30
0.0
 10
151.3882752878863
 20
127.8027915271048
 30
0.0
 10
151.3882752878863
 20
127.8027915271048
 30
0.0
 10
151.3882752878863
 20
127.8027915271048
 30
0.0
 10
155.6250565106276
 20
141.2751908193897
 30
0.0
 10
155.6250565106276
 20
141.2751908193897
 30
0.0
 10
156.5094131050963
 20
144.0936252951782
 30
0.0
 10
157.109893644309
 20
146.1506931664571
 30
0.0
 10
157.4220195011804
 20
147.4415712963654
 30
0.0
 10
157.8095929989511
 20
149.0530157726519
 30
0.0
 10
157.9656559273867
 20
149.5826995529385
 30
0.0
 10
157.7816877071116
 20
150.7529992613181
 30
0.0
 10
157.6111553680925
 20
151.8430281919372
 30
0.0
 10
157.0582171779396
 20
152.5547853887321
 30
0.0
 10
156.1170164704645
 20
152.5547853887321
 30
0.0
 10
155.1096698860365
 20
152.5547853887321
 30
0.0
 10
154.2962823053817
 20
152.4412694176073
 30
0.0
 10
153.156643967048
 20
151.2945686288697
 30
0.0
 10
152.0170056287143
 20
150.1476955852443
 30
0.0
 10
151.076149431015
 20
148.7930831468137
 30
0.0
 10
150.3337308641742
 20
147.2290087646991
 30
0.0
 10
149.5957909244188
 20
145.6683794803425
 30
0.0
 10
148.8530278478023
 20
143.6822806228776
 30
0.0
 10
148.0964843801539
 20
141.2751908193897
 30
0.0
 10
148.0964843801539
 20
141.2751908193897
 30
0.0
 10
143.8552245303272
 20
127.8027915271048
 30
0.0
 10
143.8552245303272
 20
127.8027915271048
 30
0.0
 10
143.8552245303272
 20
127.8027915271048
 30
0.0
 10
141.486030802177
 20
127.8027915271048
 30
0.0
 10
141.486030802177
 20
127.8027915271048
 30
0.0
 10
141.486030802177
 20
127.8027915271048
 30
0.0
 10
146.3329388378533
 20
143.2092687007094
 30
0.0
 10
146.3329388378533
 20
143.2092687007094
 30
0.0
 10
146.8483254624444
 20
144.8408669988801
 30
0.0
 10
147.2314203331297
 20
146.1837661049335
 30
0.0
 10
147.4867020769946
 20
147.224185627838
 30
0.0
 10
147.9169947869641
 20
149.0197705792876
 30
0.0
 10
148.0306830129768
 20
150.2400242051577
 30
0.0
 10
147.709255392159
 20
151.3157559800812
 30
0.0
 10
147.3874832615654
 20
152.3916600098926
 30
0.0
 10
146.8245542879144
 20
152.6683013598569
 30
0.0
 10
145.8840425999909
 20
152.6683013598569
 30
0.0
 10
145.0989048209514
 20
152.6683013598569
 30
0.0
 10
144.3282364524954
 20
152.3275811915945
 30
0.0
 10
143.4531816219731
 20
151.6538923250251
 30
0.0
 10
142.34627171234
 20
150.8074318058939
 30
0.0
 10
141.901854101563
 20
150.1097995099067
 30
0.0
 10
141.3578731655808
 20
149.289521733736
 30
0.0
 10
140.6299240093235
 20
148.192602607601
 30
0.0
 10
140.2850697237515
 20
147.455696197173
 30
0.0
 10
139.6652966370942
 20
145.8385673095858
 30
0.0
 10
139.0506911970739
 20
144.2214384219986
 30
0.0
 10
138.463991048893
 20
142.3252566160164
 30
0.0
 10
138.0571250036777
 20
141.0154304484394
 30
0.0
 10
138.0571250036777
 20
141.0154304484394
 30
0.0
 10
133.9009590684727
 20
127.8027915271048
 30
0.0
 10
133.9009590684727
 20
127.8027915271048
 30
0.0
 10
133.9009590684727
 20
127.8027915271048
 30
0.0
 10
131.4180771143097
 20
127.8027915271048
 30
0.0
 10
131.4180771143097
 20
127.8027915271048
 30
0.0
 10
131.4180771143097
 20
127.8027915271048
 30
0.0
 10
139.8926730891197
 20
154.8294111834263
 30
0.0
 10
139.8926730891197
 20
154.8294111834263
 30
0.0
  0
HATCH
  5
3C4
330
3BD
100
AcDbEntity
  8
レイヤー 1
 62
   250
420
  2234388
100
AcDbHatch
 10
0.0
 20
0.0
 30
0.0
210
0.0
220
0.0
230
1.0
  2
SOLID
 70
     1
 71
     0
 91
        1
 92
        1
 93
        1
 72
     4
 94
        3
 73
     0
 74
     1
 95
      104
 96
      100
 40
0.0
 40
0.0
 40
0.0
 40
0.0
 40
1.0
 40
1.0
 40
1.0
 40
2.0
 40
2.0
 40
2.0
 40
3.0
 40
3.0
 40
3.0
 40
4.0
 40
4.0
 40
4.0
 40
5.0
 40
5.0
 40
5.0
 40
6.0
 40
6.0
 40
6.0
 40
7.0
 40
7.0
 40
7.0
 40
8.0
 40
8.0
 40
8.0
 40
9.0
 40
9.0
 40
9.0
 40
10.0
 40
10.0
 40
10.0
 40
11.0
 40
11.0
 40
11.0
 40
12.0
 40
12.0
 40
12.0
 40
13.0
 40
13.0
 40
13.0
 40
14.0
 40
14.0
 40
14.0
 40
15.0
 40
15.0
 40
15.0
 40
16.0
 40
16.0
 40
16.0
 40
17.0
 40
17.0
 40
17.0
 40
18.0
 40
18.0
 40
18.0
 40
19.0
 40
19.0
 40
19.0
 40
20.0
 40
20.0
 40
20.0
 40
21.0
 40
21.0
 40
21.0
 40
22.0
 40
22.0
 40
22.0
 40
23.0
 40
23.0
 40
23.0
 40
24.0
 40
24.0
 40
24.0
 40
25.0
 40
25.0
 40
25.0
 40
26.0
 40
26.0
 40
26.0
 40
27.0
 40
27.0
 40
27.0
 40
28.0
 40
28.0
 40
28.0
 40
29.0
 40
29.0
 40
29.0
 40
30.0
 40
30.0
 40
30.0
 40
31.0
 40
31.0
 40
31.0
 40
32.0
 40
32.0
 40
32.0
 40
33.0
 40
33.0
 40
33.0
 40
33.0
 10
139.8926730891197
 20
154.8294111834263
 10
139.8926730891197
 20
154.8294111834263
 10
142.0344903652445
 20
154.8294111834263
 10
142.0344903652445
 20
154.8294111834263
 10
142.0344903652445
 20
154.8294111834263
 10
140.9516961399171
 20
151.3157559800812
 10
140.9516961399171
 20
151.3157559800812
 10
141.8928968473923
 20
152.7887075264977
 10
142.7341897198865
 20
153.4484437471474
 10
143.8552245303272
 20
154.2926649527359
 10
144.9803934580775
 20
155.1296514530327
 10
146.3139908001845
 20
155.3044901642492
 10
147.241066606852
 20
155.3044901642492
 10
148.3855280820469
 20
155.3044901642492
 10
149.4969166187653
 20
155.0752189084569
 10
150.0784491203092
 20
153.8172414621372
 10
150.5228667310863
 20
152.833838307127
 10
150.5414702589793
 20
152.7201500811143
 10
150.4140016419347
 20
150.7765981809602
 10
151.5818897818837
 20
152.7699317437168
 10
152.4424752018226
 20
153.6256940267945
 10
153.9038856707499
 20
154.4507949398263
 10
155.4455669174378
 20
155.3044901642492
 10
156.339225275853
 20
155.3659851592288
 10
157.3748216618963
 20
155.2147453676543
 10
158.911679771723
 20
154.9877134254046
 10
159.8859534176746
 20
154.4390816074493
 10
160.3965169054045
 20
152.7816450760939
 10
160.9070803931344
 20
151.1219692311958
 10
160.6328506116007
 20
150.2303779314354
 10
159.9992971339115
 20
147.597634224801
 10
159.7105979417943
 20
146.4014962832367
 10
159.2947746424084
 20
144.9400858143094
 10
158.7463150793409
 20
143.2092687007094
 10
158.7463150793409
 20
143.2092687007094
 10
153.9038856707499
 20
127.8027915271048
 10
153.9038856707499
 20
127.8027915271048
 10
153.9038856707499
 20
127.8027915271048
 10
151.3882752878863
 20
127.8027915271048
 10
151.3882752878863
 20
127.8027915271048
 10
151.3882752878863
 20
127.8027915271048
 10
155.6250565106276
 20
141.2751908193897
 10
155.6250565106276
 20
141.2751908193897
 10
156.5094131050963
 20
144.0936252951782
 10
157.109893644309
 20
146.1506931664571
 10
157.4220195011804
 20
147.4415712963654
 10
157.8095929989511
 20
149.0530157726519
 10
157.9656559273867
 20
149.5826995529385
 10
157.7816877071116
 20
150.7529992613181
 10
157.6111553680925
 20
151.8430281919372
 10
157.0582171779396
 20
152.5547853887321
 10
156.1170164704645
 20
152.5547853887321
 10
155.1096698860365
 20
152.5547853887321
 10
154.2962823053817
 20
152.4412694176073
 10
153.156643967048
 20
151.2945686288697
 10
152.0170056287143
 20
150.1476955852443
 10
151.076149431015
 20
148.7930831468137
 10
150.3337308641742
 20
147.2290087646991
 10
149.5957909244188
 20
145.6683794803425
 10
148.8530278478023
 20
143.6822806228776
 10
148.0964843801539
 20
141.2751908193897
 10
148.0964843801539
 20
141.2751908193897
 10
143.8552245303272
 20
127.8027915271048
 10
143.8552245303272
 20
127.8027915271048
 10
143.8552245303272
 20
127.8027915271048
 10
141.486030802177
 20
127.8027915271048
 10
141.486030802177
 20
127.8027915271048
 10
141.486030802177
 20
127.8027915271048
 10
146.3329388378533
 20
143.2092687007094
 10
146.3329388378533
 20
143.2092687007094
 10
146.8483254624444
 20
144.8408669988801
 10
147.2314203331297
 20
146.1837661049335
 10
147.4867020769946
 20
147.224185627838
 10
147.9169947869641
 20
149.0197705792876
 10
148.0306830129768
 20
150.2400242051577
 10
147.709255392159
 20
151.3157559800812
 10
147.3874832615654
 20
152.3916600098926
 10
146.8245542879144
 20
152.6683013598569
 10
145.8840425999909
 20
152.6683013598569
 10
145.0989048209514
 20
152.6683013598569
 10
144.3282364524954
 20
152.3275811915945
 10
143.4531816219731
 20
151.6538923250251
 10
142.34627171234
 20
150.8074318058939
 10
141.901854101563
 20
150.1097995099067
 10
141.3578731655808
 20
149.289521733736
 10
140.6299240093235
 20
148.192602607601
 10
140.2850697237515
 20
147.455696197173
 10
139.6652966370942
 20
145.8385673095858
 10
139.0506911970739
 20
144.2214384219986
 10
138.463991048893
 20
142.3252566160164
 10
138.0571250036777
 20
141.0154304484394
 10
138.0571250036777
 20
141.0154304484394
 10
133.9009590684727
 20
127.8027915271048
 10
133.9009590684727
 20
127.8027915271048
 10
133.9009590684727
 20
127.8027915271048
 10
131.4180771143097
 20
127.8027915271048
 10
131.4180771143097
 20
127.8027915271048
 10
131.4180771143097
 20
127.8027915271048
 10
139.8926730891197
 20
154.8294111834263
 10
139.8926730891197
 20
154.8294111834263
 97
        0
 75
     2
 76
     1
 98
        0
  0
SPLINE
  5
3C5
330
3BD
100
AcDbEntity
  8
レイヤー 1
370
     0
100
AcDbSpline
210
0.0
220
0.0
230
1.0
 70
    11
 71
     3
 72
    29
 73
    25
 74
     0
 42
0.000000001
 43
0.0000000001
 40
0.0
 40
0.0
 40
0.0
 40
0.0
 40
1.0
 40
1.0
 40
1.0
 40
2.0
 40
2.0
 40
2.0
 40
3.0
 40
3.0
 40
3.0
 40
4.0
 40
4.0
 40
4.0
 40
5.0
 40
5.0
 40
5.0
 40
6.0
 40
6.0
 40
6.0
 40
7.0
 40
7.0
 40
7.0
 40
8.0
 40
8.0
 40
8.0
 40
8.0
 10
101.6420971922469
 20
132.8388354296931
 30
0.0
 10
101.630039350094
 20
134.7164137077823
 30
0.0
 10
102.2236296937908
 20
138.0598810818841
 30
0.0
 10
103.7487744712405
 20
142.5378191476827
 30
0.0
 10
105.819967243327
 20
148.5896501242061
 30
0.0
 10
107.0602024361932
 20
150.8074318058939
 30
0.0
 10
108.1522984254671
 20
151.8833358357054
 30
0.0
 10
109.741177511439
 20
153.4532668840085
 30
0.0
 10
111.8740375333931
 20
153.5290590346837
 30
0.0
 10
112.5075910110823
 20
153.4532668840085
 30
0.0
 10
113.4012493694975
 20
153.3490526768302
 30
0.0
 10
114.6683563248758
 20
152.7580461564518
 30
0.0
 10
114.7493161221879
 20
150.7838328862519
 30
0.0
 10
114.8106388622796
 20
149.0909118479895
 30
0.0
 10
114.3186789024427
 20
145.9191825971221
 30
0.0
 10
112.6164561002338
 20
140.9489400617108
 30
0.0
 10
110.6444821435766
 20
135.1746117095912
 30
0.0
 10
109.4669477299053
 20
132.8960240524753
 30
0.0
 10
108.5212683953448
 20
131.9072809959403
 30
0.0
 10
106.7346406980658
 20
130.0538184021569
 30
0.0
 10
104.8222669326213
 20
130.2336525051225
 30
0.0
 10
104.5408024457958
 20
130.2336525051225
 30
0.0
 10
104.1721769856939
 20
130.2336525051225
 30
0.0
 10
101.6465758193322
 20
130.6305277668397
 30
0.0
 10
101.6420971922469
 20
132.8388354296931
 30
0.0
  0
SPLINE
  5
3C6
330
3BD
100
AcDbEntity
  8
レイヤー 1
370
     0
100
AcDbSpline
210
0.0
220
0.0
230
1.0
 70
    11
 71
     3
 72
    32
 73
    28
 74
     0
 42
0.000000001
 43
0.0000000001
 40
0.0
 40
0.0
 40
0.0
 40
0.0
 40
1.0
 40
1.0
 40
1.0
 40
2.0
 40
2.0
 40
2.0
 40
3.0
 40
3.0
 40
3.0
 40
4.0
 40
4.0
 40
4.0
 40
5.0
 40
5.0
 40
5.0
 40
6.0
 40
6.0
 40
6.0
 40
7.0
 40
7.0
 40
7.0
 40
8.0
 40
8.0
 40
8.0
 40
9.0
 40
9.0
 40
9.0
 40
9.0
 10
106.2595617172429
 20
153.4105476718098
 30
0.0
 10
104.8222669326213
 20
151.5474388043041
 30
0.0
 10
103.7177685914188
 20
149.8758773721411
 30
0.0
 10
101.9232171692965
 20
144.6141795664062
 30
0.0
 10
100.2754269116635
 20
139.7999999594306
 30
0.0
 10
99.22777268346732
 20
136.3052927937542
 30
0.0
 10
99.06964269637689
 20
132.039572749846
 30
0.0
 10
98.94665270641765
 20
128.8673267343149
 30
0.0
 10
100.8807305877373
 20
127.8027915271048
 30
0.0
 10
103.7129454545577
 20
127.8027915271048
 30
0.0
 10
104.9352661390825
 20
127.8027915271048
 30
0.0
 10
108.0151835347002
 20
127.8827177950895
 30
0.0
 10
110.2045431598849
 20
130.5926316915021
 30
0.0
 10
111.7417457794874
 20
132.4984597712065
 30
0.0
 10
113.155269389579
 20
134.475256864725
 30
0.0
 10
115.0562743324223
 20
140.9489400617108
 30
0.0
 10
116.6361961642235
 20
146.3680788349845
 30
0.0
 10
117.7282921534974
 20
149.8639917848761
 30
0.0
 10
117.6480213757369
 20
151.8595646611754
 30
0.0
 10
117.6480213757369
 20
151.8595646611754
 30
0.0
 10
117.6480213757369
 20
151.8595646611754
 30
0.0
 10
117.6480213757369
 20
151.8595646611754
 30
0.0
 10
117.13229024137
 20
155.18150017429
 30
0.0
 10
114.7162431837115
 20
155.886194920681
 30
0.0
 10
113.3351034925446
 20
155.886194920681
 30
0.0
 10
111.9829026225447
 20
155.886194920681
 30
0.0
 10
108.3414342923792
 20
156.1251124501957
 30
0.0
 10
106.2595617172429
 20
153.4105476718098
 30
0.0
  0
HATCH
  5
3C7
330
3BD
100
AcDbEntity
  8
レイヤー 1
 62
   250
420
  2234388
100
AcDbHatch
 10
0.0
 20
0.0
 30
0.0
210
0.0
220
0.0
230
1.0
  2
SOLID
 70
     1
 71
     0
 91
        2
 92
        1
 93
        1
 72
     4
 94
        3
 73
     0
 74
     1
 95
       29
 96
       25
 40
0.0
 40
0.0
 40
0.0
 40
0.0
 40
1.0
 40
1.0
 40
1.0
 40
2.0
 40
2.0
 40
2.0
 40
3.0
 40
3.0
 40
3.0
 40
4.0
 40
4.0
 40
4.0
 40
5.0
 40
5.0
 40
5.0
 40
6.0
 40
6.0
 40
6.0
 40
7.0
 40
7.0
 40
7.0
 40
8.0
 40
8.0
 40
8.0
 40
8.0
 10
101.6420971922469
 20
132.8388354296931
 10
101.630039350094
 20
134.7164137077823
 10
102.2236296937908
 20
138.0598810818841
 10
103.7487744712405
 20
142.5378191476827
 10
105.819967243327
 20
148.5896501242061
 10
107.0602024361932
 20
150.8074318058939
 10
108.1522984254671
 20
151.8833358357054
 10
109.741177511439
 20
153.4532668840085
 10
111.8740375333931
 20
153.5290590346837
 10
112.5075910110823
 20
153.4532668840085
 10
113.4012493694975
 20
153.3490526768302
 10
114.6683563248758
 20
152.7580461564518
 10
114.7493161221879
 20
150.7838328862519
 10
114.8106388622796
 20
149.0909118479895
 10
114.3186789024427
 20
145.9191825971221
 10
112.6164561002338
 20
140.9489400617108
 10
110.6444821435766
 20
135.1746117095912
 10
109.4669477299053
 20
132.8960240524753
 10
108.5212683953448
 20
131.9072809959403
 10
106.7346406980658
 20
130.0538184021569
 10
104.8222669326213
 20
130.2336525051225
 10
104.5408024457958
 20
130.2336525051225
 10
104.1721769856939
 20
130.2336525051225
 10
101.6465758193322
 20
130.6305277668397
 10
101.6420971922469
 20
132.8388354296931
 97
        0
 92
        1
 93
        1
 72
     4
 94
        3
 73
     0
 74
     1
 95
       32
 96
       28
 40
0.0
 40
0.0
 40
0.0
 40
0.0
 40
1.0
 40
1.0
 40
1.0
 40
2.0
 40
2.0
 40
2.0
 40
3.0
 40
3.0
 40
3.0
 40
4.0
 40
4.0
 40
4.0
 40
5.0
 40
5.0
 40
5.0
 40
6.0
 40
6.0
 40
6.0
 40
7.0
 40
7.0
 40
7.0
 40
8.0
 40
8.0
 40
8.0
 40
9.0
 40
9.0
 40
9.0
 40
9.0
 10
106.2595617172429
 20
153.4105476718098
 10
104.8222669326213
 20
151.5474388043041
 10
103.7177685914188
 20
149.8758773721411
 10
101.9232171692965
 20
144.6141795664062
 10
100.2754269116635
 20
139.7999999594306
 10
99.22777268346732
 20
136.3052927937542
 10
99.06964269637689
 20
132.039572749846
 10
98.94665270641765
 20
128.8673267343149
 10
100.8807305877373
 20
127.8027915271048
 10
103.7129454545577
 20
127.8027915271048
 10
104.9352661390825
 20
127.8027915271048
 10
108.0151835347002
 20
127.8827177950895
 10
110.2045431598849
 20
130.5926316915021
 10
111.7417457794874
 20
132.4984597712065
 10
113.155269389579
 20
134.475256864725
 10
115.0562743324223
 20
140.9489400617108
 10
116.6361961642235
 20
146.3680788349845
 10
117.7282921534974
 20
149.8639917848761
 10
117.6480213757369
 20
151.8595646611754
 10
117.6480213757369
 20
151.8595646611754
 10
117.6480213757369
 20
151.8595646611754
 10
117.6480213757369
 20
151.8595646611754
 10
117.13229024137
 20
155.18150017429
 10
114.7162431837115
 20
155.886194920681
 10
113.3351034925446
 20
155.886194920681
 10
111.9829026225447
 20
155.886194920681
 10
108.3414342923792
 20
156.1251124501957
 10
106.2595617172429
 20
153.4105476718098
 97
        0
 75
     2
 76
     1
 98
        0
  0
ENDBLK
  5
3C8
330
3BD
100
AcDbEntity
  8
0
100
AcDbBlockEnd
  0
BLOCK
  5
3B6F
330
3B6E
100
AcDbEntity
  8
0
100
AcDbBlockBegin
  2
*D7
 70
     1
 10
0.0
 20
0.0
 30
0.0
  3
*D7
  1
*D82
  0
LINE
  5
3B71
330
3B6E
100
AcDbEntity
  8
Dim
  6
Continuous
 62
     0
370
    -2
100
AcDbLine
 10
2545.073252769327
 20
960.1248001924378
 30
0.0
 11
2545.073252769327
 21
1030.658398309192
 31
0.0
  0
LINE
  5
3B72
330
3B6E
100
AcDbEntity
  8
Dim
  6
Continuous
 62
     0
370
    -2
100
AcDbLine
 10
2784.974093505051
 20
955.0683832879072
 30
0.0
 11
2784.974093505051
 21
1030.658398309192
 31
0.0
  0
LINE
  5
3B73
330
3B6E
100
AcDbEntity
  8
Dim
  6
Continuous
 62
     0
370
    -2
100
AcDbLine
 10
2554.073252769327
 20
1030.658398309192
 30
0.0
 11
2775.974093505051
 21
1030.658398309192
 31
0.0
  0
INSERT
  5
3B74
330
3B6E
100
AcDbEntity
  8
Dim
 62
     0
370
    -2
100
AcDbBlockReference
  2
_DOT
 10
2545.073252769327
 20
1030.658398309192
 30
0.0
 41
9.0
 42
9.0
 43
9.0
 50
180.0
  0
INSERT
  5
3B75
330
3B6E
100
AcDbEntity
  8
Dim
 62
     0
370
    -2
100
AcDbBlockReference
  2
_DOT
 10
2784.974093505051
 20
1030.658398309192
 30
0.0
 41
9.0
 42
9.0
 43
9.0
  0
MTEXT
  5
3B76
330
3B6E
100
AcDbEntity
  8
Dim
  6
Continuous
 62
     0
370
     0
100
AcDbMText
 10
2665.023673137189
 20
1052.874706902942
 30
0.0
 40
24.4326171875
 41
0.0
 46
0.0
 71
     5
 72
     1
  1
\A1;240
  7
ＭＳ ゴシック
 73
     1
 44
1.0
  0
POINT
  5
3B77
330
3B6E
100
AcDbEntity
  8
Defpoints
 62
     0
100
AcDbPoint
 10
2545.073252769327
 20
935.1248001924378
 30
0.0
  0
POINT
  5
3B78
330
3B6E
100
AcDbEntity
  8
Defpoints
 62
     0
100
AcDbPoint
 10
2784.974093505051
 20
930.0683832879072
 30
0.0
  0
POINT
  5
3B79
330
3B6E
100
AcDbEntity
  8
Defpoints
 62
     0
100
AcDbPoint
 10
2784.974093505051
 20
1030.658398309192
 30
0.0
  0
ENDBLK
  5
3B70
330
3B6E
100
AcDbEntity
  8
0
100
AcDbBlockEnd
  0
BLOCK
  5
3B7E
330
3B7D
100
AcDbEntity
  8
0
100
AcDbBlockBegin
  2
*D8
 70
     1
 10
0.0
 20
0.0
 30
0.0
  3
*D8
  1
*D83
  0
LINE
  5
3B80
330
3B7D
100
AcDbEntity
  8
Dim
  6
Continuous
 62
     0
370
    -2
100
AcDbLine
 10
2693.43151093701
 20
805.1704840789484
 30
0.0
 11
3068.955233298389
 21
805.1704840789484
 31
0.0
  0
LINE
  5
3B81
330
3B7D
100
AcDbEntity
  8
Dim
  6
Continuous
 62
     0
370
    -2
100
AcDbLine
 10
2931.991586093602
 20
985.1589871304254
 30
0.0
 11
3068.955233298389
 21
985.1589871304254
 31
0.0
  0
LINE
  5
3B82
330
3B7D
100
AcDbEntity
  8
Dim
  6
Continuous
 62
     0
370
    -2
100
AcDbLine
 10
3068.955233298389
 20
814.1704840789484
 30
0.0
 11
3068.955233298389
 21
976.1589871304254
 31
0.0
  0
INSERT
  5
3B83
330
3B7D
100
AcDbEntity
  8
Dim
 62
     0
370
    -2
100
AcDbBlockReference
  2
_DOT
 10
3068.955233298389
 20
805.1704840789484
 30
0.0
 41
9.0
 42
9.0
 43
9.0
 50
270.0
  0
INSERT
  5
3B84
330
3B7D
100
AcDbEntity
  8
Dim
 62
     0
370
    -2
100
AcDbBlockReference
  2
_DOT
 10
3068.955233298389
 20
985.1589871304254
 30
0.0
 41
9.0
 42
9.0
 43
9.0
 50
90.0
  0
MTEXT
  5
3B85
330
3B7D
100
AcDbEntity
  8
Dim
  6
Continuous
 62
     0
370
     0
100
AcDbMText
 10
3046.738924704639
 20
895.1647356046869
 30
0.0
 40
24.4326171875
 41
0.0
 46
0.0
 71
     5
 72
     1
  1
\A1;180
  7
ＭＳ ゴシック
 11
0.0
 21
1.0
 31
0.0
 73
     1
 44
1.0
  0
POINT
  5
3B86
330
3B7D
100
AcDbEntity
  8
Defpoints
 62
     0
100
AcDbPoint
 10
2668.43151093701
 20
805.1704840789484
 30
0.0
  0
POINT
  5
3B87
330
3B7D
100
AcDbEntity
  8
Defpoints
 62
     0
100
AcDbPoint
 10
2906.991586093602
 20
985.1589871304254
 30
0.0
  0
POINT
  5
3B88
330
3B7D
100
AcDbEntity
  8
Defpoints
 62
     0
100
AcDbPoint
 10
3068.955233298389
 20
985.1589871304254
 30
0.0
  0
ENDBLK
  5
3B7F
330
3B7D
100
AcDbEntity
  8
0
100
AcDbBlockEnd
  0
BLOCK
  5
3B9C
330
3B9B
100
AcDbEntity
  8
0
100
AcDbBlockBegin
  2
*D9
 70
     1
 10
0.0
 20
0.0
 30
0.0
  3
*D9
  1
*D85
  0
LINE
  5
3B9E
330
3B9B
100
AcDbEntity
  8
Dim
  6
Continuous
 62
     0
370
    -2
100
AcDbLine
 10
2520.073252769328
 20
930.0683832879072
 30
0.0
 11
2376.619106874173
 21
930.0683832879072
 31
0.0
  0
LINE
  5
3B9F
330
3B9B
100
AcDbEntity
  8
Dim
  6
Continuous
 62
     0
370
    -2
100
AcDbLine
 10
2399.939110591191
 20
985.1248001924378
 30
0.0
 11
2376.619106874173
 21
985.1248001924378
 31
0.0
  0
LINE
  5
3BA0
330
3B9B
100
AcDbEntity
  8
Dim
  6
Continuous
 62
     0
370
    -2
100
AcDbLine
 10
2376.619106874173
 20
939.0683832879072
 30
0.0
 11
2376.619106874173
 21
976.1248001924378
 31
0.0
  0
INSERT
  5
3BA1
330
3B9B
100
AcDbEntity
  8
Dim
 62
     0
370
    -2
100
AcDbBlockReference
  2
_DOT
 10
2376.619106874173
 20
930.0683832879072
 30
0.0
 41
9.0
 42
9.0
 43
9.0
 50
270.0
  0
INSERT
  5
3BA2
330
3B9B
100
AcDbEntity
  8
Dim
 62
     0
370
    -2
100
AcDbBlockReference
  2
_DOT
 10
2376.619106874173
 20
985.1248001924378
 30
0.0
 41
9.0
 42
9.0
 43
9.0
 50
90.0
  0
MTEXT
  5
3BA3
330
3B9B
100
AcDbEntity
  8
Dim
  6
Continuous
 62
     0
370
     0
100
AcDbMText
 10
2354.402798280423
 20
957.5965917401725
 30
0.0
 40
24.4326171875
 41
0.0
 46
0.0
 71
     5
 72
     1
  1
\A1;55
  7
ＭＳ ゴシック
 11
0.0
 21
1.0
 31
0.0
 73
     1
 44
1.0
  0
POINT
  5
3BA4
330
3B9B
100
AcDbEntity
  8
Defpoints
 62
     0
100
AcDbPoint
 10
2545.073252769328
 20
930.0683832879072
 30
0.0
  0
POINT
  5
3BA5
330
3B9B
100
AcDbEntity
  8
Defpoints
 62
     0
100
AcDbPoint
 10
2424.939110591191
 20
985.1248001924378
 30
0.0
  0
POINT
  5
3BA6
330
3B9B
100
AcDbEntity
  8
Defpoints
 62
     0
100
AcDbPoint
 10
2376.619106874173
 20
985.1248001924378
 30
0.0
  0
ENDBLK
  5
3B9D
330
3B9B
100
AcDbEntity
  8
0
100
AcDbBlockEnd
  0
BLOCK
  5
3BB1
330
3BB0
100
AcDbEntity
  8
0
100
AcDbBlockBegin
  2
*D10
 70
     1
 10
0.0
 20
0.0
 30
0.0
  3
*D10
  1
*D86
  0
LINE
  5
3BB3
330
3BB0
100
AcDbEntity
  8
Dim
  6
Continuous
 62
     0
370
    -2
100
AcDbLine
 10
3441.80782158181
 20
830.1704848854456
 30
0.0
 11
3340.369524906182
 21
830.1704848854456
 31
0.0
  0
LINE
  5
3BB4
330
3BB0
100
AcDbEntity
  8
Dim
  6
Continuous
 62
     0
370
    -2
100
AcDbLine
 10
3384.242418217296
 20
985.0097327842868
 30
0.0
 11
3340.369524906182
 21
985.0097327842868
 31
0.0
  0
LINE
  5
3BB5
330
3BB0
100
AcDbEntity
  8
Dim
  6
Continuous
 62
     0
370
    -2
100
AcDbLine
 10
3340.369524906182
 20
839.1704848854456
 30
0.0
 11
3340.369524906182
 21
976.0097327842868
 31
0.0
  0
INSERT
  5
3BB6
330
3BB0
100
AcDbEntity
  8
Dim
 62
     0
370
    -2
100
AcDbBlockReference
  2
_DOT
 10
3340.369524906182
 20
830.1704848854456
 30
0.0
 41
9.0
 42
9.0
 43
9.0
 50
270.0
  0
INSERT
  5
3BB7
330
3BB0
100
AcDbEntity
  8
Dim
 62
     0
370
    -2
100
AcDbBlockReference
  2
_DOT
 10
3340.369524906182
 20
985.0097327842868
 30
0.0
 41
9.0
 42
9.0
 43
9.0
 50
90.0
  0
MTEXT
  5
3BB8
330
3BB0
100
AcDbEntity
  8
Dim
  6
Continuous
 62
     0
370
     0
100
AcDbMText
 10
3318.153216312432
 20
907.5901088348662
 30
0.0
 40
24.4326171875
 41
0.0
 46
0.0
 71
     5
 72
     1
  1
\A1;155
  7
ＭＳ ゴシック
 11
0.0
 21
1.0
 31
0.0
 73
     1
 44
1.0
  0
POINT
  5
3BB9
330
3BB0
100
AcDbEntity
  8
Defpoints
 62
     0
100
AcDbPoint
 10
3466.80782158181
 20
830.1704848854456
 30
0.0
  0
POINT
  5
3BBA
330
3BB0
100
AcDbEntity
  8
Defpoints
 62
     0
100
AcDbPoint
 10
3409.242418217296
 20
985.0097327842868
 30
0.0
  0
POINT
  5
3BBB
330
3BB0
100
AcDbEntity
  8
Defpoints
 62
     0
100
AcDbPoint
 10
3340.369524906182
 20
985.0097327842868
 30
0.0
  0
ENDBLK
  5
3BB2
330
3BB0
100
AcDbEntity
  8
0
100
AcDbBlockEnd
  0
BLOCK
  5
3BC4
330
3BC3
100
AcDbEntity
  8
0
100
AcDbBlockBegin
  2
*D11
 70
     1
 10
0.0
 20
0.0
 30
0.0
  3
*D11
  1
*D87
  0
LINE
  5
3BC6
330
3BC3
100
AcDbEntity
  8
Dim
  6
Continuous
 62
     0
370
    -2
100
AcDbLine
 10
2659.787809403699
 20
2257.429001461474
 30
0.0
 11
2659.787809403699
 21
2380.877729177601
 31
0.0
  0
LINE
  5
3BC7
330
3BC3
100
AcDbEntity
  8
Dim
  6
Continuous
 62
     0
370
    -2
100
AcDbLine
 10
2559.787809403699
 20
2247.429011518177
 30
0.0
 11
2559.787809403699
 21
2380.877729177601
 31
0.0
  0
LINE
  5
3BC8
330
3BC3
100
AcDbEntity
  8
Dim
  6
Continuous
 62
     0
370
    -2
100
AcDbLine
 10
2650.787809403699
 20
2380.877729177601
 30
0.0
 11
2568.787809403699
 21
2380.877729177601
 31
0.0
  0
INSERT
  5
3BC9
330
3BC3
100
AcDbEntity
  8
Dim
 62
     0
370
    -2
100
AcDbBlockReference
  2
_DOT
 10
2659.787809403699
 20
2380.877729177601
 30
0.0
 41
9.0
 42
9.0
 43
9.0
  0
INSERT
  5
3BCA
330
3BC3
100
AcDbEntity
  8
Dim
 62
     0
370
    -2
100
AcDbBlockReference
  2
_DOT
 10
2559.787809403699
 20
2380.877729177601
 30
0.0
 41
9.0
 42
9.0
 43
9.0
 50
180.0
  0
MTEXT
  5
3BCB
330
3BC3
100
AcDbEntity
  8
Dim
  6
Continuous
 62
     0
370
     0
100
AcDbMText
 10
2609.787809403699
 20
2403.094037771351
 30
0.0
 40
24.4326171875
 41
0.0
 46
0.0
 71
     5
 72
     1
  1
\A1;100
  7
ＭＳ ゴシック
 73
     1
 44
1.0
  0
POINT
  5
3BCC
330
3BC3
100
AcDbEntity
  8
Defpoints
 62
     0
100
AcDbPoint
 10
2659.787809403699
 20
2232.429001461474
 30
0.0
  0
POINT
  5
3BCD
330
3BC3
100
AcDbEntity
  8
Defpoints
 62
     0
100
AcDbPoint
 10
2559.787809403699
 20
2222.429011518177
 30
0.0
  0
POINT
  5
3BCE
330
3BC3
100
AcDbEntity
  8
Defpoints
 62
     0
100
AcDbPoint
 10
2559.787809403699
 20
2380.877729177601
 30
0.0
  0
ENDBLK
  5
3BC5
330
3BC3
100
AcDbEntity
  8
0
100
AcDbBlockEnd
  0
BLOCK
  5
3BD1
330
3BD0
100
AcDbEntity
  8
0
100
AcDbBlockBegin
  2
*D12
 70
     1
 10
0.0
 20
0.0
 30
0.0
  3
*D12
  1
*D88
  0
LINE
  5
3BD3
330
3BD0
100
AcDbEntity
  8
Dim
  6
Continuous
 62
     0
370
    -2
100
AcDbLine
 10
2659.787809403699
 20
2257.429001461474
 30
0.0
 11
2659.787809403699
 21
2380.877729177601
 31
0.0
  0
LINE
  5
3BD4
330
3BD0
100
AcDbEntity
  8
Dim
  6
Continuous
 62
     0
370
    -2
100
AcDbLine
 10
2759.787809403699
 20
2247.429011518177
 30
0.0
 11
2759.787809403699
 21
2380.877729177601
 31
0.0
  0
LINE
  5
3BD5
330
3BD0
100
AcDbEntity
  8
Dim
  6
Continuous
 62
     0
370
    -2
100
AcDbLine
 10
2668.787809403699
 20
2380.877729177601
 30
0.0
 11
2750.787809403699
 21
2380.877729177601
 31
0.0
  0
INSERT
  5
3BD6
330
3BD0
100
AcDbEntity
  8
Dim
 62
     0
370
    -2
100
AcDbBlockReference
  2
_DOT
 10
2659.787809403699
 20
2380.877729177601
 30
0.0
 41
9.0
 42
9.0
 43
9.0
 50
180.0
  0
INSERT
  5
3BD7
330
3BD0
100
AcDbEntity
  8
Dim
 62
     0
370
    -2
100
AcDbBlockReference
  2
_DOT
 10
2759.787809403699
 20
2380.877729177601
 30
0.0
 41
9.0
 42
9.0
 43
9.0
  0
MTEXT
  5
3BD8
330
3BD0
100
AcDbEntity
  8
Dim
  6
Continuous
 62
     0
370
     0
100
AcDbMText
 10
2709.787809403699
 20
2403.094037771351
 30
0.0
 40
24.4326171875
 41
0.0
 46
0.0
 71
     5
 72
     1
  1
\A1;100
  7
ＭＳ ゴシック
 73
     1
 44
1.0
  0
POINT
  5
3BD9
330
3BD0
100
AcDbEntity
  8
Defpoints
 62
     0
100
AcDbPoint
 10
2659.787809403699
 20
2232.429001461474
 30
0.0
  0
POINT
  5
3BDA
330
3BD0
100
AcDbEntity
  8
Defpoints
 62
     0
100
AcDbPoint
 10
2759.787809403699
 20
2222.429011518177
 30
0.0
  0
POINT
  5
3BDB
330
3BD0
100
AcDbEntity
  8
Defpoints
 62
     0
100
AcDbPoint
 10
2759.787809403699
 20
2380.877729177601
 30
0.0
  0
ENDBLK
  5
3BD2
330
3BD0
100
AcDbEntity
  8
0
100
AcDbBlockEnd
  0
BLOCK
  5
3C39
330
3C38
100
AcDbEntity
  8
0
100
AcDbBlockBegin
  2
*D13
 70
     1
 10
0.0
 20
0.0
 30
0.0
  3
*D13
  1
*D91
  0
LINE
  5
3C3B
330
3C38
100
AcDbEntity
  8
Dim
  6
Continuous
 62
     0
370
    -2
100
AcDbLine
 10
3855.881165710382
 20
1010.864816939938
 30
0.0
 11
3855.881165710382
 21
1083.512322402838
 31
0.0
  0
LINE
  5
3C3C
330
3C38
100
AcDbEntity
  8
Dim
  6
Continuous
 62
     0
370
    -2
100
AcDbLine
 10
3795.881165710382
 20
1010.864816939938
 30
0.0
 11
3795.881165710382
 21
1083.512322402838
 31
0.0
  0
LINE
  5
3C3D
330
3C38
100
AcDbEntity
  8
Dim
  6
Continuous
 62
     0
370
    -2
100
AcDbLine
 10
3846.881165710382
 20
1083.512322402838
 30
0.0
 11
3804.881165710382
 21
1083.512322402838
 31
0.0
  0
INSERT
  5
3C3E
330
3C38
100
AcDbEntity
  8
Dim
 62
     0
370
    -2
100
AcDbBlockReference
  2
_DOT
 10
3855.881165710382
 20
1083.512322402838
 30
0.0
 41
9.0
 42
9.0
 43
9.0
  0
INSERT
  5
3C3F
330
3C38
100
AcDbEntity
  8
Dim
 62
     0
370
    -2
100
AcDbBlockReference
  2
_DOT
 10
3795.881165710382
 20
1083.512322402838
 30
0.0
 41
9.0
 42
9.0
 43
9.0
 50
180.0
  0
MTEXT
  5
3C40
330
3C38
100
AcDbEntity
  8
Dim
  6
Continuous
 62
     0
370
     0
100
AcDbMText
 10
3825.881165710382
 20
1105.728630996588
 30
0.0
 40
24.4326171875
 41
0.0
 46
0.0
 71
     5
 72
     1
  1
\A1;60
  7
ＭＳ ゴシック
 73
     1
 44
1.0
  0
POINT
  5
3C41
330
3C38
100
AcDbEntity
  8
Defpoints
 62
     0
100
AcDbPoint
 10
3855.881165710382
 20
985.8648169399376
 30
0.0
  0
POINT
  5
3C42
330
3C38
100
AcDbEntity
  8
Defpoints
 62
     0
100
AcDbPoint
 10
3795.881165710382
 20
985.8648169399376
 30
0.0
  0
POINT
  5
3C43
330
3C38
100
AcDbEntity
  8
Defpoints
 62
     0
100
AcDbPoint
 10
3795.881165710382
 20
1083.512322402838
 30
0.0
  0
ENDBLK
  5
3C3A
330
3C38
100
AcDbEntity
  8
0
100
AcDbBlockEnd
  0
BLOCK
  5
3C7A
330
3C79
100
AcDbEntity
  8
0
100
AcDbBlockBegin
  2
*D14
 70
     1
 10
0.0
 20
0.0
 30
0.0
  3
*D14
  1
*D93
  0
LINE
  5
3C7C
330
3C79
100
AcDbEntity
  8
Dim
  6
Continuous
 62
     0
370
    -2
100
AcDbLine
 10
2900.336995297071
 20
2292.429031925185
 30
0.0
 11
3080.248481350522
 21
2292.429031925185
 31
0.0
  0
LINE
  5
3C7D
330
3C79
100
AcDbEntity
  8
Dim
  6
Continuous
 62
     0
370
    -2
100
AcDbLine
 10
2907.516895861553
 20
1852.577667020429
 30
0.0
 11
3080.248481350522
 21
1852.577667020429
 31
0.0
  0
LINE
  5
3C7E
330
3C79
100
AcDbEntity
  8
Dim
  6
Continuous
 62
     0
370
    -2
100
AcDbLine
 10
3080.248481350522
 20
2283.429031925185
 30
0.0
 11
3080.248481350522
 21
1861.577667020429
 31
0.0
  0
INSERT
  5
3C7F
330
3C79
100
AcDbEntity
  8
Dim
 62
     0
370
    -2
100
AcDbBlockReference
  2
_DOT
 10
3080.248481350522
 20
2292.429031925185
 30
0.0
 41
9.0
 42
9.0
 43
9.0
 50
90.0
  0
INSERT
  5
3C80
330
3C79
100
AcDbEntity
  8
Dim
 62
     0
370
    -2
100
AcDbBlockReference
  2
_DOT
 10
3080.248481350522
 20
1852.577667020429
 30
0.0
 41
9.0
 42
9.0
 43
9.0
 50
270.0
  0
MTEXT
  5
3C81
330
3C79
100
AcDbEntity
  8
Dim
  6
Continuous
 62
     0
370
     0
100
AcDbMText
 10
3058.032172756772
 20
2072.503356283038
 30
0.0
 40
24.4326171875
 41
0.0
 46
0.0
 71
     5
 72
     1
  1
\A1;440
  7
ＭＳ ゴシック
 11
0.0
 21
1.0
 31
0.0
 73
     1
 44
1.0
  0
POINT
  5
3C82
330
3C79
100
AcDbEntity
  8
Defpoints
 62
     0
100
AcDbPoint
 10
2875.336995297071
 20
2292.429031925185
 30
0.0
  0
POINT
  5
3C83
330
3C79
100
AcDbEntity
  8
Defpoints
 62
     0
100
AcDbPoint
 10
2882.516895861553
 20
1852.577667020429
 30
0.0
  0
POINT
  5
3C84
330
3C79
100
AcDbEntity
  8
Defpoints
 62
     0
100
AcDbPoint
 10
3080.248481350522
 20
1852.577667020429
 30
0.0
  0
ENDBLK
  5
3C7B
330
3C79
100
AcDbEntity
  8
0
100
AcDbBlockEnd
  0
BLOCK
  5
3C89
330
3C88
100
AcDbEntity
  8
0
100
AcDbBlockBegin
  2
*D15
 70
     1
 10
0.0
 20
0.0
 30
0.0
  3
*D15
  1
*D94
  0
LINE
  5
3C8B
330
3C88
100
AcDbEntity
  8
Dim
  6
Continuous
 62
     0
370
    -2
100
AcDbLine
 10
2410.037435797313
 20
2114.121369809323
 30
0.0
 11
2410.037435797313
 21
2470.294690721189
 31
0.0
  0
LINE
  5
3C8C
330
3C88
100
AcDbEntity
  8
Dim
  6
Continuous
 62
     0
370
    -2
100
AcDbLine
 10
2909.534530216444
 20
2114.121369809323
 30
0.0
 11
2909.534530216444
 21
2470.294690721189
 31
0.0
  0
LINE
  5
3C8D
330
3C88
100
AcDbEntity
  8
Dim
  6
Continuous
 62
     0
370
    -2
100
AcDbLine
 10
2419.037435797313
 20
2470.294690721189
 30
0.0
 11
2900.534530216444
 21
2470.294690721189
 31
0.0
  0
INSERT
  5
3C8E
330
3C88
100
AcDbEntity
  8
Dim
 62
     0
370
    -2
100
AcDbBlockReference
  2
_DOT
 10
2410.037435797313
 20
2470.294690721189
 30
0.0
 41
9.0
 42
9.0
 43
9.0
 50
180.0
  0
INSERT
  5
3C8F
330
3C88
100
AcDbEntity
  8
Dim
 62
     0
370
    -2
100
AcDbBlockReference
  2
_DOT
 10
2909.534530216444
 20
2470.294690721189
 30
0.0
 41
9.0
 42
9.0
 43
9.0
  0
MTEXT
  5
3C90
330
3C88
100
AcDbEntity
  8
Dim
  6
Continuous
 62
     0
370
     0
100
AcDbMText
 10
2659.785983006879
 20
2492.510999314939
 30
0.0
 40
24.4326171875
 41
0.0
 46
0.0
 71
     5
 72
     1
  1
\A1;500
  7
ＭＳ ゴシック
 73
     1
 44
1.0
  0
POINT
  5
3C91
330
3C88
100
AcDbEntity
  8
Defpoints
 62
     0
100
AcDbPoint
 10
2410.037435797313
 20
2089.121369809323
 30
0.0
  0
POINT
  5
3C92
330
3C88
100
AcDbEntity
  8
Defpoints
 62
     0
100
AcDbPoint
 10
2909.534530216444
 20
2089.121369809323
 30
0.0
  0
POINT
  5
3C93
330
3C88
100
AcDbEntity
  8
Defpoints
 62
     0
100
AcDbPoint
 10
2909.534530216444
 20
2470.294690721189
 30
0.0
  0
ENDBLK
  5
3C8A
330
3C88
100
AcDbEntity
  8
0
100
AcDbBlockEnd
  0
BLOCK
  5
3CA2
330
3CA1
100
AcDbEntity
  8
0
100
AcDbBlockBegin
  2
*D16
 70
     1
 10
0.0
 20
0.0
 30
0.0
  3
*D16
  1
*D95
  0
LINE
  5
3CA4
330
3CA1
100
AcDbEntity
  8
Dim
  6
Continuous
 62
     0
370
    -2
100
AcDbLine
 10
3613.851683573612
 20
985.8648287897449
 30
0.0
 11
3638.851683573612
 21
985.8648287897449
 31
0.0
  0
LINE
  5
3CA5
330
3CA1
100
AcDbEntity
  8
Dim
  6
Continuous
 62
     0
370
    -2
100
AcDbLine
 10
3613.851683573612
 20
850.8648287897449
 30
0.0
 11
3638.851683573612
 21
850.8648287897449
 31
0.0
  0
LINE
  5
3CA6
330
3CA1
100
AcDbEntity
  8
Dim
  6
Continuous
 62
     0
370
    -2
100
AcDbLine
 10
3638.851683573612
 20
985.8648287897449
 30
0.0
 11
3638.851683573612
 21
1156.24074871162
 31
0.0
  0
INSERT
  5
3CA7
330
3CA1
100
AcDbEntity
  8
Dim
 62
     0
370
    -2
100
AcDbBlockReference
  2
_DOT
 10
3638.851683573612
 20
985.8648287897449
 30
0.0
 41
9.0
 42
9.0
 43
9.0
 50
90.0
  0
INSERT
  5
3CA8
330
3CA1
100
AcDbEntity
  8
Dim
 62
     0
370
    -2
100
AcDbBlockReference
  2
_DOT
 10
3638.851683573612
 20
850.8648287897449
 30
0.0
 41
9.0
 42
9.0
 43
9.0
 50
270.0
  0
MTEXT
  5
3CA9
330
3CA1
100
AcDbEntity
  8
Dim
  6
Continuous
 62
     0
370
     0
100
AcDbMText
 10
3614.473088358768
 20
1080.052788750682
 30
0.0
 40
24.4326171875
 41
0.0
 46
0.0
 71
     5
 72
     1
  1
\A1;135(深さ)
  7
ＭＳ ゴシック
 11
0.0
 21
1.0
 31
0.0
 73
     1
 44
1.0
  0
POINT
  5
3CAA
330
3CA1
100
AcDbEntity
  8
Defpoints
 62
     0
100
AcDbPoint
 10
3638.851683573612
 20
985.8648287897449
 30
0.0
  0
POINT
  5
3CAB
330
3CA1
100
AcDbEntity
  8
Defpoints
 62
     0
100
AcDbPoint
 10
3638.851683573612
 20
850.8648287897449
 30
0.0
  0
POINT
  5
3CAC
330
3CA1
100
AcDbEntity
  8
Defpoints
 62
     0
100
AcDbPoint
 10
3638.851683573612
 20
850.8648287897449
 30
0.0
  0
ENDBLK
  5
3CA3
330
3CA1
100
AcDbEntity
  8
0
100
AcDbBlockEnd
  0
BLOCK
  5
3F36
330
3F35
100
AcDbEntity
  8
0
100
AcDbBlockBegin
  2
*D17
 70
     1
 10
0.0
 20
0.0
 30
0.0
  3
*D17
  1
*D105
  0
LINE
  5
3F38
330
3F35
100
AcDbEntity
  8
Dim
  6
Continuous
 62
     0
370
    -2
100
AcDbLine
 10
2434.936978971625
 20
2010.109506413246
 30
0.0
 11
2434.936978971625
 21
1789.126745703904
 31
0.0
  0
LINE
  5
3F39
330
3F35
100
AcDbEntity
  8
Dim
  6
Continuous
 62
     0
370
    -2
100
AcDbLine
 10
2884.450008358116
 20
2010.109506413246
 30
0.0
 11
2884.450008358116
 21
1789.126745703904
 31
0.0
  0
LINE
  5
3F3A
330
3F35
100
AcDbEntity
  8
Dim
  6
Continuous
 62
     0
370
    -2
100
AcDbLine
 10
2443.936978971625
 20
1789.126745703904
 30
0.0
 11
2875.450008358116
 21
1789.126745703904
 31
0.0
  0
INSERT
  5
3F3B
330
3F35
100
AcDbEntity
  8
Dim
 62
     0
370
    -2
100
AcDbBlockReference
  2
_DOT
 10
2434.936978971625
 20
1789.126745703904
 30
0.0
 41
9.0
 42
9.0
 43
9.0
 50
180.0
  0
INSERT
  5
3F3C
330
3F35
100
AcDbEntity
  8
Dim
 62
     0
370
    -2
100
AcDbBlockReference
  2
_DOT
 10
2884.450008358116
 20
1789.126745703904
 30
0.0
 41
9.0
 42
9.0
 43
9.0
  0
MTEXT
  5
3F3D
330
3F35
100
AcDbEntity
  8
Dim
  6
Continuous
 62
     0
370
     0
100
AcDbMText
 10
2659.69349366487
 20
1811.343054297654
 30
0.0
 40
24.4326171875
 41
0.0
 46
0.0
 71
     5
 72
     1
  1
\A1;450
  7
ＭＳ ゴシック
 73
     1
 44
1.0
  0
POINT
  5
3F3E
330
3F35
100
AcDbEntity
  8
Defpoints
 62
     0
100
AcDbPoint
 10
2434.936978971625
 20
2035.109506413246
 30
0.0
  0
POINT
  5
3F3F
330
3F35
100
AcDbEntity
  8
Defpoints
 62
     0
100
AcDbPoint
 10
2884.450008358116
 20
2035.109506413246
 30
0.0
  0
POINT
  5
3F40
330
3F35
100
AcDbEntity
  8
Defpoints
 62
     0
100
AcDbPoint
 10
2884.450008358116
 20
1789.126745703904
 30
0.0
  0
ENDBLK
  5
3F37
330
3F35
100
AcDbEntity
  8
0
100
AcDbBlockEnd
  0
BLOCK
  5
3F45
330
3F44
100
AcDbEntity
  8
0
100
AcDbBlockBegin
  2
*D18
 70
     1
 10
0.0
 20
0.0
 30
0.0
  3
*D18
  1
*D106
  0
LINE
  5
3F47
330
3F44
100
AcDbEntity
  8
Dim
  6
Continuous
 62
     0
370
    -2
100
AcDbLine
 10
2449.137190266998
 20
2177.429001461474
 30
0.0
 11
2311.657927545507
 21
2177.429001461474
 31
0.0
  0
LINE
  5
3F48
330
3F44
100
AcDbEntity
  8
Dim
  6
Continuous
 62
     0
370
    -2
100
AcDbLine
 10
2448.221955276192
 20
1880.491943945472
 30
0.0
 11
2311.657927545507
 21
1880.491943945472
 31
0.0
  0
LINE
  5
3F49
330
3F44
100
AcDbEntity
  8
Dim
  6
Continuous
 62
     0
370
    -2
100
AcDbLine
 10
2311.657927545507
 20
2168.429001461474
 30
0.0
 11
2311.657927545507
 21
1889.491943945472
 31
0.0
  0
INSERT
  5
3F4A
330
3F44
100
AcDbEntity
  8
Dim
 62
     0
370
    -2
100
AcDbBlockReference
  2
_DOT
 10
2311.657927545507
 20
2177.429001461474
 30
0.0
 41
9.0
 42
9.0
 43
9.0
 50
90.0
  0
INSERT
  5
3F4B
330
3F44
100
AcDbEntity
  8
Dim
 62
     0
370
    -2
100
AcDbBlockReference
  2
_DOT
 10
2311.657927545507
 20
1880.491943945472
 30
0.0
 41
9.0
 42
9.0
 43
9.0
 50
270.0
  0
MTEXT
  5
3F4C
330
3F44
100
AcDbEntity
  8
Dim
  6
Continuous
 62
     0
370
     0
100
AcDbMText
 10
2289.441618951757
 20
2030.86234033531
 30
0.0
 40
24.4326171875
 41
0.0
 46
0.0
 71
     5
 72
     1
  1
\A1;300
  7
ＭＳ ゴシック
 11
0.0
 21
1.0
 31
0.0
 73
     1
 44
1.0
  0
POINT
  5
3F4D
330
3F44
100
AcDbEntity
  8
Defpoints
 62
     0
100
AcDbPoint
 10
2474.137190266998
 20
2177.429001461474
 30
0.0
  0
POINT
  5
3F4E
330
3F44
100
AcDbEntity
  8
Defpoints
 62
     0
100
AcDbPoint
 10
2473.221955276192
 20
1880.491943945472
 30
0.0
  0
POINT
  5
3F4F
330
3F44
100
AcDbEntity
  8
Defpoints
 62
     0
100
AcDbPoint
 10
2311.657927545507
 20
1880.491943945472
 30
0.0
  0
ENDBLK
  5
3F46
330
3F44
100
AcDbEntity
  8
0
100
AcDbBlockEnd
  0
BLOCK
  5
3F66
330
3F65
100
AcDbEntity
  8
0
100
AcDbBlockBegin
  2
*D19
 70
     1
 10
0.0
 20
0.0
 30
0.0
  3
*D19
  1
*D107
  0
LINE
  5
3F68
330
3F65
100
AcDbEntity
  8
Dim
  6
Continuous
 62
     0
370
    -2
100
AcDbLine
 10
3728.984810261801
 20
2272.429019370682
 30
0.0
 11
3883.55703976991
 21
2272.429019370682
 31
0.0
  0
LINE
  5
3F69
330
3F65
100
AcDbEntity
  8
Dim
  6
Continuous
 62
     0
370
    -2
100
AcDbLine
 10
3728.984814352211
 20
2292.429019980596
 30
0.0
 11
3883.55703976991
 21
2292.429019980596
 31
0.0
  0
LINE
  5
3F6A
330
3F65
100
AcDbEntity
  8
Dim
  6
Continuous
 62
     0
370
    -2
100
AcDbLine
 10
3883.55703976991
 20
2292.429019980596
 30
0.0
 11
3883.55703976991
 21
2359.454969199346
 31
0.0
  0
INSERT
  5
3F6B
330
3F65
100
AcDbEntity
  8
Dim
 62
     0
370
    -2
100
AcDbBlockReference
  2
_DOT
 10
3883.55703976991
 20
2272.429019370682
 30
0.0
 41
9.0
 42
9.0
 43
9.0
 50
270.0
  0
INSERT
  5
3F6C
330
3F65
100
AcDbEntity
  8
Dim
 62
     0
370
    -2
100
AcDbBlockReference
  2
_DOT
 10
3883.55703976991
 20
2292.429019980596
 30
0.0
 41
9.0
 42
9.0
 43
9.0
 50
90.0
  0
MTEXT
  5
3F6D
330
3F65
100
AcDbEntity
  8
Dim
  6
Continuous
 62
     0
370
     0
100
AcDbMText
 10
3861.34073117616
 20
2334.941994589971
 30
0.0
 40
24.4326171875
 41
0.0
 46
0.0
 71
     5
 72
     1
  1
\A1;20
  7
ＭＳ ゴシック
 11
0.0
 21
1.0
 31
0.0
 73
     1
 44
1.0
  0
POINT
  5
3F6E
330
3F65
100
AcDbEntity
  8
Defpoints
 62
     0
100
AcDbPoint
 10
3703.984810261801
 20
2272.429019370682
 30
0.0
  0
POINT
  5
3F6F
330
3F65
100
AcDbEntity
  8
Defpoints
 62
     0
100
AcDbPoint
 10
3703.984814352211
 20
2292.429019980596
 30
0.0
  0
POINT
  5
3F70
330
3F65
100
AcDbEntity
  8
Defpoints
 62
     0
100
AcDbPoint
 10
3883.55703976991
 20
2292.429019980596
 30
0.0
  0
ENDBLK
  5
3F67
330
3F65
100
AcDbEntity
  8
0
100
AcDbBlockEnd
  0
BLOCK
  5
3F7B
330
3F7A
100
AcDbEntity
  8
0
100
AcDbBlockBegin
  2
*D20
 70
     1
 10
0.0
 20
0.0
 30
0.0
  3
*D20
  1
*D108
  0
LINE
  5
3F7D
330
3F7A
100
AcDbEntity
  8
Dim
  6
Continuous
 62
     0
370
    -2
100
AcDbLine
 10
3728.984810261801
 20
2272.429019370682
 30
0.0
 11
3883.55703976991
 21
2272.429019370682
 31
0.0
  0
LINE
  5
3F7E
330
3F7A
100
AcDbEntity
  8
Dim
  6
Continuous
 62
     0
370
    -2
100
AcDbLine
 10
3728.984810261801
 20
2022.429019370682
 30
0.0
 11
3883.55703976991
 21
2022.429019370682
 31
0.0
  0
LINE
  5
3F7F
330
3F7A
100
AcDbEntity
  8
Dim
  6
Continuous
 62
     0
370
    -2
100
AcDbLine
 10
3883.55703976991
 20
2263.429019370682
 30
0.0
 11
3883.55703976991
 21
2031.429019370682
 31
0.0
  0
INSERT
  5
3F80
330
3F7A
100
AcDbEntity
  8
Dim
 62
     0
370
    -2
100
AcDbBlockReference
  2
_DOT
 10
3883.55703976991
 20
2272.429019370682
 30
0.0
 41
9.0
 42
9.0
 43
9.0
 50
90.0
  0
INSERT
  5
3F81
330
3F7A
100
AcDbEntity
  8
Dim
 62
     0
370
    -2
100
AcDbBlockReference
  2
_DOT
 10
3883.55703976991
 20
2022.429019370682
 30
0.0
 41
9.0
 42
9.0
 43
9.0
 50
270.0
  0
MTEXT
  5
3F82
330
3F7A
100
AcDbEntity
  8
Dim
  6
Continuous
 62
     0
370
     0
100
AcDbMText
 10
3861.34073117616
 20
2147.429019370682
 30
0.0
 40
24.4326171875
 41
0.0
 46
0.0
 71
     5
 72
     1
  1
\A1;250
  7
ＭＳ ゴシック
 11
0.0
 21
1.0
 31
0.0
 73
     1
 44
1.0
  0
POINT
  5
3F83
330
3F7A
100
AcDbEntity
  8
Defpoints
 62
     0
100
AcDbPoint
 10
3703.984810261801
 20
2272.429019370682
 30
0.0
  0
POINT
  5
3F84
330
3F7A
100
AcDbEntity
  8
Defpoints
 62
     0
100
AcDbPoint
 10
3703.984810261801
 20
2022.429019370682
 30
0.0
  0
POINT
  5
3F85
330
3F7A
100
AcDbEntity
  8
Defpoints
 62
     0
100
AcDbPoint
 10
3883.55703976991
 20
2022.429019370682
 30
0.0
  0
ENDBLK
  5
3F7C
330
3F7A
100
AcDbEntity
  8
0
100
AcDbBlockEnd
  0
BLOCK
  5
4021
330
4020
100
AcDbEntity
  8
0
100
AcDbBlockBegin
  2
*D21
 70
     1
 10
0.0
 20
0.0
 30
0.0
  3
*D21
  1
*D111
  0
LINE
  5
4023
330
4020
100
AcDbEntity
  8
MODEL
  6
Continuous
 62
     0
370
    -2
100
AcDbLine
 10
2534.787809403699
 20
2222.429011518177
 30
0.0
 11
2517.924460635551
 21
2222.429011518177
 31
0.0
  0
LINE
  5
4024
330
4020
100
AcDbEntity
  8
MODEL
  6
Continuous
 62
     0
370
    -2
100
AcDbLine
 10
2532.402462283093
 20
2292.429024605665
 30
0.0
 11
2517.924460635551
 21
2292.429024605665
 31
0.0
  0
LINE
  5
4025
330
4020
100
AcDbEntity
  8
MODEL
  6
Continuous
 62
     0
370
    -2
100
AcDbLine
 10
2517.924460635551
 20
2231.429011518177
 30
0.0
 11
2517.924460635551
 21
2283.429024605665
 31
0.0
  0
INSERT
  5
4026
330
4020
100
AcDbEntity
  8
MODEL
 62
     0
370
    -2
100
AcDbBlockReference
  2
_DOT
 10
2517.924460635551
 20
2222.429011518177
 30
0.0
 41
9.0
 42
9.0
 43
9.0
 50
270.0
  0
INSERT
  5
4027
330
4020
100
AcDbEntity
  8
MODEL
 62
     0
370
    -2
100
AcDbBlockReference
  2
_DOT
 10
2517.924460635551
 20
2292.429024605665
 30
0.0
 41
9.0
 42
9.0
 43
9.0
 50
90.0
  0
MTEXT
  5
4028
330
4020
100
AcDbEntity
  8
MODEL
  6
Continuous
 62
     0
370
     0
100
AcDbMText
 10
2495.708152041801
 20
2257.429018061921
 30
0.0
 40
24.4326171875
 41
0.0
 46
0.0
 71
     5
 72
     1
  1
\A1;70
  7
ＭＳ ゴシック
 11
0.0
 21
1.0
 31
0.0
 73
     1
 44
1.0
  0
POINT
  5
4029
330
4020
100
AcDbEntity
  8
Defpoints
 62
     0
100
AcDbPoint
 10
2559.787809403699
 20
2222.429011518177
 30
0.0
  0
POINT
  5
402A
330
4020
100
AcDbEntity
  8
Defpoints
 62
     0
100
AcDbPoint
 10
2557.402462283093
 20
2292.429024605665
 30
0.0
  0
POINT
  5
402B
330
4020
100
AcDbEntity
  8
Defpoints
 62
     0
100
AcDbPoint
 10
2517.924460635551
 20
2292.429024605665
 30
0.0
  0
ENDBLK
  5
4022
330
4020
100
AcDbEntity
  8
0
100
AcDbBlockEnd
  0
BLOCK
  5
4083
330
4082
100
AcDbEntity
  8
0
100
AcDbBlockBegin
  2
*D22
 70
     1
 10
0.0
 20
0.0
 30
0.0
  3
*D22
  1
*D113
  0
LINE
  5
4085
330
4082
100
AcDbEntity
  8
MODEL
  6
Continuous
 62
     0
370
    -2
100
AcDbLine
 10
3453.984810261801
 20
1997.429019370682
 30
0.0
 11
3453.984810261801
 21
1789.126745703904
 31
0.0
  0
LINE
  5
4086
330
4082
100
AcDbEntity
  8
MODEL
  6
Continuous
 62
     0
370
    -2
100
AcDbLine
 10
3703.984810261801
 20
1997.429019370682
 30
0.0
 11
3703.984810261801
 21
1789.126745703904
 31
0.0
  0
LINE
  5
4087
330
4082
100
AcDbEntity
  8
MODEL
  6
Continuous
 62
     0
370
    -2
100
AcDbLine
 10
3462.984810261801
 20
1789.126745703904
 30
0.0
 11
3694.984810261801
 21
1789.126745703904
 31
0.0
  0
INSERT
  5
4088
330
4082
100
AcDbEntity
  8
MODEL
 62
     0
370
    -2
100
AcDbBlockReference
  2
_DOT
 10
3453.984810261801
 20
1789.126745703904
 30
0.0
 41
9.0
 42
9.0
 43
9.0
 50
180.0
  0
INSERT
  5
4089
330
4082
100
AcDbEntity
  8
MODEL
 62
     0
370
    -2
100
AcDbBlockReference
  2
_DOT
 10
3703.984810261801
 20
1789.126745703904
 30
0.0
 41
9.0
 42
9.0
 43
9.0
  0
MTEXT
  5
408A
330
4082
100
AcDbEntity
  8
MODEL
  6
Continuous
 62
     0
370
     0
100
AcDbMText
 10
3578.984810261801
 20
1811.343054297654
 30
0.0
 40
24.4326171875
 41
0.0
 46
0.0
 71
     5
 72
     1
  1
\A1;250
  7
ＭＳ ゴシック
 73
     1
 44
1.0
  0
POINT
  5
408B
330
4082
100
AcDbEntity
  8
Defpoints
 62
     0
100
AcDbPoint
 10
3453.984810261801
 20
2022.429019370682
 30
0.0
  0
POINT
  5
408C
330
4082
100
AcDbEntity
  8
Defpoints
 62
     0
100
AcDbPoint
 10
3703.984810261801
 20
2022.429019370682
 30
0.0
  0
POINT
  5
408D
330
4082
100
AcDbEntity
  8
Defpoints
 62
     0
100
AcDbPoint
 10
3703.984810261801
 20
1789.126745703904
 30
0.0
  0
ENDBLK
  5
4084
330
4082
100
AcDbEntity
  8
0
100
AcDbBlockEnd
  0
BLOCK
  5
40D8
330
40D7
100
AcDbEntity
  8
0
100
AcDbBlockBegin
  2
*D23
 70
     1
 10
0.0
 20
0.0
 30
0.0
  3
*D23
  1
*D115
  0
LINE
  5
40DA
330
40D7
100
AcDbEntity
  8
MODEL
  6
Continuous
 62
     0
370
    -2
100
AcDbLine
 10
3635.893319800128
 20
780.8660207883322
 30
0.0
 11
3635.893319800128
 21
690.0666351105383
 31
0.0
  0
LINE
  5
40DB
330
40D7
100
AcDbEntity
  8
MODEL
  6
Continuous
 62
     0
370
    -2
100
AcDbLine
 10
3855.881149949254
 20
805.8645733472372
 30
0.0
 11
3855.881149949254
 21
690.0666351105383
 31
0.0
  0
LINE
  5
40DC
330
40D7
100
AcDbEntity
  8
MODEL
  6
Continuous
 62
     0
370
    -2
100
AcDbLine
 10
3644.893319800128
 20
690.0666351105383
 30
0.0
 11
3846.881149949254
 21
690.0666351105383
 31
0.0
  0
INSERT
  5
40DD
330
40D7
100
AcDbEntity
  8
MODEL
 62
     0
370
    -2
100
AcDbBlockReference
  2
_DOT
 10
3635.893319800128
 20
690.0666351105383
 30
0.0
 41
9.0
 42
9.0
 43
9.0
 50
180.0
  0
INSERT
  5
40DE
330
40D7
100
AcDbEntity
  8
MODEL
 62
     0
370
    -2
100
AcDbBlockReference
  2
_DOT
 10
3855.881149949254
 20
690.0666351105383
 30
0.0
 41
9.0
 42
9.0
 43
9.0
  0
MTEXT
  5
40DF
330
40D7
100
AcDbEntity
  8
MODEL
  6
Continuous
 62
     0
370
     0
100
AcDbMText
 10
3745.887234874691
 20
712.2829437042883
 30
0.0
 40
24.4326171875
 41
0.0
 46
0.0
 71
     5
 72
     1
  1
\A1;220
  7
ＭＳ ゴシック
 73
     1
 44
1.0
  0
POINT
  5
40E0
330
40D7
100
AcDbEntity
  8
Defpoints
 62
     0
100
AcDbPoint
 10
3635.893319800128
 20
805.8660207883322
 30
0.0
  0
POINT
  5
40E1
330
40D7
100
AcDbEntity
  8
Defpoints
 62
     0
100
AcDbPoint
 10
3855.881149949254
 20
830.8645733472372
 30
0.0
  0
POINT
  5
40E2
330
40D7
100
AcDbEntity
  8
Defpoints
 62
     0
100
AcDbPoint
 10
3855.881149949254
 20
690.0666351105383
 30
0.0
  0
ENDBLK
  5
40D9
330
40D7
100
AcDbEntity
  8
0
100
AcDbBlockEnd
  0
BLOCK
  5
40E5
330
40E4
100
AcDbEntity
  8
0
100
AcDbBlockBegin
  2
*D24
 70
     1
 10
0.0
 20
0.0
 30
0.0
  3
*D24
  1
*D116
  0
LINE
  5
40E7
330
40E4
100
AcDbEntity
  8
MODEL
  6
Continuous
 62
     0
370
    -2
100
AcDbLine
 10
3855.881149949254
 20
665.0666351105383
 30
0.0
 11
3855.881149949254
 21
609.2741697123615
 31
0.0
  0
LINE
  5
40E8
330
40E4
100
AcDbEntity
  8
MODEL
  6
Continuous
 62
     0
370
    -2
100
AcDbLine
 10
3486.225459619258
 20
801.6411328167648
 30
0.0
 11
3486.225459619258
 21
609.2741697123615
 31
0.0
  0
LINE
  5
40E9
330
40E4
100
AcDbEntity
  8
MODEL
  6
Continuous
 62
     0
370
    -2
100
AcDbLine
 10
3846.881149949254
 20
609.2741697123615
 30
0.0
 11
3495.225459619258
 21
609.2741697123615
 31
0.0
  0
INSERT
  5
40EA
330
40E4
100
AcDbEntity
  8
MODEL
 62
     0
370
    -2
100
AcDbBlockReference
  2
_DOT
 10
3855.881149949254
 20
609.2741697123615
 30
0.0
 41
9.0
 42
9.0
 43
9.0
  0
INSERT
  5
40EB
330
40E4
100
AcDbEntity
  8
MODEL
 62
     0
370
    -2
100
AcDbBlockReference
  2
_DOT
 10
3486.225459619258
 20
609.2741697123615
 30
0.0
 41
9.0
 42
9.0
 43
9.0
 50
180.0
  0
MTEXT
  5
40EC
330
40E4
100
AcDbEntity
  8
MODEL
  6
Continuous
 62
     0
370
     0
100
AcDbMText
 10
3671.053304784256
 20
631.4904783061115
 30
0.0
 40
24.4326171875
 41
0.0
 46
0.0
 71
     5
 72
     1
  1
\A1;370
  7
ＭＳ ゴシック
 73
     1
 44
1.0
  0
POINT
  5
40ED
330
40E4
100
AcDbEntity
  8
Defpoints
 62
     0
100
AcDbPoint
 10
3855.881149949254
 20
690.0666351105383
 30
0.0
  0
POINT
  5
40EE
330
40E4
100
AcDbEntity
  8
Defpoints
 62
     0
100
AcDbPoint
 10
3486.225459619258
 20
826.6411328167648
 30
0.0
  0
POINT
  5
40EF
330
40E4
100
AcDbEntity
  8
Defpoints
 62
     0
100
AcDbPoint
 10
3486.225459619258
 20
609.2741697123615
 30
0.0
  0
ENDBLK
  5
40E6
330
40E4
100
AcDbEntity
  8
0
100
AcDbBlockEnd
  0
BLOCK
  5
4139
330
4138
100
AcDbEntity
  8
0
100
AcDbBlockBegin
  2
*D25
 70
     1
 10
0.0
 20
0.0
 30
0.0
  3
*D25
  1
*D110
  0
LINE
  5
413B
330
4138
100
AcDbEntity
  8
MODEL
  6
Continuous
 62
     0
370
    -2
100
AcDbLine
 10
2419.239273912415
 20
2292.429001461474
 30
0.0
 11
2311.657927545507
 21
2292.429001461474
 31
0.0
  0
LINE
  5
413C
330
4138
100
AcDbEntity
  8
MODEL
  6
Continuous
 62
     0
370
    -2
100
AcDbLine
 10
2419.239273912415
 20
2177.429001461474
 30
0.0
 11
2311.657927545507
 21
2177.429001461474
 31
0.0
  0
LINE
  5
413D
330
4138
100
AcDbEntity
  8
MODEL
  6
Continuous
 62
     0
370
    -2
100
AcDbLine
 10
2311.657927545507
 20
2283.429001461474
 30
0.0
 11
2311.657927545507
 21
2186.429001461474
 31
0.0
  0
INSERT
  5
413E
330
4138
100
AcDbEntity
  8
MODEL
 62
     0
370
    -2
100
AcDbBlockReference
  2
_DOT
 10
2311.657927545507
 20
2292.429001461474
 30
0.0
 41
9.0
 42
9.0
 43
9.0
 50
90.0
  0
INSERT
  5
413F
330
4138
100
AcDbEntity
  8
MODEL
 62
     0
370
    -2
100
AcDbBlockReference
  2
_DOT
 10
2311.657927545507
 20
2177.429001461474
 30
0.0
 41
9.0
 42
9.0
 43
9.0
 50
270.0
  0
MTEXT
  5
4140
330
4138
100
AcDbEntity
  8
MODEL
  6
Continuous
 62
     0
370
     0
100
AcDbMText
 10
2289.441618951757
 20
2234.929001461474
 30
0.0
 40
24.4326171875
 41
0.0
 46
0.0
 71
     5
 72
     1
  1
\A1;115
  7
ＭＳ ゴシック
 11
0.0
 21
1.0
 31
0.0
 73
     1
 44
1.0
  0
POINT
  5
4141
330
4138
100
AcDbEntity
  8
Defpoints
 62
     0
100
AcDbPoint
 10
2444.239273912415
 20
2292.429001461474
 30
0.0
  0
POINT
  5
4142
330
4138
100
AcDbEntity
  8
Defpoints
 62
     0
100
AcDbPoint
 10
2444.239273912415
 20
2177.429001461474
 30
0.0
  0
POINT
  5
4143
330
4138
100
AcDbEntity
  8
Defpoints
 62
     0
100
AcDbPoint
 10
2311.657927545507
 20
2177.429001461474
 30
0.0
  0
ENDBLK
  5
413A
330
4138
100
AcDbEntity
  8
0
100
AcDbBlockEnd
  0
BLOCK
  5
41BE
330
41BD
100
AcDbEntity
  8
0
100
AcDbBlockBegin
  2
812331D
 70
     0
 10
0.0
 20
0.0
 30
0.0
  3
812331D
  1
812331D
  0
LWPOLYLINE
  5
41BF
330
41BD
100
AcDbEntity
  8
0
 62
     7
100
AcDbPolyline
 90
        3
 70
     0
 43
0.0
 10
0.0
 20
-148.2004285653804
 10
0.0
 20
-209.9973455963721
 10
0.0
 20
-271.7944348821381
  0
LWPOLYLINE
  5
41C0
330
41BD
100
AcDbEntity
  8
0
 62
     7
100
AcDbPolyline
 90
        3
 70
     0
 43
0.0
 10
61.8632351190828
 20
-209.9973455963721
 10
0.0
 20
-209.9973455963721
 10
-61.85203855875574
 20
-209.9973455963721
  0
LWPOLYLINE
  5
41C1
330
41BD
100
AcDbEntity
  8
0
 62
     7
100
AcDbPolyline
 90
        3
 70
     0
 43
0.0
 10
-168.5731729721796
 20
-209.9973455963721
 10
-155.0408379061182
 20
-209.9973455963721
 10
-141.5195271456097
 20
-209.9973455963721
  0
LWPOLYLINE
  5
41C2
330
41BD
100
AcDbEntity
  8
0
 62
     7
100
AcDbPolyline
 90
        3
 70
     0
 43
0.0
 10
-155.0408379061182
 20
-196.4705226830872
 10
-155.0408379061182
 20
-209.9973455963721
 10
-155.0408379061182
 20
-223.5296806624335
  0
LWPOLYLINE
  5
41C3
330
41BD
100
AcDbEntity
  8
0
 62
     7
100
AcDbPolyline
 90
        3
 70
     0
 43
0.0
 10
141.5031629420547
 20
-209.9973455963721
 10
155.0354980081161
 20
-209.9973455963721
 10
168.5623209214011
 20
-209.9973455963721
  0
LWPOLYLINE
  5
41C4
330
41BD
100
AcDbEntity
  8
0
 62
     7
100
AcDbPolyline
 90
        3
 70
     0
 43
0.0
 10
155.0354980081161
 20
-196.4705226830872
 10
155.0354980081161
 20
-209.9973455963721
 10
155.0354980081161
 20
-223.5296806624335
  0
SPLINE
  5
41C5
330
41BD
100
AcDbEntity
  8
0
 62
     7
100
AcDbSpline
210
0.0
220
0.0
230
1.0
 70
    11
 71
     3
 72
    17
 73
    13
 74
     0
 42
0.000000001
 43
0.0000000001
 40
0.0
 40
0.0
 40
0.0
 40
0.0
 40
1.0
 40
1.0
 40
1.0
 40
2.0
 40
2.0
 40
2.0
 40
3.0
 40
3.0
 40
3.0
 40
4.0
 40
4.0
 40
4.0
 40
4.0
 10
40.99956460563553
 20
-209.9973455963721
 30
0.0
 10
40.99956460563553
 20
-232.6412692018223
 30
0.0
 10
22.64409586022439
 20
-250.9967379472334
 30
0.0
 10
0.0
 20
-250.9967379472334
 30
0.0
 10
-22.64943575822653
 20
-250.9967379472334
 30
0.0
 10
-41.00490450363766
 20
-232.6412692018223
 30
0.0
 10
-41.00490450363766
 20
-209.9973455963721
 30
0.0
 10
-41.00490450363766
 20
-187.353421990922
 30
0.0
 10
-22.64943575822653
 20
-168.9977809907366
 30
0.0
 10
0.0
 20
-168.9977809907366
 30
0.0
 10
22.64409586022439
 20
-168.9977809907366
 30
0.0
 10
40.99956460563553
 20
-187.353421990922
 30
0.0
 10
40.99956460563553
 20
-209.9973455963721
 30
0.0
  0
SPLINE
  5
41C6
330
41BD
100
AcDbEntity
  8
0
 62
     7
100
AcDbSpline
210
0.0
220
0.0
230
1.0
 70
    11
 71
     3
 72
    17
 73
    13
 74
     0
 42
0.000000001
 43
0.0000000001
 40
0.0
 40
0.0
 40
0.0
 40
0.0
 40
1.0
 40
1.0
 40
1.0
 40
2.0
 40
2.0
 40
2.0
 40
3.0
 40
3.0
 40
3.0
 40
4.0
 40
4.0
 40
4.0
 40
4.0
 10
45.53055418783611
 20
-209.9973455963721
 30
0.0
 10
45.53055418783611
 20
-235.1437865623077
 30
0.0
 10
25.14110106793347
 20
-255.527727529434
 30
0.0
 10
0.0
 20
-255.527727529434
 30
0.0
 10
-25.14644096593561
 20
-255.527727529434
 30
0.0
 10
-45.53038193306185
 20
-235.1437865623077
 30
0.0
 10
-45.53038193306185
 20
-209.9973455963721
 30
0.0
 10
-45.53038193306185
 20
-184.8507323756622
 30
0.0
 10
-25.14644096593561
 20
-164.466791408536
 30
0.0
 10
0.0
 20
-164.466791408536
 30
0.0
 10
25.14110106793347
 20
-164.466791408536
 30
0.0
 10
45.53055418783611
 20
-184.8507323756622
 30
0.0
 10
45.53055418783611
 20
-209.9973455963721
 30
0.0
  0
SPLINE
  5
41C7
330
41BD
100
AcDbEntity
  8
0
 62
     7
100
AcDbSpline
210
0.0
220
0.0
230
1.0
 70
    11
 71
     3
 72
    17
 73
    13
 74
     0
 42
0.000000001
 43
0.0000000001
 40
0.0
 40
0.0
 40
0.0
 40
0.0
 40
1.0
 40
1.0
 40
1.0
 40
2.0
 40
2.0
 40
2.0
 40
3.0
 40
3.0
 40
3.0
 40
4.0
 40
4.0
 40
4.0
 40
4.0
 10
199.9981282052088
 20
-209.9973455963721
 30
0.0
 10
199.9981282052088
 20
-320.4612317449714
 30
0.0
 10
110.4528618430465
 20
-410.0009859543574
 30
0.0
 10
0.0
 20
-410.0009859543574
 30
0.0
 10
-110.4583739958229
 20
-410.0009859543574
 30
0.0
 10
-200.0036403579852
 20
-320.4612317449714
 30
0.0
 10
-200.0036403579852
 20
-209.9973455963721
 30
0.0
 10
-200.0036403579852
 20
-99.53897160054925
 30
0.0
 10
-110.4583739958229
 20
-9.993705238386951
 30
0.0
 10
0.0
 20
-9.993705238386951
 30
0.0
 10
110.4528618430465
 20
-9.993705238386951
 30
0.0
 10
199.9981282052088
 20
-99.53897160054925
 30
0.0
 10
199.9981282052088
 20
-209.9973455963721
 30
0.0
  0
SPLINE
  5
41C8
330
41BD
100
AcDbEntity
  8
0
 62
     7
100
AcDbSpline
210
0.0
220
0.0
230
1.0
 70
    11
 71
     3
 72
    17
 73
    13
 74
     0
 42
0.000000001
 43
0.0000000001
 40
0.0
 40
0.0
 40
0.0
 40
0.0
 40
1.0
 40
1.0
 40
1.0
 40
2.0
 40
2.0
 40
2.0
 40
3.0
 40
3.0
 40
3.0
 40
4.0
 40
4.0
 40
4.0
 40
4.0
 10
209.9971733415979
 20
-209.9973455963721
 30
0.0
 10
209.9971733415979
 20
-325.9788966741476
 30
0.0
 10
115.976038924999
 20
-420.0000310907465
 30
0.0
 10
0.0
 20
-420.0000310907465
 30
0.0
 10
-115.9815510777754
 20
-420.0000310907465
 30
0.0
 10
-210.0026854943743
 20
-325.9788966741476
 30
0.0
 10
-210.0026854943743
 20
-209.9973455963721
 30
0.0
 10
-210.0026854943743
 20
-94.01579451859673
 30
0.0
 10
-115.9815510777754
 20
0.0
 30
0.0
 10
0.0
 20
0.0
 30
0.0
 10
115.976038924999
 20
0.0
 30
0.0
 10
209.9971733415979
 20
-94.01579451859673
 30
0.0
 10
209.9971733415979
 20
-209.9973455963721
 30
0.0
  0
ENDBLK
  5
41C9
330
41BD
100
AcDbEntity
  8
0
100
AcDbBlockEnd
  0
BLOCK
  5
41CC
330
41CB
100
AcDbEntity
  8
0
100
AcDbBlockBegin
  2
812331S
 70
     0
 10
0.0
 20
0.0
 30
0.0
  3
812331S
  1
812331S
  0
SPLINE
  5
41CD
330
41CB
100
AcDbEntity
  8
0
 62
     7
100
AcDbSpline
210
0.0
220
0.0
230
1.0
 70
    11
 71
     3
 72
    38
 73
    34
 74
     0
 42
0.000000001
 43
0.0000000001
 40
0.0
 40
0.0
 40
0.0
 40
0.0
 40
1.0
 40
1.0
 40
1.0
 40
2.0
 40
2.0
 40
2.0
 40
3.0
 40
3.0
 40
3.0
 40
4.0
 40
4.0
 40
4.0
 40
5.0
 40
5.0
 40
5.0
 40
6.0
 40
6.0
 40
6.0
 40
7.0
 40
7.0
 40
7.0
 40
8.0
 40
8.0
 40
8.0
 40
9.0
 40
9.0
 40
9.0
 40
10.0
 40
10.0
 40
10.0
 40
11.0
 40
11.0
 40
11.0
 40
11.0
 10
405.4329615956904
 20
779.9961276884211
 30
0.0
 10
405.4329615956904
 20
779.9961276884211
 30
0.0
 10
410.5981932567255
 20
781.9860148407014
 30
0.0
 10
410.5981932567255
 20
781.9860148407014
 30
0.0
 10
410.5981932567255
 20
781.9860148407014
 30
0.0
 10
419.996413740487
 20
896.7531697599262
 30
0.0
 10
419.996413740487
 20
896.7531697599262
 30
0.0
 10
420.051535268251
 20
898.5391072594797
 30
0.0
 10
418.756179365797
 20
899.906293402801
 30
0.0
 10
416.9812661717964
 20
900.0
 30
0.0
 10
416.9812661717964
 20
900.0
 30
0.0
 10
417.0088269356783
 20
900.0
 30
0.0
 10
417.0088269356783
 20
900.0
 30
0.0
 10
417.0088269356783
 20
900.0
 30
0.0
 10
208.2839273567831
 20
900.0
 30
0.0
 10
208.2839273567831
 20
900.0
 30
0.0
 10
208.2839273567831
 20
900.0
 30
0.0
 10
2.98775905958292
 20
900.0
 30
0.0
 10
2.98775905958292
 20
900.0
 30
0.0
 10
2.98775905958292
 20
900.0
 30
0.0
 10
3.015319823464921
 20
900.0
 30
0.0
 10
3.015319823464921
 20
900.0
 30
0.0
 10
1.24023437468994
 20
899.906293402801
 30
0.0
 10
-0.0551215277640012
 20
898.5391072594797
 30
0.0
 10
0.0
 20
896.7531697599262
 30
0.0
 10
0.0
 20
896.7531697599262
 30
0.0
 10
9.398564993310082
 20
781.9860148407014
 30
0.0
 10
9.398564993310082
 20
781.9860148407014
 30
0.0
 10
9.398564993310082
 20
781.9860148407014
 30
0.0
 10
14.56362439957089
 20
779.9961276884211
 30
0.0
 10
14.56362439957089
 20
779.9961276884211
 30
0.0
 10
14.56362439957089
 20
779.9961276884211
 30
0.0
 10
405.4329615956904
 20
779.9961276884211
 30
0.0
 10
405.4329615956904
 20
779.9961276884211
 30
0.0
  0
LWPOLYLINE
  5
41CE
330
41CB
100
AcDbEntity
  8
0
 62
     7
100
AcDbPolyline
 90
        2
 70
     0
 43
0.0
 10
210.0864013146659
 20
811.9843560332885
 10
210.0864013146659
 20
734.9990465364759
  0
SPLINE
  5
41CF
330
41CB
100
AcDbEntity
  8
0
 62
     7
100
AcDbSpline
210
0.0
220
0.0
230
1.0
 70
     8
 71
     3
 72
    38
 73
    34
 74
     0
 42
0.000000001
 43
0.0000000001
 40
0.0
 40
0.0
 40
0.0
 40
0.0
 40
1.0
 40
1.0
 40
1.0
 40
2.0
 40
2.0
 40
2.0
 40
3.0
 40
3.0
 40
3.0
 40
4.0
 40
4.0
 40
4.0
 40
5.0
 40
5.0
 40
5.0
 40
6.0
 40
6.0
 40
6.0
 40
7.0
 40
7.0
 40
7.0
 40
8.0
 40
8.0
 40
8.0
 40
9.0
 40
9.0
 40
9.0
 40
10.0
 40
10.0
 40
10.0
 40
11.0
 40
11.0
 40
11.0
 40
11.0
 10
261.2574380857273
 20
779.9961276884211
 30
0.0
 10
260.4030544053853
 20
778.1495565083271
 30
0.0
 10
258.5675075308442
 20
777.0085408836125
 30
0.0
 10
256.5445474619055
 20
776.9975165780595
 30
0.0
 10
256.5445474619055
 20
776.9975165780595
 30
0.0
 10
251.9804849630465
 20
776.9975165780595
 30
0.0
 10
251.9804849630465
 20
776.9975165780595
 30
0.0
 10
247.6255397601422
 20
776.9368828975192
 30
0.0
 10
244.0316161499296
 20
773.3815443567414
 30
0.0
 10
244.0040553860475
 20
768.9935262371786
 30
0.0
 10
244.0040553860475
 20
768.9935262371786
 30
0.0
 10
244.0040553860475
 20
767.9958265846503
 30
0.0
 10
244.0040553860475
 20
767.9958265846503
 30
0.0
 10
244.0040553860475
 20
766.3311564461776
 30
0.0
 10
242.6646022613824
 20
764.9917033215124
 30
0.0
 10
240.9995876133612
 20
764.9917033215124
 30
0.0
 10
240.9995876133612
 20
764.9917033215124
 30
0.0
 10
179.1621907104178
 20
764.9917033215124
 30
0.0
 10
179.1621907104178
 20
764.9917033215124
 30
0.0
 10
177.414838280299
 20
765.0027276270653
 30
0.0
 10
176.0643608500811
 20
766.2374498489788
 30
0.0
 10
175.9816785584351
 20
767.9958265846503
 30
0.0
 10
175.9816785584351
 20
767.9958265846503
 30
0.0
 10
175.9816785584351
 20
768.9935262371786
 30
0.0
 10
175.9816785584351
 20
768.9935262371786
 30
0.0
 10
175.9816785584351
 20
773.4146172733998
 30
0.0
 10
172.3984347442268
 20
776.9975165780595
 30
0.0
 10
167.9887125231069
 20
776.9975165780595
 30
0.0
 10
167.9887125231069
 20
776.9975165780595
 30
0.0
 10
163.397089260366
 20
776.9975165780595
 30
0.0
 10
163.397089260366
 20
776.9975165780595
 30
0.0
 10
161.3848089874315
 20
777.0195651891651
 30
0.0
 10
159.5823350295488
 20
778.1660929666563
 30
0.0
 10
158.7389756547597
 20
779.9961276884211
 30
0.0
  0
ENDBLK
  5
41D0
330
41CB
100
AcDbEntity
  8
0
100
AcDbBlockEnd
  0
BLOCK
  5
47E4
330
47E3
100
AcDbEntity
  8
0
100
AcDbBlockBegin
  2
*D28
 70
     1
 10
0.0
 20
0.0
 30
0.0
  3
*D28
  1
*D28
  0
LINE
  5
47E6
330
47E3
100
AcDbEntity
  8
MODEL
  6
Continuous
 62
     0
370
    -2
100
AcDbLine
 10
340.4900262273756
 20
2128.721889468764
 30
0.0
 11
340.4900262273756
 21
1854.586749109524
 31
0.0
  0
LINE
  5
47E7
330
47E3
100
AcDbEntity
  8
MODEL
  6
Continuous
 62
     0
370
    -2
100
AcDbLine
 10
761.2413122273755
 20
2128.721237468764
 30
0.0
 11
761.2413122273755
 21
1854.586749109524
 31
0.0
  0
LINE
  5
47E8
330
47E3
100
AcDbEntity
  8
MODEL
  6
Continuous
 62
     0
370
    -2
100
AcDbLine
 10
349.4900262273756
 20
1854.586749109524
 30
0.0
 11
752.2413122273755
 21
1854.586749109524
 31
0.0
  0
INSERT
  5
47E9
330
47E3
100
AcDbEntity
  8
MODEL
 62
     0
370
    -2
100
AcDbBlockReference
  2
_DOT
 10
340.4900262273756
 20
1854.586749109524
 30
0.0
 41
9.0
 42
9.0
 43
9.0
 50
180.0
  0
INSERT
  5
47EA
330
47E3
100
AcDbEntity
  8
MODEL
 62
     0
370
    -2
100
AcDbBlockReference
  2
_DOT
 10
761.2413122273755
 20
1854.586749109524
 30
0.0
 41
9.0
 42
9.0
 43
9.0
  0
MTEXT
  5
47EB
330
47E3
100
AcDbEntity
  8
MODEL
  6
Continuous
 62
     0
370
     0
100
AcDbMText
 10
550.8656692273755
 20
1876.803057703274
 30
0.0
 40
24.4326171875
 41
0.0
 46
0.0
 71
     5
 72
     1
  1
\A1;421
  7
ＭＳ ゴシック
 73
     1
 44
1.0
  0
POINT
  5
47EC
330
47E3
100
AcDbEntity
  8
Defpoints
 62
     0
100
AcDbPoint
 10
340.4900262273756
 20
2153.721889468764
 30
0.0
  0
POINT
  5
47ED
330
47E3
100
AcDbEntity
  8
Defpoints
 62
     0
100
AcDbPoint
 10
761.2413122273755
 20
2153.721237468764
 30
0.0
  0
POINT
  5
47EE
330
47E3
100
AcDbEntity
  8
Defpoints
 62
     0
100
AcDbPoint
 10
761.2413122273755
 20
1854.586749109524
 30
0.0
  0
ENDBLK
  5
47E5
330
47E3
100
AcDbEntity
  8
0
100
AcDbBlockEnd
  0
BLOCK
  5
47FB
330
47FA
100
AcDbEntity
  8
0
100
AcDbBlockBegin
  2
*D29
 70
     1
 10
0.0
 20
0.0
 30
0.0
  3
*D29
  1
*D29
  0
LINE
  5
47FD
330
47FA
100
AcDbEntity
  8
Dim
  6
Continuous
 62
     0
370
    -2
100
AcDbLine
 10
375.8656692273757
 20
2079.714378402397
 30
0.0
 11
375.8656692273757
 21
2352.995926193398
 31
0.0
  0
LINE
  5
47FE
330
47FA
100
AcDbEntity
  8
Dim
  6
Continuous
 62
     0
370
    -2
100
AcDbLine
 10
795.8656692273757
 20
2079.714378402397
 30
0.0
 11
795.8656692273757
 21
2352.995926193398
 31
0.0
  0
LINE
  5
47FF
330
47FA
100
AcDbEntity
  8
Dim
  6
Continuous
 62
     0
370
    -2
100
AcDbLine
 10
384.8656692273757
 20
2352.995926193398
 30
0.0
 11
786.8656692273757
 21
2352.995926193398
 31
0.0
  0
INSERT
  5
4800
330
47FA
100
AcDbEntity
  8
Dim
 62
     0
370
    -2
100
AcDbBlockReference
  2
_DOT
 10
375.8656692273757
 20
2352.995926193398
 30
0.0
 41
9.0
 42
9.0
 43
9.0
 50
180.0
  0
INSERT
  5
4801
330
47FA
100
AcDbEntity
  8
Dim
 62
     0
370
    -2
100
AcDbBlockReference
  2
_DOT
 10
795.8656692273757
 20
2352.995926193398
 30
0.0
 41
9.0
 42
9.0
 43
9.0
  0
MTEXT
  5
4802
330
47FA
100
AcDbEntity
  8
Dim
  6
Continuous
 62
     0
100
AcDbMText
 10
585.8656692273757
 20
2375.212234787148
 30
0.0
 40
24.4326171875
 41
0.0
 46
0.0
 71
     5
 72
     1
  1
\A1;420
  7
ＭＳ ゴシック
 73
     1
 44
1.0
  0
POINT
  5
4803
330
47FA
100
AcDbEntity
  8
Defpoints
 62
     0
100
AcDbPoint
 10
375.8656692273757
 20
2054.714378402397
 30
0.0
  0
POINT
  5
4804
330
47FA
100
AcDbEntity
  8
Defpoints
 62
     0
100
AcDbPoint
 10
795.8656692273757
 20
2054.714378402397
 30
0.0
  0
POINT
  5
4805
330
47FA
100
AcDbEntity
  8
Defpoints
 62
     0
100
AcDbPoint
 10
795.8656692273757
 20
2352.995926193398
 30
0.0
  0
ENDBLK
  5
47FC
330
47FA
100
AcDbEntity
  8
0
100
AcDbBlockEnd
  0
BLOCK
  5
480A
330
4809
100
AcDbEntity
  8
0
100
AcDbBlockBegin
  2
*D30
 70
     1
 10
0.0
 20
0.0
 30
0.0
  3
*D30
  1
*D30
  0
LINE
  5
480C
330
4809
100
AcDbEntity
  8
Dim
  6
Continuous
 62
     0
370
    -2
100
AcDbLine
 10
610.8656692273757
 20
2264.714378402397
 30
0.0
 11
914.5582664292002
 21
2264.714378402397
 31
0.0
  0
LINE
  5
480D
330
4809
100
AcDbEntity
  8
Dim
  6
Continuous
 62
     0
370
    -2
100
AcDbLine
 10
610.8656692273757
 20
1844.714378402398
 30
0.0
 11
914.5582664292002
 21
1844.714378402398
 31
0.0
  0
LINE
  5
480E
330
4809
100
AcDbEntity
  8
Dim
  6
Continuous
 62
     0
370
    -2
100
AcDbLine
 10
914.5582664292002
 20
2255.714378402397
 30
0.0
 11
914.5582664292002
 21
1853.714378402398
 31
0.0
  0
INSERT
  5
480F
330
4809
100
AcDbEntity
  8
Dim
 62
     0
370
    -2
100
AcDbBlockReference
  2
_DOT
 10
914.5582664292002
 20
2264.714378402397
 30
0.0
 41
9.0
 42
9.0
 43
9.0
 50
90.0
  0
INSERT
  5
4810
330
4809
100
AcDbEntity
  8
Dim
 62
     0
370
    -2
100
AcDbBlockReference
  2
_DOT
 10
914.5582664292002
 20
1844.714378402398
 30
0.0
 41
9.0
 42
9.0
 43
9.0
 50
270.0
  0
MTEXT
  5
4811
330
4809
100
AcDbEntity
  8
Dim
  6
Continuous
 62
     0
100
AcDbMText
 10
892.3419578354502
 20
2054.714378402397
 30
0.0
 40
24.4326171875
 41
0.0
 46
0.0
 71
     5
 72
     1
  1
\A1;420
  7
ＭＳ ゴシック
 11
0.0
 21
1.0
 31
0.0
 73
     1
 44
1.0
  0
POINT
  5
4812
330
4809
100
AcDbEntity
  8
Defpoints
 62
     0
100
AcDbPoint
 10
585.8656692273757
 20
2264.714378402397
 30
0.0
  0
POINT
  5
4813
330
4809
100
AcDbEntity
  8
Defpoints
 62
     0
100
AcDbPoint
 10
585.8656692273757
 20
1844.714378402398
 30
0.0
  0
POINT
  5
4814
330
4809
100
AcDbEntity
  8
Defpoints
 62
     0
100
AcDbPoint
 10
914.5582664292002
 20
1844.714378402398
 30
0.0
  0
ENDBLK
  5
480B
330
4809
100
AcDbEntity
  8
0
100
AcDbBlockEnd
  0
BLOCK
  5
481B
330
481A
100
AcDbEntity
  8
0
100
AcDbBlockBegin
  2
*D31
 70
     1
 10
0.0
 20
0.0
 30
0.0
  3
*D31
  1
*D31
  0
LINE
  5
481D
330
481A
100
AcDbEntity
  8
Dim
  6
Continuous
 62
     0
370
    -2
100
AcDbLine
 10
1249.649605911303
 20
2029.714378402397
 30
0.0
 11
1249.649605911303
 21
1760.374435859746
 31
0.0
  0
LINE
  5
481E
330
481A
100
AcDbEntity
  8
Dim
  6
Continuous
 62
     0
370
    -2
100
AcDbLine
 10
1559.649605911303
 20
2029.714378402397
 30
0.0
 11
1559.649605911303
 21
1760.374435859746
 31
0.0
  0
LINE
  5
481F
330
481A
100
AcDbEntity
  8
Dim
  6
Continuous
 62
     0
370
    -2
100
AcDbLine
 10
1258.649605911303
 20
1760.374435859746
 30
0.0
 11
1550.649605911303
 21
1760.374435859746
 31
0.0
  0
INSERT
  5
4820
330
481A
100
AcDbEntity
  8
Dim
 62
     0
370
    -2
100
AcDbBlockReference
  2
_DOT
 10
1249.649605911303
 20
1760.374435859746
 30
0.0
 41
9.0
 42
9.0
 43
9.0
 50
180.0
  0
INSERT
  5
4821
330
481A
100
AcDbEntity
  8
Dim
 62
     0
370
    -2
100
AcDbBlockReference
  2
_DOT
 10
1559.649605911303
 20
1760.374435859746
 30
0.0
 41
9.0
 42
9.0
 43
9.0
  0
MTEXT
  5
4822
330
481A
100
AcDbEntity
  8
Dim
  6
Continuous
 62
     0
100
AcDbMText
 10
1404.649605911303
 20
1782.590744453496
 30
0.0
 40
24.4326171875
 41
0.0
 46
0.0
 71
     5
 72
     1
  1
\A1;310
  7
ＭＳ ゴシック
 73
     1
 44
1.0
  0
POINT
  5
4823
330
481A
100
AcDbEntity
  8
Defpoints
 62
     0
100
AcDbPoint
 10
1249.649605911303
 20
2054.714378402397
 30
0.0
  0
POINT
  5
4824
330
481A
100
AcDbEntity
  8
Defpoints
 62
     0
100
AcDbPoint
 10
1559.649605911303
 20
2054.714378402397
 30
0.0
  0
POINT
  5
4825
330
481A
100
AcDbEntity
  8
Defpoints
 62
     0
100
AcDbPoint
 10
1559.649605911303
 20
1760.374435859746
 30
0.0
  0
ENDBLK
  5
481C
330
481A
100
AcDbEntity
  8
0
100
AcDbBlockEnd
  0
BLOCK
  5
482C
330
482B
100
AcDbEntity
  8
0
100
AcDbBlockBegin
  2
*D32
 70
     1
 10
0.0
 20
0.0
 30
0.0
  3
*D32
  1
*D32
  0
LINE
  5
482E
330
482B
100
AcDbEntity
  8
Dim
  6
Continuous
 62
     0
370
    -2
100
AcDbLine
 10
385.8656692273757
 20
2029.714378402397
 30
0.0
 11
385.8656692273757
 21
1760.374435859746
 31
0.0
  0
LINE
  5
482F
330
482B
100
AcDbEntity
  8
Dim
  6
Continuous
 62
     0
370
    -2
100
AcDbLine
 10
785.8656692273757
 20
2029.714378402397
 30
0.0
 11
785.8656692273757
 21
1760.374435859746
 31
0.0
  0
LINE
  5
4830
330
482B
100
AcDbEntity
  8
Dim
  6
Continuous
 62
     0
370
    -2
100
AcDbLine
 10
394.8656692273757
 20
1760.374435859746
 30
0.0
 11
776.8656692273757
 21
1760.374435859746
 31
0.0
  0
INSERT
  5
4831
330
482B
100
AcDbEntity
  8
Dim
 62
     0
370
    -2
100
AcDbBlockReference
  2
_DOT
 10
385.8656692273757
 20
1760.374435859746
 30
0.0
 41
9.0
 42
9.0
 43
9.0
 50
180.0
  0
INSERT
  5
4832
330
482B
100
AcDbEntity
  8
Dim
 62
     0
370
    -2
100
AcDbBlockReference
  2
_DOT
 10
785.8656692273757
 20
1760.374435859746
 30
0.0
 41
9.0
 42
9.0
 43
9.0
  0
MTEXT
  5
4833
330
482B
100
AcDbEntity
  8
Dim
  6
Continuous
 62
     0
100
AcDbMText
 10
585.8656692273757
 20
1782.590744453496
 30
0.0
 40
24.4326171875
 41
0.0
 46
0.0
 71
     5
 72
     1
  1
\A1;400
  7
ＭＳ ゴシック
 73
     1
 44
1.0
  0
POINT
  5
4834
330
482B
100
AcDbEntity
  8
Defpoints
 62
     0
100
AcDbPoint
 10
385.8656692273757
 20
2054.714378402397
 30
0.0
  0
POINT
  5
4835
330
482B
100
AcDbEntity
  8
Defpoints
 62
     0
100
AcDbPoint
 10
785.8656692273757
 20
2054.714378402397
 30
0.0
  0
POINT
  5
4836
330
482B
100
AcDbEntity
  8
Defpoints
 62
     0
100
AcDbPoint
 10
785.8656692273757
 20
1760.374435859746
 30
0.0
  0
ENDBLK
  5
482D
330
482B
100
AcDbEntity
  8
0
100
AcDbBlockEnd
  0
BLOCK
  5
48E0
330
48DF
100
AcDbEntity
  8
0
100
AcDbBlockBegin
  2
*D33
 70
     1
 10
0.0
 20
0.0
 30
0.0
  3
*D33
  1
*D36
  0
LINE
  5
48E2
330
48DF
100
AcDbEntity
  8
MODEL
  6
Continuous
 62
     0
370
    -2
100
AcDbLine
 10
1169.648635502319
 20
2009.503033091981
 30
0.0
 11
1169.648635502319
 21
1644.173687591067
 31
0.0
  0
LINE
  5
48E3
330
48DF
100
AcDbEntity
  8
MODEL
  6
Continuous
 62
     0
370
    -2
100
AcDbLine
 10
1569.650404065513
 20
2009.503033091981
 30
0.0
 11
1569.650404065513
 21
1644.173687591067
 31
0.0
  0
LINE
  5
48E4
330
48DF
100
AcDbEntity
  8
MODEL
  6
Continuous
 62
     0
370
    -2
100
AcDbLine
 10
1178.648635502319
 20
1644.173687591067
 30
0.0
 11
1560.650404065513
 21
1644.173687591067
 31
0.0
  0
INSERT
  5
48E5
330
48DF
100
AcDbEntity
  8
MODEL
 62
     0
370
    -2
100
AcDbBlockReference
  2
_DOT
 10
1169.648635502319
 20
1644.173687591067
 30
0.0
 41
9.0
 42
9.0
 43
9.0
 50
180.0
  0
INSERT
  5
48E6
330
48DF
100
AcDbEntity
  8
MODEL
 62
     0
370
    -2
100
AcDbBlockReference
  2
_DOT
 10
1569.650404065513
 20
1644.173687591067
 30
0.0
 41
9.0
 42
9.0
 43
9.0
  0
MTEXT
  5
48E7
330
48DF
100
AcDbEntity
  8
MODEL
  6
Continuous
 62
     0
370
     0
100
AcDbMText
 10
1369.649519783916
 20
1666.389996184817
 30
0.0
 40
24.4326171875
 41
0.0
 46
0.0
 71
     5
 72
     1
  1
\A1;400
  7
ＭＳ ゴシック
 73
     1
 44
1.0
  0
POINT
  5
48E8
330
48DF
100
AcDbEntity
  8
Defpoints
 62
     0
100
AcDbPoint
 10
1169.648635502319
 20
2034.503033091981
 30
0.0
  0
POINT
  5
48E9
330
48DF
100
AcDbEntity
  8
Defpoints
 62
     0
100
AcDbPoint
 10
1569.650404065513
 20
2034.503033091981
 30
0.0
  0
POINT
  5
48EA
330
48DF
100
AcDbEntity
  8
Defpoints
 62
     0
100
AcDbPoint
 10
1569.650404065513
 20
1644.173687591067
 30
0.0
  0
ENDBLK
  5
48E1
330
48DF
100
AcDbEntity
  8
0
100
AcDbBlockEnd
  0
BLOCK
  5
48F4
330
48F3
100
AcDbEntity
  8
0
100
AcDbBlockBegin
  2
*D34
 70
     1
 10
0.0
 20
0.0
 30
0.0
  3
*D34
  1
*D37
  0
LINE
  5
48F6
330
48F3
100
AcDbEntity
  8
MODEL
  6
Continuous
 62
     0
370
    -2
100
AcDbLine
 10
617.1523294077115
 20
806.9429419069779
 30
0.0
 11
852.2828731649238
 21
806.9429419069779
 31
0.0
  0
LINE
  5
48F7
330
48F3
100
AcDbEntity
  8
MODEL
  6
Continuous
 62
     0
370
    -2
100
AcDbLine
 10
764.0715151197614
 20
941.9429419069775
 30
0.0
 11
852.2828731649238
 21
941.9429419069775
 31
0.0
  0
LINE
  5
48F8
330
48F3
100
AcDbEntity
  8
MODEL
  6
Continuous
 62
     0
370
    -2
100
AcDbLine
 10
852.2828731649238
 20
815.9429419069779
 30
0.0
 11
852.2828731649238
 21
932.9429419069775
 31
0.0
  0
INSERT
  5
48F9
330
48F3
100
AcDbEntity
  8
MODEL
 62
     0
370
    -2
100
AcDbBlockReference
  2
_DOT
 10
852.2828731649238
 20
806.9429419069779
 30
0.0
 41
9.0
 42
9.0
 43
9.0
 50
270.0
  0
INSERT
  5
48FA
330
48F3
100
AcDbEntity
  8
MODEL
 62
     0
370
    -2
100
AcDbBlockReference
  2
_DOT
 10
852.2828731649238
 20
941.9429419069775
 30
0.0
 41
9.0
 42
9.0
 43
9.0
 50
90.0
  0
MTEXT
  5
48FB
330
48F3
100
AcDbEntity
  8
MODEL
  6
Continuous
 62
     0
370
    13
100
AcDbMText
 10
830.0665645711738
 20
874.4429419069777
 30
0.0
 40
24.4326171875
 41
0.0
 46
0.0
 71
     5
 72
     1
  1
\A1;135
  7
ＭＳ ゴシック
 11
0.0
 21
1.0
 31
0.0
 73
     1
 44
1.0
  0
POINT
  5
48FC
330
48F3
100
AcDbEntity
  8
Defpoints
 62
     0
100
AcDbPoint
 10
592.1523294077115
 20
806.9429419069779
 30
0.0
  0
POINT
  5
48FD
330
48F3
100
AcDbEntity
  8
Defpoints
 62
     0
100
AcDbPoint
 10
739.0715151197614
 20
941.9429419069775
 30
0.0
  0
POINT
  5
48FE
330
48F3
100
AcDbEntity
  8
Defpoints
 62
     0
100
AcDbPoint
 10
852.2828731649238
 20
941.9429419069775
 30
0.0
  0
ENDBLK
  5
48F5
330
48F3
100
AcDbEntity
  8
0
100
AcDbBlockEnd
  0
BLOCK
  5
4901
330
4900
100
AcDbEntity
  8
0
100
AcDbBlockBegin
  2
*D35
 70
     1
 10
0.0
 20
0.0
 30
0.0
  3
*D35
  1
*D38
  0
LINE
  5
4903
330
4900
100
AcDbEntity
  8
Dim
  6
Continuous
 62
     0
370
    -2
100
AcDbLine
 10
788.3601570745992
 20
812.539324286378
 30
0.0
 11
788.3601570745992
 21
709.4694703380625
 31
0.0
  0
LINE
  5
4904
330
4900
100
AcDbEntity
  8
Dim
  6
Continuous
 62
     0
370
    -2
100
AcDbLine
 10
383.3601570745992
 20
812.539324286378
 30
0.0
 11
383.3601570745992
 21
709.4694703380625
 31
0.0
  0
LINE
  5
4905
330
4900
100
AcDbEntity
  8
Dim
  6
Continuous
 62
     0
370
    -2
100
AcDbLine
 10
779.3601570745992
 20
709.4694703380625
 30
0.0
 11
392.3601570745992
 21
709.4694703380625
 31
0.0
  0
INSERT
  5
4906
330
4900
100
AcDbEntity
  8
Dim
 62
     0
370
    -2
100
AcDbBlockReference
  2
_DOT
 10
788.3601570745992
 20
709.4694703380625
 30
0.0
 41
9.0
 42
9.0
 43
9.0
  0
INSERT
  5
4907
330
4900
100
AcDbEntity
  8
Dim
 62
     0
370
    -2
100
AcDbBlockReference
  2
_DOT
 10
383.3601570745992
 20
709.4694703380625
 30
0.0
 41
9.0
 42
9.0
 43
9.0
 50
180.0
  0
MTEXT
  5
4908
330
4900
100
AcDbEntity
  8
Dim
  6
Continuous
 62
     0
100
AcDbMText
 10
585.8601570745992
 20
731.6857789318125
 30
0.0
 40
24.4326171875
 41
0.0
 46
0.0
 71
     5
 72
     1
  1
\A1;405
  7
ＭＳ ゴシック
 73
     1
 44
1.0
  0
POINT
  5
4909
330
4900
100
AcDbEntity
  8
Defpoints
 62
     0
100
AcDbPoint
 10
788.3601570745992
 20
837.539324286378
 30
0.0
  0
POINT
  5
490A
330
4900
100
AcDbEntity
  8
Defpoints
 62
     0
100
AcDbPoint
 10
383.3601570745992
 20
837.539324286378
 30
0.0
  0
POINT
  5
490B
330
4900
100
AcDbEntity
  8
Defpoints
 62
     0
100
AcDbPoint
 10
383.3601570745992
 20
709.4694703380625
 30
0.0
  0
ENDBLK
  5
4902
330
4900
100
AcDbEntity
  8
0
100
AcDbBlockEnd
  0
BLOCK
  5
4954
330
4953
100
AcDbEntity
  8
0
100
AcDbBlockBegin
  2
*D36
 70
     1
 10
0.0
 20
0.0
 30
0.0
  3
*D36
  1
*D40
  0
LINE
  5
4956
330
4953
100
AcDbEntity
  8
Dim
  6
Continuous
 62
     0
370
    -2
100
AcDbLine
 10
1379.685574609874
 20
862.1625838958821
 30
0.0
 11
1404.685574609874
 21
862.1625838958821
 31
0.0
  0
LINE
  5
4957
330
4953
100
AcDbEntity
  8
Dim
  6
Continuous
 62
     0
370
    -2
100
AcDbLine
 10
1379.685574609874
 20
962.1625838958821
 30
0.0
 11
1404.685574609874
 21
962.1625838958821
 31
0.0
  0
LINE
  5
4958
330
4953
100
AcDbEntity
  8
Dim
  6
Continuous
 62
     0
370
    -2
100
AcDbLine
 10
1404.685574609874
 20
962.1625838958821
 30
0.0
 11
1404.685574609874
 21
1132.538503817757
 31
0.0
  0
LINE
  5
4959
330
4953
100
AcDbEntity
  8
Dim
  6
Continuous
 62
     0
370
    -2
100
AcDbLine
 10
1404.685574609874
 20
853.1625838958821
 30
0.0
 11
1404.685574609874
 21
844.1625838958821
 31
0.0
  0
LINE
  5
495A
330
4953
100
AcDbEntity
  8
Dim
  6
Continuous
 62
     0
370
    -2
100
AcDbLine
 10
1404.685574609874
 20
971.1625838958821
 30
0.0
 11
1404.685574609874
 21
980.1625838958821
 31
0.0
  0
INSERT
  5
495B
330
4953
100
AcDbEntity
  8
Dim
 62
     0
370
    -2
100
AcDbBlockReference
  2
_DOT
 10
1404.685574609874
 20
862.1625838958821
 30
0.0
 41
9.0
 42
9.0
 43
9.0
 50
90.0
  0
INSERT
  5
495C
330
4953
100
AcDbEntity
  8
Dim
 62
     0
370
    -2
100
AcDbBlockReference
  2
_DOT
 10
1404.685574609874
 20
962.1625838958821
 30
0.0
 41
9.0
 42
9.0
 43
9.0
 50
270.0
  0
MTEXT
  5
495D
330
4953
100
AcDbEntity
  8
Dim
  6
Continuous
 62
     0
100
AcDbMText
 10
1380.306979395031
 20
1056.35054385682
 30
0.0
 40
24.4326171875
 41
0.0
 46
0.0
 71
     5
 72
     1
  1
\A1;100(深さ)
  7
ＭＳ ゴシック
 11
0.0
 21
1.0
 31
0.0
 73
     1
 44
1.0
  0
POINT
  5
495E
330
4953
100
AcDbEntity
  8
Defpoints
 62
     0
100
AcDbPoint
 10
1404.685574609874
 20
862.1625838958821
 30
0.0
  0
POINT
  5
495F
330
4953
100
AcDbEntity
  8
Defpoints
 62
     0
100
AcDbPoint
 10
1404.685574609874
 20
962.1625838958821
 30
0.0
  0
POINT
  5
4960
330
4953
100
AcDbEntity
  8
Defpoints
 62
     0
100
AcDbPoint
 10
1404.685574609874
 20
962.1625838958821
 30
0.0
  0
ENDBLK
  5
4955
330
4953
100
AcDbEntity
  8
0
100
AcDbBlockEnd
  0
BLOCK
  5
4969
330
4968
100
AcDbEntity
  8
0
100
AcDbBlockBegin
  2
*D37
 70
     1
 10
0.0
 20
0.0
 30
0.0
  3
*D37
  1
*D41
  0
LINE
  5
496B
330
4968
100
AcDbEntity
  8
Dim
  6
Continuous
 62
     0
370
    -2
100
AcDbLine
 10
1629.623011457098
 20
962.1625838958821
 30
0.0
 11
1713.720083357208
 21
962.1625838958821
 31
0.0
  0
LINE
  5
496C
330
4968
100
AcDbEntity
  8
Dim
  6
Continuous
 62
     0
370
    -2
100
AcDbLine
 10
1625.037647043675
 20
842.1587115843031
 30
0.0
 11
1713.720083357208
 21
842.1587115843031
 31
0.0
  0
LINE
  5
496D
330
4968
100
AcDbEntity
  8
Dim
  6
Continuous
 62
     0
370
    -2
100
AcDbLine
 10
1713.720083357208
 20
953.1625838958821
 30
0.0
 11
1713.720083357208
 21
851.1587115843031
 31
0.0
  0
INSERT
  5
496E
330
4968
100
AcDbEntity
  8
Dim
 62
     0
370
    -2
100
AcDbBlockReference
  2
_DOT
 10
1713.720083357208
 20
962.1625838958821
 30
0.0
 41
9.0
 42
9.0
 43
9.0
 50
90.0
  0
INSERT
  5
496F
330
4968
100
AcDbEntity
  8
Dim
 62
     0
370
    -2
100
AcDbBlockReference
  2
_DOT
 10
1713.720083357208
 20
842.1587115843031
 30
0.0
 41
9.0
 42
9.0
 43
9.0
 50
270.0
  0
MTEXT
  5
4970
330
4968
100
AcDbEntity
  8
Dim
  6
Continuous
 62
     0
100
AcDbMText
 10
1691.503774763458
 20
902.1606477400926
 30
0.0
 40
24.4326171875
 41
0.0
 46
0.0
 71
     5
 72
     1
  1
\A1;120
  7
ＭＳ ゴシック
 11
0.0
 21
1.0
 31
0.0
 73
     1
 44
1.0
  0
POINT
  5
4971
330
4968
100
AcDbEntity
  8
Defpoints
 62
     0
100
AcDbPoint
 10
1604.623011457098
 20
962.1625838958821
 30
0.0
  0
POINT
  5
4972
330
4968
100
AcDbEntity
  8
Defpoints
 62
     0
100
AcDbPoint
 10
1600.037647043675
 20
842.1587115843031
 30
0.0
  0
POINT
  5
4973
330
4968
100
AcDbEntity
  8
Defpoints
 62
     0
100
AcDbPoint
 10
1713.720083357208
 20
842.1587115843031
 30
0.0
  0
ENDBLK
  5
496A
330
4968
100
AcDbEntity
  8
0
100
AcDbBlockEnd
  0
BLOCK
  5
4A66
330
4A65
100
AcDbEntity
  8
0
100
AcDbBlockBegin
  2
*D38
 70
     1
 10
0.0
 20
0.0
 30
0.0
  3
*D38
  1
*D38
  0
LINE
  5
4A68
330
4A65
100
AcDbEntity
  8
MODEL
  6
Continuous
 62
     0
370
    -2
100
AcDbLine
 10
1226.386789710394
 20
2043.843189218425
 30
0.0
 11
1292.361848292731
 21
2096.34448409105
 31
0.0
  0
MTEXT
  5
4A69
330
4A65
100
AcDbEntity
  8
MODEL
  6
Continuous
 62
     0
370
     0
100
AcDbMText
 10
1247.82958400751
 20
2091.828235286711
 30
0.0
 40
24.4326171875
 41
0.0
 46
0.0
 71
     5
 72
     1
  1
\A1;φ12
  7
ＭＳ ゴシック
 11
0.7824789199394283
 21
0.6226770750962539
 31
0.0
 73
     1
 44
1.0
  0
INSERT
  5
4A6A
330
4A65
100
AcDbEntity
  8
MODEL
 62
     0
370
    -2
100
AcDbBlockReference
  2
_DOT
 10
1219.34447943094
 20
2038.239095542559
 30
0.0
 41
9.0
 42
9.0
 43
9.0
 50
218.5118933166275
  0
POINT
  5
4A6B
330
4A65
100
AcDbEntity
  8
Defpoints
 62
     0
100
AcDbPoint
 10
1219.34447943094
 20
2038.239095542559
 30
0.0
  0
POINT
  5
4A6C
330
4A65
100
AcDbEntity
  8
Defpoints
 62
     0
100
AcDbPoint
 10
1209.954732391667
 20
2030.766970641404
 30
0.0
  0
ENDBLK
  5
4A67
330
4A65
100
AcDbEntity
  8
0
100
AcDbBlockEnd
  0
BLOCK
  5
4A80
330
4A7F
100
AcDbEntity
  8
0
100
AcDbBlockBegin
  2
*D39
 70
     1
 10
0.0
 20
0.0
 30
0.0
  3
*D39
  1
*D39
  0
LINE
  5
4A82
330
4A7F
100
AcDbEntity
  8
Dim
  6
Continuous
 62
     0
370
    -2
100
AcDbLine
 10
1573.896993957213
 20
2059.406066144485
 30
0.0
 11
1710.472264260314
 21
2104.380521777235
 31
0.0
  0
MTEXT
  5
4A83
330
4A7F
100
AcDbEntity
  8
Dim
  6
Continuous
 62
     0
100
AcDbMText
 10
1667.13618310242
 20
2115.58333997213
 30
0.0
 40
24.4326171875
 41
0.0
 46
0.0
 71
     5
 72
     1
  1
\A1;φ12
  7
ＭＳ ゴシック
 11
0.949825869727346
 21
0.3127791828058428
 31
0.0
 73
     1
 44
1.0
  0
INSERT
  5
4A84
330
4A7F
100
AcDbEntity
  8
Dim
 62
     0
370
    -2
100
AcDbBlockReference
  2
_DOT
 10
1565.348561129667
 20
2056.591053499233
 30
0.0
 41
9.0
 42
9.0
 43
9.0
 50
198.2267970274769
  0
POINT
  5
4A85
330
4A7F
100
AcDbEntity
  8
Defpoints
 62
     0
100
AcDbPoint
 10
1565.348561129667
 20
2056.591053499233
 30
0.0
  0
POINT
  5
4A86
330
4A7F
100
AcDbEntity
  8
Defpoints
 62
     0
100
AcDbPoint
 10
1553.950650692939
 20
2052.837703305563
 30
0.0
  0
ENDBLK
  5
4A81
330
4A7F
100
AcDbEntity
  8
0
100
AcDbBlockEnd
  0
BLOCK
  5
4A9B
330
4A9A
100
AcDbEntity
  8
0
100
AcDbBlockBegin
  2
*D40
 70
     1
 10
0.0
 20
0.0
 30
0.0
  3
*D40
  1
*D40
  0
LINE
  5
4A9D
330
4A9A
100
AcDbEntity
  8
Dim
  6
Continuous
 62
     0
370
    -2
100
AcDbLine
 10
507.1938477873969
 20
827.1542872173945
 30
0.0
 11
272.0633040301846
 21
827.1542872173944
 31
0.0
  0
LINE
  5
4A9E
330
4A9A
100
AcDbEntity
  8
Dim
  6
Continuous
 62
     0
370
    -2
100
AcDbLine
 10
360.2746620753469
 20
962.1542872173941
 30
0.0
 11
272.0633040301846
 21
962.1542872173941
 31
0.0
  0
LINE
  5
4A9F
330
4A9A
100
AcDbEntity
  8
Dim
  6
Continuous
 62
     0
370
    -2
100
AcDbLine
 10
272.0633040301846
 20
836.1542872173944
 30
0.0
 11
272.0633040301846
 21
953.1542872173941
 31
0.0
  0
INSERT
  5
4AA0
330
4A9A
100
AcDbEntity
  8
Dim
 62
     0
370
    -2
100
AcDbBlockReference
  2
_DOT
 10
272.0633040301846
 20
827.1542872173944
 30
0.0
 41
9.0
 42
9.0
 43
9.0
 50
270.0
  0
INSERT
  5
4AA1
330
4A9A
100
AcDbEntity
  8
Dim
 62
     0
370
    -2
100
AcDbBlockReference
  2
_DOT
 10
272.0633040301846
 20
962.1542872173941
 30
0.0
 41
9.0
 42
9.0
 43
9.0
 50
90.0
  0
MTEXT
  5
4AA2
330
4A9A
100
AcDbEntity
  8
Dim
  6
Continuous
 62
     0
100
AcDbMText
 10
249.8469954364346
 20
894.6542872173943
 30
0.0
 40
24.4326171875
 41
0.0
 46
0.0
 71
     5
 72
     1
  1
\A1;135
  7
ＭＳ ゴシック
 11
0.0
 21
1.0
 31
0.0
 73
     1
 44
1.0
  0
POINT
  5
4AA3
330
4A9A
100
AcDbEntity
  8
Defpoints
 62
     0
100
AcDbPoint
 10
532.1938477873969
 20
827.1542872173945
 30
0.0
  0
POINT
  5
4AA4
330
4A9A
100
AcDbEntity
  8
Defpoints
 62
     0
100
AcDbPoint
 10
385.2746620753469
 20
962.1542872173941
 30
0.0
  0
POINT
  5
4AA5
330
4A9A
100
AcDbEntity
  8
Defpoints
 62
     0
100
AcDbPoint
 10
272.0633040301846
 20
962.1542872173941
 30
0.0
  0
ENDBLK
  5
4A9C
330
4A9A
100
AcDbEntity
  8
0
100
AcDbBlockEnd
  0
BLOCK
  5
4AA8
330
4AA7
100
AcDbEntity
  8
0
100
AcDbBlockBegin
  2
*D41
 70
     1
 10
0.0
 20
0.0
 30
0.0
  3
*D41
  1
*D41
  0
LINE
  5
4AAA
330
4AA7
100
AcDbEntity
  8
Dim
  6
Continuous
 62
     0
370
    -2
100
AcDbLine
 10
818.827547409707
 20
962.1625838958821
 30
0.0
 11
911.5102679290635
 21
962.1625838958821
 31
0.0
  0
LINE
  5
4AAB
330
4AA7
100
AcDbEntity
  8
Dim
  6
Continuous
 62
     0
370
    -2
100
AcDbLine
 10
627.0411765621355
 20
792.1537177637961
 30
0.0
 11
911.5102679290635
 21
792.1537177637961
 31
0.0
  0
LINE
  5
4AAC
330
4AA7
100
AcDbEntity
  8
Dim
  6
Continuous
 62
     0
370
    -2
100
AcDbLine
 10
911.5102679290635
 20
953.1625838958821
 30
0.0
 11
911.5102679290635
 21
801.1537177637961
 31
0.0
  0
INSERT
  5
4AAD
330
4AA7
100
AcDbEntity
  8
Dim
 62
     0
370
    -2
100
AcDbBlockReference
  2
_DOT
 10
911.5102679290635
 20
962.1625838958821
 30
0.0
 41
9.0
 42
9.0
 43
9.0
 50
90.0
  0
INSERT
  5
4AAE
330
4AA7
100
AcDbEntity
  8
Dim
 62
     0
370
    -2
100
AcDbBlockReference
  2
_DOT
 10
911.5102679290635
 20
792.1537177637961
 30
0.0
 41
9.0
 42
9.0
 43
9.0
 50
270.0
  0
MTEXT
  5
4AAF
330
4AA7
100
AcDbEntity
  8
Dim
  6
Continuous
 62
     0
100
AcDbMText
 10
889.2939593353135
 20
877.1581508298391
 30
0.0
 40
24.4326171875
 41
0.0
 46
0.0
 71
     5
 72
     1
  1
\A1;170
  7
ＭＳ ゴシック
 11
0.0
 21
1.0
 31
0.0
 73
     1
 44
1.0
  0
POINT
  5
4AB0
330
4AA7
100
AcDbEntity
  8
Defpoints
 62
     0
100
AcDbPoint
 10
793.827547409707
 20
962.1625838958821
 30
0.0
  0
POINT
  5
4AB1
330
4AA7
100
AcDbEntity
  8
Defpoints
 62
     0
100
AcDbPoint
 10
602.0411765621355
 20
792.1537177637961
 30
0.0
  0
POINT
  5
4AB2
330
4AA7
100
AcDbEntity
  8
Defpoints
 62
     0
100
AcDbPoint
 10
911.5102679290635
 20
792.1537177637961
 30
0.0
  0
ENDBLK
  5
4AA9
330
4AA7
100
AcDbEntity
  8
0
100
AcDbBlockEnd
  0
BLOCK
  5
4AE9
330
4AE8
100
AcDbEntity
  8
notes
390
1D
100
AcDbBlockBegin
  2
*D42
 70
     1
 10
0.0
 20
0.0
 30
0.0
  3
*D42
  1
*D3
  0
LINE
  5
4AEA
330
4AE8
100
AcDbEntity
  8
notes
  6
Continuous
 62
     0
370
    -2
100
AcDbLine
 10
91.98940778655833
 20
108.2390964386485
 30
0.0
 11
91.98940778655833
 21
130.7390964386485
 31
0.0
  0
LINE
  5
4AEB
330
4AE8
100
AcDbEntity
  8
notes
  6
Continuous
 62
     0
370
    -2
100
AcDbLine
 10
27.98753542086433
 20
108.2390964386485
 30
0.0
 11
27.98753542086433
 21
130.7390964386485
 31
0.0
  0
LINE
  5
4AEC
330
4AE8
100
AcDbEntity
  8
notes
  6
Continuous
 62
     0
370
    -2
100
AcDbLine
 10
91.58943220062083
 20
130.7390964386485
 30
0.0
 11
28.38751100680183
 21
130.7390964386485
 31
0.0
  0
INSERT
  5
4AED
102
{ACAD_REACTORS
330
4AEE
102
}
330
4AE8
100
AcDbEntity
  8
notes
 62
     0
370
    -2
100
AcDbBlockReference
  2
_DOT
 10
91.98940778655833
 20
130.7390964386485
 30
0.0
 41
0.3999755859375
 42
0.3999755859375
 43
0.3999755859375
  0
INSERT
  5
4AEE
330
4AE8
100
AcDbEntity
  8
notes
 62
     0
370
    -2
100
AcDbBlockReference
  2
_DOT
 10
27.98753542086433
 20
130.7390964386485
 30
0.0
 41
0.3999755859375
 42
0.3999755859375
 43
0.3999755859375
 50
180.0
  0
MTEXT
  5
4AEF
102
{ACAD_REACTORS
330
4AF0
102
}
330
4AE8
100
AcDbEntity
  8
notes
  6
Continuous
 62
     0
370
     5
100
AcDbMText
 10
59.98847160371133
 20
132.6586314972423
 30
0.0
 40
2.44326171875
 41
0.0
 46
0.0
 71
     5
 72
     1
  1
\A1;φ64
  7
ＭＳ ゴシック
 73
     1
 44
1.0
  0
POINT
  5
4AF0
330
4AE8
100
AcDbEntity
  8
Defpoints
 62
     0
100
AcDbPoint
 10
91.98940778655833
 20
105.7390964386485
 30
0.0
  0
POINT
  5
4AF1
330
4AE8
100
AcDbEntity
  8
Defpoints
 62
     0
100
AcDbPoint
 10
27.98753542086433
 20
105.7390964386485
 30
0.0
  0
POINT
  5
4AF2
330
4AE8
100
AcDbEntity
  8
Defpoints
 62
     0
100
AcDbPoint
 10
27.98753542086433
 20
130.7390964386485
 30
0.0
  0
ENDBLK
  5
4AF5
330
4AE8
100
AcDbEntity
  8
notes
390
1D
100
AcDbBlockEnd
  0
BLOCK
  5
4AF8
330
4AF7
100
AcDbEntity
  8
notes
390
1D
100
AcDbBlockBegin
  2
*D43
 70
     1
 10
0.0
 20
0.0
 30
0.0
  3
*D43
  1
*D4
  0
LINE
  5
4AF9
330
4AF7
100
AcDbEntity
  8
notes
  6
Continuous
 62
     0
370
    -2
100
AcDbLine
 10
26.03707623727587
 20
68.70035823109984
 30
0.0
 11
3.387761718749969
 21
68.70035823109984
 31
0.0
  0
LINE
  5
4AFA
330
4AF7
100
AcDbEntity
  8
notes
  6
Continuous
 62
     0
370
    -2
100
AcDbLine
 10
25.88776171874997
 20
99.68100788376606
 30
0.0
 11
3.387761718749971
 21
99.68100788376606
 31
0.0
  0
LINE
  5
4AFB
330
4AF7
100
AcDbEntity
  8
notes
  6
Continuous
 62
     0
370
    -2
100
AcDbLine
 10
3.387761718749969
 20
69.10033381703734
 30
0.0
 11
3.387761718749971
 21
99.28103229782856
 31
0.0
  0
INSERT
  5
4AFC
102
{ACAD_REACTORS
330
4AFD
102
}
330
4AF7
100
AcDbEntity
  8
notes
 62
     0
370
    -2
100
AcDbBlockReference
  2
_DOT
 10
3.387761718749969
 20
68.70035823109984
 30
0.0
 41
0.3999755859375
 42
0.3999755859375
 43
0.3999755859375
 50
270.0
  0
INSERT
  5
4AFD
330
4AF7
100
AcDbEntity
  8
notes
 62
     0
370
    -2
100
AcDbBlockReference
  2
_DOT
 10
3.387761718749971
 20
99.68100788376606
 30
0.0
 41
0.3999755859375
 42
0.3999755859375
 43
0.3999755859375
 50
90.0
  0
MTEXT
  5
4AFE
102
{ACAD_REACTORS
330
4AFF
102
}
330
4AF7
100
AcDbEntity
  8
notes
  6
Continuous
 62
     0
370
     5
100
AcDbMText
 10
1.666130859374973
 20
84.19068305743295
 30
0.0
 40
2.44326171875
 41
0.0
 46
0.0
 71
     5
 72
     1
  1
\A1;MAX.50
  7
ＭＳ ゴシック
 11
5.733762394641638E-17
 21
1.0
 31
0.0
 73
     1
 44
1.0
  0
POINT
  5
4AFF
330
4AF7
100
AcDbEntity
  8
Defpoints
 62
     0
100
AcDbPoint
 10
28.53707623727587
 20
68.70035823109984
 30
0.0
  0
POINT
  5
4B00
330
4AF7
100
AcDbEntity
  8
Defpoints
 62
     0
100
AcDbPoint
 10
28.38776171874997
 20
99.68100788376606
 30
0.0
  0
POINT
  5
4B01
330
4AF7
100
AcDbEntity
  8
Defpoints
 62
     0
100
AcDbPoint
 10
3.387761718749971
 20
99.68100788376606
 30
0.0
  0
ENDBLK
  5
4B04
330
4AF7
100
AcDbEntity
  8
notes
390
1D
100
AcDbBlockEnd
  0
BLOCK
  5
4B07
330
4B06
100
AcDbEntity
  8
notes
390
1D
100
AcDbBlockBegin
  2
*D44
 70
     1
 10
0.0
 20
0.0
 30
0.0
  3
*D44
  1
*D5
  0
LINE
  5
4B08
330
4B06
100
AcDbEntity
  8
notes
  6
Continuous
 62
     0
370
    -2
100
AcDbLine
 10
93.94145167612169
 20
68.70035823109984
 30
0.0
 11
109.989233260043
 21
68.70035823109984
 31
0.0
  0
LINE
  5
4B09
330
4B06
100
AcDbEntity
  8
notes
  6
Continuous
 62
     0
370
    -2
100
AcDbLine
 10
87.48923326004297
 20
43.69998779296876
 30
0.0
 11
109.989233260043
 21
43.69998779296876
 31
0.0
  0
LINE
  5
4B0A
330
4B06
100
AcDbEntity
  8
notes
  6
Continuous
 62
     0
370
    -2
100
AcDbLine
 10
109.989233260043
 20
68.30038264516234
 30
0.0
 11
109.989233260043
 21
44.09996337890626
 31
0.0
  0
INSERT
  5
4B0B
102
{ACAD_REACTORS
330
4B0C
102
}
330
4B06
100
AcDbEntity
  8
notes
 62
     0
370
    -2
100
AcDbBlockReference
  2
_DOT
 10
109.989233260043
 20
68.70035823109984
 30
0.0
 41
0.3999755859375
 42
0.3999755859375
 43
0.3999755859375
 50
90.0
  0
INSERT
  5
4B0C
330
4B06
100
AcDbEntity
  8
notes
 62
     0
370
    -2
100
AcDbBlockReference
  2
_DOT
 10
109.989233260043
 20
43.69998779296876
 30
0.0
 41
0.3999755859375
 42
0.3999755859375
 43
0.3999755859375
 50
270.0
  0
MTEXT
  5
4B0D
102
{ACAD_REACTORS
330
4B0E
102
}
330
4B06
100
AcDbEntity
  8
notes
  6
Continuous
 62
     0
370
     5
100
AcDbMText
 10
108.267602400668
 20
56.2001730120343
 30
0.0
 40
2.44326171875
 41
0.0
 46
0.0
 71
     5
 72
     1
  1
\A1;25
  7
ＭＳ ゴシック
 11
0.0
 21
1.0
 31
0.0
 73
     1
 44
1.0
  0
POINT
  5
4B0E
330
4B06
100
AcDbEntity
  8
Defpoints
 62
     0
100
AcDbPoint
 10
91.44145167612169
 20
68.70035823109984
 30
0.0
  0
POINT
  5
4B0F
330
4B06
100
AcDbEntity
  8
Defpoints
 62
     0
100
AcDbPoint
 10
84.98923326004297
 20
43.69998779296876
 30
0.0
  0
POINT
  5
4B10
330
4B06
100
AcDbEntity
  8
Defpoints
 62
     0
100
AcDbPoint
 10
109.989233260043
 20
43.69998779296876
 30
0.0
  0
ENDBLK
  5
4B11
330
4B06
100
AcDbEntity
  8
notes
390
1D
100
AcDbBlockEnd
  0
BLOCK
  5
4B14
330
4B13
100
AcDbEntity
  8
notes
390
1D
100
AcDbBlockBegin
  2
*D45
 70
     1
 10
0.0
 20
0.0
 30
0.0
  3
*D45
  1
*D6
  0
LINE
  5
4B15
330
4B13
100
AcDbEntity
  8
notes
  6
Continuous
 62
     0
370
    -2
100
AcDbLine
 10
81.73815919864228
 20
33.69978877750138
 30
0.0
 11
109.989233260043
 21
33.69978877750138
 31
0.0
  0
LINE
  5
4B16
330
4B13
100
AcDbEntity
  8
notes
  6
Continuous
 62
     0
370
    -2
100
AcDbLine
 10
87.48923326004297
 20
43.69998779296876
 30
0.0
 11
109.989233260043
 21
43.69998779296876
 31
0.0
  0
LINE
  5
4B17
330
4B13
100
AcDbEntity
  8
notes
  6
Continuous
 62
     0
370
    -2
100
AcDbLine
 10
109.989233260043
 20
34.09976436343887
 30
0.0
 11
109.989233260043
 21
43.30001220703127
 31
0.0
  0
INSERT
  5
4B18
102
{ACAD_REACTORS
330
4B19
102
}
330
4B13
100
AcDbEntity
  8
notes
 62
     0
370
    -2
100
AcDbBlockReference
  2
_DOT
 10
109.989233260043
 20
33.69978877750138
 30
0.0
 41
0.3999755859375
 42
0.3999755859375
 43
0.3999755859375
 50
270.0
  0
INSERT
  5
4B19
330
4B13
100
AcDbEntity
  8
notes
 62
     0
370
    -2
100
AcDbBlockReference
  2
_DOT
 10
109.989233260043
 20
43.69998779296876
 30
0.0
 41
0.3999755859375
 42
0.3999755859375
 43
0.3999755859375
 50
90.0
  0
MTEXT
  5
4B1A
102
{ACAD_REACTORS
330
4B1B
102
}
330
4B13
100
AcDbEntity
  8
notes
  6
Continuous
 62
     0
370
     5
100
AcDbMText
 10
108.267602400668
 20
38.69988828523507
 30
0.0
 40
2.44326171875
 41
0.0
 46
0.0
 71
     5
 72
     1
  1
\A1;10
  7
ＭＳ ゴシック
 11
0.0
 21
1.0
 31
0.0
 73
     1
 44
1.0
  0
POINT
  5
4B1B
330
4B13
100
AcDbEntity
  8
Defpoints
 62
     0
100
AcDbPoint
 10
79.23815919864228
 20
33.69978877750138
 30
0.0
  0
POINT
  5
4B1C
330
4B13
100
AcDbEntity
  8
Defpoints
 62
     0
100
AcDbPoint
 10
84.98923326004297
 20
43.69998779296876
 30
0.0
  0
POINT
  5
4B1D
330
4B13
100
AcDbEntity
  8
Defpoints
 62
     0
100
AcDbPoint
 10
109.989233260043
 20
43.69998779296876
 30
0.0
  0
ENDBLK
  5
4B1E
330
4B13
100
AcDbEntity
  8
notes
390
1D
100
AcDbBlockEnd
  0
BLOCK
  5
4B21
330
4B20
100
AcDbEntity
  8
notes
390
1D
100
AcDbBlockBegin
  2
*D46
 70
     1
 10
0.0
 20
0.0
 30
0.0
  3
*D46
  1
*D7
  0
LINE
  5
4B22
330
4B20
100
AcDbEntity
  8
notes
  6
Continuous
 62
     0
370
    -2
100
AcDbLine
 10
84.98923326004297
 20
41.19998779296876
 30
0.0
 11
84.98923326004297
 21
0.1999877929687628
 31
0.0
  0
LINE
  5
4B23
330
4B20
100
AcDbEntity
  8
notes
  6
Continuous
 62
     0
370
    -2
100
AcDbLine
 10
34.98735779049639
 20
41.19998779296876
 30
0.0
 11
34.98735779049639
 21
0.1999877929687628
 31
0.0
  0
LINE
  5
4B24
330
4B20
100
AcDbEntity
  8
notes
  6
Continuous
 62
     0
370
    -2
100
AcDbLine
 10
84.58925767410547
 20
0.1999877929687628
 30
0.0
 11
35.38733337643389
 21
0.1999877929687628
 31
0.0
  0
INSERT
  5
4B25
102
{ACAD_REACTORS
330
4B26
102
}
330
4B20
100
AcDbEntity
  8
notes
 62
     0
370
    -2
100
AcDbBlockReference
  2
_DOT
 10
84.98923326004297
 20
0.1999877929687628
 30
0.0
 41
0.3999755859375
 42
0.3999755859375
 43
0.3999755859375
  0
INSERT
  5
4B26
330
4B20
100
AcDbEntity
  8
notes
 62
     0
370
    -2
100
AcDbBlockReference
  2
_DOT
 10
34.98735779049639
 20
0.1999877929687628
 30
0.0
 41
0.3999755859375
 42
0.3999755859375
 43
0.3999755859375
 50
180.0
  0
MTEXT
  5
4B27
102
{ACAD_REACTORS
330
4B28
102
}
330
4B20
100
AcDbEntity
  8
notes
  6
Continuous
 62
     0
370
     5
100
AcDbMText
 10
59.98829552526968
 20
2.119522851562513
 30
0.0
 40
2.44326171875
 41
0.0
 46
0.0
 71
     5
 72
     1
  1
\A1;φ50
  7
ＭＳ ゴシック
 73
     1
 44
1.0
  0
POINT
  5
4B28
330
4B20
100
AcDbEntity
  8
Defpoints
 62
     0
100
AcDbPoint
 10
84.98923326004297
 20
43.69998779296876
 30
0.0
  0
POINT
  5
4B29
330
4B20
100
AcDbEntity
  8
Defpoints
 62
     0
100
AcDbPoint
 10
34.98735779049639
 20
43.69998779296876
 30
0.0
  0
POINT
  5
4B2A
330
4B20
100
AcDbEntity
  8
Defpoints
 62
     0
100
AcDbPoint
 10
34.98735779049639
 20
0.1999877929687628
 30
0.0
  0
ENDBLK
  5
4B2B
330
4B20
100
AcDbEntity
  8
notes
390
1D
100
AcDbBlockEnd
  0
BLOCK
  5
4B2E
330
4B2D
100
AcDbEntity
  8
notes
390
1D
100
AcDbBlockBegin
  2
*D47
 70
     1
 10
0.0
 20
0.0
 30
0.0
  3
*D47
  1
*D8
  0
LINE
  5
4B2F
330
4B2D
100
AcDbEntity
  8
notes
  6
Continuous
 62
     0
370
    -2
100
AcDbLine
 10
80.73905183532588
 20
32.69997710041881
 30
0.0
 11
80.73905183532588
 21
10.19997710041881
 31
0.0
  0
LINE
  5
4B30
330
4B2D
100
AcDbEntity
  8
notes
  6
Continuous
 62
     0
370
    -2
100
AcDbLine
 10
39.23736313677182
 20
32.69997710041881
 30
0.0
 11
39.23736313677182
 21
10.19997710041881
 31
0.0
  0
LINE
  5
4B31
330
4B2D
100
AcDbEntity
  8
notes
  6
Continuous
 62
     0
370
    -2
100
AcDbLine
 10
80.33907624938838
 20
10.19997710041881
 30
0.0
 11
39.63733872270932
 21
10.19997710041881
 31
0.0
  0
INSERT
  5
4B32
102
{ACAD_REACTORS
330
4B33
102
}
330
4B2D
100
AcDbEntity
  8
notes
 62
     0
370
    -2
100
AcDbBlockReference
  2
_DOT
 10
80.73905183532588
 20
10.19997710041881
 30
0.0
 41
0.3999755859375
 42
0.3999755859375
 43
0.3999755859375
  0
INSERT
  5
4B33
330
4B2D
100
AcDbEntity
  8
notes
 62
     0
370
    -2
100
AcDbBlockReference
  2
_DOT
 10
39.23736313677182
 20
10.19997710041881
 30
0.0
 41
0.3999755859375
 42
0.3999755859375
 43
0.3999755859375
 50
180.0
  0
MTEXT
  5
4B34
102
{ACAD_REACTORS
330
4B35
102
}
330
4B2D
100
AcDbEntity
  8
notes
  6
Continuous
 62
     0
370
     5
100
AcDbMText
 10
59.98820748604885
 20
12.18181533284069
 30
0.0
 40
2.44326171875
 41
0.0
 46
0.0
 71
     5
 72
     1
  1
\A1;G1 1/4"
  7
ＭＳ ゴシック
 73
     1
 44
1.0
  0
POINT
  5
4B35
330
4B2D
100
AcDbEntity
  8
Defpoints
 62
     0
100
AcDbPoint
 10
80.73905183532588
 20
35.19997710041881
 30
0.0
  0
POINT
  5
4B36
330
4B2D
100
AcDbEntity
  8
Defpoints
 62
     0
100
AcDbPoint
 10
39.23736313677182
 20
35.19997710041881
 30
0.0
  0
POINT
  5
4B37
330
4B2D
100
AcDbEntity
  8
Defpoints
 62
     0
100
AcDbPoint
 10
39.23736313677182
 20
10.19997710041881
 30
0.0
  0
ENDBLK
  5
4B38
330
4B2D
100
AcDbEntity
  8
notes
390
1D
100
AcDbBlockEnd
  0
BLOCK
  5
4BE3
330
4BE2
100
AcDbEntity
  8
0
100
AcDbBlockBegin
  2
*D48
 70
     1
 10
0.0
 20
0.0
 30
0.0
  3
*D48
  1
*D49
  0
LINE
  5
4BE5
330
4BE2
100
AcDbEntity
  8
notes
  6
Continuous
 62
     0
370
    -2
100
AcDbLine
 10
943.8486500550462
 20
646.9360055030289
 30
0.0
 11
943.8486500550462
 21
669.4360055030289
 31
0.0
  0
LINE
  5
4BE6
330
4BE2
100
AcDbEntity
  8
notes
  6
Continuous
 62
     0
370
    -2
100
AcDbLine
 10
879.8467776893522
 20
646.9360055030289
 30
0.0
 11
879.8467776893522
 21
669.4360055030289
 31
0.0
  0
LINE
  5
4BE7
330
4BE2
100
AcDbEntity
  8
notes
  6
Continuous
 62
     0
370
    -2
100
AcDbLine
 10
943.4486744691087
 20
669.4360055030289
 30
0.0
 11
880.2467532752896
 21
669.4360055030289
 31
0.0
  0
INSERT
  5
4BE8
330
4BE2
100
AcDbEntity
  8
notes
 62
     0
370
    -2
100
AcDbBlockReference
  2
_DOT
 10
943.8486500550462
 20
669.4360055030289
 30
0.0
 41
0.3999755859375
 42
0.3999755859375
 43
0.3999755859375
  0
INSERT
  5
4BE9
330
4BE2
100
AcDbEntity
  8
notes
 62
     0
370
    -2
100
AcDbBlockReference
  2
_DOT
 10
879.8467776893522
 20
669.4360055030289
 30
0.0
 41
0.3999755859375
 42
0.3999755859375
 43
0.3999755859375
 50
180.0
  0
MTEXT
  5
4BEA
330
4BE2
100
AcDbEntity
  8
notes
  6
Continuous
 62
     0
370
     5
100
AcDbMText
 10
911.8477138721992
 20
671.3555405616227
 30
0.0
 40
2.44326171875
 41
0.0
 46
0.0
 71
     5
 72
     1
  1
\A1;φ64
  7
ＭＳ ゴシック
 73
     1
 44
1.0
  0
POINT
  5
4BEB
330
4BE2
100
AcDbEntity
  8
Defpoints
 62
     0
100
AcDbPoint
 10
943.8486500550462
 20
644.4360055030289
 30
0.0
  0
POINT
  5
4BEC
330
4BE2
100
AcDbEntity
  8
Defpoints
 62
     0
100
AcDbPoint
 10
879.8467776893522
 20
644.4360055030289
 30
0.0
  0
POINT
  5
4BED
330
4BE2
100
AcDbEntity
  8
Defpoints
 62
     0
100
AcDbPoint
 10
879.8467776893522
 20
669.4360055030289
 30
0.0
  0
ENDBLK
  5
4BE4
330
4BE2
100
AcDbEntity
  8
0
100
AcDbBlockEnd
  0
BLOCK
  5
4BEF
330
4BEE
100
AcDbEntity
  8
0
100
AcDbBlockBegin
  2
*D49
 70
     1
 10
0.0
 20
0.0
 30
0.0
  3
*D49
  1
*D50
  0
LINE
  5
4BF1
330
4BEE
100
AcDbEntity
  8
notes
  6
Continuous
 62
     0
370
    -2
100
AcDbLine
 10
877.8963185057637
 20
607.3972672954802
 30
0.0
 11
855.2470039872378
 21
607.3972672954802
 31
0.0
  0
LINE
  5
4BF2
330
4BEE
100
AcDbEntity
  8
notes
  6
Continuous
 62
     0
370
    -2
100
AcDbLine
 10
877.7470039872378
 20
638.3779169481464
 30
0.0
 11
855.2470039872378
 21
638.3779169481464
 31
0.0
  0
LINE
  5
4BF3
330
4BEE
100
AcDbEntity
  8
notes
  6
Continuous
 62
     0
370
    -2
100
AcDbLine
 10
855.2470039872378
 20
607.7972428814177
 30
0.0
 11
855.2470039872378
 21
637.977941362209
 31
0.0
  0
INSERT
  5
4BF4
330
4BEE
100
AcDbEntity
  8
notes
 62
     0
370
    -2
100
AcDbBlockReference
  2
_DOT
 10
855.2470039872378
 20
607.3972672954802
 30
0.0
 41
0.3999755859375
 42
0.3999755859375
 43
0.3999755859375
 50
270.0
  0
INSERT
  5
4BF5
330
4BEE
100
AcDbEntity
  8
notes
 62
     0
370
    -2
100
AcDbBlockReference
  2
_DOT
 10
855.2470039872378
 20
638.3779169481464
 30
0.0
 41
0.3999755859375
 42
0.3999755859375
 43
0.3999755859375
 50
90.0
  0
MTEXT
  5
4BF6
330
4BEE
100
AcDbEntity
  8
notes
  6
Continuous
 62
     0
370
     5
100
AcDbMText
 10
853.5253731278628
 20
622.8875921218133
 30
0.0
 40
2.44326171875
 41
0.0
 46
0.0
 71
     5
 72
     1
  1
\A1;MAX.50
  7
ＭＳ ゴシック
 11
0.0
 21
1.0
 31
0.0
 73
     1
 44
1.0
  0
POINT
  5
4BF7
330
4BEE
100
AcDbEntity
  8
Defpoints
 62
     0
100
AcDbPoint
 10
880.3963185057637
 20
607.3972672954802
 30
0.0
  0
POINT
  5
4BF8
330
4BEE
100
AcDbEntity
  8
Defpoints
 62
     0
100
AcDbPoint
 10
880.2470039872378
 20
638.3779169481464
 30
0.0
  0
POINT
  5
4BF9
330
4BEE
100
AcDbEntity
  8
Defpoints
 62
     0
100
AcDbPoint
 10
855.2470039872378
 20
638.3779169481464
 30
0.0
  0
ENDBLK
  5
4BF0
330
4BEE
100
AcDbEntity
  8
0
100
AcDbBlockEnd
  0
BLOCK
  5
4BFB
330
4BFA
100
AcDbEntity
  8
0
100
AcDbBlockBegin
  2
*D50
 70
     1
 10
0.0
 20
0.0
 30
0.0
  3
*D50
  1
*D51
  0
LINE
  5
4BFD
330
4BFA
100
AcDbEntity
  8
notes
  6
Continuous
 62
     0
370
    -2
100
AcDbLine
 10
945.8006939446095
 20
607.3972672954802
 30
0.0
 11
961.8484755285308
 21
607.3972672954802
 31
0.0
  0
LINE
  5
4BFE
330
4BFA
100
AcDbEntity
  8
notes
  6
Continuous
 62
     0
370
    -2
100
AcDbLine
 10
939.3484755285308
 20
582.3968968573491
 30
0.0
 11
961.8484755285308
 21
582.3968968573491
 31
0.0
  0
LINE
  5
4BFF
330
4BFA
100
AcDbEntity
  8
notes
  6
Continuous
 62
     0
370
    -2
100
AcDbLine
 10
961.8484755285308
 20
606.9972917095428
 30
0.0
 11
961.8484755285308
 21
582.7968724432866
 31
0.0
  0
INSERT
  5
4C00
330
4BFA
100
AcDbEntity
  8
notes
 62
     0
370
    -2
100
AcDbBlockReference
  2
_DOT
 10
961.8484755285308
 20
607.3972672954802
 30
0.0
 41
0.3999755859375
 42
0.3999755859375
 43
0.3999755859375
 50
90.0
  0
INSERT
  5
4C01
330
4BFA
100
AcDbEntity
  8
notes
 62
     0
370
    -2
100
AcDbBlockReference
  2
_DOT
 10
961.8484755285308
 20
582.3968968573491
 30
0.0
 41
0.3999755859375
 42
0.3999755859375
 43
0.3999755859375
 50
270.0
  0
MTEXT
  5
4C02
330
4BFA
100
AcDbEntity
  8
notes
  6
Continuous
 62
     0
370
     5
100
AcDbMText
 10
960.1268446691558
 20
594.8970820764147
 30
0.0
 40
2.44326171875
 41
0.0
 46
0.0
 71
     5
 72
     1
  1
\A1;25
  7
ＭＳ ゴシック
 11
0.0
 21
1.0
 31
0.0
 73
     1
 44
1.0
  0
POINT
  5
4C03
330
4BFA
100
AcDbEntity
  8
Defpoints
 62
     0
100
AcDbPoint
 10
943.3006939446095
 20
607.3972672954802
 30
0.0
  0
POINT
  5
4C04
330
4BFA
100
AcDbEntity
  8
Defpoints
 62
     0
100
AcDbPoint
 10
936.8484755285308
 20
582.3968968573491
 30
0.0
  0
POINT
  5
4C05
330
4BFA
100
AcDbEntity
  8
Defpoints
 62
     0
100
AcDbPoint
 10
961.8484755285308
 20
582.3968968573491
 30
0.0
  0
ENDBLK
  5
4BFC
330
4BFA
100
AcDbEntity
  8
0
100
AcDbBlockEnd
  0
BLOCK
  5
4C07
330
4C06
100
AcDbEntity
  8
0
100
AcDbBlockBegin
  2
*D51
 70
     1
 10
0.0
 20
0.0
 30
0.0
  3
*D51
  1
*D52
  0
LINE
  5
4C09
330
4C06
100
AcDbEntity
  8
notes
  6
Continuous
 62
     0
370
    -2
100
AcDbLine
 10
933.5974014671301
 20
572.3966978418817
 30
0.0
 11
961.8484755285308
 21
572.3966978418817
 31
0.0
  0
LINE
  5
4C0A
330
4C06
100
AcDbEntity
  8
notes
  6
Continuous
 62
     0
370
    -2
100
AcDbLine
 10
939.3484755285308
 20
582.3968968573491
 30
0.0
 11
961.8484755285308
 21
582.3968968573491
 31
0.0
  0
LINE
  5
4C0B
330
4C06
100
AcDbEntity
  8
notes
  6
Continuous
 62
     0
370
    -2
100
AcDbLine
 10
961.8484755285308
 20
572.7966734278192
 30
0.0
 11
961.8484755285308
 21
581.9969212714117
 31
0.0
  0
INSERT
  5
4C0C
330
4C06
100
AcDbEntity
  8
notes
 62
     0
370
    -2
100
AcDbBlockReference
  2
_DOT
 10
961.8484755285308
 20
572.3966978418817
 30
0.0
 41
0.3999755859375
 42
0.3999755859375
 43
0.3999755859375
 50
270.0
  0
INSERT
  5
4C0D
330
4C06
100
AcDbEntity
  8
notes
 62
     0
370
    -2
100
AcDbBlockReference
  2
_DOT
 10
961.8484755285308
 20
582.3968968573491
 30
0.0
 41
0.3999755859375
 42
0.3999755859375
 43
0.3999755859375
 50
90.0
  0
MTEXT
  5
4C0E
330
4C06
100
AcDbEntity
  8
notes
  6
Continuous
 62
     0
370
     5
100
AcDbMText
 10
960.1268446691558
 20
577.3967973496154
 30
0.0
 40
2.44326171875
 41
0.0
 46
0.0
 71
     5
 72
     1
  1
\A1;10
  7
ＭＳ ゴシック
 11
0.0
 21
1.0
 31
0.0
 73
     1
 44
1.0
  0
POINT
  5
4C0F
330
4C06
100
AcDbEntity
  8
Defpoints
 62
     0
100
AcDbPoint
 10
931.0974014671301
 20
572.3966978418817
 30
0.0
  0
POINT
  5
4C10
330
4C06
100
AcDbEntity
  8
Defpoints
 62
     0
100
AcDbPoint
 10
936.8484755285308
 20
582.3968968573491
 30
0.0
  0
POINT
  5
4C11
330
4C06
100
AcDbEntity
  8
Defpoints
 62
     0
100
AcDbPoint
 10
961.8484755285308
 20
582.3968968573491
 30
0.0
  0
ENDBLK
  5
4C08
330
4C06
100
AcDbEntity
  8
0
100
AcDbBlockEnd
  0
BLOCK
  5
4C13
330
4C12
100
AcDbEntity
  8
0
100
AcDbBlockBegin
  2
*D52
 70
     1
 10
0.0
 20
0.0
 30
0.0
  3
*D52
  1
*D53
  0
LINE
  5
4C15
330
4C12
100
AcDbEntity
  8
notes
  6
Continuous
 62
     0
370
    -2
100
AcDbLine
 10
936.8484755285308
 20
579.8968968573491
 30
0.0
 11
936.8484755285308
 21
538.8968968573491
 31
0.0
  0
LINE
  5
4C16
330
4C12
100
AcDbEntity
  8
notes
  6
Continuous
 62
     0
370
    -2
100
AcDbLine
 10
886.8466000589842
 20
579.8968968573491
 30
0.0
 11
886.8466000589842
 21
538.8968968573491
 31
0.0
  0
LINE
  5
4C17
330
4C12
100
AcDbEntity
  8
notes
  6
Continuous
 62
     0
370
    -2
100
AcDbLine
 10
936.4484999425933
 20
538.8968968573491
 30
0.0
 11
887.2465756449217
 21
538.8968968573491
 31
0.0
  0
INSERT
  5
4C18
330
4C12
100
AcDbEntity
  8
notes
 62
     0
370
    -2
100
AcDbBlockReference
  2
_DOT
 10
936.8484755285308
 20
538.8968968573491
 30
0.0
 41
0.3999755859375
 42
0.3999755859375
 43
0.3999755859375
  0
INSERT
  5
4C19
330
4C12
100
AcDbEntity
  8
notes
 62
     0
370
    -2
100
AcDbBlockReference
  2
_DOT
 10
886.8466000589842
 20
538.8968968573491
 30
0.0
 41
0.3999755859375
 42
0.3999755859375
 43
0.3999755859375
 50
180.0
  0
MTEXT
  5
4C1A
330
4C12
100
AcDbEntity
  8
notes
  6
Continuous
 62
     0
370
     5
100
AcDbMText
 10
911.8475377937575
 20
540.8164319159429
 30
0.0
 40
2.44326171875
 41
0.0
 46
0.0
 71
     5
 72
     1
  1
\A1;φ50
  7
ＭＳ ゴシック
 73
     1
 44
1.0
  0
POINT
  5
4C1B
330
4C12
100
AcDbEntity
  8
Defpoints
 62
     0
100
AcDbPoint
 10
936.8484755285308
 20
582.3968968573491
 30
0.0
  0
POINT
  5
4C1C
330
4C12
100
AcDbEntity
  8
Defpoints
 62
     0
100
AcDbPoint
 10
886.8466000589842
 20
582.3968968573491
 30
0.0
  0
POINT
  5
4C1D
330
4C12
100
AcDbEntity
  8
Defpoints
 62
     0
100
AcDbPoint
 10
886.8466000589842
 20
538.8968968573491
 30
0.0
  0
ENDBLK
  5
4C14
330
4C12
100
AcDbEntity
  8
0
100
AcDbBlockEnd
  0
BLOCK
  5
4C1F
330
4C1E
100
AcDbEntity
  8
0
100
AcDbBlockBegin
  2
*D53
 70
     1
 10
0.0
 20
0.0
 30
0.0
  3
*D53
  1
*D54
  0
LINE
  5
4C21
330
4C1E
100
AcDbEntity
  8
notes
  6
Continuous
 62
     0
370
    -2
100
AcDbLine
 10
932.5982941038137
 20
571.3968861647992
 30
0.0
 11
932.5982941038137
 21
548.8968861647992
 31
0.0
  0
LINE
  5
4C22
330
4C1E
100
AcDbEntity
  8
notes
  6
Continuous
 62
     0
370
    -2
100
AcDbLine
 10
891.0966054052597
 20
571.3968861647992
 30
0.0
 11
891.0966054052597
 21
548.8968861647992
 31
0.0
  0
LINE
  5
4C23
330
4C1E
100
AcDbEntity
  8
notes
  6
Continuous
 62
     0
370
    -2
100
AcDbLine
 10
932.1983185178763
 20
548.8968861647992
 30
0.0
 11
891.4965809911971
 21
548.8968861647992
 31
0.0
  0
INSERT
  5
4C24
330
4C1E
100
AcDbEntity
  8
notes
 62
     0
370
    -2
100
AcDbBlockReference
  2
_DOT
 10
932.5982941038137
 20
548.8968861647992
 30
0.0
 41
0.3999755859375
 42
0.3999755859375
 43
0.3999755859375
  0
INSERT
  5
4C25
330
4C1E
100
AcDbEntity
  8
notes
 62
     0
370
    -2
100
AcDbBlockReference
  2
_DOT
 10
891.0966054052597
 20
548.8968861647992
 30
0.0
 41
0.3999755859375
 42
0.3999755859375
 43
0.3999755859375
 50
180.0
  0
MTEXT
  5
4C26
330
4C1E
100
AcDbEntity
  8
notes
  6
Continuous
 62
     0
370
     5
100
AcDbMText
 10
911.8474497545367
 20
550.878724397221
 30
0.0
 40
2.44326171875
 41
0.0
 46
0.0
 71
     5
 72
     1
  1
\A1;G1 1/4"
  7
ＭＳ ゴシック
 73
     1
 44
1.0
  0
POINT
  5
4C27
330
4C1E
100
AcDbEntity
  8
Defpoints
 62
     0
100
AcDbPoint
 10
932.5982941038137
 20
573.8968861647992
 30
0.0
  0
POINT
  5
4C28
330
4C1E
100
AcDbEntity
  8
Defpoints
 62
     0
100
AcDbPoint
 10
891.0966054052597
 20
573.8968861647992
 30
0.0
  0
POINT
  5
4C29
330
4C1E
100
AcDbEntity
  8
Defpoints
 62
     0
100
AcDbPoint
 10
891.0966054052597
 20
548.8968861647992
 30
0.0
  0
ENDBLK
  5
4C20
330
4C1E
100
AcDbEntity
  8
0
100
AcDbBlockEnd
  0
BLOCK
  5
4C2C
330
4C2B
100
AcDbEntity
  8
0
100
AcDbBlockBegin
  2
*D54
 70
     1
 10
0.0
 20
0.0
 30
0.0
  3
*D54
  1
*D55
  0
LINE
  5
4C2E
330
4C2B
100
AcDbEntity
  8
MODEL
  6
Continuous
 62
     0
370
    -2
100
AcDbLine
 10
607.3123447940219
 20
806.9429419069779
 30
0.0
 11
651.7196859316962
 21
806.9429419069779
 31
0.0
  0
LINE
  5
4C2F
330
4C2B
100
AcDbEntity
  8
MODEL
  6
Continuous
 62
     0
370
    -2
100
AcDbLine
 10
607.3123447940219
 20
771.9429419069779
 30
0.0
 11
651.7196859316962
 21
771.9429419069779
 31
0.0
  0
LINE
  5
4C30
330
4C2B
100
AcDbEntity
  8
MODEL
  6
Continuous
 62
     0
370
    -2
100
AcDbLine
 10
651.7196859316962
 20
797.9429419069779
 30
0.0
 11
651.7196859316962
 21
780.9429419069779
 31
0.0
  0
INSERT
  5
4C31
330
4C2B
100
AcDbEntity
  8
MODEL
 62
     0
370
    -2
100
AcDbBlockReference
  2
_DOT
 10
651.7196859316962
 20
806.9429419069779
 30
0.0
 41
9.0
 42
9.0
 43
9.0
 50
90.0
  0
INSERT
  5
4C32
330
4C2B
100
AcDbEntity
  8
MODEL
 62
     0
370
    -2
100
AcDbBlockReference
  2
_DOT
 10
651.7196859316962
 20
771.9429419069779
 30
0.0
 41
9.0
 42
9.0
 43
9.0
 50
270.0
  0
MTEXT
  5
4C33
330
4C2B
100
AcDbEntity
  8
MODEL
  6
Continuous
 62
     0
370
     0
100
AcDbMText
 10
629.5033773379462
 20
789.4429419069779
 30
0.0
 40
24.4326171875
 41
0.0
 46
0.0
 71
     5
 72
     1
  1
\A1;35
  7
ＭＳ ゴシック
 11
0.0
 21
1.0
 31
0.0
 73
     1
 44
1.0
  0
POINT
  5
4C34
330
4C2B
100
AcDbEntity
  8
Defpoints
 62
     0
100
AcDbPoint
 10
582.3123447940219
 20
806.9429419069779
 30
0.0
  0
POINT
  5
4C35
330
4C2B
100
AcDbEntity
  8
Defpoints
 62
     0
100
AcDbPoint
 10
582.3123447940219
 20
771.9429419069779
 30
0.0
  0
POINT
  5
4C38
330
4C2B
100
AcDbEntity
  8
Defpoints
 62
     0
100
AcDbPoint
 10
651.7196859316962
 20
771.9429419069779
 30
0.0
  0
ENDBLK
  5
4C2D
330
4C2B
100
AcDbEntity
  8
0
100
AcDbBlockEnd
  0
BLOCK
  5
4C63
330
4C62
100
AcDbEntity
  8
0
100
AcDbBlockBegin
  2
*D55
 70
     1
 10
0.0
 20
0.0
 30
0.0
  3
*D55
  1
*D56
  0
LINE
  5
4C65
330
4C62
100
AcDbEntity
  8
Dim
  6
Continuous
 62
     0
370
    -2
100
AcDbLine
 10
1461.137762329298
 20
827.1542872173945
 30
0.0
 11
1505.545103466972
 21
827.1542872173945
 31
0.0
  0
LINE
  5
4C66
330
4C62
100
AcDbEntity
  8
Dim
  6
Continuous
 62
     0
370
    -2
100
AcDbLine
 10
1461.137762329298
 20
792.1542872173945
 30
0.0
 11
1505.545103466972
 21
792.1542872173945
 31
0.0
  0
LINE
  5
4C67
330
4C62
100
AcDbEntity
  8
Dim
  6
Continuous
 62
     0
370
    -2
100
AcDbLine
 10
1505.545103466972
 20
818.1542872173945
 30
0.0
 11
1505.545103466972
 21
801.1542872173945
 31
0.0
  0
INSERT
  5
4C68
330
4C62
100
AcDbEntity
  8
Dim
 62
     0
370
    -2
100
AcDbBlockReference
  2
_DOT
 10
1505.545103466972
 20
827.1542872173945
 30
0.0
 41
9.0
 42
9.0
 43
9.0
 50
90.0
  0
INSERT
  5
4C69
330
4C62
100
AcDbEntity
  8
Dim
 62
     0
370
    -2
100
AcDbBlockReference
  2
_DOT
 10
1505.545103466972
 20
792.1542872173945
 30
0.0
 41
9.0
 42
9.0
 43
9.0
 50
270.0
  0
MTEXT
  5
4C6A
330
4C62
100
AcDbEntity
  8
Dim
  6
Continuous
 62
     0
100
AcDbMText
 10
1483.328794873222
 20
809.6542872173945
 30
0.0
 40
24.4326171875
 41
0.0
 46
0.0
 71
     5
 72
     1
  1
\A1;35
  7
ＭＳ ゴシック
 11
0.0
 21
1.0
 31
0.0
 73
     1
 44
1.0
  0
POINT
  5
4C6B
330
4C62
100
AcDbEntity
  8
Defpoints
 62
     0
100
AcDbPoint
 10
1436.137762329298
 20
827.1542872173945
 30
0.0
  0
POINT
  5
4C6C
330
4C62
100
AcDbEntity
  8
Defpoints
 62
     0
100
AcDbPoint
 10
1436.137762329298
 20
792.1542872173945
 30
0.0
  0
POINT
  5
4C6D
330
4C62
100
AcDbEntity
  8
Defpoints
 62
     0
100
AcDbPoint
 10
1505.545103466972
 20
792.1542872173945
 30
0.0
  0
ENDBLK
  5
4C64
330
4C62
100
AcDbEntity
  8
0
100
AcDbBlockEnd
  0
BLOCK
  5
4CA1
330
4CA0
100
AcDbEntity
  8
0
100
AcDbBlockBegin
  2
*D56
 70
     1
 10
0.0
 20
0.0
 30
0.0
  3
*D56
  1
*D57
  0
LINE
  5
4CA3
330
4CA0
100
AcDbEntity
  8
MODEL
  6
Continuous
 62
     0
370
    -2
100
AcDbLine
 10
75.36985429322885
 20
2899.552903395052
 30
0.0
 11
75.36985429322885
 21
3257.637157205133
 31
0.0
  0
LINE
  5
4CA4
330
4CA0
100
AcDbEntity
  8
MODEL
  6
Continuous
 62
     0
370
    -2
100
AcDbLine
 10
2025.369854293229
 20
2899.552903395052
 30
0.0
 11
2025.369854293229
 21
3257.637157205133
 31
0.0
  0
LINE
  5
4CA5
330
4CA0
100
AcDbEntity
  8
MODEL
  6
Continuous
 62
     0
370
    -2
100
AcDbLine
 10
84.36985429322885
 20
3257.637157205133
 30
0.0
 11
2016.369854293229
 21
3257.637157205133
 31
0.0
  0
INSERT
  5
4CA6
330
4CA0
100
AcDbEntity
  8
MODEL
 62
     0
370
    -2
100
AcDbBlockReference
  2
_DOT
 10
75.36985429322885
 20
3257.637157205133
 30
0.0
 41
9.0
 42
9.0
 43
9.0
 50
180.0
  0
INSERT
  5
4CA7
330
4CA0
100
AcDbEntity
  8
MODEL
 62
     0
370
    -2
100
AcDbBlockReference
  2
_DOT
 10
2025.369854293229
 20
3257.637157205133
 30
0.0
 41
9.0
 42
9.0
 43
9.0
  0
MTEXT
  5
4CA8
330
4CA0
100
AcDbEntity
  8
MODEL
  6
Continuous
 62
     0
370
     0
100
AcDbMText
 10
1050.369854293229
 20
3279.853465798883
 30
0.0
 40
24.4326171875
 41
0.0
 46
0.0
 71
     5
 72
     1
  1
\A1;1950
  7
ＭＳ ゴシック
 73
     1
 44
1.0
  0
POINT
  5
4CA9
330
4CA0
100
AcDbEntity
  8
Defpoints
 62
     0
100
AcDbPoint
 10
75.36985429322885
 20
2874.552903395052
 30
0.0
  0
POINT
  5
4CAA
330
4CA0
100
AcDbEntity
  8
Defpoints
 62
     0
100
AcDbPoint
 10
2025.369854293229
 20
2874.552903395052
 30
0.0
  0
POINT
  5
4CAB
330
4CA0
100
AcDbEntity
  8
Defpoints
 62
     0
100
AcDbPoint
 10
2025.369854293229
 20
3257.637157205133
 30
0.0
  0
ENDBLK
  5
4CA2
330
4CA0
100
AcDbEntity
  8
0
100
AcDbBlockEnd
  0
BLOCK
  5
4CDC
330
4CDB
100
AcDbEntity
  8
0
100
AcDbBlockBegin
  2
*D57
 70
     1
 10
0.0
 20
0.0
 30
0.0
  3
*D57
  1
*D57
  0
LINE
  5
4CDE
330
4CDB
100
AcDbEntity
  8
MODEL
  6
Continuous
 62
     0
370
    -2
100
AcDbLine
 10
565.1082562546723
 20
792.7745791284115
 30
0.0
 11
565.1082562546723
 21
759.5867877871476
 31
0.0
  0
LINE
  5
4CDF
330
4CDB
100
AcDbEntity
  8
MODEL
  6
Continuous
 62
     0
370
    -2
100
AcDbLine
 10
606.6099449532263
 20
792.7745791284115
 30
0.0
 11
606.6099449532263
 21
759.5867877871476
 31
0.0
  0
LINE
  5
4CE0
330
4CDB
100
AcDbEntity
  8
MODEL
  6
Continuous
 62
     0
370
    -2
100
AcDbLine
 10
565.5082318406097
 20
759.5867877871476
 30
0.0
 11
606.2099693672889
 21
759.5867877871476
 31
0.0
  0
INSERT
  5
4CE1
330
4CDB
100
AcDbEntity
  8
MODEL
 62
     0
370
    -2
100
AcDbBlockReference
  2
_DOT
 10
565.1082562546723
 20
759.5867877871476
 30
0.0
 41
0.3999755859375
 42
0.3999755859375
 43
0.3999755859375
 50
180.0
  0
INSERT
  5
4CE2
330
4CDB
100
AcDbEntity
  8
MODEL
 62
     0
370
    -2
100
AcDbBlockReference
  2
_DOT
 10
606.6099449532263
 20
759.5867877871476
 30
0.0
 41
0.3999755859375
 42
0.3999755859375
 43
0.3999755859375
  0
MTEXT
  5
4CE3
330
4CDB
100
AcDbEntity
  8
MODEL
  6
Continuous
 62
     0
370
     0
100
AcDbMText
 10
585.8591006039493
 20
761.3084186465226
 30
0.0
 40
2.44326171875
 41
0.0
 46
0.0
 71
     5
 72
     1
  1
\A1;41.5
  7
ＭＳ ゴシック
 73
     1
 44
1.0
  0
POINT
  5
4CE4
330
4CDB
100
AcDbEntity
  8
Defpoints
 62
     0
100
AcDbPoint
 10
565.1082562546723
 20
795.2745791284115
 30
0.0
  0
POINT
  5
4CE5
330
4CDB
100
AcDbEntity
  8
Defpoints
 62
     0
100
AcDbPoint
 10
606.6099449532263
 20
795.2745791284115
 30
0.0
  0
POINT
  5
4CE6
330
4CDB
100
AcDbEntity
  8
Defpoints
 62
     0
100
AcDbPoint
 10
606.6099449532263
 20
759.5867877871476
 30
0.0
  0
ENDBLK
  5
4CDD
330
4CDB
100
AcDbEntity
  8
0
100
AcDbBlockEnd
  0
BLOCK
  5
4CEB
330
4CEA
100
AcDbEntity
  8
0
100
AcDbBlockBegin
  2
*D58
 70
     1
 10
0.0
 20
0.0
 30
0.0
  3
*D58
  1
*D58
  0
LINE
  5
4CED
330
4CEA
100
AcDbEntity
  8
Dim
  6
Continuous
 62
     0
370
    -2
100
AcDbLine
 10
1383.933673789948
 20
779.0755599505763
 30
0.0
 11
1383.933673789948
 21
748.0144956066521
 31
0.0
  0
LINE
  5
4CEE
330
4CEA
100
AcDbEntity
  8
Dim
  6
Continuous
 62
     0
370
    -2
100
AcDbLine
 10
1425.435362488502
 20
779.0755599505763
 30
0.0
 11
1425.435362488502
 21
748.0144956066521
 31
0.0
  0
LINE
  5
4CEF
330
4CEA
100
AcDbEntity
  8
Dim
  6
Continuous
 62
     0
370
    -2
100
AcDbLine
 10
1392.933673789948
 20
748.0144956066521
 30
0.0
 11
1416.435362488502
 21
748.0144956066521
 31
0.0
  0
INSERT
  5
4CF0
330
4CEA
100
AcDbEntity
  8
Dim
 62
     0
370
    -2
100
AcDbBlockReference
  2
_DOT
 10
1383.933673789948
 20
748.0144956066521
 30
0.0
 41
9.0
 42
9.0
 43
9.0
 50
180.0
  0
INSERT
  5
4CF1
330
4CEA
100
AcDbEntity
  8
Dim
 62
     0
370
    -2
100
AcDbBlockReference
  2
_DOT
 10
1425.435362488502
 20
748.0144956066521
 30
0.0
 41
9.0
 42
9.0
 43
9.0
  0
MTEXT
  5
4CF2
330
4CEA
100
AcDbEntity
  8
Dim
  6
Continuous
 62
     0
370
     0
100
AcDbMText
 10
1404.684518139225
 20
723.1961132824333
 30
0.0
 40
24.4326171875
 41
0.0
 46
0.0
 71
     5
 72
     1
  1
\A1;G1 1/4"
  7
ＭＳ ゴシック
 73
     1
 44
1.0
  0
POINT
  5
4CF3
330
4CEA
100
AcDbEntity
  8
Defpoints
 62
     0
100
AcDbPoint
 10
1383.933673789948
 20
779.0755599505763
 30
0.0
  0
POINT
  5
4CF4
330
4CEA
100
AcDbEntity
  8
Defpoints
 62
     0
100
AcDbPoint
 10
1425.435362488502
 20
779.0755599505763
 30
0.0
  0
POINT
  5
4CF7
330
4CEA
100
AcDbEntity
  8
Defpoints
 62
     0
100
AcDbPoint
 10
1425.435362488502
 20
748.0144956066521
 30
0.0
  0
ENDBLK
  5
4CEC
330
4CEA
100
AcDbEntity
  8
0
100
AcDbBlockEnd
  0
BLOCK
  5
4CFA
330
4CF9
100
AcDbEntity
  8
0
100
AcDbBlockBegin
  2
*D59
 70
     1
 10
0.0
 20
0.0
 30
0.0
  3
*D59
  1
*D59
  0
LINE
  5
4CFC
330
4CF9
100
AcDbEntity
  8
MODEL
  6
Continuous
 62
     0
370
    -2
100
AcDbLine
 10
1512.819098841451
 20
736.2694426985471
 30
0.0
 11
1512.819098841451
 21
690.296441795891
 31
0.0
  0
LINE
  5
4CFD
330
4CF9
100
AcDbEntity
  8
MODEL
  6
Continuous
 62
     0
370
    -2
100
AcDbLine
 10
1592.635543936802
 20
736.2694426985471
 30
0.0
 11
1592.635543936802
 21
690.296441795891
 31
0.0
  0
LINE
  5
4CFE
330
4CF9
100
AcDbEntity
  8
MODEL
  6
Continuous
 62
     0
370
    -2
100
AcDbLine
 10
1513.219074427389
 20
690.296441795891
 30
0.0
 11
1592.235568350865
 21
690.296441795891
 31
0.0
  0
INSERT
  5
4CFF
330
4CF9
100
AcDbEntity
  8
MODEL
 62
     0
370
    -2
100
AcDbBlockReference
  2
_DOT
 10
1512.819098841451
 20
690.296441795891
 30
0.0
 41
0.3999755859375
 42
0.3999755859375
 43
0.3999755859375
 50
180.0
  0
INSERT
  5
4D00
330
4CF9
100
AcDbEntity
  8
MODEL
 62
     0
370
    -2
100
AcDbBlockReference
  2
_DOT
 10
1592.635543936802
 20
690.296441795891
 30
0.0
 41
0.3999755859375
 42
0.3999755859375
 43
0.3999755859375
  0
MTEXT
  5
4D01
330
4CF9
100
AcDbEntity
  8
MODEL
  6
Continuous
 62
     0
370
     0
100
AcDbMText
 10
1552.727321389127
 20
692.018072655266
 30
0.0
 40
2.44326171875
 41
0.0
 46
0.0
 71
     5
 72
     1
  1
\A1;79.8
  7
ＭＳ ゴシック
 73
     1
 44
1.0
  0
POINT
  5
4D02
330
4CF9
100
AcDbEntity
  8
Defpoints
 62
     0
100
AcDbPoint
 10
1512.819098841451
 20
738.7694426985471
 30
0.0
  0
POINT
  5
4D03
330
4CF9
100
AcDbEntity
  8
Defpoints
 62
     0
100
AcDbPoint
 10
1592.635543936802
 20
738.7694426985471
 30
0.0
  0
POINT
  5
4D04
330
4CF9
100
AcDbEntity
  8
Defpoints
 62
     0
100
AcDbPoint
 10
1592.635543936802
 20
690.296441795891
 30
0.0
  0
ENDBLK
  5
4CFB
330
4CF9
100
AcDbEntity
  8
0
100
AcDbBlockEnd
  0
BLOCK
  5
4D07
330
4D06
100
AcDbEntity
  8
0
100
AcDbBlockBegin
  2
*D60
 70
     1
 10
0.0
 20
0.0
 30
0.0
  3
*D60
  1
*D60
  0
LINE
  5
4D09
330
4D06
100
AcDbEntity
  8
MODEL
  6
Continuous
 62
     0
370
    -2
100
AcDbLine
 10
1525.575151710571
 20
743.8718638461951
 30
0.0
 11
1525.575151710571
 21
679.772366784384
 31
0.0
  0
LINE
  5
4D0A
330
4D06
100
AcDbEntity
  8
MODEL
  6
Continuous
 62
     0
370
    -2
100
AcDbLine
 10
1565.301144931545
 20
743.8718638461951
 30
0.0
 11
1565.301144931545
 21
679.772366784384
 31
0.0
  0
LINE
  5
4D0B
330
4D06
100
AcDbEntity
  8
MODEL
  6
Continuous
 62
     0
370
    -2
100
AcDbLine
 10
1516.575151710571
 20
699.7723667843802
 30
0.0
 11
1507.575151710571
 21
699.7723667843802
 31
0.0
  0
LINE
  5
4D0C
330
4D06
100
AcDbEntity
  8
MODEL
  6
Continuous
 62
     0
370
    -2
100
AcDbLine
 10
1574.301144931545
 20
699.7723667843802
 30
0.0
 11
1583.301144931545
 21
699.7723667843802
 31
0.0
  0
INSERT
  5
4D0D
330
4D06
100
AcDbEntity
  8
MODEL
 62
     0
370
    -2
100
AcDbBlockReference
  2
_DOT
 10
1525.575151710571
 20
699.7723667843802
 30
0.0
 41
9.0
 42
9.0
 43
9.0
  0
INSERT
  5
4D0E
330
4D06
100
AcDbEntity
  8
MODEL
 62
     0
370
    -2
100
AcDbBlockReference
  2
_DOT
 10
1565.301144931545
 20
699.7723667843802
 30
0.0
 41
9.0
 42
9.0
 43
9.0
 50
180.0
  0
MTEXT
  5
4D0F
330
4D06
100
AcDbEntity
  8
MODEL
  6
Continuous
 62
     0
370
     0
100
AcDbMText
 10
1545.438148321058
 20
721.9886753781302
 30
0.0
 40
24.4326171875
 41
0.0
 46
0.0
 71
     5
 72
     1
  1
\A1;39.7
  7
ＭＳ ゴシック
 73
     1
 44
1.0
  0
POINT
  5
4D10
330
4D06
100
AcDbEntity
  8
Defpoints
 62
     0
100
AcDbPoint
 10
1525.575151710571
 20
743.8718638461951
 30
0.0
  0
POINT
  5
4D11
330
4D06
100
AcDbEntity
  8
Defpoints
 62
     0
100
AcDbPoint
 10
1565.301144931545
 20
743.8718638461951
 30
0.0
  0
POINT
  5
4D12
330
4D06
100
AcDbEntity
  8
Defpoints
 62
     0
100
AcDbPoint
 10
1565.301144931545
 20
699.7723667843802
 30
0.0
  0
ENDBLK
  5
4D08
330
4D06
100
AcDbEntity
  8
0
100
AcDbBlockEnd
  0
ENDSEC
  0
SECTION
  2
ENTITIES
  0
MTEXT
  5
177
330
A
100
AcDbEntity
  8
template
390
1D
100
AcDbMText
 10
82.00000000048226
 20
341.3493268304683
 30
0.0
 40
16.28841145833333
 41
0.0
 46
0.0
 71
     1
 72
     1
  1
品名
  7
ＭＳ ゴシック
 73
     1
 44
0.7828267384257843
  0
MTEXT
  5
178
330
A
100
AcDbEntity
  8
template
390
1D
100
AcDbMText
 10
82.00000000048226
 20
256.3493268304682
 30
0.0
 40
16.28841145833333
 41
0.0
 46
0.0
 71
     1
 72
     1
  1
仕様
  7
ＭＳ ゴシック
 73
     1
 44
0.7828267384257843
  0
LINE
  5
179
330
A
100
AcDbEntity
  8
template
390
1D
100
AcDbLine
 10
2025.0
 20
264.7642487054682
 30
0.0
 11
75.00000000000023
 21
264.7642487054682
 31
0.0
  0
LWPOLYLINE
  5
17A
330
A
100
AcDbEntity
  8
template
390
1D
100
AcDbPolyline
 90
        5
 70
   128
 43
0.0
 10
2025.0
 20
2894.764248705469
 10
75.00000000000023
 20
2894.764248705469
 10
75.00000000000023
 20
94.76424870546816
 10
2025.0
 20
94.76424870546816
 10
2025.0
 20
2894.764248705469
  0
LINE
  5
17B
330
A
100
AcDbEntity
  8
template
390
1D
100
AcDbLine
 10
2025.0
 20
349.7642487054681
 30
0.0
 11
75.00000000000023
 21
349.7642487054681
 31
0.0
  0
LINE
  5
17C
330
A
100
AcDbEntity
  8
template
390
1D
100
AcDbLine
 10
2025.000000000482
 20
179.7642487054682
 30
0.0
 11
1272.000000000482
 21
179.7642487054682
 31
0.0
  0
MTEXT
  5
17E
330
A
100
AcDbEntity
  8
template
390
1D
100
AcDbMText
 10
1301.871406252743
 20
149.8538542321601
 30
0.0
 40
24.4326171875
 41
0.0
 46
0.0
 71
     1
 72
     1
  1
大洋金物株式会社 ティーフォルム事業部
  7
ＭＳ ゴシック
 73
     1
 44
0.7828267384257843
  0
MTEXT
  5
180
330
A
100
AcDbEntity
  8
template
390
1D
100
AcDbMText
 10
1837.089894676016
 20
224.2355576926545
 30
0.0
 40
24.4326171875
 41
0.0
 46
0.0
 71
     1
 72
     1
  1
1:10
  7
ＭＳ ゴシック
 73
     1
 44
0.7828267384257843
  0
MTEXT
  5
181
330
A
100
AcDbEntity
  8
template
390
1D
100
AcDbMText
 10
1781.000000000742
 20
256.3493268304682
 30
0.0
 40
16.28841145833333
 41
0.0
 46
0.0
 71
     1
 72
     1
  1
縮尺
  7
ＭＳ ゴシック
 73
     1
 44
0.7828267384257843
  0
LINE
  5
182
330
A
100
AcDbEntity
  8
template
390
1D
100
AcDbLine
 10
1774.000000000742
 20
179.7642487054682
 30
0.0
 11
1774.000000000742
 21
264.7642487054682
 31
0.0
  0
MTEXT
  5
183
330
A
100
AcDbEntity
  8
template
390
1D
100
AcDbMText
 10
1530.000000000742
 20
256.3493268304682
 30
0.0
 40
16.28841145833333
 41
0.0
 46
0.0
 71
     1
 72
     1
  1
容量
  7
ＭＳ ゴシック
 73
     1
 44
0.7828267384257843
  0
LINE
  5
184
330
A
100
AcDbEntity
  8
template
390
1D
100
AcDbLine
 10
1523.000000000742
 20
179.7642487054682
 30
0.0
 11
1523.000000000742
 21
264.7642487054682
 31
0.0
  0
MTEXT
  5
185
330
A
100
AcDbEntity
  8
template
390
1D
100
AcDbMText
 10
1279.000000000742
 20
341.3493268304683
 30
0.0
 40
16.28841145833333
 41
0.0
 46
0.0
 71
     1
 72
     1
  1
品番
  7
ＭＳ ゴシック
 73
     1
 44
0.7828267384257843
  0
MTEXT
  5
186
330
A
100
AcDbEntity
  8
template
390
1D
100
AcDbMText
 10
1279.000000000742
 20
256.3493268304682
 30
0.0
 40
16.28841145833333
 41
0.0
 46
0.0
 71
     1
 72
     1
  1
重量
  7
ＭＳ ゴシック
 73
     1
 44
0.7828267384257843
  0
MTEXT
  5
187
330
A
100
AcDbEntity
  8
template
390
1D
100
AcDbMText
 10
1332.000000000742
 20
312.7668658929681
 30
0.0
 40
24.4326171875
 41
0.0
 46
24.4326171875
 71
     1
 72
     1
  1
{GAR70-1801}
  7
ＭＳ ゴシック
 73
     1
 44
0.7828267384257843
1001
ACAD
1000
ACAD_MTEXT_DEFINED_HEIGHT_BEGIN
1070
    46
1040
24.4326171875
1000
ACAD_MTEXT_DEFINED_HEIGHT_END
  0
LINE
  5
188
330
A
100
AcDbEntity
  8
template
390
1D
100
AcDbLine
 10
1272.000000000742
 20
94.76424870546816
 30
0.0
 11
1272.000000000742
 21
349.7642487054681
 31
0.0
  0
MTEXT
  5
189
330
A
100
AcDbEntity
  8
template
390
1D
100
AcDbMText
 10
135.0000000004822
 20
312.7668658929681
 30
0.0
 40
24.4326171875
 41
0.0
 46
24.4326171875
 71
     1
 72
     1
  1
{手洗器 -LAUFEN,Kartell-}
  7
ＭＳ ゴシック
 73
     1
 44
0.7828267384257843
1001
ACAD
1000
ACAD_MTEXT_DEFINED_HEIGHT_BEGIN
1070
    46
1040
24.4326171875
1000
ACAD_MTEXT_DEFINED_HEIGHT_END
  0
MTEXT
  5
18A
330
A
100
AcDbEntity
  8
template
390
1D
100
AcDbMText
 10
135.0000000004822
 20
227.7668658929681
 30
0.0
 40
24.4326171875
 41
0.0
 46
79.29651640808025
 71
     1
 72
     1
  1
{カウンター置き/オーバーフローなし/専用排水金具,カウンター固定金具,\P型紙付属/陶器/ホワイト}
  7
ＭＳ ゴシック
 73
     1
 44
1.304711230709641
1001
ACAD
1000
ACAD_MTEXT_DEFINED_HEIGHT_BEGIN
1070
    46
1040
79.29651640808025
1000
ACAD_MTEXT_DEFINED_HEIGHT_END
  0
MTEXT
  5
1A6
330
A
100
AcDbEntity
  8
template
390
1D
100
AcDbMText
 10
1332.000000000742
 20
227.7668658929681
 30
0.0
 40
24.4326171875
 41
0.0
 46
24.4326171875
 71
     1
 72
     1
  1
{6kg}
  7
ＭＳ ゴシック
 73
     1
 44
0.7828267384257843
1001
ACAD
1000
ACAD_MTEXT_DEFINED_HEIGHT_BEGIN
1070
    46
1040
24.4326171875
1000
ACAD_MTEXT_DEFINED_HEIGHT_END
  0
INSERT
  5
3D0
330
A
100
AcDbEntity
  8
template
100
AcDbBlockReference
  2
名称未設定-1
 10
1873.559250554905
 20
23.56434095569372
 30
0.0
 41
0.7619999999999999
 42
0.7619999999999999
 43
0.7619999999999999
  0
SPLINE
  5
46E1
330
A
100
AcDbEntity
  8
MODEL
100
AcDbSpline
210
0.0
220
0.0
230
1.0
 70
    11
 71
     3
 72
    38
 73
    34
 74
     0
 42
0.000000001
 43
0.0000000001
 40
0.0
 40
0.0
 40
0.0
 40
0.0
 40
1.0
 40
1.0
 40
1.0
 40
2.0
 40
2.0
 40
2.0
 40
3.0
 40
3.0
 40
3.0
 40
4.0
 40
4.0
 40
4.0
 40
5.0
 40
5.0
 40
5.0
 40
6.0
 40
6.0
 40
6.0
 40
7.0
 40
7.0
 40
7.0
 40
8.0
 40
8.0
 40
8.0
 40
9.0
 40
9.0
 40
9.0
 40
10.0
 40
10.0
 40
10.0
 40
11.0
 40
11.0
 40
11.0
 40
11.0
 10
781.2122295084001
 20
842.1587115843031
 30
0.0
 10
781.2122295084001
 20
842.1587115843031
 30
0.0
 10
786.3774611694353
 20
844.1485987365836
 30
0.0
 10
786.3774611694353
 20
844.1485987365836
 30
0.0
 10
786.3774611694353
 20
844.1485987365836
 30
0.0
 10
795.7756816531967
 20
958.915753655808
 30
0.0
 10
795.7756816531967
 20
958.915753655808
 30
0.0
 10
795.8308031809606
 20
960.7016911553621
 30
0.0
 10
794.5354472785067
 20
962.068877298683
 30
0.0
 10
792.7605340845062
 20
962.1625838958821
 30
0.0
 10
792.7605340845062
 20
962.1625838958821
 30
0.0
 10
792.788094848388
 20
962.1625838958821
 30
0.0
 10
792.788094848388
 20
962.1625838958821
 30
0.0
 10
792.788094848388
 20
962.1625838958821
 30
0.0
 10
584.0631952694928
 20
962.1625838958821
 30
0.0
 10
584.0631952694928
 20
962.1625838958821
 30
0.0
 10
584.0631952694928
 20
962.1625838958821
 30
0.0
 10
378.7670269722926
 20
962.1625838958821
 30
0.0
 10
378.7670269722926
 20
962.1625838958821
 30
0.0
 10
378.7670269722926
 20
962.1625838958821
 30
0.0
 10
378.7945877361746
 20
962.1625838958821
 30
0.0
 10
378.7945877361746
 20
962.1625838958821
 30
0.0
 10
377.0195022873996
 20
962.068877298683
 30
0.0
 10
375.7241463849458
 20
960.7016911553621
 30
0.0
 10
375.7792679127097
 20
958.915753655808
 30
0.0
 10
375.7792679127097
 20
958.915753655808
 30
0.0
 10
385.1778329060197
 20
844.1485987365836
 30
0.0
 10
385.1778329060197
 20
844.1485987365836
 30
0.0
 10
385.1778329060197
 20
844.1485987365836
 30
0.0
 10
390.3428923122806
 20
842.1587115843031
 30
0.0
 10
390.3428923122806
 20
842.1587115843031
 30
0.0
 10
390.3428923122806
 20
842.1587115843031
 30
0.0
 10
781.2122295084001
 20
842.1587115843031
 30
0.0
 10
781.2122295084001
 20
842.1587115843031
 30
0.0
  0
SPLINE
  5
46E3
330
A
100
AcDbEntity
  8
MODEL
100
AcDbSpline
210
0.0
220
0.0
230
1.0
 70
     8
 71
     3
 72
    38
 73
    34
 74
     0
 42
0.000000001
 43
0.0000000001
 40
0.0
 40
0.0
 40
0.0
 40
0.0
 40
1.0
 40
1.0
 40
1.0
 40
2.0
 40
2.0
 40
2.0
 40
3.0
 40
3.0
 40
3.0
 40
4.0
 40
4.0
 40
4.0
 40
5.0
 40
5.0
 40
5.0
 40
6.0
 40
6.0
 40
6.0
 40
7.0
 40
7.0
 40
7.0
 40
8.0
 40
8.0
 40
8.0
 40
9.0
 40
9.0
 40
9.0
 40
10.0
 40
10.0
 40
10.0
 40
11.0
 40
11.0
 40
11.0
 40
11.0
 10
637.036705998437
 20
842.1587115843031
 30
0.0
 10
636.182322318095
 20
840.3121404042095
 30
0.0
 10
634.346775443554
 20
839.1711247794947
 30
0.0
 10
632.3238153746152
 20
839.1601004739418
 30
0.0
 10
632.3238153746152
 20
839.1601004739418
 30
0.0
 10
627.7597528757562
 20
839.1601004739418
 30
0.0
 10
627.7597528757562
 20
839.1601004739418
 30
0.0
 10
623.4048076728519
 20
839.0994667934015
 30
0.0
 10
619.8108840626393
 20
835.5441282526235
 30
0.0
 10
619.7833232987572
 20
831.1561101330608
 30
0.0
 10
619.7833232987572
 20
831.1561101330608
 30
0.0
 10
619.7833232987572
 20
830.1584104805324
 30
0.0
 10
619.7833232987572
 20
830.1584104805324
 30
0.0
 10
619.7833232987572
 20
828.4937403420599
 30
0.0
 10
618.4438701740921
 20
827.1542872173945
 30
0.0
 10
616.7788555260709
 20
827.1542872173945
 30
0.0
 10
616.7788555260709
 20
827.1542872173945
 30
0.0
 10
554.9414586231276
 20
827.1542872173945
 30
0.0
 10
554.9414586231276
 20
827.1542872173945
 30
0.0
 10
553.1941061930087
 20
827.1653115229474
 30
0.0
 10
551.8436287627908
 20
828.400033744861
 30
0.0
 10
551.7609464711448
 20
830.1584104805324
 30
0.0
 10
551.7609464711448
 20
830.1584104805324
 30
0.0
 10
551.7609464711448
 20
831.1561101330608
 30
0.0
 10
551.7609464711448
 20
831.1561101330608
 30
0.0
 10
551.7609464711448
 20
835.577201169282
 30
0.0
 10
548.1777026569365
 20
839.1601004739418
 30
0.0
 10
543.7679804358166
 20
839.1601004739418
 30
0.0
 10
543.7679804358166
 20
839.1601004739418
 30
0.0
 10
539.1763571730758
 20
839.1601004739418
 30
0.0
 10
539.1763571730758
 20
839.1601004739418
 30
0.0
 10
537.1640769001413
 20
839.1821490850471
 30
0.0
 10
535.3616029422585
 20
840.3286768625385
 30
0.0
 10
534.5182435674694
 20
842.1587115843031
 30
0.0
  0
LWPOLYLINE
  5
46EB
330
A
100
AcDbEntity
  8
MODEL
100
AcDbPolyline
 90
        3
 70
     0
 43
0.0
 10
1236.117270845242
 20
2054.714378402397
 10
1249.649605911303
 20
2054.714378402397
 10
1263.170916671812
 20
2054.714378402397
  0
LWPOLYLINE
  5
46EC
330
A
100
AcDbEntity
  8
MODEL
100
AcDbPolyline
 90
        3
 70
     0
 43
0.0
 10
1249.649605911303
 20
2068.241201315683
 10
1249.649605911303
 20
2054.714378402397
 10
1249.649605911303
 20
2041.182043336337
  0
LWPOLYLINE
  5
46ED
330
A
100
AcDbEntity
  8
MODEL
100
AcDbPolyline
 90
        3
 70
     0
 43
0.0
 10
1546.117270845241
 20
2054.714378402397
 10
1559.649605911303
 20
2054.714378402397
 10
1573.176428824588
 20
2054.714378402397
  0
LWPOLYLINE
  5
46EE
330
A
100
AcDbEntity
  8
MODEL
100
AcDbPolyline
 90
        3
 70
     0
 43
0.0
 10
1559.649605911303
 20
2068.241201315683
 10
1559.649605911303
 20
2054.714378402397
 10
1559.649605911303
 20
2041.182043336337
  0
SPLINE
  5
46F2
330
A
100
AcDbEntity
  8
HIDDEN
 48
3.0
100
AcDbSpline
210
0.0
220
0.0
230
1.0
 70
    11
 71
     3
 72
    17
 73
    13
 74
     0
 42
0.000000001
 43
0.0000000001
 40
0.0
 40
0.0
 40
0.0
 40
0.0
 40
1.0
 40
1.0
 40
1.0
 40
2.0
 40
2.0
 40
2.0
 40
3.0
 40
3.0
 40
3.0
 40
4.0
 40
4.0
 40
4.0
 40
4.0
 10
1614.649449201902
 20
2054.714378402397
 30
0.0
 10
1614.649449201902
 20
1938.732827324622
 30
0.0
 10
1520.628314785304
 20
1844.711692908024
 30
0.0
 10
1404.652275860305
 20
1844.711692908024
 30
0.0
 10
1288.670724782529
 20
1844.711692908024
 30
0.0
 10
1194.64959036593
 20
1938.732827324622
 30
0.0
 10
1194.64959036593
 20
2054.714378402397
 30
0.0
 10
1194.64959036593
 20
2170.695929480173
 30
0.0
 10
1288.670724782529
 20
2264.71172399877
 30
0.0
 10
1404.652275860305
 20
2264.71172399877
 30
0.0
 10
1520.628314785304
 20
2264.71172399877
 30
0.0
 10
1614.649449201902
 20
2170.695929480173
 30
0.0
 10
1614.649449201902
 20
2054.714378402397
 30
0.0
  0
SPLINE
  5
4735
102
{ACAD_REACTORS
330
4967
102
}
330
A
100
AcDbEntity
  8
MODEL
100
AcDbSpline
210
0.0
220
0.0
230
1.0
 70
    11
 71
     3
 72
    38
 73
    34
 74
     0
 42
0.000000001
 43
0.0000000001
 40
0.0
 40
0.0
 40
0.0
 40
0.0
 40
1.0
 40
1.0
 40
1.0
 40
2.0
 40
2.0
 40
2.0
 40
3.0
 40
3.0
 40
3.0
 40
4.0
 40
4.0
 40
4.0
 40
5.0
 40
5.0
 40
5.0
 40
6.0
 40
6.0
 40
6.0
 40
7.0
 40
7.0
 40
7.0
 40
8.0
 40
8.0
 40
8.0
 40
9.0
 40
9.0
 40
9.0
 40
10.0
 40
10.0
 40
10.0
 40
11.0
 40
11.0
 40
11.0
 40
11.0
 10
1600.037647043675
 20
842.1587115843031
 30
0.0
 10
1600.037647043675
 20
842.1587115843031
 30
0.0
 10
1605.20287870471
 20
844.1485987365836
 30
0.0
 10
1605.20287870471
 20
844.1485987365836
 30
0.0
 10
1605.20287870471
 20
844.1485987365836
 30
0.0
 10
1614.601099188472
 20
958.915753655808
 30
0.0
 10
1614.601099188472
 20
958.915753655808
 30
0.0
 10
1614.656220716236
 20
960.7016911553621
 30
0.0
 10
1613.360864813782
 20
962.068877298683
 30
0.0
 10
1611.585951619781
 20
962.1625838958821
 30
0.0
 10
1611.585951619781
 20
962.1625838958821
 30
0.0
 10
1611.613512383663
 20
962.1625838958821
 30
0.0
 10
1611.613512383663
 20
962.1625838958821
 30
0.0
 10
1611.613512383663
 20
962.1625838958821
 30
0.0
 10
1402.888612804768
 20
962.1625838958821
 30
0.0
 10
1402.888612804768
 20
962.1625838958821
 30
0.0
 10
1402.888612804768
 20
962.1625838958821
 30
0.0
 10
1197.592444507568
 20
962.1625838958821
 30
0.0
 10
1197.592444507568
 20
962.1625838958821
 30
0.0
 10
1197.592444507568
 20
962.1625838958821
 30
0.0
 10
1197.62000527145
 20
962.1625838958821
 30
0.0
 10
1197.62000527145
 20
962.1625838958821
 30
0.0
 10
1195.844919822675
 20
962.068877298683
 30
0.0
 10
1194.549563920221
 20
960.7016911553621
 30
0.0
 10
1194.604685447985
 20
958.915753655808
 30
0.0
 10
1194.604685447985
 20
958.915753655808
 30
0.0
 10
1204.003250441295
 20
844.1485987365836
 30
0.0
 10
1204.003250441295
 20
844.1485987365836
 30
0.0
 10
1204.003250441295
 20
844.1485987365836
 30
0.0
 10
1209.168309847556
 20
842.1587115843031
 30
0.0
 10
1209.168309847556
 20
842.1587115843031
 30
0.0
 10
1209.168309847556
 20
842.1587115843031
 30
0.0
 10
1600.037647043675
 20
842.1587115843031
 30
0.0
 10
1600.037647043675
 20
842.1587115843031
 30
0.0
  0
SPLINE
  5
4736
330
A
100
AcDbEntity
  8
MODEL
100
AcDbSpline
210
0.0
220
0.0
230
1.0
 70
     8
 71
     3
 72
    38
 73
    34
 74
     0
 42
0.000000001
 43
0.0000000001
 40
0.0
 40
0.0
 40
0.0
 40
0.0
 40
1.0
 40
1.0
 40
1.0
 40
2.0
 40
2.0
 40
2.0
 40
3.0
 40
3.0
 40
3.0
 40
4.0
 40
4.0
 40
4.0
 40
5.0
 40
5.0
 40
5.0
 40
6.0
 40
6.0
 40
6.0
 40
7.0
 40
7.0
 40
7.0
 40
8.0
 40
8.0
 40
8.0
 40
9.0
 40
9.0
 40
9.0
 40
10.0
 40
10.0
 40
10.0
 40
11.0
 40
11.0
 40
11.0
 40
11.0
 10
1455.862123533712
 20
842.1587115843031
 30
0.0
 10
1455.00773985337
 20
840.3121404042095
 30
0.0
 10
1453.172192978829
 20
839.1711247794947
 30
0.0
 10
1451.14923290989
 20
839.1601004739418
 30
0.0
 10
1451.14923290989
 20
839.1601004739418
 30
0.0
 10
1446.585170411031
 20
839.1601004739418
 30
0.0
 10
1446.585170411031
 20
839.1601004739418
 30
0.0
 10
1442.230225208127
 20
839.0994667934015
 30
0.0
 10
1438.636301597914
 20
835.5441282526235
 30
0.0
 10
1438.608740834032
 20
831.1561101330608
 30
0.0
 10
1438.608740834032
 20
831.1561101330608
 30
0.0
 10
1438.608740834032
 20
830.1584104805324
 30
0.0
 10
1438.608740834032
 20
830.1584104805324
 30
0.0
 10
1438.608740834032
 20
828.4937403420599
 30
0.0
 10
1437.269287709367
 20
827.1542872173945
 30
0.0
 10
1435.604273061346
 20
827.1542872173945
 30
0.0
 10
1435.604273061346
 20
827.1542872173945
 30
0.0
 10
1373.766876158403
 20
827.1542872173945
 30
0.0
 10
1373.766876158403
 20
827.1542872173945
 30
0.0
 10
1372.019523728284
 20
827.1653115229474
 30
0.0
 10
1370.669046298066
 20
828.400033744861
 30
0.0
 10
1370.58636400642
 20
830.1584104805324
 30
0.0
 10
1370.58636400642
 20
830.1584104805324
 30
0.0
 10
1370.58636400642
 20
831.1561101330608
 30
0.0
 10
1370.58636400642
 20
831.1561101330608
 30
0.0
 10
1370.58636400642
 20
835.577201169282
 30
0.0
 10
1367.003120192212
 20
839.1601004739418
 30
0.0
 10
1362.593397971092
 20
839.1601004739418
 30
0.0
 10
1362.593397971092
 20
839.1601004739418
 30
0.0
 10
1358.001774708351
 20
839.1601004739418
 30
0.0
 10
1358.001774708351
 20
839.1601004739418
 30
0.0
 10
1355.989494435416
 20
839.1821490850471
 30
0.0
 10
1354.187020477534
 20
840.3286768625385
 30
0.0
 10
1353.343661102745
 20
842.1587115843031
 30
0.0
  0
LINE
  5
4737
102
{ACAD_REACTORS
330
4952
102
}
330
A
100
AcDbEntity
  8
HIDDEN
 48
3.0
100
AcDbLine
 10
1404.685574609874
 20
862.1625838958821
 30
0.0
 11
1217.05485120261
 21
865.4866990754273
 31
0.0
  0
LINE
  5
4738
330
A
100
AcDbEntity
  8
HIDDEN
 48
3.0
100
AcDbLine
 10
1204.748137762651
 20
962.1625838958821
 30
0.0
 11
1217.05485120261
 21
865.4866990754273
 31
0.0
  0
MTEXT
  5
4774
330
A
100
AcDbEntity
  8
Dim
390
1D
100
AcDbMText
 10
1097.2192612065
 20
1488.610411405034
 30
0.0
 40
24.4326171875
 41
880.1545011463336
 46
113.5195576982408
 71
     1
 72
     1
  1
{※陶器製品には寸法公差があります。\P　必ず現物を合わせて固定金具の穴あけ、\P　カウンターの切込を行ってください。}
  7
ＭＳ ゴシック
 73
     1
 44
1.043768984567712
1001
ACAD
1000
ACAD_MTEXT_DEFINED_HEIGHT_BEGIN
1070
    46
1040
113.5195576982408
1000
ACAD_MTEXT_DEFINED_HEIGHT_END
  0
MTEXT
  5
47A5
330
A
100
AcDbEntity
  8
Dim
390
1D
100
AcDbMText
 10
934.1125715418561
 20
1643.654752667886
 30
0.0
 40
24.4326171875
 41
334.6927231700604
 46
24.4326171875
 71
     1
 72
     1
  1
{固定金具用2ヶ所}
  7
ＭＳ ゴシック
 73
     1
 44
1.043768984567712
1001
ACAD
1000
ACAD_MTEXT_DEFINED_HEIGHT_BEGIN
1070
    46
1040
24.4326171875
1000
ACAD_MTEXT_DEFINED_HEIGHT_END
  0
MTEXT
  5
47D6
330
A
100
AcDbEntity
  8
Dim
390
1D
100
AcDbMText
 10
1278.942040753325
 20
2472.033488632816
 30
0.0
 40
24.4326171875
 41
345.363529534211
 46
24.4326171875
 71
     1
 72
     1
  1
{カウンター切込寸法}
  7
ＭＳ ゴシック
 73
     1
 44
1.043768984567712
1001
ACAD
1000
ACAD_MTEXT_DEFINED_HEIGHT_BEGIN
1070
    46
1040
24.4326171875
1000
ACAD_MTEXT_DEFINED_HEIGHT_END
  0
CIRCLE
  5
47F1
102
{ACAD_REACTORS
330
47F9
330
4808
102
}
330
A
100
AcDbEntity
  8
MODEL
  6
Continuous
100
AcDbCircle
 10
585.8656692273757
 20
2054.714378402397
 30
0.0
 40
210.0
  0
CIRCLE
  5
47F4
102
{ACAD_REACTORS
330
482A
102
}
330
A
100
AcDbEntity
  8
MODEL
  6
Continuous
100
AcDbCircle
 10
585.8656692273757
 20
2054.714378402397
 30
0.0
 40
200.0
  0
CIRCLE
  5
47F5
330
A
100
AcDbEntity
  8
MODEL
  6
Continuous
100
AcDbCircle
 10
585.8656692273757
 20
2054.714378402397
 30
0.0
 40
30.60000000000002
  0
CIRCLE
  5
47F6
330
A
100
AcDbEntity
  8
MODEL
  6
Continuous
100
AcDbCircle
 10
585.8656692273757
 20
2054.714378402397
 30
0.0
 40
35.95500000000004
  0
DIMENSION
  5
47F7
102
{ACAD_REACTORS
330
47F9
102
}
102
{ACAD_XDICTIONARY
360
47F8
102
}
330
A
100
AcDbEntity
  8
Dim
  6
Continuous
100
AcDbDimension
  2
*D29
 10
795.8656692273757
 20
2352.995926193398
 30
0.0
 11
585.8656692273757
 21
2375.212234787148
 31
0.0
 70
    32
 71
     5
 42
420.0
 73
     0
 74
     0
 75
     0
  3
JIS
100
AcDbAlignedDimension
 13
375.8656692273757
 23
2054.714378402397
 33
0.0
 14
795.8656692273757
 24
2054.714378402397
 34
0.0
100
AcDbRotatedDimension
1001
ACAD
1000
DSTYLE
1002
{
1070
   179
1070
     0
1070
   271
1070
     0
1070
    43
1040
25.0
1070
    44
1040
0.0
1070
    42
1040
25.0
1002
}
  0
DIMENSION
  5
4806
102
{ACAD_REACTORS
330
4808
102
}
102
{ACAD_XDICTIONARY
360
4807
102
}
330
A
100
AcDbEntity
  8
Dim
  6
Continuous
100
AcDbDimension
  2
*D30
 10
914.5582664292002
 20
1844.714378402398
 30
0.0
 11
892.3419578354502
 21
2054.714378402397
 31
0.0
 70
    32
 71
     5
 42
419.9999999999998
 73
     0
 74
     0
 75
     0
  3
JIS
100
AcDbAlignedDimension
 13
585.8656692273757
 23
2264.714378402397
 33
0.0
 14
585.8656692273757
 24
1844.714378402398
 34
0.0
 50
90.0
100
AcDbRotatedDimension
1001
ACAD
1000
DSTYLE
1002
{
1070
   179
1070
     0
1070
   271
1070
     0
1070
    43
1040
25.0
1070
    44
1040
0.0
1070
    42
1040
25.0
1002
}
  0
CIRCLE
  5
4816
330
A
100
AcDbEntity
  8
HIDDEN
 48
3.0
100
AcDbCircle
 10
1404.649605911303
 20
2054.714378402397
 30
0.0
 40
41.00223455463629
  0
DIMENSION
  5
4817
330
A
100
AcDbEntity
  8
Dim
  6
Continuous
100
AcDbDimension
  2
*D31
 10
1559.649605911303
 20
1760.374435859746
 30
0.0
 11
1404.649605911303
 21
1782.590744453496
 31
0.0
 70
    32
 71
     5
 42
310.0
 73
     0
 74
     0
 75
     0
  3
JIS
100
AcDbAlignedDimension
 13
1249.649605911303
 23
2054.714378402397
 33
0.0
 14
1559.649605911303
 24
2054.714378402397
 34
0.0
100
AcDbRotatedDimension
1001
ACAD
1000
DSTYLE
1002
{
1070
   179
1070
     0
1070
   271
1070
     0
1070
    43
1040
25.0
1070
    44
1040
0.0
1070
    42
1040
25.0
1002
}
  0
DIMENSION
  5
4828
102
{ACAD_REACTORS
330
482A
102
}
102
{ACAD_XDICTIONARY
360
4829
102
}
330
A
100
AcDbEntity
  8
Dim
  6
Continuous
100
AcDbDimension
  2
*D32
 10
785.8656692273757
 20
1760.374435859746
 30
0.0
 11
585.8656692273757
 21
1782.590744453496
 31
0.0
 70
    32
 71
     5
 42
400.0
 73
     0
 74
     0
 75
     0
  3
JIS
100
AcDbAlignedDimension
 13
385.8656692273757
 23
2054.714378402397
 33
0.0
 14
785.8656692273757
 24
2054.714378402397
 34
0.0
100
AcDbRotatedDimension
1001
ACAD
1000
DSTYLE
1002
{
1070
   179
1070
     0
1070
   271
1070
     0
1070
    43
1040
25.0
1070
    44
1040
0.0
1070
    42
1040
25.0
1002
}
  0
CIRCLE
  5
483D
102
{ACAD_REACTORS
330
4841
102
}
330
A
100
AcDbEntity
  8
MODEL
  6
Continuous
100
AcDbCircle
 10
1404.649605911303
 20
2054.714378402397
 30
0.0
 40
75.0
  0
LEADER
  5
483E
102
{ACAD_REACTORS
330
4841
102
}
102
{ACAD_XDICTIONARY
360
4840
102
}
330
A
100
AcDbEntity
  8
Dim
  6
Continuous
100
AcDbLeader
  3
JIS
 76
     3
 10
1479.649605911303
 20
2054.714378402397
 30
0.0
 10
1595.326123942283
 20
2233.765969730073
 30
0.0
 10
1681.693456191936
 20
2233.765969730073
 30
0.0
1001
ACAD
1000
DSTYLE
1002
{
1070
   179
1070
     0
1070
   271
1070
     0
1070
    43
1040
25.0
1070
    44
1040
0.0
1070
    42
1040
25.0
1002
}
  0
MTEXT
  5
4872
330
A
100
AcDbEntity
  8
Dim
390
1D
100
AcDbMText
 10
1605.08770116511
 20
2275.200539299054
 30
0.0
 40
24.4326171875
 41
880.154501146334
 46
24.4326171875
 71
     1
 72
     1
  1
{%%c150}
  7
ＭＳ ゴシック
 73
     1
 44
1.043768984567712
1001
ACAD
1000
ACAD_MTEXT_DEFINED_HEIGHT_BEGIN
1070
    46
1040
24.4326171875
1000
ACAD_MTEXT_DEFINED_HEIGHT_END
  0
LINE
  5
48DB
330
A
100
AcDbEntity
  8
Dim
  6
Continuous
100
AcDbLine
 10
1018.682989085387
 20
1683.613239028734
 30
0.0
 11
1249.649605911303
 21
2054.714378402397
 31
0.0
  0
DIMENSION
  5
48FF
330
A
100
AcDbEntity
  8
Dim
  6
Continuous
100
AcDbDimension
  2
*D35
 10
383.3601570745992
 20
709.4694703380625
 30
0.0
 11
585.8601570745992
 21
731.6857789318125
 31
0.0
 70
    32
 71
     5
 42
405.0
 73
     0
 74
     0
 75
     0
  3
JIS
100
AcDbAlignedDimension
 13
788.3601570745992
 23
837.539324286378
 33
0.0
 14
383.3601570745992
 24
837.539324286378
 34
0.0
100
AcDbRotatedDimension
1001
ACAD
1000
DSTYLE
1002
{
1070
   179
1070
     0
1070
   271
1070
     0
1070
    43
1040
25.0
1070
    44
1040
0.0
1070
    42
1040
25.0
1002
}
  0
LINE
  5
4941
330
A
100
AcDbEntity
  8
HIDDEN
 48
3.0
100
AcDbLine
 10
1374.049605911303
 20
862.7053387642836
 30
0.0
 11
1374.049605911303
 21
827.1542872173948
 31
0.0
  0
LINE
  5
4942
330
A
100
AcDbEntity
  8
HIDDEN
 48
3.0
100
AcDbLine
 10
1435.249605911303
 20
862.7040643024607
 30
0.0
 11
1435.249605911303
 21
827.1542872173945
 31
0.0
  0
LINE
  5
4943
330
A
100
AcDbEntity
  8
HIDDEN
 48
3.0
100
AcDbLine
 10
1404.685574609874
 20
862.1625838958821
 30
0.0
 11
1592.316298017139
 21
865.4866990754273
 31
0.0
  0
LINE
  5
4944
102
{ACAD_REACTORS
330
4967
102
}
330
A
100
AcDbEntity
  8
HIDDEN
 48
3.0
100
AcDbLine
 10
1604.623011457098
 20
962.1625838958821
 30
0.0
 11
1592.316298017139
 21
865.4866990754273
 31
0.0
  0
LINE
  5
494A
330
A
100
AcDbEntity
  8
HIDDEN
 48
3.0
100
AcDbLine
 10
585.8601570745992
 20
862.1625838958821
 30
0.0
 11
773.4908804818641
 21
865.4866990754273
 31
0.0
  0
LINE
  5
494B
330
A
100
AcDbEntity
  8
HIDDEN
 48
3.0
100
AcDbLine
 10
785.7975939218228
 20
962.1625838958821
 30
0.0
 11
773.4908804818641
 21
865.4866990754273
 31
0.0
  0
LINE
  5
494C
330
A
100
AcDbEntity
  8
HIDDEN
 48
3.0
100
AcDbLine
 10
585.8601570745992
 20
862.1625838958821
 30
0.0
 11
398.2294336673343
 21
865.4866990754273
 31
0.0
  0
LINE
  5
494D
330
A
100
AcDbEntity
  8
HIDDEN
 48
3.0
100
AcDbLine
 10
385.9227202273756
 20
962.1625838958821
 30
0.0
 11
398.2294336673343
 21
865.4866990754273
 31
0.0
  0
LINE
  5
494E
330
A
100
AcDbEntity
  8
HIDDEN
 48
3.0
100
AcDbLine
 10
555.2241883760281
 20
862.7053387642836
 30
0.0
 11
555.2241883760281
 21
827.1542872173948
 31
0.0
  0
LINE
  5
494F
330
A
100
AcDbEntity
  8
HIDDEN
 48
3.0
100
AcDbLine
 10
616.4241883760279
 20
862.7040643024607
 30
0.0
 11
616.4241883760279
 21
827.1542872173945
 31
0.0
  0
DIMENSION
  5
4950
102
{ACAD_REACTORS
330
4952
102
}
102
{ACAD_XDICTIONARY
360
4951
102
}
330
A
100
AcDbEntity
  8
Dim
  6
Continuous
100
AcDbDimension
  2
*D36
 10
1404.685574609874
 20
962.1625838958821
 30
0.0
 11
1404.685574609874
 21
1056.35054385682
 31
0.0
 70
   160
 71
     5
 42
100.0
 73
     0
 74
     0
 75
     0
  3
JIS
100
AcDbAlignedDimension
 13
1404.685574609874
 23
862.1625838958821
 33
0.0
 14
1404.685574609874
 24
962.1625838958821
 34
0.0
 50
90.0
100
AcDbRotatedDimension
1001
ACAD
1000
DSTYLE
1002
{
1070
     3
1000
<>(深さ)
1070
   179
1070
     0
1070
   271
1070
     0
1070
    43
1040
25.0
1070
    44
1040
0.0
1070
    42
1040
25.0
1002
}
  0
LINE
  5
4961
330
A
100
AcDbEntity
  8
MODEL
  6
Continuous
100
AcDbLine
 10
1404.685574609874
 20
962.1625838958821
 30
0.0
 11
1404.685574609874
 21
862.1625838958821
 31
0.0
  0
DIMENSION
  5
4965
102
{ACAD_REACTORS
330
4967
102
}
102
{ACAD_XDICTIONARY
360
4966
102
}
330
A
100
AcDbEntity
  8
Dim
  6
Continuous
100
AcDbDimension
  2
*D37
 10
1713.720083357208
 20
842.1587115843031
 30
0.0
 11
1691.503774763458
 21
902.1606477400926
 31
0.0
 70
    32
 71
     5
 42
120.003872311579
 73
     0
 74
     0
 75
     0
  3
JIS
100
AcDbAlignedDimension
 13
1604.623011457098
 23
962.1625838958821
 33
0.0
 14
1600.037647043675
 24
842.1587115843031
 34
0.0
 50
90.0
100
AcDbRotatedDimension
1001
ACAD
1000
DSTYLE
1002
{
1070
   179
1070
     0
1070
   271
1070
     0
1070
    43
1040
25.0
1070
    44
1040
0.0
1070
    42
1040
25.0
1002
}
  0
LINE
  5
49E4
330
A
100
AcDbEntity
  8
Dim
  6
Continuous
100
AcDbLine
 10
1018.682989085387
 20
1683.613239028734
 30
0.0
 11
1559.649605911303
 21
2054.714378402397
 31
0.0
  0
MTEXT
  5
4A1B
330
A
100
AcDbEntity
  8
template
390
1D
100
AcDbMText
 10
1361.365013661818
 20
459.671158883601
 30
0.0
 40
24.4326171875
 41
0.0
 46
24.4326171875
 71
     1
 72
     1
  1
{この手洗器は水を溜めることができません}
  7
ＭＳ ゴシック
 73
     1
 44
1.304711230709641
1001
ACAD
1000
ACAD_MTEXT_DEFINED_HEIGHT_BEGIN
1070
    46
1040
24.4326171875
1000
ACAD_MTEXT_DEFINED_HEIGHT_END
  0
LWPOLYLINE
  5
4A1D
330
A
100
AcDbEntity
  8
template
100
AcDbPolyline
 90
        4
 70
     1
 43
0.0
 10
1325.477769428123
 20
507.5615248277851
 10
1325.477769428123
 20
383.4874710636351
 10
1999.702650050807
 20
383.4874710636351
 10
1999.702650050807
 20
507.5615248277851
  0
CIRCLE
  5
4A5B
102
{ACAD_REACTORS
330
4A7E
102
}
330
A
100
AcDbEntity
  8
MODEL
  6
Continuous
100
AcDbCircle
 10
1559.649605911303
 20
2054.714378402397
 30
0.0
 40
6.0
  0
CIRCLE
  5
4A60
330
A
100
AcDbEntity
  8
MODEL
  6
Continuous
100
AcDbCircle
 10
1249.649605911303
 20
2054.714378402397
 30
0.0
 40
6.0
  0
DIMENSION
  5
4A7C
102
{ACAD_REACTORS
330
4A7E
102
}
102
{ACAD_XDICTIONARY
360
4A7D
102
}
330
A
100
AcDbEntity
  8
Dim
  6
Continuous
100
AcDbDimension
  2
*D39
 10
1553.950650692939
 20
2052.837703305563
 30
0.0
 11
1674.70398508639
 21
2092.601970058484
 31
0.0
 70
   163
 71
     5
 42
11.99999999999973
 73
     0
 74
     0
 75
     0
  3
JIS
100
AcDbDiametricDimension
 15
1565.348561129667
 25
2056.591053499233
 35
0.0
 40
0.0
1001
ACAD
1000
DSTYLE
1002
{
1070
     3
1000
φ<>
1070
   179
1070
     0
1070
   271
1070
     0
1070
    43
1040
25.0
1070
    44
1040
0.0
1070
    42
1040
25.0
1002
}
1001
ACAD_DSTYLE_DIMRADIAL_EXTENSION
1070
   387
1070
     1
1070
   388
1040
0.0
1070
   390
1040
6.283185307179586
  0
MTEXT
  5
4A8F
102
{ACAD_XDICTIONARY
360
4A91
102
}
330
A
100
AcDbEntity
  8
template
100
AcDbMText
 10
78.0385197701205
 20
83.26866872835771
 30
0.0
 40
22.0
 41
0.0
 46
22.0
 71
     1
 72
     1
  1
{20170418N}
  7
ＭＳ ゴシック
 73
     1
 44
1.0
1001
ACAD
1000
ACAD_MTEXT_DEFINED_HEIGHT_BEGIN
1070
    46
1040
22.0
1000
ACAD_MTEXT_DEFINED_HEIGHT_END
  0
DIMENSION
  5
4A99
330
A
100
AcDbEntity
  8
Dim
  6
Continuous
100
AcDbDimension
  2
*D40
 10
272.0633040301846
 20
962.1542872173941
 30
0.0
 11
249.8469954364346
 21
894.6542872173943
 31
0.0
 70
    32
 71
     5
 42
134.9999999999996
 73
     0
 74
     0
 75
     0
 52
-90.0
  3
JIS
100
AcDbAlignedDimension
 13
532.1938477873969
 23
827.1542872173945
 33
0.0
 14
385.2746620753469
 24
962.1542872173941
 34
0.0
 50
90.00000000000001
100
AcDbRotatedDimension
1001
ACAD
1000
DSTYLE
1002
{
1070
   179
1070
     0
1070
   271
1070
     0
1070
    43
1040
25.0
1070
    44
1040
0.0
1070
    42
1040
25.0
1002
}
  0
DIMENSION
  5
4AA6
330
A
100
AcDbEntity
  8
Dim
  6
Continuous
100
AcDbDimension
  2
*D41
 10
911.5102679290635
 20
792.1537177637961
 30
0.0
 11
889.2939593353135
 21
877.1581508298391
 31
0.0
 70
    32
 71
     5
 42
170.008866132086
 73
     0
 74
     0
 75
     0
  3
JIS
100
AcDbAlignedDimension
 13
793.827547409707
 23
962.1625838958821
 33
0.0
 14
602.0411765621355
 24
792.1537177637961
 34
0.0
 50
90.0
100
AcDbRotatedDimension
1001
ACAD
1000
DSTYLE
1002
{
1070
   179
1070
     0
1070
   271
1070
     0
1070
    43
1040
25.0
1070
    44
1040
0.0
1070
    42
1040
25.0
1002
}
  0
LWPOLYLINE
  5
4B92
330
A
100
AcDbEntity
  8
MODEL
  6
Continuous
390
1D
100
AcDbPolyline
 90
        4
 70
   128
 43
0.0
 10
560.8582509083968
 20
820.7570052751125
 10
560.8582509083968
 20
802.1539167792635
 10
610.8601263779434
 20
802.1539167792635
 10
610.8601263779434
 20
820.7570052751125
  0
LINE
  5
4B93
330
A
100
AcDbEntity
  8
MODEL
  6
Continuous
390
1D
100
AcDbLine
 10
616.8108733921832
 20
820.7570052751125
 30
0.0
 11
554.907503894157
 21
820.7570052751125
 31
0.0
  0
LWPOLYLINE
  5
4B94
330
A
100
AcDbEntity
  8
MODEL
  6
Continuous
390
1D
100
AcDbPolyline
 90
       34
 70
   128
 43
0.0
 10
554.4079693551763
 20
823.6541999541369
 10
554.4079693551763
 20
821.2542507943522
 10
554.4079854778744
 20
821.2513223306119
 42
0.023199158013714
 10
554.4103163460046
 20
821.2064479695805
 10
554.4103313950887
 20
821.2062953468389
 42
0.0228453587782126
 10
554.4167345112716
 20
821.1621271536205
 10
554.4167523811526
 20
821.1620340609334
 42
0.0225592004716144
 10
554.4270900170474
 20
821.1188114239326
 10
554.4271026109369
 20
821.1187676063387
 42
0.0222922942134623
 10
554.4412413520582
 20
821.0767299429885
 42
0.0220661019322142
 10
554.4590475148776
 20
821.0361121869905
 42
0.0218904848885035
 10
554.4803496328674
 20
820.9972167294932
 10
554.480367394555
 20
820.9971874205557
 42
0.021808472346344
 10
554.505020935692
 20
820.9602422435046
 10
554.507496850442
 20
820.9568610538495
 42
0.0216646390673617
 10
554.5302064618969
 20
820.9285108460203
 42
0.0144856709331533
 10
554.554917283807
 20
820.9018611472261
 10
554.555051790108
 20
820.9017242626383
 42
0.0187875685871695
 10
554.5817512356804
 20
820.8765204401602
 10
554.5828366712418
 20
820.8755703201755
 42
0.0238141549050472
 10
554.6138278043778
 20
820.8509467401718
 10
554.616091393034
 20
820.8493177874066
 42
0.0234542194862616
 10
554.6535561484394
 20
820.8249387128421
 10
554.6536013203792
 20
820.8249122469547
 42
0.0230606026208613
 10
554.6930772905613
 20
820.8041661327056
 42
0.0226865421371516
 10
554.7342839567242
 20
820.7871126842497
 42
0.0223584837097442
 10
554.7768580092503
 20
820.7738349882165
 10
554.7768985858498
 20
820.7738242980026
 42
0.0220952725074226
 10
554.8205662372653
 20
820.7643605960934
 10
554.8219330203116
 20
820.7641270514973
 42
0.0219008930287896
 10
554.8638300193448
 20
820.7588436450219
 10
554.8651831275898
 20
820.758732920669
 42
0.0190613687038246
 10
554.9046710379831
 20
820.7570129413461
 10
554.907503894157
 20
820.7570052751125
  0
LWPOLYLINE
  5
4B95
330
A
100
AcDbEntity
  8
MODEL
  6
Continuous
390
1D
100
AcDbPolyline
 90
       49
 70
   128
 43
0.0
 10
554.907503894157
 20
824.1570799835094
 10
554.9066107911982
 20
824.1570769998225
 42
0.0124442569184911
 10
554.8806206218429
 20
824.1563431537038
 42
0.0140765873539204
 10
554.8547081477733
 20
824.1542326877156
 10
554.8538535202957
 20
824.1541388012056
 42
0.0139996459612352
 10
554.8265273960684
 20
824.1503599570137
 10
554.8265043835623
 20
824.1503561153486
 42
0.0139362149333324
 10
554.7994775802714
 20
824.1450662433595
 10
554.7994632994784
 20
824.1450630325871
 42
0.0138885481933461
 10
554.7728008277205
 20
824.1382853842001
 42
0.0138552348807121
 10
554.7465612380871
 20
824.1300414670413
 42
0.0138472540973784
 10
554.7208230284938
 20
824.1203585978551
 42
0.0138582073893028
 10
554.6956504501956
 20
824.1092608711019
 42
0.0138787271650143
 10
554.6711231880332
 20
824.0967807734487
 10
554.6711076359512
 20
824.0967723088074
 42
0.0139214895358298
 10
554.6472812153985
 20
824.0829308092275
 10
554.6472587903569
 20
824.0829169328395
 42
0.0139801012180769
 10
554.6241974376904
 20
824.0677392272255
 10
554.6241681399121
 20
824.0677187488031
 42
0.0140523261579424
 10
554.6019361424165
 20
824.051230214236
 10
554.5991930070501
 20
824.049073676551
 42
0.0141350456886951
 10
554.5831439369473
 20
824.035705611735
 10
554.5818650219431
 20
824.034577610887
 42
0.0070614722258565
 10
554.5689177086748
 20
824.0228288851267
 42
0.0113561972811683
 10
554.5564138120459
 20
824.0106132660162
 10
554.5527342895772
 20
824.0068515140697
 42
0.0139520208903816
 10
554.5339941006074
 20
823.9865914075194
 10
554.5339738217514
 20
823.9865682182908
 42
0.0134270538476567
 10
554.516409278052
 20
823.9653596961639
 10
554.5163945041337
 20
823.9653408491749
 42
0.0133933836648699
 10
554.50002073893
 20
823.9432595768981
 10
554.5000108691844
 20
823.9432454935277
 42
0.0133728409295846
 10
554.4848609423076
 20
823.9203484414707
 42
0.0133660767598141
 10
554.4709623352134
 20
823.8966843040985
 42
0.0133895121303139
 10
554.4583576137026
 20
823.8723255516456
 42
0.013433093692141
 10
554.4470791826385
 20
823.8473300344685
 42
0.0134969709076652
 10
554.43715945101
 20
823.8217555738661
 42
0.0135721521047157
 10
554.4286352782561
 20
823.7956747118178
 10
554.4286309483865
 20
823.7956601356423
 42
0.0136676855966053
 10
554.4215316874485
 20
823.7691245986516
 10
554.4215262207468
 20
823.7691016729718
 42
0.0137771725287332
 10
554.4158837273559
 20
823.7421706826676
 10
554.4158778414454
 20
823.7421381481035
 42
0.0138958801025731
 10
554.4117237282068
 20
823.7148711115155
 10
554.4114045335342
 20
823.7122975194115
 42
0.017551892692653
 10
554.4088013260604
 20
823.6828916364225
 10
554.4086645264111
 20
823.6803224664723
 42
0.0124073239706574
 10
554.4079724723484
 20
823.6559463370754
 10
554.4079693551763
 20
823.6541999541369
  0
LINE
  5
4B96
330
A
100
AcDbEntity
  8
MODEL
  6
Continuous
390
1D
100
AcDbLine
 10
617.3123447940221
 20
823.6541999541369
 30
0.0
 11
617.3123447940221
 21
821.2542507943522
 31
0.0
  0
LWPOLYLINE
  5
4B97
330
A
100
AcDbEntity
  8
MODEL
  6
Continuous
390
1D
100
AcDbPolyline
 90
       52
 70
   128
 43
0.0
 10
616.8108733921832
 20
820.7570052751125
 10
616.811797764182
 20
820.7570081005288
 42
0.0117151390183895
 10
616.8378644157825
 20
820.7576986575109
 42
0.0134450653851184
 10
616.8638610799231
 20
820.7596992273116
 10
616.8647169380498
 20
820.7597882923947
 42
0.01355817258414
 10
616.8919671234286
 20
820.7633732690233
 10
616.8920278124666
 20
820.7633829335955
 42
0.013667467108946
 10
616.9189215970015
 20
820.7684229195515
 10
616.9189658878073
 20
820.7684324796928
 42
0.013771529620959
 10
616.9454546229405
 20
820.7749183417459
 10
616.945482274237
 20
820.7749259251632
 42
0.0138688613981445
 10
616.9715172323937
 20
820.7828486289641
 42
0.013951940231079
 10
616.997060447247
 20
820.7922028746748
 42
0.0140398451363869
 10
617.0220352776192
 20
820.8029701703522
 42
0.0141029795501801
 10
617.0463706808711
 20
820.8151278034106
 10
617.0463927215984
 20
820.8151396027602
 42
0.0141550022217254
 10
617.070045896127
 20
820.82867713013
 10
617.07008376545
 20
820.8287002510433
 42
0.0141904144239167
 10
617.0930062751682
 20
820.8436044667637
 10
617.0930593845493
 20
820.8436411837579
 42
0.0142070614503121
 10
617.115202993467
 20
820.8598988425701
 10
617.1152705450819
 20
820.859951456041
 42
0.0142094280154847
 10
617.1365869975504
 20
820.8775495715804
 10
617.1379937768648
 20
820.8787798157141
 42
0.017743880266795
 10
617.1608611834032
 20
820.9002560996873
 10
617.1633824323804
 20
820.9027982248049
 10
617.164045676173
 20
820.9034485805732
 42
0.0122183676466702
 10
617.182295124399
 20
820.9222397722056
 42
0.0139263173605787
 10
617.1995360174848
 20
820.9419572848105
 10
617.2000866238592
 20
820.9426235505807
 42
0.0139437109176372
 10
617.2170741538172
 20
820.964387869953
 10
617.2171113520022
 20
820.9644383702907
 42
0.0139587312522098
 10
617.2327870611695
 20
820.9870132308465
 10
617.2328133931247
 20
820.9870535068044
 42
0.0139725441846221
 10
617.2471539169998
 20
821.0103863522395
 10
617.2471708231056
 20
821.0104156650286
 42
0.013986144762017
 10
617.2601528325091
 20
821.0344539179455
 10
617.260161728074
 20
821.0344715519068
 42
0.0140002566255695
 10
617.271761911728
 20
821.0591626192559
 42
0.0140122621025176
 10
617.2819592482462
 20
821.0844591493474
 42
0.0140352660493547
 10
617.2907229284734
 20
821.1102902097127
 42
0.0140470549583118
 10
617.2980255557937
 20
821.1365804136849
 10
617.2980310287536
 20
821.1366025055358
 42
0.0140627337879325
 10
617.3038546617878
 20
821.1633059193096
 10
617.3038616128475
 20
821.1633427370589
 42
0.0140768100856796
 10
617.3081858910888
 20
821.1904053793605
 10
617.3081927339987
 20
821.1904575998005
 42
0.0140915501074954
 10
617.3109971701084
 20
821.2178255046133
 10
617.311130894204
 20
821.2196309019978
 42
0.0176114419819963
 10
617.3123355344102
 20
821.2507310990591
 10
617.3123417493695
 20
821.2525090450699
 10
617.3123447940221
 20
821.2542507943522
  0
LWPOLYLINE
  5
4B98
330
A
100
AcDbEntity
  8
MODEL
  6
Continuous
390
1D
100
AcDbPolyline
 90
       51
 70
   128
 43
0.0
 10
617.3123447940221
 20
823.6541999541369
 10
617.3123418179445
 20
823.6551055805689
 42
0.0123373122097484
 10
617.3116130365048
 20
823.6811643336218
 42
0.0140066973325145
 10
617.3095131822907
 20
823.7071462659742
 10
617.3094198956866
 20
823.7080014340195
 42
0.013974234941058
 10
617.3056614660287
 20
823.7353436621875
 10
617.3056558698987
 20
823.7353773635032
 42
0.0139459821396504
 10
617.3003904422336
 20
823.7624002344687
 10
617.3003856168258
 20
823.7624217797743
 42
0.0139236222881211
 10
617.2936338433288
 20
823.7890666136682
 42
0.0139031831890558
 10
617.2854135957028
 20
823.8152847890033
 42
0.0139017955248024
 10
617.2757516089611
 20
823.8409967482435
 42
0.0139086551979633
 10
617.2646697782753
 20
823.8661444706008
 42
0.0139113727638281
 10
617.2522015935361
 20
823.8906486020787
 10
617.252189982211
 20
823.8906699324825
 42
0.0139278199099989
 10
617.2383531788524
 20
823.9144842507126
 10
617.2383340849871
 20
823.9145151015714
 42
0.0139504022939569
 10
617.2231518935874
 20
823.9375819359511
 10
617.2231239417403
 20
823.9376219284982
 42
0.0139774514791146
 10
617.2066196935017
 20
823.9598836053619
 10
617.2065814004451
 20
823.9599323477992
 42
0.0140099719554028
 10
617.1887784116949
 20
823.9813311080484
 10
617.1875624490818
 20
823.9827120687833
 42
0.017583942064725
 10
617.1659222152317
 20
824.0056125371962
 10
617.1633824323804
 20
824.0081176218678
 10
617.1627272155234
 20
824.0087784978637
 42
0.0119348480506322
 10
617.1438115127563
 20
824.0269680095248
 42
0.0136412224271385
 10
617.1239923032696
 20
824.0441651276606
 10
617.1233225875854
 20
824.0447149464785
 42
0.0136991230923139
 10
617.1014740572742
 20
824.06167180067
 10
617.101422385215
 20
824.0617096821966
 42
0.0137551912727591
 10
617.0787816462904
 20
824.0773690763158
 10
617.0787403489782
 20
824.0773959909347
 42
0.0138095116568848
 10
617.0553552889156
 20
824.0917325868522
 10
617.0553254068424
 20
824.0917497897381
 42
0.0138620333076306
 10
617.0312439113419
 20
824.1047382188717
 10
617.0312264840901
 20
824.1047470036815
 42
0.0139124728231827
 10
617.0064964367099
 20
824.1163618524565
 42
0.0139580351054448
 10
616.9811617883403
 20
824.1265793591319
 42
0.0140101810638839
 10
616.9552888920576
 20
824.1353666016621
 42
0.0140437209049391
 10
616.9289532881136
 20
824.1426928310507
 10
616.9289266787506
 20
824.1426994342951
 42
0.0140767707539624
 10
616.9021674201546
 20
824.1485455073025
 10
616.902124086893
 20
824.1485537036347
 42
0.0141018141122861
 10
616.8749910133598
 20
824.1528972487749
 10
616.8749300649066
 20
824.1529052501469
 42
0.014121391795297
 10
616.847472947488
 20
824.1557237746129
 10
616.845647569368
 20
824.1558591963599
 42
0.0176421122147279
 10
616.8144173177776
 20
824.1570706659413
 10
616.8126242888517
 20
824.1570769263926
 10
616.8108733921832
 20
824.1570799835094
  0
LWPOLYLINE
  5
4B99
330
A
100
AcDbEntity
  8
MODEL
  6
Continuous
390
1D
100
AcDbPolyline
 90
        5
 70
   128
 43
0.0
 10
617.3123447940221
 20
824.1570799835094
 10
617.3123447940221
 20
827.1542872173945
 10
554.4079693551763
 20
827.1542872173945
 10
554.4079693551763
 20
824.1570799835094
 10
617.3123447940221
 20
824.1570799835094
  0
LWPOLYLINE
  5
4B9A
102
{ACAD_REACTORS
330
4CDA
102
}
330
A
100
AcDbEntity
  8
MODEL
  6
Continuous
390
1D
100
AcDbPolyline
 90
        6
 70
   128
 43
0.0
 10
606.6099449532263
 20
802.1539167792635
 10
606.6099449532263
 20
793.6539060867135
 10
605.1090523165427
 20
792.1537177637961
 10
566.6080924207059
 20
792.1537177637961
 10
565.1082562546723
 20
793.6539060867135
 10
565.1082562546723
 20
802.1539167792635
  0
LINE
  5
4BA3
330
A
100
AcDbEntity
  8
MODEL
  6
Continuous
390
1D
100
AcDbLine
 10
566.6080924207059
 20
792.1537177637961
 30
0.0
 11
566.6080924207059
 21
802.1539167792635
 31
0.0
  0
LINE
  5
4BA4
330
A
100
AcDbEntity
  8
MODEL
  6
Continuous
390
1D
100
AcDbLine
 10
605.1090523165427
 20
792.1537177637961
 30
0.0
 11
605.1090523165427
 21
802.1539167792635
 31
0.0
  0
LINE
  5
4BA5
330
A
100
AcDbEntity
  8
MODEL
  6
Continuous
390
1D
100
AcDbLine
 10
565.1082562546723
 20
793.6539060867135
 30
0.0
 11
606.6099449532263
 21
793.6539060867135
 31
0.0
  0
LWPOLYLINE
  5
4C55
330
A
100
AcDbEntity
  8
MODEL
  6
Continuous
390
1D
100
AcDbPolyline
 90
        4
 70
   128
 43
0.0
 10
1379.683668443672
 20
820.7570052751125
 10
1379.683668443672
 20
802.1539167792635
 10
1429.685543913219
 20
802.1539167792635
 10
1429.685543913219
 20
820.7570052751125
  0
LINE
  5
4C56
330
A
100
AcDbEntity
  8
MODEL
  6
Continuous
390
1D
100
AcDbLine
 10
1435.636290927459
 20
820.7570052751125
 30
0.0
 11
1373.732921429433
 21
820.7570052751125
 31
0.0
  0
LWPOLYLINE
  5
4C57
330
A
100
AcDbEntity
  8
MODEL
  6
Continuous
390
1D
100
AcDbPolyline
 90
       34
 70
   128
 43
0.0
 10
1373.233386890452
 20
823.6541999541369
 10
1373.233386890452
 20
821.2542507943522
 10
1373.23340301315
 20
821.2513223306119
 42
0.023199158013714
 10
1373.23573388128
 20
821.2064479695805
 10
1373.235748930364
 20
821.2062953468389
 42
0.0228453587782126
 10
1373.242152046547
 20
821.1621271536205
 10
1373.242169916428
 20
821.1620340609334
 42
0.0225592004716144
 10
1373.252507552323
 20
821.1188114239326
 10
1373.252520146212
 20
821.1187676063387
 42
0.0222922942134623
 10
1373.266658887334
 20
821.0767299429885
 42
0.0220661019322142
 10
1373.284465050153
 20
821.0361121869905
 42
0.0218904848885035
 10
1373.305767168143
 20
820.9972167294932
 10
1373.30578492983
 20
820.9971874205557
 42
0.021808472346344
 10
1373.330438470967
 20
820.9602422435046
 10
1373.332914385717
 20
820.9568610538495
 42
0.0216646390673617
 10
1373.355623997172
 20
820.9285108460203
 42
0.0144856709331533
 10
1373.380334819082
 20
820.9018611472261
 10
1373.380469325384
 20
820.9017242626383
 42
0.0187875685871695
 10
1373.407168770956
 20
820.8765204401602
 10
1373.408254206517
 20
820.8755703201755
 42
0.0238141549050472
 10
1373.439245339653
 20
820.8509467401718
 10
1373.44150892831
 20
820.8493177874066
 42
0.0234542194862616
 10
1373.478973683715
 20
820.8249387128421
 10
1373.479018855655
 20
820.8249122469547
 42
0.0230606026208613
 10
1373.518494825837
 20
820.8041661327056
 42
0.0226865421371516
 10
1373.559701492
 20
820.7871126842497
 42
0.0223584837097442
 10
1373.602275544526
 20
820.7738349882165
 10
1373.602316121125
 20
820.7738242980026
 42
0.0220952725074226
 10
1373.645983772541
 20
820.7643605960934
 10
1373.647350555587
 20
820.7641270514973
 42
0.0219008930287896
 10
1373.68924755462
 20
820.7588436450219
 10
1373.690600662865
 20
820.758732920669
 42
0.0190613687038246
 10
1373.730088573259
 20
820.7570129413461
 10
1373.732921429433
 20
820.7570052751125
  0
LWPOLYLINE
  5
4C58
330
A
100
AcDbEntity
  8
MODEL
  6
Continuous
390
1D
100
AcDbPolyline
 90
       49
 70
   128
 43
0.0
 10
1373.732921429433
 20
824.1570799835094
 10
1373.732028326474
 20
824.1570769998225
 42
0.0124442569184911
 10
1373.706038157118
 20
824.1563431537038
 42
0.0140765873539204
 10
1373.680125683049
 20
824.1542326877156
 10
1373.679271055571
 20
824.1541388012056
 42
0.0139996459612352
 10
1373.651944931344
 20
824.1503599570137
 10
1373.651921918838
 20
824.1503561153486
 42
0.0139362149333324
 10
1373.624895115547
 20
824.1450662433595
 10
1373.624880834754
 20
824.1450630325871
 42
0.0138885481933461
 10
1373.598218362996
 20
824.1382853842001
 42
0.0138552348807121
 10
1373.571978773363
 20
824.1300414670413
 42
0.0138472540973784
 10
1373.546240563769
 20
824.1203585978551
 42
0.0138582073893028
 10
1373.521067985471
 20
824.1092608711019
 42
0.0138787271650143
 10
1373.496540723309
 20
824.0967807734487
 10
1373.496525171227
 20
824.0967723088074
 42
0.0139214895358298
 10
1373.472698750674
 20
824.0829308092275
 10
1373.472676325632
 20
824.0829169328395
 42
0.0139801012180769
 10
1373.449614972966
 20
824.0677392272255
 10
1373.449585675188
 20
824.0677187488031
 42
0.0140523261579424
 10
1373.427353677692
 20
824.051230214236
 10
1373.424610542326
 20
824.049073676551
 42
0.0141350456886951
 10
1373.408561472223
 20
824.035705611735
 10
1373.407282557219
 20
824.034577610887
 42
0.0070614722258565
 10
1373.39433524395
 20
824.0228288851267
 42
0.0113561972811683
 10
1373.381831347321
 20
824.0106132660162
 10
1373.378151824853
 20
824.0068515140697
 42
0.0139520208903816
 10
1373.359411635883
 20
823.9865914075194
 10
1373.359391357027
 20
823.9865682182908
 42
0.0134270538476567
 10
1373.341826813328
 20
823.9653596961639
 10
1373.341812039409
 20
823.9653408491749
 42
0.0133933836648699
 10
1373.325438274205
 20
823.9432595768981
 10
1373.32542840446
 20
823.9432454935277
 42
0.0133728409295846
 10
1373.310278477583
 20
823.9203484414707
 42
0.0133660767598141
 10
1373.296379870489
 20
823.8966843040985
 42
0.0133895121303139
 10
1373.283775148978
 20
823.8723255516456
 42
0.013433093692141
 10
1373.272496717914
 20
823.8473300344685
 42
0.0134969709076652
 10
1373.262576986285
 20
823.8217555738661
 42
0.0135721521047157
 10
1373.254052813532
 20
823.7956747118178
 10
1373.254048483662
 20
823.7956601356423
 42
0.0136676855966053
 10
1373.246949222724
 20
823.7691245986516
 10
1373.246943756022
 20
823.7691016729718
 42
0.0137771725287332
 10
1373.241301262631
 20
823.7421706826676
 10
1373.241295376721
 20
823.7421381481035
 42
0.0138958801025731
 10
1373.237141263482
 20
823.7148711115155
 10
1373.23682206881
 20
823.7122975194115
 42
0.017551892692653
 10
1373.234218861336
 20
823.6828916364225
 10
1373.234082061687
 20
823.6803224664723
 42
0.0124073239706574
 10
1373.233390007624
 20
823.6559463370754
 10
1373.233386890452
 20
823.6541999541369
  0
LINE
  5
4C59
330
A
100
AcDbEntity
  8
MODEL
  6
Continuous
390
1D
100
AcDbLine
 10
1436.137762329298
 20
823.6541999541369
 30
0.0
 11
1436.137762329298
 21
821.2542507943522
 31
0.0
  0
LWPOLYLINE
  5
4C5A
330
A
100
AcDbEntity
  8
MODEL
  6
Continuous
390
1D
100
AcDbPolyline
 90
       52
 70
   128
 43
0.0
 10
1435.636290927459
 20
820.7570052751125
 10
1435.637215299457
 20
820.7570081005288
 42
0.0117151390183895
 10
1435.663281951058
 20
820.7576986575109
 42
0.0134450653851184
 10
1435.689278615199
 20
820.7596992273116
 10
1435.690134473325
 20
820.7597882923947
 42
0.01355817258414
 10
1435.717384658704
 20
820.7633732690233
 10
1435.717445347742
 20
820.7633829335955
 42
0.013667467108946
 10
1435.744339132277
 20
820.7684229195515
 10
1435.744383423083
 20
820.7684324796928
 42
0.013771529620959
 10
1435.770872158216
 20
820.7749183417459
 10
1435.770899809512
 20
820.7749259251632
 42
0.0138688613981445
 10
1435.796934767669
 20
820.7828486289641
 42
0.013951940231079
 10
1435.822477982523
 20
820.7922028746748
 42
0.0140398451363869
 10
1435.847452812895
 20
820.8029701703522
 42
0.0141029795501801
 10
1435.871788216147
 20
820.8151278034106
 10
1435.871810256874
 20
820.8151396027602
 42
0.0141550022217254
 10
1435.895463431403
 20
820.82867713013
 10
1435.895501300726
 20
820.8287002510433
 42
0.0141904144239167
 10
1435.918423810444
 20
820.8436044667637
 10
1435.918476919825
 20
820.8436411837579
 42
0.0142070614503121
 10
1435.940620528743
 20
820.8598988425701
 10
1435.940688080357
 20
820.859951456041
 42
0.0142094280154847
 10
1435.962004532826
 20
820.8775495715804
 10
1435.96341131214
 20
820.8787798157141
 42
0.017743880266795
 10
1435.986278718679
 20
820.9002560996873
 10
1435.988799967656
 20
820.9027982248049
 10
1435.989463211449
 20
820.9034485805732
 42
0.0122183676466702
 10
1436.007712659675
 20
820.9222397722056
 42
0.0139263173605787
 10
1436.02495355276
 20
820.9419572848105
 10
1436.025504159135
 20
820.9426235505807
 42
0.0139437109176372
 10
1436.042491689093
 20
820.964387869953
 10
1436.042528887278
 20
820.9644383702907
 42
0.0139587312522098
 10
1436.058204596445
 20
820.9870132308465
 10
1436.0582309284
 20
820.9870535068044
 42
0.0139725441846221
 10
1436.072571452275
 20
821.0103863522395
 10
1436.072588358381
 20
821.0104156650286
 42
0.013986144762017
 10
1436.085570367785
 20
821.0344539179455
 10
1436.085579263349
 20
821.0344715519068
 42
0.0140002566255695
 10
1436.097179447004
 20
821.0591626192559
 42
0.0140122621025176
 10
1436.107376783522
 20
821.0844591493474
 42
0.0140352660493547
 10
1436.116140463749
 20
821.1102902097127
 42
0.0140470549583118
 10
1436.123443091069
 20
821.1365804136849
 10
1436.123448564029
 20
821.1366025055358
 42
0.0140627337879325
 10
1436.129272197063
 20
821.1633059193096
 10
1436.129279148123
 20
821.1633427370589
 42
0.0140768100856796
 10
1436.133603426364
 20
821.1904053793605
 10
1436.133610269274
 20
821.1904575998005
 42
0.0140915501074954
 10
1436.136414705384
 20
821.2178255046133
 10
1436.136548429479
 20
821.2196309019978
 42
0.0176114419819963
 10
1436.137753069686
 20
821.2507310990591
 10
1436.137759284645
 20
821.2525090450699
 10
1436.137762329298
 20
821.2542507943522
  0
LWPOLYLINE
  5
4C5B
330
A
100
AcDbEntity
  8
MODEL
  6
Continuous
390
1D
100
AcDbPolyline
 90
       51
 70
   128
 43
0.0
 10
1436.137762329298
 20
823.6541999541369
 10
1436.13775935322
 20
823.6551055805689
 42
0.0123373122097484
 10
1436.13703057178
 20
823.6811643336218
 42
0.0140066973325145
 10
1436.134930717566
 20
823.7071462659742
 10
1436.134837430962
 20
823.7080014340195
 42
0.013974234941058
 10
1436.131079001304
 20
823.7353436621875
 10
1436.131073405174
 20
823.7353773635032
 42
0.0139459821396504
 10
1436.125807977509
 20
823.7624002344687
 10
1436.125803152101
 20
823.7624217797743
 42
0.0139236222881211
 10
1436.119051378604
 20
823.7890666136682
 42
0.0139031831890558
 10
1436.110831130978
 20
823.8152847890033
 42
0.0139017955248024
 10
1436.101169144237
 20
823.8409967482435
 42
0.0139086551979633
 10
1436.090087313551
 20
823.8661444706008
 42
0.0139113727638281
 10
1436.077619128812
 20
823.8906486020787
 10
1436.077607517487
 20
823.8906699324825
 42
0.0139278199099989
 10
1436.063770714128
 20
823.9144842507126
 10
1436.063751620263
 20
823.9145151015714
 42
0.0139504022939569
 10
1436.048569428863
 20
823.9375819359511
 10
1436.048541477016
 20
823.9376219284982
 42
0.0139774514791146
 10
1436.032037228777
 20
823.9598836053619
 10
1436.031998935721
 20
823.9599323477992
 42
0.0140099719554028
 10
1436.01419594697
 20
823.9813311080484
 10
1436.012979984357
 20
823.9827120687833
 42
0.017583942064725
 10
1435.991339750507
 20
824.0056125371962
 10
1435.988799967656
 20
824.0081176218678
 10
1435.988144750799
 20
824.0087784978637
 42
0.0119348480506322
 10
1435.969229048032
 20
824.0269680095248
 42
0.0136412224271385
 10
1435.949409838545
 20
824.0441651276606
 10
1435.948740122861
 20
824.0447149464785
 42
0.0136991230923139
 10
1435.92689159255
 20
824.06167180067
 10
1435.92683992049
 20
824.0617096821966
 42
0.0137551912727591
 10
1435.904199181566
 20
824.0773690763158
 10
1435.904157884254
 20
824.0773959909347
 42
0.0138095116568848
 10
1435.880772824191
 20
824.0917325868522
 10
1435.880742942118
 20
824.0917497897381
 42
0.0138620333076306
 10
1435.856661446617
 20
824.1047382188717
 10
1435.856644019366
 20
824.1047470036815
 42
0.0139124728231827
 10
1435.831913971985
 20
824.1163618524565
 42
0.0139580351054448
 10
1435.806579323616
 20
824.1265793591319
 42
0.0140101810638839
 10
1435.780706427333
 20
824.1353666016621
 42
0.0140437209049391
 10
1435.754370823389
 20
824.1426928310507
 10
1435.754344214026
 20
824.1426994342951
 42
0.0140767707539624
 10
1435.72758495543
 20
824.1485455073025
 10
1435.727541622168
 20
824.1485537036347
 42
0.0141018141122861
 10
1435.700408548635
 20
824.1528972487749
 10
1435.700347600182
 20
824.1529052501469
 42
0.014121391795297
 10
1435.672890482763
 20
824.1557237746129
 10
1435.671065104644
 20
824.1558591963599
 42
0.0176421122147279
 10
1435.639834853053
 20
824.1570706659413
 10
1435.638041824127
 20
824.1570769263926
 10
1435.636290927459
 20
824.1570799835094
  0
LWPOLYLINE
  5
4C5C
330
A
100
AcDbEntity
  8
MODEL
  6
Continuous
390
1D
100
AcDbPolyline
 90
        5
 70
   128
 43
0.0
 10
1436.137762329298
 20
824.1570799835094
 10
1436.137762329298
 20
827.1542872173945
 10
1373.233386890452
 20
827.1542872173945
 10
1373.233386890452
 20
824.1570799835094
 10
1436.137762329298
 20
824.1570799835094
  0
LWPOLYLINE
  5
4C5D
330
A
100
AcDbEntity
  8
MODEL
  6
Continuous
390
1D
100
AcDbPolyline
 90
        6
 70
   128
 43
0.0
 10
1425.435362488502
 20
802.1539167792635
 10
1425.435362488502
 20
793.6539060867135
 10
1423.934469851818
 20
792.1537177637961
 10
1385.433509955981
 20
792.1537177637961
 10
1383.933673789948
 20
793.6539060867135
 10
1383.933673789948
 20
802.1539167792635
  0
LINE
  5
4C5E
330
A
100
AcDbEntity
  8
MODEL
  6
Continuous
390
1D
100
AcDbLine
 10
1385.433509955981
 20
792.1537177637961
 30
0.0
 11
1385.433509955981
 21
802.1539167792635
 31
0.0
  0
LINE
  5
4C5F
330
A
100
AcDbEntity
  8
MODEL
  6
Continuous
390
1D
100
AcDbLine
 10
1423.934469851818
 20
792.1537177637961
 30
0.0
 11
1423.934469851818
 21
802.1539167792635
 31
0.0
  0
LINE
  5
4C60
330
A
100
AcDbEntity
  8
MODEL
  6
Continuous
390
1D
100
AcDbLine
 10
1383.933673789948
 20
793.6539060867135
 30
0.0
 11
1425.435362488502
 21
793.6539060867135
 31
0.0
  0
DIMENSION
  5
4C61
330
A
100
AcDbEntity
  8
Dim
  6
Continuous
100
AcDbDimension
  2
*D55
 10
1505.545103466972
 20
792.1542872173945
 30
0.0
 11
1483.328794873222
 21
809.6542872173945
 31
0.0
 70
    32
 71
     5
 42
35.0
 73
     0
 74
     1
 75
     1
  3
JIS
100
AcDbAlignedDimension
 13
1436.137762329298
 23
827.1542872173945
 33
0.0
 14
1436.137762329298
 24
792.1542872173945
 34
0.0
 50
90.0
100
AcDbRotatedDimension
1001
ACAD
1000
DSTYLE
1002
{
1070
   172
1070
     1
1070
   179
1070
     0
1070
   271
1070
     0
1070
    43
1040
25.0
1070
    44
1040
0.0
1070
    42
1040
25.0
1002
}
  0
LWPOLYLINE
  5
4C9C
330
A
100
AcDbEntity
  8
Border
 48
3.0
100
AcDbPolyline
 90
        4
 70
     1
 43
0.0
 10
0.0
 20
0.0
 10
0.0
 20
2970.0
 10
2100.0
 20
2970.0
 10
2100.0
 20
0.0
  0
DIMENSION
  5
4CE7
102
{ACAD_XDICTIONARY
360
4CE8
102
}
330
A
100
AcDbEntity
  8
Dim
  6
Continuous
370
     0
100
AcDbDimension
  2
*D58
 10
1425.435362488502
 20
748.0144956066521
 30
0.0
 11
1404.684518139225
 21
748.0144956066521
 31
0.0
 70
   160
  1
G1 1/4"
 71
     5
 42
41.50168869855406
 73
     0
 74
     0
 75
     0
  3
JIS
100
AcDbAlignedDimension
 13
1383.933673789948
 23
779.0755599505763
 33
0.0
 14
1425.435362488502
 24
779.0755599505763
 34
0.0
100
AcDbRotatedDimension
1001
ACAD
1000
DSTYLE
1002
{
1070
    44
1040
0.0
1070
    76
1070
     0
1070
   172
1070
     1
1070
    77
1070
     2
1002
}
  0
VIEWPORT
  5
349
330
B
100
AcDbEntity
 67
     1
  8
0
100
AcDbViewport
 10
202.5
 20
128.5
 30
0.0
 40
486.0
 41
308.4
 68
     1
 69
     1
 12
202.5
 22
128.5
 13
0.0
 23
0.0
 14
0.5
 24
0.5
 15
0.0
 25
0.0
 16
0.0
 26
0.0
 36
1.0
 17
0.0
 27
0.0
 37
0.0
 42
50.0
 43
0.0
 44
0.0
 45
308.4
 50
0.0
 51
0.0
 72
   100
 90
   557152
  1

281
     0
 71
     1
 74
     0
110
0.0
120
0.0
130
0.0
111
1.0
121
0.0
131
0.0
112
0.0
122
1.0
132
0.0
 79
     0
146
0.0
170
     0
 61
     5
348
26C
292
     1
282
     1
141
0.0
142
0.0
 63
   256
  0
VIEWPORT
  5
34A
330
B
100
AcDbEntity
 67
     1
  8
0
100
AcDbViewport
 10
202.5
 20
128.5
 30
0.0
 40
324.0
 41
205.6
 68
     2
 69
     2
 12
986.6781359294573
 22
1427.077061889956
 13
0.0
 23
0.0
 14
0.5
 24
0.5
 15
0.0
 25
0.0
 16
0.0
 26
0.0
 36
1.0
 17
0.0
 27
0.0
 37
0.0
 42
50.0
 43
0.0
 44
0.0
 45
2890.021615685494
 50
0.0
 51
0.0
 72
   100
 90
   557152
  1

281
     0
 71
     1
 74
     0
110
0.0
120
0.0
130
0.0
111
1.0
121
0.0
131
0.0
112
0.0
122
1.0
132
0.0
 79
     0
146
0.0
170
     0
 61
     5
348
26C
292
     1
282
     1
141
0.0
142
0.0
 63
   256
  0
ENDSEC
  0
SECTION
  2
OBJECTS
  0
DICTIONARY
  5
19
330
0
100
AcDbDictionary
281
     1
  3
ACAD_COLOR
350
38F
  3
ACAD_DETAILVIEWSTYLE
350
1EEA
  3
ACAD_FIELDLIST
350
4A93
  3
ACAD_GROUP
350
1A
  3
ACAD_IMAGE_VARS
350
27B
  3
ACAD_LAYOUT
350
1E
  3
ACAD_MATERIAL
350
263
  3
ACAD_MLEADERSTYLE
350
336
  3
ACAD_MLINESTYLE
350
1B
  3
ACAD_PLOTSETTINGS
350
22
  3
ACAD_PLOTSTYLENAME
350
1F
  3
ACAD_SCALELIST
350
241
  3
ACAD_SECTIONVIEWSTYLE
350
1EEB
  3
ACAD_TABLESTYLE
350
278
  3
ACAD_VISUALSTYLE
350
267
  3
AcadDim
350
483F
  3
ACDB_RECOMPOSE_DATA
350
4D95
  3
AcDbVariableDictionary
350
330
  3
APPDATA
350
27A
  0
SUN
  5
68F
330
15
100
AcDbSun
 90
        1
290
     0
 63
     7
421
 16777215
 40
1.0
291
     1
 91
  2455826
 92
 54000000
292
     0
 70
     2
 71
   256
280
     1
  0
DICTIONARY
  5
2E1
330
2
100
AcDbDictionary
280
     1
281
     1
  3
ACAD_LAYERSTATES
360
2E2
  3
ACLYDICTIONARY
360
4CBC
  0
DICTIONARY
  5
47F8
330
47F7
100
AcDbDictionary
280
     1
281
     1
  3
ACAD_DIMASSOC
360
47F9
  0
DICTIONARY
  5
4807
330
4806
100
AcDbDictionary
280
     1
281
     1
  3
ACAD_DIMASSOC
360
4808
  0
DICTIONARY
  5
4829
330
4828
100
AcDbDictionary
280
     1
281
     1
  3
ACAD_DIMASSOC
360
482A
  0
DICTIONARY
  5
4840
330
483E
100
AcDbDictionary
280
     1
281
     1
  3
ACAD_DIMASSOC
360
4841
  0
DICTIONARY
  5
4951
330
4950
100
AcDbDictionary
280
     1
281
     1
  3
ACAD_DIMASSOC
360
4952
  0
DICTIONARY
  5
4966
330
4965
100
AcDbDictionary
280
     1
281
     1
  3
ACAD_DIMASSOC
360
4967
  0
DICTIONARY
  5
4A7D
330
4A7C
100
AcDbDictionary
280
     1
281
     1
  3
ACAD_DIMASSOC
360
4A7E
  0
DICTIONARY
  5
4A91
330
4A8F
100
AcDbDictionary
280
     1
281
     1
  3
ACAD_FIELD
360
4A95
  0
DICTIONARY
  5
4CE8
330
4CE7
100
AcDbDictionary
280
     1
281
     1
  0
DICTIONARY
  5
38F
102
{ACAD_REACTORS
330
19
102
}
330
19
100
AcDbDictionary
281
     1
  0
DICTIONARY
  5
1EEA
102
{ACAD_REACTORS
330
19
102
}
330
19
100
AcDbDictionary
281
     1
  0
FIELDLIST
  5
4A93
102
{ACAD_REACTORS
330
19
102
}
330
19
100
AcDbIdSet
 90
        2
330
4A94
330
4A90
100
AcDbFieldList
  0
DICTIONARY
  5
1A
102
{ACAD_REACTORS
330
19
102
}
330
19
100
AcDbDictionary
281
     1
  0
RASTERVARIABLES
  5
27B
102
{ACAD_REACTORS
330
19
102
}
330
19
100
AcDbRasterVariables
 90
        0
 70
     1
 71
     1
 72
     1
  0
DICTIONARY
  5
1E
102
{ACAD_REACTORS
330
19
102
}
330
19
100
AcDbDictionary
281
     1
  3
Layout1
350
21
  3
Model
350
20
  0
DICTIONARY
  5
263
102
{ACAD_REACTORS
330
19
102
}
330
19
100
AcDbDictionary
281
     1
  3
ByBlock
350
4191
  3
ByLayer
350
264
  3
Global
350
266
  0
DICTIONARY
  5
336
102
{ACAD_REACTORS
330
19
102
}
330
19
100
AcDbDictionary
281
     1
  3
Standard
350
4A3F
  0
DICTIONARY
  5
1B
102
{ACAD_REACTORS
330
19
102
}
330
19
100
AcDbDictionary
281
     1
  3
Standard
350
1C
  0
DICTIONARY
  5
22
102
{ACAD_REACTORS
330
19
102
}
330
19
100
AcDbDictionary
281
     1
  0
ACDBDICTIONARYWDFLT
  5
1F
102
{ACAD_REACTORS
330
19
102
}
330
19
100
AcDbDictionary
281
     1
  3
Normal
350
1D
100
AcDbDictionaryWithDefault
340
1D
  0
DICTIONARY
  5
241
102
{ACAD_REACTORS
330
19
102
}
330
19
100
AcDbDictionary
281
     1
  3
A0
350
242
  3
A1
350
243
  3
A2
350
244
  3
A3
350
245
  3
A4
350
246
  3
A5
350
247
  3
A6
350
248
  3
A7
350
249
  3
A8
350
24A
  3
A9
350
24B
  3
B0
350
24C
  3
B1
350
24D
  3
B2
350
24E
  3
B3
350
24F
  3
B4
350
250
  3
B5
350
251
  3
B6
350
252
  3
B7
350
253
  3
B8
350
254
  3
B9
350
255
  3
C0
350
256
  3
C1
350
257
  3
C2
350
258
  3
C3
350
259
  3
C4
350
25A
  3
C5
350
25B
  3
C6
350
25C
  3
C7
350
25D
  3
C8
350
25E
  3
C9
350
25F
  3
D0
350
260
  3
D1
350
261
  3
D2
350
262
  0
DICTIONARY
  5
1EEB
102
{ACAD_REACTORS
330
19
102
}
330
19
100
AcDbDictionary
281
     1
  0
DICTIONARY
  5
278
102
{ACAD_REACTORS
330
19
102
}
330
19
100
AcDbDictionary
281
     1
  3
Standard
350
279
  0
DICTIONARY
  5
267
102
{ACAD_REACTORS
330
19
102
}
330
19
100
AcDbDictionary
281
     1
  3
2dWireframe
350
26C
  3
3D Hidden
350
26E
  3
3dWireframe
350
26D
  3
Basic
350
26F
  3
Brighten
350
273
  3
ColorChange
350
277
  3
Conceptual
350
271
  3
Dim
350
272
  3
EdgeColorOff
350
689
  3
Facepattern
350
276
  3
Flat
350
268
  3
FlatWithEdges
350
269
  3
Gouraud
350
26A
  3
GouraudWithEdges
350
26B
  3
Hidden
350
686
  3
JitterOff
350
687
  3
Linepattern
350
275
  3
OverhangOff
350
688
  3
Realistic
350
270
  3
Shaded
350
68E
  3
Shaded with edges
350
68D
  3
Shades of Gray
350
68A
  3
Sketchy
350
68B
  3
Thicken
350
274
  3
Wireframe
350
685
  3
X-Ray
350
68C
  0
XRECORD
  5
483F
102
{ACAD_REACTORS
330
19
102
}
330
19
100
AcDbXrecord
280
     1
340
0
 72
     0
 71
     0
 70
     0
 69
     0
 68
     1
 67
     3
 66
     0
 65
     0
 64
     0
 63
     3
 62
     1
 61
     0
 60
     0
 40
0.0
  0
XRECORD
  5
4D95
102
{ACAD_REACTORS
330
19
102
}
330
19
100
AcDbXrecord
280
     1
 90
        1
330
279
  0
DICTIONARY
  5
330
102
{ACAD_REACTORS
330
19
102
}
330
19
100
AcDbDictionary
281
     1
  3
CANNOSCALE
350
331
  3
CMLEADERSTYLE
350
4A56
  3
CTABLESTYLE
350
335
  3
XCLIPFRAME
350
64A
  0
DICTIONARY
  5
27A
102
{ACAD_REACTORS
330
19
102
}
330
19
100
AcDbDictionary
281
     1
  0
DICTIONARY
  5
2E2
102
{ACAD_REACTORS
330
2E1
102
}
330
2E1
100
AcDbDictionary
281
     1
  3
ARGON_LAYERP_11
350
3FF2
  0
DICTIONARY
  5
4CBC
102
{ACAD_REACTORS
330
2E1
102
}
330
2E1
100
AcDbDictionary
281
     1
1001
ACAD
1000
<All
  0
DIMASSOC
  5
47F9
102
{ACAD_REACTORS
330
47F8
102
}
330
47F8
100
AcDbDimAssoc
330
47F7
 90
        3
 70
     0
 71
     1
  1
AcDbOsnapPointRef
 72
     5
331
47F1
 73
     0
 91
        0
 40
3.141592653589793
 10
0.0
 20
0.0
 30
0.0
 75
     0
  1
AcDbOsnapPointRef
 72
     5
331
47F1
 73
     0
 91
        0
 40
0.0
 10
0.0
 20
0.0
 30
0.0
 75
     0
  0
DIMASSOC
  5
4808
102
{ACAD_REACTORS
330
4807
102
}
330
4807
100
AcDbDimAssoc
330
4806
 90
        3
 70
     0
 71
     1
  1
AcDbOsnapPointRef
 72
     5
331
47F1
 73
     0
 91
        0
 40
1.570796326794897
 10
0.0
 20
0.0
 30
0.0
 75
     0
  1
AcDbOsnapPointRef
 72
     5
331
47F1
 73
     0
 91
        0
 40
4.71238898038469
 10
0.0
 20
0.0
 30
0.0
 75
     0
  0
DIMASSOC
  5
482A
102
{ACAD_REACTORS
330
4829
102
}
330
4829
100
AcDbDimAssoc
330
4828
 90
        3
 70
     0
 71
     1
  1
AcDbOsnapPointRef
 72
     5
331
47F4
 73
     0
 91
        0
 40
3.141592653589793
 10
0.0
 20
0.0
 30
0.0
 75
     0
  1
AcDbOsnapPointRef
 72
     5
331
47F4
 73
     0
 91
        0
 40
0.0
 10
0.0
 20
0.0
 30
0.0
 75
     0
  0
DIMASSOC
  5
4841
102
{ACAD_REACTORS
330
4840
102
}
330
4840
100
AcDbDimAssoc
330
483E
 90
        1
 70
     0
 71
     1
  1
AcDbOsnapPointRef
 72
     5
331
483D
 73
     0
 91
        0
 40
0.0
 10
0.0
 20
0.0
 30
0.0
 75
     0
  0
DIMASSOC
  5
4952
102
{ACAD_REACTORS
330
4951
102
}
330
4951
100
AcDbDimAssoc
330
4950
 90
        1
 70
     0
 71
     1
  1
AcDbOsnapPointRef
 72
    13
331
4737
 73
     0
 91
        0
 40
0.0
 10
0.0
 20
0.0
 30
0.0
 75
     0
  0
DIMASSOC
  5
4967
102
{ACAD_REACTORS
330
4966
102
}
330
4966
100
AcDbDimAssoc
330
4965
 90
        3
 70
     0
 71
     1
  1
AcDbOsnapPointRef
 72
    13
331
4944
 73
     0
 91
        0
 40
0.0
 10
0.0
 20
0.0
 30
0.0
 75
     0
  1
AcDbOsnapPointRef
 72
    13
331
4735
 73
     0
 91
        0
 40
0.0
 10
0.0
 20
0.0
 30
0.0
 75
     0
  0
DIMASSOC
  5
4A7E
102
{ACAD_REACTORS
330
4A7D
102
}
330
4A7D
100
AcDbDimAssoc
330
4A7C
 90
        2
 70
     0
 71
     1
  1
AcDbOsnapPointRef
 72
     3
331
4A5B
 73
     0
 91
        0
 40
0.0
 10
0.0
 20
0.0
 30
0.0
 75
     0
  0
DICTIONARY
  5
4A95
102
{ACAD_REACTORS
330
4A91
102
}
330
4A91
100
AcDbDictionary
280
     1
281
     1
  3
TEXT
360
4A90
  0
LAYOUT
  5
21
102
{ACAD_REACTORS
330
1E
102
}
330
1E
100
AcDbPlotSettings
  1

  2
none_device
  4
ISO_A3_(420.00_x_297.00_MM)
  6

 40
7.5
 41
20.0
 42
7.5
 43
20.0
 44
420.0
 45
297.0
 46
0.0
 47
0.0
 48
0.0
 49
0.0
140
0.0
141
0.0
142
1.0
143
1.0
 70
     0
 72
     1
 73
     0
 74
     0
  7

 75
     0
 76
     0
 77
     2
 78
   300
147
1.0
148
0.0
149
0.0
100
AcDbLayout
  1
Layout1
 70
     0
 71
     0
 10
0.0
 20
0.0
 11
0.0
 21
0.0
 12
0.0
 22
0.0
 32
0.0
 14
0.0
 24
0.0
 34
0.0
 15
0.0
 25
0.0
 35
0.0
146
0.0
 13
0.0
 23
0.0
 33
0.0
 16
0.0
 26
0.0
 36
0.0
 17
0.0
 27
0.0
 37
0.0
 76
     0
330
B
331
349
  0
LAYOUT
  5
20
102
{ACAD_REACTORS
330
1E
102
}
330
1E
100
AcDbPlotSettings
  1

  2
none_device
  4
ISO_A3_(420.00_x_297.00_MM)
  6

 40
7.5
 41
20.0
 42
7.5
 43
20.0
 44
420.0
 45
297.0
 46
0.0
 47
0.0
 48
0.0
 49
0.0
140
0.0
141
0.0
142
1.0
143
1.0
 70
  1024
 72
     1
 73
     0
 74
     0
  7

 75
     0
 76
     0
 77
     2
 78
   300
147
1.0
148
0.0
149
0.0
100
AcDbLayout
  1
Model
 70
     0
 71
     1
 10
0.0
 20
0.0
 11
2100.0
 21
2970.0
 12
0.0
 22
0.0
 32
0.0
 14
0.0
 24
0.0
 34
0.0
 15
2100.0
 25
2970.0
 35
0.0
146
0.0
 13
0.0
 23
0.0
 33
0.0
 16
0.0
 26
0.0
 36
0.0
 17
0.0
 27
0.0
 37
0.0
 76
     0
330
A
331
15
  0
MATERIAL
  5
4191
102
{ACAD_REACTORS
330
263
102
}
330
263
100
AcDbMaterial
  1
ByBlock
 72
     1
 94
      127
  0
MATERIAL
  5
264
102
{ACAD_REACTORS
330
263
102
}
330
263
100
AcDbMaterial
  1
ByLayer
 72
     1
 94
      127
  0
MATERIAL
  5
266
102
{ACAD_REACTORS
330
263
102
}
330
263
100
AcDbMaterial
  1
Global
 72
     1
 94
      127
  0
MLEADERSTYLE
  5
4A3F
102
{ACAD_REACTORS
330
336
102
}
330
336
100
AcDbMLeaderStyle
170
     2
171
     1
172
     0
 90
        2
 40
0.0
 41
0.0
173
     1
 91
-1056964608
340
11
 92
       -2
290
     1
 42
2.0
291
     1
 43
8.0
  3
Standard
341
0
 44
4.0
300

342
17
174
     1
178
     6
175
     1
176
     0
 93
-1056964608
 45
4.0
292
     0
297
     0
 46
4.0
343
0
 94
-1056964608
 47
1.0
 49
1.0
140
1.0
293
     1
141
0.0
294
     1
177
     0
142
1.0
295
     0
296
     0
143
3.75
1001
ACAD_MLEADERVER
1070
     2
  0
MLINESTYLE
  5
1C
102
{ACAD_REACTORS
330
1B
102
}
330
1B
100
AcDbMlineStyle
  2
Standard
 70
     0
  3

 62
     0
 51
90.0
 52
90.0
 71
     2
 49
0.5
 62
   256
  6
BYLAYER
 49
-0.5
 62
   256
  6
BYLAYER
  0
ACDBPLACEHOLDER
  5
1D
102
{ACAD_REACTORS
330
1F
102
}
330
1F
  0
SCALE
  5
242
102
{ACAD_REACTORS
330
241
102
}
330
241
100
AcDbScale
 70
     0
300
1:1
140
1.0
141
1.0
290
     1
  0
SCALE
  5
243
102
{ACAD_REACTORS
330
241
102
}
330
241
100
AcDbScale
 70
     0
300
1:2
140
1.0
141
2.0
290
     0
  0
SCALE
  5
244
102
{ACAD_REACTORS
330
241
102
}
330
241
100
AcDbScale
 70
     0
300
1:4
140
1.0
141
4.0
290
     0
  0
SCALE
  5
245
102
{ACAD_REACTORS
330
241
102
}
330
241
100
AcDbScale
 70
     0
300
1:5
140
1.0
141
5.0
290
     0
  0
SCALE
  5
246
102
{ACAD_REACTORS
330
241
102
}
330
241
100
AcDbScale
 70
     0
300
1:8
140
1.0
141
8.0
290
     0
  0
SCALE
  5
247
102
{ACAD_REACTORS
330
241
102
}
330
241
100
AcDbScale
 70
     0
300
1:10
140
1.0
141
10.0
290
     0
  0
SCALE
  5
248
102
{ACAD_REACTORS
330
241
102
}
330
241
100
AcDbScale
 70
     0
300
1:16
140
1.0
141
16.0
290
     0
  0
SCALE
  5
249
102
{ACAD_REACTORS
330
241
102
}
330
241
100
AcDbScale
 70
     0
300
1:20
140
1.0
141
20.0
290
     0
  0
SCALE
  5
24A
102
{ACAD_REACTORS
330
241
102
}
330
241
100
AcDbScale
 70
     0
300
1:30
140
1.0
141
30.0
290
     0
  0
SCALE
  5
24B
102
{ACAD_REACTORS
330
241
102
}
330
241
100
AcDbScale
 70
     0
300
1:40
140
1.0
141
40.0
290
     0
  0
SCALE
  5
24C
102
{ACAD_REACTORS
330
241
102
}
330
241
100
AcDbScale
 70
     0
300
1:50
140
1.0
141
50.0
290
     0
  0
SCALE
  5
24D
102
{ACAD_REACTORS
330
241
102
}
330
241
100
AcDbScale
 70
     0
300
1:100
140
1.0
141
100.0
290
     0
  0
SCALE
  5
24E
102
{ACAD_REACTORS
330
241
102
}
330
241
100
AcDbScale
 70
     0
300
2:1
140
2.0
141
1.0
290
     0
  0
SCALE
  5
24F
102
{ACAD_REACTORS
330
241
102
}
330
241
100
AcDbScale
 70
     0
300
4:1
140
4.0
141
1.0
290
     0
  0
SCALE
  5
250
102
{ACAD_REACTORS
330
241
102
}
330
241
100
AcDbScale
 70
     0
300
8:1
140
8.0
141
1.0
290
     0
  0
SCALE
  5
251
102
{ACAD_REACTORS
330
241
102
}
330
241
100
AcDbScale
 70
     0
300
10:1
140
10.0
141
1.0
290
     0
  0
SCALE
  5
252
102
{ACAD_REACTORS
330
241
102
}
330
241
100
AcDbScale
 70
     0
300
100:1
140
100.0
141
1.0
290
     0
  0
SCALE
  5
253
102
{ACAD_REACTORS
330
241
102
}
330
241
100
AcDbScale
 70
     0
300
1/128" = 1'-0"
140
0.0078125
141
12.0
290
     0
  0
SCALE
  5
254
102
{ACAD_REACTORS
330
241
102
}
330
241
100
AcDbScale
 70
     0
300
1/64" = 1'-0"
140
0.015625
141
12.0
290
     0
  0
SCALE
  5
255
102
{ACAD_REACTORS
330
241
102
}
330
241
100
AcDbScale
 70
     0
300
1/32" = 1'-0"
140
0.03125
141
12.0
290
     0
  0
SCALE
  5
256
102
{ACAD_REACTORS
330
241
102
}
330
241
100
AcDbScale
 70
     0
300
1/16" = 1'-0"
140
0.0625
141
12.0
290
     0
  0
SCALE
  5
257
102
{ACAD_REACTORS
330
241
102
}
330
241
100
AcDbScale
 70
     0
300
3/32" = 1'-0"
140
0.09375
141
12.0
290
     0
  0
SCALE
  5
258
102
{ACAD_REACTORS
330
241
102
}
330
241
100
AcDbScale
 70
     0
300
1/8" = 1'-0"
140
0.125
141
12.0
290
     0
  0
SCALE
  5
259
102
{ACAD_REACTORS
330
241
102
}
330
241
100
AcDbScale
 70
     0
300
3/16" = 1'-0"
140
0.1875
141
12.0
290
     0
  0
SCALE
  5
25A
102
{ACAD_REACTORS
330
241
102
}
330
241
100
AcDbScale
 70
     0
300
1/4" = 1'-0"
140
0.25
141
12.0
290
     0
  0
SCALE
  5
25B
102
{ACAD_REACTORS
330
241
102
}
330
241
100
AcDbScale
 70
     0
300
3/8" = 1'-0"
140
0.375
141
12.0
290
     0
  0
SCALE
  5
25C
102
{ACAD_REACTORS
330
241
102
}
330
241
100
AcDbScale
 70
     0
300
1/2" = 1'-0"
140
0.5
141
12.0
290
     0
  0
SCALE
  5
25D
102
{ACAD_REACTORS
330
241
102
}
330
241
100
AcDbScale
 70
     0
300
3/4" = 1'-0"
140
0.75
141
12.0
290
     0
  0
SCALE
  5
25E
102
{ACAD_REACTORS
330
241
102
}
330
241
100
AcDbScale
 70
     0
300
1" = 1'-0"
140
1.0
141
12.0
290
     0
  0
SCALE
  5
25F
102
{ACAD_REACTORS
330
241
102
}
330
241
100
AcDbScale
 70
     0
300
1-1/2" = 1'-0"
140
1.5
141
12.0
290
     0
  0
SCALE
  5
260
102
{ACAD_REACTORS
330
241
102
}
330
241
100
AcDbScale
 70
     0
300
3" = 1'-0"
140
3.0
141
12.0
290
     0
  0
SCALE
  5
261
102
{ACAD_REACTORS
330
241
102
}
330
241
100
AcDbScale
 70
     0
300
6" = 1'-0"
140
6.0
141
12.0
290
     0
  0
SCALE
  5
262
102
{ACAD_REACTORS
330
241
102
}
330
241
100
AcDbScale
 70
     0
300
1'-0" = 1'-0"
140
12.0
141
12.0
290
     0
  0
TABLESTYLE
  5
279
102
{ACAD_REACTORS
330
278
102
}
102
{ACAD_XDICTIONARY
360
4D93
102
}
330
278
100
AcDbTableStyle
  3
Standard
 70
     0
 71
     0
 40
0.06
 41
0.06
280
     0
281
     0
  7
Standard
140
4.5
170
     2
 62
     0
 63
   257
283
     0
 90
        4
 91
        0
  1

274
    -2
284
     1
 64
     0
275
    -2
285
     1
 65
     0
276
    -2
286
     1
 66
     0
277
    -2
287
     1
 67
     0
278
    -2
288
     1
 68
     0
279
    -2
289
     1
 69
     0
  7
Standard
140
6.0
170
     5
 62
     0
 63
   257
283
     0
 90
        4
 91
        0
  1

274
    -2
284
     1
 64
     0
275
    -2
285
     1
 65
     0
276
    -2
286
     1
 66
     0
277
    -2
287
     1
 67
     0
278
    -2
288
     1
 68
     0
279
    -2
289
     1
 69
     0
  7
Standard
140
4.5
170
     5
 62
     0
 63
   257
283
     0
 90
        4
 91
        0
  1

274
    -2
284
     1
 64
     0
275
    -2
285
     1
 65
     0
276
    -2
286
     1
 66
     0
277
    -2
287
     1
 67
     0
278
    -2
288
     1
 68
     0
279
    -2
289
     1
 69
     0
  0
VISUALSTYLE
  5
26C
102
{ACAD_REACTORS
330
267
102
}
330
267
100
AcDbVisualStyle
  2
2dWireframe
 70
     4
 71
     0
 72
     2
 73
     0
 90
        0
 40
-0.6
 41
-30.0
 62
     5
 63
     7
421
 16777215
 74
     1
 91
        4
 64
     7
 65
   257
 75
     1
175
     1
 42
1.0
 92
        0
 66
   257
 43
1.0
 76
     1
 77
     6
 78
     2
 67
     7
 79
     5
170
     0
171
     0
290
     0
174
     0
 93
        1
 44
0.0
173
     0
291
     0
 45
0.0
  0
VISUALSTYLE
  5
26E
102
{ACAD_REACTORS
330
267
102
}
330
267
100
AcDbVisualStyle
  2
3D Hidden
 70
     6
 71
     1
 72
     2
 73
     2
 90
        0
 40
-0.6
 41
-30.0
 62
     5
 63
     7
421
 16777215
 74
     2
 91
        2
 64
     7
 65
   257
 75
     2
175
     1
 42
40.0
 92
        0
 66
   257
 43
1.0
 76
     1
 77
     6
 78
     2
 67
     7
 79
     3
170
     0
171
     0
290
     0
174
     0
 93
        1
 44
0.0
173
     0
291
     0
 45
0.0
  0
VISUALSTYLE
  5
26D
102
{ACAD_REACTORS
330
267
102
}
330
267
100
AcDbVisualStyle
  2
3dWireframe
 70
     5
 71
     0
 72
     2
 73
     0
 90
        0
 40
-0.6
 41
-30.0
 62
     5
 63
     7
421
 16777215
 74
     1
 91
        4
 64
     7
 65
   257
 75
     1
175
     1
 42
1.0
 92
        0
 66
   257
 43
1.0
 76
     1
 77
     6
 78
     2
 67
     7
 79
     5
170
     0
171
     0
290
     0
174
     0
 93
        1
 44
0.0
173
     0
291
     0
 45
0.0
  0
VISUALSTYLE
  5
26F
102
{ACAD_REACTORS
330
267
102
}
330
267
100
AcDbVisualStyle
  2
Basic
 70
     7
 71
     1
 72
     0
 73
     1
 90
        0
 40
-0.6
 41
-30.0
 62
     5
 63
     7
421
 16777215
 74
     0
 91
        4
 64
     7
 65
   257
 75
     1
175
     1
 42
1.0
 92
        8
 66
     7
 43
1.0
 76
     1
 77
     6
 78
     2
 67
     7
 79
     5
170
     0
171
     0
290
     0
174
     0
 93
        1
 44
0.0
173
     0
291
     1
 45
0.0
  0
VISUALSTYLE
  5
273
102
{ACAD_REACTORS
330
267
102
}
330
267
100
AcDbVisualStyle
  2
Brighten
 70
    12
 71
     2
 72
     2
 73
     0
 90
        0
 40
-0.6
 41
-30.0
 62
     5
 63
     7
421
 16777215
 74
     1
 91
        4
 64
     7
 65
   257
 75
     1
175
     1
 42
1.0
 92
        8
 66
     7
 43
1.0
 76
     1
 77
     6
 78
     2
 67
     7
 79
     5
170
     0
171
     0
290
     0
174
     0
 93
        1
 44
50.0
173
     0
291
     1
 45
0.0
  0
VISUALSTYLE
  5
277
102
{ACAD_REACTORS
330
267
102
}
330
267
100
AcDbVisualStyle
  2
ColorChange
 70
    16
 71
     2
 72
     2
 73
     3
 90
        0
 40
-0.6
 41
-30.0
 62
     5
 63
     8
421
  8421504
 74
     1
 91
        4
 64
     7
 65
   257
 75
     1
175
     1
 42
1.0
 92
        8
 66
     8
424
  8421504
 43
1.0
 76
     1
 77
     6
 78
     2
 67
     7
 79
     5
170
     0
171
     0
290
     0
174
     0
 93
        1
 44
0.0
173
     0
291
     1
 45
0.0
  0
VISUALSTYLE
  5
271
102
{ACAD_REACTORS
330
267
102
}
330
267
100
AcDbVisualStyle
  2
Conceptual
 70
     9
 71
     3
 72
     2
 73
     0
 90
        0
 40
-0.6
 41
-30.0
 62
     5
 63
     7
421
 16777215
 74
     2
 91
        2
 64
     7
 65
   257
 75
     1
175
     1
 42
40.0
 92
        8
 66
     7
 43
1.0
 76
     1
 77
     6
 78
     2
 67
     7
 79
     3
170
     0
171
     0
290
     0
174
     0
 93
        1
 44
0.0
173
     0
291
     0
 45
0.0
  0
VISUALSTYLE
  5
272
102
{ACAD_REACTORS
330
267
102
}
330
267
100
AcDbVisualStyle
  2
Dim
 70
    11
 71
     2
 72
     2
 73
     0
 90
        0
 40
-0.6
 41
-30.0
 62
     5
 63
     7
421
 16777215
 74
     1
 91
        4
 64
     7
 65
   257
 75
     1
175
     1
 42
1.0
 92
        8
 66
     7
 43
1.0
 76
     1
 77
     6
 78
     2
 67
     7
 79
     5
170
     0
171
     0
290
     0
174
     0
 93
        1
 44
-50.0
173
     0
291
     1
 45
0.0
  0
VISUALSTYLE
  5
689
102
{ACAD_REACTORS
330
267
102
}
330
267
100
AcDbVisualStyle
  2
EdgeColorOff
 70
    22
 71
     2
 72
     2
 73
     0
 90
        0
 40
0.6
 41
30.0
 62
     5
 63
     7
421
 16777215
 74
     1
 91
        4
 64
     7
 65
   257
 75
     1
175
     1
 42
1.0
 92
        8
 66
     7
 43
1.0
 76
     1
 77
     6
 78
     2
 67
     7
 79
     5
170
     0
171
     0
290
     0
174
     0
 93
        1
 44
0.0
173
     0
291
     1
 45
0.0
  0
VISUALSTYLE
  5
276
102
{ACAD_REACTORS
330
267
102
}
330
267
100
AcDbVisualStyle
  2
Facepattern
 70
    15
 71
     2
 72
     2
 73
     0
 90
        0
 40
-0.6
 41
-30.0
 62
     5
 63
     7
421
 16777215
 74
     1
 91
        4
 64
     7
 65
   257
 75
     1
175
     1
 42
1.0
 92
        8
 66
     7
 43
1.0
 76
     1
 77
     6
 78
     2
 67
     7
 79
     5
170
     0
171
     0
290
     0
174
     0
 93
        1
 44
0.0
173
     0
291
     1
 45
0.0
  0
VISUALSTYLE
  5
268
102
{ACAD_REACTORS
330
267
102
}
330
267
100
AcDbVisualStyle
  2
Flat
 70
     0
 71
     2
 72
     1
 73
     1
 90
        2
 40
-0.6
 41
30.0
 62
     5
 63
     7
421
 16777215
 74
     0
 91
        4
 64
     7
 65
   257
 75
     1
175
     1
 42
1.0
 92
        8
 66
     7
 43
1.0
 76
     1
 77
     6
 78
     2
 67
     7
 79
     5
170
     0
171
     0
290
     0
174
     0
 93
       13
 44
0.0
173
     0
291
     1
 45
0.0
  0
VISUALSTYLE
  5
269
102
{ACAD_REACTORS
330
267
102
}
330
267
100
AcDbVisualStyle
  2
FlatWithEdges
 70
     1
 71
     2
 72
     1
 73
     1
 90
        2
 40
-0.6
 41
30.0
 62
     5
 63
     7
421
 16777215
 74
     1
 91
        4
 64
     7
 65
   257
 75
     1
175
     1
 42
1.0
 92
        0
 66
   257
 43
1.0
 76
     1
 77
     6
 78
     2
 67
     7
 79
     5
170
     0
171
     0
290
     0
174
     0
 93
       13
 44
0.0
173
     0
291
     1
 45
0.0
  0
VISUALSTYLE
  5
26A
102
{ACAD_REACTORS
330
267
102
}
330
267
100
AcDbVisualStyle
  2
Gouraud
 70
     2
 71
     2
 72
     2
 73
     1
 90
        2
 40
-0.6
 41
30.0
 62
     5
 63
     7
421
 16777215
 74
     0
 91
        4
 64
     7
 65
   257
 75
     1
175
     1
 42
1.0
 92
        0
 66
     7
 43
1.0
 76
     1
 77
     6
 78
     2
 67
     7
 79
     5
170
     0
171
     0
290
     0
174
     0
 93
       13
 44
0.0
173
     0
291
     1
 45
0.0
  0
VISUALSTYLE
  5
26B
102
{ACAD_REACTORS
330
267
102
}
330
267
100
AcDbVisualStyle
  2
GouraudWithEdges
 70
     3
 71
     2
 72
     2
 73
     1
 90
        2
 40
-0.6
 41
30.0
 62
     5
 63
     7
421
 16777215
 74
     1
 91
        4
 64
     7
 65
   257
 75
     1
175
     1
 42
1.0
 92
        0
 66
   257
 43
1.0
 76
     1
 77
     6
 78
     2
 67
     7
 79
     5
170
     0
171
     0
290
     0
174
     0
 93
       13
 44
0.0
173
     0
291
     1
 45
0.0
  0
VISUALSTYLE
  5
686
102
{ACAD_REACTORS
330
267
102
}
330
267
100
AcDbVisualStyle
  2
Hidden
 70
     6
 71
     1
 72
     2
 73
     2
 90
        0
 40
0.6
 41
30.0
 62
     5
 63
     7
421
 16777215
 74
     2
 91
        2
 64
     7
 65
   257
 75
     2
175
     1
 42
40.0
 92
        0
 66
   257
 43
1.0
 76
     1
 77
     6
 78
     2
 67
     7
 79
     3
170
     0
171
     0
290
     0
174
     0
 93
        1
 44
0.0
173
     0
291
     0
 45
0.0
  0
VISUALSTYLE
  5
687
102
{ACAD_REACTORS
330
267
102
}
330
267
100
AcDbVisualStyle
  2
JitterOff
 70
    20
 71
     2
 72
     2
 73
     0
 90
        0
 40
0.6
 41
30.0
 62
     5
 63
     7
421
 16777215
 74
     1
 91
        4
 64
     7
 65
   257
 75
     1
175
     1
 42
1.0
 92
       10
 66
     7
 43
1.0
 76
     1
 77
     6
 78
     2
 67
     7
 79
     5
170
     0
171
     0
290
     0
174
     0
 93
        1
 44
0.0
173
     0
291
     1
 45
0.0
  0
VISUALSTYLE
  5
275
102
{ACAD_REACTORS
330
267
102
}
330
267
100
AcDbVisualStyle
  2
Linepattern
 70
    14
 71
     2
 72
     2
 73
     0
 90
        0
 40
-0.6
 41
-30.0
 62
     5
 63
     7
421
 16777215
 74
     1
 91
        4
 64
     7
 65
   257
 75
     7
175
     7
 42
1.0
 92
        8
 66
     7
 43
1.0
 76
     1
 77
     6
 78
     2
 67
     7
 79
     5
170
     0
171
     0
290
     0
174
     0
 93
        1
 44
0.0
173
     0
291
     1
 45
0.0
  0
VISUALSTYLE
  5
688
102
{ACAD_REACTORS
330
267
102
}
330
267
100
AcDbVisualStyle
  2
OverhangOff
 70
    21
 71
     2
 72
     2
 73
     0
 90
        0
 40
0.6
 41
30.0
 62
     5
 63
     7
421
 16777215
 74
     1
 91
        4
 64
     7
 65
   257
 75
     1
175
     1
 42
1.0
 92
        9
 66
     7
 43
1.0
 76
     1
 77
     6
 78
     2
 67
     7
 79
     5
170
     0
171
     0
290
     0
174
     0
 93
        1
 44
0.0
173
     0
291
     1
 45
0.0
  0
VISUALSTYLE
  5
270
102
{ACAD_REACTORS
330
267
102
}
330
267
100
AcDbVisualStyle
  2
Realistic
 70
     8
 71
     2
 72
     2
 73
     0
 90
        0
 40
-0.6
 41
-30.0
 62
     5
 63
     7
421
 16777215
 74
     1
 91
        0
 64
     7
 65
   257
 75
     1
175
     1
 42
1.0
 92
        8
 66
     8
424
  7895160
 43
1.0
 76
     1
 77
     6
 78
     2
 67
     7
 79
     5
170
     0
171
     0
290
     0
174
     0
 93
       13
 44
0.0
173
     0
291
     0
 45
0.0
  0
VISUALSTYLE
  5
68E
102
{ACAD_REACTORS
330
267
102
}
330
267
100
AcDbVisualStyle
  2
Shaded
 70
    27
 71
     2
 72
     2
 73
     1
 90
        2
 40
0.6
 41
30.0
 62
     5
 63
     7
421
 16777215
 74
     0
 91
        4
 64
     7
 65
   257
 75
     1
175
     1
 42
1.0
 92
        8
 66
   257
 43
1.0
 76
     1
 77
     6
 78
     2
 67
     8
425
  7895160
 79
     3
170
     0
171
     0
290
     0
174
     0
 93
        5
 44
0.0
173
     0
291
     0
 45
0.0
  0
VISUALSTYLE
  5
68D
102
{ACAD_REACTORS
330
267
102
}
330
267
100
AcDbVisualStyle
  2
Shaded with edges
 70
    26
 71
     2
 72
     2
 73
     1
 90
        2
 40
0.6
 41
30.0
 62
     5
 63
     7
421
 16777215
 74
     1
 91
       10
 64
     7
 65
   257
 75
     2
175
     1
 42
1.0
 92
        8
 66
   257
 43
1.0
 76
     1
 77
     6
 78
     2
 67
     7
 79
     3
170
     0
171
     0
290
     0
174
     0
 93
        5
 44
0.0
173
     0
291
     0
 45
0.0
  0
VISUALSTYLE
  5
68A
102
{ACAD_REACTORS
330
267
102
}
330
267
100
AcDbVisualStyle
  2
Shades of Gray
 70
    23
 71
     2
 72
     2
 73
     3
 90
        0
 40
0.6
 41
30.0
 62
     5
 63
     7
421
 16777215
 74
     2
 91
        2
 64
     7
 65
     7
 75
     1
175
     1
 42
40.0
 92
        8
 66
     7
 43
1.0
 76
     1
 77
     6
 78
     2
 67
     7
 79
     3
170
     0
171
     0
290
     0
174
     0
 93
        1
 44
0.0
173
     0
291
     0
 45
0.0
  0
VISUALSTYLE
  5
68B
102
{ACAD_REACTORS
330
267
102
}
330
267
100
AcDbVisualStyle
  2
Sketchy
 70
    24
 71
     1
 72
     2
 73
     2
 90
        0
 40
0.6
 41
30.0
 62
     5
 63
     7
421
 16777215
 74
     2
 91
        2
 64
     7
 65
     7
 75
     1
175
     1
 42
40.0
 92
       11
 66
     7
 43
1.0
 76
     1
 77
     6
 78
     2
 67
     7
 79
     6
170
     0
171
     0
290
     0
174
     0
 93
        1
 44
0.0
173
     0
291
     0
 45
0.0
  0
VISUALSTYLE
  5
274
102
{ACAD_REACTORS
330
267
102
}
330
267
100
AcDbVisualStyle
  2
Thicken
 70
    13
 71
     2
 72
     2
 73
     0
 90
        0
 40
-0.6
 41
-30.0
 62
     5
 63
     7
421
 16777215
 74
     1
 91
        4
 64
     7
 65
   257
 75
     1
175
     1
 42
1.0
 92
       12
 66
     7
 43
1.0
 76
     1
 77
     6
 78
     2
 67
     7
 79
     5
170
     0
171
     0
290
     0
174
     0
 93
        1
 44
0.0
173
     0
291
     1
 45
0.0
  0
VISUALSTYLE
  5
685
102
{ACAD_REACTORS
330
267
102
}
330
267
100
AcDbVisualStyle
  2
Wireframe
 70
     5
 71
     0
 72
     2
 73
     0
 90
        0
 40
0.6
 41
30.0
 62
     5
 63
     7
421
 16777215
 74
     1
 91
        4
 64
     7
 65
   257
 75
     1
175
     1
 42
1.0
 92
        0
 66
   257
 43
1.0
 76
     1
 77
     6
 78
     2
 67
     7
 79
     3
170
     0
171
     0
290
     0
174
     0
 93
        1
 44
0.0
173
     0
291
     0
 45
0.0
  0
VISUALSTYLE
  5
68C
102
{ACAD_REACTORS
330
267
102
}
330
267
100
AcDbVisualStyle
  2
X-Ray
 70
    25
 71
     2
 72
     2
 73
     1
 90
        1
 40
0.5
 41
30.0
 62
     5
 63
     7
421
 16777215
 74
     1
 91
        0
 64
     7
 65
   257
 75
     1
175
     1
 42
1.0
 92
        8
 66
     7
 43
1.0
 76
     1
 77
     6
 78
     2
 67
     7
 79
     3
170
     0
171
     0
290
     0
174
     0
 93
       13
 44
0.0
173
     0
291
     0
 45
0.0
  0
DICTIONARYVAR
  5
331
102
{ACAD_REACTORS
330
330
102
}
330
330
100
DictionaryVariables
280
     0
  1
1:1
  0
DICTIONARYVAR
  5
4A56
102
{ACAD_REACTORS
330
330
102
}
330
330
100
DictionaryVariables
280
     0
  1
Standard
  0
DICTIONARYVAR
  5
335
102
{ACAD_REACTORS
330
330
102
}
330
330
100
DictionaryVariables
280
     0
  1
Standard
  0
DICTIONARYVAR
  5
64A
102
{ACAD_REACTORS
330
330
102
}
330
330
100
DictionaryVariables
280
     0
  1
0
  0
XRECORD
  5
3FF2
102
{ACAD_REACTORS
330
2E2
102
}
330
2E2
100
AcDbXrecord
280
     1
 91
     1023
301

290
     0
302
MODEL
330
14
 90
        8
 62
     7
370
    -3
331
13
  1
Color_7
330
4A
 90
        0
 62
     7
370
     9
331
13
  1
Color_7
330
4B
 90
        8
 62
     7
370
    -3
331
13
  1
Color_7
330
4C
 90
        8
 62
     7
370
    -3
331
13
  1
Color_7
330
4D
 90
        8
 62
     7
370
    -3
331
13
  1
Color_7
330
382
 90
        8
 62
     7
370
    -3
331
13
  1
Color_7
330
0
 90
        8
 62
     7
370
     9
331
45
  1
Color_7
330
5EB
 90
        9
 62
     7
370
     9
331
13
  1
Color_7
330
0
 90
        8
 62
     7
370
    35
331
13
  1
Color_7
330
0
 90
        8
 62
     7
370
    -3
331
0
  1
Color_7
330
0
 90
        8
 62
     7
370
    20
331
0
  1
Color_7
330
2226
 90
        8
 62
     7
370
    -3
331
13
  1
Color_7
  0
FIELD
  5
4A90
102
{ACAD_REACTORS
330
4A95
102
}
330
4A95
100
AcDbField
  1
_text
  2
{%<\_FldIdx 0>%N}
 90
        1
360
4A94
 97
        0
 91
       63
 92
        0
 94
        8
 95
        2
 96
        0
300

 93
        1
  6
ACFD_FIELDTEXT_CHECKSUM
 93
        2
 90
        2
140
4541.0
 94
        0
300

302

304
ACVALUE_END
  7
ACFD_FIELD_VALUE
 93
        6
 90
        4
  1
{20170418N}
 94
        0
300

302

304
ACVALUE_END
301
{20170418N}
 98
       11
  0
DICTIONARY
  5
4D93
330
279
100
AcDbDictionary
280
     1
281
     1
  3
ACAD_ROUNDTRIP_2008_TABLESTYLE_CELLSTYLEMAP
360
4D94
  0
FIELD
  5
4A94
330
4A90
100
AcDbField
  1
AcVar
  2
\AcVar Date \f "yyyyMMdd"
 90
        0
 97
        0
 91
       63
 92
        0
 94
        8
 95
        2
 96
        0
300

 93
        1
  6
Variable
 93
        2
 90
        4
  1
Date
 94
        0
300

302

304
ACVALUE_END
  7
ACFD_FIELD_VALUE
 93
        6
 90
        8
 92
       16
310
E10704000000120000002D0017000000
 94
        0
300
yyyyMMdd
302

304
ACVALUE_END
301
20170418
 98
        8
  0
CELLSTYLEMAP
  5
4D94
102
{ACAD_REACTORS
330
4D93
102
}
330
4D93
100
AcDbCellStyleMap
 90
        3
300
CELLSTYLE
  1
TABLEFORMAT_BEGIN
 90
        5
170
     1
 91
        0
 92
    32768
 62
   257
 93
        1
300
CONTENTFORMAT
  1
CONTENTFORMAT_BEGIN
 90
        0
 91
        0
 92
        4
 93
        0
300

 40
0.0
140
1.0
 94
        5
 62
     0
340
17
144
6.0
309
CONTENTFORMAT_END
171
     1
301
MARGIN
  1
CELLMARGIN_BEGIN
 40
0.06
 40
0.06
 40
0.06
 40
0.06
 40
0.18
 40
0.18
309
CELLMARGIN_END
 94
        6
 95
        1
302
GRIDFORMAT
  1
GRIDFORMAT_BEGIN
 90
        0
 91
        1
 62
     0
 92
       -2
340
0
 93
        0
 40
0.045
309
GRIDFORMAT_END
 95
        2
302
GRIDFORMAT
  1
GRIDFORMAT_BEGIN
 90
        0
 91
        1
 62
     0
 92
       -2
340
0
 93
        0
 40
0.045
309
GRIDFORMAT_END
 95
        4
302
GRIDFORMAT
  1
GRIDFORMAT_BEGIN
 90
        0
 91
        1
 62
     0
 92
       -2
340
0
 93
        0
 40
0.045
309
GRIDFORMAT_END
 95
        8
302
GRIDFORMAT
  1
GRIDFORMAT_BEGIN
 90
        0
 91
        1
 62
     0
 92
       -2
340
0
 93
        0
 40
0.045
309
GRIDFORMAT_END
 95
       16
302
GRIDFORMAT
  1
GRIDFORMAT_BEGIN
 90
        0
 91
        1
 62
     0
 92
       -2
340
0
 93
        0
 40
0.045
309
GRIDFORMAT_END
 95
       32
302
GRIDFORMAT
  1
GRIDFORMAT_BEGIN
 90
        0
 91
        1
 62
     0
 92
       -2
340
0
 93
        0
 40
0.045
309
GRIDFORMAT_END
309
TABLEFORMAT_END
  1
CELLSTYLE_BEGIN
 90
        1
 91
        1
300
_TITLE
309
CELLSTYLE_END
300
CELLSTYLE
  1
TABLEFORMAT_BEGIN
 90
        5
170
     1
 91
        0
 92
        0
 62
   257
 93
        1
300
CONTENTFORMAT
  1
CONTENTFORMAT_BEGIN
 90
        0
 91
        0
 92
        4
 93
        0
300

 40
0.0
140
1.0
 94
        5
 62
     0
340
17
144
4.5
309
CONTENTFORMAT_END
171
     1
301
MARGIN
  1
CELLMARGIN_BEGIN
 40
0.06
 40
0.06
 40
0.06
 40
0.06
 40
0.18
 40
0.18
309
CELLMARGIN_END
 94
        6
 95
        1
302
GRIDFORMAT
  1
GRIDFORMAT_BEGIN
 90
        0
 91
        1
 62
     0
 92
       -2
340
0
 93
        0
 40
0.045
309
GRIDFORMAT_END
 95
        2
302
GRIDFORMAT
  1
GRIDFORMAT_BEGIN
 90
        0
 91
        1
 62
     0
 92
       -2
340
0
 93
        0
 40
0.045
309
GRIDFORMAT_END
 95
        4
302
GRIDFORMAT
  1
GRIDFORMAT_BEGIN
 90
        0
 91
        1
 62
     0
 92
       -2
340
0
 93
        0
 40
0.045
309
GRIDFORMAT_END
 95
        8
302
GRIDFORMAT
  1
GRIDFORMAT_BEGIN
 90
        0
 91
        1
 62
     0
 92
       -2
340
0
 93
        0
 40
0.045
309
GRIDFORMAT_END
 95
       16
302
GRIDFORMAT
  1
GRIDFORMAT_BEGIN
 90
        0
 91
        1
 62
     0
 92
       -2
340
0
 93
        0
 40
0.045
309
GRIDFORMAT_END
 95
       32
302
GRIDFORMAT
  1
GRIDFORMAT_BEGIN
 90
        0
 91
        1
 62
     0
 92
       -2
340
0
 93
        0
 40
0.045
309
GRIDFORMAT_END
309
TABLEFORMAT_END
  1
CELLSTYLE_BEGIN
 90
        2
 91
        1
300
_HEADER
309
CELLSTYLE_END
300
CELLSTYLE
  1
TABLEFORMAT_BEGIN
 90
        5
170
     1
 91
        0
 92
        0
 62
   257
 93
        1
300
CONTENTFORMAT
  1
CONTENTFORMAT_BEGIN
 90
        0
 91
        0
 92
        4
 93
        0
300

 40
0.0
140
1.0
 94
        2
 62
     0
340
17
144
4.5
309
CONTENTFORMAT_END
171
     1
301
MARGIN
  1
CELLMARGIN_BEGIN
 40
0.06
 40
0.06
 40
0.06
 40
0.06
 40
0.18
 40
0.18
309
CELLMARGIN_END
 94
        6
 95
        1
302
GRIDFORMAT
  1
GRIDFORMAT_BEGIN
 90
        0
 91
        1
 62
     0
 92
       -2
340
0
 93
        0
 40
0.045
309
GRIDFORMAT_END
 95
        2
302
GRIDFORMAT
  1
GRIDFORMAT_BEGIN
 90
        0
 91
        1
 62
     0
 92
       -2
340
0
 93
        0
 40
0.045
309
GRIDFORMAT_END
 95
        4
302
GRIDFORMAT
  1
GRIDFORMAT_BEGIN
 90
        0
 91
        1
 62
     0
 92
       -2
340
0
 93
        0
 40
0.045
309
GRIDFORMAT_END
 95
        8
302
GRIDFORMAT
  1
GRIDFORMAT_BEGIN
 90
        0
 91
        1
 62
     0
 92
       -2
340
0
 93
        0
 40
0.045
309
GRIDFORMAT_END
 95
       16
302
GRIDFORMAT
  1
GRIDFORMAT_BEGIN
 90
        0
 91
        1
 62
     0
 92
       -2
340
0
 93
        0
 40
0.045
309
GRIDFORMAT_END
 95
       32
302
GRIDFORMAT
  1
GRIDFORMAT_BEGIN
 90
        0
 91
        1
 62
     0
 92
       -2
340
0
 93
        0
 40
0.045
309
GRIDFORMAT_END
309
TABLEFORMAT_END
  1
CELLSTYLE_BEGIN
 90
        3
 91
        2
300
_DATA
309
CELLSTYLE_END
  0
ENDSEC
  0
EOF
