  0
SECTION
  2
HEADER
  9
$ACADVER
  1
AC1021
  9
$ACADMAINTVER
 70
    25
  9
$DWGCODEPAGE
  3
ANSI_932
  9
$LASTSAVEDBY
  1
howeNelson
  9
$INSBASE
 10
0.0
 20
0.0
 30
0.0
  9
$EXTMIN
 10
0.0
 20
0.0
 30
-0.0000000000000426
  9
$EXTMAX
 10
2100.0
 20
2970.0
 30
0.0000000000000071
  9
$LIMMIN
 10
0.0
 20
0.0
  9
$LIMMAX
 10
2100.0
 20
2970.0
  9
$ORTHOMODE
 70
     0
  9
$REGENMODE
 70
     1
  9
$FILLMODE
 70
     1
  9
$QTEXTMODE
 70
     0
  9
$MIRRTEXT
 70
     1
  9
$LTSCALE
 40
5.0
  9
$ATTMODE
 70
     1
  9
$TEXTSIZE
 40
2.5
  9
$TRACEWID
 40
1.0
  9
$TEXTSTYLE
  7
ＭＳ ゴシック
  9
$CLAYER
  8
DIM
  9
$CELTYPE
  6
ByLayer
  9
$CECOLOR
 62
   256
  9
$CELTSCALE
 40
1.0
  9
$DISPSILH
 70
     0
  9
$DIMSCALE
 40
1.0
  9
$DIMASZ
 40
10.0
  9
$DIMEXO
 40
30.0
  9
$DIMDLI
 40
0.9999999999999999
  9
$DIMRND
 40
0.0
  9
$DIMDLE
 40
0.0
  9
$DIMEXE
 40
0.0
  9
$DIMTP
 40
0.0
  9
$DIMTM
 40
0.0
  9
$DIMTXT
 40
24.0
  9
$DIMCEN
 40
0.0
  9
$DIMTSZ
 40
0.0
  9
$DIMTOL
 70
     0
  9
$DIMLIM
 70
     0
  9
$DIMTIH
 70
     0
  9
$DIMTOH
 70
     0
  9
$DIMSE1
 70
     0
  9
$DIMSE2
 70
     0
  9
$DIMTAD
 70
     1
  9
$DIMZIN
 70
    11
  9
$DIMBLK
  1
DOT
  9
$DIMASO
 70
     1
  9
$DIMSHO
 70
     1
  9
$DIMPOST
  1
<>
  9
$DIMAPOST
  1
[]
  9
$DIMALT
 70
     0
  9
$DIMALTD
 70
     1
  9
$DIMALTF
 40
1.0
  9
$DIMLFAC
 40
1.0
  9
$DIMTOFL
 70
     0
  9
$DIMTVP
 40
0.0
  9
$DIMTIX
 70
     1
  9
$DIMSOXD
 70
     0
  9
$DIMSAH
 70
     0
  9
$DIMBLK1
  1

  9
$DIMBLK2
  1

  9
$DIMSTYLE
  2
tfrom線あり
  9
$DIMCLRD
 70
     0
  9
$DIMCLRE
 70
     0
  9
$DIMCLRT
 70
     0
  9
$DIMTFAC
 40
1.0
  9
$DIMGAP
 40
10.0
  9
$DIMJUST
 70
     0
  9
$DIMSD1
 70
     0
  9
$DIMSD2
 70
     0
  9
$DIMTOLJ
 70
     1
  9
$DIMTZIN
 70
    11
  9
$DIMALTZ
 70
    11
  9
$DIMALTTZ
 70
    11
  9
$DIMUPT
 70
     0
  9
$DIMDEC
 70
     0
  9
$DIMTDEC
 70
     1
  9
$DIMALTU
 70
     2
  9
$DIMALTTD
 70
     2
  9
$DIMTXSTY
  7
ＭＳ ゴシック
  9
$DIMAUNIT
 70
     0
  9
$DIMADEC
 70
     2
  9
$DIMALTRND
 40
0.0
  9
$DIMAZIN
 70
     0
  9
$DIMDSEP
 70
    46
  9
$DIMATFIT
 70
     0
  9
$DIMFRAC
 70
     2
  9
$DIMLDRBLK
  1
DOT
  9
$DIMLUNIT
 70
     2
  9
$DIMLWD
 70
    -2
  9
$DIMLWE
 70
    -2
  9
$DIMTMOVE
 70
     0
  9
$DIMFXL
 40
1.0
  9
$DIMFXLON
 70
     0
  9
$DIMJOGANG
 40
0.7853981633974483
  9
$DIMTFILL
 70
     0
  9
$DIMTFILLCLR
 70
     0
  9
$DIMARCSYM
 70
     0
  9
$DIMLTYPE
  6

  9
$DIMLTEX1
  6

  9
$DIMLTEX2
  6

  9
$LUNITS
 70
     2
  9
$LUPREC
 70
     0
  9
$SKETCHINC
 40
0.1
  9
$FILLETRAD
 40
0.0
  9
$AUNITS
 70
     0
  9
$AUPREC
 70
     0
  9
$MENU
  1
acad
  9
$ELEVATION
 40
0.0
  9
$PELEVATION
 40
0.0
  9
$THICKNESS
 40
0.0
  9
$LIMCHECK
 70
     0
  9
$CHAMFERA
 40
0.0
  9
$CHAMFERB
 40
0.0
  9
$CHAMFERC
 40
0.0
  9
$CHAMFERD
 40
0.0
  9
$SKPOLY
 70
     0
  9
$TDCREATE
 40
2447893.375
  9
$TDUCREATE
 40
0.0
  9
$TDUPDATE
 40
2458299.426387986
  9
$TDUUPDATE
 40
2458299.051387986
  9
$TDINDWG
 40
0.169904213
  9
$TDUSRTIMER
 40
0.0216390394
  9
$USRTIMER
 70
     1
  9
$ANGBASE
 50
0.0
  9
$ANGDIR
 70
     0
  9
$PDMODE
 70
     1
  9
$PDSIZE
 40
-2.0
  9
$PLINEWID
 40
0.0
  9
$SPLFRAME
 70
     0
  9
$SPLINETYPE
 70
     6
  9
$SPLINESEGS
 70
     8
  9
$HANDSEED
  5
42E9
  9
$SURFTAB1
 70
     6
  9
$SURFTAB2
 70
     6
  9
$SURFTYPE
 70
     6
  9
$SURFU
 70
     6
  9
$SURFV
 70
     6
  9
$UCSBASE
  2

  9
$UCSNAME
  2

  9
$UCSORG
 10
0.0
 20
0.0
 30
0.0
  9
$UCSXDIR
 10
1.0
 20
0.0
 30
0.0
  9
$UCSYDIR
 10
0.0
 20
1.0
 30
0.0
  9
$UCSORTHOREF
  2

  9
$UCSORTHOVIEW
 70
     0
  9
$UCSORGTOP
 10
0.0
 20
0.0
 30
0.0
  9
$UCSORGBOTTOM
 10
0.0
 20
0.0
 30
0.0
  9
$UCSORGLEFT
 10
0.0
 20
0.0
 30
0.0
  9
$UCSORGRIGHT
 10
0.0
 20
0.0
 30
0.0
  9
$UCSORGFRONT
 10
0.0
 20
0.0
 30
0.0
  9
$UCSORGBACK
 10
0.0
 20
0.0
 30
0.0
  9
$PUCSBASE
  2

  9
$PUCSNAME
  2

  9
$PUCSORG
 10
0.0
 20
0.0
 30
0.0
  9
$PUCSXDIR
 10
1.0
 20
0.0
 30
0.0
  9
$PUCSYDIR
 10
0.0
 20
1.0
 30
0.0
  9
$PUCSORTHOREF
  2

  9
$PUCSORTHOVIEW
 70
     0
  9
$PUCSORGTOP
 10
0.0
 20
0.0
 30
0.0
  9
$PUCSORGBOTTOM
 10
0.0
 20
0.0
 30
0.0
  9
$PUCSORGLEFT
 10
0.0
 20
0.0
 30
0.0
  9
$PUCSORGRIGHT
 10
0.0
 20
0.0
 30
0.0
  9
$PUCSORGFRONT
 10
0.0
 20
0.0
 30
0.0
  9
$PUCSORGBACK
 10
0.0
 20
0.0
 30
0.0
  9
$USERI1
 70
     0
  9
$USERI2
 70
     0
  9
$USERI3
 70
     0
  9
$USERI4
 70
     0
  9
$USERI5
 70
     0
  9
$USERR1
 40
0.0
  9
$USERR2
 40
0.0
  9
$USERR3
 40
0.0
  9
$USERR4
 40
0.0
  9
$USERR5
 40
0.0
  9
$WORLDVIEW
 70
     1
  9
$SHADEDGE
 70
     3
  9
$SHADEDIF
 70
    70
  9
$TILEMODE
 70
     1
  9
$MAXACTVP
 70
    64
  9
$PINSBASE
 10
0.0
 20
0.0
 30
0.0
  9
$PLIMCHECK
 70
     0
  9
$PEXTMIN
 10
0.0
 20
0.0
 30
0.0
  9
$PEXTMAX
 10
0.0
 20
0.0
 30
0.0
  9
$PLIMMIN
 10
-7.5
 20
-20.0
  9
$PLIMMAX
 10
412.5
 20
277.0
  9
$UNITMODE
 70
     0
  9
$VISRETAIN
 70
     0
  9
$PLINEGEN
 70
     1
  9
$PSLTSCALE
 70
     0
  9
$TREEDEPTH
 70
  3020
  9
$CMLSTYLE
  2
Standard
  9
$CMLJUST
 70
     0
  9
$CMLSCALE
 40
1.0
  9
$PROXYGRAPHICS
 70
     0
  9
$MEASUREMENT
 70
     1
  9
$CELWEIGHT
370
    -1
  9
$ENDCAPS
280
     0
  9
$JOINSTYLE
280
     0
  9
$LWDISPLAY
290
     1
  9
$INSUNITS
 70
     4
  9
$HYPERLINKBASE
  1

  9
$STYLESHEET
  1

  9
$XEDIT
290
     1
  9
$CEPSNTYPE
380
     0
  9
$PSTYLEMODE
290
     1
  9
$FINGERPRINTGUID
  2

  9
$VERSIONGUID
  2

  9
$EXTNAMES
290
     1
  9
$PSVPSCALE
 40
0.0
  9
$OLESTARTUP
290
     0
  9
$SORTENTS
280
   127
  9
$INDEXCTL
280
     0
  9
$HIDETEXT
280
     1
  9
$XCLIPFRAME
290
     0
  9
$HALOGAP
280
     0
  9
$OBSCOLOR
 70
   257
  9
$OBSLTYPE
280
     0
  9
$INTERSECTIONDISPLAY
280
     0
  9
$INTERSECTIONCOLOR
 70
   257
  9
$DIMASSOC
280
     2
  9
$PROJECTNAME
  1

  9
$CAMERADISPLAY
290
     0
  9
$LENSLENGTH
 40
50.0
  9
$CAMERAHEIGHT
 40
0.0
  9
$STEPSPERSEC
 40
2.0
  9
$STEPSIZE
 40
6.0
  9
$3DDWFPREC
 40
2.0
  9
$PSOLWIDTH
 40
0.25
  9
$PSOLHEIGHT
 40
4.0
  9
$LOFTANG1
 40
1.570796326794897
  9
$LOFTANG2
 40
1.570796326794897
  9
$LOFTMAG1
 40
0.0
  9
$LOFTMAG2
 40
0.0
  9
$LOFTPARAM
 70
     7
  9
$LOFTNORMALS
280
     1
  9
$LATITUDE
 40
37.795
  9
$LONGITUDE
 40
-122.394
  9
$NORTHDIRECTION
 40
0.0
  9
$TIMEZONE
 70
 -8000
  9
$LIGHTGLYPHDISPLAY
280
     1
  9
$TILEMODELIGHTSYNCH
280
     1
  9
$SOLIDHIST
280
     1
  9
$SHOWHIST
280
     1
  9
$DWFFRAME
280
     2
  9
$DGNFRAME
280
     2
  9
$REALWORLDSCALE
290
     1
  9
$INTERFERECOLOR
 62
   256
  9
$CSHADOW
280
     0
  9
$SHADOWPLANELOCATION
 40
0.0
  0
ENDSEC
  0
SECTION
  2
CLASSES
  0
CLASS
  1
LWPOLYLINE
  2
AcDbPolyline
  3
ObjectDBX Classes
 90
        0
 91
        1
280
     0
281
     1
  0
CLASS
  1
IMAGE
  2
AcDbRasterImage
  3
ISM
 90
      127
 91
        5
280
     0
281
     1
  0
CLASS
  1
OLE2FRAME
  2
AcDbOle2Frame
  3
ObjectDBX Classes
 90
        0
 91
        1
280
     0
281
     1
  0
CLASS
  1
HATCH
  2
AcDbHatch
  3
ObjectDBX Classes
 90
        0
 91
        1
280
     0
281
     1
  0
CLASS
  1
DICTIONARYVAR
  2
AcDbDictionaryVar
  3
ObjectDBX Classes
 90
        0
 91
        4
280
     0
281
     0
  0
CLASS
  1
RASTERVARIABLES
  2
AcDbRasterVariables
  3
ISM
 90
        0
 91
        4
280
     0
281
     0
  0
CLASS
  1
IMAGEDEF
  2
AcDbRasterImageDef
  3
ISM
 90
        0
 91
        4
280
     0
281
     0
  0
CLASS
  1
IMAGEDEF_REACTOR
  2
AcDbRasterImageDefReactor
  3
ISM
 90
        1
 91
        4
280
     0
281
     0
  0
CLASS
  1
IDBUFFER
  2
AcDbIdBuffer
  3
ObjectDBX Classes
 90
        0
 91
        4
280
     0
281
     0
  0
CLASS
  1
SPATIAL_FILTER
  2
AcDbSpatialFilter
  3
ObjectDBX Classes
 90
        0
 91
        4
280
     0
281
     0
  0
CLASS
  1
XRECORD
  2
AcDbXrecord
  3
ObjectDBX Classes
 90
        0
 91
        1
280
     0
281
     0
  0
CLASS
  1
SORTENTSTABLE
  2
AcDbSortentsTable
  3
ObjectDBX Classes
 90
        0
 91
        4
280
     0
281
     0
  0
CLASS
  1
LAYER_INDEX
  2
AcDbLayerIndex
  3
ObjectDBX Classes
 90
        0
 91
        4
280
     0
281
     0
  0
CLASS
  1
SPATIAL_INDEX
  2
AcDbSpatialIndex
  3
AutoCAD 2000
 90
        0
 91
        4
280
     0
281
     0
  0
CLASS
  1
OBJECT_PTR
  2
CAseDLPNTableRecord
  3
ASE-LPNTableRecord
 90
        1
 91
        4
280
     0
281
     0
  0
CLASS
  1
LAYOUT
  2
AcDbLayout
  3
ObjectDBX Classes
 90
        0
 91
        1
280
     0
281
     0
  0
CLASS
  1
PLOTSETTINGS
  2
AcDbPlotSettings
  3
ObjectDBX Classes
 90
        0
 91
        4
280
     0
281
     0
  0
CLASS
  1
ACDBDICTIONARYWDFLT
  2
AcDbDictionaryWithDefault
  3
ObjectDBX Classes
 90
        0
 91
        4
280
     0
281
     0
  0
CLASS
  1
ACDBPLACEHOLDER
  2
AcDbPlaceHolder
  3
ObjectDBX Classes
 90
        0
 91
        1
280
     0
281
     0
  0
CLASS
  1
SCALE
  2
AcDbScale
  3
ObjectDBX Classes
 90
     1153
 91
        4
280
     0
281
     0
  0
CLASS
  1
MATERIAL
  2
AcDbMaterial
  3
ObjectDBX Classes
 90
     1153
 91
        4
280
     0
281
     0
  0
CLASS
  1
VISUALSTYLE
  2
AcDbVisualStyle
  3
ObjectDBX Classes
 90
     4095
 91
        4
280
     0
281
     0
  0
CLASS
  1
TABLESTYLE
  2
AcDbTableStyle
  3
ObjectDBX Classes
 90
     4095
 91
        4
280
     0
281
     0
  0
CLASS
  1
DIMASSOC
  2
AcDbDimAssoc
  3
"AcDbDimAssoc|Product Desc:     AcDim ARX App For Dimension|Company:          Autodesk, Inc.|WEB Address:      www.autodesk.com"
 90
        0
 91
        4
280
     0
281
     0
  0
CLASS
  1
CELLSTYLEMAP
  2
AcDbCellStyleMap
  3
ObjectDBX Classes
 90
     1152
 91
        4
280
     0
281
     0
  0
CLASS
  1
SUN
  2
AcDbSun
  3
SCENEOE
 90
     1153
 91
        4
280
     0
281
     0
  0
CLASS
  1
MLEADERSTYLE
  2
AcDbMLeaderStyle
  3
ACDB_MLEADERSTYLE_CLASS
 90
     4095
 91
        4
280
     0
281
     0
  0
CLASS
  1
FIELD
  2
AcDbField
  3
ObjectDBX Classes
 90
     1152
 91
        4
280
     0
281
     0
  0
CLASS
  1
FIELDLIST
  2
AcDbFieldList
  3
ObjectDBX Classes
 90
     1152
 91
        4
280
     0
281
     0
  0
CLASS
  1
MULTILEADER
  2
AcDbMLeader
  3
ACDB_MLEADER_CLASS
 90
     1025
 91
        4
280
     0
281
     1
  0
ENDSEC
  0
SECTION
  2
TABLES
  0
TABLE
  2
VPORT
  5
7
330
0
100
AcDbSymbolTable
 70
     1
  0
VPORT
  5
15
330
7
100
AcDbSymbolTableRecord
100
AcDbViewportTableRecord
  2
*ACTIVE
 70
     0
 10
0.0
 20
0.0
 11
1.0
 21
1.0
 12
1141.0201356709
 22
1411.401285469834
 13
0.0
 23
0.0
 14
1.0
 24
1.0
 15
0.0
 25
0.0
 16
0.0
 26
0.0
 36
1.0
 17
-91.02013567090034
 27
73.59871453016603
 37
-46.86809886248109
 40
3029.4
 41
2.294372294372294
 42
50.0
 43
0.0
 44
0.0
 50
0.0
 51
0.0
 71
    16
 72
  2000
 73
     1
 74
     1
 75
     0
 76
     0
 77
     0
 78
     0
281
     0
 65
     1
110
0.0
120
0.0
130
0.0
111
1.0
121
0.0
131
0.0
112
0.0
122
1.0
132
0.0
 79
     0
146
0.0
348
26C
 60
     3
 61
     5
292
     1
282
     1
141
0.0
142
0.0
 63
   256
361
904
  0
ENDTAB
  0
TABLE
  2
LTYPE
  5
4
330
0
100
AcDbSymbolTable
 70
     5
  0
LTYPE
  5
11
330
4
100
AcDbSymbolTableRecord
100
AcDbLinetypeTableRecord
  2
ByBlock
 70
     0
  3

 72
    65
 73
     0
 40
0.0
  0
LTYPE
  5
12
330
4
100
AcDbSymbolTableRecord
100
AcDbLinetypeTableRecord
  2
ByLayer
 70
     0
  3

 72
    65
 73
     0
 40
0.0
  0
LTYPE
  5
13
330
4
100
AcDbSymbolTableRecord
100
AcDbLinetypeTableRecord
  2
Continuous
 70
     0
  3
Solid line
 72
    65
 73
     0
 40
0.0
  0
LTYPE
  5
DAF
330
4
100
AcDbSymbolTableRecord
100
AcDbLinetypeTableRecord
  2
BORDER
 70
     0
  3
Border __  __  . __  __  . __  __  . __  __  . 
 72
    65
 73
     6
 40
44.45
 49
12.7
 74
     0
 49
-6.35
 74
     0
 49
12.7
 74
     0
 49
-6.35
 74
     0
 49
0.0
 74
     0
 49
-6.35
 74
     0
  0
LTYPE
  5
33DD
330
4
100
AcDbSymbolTableRecord
100
AcDbLinetypeTableRecord
  2
HIDDEN
 70
     0
  3
Hidden _ _ _ _ _ _ _ _ _ _ _ _ _ _ _ _ _ _ _ _ 
 72
    65
 73
     2
 40
9.524999999999999
 49
6.35
 74
     0
 49
-3.175
 74
     0
  0
LTYPE
  5
42BA
330
4
100
AcDbSymbolTableRecord
100
AcDbLinetypeTableRecord
  2
CENTER
 70
     0
  3
 Center _____  _  _____  _  _____  _  _____  _ 
 72
    65
 73
     4
 40
50.8
 49
31.75
 74
     0
 49
-6.35
 74
     0
 49
6.35
 74
     0
 49
-6.35
 74
     0
  0
ENDTAB
  0
TABLE
  2
LAYER
  5
2
102
{ACAD_XDICTIONARY
360
2E1
102
}
330
0
100
AcDbSymbolTable
 70
    16
  0
LAYER
  5
14
330
2
100
AcDbSymbolTableRecord
100
AcDbLayerTableRecord
  2
0
 70
     0
 62
     7
  6
Continuous
370
    -3
390
1D
347
266
  0
LAYER
  5
4B
330
2
100
AcDbSymbolTableRecord
100
AcDbLayerTableRecord
  2
TEMPLATE
 70
     0
 62
     7
  6
Continuous
370
    20
390
1D
347
266
  0
LAYER
  5
4C
330
2
100
AcDbSymbolTableRecord
100
AcDbLayerTableRecord
  2
DIM
 70
     0
 62
     7
  6
Continuous
370
    13
390
1D
347
266
  0
LAYER
  5
4D
330
2
100
AcDbSymbolTableRecord
100
AcDbLayerTableRecord
  2
MODEL
 70
     0
 62
     7
  6
Continuous
370
    20
390
1D
347
266
  0
LAYER
  5
667
330
2
100
AcDbSymbolTableRecord
100
AcDbLayerTableRecord
  2
LOGO
 70
     0
 62
     7
  6
Continuous
370
    -3
390
1D
347
266
  0
LAYER
  5
D5D
330
2
100
AcDbSymbolTableRecord
100
AcDbLayerTableRecord
  2
Defpoints
 70
     0
 62
     7
  6
Continuous
290
     0
370
    -3
390
1D
347
266
  0
LAYER
  5
DAE
330
2
100
AcDbSymbolTableRecord
100
AcDbLayerTableRecord
  2
BORDER
 70
     0
 62
     4
  6
BORDER
290
     0
370
    20
390
1D
347
266
1001
AcAecLayerStandard
1000

1000

  0
LAYER
  5
157B
330
2
100
AcDbSymbolTableRecord
100
AcDbLayerTableRecord
  2
Layer3
 70
     0
 62
     7
  6
Continuous
370
    -3
390
1D
347
266
  0
LAYER
  5
157F
330
2
100
AcDbSymbolTableRecord
100
AcDbLayerTableRecord
  2
Layer9
 70
     0
 62
     7
  6
Continuous
370
    -3
390
1D
347
266
  0
LAYER
  5
1582
330
2
100
AcDbSymbolTableRecord
100
AcDbLayerTableRecord
  2
Standard
 70
     0
 62
     7
  6
Continuous
370
    -3
390
1D
347
266
  0
LAYER
  5
33DC
330
2
100
AcDbSymbolTableRecord
100
AcDbLayerTableRecord
  2
HIDDEN
 70
     0
 62
     7
  6
HIDDEN
370
    20
390
1D
347
266
1001
AcAecLayerStandard
1000

1000

  0
ENDTAB
  0
TABLE
  2
STYLE
  5
3
330
0
100
AcDbSymbolTable
 70
     6
  0
STYLE
  5
17
330
3
100
AcDbSymbolTableRecord
100
AcDbTextStyleTableRecord
  2
Standard
 70
     0
 40
0.0
 41
1.0
 50
0.0
 71
     0
 42
2.5
  3
txt
  4
BIGFONT.SHX
  0
STYLE
  5
39
330
3
100
AcDbSymbolTableRecord
100
AcDbTextStyleTableRecord
  2
ＭＳ ゴシック
 70
     0
 40
0.0
 41
1.0
 50
0.0
 71
     0
 42
2.5
  3
msgothic.ttc
  4
ＭＳ ゴシック
1001
ACAD
1000
ＭＳ ゴシック
1071
        0
  0
ENDTAB
  0
TABLE
  2
VIEW
  5
5
330
0
100
AcDbSymbolTable
 70
     0
  0
ENDTAB
  0
TABLE
  2
UCS
  5
6
330
0
100
AcDbSymbolTable
 70
     0
  0
ENDTAB
  0
TABLE
  2
APPID
  5
8
330
0
100
AcDbSymbolTable
 70
     3
  0
APPID
  5
16
330
8
100
AcDbSymbolTableRecord
100
AcDbRegAppTableRecord
  2
ACAD
 70
     0
  0
APPID
  5
7AC
330
8
100
AcDbSymbolTableRecord
100
AcDbRegAppTableRecord
  2
AcAecLayerStandard
 70
     0
  0
APPID
  5
F3A
330
8
100
AcDbSymbolTableRecord
100
AcDbRegAppTableRecord
  2
ACAD_MLEADERVER
 70
     0
  0
ENDTAB
  0
TABLE
  2
DIMSTYLE
  5
9
330
0
100
AcDbSymbolTable
 70
     2
100
AcDbDimStyleTable
  0
DIMSTYLE
105
18
330
9
100
AcDbSymbolTableRecord
100
AcDbDimStyleTableRecord
  2
Standard
 70
     0
178
     0
340
17
  0
DIMSTYLE
105
57
102
{ACAD_REACTORS
330
3C04
330
41A5
330
41B2
330
41C1
330
41D4
330
41E3
330
41F7
330
4216
330
4234
330
4255
330
4263
330
4270
102
}
330
9
100
AcDbSymbolTableRecord
100
AcDbDimStyleTableRecord
  2
tfrom線あり
 70
     0
  3
<>
  4
[]
 41
10.0
 42
30.0
 43
0.9999999999999999
 44
0.0
 73
     0
 74
     0
 77
     1
 78
    11
140
24.0
141
0.0
143
1.0
147
10.0
171
     1
174
     1
178
     0
179
     2
271
     0
272
     1
276
     2
284
    11
285
    11
286
    11
289
     0
340
39
341
4E
342
4E
  0
ENDTAB
  0
TABLE
  2
BLOCK_RECORD
  5
1
330
0
100
AcDbSymbolTable
 70
   179
  0
BLOCK_RECORD
  5
A
102
{ACAD_XDICTIONARY
360
4298
102
}
330
1
100
AcDbSymbolTableRecord
100
AcDbBlockTableRecord
  2
*MODEL_SPACE
340
20
 70
     0
280
     1
281
     0
  0
BLOCK_RECORD
  5
B
330
1
100
AcDbSymbolTableRecord
100
AcDbBlockTableRecord
  2
*PAPER_SPACE
340
21
 70
     0
280
     1
281
     0
  0
BLOCK_RECORD
  5
4E
330
1
100
AcDbSymbolTableRecord
100
AcDbBlockTableRecord
  2
_DOT
340
0
102
{BLKREFS
331
423E
331
423D
331
4250
331
424F
331
425D
331
425C
331
426B
331
426A
331
4278
331
4277
102
}
 70
     0
280
     1
281
     0
  0
BLOCK_RECORD
  5
68A
330
1
100
AcDbSymbolTableRecord
100
AcDbBlockTableRecord
  2
名称未設定-1
340
0
102
{BLKREFS
331
6B5
102
}
 70
     1
280
     1
281
     0
  0
BLOCK_RECORD
  5
68D
330
1
100
AcDbSymbolTableRecord
100
AcDbBlockTableRecord
  2
block 2
340
0
102
{BLKREFS
331
68C
102
}
 70
     0
280
     1
281
     0
  0
BLOCK_RECORD
  5
690
330
1
100
AcDbSymbolTableRecord
100
AcDbBlockTableRecord
  2
block 3
340
0
102
{BLKREFS
331
68F
102
}
 70
     0
280
     1
281
     0
  0
BLOCK_RECORD
  5
693
330
1
100
AcDbSymbolTableRecord
100
AcDbBlockTableRecord
  2
block 4
340
0
102
{BLKREFS
331
692
102
}
 70
     0
280
     1
281
     0
  0
BLOCK_RECORD
  5
6A2
330
1
100
AcDbSymbolTableRecord
100
AcDbBlockTableRecord
  2
block 5
340
0
102
{BLKREFS
331
6A1
102
}
 70
     0
280
     1
281
     0
  0
BLOCK_RECORD
  5
199A
330
1
100
AcDbSymbolTableRecord
100
AcDbBlockTableRecord
  2
SEANNOT_GROUP
340
0
102
{BLKREFS
331
28CA
102
}
 70
     0
280
     1
281
     0
  0
BLOCK_RECORD
  5
1F2F
330
1
100
AcDbSymbolTableRecord
100
AcDbBlockTableRecord
  2
SEANNOT_GROUP1
340
0
102
{BLKREFS
331
2B9B
102
}
 70
     0
280
     1
281
     0
  0
BLOCK_RECORD
  5
35AF
330
1
100
AcDbSymbolTableRecord
100
AcDbBlockTableRecord
  2
*D150
340
0
 70
     0
280
     1
281
     0
  0
BLOCK_RECORD
  5
35BB
330
1
100
AcDbSymbolTableRecord
100
AcDbBlockTableRecord
  2
*D151
340
0
 70
     0
280
     1
281
     0
  0
BLOCK_RECORD
  5
35C7
330
1
100
AcDbSymbolTableRecord
100
AcDbBlockTableRecord
  2
*D152
340
0
 70
     0
280
     1
281
     0
  0
BLOCK_RECORD
  5
35D3
330
1
100
AcDbSymbolTableRecord
100
AcDbBlockTableRecord
  2
*D153
340
0
 70
     0
280
     1
281
     0
  0
BLOCK_RECORD
  5
35DF
330
1
100
AcDbSymbolTableRecord
100
AcDbBlockTableRecord
  2
*D154
340
0
 70
     0
280
     1
281
     0
  0
BLOCK_RECORD
  5
35EB
330
1
100
AcDbSymbolTableRecord
100
AcDbBlockTableRecord
  2
*D155
340
0
 70
     0
280
     1
281
     0
  0
BLOCK_RECORD
  5
35F7
330
1
100
AcDbSymbolTableRecord
100
AcDbBlockTableRecord
  2
*D156
340
0
 70
     0
280
     1
281
     0
  0
BLOCK_RECORD
  5
3603
330
1
100
AcDbSymbolTableRecord
100
AcDbBlockTableRecord
  2
*D157
340
0
 70
     0
280
     1
281
     0
  0
BLOCK_RECORD
  5
360F
330
1
100
AcDbSymbolTableRecord
100
AcDbBlockTableRecord
  2
*D158
340
0
 70
     0
280
     1
281
     0
  0
BLOCK_RECORD
  5
361B
330
1
100
AcDbSymbolTableRecord
100
AcDbBlockTableRecord
  2
*D159
340
0
 70
     0
280
     1
281
     0
  0
BLOCK_RECORD
  5
3627
330
1
100
AcDbSymbolTableRecord
100
AcDbBlockTableRecord
  2
*D160
340
0
 70
     0
280
     1
281
     0
  0
BLOCK_RECORD
  5
3633
330
1
100
AcDbSymbolTableRecord
100
AcDbBlockTableRecord
  2
*D161
340
0
 70
     0
280
     1
281
     0
  0
BLOCK_RECORD
  5
363F
330
1
100
AcDbSymbolTableRecord
100
AcDbBlockTableRecord
  2
*D162
340
0
 70
     0
280
     1
281
     0
  0
BLOCK_RECORD
  5
364B
330
1
100
AcDbSymbolTableRecord
100
AcDbBlockTableRecord
  2
*D163
340
0
 70
     0
280
     1
281
     0
  0
BLOCK_RECORD
  5
3C07
330
1
100
AcDbSymbolTableRecord
100
AcDbBlockTableRecord
  2
*D165
340
0
 70
     0
280
     1
281
     0
  0
BLOCK_RECORD
  5
4196
330
1
100
AcDbSymbolTableRecord
100
AcDbBlockTableRecord
  2
*D166
340
0
 70
     0
280
     1
281
     0
  0
BLOCK_RECORD
  5
41A6
330
1
100
AcDbSymbolTableRecord
100
AcDbBlockTableRecord
  2
*D167
340
0
 70
     0
280
     1
281
     0
  0
BLOCK_RECORD
  5
41B5
330
1
100
AcDbSymbolTableRecord
100
AcDbBlockTableRecord
  2
*D168
340
0
 70
     0
280
     1
281
     0
  0
BLOCK_RECORD
  5
41C2
330
1
100
AcDbSymbolTableRecord
100
AcDbBlockTableRecord
  2
*D169
340
0
 70
     0
280
     1
281
     0
  0
BLOCK_RECORD
  5
41D7
330
1
100
AcDbSymbolTableRecord
100
AcDbBlockTableRecord
  2
*D170
340
0
 70
     0
280
     1
281
     0
  0
BLOCK_RECORD
  5
41E6
330
1
100
AcDbSymbolTableRecord
100
AcDbBlockTableRecord
  2
*D171
340
0
 70
     0
280
     1
281
     0
  0
BLOCK_RECORD
  5
41FA
330
1
100
AcDbSymbolTableRecord
100
AcDbBlockTableRecord
  2
*D172
340
0
 70
     0
280
     1
281
     0
  0
BLOCK_RECORD
  5
4217
330
1
100
AcDbSymbolTableRecord
100
AcDbBlockTableRecord
  2
*D173
340
0
 70
     0
280
     1
281
     0
  0
BLOCK_RECORD
  5
4237
330
1
100
AcDbSymbolTableRecord
100
AcDbBlockTableRecord
  2
*D174
340
0
 70
     0
280
     1
281
     0
  0
BLOCK_RECORD
  5
4249
330
1
100
AcDbSymbolTableRecord
100
AcDbBlockTableRecord
  2
*D175
340
0
 70
     0
280
     1
281
     0
  0
BLOCK_RECORD
  5
4256
330
1
100
AcDbSymbolTableRecord
100
AcDbBlockTableRecord
  2
*D176
340
0
 70
     0
280
     1
281
     0
  0
BLOCK_RECORD
  5
4264
330
1
100
AcDbSymbolTableRecord
100
AcDbBlockTableRecord
  2
*D177
340
0
 70
     0
280
     1
281
     0
  0
BLOCK_RECORD
  5
4271
330
1
100
AcDbSymbolTableRecord
100
AcDbBlockTableRecord
  2
*D178
340
0
 70
     0
280
     1
281
     0
  0
ENDTAB
  0
ENDSEC
  0
SECTION
  2
BLOCKS
  0
BLOCK
  5
D
330
A
100
AcDbEntity
  8
0
390
1D
100
AcDbBlockBegin
  2
*MODEL_SPACE
 70
     0
 10
0.0
 20
0.0
 30
0.0
  3
*MODEL_SPACE
  1
*MODEL_SPACE
  0
ENDBLK
  5
E
330
A
100
AcDbEntity
  8
0
390
1D
100
AcDbBlockEnd
  0
BLOCK
  5
F
330
B
100
AcDbEntity
 67
     1
  8
0
390
1D
100
AcDbBlockBegin
  2
*PAPER_SPACE
 70
     0
 10
0.0
 20
0.0
 30
0.0
  3
*PAPER_SPACE
  1
*PAPER_SPACE
  0
ENDBLK
  5
10
330
B
100
AcDbEntity
 67
     1
  8
0
390
1D
100
AcDbBlockEnd
  0
BLOCK
  5
422C
330
4E
100
AcDbEntity
  8
0
390
1D
100
AcDbBlockBegin
  2
_DOT
 70
     0
 10
0.0
 20
0.0
 30
0.0
  3
_DOT
  1
_DOT
  0
POLYLINE
  5
422E
330
4E
100
AcDbEntity
  8
0
  6
ByBlock
 62
     0
370
    -2
390
1D
100
AcDb2dPolyline
 66
     1
 10
0.0
 20
0.0
 30
0.0
 70
     1
 40
0.5
 41
0.5
  0
VERTEX
  5
422F
330
422E
100
AcDbEntity
  8
0
  6
ByBlock
 62
     0
370
    -2
390
1D
100
AcDbVertex
100
AcDb2dVertex
 10
-0.25
 20
0.0
 30
0.0
 42
1.0
  0
VERTEX
  5
4230
330
422E
100
AcDbEntity
  8
0
  6
ByBlock
 62
     0
370
    -2
390
1D
100
AcDbVertex
100
AcDb2dVertex
 10
0.25
 20
0.0
 30
0.0
 42
1.0
  0
SEQEND
  5
4231
330
422E
100
AcDbEntity
  8
0
390
1D
  0
LINE
  5
4232
330
4E
100
AcDbEntity
  8
0
  6
ByBlock
 62
     0
370
    -2
390
1D
100
AcDbLine
 10
-0.5
 20
0.0
 30
0.0
 11
-1.0
 21
0.0
 31
0.0
  0
ENDBLK
  5
4233
330
4E
100
AcDbEntity
  8
0
390
1D
100
AcDbBlockEnd
  0
BLOCK
  5
68B
330
68A
100
AcDbEntity
  8
0
100
AcDbBlockBegin
  2
名称未設定-1
 70
     0
 10
0.0
 20
0.0
 30
0.0
  3
名称未設定-1
  1
名称未設定-1
  0
INSERT
  5
68F
330
68A
100
AcDbEntity
  8
LOGO
100
AcDbBlockReference
  2
block 3
 10
0.0
 20
0.0
 30
0.0
  0
ENDBLK
  5
6B1
330
68A
100
AcDbEntity
  8
0
100
AcDbBlockEnd
  0
BLOCK
  5
68E
330
68D
100
AcDbEntity
  8
0
100
AcDbBlockBegin
  2
block 2
 70
     0
 10
0.0
 20
0.0
 30
0.0
  3
block 2
  1
block 2
  0
ENDBLK
  5
6B0
330
68D
100
AcDbEntity
  8
0
100
AcDbBlockEnd
  0
BLOCK
  5
691
330
690
100
AcDbEntity
  8
0
100
AcDbBlockBegin
  2
block 3
 70
     0
 10
0.0
 20
0.0
 30
0.0
  3
block 3
  1
block 3
  0
INSERT
  5
692
330
690
100
AcDbEntity
  8
LOGO
100
AcDbBlockReference
  2
block 4
 10
0.0
 20
0.0
 30
0.0
  0
INSERT
  5
6A1
330
690
100
AcDbEntity
  8
LOGO
100
AcDbBlockReference
  2
block 5
 10
0.0
 20
0.0
 30
0.0
  0
ENDBLK
  5
6AF
330
690
100
AcDbEntity
  8
0
100
AcDbBlockEnd
  0
BLOCK
  5
694
330
693
100
AcDbEntity
  8
0
100
AcDbBlockBegin
  2
block 4
 70
     0
 10
0.0
 20
0.0
 30
0.0
  3
block 4
  1
block 4
  0
POLYLINE
  5
695
330
693
100
AcDbEntity
  8
LOGO
370
     0
100
AcDb2dPolyline
 66
     1
 10
0.0
 20
0.0
 30
0.0
  0
VERTEX
  5
696
330
695
100
AcDbEntity
  8
LOGO
370
     0
100
AcDbVertex
100
AcDb2dVertex
 10
83.79545727667795
 20
167.6444858234922
 30
0.0
  0
VERTEX
  5
697
330
695
100
AcDbEntity
  8
LOGO
370
     0
100
AcDbVertex
100
AcDb2dVertex
 10
83.79545727667795
 20
159.7968976406313
 30
0.0
  0
VERTEX
  5
698
330
695
100
AcDbEntity
  8
LOGO
370
     0
100
AcDbVertex
100
AcDb2dVertex
 10
71.3631329975216
 20
159.7968976406313
 30
0.0
  0
VERTEX
  5
699
330
695
100
AcDbEntity
  8
LOGO
370
     0
100
AcDbVertex
100
AcDb2dVertex
 10
71.3631329975216
 20
127.8027915271048
 30
0.0
  0
VERTEX
  5
69A
330
695
100
AcDbEntity
  8
LOGO
370
     0
100
AcDbVertex
100
AcDb2dVertex
 10
60.43011526263018
 20
127.8027915271048
 30
0.0
  0
VERTEX
  5
69B
330
695
100
AcDbEntity
  8
LOGO
370
     0
100
AcDbVertex
100
AcDb2dVertex
 10
60.43011526263018
 20
159.7968976406313
 30
0.0
  0
VERTEX
  5
69C
330
695
100
AcDbEntity
  8
LOGO
370
     0
100
AcDbVertex
100
AcDb2dVertex
 10
48.21793273020759
 20
159.7968976406313
 30
0.0
  0
VERTEX
  5
69D
330
695
100
AcDbEntity
  8
LOGO
370
     0
100
AcDbVertex
100
AcDb2dVertex
 10
48.21793273020759
 20
167.6444858234922
 30
0.0
  0
VERTEX
  5
69E
330
695
100
AcDbEntity
  8
LOGO
370
     0
100
AcDbVertex
100
AcDb2dVertex
 10
83.79545727667795
 20
167.6444858234922
 30
0.0
  0
SEQEND
  5
69F
330
695
100
AcDbEntity
  8
LOGO
370
     0
  0
HATCH
  5
6A0
330
693
100
AcDbEntity
  8
LOGO
 62
   250
420
  2234388
100
AcDbHatch
 10
0.0
 20
0.0
 30
0.0
210
0.0
220
0.0
230
1.0
  2
SOLID
 70
     1
 71
     0
 91
        1
 92
        1
 93
        8
 72
     1
 10
83.79545727667795
 20
167.6444858234922
 11
83.79545727667795
 21
159.7968976406313
 72
     1
 10
83.79545727667795
 20
159.7968976406313
 11
71.3631329975216
 21
159.7968976406313
 72
     1
 10
71.3631329975216
 20
159.7968976406313
 11
71.3631329975216
 21
127.8027915271048
 72
     1
 10
71.3631329975216
 20
127.8027915271048
 11
60.43011526263018
 21
127.8027915271048
 72
     1
 10
60.43011526263018
 20
127.8027915271048
 11
60.43011526263018
 21
159.7968976406313
 72
     1
 10
60.43011526263018
 20
159.7968976406313
 11
48.21793273020759
 21
159.7968976406313
 72
     1
 10
48.21793273020759
 20
159.7968976406313
 11
48.21793273020759
 21
167.6444858234922
 72
     1
 10
48.21793273020759
 20
167.6444858234922
 11
83.79545727667795
 21
167.6444858234922
 97
        0
 75
     2
 76
     1
 98
        0
  0
ENDBLK
  5
6AE
330
693
100
AcDbEntity
  8
0
100
AcDbBlockEnd
  0
BLOCK
  5
6A3
330
6A2
100
AcDbEntity
  8
0
100
AcDbBlockBegin
  2
block 5
 70
     0
 10
0.0
 20
0.0
 30
0.0
  3
block 5
  1
block 5
  0
SPLINE
  5
6A4
330
6A2
100
AcDbEntity
  8
LOGO
370
     0
100
AcDbSpline
210
0.0
220
0.0
230
1.0
 70
    11
 71
     3
 72
    56
 73
    52
 74
     0
 42
0.000000001
 43
0.0000000001
 40
0.0
 40
0.0
 40
0.0
 40
0.0
 40
1.0
 40
1.0
 40
1.0
 40
2.0
 40
2.0
 40
2.0
 40
3.0
 40
3.0
 40
3.0
 40
4.0
 40
4.0
 40
4.0
 40
5.0
 40
5.0
 40
5.0
 40
6.0
 40
6.0
 40
6.0
 40
7.0
 40
7.0
 40
7.0
 40
8.0
 40
8.0
 40
8.0
 40
9.0
 40
9.0
 40
9.0
 40
10.0
 40
10.0
 40
10.0
 40
11.0
 40
11.0
 40
11.0
 40
12.0
 40
12.0
 40
12.0
 40
13.0
 40
13.0
 40
13.0
 40
14.0
 40
14.0
 40
14.0
 40
15.0
 40
15.0
 40
15.0
 40
16.0
 40
16.0
 40
16.0
 40
17.0
 40
17.0
 40
17.0
 40
17.0
 10
100.4504378777679
 20
166.69157178364
 30
0.0
 10
101.9848844191641
 20
167.1313385124438
 30
0.0
 10
103.9637485713373
 20
166.7649523658846
 30
0.0
 10
103.9637485713373
 20
166.7649523658846
 30
0.0
 10
103.9637485713373
 20
166.7649523658846
 30
0.0
 10
103.0132460999156
 20
163.911205638077
 30
0.0
 10
103.0132460999156
 20
163.911205638077
 30
0.0
 10
103.0132460999156
 20
163.911205638077
 30
0.0
 10
101.0674548862189
 20
164.3601018759394
 30
0.0
 10
99.57090442016032
 20
163.1805004036133
 30
0.0
 10
98.40508333886608
 20
162.258247733807
 30
0.0
 10
97.65301849830304
 20
159.804132345923
 30
0.0
 10
97.3598406791005
 20
158.8699940888517
 30
0.0
 10
97.3598406791005
 20
158.8699940888517
 30
0.0
 10
96.07137411762282
 20
154.9119212747295
 30
0.0
 10
96.07137411762282
 20
154.9119212747295
 30
0.0
 10
96.07137411762282
 20
154.9119212747295
 30
0.0
 10
100.3012651448482
 20
154.9119212747295
 30
0.0
 10
100.3012651448482
 20
154.9119212747295
 30
0.0
 10
100.3012651448482
 20
154.9119212747295
 30
0.0
 10
99.64152892419852
 20
152.4199098115079
 30
0.0
 10
99.64152892419852
 20
152.4199098115079
 30
0.0
 10
99.64152892419852
 20
152.4199098115079
 30
0.0
 10
95.38097652692731
 20
152.4199098115079
 30
0.0
 10
95.38097652692731
 20
152.4199098115079
 30
0.0
 10
95.38097652692731
 20
152.4199098115079
 30
0.0
 10
87.75353009080013
 20
127.8027915271048
 30
0.0
 10
87.75353009080013
 20
127.8027915271048
 30
0.0
 10
87.75353009080013
 20
127.8027915271048
 30
0.0
 10
85.36538832498108
 20
127.8027915271048
 30
0.0
 10
85.36538832498108
 20
127.8027915271048
 30
0.0
 10
85.36538832498108
 20
127.8027915271048
 30
0.0
 10
93.00006946639998
 20
152.4199098115079
 30
0.0
 10
93.00006946639998
 20
152.4199098115079
 30
0.0
 10
93.00006946639998
 20
152.4199098115079
 30
0.0
 10
89.85297266450198
 20
152.4199098115079
 30
0.0
 10
89.85297266450198
 20
152.4199098115079
 30
0.0
 10
89.85297266450198
 20
152.4199098115079
 30
0.0
 10
90.51270888515164
 20
154.9119212747295
 30
0.0
 10
90.51270888515164
 20
154.9119212747295
 30
0.0
 10
90.51270888515164
 20
154.9119212747295
 30
0.0
 10
93.6904670570955
 20
154.9119212747295
 30
0.0
 10
93.6904670570955
 20
154.9119212747295
 30
0.0
 10
93.6904670570955
 20
154.9119212747295
 30
0.0
 10
94.81598049462158
 20
158.3616699146644
 30
0.0
 10
94.81598049462158
 20
158.3616699146644
 30
0.0
 10
95.7237637538445
 20
161.2605474231013
 30
0.0
 10
96.4968436907311
 20
162.8139420021662
 30
0.0
 10
97.15657991138076
 20
163.9844139654337
 30
0.0
 10
97.81183750494507
 20
165.1523021053827
 30
0.0
 10
99.1047826935081
 20
166.3084769129547
 30
0.0
 10
100.4504378777679
 20
166.69157178364
 30
0.0
  0
HATCH
  5
6A5
330
6A2
100
AcDbEntity
  8
LOGO
 62
   250
420
  2234388
100
AcDbHatch
 10
0.0
 20
0.0
 30
0.0
210
0.0
220
0.0
230
1.0
  2
SOLID
 70
     1
 71
     0
 91
        1
 92
        1
 93
        1
 72
     4
 94
        3
 73
     0
 74
     1
 95
       56
 96
       52
 40
0.0
 40
0.0
 40
0.0
 40
0.0
 40
1.0
 40
1.0
 40
1.0
 40
2.0
 40
2.0
 40
2.0
 40
3.0
 40
3.0
 40
3.0
 40
4.0
 40
4.0
 40
4.0
 40
5.0
 40
5.0
 40
5.0
 40
6.0
 40
6.0
 40
6.0
 40
7.0
 40
7.0
 40
7.0
 40
8.0
 40
8.0
 40
8.0
 40
9.0
 40
9.0
 40
9.0
 40
10.0
 40
10.0
 40
10.0
 40
11.0
 40
11.0
 40
11.0
 40
12.0
 40
12.0
 40
12.0
 40
13.0
 40
13.0
 40
13.0
 40
14.0
 40
14.0
 40
14.0
 40
15.0
 40
15.0
 40
15.0
 40
16.0
 40
16.0
 40
16.0
 40
17.0
 40
17.0
 40
17.0
 40
17.0
 10
100.4504378777679
 20
166.69157178364
 10
101.9848844191641
 20
167.1313385124438
 10
103.9637485713373
 20
166.7649523658846
 10
103.9637485713373
 20
166.7649523658846
 10
103.9637485713373
 20
166.7649523658846
 10
103.0132460999156
 20
163.911205638077
 10
103.0132460999156
 20
163.911205638077
 10
103.0132460999156
 20
163.911205638077
 10
101.0674548862189
 20
164.3601018759394
 10
99.57090442016032
 20
163.1805004036133
 10
98.40508333886608
 20
162.258247733807
 10
97.65301849830304
 20
159.804132345923
 10
97.3598406791005
 20
158.8699940888517
 10
97.3598406791005
 20
158.8699940888517
 10
96.07137411762282
 20
154.9119212747295
 10
96.07137411762282
 20
154.9119212747295
 10
96.07137411762282
 20
154.9119212747295
 10
100.3012651448482
 20
154.9119212747295
 10
100.3012651448482
 20
154.9119212747295
 10
100.3012651448482
 20
154.9119212747295
 10
99.64152892419852
 20
152.4199098115079
 10
99.64152892419852
 20
152.4199098115079
 10
99.64152892419852
 20
152.4199098115079
 10
95.38097652692731
 20
152.4199098115079
 10
95.38097652692731
 20
152.4199098115079
 10
95.38097652692731
 20
152.4199098115079
 10
87.75353009080013
 20
127.8027915271048
 10
87.75353009080013
 20
127.8027915271048
 10
87.75353009080013
 20
127.8027915271048
 10
85.36538832498108
 20
127.8027915271048
 10
85.36538832498108
 20
127.8027915271048
 10
85.36538832498108
 20
127.8027915271048
 10
93.00006946639998
 20
152.4199098115079
 10
93.00006946639998
 20
152.4199098115079
 10
93.00006946639998
 20
152.4199098115079
 10
89.85297266450198
 20
152.4199098115079
 10
89.85297266450198
 20
152.4199098115079
 10
89.85297266450198
 20
152.4199098115079
 10
90.51270888515164
 20
154.9119212747295
 10
90.51270888515164
 20
154.9119212747295
 10
90.51270888515164
 20
154.9119212747295
 10
93.6904670570955
 20
154.9119212747295
 10
93.6904670570955
 20
154.9119212747295
 10
93.6904670570955
 20
154.9119212747295
 10
94.81598049462158
 20
158.3616699146644
 10
94.81598049462158
 20
158.3616699146644
 10
95.7237637538445
 20
161.2605474231013
 10
96.4968436907311
 20
162.8139420021662
 10
97.15657991138076
 20
163.9844139654337
 10
97.81183750494507
 20
165.1523021053827
 10
99.1047826935081
 20
166.3084769129547
 10
100.4504378777679
 20
166.69157178364
 97
        0
 75
     2
 76
     1
 98
        0
  0
SPLINE
  5
6A6
330
6A2
100
AcDbEntity
  8
LOGO
370
     0
100
AcDbSpline
210
0.0
220
0.0
230
1.0
 70
    11
 71
     3
 72
    38
 73
    34
 74
     0
 42
0.000000001
 43
0.0000000001
 40
0.0
 40
0.0
 40
0.0
 40
0.0
 40
1.0
 40
1.0
 40
1.0
 40
2.0
 40
2.0
 40
2.0
 40
3.0
 40
3.0
 40
3.0
 40
4.0
 40
4.0
 40
4.0
 40
5.0
 40
5.0
 40
5.0
 40
6.0
 40
6.0
 40
6.0
 40
7.0
 40
7.0
 40
7.0
 40
8.0
 40
8.0
 40
8.0
 40
9.0
 40
9.0
 40
9.0
 40
10.0
 40
10.0
 40
10.0
 40
11.0
 40
11.0
 40
11.0
 40
11.0
 10
126.377554584636
 20
154.8151140277308
 30
0.0
 10
126.377554584636
 20
154.8151140277308
 30
0.0
 10
128.8311532078563
 20
154.8151140277308
 30
0.0
 10
128.8311532078563
 20
154.8151140277308
 30
0.0
 10
128.8311532078563
 20
154.8151140277308
 30
0.0
 10
127.7345785914971
 20
151.3062819612468
 30
0.0
 10
127.7345785914971
 20
151.3062819612468
 30
0.0
 10
128.571392836906
 20
152.2922689395754
 30
0.0
 10
129.8860421413442
 20
153.604506675583
 30
0.0
 10
131.0163787157314
 20
154.2664822097754
 30
0.0
 10
132.7044766171327
 20
155.2500576196734
 30
0.0
 10
133.6642808525008
 20
155.3847609420097
 30
0.0
 10
134.7284715499351
 20
155.3565111403944
 30
0.0
 10
134.7284715499351
 20
155.3565111403944
 30
0.0
 10
133.6877075172549
 20
152.0345756272799
 30
0.0
 10
133.6877075172549
 20
152.0345756272799
 30
0.0
 10
133.011434827367
 20
152.3184516825359
 30
0.0
 10
130.930940291334
 20
151.7768823149844
 30
0.0
 10
129.739280976855
 20
150.9162968950455
 30
0.0
 10
128.66613302525
 20
150.1454562717016
 30
0.0
 10
127.9192358313239
 20
149.4857200510519
 30
0.0
 10
127.0393578639405
 20
147.8282835196966
 30
0.0
 10
126.164647543194
 20
146.1699857139017
 30
0.0
 10
125.4742499524985
 20
143.5262176944419
 30
0.0
 10
124.2822461282437
 20
139.6959580071401
 30
0.0
 10
124.2822461282437
 20
139.6959580071401
 30
0.0
 10
120.5753209406769
 20
127.8027915271048
 30
0.0
 10
120.5753209406769
 20
127.8027915271048
 30
0.0
 10
120.5753209406769
 20
127.8027915271048
 30
0.0
 10
118.1964809388044
 20
127.8027915271048
 30
0.0
 10
118.1964809388044
 20
127.8027915271048
 30
0.0
 10
118.1964809388044
 20
127.8027915271048
 30
0.0
 10
126.377554584636
 20
154.8151140277308
 30
0.0
 10
126.377554584636
 20
154.8151140277308
 30
0.0
  0
HATCH
  5
6A7
330
6A2
100
AcDbEntity
  8
LOGO
 62
   250
420
  2234388
100
AcDbHatch
 10
0.0
 20
0.0
 30
0.0
210
0.0
220
0.0
230
1.0
  2
SOLID
 70
     1
 71
     0
 91
        1
 92
        1
 93
        1
 72
     4
 94
        3
 73
     0
 74
     1
 95
       38
 96
       34
 40
0.0
 40
0.0
 40
0.0
 40
0.0
 40
1.0
 40
1.0
 40
1.0
 40
2.0
 40
2.0
 40
2.0
 40
3.0
 40
3.0
 40
3.0
 40
4.0
 40
4.0
 40
4.0
 40
5.0
 40
5.0
 40
5.0
 40
6.0
 40
6.0
 40
6.0
 40
7.0
 40
7.0
 40
7.0
 40
8.0
 40
8.0
 40
8.0
 40
9.0
 40
9.0
 40
9.0
 40
10.0
 40
10.0
 40
10.0
 40
11.0
 40
11.0
 40
11.0
 40
11.0
 10
126.377554584636
 20
154.8151140277308
 10
126.377554584636
 20
154.8151140277308
 10
128.8311532078563
 20
154.8151140277308
 10
128.8311532078563
 20
154.8151140277308
 10
128.8311532078563
 20
154.8151140277308
 10
127.7345785914971
 20
151.3062819612468
 10
127.7345785914971
 20
151.3062819612468
 10
128.571392836906
 20
152.2922689395754
 10
129.8860421413442
 20
153.604506675583
 10
131.0163787157314
 20
154.2664822097754
 10
132.7044766171327
 20
155.2500576196734
 10
133.6642808525008
 20
155.3847609420097
 10
134.7284715499351
 20
155.3565111403944
 10
134.7284715499351
 20
155.3565111403944
 10
133.6877075172549
 20
152.0345756272799
 10
133.6877075172549
 20
152.0345756272799
 10
133.011434827367
 20
152.3184516825359
 10
130.930940291334
 20
151.7768823149844
 10
129.739280976855
 20
150.9162968950455
 10
128.66613302525
 20
150.1454562717016
 10
127.9192358313239
 20
149.4857200510519
 10
127.0393578639405
 20
147.8282835196966
 10
126.164647543194
 20
146.1699857139017
 10
125.4742499524985
 20
143.5262176944419
 10
124.2822461282437
 20
139.6959580071401
 10
124.2822461282437
 20
139.6959580071401
 10
120.5753209406769
 20
127.8027915271048
 10
120.5753209406769
 20
127.8027915271048
 10
120.5753209406769
 20
127.8027915271048
 10
118.1964809388044
 20
127.8027915271048
 10
118.1964809388044
 20
127.8027915271048
 10
118.1964809388044
 20
127.8027915271048
 10
126.377554584636
 20
154.8151140277308
 10
126.377554584636
 20
154.8151140277308
 97
        0
 75
     2
 76
     1
 98
        0
  0
SPLINE
  5
6A8
330
6A2
100
AcDbEntity
  8
LOGO
370
     0
100
AcDbSpline
210
0.0
220
0.0
230
1.0
 70
    11
 71
     3
 72
   104
 73
   100
 74
     0
 42
0.000000001
 43
0.0000000001
 40
0.0
 40
0.0
 40
0.0
 40
0.0
 40
1.0
 40
1.0
 40
1.0
 40
2.0
 40
2.0
 40
2.0
 40
3.0
 40
3.0
 40
3.0
 40
4.0
 40
4.0
 40
4.0
 40
5.0
 40
5.0
 40
5.0
 40
6.0
 40
6.0
 40
6.0
 40
7.0
 40
7.0
 40
7.0
 40
8.0
 40
8.0
 40
8.0
 40
9.0
 40
9.0
 40
9.0
 40
10.0
 40
10.0
 40
10.0
 40
11.0
 40
11.0
 40
11.0
 40
12.0
 40
12.0
 40
12.0
 40
13.0
 40
13.0
 40
13.0
 40
14.0
 40
14.0
 40
14.0
 40
15.0
 40
15.0
 40
15.0
 40
16.0
 40
16.0
 40
16.0
 40
17.0
 40
17.0
 40
17.0
 40
18.0
 40
18.0
 40
18.0
 40
19.0
 40
19.0
 40
19.0
 40
20.0
 40
20.0
 40
20.0
 40
21.0
 40
21.0
 40
21.0
 40
22.0
 40
22.0
 40
22.0
 40
23.0
 40
23.0
 40
23.0
 40
24.0
 40
24.0
 40
24.0
 40
25.0
 40
25.0
 40
25.0
 40
26.0
 40
26.0
 40
26.0
 40
27.0
 40
27.0
 40
27.0
 40
28.0
 40
28.0
 40
28.0
 40
29.0
 40
29.0
 40
29.0
 40
30.0
 40
30.0
 40
30.0
 40
31.0
 40
31.0
 40
31.0
 40
32.0
 40
32.0
 40
32.0
 40
33.0
 40
33.0
 40
33.0
 40
33.0
 10
139.8926730891197
 20
154.8294111834263
 30
0.0
 10
139.8926730891197
 20
154.8294111834263
 30
0.0
 10
142.0344903652445
 20
154.8294111834263
 30
0.0
 10
142.0344903652445
 20
154.8294111834263
 30
0.0
 10
142.0344903652445
 20
154.8294111834263
 30
0.0
 10
140.9516961399171
 20
151.3157559800812
 30
0.0
 10
140.9516961399171
 20
151.3157559800812
 30
0.0
 10
141.8928968473923
 20
152.7887075264977
 30
0.0
 10
142.7341897198865
 20
153.4484437471474
 30
0.0
 10
143.8552245303272
 20
154.2926649527359
 30
0.0
 10
144.9803934580775
 20
155.1296514530327
 30
0.0
 10
146.3139908001845
 20
155.3044901642492
 30
0.0
 10
147.241066606852
 20
155.3044901642492
 30
0.0
 10
148.3855280820469
 20
155.3044901642492
 30
0.0
 10
149.4969166187653
 20
155.0752189084569
 30
0.0
 10
150.0784491203092
 20
153.8172414621372
 30
0.0
 10
150.5228667310863
 20
152.833838307127
 30
0.0
 10
150.5414702589793
 20
152.7201500811143
 30
0.0
 10
150.4140016419347
 20
150.7765981809602
 30
0.0
 10
151.5818897818837
 20
152.7699317437168
 30
0.0
 10
152.4424752018226
 20
153.6256940267945
 30
0.0
 10
153.9038856707499
 20
154.4507949398263
 30
0.0
 10
155.4455669174378
 20
155.3044901642492
 30
0.0
 10
156.339225275853
 20
155.3659851592288
 30
0.0
 10
157.3748216618963
 20
155.2147453676543
 30
0.0
 10
158.911679771723
 20
154.9877134254046
 30
0.0
 10
159.8859534176746
 20
154.4390816074493
 30
0.0
 10
160.3965169054045
 20
152.7816450760939
 30
0.0
 10
160.9070803931344
 20
151.1219692311958
 30
0.0
 10
160.6328506116007
 20
150.2303779314354
 30
0.0
 10
159.9992971339115
 20
147.597634224801
 30
0.0
 10
159.7105979417943
 20
146.4014962832367
 30
0.0
 10
159.2947746424084
 20
144.9400858143094
 30
0.0
 10
158.7463150793409
 20
143.2092687007094
 30
0.0
 10
158.7463150793409
 20
143.2092687007094
 30
0.0
 10
153.9038856707499
 20
127.8027915271048
 30
0.0
 10
153.9038856707499
 20
127.8027915271048
 30
0.0
 10
153.9038856707499
 20
127.8027915271048
 30
0.0
 10
151.3882752878863
 20
127.8027915271048
 30
0.0
 10
151.3882752878863
 20
127.8027915271048
 30
0.0
 10
151.3882752878863
 20
127.8027915271048
 30
0.0
 10
155.6250565106276
 20
141.2751908193897
 30
0.0
 10
155.6250565106276
 20
141.2751908193897
 30
0.0
 10
156.5094131050963
 20
144.0936252951782
 30
0.0
 10
157.109893644309
 20
146.1506931664571
 30
0.0
 10
157.4220195011804
 20
147.4415712963654
 30
0.0
 10
157.8095929989511
 20
149.0530157726519
 30
0.0
 10
157.9656559273867
 20
149.5826995529385
 30
0.0
 10
157.7816877071116
 20
150.7529992613181
 30
0.0
 10
157.6111553680925
 20
151.8430281919372
 30
0.0
 10
157.0582171779396
 20
152.5547853887321
 30
0.0
 10
156.1170164704645
 20
152.5547853887321
 30
0.0
 10
155.1096698860365
 20
152.5547853887321
 30
0.0
 10
154.2962823053817
 20
152.4412694176073
 30
0.0
 10
153.156643967048
 20
151.2945686288697
 30
0.0
 10
152.0170056287143
 20
150.1476955852443
 30
0.0
 10
151.076149431015
 20
148.7930831468137
 30
0.0
 10
150.3337308641742
 20
147.2290087646991
 30
0.0
 10
149.5957909244188
 20
145.6683794803425
 30
0.0
 10
148.8530278478023
 20
143.6822806228776
 30
0.0
 10
148.0964843801539
 20
141.2751908193897
 30
0.0
 10
148.0964843801539
 20
141.2751908193897
 30
0.0
 10
143.8552245303272
 20
127.8027915271048
 30
0.0
 10
143.8552245303272
 20
127.8027915271048
 30
0.0
 10
143.8552245303272
 20
127.8027915271048
 30
0.0
 10
141.486030802177
 20
127.8027915271048
 30
0.0
 10
141.486030802177
 20
127.8027915271048
 30
0.0
 10
141.486030802177
 20
127.8027915271048
 30
0.0
 10
146.3329388378533
 20
143.2092687007094
 30
0.0
 10
146.3329388378533
 20
143.2092687007094
 30
0.0
 10
146.8483254624444
 20
144.8408669988801
 30
0.0
 10
147.2314203331297
 20
146.1837661049335
 30
0.0
 10
147.4867020769946
 20
147.224185627838
 30
0.0
 10
147.9169947869641
 20
149.0197705792876
 30
0.0
 10
148.0306830129768
 20
150.2400242051577
 30
0.0
 10
147.709255392159
 20
151.3157559800812
 30
0.0
 10
147.3874832615654
 20
152.3916600098926
 30
0.0
 10
146.8245542879144
 20
152.6683013598569
 30
0.0
 10
145.8840425999909
 20
152.6683013598569
 30
0.0
 10
145.0989048209514
 20
152.6683013598569
 30
0.0
 10
144.3282364524954
 20
152.3275811915945
 30
0.0
 10
143.4531816219731
 20
151.6538923250251
 30
0.0
 10
142.34627171234
 20
150.8074318058939
 30
0.0
 10
141.901854101563
 20
150.1097995099067
 30
0.0
 10
141.3578731655808
 20
149.289521733736
 30
0.0
 10
140.6299240093235
 20
148.192602607601
 30
0.0
 10
140.2850697237515
 20
147.455696197173
 30
0.0
 10
139.6652966370942
 20
145.8385673095858
 30
0.0
 10
139.0506911970739
 20
144.2214384219986
 30
0.0
 10
138.463991048893
 20
142.3252566160164
 30
0.0
 10
138.0571250036777
 20
141.0154304484394
 30
0.0
 10
138.0571250036777
 20
141.0154304484394
 30
0.0
 10
133.9009590684727
 20
127.8027915271048
 30
0.0
 10
133.9009590684727
 20
127.8027915271048
 30
0.0
 10
133.9009590684727
 20
127.8027915271048
 30
0.0
 10
131.4180771143097
 20
127.8027915271048
 30
0.0
 10
131.4180771143097
 20
127.8027915271048
 30
0.0
 10
131.4180771143097
 20
127.8027915271048
 30
0.0
 10
139.8926730891197
 20
154.8294111834263
 30
0.0
 10
139.8926730891197
 20
154.8294111834263
 30
0.0
  0
HATCH
  5
6A9
330
6A2
100
AcDbEntity
  8
LOGO
 62
   250
420
  2234388
100
AcDbHatch
 10
0.0
 20
0.0
 30
0.0
210
0.0
220
0.0
230
1.0
  2
SOLID
 70
     1
 71
     0
 91
        1
 92
        1
 93
        1
 72
     4
 94
        3
 73
     0
 74
     1
 95
      104
 96
      100
 40
0.0
 40
0.0
 40
0.0
 40
0.0
 40
1.0
 40
1.0
 40
1.0
 40
2.0
 40
2.0
 40
2.0
 40
3.0
 40
3.0
 40
3.0
 40
4.0
 40
4.0
 40
4.0
 40
5.0
 40
5.0
 40
5.0
 40
6.0
 40
6.0
 40
6.0
 40
7.0
 40
7.0
 40
7.0
 40
8.0
 40
8.0
 40
8.0
 40
9.0
 40
9.0
 40
9.0
 40
10.0
 40
10.0
 40
10.0
 40
11.0
 40
11.0
 40
11.0
 40
12.0
 40
12.0
 40
12.0
 40
13.0
 40
13.0
 40
13.0
 40
14.0
 40
14.0
 40
14.0
 40
15.0
 40
15.0
 40
15.0
 40
16.0
 40
16.0
 40
16.0
 40
17.0
 40
17.0
 40
17.0
 40
18.0
 40
18.0
 40
18.0
 40
19.0
 40
19.0
 40
19.0
 40
20.0
 40
20.0
 40
20.0
 40
21.0
 40
21.0
 40
21.0
 40
22.0
 40
22.0
 40
22.0
 40
23.0
 40
23.0
 40
23.0
 40
24.0
 40
24.0
 40
24.0
 40
25.0
 40
25.0
 40
25.0
 40
26.0
 40
26.0
 40
26.0
 40
27.0
 40
27.0
 40
27.0
 40
28.0
 40
28.0
 40
28.0
 40
29.0
 40
29.0
 40
29.0
 40
30.0
 40
30.0
 40
30.0
 40
31.0
 40
31.0
 40
31.0
 40
32.0
 40
32.0
 40
32.0
 40
33.0
 40
33.0
 40
33.0
 40
33.0
 10
139.8926730891197
 20
154.8294111834263
 10
139.8926730891197
 20
154.8294111834263
 10
142.0344903652445
 20
154.8294111834263
 10
142.0344903652445
 20
154.8294111834263
 10
142.0344903652445
 20
154.8294111834263
 10
140.9516961399171
 20
151.3157559800812
 10
140.9516961399171
 20
151.3157559800812
 10
141.8928968473923
 20
152.7887075264977
 10
142.7341897198865
 20
153.4484437471474
 10
143.8552245303272
 20
154.2926649527359
 10
144.9803934580775
 20
155.1296514530327
 10
146.3139908001845
 20
155.3044901642492
 10
147.241066606852
 20
155.3044901642492
 10
148.3855280820469
 20
155.3044901642492
 10
149.4969166187653
 20
155.0752189084569
 10
150.0784491203092
 20
153.8172414621372
 10
150.5228667310863
 20
152.833838307127
 10
150.5414702589793
 20
152.7201500811143
 10
150.4140016419347
 20
150.7765981809602
 10
151.5818897818837
 20
152.7699317437168
 10
152.4424752018226
 20
153.6256940267945
 10
153.9038856707499
 20
154.4507949398263
 10
155.4455669174378
 20
155.3044901642492
 10
156.339225275853
 20
155.3659851592288
 10
157.3748216618963
 20
155.2147453676543
 10
158.911679771723
 20
154.9877134254046
 10
159.8859534176746
 20
154.4390816074493
 10
160.3965169054045
 20
152.7816450760939
 10
160.9070803931344
 20
151.1219692311958
 10
160.6328506116007
 20
150.2303779314354
 10
159.9992971339115
 20
147.597634224801
 10
159.7105979417943
 20
146.4014962832367
 10
159.2947746424084
 20
144.9400858143094
 10
158.7463150793409
 20
143.2092687007094
 10
158.7463150793409
 20
143.2092687007094
 10
153.9038856707499
 20
127.8027915271048
 10
153.9038856707499
 20
127.8027915271048
 10
153.9038856707499
 20
127.8027915271048
 10
151.3882752878863
 20
127.8027915271048
 10
151.3882752878863
 20
127.8027915271048
 10
151.3882752878863
 20
127.8027915271048
 10
155.6250565106276
 20
141.2751908193897
 10
155.6250565106276
 20
141.2751908193897
 10
156.5094131050963
 20
144.0936252951782
 10
157.109893644309
 20
146.1506931664571
 10
157.4220195011804
 20
147.4415712963654
 10
157.8095929989511
 20
149.0530157726519
 10
157.9656559273867
 20
149.5826995529385
 10
157.7816877071116
 20
150.7529992613181
 10
157.6111553680925
 20
151.8430281919372
 10
157.0582171779396
 20
152.5547853887321
 10
156.1170164704645
 20
152.5547853887321
 10
155.1096698860365
 20
152.5547853887321
 10
154.2962823053817
 20
152.4412694176073
 10
153.156643967048
 20
151.2945686288697
 10
152.0170056287143
 20
150.1476955852443
 10
151.076149431015
 20
148.7930831468137
 10
150.3337308641742
 20
147.2290087646991
 10
149.5957909244188
 20
145.6683794803425
 10
148.8530278478023
 20
143.6822806228776
 10
148.0964843801539
 20
141.2751908193897
 10
148.0964843801539
 20
141.2751908193897
 10
143.8552245303272
 20
127.8027915271048
 10
143.8552245303272
 20
127.8027915271048
 10
143.8552245303272
 20
127.8027915271048
 10
141.486030802177
 20
127.8027915271048
 10
141.486030802177
 20
127.8027915271048
 10
141.486030802177
 20
127.8027915271048
 10
146.3329388378533
 20
143.2092687007094
 10
146.3329388378533
 20
143.2092687007094
 10
146.8483254624444
 20
144.8408669988801
 10
147.2314203331297
 20
146.1837661049335
 10
147.4867020769946
 20
147.224185627838
 10
147.9169947869641
 20
149.0197705792876
 10
148.0306830129768
 20
150.2400242051577
 10
147.709255392159
 20
151.3157559800812
 10
147.3874832615654
 20
152.3916600098926
 10
146.8245542879144
 20
152.6683013598569
 10
145.8840425999909
 20
152.6683013598569
 10
145.0989048209514
 20
152.6683013598569
 10
144.3282364524954
 20
152.3275811915945
 10
143.4531816219731
 20
151.6538923250251
 10
142.34627171234
 20
150.8074318058939
 10
141.901854101563
 20
150.1097995099067
 10
141.3578731655808
 20
149.289521733736
 10
140.6299240093235
 20
148.192602607601
 10
140.2850697237515
 20
147.455696197173
 10
139.6652966370942
 20
145.8385673095858
 10
139.0506911970739
 20
144.2214384219986
 10
138.463991048893
 20
142.3252566160164
 10
138.0571250036777
 20
141.0154304484394
 10
138.0571250036777
 20
141.0154304484394
 10
133.9009590684727
 20
127.8027915271048
 10
133.9009590684727
 20
127.8027915271048
 10
133.9009590684727
 20
127.8027915271048
 10
131.4180771143097
 20
127.8027915271048
 10
131.4180771143097
 20
127.8027915271048
 10
131.4180771143097
 20
127.8027915271048
 10
139.8926730891197
 20
154.8294111834263
 10
139.8926730891197
 20
154.8294111834263
 97
        0
 75
     2
 76
     1
 98
        0
  0
SPLINE
  5
6AA
330
6A2
100
AcDbEntity
  8
LOGO
370
     0
100
AcDbSpline
210
0.0
220
0.0
230
1.0
 70
    11
 71
     3
 72
    29
 73
    25
 74
     0
 42
0.000000001
 43
0.0000000001
 40
0.0
 40
0.0
 40
0.0
 40
0.0
 40
1.0
 40
1.0
 40
1.0
 40
2.0
 40
2.0
 40
2.0
 40
3.0
 40
3.0
 40
3.0
 40
4.0
 40
4.0
 40
4.0
 40
5.0
 40
5.0
 40
5.0
 40
6.0
 40
6.0
 40
6.0
 40
7.0
 40
7.0
 40
7.0
 40
8.0
 40
8.0
 40
8.0
 40
8.0
 10
101.6420971922469
 20
132.8388354296931
 30
0.0
 10
101.630039350094
 20
134.7164137077823
 30
0.0
 10
102.2236296937908
 20
138.0598810818841
 30
0.0
 10
103.7487744712405
 20
142.5378191476827
 30
0.0
 10
105.819967243327
 20
148.5896501242061
 30
0.0
 10
107.0602024361932
 20
150.8074318058939
 30
0.0
 10
108.1522984254671
 20
151.8833358357054
 30
0.0
 10
109.741177511439
 20
153.4532668840085
 30
0.0
 10
111.8740375333931
 20
153.5290590346837
 30
0.0
 10
112.5075910110823
 20
153.4532668840085
 30
0.0
 10
113.4012493694975
 20
153.3490526768302
 30
0.0
 10
114.6683563248758
 20
152.7580461564518
 30
0.0
 10
114.7493161221879
 20
150.7838328862519
 30
0.0
 10
114.8106388622796
 20
149.0909118479895
 30
0.0
 10
114.3186789024427
 20
145.9191825971221
 30
0.0
 10
112.6164561002338
 20
140.9489400617108
 30
0.0
 10
110.6444821435766
 20
135.1746117095912
 30
0.0
 10
109.4669477299053
 20
132.8960240524753
 30
0.0
 10
108.5212683953448
 20
131.9072809959403
 30
0.0
 10
106.7346406980658
 20
130.0538184021569
 30
0.0
 10
104.8222669326213
 20
130.2336525051225
 30
0.0
 10
104.5408024457958
 20
130.2336525051225
 30
0.0
 10
104.1721769856939
 20
130.2336525051225
 30
0.0
 10
101.6465758193322
 20
130.6305277668397
 30
0.0
 10
101.6420971922469
 20
132.8388354296931
 30
0.0
  0
SPLINE
  5
6AB
330
6A2
100
AcDbEntity
  8
LOGO
370
     0
100
AcDbSpline
210
0.0
220
0.0
230
1.0
 70
    11
 71
     3
 72
    32
 73
    28
 74
     0
 42
0.000000001
 43
0.0000000001
 40
0.0
 40
0.0
 40
0.0
 40
0.0
 40
1.0
 40
1.0
 40
1.0
 40
2.0
 40
2.0
 40
2.0
 40
3.0
 40
3.0
 40
3.0
 40
4.0
 40
4.0
 40
4.0
 40
5.0
 40
5.0
 40
5.0
 40
6.0
 40
6.0
 40
6.0
 40
7.0
 40
7.0
 40
7.0
 40
8.0
 40
8.0
 40
8.0
 40
9.0
 40
9.0
 40
9.0
 40
9.0
 10
106.2595617172429
 20
153.4105476718098
 30
0.0
 10
104.8222669326213
 20
151.5474388043041
 30
0.0
 10
103.7177685914188
 20
149.8758773721411
 30
0.0
 10
101.9232171692965
 20
144.6141795664062
 30
0.0
 10
100.2754269116635
 20
139.7999999594306
 30
0.0
 10
99.22777268346732
 20
136.3052927937542
 30
0.0
 10
99.06964269637689
 20
132.039572749846
 30
0.0
 10
98.94665270641765
 20
128.8673267343149
 30
0.0
 10
100.8807305877373
 20
127.8027915271048
 30
0.0
 10
103.7129454545577
 20
127.8027915271048
 30
0.0
 10
104.9352661390825
 20
127.8027915271048
 30
0.0
 10
108.0151835347002
 20
127.8827177950895
 30
0.0
 10
110.2045431598849
 20
130.5926316915021
 30
0.0
 10
111.7417457794874
 20
132.4984597712065
 30
0.0
 10
113.155269389579
 20
134.475256864725
 30
0.0
 10
115.0562743324223
 20
140.9489400617108
 30
0.0
 10
116.6361961642235
 20
146.3680788349845
 30
0.0
 10
117.7282921534974
 20
149.8639917848761
 30
0.0
 10
117.6480213757369
 20
151.8595646611754
 30
0.0
 10
117.6480213757369
 20
151.8595646611754
 30
0.0
 10
117.6480213757369
 20
151.8595646611754
 30
0.0
 10
117.6480213757369
 20
151.8595646611754
 30
0.0
 10
117.13229024137
 20
155.18150017429
 30
0.0
 10
114.7162431837115
 20
155.886194920681
 30
0.0
 10
113.3351034925446
 20
155.886194920681
 30
0.0
 10
111.9829026225447
 20
155.886194920681
 30
0.0
 10
108.3414342923792
 20
156.1251124501957
 30
0.0
 10
106.2595617172429
 20
153.4105476718098
 30
0.0
  0
HATCH
  5
6AC
330
6A2
100
AcDbEntity
  8
LOGO
 62
   250
420
  2234388
100
AcDbHatch
 10
0.0
 20
0.0
 30
0.0
210
0.0
220
0.0
230
1.0
  2
SOLID
 70
     1
 71
     0
 91
        2
 92
        1
 93
        1
 72
     4
 94
        3
 73
     0
 74
     1
 95
       29
 96
       25
 40
0.0
 40
0.0
 40
0.0
 40
0.0
 40
1.0
 40
1.0
 40
1.0
 40
2.0
 40
2.0
 40
2.0
 40
3.0
 40
3.0
 40
3.0
 40
4.0
 40
4.0
 40
4.0
 40
5.0
 40
5.0
 40
5.0
 40
6.0
 40
6.0
 40
6.0
 40
7.0
 40
7.0
 40
7.0
 40
8.0
 40
8.0
 40
8.0
 40
8.0
 10
101.6420971922469
 20
132.8388354296931
 10
101.630039350094
 20
134.7164137077823
 10
102.2236296937908
 20
138.0598810818841
 10
103.7487744712405
 20
142.5378191476827
 10
105.819967243327
 20
148.5896501242061
 10
107.0602024361932
 20
150.8074318058939
 10
108.1522984254671
 20
151.8833358357054
 10
109.741177511439
 20
153.4532668840085
 10
111.8740375333931
 20
153.5290590346837
 10
112.5075910110823
 20
153.4532668840085
 10
113.4012493694975
 20
153.3490526768302
 10
114.6683563248758
 20
152.7580461564518
 10
114.7493161221879
 20
150.7838328862519
 10
114.8106388622796
 20
149.0909118479895
 10
114.3186789024427
 20
145.9191825971221
 10
112.6164561002338
 20
140.9489400617108
 10
110.6444821435766
 20
135.1746117095912
 10
109.4669477299053
 20
132.8960240524753
 10
108.5212683953448
 20
131.9072809959403
 10
106.7346406980658
 20
130.0538184021569
 10
104.8222669326213
 20
130.2336525051225
 10
104.5408024457958
 20
130.2336525051225
 10
104.1721769856939
 20
130.2336525051225
 10
101.6465758193322
 20
130.6305277668397
 10
101.6420971922469
 20
132.8388354296931
 97
        0
 92
        1
 93
        1
 72
     4
 94
        3
 73
     0
 74
     1
 95
       32
 96
       28
 40
0.0
 40
0.0
 40
0.0
 40
0.0
 40
1.0
 40
1.0
 40
1.0
 40
2.0
 40
2.0
 40
2.0
 40
3.0
 40
3.0
 40
3.0
 40
4.0
 40
4.0
 40
4.0
 40
5.0
 40
5.0
 40
5.0
 40
6.0
 40
6.0
 40
6.0
 40
7.0
 40
7.0
 40
7.0
 40
8.0
 40
8.0
 40
8.0
 40
9.0
 40
9.0
 40
9.0
 40
9.0
 10
106.2595617172429
 20
153.4105476718098
 10
104.8222669326213
 20
151.5474388043041
 10
103.7177685914188
 20
149.8758773721411
 10
101.9232171692965
 20
144.6141795664062
 10
100.2754269116635
 20
139.7999999594306
 10
99.22777268346732
 20
136.3052927937542
 10
99.06964269637689
 20
132.039572749846
 10
98.94665270641765
 20
128.8673267343149
 10
100.8807305877373
 20
127.8027915271048
 10
103.7129454545577
 20
127.8027915271048
 10
104.9352661390825
 20
127.8027915271048
 10
108.0151835347002
 20
127.8827177950895
 10
110.2045431598849
 20
130.5926316915021
 10
111.7417457794874
 20
132.4984597712065
 10
113.155269389579
 20
134.475256864725
 10
115.0562743324223
 20
140.9489400617108
 10
116.6361961642235
 20
146.3680788349845
 10
117.7282921534974
 20
149.8639917848761
 10
117.6480213757369
 20
151.8595646611754
 10
117.6480213757369
 20
151.8595646611754
 10
117.6480213757369
 20
151.8595646611754
 10
117.6480213757369
 20
151.8595646611754
 10
117.13229024137
 20
155.18150017429
 10
114.7162431837115
 20
155.886194920681
 10
113.3351034925446
 20
155.886194920681
 10
111.9829026225447
 20
155.886194920681
 10
108.3414342923792
 20
156.1251124501957
 10
106.2595617172429
 20
153.4105476718098
 97
        0
 75
     2
 76
     1
 98
        0
  0
ENDBLK
  5
6AD
330
6A2
100
AcDbEntity
  8
0
100
AcDbBlockEnd
  0
BLOCK
  5
199B
330
199A
100
AcDbEntity
  8
0
100
AcDbBlockBegin
  2
SEANNOT_GROUP
 70
     0
 10
0.0
 20
0.0
 30
0.0
  3
SEANNOT_GROUP
  1
SEANNOT_GROUP
  0
ENDBLK
  5
199C
330
199A
100
AcDbEntity
  8
0
100
AcDbBlockEnd
  0
BLOCK
  5
1F30
330
1F2F
100
AcDbEntity
  8
0
100
AcDbBlockBegin
  2
SEANNOT_GROUP1
 70
     0
 10
0.0
 20
0.0
 30
0.0
  3
SEANNOT_GROUP1
  1
SEANNOT_GROUP1
  0
ENDBLK
  5
1F31
330
1F2F
100
AcDbEntity
  8
0
100
AcDbBlockEnd
  0
BLOCK
  5
35B0
330
35AF
100
AcDbEntity
  8
0
100
AcDbBlockBegin
  2
*D150
 70
     1
 10
0.0
 20
0.0
 30
0.0
  3
*D150
  1

  0
LINE
  5
35B2
330
35AF
100
AcDbEntity
  8
DIM
  6
Continuous
 62
     0
370
    -2
100
AcDbLine
 10
725.2840749835923
 20
1534.490644404527
 30
0.0
 11
558.5474967231685
 21
1534.490644404527
 31
0.0
  0
LINE
  5
35B3
330
35AF
100
AcDbEntity
  8
DIM
  6
Continuous
 62
     0
370
    -2
100
AcDbLine
 10
725.2840749835923
 20
694.5100719424458
 30
0.0
 11
558.5474967231685
 21
694.5100719424458
 31
0.0
  0
LINE
  5
35B4
330
35AF
100
AcDbEntity
  8
DIM
  6
Continuous
 62
     0
370
    -2
100
AcDbLine
 10
558.5474967231685
 20
1524.490644404527
 30
0.0
 11
558.5474967231685
 21
704.5100719424458
 31
0.0
  0
INSERT
  5
35B5
330
35AF
100
AcDbEntity
  8
DIM
 62
     0
370
    -2
100
AcDbBlockReference
  2
_DOT
 10
558.5474967231685
 20
1534.490644404527
 30
0.0
 41
10.0
 42
10.0
 43
10.0
 50
90.0
  0
INSERT
  5
35B6
330
35AF
100
AcDbEntity
  8
DIM
 62
     0
370
    -2
100
AcDbBlockReference
  2
_DOT
 10
558.5474967231685
 20
694.5100719424458
 30
0.0
 41
10.0
 42
10.0
 43
10.0
 50
270.0
  0
MTEXT
  5
35B7
330
35AF
100
AcDbEntity
  8
DIM
 62
     0
100
AcDbMText
 10
536.5474967231685
 20
1114.500358173486
 30
0.0
 40
24.0
 41
0.0
 46
0.0
 71
     5
 72
     1
  1
\A1;840
  7
ＭＳ ゴシック
 11
0.0
 21
1.0
 31
0.0
 73
     1
 44
1.0
  0
POINT
  5
35B8
330
35AF
100
AcDbEntity
  8
Defpoints
 62
     0
100
AcDbPoint
 10
755.2840749835923
 20
1534.490644404527
 30
0.0
  0
POINT
  5
35B9
330
35AF
100
AcDbEntity
  8
Defpoints
 62
     0
100
AcDbPoint
 10
755.2840749835923
 20
694.5100719424458
 30
0.0
  0
POINT
  5
35BA
330
35AF
100
AcDbEntity
  8
Defpoints
 62
     0
100
AcDbPoint
 10
558.5474967231685
 20
694.5100719424458
 30
0.0
  0
ENDBLK
  5
35B1
330
35AF
100
AcDbEntity
  8
0
100
AcDbBlockEnd
  0
BLOCK
  5
35BC
330
35BB
100
AcDbEntity
  8
0
100
AcDbBlockBegin
  2
*D151
 70
     1
 10
0.0
 20
0.0
 30
0.0
  3
*D151
  1

  0
LINE
  5
35BE
330
35BB
100
AcDbEntity
  8
DIM
  6
Continuous
 62
     0
370
    -2
100
AcDbLine
 10
648.6985500718893
 20
1566.177280876448
 30
0.0
 11
648.6985500718893
 21
1682.793179170035
 31
0.0
  0
LINE
  5
35BF
330
35BB
100
AcDbEntity
  8
DIM
  6
Continuous
 62
     0
370
    -2
100
AcDbLine
 10
1028.69855007189
 20
1566.177280876448
 30
0.0
 11
1028.69855007189
 21
1682.793179170035
 31
0.0
  0
LINE
  5
35C0
330
35BB
100
AcDbEntity
  8
DIM
  6
Continuous
 62
     0
370
    -2
100
AcDbLine
 10
658.6985500718893
 20
1682.793179170035
 30
0.0
 11
1018.69855007189
 21
1682.793179170035
 31
0.0
  0
INSERT
  5
35C1
330
35BB
100
AcDbEntity
  8
DIM
 62
     0
370
    -2
100
AcDbBlockReference
  2
_DOT
 10
648.6985500718893
 20
1682.793179170035
 30
0.0
 41
10.0
 42
10.0
 43
10.0
 50
180.0
  0
INSERT
  5
35C2
330
35BB
100
AcDbEntity
  8
DIM
 62
     0
370
    -2
100
AcDbBlockReference
  2
_DOT
 10
1028.69855007189
 20
1682.793179170035
 30
0.0
 41
10.0
 42
10.0
 43
10.0
  0
MTEXT
  5
35C3
330
35BB
100
AcDbEntity
  8
DIM
 62
     0
100
AcDbMText
 10
838.6985500718896
 20
1704.793179170035
 30
0.0
 40
24.0
 41
0.0
 46
0.0
 71
     5
 72
     1
  1
\A1;380
  7
ＭＳ ゴシック
 73
     1
 44
1.0
  0
POINT
  5
35C4
330
35BB
100
AcDbEntity
  8
Defpoints
 62
     0
100
AcDbPoint
 10
648.6985500718893
 20
1536.177280876448
 30
0.0
  0
POINT
  5
35C5
330
35BB
100
AcDbEntity
  8
Defpoints
 62
     0
100
AcDbPoint
 10
1028.69855007189
 20
1536.177280876448
 30
0.0
  0
POINT
  5
35C6
330
35BB
100
AcDbEntity
  8
Defpoints
 62
     0
100
AcDbPoint
 10
1028.69855007189
 20
1682.793179170035
 30
0.0
  0
ENDBLK
  5
35BD
330
35BB
100
AcDbEntity
  8
0
100
AcDbBlockEnd
  0
BLOCK
  5
35C8
330
35C7
100
AcDbEntity
  8
0
100
AcDbBlockBegin
  2
*D152
 70
     1
 10
0.0
 20
0.0
 30
0.0
  3
*D152
  1

  0
LINE
  5
35CA
330
35C7
100
AcDbEntity
  8
DIM
  6
Continuous
 62
     0
370
    -2
100
AcDbLine
 10
1586.471366576747
 20
694.5965880843369
 30
0.0
 11
1877.887880262496
 21
694.5965880843369
 31
0.0
  0
LINE
  5
35CB
330
35C7
100
AcDbEntity
  8
DIM
  6
Continuous
 62
     0
370
    -2
100
AcDbLine
 10
1845.598279837384
 20
974.5965880843369
 30
0.0
 11
1877.887880262496
 21
974.5965880843369
 31
0.0
  0
LINE
  5
35CC
330
35C7
100
AcDbEntity
  8
DIM
  6
Continuous
 62
     0
370
    -2
100
AcDbLine
 10
1877.887880262496
 20
704.5965880843369
 30
0.0
 11
1877.887880262496
 21
964.5965880843369
 31
0.0
  0
INSERT
  5
35CD
330
35C7
100
AcDbEntity
  8
DIM
 62
     0
370
    -2
100
AcDbBlockReference
  2
_DOT
 10
1877.887880262496
 20
694.5965880843369
 30
0.0
 41
10.0
 42
10.0
 43
10.0
 50
270.0
  0
INSERT
  5
35CE
330
35C7
100
AcDbEntity
  8
DIM
 62
     0
370
    -2
100
AcDbBlockReference
  2
_DOT
 10
1877.887880262496
 20
974.5965880843369
 30
0.0
 41
10.0
 42
10.0
 43
10.0
 50
90.0
  0
MTEXT
  5
35CF
330
35C7
100
AcDbEntity
  8
DIM
 62
     0
100
AcDbMText
 10
1855.887880262496
 20
834.5965880843369
 30
0.0
 40
24.0
 41
0.0
 46
0.0
 71
     5
 72
     1
  1
\A1;280
  7
ＭＳ ゴシック
 11
0.0
 21
1.0
 31
0.0
 73
     1
 44
1.0
  0
POINT
  5
35D0
330
35C7
100
AcDbEntity
  8
Defpoints
 62
     0
100
AcDbPoint
 10
1556.471366576747
 20
694.5965880843369
 30
0.0
  0
POINT
  5
35D1
330
35C7
100
AcDbEntity
  8
Defpoints
 62
     0
100
AcDbPoint
 10
1815.598279837384
 20
974.5965880843369
 30
0.0
  0
POINT
  5
35D2
330
35C7
100
AcDbEntity
  8
Defpoints
 62
     0
100
AcDbPoint
 10
1877.887880262496
 20
974.5965880843369
 30
0.0
  0
ENDBLK
  5
35C9
330
35C7
100
AcDbEntity
  8
0
100
AcDbBlockEnd
  0
BLOCK
  5
35D4
330
35D3
100
AcDbEntity
  8
0
100
AcDbBlockBegin
  2
*D153
 70
     1
 10
0.0
 20
0.0
 30
0.0
  3
*D153
  1

  0
LINE
  5
35D6
330
35D3
100
AcDbEntity
  8
DIM
  6
Continuous
 62
     0
370
    -2
100
AcDbLine
 10
1523.452539499723
 20
1564.490644404527
 30
0.0
 11
1523.452539499723
 21
1709.78585943874
 31
0.0
  0
LINE
  5
35D7
330
35D3
100
AcDbEntity
  8
DIM
  6
Continuous
 62
     0
370
    -2
100
AcDbLine
 10
1633.452539499723
 20
1044.78672085991
 30
0.0
 11
1633.452539499723
 21
1709.78585943874
 31
0.0
  0
LINE
  5
35D8
330
35D3
100
AcDbEntity
  8
DIM
  6
Continuous
 62
     0
370
    -2
100
AcDbLine
 10
1533.452539499723
 20
1709.78585943874
 30
0.0
 11
1623.452539499723
 21
1709.78585943874
 31
0.0
  0
INSERT
  5
35D9
330
35D3
100
AcDbEntity
  8
DIM
 62
     0
370
    -2
100
AcDbBlockReference
  2
_DOT
 10
1523.452539499723
 20
1709.78585943874
 30
0.0
 41
10.0
 42
10.0
 43
10.0
 50
180.0
  0
INSERT
  5
35DA
330
35D3
100
AcDbEntity
  8
DIM
 62
     0
370
    -2
100
AcDbBlockReference
  2
_DOT
 10
1633.452539499723
 20
1709.78585943874
 30
0.0
 41
10.0
 42
10.0
 43
10.0
  0
MTEXT
  5
35DB
330
35D3
100
AcDbEntity
  8
DIM
 62
     0
100
AcDbMText
 10
1578.452539499723
 20
1731.78585943874
 30
0.0
 40
24.0
 41
0.0
 46
0.0
 71
     5
 72
     1
  1
\A1;110
  7
ＭＳ ゴシック
 73
     1
 44
1.0
  0
POINT
  5
35DC
330
35D3
100
AcDbEntity
  8
Defpoints
 62
     0
100
AcDbPoint
 10
1523.452539499723
 20
1534.490644404527
 30
0.0
  0
POINT
  5
35DD
330
35D3
100
AcDbEntity
  8
Defpoints
 62
     0
100
AcDbPoint
 10
1633.452539499723
 20
1014.78672085991
 30
0.0
  0
POINT
  5
35DE
330
35D3
100
AcDbEntity
  8
Defpoints
 62
     0
100
AcDbPoint
 10
1633.452539499723
 20
1709.78585943874
 30
0.0
  0
ENDBLK
  5
35D5
330
35D3
100
AcDbEntity
  8
0
100
AcDbBlockEnd
  0
BLOCK
  5
35E0
330
35DF
100
AcDbEntity
  8
0
100
AcDbBlockBegin
  2
*D154
 70
     1
 10
0.0
 20
0.0
 30
0.0
  3
*D154
  1

  0
LINE
  5
35E2
330
35DF
100
AcDbEntity
  8
DIM
  6
Continuous
 62
     0
370
    -2
100
AcDbLine
 10
1523.452539499723
 20
1564.569441744921
 30
0.0
 11
1523.452539499723
 21
1649.297479704525
 31
0.0
  0
LINE
  5
35E3
330
35DF
100
AcDbEntity
  8
DIM
  6
Continuous
 62
     0
370
    -2
100
AcDbLine
 10
1613.452539499723
 20
1195.39044183081
 30
0.0
 11
1613.452539499723
 21
1649.297479704525
 31
0.0
  0
LINE
  5
35E4
330
35DF
100
AcDbEntity
  8
DIM
  6
Continuous
 62
     0
370
    -2
100
AcDbLine
 10
1533.452539499723
 20
1649.297479704525
 30
0.0
 11
1603.452539499723
 21
1649.297479704525
 31
0.0
  0
INSERT
  5
35E5
330
35DF
100
AcDbEntity
  8
DIM
 62
     0
370
    -2
100
AcDbBlockReference
  2
_DOT
 10
1523.452539499723
 20
1649.297479704525
 30
0.0
 41
10.0
 42
10.0
 43
10.0
 50
180.0
  0
INSERT
  5
35E6
330
35DF
100
AcDbEntity
  8
DIM
 62
     0
370
    -2
100
AcDbBlockReference
  2
_DOT
 10
1613.452539499723
 20
1649.297479704525
 30
0.0
 41
10.0
 42
10.0
 43
10.0
  0
MTEXT
  5
35E7
330
35DF
100
AcDbEntity
  8
DIM
 62
     0
100
AcDbMText
 10
1568.452539499723
 20
1671.297479704525
 30
0.0
 40
24.0
 41
0.0
 46
0.0
 71
     5
 72
     1
  1
\A1;90
  7
ＭＳ ゴシック
 73
     1
 44
1.0
  0
POINT
  5
35E8
330
35DF
100
AcDbEntity
  8
Defpoints
 62
     0
100
AcDbPoint
 10
1523.452539499723
 20
1534.569441744921
 30
0.0
  0
POINT
  5
35E9
330
35DF
100
AcDbEntity
  8
Defpoints
 62
     0
100
AcDbPoint
 10
1613.452539499723
 20
1165.39044183081
 30
0.0
  0
POINT
  5
35EA
330
35DF
100
AcDbEntity
  8
Defpoints
 62
     0
100
AcDbPoint
 10
1613.452539499723
 20
1649.297479704525
 30
0.0
  0
ENDBLK
  5
35E1
330
35DF
100
AcDbEntity
  8
0
100
AcDbBlockEnd
  0
BLOCK
  5
35EC
330
35EB
100
AcDbEntity
  8
0
100
AcDbBlockBegin
  2
*D155
 70
     1
 10
0.0
 20
0.0
 30
0.0
  3
*D155
  1

  0
LINE
  5
35EE
330
35EB
100
AcDbEntity
  8
DIM
  6
Continuous
 62
     0
370
    -2
100
AcDbLine
 10
1643.940096357345
 20
2395.932361361355
 30
0.0
 11
1770.551236148342
 21
2395.932361361355
 31
0.0
  0
LINE
  5
35EF
330
35EB
100
AcDbEntity
  8
DIM
  6
Continuous
 62
     0
370
    -2
100
AcDbLine
 10
1718.203134588054
 20
2338.932361361355
 30
0.0
 11
1770.551236148342
 21
2338.932361361355
 31
0.0
  0
LINE
  5
35F0
330
35EB
100
AcDbEntity
  8
DIM
  6
Continuous
 62
     0
370
    -2
100
AcDbLine
 10
1770.551236148342
 20
2385.932361361355
 30
0.0
 11
1770.551236148342
 21
2348.932361361355
 31
0.0
  0
INSERT
  5
35F1
330
35EB
100
AcDbEntity
  8
DIM
 62
     0
370
    -2
100
AcDbBlockReference
  2
_DOT
 10
1770.551236148342
 20
2395.932361361355
 30
0.0
 41
10.0
 42
10.0
 43
10.0
 50
90.0
  0
INSERT
  5
35F2
330
35EB
100
AcDbEntity
  8
DIM
 62
     0
370
    -2
100
AcDbBlockReference
  2
_DOT
 10
1770.551236148342
 20
2338.932361361355
 30
0.0
 41
10.0
 42
10.0
 43
10.0
 50
270.0
  0
MTEXT
  5
35F3
330
35EB
100
AcDbEntity
  8
DIM
 62
     0
100
AcDbMText
 10
1748.551236148342
 20
2367.432361361355
 30
0.0
 40
24.0
 41
0.0
 46
0.0
 71
     5
 72
     1
  1
\A1;57
  7
ＭＳ ゴシック
 11
0.0
 21
1.0
 31
0.0
 73
     1
 44
1.0
  0
POINT
  5
35F4
330
35EB
100
AcDbEntity
  8
Defpoints
 62
     0
100
AcDbPoint
 10
1613.940096357345
 20
2395.932361361355
 30
0.0
  0
POINT
  5
35F5
330
35EB
100
AcDbEntity
  8
Defpoints
 62
     0
100
AcDbPoint
 10
1688.203134588054
 20
2338.932361361355
 30
0.0
  0
POINT
  5
35F6
330
35EB
100
AcDbEntity
  8
Defpoints
 62
     0
100
AcDbPoint
 10
1770.551236148342
 20
2338.932361361355
 30
0.0
  0
ENDBLK
  5
35ED
330
35EB
100
AcDbEntity
  8
0
100
AcDbBlockEnd
  0
BLOCK
  5
35F8
330
35F7
100
AcDbEntity
  8
0
100
AcDbBlockBegin
  2
*D156
 70
     1
 10
0.0
 20
0.0
 30
0.0
  3
*D156
  1

  0
LINE
  5
35FA
330
35F7
100
AcDbEntity
  8
DIM
  6
Continuous
 62
     0
370
    -2
100
AcDbLine
 10
1523.452539499723
 20
2300.664202753995
 30
0.0
 11
1354.740412826006
 21
2300.664202753995
 31
0.0
  0
LINE
  5
35FB
330
35F7
100
AcDbEntity
  8
DIM
  6
Continuous
 62
     0
370
    -2
100
AcDbLine
 10
1533.452539499723
 20
2300.664202753995
 30
0.0
 11
1584.452539499723
 21
2300.664202753995
 31
0.0
  0
LINE
  5
35FC
330
35F7
100
AcDbEntity
  8
DIM
  6
Continuous
 62
     0
370
    -2
100
AcDbLine
 10
1533.452539499723
 20
2300.664202753995
 30
0.0
 11
1543.452539499723
 21
2300.664202753995
 31
0.0
  0
INSERT
  5
35FD
330
35F7
100
AcDbEntity
  8
DIM
 62
     0
370
    -2
100
AcDbBlockReference
  2
_DOT
 10
1523.452539499723
 20
2300.664202753995
 30
0.0
 41
10.0
 42
10.0
 43
10.0
 50
180.0
  0
INSERT
  5
35FE
330
35F7
100
AcDbEntity
  8
DIM
 62
     0
370
    -2
100
AcDbBlockReference
  2
_DOT
 10
1594.452539499723
 20
2300.664202753995
 30
0.0
 41
10.0
 42
10.0
 43
10.0
  0
MTEXT
  5
35FF
330
35F7
100
AcDbEntity
  8
DIM
 62
     0
100
AcDbMText
 10
1422.508412826006
 20
2324.788202753995
 30
0.0
 40
24.0
 41
0.0
 46
0.0
 71
     5
 72
     1
  1
\A1;71(深さ)
  7
ＭＳ ゴシック
 73
     1
 44
1.0
  0
POINT
  5
3600
330
35F7
100
AcDbEntity
  8
Defpoints
 62
     0
100
AcDbPoint
 10
1523.452539499723
 20
2323.165903121959
 30
0.0
  0
POINT
  5
3601
330
35F7
100
AcDbEntity
  8
Defpoints
 62
     0
100
AcDbPoint
 10
1594.452539499723
 20
2313.828412861025
 30
0.0
  0
POINT
  5
3602
330
35F7
100
AcDbEntity
  8
Defpoints
 62
     0
100
AcDbPoint
 10
1594.452539499723
 20
2300.664202753995
 30
0.0
  0
ENDBLK
  5
35F9
330
35F7
100
AcDbEntity
  8
0
100
AcDbBlockEnd
  0
BLOCK
  5
3604
330
3603
100
AcDbEntity
  8
0
100
AcDbBlockBegin
  2
*D157
 70
     1
 10
0.0
 20
0.0
 30
0.0
  3
*D157
  1

  0
LINE
  5
3606
330
3603
100
AcDbEntity
  8
DIM
  6
Continuous
 62
     0
370
    -2
100
AcDbLine
 10
519.8135973783769
 20
1994.990655285753
 30
0.0
 11
489.6418653939249
 21
1994.990655285753
 31
0.0
  0
LINE
  5
3607
330
3603
100
AcDbEntity
  8
DIM
  6
Continuous
 62
     0
370
    -2
100
AcDbLine
 10
643.6561669541991
 20
2294.990655285753
 30
0.0
 11
489.6418653939249
 21
2294.990655285753
 31
0.0
  0
LINE
  5
3608
330
3603
100
AcDbEntity
  8
DIM
  6
Continuous
 62
     0
370
    -2
100
AcDbLine
 10
489.6418653939249
 20
2004.990655285753
 30
0.0
 11
489.6418653939249
 21
2284.990655285753
 31
0.0
  0
INSERT
  5
3609
330
3603
100
AcDbEntity
  8
DIM
 62
     0
370
    -2
100
AcDbBlockReference
  2
_DOT
 10
489.6418653939249
 20
1994.990655285753
 30
0.0
 41
10.0
 42
10.0
 43
10.0
 50
270.0
  0
INSERT
  5
360A
330
3603
100
AcDbEntity
  8
DIM
 62
     0
370
    -2
100
AcDbBlockReference
  2
_DOT
 10
489.6418653939249
 20
2294.990655285753
 30
0.0
 41
10.0
 42
10.0
 43
10.0
 50
90.0
  0
MTEXT
  5
360B
330
3603
100
AcDbEntity
  8
DIM
 62
     0
100
AcDbMText
 10
467.6418653939249
 20
2144.990655285753
 30
0.0
 40
24.0
 41
0.0
 46
0.0
 71
     5
 72
     1
  1
\A1;300
  7
ＭＳ ゴシック
 11
0.0
 21
1.0
 31
0.0
 73
     1
 44
1.0
  0
POINT
  5
360C
330
3603
100
AcDbEntity
  8
Defpoints
 62
     0
100
AcDbPoint
 10
549.8135973783769
 20
1994.990655285753
 30
0.0
  0
POINT
  5
360D
330
3603
100
AcDbEntity
  8
Defpoints
 62
     0
100
AcDbPoint
 10
673.6561669541991
 20
2294.990655285753
 30
0.0
  0
POINT
  5
360E
330
3603
100
AcDbEntity
  8
Defpoints
 62
     0
100
AcDbPoint
 10
489.6418653939249
 20
2294.990655285753
 30
0.0
  0
ENDBLK
  5
3605
330
3603
100
AcDbEntity
  8
0
100
AcDbBlockEnd
  0
BLOCK
  5
3610
330
360F
100
AcDbEntity
  8
0
100
AcDbBlockBegin
  2
*D158
 70
     1
 10
0.0
 20
0.0
 30
0.0
  3
*D158
  1

  0
LINE
  5
3612
330
360F
100
AcDbEntity
  8
DIM
  6
Continuous
 62
     0
370
    -2
100
AcDbLine
 10
1643.452543076004
 20
2386.790592101188
 30
0.0
 11
1702.366648052032
 21
2386.790592101188
 31
0.0
  0
LINE
  5
3613
330
360F
100
AcDbEntity
  8
DIM
  6
Continuous
 62
     0
370
    -2
100
AcDbLine
 10
1643.452543076004
 20
2290.790591683956
 30
0.0
 11
1702.366648052032
 21
2290.790591683956
 31
0.0
  0
LINE
  5
3614
330
360F
100
AcDbEntity
  8
DIM
  6
Continuous
 62
     0
370
    -2
100
AcDbLine
 10
1702.366648052032
 20
2376.790592101188
 30
0.0
 11
1702.366648052032
 21
2300.790591683956
 31
0.0
  0
INSERT
  5
3615
330
360F
100
AcDbEntity
  8
DIM
 62
     0
370
    -2
100
AcDbBlockReference
  2
_DOT
 10
1702.366648052032
 20
2386.790592101188
 30
0.0
 41
10.0
 42
10.0
 43
10.0
 50
90.0
  0
INSERT
  5
3616
330
360F
100
AcDbEntity
  8
DIM
 62
     0
370
    -2
100
AcDbBlockReference
  2
_DOT
 10
1702.366648052032
 20
2290.790591683956
 30
0.0
 41
10.0
 42
10.0
 43
10.0
 50
270.0
  0
MTEXT
  5
3617
330
360F
100
AcDbEntity
  8
DIM
 62
     0
100
AcDbMText
 10
1680.366648052032
 20
2338.790591892572
 30
0.0
 40
24.0
 41
0.0
 46
0.0
 71
     5
 72
     1
  1
\A1;96
  7
ＭＳ ゴシック
 11
0.0
 21
1.0
 31
0.0
 73
     1
 44
1.0
  0
POINT
  5
3618
330
360F
100
AcDbEntity
  8
Defpoints
 62
     0
100
AcDbPoint
 10
1613.452543076004
 20
2386.790592101188
 30
0.0
  0
POINT
  5
3619
330
360F
100
AcDbEntity
  8
Defpoints
 62
     0
100
AcDbPoint
 10
1613.452543076004
 20
2290.790591683956
 30
0.0
  0
POINT
  5
361A
330
360F
100
AcDbEntity
  8
Defpoints
 62
     0
100
AcDbPoint
 10
1702.366648052032
 20
2290.790591683956
 30
0.0
  0
ENDBLK
  5
3611
330
360F
100
AcDbEntity
  8
0
100
AcDbBlockEnd
  0
BLOCK
  5
361C
330
361B
100
AcDbEntity
  8
0
100
AcDbBlockBegin
  2
*D159
 70
     1
 10
0.0
 20
0.0
 30
0.0
  3
*D159
  1

  0
LINE
  5
361E
330
361B
100
AcDbEntity
  8
DIM
 62
     0
 48
0.05
370
    -2
100
AcDbLine
 10
1645.90172180959
 20
950.3986652665416
 30
0.0
 11
1673.080434556775
 21
950.3986652665416
 31
0.0
  0
LINE
  5
361F
330
361B
100
AcDbEntity
  8
DIM
 62
     0
 48
0.05
370
    -2
100
AcDbLine
 10
1645.90172180959
 20
997.3613317377002
 30
0.0
 11
1673.080434556775
 21
997.3613317377002
 31
0.0
  0
LINE
  5
3620
330
361B
100
AcDbEntity
  8
DIM
 62
     0
 48
0.05
370
    -2
100
AcDbLine
 10
1673.080434556775
 20
960.3986652665416
 30
0.0
 11
1673.080434556775
 21
987.3613317377002
 31
0.0
  0
INSERT
  5
3621
330
361B
100
AcDbEntity
  8
DIM
 62
     0
370
    -2
100
AcDbBlockReference
  2
_DOT
 10
1673.080434556775
 20
950.3986652665416
 30
0.0
 41
10.0
 42
10.0
 43
10.0
 50
270.0
  0
INSERT
  5
3622
330
361B
100
AcDbEntity
  8
DIM
 62
     0
370
    -2
100
AcDbBlockReference
  2
_DOT
 10
1673.080434556775
 20
997.3613317377002
 30
0.0
 41
10.0
 42
10.0
 43
10.0
 50
90.0
  0
MTEXT
  5
3623
330
361B
100
AcDbEntity
  8
DIM
 62
     0
100
AcDbMText
 10
1697.636434556775
 20
973.8799985021209
 30
0.0
 40
24.0
 41
0.0
 46
0.0
 71
     5
 72
     1
  1
\A1;G1 1/4"
  7
ＭＳ ゴシック
 11
0.0
 21
1.0
 31
0.0
 73
     1
 44
1.0
  0
POINT
  5
3624
330
361B
100
AcDbEntity
  8
Defpoints
 62
     0
100
AcDbPoint
 10
1615.90172180959
 20
950.3986652665416
 30
0.0
  0
POINT
  5
3625
330
361B
100
AcDbEntity
  8
Defpoints
 62
     0
100
AcDbPoint
 10
1615.90172180959
 20
997.3613317377002
 30
0.0
  0
POINT
  5
3626
330
361B
100
AcDbEntity
  8
Defpoints
 62
     0
100
AcDbPoint
 10
1673.080434556775
 20
997.3613317377002
 30
0.0
  0
ENDBLK
  5
361D
330
361B
100
AcDbEntity
  8
0
100
AcDbBlockEnd
  0
BLOCK
  5
3628
330
3627
100
AcDbEntity
  8
0
100
AcDbBlockBegin
  2
*D160
 70
     1
 10
0.0
 20
0.0
 30
0.0
  3
*D160
  1

  0
LINE
  5
362A
330
3627
100
AcDbEntity
  8
DIM
 62
     0
 48
0.05
370
    -2
100
AcDbLine
 10
1643.452543076004
 20
812.0100790950028
 30
0.0
 11
1790.607082655581
 21
812.0100790950028
 31
0.0
  0
LINE
  5
362B
330
3627
100
AcDbEntity
  8
DIM
 62
     0
 48
0.05
370
    -2
100
AcDbLine
 10
1643.452543076004
 20
1137.010079095002
 30
0.0
 11
1790.607082655581
 21
1137.010079095002
 31
0.0
  0
LINE
  5
362C
330
3627
100
AcDbEntity
  8
DIM
 62
     0
 48
0.05
370
    -2
100
AcDbLine
 10
1790.607082655581
 20
822.0100790950028
 30
0.0
 11
1790.607082655581
 21
1127.010079095002
 31
0.0
  0
INSERT
  5
362D
330
3627
100
AcDbEntity
  8
DIM
 62
     0
370
    -2
100
AcDbBlockReference
  2
_DOT
 10
1790.607082655581
 20
812.0100790950028
 30
0.0
 41
10.0
 42
10.0
 43
10.0
 50
270.0
  0
INSERT
  5
362E
330
3627
100
AcDbEntity
  8
DIM
 62
     0
370
    -2
100
AcDbBlockReference
  2
_DOT
 10
1790.607082655581
 20
1137.010079095002
 30
0.0
 41
10.0
 42
10.0
 43
10.0
 50
90.0
  0
MTEXT
  5
362F
330
3627
100
AcDbEntity
  8
DIM
 62
     0
100
AcDbMText
 10
1768.607082655581
 20
974.5100790950024
 30
0.0
 40
24.0
 41
0.0
 46
0.0
 71
     5
 72
     1
  1
\A1;325
  7
ＭＳ ゴシック
 11
0.0
 21
1.0
 31
0.0
 73
     1
 44
1.0
  0
POINT
  5
3630
330
3627
100
AcDbEntity
  8
Defpoints
 62
     0
100
AcDbPoint
 10
1613.452543076004
 20
812.0100790950028
 30
0.0
  0
POINT
  5
3631
330
3627
100
AcDbEntity
  8
Defpoints
 62
     0
100
AcDbPoint
 10
1613.452543076004
 20
1137.010079095002
 30
0.0
  0
POINT
  5
3632
330
3627
100
AcDbEntity
  8
Defpoints
 62
     0
100
AcDbPoint
 10
1790.607082655581
 20
1137.010079095002
 30
0.0
  0
ENDBLK
  5
3629
330
3627
100
AcDbEntity
  8
0
100
AcDbBlockEnd
  0
BLOCK
  5
3634
330
3633
100
AcDbEntity
  8
0
100
AcDbBlockBegin
  2
*D161
 70
     1
 10
0.0
 20
0.0
 30
0.0
  3
*D161
  1

  0
LINE
  5
3636
330
3633
100
AcDbEntity
  8
DIM
 62
     0
 48
0.05
370
    -2
100
AcDbLine
 10
640.8393495584482
 20
2144.990655285753
 30
0.0
 11
577.1736368669954
 21
2144.990655285753
 31
0.0
  0
LINE
  5
3637
330
3633
100
AcDbEntity
  8
DIM
 62
     0
 48
0.05
370
    -2
100
AcDbLine
 10
739.3413913532927
 20
1864.990655285753
 30
0.0
 11
577.1736368669954
 21
1864.990655285753
 31
0.0
  0
LINE
  5
3638
330
3633
100
AcDbEntity
  8
DIM
 62
     0
 48
0.05
370
    -2
100
AcDbLine
 10
577.1736368669954
 20
2134.990655285753
 30
0.0
 11
577.1736368669954
 21
1874.990655285753
 31
0.0
  0
INSERT
  5
3639
330
3633
100
AcDbEntity
  8
DIM
 62
     0
370
    -2
100
AcDbBlockReference
  2
_DOT
 10
577.1736368669954
 20
2144.990655285753
 30
0.0
 41
10.0
 42
10.0
 43
10.0
 50
90.0
  0
INSERT
  5
363A
330
3633
100
AcDbEntity
  8
DIM
 62
     0
370
    -2
100
AcDbBlockReference
  2
_DOT
 10
577.1736368669954
 20
1864.990655285753
 30
0.0
 41
10.0
 42
10.0
 43
10.0
 50
270.0
  0
MTEXT
  5
363B
330
3633
100
AcDbEntity
  8
DIM
 62
     0
100
AcDbMText
 10
555.1736368669954
 20
2004.990655285753
 30
0.0
 40
24.0
 41
0.0
 46
0.0
 71
     5
 72
     1
  1
\A1;280
  7
ＭＳ ゴシック
 11
0.0
 21
1.0
 31
0.0
 73
     1
 44
1.0
  0
POINT
  5
363C
330
3633
100
AcDbEntity
  8
Defpoints
 62
     0
100
AcDbPoint
 10
670.8393495584482
 20
2144.990655285753
 30
0.0
  0
POINT
  5
363D
330
3633
100
AcDbEntity
  8
Defpoints
 62
     0
100
AcDbPoint
 10
769.3413913532927
 20
1864.990655285753
 30
0.0
  0
POINT
  5
363E
330
3633
100
AcDbEntity
  8
Defpoints
 62
     0
100
AcDbPoint
 10
577.1736368669954
 20
1864.990655285753
 30
0.0
  0
ENDBLK
  5
3635
330
3633
100
AcDbEntity
  8
0
100
AcDbBlockEnd
  0
BLOCK
  5
3640
330
363F
100
AcDbEntity
  8
0
100
AcDbBlockBegin
  2
*D162
 70
     1
 10
0.0
 20
0.0
 30
0.0
  3
*D162
  1

  0
LINE
  5
3642
330
363F
100
AcDbEntity
  8
DIM
 62
     0
 48
0.05
370
    -2
100
AcDbLine
 10
648.6822926452994
 20
2104.299845443934
 30
0.0
 11
648.6822926452994
 21
1887.730951435908
 31
0.0
  0
LINE
  5
3643
330
363F
100
AcDbEntity
  8
DIM
 62
     0
 48
0.05
370
    -2
100
AcDbLine
 10
705.6822926452994
 20
2104.299845443934
 30
0.0
 11
705.6822926452994
 21
1887.730951435908
 31
0.0
  0
LINE
  5
3644
330
363F
100
AcDbEntity
  8
DIM
 62
     0
 48
0.05
370
    -2
100
AcDbLine
 10
658.6822926452994
 20
1887.730951435908
 30
0.0
 11
695.6822926452994
 21
1887.730951435908
 31
0.0
  0
INSERT
  5
3645
330
363F
100
AcDbEntity
  8
DIM
 62
     0
370
    -2
100
AcDbBlockReference
  2
_DOT
 10
648.6822926452994
 20
1887.730951435908
 30
0.0
 41
10.0
 42
10.0
 43
10.0
 50
180.0
  0
INSERT
  5
3646
330
363F
100
AcDbEntity
  8
DIM
 62
     0
370
    -2
100
AcDbBlockReference
  2
_DOT
 10
705.6822926452994
 20
1887.730951435908
 30
0.0
 41
10.0
 42
10.0
 43
10.0
  0
MTEXT
  5
3647
330
363F
100
AcDbEntity
  8
DIM
 62
     0
100
AcDbMText
 10
677.1822926452994
 20
1909.730951435908
 30
0.0
 40
24.0
 41
0.0
 46
0.0
 71
     5
 72
     1
  1
\A1;57
  7
ＭＳ ゴシック
 73
     1
 44
1.0
  0
POINT
  5
3648
330
363F
100
AcDbEntity
  8
Defpoints
 62
     0
100
AcDbPoint
 10
648.6822926452994
 20
2134.299845443934
 30
0.0
  0
POINT
  5
3649
330
363F
100
AcDbEntity
  8
Defpoints
 62
     0
100
AcDbPoint
 10
705.6822926452994
 20
2134.299845443934
 30
0.0
  0
POINT
  5
364A
330
363F
100
AcDbEntity
  8
Defpoints
 62
     0
100
AcDbPoint
 10
705.6822926452994
 20
1887.730951435908
 30
0.0
  0
ENDBLK
  5
3641
330
363F
100
AcDbEntity
  8
0
100
AcDbBlockEnd
  0
BLOCK
  5
364C
330
364B
100
AcDbEntity
  8
0
100
AcDbBlockBegin
  2
*D163
 70
     1
 10
0.0
 20
0.0
 30
0.0
  3
*D163
  1

  0
LINE
  5
364E
330
364B
100
AcDbEntity
  8
DIM
 62
     0
 48
0.05
370
    -2
100
AcDbLine
 10
648.7679782104265
 20
2176.105069683482
 30
0.0
 11
648.7679782104265
 21
2350.646865074346
 31
0.0
  0
LINE
  5
364F
330
364B
100
AcDbEntity
  8
DIM
 62
     0
 48
0.05
370
    -2
100
AcDbLine
 10
688.7679782104265
 20
2329.990655285753
 30
0.0
 11
688.7679782104265
 21
2350.646865074346
 31
0.0
  0
LINE
  5
3650
330
364B
100
AcDbEntity
  8
DIM
 62
     0
 48
0.05
370
    -2
100
AcDbLine
 10
658.7679782104265
 20
2350.646865074346
 30
0.0
 11
678.7679782104265
 21
2350.646865074346
 31
0.0
  0
INSERT
  5
3651
330
364B
100
AcDbEntity
  8
DIM
 62
     0
370
    -2
100
AcDbBlockReference
  2
_DOT
 10
648.7679782104265
 20
2350.646865074346
 30
0.0
 41
10.0
 42
10.0
 43
10.0
 50
180.0
  0
INSERT
  5
3652
330
364B
100
AcDbEntity
  8
DIM
 62
     0
370
    -2
100
AcDbBlockReference
  2
_DOT
 10
688.7679782104265
 20
2350.646865074346
 30
0.0
 41
10.0
 42
10.0
 43
10.0
  0
MTEXT
  5
3653
330
364B
100
AcDbEntity
  8
DIM
 62
     0
100
AcDbMText
 10
668.7679782104265
 20
2372.646865074346
 30
0.0
 40
24.0
 41
0.0
 46
0.0
 71
     5
 72
     1
  1
\A1; 
  7
ＭＳ ゴシック
 73
     1
 44
1.0
  0
POINT
  5
3654
330
364B
100
AcDbEntity
  8
Defpoints
 62
     0
100
AcDbPoint
 10
648.7679782104265
 20
2146.105069683482
 30
0.0
  0
POINT
  5
3655
330
364B
100
AcDbEntity
  8
Defpoints
 62
     0
100
AcDbPoint
 10
688.7679782104265
 20
2299.990655285753
 30
0.0
  0
POINT
  5
3656
330
364B
100
AcDbEntity
  8
Defpoints
 62
     0
100
AcDbPoint
 10
688.7679782104265
 20
2350.646865074346
 30
0.0
  0
ENDBLK
  5
364D
330
364B
100
AcDbEntity
  8
0
100
AcDbBlockEnd
  0
BLOCK
  5
3C08
330
3C07
100
AcDbEntity
  8
0
100
AcDbBlockBegin
  2
*D165
 70
     1
 10
0.0
 20
0.0
 30
0.0
  3
*D165
  1

  0
LINE
  5
3C09
330
3C07
100
AcDbEntity
  8
DIM
 62
     0
370
    -2
100
AcDbLine
 10
467.2700521621409
 20
2448.930459792016
 30
0.0
 11
467.2700521621409
 21
2600.779357710802
 31
0.0
  0
LINE
  5
3C0A
330
3C07
100
AcDbEntity
  8
DIM
 62
     0
370
    -2
100
AcDbLine
 10
852.2700522038358
 20
2448.930459792016
 30
0.0
 11
852.2700522038358
 21
2600.779357710802
 31
0.0
  0
LINE
  5
3C0B
330
3C07
100
AcDbEntity
  8
DIM
 62
     0
370
    -2
100
AcDbLine
 10
477.2700521621409
 20
2600.779357710802
 30
0.0
 11
842.2700522038358
 21
2600.779357710802
 31
0.0
  0
INSERT
  5
3C0C
330
3C07
100
AcDbEntity
  8
DIM
 62
     0
370
    -2
100
AcDbBlockReference
  2
_DOT
 10
467.2700521621409
 20
2600.779357710802
 30
0.0
 41
10.0
 42
10.0
 43
10.0
 50
180.0
  0
INSERT
  5
3C0D
330
3C07
100
AcDbEntity
  8
DIM
 62
     0
370
    -2
100
AcDbBlockReference
  2
_DOT
 10
852.2700522038358
 20
2600.779357710802
 30
0.0
 41
10.0
 42
10.0
 43
10.0
  0
MTEXT
  5
3C0E
330
3C07
100
AcDbEntity
  8
DIM
 62
     0
100
AcDbMText
 10
659.7700521829884
 20
2622.779357710802
 30
0.0
 40
24.0
 41
0.0
 46
0.0
 71
     5
 72
     1
  1
\A1;385.00000004
  7
ＭＳ ゴシック
 73
     1
 44
1.0
  0
POINT
  5
3C0F
330
3C07
100
AcDbEntity
  8
Defpoints
 62
     0
100
AcDbPoint
 10
467.2700521621409
 20
2418.930459792016
 30
0.0
  0
POINT
  5
3C10
330
3C07
100
AcDbEntity
  8
Defpoints
 62
     0
100
AcDbPoint
 10
852.2700522038358
 20
2418.930459792016
 30
0.0
  0
POINT
  5
3C11
330
3C07
100
AcDbEntity
  8
Defpoints
 62
     0
100
AcDbPoint
 10
852.2700522038358
 20
2600.779357710802
 30
0.0
  0
ENDBLK
  5
3C12
330
3C07
100
AcDbEntity
  8
0
100
AcDbBlockEnd
  0
BLOCK
  5
4197
330
4196
100
AcDbEntity
  8
0
100
AcDbBlockBegin
  2
*D166
 70
     1
 10
0.0
 20
0.0
 30
0.0
  3
*D166
  1

  0
LINE
  5
4199
330
4196
100
AcDbEntity
  8
MODEL
 62
     0
370
    -2
100
AcDbLine
 10
3060.384337876426
 20
2624.687602649159
 30
0.0
 11
3060.384337876426
 21
2776.536500567945
 31
0.0
  0
LINE
  5
419A
330
4196
100
AcDbEntity
  8
MODEL
 62
     0
370
    -2
100
AcDbLine
 10
3445.384337918121
 20
2624.687602649159
 30
0.0
 11
3445.384337918121
 21
2776.536500567945
 31
0.0
  0
LINE
  5
419B
330
4196
100
AcDbEntity
  8
MODEL
 62
     0
370
    -2
100
AcDbLine
 10
3070.384337876426
 20
2776.536500567945
 30
0.0
 11
3435.384337918121
 21
2776.536500567945
 31
0.0
  0
INSERT
  5
419C
330
4196
100
AcDbEntity
  8
MODEL
 62
     0
370
    -2
100
AcDbBlockReference
  2
_DOT
 10
3060.384337876426
 20
2776.536500567945
 30
0.0
 41
10.0
 42
10.0
 43
10.0
 50
180.0
  0
INSERT
  5
419D
330
4196
100
AcDbEntity
  8
MODEL
 62
     0
370
    -2
100
AcDbBlockReference
  2
_DOT
 10
3445.384337918121
 20
2776.536500567945
 30
0.0
 41
10.0
 42
10.0
 43
10.0
  0
MTEXT
  5
419E
330
4196
100
AcDbEntity
  8
MODEL
 62
     0
100
AcDbMText
 10
3252.884337897273
 20
2808.536500567945
 30
0.0
 40
24.0
 41
0.0
 46
0.0
 71
     5
 72
     1
  1
\A1;385.00000004
  7
ＭＳ ゴシック
 73
     1
 44
1.0
  0
POINT
  5
419F
330
4196
100
AcDbEntity
  8
Defpoints
 62
     0
100
AcDbPoint
 10
3060.384337876426
 20
2594.687602649159
 30
0.0
  0
POINT
  5
41A0
330
4196
100
AcDbEntity
  8
Defpoints
 62
     0
100
AcDbPoint
 10
3445.384337918121
 20
2594.687602649159
 30
0.0
  0
POINT
  5
41A1
330
4196
100
AcDbEntity
  8
Defpoints
 62
     0
100
AcDbPoint
 10
3445.384337918121
 20
2776.536500567945
 30
0.0
  0
ENDBLK
  5
4198
330
4196
100
AcDbEntity
  8
0
100
AcDbBlockEnd
  0
BLOCK
  5
41A7
330
41A6
100
AcDbEntity
  8
0
100
AcDbBlockBegin
  2
*D167
 70
     1
 10
0.0
 20
0.0
 30
0.0
  3
*D167
  1

  0
LINE
  5
41A9
330
41A6
100
AcDbEntity
  8
DIM
 62
     0
370
    -2
100
AcDbLine
 10
579.5986235907117
 20
2412.349122550066
 30
0.0
 11
579.5986235907117
 21
2503.732710034287
 31
0.0
  0
LINE
  5
41AA
330
41A6
100
AcDbEntity
  8
DIM
 62
     0
370
    -2
100
AcDbLine
 10
964.5853493151922
 20
2373.032254250308
 30
0.0
 11
964.5853493151922
 21
2503.732710034287
 31
0.0
  0
LINE
  5
41AB
330
41A6
100
AcDbEntity
  8
DIM
 62
     0
370
    -2
100
AcDbLine
 10
589.5986235907117
 20
2503.732710034287
 30
0.0
 11
954.5853493151922
 21
2503.732710034287
 31
0.0
  0
INSERT
  5
41AC
330
41A6
100
AcDbEntity
  8
DIM
 62
     0
370
    -2
100
AcDbBlockReference
  2
_DOT
 10
579.5986235907117
 20
2503.732710034287
 30
0.0
 41
10.0
 42
10.0
 43
10.0
 50
180.0
  0
INSERT
  5
41AD
330
41A6
100
AcDbEntity
  8
DIM
 62
     0
370
    -2
100
AcDbBlockReference
  2
_DOT
 10
964.5853493151922
 20
2503.732710034287
 30
0.0
 41
10.0
 42
10.0
 43
10.0
  0
MTEXT
  5
41AE
330
41A6
100
AcDbEntity
  8
DIM
 62
     0
100
AcDbMText
 10
772.0919864529519
 20
2525.732710034287
 30
0.0
 40
24.0
 41
0.0
 46
0.0
 71
     5
 72
     1
  1
\A1;385
  7
ＭＳ ゴシック
 73
     1
 44
1.0
  0
POINT
  5
41AF
330
41A6
100
AcDbEntity
  8
Defpoints
 62
     0
100
AcDbPoint
 10
579.5986235907117
 20
2382.349122550066
 30
0.0
  0
POINT
  5
41B0
330
41A6
100
AcDbEntity
  8
Defpoints
 62
     0
100
AcDbPoint
 10
964.5853493151922
 20
2343.032254250308
 30
0.0
  0
POINT
  5
41B1
330
41A6
100
AcDbEntity
  8
Defpoints
 62
     0
100
AcDbPoint
 10
964.5853493151922
 20
2503.732710034287
 30
0.0
  0
ENDBLK
  5
41A8
330
41A6
100
AcDbEntity
  8
0
100
AcDbBlockEnd
  0
BLOCK
  5
41B6
330
41B5
100
AcDbEntity
  8
0
100
AcDbBlockBegin
  2
*D168
 70
     1
 10
0.0
 20
0.0
 30
0.0
  3
*D168
  1

  0
LINE
  5
41B8
330
41B5
100
AcDbEntity
  8
DIM
 62
     0
370
    -2
100
AcDbLine
 10
908.9543882539733
 20
2455.528774064067
 30
0.0
 11
1130.175175405715
 21
2455.528774064067
 31
0.0
  0
LINE
  5
41B9
330
41B5
100
AcDbEntity
  8
DIM
 62
     0
370
    -2
100
AcDbLine
 10
908.9543882539733
 20
2095.491127544275
 30
0.0
 11
1130.175175405715
 21
2095.491127544275
 31
0.0
  0
LINE
  5
41BA
330
41B5
100
AcDbEntity
  8
DIM
 62
     0
370
    -2
100
AcDbLine
 10
1130.175175405715
 20
2445.528774064067
 30
0.0
 11
1130.175175405715
 21
2105.491127544275
 31
0.0
  0
INSERT
  5
41BB
330
41B5
100
AcDbEntity
  8
DIM
 62
     0
370
    -2
100
AcDbBlockReference
  2
_DOT
 10
1130.175175405715
 20
2455.528774064067
 30
0.0
 41
10.0
 42
10.0
 43
10.0
 50
90.0
  0
INSERT
  5
41BC
330
41B5
100
AcDbEntity
  8
DIM
 62
     0
370
    -2
100
AcDbBlockReference
  2
_DOT
 10
1130.175175405715
 20
2095.491127544275
 30
0.0
 41
10.0
 42
10.0
 43
10.0
 50
270.0
  0
MTEXT
  5
41BD
330
41B5
100
AcDbEntity
  8
DIM
 62
     0
100
AcDbMText
 10
1108.175175405715
 20
2275.509950804171
 30
0.0
 40
24.0
 41
0.0
 46
0.0
 71
     5
 72
     1
  1
\A1;360
  7
ＭＳ ゴシック
 11
0.0
 21
1.0
 31
0.0
 73
     1
 44
1.0
  0
POINT
  5
41BE
330
41B5
100
AcDbEntity
  8
Defpoints
 62
     0
100
AcDbPoint
 10
878.9543882539733
 20
2455.528774064067
 30
0.0
  0
POINT
  5
41BF
330
41B5
100
AcDbEntity
  8
Defpoints
 62
     0
100
AcDbPoint
 10
878.9543882539733
 20
2095.491127544275
 30
0.0
  0
POINT
  5
41C0
330
41B5
100
AcDbEntity
  8
Defpoints
 62
     0
100
AcDbPoint
 10
1130.175175405715
 20
2095.491127544275
 30
0.0
  0
ENDBLK
  5
41B7
330
41B5
100
AcDbEntity
  8
0
100
AcDbBlockEnd
  0
BLOCK
  5
41C3
330
41C2
100
AcDbEntity
  8
0
100
AcDbBlockBegin
  2
*D169
 70
     1
 10
0.0
 20
0.0
 30
0.0
  3
*D169
  1

  0
LINE
  5
41C5
330
41C2
100
AcDbEntity
  8
DIM
 62
     0
370
    -2
100
AcDbLine
 10
923.881569737142
 20
2422.255038676218
 30
0.0
 11
1057.121259977142
 21
2422.255038676218
 31
0.0
  0
LINE
  5
41C6
330
41C2
100
AcDbEntity
  8
DIM
 62
     0
370
    -2
100
AcDbLine
 10
923.881569737142
 20
2127.255038676218
 30
0.0
 11
1057.121259977142
 21
2127.255038676218
 31
0.0
  0
LINE
  5
41C7
330
41C2
100
AcDbEntity
  8
DIM
 62
     0
370
    -2
100
AcDbLine
 10
1057.121259977142
 20
2412.255038676218
 30
0.0
 11
1057.121259977142
 21
2137.255038676218
 31
0.0
  0
INSERT
  5
41C8
330
41C2
100
AcDbEntity
  8
DIM
 62
     0
370
    -2
100
AcDbBlockReference
  2
_DOT
 10
1057.121259977142
 20
2422.255038676218
 30
0.0
 41
10.0
 42
10.0
 43
10.0
 50
90.0
  0
INSERT
  5
41C9
330
41C2
100
AcDbEntity
  8
DIM
 62
     0
370
    -2
100
AcDbBlockReference
  2
_DOT
 10
1057.121259977142
 20
2127.255038676218
 30
0.0
 41
10.0
 42
10.0
 43
10.0
 50
270.0
  0
MTEXT
  5
41CA
330
41C2
100
AcDbEntity
  8
DIM
 62
     0
100
AcDbMText
 10
1035.121259977142
 20
2274.755038676218
 30
0.0
 40
24.0
 41
0.0
 46
0.0
 71
     5
 72
     1
  1
\A1;295
  7
ＭＳ ゴシック
 11
0.0
 21
1.0
 31
0.0
 73
     1
 44
1.0
  0
POINT
  5
41CB
330
41C2
100
AcDbEntity
  8
Defpoints
 62
     0
100
AcDbPoint
 10
893.881569737142
 20
2422.255038676218
 30
0.0
  0
POINT
  5
41CC
330
41C2
100
AcDbEntity
  8
Defpoints
 62
     0
100
AcDbPoint
 10
893.881569737142
 20
2127.255038676218
 30
0.0
  0
POINT
  5
41CD
330
41C2
100
AcDbEntity
  8
Defpoints
 62
     0
100
AcDbPoint
 10
1057.121259977142
 20
2127.255038676218
 30
0.0
  0
ENDBLK
  5
41C4
330
41C2
100
AcDbEntity
  8
0
100
AcDbBlockEnd
  0
BLOCK
  5
41D8
330
41D7
100
AcDbEntity
  8
0
100
AcDbBlockBegin
  2
*D170
 70
     1
 10
0.0
 20
0.0
 30
0.0
  3
*D170
  1

  0
LINE
  5
41DA
330
41D7
100
AcDbEntity
  8
DIM
 62
     0
370
    -2
100
AcDbLine
 10
528.8923258894406
 20
1725.058031355861
 30
0.0
 11
383.1191172865188
 21
1725.058031355861
 31
0.0
  0
LINE
  5
41DB
330
41D7
100
AcDbEntity
  8
DIM
 62
     0
370
    -2
100
AcDbLine
 10
430.8963383428941
 20
1425.035232252568
 30
0.0
 11
383.1191172865188
 21
1425.035232252568
 31
0.0
  0
LINE
  5
41DC
330
41D7
100
AcDbEntity
  8
DIM
 62
     0
370
    -2
100
AcDbLine
 10
383.1191172865188
 20
1715.058031355861
 30
0.0
 11
383.1191172865188
 21
1435.035232252568
 31
0.0
  0
INSERT
  5
41DD
330
41D7
100
AcDbEntity
  8
DIM
 62
     0
370
    -2
100
AcDbBlockReference
  2
_DOT
 10
383.1191172865188
 20
1725.058031355861
 30
0.0
 41
10.0
 42
10.0
 43
10.0
 50
90.0
  0
INSERT
  5
41DE
330
41D7
100
AcDbEntity
  8
DIM
 62
     0
370
    -2
100
AcDbBlockReference
  2
_DOT
 10
383.1191172865188
 20
1425.035232252568
 30
0.0
 41
10.0
 42
10.0
 43
10.0
 50
270.0
  0
MTEXT
  5
41DF
330
41D7
100
AcDbEntity
  8
DIM
 62
     0
100
AcDbMText
 10
361.1191172865188
 20
1575.046631804215
 30
0.0
 40
24.0
 41
0.0
 46
0.0
 71
     5
 72
     1
  1
\A1;300
  7
ＭＳ ゴシック
 11
0.0
 21
1.0
 31
0.0
 73
     1
 44
1.0
  0
POINT
  5
41E0
330
41D7
100
AcDbEntity
  8
Defpoints
 62
     0
100
AcDbPoint
 10
558.8923258894406
 20
1725.058031355861
 30
0.0
  0
POINT
  5
41E1
330
41D7
100
AcDbEntity
  8
Defpoints
 62
     0
100
AcDbPoint
 10
460.8963383428941
 20
1425.035232252568
 30
0.0
  0
POINT
  5
41E2
330
41D7
100
AcDbEntity
  8
Defpoints
 62
     0
100
AcDbPoint
 10
383.1191172865188
 20
1425.035232252568
 30
0.0
  0
ENDBLK
  5
41D9
330
41D7
100
AcDbEntity
  8
0
100
AcDbBlockEnd
  0
BLOCK
  5
41E7
330
41E6
100
AcDbEntity
  8
0
100
AcDbBlockBegin
  2
*D171
 70
     1
 10
0.0
 20
0.0
 30
0.0
  3
*D171
  1

  0
LINE
  5
41E9
330
41E6
100
AcDbEntity
  8
DIM
 62
     0
370
    -2
100
AcDbLine
 10
612.3297281672317
 20
1440.104900870353
 30
0.0
 11
489.2894118948561
 21
1440.104900870353
 31
0.0
  0
LINE
  5
41EA
330
41E6
100
AcDbEntity
  8
DIM
 62
     0
370
    -2
100
AcDbLine
 10
551.2728468493883
 20
1425.118196735159
 30
0.0
 11
489.2894118948561
 21
1425.118196735159
 31
0.0
  0
LINE
  5
41EB
330
41E6
100
AcDbEntity
  8
DIM
 62
     0
370
    -2
100
AcDbLine
 10
489.2894118948561
 20
1440.104900870353
 30
0.0
 11
489.2894118948561
 21
1516.408900870353
 31
0.0
  0
LINE
  5
41EC
330
41E6
100
AcDbEntity
  8
DIM
 62
     0
370
    -2
100
AcDbLine
 10
489.2894118948561
 20
1430.104900870353
 30
0.0
 11
489.2894118948561
 21
1435.118196735159
 31
0.0
  0
LINE
  5
41ED
330
41E6
100
AcDbEntity
  8
DIM
 62
     0
370
    -2
100
AcDbLine
 10
489.2894118948561
 20
1430.104900870353
 30
0.0
 11
489.2894118948561
 21
1420.104900870353
 31
0.0
  0
INSERT
  5
41EE
330
41E6
100
AcDbEntity
  8
DIM
 62
     0
370
    -2
100
AcDbBlockReference
  2
_DOT
 10
489.2894118948561
 20
1440.104900870353
 30
0.0
 41
10.0
 42
10.0
 43
10.0
 50
90.0
  0
INSERT
  5
41EF
330
41E6
100
AcDbEntity
  8
DIM
 62
     0
370
    -2
100
AcDbBlockReference
  2
_DOT
 10
489.2894118948561
 20
1425.118196735159
 30
0.0
 41
10.0
 42
10.0
 43
10.0
 50
270.0
  0
MTEXT
  5
41F0
330
41E6
100
AcDbEntity
  8
DIM
 62
     0
100
AcDbMText
 10
467.2894118948561
 20
1493.256900870353
 30
0.0
 40
24.0
 41
0.0
 46
0.0
 71
     5
 72
     1
  1
\A1;15
  7
ＭＳ ゴシック
 11
0.0
 21
1.0
 31
0.0
 73
     1
 44
1.0
  0
POINT
  5
41F1
330
41E6
100
AcDbEntity
  8
Defpoints
 62
     0
100
AcDbPoint
 10
642.3297281672317
 20
1440.104900870353
 30
0.0
  0
POINT
  5
41F2
330
41E6
100
AcDbEntity
  8
Defpoints
 62
     0
100
AcDbPoint
 10
581.2728468493883
 20
1425.118196735159
 30
0.0
  0
POINT
  5
41F3
330
41E6
100
AcDbEntity
  8
Defpoints
 62
     0
100
AcDbPoint
 10
489.2894118948561
 20
1425.118196735159
 30
0.0
  0
ENDBLK
  5
41E8
330
41E6
100
AcDbEntity
  8
0
100
AcDbBlockEnd
  0
BLOCK
  5
41FB
330
41FA
100
AcDbEntity
  8
0
100
AcDbBlockBegin
  2
*D172
 70
     1
 10
0.0
 20
0.0
 30
0.0
  3
*D172
  1

  0
LINE
  5
41FD
330
41FA
100
AcDbEntity
  8
DIM
 62
     0
370
    -2
100
AcDbLine
 10
1015.264375972571
 20
1791.790739156597
 30
0.0
 11
1100.861933732571
 21
1791.790739156597
 31
0.0
  0
LINE
  5
41FE
330
41FA
100
AcDbEntity
  8
DIM
 62
     0
370
    -2
100
AcDbLine
 10
1015.264375972571
 20
1776.797397862797
 30
0.0
 11
1100.861933732571
 21
1776.797397862797
 31
0.0
  0
LINE
  5
41FF
330
41FA
100
AcDbEntity
  8
DIM
 62
     0
370
    -2
100
AcDbLine
 10
1100.861933732571
 20
1791.790739156597
 30
0.0
 11
1100.861933732571
 21
1868.094739156597
 31
0.0
  0
LINE
  5
4200
330
41FA
100
AcDbEntity
  8
DIM
 62
     0
370
    -2
100
AcDbLine
 10
1100.861933732571
 20
1781.790739156597
 30
0.0
 11
1100.861933732571
 21
1786.797397862797
 31
0.0
  0
LINE
  5
4201
330
41FA
100
AcDbEntity
  8
DIM
 62
     0
370
    -2
100
AcDbLine
 10
1100.861933732571
 20
1781.790739156597
 30
0.0
 11
1100.861933732571
 21
1771.790739156597
 31
0.0
  0
INSERT
  5
4202
330
41FA
100
AcDbEntity
  8
DIM
 62
     0
370
    -2
100
AcDbBlockReference
  2
_DOT
 10
1100.861933732571
 20
1791.790739156597
 30
0.0
 41
10.0
 42
10.0
 43
10.0
 50
90.0
  0
INSERT
  5
4203
330
41FA
100
AcDbEntity
  8
DIM
 62
     0
370
    -2
100
AcDbBlockReference
  2
_DOT
 10
1100.861933732571
 20
1776.797397862797
 30
0.0
 41
10.0
 42
10.0
 43
10.0
 50
270.0
  0
MTEXT
  5
4204
330
41FA
100
AcDbEntity
  8
DIM
 62
     0
100
AcDbMText
 10
1078.861933732571
 20
1844.942739156597
 30
0.0
 40
24.0
 41
0.0
 46
0.0
 71
     5
 72
     1
  1
\A1;15
  7
ＭＳ ゴシック
 11
0.0
 21
1.0
 31
0.0
 73
     1
 44
1.0
  0
POINT
  5
4205
330
41FA
100
AcDbEntity
  8
Defpoints
 62
     0
100
AcDbPoint
 10
985.2643759725711
 20
1791.790739156597
 30
0.0
  0
POINT
  5
4206
330
41FA
100
AcDbEntity
  8
Defpoints
 62
     0
100
AcDbPoint
 10
985.2643759725711
 20
1776.797397862797
 30
0.0
  0
POINT
  5
4207
330
41FA
100
AcDbEntity
  8
Defpoints
 62
     0
100
AcDbPoint
 10
1100.861933732571
 20
1776.797397862797
 30
0.0
  0
ENDBLK
  5
41FC
330
41FA
100
AcDbEntity
  8
0
100
AcDbBlockEnd
  0
BLOCK
  5
4218
330
4217
100
AcDbEntity
  8
0
100
AcDbBlockBegin
  2
*D173
 70
     1
 10
0.0
 20
0.0
 30
0.0
  3
*D173
  1

  0
LINE
  5
421A
330
4217
100
AcDbEntity
  8
DIM
 62
     0
370
    -2
100
AcDbLine
 10
1044.35242384208
 20
1426.797397862797
 30
0.0
 11
1100.861933732571
 21
1426.797397862797
 31
0.0
  0
LINE
  5
421B
330
4217
100
AcDbEntity
  8
DIM
 62
     0
370
    -2
100
AcDbLine
 10
1044.35242384208
 20
1776.797397862797
 30
0.0
 11
1100.861933732571
 21
1776.797397862797
 31
0.0
  0
LINE
  5
421C
330
4217
100
AcDbEntity
  8
DIM
 62
     0
370
    -2
100
AcDbLine
 10
1100.861933732571
 20
1436.797397862797
 30
0.0
 11
1100.861933732571
 21
1766.797397862797
 31
0.0
  0
INSERT
  5
421D
330
4217
100
AcDbEntity
  8
DIM
 62
     0
370
    -2
100
AcDbBlockReference
  2
_DOT
 10
1100.861933732571
 20
1426.797397862797
 30
0.0
 41
10.0
 42
10.0
 43
10.0
 50
270.0
  0
INSERT
  5
421E
330
4217
100
AcDbEntity
  8
DIM
 62
     0
370
    -2
100
AcDbBlockReference
  2
_DOT
 10
1100.861933732571
 20
1776.797397862797
 30
0.0
 41
10.0
 42
10.0
 43
10.0
 50
90.0
  0
MTEXT
  5
421F
330
4217
100
AcDbEntity
  8
DIM
 62
     0
100
AcDbMText
 10
1078.861933732571
 20
1601.797397862797
 30
0.0
 40
24.0
 41
0.0
 46
0.0
 71
     5
 72
     1
  1
\A1;350
  7
ＭＳ ゴシック
 11
0.0
 21
1.0
 31
0.0
 73
     1
 44
1.0
  0
POINT
  5
4220
330
4217
100
AcDbEntity
  8
Defpoints
 62
     0
100
AcDbPoint
 10
1014.35242384208
 20
1426.797397862797
 30
0.0
  0
POINT
  5
4221
330
4217
100
AcDbEntity
  8
Defpoints
 62
     0
100
AcDbPoint
 10
1014.35242384208
 20
1776.797397862797
 30
0.0
  0
POINT
  5
4222
330
4217
100
AcDbEntity
  8
Defpoints
 62
     0
100
AcDbPoint
 10
1100.861933732571
 20
1776.797397862797
 30
0.0
  0
ENDBLK
  5
4219
330
4217
100
AcDbEntity
  8
0
100
AcDbBlockEnd
  0
BLOCK
  5
4238
330
4237
100
AcDbEntity
  8
0
100
AcDbBlockBegin
  2
*D174
 70
     1
 10
0.0
 20
0.0
 30
0.0
  3
*D174
  1

  0
LINE
  5
423A
330
4237
100
AcDbEntity
  8
DIM
 62
     0
370
    -2
100
AcDbLine
 10
1742.4455019089
 20
1792.101629737449
 30
0.0
 11
1817.338888897947
 21
1792.101629737449
 31
0.0
  0
LINE
  5
423B
330
4237
100
AcDbEntity
  8
DIM
 62
     0
370
    -2
100
AcDbLine
 10
1767.503851201947
 20
1426.797397862797
 30
0.0
 11
1817.338888897947
 21
1426.797397862797
 31
0.0
  0
LINE
  5
423C
330
4237
100
AcDbEntity
  8
DIM
 62
     0
370
    -2
100
AcDbLine
 10
1817.338888897947
 20
1782.101629737449
 30
0.0
 11
1817.338888897947
 21
1436.797397862797
 31
0.0
  0
INSERT
  5
423D
330
4237
100
AcDbEntity
  8
DIM
 62
     0
370
    -2
100
AcDbBlockReference
  2
_DOT
 10
1817.338888897947
 20
1792.101629737449
 30
0.0
 41
10.0
 42
10.0
 43
10.0
 50
90.0
  0
INSERT
  5
423E
330
4237
100
AcDbEntity
  8
DIM
 62
     0
370
    -2
100
AcDbBlockReference
  2
_DOT
 10
1817.338888897947
 20
1426.797397862797
 30
0.0
 41
10.0
 42
10.0
 43
10.0
 50
270.0
  0
MTEXT
  5
423F
330
4237
100
AcDbEntity
  8
DIM
 62
     0
100
AcDbMText
 10
1795.338888897947
 20
1609.449513800123
 30
0.0
 40
24.0
 41
0.0
 46
0.0
 71
     5
 72
     1
  1
\A1;365
  7
ＭＳ ゴシック
 11
0.0
 21
1.0
 31
0.0
 73
     1
 44
1.0
  0
POINT
  5
4240
330
4237
100
AcDbEntity
  8
Defpoints
 62
     0
100
AcDbPoint
 10
1712.4455019089
 20
1792.101629737449
 30
0.0
  0
POINT
  5
4241
330
4237
100
AcDbEntity
  8
Defpoints
 62
     0
100
AcDbPoint
 10
1737.503851201947
 20
1426.797397862797
 30
0.0
  0
POINT
  5
4242
330
4237
100
AcDbEntity
  8
Defpoints
 62
     0
100
AcDbPoint
 10
1817.338888897947
 20
1426.797397862797
 30
0.0
  0
ENDBLK
  5
4239
330
4237
100
AcDbEntity
  8
0
100
AcDbBlockEnd
  0
BLOCK
  5
424A
330
4249
100
AcDbEntity
  8
0
100
AcDbBlockBegin
  2
*D175
 70
     1
 10
0.0
 20
0.0
 30
0.0
  3
*D175
  1

  0
LINE
  5
424C
330
4249
100
AcDbEntity
  8
DIM
 62
     0
370
    -2
100
AcDbLine
 10
4119.193657596149
 20
1481.044751195046
 30
0.0
 11
4119.193657596149
 21
1388.56628090476
 31
0.0
  0
LINE
  5
424D
330
4249
100
AcDbEntity
  8
DIM
 62
     0
370
    -2
100
AcDbLine
 10
3925.435086374394
 20
1481.044751195046
 30
0.0
 11
3925.435086374394
 21
1388.56628090476
 31
0.0
  0
LINE
  5
424E
330
4249
100
AcDbEntity
  8
DIM
 62
     0
370
    -2
100
AcDbLine
 10
4109.193657596149
 20
1388.56628090476
 30
0.0
 11
3935.435086374394
 21
1388.56628090476
 31
0.0
  0
INSERT
  5
424F
330
4249
100
AcDbEntity
  8
DIM
 62
     0
370
    -2
100
AcDbBlockReference
  2
_DOT
 10
4119.193657596149
 20
1388.56628090476
 30
0.0
 41
10.0
 42
10.0
 43
10.0
  0
INSERT
  5
4250
330
4249
100
AcDbEntity
  8
DIM
 62
     0
370
    -2
100
AcDbBlockReference
  2
_DOT
 10
3925.435086374394
 20
1388.56628090476
 30
0.0
 41
10.0
 42
10.0
 43
10.0
 50
180.0
  0
MTEXT
  5
4251
330
4249
100
AcDbEntity
  8
DIM
 62
     0
100
AcDbMText
 10
4022.314371985271
 20
1410.56628090476
 30
0.0
 40
24.0
 41
0.0
 46
0.0
 71
     5
 72
     1
  1
\A1;194
  7
ＭＳ ゴシック
 73
     1
 44
1.0
  0
POINT
  5
4252
330
4249
100
AcDbEntity
  8
Defpoints
 62
     0
100
AcDbPoint
 10
4119.193657596149
 20
1511.044751195046
 30
0.0
  0
POINT
  5
4253
330
4249
100
AcDbEntity
  8
Defpoints
 62
     0
100
AcDbPoint
 10
3925.435086374394
 20
1511.044751195046
 30
0.0
  0
POINT
  5
4254
330
4249
100
AcDbEntity
  8
Defpoints
 62
     0
100
AcDbPoint
 10
3925.435086374394
 20
1388.56628090476
 30
0.0
  0
ENDBLK
  5
424B
330
4249
100
AcDbEntity
  8
0
100
AcDbBlockEnd
  0
BLOCK
  5
4257
330
4256
100
AcDbEntity
  8
0
100
AcDbBlockBegin
  2
*D176
 70
     1
 10
0.0
 20
0.0
 30
0.0
  3
*D176
  1

  0
LINE
  5
4259
330
4256
100
AcDbEntity
  8
DIM
 62
     0
370
    -2
100
AcDbLine
 10
1447.036400333011
 20
1391.488456502474
 30
0.0
 11
1447.036400333011
 21
1315.878278527617
 31
0.0
  0
LINE
  5
425A
330
4256
100
AcDbEntity
  8
DIM
 62
     0
370
    -2
100
AcDbLine
 10
1637.036400333011
 20
1391.488456502474
 30
0.0
 11
1637.036400333011
 21
1315.878278527617
 31
0.0
  0
LINE
  5
425B
330
4256
100
AcDbEntity
  8
DIM
 62
     0
370
    -2
100
AcDbLine
 10
1457.036400333011
 20
1315.878278527617
 30
0.0
 11
1627.036400333011
 21
1315.878278527617
 31
0.0
  0
INSERT
  5
425C
330
4256
100
AcDbEntity
  8
DIM
 62
     0
370
    -2
100
AcDbBlockReference
  2
_DOT
 10
1447.036400333011
 20
1315.878278527617
 30
0.0
 41
10.0
 42
10.0
 43
10.0
 50
180.0
  0
INSERT
  5
425D
330
4256
100
AcDbEntity
  8
DIM
 62
     0
370
    -2
100
AcDbBlockReference
  2
_DOT
 10
1637.036400333011
 20
1315.878278527617
 30
0.0
 41
10.0
 42
10.0
 43
10.0
  0
MTEXT
  5
425E
330
4256
100
AcDbEntity
  8
DIM
 62
     0
100
AcDbMText
 10
1542.036400333011
 20
1337.878278527617
 30
0.0
 40
24.0
 41
0.0
 46
0.0
 71
     5
 72
     1
  1
\A1;190
  7
ＭＳ ゴシック
 73
     1
 44
1.0
  0
POINT
  5
425F
330
4256
100
AcDbEntity
  8
Defpoints
 62
     0
100
AcDbPoint
 10
1447.036400333011
 20
1421.488456502474
 30
0.0
  0
POINT
  5
4260
330
4256
100
AcDbEntity
  8
Defpoints
 62
     0
100
AcDbPoint
 10
1637.036400333011
 20
1421.488456502474
 30
0.0
  0
POINT
  5
4261
330
4256
100
AcDbEntity
  8
Defpoints
 62
     0
100
AcDbPoint
 10
1637.036400333011
 20
1315.878278527617
 30
0.0
  0
ENDBLK
  5
4258
330
4256
100
AcDbEntity
  8
0
100
AcDbBlockEnd
  0
BLOCK
  5
4265
330
4264
100
AcDbEntity
  8
0
100
AcDbBlockBegin
  2
*D177
 70
     1
 10
0.0
 20
0.0
 30
0.0
  3
*D177
  1

  0
LINE
  5
4267
330
4264
100
AcDbEntity
  8
DIM
 62
     0
370
    -2
100
AcDbLine
 10
581.6397115637101
 20
1650.134007129466
 30
0.0
 11
581.6397115637101
 21
1315.650166960477
 31
0.0
  0
LINE
  5
4268
330
4264
100
AcDbEntity
  8
DIM
 62
     0
370
    -2
100
AcDbLine
 10
696.6397115637101
 20
1388.162446381405
 30
0.0
 11
696.6397115637101
 21
1315.650166960477
 31
0.0
  0
LINE
  5
4269
330
4264
100
AcDbEntity
  8
DIM
 62
     0
370
    -2
100
AcDbLine
 10
591.6397115637101
 20
1315.650166960477
 30
0.0
 11
686.6397115637101
 21
1315.650166960477
 31
0.0
  0
INSERT
  5
426A
330
4264
100
AcDbEntity
  8
DIM
 62
     0
370
    -2
100
AcDbBlockReference
  2
_DOT
 10
581.6397115637101
 20
1315.650166960477
 30
0.0
 41
10.0
 42
10.0
 43
10.0
 50
180.0
  0
INSERT
  5
426B
330
4264
100
AcDbEntity
  8
DIM
 62
     0
370
    -2
100
AcDbBlockReference
  2
_DOT
 10
696.6397115637101
 20
1315.650166960477
 30
0.0
 41
10.0
 42
10.0
 43
10.0
  0
MTEXT
  5
426C
330
4264
100
AcDbEntity
  8
DIM
 62
     0
100
AcDbMText
 10
639.1397115637101
 20
1337.650166960477
 30
0.0
 40
24.0
 41
0.0
 46
0.0
 71
     5
 72
     1
  1
\A1;115
  7
ＭＳ ゴシック
 73
     1
 44
1.0
  0
POINT
  5
426D
330
4264
100
AcDbEntity
  8
Defpoints
 62
     0
100
AcDbPoint
 10
581.6397115637101
 20
1680.134007129466
 30
0.0
  0
POINT
  5
426E
330
4264
100
AcDbEntity
  8
Defpoints
 62
     0
100
AcDbPoint
 10
696.6397115637101
 20
1418.162446381405
 30
0.0
  0
POINT
  5
426F
330
4264
100
AcDbEntity
  8
Defpoints
 62
     0
100
AcDbPoint
 10
696.6397115637101
 20
1315.650166960477
 30
0.0
  0
ENDBLK
  5
4266
330
4264
100
AcDbEntity
  8
0
100
AcDbBlockEnd
  0
BLOCK
  5
4272
330
4271
100
AcDbEntity
  8
0
100
AcDbBlockBegin
  2
*D178
 70
     1
 10
0.0
 20
0.0
 30
0.0
  3
*D178
  1

  0
LINE
  5
4274
330
4271
100
AcDbEntity
  8
DIM
 62
     0
370
    -2
100
AcDbLine
 10
581.6397115637101
 20
1636.382681872323
 30
0.0
 11
581.6397115637101
 21
1256.578516947591
 31
0.0
  0
LINE
  5
4275
330
4271
100
AcDbEntity
  8
DIM
 62
     0
370
    -2
100
AcDbLine
 10
781.6100056275691
 20
1408.608810609866
 30
0.0
 11
781.6100056275691
 21
1256.578516947591
 31
0.0
  0
LINE
  5
4276
330
4271
100
AcDbEntity
  8
DIM
 62
     0
370
    -2
100
AcDbLine
 10
591.6397115637101
 20
1256.578516947591
 30
0.0
 11
771.6100056275691
 21
1256.578516947591
 31
0.0
  0
INSERT
  5
4277
330
4271
100
AcDbEntity
  8
DIM
 62
     0
370
    -2
100
AcDbBlockReference
  2
_DOT
 10
581.6397115637101
 20
1256.578516947591
 30
0.0
 41
10.0
 42
10.0
 43
10.0
 50
180.0
  0
INSERT
  5
4278
330
4271
100
AcDbEntity
  8
DIM
 62
     0
370
    -2
100
AcDbBlockReference
  2
_DOT
 10
781.6100056275691
 20
1256.578516947591
 30
0.0
 41
10.0
 42
10.0
 43
10.0
  0
MTEXT
  5
4279
330
4271
100
AcDbEntity
  8
DIM
 62
     0
100
AcDbMText
 10
681.6248585956396
 20
1278.578516947591
 30
0.0
 40
24.0
 41
0.0
 46
0.0
 71
     5
 72
     1
  1
\A1;200
  7
ＭＳ ゴシック
 73
     1
 44
1.0
  0
POINT
  5
427A
330
4271
100
AcDbEntity
  8
Defpoints
 62
     0
100
AcDbPoint
 10
581.6397115637101
 20
1666.382681872323
 30
0.0
  0
POINT
  5
427B
330
4271
100
AcDbEntity
  8
Defpoints
 62
     0
100
AcDbPoint
 10
781.6100056275691
 20
1438.608810609866
 30
0.0
  0
POINT
  5
427C
330
4271
100
AcDbEntity
  8
Defpoints
 62
     0
100
AcDbPoint
 10
781.6100056275691
 20
1256.578516947591
 30
0.0
  0
ENDBLK
  5
4273
330
4271
100
AcDbEntity
  8
0
100
AcDbBlockEnd
  0
ENDSEC
  0
SECTION
  2
ENTITIES
  0
MTEXT
  5
177
330
A
100
AcDbEntity
  8
TEMPLATE
390
1D
100
AcDbMText
 10
79.20214454773075
 20
343.7317516314282
 30
0.0
 40
16.28841145833333
 41
0.0
 46
0.0
 71
     1
 72
     1
  1
品名
  7
ＭＳ ゴシック
 73
     1
 44
0.7828267384257843
  0
MTEXT
  5
178
330
A
100
AcDbEntity
  8
TEMPLATE
390
1D
100
AcDbMText
 10
79.20214454773075
 20
258.731751631428
 30
0.0
 40
16.28841145833333
 41
0.0
 46
0.0
 71
     1
 72
     1
  1
仕様
  7
ＭＳ ゴシック
 73
     1
 44
0.7828267384257843
  0
LINE
  5
179
330
A
100
AcDbEntity
  8
TEMPLATE
390
1D
100
AcDbLine
 10
2022.202144547248
 20
267.1466735064284
 30
0.0
 11
72.20214454724874
 21
267.1466735064284
 31
0.0
  0
LWPOLYLINE
  5
17A
330
A
100
AcDbEntity
  8
TEMPLATE
390
1D
100
AcDbPolyline
 90
        5
 70
   128
 43
0.0
 10
2022.202144547248
 20
2897.146673506426
 10
72.20214454724874
 20
2897.146673506426
 10
72.20214454724874
 20
97.14667350642826
 10
2022.202144547248
 20
97.14667350642826
 10
2022.202144547248
 20
2897.146673506426
  0
LINE
  5
17B
330
A
100
AcDbEntity
  8
TEMPLATE
390
1D
100
AcDbLine
 10
2022.202144547248
 20
352.1466735064282
 30
0.0
 11
72.20214454724874
 21
352.1466735064282
 31
0.0
  0
LINE
  5
17C
330
A
100
AcDbEntity
  8
TEMPLATE
390
1D
100
AcDbLine
 10
2022.202144547732
 20
182.1466735064282
 30
0.0
 11
1269.20214454773
 21
182.1466735064282
 31
0.0
  0
MTEXT
  5
17E
330
A
100
AcDbEntity
  8
TEMPLATE
390
1D
100
AcDbMText
 10
1299.073550799991
 20
152.2362790331201
 30
0.0
 40
24.4326171875
 41
0.0
 46
0.0
 71
     1
 72
     1
  1
大洋金物株式会社 ティーフォルム事業部
  7
ＭＳ ゴシック
 73
     1
 44
0.7828267384257843
  0
MTEXT
  5
180
330
A
100
AcDbEntity
  8
TEMPLATE
390
1D
100
AcDbMText
 10
1831.20214454799
 20
230.1492906939282
 30
0.0
 40
24.4326171875
 41
0.0
 46
24.4326171875
 71
     1
 72
     1
  1
{1:10}
  7
ＭＳ ゴシック
 73
     1
 44
0.7828267384257843
1001
ACAD
1000
ACAD_MTEXT_DEFINED_HEIGHT_BEGIN
1070
    46
1040
24.4326171875
1000
ACAD_MTEXT_DEFINED_HEIGHT_END
  0
MTEXT
  5
181
330
A
100
AcDbEntity
  8
TEMPLATE
390
1D
100
AcDbMText
 10
1778.20214454799
 20
258.731751631428
 30
0.0
 40
16.28841145833333
 41
0.0
 46
0.0
 71
     1
 72
     1
  1
縮尺
  7
ＭＳ ゴシック
 73
     1
 44
0.7828267384257843
  0
LINE
  5
182
330
A
100
AcDbEntity
  8
TEMPLATE
390
1D
100
AcDbLine
 10
1771.20214454799
 20
182.1466735064282
 30
0.0
 11
1771.20214454799
 21
267.1466735064284
 31
0.0
  0
MTEXT
  5
183
330
A
100
AcDbEntity
  8
TEMPLATE
390
1D
100
AcDbMText
 10
1527.20214454799
 20
258.731751631428
 30
0.0
 40
16.28841145833333
 41
0.0
 46
0.0
 71
     1
 72
     1
  1
容量
  7
ＭＳ ゴシック
 73
     1
 44
0.7828267384257843
  0
LINE
  5
184
330
A
100
AcDbEntity
  8
TEMPLATE
390
1D
100
AcDbLine
 10
1520.20214454799
 20
182.1466735064282
 30
0.0
 11
1520.20214454799
 21
267.1466735064284
 31
0.0
  0
MTEXT
  5
185
330
A
100
AcDbEntity
  8
TEMPLATE
390
1D
100
AcDbMText
 10
1276.20214454799
 20
343.7317516314282
 30
0.0
 40
16.28841145833333
 41
0.0
 46
0.0
 71
     1
 72
     1
  1
品番
  7
ＭＳ ゴシック
 73
     1
 44
0.7828267384257843
  0
MTEXT
  5
186
330
A
100
AcDbEntity
  8
TEMPLATE
390
1D
100
AcDbMText
 10
1276.20214454799
 20
258.731751631428
 30
0.0
 40
16.28841145833333
 41
0.0
 46
0.0
 71
     1
 72
     1
  1
重量
  7
ＭＳ ゴシック
 73
     1
 44
0.7828267384257843
  0
MTEXT
  5
187
330
A
100
AcDbEntity
  8
TEMPLATE
390
1D
100
AcDbMText
 10
1329.20214454799
 20
315.1492906939282
 30
0.0
 40
24.4326171875
 41
0.0
 46
24.4326171875
 71
     1
 72
     1
  1
{GAR71-1701}
  7
ＭＳ ゴシック
 73
     1
 44
0.7828267384257843
1001
ACAD
1000
ACAD_MTEXT_DEFINED_HEIGHT_BEGIN
1070
    46
1040
24.4326171875
1000
ACAD_MTEXT_DEFINED_HEIGHT_END
  0
LINE
  5
188
330
A
100
AcDbEntity
  8
TEMPLATE
390
1D
100
AcDbLine
 10
1269.20214454799
 20
97.14667350642826
 30
0.0
 11
1269.20214454799
 21
352.1466735064282
 31
0.0
  0
MTEXT
  5
189
330
A
100
AcDbEntity
  8
TEMPLATE
390
1D
100
AcDbMText
 10
132.2021445477307
 20
315.1492906939282
 30
0.0
 40
24.4326171875
 41
0.0
 46
27.5355595703125
 71
     1
 72
     1
  1
{床置便器 -LAUFEN,Florakids-}
  7
ＭＳ ゴシック
 73
     1
 44
0.7828267384257843
1001
ACAD
1000
ACAD_MTEXT_DEFINED_HEIGHT_BEGIN
1070
    46
1040
27.5355595703125
1000
ACAD_MTEXT_DEFINED_HEIGHT_END
  0
INSERT
  5
6B5
330
A
100
AcDbEntity
  8
TEMPLATE
100
AcDbBlockReference
  2
名称未設定-1
 10
1870.75074808845
 20
25.94676575665382
 30
0.0
 41
0.7619999999999998
 42
0.7619999999999998
 43
0.7619999999999998
  0
MTEXT
  5
7D9
330
A
100
AcDbEntity
  8
TEMPLATE
390
1D
100
AcDbMText
 10
125.2543452760364
 20
226.8119760293952
 30
0.0
 40
24.4326171875
 41
0.0
 46
27.902048828125
 71
     1
 72
     1
  1
{ウォッシュダウン式/便座,床固定金具付属/}
  7
ＭＳ ゴシック
 73
     1
 44
0.9331787841240657
1001
ACAD
1000
ACAD_MTEXT_DEFINED_HEIGHT_BEGIN
1070
    46
1040
27.902048828125
1000
ACAD_MTEXT_DEFINED_HEIGHT_END
  0
INSERT
  5
68C
330
A
100
AcDbEntity
  8
TEMPLATE
100
AcDbBlockReference
  2
block 2
 10
919.2743017702577
 20
8.373076514336368
 30
0.0
 41
0.3809999999999999
 42
0.3809999999999999
 43
0.3809999999999999
  0
LWPOLYLINE
  5
DAC
330
A
100
AcDbEntity
  8
BORDER
100
AcDbPolyline
 90
        4
 70
     1
 43
0.0
 10
0.0
 20
0.0
 10
0.0
 20
2970.0
 10
2100.0
 20
2970.0
 10
2100.0
 20
0.0
  0
MTEXT
  5
1466
102
{ACAD_XDICTIONARY
360
1468
102
}
330
A
100
AcDbEntity
  8
TEMPLATE
 48
0.05
100
AcDbMText
 10
74.728656548571
 20
83.86172105142839
 30
0.0
 40
22.0
 41
0.0
 46
22.0
 71
     1
 72
     1
  1
{20180629N}
  7
ＭＳ ゴシック
 73
     1
 44
1.0
1001
ACAD
1000
ACAD_MTEXT_DEFINED_HEIGHT_BEGIN
1070
    46
1040
22.0
1000
ACAD_MTEXT_DEFINED_HEIGHT_END
  0
POINT
  5
262A
330
A
100
AcDbEntity
  8
Layer9
  6
Continuous
 62
     7
100
AcDbPoint
 10
1037.460145007193
 20
1010.220672371878
 30
0.0
  0
POINT
  5
262B
330
A
100
AcDbEntity
  8
Layer9
  6
Continuous
 62
     7
100
AcDbPoint
 10
1037.460146257193
 20
1010.220672788578
 30
0.0
  0
POINT
  5
262C
330
A
100
AcDbEntity
  8
Layer9
  6
Continuous
 62
     7
100
AcDbPoint
 10
1037.853693340493
 20
1015.267975288578
 30
0.0
  0
POINT
  5
2812
330
A
100
AcDbEntity
  8
Layer9
  6
Continuous
 62
     7
100
AcDbPoint
 10
925.7934783404928
 20
1010.220672371878
 30
0.0
  0
POINT
  5
2813
330
A
100
AcDbEntity
  8
Layer9
  6
Continuous
 62
     7
100
AcDbPoint
 10
925.7934795904928
 20
1010.220672788578
 30
0.0
  0
POINT
  5
2814
330
A
100
AcDbEntity
  8
Layer9
  6
Continuous
 62
     7
100
AcDbPoint
 10
926.1870266737928
 20
1015.267975288578
 30
0.0
  0
INSERT
  5
28CA
330
A
100
AcDbEntity
  8
Layer3
100
AcDbBlockReference
  2
SEANNOT_GROUP
 10
859.7083018867928
 20
826.1905269541776
 30
0.0
  0
POINT
  5
2A52
330
A
100
AcDbEntity
  8
Standard
  6
Continuous
 62
     7
100
AcDbPoint
 10
1036.111241014893
 20
1018.794321538578
 30
0.0
  0
INSERT
  5
2B9B
330
A
100
AcDbEntity
  8
Layer3
100
AcDbBlockReference
  2
SEANNOT_GROUP1
 10
859.7083018867928
 20
826.1905269541776
 30
0.0
  0
SPLINE
  5
3C16
330
A
100
AcDbEntity
  8
MODEL
100
AcDbSpline
210
0.0
220
0.0
230
1.0
 70
    11
 71
     3
 72
    17
 73
    13
 74
     0
 42
0.000000001
 43
0.0000000001
 40
0.0
 40
0.0
 40
0.0
 40
0.0
 40
1.0
 40
1.0
 40
1.0
 40
2.0
 40
2.0
 40
2.0
 40
3.0
 40
3.0
 40
3.0
 40
4.0
 40
4.0
 40
4.0
 40
4.0
 10
604.6074372228654
 20
2218.067831992811
 30
0.0
 10
600.4293458795987
 20
2218.067831992811
 30
0.0
 10
597.0510321484985
 20
2214.70279257893
 30
0.0
 10
597.0510321484985
 20
2210.529679104614
 30
0.0
 10
597.0510321484985
 20
2206.349928471692
 30
0.0
 10
600.4293458795987
 20
2202.984889057812
 30
0.0
 10
604.6074372228654
 20
2202.984889057812
 30
0.0
 10
608.757320642057
 20
2202.984889057812
 30
0.0
 10
612.1472494007107
 20
2206.349928471692
 30
0.0
 10
612.1472494007107
 20
2210.529679104614
 30
0.0
 10
612.1472494007107
 20
2214.70279257893
 30
0.0
 10
608.757320642057
 20
2218.067831992811
 30
0.0
 10
604.6074372228654
 20
2218.067831992811
 30
0.0
  0
SPLINE
  5
3C17
330
A
100
AcDbEntity
  8
MODEL
100
AcDbSpline
210
0.0
220
0.0
230
1.0
 70
    11
 71
     3
 72
    17
 73
    13
 74
     0
 42
0.000000001
 43
0.0000000001
 40
0.0
 40
0.0
 40
0.0
 40
0.0
 40
1.0
 40
1.0
 40
1.0
 40
2.0
 40
2.0
 40
2.0
 40
3.0
 40
3.0
 40
3.0
 40
4.0
 40
4.0
 40
4.0
 40
4.0
 10
604.6074372228654
 20
2348.021738233316
 30
0.0
 10
600.4293458795987
 20
2348.021738233316
 30
0.0
 10
597.0510321484985
 20
2344.656698819434
 30
0.0
 10
597.0510321484985
 20
2340.476948186513
 30
0.0
 10
597.0510321484985
 20
2336.315449739761
 30
0.0
 10
600.4293458795987
 20
2332.95041032588
 30
0.0
 10
604.6074372228654
 20
2332.95041032588
 30
0.0
 10
608.757320642057
 20
2332.95041032588
 30
0.0
 10
612.1472494007107
 20
2336.315449739761
 30
0.0
 10
612.1472494007107
 20
2340.476948186513
 30
0.0
 10
612.1472494007107
 20
2344.656698819434
 30
0.0
 10
608.757320642057
 20
2348.021738233316
 30
0.0
 10
604.6074372228654
 20
2348.021738233316
 30
0.0
  0
SPLINE
  5
3C19
330
A
100
AcDbEntity
  8
MODEL
100
AcDbSpline
210
0.0
220
0.0
230
1.0
 70
     8
 71
     3
 72
    11
 73
     7
 74
     0
 42
0.000000001
 43
0.0000000001
 40
0.0
 40
0.0
 40
0.0
 40
0.0
 40
1.0
 40
1.0
 40
1.0
 40
2.0
 40
2.0
 40
2.0
 40
2.0
 10
753.3362058736607
 20
1712.054178354585
 30
0.0
 10
753.3362058736607
 20
1712.054178354585
 30
0.0
 10
587.0322412308419
 20
1712.054178354585
 30
0.0
 10
587.0322412308419
 20
1712.054178354585
 30
0.0
 10
583.7136619272101
 20
1712.054178354585
 30
0.0
 10
580.8895509398212
 20
1714.718997535402
 30
0.0
 10
580.9144402845964
 20
1718.1006298458
 30
0.0
  0
SPLINE
  5
3C1A
330
A
100
AcDbEntity
  8
MODEL
100
AcDbSpline
210
0.0
220
0.0
230
1.0
 70
    11
 71
     3
 72
    17
 73
    13
 74
     0
 42
0.000000001
 43
0.0000000001
 40
0.0
 40
0.0
 40
0.0
 40
0.0
 40
1.0
 40
1.0
 40
1.0
 40
2.0
 40
2.0
 40
2.0
 40
3.0
 40
3.0
 40
3.0
 40
4.0
 40
4.0
 40
4.0
 40
4.0
 10
761.6442691602974
 20
768.9620596627942
 30
0.0
 10
761.6442691602974
 20
768.9620596627942
 30
0.0
 10
600.942066382006
 20
768.9620596627942
 30
0.0
 10
600.942066382006
 20
768.9620596627942
 30
0.0
 10
597.2999255962718
 20
768.9620596627942
 30
0.0
 10
596.795501542118
 20
774.6434674306097
 30
0.0
 10
596.795501542118
 20
774.6434674306097
 30
0.0
 10
596.795501542118
 20
774.6434674306097
 30
0.0
 10
765.7858561312282
 20
774.6434674306097
 30
0.0
 10
765.7858561312282
 20
774.6434674306097
 30
0.0
 10
765.7858561312282
 20
774.6434674306097
 30
0.0
 10
765.2797727874245
 20
768.9620596627942
 30
0.0
 10
761.6442691602974
 20
768.9620596627942
 30
0.0
  0
SPLINE
  5
3C1B
330
A
100
AcDbEntity
  8
MODEL
100
AcDbSpline
210
0.0
220
0.0
230
1.0
 70
    11
 71
     3
 72
    17
 73
    13
 74
     0
 42
0.000000001
 43
0.0000000001
 40
0.0
 40
0.0
 40
0.0
 40
0.0
 40
1.0
 40
1.0
 40
1.0
 40
2.0
 40
2.0
 40
2.0
 40
3.0
 40
3.0
 40
3.0
 40
4.0
 40
4.0
 40
4.0
 40
4.0
 10
761.6442691602974
 20
768.9620596627942
 30
0.0
 10
761.6442691602974
 20
768.9620596627942
 30
0.0
 10
600.942066382006
 20
768.9620596627942
 30
0.0
 10
600.942066382006
 20
768.9620596627942
 30
0.0
 10
597.2999255962718
 20
768.9620596627942
 30
0.0
 10
596.795501542118
 20
774.6434674306097
 30
0.0
 10
596.795501542118
 20
774.6434674306097
 30
0.0
 10
596.795501542118
 20
774.6434674306097
 30
0.0
 10
765.7858561312282
 20
774.6434674306097
 30
0.0
 10
765.7858561312282
 20
774.6434674306097
 30
0.0
 10
765.7858561312282
 20
774.6434674306097
 30
0.0
 10
765.2797727874245
 20
768.9620596627942
 30
0.0
 10
761.6442691602974
 20
768.9620596627942
 30
0.0
  0
SPLINE
  5
3C1C
330
A
100
AcDbEntity
  8
MODEL
100
AcDbSpline
210
0.0
220
0.0
230
1.0
 70
    11
 71
     3
 72
    17
 73
    13
 74
     0
 42
0.000000001
 43
0.0000000001
 40
0.0
 40
0.0
 40
0.0
 40
0.0
 40
1.0
 40
1.0
 40
1.0
 40
2.0
 40
2.0
 40
2.0
 40
3.0
 40
3.0
 40
3.0
 40
4.0
 40
4.0
 40
4.0
 40
4.0
 10
761.6442691602974
 20
781.831510202272
 30
0.0
 10
761.6442691602974
 20
781.831510202272
 30
0.0
 10
600.942066382006
 20
781.831510202272
 30
0.0
 10
600.942066382006
 20
781.831510202272
 30
0.0
 10
597.2999255962718
 20
781.831510202272
 30
0.0
 10
596.795501542118
 20
787.5129179700875
 30
0.0
 10
596.795501542118
 20
787.5129179700875
 30
0.0
 10
596.795501542118
 20
787.5129179700875
 30
0.0
 10
765.7858561312282
 20
787.5129179700875
 30
0.0
 10
765.7858561312282
 20
787.5129179700875
 30
0.0
 10
765.7858561312282
 20
787.5129179700875
 30
0.0
 10
765.2797727874245
 20
781.831510202272
 30
0.0
 10
761.6442691602974
 20
781.831510202272
 30
0.0
  0
SPLINE
  5
3C1D
330
A
100
AcDbEntity
  8
MODEL
100
AcDbSpline
210
0.0
220
0.0
230
1.0
 70
    11
 71
     3
 72
    17
 73
    13
 74
     0
 42
0.000000001
 43
0.0000000001
 40
0.0
 40
0.0
 40
0.0
 40
0.0
 40
1.0
 40
1.0
 40
1.0
 40
2.0
 40
2.0
 40
2.0
 40
3.0
 40
3.0
 40
3.0
 40
4.0
 40
4.0
 40
4.0
 40
4.0
 10
761.6442691602974
 20
781.831510202272
 30
0.0
 10
761.6442691602974
 20
781.831510202272
 30
0.0
 10
600.942066382006
 20
781.831510202272
 30
0.0
 10
600.942066382006
 20
781.831510202272
 30
0.0
 10
597.2999255962718
 20
781.831510202272
 30
0.0
 10
596.795501542118
 20
787.5129179700875
 30
0.0
 10
596.795501542118
 20
787.5129179700875
 30
0.0
 10
596.795501542118
 20
787.5129179700875
 30
0.0
 10
765.7858561312282
 20
787.5129179700875
 30
0.0
 10
765.7858561312282
 20
787.5129179700875
 30
0.0
 10
765.7858561312282
 20
787.5129179700875
 30
0.0
 10
765.2797727874245
 20
781.831510202272
 30
0.0
 10
761.6442691602974
 20
781.831510202272
 30
0.0
  0
SPLINE
  5
3C1E
330
A
100
AcDbEntity
  8
MODEL
100
AcDbSpline
210
0.0
220
0.0
230
1.0
 70
    11
 71
     3
 72
    17
 73
    13
 74
     0
 42
0.000000001
 43
0.0000000001
 40
0.0
 40
0.0
 40
0.0
 40
0.0
 40
1.0
 40
1.0
 40
1.0
 40
2.0
 40
2.0
 40
2.0
 40
3.0
 40
3.0
 40
3.0
 40
4.0
 40
4.0
 40
4.0
 40
4.0
 10
761.6442691602974
 20
794.6943235831427
 30
0.0
 10
761.6442691602974
 20
794.6943235831427
 30
0.0
 10
600.942066382006
 20
794.6943235831427
 30
0.0
 10
600.942066382006
 20
794.6943235831427
 30
0.0
 10
597.2999255962718
 20
794.6943235831427
 30
0.0
 10
596.795501542118
 20
800.3757313509573
 30
0.0
 10
596.795501542118
 20
800.3757313509573
 30
0.0
 10
596.795501542118
 20
800.3757313509573
 30
0.0
 10
765.7858561312282
 20
800.3757313509573
 30
0.0
 10
765.7858561312282
 20
800.3757313509573
 30
0.0
 10
765.7858561312282
 20
800.3757313509573
 30
0.0
 10
765.2797727874245
 20
794.6943235831427
 30
0.0
 10
761.6442691602974
 20
794.6943235831427
 30
0.0
  0
SPLINE
  5
3C1F
330
A
100
AcDbEntity
  8
MODEL
100
AcDbSpline
210
0.0
220
0.0
230
1.0
 70
    11
 71
     3
 72
    17
 73
    13
 74
     0
 42
0.000000001
 43
0.0000000001
 40
0.0
 40
0.0
 40
0.0
 40
0.0
 40
1.0
 40
1.0
 40
1.0
 40
2.0
 40
2.0
 40
2.0
 40
3.0
 40
3.0
 40
3.0
 40
4.0
 40
4.0
 40
4.0
 40
4.0
 10
761.6442691602974
 20
794.6943235831427
 30
0.0
 10
761.6442691602974
 20
794.6943235831427
 30
0.0
 10
600.942066382006
 20
794.6943235831427
 30
0.0
 10
600.942066382006
 20
794.6943235831427
 30
0.0
 10
597.2999255962718
 20
794.6943235831427
 30
0.0
 10
596.795501542118
 20
800.3757313509573
 30
0.0
 10
596.795501542118
 20
800.3757313509573
 30
0.0
 10
596.795501542118
 20
800.3757313509573
 30
0.0
 10
765.7858561312282
 20
800.3757313509573
 30
0.0
 10
765.7858561312282
 20
800.3757313509573
 30
0.0
 10
765.7858561312282
 20
800.3757313509573
 30
0.0
 10
765.2797727874245
 20
794.6943235831427
 30
0.0
 10
761.6442691602974
 20
794.6943235831427
 30
0.0
  0
SPLINE
  5
3C20
330
A
100
AcDbEntity
  8
MODEL
100
AcDbSpline
210
0.0
220
0.0
230
1.0
 70
     8
 71
     3
 72
     8
 73
     4
 74
     0
 42
0.000000001
 43
0.0000000001
 40
0.0
 40
0.0
 40
0.0
 40
0.0
 40
1.0
 40
1.0
 40
1.0
 40
1.0
 10
575.1517273238428
 20
844.871242654031
 30
0.0
 10
575.1517273238428
 20
816.0261513468781
 30
0.0
 10
588.1323502699966
 20
810.9221763778946
 30
0.0
 10
604.1760219133944
 20
810.9221763778946
 30
0.0
  0
SPLINE
  5
3C21
330
A
100
AcDbEntity
  8
MODEL
100
AcDbSpline
210
0.0
220
0.0
230
1.0
 70
     8
 71
     3
 72
     8
 73
     4
 74
     0
 42
0.000000001
 43
0.0000000001
 40
0.0
 40
0.0
 40
0.0
 40
0.0
 40
1.0
 40
1.0
 40
1.0
 40
1.0
 10
786.9583920883892
 20
844.871242654031
 30
0.0
 10
786.9583920883892
 20
816.0261513468781
 30
0.0
 10
773.4053142123635
 20
810.9221763778946
 30
0.0
 10
756.6597630462461
 20
810.9221763778946
 30
0.0
  0
SPLINE
  5
3C22
330
A
100
AcDbEntity
  8
MODEL
100
AcDbSpline
210
0.0
220
0.0
230
1.0
 70
     8
 71
     3
 72
     8
 73
     4
 74
     0
 42
0.000000001
 43
0.0000000001
 40
0.0
 40
0.0
 40
0.0
 40
0.0
 40
1.0
 40
1.0
 40
1.0
 40
1.0
 10
575.1517273238428
 20
844.871242654031
 30
0.0
 10
575.1517273238428
 20
848.8867236114233
 30
0.0
 10
578.3259484277701
 20
852.1322941703743
 30
0.0
 10
582.2468498750063
 20
852.1322941703743
 30
0.0
  0
SPLINE
  5
3C23
330
A
100
AcDbEntity
  8
MODEL
100
AcDbSpline
210
0.0
220
0.0
230
1.0
 70
     8
 71
     3
 72
     8
 73
     4
 74
     0
 42
0.000000001
 43
0.0000000001
 40
0.0
 40
0.0
 40
0.0
 40
0.0
 40
1.0
 40
1.0
 40
1.0
 40
1.0
 10
786.9583920883892
 20
844.871242654031
 30
0.0
 10
786.9583920883892
 20
848.8867236114233
 30
0.0
 10
783.7841709844656
 20
852.1322941703743
 30
0.0
 10
779.8632695372257
 20
852.1322941703743
 30
0.0
  0
SPLINE
  5
3C24
330
A
100
AcDbEntity
  8
MODEL
100
AcDbSpline
210
0.0
220
0.0
230
1.0
 70
    11
 71
     3
 72
    32
 73
    28
 74
     0
 42
0.000000001
 43
0.0000000001
 40
0.0
 40
0.0
 40
0.0
 40
0.0
 40
1.0
 40
1.0
 40
1.0
 40
2.0
 40
2.0
 40
2.0
 40
3.0
 40
3.0
 40
3.0
 40
4.0
 40
4.0
 40
4.0
 40
5.0
 40
5.0
 40
5.0
 40
6.0
 40
6.0
 40
6.0
 40
7.0
 40
7.0
 40
7.0
 40
8.0
 40
8.0
 40
8.0
 40
9.0
 40
9.0
 40
9.0
 40
9.0
 10
1623.19225720329
 20
1791.80959475873
 30
0.0
 10
1623.19225720329
 20
1791.80959475873
 30
0.0
 10
1710.981954101521
 20
1791.80959475873
 30
0.0
 10
1710.981954101521
 20
1791.80959475873
 30
0.0
 10
1715.203186975738
 20
1791.80959475873
 30
0.0
 10
1722.026186024003
 20
1788.384820917383
 30
0.0
 10
1722.026186024003
 20
1784.160269463863
 30
0.0
 10
1722.026186024003
 20
1784.160269463863
 30
0.0
 10
1722.026186024003
 20
1784.160269463863
 30
0.0
 10
1722.026186024003
 20
1784.160269463863
 30
0.0
 10
1722.026186024003
 20
1776.520899906905
 30
0.0
 10
1722.026186024003
 20
1776.520899906905
 30
0.0
 10
1714.380179308435
 20
1776.520899906905
 30
0.0
 10
1714.380179308435
 20
1776.520899906905
 30
0.0
 10
1370.027797867253
 20
1776.520899906905
 30
0.0
 10
1370.027797867253
 20
1776.520899906905
 30
0.0
 10
1362.381791151689
 20
1776.520899906905
 30
0.0
 10
1362.381791151689
 20
1776.520899906905
 30
0.0
 10
1362.381791151689
 20
1784.160269463863
 30
0.0
 10
1362.381791151689
 20
1784.160269463863
 30
0.0
 10
1362.381791151689
 20
1784.160269463863
 30
0.0
 10
1362.381791151689
 20
1784.160269463863
 30
0.0
 10
1362.381791151689
 20
1788.384820917383
 30
0.0
 10
1369.204790199951
 20
1791.80959475873
 30
0.0
 10
1373.426023074172
 20
1791.80959475873
 30
0.0
 10
1373.426023074172
 20
1791.80959475873
 30
0.0
 10
1623.19225720329
 20
1791.80959475873
 30
0.0
 10
1623.19225720329
 20
1791.80959475873
 30
0.0
  0
SPLINE
  5
3C25
330
A
100
AcDbEntity
  8
MODEL
100
AcDbSpline
210
0.0
220
0.0
230
1.0
 70
     8
 71
     3
 72
     8
 73
     4
 74
     0
 42
0.000000001
 43
0.0000000001
 40
0.0
 40
0.0
 40
0.0
 40
0.0
 40
1.0
 40
1.0
 40
1.0
 40
1.0
 10
1432.556469106254
 20
1791.80959475873
 30
0.0
 10
1447.569721875876
 20
1791.80959475873
 30
0.0
 10
1475.834061804894
 20
1814.43566845088
 30
0.0
 10
1541.442374637664
 20
1814.43566845088
 30
0.0
  0
SPLINE
  5
3C26
330
A
100
AcDbEntity
  8
MODEL
100
AcDbSpline
210
0.0
220
0.0
230
1.0
 70
     8
 71
     3
 72
     8
 73
     4
 74
     0
 42
0.000000001
 43
0.0000000001
 40
0.0
 40
0.0
 40
0.0
 40
0.0
 40
1.0
 40
1.0
 40
1.0
 40
1.0
 10
1650.315005851855
 20
1791.80959475873
 30
0.0
 10
1635.301753082233
 20
1791.80959475873
 30
0.0
 10
1607.05068747043
 20
1814.43566845088
 30
0.0
 10
1541.442374637664
 20
1814.43566845088
 30
0.0
  0
SPLINE
  5
3C28
330
A
100
AcDbEntity
  8
MODEL
100
AcDbSpline
210
0.0
220
0.0
230
1.0
 70
    11
 71
     3
 72
    17
 73
    13
 74
     0
 42
0.000000001
 43
0.0000000001
 40
0.0
 40
0.0
 40
0.0
 40
0.0
 40
1.0
 40
1.0
 40
1.0
 40
2.0
 40
2.0
 40
2.0
 40
3.0
 40
3.0
 40
3.0
 40
4.0
 40
4.0
 40
4.0
 40
4.0
 10
752.2709419171956
 20
1438.46552269436
 30
0.0
 10
752.2709419171956
 20
1470.602644670714
 30
0.0
 10
726.2200943836983
 20
1496.653492204211
 30
0.0
 10
694.0829724073415
 20
1496.653492204211
 30
0.0
 10
661.9458504309846
 20
1496.653492204211
 30
0.0
 10
635.8950028974909
 20
1470.602644670714
 30
0.0
 10
635.8950028974909
 20
1438.46552269436
 30
0.0
 10
635.8950028974909
 20
1406.328400718005
 30
0.0
 10
661.9458504309846
 20
1380.277553184509
 30
0.0
 10
694.0829724073415
 20
1380.277553184509
 30
0.0
 10
726.2200943836983
 20
1380.277553184509
 30
0.0
 10
752.2709419171956
 20
1406.328400718005
 30
0.0
 10
752.2709419171956
 20
1438.46552269436
 30
0.0
  0
SPLINE
  5
3C4B
330
A
100
AcDbEntity
  8
MODEL
100
AcDbSpline
210
0.0
220
0.0
230
1.0
 70
     8
 71
     3
 72
     8
 73
     4
 74
     0
 42
0.000000001
 43
0.0000000001
 40
0.0
 40
0.0
 40
0.0
 40
0.0
 40
1.0
 40
1.0
 40
1.0
 40
1.0
 10
710.1083918645713
 20
2409.385588136741
 30
0.0
 10
704.6858332824418
 20
2408.013355594691
 30
0.0
 10
699.2798675968265
 20
2406.584707204477
 30
0.0
 10
693.8904948077329
 20
2405.109598704015
 30
0.0
  0
SPLINE
  5
3C4C
330
A
100
AcDbEntity
  8
MODEL
100
AcDbSpline
210
0.0
220
0.0
230
1.0
 70
     8
 71
     3
 72
     8
 73
     4
 74
     0
 42
0.000000001
 43
0.0000000001
 40
1.0
 40
1.0
 40
1.0
 40
1.0
 40
2.0
 40
2.0
 40
2.0
 40
2.0
 10
693.8904948077329
 20
2405.109598704015
 30
0.0
 10
675.3794594520809
 20
2400.050424555631
 30
0.0
 10
656.881698413647
 20
2394.817024993804
 30
0.0
 10
638.7157953055762
 20
2388.647786068357
 30
0.0
  0
SPLINE
  5
3C4D
330
A
100
AcDbEntity
  8
MODEL
100
AcDbSpline
210
0.0
220
0.0
230
1.0
 70
     8
 71
     3
 72
    11
 73
     7
 74
     0
 42
0.000000001
 43
0.0000000001
 40
2.0
 40
2.0
 40
2.0
 40
2.0
 40
3.0
 40
3.0
 40
3.0
 40
4.0
 40
4.0
 40
4.0
 40
4.0
 10
638.7157953055762
 20
2388.647786068357
 30
0.0
 10
624.8225630509301
 20
2383.93374416755
 30
0.0
 10
611.0803261545957
 20
2378.886185046729
 30
0.0
 10
597.5322261475271
 20
2373.274467444291
 30
0.0
 10
597.5322261475271
 20
2373.274467444291
 30
0.0
 10
594.1920760784201
 20
2371.874026978158
 30
0.0
 10
594.1920760784201
 20
2371.874026978158
 30
0.0
  0
SPLINE
  5
3C4E
330
A
100
AcDbEntity
  8
MODEL
100
AcDbSpline
210
0.0
220
0.0
230
1.0
 70
     8
 71
     3
 72
     8
 73
     4
 74
     0
 42
0.000000001
 43
0.0000000001
 40
4.0
 40
4.0
 40
4.0
 40
4.0
 40
5.0
 40
5.0
 40
5.0
 40
5.0
 10
594.1920760784201
 20
2371.874026978158
 30
0.0
 10
587.3242762095583
 20
2369.318720914363
 30
0.0
 10
581.8851247309108
 20
2361.383997799383
 30
0.0
 10
581.9813635307187
 20
2354.038322510798
 30
0.0
  0
SPLINE
  5
3C4F
330
A
100
AcDbEntity
  8
MODEL
100
AcDbSpline
210
0.0
220
0.0
230
1.0
 70
     8
 71
     3
 72
     8
 73
     4
 74
     0
 42
0.000000001
 43
0.0000000001
 40
5.0
 40
5.0
 40
5.0
 40
5.0
 40
6.0
 40
6.0
 40
6.0
 40
6.0
 10
581.9813635307187
 20
2354.038322510798
 30
0.0
 10
581.3707449388462
 20
2334.422200247039
 30
0.0
 10
580.1893307067553
 20
2295.156769926487
 30
0.0
 10
579.5986235907117
 20
2275.515758317953
 30
0.0
  0
SPLINE
  5
3C50
330
A
100
AcDbEntity
  8
MODEL
100
AcDbSpline
210
0.0
220
0.0
230
1.0
 70
     8
 71
     3
 72
     8
 73
     4
 74
     0
 42
0.000000001
 43
0.0000000001
 40
6.0
 40
6.0
 40
6.0
 40
6.0
 40
7.0
 40
7.0
 40
7.0
 40
7.0
 10
579.5986235907117
 20
2275.515758317953
 30
0.0
 10
580.1893307067553
 20
2255.874746709417
 30
0.0
 10
581.3707449388462
 20
2216.596042071651
 30
0.0
 10
581.9813635307187
 20
2196.981579097544
 30
0.0
  0
SPLINE
  5
3C51
330
A
100
AcDbEntity
  8
MODEL
100
AcDbSpline
210
0.0
220
0.0
230
1.0
 70
     8
 71
     3
 72
    11
 73
     7
 74
     0
 42
0.000000001
 43
0.0000000001
 40
7.0
 40
7.0
 40
7.0
 40
7.0
 40
8.0
 40
8.0
 40
8.0
 40
9.0
 40
9.0
 40
9.0
 40
9.0
 10
581.9813635307187
 20
2196.981579097544
 30
0.0
 10
581.8851247309108
 20
2189.635903808958
 30
0.0
 10
587.3242762095583
 20
2181.712795721542
 30
0.0
 10
594.1920760784201
 20
2179.157489657746
 30
0.0
 10
594.1920760784201
 20
2179.157489657746
 30
0.0
 10
597.5322261475271
 20
2177.745434164053
 30
0.0
 10
597.5322261475271
 20
2177.745434164053
 30
0.0
  0
SPLINE
  5
3C52
330
A
100
AcDbEntity
  8
MODEL
100
AcDbSpline
210
0.0
220
0.0
230
1.0
 70
     8
 71
     3
 72
     8
 73
     4
 74
     0
 42
0.000000001
 43
0.0000000001
 40
9.0
 40
9.0
 40
9.0
 40
9.0
 40
10.0
 40
10.0
 40
10.0
 40
10.0
 10
597.5322261475271
 20
2177.745434164053
 30
0.0
 10
611.0803261545957
 20
2172.132057271962
 30
0.0
 10
624.8225630509301
 20
2167.08449815114
 30
0.0
 10
638.7157953055762
 20
2162.36713767103
 30
0.0
  0
SPLINE
  5
3C53
330
A
100
AcDbEntity
  8
MODEL
100
AcDbSpline
210
0.0
220
0.0
230
1.0
 70
     8
 71
     3
 72
     8
 73
     4
 74
     0
 42
0.000000001
 43
0.0000000001
 40
10.0
 40
10.0
 40
10.0
 40
10.0
 40
11.0
 40
11.0
 40
11.0
 40
11.0
 10
638.7157953055762
 20
2162.36713767103
 30
0.0
 10
656.881698413647
 20
2156.201217324885
 30
0.0
 10
675.3794594520809
 20
2150.969477052712
 30
0.0
 10
693.8904948077329
 20
2145.897028587112
 30
0.0
  0
SPLINE
  5
3C54
330
A
100
AcDbEntity
  8
MODEL
100
AcDbSpline
210
0.0
220
0.0
230
1.0
 70
     8
 71
     3
 72
     8
 73
     4
 74
     0
 42
0.000000001
 43
0.0000000001
 40
11.0
 40
11.0
 40
11.0
 40
11.0
 40
12.0
 40
12.0
 40
12.0
 40
12.0
 10
693.8904948077329
 20
2145.897028587112
 30
0.0
 10
699.2881640450873
 20
2144.418601507346
 30
0.0
 10
704.7024261789597
 20
2142.991612406784
 30
0.0
 10
710.1332812093501
 20
2141.616061285431
 30
0.0
  0
SPLINE
  5
3C55
330
A
100
AcDbEntity
  8
MODEL
100
AcDbSpline
210
0.0
220
0.0
230
1.0
 70
     8
 71
     3
 72
     8
 73
     4
 74
     0
 42
0.000000001
 43
0.0000000001
 40
0.0
 40
0.0
 40
0.0
 40
0.0
 40
1.0
 40
1.0
 40
1.0
 40
1.0
 10
870.2978741404518
 20
2147.171363039707
 30
0.0
 10
883.3697580174526
 20
2153.126553600072
 30
0.0
 10
895.8725055438777
 20
2160.298003475217
 30
0.0
 10
907.5688382995218
 20
2168.632615396284
 30
0.0
  0
SPLINE
  5
3C56
330
A
100
AcDbEntity
  8
MODEL
100
AcDbSpline
210
0.0
220
0.0
230
1.0
 70
     8
 71
     3
 72
     8
 73
     4
 74
     0
 42
0.000000001
 43
0.0000000001
 40
1.0
 40
1.0
 40
1.0
 40
1.0
 40
2.0
 40
2.0
 40
2.0
 40
2.0
 10
907.5688382995218
 20
2168.632615396284
 30
0.0
 10
922.4194806832679
 20
2179.207268347302
 30
0.0
 10
936.05220446258
 20
2192.473289113563
 30
0.0
 10
945.754071056745
 20
2207.974373040819
 30
0.0
  0
SPLINE
  5
3C57
330
A
100
AcDbEntity
  8
MODEL
100
AcDbSpline
210
0.0
220
0.0
230
1.0
 70
     8
 71
     3
 72
     8
 73
     4
 74
     0
 42
0.000000001
 43
0.0000000001
 40
2.0
 40
2.0
 40
2.0
 40
2.0
 40
3.0
 40
3.0
 40
3.0
 40
3.0
 10
945.754071056745
 20
2207.974373040819
 30
0.0
 10
955.5322649748891
 20
2223.63474877465
 30
0.0
 10
961.0991817567306
 20
2240.745343664168
 30
0.0
 10
963.6295984757494
 20
2258.969321910053
 30
0.0
  0
SPLINE
  5
3C58
330
A
100
AcDbEntity
  8
MODEL
100
AcDbSpline
210
0.0
220
0.0
230
1.0
 70
     8
 71
     3
 72
     8
 73
     4
 74
     0
 42
0.000000001
 43
0.0000000001
 40
3.0
 40
3.0
 40
3.0
 40
3.0
 40
4.0
 40
4.0
 40
4.0
 40
4.0
 10
963.6295984757494
 20
2258.969321910053
 30
0.0
 10
964.374619529412
 20
2264.426725574872
 30
0.0
 10
964.5488449428526
 20
2270.000279515319
 30
0.0
 10
964.5986236324065
 20
2275.515758317953
 30
0.0
  0
SPLINE
  5
3C59
330
A
100
AcDbEntity
  8
MODEL
100
AcDbSpline
210
0.0
220
0.0
230
1.0
 70
     8
 71
     3
 72
     8
 73
     4
 74
     0
 42
0.000000001
 43
0.0000000001
 40
4.0
 40
4.0
 40
4.0
 40
4.0
 40
5.0
 40
5.0
 40
5.0
 40
5.0
 10
964.5986236324065
 20
2275.515758317953
 30
0.0
 10
964.5488449428526
 20
2281.031237120585
 30
0.0
 10
964.374619529412
 20
2286.59317603347
 30
0.0
 10
963.6295984757494
 20
2292.062194725851
 30
0.0
  0
SPLINE
  5
3C5A
330
A
100
AcDbEntity
  8
MODEL
100
AcDbSpline
210
0.0
220
0.0
230
1.0
 70
     8
 71
     3
 72
     8
 73
     4
 74
     0
 42
0.000000001
 43
0.0000000001
 40
5.0
 40
5.0
 40
5.0
 40
5.0
 40
6.0
 40
6.0
 40
6.0
 40
6.0
 10
963.6295984757494
 20
2292.062194725851
 30
0.0
 10
961.0991817567306
 20
2310.26128362696
 30
0.0
 10
955.5322649748891
 20
2327.385152833692
 30
0.0
 10
945.754071056745
 20
2343.032254250308
 30
0.0
  0
SPLINE
  5
3C5B
330
A
100
AcDbEntity
  8
MODEL
100
AcDbSpline
210
0.0
220
0.0
230
1.0
 70
     8
 71
     3
 72
     8
 73
     4
 74
     0
 42
0.000000001
 43
0.0000000001
 40
6.0
 40
6.0
 40
6.0
 40
6.0
 40
7.0
 40
7.0
 40
7.0
 40
7.0
 10
945.754071056745
 20
2343.032254250308
 30
0.0
 10
936.05220446258
 20
2358.558227522343
 30
0.0
 10
922.4194806832679
 20
2371.797699654174
 30
0.0
 10
907.5688382995218
 20
2382.385626922407
 30
0.0
  0
SPLINE
  5
3C5C
330
A
100
AcDbEntity
  8
MODEL
100
AcDbSpline
210
0.0
220
0.0
230
1.0
 70
     8
 71
     3
 72
     8
 73
     4
 74
     0
 42
0.000000001
 43
0.0000000001
 40
7.0
 40
7.0
 40
7.0
 40
7.0
 40
8.0
 40
8.0
 40
8.0
 40
8.0
 10
907.5688382995218
 20
2382.385626922407
 30
0.0
 10
895.8725055438777
 20
2390.731853871037
 30
0.0
 10
883.3647801484954
 20
2397.908281615137
 30
0.0
 10
870.2928962714982
 20
2403.856835016894
 30
0.0
  0
SPLINE
  5
3C5D
330
A
100
AcDbEntity
  8
MODEL
100
AcDbSpline
210
0.0
220
0.0
230
1.0
 70
     8
 71
     3
 72
    17
 73
    13
 74
     0
 42
0.000000001
 43
0.0000000001
 40
0.0
 40
0.0
 40
0.0
 40
0.0
 40
1.0
 40
1.0
 40
1.0
 40
2.0
 40
2.0
 40
2.0
 40
3.0
 40
3.0
 40
3.0
 40
4.0
 40
4.0
 40
4.0
 40
4.0
 10
874.6286201316912
 20
2313.57986293059
 30
0.0
 10
860.8731089181424
 20
2313.443801179142
 30
0.0
 10
850.7116190904276
 20
2313.554973585813
 30
0.0
 10
836.9444928493181
 20
2313.604752275367
 30
0.0
 10
836.9444928493181
 20
2313.604752275367
 30
0.0
 10
836.5396261742758
 20
2313.604752275367
 30
0.0
 10
836.5396261742758
 20
2313.604752275367
 30
0.0
 10
833.483214635628
 20
2313.604752275367
 30
0.0
 10
830.4218252280339
 20
2313.651212385618
 30
0.0
 10
827.3637543997361
 20
2313.727539709601
 30
0.0
 10
827.3637543997361
 20
2313.727539709601
 30
0.0
 10
826.5424060220871
 20
2313.798889164631
 30
0.0
 10
825.508668569008
 20
2313.457075496355
 30
0.0
  0
SPLINE
  5
3C5E
330
A
100
AcDbEntity
  8
MODEL
100
AcDbSpline
210
0.0
220
0.0
230
1.0
 70
     8
 71
     3
 72
     8
 73
     4
 74
     0
 42
0.000000001
 43
0.0000000001
 40
4.0
 40
4.0
 40
4.0
 40
4.0
 40
5.0
 40
5.0
 40
5.0
 40
5.0
 10
825.508668569008
 20
2313.457075496355
 30
0.0
 10
824.4765904055789
 20
2313.136832593556
 30
0.0
 10
823.9870999582968
 20
2311.774555789415
 30
0.0
 10
823.839423179285
 20
2310.092036082474
 30
0.0
  0
SPLINE
  5
3C5F
330
A
100
AcDbEntity
  8
MODEL
100
AcDbSpline
210
0.0
220
0.0
230
1.0
 70
     8
 71
     3
 72
    23
 73
    19
 74
     0
 42
0.000000001
 43
0.0000000001
 40
5.0
 40
5.0
 40
5.0
 40
5.0
 40
6.0
 40
6.0
 40
6.0
 40
7.0
 40
7.0
 40
7.0
 40
8.0
 40
8.0
 40
8.0
 40
9.0
 40
9.0
 40
9.0
 40
10.0
 40
10.0
 40
10.0
 40
11.0
 40
11.0
 40
11.0
 40
11.0
 10
823.839423179285
 20
2310.092036082474
 30
0.0
 10
823.839423179285
 20
2308.814383050577
 30
0.0
 10
823.8775868412745
 20
2306.305537097034
 30
0.0
 10
823.8775868412745
 20
2305.019587616877
 30
0.0
 10
823.8775868412745
 20
2305.019587616877
 30
0.0
 10
823.8775868412745
 20
2304.994698272099
 30
0.0
 10
823.8775868412745
 20
2304.994698272099
 30
0.0
 10
823.8775868412745
 20
2304.994698272099
 30
0.0
 10
823.8775868412745
 20
2275.515758317953
 30
0.0
 10
823.8775868412745
 20
2275.515758317953
 30
0.0
 10
823.8775868412745
 20
2275.515758317953
 30
0.0
 10
823.8775868412745
 20
2246.025203336243
 30
0.0
 10
823.8775868412745
 20
2246.025203336243
 30
0.0
 10
823.8775868412745
 20
2246.025203336243
 30
0.0
 10
823.8775868412745
 20
2245.998654701814
 30
0.0
 10
823.8775868412745
 20
2245.998654701814
 30
0.0
 10
823.8775868412745
 20
2244.721001669916
 30
0.0
 10
823.839423179285
 20
2242.203859268112
 30
0.0
 10
823.839423179285
 20
2240.926206236215
 30
0.0
  0
SPLINE
  5
3C60
330
A
100
AcDbEntity
  8
MODEL
100
AcDbSpline
210
0.0
220
0.0
230
1.0
 70
     8
 71
     3
 72
     8
 73
     4
 74
     0
 42
0.000000001
 43
0.0000000001
 40
11.0
 40
11.0
 40
11.0
 40
11.0
 40
12.0
 40
12.0
 40
12.0
 40
12.0
 10
823.839423179285
 20
2240.926206236215
 30
0.0
 10
823.9870999582968
 20
2239.243686529273
 30
0.0
 10
824.4765904055789
 20
2237.881409725134
 30
0.0
 10
825.508668569008
 20
2237.549551794772
 30
0.0
  0
SPLINE
  5
3C61
330
A
100
AcDbEntity
  8
MODEL
100
AcDbSpline
210
0.0
220
0.0
230
1.0
 70
     8
 71
     3
 72
     8
 73
     4
 74
     0
 42
0.000000001
 43
0.0000000001
 40
12.0
 40
12.0
 40
12.0
 40
12.0
 40
13.0
 40
13.0
 40
13.0
 40
13.0
 10
825.508668569008
 20
2237.549551794772
 30
0.0
 10
826.5424060220871
 20
2237.229308891971
 30
0.0
 10
827.3637543997361
 20
2237.279087581525
 30
0.0
 10
827.3637543997361
 20
2237.279087581525
 30
0.0
  0
SPLINE
  5
3C62
330
A
100
AcDbEntity
  8
MODEL
100
AcDbSpline
210
0.0
220
0.0
230
1.0
 70
     8
 71
     3
 72
    11
 73
     7
 74
     0
 42
0.000000001
 43
0.0000000001
 40
13.0
 40
13.0
 40
13.0
 40
13.0
 40
14.0
 40
14.0
 40
14.0
 40
15.0
 40
15.0
 40
15.0
 40
15.0
 10
827.3637543997361
 20
2237.279087581525
 30
0.0
 10
830.4218252280339
 20
2237.355414905509
 30
0.0
 10
833.483214635628
 20
2237.413490043321
 30
0.0
 10
836.5396261742758
 20
2237.413490043321
 30
0.0
 10
836.5396261742758
 20
2237.413490043321
 30
0.0
 10
836.9444928493181
 20
2237.413490043321
 30
0.0
 10
836.9444928493181
 20
2237.413490043321
 30
0.0
  0
SPLINE
  5
3C63
330
A
100
AcDbEntity
  8
MODEL
100
AcDbSpline
210
0.0
220
0.0
230
1.0
 70
     8
 71
     3
 72
     8
 73
     4
 74
     0
 42
0.000000001
 43
0.0000000001
 40
15.0
 40
15.0
 40
15.0
 40
15.0
 40
16.0
 40
16.0
 40
16.0
 40
16.0
 10
836.9444928493181
 20
2237.413490043321
 30
0.0
 10
850.7116190904276
 20
2237.478202339744
 30
0.0
 10
862.7165797213097
 20
2237.574441139549
 30
0.0
 10
876.4704316452048
 20
2237.451653705315
 30
0.0
  0
LINE
  5
3C64
330
A
100
AcDbEntity
  8
HIDDEN
 48
0.5
100
AcDbLine
 10
621.5587403058094
 20
2210.529679104614
 30
0.0
 11
587.6312447951464
 21
2210.529679104614
 31
0.0
  0
LINE
  5
3C65
330
A
100
AcDbEntity
  8
HIDDEN
 48
0.5
100
AcDbLine
 10
604.6074372228654
 20
2193.553486676895
 30
0.0
 11
604.6074372228654
 21
2227.487619346165
 31
0.0
  0
LINE
  5
3C66
330
A
100
AcDbEntity
  8
HIDDEN
 48
0.5
100
AcDbLine
 10
621.5587403058094
 20
2340.476948186513
 30
0.0
 11
587.6312447951464
 21
2340.476948186513
 31
0.0
  0
LINE
  5
3C67
330
A
100
AcDbEntity
  8
HIDDEN
 48
0.5
100
AcDbLine
 10
604.6074372228654
 20
2323.527304393221
 30
0.0
 11
604.6074372228654
 21
2357.453140614234
 31
0.0
  0
SPLINE
  5
3C68
330
A
100
AcDbEntity
  8
MODEL
100
AcDbSpline
210
0.0
220
0.0
230
1.0
 70
     8
 71
     3
 72
    11
 73
     7
 74
     0
 42
0.000000001
 43
0.0000000001
 40
0.0
 40
0.0
 40
0.0
 40
0.0
 40
1.0
 40
1.0
 40
1.0
 40
2.0
 40
2.0
 40
2.0
 40
2.0
 10
878.1197655591063
 20
2308.1490079002
 30
0.0
 10
878.1197655591063
 20
2308.1490079002
 30
0.0
 10
836.5014625122826
 20
2308.1490079002
 30
0.0
 10
836.5014625122826
 20
2308.1490079002
 30
0.0
 10
836.5014625122826
 20
2308.1490079002
 30
0.0
 10
835.1524600253583
 20
2307.845357893917
 30
0.0
 10
835.1524600253583
 20
2307.845357893917
 30
0.0
  0
SPLINE
  5
3C69
330
A
100
AcDbEntity
  8
MODEL
100
AcDbSpline
210
0.0
220
0.0
230
1.0
 70
     8
 71
     3
 72
     8
 73
     4
 74
     0
 42
0.000000001
 43
0.0000000001
 40
2.0
 40
2.0
 40
2.0
 40
2.0
 40
3.0
 40
3.0
 40
3.0
 40
3.0
 10
835.1524600253583
 20
2307.845357893917
 30
0.0
 10
834.4024611027385
 20
2307.525114991117
 30
0.0
 10
833.6640772076794
 20
2306.625779999833
 30
0.0
 10
833.529674745882
 20
2305.879099656517
 30
0.0
  0
SPLINE
  5
3C6A
330
A
100
AcDbEntity
  8
MODEL
100
AcDbSpline
210
0.0
220
0.0
230
1.0
 70
     8
 71
     3
 72
    17
 73
    13
 74
     0
 42
0.000000001
 43
0.0000000001
 40
3.0
 40
3.0
 40
3.0
 40
3.0
 40
4.0
 40
4.0
 40
4.0
 40
5.0
 40
5.0
 40
5.0
 40
6.0
 40
6.0
 40
6.0
 40
7.0
 40
7.0
 40
7.0
 40
7.0
 10
833.529674745882
 20
2305.879099656517
 30
0.0
 10
833.4948296631924
 20
2305.668369870736
 30
0.0
 10
833.4699403184136
 20
2305.323237623158
 30
0.0
 10
833.4699403184136
 20
2305.167264395888
 30
0.0
 10
833.4699403184136
 20
2305.167264395888
 30
0.0
 10
833.4699403184136
 20
2275.676709414179
 30
0.0
 10
833.4699403184136
 20
2275.676709414179
 30
0.0
 10
833.4699403184136
 20
2275.676709414179
 30
0.0
 10
833.4699403184136
 20
2246.211043777247
 30
0.0
 10
833.4699403184136
 20
2246.211043777247
 30
0.0
 10
833.4699403184136
 20
2246.036818363805
 30
0.0
 10
833.4948296631924
 20
2245.678411799013
 30
0.0
 10
833.529674745882
 20
2245.484274909751
 30
0.0
  0
SPLINE
  5
3C6B
330
A
100
AcDbEntity
  8
MODEL
100
AcDbSpline
210
0.0
220
0.0
230
1.0
 70
     8
 71
     3
 72
    14
 73
    10
 74
     0
 42
0.000000001
 43
0.0000000001
 40
7.0
 40
7.0
 40
7.0
 40
7.0
 40
8.0
 40
8.0
 40
8.0
 40
9.0
 40
9.0
 40
9.0
 40
10.0
 40
10.0
 40
10.0
 40
10.0
 10
833.529674745882
 20
2245.484274909751
 30
0.0
 10
833.6640772076794
 20
2244.721001669916
 30
0.0
 10
834.4024611027385
 20
2243.815029520025
 30
0.0
 10
835.1524600253583
 20
2243.519675962003
 30
0.0
 10
835.1524600253583
 20
2243.519675962003
 30
0.0
 10
836.5014625122826
 20
2243.199433059202
 30
0.0
 10
836.5014625122826
 20
2243.199433059202
 30
0.0
 10
836.5014625122826
 20
2243.199433059202
 30
0.0
 10
879.8022852660511
 20
2243.199433059202
 30
0.0
 10
879.8022852660511
 20
2243.199433059202
 30
0.0
  0
LINE
  5
3C72
330
A
100
AcDbEntity
  8
MODEL
100
AcDbLine
 10
1359.541087267783
 20
1426.813990759314
 30
0.0
 11
1725.510694292815
 21
1426.813990759314
 31
0.0
  0
SPLINE
  5
3C75
330
A
100
AcDbEntity
  8
MODEL
100
AcDbSpline
210
0.0
220
0.0
230
1.0
 70
     8
 71
     3
 72
     8
 73
     4
 74
     0
 42
0.000000001
 43
0.0000000001
 40
0.0
 40
0.0
 40
0.0
 40
0.0
 40
1.0
 40
1.0
 40
1.0
 40
1.0
 10
1616.269700775917
 20
1629.414916535587
 30
0.0
 10
1614.60045538619
 20
1629.439805880364
 30
0.0
 10
1613.080546065129
 20
1630.933166566998
 30
0.0
 10
1611.826123088355
 20
1631.817567951417
 30
0.0
  0
SPLINE
  5
3C76
330
A
100
AcDbEntity
  8
MODEL
100
AcDbSpline
210
0.0
220
0.0
230
1.0
 70
     8
 71
     3
 72
     8
 73
     4
 74
     0
 42
0.000000001
 43
0.0000000001
 40
1.0
 40
1.0
 40
1.0
 40
1.0
 40
2.0
 40
2.0
 40
2.0
 40
2.0
 10
1611.826123088355
 20
1631.817567951417
 30
0.0
 10
1609.652453644478
 20
1633.344114431086
 30
0.0
 10
1607.502014255726
 20
1634.930395338221
 30
0.0
 10
1605.291840439506
 20
1636.402185259381
 30
0.0
  0
SPLINE
  5
3C77
330
A
100
AcDbEntity
  8
MODEL
100
AcDbSpline
210
0.0
220
0.0
230
1.0
 70
     8
 71
     3
 72
     8
 73
     4
 74
     0
 42
0.000000001
 43
0.0000000001
 40
2.0
 40
2.0
 40
2.0
 40
2.0
 40
3.0
 40
3.0
 40
3.0
 40
3.0
 10
1605.291840439506
 20
1636.402185259381
 30
0.0
 10
1600.994280241307
 20
1639.264459908762
 30
0.0
 10
1596.461100912548
 20
1641.743438648573
 30
0.0
 10
1591.768629777217
 20
1643.893878037325
 30
0.0
  0
SPLINE
  5
3C78
330
A
100
AcDbEntity
  8
MODEL
100
AcDbSpline
210
0.0
220
0.0
230
1.0
 70
     8
 71
     3
 72
     8
 73
     4
 74
     0
 42
0.000000001
 43
0.0000000001
 40
3.0
 40
3.0
 40
3.0
 40
3.0
 40
4.0
 40
4.0
 40
4.0
 40
4.0
 10
1591.768629777217
 20
1643.893878037325
 30
0.0
 10
1583.697844910785
 20
1647.614005436696
 30
0.0
 10
1575.222193369315
 20
1650.565881727274
 30
0.0
 10
1566.610480076394
 20
1652.724617564285
 30
0.0
  0
SPLINE
  5
3C79
330
A
100
AcDbEntity
  8
MODEL
100
AcDbSpline
210
0.0
220
0.0
230
1.0
 70
     8
 71
     3
 72
     8
 73
     4
 74
     0
 42
0.000000001
 43
0.0000000001
 40
4.0
 40
4.0
 40
4.0
 40
4.0
 40
5.0
 40
5.0
 40
5.0
 40
5.0
 10
1566.610480076394
 20
1652.724617564285
 30
0.0
 10
1558.519783734144
 20
1654.752269518804
 30
0.0
 10
1550.366034385127
 20
1655.45248975187
 30
0.0
 10
1542.049674650225
 20
1655.868971454476
 30
0.0
  0
SPLINE
  5
3C7A
330
A
100
AcDbEntity
  8
MODEL
100
AcDbSpline
210
0.0
220
0.0
230
1.0
 70
     8
 71
     3
 72
     8
 73
     4
 74
     0
 42
0.000000001
 43
0.0000000001
 40
5.0
 40
5.0
 40
5.0
 40
5.0
 40
6.0
 40
6.0
 40
6.0
 40
6.0
 10
1542.049674650225
 20
1655.868971454476
 30
0.0
 10
1533.723359177421
 20
1655.45248975187
 30
0.0
 10
1525.576246987006
 20
1654.752269518804
 30
0.0
 10
1517.472276327543
 20
1652.724617564285
 30
0.0
  0
SPLINE
  5
3C7B
330
A
100
AcDbEntity
  8
MODEL
100
AcDbSpline
210
0.0
220
0.0
230
1.0
 70
     8
 71
     3
 72
     8
 73
     4
 74
     0
 42
0.000000001
 43
0.0000000001
 40
6.0
 40
6.0
 40
6.0
 40
6.0
 40
7.0
 40
7.0
 40
7.0
 40
7.0
 10
1517.472276327543
 20
1652.724617564285
 30
0.0
 10
1508.847288717407
 20
1650.565881727274
 30
0.0
 10
1500.398185810366
 20
1647.614005436696
 30
0.0
 10
1492.300852309505
 20
1643.893878037325
 30
0.0
  0
SPLINE
  5
3C7C
330
A
100
AcDbEntity
  8
MODEL
100
AcDbSpline
210
0.0
220
0.0
230
1.0
 70
     8
 71
     3
 72
     8
 73
     4
 74
     0
 42
0.000000001
 43
0.0000000001
 40
7.0
 40
7.0
 40
7.0
 40
7.0
 40
8.0
 40
8.0
 40
8.0
 40
8.0
 10
1492.300852309505
 20
1643.893878037325
 30
0.0
 10
1487.624974070696
 20
1641.743438648573
 30
0.0
 10
1483.081839004023
 20
1639.264459908762
 30
0.0
 10
1478.790915964426
 20
1636.402185259381
 30
0.0
  0
SPLINE
  5
3C7D
330
A
100
AcDbEntity
  8
MODEL
100
AcDbSpline
210
0.0
220
0.0
230
1.0
 70
     8
 71
     3
 72
     8
 73
     4
 74
     0
 42
0.000000001
 43
0.0000000001
 40
8.0
 40
8.0
 40
8.0
 40
8.0
 40
9.0
 40
9.0
 40
9.0
 40
9.0
 10
1478.790915964426
 20
1636.402185259381
 30
0.0
 10
1476.570786410299
 20
1634.930395338221
 30
0.0
 10
1474.433621338762
 20
1633.344114431086
 30
0.0
 10
1472.259951894885
 20
1631.817567951417
 30
0.0
  0
SPLINE
  5
3C7E
330
A
100
AcDbEntity
  8
MODEL
100
AcDbSpline
210
0.0
220
0.0
230
1.0
 70
     8
 71
     3
 72
     8
 73
     4
 74
     0
 42
0.000000001
 43
0.0000000001
 40
9.0
 40
9.0
 40
9.0
 40
9.0
 40
10.0
 40
10.0
 40
10.0
 40
10.0
 10
1472.259951894885
 20
1631.817567951417
 30
0.0
 10
1470.995573180201
 20
1630.933166566998
 30
0.0
 10
1469.469026700532
 20
1629.439805880364
 30
0.0
 10
1467.823011365931
 20
1629.414916535587
 30
0.0
  0
SPLINE
  5
3C80
330
A
100
AcDbEntity
  8
MODEL
100
AcDbSpline
210
0.0
220
0.0
230
1.0
 70
    24
 71
     3
 72
     8
 73
     4
 74
     0
 42
0.000000001
 43
0.0000000001
 40
0.0
 40
0.0
 40
0.0
 40
0.0
 40
1.0
 40
1.0
 40
1.0
 40
1.0
 10
1654.114779154516
 20
1777.085058388523
 30
0.0
 10
1654.114779154516
 20
1777.085058388523
 30
0.0
 10
1679.843724495561
 20
1776.814594175277
 30
0.0
 10
1679.843724495561
 20
1776.814594175277
 30
0.0
  0
SPLINE
  5
3C81
330
A
100
AcDbEntity
  8
MODEL
100
AcDbSpline
210
0.0
220
0.0
230
1.0
 70
     8
 71
     3
 72
     8
 73
     4
 74
     0
 42
0.000000001
 43
0.0000000001
 40
1.0
 40
1.0
 40
1.0
 40
1.0
 40
2.0
 40
2.0
 40
2.0
 40
2.0
 10
1679.843724495561
 20
1776.814594175277
 30
0.0
 10
1682.561640945235
 20
1776.852757837267
 30
0.0
 10
1685.326017505159
 20
1774.803535117277
 30
0.0
 10
1685.754114235323
 20
1772.062388612479
 30
0.0
  0
SPLINE
  5
3C82
330
A
100
AcDbEntity
  8
MODEL
100
AcDbSpline
210
0.0
220
0.0
230
1.0
 70
     8
 71
     3
 72
     8
 73
     4
 74
     0
 42
0.000000001
 43
0.0000000001
 40
2.0
 40
2.0
 40
2.0
 40
2.0
 40
3.0
 40
3.0
 40
3.0
 40
3.0
 10
1685.754114235323
 20
1772.062388612479
 30
0.0
 10
1689.527338903551
 20
1754.867169950718
 30
0.0
 10
1690.804991935449
 20
1736.960116028331
 30
0.0
 10
1688.199907182098
 20
1719.50770747054
 30
0.0
  0
SPLINE
  5
3C83
330
A
100
AcDbEntity
  8
MODEL
100
AcDbSpline
210
0.0
220
0.0
230
1.0
 70
     8
 71
     3
 72
     8
 73
     4
 74
     0
 42
0.000000001
 43
0.0000000001
 40
3.0
 40
3.0
 40
3.0
 40
3.0
 40
4.0
 40
4.0
 40
4.0
 40
4.0
 10
1688.199907182098
 20
1719.50770747054
 30
0.0
 10
1687.927783679199
 20
1717.66091808807
 30
0.0
 10
1687.609200066051
 20
1715.809150836644
 30
0.0
 10
1687.227563446133
 20
1713.992228667905
 30
0.0
  0
SPLINE
  5
3C84
330
A
100
AcDbEntity
  8
MODEL
100
AcDbSpline
210
0.0
220
0.0
230
1.0
 70
     8
 71
     3
 72
     8
 73
     4
 74
     0
 42
0.000000001
 43
0.0000000001
 40
4.0
 40
4.0
 40
4.0
 40
4.0
 40
5.0
 40
5.0
 40
5.0
 40
5.0
 10
1687.227563446133
 20
1713.992228667905
 30
0.0
 10
1684.108098900725
 20
1698.184176155063
 30
0.0
 10
1677.809435382435
 20
1682.927007806624
 30
0.0
 10
1668.15236960887
 20
1669.9696149156
 30
0.0
  0
SPLINE
  5
3C85
330
A
100
AcDbEntity
  8
MODEL
100
AcDbSpline
210
0.0
220
0.0
230
1.0
 70
     8
 71
     3
 72
     8
 73
     4
 74
     0
 42
0.000000001
 43
0.0000000001
 40
5.0
 40
5.0
 40
5.0
 40
5.0
 40
6.0
 40
6.0
 40
6.0
 40
6.0
 10
1668.15236960887
 20
1669.9696149156
 30
0.0
 10
1657.396854085805
 20
1655.548728551675
 30
0.0
 10
1643.246431935128
 20
1644.813124504431
 30
0.0
 10
1627.79512669742
 20
1635.882827598362
 30
0.0
  0
SPLINE
  5
3C86
330
A
100
AcDbEntity
  8
MODEL
100
AcDbSpline
210
0.0
220
0.0
230
1.0
 70
     8
 71
     3
 72
    11
 73
     7
 74
     0
 42
0.000000001
 43
0.0000000001
 40
6.0
 40
6.0
 40
6.0
 40
6.0
 40
7.0
 40
7.0
 40
7.0
 40
8.0
 40
8.0
 40
8.0
 40
8.0
 10
1627.79512669742
 20
1635.882827598362
 30
0.0
 10
1622.684514569836
 20
1632.605730536028
 30
0.0
 10
1618.124786606645
 20
1627.349100919077
 30
0.0
 10
1618.088282234305
 20
1620.922672097598
 30
0.0
 10
1618.088282234305
 20
1620.922672097598
 30
0.0
 10
1618.19115819272
 20
1622.255081688005
 30
0.0
 10
1618.19115819272
 20
1622.255081688005
 30
0.0
  0
SPLINE
  5
3C87
330
A
100
AcDbEntity
  8
MODEL
100
AcDbSpline
210
0.0
220
0.0
230
1.0
 70
     8
 71
     3
 72
     8
 73
     4
 74
     0
 42
0.000000001
 43
0.0000000001
 40
8.0
 40
8.0
 40
8.0
 40
8.0
 40
9.0
 40
9.0
 40
9.0
 40
9.0
 10
1618.19115819272
 20
1622.255081688005
 30
0.0
 10
1619.807306313582
 20
1608.482977577939
 30
0.0
 10
1621.357082848379
 20
1594.710873467875
 30
0.0
 10
1622.930089438298
 20
1580.943747226765
 30
0.0
  0
SPLINE
  5
3C88
330
A
100
AcDbEntity
  8
MODEL
100
AcDbSpline
210
0.0
220
0.0
230
1.0
 70
     8
 71
     3
 72
     8
 73
     4
 74
     0
 42
0.000000001
 43
0.0000000001
 40
9.0
 40
9.0
 40
9.0
 40
9.0
 40
10.0
 40
10.0
 40
10.0
 40
10.0
 10
1622.930089438298
 20
1580.943747226765
 30
0.0
 10
1625.136944675215
 20
1561.488576059234
 30
0.0
 10
1627.177870946948
 20
1542.020130574487
 30
0.0
 10
1629.132514156787
 20
1522.531773613918
 30
0.0
  0
SPLINE
  5
3C89
330
A
100
AcDbEntity
  8
MODEL
100
AcDbSpline
210
0.0
220
0.0
230
1.0
 70
     8
 71
     3
 72
     8
 73
     4
 74
     0
 42
0.000000001
 43
0.0000000001
 40
10.0
 40
10.0
 40
10.0
 40
10.0
 40
11.0
 40
11.0
 40
11.0
 40
11.0
 10
1629.132514156787
 20
1522.531773613918
 30
0.0
 10
1631.01083004264
 20
1503.624168031486
 30
0.0
 10
1634.080515898499
 20
1471.727643054645
 30
0.0
 10
1635.962150363659
 20
1452.811741023952
 30
0.0
  0
SPLINE
  5
3C8A
330
A
100
AcDbEntity
  8
MODEL
100
AcDbSpline
210
0.0
220
0.0
230
1.0
 70
     8
 71
     3
 72
     8
 73
     4
 74
     0
 42
0.000000001
 43
0.0000000001
 40
11.0
 40
11.0
 40
11.0
 40
11.0
 40
12.0
 40
12.0
 40
12.0
 40
12.0
 10
1635.962150363659
 20
1452.811741023952
 30
0.0
 10
1636.586043272739
 20
1446.868165491151
 30
0.0
 10
1637.794006139262
 20
1434.967740108332
 30
0.0
 10
1638.404624731131
 20
1429.010890258317
 30
0.0
  0
SPLINE
  5
3C8B
330
A
100
AcDbEntity
  8
MODEL
100
AcDbSpline
210
0.0
220
0.0
230
1.0
 70
     8
 71
     3
 72
    23
 73
    19
 74
     0
 42
0.000000001
 43
0.0000000001
 40
12.0
 40
12.0
 40
12.0
 40
12.0
 40
13.0
 40
13.0
 40
13.0
 40
14.0
 40
14.0
 40
14.0
 40
15.0
 40
15.0
 40
15.0
 40
16.0
 40
16.0
 40
16.0
 40
17.0
 40
17.0
 40
17.0
 40
18.0
 40
18.0
 40
18.0
 40
18.0
 10
1638.404624731131
 20
1429.010890258317
 30
0.0
 10
1638.514137848146
 20
1427.869298977868
 30
0.0
 10
1637.568342746614
 20
1426.813990759314
 30
0.0
 10
1636.400202831734
 20
1426.813990759314
 30
0.0
 10
1636.400202831734
 20
1426.813990759314
 30
0.0
 10
1635.995336156692
 20
1426.813990759314
 30
0.0
 10
1635.995336156692
 20
1426.813990759314
 30
0.0
 10
1635.995336156692
 20
1426.813990759314
 30
0.0
 10
1542.049674650225
 20
1426.813990759314
 30
0.0
 10
1542.049674650225
 20
1426.813990759314
 30
0.0
 10
1542.049674650225
 20
1426.813990759314
 30
0.0
 10
1448.097375985152
 20
1426.813990759314
 30
0.0
 10
1448.097375985152
 20
1426.813990759314
 30
0.0
 10
1448.097375985152
 20
1426.813990759314
 30
0.0
 10
1447.682553572199
 20
1426.813990759314
 30
0.0
 10
1447.682553572199
 20
1426.813990759314
 30
0.0
 10
1446.501139340108
 20
1426.813990759314
 30
0.0
 10
1445.555344238576
 20
1427.869298977868
 30
0.0
 10
1445.664857355591
 20
1429.010890258317
 30
0.0
  0
SPLINE
  5
3C8C
330
A
100
AcDbEntity
  8
MODEL
100
AcDbSpline
210
0.0
220
0.0
230
1.0
 70
     8
 71
     3
 72
     8
 73
     4
 74
     0
 42
0.000000001
 43
0.0000000001
 40
18.0
 40
18.0
 40
18.0
 40
18.0
 40
19.0
 40
19.0
 40
19.0
 40
19.0
 10
1445.664857355591
 20
1429.010890258317
 30
0.0
 10
1446.282113106067
 20
1434.967740108332
 30
0.0
 10
1447.509987448412
 20
1446.868165491151
 30
0.0
 10
1448.123924619584
 20
1452.811741023952
 30
0.0
  0
SPLINE
  5
3C8D
330
A
100
AcDbEntity
  8
MODEL
100
AcDbSpline
210
0.0
220
0.0
230
1.0
 70
     8
 71
     3
 72
     8
 73
     4
 74
     0
 42
0.000000001
 43
0.0000000001
 40
19.0
 40
19.0
 40
19.0
 40
19.0
 40
20.0
 40
20.0
 40
20.0
 40
20.0
 10
1448.123924619584
 20
1452.811741023952
 30
0.0
 10
1449.988966188223
 20
1471.727643054645
 30
0.0
 10
1453.061970623382
 20
1503.624168031486
 30
0.0
 10
1454.950242247149
 20
1522.531773613918
 30
0.0
  0
SPLINE
  5
3C8E
330
A
100
AcDbEntity
  8
MODEL
100
AcDbSpline
210
0.0
220
0.0
230
1.0
 70
     8
 71
     3
 72
     8
 73
     4
 74
     0
 42
0.000000001
 43
0.0000000001
 40
20.0
 40
20.0
 40
20.0
 40
20.0
 40
21.0
 40
21.0
 40
21.0
 40
21.0
 10
1454.950242247149
 20
1522.531773613918
 30
0.0
 10
1456.894929719078
 20
1542.020130574487
 30
0.0
 10
1458.955767466633
 20
1561.488576059234
 30
0.0
 10
1461.13939264842
 20
1580.943747226765
 30
0.0
  0
SPLINE
  5
3C8F
330
A
100
AcDbEntity
  8
MODEL
100
AcDbSpline
210
0.0
220
0.0
230
1.0
 70
     8
 71
     3
 72
    11
 73
     7
 74
     0
 42
0.000000001
 43
0.0000000001
 40
21.0
 40
21.0
 40
21.0
 40
21.0
 40
22.0
 40
22.0
 40
22.0
 40
23.0
 40
23.0
 40
23.0
 40
23.0
 10
1461.13939264842
 20
1580.943747226765
 30
0.0
 10
1462.712399238339
 20
1594.710873467875
 30
0.0
 10
1464.285405828258
 20
1608.482977577939
 30
0.0
 10
1465.884961052609
 20
1622.255081688005
 30
0.0
 10
1465.884961052609
 20
1622.255081688005
 30
0.0
 10
1465.994474169631
 20
1620.922672097598
 30
0.0
 10
1465.994474169631
 20
1620.922672097598
 30
0.0
  0
SPLINE
  5
3C90
330
A
100
AcDbEntity
  8
MODEL
100
AcDbSpline
210
0.0
220
0.0
230
1.0
 70
     8
 71
     3
 72
     8
 73
     4
 74
     0
 42
0.000000001
 43
0.0000000001
 40
23.0
 40
23.0
 40
23.0
 40
23.0
 40
24.0
 40
24.0
 40
24.0
 40
24.0
 10
1465.994474169631
 20
1620.922672097598
 30
0.0
 10
1465.957969797292
 20
1627.349100919077
 30
0.0
 10
1461.388286096193
 20
1632.605730536028
 30
0.0
 10
1456.304222603031
 20
1635.882827598362
 30
0.0
  0
SPLINE
  5
3C91
330
A
100
AcDbEntity
  8
MODEL
100
AcDbSpline
210
0.0
220
0.0
230
1.0
 70
     8
 71
     3
 72
     8
 73
     4
 74
     0
 42
0.000000001
 43
0.0000000001
 40
24.0
 40
24.0
 40
24.0
 40
24.0
 40
25.0
 40
25.0
 40
25.0
 40
25.0
 10
1456.304222603031
 20
1635.882827598362
 30
0.0
 10
1440.826368730901
 20
1644.813124504431
 30
0.0
 10
1426.692539476739
 20
1655.548728551675
 30
0.0
 10
1415.943661112284
 20
1669.9696149156
 30
0.0
  0
SPLINE
  5
3C92
330
A
100
AcDbEntity
  8
MODEL
100
AcDbSpline
210
0.0
220
0.0
230
1.0
 70
     8
 71
     3
 72
     8
 73
     4
 74
     0
 42
0.000000001
 43
0.0000000001
 40
25.0
 40
25.0
 40
25.0
 40
25.0
 40
26.0
 40
26.0
 40
26.0
 40
26.0
 10
1415.943661112284
 20
1669.9696149156
 30
0.0
 10
1406.286595338716
 20
1682.927007806624
 30
0.0
 10
1399.961383185997
 20
1698.184176155063
 30
0.0
 10
1396.841918640589
 20
1713.992228667905
 30
0.0
  0
SPLINE
  5
3C93
330
A
100
AcDbEntity
  8
MODEL
100
AcDbSpline
210
0.0
220
0.0
230
1.0
 70
     8
 71
     3
 72
     8
 73
     4
 74
     0
 42
0.000000001
 43
0.0000000001
 40
26.0
 40
26.0
 40
26.0
 40
26.0
 40
27.0
 40
27.0
 40
27.0
 40
27.0
 10
1396.841918640589
 20
1713.992228667905
 30
0.0
 10
1396.486830655097
 20
1715.809150836644
 30
0.0
 10
1396.141698407519
 20
1717.66091808807
 30
0.0
 10
1395.872893483924
 20
1719.50770747054
 30
0.0
  0
SPLINE
  5
3C94
330
A
100
AcDbEntity
  8
MODEL
100
AcDbSpline
210
0.0
220
0.0
230
1.0
 70
     8
 71
     3
 72
     8
 73
     4
 74
     0
 42
0.000000001
 43
0.0000000001
 40
27.0
 40
27.0
 40
27.0
 40
27.0
 40
28.0
 40
28.0
 40
28.0
 40
28.0
 10
1395.872893483924
 20
1719.50770747054
 30
0.0
 10
1393.27112730988
 20
1736.960116028331
 30
0.0
 10
1394.572010396904
 20
1754.867169950718
 30
0.0
 10
1398.32864216861
 20
1772.062388612479
 30
0.0
  0
SPLINE
  5
3C95
330
A
100
AcDbEntity
  8
MODEL
100
AcDbSpline
210
0.0
220
0.0
230
1.0
 70
     8
 71
     3
 72
    11
 73
     7
 74
     0
 42
0.000000001
 43
0.0000000001
 40
28.0
 40
28.0
 40
28.0
 40
28.0
 40
29.0
 40
29.0
 40
29.0
 40
30.0
 40
30.0
 40
30.0
 40
30.0
 10
1398.32864216861
 20
1772.062388612479
 30
0.0
 10
1398.746783160871
 20
1774.803535117277
 30
0.0
 10
1401.534389775916
 20
1776.852757837267
 30
0.0
 10
1404.225757591161
 20
1776.814594175277
 30
0.0
 10
1404.225757591161
 20
1776.814594175277
 30
0.0
 10
1429.967977249421
 20
1777.085058388523
 30
0.0
 10
1429.967977249421
 20
1777.085058388523
 30
0.0
  0
SPLINE
  5
3C97
330
A
100
AcDbEntity
  8
MODEL
100
AcDbSpline
210
0.0
220
0.0
230
1.0
 70
     8
 71
     3
 72
    11
 73
     7
 74
     0
 42
0.000000001
 43
0.0000000001
 40
0.0
 40
0.0
 40
0.0
 40
0.0
 40
1.0
 40
1.0
 40
1.0
 40
2.0
 40
2.0
 40
2.0
 40
2.0
 10
1678.914522290539
 20
1776.814594175277
 30
0.0
 10
1672.821610689076
 20
1776.827868492492
 30
0.0
 10
1666.738654825524
 20
1776.794682699455
 30
0.0
 10
1660.652380382664
 20
1776.794682699455
 30
0.0
 10
1639.572764646004
 20
1776.794682699455
 30
0.0
 10
1618.506423226562
 20
1776.794682699455
 30
0.0
 10
1597.430126069205
 20
1776.802979147713
 30
0.0
  0
SPLINE
  5
3C98
330
A
100
AcDbEntity
  8
MODEL
100
AcDbSpline
210
0.0
220
0.0
230
1.0
 70
    24
 71
     3
 72
    11
 73
     7
 74
     0
 42
0.000000001
 43
0.0000000001
 40
2.0
 40
2.0
 40
2.0
 40
2.0
 40
3.0
 40
3.0
 40
3.0
 40
4.0
 40
4.0
 40
4.0
 40
4.0
 10
1597.430126069205
 20
1776.802979147713
 30
0.0
 10
1578.982143720325
 20
1776.802979147713
 30
0.0
 10
1560.51093131632
 20
1776.802979147713
 30
0.0
 10
1542.049674650225
 20
1776.802979147713
 30
0.0
 10
1523.565187929006
 20
1776.802979147713
 30
0.0
 10
1505.117205580126
 20
1776.802979147713
 30
0.0
 10
1486.642674596817
 20
1776.802979147713
 30
0.0
  0
SPLINE
  5
3C99
330
A
100
AcDbEntity
  8
MODEL
100
AcDbSpline
210
0.0
220
0.0
230
1.0
 70
     8
 71
     3
 72
    11
 73
     7
 74
     0
 42
0.000000001
 43
0.0000000001
 40
4.0
 40
4.0
 40
4.0
 40
4.0
 40
5.0
 40
5.0
 40
5.0
 40
6.0
 40
6.0
 40
6.0
 40
6.0
 10
1486.642674596817
 20
1776.802979147713
 30
0.0
 10
1465.576333177375
 20
1776.794682699455
 30
0.0
 10
1444.509991757929
 20
1776.794682699455
 30
0.0
 10
1423.437013179876
 20
1776.794682699455
 30
0.0
 10
1417.344101578412
 20
1776.794682699455
 30
0.0
 10
1411.251189976946
 20
1776.827868492492
 30
0.0
 10
1405.158278375482
 20
1776.814594175277
 30
0.0
  0
LINE
  5
3C9C
330
A
100
AcDbEntity
  8
MODEL
  6
CENTER
 48
0.2
100
AcDbLine
 10
1542.036400333011
 20
1758.587297350089
 30
0.0
 11
1542.036400333011
 21
1695.295352871254
 31
0.0
  0
LINE
  5
3C9D
330
A
100
AcDbEntity
  8
MODEL
  6
CENTER
 48
0.2
100
AcDbLine
 10
1573.685691151732
 20
1726.936347241717
 30
0.0
 11
1510.38379093499
 21
1726.936347241717
 31
0.0
  0
LINE
  5
3CA2
330
A
100
AcDbEntity
  8
MODEL
100
AcDbLine
 10
1489.566342963317
 20
1426.813990759314
 30
0.0
 11
1492.045321703129
 21
1426.813990759314
 31
0.0
  0
LINE
  5
3CA3
330
A
100
AcDbEntity
  8
MODEL
100
AcDbLine
 10
1492.045321703129
 20
1426.813990759314
 30
0.0
 11
1494.514344705025
 21
1426.813990759314
 31
0.0
  0
LINE
  5
3CA4
330
A
100
AcDbEntity
  8
MODEL
100
AcDbLine
 10
1594.509776282016
 20
1426.813990759314
 30
0.0
 11
1592.037434700811
 21
1426.813990759314
 31
0.0
  0
LINE
  5
3CA5
330
A
100
AcDbEntity
  8
MODEL
100
AcDbLine
 10
1592.037434700811
 20
1426.813990759314
 30
0.0
 11
1589.571730278211
 21
1426.813990759314
 31
0.0
  0
LINE
  5
3CA8
330
A
100
AcDbEntity
  8
MODEL
100
AcDbLine
 10
649.6621291386004
 20
1775.127096599381
 30
0.0
 11
583.4564720311796
 21
1775.127096599381
 31
0.0
  0
LINE
  5
3CAA
330
A
100
AcDbEntity
  8
MODEL
100
AcDbLine
 10
1000.293262622254
 20
1425.118196735159
 30
0.0
 11
464.0075285763128
 21
1425.118196735159
 31
0.0
  0
SPLINE
  5
3CB6
330
A
100
AcDbEntity
  8
MODEL
100
AcDbSpline
210
0.0
220
0.0
230
1.0
 70
     8
 71
     3
 72
     8
 73
     4
 74
     0
 42
0.000000001
 43
0.0000000001
 40
0.0
 40
0.0
 40
0.0
 40
0.0
 40
1.0
 40
1.0
 40
1.0
 40
1.0
 10
805.5391176094167
 20
1626.969123588813
 30
0.0
 10
824.1596660820801
 20
1626.892796264829
 30
0.0
 10
842.6707014377321
 20
1627.710826063173
 30
0.0
 10
861.0672458074082
 20
1630.755622574253
 30
0.0
  0
SPLINE
  5
3CB7
330
A
100
AcDbEntity
  8
MODEL
100
AcDbSpline
210
0.0
220
0.0
230
1.0
 70
     8
 71
     3
 72
     8
 73
     4
 74
     0
 42
0.000000001
 43
0.0000000001
 40
1.0
 40
1.0
 40
1.0
 40
1.0
 40
2.0
 40
2.0
 40
2.0
 40
2.0
 10
861.0672458074082
 20
1630.755622574253
 30
0.0
 10
879.5285024735026
 20
1633.800419085335
 30
0.0
 10
897.7939629606813
 20
1638.665456344457
 30
0.0
 10
915.221482173693
 20
1645.529937634017
 30
0.0
  0
SPLINE
  5
3CB8
330
A
100
AcDbEntity
  8
MODEL
100
AcDbSpline
210
0.0
220
0.0
230
1.0
 70
     8
 71
     3
 72
     8
 73
     4
 74
     0
 42
0.000000001
 43
0.0000000001
 40
2.0
 40
2.0
 40
2.0
 40
2.0
 40
3.0
 40
3.0
 40
3.0
 40
3.0
 10
915.221482173693
 20
1645.529937634017
 30
0.0
 10
921.4371812093964
 20
1648.000619925568
 30
0.0
 10
927.5931458176278
 20
1650.72517353385
 30
0.0
 10
933.450438288532
 20
1653.98069983071
 30
0.0
  0
SPLINE
  5
3CB9
330
A
100
AcDbEntity
  8
MODEL
100
AcDbSpline
210
0.0
220
0.0
230
1.0
 70
     8
 71
     3
 72
     8
 73
     4
 74
     0
 42
0.000000001
 43
0.0000000001
 40
0.0
 40
0.0
 40
0.0
 40
0.0
 40
1.0
 40
1.0
 40
1.0
 40
1.0
 10
661.0481747293566
 20
1679.097367290234
 30
0.0
 10
669.4126538641544
 20
1676.878897025758
 30
0.0
 10
676.8429529249847
 20
1671.099591168486
 30
0.0
 10
683.8169473315652
 20
1666.226257461105
 30
0.0
  0
SPLINE
  5
3CBA
330
A
100
AcDbEntity
  8
MODEL
100
AcDbSpline
210
0.0
220
0.0
230
1.0
 70
     8
 71
     3
 72
     8
 73
     4
 74
     0
 42
0.000000001
 43
0.0000000001
 40
1.0
 40
1.0
 40
1.0
 40
1.0
 40
2.0
 40
2.0
 40
2.0
 40
2.0
 10
683.8169473315652
 20
1666.226257461105
 30
0.0
 10
691.7284403914205
 20
1660.702482210212
 30
0.0
 10
699.6880528511724
 20
1655.245078545393
 30
0.0
 10
708.0890363583171
 20
1650.454709320603
 30
0.0
  0
SPLINE
  5
3CBB
330
A
100
AcDbEntity
  8
MODEL
100
AcDbSpline
210
0.0
220
0.0
230
1.0
 70
     8
 71
     3
 72
     8
 73
     4
 74
     0
 42
0.000000001
 43
0.0000000001
 40
2.0
 40
2.0
 40
2.0
 40
2.0
 40
3.0
 40
3.0
 40
3.0
 40
3.0
 10
708.0890363583171
 20
1650.454709320603
 30
0.0
 10
724.4745216699853
 20
1641.170983718697
 30
0.0
 10
742.1841201238099
 20
1634.878957359014
 30
0.0
 10
760.6354210519935
 20
1631.245113021539
 30
0.0
  0
SPLINE
  5
3CBC
330
A
100
AcDbEntity
  8
MODEL
100
AcDbSpline
210
0.0
220
0.0
230
1.0
 70
     8
 71
     3
 72
     8
 73
     4
 74
     0
 42
0.000000001
 43
0.0000000001
 40
3.0
 40
3.0
 40
3.0
 40
3.0
 40
4.0
 40
4.0
 40
4.0
 40
4.0
 10
760.6354210519935
 20
1631.245113021539
 30
0.0
 10
775.0778781813938
 20
1628.394453399721
 30
0.0
 10
789.7559544413457
 20
1627.458614036097
 30
0.0
 10
804.4473050185193
 20
1626.99401293359
 30
0.0
  0
SPLINE
  5
3CBD
330
A
100
AcDbEntity
  8
MODEL
100
AcDbSpline
210
0.0
220
0.0
230
1.0
 70
     8
 71
     3
 72
    11
 73
     7
 74
     0
 42
0.000000001
 43
0.0000000001
 40
0.0
 40
0.0
 40
0.0
 40
0.0
 40
1.0
 40
1.0
 40
1.0
 40
2.0
 40
2.0
 40
2.0
 40
2.0
 10
948.0322757486833
 20
1425.111559576552
 30
0.0
 10
949.1821634773919
 20
1425.111559576552
 30
0.0
 10
950.1445514754455
 20
1426.09717762973
 30
0.0
 10
950.0300604894696
 20
1427.268636123911
 30
0.0
 10
950.0300604894696
 20
1427.268636123911
 30
0.0
 10
934.8243301202388
 20
1635.25893468928
 30
0.0
 10
934.8243301202388
 20
1635.25893468928
 30
0.0
  0
SPLINE
  5
3CBE
330
A
100
AcDbEntity
  8
MODEL
100
AcDbSpline
210
0.0
220
0.0
230
1.0
 70
     8
 71
     3
 72
     8
 73
     4
 74
     0
 42
0.000000001
 43
0.0000000001
 40
2.0
 40
2.0
 40
2.0
 40
2.0
 40
3.0
 40
3.0
 40
3.0
 40
3.0
 10
934.8243301202388
 20
1635.25893468928
 30
0.0
 10
933.450438288532
 20
1645.639450751035
 30
0.0
 10
937.9703433000764
 20
1661.006132216495
 30
0.0
 10
944.7253114726195
 20
1668.965744676252
 30
0.0
  0
SPLINE
  5
3CBF
330
A
100
AcDbEntity
  8
MODEL
100
AcDbSpline
210
0.0
220
0.0
230
1.0
 70
     8
 71
     3
 72
     8
 73
     4
 74
     0
 42
0.000000001
 43
0.0000000001
 40
3.0
 40
3.0
 40
3.0
 40
3.0
 40
4.0
 40
4.0
 40
4.0
 40
4.0
 10
944.7253114726195
 20
1668.965744676252
 30
0.0
 10
955.2418892858227
 20
1683.228998523254
 30
0.0
 10
962.0433175686126
 20
1699.657625365875
 30
0.0
 10
964.3547080535905
 20
1717.274303599197
 30
0.0
  0
SPLINE
  5
3CC0
330
A
100
AcDbEntity
  8
MODEL
100
AcDbSpline
210
0.0
220
0.0
230
1.0
 70
     8
 71
     3
 72
     8
 73
     4
 74
     0
 42
0.000000001
 43
0.0000000001
 40
4.0
 40
4.0
 40
4.0
 40
4.0
 40
5.0
 40
5.0
 40
5.0
 40
5.0
 10
964.3547080535905
 20
1717.274303599197
 30
0.0
 10
966.6611206696148
 20
1734.950716259983
 30
0.0
 10
964.5023848326023
 20
1752.947371823569
 30
0.0
 10
960.3740721788859
 20
1770.184072726623
 30
0.0
  0
SPLINE
  5
3CC1
330
A
100
AcDbEntity
  8
MODEL
100
AcDbSpline
210
0.0
220
0.0
230
1.0
 70
     8
 71
     3
 72
     8
 73
     4
 74
     0
 42
0.000000001
 43
0.0000000001
 40
5.0
 40
5.0
 40
5.0
 40
5.0
 40
6.0
 40
6.0
 40
6.0
 40
6.0
 10
960.3740721788859
 20
1770.184072726623
 30
0.0
 10
959.8348030420461
 20
1772.807409666143
 30
0.0
 10
957.2794969782522
 20
1774.881521730912
 30
0.0
 10
954.6014034802215
 20
1774.831743041358
 30
0.0
  0
SPLINE
  5
3CC2
330
A
100
AcDbEntity
  8
MODEL
100
AcDbSpline
210
0.0
220
0.0
230
1.0
 70
     8
 71
     3
 72
    11
 73
     7
 74
     0
 42
0.000000001
 43
0.0000000001
 40
6.0
 40
6.0
 40
6.0
 40
6.0
 40
7.0
 40
7.0
 40
7.0
 40
8.0
 40
8.0
 40
8.0
 40
8.0
 10
954.6014034802215
 20
1774.831743041358
 30
0.0
 10
937.7728878315106
 20
1774.831743041358
 30
0.0
 10
920.9742393965357
 20
1774.815150144841
 30
0.0
 10
904.1706130926036
 20
1774.815150144841
 30
0.0
 10
880.4012888303555
 20
1774.815150144841
 30
0.0
 10
856.6352831474037
 20
1774.815150144841
 30
0.0
 10
832.8676181748092
 20
1774.831743041358
 30
0.0
  0
SPLINE
  5
3CC3
330
A
100
AcDbEntity
  8
MODEL
100
AcDbSpline
210
0.0
220
0.0
230
1.0
 70
     8
 71
     3
 72
    11
 73
     7
 74
     0
 42
0.000000001
 43
0.0000000001
 40
8.0
 40
8.0
 40
8.0
 40
8.0
 40
9.0
 40
9.0
 40
9.0
 40
10.0
 40
10.0
 40
10.0
 40
10.0
 10
832.8676181748092
 20
1774.831743041358
 30
0.0
 10
823.4461715318034
 20
1774.831743041358
 30
0.0
 10
814.039658495662
 20
1774.840039489618
 30
0.0
 10
804.6198711423062
 20
1774.840039489618
 30
0.0
 10
801.1403407424518
 20
1774.840039489618
 30
0.0
 10
797.6790625287654
 20
1774.856632386135
 30
0.0
 10
794.2177843150789
 20
1774.856632386135
 30
0.0
  0
SPLINE
  5
3CC4
330
A
100
AcDbEntity
  8
MODEL
100
AcDbSpline
210
0.0
220
0.0
230
1.0
 70
     8
 71
     3
 72
     8
 73
     4
 74
     0
 42
0.000000001
 43
0.0000000001
 40
10.0
 40
10.0
 40
10.0
 40
10.0
 40
11.0
 40
11.0
 40
11.0
 40
11.0
 10
794.2177843150789
 20
1774.856632386135
 30
0.0
 10
775.348342394635
 20
1774.864928834395
 30
0.0
 10
756.5071083982807
 20
1774.840039489618
 30
0.0
 10
737.6675336915691
 20
1774.889818179171
 30
0.0
  0
SPLINE
  5
3CC5
330
A
100
AcDbEntity
  8
MODEL
100
AcDbSpline
210
0.0
220
0.0
230
1.0
 70
     8
 71
     3
 72
     8
 73
     4
 74
     0
 42
0.000000001
 43
0.0000000001
 40
11.0
 40
11.0
 40
11.0
 40
11.0
 40
12.0
 40
12.0
 40
12.0
 40
12.0
 10
737.6675336915691
 20
1774.889818179171
 30
0.0
 10
717.1537357261809
 20
1774.932959710119
 30
0.0
 10
696.6316413125319
 20
1774.991034847933
 30
0.0
 10
676.11784334714
 20
1775.050769275398
 30
0.0
  0
SPLINE
  5
3CC6
330
A
100
AcDbEntity
  8
MODEL
100
AcDbSpline
210
0.0
220
0.0
230
1.0
 70
     8
 71
     3
 72
    11
 73
     7
 74
     0
 42
0.000000001
 43
0.0000000001
 40
12.0
 40
12.0
 40
12.0
 40
12.0
 40
13.0
 40
13.0
 40
13.0
 40
14.0
 40
14.0
 40
14.0
 40
14.0
 10
676.11784334714
 20
1775.050769275398
 30
0.0
 10
668.2577882664923
 20
1775.050769275398
 30
0.0
 10
660.3728438410658
 20
1775.269795509438
 30
0.0
 10
652.5011737328573
 20
1775.540259722684
 30
0.0
 10
652.5011737328573
 20
1775.540259722684
 30
0.0
 10
652.6106868498796
 20
1775.540259722684
 30
0.0
 10
652.6106868498796
 20
1775.540259722684
 30
0.0
  0
SPLINE
  5
3CC7
330
A
100
AcDbEntity
  8
MODEL
100
AcDbSpline
210
0.0
220
0.0
230
1.0
 70
     8
 71
     3
 72
     8
 73
     4
 74
     0
 42
0.000000001
 43
0.0000000001
 40
14.0
 40
14.0
 40
14.0
 40
14.0
 40
15.0
 40
15.0
 40
15.0
 40
15.0
 10
652.6106868498796
 20
1775.540259722684
 30
0.0
 10
650.8900034809453
 20
1775.614927757015
 30
0.0
 10
647.4619110602912
 20
1775.775878853241
 30
0.0
 10
645.7412276913606
 20
1775.877095522002
 30
0.0
  0
SPLINE
  5
3CC8
330
A
100
AcDbEntity
  8
MODEL
100
AcDbSpline
210
0.0
220
0.0
230
1.0
 70
     8
 71
     3
 72
     8
 73
     4
 74
     0
 42
0.000000001
 43
0.0000000001
 40
15.0
 40
15.0
 40
15.0
 40
15.0
 40
16.0
 40
16.0
 40
16.0
 40
16.0
 10
645.7412276913606
 20
1775.877095522002
 30
0.0
 10
626.3607245581629
 20
1776.744904009901
 30
0.0
 10
606.9652878180973
 20
1777.488265773913
 30
0.0
 10
587.5598953401172
 20
1777.901428897215
 30
0.0
  0
SPLINE
  5
3CC9
330
A
100
AcDbEntity
  8
MODEL
100
AcDbSpline
210
0.0
220
0.0
230
1.0
 70
     8
 71
     3
 72
    14
 73
    10
 74
     0
 42
0.000000001
 43
0.0000000001
 40
16.0
 40
16.0
 40
16.0
 40
16.0
 40
17.0
 40
17.0
 40
17.0
 40
18.0
 40
18.0
 40
18.0
 40
19.0
 40
19.0
 40
19.0
 40
19.0
 10
587.5598953401172
 20
1777.901428897215
 30
0.0
 10
587.1799180098537
 20
1777.909725345474
 30
0.0
 10
586.7883256520258
 20
1777.926318241993
 30
0.0
 10
586.4166447700195
 20
1777.926318241993
 30
0.0
 10
583.1030433353412
 20
1777.926318241993
 30
0.0
 10
580.2772730582988
 20
1775.269795509438
 30
0.0
 10
580.3038216927312
 20
1771.896459647297
 30
0.0
 10
580.3038216927312
 20
1771.896459647297
 30
0.0
 10
581.2728468493883
 20
1687.108417729199
 30
0.0
 10
581.2728468493883
 20
1687.108417729199
 30
0.0
  0
SPLINE
  5
3CCA
330
A
100
AcDbEntity
  8
MODEL
100
AcDbSpline
210
0.0
220
0.0
230
1.0
 70
     8
 71
     3
 72
    11
 73
     7
 74
     0
 42
0.000000001
 43
0.0000000001
 40
19.0
 40
19.0
 40
19.0
 40
19.0
 40
20.0
 40
20.0
 40
20.0
 40
21.0
 40
21.0
 40
21.0
 40
21.0
 10
581.2728468493883
 20
1687.108417729199
 30
0.0
 10
581.2728468493883
 20
1686.003330821088
 30
0.0
 10
582.2435312957027
 20
1685.092380802242
 30
0.0
 10
583.3353438865965
 20
1685.118929436671
 30
0.0
 10
583.3353438865965
 20
1685.118929436671
 30
0.0
 10
640.1925630956944
 20
1686.779878378139
 30
0.0
 10
640.1925630956944
 20
1686.779878378139
 30
0.0
  0
SPLINE
  5
3CCB
330
A
100
AcDbEntity
  8
MODEL
100
AcDbSpline
210
0.0
220
0.0
230
1.0
 70
     8
 71
     3
 72
     8
 73
     4
 74
     0
 42
0.000000001
 43
0.0000000001
 40
21.0
 40
21.0
 40
21.0
 40
21.0
 40
22.0
 40
22.0
 40
22.0
 40
22.0
 10
640.1925630956944
 20
1686.779878378139
 30
0.0
 10
650.1134559238931
 20
1687.058639039643
 30
0.0
 10
658.6139968101456
 20
1676.659870791719
 30
0.0
 10
654.8573650384319
 20
1667.001145728503
 30
0.0
  0
SPLINE
  5
3CCC
330
A
100
AcDbEntity
  8
MODEL
100
AcDbSpline
210
0.0
220
0.0
230
1.0
 70
     8
 71
     3
 72
     8
 73
     4
 74
     0
 42
0.000000001
 43
0.0000000001
 40
22.0
 40
22.0
 40
22.0
 40
22.0
 40
23.0
 40
23.0
 40
23.0
 40
23.0
 10
654.8573650384319
 20
1667.001145728503
 30
0.0
 10
653.2345797589592
 20
1662.160997814158
 30
0.0
 10
651.5902237140112
 20
1657.337442796331
 30
0.0
 10
649.99066848966
 20
1652.479042695817
 30
0.0
  0
SPLINE
  5
3CCD
330
A
100
AcDbEntity
  8
MODEL
100
AcDbSpline
210
0.0
220
0.0
230
1.0
 70
     8
 71
     3
 72
     8
 73
     4
 74
     0
 42
0.000000001
 43
0.0000000001
 40
23.0
 40
23.0
 40
23.0
 40
23.0
 40
24.0
 40
24.0
 40
24.0
 40
24.0
 10
649.99066848966
 20
1652.479042695817
 30
0.0
 10
643.8778454123717
 20
1633.875087119667
 30
0.0
 10
637.796548838473
 20
1615.23794575048
 30
0.0
 10
632.1981055532456
 20
1596.456446181585
 30
0.0
  0
SPLINE
  5
3CCE
330
A
100
AcDbEntity
  8
MODEL
100
AcDbSpline
210
0.0
220
0.0
230
1.0
 70
     8
 71
     3
 72
     8
 73
     4
 74
     0
 42
0.000000001
 43
0.0000000001
 40
24.0
 40
24.0
 40
24.0
 40
24.0
 40
25.0
 40
25.0
 40
25.0
 40
25.0
 10
632.1981055532456
 20
1596.456446181585
 30
0.0
 10
626.6826267506153
 20
1577.996848805141
 30
0.0
 10
621.372899864808
 20
1559.452627656455
 30
0.0
 10
617.0769989562582
 20
1540.646238742784
 30
0.0
  0
SPLINE
  5
3CCF
330
A
100
AcDbEntity
  8
MODEL
100
AcDbSpline
210
0.0
220
0.0
230
1.0
 70
     8
 71
     3
 72
     8
 73
     4
 74
     0
 42
0.000000001
 43
0.0000000001
 40
25.0
 40
25.0
 40
25.0
 40
25.0
 40
26.0
 40
26.0
 40
26.0
 40
26.0
 10
617.0769989562582
 20
1540.646238742784
 30
0.0
 10
612.8507882130802
 20
1522.201574973208
 30
0.0
 10
609.3596427856651
 20
1503.640760928005
 30
0.0
 10
607.0150665076512
 20
1484.859261359109
 30
0.0
  0
SPLINE
  5
3CD0
330
A
100
AcDbEntity
  8
MODEL
100
AcDbSpline
210
0.0
220
0.0
230
1.0
 70
     8
 71
     3
 72
     8
 73
     4
 74
     0
 42
0.000000001
 43
0.0000000001
 40
26.0
 40
26.0
 40
26.0
 40
26.0
 40
27.0
 40
27.0
 40
27.0
 40
27.0
 10
607.0150665076512
 20
1484.859261359109
 30
0.0
 10
604.5958221953047
 20
1465.71769593577
 30
0.0
 10
603.7860888452165
 20
1446.430113023072
 30
0.0
 10
603.7860888452165
 20
1427.115981475944
 30
0.0
  0
SPLINE
  5
3CD1
330
A
100
AcDbEntity
  8
MODEL
100
AcDbSpline
210
0.0
220
0.0
230
1.0
 70
     8
 71
     3
 72
    11
 73
     7
 74
     0
 42
0.000000001
 43
0.0000000001
 40
27.0
 40
27.0
 40
27.0
 40
27.0
 40
28.0
 40
28.0
 40
28.0
 40
29.0
 40
29.0
 40
29.0
 40
29.0
 10
603.7860888452165
 20
1427.115981475944
 30
0.0
 10
603.8109781899916
 20
1426.037443202264
 30
0.0
 10
604.7302246571021
 20
1425.118196735159
 30
0.0
 10
605.8137407997351
 20
1425.151382528196
 30
0.0
 10
605.8137407997351
 20
1425.151382528196
 30
0.0
 10
948.0322757486833
 20
1425.111559576552
 30
0.0
 10
948.0322757486833
 20
1425.111559576552
 30
0.0
  0
LINE
  5
3CD2
330
A
100
AcDbEntity
  8
HIDDEN
 48
0.5
100
AcDbLine
 10
781.6232799447835
 20
1480.093781479096
 30
0.0
 11
781.6232799447835
 21
1440.11153802896
 31
0.0
  0
LINE
  5
3CD3
330
A
100
AcDbEntity
  8
HIDDEN
 48
0.5
100
AcDbLine
 10
761.6786183299673
 20
1460.109296912635
 30
0.0
 11
801.6691582283647
 21
1460.109296912635
 31
0.0
  0
SPLINE
  5
3CD4
330
A
100
AcDbEntity
  8
MODEL
100
AcDbSpline
210
0.0
220
0.0
230
1.0
 70
     8
 71
     3
 72
     8
 73
     4
 74
     0
 42
0.000000001
 43
0.0000000001
 40
0.0
 40
0.0
 40
0.0
 40
0.0
 40
1.0
 40
1.0
 40
1.0
 40
1.0
 10
674.6676241914543
 20
1775.025879930621
 30
0.0
 10
655.1278292516768
 20
1775.025879930621
 30
0.0
 10
614.3989054582275
 20
1775.042472827138
 30
0.0
 10
594.8425176219321
 20
1775.042472827138
 30
0.0
  0
SPLINE
  5
3CD5
330
A
100
AcDbEntity
  8
MODEL
100
AcDbSpline
210
0.0
220
0.0
230
1.0
 70
     8
 71
     3
 72
     8
 73
     4
 74
     0
 42
0.000000001
 43
0.0000000001
 40
1.0
 40
1.0
 40
1.0
 40
1.0
 40
2.0
 40
2.0
 40
2.0
 40
2.0
 10
594.8425176219321
 20
1775.042472827138
 30
0.0
 10
591.907234227871
 20
1775.100547964953
 30
0.0
 10
588.9719508338135
 20
1775.100547964953
 30
0.0
 10
586.0383267294023
 20
1775.269795509438
 30
0.0
  0
LINE
  5
3CD6
330
A
100
AcDbEntity
  8
MODEL
100
AcDbLine
 10
632.9696752413406
 20
1725.058031355861
 30
0.0
 11
560.8469912355472
 21
1725.058031355861
 31
0.0
  0
LINE
  5
3CD7
330
A
100
AcDbEntity
  8
HIDDEN
 48
0.5
100
AcDbLine
 10
580.607471699012
 20
1753.14150871283
 30
0.0
 11
615.2799882633412
 21
1752.534208700267
 31
0.0
  0
LINE
  5
3CD8
330
A
100
AcDbEntity
  8
HIDDEN
 48
0.5
100
AcDbLine
 10
615.2799882633412
 20
1752.534208700267
 30
0.0
 11
615.2799882633412
 21
1697.556964666678
 31
0.0
  0
LINE
  5
3CD9
330
A
100
AcDbEntity
  8
HIDDEN
 48
0.5
100
AcDbLine
 10
615.2799882633412
 20
1697.556964666678
 30
0.0
 11
581.3060326424279
 21
1696.957961102372
 31
0.0
  0
LINE
  5
3CDA
330
A
100
AcDbEntity
  8
HIDDEN
 48
0.5
100
AcDbLine
 10
655.2755060306886
 20
1470.091583457955
 30
0.0
 11
655.2755060306886
 21
1440.104900870353
 31
0.0
  0
LINE
  5
3CDB
330
A
100
AcDbEntity
  8
HIDDEN
 48
0.5
100
AcDbLine
 10
655.2755060306886
 20
1440.104900870353
 30
0.0
 11
735.259904406787
 21
1440.104900870353
 31
0.0
  0
LINE
  5
3CDC
330
A
100
AcDbEntity
  8
HIDDEN
 48
0.5
100
AcDbLine
 10
735.259904406787
 20
1440.104900870353
 30
0.0
 11
735.259904406787
 21
1470.091583457955
 31
0.0
  0
TEXT
  5
40D4
330
A
100
AcDbEntity
  8
DIM
100
AcDbText
 10
225.7184756592474
 20
1069.37720829097
 30
0.0
 40
20.79713826633384
  1
【排水部詳細図】
  7
ＭＳ ゴシック
100
AcDbText
  0
LINE
  5
40D5
102
{ACAD_REACTORS
330
42A0
102
}
330
A
100
AcDbEntity
  8
MODEL
100
AcDbLine
 10
596.6312318665919
 20
700.07499047804
 30
0.0
 11
577.9675418629781
 21
700.07499047804
 31
0.0
  0
LINE
  5
40D6
102
{ACAD_REACTORS
330
42A0
102
}
330
A
100
AcDbEntity
  8
MODEL
100
AcDbLine
 10
577.9675418629781
 20
700.07499047804
 30
0.0
 11
577.9675418629781
 21
810.7960703643562
 31
0.0
  0
LINE
  5
40D7
102
{ACAD_REACTORS
330
42A0
102
}
330
A
100
AcDbEntity
  8
MODEL
100
AcDbLine
 10
577.9675418629781
 20
810.7960703643562
 30
0.0
 11
596.6312318665919
 21
810.7960703643562
 31
0.0
  0
LINE
  5
40D8
102
{ACAD_REACTORS
330
42A0
102
}
330
A
100
AcDbEntity
  8
MODEL
100
AcDbLine
 10
596.6312318665919
 20
810.7960703643562
 30
0.0
 11
596.6312318665919
 21
700.07499047804
 31
0.0
  0
LINE
  5
40DB
102
{ACAD_REACTORS
330
42A0
102
}
330
A
100
AcDbEntity
  8
MODEL
100
AcDbLine
 10
784.1458961285612
 20
701.0639271105215
 30
0.0
 11
765.4822061249438
 21
701.0639271105215
 31
0.0
  0
LINE
  5
40DC
102
{ACAD_REACTORS
330
42A0
102
}
330
A
100
AcDbEntity
  8
MODEL
100
AcDbLine
 10
765.4822061249438
 20
701.0639271105215
 30
0.0
 11
765.4822061249438
 21
811.008459439789
 31
0.0
  0
LINE
  5
40DD
102
{ACAD_REACTORS
330
42A0
102
}
330
A
100
AcDbEntity
  8
MODEL
100
AcDbLine
 10
765.4822061249438
 20
811.008459439789
 30
0.0
 11
784.1458961285612
 21
811.008459439789
 31
0.0
  0
LINE
  5
40DE
102
{ACAD_REACTORS
330
42A0
102
}
330
A
100
AcDbEntity
  8
MODEL
100
AcDbLine
 10
784.1458961285612
 20
811.008459439789
 30
0.0
 11
784.1458961285612
 21
701.0639271105215
 31
0.0
  0
LINE
  5
40E1
330
A
100
AcDbEntity
  8
HIDDEN
100
AcDbLine
 10
776.49159296474
 20
855.8159171974035
 30
0.0
 11
776.49159296474
 21
828.5371953215631
 31
0.0
  0
LINE
  5
40E2
330
A
100
AcDbEntity
  8
HIDDEN
100
AcDbLine
 10
776.49159296474
 20
828.5371953215631
 30
0.0
 11
584.3425327052505
 21
828.5371953215631
 31
0.0
  0
LINE
  5
40E3
330
A
100
AcDbEntity
  8
HIDDEN
100
AcDbLine
 10
584.3425327052505
 20
828.5371953215631
 30
0.0
 11
584.3425327052505
 21
855.8159171974035
 31
0.0
  0
SPLINE
  5
40E4
330
A
100
AcDbEntity
  8
MODEL
100
AcDbSpline
210
0.0
220
0.0
230
1.0
 70
     8
 71
     3
 72
    11
 73
     7
 74
     0
 42
0.000000001
 43
0.0000000001
 40
0.0
 40
0.0
 40
0.0
 40
0.0
 40
1.0
 40
1.0
 40
1.0
 40
2.0
 40
2.0
 40
2.0
 40
2.0
 10
584.3408734155969
 20
855.8159171974035
 30
0.0
 10
584.3408734155969
 20
855.8159171974035
 30
0.0
 10
584.3408734155969
 20
943.9507463432133
 30
0.0
 10
584.3408734155969
 20
943.9507463432133
 30
0.0
 10
584.3408734155969
 20
943.9507463432133
 30
0.0
 10
634.7086107964428
 20
977.1099907450866
 30
0.0
 10
675.7942818650376
 20
955.5657739059193
 30
0.0
  0
SPLINE
  5
40E5
330
A
100
AcDbEntity
  8
MODEL
100
AcDbSpline
210
0.0
220
0.0
230
1.0
 70
     8
 71
     3
 72
    11
 73
     7
 74
     0
 42
0.000000001
 43
0.0000000001
 40
2.0
 40
2.0
 40
2.0
 40
2.0
 40
3.0
 40
3.0
 40
3.0
 40
4.0
 40
4.0
 40
4.0
 40
4.0
 10
675.7942818650376
 20
955.5657739059193
 30
0.0
 10
716.884930802586
 20
934.0149199081447
 30
0.0
 10
755.425251545294
 20
934.3467778385079
 30
0.0
 10
776.4899336750864
 20
943.9507463432133
 30
0.0
 10
776.4899336750864
 20
943.9507463432133
 30
0.0
 10
776.4899336750864
 20
855.8159171974035
 30
0.0
 10
776.4899336750864
 20
855.8159171974035
 30
0.0
  0
LINE
  5
40E6
330
A
100
AcDbEntity
  8
MODEL
100
AcDbLine
 10
756.6597630462461
 20
762.7762278408277
 30
0.0
 11
604.1743626237444
 21
762.7762278408277
 31
0.0
  0
LINE
  5
40E7
330
A
100
AcDbEntity
  8
MODEL
100
AcDbLine
 10
604.1743626237444
 20
762.7762278408277
 30
0.0
 11
604.1743626237444
 21
768.9620596627942
 31
0.0
  0
LINE
  5
40E8
330
A
100
AcDbEntity
  8
MODEL
100
AcDbLine
 10
604.1743626237444
 20
810.9221763778946
 30
0.0
 11
756.6597630462461
 21
810.9221763778946
 31
0.0
  0
LINE
  5
40EC
330
A
100
AcDbEntity
  8
MODEL
100
AcDbLine
 10
756.6597630462461
 20
762.7762278408277
 30
0.0
 11
604.1743626237444
 21
762.7762278408277
 31
0.0
  0
LINE
  5
40ED
330
A
100
AcDbEntity
  8
MODEL
100
AcDbLine
 10
604.1743626237444
 20
762.7762278408277
 30
0.0
 11
604.1743626237444
 21
768.9620596627942
 31
0.0
  0
LINE
  5
40EE
330
A
100
AcDbEntity
  8
MODEL
100
AcDbLine
 10
604.1743626237444
 20
810.9221763778946
 30
0.0
 11
756.6597630462461
 21
810.9221763778946
 31
0.0
  0
LINE
  5
4138
330
A
100
AcDbEntity
  8
MODEL
100
AcDbLine
 10
582.2468498750063
 20
852.1322941703743
 30
0.0
 11
779.8632695372257
 21
852.1322941703743
 31
0.0
  0
LINE
  5
4139
330
A
100
AcDbEntity
  8
MODEL
100
AcDbLine
 10
582.2468498750063
 20
852.1322941703743
 30
0.0
 11
779.8632695372257
 21
852.1322941703743
 31
0.0
  0
LINE
  5
413A
330
A
100
AcDbEntity
  8
DIM
100
AcDbLine
 10
577.9658825733209
 20
749.2032384889803
 30
0.0
 11
492.72485458028
 21
700.07499047804
 31
0.0
  0
TEXT
  5
413B
330
A
100
AcDbEntity
  8
DIM
100
AcDbText
 10
408.5651126445778
 20
676.3139626640477
 30
0.0
 40
20.79713826633384
  1
VP100
  7
ＭＳ ゴシック
100
AcDbText
  0
LINE
  5
413C
330
A
100
AcDbEntity
  8
DIM
100
AcDbLine
 10
584.2512717743962
 20
919.6919316336766
 30
0.0
 11
519.9438420286501
 21
962.0170920721762
 31
0.0
  0
LINE
  5
413D
330
A
100
AcDbEntity
  8
DIM
100
AcDbLine
 10
584.2512717743962
 20
919.6919316336766
 30
0.0
 11
519.9438420286501
 21
962.0170920721762
 31
0.0
  0
LINE
  5
413E
330
A
100
AcDbEntity
  8
DIM
100
AcDbLine
 10
575.1517273238428
 20
832.970817271213
 30
0.0
 11
510.8442975780968
 21
875.2959777097126
 31
0.0
  0
LINE
  5
413F
330
A
100
AcDbEntity
  8
DIM
100
AcDbLine
 10
575.1517273238428
 20
832.970817271213
 30
0.0
 11
510.8442975780968
 21
875.2959777097126
 31
0.0
  0
TEXT
  5
4140
330
A
100
AcDbEntity
  8
DIM
100
AcDbText
 10
438.5803875804854
 20
969.9249033674073
 30
0.0
 40
20.79713826633384
  1
陶器
  7
ＭＳ ゴシック
100
AcDbText
  0
TEXT
  5
4141
330
A
100
AcDbEntity
  8
DIM
100
AcDbText
 10
286.4089502467982
 20
872.104261586674
 30
0.0
 40
20.79713826633384
  1
排水アダプター
  7
ＭＳ ゴシック
100
AcDbText
  0
TEXT
  5
4142
330
A
100
AcDbEntity
  8
DIM
100
AcDbText
 10
281.6672027220707
 20
835.0921359938334
 30
0.0
 40
20.79713826633384
  1
(付属品)
  7
ＭＳ ゴシック
100
AcDbText
  0
LINE
  5
4143
330
A
100
AcDbEntity
  8
DIM
100
AcDbLine
 10
800.5712043918797
 20
825.1124214802171
 30
0.0
 11
879.5185467355918
 21
825.1124214802171
 31
0.0
  0
LINE
  5
4144
330
A
100
AcDbEntity
  8
DIM
100
AcDbLine
 10
800.5712043918797
 20
825.1124214802171
 30
0.0
 11
879.5185467355918
 21
825.1124214802171
 31
0.0
  0
LINE
  5
4145
330
A
100
AcDbEntity
  8
DIM
100
AcDbLine
 10
800.5712043918797
 20
811.838104265697
 30
0.0
 11
879.5185467355918
 21
811.838104265697
 31
0.0
  0
LINE
  5
4146
330
A
100
AcDbEntity
  8
DIM
100
AcDbLine
 10
800.5712043918797
 20
811.838104265697
 30
0.0
 11
879.5185467355918
 21
811.838104265697
 31
0.0
  0
LINE
  5
4147
330
A
100
AcDbEntity
  8
DIM
100
AcDbLine
 10
863.3520876579573
 20
825.1124214802171
 30
0.0
 11
863.3520876579573
 21
858.3114888337336
 31
0.0
  0
LINE
  5
4148
330
A
100
AcDbEntity
  8
DIM
100
AcDbLine
 10
863.3520876579573
 20
825.1124214802171
 30
0.0
 11
863.3520876579573
 21
858.3114888337336
 31
0.0
  0
LINE
  5
4149
330
A
100
AcDbEntity
  8
DIM
100
AcDbLine
 10
863.3520876579573
 20
777.3182423493358
 30
0.0
 11
863.3520876579573
 21
810.5106725442442
 31
0.0
  0
LINE
  5
414A
330
A
100
AcDbEntity
  8
DIM
100
AcDbLine
 10
863.3520876579573
 20
777.3182423493358
 30
0.0
 11
863.3520876579573
 21
810.5106725442442
 31
0.0
  0
TEXT
  5
414B
330
A
100
AcDbEntity
  8
DIM
100
AcDbText
 10
883.9276319063288
 20
807.7545773396698
 30
0.0
 40
20.79713826633384
  1
10～15
  7
ＭＳ ゴシック
100
AcDbText
  0
LINE
  5
414C
330
A
100
AcDbEntity
  8
MODEL
100
AcDbLine
 10
1028.146098717618
 20
625.6658053320439
 30
0.0
 11
238.0570788197006
 21
625.6658053320439
 31
0.0
  0
LINE
  5
414D
330
A
100
AcDbEntity
  8
MODEL
100
AcDbLine
 10
238.0570788197006
 20
625.6658053320439
 30
0.0
 11
238.0570788197006
 21
1040.348837955062
 31
0.0
  0
LINE
  5
414E
330
A
100
AcDbEntity
  8
MODEL
100
AcDbLine
 10
238.0570788197006
 20
1040.348837955062
 30
0.0
 11
1028.146098717618
 21
1040.348837955062
 31
0.0
  0
LINE
  5
414F
330
A
100
AcDbEntity
  8
MODEL
100
AcDbLine
 10
1028.146098717618
 20
1040.348837955062
 30
0.0
 11
1028.146098717618
 21
625.6658053320439
 31
0.0
  0
SPLINE
  5
4150
330
A
100
AcDbEntity
  8
MODEL
100
AcDbSpline
210
0.0
220
0.0
230
1.0
 70
    11
 71
     3
 72
    59
 73
    55
 74
     0
 42
0.000000001
 43
0.0000000001
 40
0.0
 40
0.0
 40
0.0
 40
0.0
 40
1.0
 40
1.0
 40
1.0
 40
2.0
 40
2.0
 40
2.0
 40
3.0
 40
3.0
 40
3.0
 40
4.0
 40
4.0
 40
4.0
 40
5.0
 40
5.0
 40
5.0
 40
6.0
 40
6.0
 40
6.0
 40
7.0
 40
7.0
 40
7.0
 40
8.0
 40
8.0
 40
8.0
 40
9.0
 40
9.0
 40
9.0
 40
10.0
 40
10.0
 40
10.0
 40
11.0
 40
11.0
 40
11.0
 40
12.0
 40
12.0
 40
12.0
 40
13.0
 40
13.0
 40
13.0
 40
14.0
 40
14.0
 40
14.0
 40
15.0
 40
15.0
 40
15.0
 40
16.0
 40
16.0
 40
16.0
 40
17.0
 40
17.0
 40
17.0
 40
18.0
 40
18.0
 40
18.0
 40
18.0
 10
960.2678776411708
 20
2274.838768140011
 30
0.0
 10
959.5261751668081
 20
2243.705516403006
 30
0.0
 10
947.6771877631986
 20
2219.95112574762
 30
0.0
 10
930.5997786667181
 20
2197.235450414272
 30
0.0
 10
911.0135236166902
 20
2171.191240039384
 30
0.0
 10
886.3133378597709
 20
2163.009282766282
 30
0.0
 10
873.32109988606
 20
2150.528106005329
 30
0.0
 10
860.1828444229873
 20
2137.910867492928
 30
0.0
 10
858.2812984820089
 20
2113.373292121886
 30
0.0
 10
837.8936065301573
 20
2103.95184547888
 30
0.0
 10
824.5894221019012
 20
2097.804177318905
 30
0.0
 10
808.9672100300636
 20
2095.491127544275
 30
0.0
 10
794.4401291284235
 20
2095.491127544275
 30
0.0
 10
779.9147075164333
 20
2095.491127544275
 30
0.0
 10
763.2803287569882
 20
2097.341235506048
 30
0.0
 10
751.3799033741675
 20
2103.437465686817
 30
0.0
 10
735.6349038680933
 20
2111.496635525683
 30
0.0
 10
728.5182105514618
 20
2129.514861854743
 30
0.0
 10
711.8921282402775
 20
2140.534204432447
 30
0.0
 10
691.238949944131
 20
2154.225003349573
 30
0.0
 10
620.707524714428
 20
2162.866583856226
 30
0.0
 10
600.2567797558081
 20
2190.677937710299
 30
0.0
 10
596.347493336129
 20
2195.987664596107
 30
0.0
 10
597.1605452655208
 20
2209.806228816422
 30
0.0
 10
597.1605452655208
 20
2209.806228816422
 30
0.0
 10
597.1605452655208
 20
2209.806228816422
 30
0.0
 10
597.1605452655208
 20
2341.213672791918
 30
0.0
 10
597.1605452655208
 20
2341.213672791918
 30
0.0
 10
597.1605452655208
 20
2341.213672791918
 30
0.0
 10
596.347493336129
 20
2355.030577722583
 30
0.0
 10
600.2567797558081
 20
2360.341963898043
 30
0.0
 10
620.707524714428
 20
2388.156636331419
 30
0.0
 10
691.238949944131
 20
2396.796557548421
 30
0.0
 10
711.8921282402775
 20
2410.484037886244
 30
0.0
 10
728.5182105514618
 20
2421.503380463947
 30
0.0
 10
735.6349038680933
 20
2439.521606793006
 30
0.0
 10
751.3799033741675
 20
2447.582435921524
 30
0.0
 10
763.2803287569882
 20
2453.678666102294
 30
0.0
 10
779.9147075164333
 20
2455.528774064067
 30
0.0
 10
794.4401291284235
 20
2455.528774064067
 30
0.0
 10
808.9672100300636
 20
2455.528774064067
 30
0.0
 10
824.5894221019012
 20
2453.215724289437
 30
0.0
 10
837.8936065301573
 20
2447.068056129463
 30
0.0
 10
858.2812984820089
 20
2437.644950196804
 30
0.0
 10
860.1828444229873
 20
2413.109034115414
 30
0.0
 10
873.32109988606
 20
2400.490136313361
 30
0.0
 10
886.3133378597709
 20
2388.013937421363
 30
0.0
 10
911.0135236166902
 20
2379.825342989655
 30
0.0
 10
930.5997786667181
 20
2353.782791904419
 30
0.0
 10
947.8032937767352
 20
2330.907824764494
 30
0.0
 10
959.6954227112951
 20
2306.974230826715
 30
0.0
 10
960.2811519583852
 20
2275.510780448998
 30
0.0
 10
960.2811519583852
 20
2275.510780448998
 30
0.0
 10
960.2678776411708
 20
2274.838768140011
 30
0.0
 10
960.2678776411708
 20
2274.838768140011
 30
0.0
  0
SPLINE
  5
4151
330
A
100
AcDbEntity
  8
MODEL
100
AcDbSpline
210
0.0
220
0.0
230
1.0
 70
    11
 71
     3
 72
    17
 73
    13
 74
     0
 42
0.000000001
 43
0.0000000001
 40
0.0
 40
0.0
 40
0.0
 40
0.0
 40
1.0
 40
1.0
 40
1.0
 40
2.0
 40
2.0
 40
2.0
 40
3.0
 40
3.0
 40
3.0
 40
4.0
 40
4.0
 40
4.0
 40
4.0
 10
790.8178998185108
 20
2354.247393006927
 30
0.0
 10
844.0661640349103
 20
2354.247393006927
 30
0.0
 10
887.2325843268741
 20
2318.363594996773
 30
0.0
 10
887.2325843268741
 20
2274.098724955301
 30
0.0
 10
887.2325843268741
 20
2229.827217755224
 30
0.0
 10
844.0661640349103
 20
2193.943419745071
 30
0.0
 10
790.8178998185108
 20
2193.943419745071
 30
0.0
 10
737.5712948917649
 20
2193.943419745071
 30
0.0
 10
694.4048745997939
 20
2229.827217755224
 30
0.0
 10
694.4048745997939
 20
2274.098724955301
 30
0.0
 10
694.4048745997939
 20
2318.363594996773
 30
0.0
 10
737.5712948917649
 20
2354.247393006927
 30
0.0
 10
790.8178998185108
 20
2354.247393006927
 30
0.0
  0
SPLINE
  5
4152
330
A
100
AcDbEntity
  8
HIDDEN
 48
0.5
100
AcDbSpline
210
0.0
220
0.0
230
1.0
 70
     8
 71
     3
 72
     8
 73
     4
 74
     0
 42
0.000000001
 43
0.0000000001
 40
0.0
 40
0.0
 40
0.0
 40
0.0
 40
1.0
 40
1.0
 40
1.0
 40
1.0
 10
709.8047418582905
 20
2141.705662926629
 30
0.0
 10
722.6011836530893
 20
2138.466729526286
 30
0.0
 10
735.4789306408279
 20
2135.528127552921
 30
0.0
 10
748.4247085042848
 20
2132.942954275393
 30
0.0
  0
SPLINE
  5
4153
330
A
100
AcDbEntity
  8
HIDDEN
 48
0.5
100
AcDbSpline
210
0.0
220
0.0
230
1.0
 70
     8
 71
     3
 72
     8
 73
     4
 74
     0
 42
0.000000001
 43
0.0000000001
 40
1.0
 40
1.0
 40
1.0
 40
1.0
 40
2.0
 40
2.0
 40
2.0
 40
2.0
 10
748.4247085042848
 20
2132.942954275393
 30
0.0
 10
766.9490181771512
 20
2129.232782613934
 30
0.0
 10
785.3239917813485
 20
2127.415860445197
 30
0.0
 10
804.2017301500496
 20
2128.839530966454
 30
0.0
  0
SPLINE
  5
4154
330
A
100
AcDbEntity
  8
HIDDEN
 48
0.5
100
AcDbSpline
210
0.0
220
0.0
230
1.0
 70
     8
 71
     3
 72
     8
 73
     4
 74
     0
 42
0.000000001
 43
0.0000000001
 40
2.0
 40
2.0
 40
2.0
 40
2.0
 40
3.0
 40
3.0
 40
3.0
 40
3.0
 10
804.2017301500496
 20
2128.839530966454
 30
0.0
 10
822.6878761609228
 20
2130.754351224649
 30
0.0
 10
840.6082044005275
 20
2135.446822359982
 30
0.0
 10
857.8880468345274
 20
2142.165286160181
 30
0.0
  0
SPLINE
  5
4155
330
A
100
AcDbEntity
  8
HIDDEN
 48
0.5
100
AcDbSpline
210
0.0
220
0.0
230
1.0
 70
     8
 71
     3
 72
     8
 73
     4
 74
     0
 42
0.000000001
 43
0.0000000001
 40
3.0
 40
3.0
 40
3.0
 40
3.0
 40
4.0
 40
4.0
 40
4.0
 40
4.0
 10
857.8880468345274
 20
2142.165286160181
 30
0.0
 10
861.9616029297326
 20
2143.749907777665
 30
0.0
 10
865.9920174939912
 20
2145.449020381122
 30
0.0
 10
869.9693347893922
 20
2147.260964680905
 30
0.0
  0
SPLINE
  5
4156
330
A
100
AcDbEntity
  8
HIDDEN
 48
0.5
100
AcDbSpline
210
0.0
220
0.0
230
1.0
 70
     8
 71
     3
 72
     8
 73
     4
 74
     0
 42
0.000000001
 43
0.0000000001
 40
0.0
 40
0.0
 40
0.0
 40
0.0
 40
1.0
 40
1.0
 40
1.0
 40
1.0
 10
869.9693347893922
 20
2403.349092383438
 30
0.0
 10
865.9920174939912
 20
2405.161036683221
 30
0.0
 10
861.9616029297326
 20
2406.86014928668
 30
0.0
 10
857.8880468345274
 20
2408.444770904162
 30
0.0
  0
SPLINE
  5
4157
330
A
100
AcDbEntity
  8
HIDDEN
 48
0.5
100
AcDbSpline
210
0.0
220
0.0
230
1.0
 70
     8
 71
     3
 72
     8
 73
     4
 74
     0
 42
0.000000001
 43
0.0000000001
 40
1.0
 40
1.0
 40
1.0
 40
1.0
 40
2.0
 40
2.0
 40
2.0
 40
2.0
 10
857.8880468345274
 20
2408.444770904162
 30
0.0
 10
840.6082044005275
 20
2415.16157541471
 30
0.0
 10
822.6878761609228
 20
2419.855705839694
 30
0.0
 10
804.2017301500496
 20
2421.77052609789
 30
0.0
  0
SPLINE
  5
4158
330
A
100
AcDbEntity
  8
HIDDEN
 48
0.5
100
AcDbSpline
210
0.0
220
0.0
230
1.0
 70
     8
 71
     3
 72
     8
 73
     4
 74
     0
 42
0.000000001
 43
0.0000000001
 40
2.0
 40
2.0
 40
2.0
 40
2.0
 40
3.0
 40
3.0
 40
3.0
 40
3.0
 10
804.2017301500496
 20
2421.77052609789
 30
0.0
 10
785.3239917813485
 20
2423.194196619147
 30
0.0
 10
766.9490181771512
 20
2421.377274450409
 30
0.0
 10
748.4247085042848
 20
2417.66710278895
 30
0.0
  0
SPLINE
  5
4159
330
A
100
AcDbEntity
  8
HIDDEN
 48
0.5
100
AcDbSpline
210
0.0
220
0.0
230
1.0
 70
     8
 71
     3
 72
     8
 73
     4
 74
     0
 42
0.000000001
 43
0.0000000001
 40
3.0
 40
3.0
 40
3.0
 40
3.0
 40
4.0
 40
4.0
 40
4.0
 40
4.0
 10
748.4247085042848
 20
2417.66710278895
 30
0.0
 10
735.4789306408279
 20
2415.081929511422
 30
0.0
 10
722.6011836530893
 20
2412.143327538058
 30
0.0
 10
709.8047418582905
 20
2408.904394137715
 30
0.0
  0
SPLINE
  5
4160
330
A
100
AcDbEntity
  8
MODEL
100
AcDbSpline
210
0.0
220
0.0
230
1.0
 70
     8
 71
     3
 72
    26
 73
    22
 74
     0
 42
0.000000001
 43
0.0000000001
 40
0.0
 40
0.0
 40
0.0
 40
0.0
 40
1.0
 40
1.0
 40
1.0
 40
2.0
 40
2.0
 40
2.0
 40
3.0
 40
3.0
 40
3.0
 40
4.0
 40
4.0
 40
4.0
 40
5.0
 40
5.0
 40
5.0
 40
6.0
 40
6.0
 40
6.0
 40
7.0
 40
7.0
 40
7.0
 40
7.0
 10
722.4817147981562
 20
1792.101629737449
 30
0.0
 10
722.4817147981562
 20
1792.101629737449
 30
0.0
 10
948.4454388719901
 20
1791.678510876236
 30
0.0
 10
948.4454388719901
 20
1791.678510876236
 30
0.0
 10
952.6666717462072
 20
1791.678510876236
 30
0.0
 10
959.486352215165
 20
1788.260374193498
 30
0.0
 10
959.486352215165
 20
1784.035822739975
 30
0.0
 10
959.486352215165
 20
1784.035822739975
 30
0.0
 10
959.486352215165
 20
1784.035822739975
 30
0.0
 10
959.486352215165
 20
1784.035822739975
 30
0.0
 10
959.486352215165
 20
1776.85441712692
 30
0.0
 10
959.3967505739679
 20
1776.389816024413
 30
0.0
 10
951.8436640789046
 20
1776.389816024413
 30
0.0
 10
951.8436640789046
 20
1776.389816024413
 30
0.0
 10
604.8032334017812
 20
1776.812934885626
 30
0.0
 10
604.8032334017812
 20
1776.812934885626
 30
0.0
 10
597.1605452655208
 20
1776.812934885626
 30
0.0
 10
597.1605452655208
 20
1777.277535988134
 30
0.0
 10
597.1605452655208
 20
1784.45894160119
 30
0.0
 10
597.1605452655208
 20
1784.45894160119
 30
0.0
 10
597.1605452655208
 20
1784.45894160119
 30
0.0
 10
597.1605452655208
 20
1784.45894160119
 30
0.0
  0
SPLINE
  5
4161
330
A
100
AcDbEntity
  8
MODEL
100
AcDbSpline
210
0.0
220
0.0
230
1.0
 70
     8
 71
     3
 72
     8
 73
     4
 74
     0
 42
0.000000001
 43
0.0000000001
 40
0.0
 40
0.0
 40
0.0
 40
0.0
 40
1.0
 40
1.0
 40
1.0
 40
1.0
 10
597.1605452655208
 20
1784.45894160119
 30
0.0
 10
597.1605452655208
 20
1801.187899870788
 30
0.0
 10
631.9475528158223
 20
1814.7277034296
 30
0.0
 10
665.6842300165267
 20
1814.7277034296
 30
0.0
  0
SPLINE
  5
4162
330
A
100
AcDbEntity
  8
MODEL
100
AcDbSpline
210
0.0
220
0.0
230
1.0
 70
     8
 71
     3
 72
     8
 73
     4
 74
     0
 42
0.000000001
 43
0.0000000001
 40
0.0
 40
0.0
 40
0.0
 40
0.0
 40
1.0
 40
1.0
 40
1.0
 40
1.0
 10
722.4817147981562
 20
1792.101629737449
 30
0.0
 10
690.3396149528494
 20
1793.326185500489
 30
0.0
 10
688.2737993363376
 20
1814.7277034296
 30
0.0
 10
665.6842300165267
 20
1814.7277034296
 30
0.0
  0
LINE
  5
4163
330
A
100
AcDbEntity
  8
MODEL
100
AcDbLine
 10
647.7821539630936
 20
1405.409154250899
 30
0.0
 11
647.7821539630936
 21
1424.291870488556
 31
0.0
  0
LINE
  5
4164
330
A
100
AcDbEntity
  8
MODEL
100
AcDbLine
 10
740.383790851593
 20
1424.291870488556
 30
0.0
 11
740.383790851593
 21
1403.228847648415
 31
0.0
  0
LINE
  5
4165
330
A
100
AcDbEntity
  8
DIM
100
AcDbLine
 10
639.2169007804264
 20
1419.075063823248
 30
0.0
 11
364.7338879978711
 21
1092.915134124565
 31
0.0
  0
LINE
  5
4191
330
A
100
AcDbEntity
  8
DIM
100
AcDbLine
 10
785.9590038049801
 20
1455.194480963959
 30
0.0
 11
914.9106990957889
 21
1347.941316449935
 31
0.0
  0
TEXT
  5
4192
330
A
100
AcDbEntity
  8
DIM
100
AcDbText
 10
913.4979177624309
 20
1321.918548876101
 30
0.0
 40
25.41872454774135
  1
床固定位置
  7
ＭＳ ゴシック
100
AcDbText
  0
DIMENSION
  5
41A5
330
A
100
AcDbEntity
  8
DIM
100
AcDbDimension
  2
*D167
 10
964.5853493151922
 20
2503.732710034287
 30
0.0
 11
772.0919864529519
 21
2525.732710034287
 31
0.0
 70
    32
 71
     5
 42
384.9867257244805
 73
     0
 74
     0
 75
     0
  3
tfrom線あり
100
AcDbAlignedDimension
 13
579.5986235907117
 23
2382.349122550066
 33
0.0
 14
964.5853493151922
 24
2343.032254250308
 34
0.0
100
AcDbRotatedDimension
1001
ACAD
1000
DSTYLE
1002
{
1070
   144
1040
1.0
1002
}
  0
DIMENSION
  5
41B2
102
{ACAD_XDICTIONARY
360
41B3
102
}
330
A
100
AcDbEntity
  8
DIM
100
AcDbDimension
  2
*D168
 10
1130.175175405715
 20
2095.491127544275
 30
0.0
 11
1108.175175405715
 21
2275.509950804171
 31
0.0
 70
    32
 71
     5
 42
360.0376465197915
 73
     0
 74
     0
 75
     0
  3
tfrom線あり
100
AcDbAlignedDimension
 13
878.9543882539733
 23
2455.528774064067
 33
0.0
 14
878.9543882539733
 24
2095.491127544275
 34
0.0
 50
90.0
100
AcDbRotatedDimension
1001
ACAD
1000
DSTYLE
1002
{
1070
   144
1040
1.0
1002
}
  0
DIMENSION
  5
41C1
330
A
100
AcDbEntity
  8
DIM
100
AcDbDimension
  2
*D169
 10
1057.121259977142
 20
2127.255038676218
 30
0.0
 11
1035.121259977142
 21
2274.755038676218
 31
0.0
 70
    32
 71
     5
 42
295.0
 73
     0
 74
     0
 75
     0
  3
tfrom線あり
100
AcDbAlignedDimension
 13
893.881569737142
 23
2422.255038676218
 33
0.0
 14
893.881569737142
 24
2127.255038676218
 34
0.0
 50
90.0
100
AcDbRotatedDimension
1001
ACAD
1000
DSTYLE
1002
{
1070
   144
1040
1.0
1002
}
  0
DIMENSION
  5
41D4
102
{ACAD_XDICTIONARY
360
41D5
102
}
330
A
100
AcDbEntity
  8
DIM
100
AcDbDimension
  2
*D170
 10
383.1191172865188
 20
1425.035232252568
 30
0.0
 11
383.1191172865188
 21
1575.046631804215
 31
0.0
 70
   160
 71
     5
 42
300.0227991032925
 73
     0
 74
     0
 75
     0
  3
tfrom線あり
100
AcDbAlignedDimension
 13
558.8923258894406
 23
1725.058031355861
 33
0.0
 14
460.8963383428941
 24
1425.035232252568
 34
0.0
 50
90.0
100
AcDbRotatedDimension
1001
ACAD
1000
DSTYLE
1002
{
1070
   144
1040
1.0
1002
}
  0
DIMENSION
  5
41E3
102
{ACAD_XDICTIONARY
360
41E4
102
}
330
A
100
AcDbEntity
  8
DIM
100
AcDbDimension
  2
*D171
 10
489.2894118948561
 20
1425.118196735159
 30
0.0
 11
489.2894118948561
 21
1493.256900870353
 31
0.0
 70
   160
 71
     5
 42
14.98670413519358
 73
     0
 74
     1
 75
     1
  3
tfrom線あり
100
AcDbAlignedDimension
 13
642.3297281672317
 23
1440.104900870353
 33
0.0
 14
581.2728468493883
 24
1425.118196735159
 34
0.0
 50
90.0
100
AcDbRotatedDimension
1001
ACAD
1000
DSTYLE
1002
{
1070
   172
1070
     1
1070
   144
1040
1.0
1002
}
  0
DIMENSION
  5
41F7
102
{ACAD_XDICTIONARY
360
41F8
102
}
330
A
100
AcDbEntity
  8
DIM
100
AcDbDimension
  2
*D172
 10
1100.861933732571
 20
1776.797397862797
 30
0.0
 11
1100.861933732571
 21
1844.942739156597
 31
0.0
 70
   160
 71
     5
 42
14.99334129380077
 73
     0
 74
     1
 75
     1
  3
tfrom線あり
100
AcDbAlignedDimension
 13
985.2643759725711
 23
1791.790739156597
 33
0.0
 14
985.2643759725711
 24
1776.797397862797
 34
0.0
 50
90.0
100
AcDbRotatedDimension
1001
ACAD
1000
DSTYLE
1002
{
1070
   172
1070
     1
1070
   144
1040
1.0
1002
}
  0
DIMENSION
  5
4216
330
A
100
AcDbEntity
  8
DIM
100
AcDbDimension
  2
*D173
 10
1100.861933732571
 20
1776.797397862797
 30
0.0
 11
1078.861933732571
 21
1601.797397862797
 31
0.0
 70
    32
 71
     5
 42
350.0
 73
     0
 74
     0
 75
     0
  3
tfrom線あり
100
AcDbAlignedDimension
 13
1014.35242384208
 23
1426.797397862797
 33
0.0
 14
1014.35242384208
 24
1776.797397862797
 34
0.0
 50
90.0
100
AcDbRotatedDimension
1001
ACAD
1000
DSTYLE
1002
{
1070
   144
1040
1.0
1002
}
  0
DIMENSION
  5
4234
102
{ACAD_XDICTIONARY
360
4235
102
}
330
A
100
AcDbEntity
  8
DIM
100
AcDbDimension
  2
*D174
 10
1817.338888897947
 20
1426.797397862797
 30
0.0
 11
1817.338888897947
 21
1609.449513800123
 31
0.0
 70
   160
 71
     5
 42
365.304231874652
 73
     0
 74
     0
 75
     0
  3
tfrom線あり
100
AcDbAlignedDimension
 13
1712.4455019089
 23
1792.101629737449
 33
0.0
 14
1737.503851201947
 24
1426.797397862797
 34
0.0
 50
90.0
100
AcDbRotatedDimension
1001
ACAD
1000
DSTYLE
1002
{
1070
   144
1040
1.0
1002
}
  0
DIMENSION
  5
4255
330
A
100
AcDbEntity
  8
DIM
100
AcDbDimension
  2
*D176
 10
1637.036400333011
 20
1315.878278527617
 30
0.0
 11
1542.036400333011
 21
1337.878278527617
 31
0.0
 70
    32
 71
     5
 42
190.0
 73
     0
 74
     0
 75
     0
  3
tfrom線あり
100
AcDbAlignedDimension
 13
1447.036400333011
 23
1421.488456502474
 33
0.0
 14
1637.036400333011
 24
1421.488456502474
 34
0.0
100
AcDbRotatedDimension
1001
ACAD
1000
DSTYLE
1002
{
1070
   144
1040
1.0
1002
}
  0
DIMENSION
  5
4263
330
A
100
AcDbEntity
  8
DIM
100
AcDbDimension
  2
*D177
 10
696.6397115637101
 20
1315.650166960477
 30
0.0
 11
639.1397115637101
 21
1337.650166960477
 31
0.0
 70
    32
 71
     5
 42
115.0
 73
     0
 74
     0
 75
     0
  3
tfrom線あり
100
AcDbAlignedDimension
 13
581.6397115637101
 23
1680.134007129466
 33
0.0
 14
696.6397115637101
 24
1418.162446381405
 34
0.0
100
AcDbRotatedDimension
1001
ACAD
1000
DSTYLE
1002
{
1070
   144
1040
1.0
1002
}
  0
DIMENSION
  5
4270
330
A
100
AcDbEntity
  8
DIM
100
AcDbDimension
  2
*D178
 10
781.6100056275691
 20
1256.578516947591
 30
0.0
 11
681.6248585956396
 21
1278.578516947591
 31
0.0
 70
    32
 71
     5
 42
199.970294063859
 73
     0
 74
     0
 75
     0
  3
tfrom線あり
100
AcDbAlignedDimension
 13
581.6397115637101
 23
1666.382681872323
 33
0.0
 14
781.6100056275691
 24
1438.608810609866
 34
0.0
100
AcDbRotatedDimension
1001
ACAD
1000
DSTYLE
1002
{
1070
   144
1040
1.0
1002
}
  0
LINE
  5
4289
330
A
100
AcDbEntity
  8
MODEL
100
AcDbLine
 10
604.1743626237444
 20
774.6434674306096
 30
0.0
 11
604.1743626237444
 21
781.831510202272
 31
0.0
  0
LINE
  5
428A
330
A
100
AcDbEntity
  8
MODEL
100
AcDbLine
 10
604.1743626237444
 20
774.6434674306096
 30
0.0
 11
604.1743626237444
 21
781.831510202272
 31
0.0
  0
LINE
  5
428B
330
A
100
AcDbEntity
  8
MODEL
100
AcDbLine
 10
604.1743626237444
 20
800.3757313509572
 30
0.0
 11
604.1743626237444
 21
810.9221763778946
 31
0.0
  0
LINE
  5
428C
330
A
100
AcDbEntity
  8
MODEL
100
AcDbLine
 10
604.1743626237444
 20
800.3757313509572
 30
0.0
 11
604.1743626237444
 21
810.9221763778946
 31
0.0
  0
LINE
  5
428D
330
A
100
AcDbEntity
  8
MODEL
100
AcDbLine
 10
604.1743626237444
 20
787.5129179700875
 30
0.0
 11
604.1743626237444
 21
794.6943235831427
 31
0.0
  0
LINE
  5
428E
330
A
100
AcDbEntity
  8
MODEL
100
AcDbLine
 10
604.1743626237444
 20
787.5129179700875
 30
0.0
 11
604.1743626237444
 21
794.6943235831427
 31
0.0
  0
LINE
  5
428F
330
A
100
AcDbEntity
  8
MODEL
100
AcDbLine
 10
756.6597630462461
 20
762.7762278408277
 30
0.0
 11
756.6597630462461
 21
768.9620596627942
 31
0.0
  0
LINE
  5
4290
330
A
100
AcDbEntity
  8
MODEL
100
AcDbLine
 10
756.6597630462461
 20
774.6434674306096
 30
0.0
 11
756.6597630462461
 21
781.831510202272
 31
0.0
  0
LINE
  5
4291
330
A
100
AcDbEntity
  8
MODEL
100
AcDbLine
 10
756.6597630462461
 20
787.5129179700875
 30
0.0
 11
756.6597630462461
 21
794.6943235831427
 31
0.0
  0
LINE
  5
4292
330
A
100
AcDbEntity
  8
MODEL
100
AcDbLine
 10
756.6597630462461
 20
800.3757313509572
 30
0.0
 11
756.6597630462461
 21
810.9221763778946
 31
0.0
  0
HATCH
  5
42A0
330
A
100
AcDbEntity
  8
MODEL
 62
   253
100
AcDbHatch
 10
0.0
 20
0.0
 30
0.0
210
0.0
220
0.0
230
1.0
  2
SOLID
 70
     1
 71
     1
 91
        2
 92
        1
 93
        4
 72
     1
 10
577.9675418629781
 20
810.7960703643562
 11
596.6312318665919
 21
810.7960703643562
 72
     1
 10
596.6312318665919
 20
810.7960703643562
 11
596.6312318665919
 21
700.07499047804
 72
     1
 10
596.6312318665919
 20
700.07499047804
 11
577.9675418629781
 21
700.07499047804
 72
     1
 10
577.9675418629781
 20
700.07499047804
 11
577.9675418629781
 21
810.7960703643562
 97
        4
330
40D7
330
40D6
330
40D8
330
40D5
 92
        1
 93
        4
 72
     1
 10
784.1458961285612
 20
701.0639271105215
 11
765.4822061249438
 21
701.0639271105215
 72
     1
 10
765.4822061249438
 20
701.0639271105215
 11
765.4822061249438
 21
811.008459439789
 72
     1
 10
765.4822061249438
 20
811.008459439789
 11
784.1458961285612
 21
811.008459439789
 72
     1
 10
784.1458961285612
 20
811.008459439789
 11
784.1458961285612
 21
701.0639271105215
 97
        4
330
40DB
330
40DE
330
40DC
330
40DD
 75
     0
 76
     1
 98
        1
 10
-2480.785714285714
 20
-98.35714285714266
1001
ACAD
1010
0.0
1020
0.0
1030
0.0
  0
CIRCLE
  5
42B9
330
A
100
AcDbEntity
  8
HIDDEN
 48
0.5
100
AcDbCircle
 10
1542.034741043361
 20
1726.936347241717
 30
0.0
 40
21.1011865021319
  0
CIRCLE
  5
42C1
330
A
100
AcDbEntity
  8
HIDDEN
 48
0.13
100
AcDbCircle
 10
781.673888279166
 20
1460.109296912635
 30
0.0
 40
6.577298654002418
  0
TEXT
  5
42CE
330
A
100
AcDbEntity
  8
MODEL
100
AcDbText
 10
1353.30063569522
 20
444.1174383808234
 30
0.0
 40
20.79713826633384
  1
GAR71-1701-001　本体:ホワイト/便座:ホワイト
  7
ＭＳ ゴシック
100
AcDbText
  0
TEXT
  5
42CF
330
A
100
AcDbEntity
  8
MODEL
100
AcDbText
 10
1353.30063569522
 20
407.4172698619768
 30
0.0
 40
20.79713826633384
  1
GAR71-1701-002　本体:ホワイト/便座:グリーン
  7
ＭＳ ゴシック
100
AcDbText
  0
TEXT
  5
42D0
330
A
100
AcDbEntity
  8
MODEL
100
AcDbText
 10
1353.30063569522
 20
370.7171013431312
 30
0.0
 40
20.79713826633384
  1
GAR71-1701-003　本体:ホワイト/便座:レッド
  7
ＭＳ ゴシック
100
AcDbText
  0
MTEXT
  5
42D1
330
A
100
AcDbEntity
  8
TEMPLATE
390
1D
100
AcDbMText
 10
125.2543452760369
 20
190.4416903151095
 30
0.0
 40
24.4326171875
 41
0.0
 46
25.556517578125
 71
     1
 72
     1
  1
{本体:陶器・ホワイト}
  7
ＭＳ ゴシック
 73
     1
 44
0.9331787841240657
1001
ACAD
1000
ACAD_MTEXT_DEFINED_HEIGHT_BEGIN
1070
    46
1040
25.556517578125
1000
ACAD_MTEXT_DEFINED_HEIGHT_END
  0
MTEXT
  5
42D2
330
A
100
AcDbEntity
  8
TEMPLATE
390
1D
100
AcDbMText
 10
125.2543452760369
 20
151.2736903151096
 30
0.0
 40
24.4326171875
 41
0.0
 46
27.2912333984375
 71
     1
 72
     1
  1
{便座:樹脂・ホワイト,グリーン,レッド(※フタは付属しません)}
  7
ＭＳ ゴシック
 73
     1
 44
0.9331787841240657
1001
ACAD
1000
ACAD_MTEXT_DEFINED_HEIGHT_BEGIN
1070
    46
1040
27.2912333984375
1000
ACAD_MTEXT_DEFINED_HEIGHT_END
  0
VIEWPORT
  5
349
330
B
100
AcDbEntity
 67
     1
  8
0
100
AcDbViewport
 10
202.5
 20
128.5
 30
0.0
 40
486.0
 41
308.4
 68
     1
 69
     1
 12
202.5
 22
128.5
 13
0.0
 23
0.0
 14
0.5
 24
0.5
 15
0.0
 25
0.0
 16
0.0
 26
0.0
 36
1.0
 17
0.0
 27
0.0
 37
0.0
 42
50.0
 43
0.0
 44
0.0
 45
308.4
 50
0.0
 51
0.0
 72
   100
 90
   557152
  1

281
     0
 71
     1
 74
     0
110
0.0
120
0.0
130
0.0
111
1.0
121
0.0
131
0.0
112
0.0
122
1.0
132
0.0
 79
     0
146
0.0
170
     0
 61
     5
348
26C
292
     1
282
     1
141
0.0
142
0.0
 63
   256
  0
VIEWPORT
  5
34A
330
B
100
AcDbEntity
 67
     1
  8
0
100
AcDbViewport
 10
202.5
 20
128.5
 30
0.0
 40
324.0
 41
205.6
 68
     2
 69
     2
 12
986.6781359294573
 22
1427.077061889956
 13
0.0
 23
0.0
 14
0.5
 24
0.5
 15
0.0
 25
0.0
 16
0.0
 26
0.0
 36
1.0
 17
0.0
 27
0.0
 37
0.0
 42
50.0
 43
0.0
 44
0.0
 45
2890.021615685494
 50
0.0
 51
0.0
 72
   100
 90
   557152
  1

281
     0
 71
     1
 74
     0
110
0.0
120
0.0
130
0.0
111
1.0
121
0.0
131
0.0
112
0.0
122
1.0
132
0.0
 79
     0
146
0.0
170
     0
 61
     5
348
26C
292
     1
282
     1
141
0.0
142
0.0
 63
   256
  0
ENDSEC
  0
SECTION
  2
OBJECTS
  0
DICTIONARY
  5
19
330
0
100
AcDbDictionary
281
     1
  3
ACAD_COLOR
350
674
  3
ACAD_DETAILVIEWSTYLE
350
BBF
  3
ACAD_FIELDLIST
350
146A
  3
ACAD_GROUP
350
1A
  3
ACAD_IMAGE_VARS
350
27B
  3
ACAD_LAYOUT
350
1E
  3
ACAD_MATERIAL
350
263
  3
ACAD_MLEADERSTYLE
350
336
  3
ACAD_MLINESTYLE
350
1B
  3
ACAD_PLOTSETTINGS
350
22
  3
ACAD_PLOTSTYLENAME
350
1F
  3
ACAD_SCALELIST
350
241
  3
ACAD_SECTIONVIEWSTYLE
350
BC0
  3
ACAD_TABLESTYLE
350
278
  3
ACAD_VISUALSTYLE
350
267
  3
ACDB_RECOMPOSE_DATA
350
42E8
  3
AcDbVariableDictionary
350
330
  3
APPDATA
350
27A
  3
DimOffsetDictionary
350
E3E
  0
SUN
  5
904
330
15
100
AcDbSun
 90
        1
290
     0
 63
     7
421
 16777215
 40
1.0
291
     1
 91
  2455826
 92
 54000000
292
     0
 70
     2
 71
   256
280
     1
  0
DICTIONARY
  5
2E1
330
2
100
AcDbDictionary
280
     1
281
     1
  3
ACAD_LAYERSTATES
360
2E2
  3
ACLYDICTIONARY
360
42E5
  0
DICTIONARY
  5
4298
330
A
100
AcDbDictionary
280
     1
281
     1
  3
ACAD_SORTENTS
360
4299
  0
DICTIONARY
  5
1468
330
1466
100
AcDbDictionary
280
     1
281
     1
  3
ACAD_FIELD
360
42D3
  0
DICTIONARY
  5
41B3
330
41B2
100
AcDbDictionary
280
     1
281
     1
  0
DICTIONARY
  5
41D5
330
41D4
100
AcDbDictionary
280
     1
281
     1
  0
DICTIONARY
  5
41E4
330
41E3
100
AcDbDictionary
280
     1
281
     1
  0
DICTIONARY
  5
41F8
330
41F7
100
AcDbDictionary
280
     1
281
     1
  0
DICTIONARY
  5
4235
330
4234
100
AcDbDictionary
280
     1
281
     1
  0
DICTIONARY
  5
674
102
{ACAD_REACTORS
330
19
102
}
330
19
100
AcDbDictionary
281
     1
  0
DICTIONARY
  5
BBF
102
{ACAD_REACTORS
330
19
102
}
330
19
100
AcDbDictionary
281
     1
  0
FIELDLIST
  5
146A
102
{ACAD_REACTORS
330
19
102
}
330
19
100
AcDbIdSet
 90
        2
330
146B
330
1467
100
AcDbFieldList
  0
DICTIONARY
  5
1A
102
{ACAD_REACTORS
330
19
102
}
330
19
100
AcDbDictionary
281
     1
  0
RASTERVARIABLES
  5
27B
102
{ACAD_REACTORS
330
19
102
}
330
19
100
AcDbRasterVariables
 90
        0
 70
     1
 71
     1
 72
     1
  0
DICTIONARY
  5
1E
102
{ACAD_REACTORS
330
19
102
}
330
19
100
AcDbDictionary
281
     1
  3
Layout1
350
21
  3
Model
350
20
  0
DICTIONARY
  5
263
102
{ACAD_REACTORS
330
19
102
}
330
19
100
AcDbDictionary
281
     1
  3
ByBlock
350
265
  3
ByLayer
350
264
  3
Global
350
266
  0
DICTIONARY
  5
336
102
{ACAD_REACTORS
330
19
102
}
330
19
100
AcDbDictionary
281
     1
  3
Standard
350
DAB
  0
DICTIONARY
  5
1B
102
{ACAD_REACTORS
330
19
102
}
330
19
100
AcDbDictionary
281
     1
  3
Standard
350
1C
  0
DICTIONARY
  5
22
102
{ACAD_REACTORS
330
19
102
}
330
19
100
AcDbDictionary
281
     1
  0
ACDBDICTIONARYWDFLT
  5
1F
102
{ACAD_REACTORS
330
19
102
}
330
19
100
AcDbDictionary
281
     1
  3
Normal
350
1D
100
AcDbDictionaryWithDefault
340
1D
  0
DICTIONARY
  5
241
102
{ACAD_REACTORS
330
19
102
}
330
19
100
AcDbDictionary
281
     1
  3
A0
350
242
  3
A1
350
243
  3
A2
350
244
  3
A3
350
245
  3
A4
350
246
  3
A5
350
247
  3
A6
350
248
  3
A7
350
249
  3
A8
350
24A
  3
A9
350
24B
  3
B0
350
24C
  3
B1
350
24D
  3
B2
350
24E
  3
B3
350
24F
  3
B4
350
250
  3
B5
350
251
  3
B6
350
252
  3
B7
350
253
  3
B8
350
254
  3
B9
350
255
  3
C0
350
256
  3
C1
350
257
  3
C2
350
258
  3
C3
350
259
  3
C4
350
25A
  3
C5
350
25B
  3
C6
350
25C
  3
C7
350
25D
  3
C8
350
25E
  3
C9
350
25F
  3
D0
350
260
  3
D1
350
261
  3
D2
350
262
  0
DICTIONARY
  5
BC0
102
{ACAD_REACTORS
330
19
102
}
330
19
100
AcDbDictionary
281
     1
  0
DICTIONARY
  5
278
102
{ACAD_REACTORS
330
19
102
}
330
19
100
AcDbDictionary
281
     1
  3
Standard
350
279
  0
DICTIONARY
  5
267
102
{ACAD_REACTORS
330
19
102
}
330
19
100
AcDbDictionary
281
     1
  3
2dWireframe
350
26C
  3
3D Hidden
350
26E
  3
3dWireframe
350
26D
  3
Basic
350
26F
  3
Brighten
350
273
  3
ColorChange
350
277
  3
Conceptual
350
271
  3
Dim
350
272
  3
EdgeColorOff
350
8FE
  3
Facepattern
350
276
  3
Flat
350
268
  3
FlatWithEdges
350
269
  3
Gouraud
350
26A
  3
GouraudWithEdges
350
26B
  3
Hidden
350
8FB
  3
JitterOff
350
8FC
  3
Linepattern
350
275
  3
OverhangOff
350
8FD
  3
Realistic
350
270
  3
Shaded
350
903
  3
Shaded with edges
350
902
  3
Shades of Gray
350
8FF
  3
Sketchy
350
900
  3
Thicken
350
274
  3
Wireframe
350
8FA
  3
X-Ray
350
901
  0
XRECORD
  5
42E8
102
{ACAD_REACTORS
330
19
102
}
330
19
100
AcDbXrecord
280
     1
 90
        1
330
279
  0
DICTIONARY
  5
330
102
{ACAD_REACTORS
330
19
102
}
330
19
100
AcDbDictionary
281
     1
  3
CANNOSCALE
350
331
  3
CMLEADERSTYLE
350
DB1
  3
CTABLESTYLE
350
335
  3
HPTRANSPARENCY
350
D52
  3
XCLIPFRAME
350
896
  0
DICTIONARY
  5
27A
102
{ACAD_REACTORS
330
19
102
}
330
19
100
AcDbDictionary
281
     1
  0
DICTIONARY
  5
E3E
102
{ACAD_REACTORS
330
19
102
}
330
19
100
AcDbDictionary
281
     1
  3
DIMRAILANGLE
350
ECE
  3
DIMRAILFIRSTOFFSET
350
ECC
  3
DIMRAILOFFSET
350
ECD
  3
DIMRAILSENABLED
350
ECF
  0
DICTIONARY
  5
2E2
102
{ACAD_REACTORS
330
2E1
102
}
330
2E1
100
AcDbDictionary
281
     1
  0
DICTIONARY
  5
42E5
102
{ACAD_REACTORS
330
2E1
102
}
330
2E1
100
AcDbDictionary
281
     1
1001
ACAD
1000
<All
  0
SORTENTSTABLE
  5
4299
102
{ACAD_REACTORS
330
4298
102
}
330
4298
100
AcDbSortentsTable
330
A
331
40D5
  5
40DB
331
40D6
  5
40DE
331
40D7
  5
40DF
331
40D8
  5
40E0
331
0
  5
40E1
331
0
  5
40E2
331
40DB
  5
40E3
331
40DC
  5
40E4
331
40DD
  5
40E5
331
40DE
  5
40E6
331
0
  5
40E7
331
0
  5
40E8
331
40E1
  5
40E9
331
40E2
  5
40EA
331
40E3
  5
40EB
331
40E4
  5
40EC
331
40E5
  5
40ED
331
40E6
  5
40EE
331
40E7
  5
40EF
331
40E8
  5
40F0
331
0
  5
40F1
331
0
  5
40F2
331
0
  5
40F3
331
40EC
  5
40F4
331
40ED
  5
40F5
331
40EE
  5
40F6
331
0
  5
40F7
331
0
  5
40F8
331
0
  5
40F9
331
0
  5
40FA
331
0
  5
40FB
331
0
  5
40FC
331
0
  5
40FD
331
0
  5
40FE
331
0
  5
40FF
331
0
  5
4100
331
0
  5
4101
331
0
  5
4102
331
0
  5
4103
331
0
  5
4104
331
0
  5
4105
331
0
  5
4106
331
0
  5
4107
331
0
  5
4108
331
0
  5
4109
331
0
  5
410A
331
0
  5
410B
331
0
  5
410C
331
0
  5
410D
331
0
  5
410E
331
0
  5
410F
331
0
  5
4110
331
0
  5
4111
331
0
  5
4112
331
0
  5
4113
331
0
  5
4114
331
0
  5
4115
331
0
  5
4116
331
0
  5
4117
331
0
  5
4118
331
0
  5
4119
331
0
  5
411A
331
0
  5
411B
331
0
  5
411C
331
0
  5
411D
331
0
  5
411E
331
0
  5
411F
331
0
  5
4120
331
0
  5
4121
331
0
  5
4122
331
0
  5
4123
331
0
  5
4124
331
0
  5
4125
331
0
  5
4126
331
0
  5
4127
331
0
  5
4128
331
0
  5
4129
331
0
  5
412A
331
0
  5
412B
331
0
  5
412C
331
0
  5
412D
331
0
  5
412E
331
0
  5
412F
331
0
  5
4130
331
0
  5
4131
331
0
  5
4132
331
0
  5
4133
331
0
  5
4134
331
0
  5
4135
331
0
  5
4136
331
0
  5
4137
331
0
  5
4138
331
0
  5
4139
331
0
  5
413A
331
0
  5
413B
331
0
  5
413C
331
0
  5
413D
331
0
  5
413E
331
0
  5
413F
331
4138
  5
4140
331
4139
  5
4141
331
413A
  5
4142
331
413B
  5
4143
331
413C
  5
4144
331
413D
  5
4145
331
413E
  5
4146
331
413F
  5
4147
331
4140
  5
4148
331
4141
  5
4149
331
4142
  5
414A
331
4143
  5
414B
331
4144
  5
414C
331
4145
  5
414D
331
4146
  5
414E
331
4147
  5
414F
331
4148
  5
4150
331
4149
  5
4151
331
414A
  5
4152
331
414B
  5
4153
331
414C
  5
4154
331
414D
  5
4155
331
414E
  5
4156
331
414F
  5
4157
331
4150
  5
4158
331
4151
  5
4159
331
4152
  5
415A
331
4153
  5
415B
331
4154
  5
415C
331
4155
  5
415D
331
4156
  5
415E
331
4157
  5
415F
331
4158
  5
4160
331
4159
  5
4161
331
0
  5
4162
331
0
  5
4163
331
0
  5
4164
331
0
  5
4165
331
0
  5
4166
331
0
  5
4167
331
4160
  5
4168
331
4161
  5
4169
331
4162
  5
416A
331
4163
  5
416B
331
4164
  5
416C
331
4165
  5
416D
331
0
  5
416E
331
0
  5
416F
331
0
  5
4170
331
0
  5
4171
331
0
  5
4172
331
0
  5
4173
331
0
  5
4174
331
0
  5
4175
331
0
  5
4176
331
0
  5
4177
331
0
  5
4178
331
0
  5
4179
331
0
  5
417A
331
0
  5
417B
331
0
  5
417C
331
0
  5
417D
331
0
  5
417E
331
0
  5
417F
331
0
  5
4180
331
0
  5
4181
331
0
  5
4182
331
0
  5
4183
331
0
  5
4184
331
0
  5
4185
331
0
  5
4186
331
0
  5
4187
331
0
  5
4188
331
0
  5
4189
331
0
  5
418A
331
0
  5
418B
331
0
  5
418C
331
0
  5
418D
331
0
  5
418E
331
0
  5
418F
331
0
  5
4190
331
0
  5
4191
331
0
  5
4192
331
0
  5
4193
331
0
  5
41A5
331
0
  5
41B2
331
0
  5
41C1
331
0
  5
41D4
331
0
  5
41E3
331
4191
  5
41F7
331
4192
  5
4216
331
0
  5
4234
331
41A5
  5
4246
331
41B2
  5
4255
331
41C1
  5
4262
331
41D4
  5
4263
331
41E3
  5
4270
331
41F7
  5
4289
331
4216
  5
428A
331
4234
  5
428B
331
0
  5
428C
331
4255
  5
428D
331
0
  5
428E
331
4263
  5
428F
331
4270
  5
4290
331
4289
  5
4291
331
428A
  5
4292
331
428B
  5
4296
331
428C
  5
4297
331
428D
  5
429A
331
428E
  5
429B
331
428F
  5
429C
331
4290
  5
429D
331
4291
  5
429E
331
4292
  5
429F
331
0
  5
42A0
331
0
  5
40DC
331
0
  5
40DD
331
0
  5
40D5
331
0
  5
40D6
331
0
  5
40D7
331
0
  5
40D8
331
0
  5
40D9
331
42A0
  5
40DA
  0
DICTIONARY
  5
42D3
102
{ACAD_REACTORS
330
1468
102
}
330
1468
100
AcDbDictionary
280
     1
281
     1
  3
TEXT
360
1467
  0
LAYOUT
  5
21
102
{ACAD_REACTORS
330
1E
102
}
330
1E
100
AcDbPlotSettings
  1

  2
none_device
  4
ISO_A3_(420.00_x_297.00_MM)
  6

 40
7.5
 41
20.0
 42
7.5
 43
20.0
 44
420.0
 45
297.0
 46
0.0
 47
0.0
 48
0.0
 49
0.0
140
0.0
141
0.0
142
1.0
143
1.0
 70
     0
 72
     1
 73
     0
 74
     0
  7

 75
     0
 76
     0
 77
     2
 78
   300
147
1.0
148
0.0
149
0.0
100
AcDbLayout
  1
Layout1
 70
     0
 71
     0
 10
-7.5
 20
-20.0
 11
412.5
 21
277.0
 12
0.0
 22
0.0
 32
0.0
 14
0.0
 24
0.0
 34
0.0
 15
0.0
 25
0.0
 35
0.0
146
0.0
 13
0.0
 23
0.0
 33
0.0
 16
0.0
 26
0.0
 36
0.0
 17
0.0
 27
0.0
 37
0.0
 76
     0
330
B
331
349
  0
LAYOUT
  5
20
102
{ACAD_REACTORS
330
1E
102
}
330
1E
100
AcDbPlotSettings
  1

  2
none_device
  4
ISO_A3_(420.00_x_297.00_MM)
  6

 40
7.5
 41
20.0
 42
7.5
 43
20.0
 44
420.0
 45
297.0
 46
0.0
 47
0.0
 48
0.0
 49
0.0
140
0.0
141
0.0
142
1.0
143
1.0
 70
  1024
 72
     1
 73
     0
 74
     0
  7

 75
     0
 76
     0
 77
     2
 78
   300
147
1.0
148
0.0
149
0.0
100
AcDbLayout
  1
Model
 70
     0
 71
     1
 10
0.0
 20
0.0
 11
2100.0
 21
2970.0
 12
0.0
 22
0.0
 32
0.0
 14
0.0
 24
0.0
 34
-0.0000000000000426
 15
2100.0
 25
2970.0
 35
0.0000000000000071
146
0.0
 13
0.0
 23
0.0
 33
0.0
 16
0.0
 26
0.0
 36
0.0
 17
0.0
 27
0.0
 37
0.0
 76
     0
330
A
331
15
  0
MATERIAL
  5
265
102
{ACAD_REACTORS
330
263
102
}
330
263
100
AcDbMaterial
  1
ByBlock
 72
     1
 94
      127
  0
MATERIAL
  5
264
102
{ACAD_REACTORS
330
263
102
}
330
263
100
AcDbMaterial
  1
ByLayer
 72
     1
 94
      127
  0
MATERIAL
  5
266
102
{ACAD_REACTORS
330
263
102
}
330
263
100
AcDbMaterial
  1
Global
 72
     1
 94
      127
  0
MLEADERSTYLE
  5
DAB
102
{ACAD_REACTORS
330
336
102
}
330
336
100
AcDbMLeaderStyle
170
     2
171
     1
172
     0
 90
        2
 40
0.0
 41
0.0
173
     1
 91
-1056964608
340
11
 92
       -2
290
     1
 42
2.0
291
     1
 43
8.0
  3
Standard
341
0
 44
4.0
300

342
17
174
     1
178
     6
175
     1
176
     0
 93
-1056964608
 45
4.0
292
     0
297
     0
 46
4.0
343
0
 94
-1056964608
 47
1.0
 49
1.0
140
1.0
293
     1
141
0.0
294
     1
177
     0
142
1.0
295
     0
296
     0
143
3.75
1001
ACAD_MLEADERVER
1070
     2
  0
MLINESTYLE
  5
1C
102
{ACAD_REACTORS
330
1B
102
}
330
1B
100
AcDbMlineStyle
  2
Standard
 70
     0
  3

 62
     0
 51
90.0
 52
90.0
 71
     2
 49
0.5
 62
   256
  6
BYLAYER
 49
-0.5
 62
   256
  6
BYLAYER
  0
ACDBPLACEHOLDER
  5
1D
102
{ACAD_REACTORS
330
1F
102
}
330
1F
  0
SCALE
  5
242
102
{ACAD_REACTORS
330
241
102
}
330
241
100
AcDbScale
 70
     0
300
1:1
140
1.0
141
1.0
290
     1
  0
SCALE
  5
243
102
{ACAD_REACTORS
330
241
102
}
330
241
100
AcDbScale
 70
     0
300
1:2
140
1.0
141
2.0
290
     0
  0
SCALE
  5
244
102
{ACAD_REACTORS
330
241
102
}
330
241
100
AcDbScale
 70
     0
300
1:4
140
1.0
141
4.0
290
     0
  0
SCALE
  5
245
102
{ACAD_REACTORS
330
241
102
}
330
241
100
AcDbScale
 70
     0
300
1:5
140
1.0
141
5.0
290
     0
  0
SCALE
  5
246
102
{ACAD_REACTORS
330
241
102
}
330
241
100
AcDbScale
 70
     0
300
1:8
140
1.0
141
8.0
290
     0
  0
SCALE
  5
247
102
{ACAD_REACTORS
330
241
102
}
330
241
100
AcDbScale
 70
     0
300
1:10
140
1.0
141
10.0
290
     0
  0
SCALE
  5
248
102
{ACAD_REACTORS
330
241
102
}
330
241
100
AcDbScale
 70
     0
300
1:16
140
1.0
141
16.0
290
     0
  0
SCALE
  5
249
102
{ACAD_REACTORS
330
241
102
}
330
241
100
AcDbScale
 70
     0
300
1:20
140
1.0
141
20.0
290
     0
  0
SCALE
  5
24A
102
{ACAD_REACTORS
330
241
102
}
330
241
100
AcDbScale
 70
     0
300
1:30
140
1.0
141
30.0
290
     0
  0
SCALE
  5
24B
102
{ACAD_REACTORS
330
241
102
}
330
241
100
AcDbScale
 70
     0
300
1:40
140
1.0
141
40.0
290
     0
  0
SCALE
  5
24C
102
{ACAD_REACTORS
330
241
102
}
330
241
100
AcDbScale
 70
     0
300
1:50
140
1.0
141
50.0
290
     0
  0
SCALE
  5
24D
102
{ACAD_REACTORS
330
241
102
}
330
241
100
AcDbScale
 70
     0
300
1:100
140
1.0
141
100.0
290
     0
  0
SCALE
  5
24E
102
{ACAD_REACTORS
330
241
102
}
330
241
100
AcDbScale
 70
     0
300
2:1
140
2.0
141
1.0
290
     0
  0
SCALE
  5
24F
102
{ACAD_REACTORS
330
241
102
}
330
241
100
AcDbScale
 70
     0
300
4:1
140
4.0
141
1.0
290
     0
  0
SCALE
  5
250
102
{ACAD_REACTORS
330
241
102
}
330
241
100
AcDbScale
 70
     0
300
8:1
140
8.0
141
1.0
290
     0
  0
SCALE
  5
251
102
{ACAD_REACTORS
330
241
102
}
330
241
100
AcDbScale
 70
     0
300
10:1
140
10.0
141
1.0
290
     0
  0
SCALE
  5
252
102
{ACAD_REACTORS
330
241
102
}
330
241
100
AcDbScale
 70
     0
300
100:1
140
100.0
141
1.0
290
     0
  0
SCALE
  5
253
102
{ACAD_REACTORS
330
241
102
}
330
241
100
AcDbScale
 70
     0
300
1/128" = 1'-0"
140
0.0078125
141
12.0
290
     0
  0
SCALE
  5
254
102
{ACAD_REACTORS
330
241
102
}
330
241
100
AcDbScale
 70
     0
300
1/64" = 1'-0"
140
0.015625
141
12.0
290
     0
  0
SCALE
  5
255
102
{ACAD_REACTORS
330
241
102
}
330
241
100
AcDbScale
 70
     0
300
1/32" = 1'-0"
140
0.03125
141
12.0
290
     0
  0
SCALE
  5
256
102
{ACAD_REACTORS
330
241
102
}
330
241
100
AcDbScale
 70
     0
300
1/16" = 1'-0"
140
0.0625
141
12.0
290
     0
  0
SCALE
  5
257
102
{ACAD_REACTORS
330
241
102
}
330
241
100
AcDbScale
 70
     0
300
3/32" = 1'-0"
140
0.09375
141
12.0
290
     0
  0
SCALE
  5
258
102
{ACAD_REACTORS
330
241
102
}
330
241
100
AcDbScale
 70
     0
300
1/8" = 1'-0"
140
0.125
141
12.0
290
     0
  0
SCALE
  5
259
102
{ACAD_REACTORS
330
241
102
}
330
241
100
AcDbScale
 70
     0
300
3/16" = 1'-0"
140
0.1875
141
12.0
290
     0
  0
SCALE
  5
25A
102
{ACAD_REACTORS
330
241
102
}
330
241
100
AcDbScale
 70
     0
300
1/4" = 1'-0"
140
0.25
141
12.0
290
     0
  0
SCALE
  5
25B
102
{ACAD_REACTORS
330
241
102
}
330
241
100
AcDbScale
 70
     0
300
3/8" = 1'-0"
140
0.375
141
12.0
290
     0
  0
SCALE
  5
25C
102
{ACAD_REACTORS
330
241
102
}
330
241
100
AcDbScale
 70
     0
300
1/2" = 1'-0"
140
0.5
141
12.0
290
     0
  0
SCALE
  5
25D
102
{ACAD_REACTORS
330
241
102
}
330
241
100
AcDbScale
 70
     0
300
3/4" = 1'-0"
140
0.75
141
12.0
290
     0
  0
SCALE
  5
25E
102
{ACAD_REACTORS
330
241
102
}
330
241
100
AcDbScale
 70
     0
300
1" = 1'-0"
140
1.0
141
12.0
290
     0
  0
SCALE
  5
25F
102
{ACAD_REACTORS
330
241
102
}
330
241
100
AcDbScale
 70
     0
300
1-1/2" = 1'-0"
140
1.5
141
12.0
290
     0
  0
SCALE
  5
260
102
{ACAD_REACTORS
330
241
102
}
330
241
100
AcDbScale
 70
     0
300
3" = 1'-0"
140
3.0
141
12.0
290
     0
  0
SCALE
  5
261
102
{ACAD_REACTORS
330
241
102
}
330
241
100
AcDbScale
 70
     0
300
6" = 1'-0"
140
6.0
141
12.0
290
     0
  0
SCALE
  5
262
102
{ACAD_REACTORS
330
241
102
}
330
241
100
AcDbScale
 70
     0
300
1'-0" = 1'-0"
140
12.0
141
12.0
290
     0
  0
TABLESTYLE
  5
279
102
{ACAD_REACTORS
330
278
102
}
102
{ACAD_XDICTIONARY
360
42E6
102
}
330
278
100
AcDbTableStyle
  3
Standard
 70
     0
 71
     0
 40
0.06
 41
0.06
280
     0
281
     0
  7
Standard
140
4.5
170
     2
 62
     0
 63
   257
283
     0
 90
        4
 91
        0
  1

274
    -2
284
     1
 64
     0
275
    -2
285
     1
 65
     0
276
    -2
286
     1
 66
     0
277
    -2
287
     1
 67
     0
278
    -2
288
     1
 68
     0
279
    -2
289
     1
 69
     0
  7
Standard
140
6.0
170
     5
 62
     0
 63
   257
283
     0
 90
        4
 91
        0
  1

274
    -2
284
     1
 64
     0
275
    -2
285
     1
 65
     0
276
    -2
286
     1
 66
     0
277
    -2
287
     1
 67
     0
278
    -2
288
     1
 68
     0
279
    -2
289
     1
 69
     0
  7
Standard
140
4.5
170
     5
 62
     0
 63
   257
283
     0
 90
        4
 91
        0
  1

274
    -2
284
     1
 64
     0
275
    -2
285
     1
 65
     0
276
    -2
286
     1
 66
     0
277
    -2
287
     1
 67
     0
278
    -2
288
     1
 68
     0
279
    -2
289
     1
 69
     0
  0
VISUALSTYLE
  5
26C
102
{ACAD_REACTORS
330
267
102
}
330
267
100
AcDbVisualStyle
  2
2dWireframe
 70
     4
 71
     0
 72
     2
 73
     0
 90
        0
 40
-0.6
 41
-30.0
 62
     5
 63
     7
421
 16777215
 74
     1
 91
        4
 64
     7
 65
   257
 75
     1
175
     1
 42
1.0
 92
        0
 66
   257
 43
1.0
 76
     1
 77
     6
 78
     2
 67
     7
 79
     5
170
     0
171
     0
290
     0
174
     0
 93
        1
 44
0.0
173
     0
291
     0
 45
0.0
  0
VISUALSTYLE
  5
26E
102
{ACAD_REACTORS
330
267
102
}
330
267
100
AcDbVisualStyle
  2
3D Hidden
 70
     6
 71
     1
 72
     2
 73
     2
 90
        0
 40
-0.6
 41
-30.0
 62
     5
 63
     7
421
 16777215
 74
     2
 91
        2
 64
     7
 65
   257
 75
     2
175
     1
 42
40.0
 92
        0
 66
   257
 43
1.0
 76
     1
 77
     6
 78
     2
 67
     7
 79
     3
170
     0
171
     0
290
     0
174
     0
 93
        1
 44
0.0
173
     0
291
     0
 45
0.0
  0
VISUALSTYLE
  5
26D
102
{ACAD_REACTORS
330
267
102
}
330
267
100
AcDbVisualStyle
  2
3dWireframe
 70
     5
 71
     0
 72
     2
 73
     0
 90
        0
 40
-0.6
 41
-30.0
 62
     5
 63
     7
421
 16777215
 74
     1
 91
        4
 64
     7
 65
   257
 75
     1
175
     1
 42
1.0
 92
        0
 66
   257
 43
1.0
 76
     1
 77
     6
 78
     2
 67
     7
 79
     5
170
     0
171
     0
290
     0
174
     0
 93
        1
 44
0.0
173
     0
291
     0
 45
0.0
  0
VISUALSTYLE
  5
26F
102
{ACAD_REACTORS
330
267
102
}
330
267
100
AcDbVisualStyle
  2
Basic
 70
     7
 71
     1
 72
     0
 73
     1
 90
        0
 40
-0.6
 41
-30.0
 62
     5
 63
     7
421
 16777215
 74
     0
 91
        4
 64
     7
 65
   257
 75
     1
175
     1
 42
1.0
 92
        8
 66
     7
 43
1.0
 76
     1
 77
     6
 78
     2
 67
     7
 79
     5
170
     0
171
     0
290
     0
174
     0
 93
        1
 44
0.0
173
     0
291
     1
 45
0.0
  0
VISUALSTYLE
  5
273
102
{ACAD_REACTORS
330
267
102
}
330
267
100
AcDbVisualStyle
  2
Brighten
 70
    12
 71
     2
 72
     2
 73
     0
 90
        0
 40
-0.6
 41
-30.0
 62
     5
 63
     7
421
 16777215
 74
     1
 91
        4
 64
     7
 65
   257
 75
     1
175
     1
 42
1.0
 92
        8
 66
     7
 43
1.0
 76
     1
 77
     6
 78
     2
 67
     7
 79
     5
170
     0
171
     0
290
     0
174
     0
 93
        1
 44
50.0
173
     0
291
     1
 45
0.0
  0
VISUALSTYLE
  5
277
102
{ACAD_REACTORS
330
267
102
}
330
267
100
AcDbVisualStyle
  2
ColorChange
 70
    16
 71
     2
 72
     2
 73
     3
 90
        0
 40
-0.6
 41
-30.0
 62
     5
 63
     8
421
  8421504
 74
     1
 91
        4
 64
     7
 65
   257
 75
     1
175
     1
 42
1.0
 92
        8
 66
     8
424
  8421504
 43
1.0
 76
     1
 77
     6
 78
     2
 67
     7
 79
     5
170
     0
171
     0
290
     0
174
     0
 93
        1
 44
0.0
173
     0
291
     1
 45
0.0
  0
VISUALSTYLE
  5
271
102
{ACAD_REACTORS
330
267
102
}
330
267
100
AcDbVisualStyle
  2
Conceptual
 70
     9
 71
     3
 72
     2
 73
     0
 90
        0
 40
-0.6
 41
-30.0
 62
     5
 63
     7
421
 16777215
 74
     2
 91
        2
 64
     7
 65
   257
 75
     1
175
     1
 42
40.0
 92
        8
 66
     7
 43
1.0
 76
     1
 77
     6
 78
     2
 67
     7
 79
     3
170
     0
171
     0
290
     0
174
     0
 93
        1
 44
0.0
173
     0
291
     0
 45
0.0
  0
VISUALSTYLE
  5
272
102
{ACAD_REACTORS
330
267
102
}
330
267
100
AcDbVisualStyle
  2
Dim
 70
    11
 71
     2
 72
     2
 73
     0
 90
        0
 40
-0.6
 41
-30.0
 62
     5
 63
     7
421
 16777215
 74
     1
 91
        4
 64
     7
 65
   257
 75
     1
175
     1
 42
1.0
 92
        8
 66
     7
 43
1.0
 76
     1
 77
     6
 78
     2
 67
     7
 79
     5
170
     0
171
     0
290
     0
174
     0
 93
        1
 44
-50.0
173
     0
291
     1
 45
0.0
  0
VISUALSTYLE
  5
8FE
102
{ACAD_REACTORS
330
267
102
}
330
267
100
AcDbVisualStyle
  2
EdgeColorOff
 70
    22
 71
     2
 72
     2
 73
     0
 90
        0
 40
0.6
 41
30.0
 62
     5
 63
     7
421
 16777215
 74
     1
 91
        4
 64
     7
 65
   257
 75
     1
175
     1
 42
1.0
 92
        8
 66
     7
 43
1.0
 76
     1
 77
     6
 78
     2
 67
     7
 79
     5
170
     0
171
     0
290
     0
174
     0
 93
        1
 44
0.0
173
     0
291
     1
 45
0.0
  0
VISUALSTYLE
  5
276
102
{ACAD_REACTORS
330
267
102
}
330
267
100
AcDbVisualStyle
  2
Facepattern
 70
    15
 71
     2
 72
     2
 73
     0
 90
        0
 40
-0.6
 41
-30.0
 62
     5
 63
     7
421
 16777215
 74
     1
 91
        4
 64
     7
 65
   257
 75
     1
175
     1
 42
1.0
 92
        8
 66
     7
 43
1.0
 76
     1
 77
     6
 78
     2
 67
     7
 79
     5
170
     0
171
     0
290
     0
174
     0
 93
        1
 44
0.0
173
     0
291
     1
 45
0.0
  0
VISUALSTYLE
  5
268
102
{ACAD_REACTORS
330
267
102
}
330
267
100
AcDbVisualStyle
  2
Flat
 70
     0
 71
     2
 72
     1
 73
     1
 90
        2
 40
-0.6
 41
30.0
 62
     5
 63
     7
421
 16777215
 74
     0
 91
        4
 64
     7
 65
   257
 75
     1
175
     1
 42
1.0
 92
        8
 66
     7
 43
1.0
 76
     1
 77
     6
 78
     2
 67
     7
 79
     5
170
     0
171
     0
290
     0
174
     0
 93
       13
 44
0.0
173
     0
291
     1
 45
0.0
  0
VISUALSTYLE
  5
269
102
{ACAD_REACTORS
330
267
102
}
330
267
100
AcDbVisualStyle
  2
FlatWithEdges
 70
     1
 71
     2
 72
     1
 73
     1
 90
        2
 40
-0.6
 41
30.0
 62
     5
 63
     7
421
 16777215
 74
     1
 91
        4
 64
     7
 65
   257
 75
     1
175
     1
 42
1.0
 92
        0
 66
   257
 43
1.0
 76
     1
 77
     6
 78
     2
 67
     7
 79
     5
170
     0
171
     0
290
     0
174
     0
 93
       13
 44
0.0
173
     0
291
     1
 45
0.0
  0
VISUALSTYLE
  5
26A
102
{ACAD_REACTORS
330
267
102
}
330
267
100
AcDbVisualStyle
  2
Gouraud
 70
     2
 71
     2
 72
     2
 73
     1
 90
        2
 40
-0.6
 41
30.0
 62
     5
 63
     7
421
 16777215
 74
     0
 91
        4
 64
     7
 65
   257
 75
     1
175
     1
 42
1.0
 92
        0
 66
     7
 43
1.0
 76
     1
 77
     6
 78
     2
 67
     7
 79
     5
170
     0
171
     0
290
     0
174
     0
 93
       13
 44
0.0
173
     0
291
     1
 45
0.0
  0
VISUALSTYLE
  5
26B
102
{ACAD_REACTORS
330
267
102
}
330
267
100
AcDbVisualStyle
  2
GouraudWithEdges
 70
     3
 71
     2
 72
     2
 73
     1
 90
        2
 40
-0.6
 41
30.0
 62
     5
 63
     7
421
 16777215
 74
     1
 91
        4
 64
     7
 65
   257
 75
     1
175
     1
 42
1.0
 92
        0
 66
   257
 43
1.0
 76
     1
 77
     6
 78
     2
 67
     7
 79
     5
170
     0
171
     0
290
     0
174
     0
 93
       13
 44
0.0
173
     0
291
     1
 45
0.0
  0
VISUALSTYLE
  5
8FB
102
{ACAD_REACTORS
330
267
102
}
330
267
100
AcDbVisualStyle
  2
Hidden
 70
     6
 71
     1
 72
     2
 73
     2
 90
        0
 40
0.6
 41
30.0
 62
     5
 63
     7
421
 16777215
 74
     2
 91
        2
 64
     7
 65
   257
 75
     2
175
     1
 42
40.0
 92
        0
 66
   257
 43
1.0
 76
     1
 77
     6
 78
     2
 67
     7
 79
     3
170
     0
171
     0
290
     0
174
     0
 93
        1
 44
0.0
173
     0
291
     0
 45
0.0
  0
VISUALSTYLE
  5
8FC
102
{ACAD_REACTORS
330
267
102
}
330
267
100
AcDbVisualStyle
  2
JitterOff
 70
    20
 71
     2
 72
     2
 73
     0
 90
        0
 40
0.6
 41
30.0
 62
     5
 63
     7
421
 16777215
 74
     1
 91
        4
 64
     7
 65
   257
 75
     1
175
     1
 42
1.0
 92
       10
 66
     7
 43
1.0
 76
     1
 77
     6
 78
     2
 67
     7
 79
     5
170
     0
171
     0
290
     0
174
     0
 93
        1
 44
0.0
173
     0
291
     1
 45
0.0
  0
VISUALSTYLE
  5
275
102
{ACAD_REACTORS
330
267
102
}
330
267
100
AcDbVisualStyle
  2
Linepattern
 70
    14
 71
     2
 72
     2
 73
     0
 90
        0
 40
-0.6
 41
-30.0
 62
     5
 63
     7
421
 16777215
 74
     1
 91
        4
 64
     7
 65
   257
 75
     7
175
     7
 42
1.0
 92
        8
 66
     7
 43
1.0
 76
     1
 77
     6
 78
     2
 67
     7
 79
     5
170
     0
171
     0
290
     0
174
     0
 93
        1
 44
0.0
173
     0
291
     1
 45
0.0
  0
VISUALSTYLE
  5
8FD
102
{ACAD_REACTORS
330
267
102
}
330
267
100
AcDbVisualStyle
  2
OverhangOff
 70
    21
 71
     2
 72
     2
 73
     0
 90
        0
 40
0.6
 41
30.0
 62
     5
 63
     7
421
 16777215
 74
     1
 91
        4
 64
     7
 65
   257
 75
     1
175
     1
 42
1.0
 92
        9
 66
     7
 43
1.0
 76
     1
 77
     6
 78
     2
 67
     7
 79
     5
170
     0
171
     0
290
     0
174
     0
 93
        1
 44
0.0
173
     0
291
     1
 45
0.0
  0
VISUALSTYLE
  5
270
102
{ACAD_REACTORS
330
267
102
}
330
267
100
AcDbVisualStyle
  2
Realistic
 70
     8
 71
     2
 72
     2
 73
     0
 90
        0
 40
-0.6
 41
-30.0
 62
     5
 63
     7
421
 16777215
 74
     1
 91
        0
 64
     7
 65
   257
 75
     1
175
     1
 42
1.0
 92
        8
 66
     8
424
  7895160
 43
1.0
 76
     1
 77
     6
 78
     2
 67
     7
 79
     5
170
     0
171
     0
290
     0
174
     0
 93
       13
 44
0.0
173
     0
291
     0
 45
0.0
  0
VISUALSTYLE
  5
903
102
{ACAD_REACTORS
330
267
102
}
330
267
100
AcDbVisualStyle
  2
Shaded
 70
    27
 71
     2
 72
     2
 73
     1
 90
        2
 40
0.6
 41
30.0
 62
     5
 63
     7
421
 16777215
 74
     0
 91
        4
 64
     7
 65
   257
 75
     1
175
     1
 42
1.0
 92
        8
 66
   257
 43
1.0
 76
     1
 77
     6
 78
     2
 67
     8
425
  7895160
 79
     3
170
     0
171
     0
290
     0
174
     0
 93
        5
 44
0.0
173
     0
291
     0
 45
0.0
  0
VISUALSTYLE
  5
902
102
{ACAD_REACTORS
330
267
102
}
330
267
100
AcDbVisualStyle
  2
Shaded with edges
 70
    26
 71
     2
 72
     2
 73
     1
 90
        2
 40
0.6
 41
30.0
 62
     5
 63
     7
421
 16777215
 74
     1
 91
       10
 64
     7
 65
   257
 75
     2
175
     1
 42
1.0
 92
        8
 66
   257
 43
1.0
 76
     1
 77
     6
 78
     2
 67
     7
 79
     3
170
     0
171
     0
290
     0
174
     0
 93
        5
 44
0.0
173
     0
291
     0
 45
0.0
  0
VISUALSTYLE
  5
8FF
102
{ACAD_REACTORS
330
267
102
}
330
267
100
AcDbVisualStyle
  2
Shades of Gray
 70
    23
 71
     2
 72
     2
 73
     3
 90
        0
 40
0.6
 41
30.0
 62
     5
 63
     7
421
 16777215
 74
     2
 91
        2
 64
     7
 65
     7
 75
     1
175
     1
 42
40.0
 92
        8
 66
     7
 43
1.0
 76
     1
 77
     6
 78
     2
 67
     7
 79
     3
170
     0
171
     0
290
     0
174
     0
 93
        1
 44
0.0
173
     0
291
     0
 45
0.0
  0
VISUALSTYLE
  5
900
102
{ACAD_REACTORS
330
267
102
}
330
267
100
AcDbVisualStyle
  2
Sketchy
 70
    24
 71
     1
 72
     2
 73
     2
 90
        0
 40
0.6
 41
30.0
 62
     5
 63
     7
421
 16777215
 74
     2
 91
        2
 64
     7
 65
     7
 75
     1
175
     1
 42
40.0
 92
       11
 66
     7
 43
1.0
 76
     1
 77
     6
 78
     2
 67
     7
 79
     6
170
     0
171
     0
290
     0
174
     0
 93
        1
 44
0.0
173
     0
291
     0
 45
0.0
  0
VISUALSTYLE
  5
274
102
{ACAD_REACTORS
330
267
102
}
330
267
100
AcDbVisualStyle
  2
Thicken
 70
    13
 71
     2
 72
     2
 73
     0
 90
        0
 40
-0.6
 41
-30.0
 62
     5
 63
     7
421
 16777215
 74
     1
 91
        4
 64
     7
 65
   257
 75
     1
175
     1
 42
1.0
 92
       12
 66
     7
 43
1.0
 76
     1
 77
     6
 78
     2
 67
     7
 79
     5
170
     0
171
     0
290
     0
174
     0
 93
        1
 44
0.0
173
     0
291
     1
 45
0.0
  0
VISUALSTYLE
  5
8FA
102
{ACAD_REACTORS
330
267
102
}
330
267
100
AcDbVisualStyle
  2
Wireframe
 70
     5
 71
     0
 72
     2
 73
     0
 90
        0
 40
0.6
 41
30.0
 62
     5
 63
     7
421
 16777215
 74
     1
 91
        4
 64
     7
 65
   257
 75
     1
175
     1
 42
1.0
 92
        0
 66
   257
 43
1.0
 76
     1
 77
     6
 78
     2
 67
     7
 79
     3
170
     0
171
     0
290
     0
174
     0
 93
        1
 44
0.0
173
     0
291
     0
 45
0.0
  0
VISUALSTYLE
  5
901
102
{ACAD_REACTORS
330
267
102
}
330
267
100
AcDbVisualStyle
  2
X-Ray
 70
    25
 71
     2
 72
     2
 73
     1
 90
        1
 40
0.5
 41
30.0
 62
     5
 63
     7
421
 16777215
 74
     1
 91
        0
 64
     7
 65
   257
 75
     1
175
     1
 42
1.0
 92
        8
 66
     7
 43
1.0
 76
     1
 77
     6
 78
     2
 67
     7
 79
     3
170
     0
171
     0
290
     0
174
     0
 93
       13
 44
0.0
173
     0
291
     0
 45
0.0
  0
DICTIONARYVAR
  5
331
102
{ACAD_REACTORS
330
330
102
}
330
330
100
DictionaryVariables
280
     0
  1
1:1
  0
DICTIONARYVAR
  5
DB1
102
{ACAD_REACTORS
330
330
102
}
330
330
100
DictionaryVariables
280
     0
  1
Standard
  0
DICTIONARYVAR
  5
335
102
{ACAD_REACTORS
330
330
102
}
330
330
100
DictionaryVariables
280
     0
  1
Standard
  0
DICTIONARYVAR
  5
D52
102
{ACAD_REACTORS
330
330
102
}
330
330
100
DictionaryVariables
280
     0
  1
ByLayer
  0
DICTIONARYVAR
  5
896
102
{ACAD_REACTORS
330
330
102
}
330
330
100
DictionaryVariables
280
     0
  1
0
  0
DICTIONARYVAR
  5
ECE
102
{ACAD_REACTORS
330
E3E
102
}
330
E3E
100
DictionaryVariables
280
     0
  1
0.261799
  0
DICTIONARYVAR
  5
ECC
102
{ACAD_REACTORS
330
E3E
102
}
330
E3E
100
DictionaryVariables
280
     0
  1
0.400000
  0
DICTIONARYVAR
  5
ECD
102
{ACAD_REACTORS
330
E3E
102
}
330
E3E
100
DictionaryVariables
280
     0
  1
0.250000
  0
DICTIONARYVAR
  5
ECF
102
{ACAD_REACTORS
330
E3E
102
}
330
E3E
100
DictionaryVariables
280
     0
  1
1
  0
FIELD
  5
1467
102
{ACAD_REACTORS
330
146C
330
42D3
102
}
330
42D3
100
AcDbField
  1
_text
  2
{%<\_FldIdx 0>%N}
 90
        1
360
146B
 97
        0
 91
       63
 92
        0
 94
       11
 95
        2
 96
        0
300

 93
        1
  6
ACFD_FIELDTEXT_CHECKSUM
 93
        2
 90
        2
140
4577.0
 94
        0
300

302

304
ACVALUE_END
  7
ACFD_FIELD_VALUE
 93
        6
 90
        4
  1
{20180629N}
 94
        0
300

302

304
ACVALUE_END
301
{20180629N}
 98
       11
  0
DICTIONARY
  5
42E6
330
279
100
AcDbDictionary
280
     1
281
     1
  3
ACAD_ROUNDTRIP_2008_TABLESTYLE_CELLSTYLEMAP
360
42E7
  0
FIELD
  5
146B
330
1467
100
AcDbField
  1
AcVar
  2
\AcVar Date \f "yyyyMMdd"
 90
        0
 97
        0
 91
       63
 92
        0
 94
        8
 95
       64
 96
        0
300
Variable not supported
 93
        1
  6
Variable
 93
        2
 90
        4
  1
Date
 94
        0
300

302

304
ACVALUE_END
  7
ACFD_FIELD_VALUE
 93
        6
 90
        8
 92
       16
310
E207060000001D000A00020031000000
 94
        0
300
yyyyMMdd
302

304
ACVALUE_END
301
20180629
 98
        8
  0
CELLSTYLEMAP
  5
42E7
102
{ACAD_REACTORS
330
42E6
102
}
330
42E6
100
AcDbCellStyleMap
 90
        3
300
CELLSTYLE
  1
TABLEFORMAT_BEGIN
 90
        5
170
     1
 91
        0
 92
    32768
 62
   257
 93
        1
300
CONTENTFORMAT
  1
CONTENTFORMAT_BEGIN
 90
        0
 91
        0
 92
        4
 93
        0
300

 40
0.0
140
1.0
 94
        5
 62
     0
340
17
144
6.0
309
CONTENTFORMAT_END
171
     1
301
MARGIN
  1
CELLMARGIN_BEGIN
 40
0.06
 40
0.06
 40
0.06
 40
0.06
 40
0.18
 40
0.18
309
CELLMARGIN_END
 94
        6
 95
        1
302
GRIDFORMAT
  1
GRIDFORMAT_BEGIN
 90
        0
 91
        1
 62
     0
 92
       -2
340
0
 93
        0
 40
0.045
309
GRIDFORMAT_END
 95
        2
302
GRIDFORMAT
  1
GRIDFORMAT_BEGIN
 90
        0
 91
        1
 62
     0
 92
       -2
340
0
 93
        0
 40
0.045
309
GRIDFORMAT_END
 95
        4
302
GRIDFORMAT
  1
GRIDFORMAT_BEGIN
 90
        0
 91
        1
 62
     0
 92
       -2
340
0
 93
        0
 40
0.045
309
GRIDFORMAT_END
 95
        8
302
GRIDFORMAT
  1
GRIDFORMAT_BEGIN
 90
        0
 91
        1
 62
     0
 92
       -2
340
0
 93
        0
 40
0.045
309
GRIDFORMAT_END
 95
       16
302
GRIDFORMAT
  1
GRIDFORMAT_BEGIN
 90
        0
 91
        1
 62
     0
 92
       -2
340
0
 93
        0
 40
0.045
309
GRIDFORMAT_END
 95
       32
302
GRIDFORMAT
  1
GRIDFORMAT_BEGIN
 90
        0
 91
        1
 62
     0
 92
       -2
340
0
 93
        0
 40
0.045
309
GRIDFORMAT_END
309
TABLEFORMAT_END
  1
CELLSTYLE_BEGIN
 90
        1
 91
        1
300
_TITLE
309
CELLSTYLE_END
300
CELLSTYLE
  1
TABLEFORMAT_BEGIN
 90
        5
170
     1
 91
        0
 92
        0
 62
   257
 93
        1
300
CONTENTFORMAT
  1
CONTENTFORMAT_BEGIN
 90
        0
 91
        0
 92
        4
 93
        0
300

 40
0.0
140
1.0
 94
        5
 62
     0
340
17
144
4.5
309
CONTENTFORMAT_END
171
     1
301
MARGIN
  1
CELLMARGIN_BEGIN
 40
0.06
 40
0.06
 40
0.06
 40
0.06
 40
0.18
 40
0.18
309
CELLMARGIN_END
 94
        6
 95
        1
302
GRIDFORMAT
  1
GRIDFORMAT_BEGIN
 90
        0
 91
        1
 62
     0
 92
       -2
340
0
 93
        0
 40
0.045
309
GRIDFORMAT_END
 95
        2
302
GRIDFORMAT
  1
GRIDFORMAT_BEGIN
 90
        0
 91
        1
 62
     0
 92
       -2
340
0
 93
        0
 40
0.045
309
GRIDFORMAT_END
 95
        4
302
GRIDFORMAT
  1
GRIDFORMAT_BEGIN
 90
        0
 91
        1
 62
     0
 92
       -2
340
0
 93
        0
 40
0.045
309
GRIDFORMAT_END
 95
        8
302
GRIDFORMAT
  1
GRIDFORMAT_BEGIN
 90
        0
 91
        1
 62
     0
 92
       -2
340
0
 93
        0
 40
0.045
309
GRIDFORMAT_END
 95
       16
302
GRIDFORMAT
  1
GRIDFORMAT_BEGIN
 90
        0
 91
        1
 62
     0
 92
       -2
340
0
 93
        0
 40
0.045
309
GRIDFORMAT_END
 95
       32
302
GRIDFORMAT
  1
GRIDFORMAT_BEGIN
 90
        0
 91
        1
 62
     0
 92
       -2
340
0
 93
        0
 40
0.045
309
GRIDFORMAT_END
309
TABLEFORMAT_END
  1
CELLSTYLE_BEGIN
 90
        2
 91
        1
300
_HEADER
309
CELLSTYLE_END
300
CELLSTYLE
  1
TABLEFORMAT_BEGIN
 90
        5
170
     1
 91
        0
 92
        0
 62
   257
 93
        1
300
CONTENTFORMAT
  1
CONTENTFORMAT_BEGIN
 90
        0
 91
        0
 92
        4
 93
        0
300

 40
0.0
140
1.0
 94
        2
 62
     0
340
17
144
4.5
309
CONTENTFORMAT_END
171
     1
301
MARGIN
  1
CELLMARGIN_BEGIN
 40
0.06
 40
0.06
 40
0.06
 40
0.06
 40
0.18
 40
0.18
309
CELLMARGIN_END
 94
        6
 95
        1
302
GRIDFORMAT
  1
GRIDFORMAT_BEGIN
 90
        0
 91
        1
 62
     0
 92
       -2
340
0
 93
        0
 40
0.045
309
GRIDFORMAT_END
 95
        2
302
GRIDFORMAT
  1
GRIDFORMAT_BEGIN
 90
        0
 91
        1
 62
     0
 92
       -2
340
0
 93
        0
 40
0.045
309
GRIDFORMAT_END
 95
        4
302
GRIDFORMAT
  1
GRIDFORMAT_BEGIN
 90
        0
 91
        1
 62
     0
 92
       -2
340
0
 93
        0
 40
0.045
309
GRIDFORMAT_END
 95
        8
302
GRIDFORMAT
  1
GRIDFORMAT_BEGIN
 90
        0
 91
        1
 62
     0
 92
       -2
340
0
 93
        0
 40
0.045
309
GRIDFORMAT_END
 95
       16
302
GRIDFORMAT
  1
GRIDFORMAT_BEGIN
 90
        0
 91
        1
 62
     0
 92
       -2
340
0
 93
        0
 40
0.045
309
GRIDFORMAT_END
 95
       32
302
GRIDFORMAT
  1
GRIDFORMAT_BEGIN
 90
        0
 91
        1
 62
     0
 92
       -2
340
0
 93
        0
 40
0.045
309
GRIDFORMAT_END
309
TABLEFORMAT_END
  1
CELLSTYLE_BEGIN
 90
        3
 91
        2
300
_DATA
309
CELLSTYLE_END
  0
ENDSEC
  0
EOF
