  0
SECTION
  2
HEADER
  9
$ACADVER
  1
AC1021
  9
$ACADMAINTVER
 70
    25
  9
$DWGCODEPAGE
  3
ANSI_932
  9
$LASTSAVEDBY
  1
howeNelson
  9
$INSBASE
 10
0.0
 20
0.0
 30
0.0
  9
$EXTMIN
 10
0.0
 20
0.0
 30
0.0
  9
$EXTMAX
 10
2100.0
 20
2970.0
 30
0.0
  9
$LIMMIN
 10
0.0
 20
0.0
  9
$LIMMAX
 10
2100.0
 20
2970.0
  9
$ORTHOMODE
 70
     0
  9
$REGENMODE
 70
     1
  9
$FILLMODE
 70
     1
  9
$QTEXTMODE
 70
     0
  9
$MIRRTEXT
 70
     1
  9
$LTSCALE
 40
5.0
  9
$ATTMODE
 70
     1
  9
$TEXTSIZE
 40
533.0403732820173
  9
$TRACEWID
 40
1.0
  9
$TEXTSTYLE
  7
Standard
  9
$CLAYER
  8
Dim
  9
$CELTYPE
  6
Continuous
  9
$CECOLOR
 62
   256
  9
$CELTSCALE
 40
1.0
  9
$DISPSILH
 70
     0
  9
$DIMSCALE
 40
1.0
  9
$DIMASZ
 40
9.0
  9
$DIMEXO
 40
25.0
  9
$DIMDLI
 40
25.0
  9
$DIMRND
 40
0.0
  9
$DIMDLE
 40
0.0
  9
$DIMEXE
 40
0.0
  9
$DIMTP
 40
0.0
  9
$DIMTM
 40
0.0
  9
$DIMTXT
 40
24.4326171875
  9
$DIMCEN
 40
0.0
  9
$DIMTSZ
 40
0.0
  9
$DIMTOL
 70
     0
  9
$DIMLIM
 70
     0
  9
$DIMTIH
 70
     0
  9
$DIMTOH
 70
     0
  9
$DIMSE1
 70
     0
  9
$DIMSE2
 70
     0
  9
$DIMTAD
 70
     1
  9
$DIMZIN
 70
    11
  9
$DIMBLK
  1
DOT
  9
$DIMASO
 70
     1
  9
$DIMSHO
 70
     1
  9
$DIMPOST
  1
<>
  9
$DIMAPOST
  1
[]
  9
$DIMALT
 70
     0
  9
$DIMALTD
 70
     1
  9
$DIMALTF
 40
1.0
  9
$DIMLFAC
 40
1.0
  9
$DIMTOFL
 70
     0
  9
$DIMTVP
 40
0.0
  9
$DIMTIX
 70
     1
  9
$DIMSOXD
 70
     0
  9
$DIMSAH
 70
     0
  9
$DIMBLK1
  1

  9
$DIMBLK2
  1

  9
$DIMSTYLE
  2
JIS
  9
$DIMCLRD
 70
     0
  9
$DIMCLRE
 70
     0
  9
$DIMCLRT
 70
     0
  9
$DIMTFAC
 40
1.0
  9
$DIMGAP
 40
10.0
  9
$DIMJUST
 70
     0
  9
$DIMSD1
 70
     0
  9
$DIMSD2
 70
     0
  9
$DIMTOLJ
 70
     1
  9
$DIMTZIN
 70
    11
  9
$DIMALTZ
 70
    11
  9
$DIMALTTZ
 70
    11
  9
$DIMUPT
 70
     0
  9
$DIMDEC
 70
     0
  9
$DIMTDEC
 70
     1
  9
$DIMALTU
 70
     2
  9
$DIMALTTD
 70
     2
  9
$DIMTXSTY
  7
ＭＳ ゴシック
  9
$DIMAUNIT
 70
     0
  9
$DIMADEC
 70
     0
  9
$DIMALTRND
 40
0.0
  9
$DIMAZIN
 70
     0
  9
$DIMDSEP
 70
    46
  9
$DIMATFIT
 70
     0
  9
$DIMFRAC
 70
     2
  9
$DIMLDRBLK
  1
DOT
  9
$DIMLUNIT
 70
     2
  9
$DIMLWD
 70
    -2
  9
$DIMLWE
 70
    -2
  9
$DIMTMOVE
 70
     0
  9
$DIMFXL
 40
1.0
  9
$DIMFXLON
 70
     0
  9
$DIMJOGANG
 40
0.7853981633974483
  9
$DIMTFILL
 70
     0
  9
$DIMTFILLCLR
 70
     0
  9
$DIMARCSYM
 70
     0
  9
$DIMLTYPE
  6

  9
$DIMLTEX1
  6

  9
$DIMLTEX2
  6

  9
$LUNITS
 70
     2
  9
$LUPREC
 70
     0
  9
$SKETCHINC
 40
0.1
  9
$FILLETRAD
 40
0.0
  9
$AUNITS
 70
     0
  9
$AUPREC
 70
     0
  9
$MENU
  1
acad
  9
$ELEVATION
 40
0.0
  9
$PELEVATION
 40
0.0
  9
$THICKNESS
 40
0.0
  9
$LIMCHECK
 70
     0
  9
$CHAMFERA
 40
0.0
  9
$CHAMFERB
 40
0.0
  9
$CHAMFERC
 40
0.0
  9
$CHAMFERD
 40
0.0
  9
$SKPOLY
 70
     0
  9
$TDCREATE
 40
2447893.375
  9
$TDUCREATE
 40
0.0
  9
$TDUPDATE
 40
2457689.572368518
  9
$TDUUPDATE
 40
2457689.197368518
  9
$TDINDWG
 40
0.3351176389
  9
$TDUSRTIMER
 40
2457689.194614549
  9
$USRTIMER
 70
     1
  9
$ANGBASE
 50
0.0
  9
$ANGDIR
 70
     0
  9
$PDMODE
 70
     1
  9
$PDSIZE
 40
-2.0
  9
$PLINEWID
 40
0.0
  9
$SPLFRAME
 70
     0
  9
$SPLINETYPE
 70
     6
  9
$SPLINESEGS
 70
     8
  9
$HANDSEED
  5
2875
  9
$SURFTAB1
 70
     6
  9
$SURFTAB2
 70
     6
  9
$SURFTYPE
 70
     6
  9
$SURFU
 70
     6
  9
$SURFV
 70
     6
  9
$UCSBASE
  2

  9
$UCSNAME
  2

  9
$UCSORG
 10
0.0
 20
0.0
 30
0.0
  9
$UCSXDIR
 10
1.0
 20
0.0
 30
0.0
  9
$UCSYDIR
 10
0.0
 20
1.0
 30
0.0
  9
$UCSORTHOREF
  2

  9
$UCSORTHOVIEW
 70
     0
  9
$UCSORGTOP
 10
0.0
 20
0.0
 30
0.0
  9
$UCSORGBOTTOM
 10
0.0
 20
0.0
 30
0.0
  9
$UCSORGLEFT
 10
0.0
 20
0.0
 30
0.0
  9
$UCSORGRIGHT
 10
0.0
 20
0.0
 30
0.0
  9
$UCSORGFRONT
 10
0.0
 20
0.0
 30
0.0
  9
$UCSORGBACK
 10
0.0
 20
0.0
 30
0.0
  9
$PUCSBASE
  2

  9
$PUCSNAME
  2

  9
$PUCSORG
 10
0.0
 20
0.0
 30
0.0
  9
$PUCSXDIR
 10
1.0
 20
0.0
 30
0.0
  9
$PUCSYDIR
 10
0.0
 20
1.0
 30
0.0
  9
$PUCSORTHOREF
  2

  9
$PUCSORTHOVIEW
 70
     0
  9
$PUCSORGTOP
 10
0.0
 20
0.0
 30
0.0
  9
$PUCSORGBOTTOM
 10
0.0
 20
0.0
 30
0.0
  9
$PUCSORGLEFT
 10
0.0
 20
0.0
 30
0.0
  9
$PUCSORGRIGHT
 10
0.0
 20
0.0
 30
0.0
  9
$PUCSORGFRONT
 10
0.0
 20
0.0
 30
0.0
  9
$PUCSORGBACK
 10
0.0
 20
0.0
 30
0.0
  9
$USERI1
 70
     0
  9
$USERI2
 70
     0
  9
$USERI3
 70
     0
  9
$USERI4
 70
     0
  9
$USERI5
 70
     0
  9
$USERR1
 40
0.0
  9
$USERR2
 40
0.0
  9
$USERR3
 40
0.0
  9
$USERR4
 40
0.0
  9
$USERR5
 40
0.0
  9
$WORLDVIEW
 70
     1
  9
$SHADEDGE
 70
     3
  9
$SHADEDIF
 70
    70
  9
$TILEMODE
 70
     1
  9
$MAXACTVP
 70
    64
  9
$PINSBASE
 10
0.0
 20
0.0
 30
0.0
  9
$PLIMCHECK
 70
     0
  9
$PEXTMIN
 10
0.0
 20
0.0
 30
0.0
  9
$PEXTMAX
 10
0.0
 20
0.0
 30
0.0
  9
$PLIMMIN
 10
-95.87226993865028
 20
-25.69999999999999
  9
$PLIMMAX
 10
201.1277300613497
 20
184.3
  9
$UNITMODE
 70
     0
  9
$VISRETAIN
 70
     0
  9
$PLINEGEN
 70
     1
  9
$PSLTSCALE
 70
     0
  9
$TREEDEPTH
 70
  3020
  9
$CMLSTYLE
  2
Standard
  9
$CMLJUST
 70
     0
  9
$CMLSCALE
 40
1.0
  9
$PROXYGRAPHICS
 70
     0
  9
$MEASUREMENT
 70
     1
  9
$CELWEIGHT
370
    -1
  9
$ENDCAPS
280
     0
  9
$JOINSTYLE
280
     0
  9
$LWDISPLAY
290
     1
  9
$INSUNITS
 70
     4
  9
$HYPERLINKBASE
  1

  9
$STYLESHEET
  1

  9
$XEDIT
290
     1
  9
$CEPSNTYPE
380
     0
  9
$PSTYLEMODE
290
     1
  9
$FINGERPRINTGUID
  2

  9
$VERSIONGUID
  2

  9
$EXTNAMES
290
     1
  9
$PSVPSCALE
 40
0.0
  9
$OLESTARTUP
290
     0
  9
$SORTENTS
280
   127
  9
$INDEXCTL
280
     0
  9
$HIDETEXT
280
     1
  9
$XCLIPFRAME
290
     0
  9
$HALOGAP
280
     0
  9
$OBSCOLOR
 70
   257
  9
$OBSLTYPE
280
     0
  9
$INTERSECTIONDISPLAY
280
     0
  9
$INTERSECTIONCOLOR
 70
   257
  9
$DIMASSOC
280
     2
  9
$PROJECTNAME
  1

  9
$CAMERADISPLAY
290
     0
  9
$LENSLENGTH
 40
50.0
  9
$CAMERAHEIGHT
 40
0.0
  9
$STEPSPERSEC
 40
2.0
  9
$STEPSIZE
 40
6.0
  9
$3DDWFPREC
 40
2.0
  9
$PSOLWIDTH
 40
0.25
  9
$PSOLHEIGHT
 40
4.0
  9
$LOFTANG1
 40
1.570796326794897
  9
$LOFTANG2
 40
1.570796326794897
  9
$LOFTMAG1
 40
0.0
  9
$LOFTMAG2
 40
0.0
  9
$LOFTPARAM
 70
     7
  9
$LOFTNORMALS
280
     1
  9
$LATITUDE
 40
37.795
  9
$LONGITUDE
 40
-122.394
  9
$NORTHDIRECTION
 40
0.0
  9
$TIMEZONE
 70
 -8000
  9
$LIGHTGLYPHDISPLAY
280
     1
  9
$TILEMODELIGHTSYNCH
280
     1
  9
$SOLIDHIST
280
     1
  9
$SHOWHIST
280
     1
  9
$DWFFRAME
280
     2
  9
$DGNFRAME
280
     2
  9
$REALWORLDSCALE
290
     1
  9
$INTERFERECOLOR
 62
   256
  9
$CSHADOW
280
     0
  9
$SHADOWPLANELOCATION
 40
0.0
  0
ENDSEC
  0
SECTION
  2
CLASSES
  0
CLASS
  1
LWPOLYLINE
  2
AcDbPolyline
  3
ObjectDBX Classes
 90
        0
 91
        1
280
     0
281
     1
  0
CLASS
  1
IMAGE
  2
AcDbRasterImage
  3
ISM
 90
      127
 91
        5
280
     0
281
     1
  0
CLASS
  1
OLE2FRAME
  2
AcDbOle2Frame
  3
ObjectDBX Classes
 90
        0
 91
        1
280
     0
281
     1
  0
CLASS
  1
HATCH
  2
AcDbHatch
  3
ObjectDBX Classes
 90
        0
 91
        1
280
     0
281
     1
  0
CLASS
  1
DICTIONARYVAR
  2
AcDbDictionaryVar
  3
ObjectDBX Classes
 90
        0
 91
        4
280
     0
281
     0
  0
CLASS
  1
RASTERVARIABLES
  2
AcDbRasterVariables
  3
ISM
 90
        0
 91
        4
280
     0
281
     0
  0
CLASS
  1
IMAGEDEF
  2
AcDbRasterImageDef
  3
ISM
 90
        0
 91
        4
280
     0
281
     0
  0
CLASS
  1
IMAGEDEF_REACTOR
  2
AcDbRasterImageDefReactor
  3
ISM
 90
        1
 91
        4
280
     0
281
     0
  0
CLASS
  1
IDBUFFER
  2
AcDbIdBuffer
  3
ObjectDBX Classes
 90
        0
 91
        4
280
     0
281
     0
  0
CLASS
  1
SPATIAL_FILTER
  2
AcDbSpatialFilter
  3
ObjectDBX Classes
 90
        0
 91
        4
280
     0
281
     0
  0
CLASS
  1
XRECORD
  2
AcDbXrecord
  3
ObjectDBX Classes
 90
        0
 91
        1
280
     0
281
     0
  0
CLASS
  1
SORTENTSTABLE
  2
AcDbSortentsTable
  3
ObjectDBX Classes
 90
        0
 91
        4
280
     0
281
     0
  0
CLASS
  1
LAYER_INDEX
  2
AcDbLayerIndex
  3
ObjectDBX Classes
 90
        0
 91
        4
280
     0
281
     0
  0
CLASS
  1
SPATIAL_INDEX
  2
AcDbSpatialIndex
  3
AutoCAD 2000
 90
        0
 91
        4
280
     0
281
     0
  0
CLASS
  1
OBJECT_PTR
  2
CAseDLPNTableRecord
  3
ASE-LPNTableRecord
 90
        1
 91
        4
280
     0
281
     0
  0
CLASS
  1
LAYOUT
  2
AcDbLayout
  3
ObjectDBX Classes
 90
        0
 91
        1
280
     0
281
     0
  0
CLASS
  1
PLOTSETTINGS
  2
AcDbPlotSettings
  3
ObjectDBX Classes
 90
        0
 91
        4
280
     0
281
     0
  0
CLASS
  1
ACDBDICTIONARYWDFLT
  2
AcDbDictionaryWithDefault
  3
ObjectDBX Classes
 90
        0
 91
        4
280
     0
281
     0
  0
CLASS
  1
ACDBPLACEHOLDER
  2
AcDbPlaceHolder
  3
ObjectDBX Classes
 90
        0
 91
        1
280
     0
281
     0
  0
CLASS
  1
SCALE
  2
AcDbScale
  3
ObjectDBX Classes
 90
     1153
 91
        4
280
     0
281
     0
  0
CLASS
  1
MATERIAL
  2
AcDbMaterial
  3
ObjectDBX Classes
 90
     1153
 91
        4
280
     0
281
     0
  0
CLASS
  1
VISUALSTYLE
  2
AcDbVisualStyle
  3
ObjectDBX Classes
 90
     4095
 91
        4
280
     0
281
     0
  0
CLASS
  1
TABLESTYLE
  2
AcDbTableStyle
  3
ObjectDBX Classes
 90
     4095
 91
        4
280
     0
281
     0
  0
CLASS
  1
DIMASSOC
  2
AcDbDimAssoc
  3
"AcDbDimAssoc|Product Desc:     AcDim ARX App For Dimension|Company:          Autodesk, Inc.|WEB Address:      www.autodesk.com"
 90
        0
 91
        4
280
     0
281
     0
  0
CLASS
  1
CELLSTYLEMAP
  2
AcDbCellStyleMap
  3
ObjectDBX Classes
 90
     1152
 91
        4
280
     0
281
     0
  0
CLASS
  1
SUN
  2
AcDbSun
  3
SCENEOE
 90
     1153
 91
        4
280
     0
281
     0
  0
CLASS
  1
MLEADERSTYLE
  2
AcDbMLeaderStyle
  3
ACDB_MLEADERSTYLE_CLASS
 90
     4095
 91
        4
280
     0
281
     0
  0
CLASS
  1
FIELD
  2
AcDbField
  3
ObjectDBX Classes
 90
     1152
 91
        4
280
     0
281
     0
  0
CLASS
  1
FIELDLIST
  2
AcDbFieldList
  3
ObjectDBX Classes
 90
     1152
 91
        4
280
     0
281
     0
  0
ENDSEC
  0
SECTION
  2
TABLES
  0
TABLE
  2
VPORT
  5
7
330
0
100
AcDbSymbolTable
 70
     1
  0
VPORT
  5
15
330
7
100
AcDbSymbolTableRecord
100
AcDbViewportTableRecord
  2
*ACTIVE
 70
     0
 10
0.0
 20
0.0
 11
1.0
 21
1.0
 12
672.9525617540357
 22
1782.612370234517
 13
0.0
 23
0.0
 14
1.0
 24
1.0
 15
0.0
 25
0.0
 16
0.0
 26
0.0
 36
1.0
 17
377.0474382459643
 27
-297.6123702345167
 37
0.0
 40
3029.4
 41
2.255405405405405
 42
50.0
 43
0.0
 44
0.0
 50
0.0
 51
0.0
 71
    16
 72
  2000
 73
     1
 74
     1
 75
     0
 76
     0
 77
     0
 78
     0
281
     0
 65
     1
110
0.0
120
0.0
130
0.0
111
1.0
121
0.0
131
0.0
112
0.0
122
1.0
132
0.0
 79
     0
146
0.0
348
26C
 60
     3
 61
     5
292
     1
282
     1
141
0.0
142
0.0
 63
   256
361
8C2
  0
ENDTAB
  0
TABLE
  2
LTYPE
  5
4
330
0
100
AcDbSymbolTable
 70
     7
  0
LTYPE
  5
11
330
4
100
AcDbSymbolTableRecord
100
AcDbLinetypeTableRecord
  2
ByBlock
 70
     0
  3

 72
    65
 73
     0
 40
0.0
  0
LTYPE
  5
12
330
4
100
AcDbSymbolTableRecord
100
AcDbLinetypeTableRecord
  2
ByLayer
 70
     0
  3

 72
    65
 73
     0
 40
0.0
  0
LTYPE
  5
13
330
4
100
AcDbSymbolTableRecord
100
AcDbLinetypeTableRecord
  2
Continuous
 70
     0
  3
Solid line
 72
    65
 73
     0
 40
0.0
  0
LTYPE
  5
8D4
330
4
100
AcDbSymbolTableRecord
100
AcDbLinetypeTableRecord
  2
HIDDEN
 70
     0
  3
Hidden _ _ _ _ _ _ _ _ _ _ _ _ _ _ _ _ _ _ _ _ 
 72
    65
 73
     2
 40
9.524999999999999
 49
6.35
 74
     0
 49
-3.175
 74
     0
  0
LTYPE
  5
BF2
330
4
100
AcDbSymbolTableRecord
100
AcDbLinetypeTableRecord
  2
BORDER
 70
     0
  3
Border __  __  . __  __  . __  __  . __  __  . 
 72
    65
 73
     6
 40
44.45
 49
12.7
 74
     0
 49
-6.35
 74
     0
 49
12.7
 74
     0
 49
-6.35
 74
     0
 49
0.0
 74
     0
 49
-6.35
 74
     0
  0
LTYPE
  5
1AFE
330
4
100
AcDbSymbolTableRecord
100
AcDbLinetypeTableRecord
  2
ACDINTGL
 70
     0
  3
_ _ _ _ _
 72
    65
 73
     2
 40
3.0
 49
2.0
 74
     0
 49
-1.0
 74
     0
  0
LTYPE
  5
1AFF
330
4
100
AcDbSymbolTableRecord
100
AcDbLinetypeTableRecord
  2
STYLE_11
 70
     0
  3

 72
    65
 73
     4
 40
2.706692913385826
 49
1.919291338582677
 74
     0
 49
-0.2952755905511811
 74
     0
 49
0.1968503937007873
 74
     0
 49
-0.2952755905511808
 74
     0
  0
LTYPE
  5
1C71
330
4
100
AcDbSymbolTableRecord
100
AcDbLinetypeTableRecord
  2
AM_DIN_G_W050
 70
     0
  3
____ . ____ . ____ . ____ . ____ . ____ . ____
 72
    65
 73
     4
 40
13.75
 49
9.75
 74
     0
 49
-1.5
 74
     0
 49
1.0
 74
     0
 49
-1.5
 74
     0
  0
LTYPE
  5
26C4
330
4
100
AcDbSymbolTableRecord
100
AcDbLinetypeTableRecord
  2
CENTER
 70
     0
  3
 Center _____  _  _____  _  _____  _  _____  _ 
 72
    65
 73
     4
 40
50.8
 49
31.75
 74
     0
 49
-6.35
 74
     0
 49
6.35
 74
     0
 49
-6.35
 74
     0
  0
ENDTAB
  0
TABLE
  2
LAYER
  5
2
102
{ACAD_XDICTIONARY
360
2E1
102
}
330
0
100
AcDbSymbolTable
 70
     8
  0
LAYER
  5
14
330
2
100
AcDbSymbolTableRecord
100
AcDbLayerTableRecord
  2
0
 70
     0
 62
     7
  6
Continuous
370
    -3
390
1D
347
266
  0
LAYER
  5
4A
330
2
100
AcDbSymbolTableRecord
100
AcDbLayerTableRecord
  2
Defpoints
 70
     0
 62
     7
  6
Continuous
290
     0
370
    20
390
1D
347
266
  0
LAYER
  5
4B
330
2
100
AcDbSymbolTableRecord
100
AcDbLayerTableRecord
  2
template
 70
     0
 62
     7
  6
Continuous
370
    20
390
1D
347
266
  0
LAYER
  5
4D
330
2
100
AcDbSymbolTableRecord
100
AcDbLayerTableRecord
  2
MODEL
 70
     0
 62
     7
  6
Continuous
370
    20
390
1D
347
266
  0
LAYER
  5
382
330
2
100
AcDbSymbolTableRecord
100
AcDbLayerTableRecord
  2
レイヤー 1
 70
     0
 62
     7
  6
Continuous
370
    -3
390
1D
347
266
  0
LAYER
  5
5C4
330
2
100
AcDbSymbolTableRecord
100
AcDbLayerTableRecord
  2
HIDDEN
 70
     0
 62
   253
  6
HIDDEN
370
    20
390
1D
347
266
1001
AcAecLayerStandard
1000

1000

  0
LAYER
  5
5EB
330
2
100
AcDbSymbolTableRecord
100
AcDbLayerTableRecord
  2
Dim
 70
     0
 62
     3
  6
Continuous
370
    13
390
1D
347
266
1001
AcAecLayerStandard
1000

1000

  0
LAYER
  5
BF1
330
2
100
AcDbSymbolTableRecord
100
AcDbLayerTableRecord
  2
PRINT BORDER
 70
     0
 62
     4
  6
BORDER
290
     0
370
    20
390
1D
347
266
1001
AcAecLayerStandard
1000

1000

  0
ENDTAB
  0
TABLE
  2
STYLE
  5
3
330
0
100
AcDbSymbolTable
 70
     2
  0
STYLE
  5
17
330
3
100
AcDbSymbolTableRecord
100
AcDbTextStyleTableRecord
  2
Standard
 70
     0
 40
0.0
 41
1.0
 50
0.0
 71
     0
 42
533.0403732820173
  3
txt
  4
BIGFONT.SHX
  0
STYLE
  5
39
330
3
100
AcDbSymbolTableRecord
100
AcDbTextStyleTableRecord
  2
ＭＳ ゴシック
 70
     0
 40
0.0
 41
1.0
 50
0.0
 71
     0
 42
2.5
  3
msgothic.ttc
  4
ＭＳ ゴシック
1001
ACAD
1000
ＭＳ ゴシック
1071
        0
  0
ENDTAB
  0
TABLE
  2
VIEW
  5
5
330
0
100
AcDbSymbolTable
 70
     0
  0
ENDTAB
  0
TABLE
  2
UCS
  5
6
330
0
100
AcDbSymbolTable
 70
     0
  0
ENDTAB
  0
TABLE
  2
APPID
  5
8
330
0
100
AcDbSymbolTable
 70
    13
  0
APPID
  5
16
330
8
100
AcDbSymbolTableRecord
100
AcDbRegAppTableRecord
  2
ACAD
 70
     0
  0
APPID
  5
5C5
330
8
100
AcDbSymbolTableRecord
100
AcDbRegAppTableRecord
  2
AcAecLayerStandard
 70
     0
  0
APPID
  5
913
330
8
100
AcDbSymbolTableRecord
100
AcDbRegAppTableRecord
  2
ACAD_DSTYLE_DIMBREAK
 70
     0
  0
APPID
  5
914
330
8
100
AcDbSymbolTableRecord
100
AcDbRegAppTableRecord
  2
ACAD_DSTYLE_DIMJAG
 70
     0
  0
APPID
  5
915
330
8
100
AcDbSymbolTableRecord
100
AcDbRegAppTableRecord
  2
ACAD_DSTYLE_DIMTALN
 70
     0
  0
APPID
  5
E4F
330
8
100
AcDbSymbolTableRecord
100
AcDbRegAppTableRecord
  2
ACAD_MLEADERVER
 70
     0
  0
APPID
  5
E79
330
8
100
AcDbSymbolTableRecord
100
AcDbRegAppTableRecord
  2
ACAD_PSEXT
 70
     0
  0
APPID
  5
E7A
330
8
100
AcDbSymbolTableRecord
100
AcDbRegAppTableRecord
  2
ACAD_NAV_VCDISPLAY
 70
     0
  0
APPID
  5
166E
330
8
100
AcDbSymbolTableRecord
100
AcDbRegAppTableRecord
  2
AcadAnnotative
 70
     0
  0
APPID
  5
166F
330
8
100
AcDbSymbolTableRecord
100
AcDbRegAppTableRecord
  2
GradientColor1ACI
 70
     0
  0
APPID
  5
1670
330
8
100
AcDbSymbolTableRecord
100
AcDbRegAppTableRecord
  2
GradientColor2ACI
 70
     0
  0
APPID
  5
1B02
330
8
100
AcDbSymbolTableRecord
100
AcDbRegAppTableRecord
  2
GENIUS_GENODEF_13
 70
     0
  0
APPID
  5
1B03
330
8
100
AcDbSymbolTableRecord
100
AcDbRegAppTableRecord
  2
GENIUS_GENOBJ-N-FIL_13
 70
     0
  0
ENDTAB
  0
TABLE
  2
DIMSTYLE
  5
9
330
0
100
AcDbSymbolTable
 70
     3
100
AcDbDimStyleTable
  0
DIMSTYLE
105
18
330
9
100
AcDbSymbolTableRecord
100
AcDbDimStyleTableRecord
  2
Standard
 70
     0
178
     0
340
17
  0
DIMSTYLE
105
5C
102
{ACAD_REACTORS
330
2581
330
25A4
330
25C4
330
25D1
330
25E1
330
25F7
330
266A
330
2678
330
26E9
330
2775
330
2782
330
27F6
330
280F
330
2849
102
}
330
9
100
AcDbSymbolTableRecord
100
AcDbDimStyleTableRecord
  2
JIS
 70
     0
  3
<>
  4
[]
 41
9.0
 42
0.0
 43
6.99999999999994
 44
19.9999999999962
 73
     0
 74
     0
 77
     1
 78
    11
140
24.4326171875
141
0.0
143
1.0
147
10.0
171
     1
174
     1
178
     0
179
     2
271
     1
272
     1
276
     2
284
    11
285
    11
286
    11
289
     0
340
39
341
4E
342
4E
  0
DIMSTYLE
105
1B00
330
9
100
AcDbSymbolTableRecord
100
AcDbDimStyleTableRecord
  2
AM_DIN
 70
     0
  4
"
 41
3.5
 42
1.0
 43
10.0
 44
1.0
 47
0.1
 48
0.1
 50
89.99999999999996
 73
     0
 74
     0
 77
     1
 78
     8
 79
     2
140
3.5
141
0.0
143
0.0393701
146
0.71
147
1.5
172
     1
176
   256
177
   256
271
     2
178
   140
271
     2
272
     3
274
     4
283
     0
284
     8
340
17
371
    -1
372
    -1
345
11
346
11
347
11
  0
ENDTAB
  0
TABLE
  2
BLOCK_RECORD
  5
1
330
0
100
AcDbSymbolTable
 70
    50
  0
BLOCK_RECORD
  5
A
330
1
100
AcDbSymbolTableRecord
100
AcDbBlockTableRecord
  2
*MODEL_SPACE
340
20
 70
     0
280
     1
281
     0
  0
BLOCK_RECORD
  5
B
330
1
100
AcDbSymbolTableRecord
100
AcDbBlockTableRecord
  2
*PAPER_SPACE
340
21
 70
     0
280
     1
281
     0
  0
BLOCK_RECORD
  5
4E
330
1
100
AcDbSymbolTableRecord
100
AcDbBlockTableRecord
  2
_DOT
340
0
102
{BLKREFS
331
19BF
331
19C0
331
19DB
331
19DC
331
19EB
331
19EC
331
19FA
331
19FB
331
1A0A
331
1A0B
331
1A1F
331
1A20
331
1A2C
331
1A2D
331
1A3C
331
1A3D
331
1A49
331
1A4A
331
1A8F
331
1A90
331
1AAA
331
1AAB
331
1D30
331
1D31
331
1D67
331
1D68
331
1D74
331
1D75
331
1D84
331
1D85
331
1D98
331
1D99
331
1DA5
331
1DA6
331
1DB7
331
1DB8
331
1DD0
331
1DD1
331
1DE1
331
1DE2
331
1DF1
331
1DF2
331
1E01
331
1E02
331
1E1F
331
1E20
331
1E2C
331
1E2D
331
1E39
331
1E3A
331
1E46
331
1E47
331
1EF5
331
1EF6
331
2588
331
2589
331
2595
331
2596
331
25AB
331
25AC
331
25BD
331
25BE
331
25CB
331
25CC
331
25D8
331
25D9
331
25E8
331
25E9
331
25FE
331
25FF
331
2671
331
2672
331
267F
331
2680
331
26F0
331
26F1
331
277C
331
277D
331
2789
331
278A
331
27FD
331
27FE
331
2818
331
2819
331
2852
331
2853
102
}
 70
     0
280
     1
281
     0
  0
BLOCK_RECORD
  5
3A5
330
1
100
AcDbSymbolTableRecord
100
AcDbBlockTableRecord
  2
名称未設定-1
340
0
102
{BLKREFS
331
3D0
102
}
 70
     1
280
     1
281
     0
  0
BLOCK_RECORD
  5
3A8
330
1
100
AcDbSymbolTableRecord
100
AcDbBlockTableRecord
  2
block 2
340
0
102
{BLKREFS
331
3A7
102
}
 70
     0
280
     1
281
     0
  0
BLOCK_RECORD
  5
3AB
330
1
100
AcDbSymbolTableRecord
100
AcDbBlockTableRecord
  2
block 3
340
0
102
{BLKREFS
331
3AA
102
}
 70
     0
280
     1
281
     0
  0
BLOCK_RECORD
  5
3AE
330
1
100
AcDbSymbolTableRecord
100
AcDbBlockTableRecord
  2
block 4
340
0
102
{BLKREFS
331
3AD
102
}
 70
     0
280
     1
281
     0
  0
BLOCK_RECORD
  5
3BD
330
1
100
AcDbSymbolTableRecord
100
AcDbBlockTableRecord
  2
block 5
340
0
102
{BLKREFS
331
3BC
102
}
 70
     0
280
     1
281
     0
  0
BLOCK_RECORD
  5
11F0
330
1
100
AcDbSymbolTableRecord
100
AcDbBlockTableRecord
  2
BLOCK_2
340
0
102
{BLKREFS
331
1273
331
127B
331
127C
102
}
 70
     0
280
     1
281
     0
  0
BLOCK_RECORD
  5
19B9
330
1
100
AcDbSymbolTableRecord
100
AcDbBlockTableRecord
  2
*D7
340
0
 70
     0
280
     1
281
     0
  0
BLOCK_RECORD
  5
19D5
330
1
100
AcDbSymbolTableRecord
100
AcDbBlockTableRecord
  2
*D8
340
0
 70
     0
280
     1
281
     0
  0
BLOCK_RECORD
  5
19E5
330
1
100
AcDbSymbolTableRecord
100
AcDbBlockTableRecord
  2
*D9
340
0
 70
     0
280
     1
281
     0
  0
BLOCK_RECORD
  5
19F4
330
1
100
AcDbSymbolTableRecord
100
AcDbBlockTableRecord
  2
*D10
340
0
 70
     0
280
     1
281
     0
  0
BLOCK_RECORD
  5
1A04
330
1
100
AcDbSymbolTableRecord
100
AcDbBlockTableRecord
  2
*D11
340
0
 70
     0
280
     1
281
     0
  0
BLOCK_RECORD
  5
1A19
330
1
100
AcDbSymbolTableRecord
100
AcDbBlockTableRecord
  2
*D12
340
0
 70
     0
280
     1
281
     0
  0
BLOCK_RECORD
  5
1A26
330
1
100
AcDbSymbolTableRecord
100
AcDbBlockTableRecord
  2
*D13
340
0
 70
     0
280
     1
281
     0
  0
BLOCK_RECORD
  5
1A36
330
1
100
AcDbSymbolTableRecord
100
AcDbBlockTableRecord
  2
*D14
340
0
 70
     0
280
     1
281
     0
  0
BLOCK_RECORD
  5
1A43
330
1
100
AcDbSymbolTableRecord
100
AcDbBlockTableRecord
  2
*D15
340
0
 70
     0
280
     1
281
     0
  0
BLOCK_RECORD
  5
1A89
330
1
100
AcDbSymbolTableRecord
100
AcDbBlockTableRecord
  2
*D16
340
0
 70
     0
280
     1
281
     0
  0
BLOCK_RECORD
  5
1AA5
330
1
100
AcDbSymbolTableRecord
100
AcDbBlockTableRecord
  2
*D17
340
0
 70
     0
280
     1
281
     0
  0
BLOCK_RECORD
  5
1D2A
330
1
100
AcDbSymbolTableRecord
100
AcDbBlockTableRecord
  2
*D18
340
0
 70
     0
280
     1
281
     0
  0
BLOCK_RECORD
  5
1D61
330
1
100
AcDbSymbolTableRecord
100
AcDbBlockTableRecord
  2
*D19
340
0
 70
     0
280
     1
281
     0
  0
BLOCK_RECORD
  5
1D6E
330
1
100
AcDbSymbolTableRecord
100
AcDbBlockTableRecord
  2
*D20
340
0
 70
     0
280
     1
281
     0
  0
BLOCK_RECORD
  5
1D7E
330
1
100
AcDbSymbolTableRecord
100
AcDbBlockTableRecord
  2
*D21
340
0
 70
     0
280
     1
281
     0
  0
BLOCK_RECORD
  5
1D92
330
1
100
AcDbSymbolTableRecord
100
AcDbBlockTableRecord
  2
*D22
340
0
 70
     0
280
     1
281
     0
  0
BLOCK_RECORD
  5
1D9F
330
1
100
AcDbSymbolTableRecord
100
AcDbBlockTableRecord
  2
*D23
340
0
 70
     0
280
     1
281
     0
  0
BLOCK_RECORD
  5
1DB1
330
1
100
AcDbSymbolTableRecord
100
AcDbBlockTableRecord
  2
*D24
340
0
 70
     0
280
     1
281
     0
  0
BLOCK_RECORD
  5
1DCA
330
1
100
AcDbSymbolTableRecord
100
AcDbBlockTableRecord
  2
*D25
340
0
 70
     0
280
     1
281
     0
  0
BLOCK_RECORD
  5
1DDB
330
1
100
AcDbSymbolTableRecord
100
AcDbBlockTableRecord
  2
*D26
340
0
 70
     0
280
     1
281
     0
  0
BLOCK_RECORD
  5
1DEB
330
1
100
AcDbSymbolTableRecord
100
AcDbBlockTableRecord
  2
*D27
340
0
 70
     0
280
     1
281
     0
  0
BLOCK_RECORD
  5
1DFB
330
1
100
AcDbSymbolTableRecord
100
AcDbBlockTableRecord
  2
*D28
340
0
 70
     0
280
     1
281
     0
  0
BLOCK_RECORD
  5
1E19
330
1
100
AcDbSymbolTableRecord
100
AcDbBlockTableRecord
  2
*D29
340
0
 70
     0
280
     1
281
     0
  0
BLOCK_RECORD
  5
1E26
330
1
100
AcDbSymbolTableRecord
100
AcDbBlockTableRecord
  2
*D30
340
0
 70
     0
280
     1
281
     0
  0
BLOCK_RECORD
  5
1E33
330
1
100
AcDbSymbolTableRecord
100
AcDbBlockTableRecord
  2
*D31
340
0
 70
     0
280
     1
281
     0
  0
BLOCK_RECORD
  5
1E40
330
1
100
AcDbSymbolTableRecord
100
AcDbBlockTableRecord
  2
*D32
340
0
 70
     0
280
     1
281
     0
  0
BLOCK_RECORD
  5
1EEF
330
1
100
AcDbSymbolTableRecord
100
AcDbBlockTableRecord
  2
*D33
340
0
 70
     0
280
     1
281
     0
  0
BLOCK_RECORD
  5
2582
330
1
100
AcDbSymbolTableRecord
100
AcDbBlockTableRecord
  2
*D34
340
0
 70
     0
280
     1
281
     0
  0
BLOCK_RECORD
  5
258F
330
1
100
AcDbSymbolTableRecord
100
AcDbBlockTableRecord
  2
*D35
340
0
 70
     0
280
     1
281
     0
  0
BLOCK_RECORD
  5
25A5
330
1
100
AcDbSymbolTableRecord
100
AcDbBlockTableRecord
  2
*D36
340
0
 70
     0
280
     1
281
     0
  0
BLOCK_RECORD
  5
25B7
330
1
100
AcDbSymbolTableRecord
100
AcDbBlockTableRecord
  2
*D37
340
0
 70
     0
280
     1
281
     0
  0
BLOCK_RECORD
  5
25C5
330
1
100
AcDbSymbolTableRecord
100
AcDbBlockTableRecord
  2
*D38
340
0
 70
     0
280
     1
281
     0
  0
BLOCK_RECORD
  5
25D2
330
1
100
AcDbSymbolTableRecord
100
AcDbBlockTableRecord
  2
*D39
340
0
 70
     0
280
     1
281
     0
  0
BLOCK_RECORD
  5
25E2
330
1
100
AcDbSymbolTableRecord
100
AcDbBlockTableRecord
  2
*D40
340
0
 70
     0
280
     1
281
     0
  0
BLOCK_RECORD
  5
25F8
330
1
100
AcDbSymbolTableRecord
100
AcDbBlockTableRecord
  2
*D41
340
0
 70
     0
280
     1
281
     0
  0
BLOCK_RECORD
  5
266B
330
1
100
AcDbSymbolTableRecord
100
AcDbBlockTableRecord
  2
*D42
340
0
 70
     0
280
     1
281
     0
  0
BLOCK_RECORD
  5
2679
330
1
100
AcDbSymbolTableRecord
100
AcDbBlockTableRecord
  2
*D43
340
0
 70
     0
280
     1
281
     0
  0
BLOCK_RECORD
  5
26EA
330
1
100
AcDbSymbolTableRecord
100
AcDbBlockTableRecord
  2
*D44
340
0
 70
     0
280
     1
281
     0
  0
BLOCK_RECORD
  5
2776
330
1
100
AcDbSymbolTableRecord
100
AcDbBlockTableRecord
  2
*D45
340
0
 70
     0
280
     1
281
     0
  0
BLOCK_RECORD
  5
2783
330
1
100
AcDbSymbolTableRecord
100
AcDbBlockTableRecord
  2
*D46
340
0
 70
     0
280
     1
281
     0
  0
BLOCK_RECORD
  5
27F7
330
1
100
AcDbSymbolTableRecord
100
AcDbBlockTableRecord
  2
*D47
340
0
 70
     0
280
     1
281
     0
  0
BLOCK_RECORD
  5
2812
330
1
100
AcDbSymbolTableRecord
100
AcDbBlockTableRecord
  2
*D48
340
0
 70
     0
280
     1
281
     0
  0
BLOCK_RECORD
  5
284C
330
1
100
AcDbSymbolTableRecord
100
AcDbBlockTableRecord
  2
*D49
340
0
 70
     0
280
     1
281
     0
  0
ENDTAB
  0
ENDSEC
  0
SECTION
  2
BLOCKS
  0
BLOCK
  5
D
330
A
100
AcDbEntity
  8
0
390
1D
100
AcDbBlockBegin
  2
*MODEL_SPACE
 70
     0
 10
0.0
 20
0.0
 30
0.0
  3
*MODEL_SPACE
  1
*MODEL_SPACE
  0
ENDBLK
  5
E
330
A
100
AcDbEntity
  8
0
390
1D
100
AcDbBlockEnd
  0
BLOCK
  5
F
330
B
100
AcDbEntity
 67
     1
  8
0
390
1D
100
AcDbBlockBegin
  2
*PAPER_SPACE
 70
     0
 10
0.0
 20
0.0
 30
0.0
  3
*PAPER_SPACE
  1
*PAPER_SPACE
  0
ENDBLK
  5
10
330
B
100
AcDbEntity
 67
     1
  8
0
390
1D
100
AcDbBlockEnd
  0
BLOCK
  5
2BB
330
4E
100
AcDbEntity
  8
0
390
1D
100
AcDbBlockBegin
  2
_DOT
 70
     0
 10
0.0
 20
0.0
 30
0.0
  3
_DOT
  1
_DOT
  0
POLYLINE
  5
2BD
330
4E
100
AcDbEntity
  8
0
  6
ByBlock
 62
     0
370
    -2
390
1D
100
AcDb2dPolyline
 66
     1
 10
0.0
 20
0.0
 30
0.0
 70
     1
 40
0.5
 41
0.5
  0
VERTEX
  5
2BE
330
2BD
100
AcDbEntity
  8
0
  6
ByBlock
 62
     0
370
    -2
390
1D
100
AcDbVertex
100
AcDb2dVertex
 10
-0.25
 20
0.0
 30
0.0
 42
1.0
  0
VERTEX
  5
2BF
330
2BD
100
AcDbEntity
  8
0
  6
ByBlock
 62
     0
370
    -2
390
1D
100
AcDbVertex
100
AcDb2dVertex
 10
0.25
 20
0.0
 30
0.0
 42
1.0
  0
SEQEND
  5
2C0
330
2BD
100
AcDbEntity
  8
0
390
1D
  0
LINE
  5
2C1
330
4E
100
AcDbEntity
  8
0
  6
ByBlock
 62
     0
370
    -2
390
1D
100
AcDbLine
 10
-0.5
 20
0.0
 30
0.0
 11
-1.0
 21
0.0
 31
0.0
  0
ENDBLK
  5
2C2
330
4E
100
AcDbEntity
  8
0
390
1D
100
AcDbBlockEnd
  0
BLOCK
  5
3A6
330
3A5
100
AcDbEntity
  8
0
100
AcDbBlockBegin
  2
名称未設定-1
 70
     0
 10
0.0
 20
0.0
 30
0.0
  3
名称未設定-1
  1
名称未設定-1
  0
INSERT
  5
3A7
330
3A5
100
AcDbEntity
  8
レイヤー 1
100
AcDbBlockReference
  2
block 2
 10
0.0
 20
0.0
 30
0.0
  0
ENDBLK
  5
3CC
330
3A5
100
AcDbEntity
  8
0
100
AcDbBlockEnd
  0
BLOCK
  5
3A9
330
3A8
100
AcDbEntity
  8
0
100
AcDbBlockBegin
  2
block 2
 70
     0
 10
0.0
 20
0.0
 30
0.0
  3
block 2
  1
block 2
  0
INSERT
  5
3AA
330
3A8
100
AcDbEntity
  8
レイヤー 1
100
AcDbBlockReference
  2
block 3
 10
0.0
 20
0.0
 30
0.0
  0
ENDBLK
  5
3CB
330
3A8
100
AcDbEntity
  8
0
100
AcDbBlockEnd
  0
BLOCK
  5
3AC
330
3AB
100
AcDbEntity
  8
0
100
AcDbBlockBegin
  2
block 3
 70
     0
 10
0.0
 20
0.0
 30
0.0
  3
block 3
  1
block 3
  0
INSERT
  5
3AD
330
3AB
100
AcDbEntity
  8
レイヤー 1
100
AcDbBlockReference
  2
block 4
 10
0.0
 20
0.0
 30
0.0
  0
ENDBLK
  5
3CA
330
3AB
100
AcDbEntity
  8
0
100
AcDbBlockEnd
  0
BLOCK
  5
3AF
330
3AE
100
AcDbEntity
  8
0
100
AcDbBlockBegin
  2
block 4
 70
     0
 10
0.0
 20
0.0
 30
0.0
  3
block 4
  1
block 4
  0
POLYLINE
  5
3B0
330
3AE
100
AcDbEntity
  8
レイヤー 1
370
     0
100
AcDb2dPolyline
 66
     1
 10
0.0
 20
0.0
 30
0.0
  0
VERTEX
  5
3B1
330
3B0
100
AcDbEntity
  8
レイヤー 1
370
     0
100
AcDbVertex
100
AcDb2dVertex
 10
83.79545727667795
 20
167.6444858234922
 30
0.0
  0
VERTEX
  5
3B2
330
3B0
100
AcDbEntity
  8
レイヤー 1
370
     0
100
AcDbVertex
100
AcDb2dVertex
 10
83.79545727667795
 20
159.7968976406313
 30
0.0
  0
VERTEX
  5
3B3
330
3B0
100
AcDbEntity
  8
レイヤー 1
370
     0
100
AcDbVertex
100
AcDb2dVertex
 10
71.3631329975216
 20
159.7968976406313
 30
0.0
  0
VERTEX
  5
3B4
330
3B0
100
AcDbEntity
  8
レイヤー 1
370
     0
100
AcDbVertex
100
AcDb2dVertex
 10
71.3631329975216
 20
127.8027915271048
 30
0.0
  0
VERTEX
  5
3B5
330
3B0
100
AcDbEntity
  8
レイヤー 1
370
     0
100
AcDbVertex
100
AcDb2dVertex
 10
60.43011526263018
 20
127.8027915271048
 30
0.0
  0
VERTEX
  5
3B6
330
3B0
100
AcDbEntity
  8
レイヤー 1
370
     0
100
AcDbVertex
100
AcDb2dVertex
 10
60.43011526263018
 20
159.7968976406313
 30
0.0
  0
VERTEX
  5
3B7
330
3B0
100
AcDbEntity
  8
レイヤー 1
370
     0
100
AcDbVertex
100
AcDb2dVertex
 10
48.21793273020759
 20
159.7968976406313
 30
0.0
  0
VERTEX
  5
3B8
330
3B0
100
AcDbEntity
  8
レイヤー 1
370
     0
100
AcDbVertex
100
AcDb2dVertex
 10
48.21793273020759
 20
167.6444858234922
 30
0.0
  0
VERTEX
  5
3B9
330
3B0
100
AcDbEntity
  8
レイヤー 1
370
     0
100
AcDbVertex
100
AcDb2dVertex
 10
83.79545727667795
 20
167.6444858234922
 30
0.0
  0
SEQEND
  5
3BA
330
3B0
100
AcDbEntity
  8
レイヤー 1
370
     0
  0
HATCH
  5
3BB
330
3AE
100
AcDbEntity
  8
レイヤー 1
 62
   250
420
  2234388
100
AcDbHatch
 10
0.0
 20
0.0
 30
0.0
210
0.0
220
0.0
230
1.0
  2
SOLID
 70
     1
 71
     0
 91
        1
 92
        1
 93
        8
 72
     1
 10
83.79545727667795
 20
167.6444858234922
 11
83.79545727667795
 21
159.7968976406313
 72
     1
 10
83.79545727667795
 20
159.7968976406313
 11
71.3631329975216
 21
159.7968976406313
 72
     1
 10
71.3631329975216
 20
159.7968976406313
 11
71.3631329975216
 21
127.8027915271048
 72
     1
 10
71.3631329975216
 20
127.8027915271048
 11
60.43011526263018
 21
127.8027915271048
 72
     1
 10
60.43011526263018
 20
127.8027915271048
 11
60.43011526263018
 21
159.7968976406313
 72
     1
 10
60.43011526263018
 20
159.7968976406313
 11
48.21793273020759
 21
159.7968976406313
 72
     1
 10
48.21793273020759
 20
159.7968976406313
 11
48.21793273020759
 21
167.6444858234922
 72
     1
 10
48.21793273020759
 20
167.6444858234922
 11
83.79545727667795
 21
167.6444858234922
 97
        0
 75
     2
 76
     1
 98
        0
  0
INSERT
  5
3BC
330
3AE
100
AcDbEntity
  8
レイヤー 1
100
AcDbBlockReference
  2
block 5
 10
0.0
 20
0.0
 30
0.0
  0
ENDBLK
  5
3C9
330
3AE
100
AcDbEntity
  8
0
100
AcDbBlockEnd
  0
BLOCK
  5
3BE
330
3BD
100
AcDbEntity
  8
0
100
AcDbBlockBegin
  2
block 5
 70
     0
 10
0.0
 20
0.0
 30
0.0
  3
block 5
  1
block 5
  0
SPLINE
  5
3BF
330
3BD
100
AcDbEntity
  8
レイヤー 1
370
     0
100
AcDbSpline
210
0.0
220
0.0
230
1.0
 70
    11
 71
     3
 72
    56
 73
    52
 74
     0
 42
0.000000001
 43
0.0000000001
 40
0.0
 40
0.0
 40
0.0
 40
0.0
 40
1.0
 40
1.0
 40
1.0
 40
2.0
 40
2.0
 40
2.0
 40
3.0
 40
3.0
 40
3.0
 40
4.0
 40
4.0
 40
4.0
 40
5.0
 40
5.0
 40
5.0
 40
6.0
 40
6.0
 40
6.0
 40
7.0
 40
7.0
 40
7.0
 40
8.0
 40
8.0
 40
8.0
 40
9.0
 40
9.0
 40
9.0
 40
10.0
 40
10.0
 40
10.0
 40
11.0
 40
11.0
 40
11.0
 40
12.0
 40
12.0
 40
12.0
 40
13.0
 40
13.0
 40
13.0
 40
14.0
 40
14.0
 40
14.0
 40
15.0
 40
15.0
 40
15.0
 40
16.0
 40
16.0
 40
16.0
 40
17.0
 40
17.0
 40
17.0
 40
17.0
 10
100.4504378777679
 20
166.69157178364
 30
0.0
 10
101.9848844191641
 20
167.1313385124438
 30
0.0
 10
103.9637485713373
 20
166.7649523658846
 30
0.0
 10
103.9637485713373
 20
166.7649523658846
 30
0.0
 10
103.9637485713373
 20
166.7649523658846
 30
0.0
 10
103.0132460999156
 20
163.911205638077
 30
0.0
 10
103.0132460999156
 20
163.911205638077
 30
0.0
 10
103.0132460999156
 20
163.911205638077
 30
0.0
 10
101.0674548862189
 20
164.3601018759394
 30
0.0
 10
99.57090442016032
 20
163.1805004036133
 30
0.0
 10
98.40508333886608
 20
162.258247733807
 30
0.0
 10
97.65301849830304
 20
159.804132345923
 30
0.0
 10
97.3598406791005
 20
158.8699940888517
 30
0.0
 10
97.3598406791005
 20
158.8699940888517
 30
0.0
 10
96.07137411762282
 20
154.9119212747295
 30
0.0
 10
96.07137411762282
 20
154.9119212747295
 30
0.0
 10
96.07137411762282
 20
154.9119212747295
 30
0.0
 10
100.3012651448482
 20
154.9119212747295
 30
0.0
 10
100.3012651448482
 20
154.9119212747295
 30
0.0
 10
100.3012651448482
 20
154.9119212747295
 30
0.0
 10
99.64152892419852
 20
152.4199098115079
 30
0.0
 10
99.64152892419852
 20
152.4199098115079
 30
0.0
 10
99.64152892419852
 20
152.4199098115079
 30
0.0
 10
95.38097652692731
 20
152.4199098115079
 30
0.0
 10
95.38097652692731
 20
152.4199098115079
 30
0.0
 10
95.38097652692731
 20
152.4199098115079
 30
0.0
 10
87.75353009080013
 20
127.8027915271048
 30
0.0
 10
87.75353009080013
 20
127.8027915271048
 30
0.0
 10
87.75353009080013
 20
127.8027915271048
 30
0.0
 10
85.36538832498108
 20
127.8027915271048
 30
0.0
 10
85.36538832498108
 20
127.8027915271048
 30
0.0
 10
85.36538832498108
 20
127.8027915271048
 30
0.0
 10
93.00006946639998
 20
152.4199098115079
 30
0.0
 10
93.00006946639998
 20
152.4199098115079
 30
0.0
 10
93.00006946639998
 20
152.4199098115079
 30
0.0
 10
89.85297266450198
 20
152.4199098115079
 30
0.0
 10
89.85297266450198
 20
152.4199098115079
 30
0.0
 10
89.85297266450198
 20
152.4199098115079
 30
0.0
 10
90.51270888515164
 20
154.9119212747295
 30
0.0
 10
90.51270888515164
 20
154.9119212747295
 30
0.0
 10
90.51270888515164
 20
154.9119212747295
 30
0.0
 10
93.6904670570955
 20
154.9119212747295
 30
0.0
 10
93.6904670570955
 20
154.9119212747295
 30
0.0
 10
93.6904670570955
 20
154.9119212747295
 30
0.0
 10
94.81598049462158
 20
158.3616699146644
 30
0.0
 10
94.81598049462158
 20
158.3616699146644
 30
0.0
 10
95.7237637538445
 20
161.2605474231013
 30
0.0
 10
96.4968436907311
 20
162.8139420021662
 30
0.0
 10
97.15657991138076
 20
163.9844139654337
 30
0.0
 10
97.81183750494507
 20
165.1523021053827
 30
0.0
 10
99.1047826935081
 20
166.3084769129547
 30
0.0
 10
100.4504378777679
 20
166.69157178364
 30
0.0
  0
HATCH
  5
3C0
330
3BD
100
AcDbEntity
  8
レイヤー 1
 62
   250
420
  2234388
100
AcDbHatch
 10
0.0
 20
0.0
 30
0.0
210
0.0
220
0.0
230
1.0
  2
SOLID
 70
     1
 71
     0
 91
        1
 92
        1
 93
        1
 72
     4
 94
        3
 73
     0
 74
     1
 95
       56
 96
       52
 40
0.0
 40
0.0
 40
0.0
 40
0.0
 40
1.0
 40
1.0
 40
1.0
 40
2.0
 40
2.0
 40
2.0
 40
3.0
 40
3.0
 40
3.0
 40
4.0
 40
4.0
 40
4.0
 40
5.0
 40
5.0
 40
5.0
 40
6.0
 40
6.0
 40
6.0
 40
7.0
 40
7.0
 40
7.0
 40
8.0
 40
8.0
 40
8.0
 40
9.0
 40
9.0
 40
9.0
 40
10.0
 40
10.0
 40
10.0
 40
11.0
 40
11.0
 40
11.0
 40
12.0
 40
12.0
 40
12.0
 40
13.0
 40
13.0
 40
13.0
 40
14.0
 40
14.0
 40
14.0
 40
15.0
 40
15.0
 40
15.0
 40
16.0
 40
16.0
 40
16.0
 40
17.0
 40
17.0
 40
17.0
 40
17.0
 10
100.4504378777679
 20
166.69157178364
 10
101.9848844191641
 20
167.1313385124438
 10
103.9637485713373
 20
166.7649523658846
 10
103.9637485713373
 20
166.7649523658846
 10
103.9637485713373
 20
166.7649523658846
 10
103.0132460999156
 20
163.911205638077
 10
103.0132460999156
 20
163.911205638077
 10
103.0132460999156
 20
163.911205638077
 10
101.0674548862189
 20
164.3601018759394
 10
99.57090442016032
 20
163.1805004036133
 10
98.40508333886608
 20
162.258247733807
 10
97.65301849830304
 20
159.804132345923
 10
97.3598406791005
 20
158.8699940888517
 10
97.3598406791005
 20
158.8699940888517
 10
96.07137411762282
 20
154.9119212747295
 10
96.07137411762282
 20
154.9119212747295
 10
96.07137411762282
 20
154.9119212747295
 10
100.3012651448482
 20
154.9119212747295
 10
100.3012651448482
 20
154.9119212747295
 10
100.3012651448482
 20
154.9119212747295
 10
99.64152892419852
 20
152.4199098115079
 10
99.64152892419852
 20
152.4199098115079
 10
99.64152892419852
 20
152.4199098115079
 10
95.38097652692731
 20
152.4199098115079
 10
95.38097652692731
 20
152.4199098115079
 10
95.38097652692731
 20
152.4199098115079
 10
87.75353009080013
 20
127.8027915271048
 10
87.75353009080013
 20
127.8027915271048
 10
87.75353009080013
 20
127.8027915271048
 10
85.36538832498108
 20
127.8027915271048
 10
85.36538832498108
 20
127.8027915271048
 10
85.36538832498108
 20
127.8027915271048
 10
93.00006946639998
 20
152.4199098115079
 10
93.00006946639998
 20
152.4199098115079
 10
93.00006946639998
 20
152.4199098115079
 10
89.85297266450198
 20
152.4199098115079
 10
89.85297266450198
 20
152.4199098115079
 10
89.85297266450198
 20
152.4199098115079
 10
90.51270888515164
 20
154.9119212747295
 10
90.51270888515164
 20
154.9119212747295
 10
90.51270888515164
 20
154.9119212747295
 10
93.6904670570955
 20
154.9119212747295
 10
93.6904670570955
 20
154.9119212747295
 10
93.6904670570955
 20
154.9119212747295
 10
94.81598049462158
 20
158.3616699146644
 10
94.81598049462158
 20
158.3616699146644
 10
95.7237637538445
 20
161.2605474231013
 10
96.4968436907311
 20
162.8139420021662
 10
97.15657991138076
 20
163.9844139654337
 10
97.81183750494507
 20
165.1523021053827
 10
99.1047826935081
 20
166.3084769129547
 10
100.4504378777679
 20
166.69157178364
 97
        0
 75
     2
 76
     1
 98
        0
  0
SPLINE
  5
3C1
330
3BD
100
AcDbEntity
  8
レイヤー 1
370
     0
100
AcDbSpline
210
0.0
220
0.0
230
1.0
 70
    11
 71
     3
 72
    38
 73
    34
 74
     0
 42
0.000000001
 43
0.0000000001
 40
0.0
 40
0.0
 40
0.0
 40
0.0
 40
1.0
 40
1.0
 40
1.0
 40
2.0
 40
2.0
 40
2.0
 40
3.0
 40
3.0
 40
3.0
 40
4.0
 40
4.0
 40
4.0
 40
5.0
 40
5.0
 40
5.0
 40
6.0
 40
6.0
 40
6.0
 40
7.0
 40
7.0
 40
7.0
 40
8.0
 40
8.0
 40
8.0
 40
9.0
 40
9.0
 40
9.0
 40
10.0
 40
10.0
 40
10.0
 40
11.0
 40
11.0
 40
11.0
 40
11.0
 10
126.377554584636
 20
154.8151140277308
 30
0.0
 10
126.377554584636
 20
154.8151140277308
 30
0.0
 10
128.8311532078563
 20
154.8151140277308
 30
0.0
 10
128.8311532078563
 20
154.8151140277308
 30
0.0
 10
128.8311532078563
 20
154.8151140277308
 30
0.0
 10
127.7345785914971
 20
151.3062819612468
 30
0.0
 10
127.7345785914971
 20
151.3062819612468
 30
0.0
 10
128.571392836906
 20
152.2922689395754
 30
0.0
 10
129.8860421413442
 20
153.604506675583
 30
0.0
 10
131.0163787157314
 20
154.2664822097754
 30
0.0
 10
132.7044766171327
 20
155.2500576196734
 30
0.0
 10
133.6642808525008
 20
155.3847609420097
 30
0.0
 10
134.7284715499351
 20
155.3565111403944
 30
0.0
 10
134.7284715499351
 20
155.3565111403944
 30
0.0
 10
133.6877075172549
 20
152.0345756272799
 30
0.0
 10
133.6877075172549
 20
152.0345756272799
 30
0.0
 10
133.011434827367
 20
152.3184516825359
 30
0.0
 10
130.930940291334
 20
151.7768823149844
 30
0.0
 10
129.739280976855
 20
150.9162968950455
 30
0.0
 10
128.66613302525
 20
150.1454562717016
 30
0.0
 10
127.9192358313239
 20
149.4857200510519
 30
0.0
 10
127.0393578639405
 20
147.8282835196966
 30
0.0
 10
126.164647543194
 20
146.1699857139017
 30
0.0
 10
125.4742499524985
 20
143.5262176944419
 30
0.0
 10
124.2822461282437
 20
139.6959580071401
 30
0.0
 10
124.2822461282437
 20
139.6959580071401
 30
0.0
 10
120.5753209406769
 20
127.8027915271048
 30
0.0
 10
120.5753209406769
 20
127.8027915271048
 30
0.0
 10
120.5753209406769
 20
127.8027915271048
 30
0.0
 10
118.1964809388044
 20
127.8027915271048
 30
0.0
 10
118.1964809388044
 20
127.8027915271048
 30
0.0
 10
118.1964809388044
 20
127.8027915271048
 30
0.0
 10
126.377554584636
 20
154.8151140277308
 30
0.0
 10
126.377554584636
 20
154.8151140277308
 30
0.0
  0
HATCH
  5
3C2
330
3BD
100
AcDbEntity
  8
レイヤー 1
 62
   250
420
  2234388
100
AcDbHatch
 10
0.0
 20
0.0
 30
0.0
210
0.0
220
0.0
230
1.0
  2
SOLID
 70
     1
 71
     0
 91
        1
 92
        1
 93
        1
 72
     4
 94
        3
 73
     0
 74
     1
 95
       38
 96
       34
 40
0.0
 40
0.0
 40
0.0
 40
0.0
 40
1.0
 40
1.0
 40
1.0
 40
2.0
 40
2.0
 40
2.0
 40
3.0
 40
3.0
 40
3.0
 40
4.0
 40
4.0
 40
4.0
 40
5.0
 40
5.0
 40
5.0
 40
6.0
 40
6.0
 40
6.0
 40
7.0
 40
7.0
 40
7.0
 40
8.0
 40
8.0
 40
8.0
 40
9.0
 40
9.0
 40
9.0
 40
10.0
 40
10.0
 40
10.0
 40
11.0
 40
11.0
 40
11.0
 40
11.0
 10
126.377554584636
 20
154.8151140277308
 10
126.377554584636
 20
154.8151140277308
 10
128.8311532078563
 20
154.8151140277308
 10
128.8311532078563
 20
154.8151140277308
 10
128.8311532078563
 20
154.8151140277308
 10
127.7345785914971
 20
151.3062819612468
 10
127.7345785914971
 20
151.3062819612468
 10
128.571392836906
 20
152.2922689395754
 10
129.8860421413442
 20
153.604506675583
 10
131.0163787157314
 20
154.2664822097754
 10
132.7044766171327
 20
155.2500576196734
 10
133.6642808525008
 20
155.3847609420097
 10
134.7284715499351
 20
155.3565111403944
 10
134.7284715499351
 20
155.3565111403944
 10
133.6877075172549
 20
152.0345756272799
 10
133.6877075172549
 20
152.0345756272799
 10
133.011434827367
 20
152.3184516825359
 10
130.930940291334
 20
151.7768823149844
 10
129.739280976855
 20
150.9162968950455
 10
128.66613302525
 20
150.1454562717016
 10
127.9192358313239
 20
149.4857200510519
 10
127.0393578639405
 20
147.8282835196966
 10
126.164647543194
 20
146.1699857139017
 10
125.4742499524985
 20
143.5262176944419
 10
124.2822461282437
 20
139.6959580071401
 10
124.2822461282437
 20
139.6959580071401
 10
120.5753209406769
 20
127.8027915271048
 10
120.5753209406769
 20
127.8027915271048
 10
120.5753209406769
 20
127.8027915271048
 10
118.1964809388044
 20
127.8027915271048
 10
118.1964809388044
 20
127.8027915271048
 10
118.1964809388044
 20
127.8027915271048
 10
126.377554584636
 20
154.8151140277308
 10
126.377554584636
 20
154.8151140277308
 97
        0
 75
     2
 76
     1
 98
        0
  0
SPLINE
  5
3C3
330
3BD
100
AcDbEntity
  8
レイヤー 1
370
     0
100
AcDbSpline
210
0.0
220
0.0
230
1.0
 70
    11
 71
     3
 72
   104
 73
   100
 74
     0
 42
0.000000001
 43
0.0000000001
 40
0.0
 40
0.0
 40
0.0
 40
0.0
 40
1.0
 40
1.0
 40
1.0
 40
2.0
 40
2.0
 40
2.0
 40
3.0
 40
3.0
 40
3.0
 40
4.0
 40
4.0
 40
4.0
 40
5.0
 40
5.0
 40
5.0
 40
6.0
 40
6.0
 40
6.0
 40
7.0
 40
7.0
 40
7.0
 40
8.0
 40
8.0
 40
8.0
 40
9.0
 40
9.0
 40
9.0
 40
10.0
 40
10.0
 40
10.0
 40
11.0
 40
11.0
 40
11.0
 40
12.0
 40
12.0
 40
12.0
 40
13.0
 40
13.0
 40
13.0
 40
14.0
 40
14.0
 40
14.0
 40
15.0
 40
15.0
 40
15.0
 40
16.0
 40
16.0
 40
16.0
 40
17.0
 40
17.0
 40
17.0
 40
18.0
 40
18.0
 40
18.0
 40
19.0
 40
19.0
 40
19.0
 40
20.0
 40
20.0
 40
20.0
 40
21.0
 40
21.0
 40
21.0
 40
22.0
 40
22.0
 40
22.0
 40
23.0
 40
23.0
 40
23.0
 40
24.0
 40
24.0
 40
24.0
 40
25.0
 40
25.0
 40
25.0
 40
26.0
 40
26.0
 40
26.0
 40
27.0
 40
27.0
 40
27.0
 40
28.0
 40
28.0
 40
28.0
 40
29.0
 40
29.0
 40
29.0
 40
30.0
 40
30.0
 40
30.0
 40
31.0
 40
31.0
 40
31.0
 40
32.0
 40
32.0
 40
32.0
 40
33.0
 40
33.0
 40
33.0
 40
33.0
 10
139.8926730891197
 20
154.8294111834263
 30
0.0
 10
139.8926730891197
 20
154.8294111834263
 30
0.0
 10
142.0344903652445
 20
154.8294111834263
 30
0.0
 10
142.0344903652445
 20
154.8294111834263
 30
0.0
 10
142.0344903652445
 20
154.8294111834263
 30
0.0
 10
140.9516961399171
 20
151.3157559800812
 30
0.0
 10
140.9516961399171
 20
151.3157559800812
 30
0.0
 10
141.8928968473923
 20
152.7887075264977
 30
0.0
 10
142.7341897198865
 20
153.4484437471474
 30
0.0
 10
143.8552245303272
 20
154.2926649527359
 30
0.0
 10
144.9803934580775
 20
155.1296514530327
 30
0.0
 10
146.3139908001845
 20
155.3044901642492
 30
0.0
 10
147.241066606852
 20
155.3044901642492
 30
0.0
 10
148.3855280820469
 20
155.3044901642492
 30
0.0
 10
149.4969166187653
 20
155.0752189084569
 30
0.0
 10
150.0784491203092
 20
153.8172414621372
 30
0.0
 10
150.5228667310863
 20
152.833838307127
 30
0.0
 10
150.5414702589793
 20
152.7201500811143
 30
0.0
 10
150.4140016419347
 20
150.7765981809602
 30
0.0
 10
151.5818897818837
 20
152.7699317437168
 30
0.0
 10
152.4424752018226
 20
153.6256940267945
 30
0.0
 10
153.9038856707499
 20
154.4507949398263
 30
0.0
 10
155.4455669174378
 20
155.3044901642492
 30
0.0
 10
156.339225275853
 20
155.3659851592288
 30
0.0
 10
157.3748216618963
 20
155.2147453676543
 30
0.0
 10
158.911679771723
 20
154.9877134254046
 30
0.0
 10
159.8859534176746
 20
154.4390816074493
 30
0.0
 10
160.3965169054045
 20
152.7816450760939
 30
0.0
 10
160.9070803931344
 20
151.1219692311958
 30
0.0
 10
160.6328506116007
 20
150.2303779314354
 30
0.0
 10
159.9992971339115
 20
147.597634224801
 30
0.0
 10
159.7105979417943
 20
146.4014962832367
 30
0.0
 10
159.2947746424084
 20
144.9400858143094
 30
0.0
 10
158.7463150793409
 20
143.2092687007094
 30
0.0
 10
158.7463150793409
 20
143.2092687007094
 30
0.0
 10
153.9038856707499
 20
127.8027915271048
 30
0.0
 10
153.9038856707499
 20
127.8027915271048
 30
0.0
 10
153.9038856707499
 20
127.8027915271048
 30
0.0
 10
151.3882752878863
 20
127.8027915271048
 30
0.0
 10
151.3882752878863
 20
127.8027915271048
 30
0.0
 10
151.3882752878863
 20
127.8027915271048
 30
0.0
 10
155.6250565106276
 20
141.2751908193897
 30
0.0
 10
155.6250565106276
 20
141.2751908193897
 30
0.0
 10
156.5094131050963
 20
144.0936252951782
 30
0.0
 10
157.109893644309
 20
146.1506931664571
 30
0.0
 10
157.4220195011804
 20
147.4415712963654
 30
0.0
 10
157.8095929989511
 20
149.0530157726519
 30
0.0
 10
157.9656559273867
 20
149.5826995529385
 30
0.0
 10
157.7816877071116
 20
150.7529992613181
 30
0.0
 10
157.6111553680925
 20
151.8430281919372
 30
0.0
 10
157.0582171779396
 20
152.5547853887321
 30
0.0
 10
156.1170164704645
 20
152.5547853887321
 30
0.0
 10
155.1096698860365
 20
152.5547853887321
 30
0.0
 10
154.2962823053817
 20
152.4412694176073
 30
0.0
 10
153.156643967048
 20
151.2945686288697
 30
0.0
 10
152.0170056287143
 20
150.1476955852443
 30
0.0
 10
151.076149431015
 20
148.7930831468137
 30
0.0
 10
150.3337308641742
 20
147.2290087646991
 30
0.0
 10
149.5957909244188
 20
145.6683794803425
 30
0.0
 10
148.8530278478023
 20
143.6822806228776
 30
0.0
 10
148.0964843801539
 20
141.2751908193897
 30
0.0
 10
148.0964843801539
 20
141.2751908193897
 30
0.0
 10
143.8552245303272
 20
127.8027915271048
 30
0.0
 10
143.8552245303272
 20
127.8027915271048
 30
0.0
 10
143.8552245303272
 20
127.8027915271048
 30
0.0
 10
141.486030802177
 20
127.8027915271048
 30
0.0
 10
141.486030802177
 20
127.8027915271048
 30
0.0
 10
141.486030802177
 20
127.8027915271048
 30
0.0
 10
146.3329388378533
 20
143.2092687007094
 30
0.0
 10
146.3329388378533
 20
143.2092687007094
 30
0.0
 10
146.8483254624444
 20
144.8408669988801
 30
0.0
 10
147.2314203331297
 20
146.1837661049335
 30
0.0
 10
147.4867020769946
 20
147.224185627838
 30
0.0
 10
147.9169947869641
 20
149.0197705792876
 30
0.0
 10
148.0306830129768
 20
150.2400242051577
 30
0.0
 10
147.709255392159
 20
151.3157559800812
 30
0.0
 10
147.3874832615654
 20
152.3916600098926
 30
0.0
 10
146.8245542879144
 20
152.6683013598569
 30
0.0
 10
145.8840425999909
 20
152.6683013598569
 30
0.0
 10
145.0989048209514
 20
152.6683013598569
 30
0.0
 10
144.3282364524954
 20
152.3275811915945
 30
0.0
 10
143.4531816219731
 20
151.6538923250251
 30
0.0
 10
142.34627171234
 20
150.8074318058939
 30
0.0
 10
141.901854101563
 20
150.1097995099067
 30
0.0
 10
141.3578731655808
 20
149.289521733736
 30
0.0
 10
140.6299240093235
 20
148.192602607601
 30
0.0
 10
140.2850697237515
 20
147.455696197173
 30
0.0
 10
139.6652966370942
 20
145.8385673095858
 30
0.0
 10
139.0506911970739
 20
144.2214384219986
 30
0.0
 10
138.463991048893
 20
142.3252566160164
 30
0.0
 10
138.0571250036777
 20
141.0154304484394
 30
0.0
 10
138.0571250036777
 20
141.0154304484394
 30
0.0
 10
133.9009590684727
 20
127.8027915271048
 30
0.0
 10
133.9009590684727
 20
127.8027915271048
 30
0.0
 10
133.9009590684727
 20
127.8027915271048
 30
0.0
 10
131.4180771143097
 20
127.8027915271048
 30
0.0
 10
131.4180771143097
 20
127.8027915271048
 30
0.0
 10
131.4180771143097
 20
127.8027915271048
 30
0.0
 10
139.8926730891197
 20
154.8294111834263
 30
0.0
 10
139.8926730891197
 20
154.8294111834263
 30
0.0
  0
HATCH
  5
3C4
330
3BD
100
AcDbEntity
  8
レイヤー 1
 62
   250
420
  2234388
100
AcDbHatch
 10
0.0
 20
0.0
 30
0.0
210
0.0
220
0.0
230
1.0
  2
SOLID
 70
     1
 71
     0
 91
        1
 92
        1
 93
        1
 72
     4
 94
        3
 73
     0
 74
     1
 95
      104
 96
      100
 40
0.0
 40
0.0
 40
0.0
 40
0.0
 40
1.0
 40
1.0
 40
1.0
 40
2.0
 40
2.0
 40
2.0
 40
3.0
 40
3.0
 40
3.0
 40
4.0
 40
4.0
 40
4.0
 40
5.0
 40
5.0
 40
5.0
 40
6.0
 40
6.0
 40
6.0
 40
7.0
 40
7.0
 40
7.0
 40
8.0
 40
8.0
 40
8.0
 40
9.0
 40
9.0
 40
9.0
 40
10.0
 40
10.0
 40
10.0
 40
11.0
 40
11.0
 40
11.0
 40
12.0
 40
12.0
 40
12.0
 40
13.0
 40
13.0
 40
13.0
 40
14.0
 40
14.0
 40
14.0
 40
15.0
 40
15.0
 40
15.0
 40
16.0
 40
16.0
 40
16.0
 40
17.0
 40
17.0
 40
17.0
 40
18.0
 40
18.0
 40
18.0
 40
19.0
 40
19.0
 40
19.0
 40
20.0
 40
20.0
 40
20.0
 40
21.0
 40
21.0
 40
21.0
 40
22.0
 40
22.0
 40
22.0
 40
23.0
 40
23.0
 40
23.0
 40
24.0
 40
24.0
 40
24.0
 40
25.0
 40
25.0
 40
25.0
 40
26.0
 40
26.0
 40
26.0
 40
27.0
 40
27.0
 40
27.0
 40
28.0
 40
28.0
 40
28.0
 40
29.0
 40
29.0
 40
29.0
 40
30.0
 40
30.0
 40
30.0
 40
31.0
 40
31.0
 40
31.0
 40
32.0
 40
32.0
 40
32.0
 40
33.0
 40
33.0
 40
33.0
 40
33.0
 10
139.8926730891197
 20
154.8294111834263
 10
139.8926730891197
 20
154.8294111834263
 10
142.0344903652445
 20
154.8294111834263
 10
142.0344903652445
 20
154.8294111834263
 10
142.0344903652445
 20
154.8294111834263
 10
140.9516961399171
 20
151.3157559800812
 10
140.9516961399171
 20
151.3157559800812
 10
141.8928968473923
 20
152.7887075264977
 10
142.7341897198865
 20
153.4484437471474
 10
143.8552245303272
 20
154.2926649527359
 10
144.9803934580775
 20
155.1296514530327
 10
146.3139908001845
 20
155.3044901642492
 10
147.241066606852
 20
155.3044901642492
 10
148.3855280820469
 20
155.3044901642492
 10
149.4969166187653
 20
155.0752189084569
 10
150.0784491203092
 20
153.8172414621372
 10
150.5228667310863
 20
152.833838307127
 10
150.5414702589793
 20
152.7201500811143
 10
150.4140016419347
 20
150.7765981809602
 10
151.5818897818837
 20
152.7699317437168
 10
152.4424752018226
 20
153.6256940267945
 10
153.9038856707499
 20
154.4507949398263
 10
155.4455669174378
 20
155.3044901642492
 10
156.339225275853
 20
155.3659851592288
 10
157.3748216618963
 20
155.2147453676543
 10
158.911679771723
 20
154.9877134254046
 10
159.8859534176746
 20
154.4390816074493
 10
160.3965169054045
 20
152.7816450760939
 10
160.9070803931344
 20
151.1219692311958
 10
160.6328506116007
 20
150.2303779314354
 10
159.9992971339115
 20
147.597634224801
 10
159.7105979417943
 20
146.4014962832367
 10
159.2947746424084
 20
144.9400858143094
 10
158.7463150793409
 20
143.2092687007094
 10
158.7463150793409
 20
143.2092687007094
 10
153.9038856707499
 20
127.8027915271048
 10
153.9038856707499
 20
127.8027915271048
 10
153.9038856707499
 20
127.8027915271048
 10
151.3882752878863
 20
127.8027915271048
 10
151.3882752878863
 20
127.8027915271048
 10
151.3882752878863
 20
127.8027915271048
 10
155.6250565106276
 20
141.2751908193897
 10
155.6250565106276
 20
141.2751908193897
 10
156.5094131050963
 20
144.0936252951782
 10
157.109893644309
 20
146.1506931664571
 10
157.4220195011804
 20
147.4415712963654
 10
157.8095929989511
 20
149.0530157726519
 10
157.9656559273867
 20
149.5826995529385
 10
157.7816877071116
 20
150.7529992613181
 10
157.6111553680925
 20
151.8430281919372
 10
157.0582171779396
 20
152.5547853887321
 10
156.1170164704645
 20
152.5547853887321
 10
155.1096698860365
 20
152.5547853887321
 10
154.2962823053817
 20
152.4412694176073
 10
153.156643967048
 20
151.2945686288697
 10
152.0170056287143
 20
150.1476955852443
 10
151.076149431015
 20
148.7930831468137
 10
150.3337308641742
 20
147.2290087646991
 10
149.5957909244188
 20
145.6683794803425
 10
148.8530278478023
 20
143.6822806228776
 10
148.0964843801539
 20
141.2751908193897
 10
148.0964843801539
 20
141.2751908193897
 10
143.8552245303272
 20
127.8027915271048
 10
143.8552245303272
 20
127.8027915271048
 10
143.8552245303272
 20
127.8027915271048
 10
141.486030802177
 20
127.8027915271048
 10
141.486030802177
 20
127.8027915271048
 10
141.486030802177
 20
127.8027915271048
 10
146.3329388378533
 20
143.2092687007094
 10
146.3329388378533
 20
143.2092687007094
 10
146.8483254624444
 20
144.8408669988801
 10
147.2314203331297
 20
146.1837661049335
 10
147.4867020769946
 20
147.224185627838
 10
147.9169947869641
 20
149.0197705792876
 10
148.0306830129768
 20
150.2400242051577
 10
147.709255392159
 20
151.3157559800812
 10
147.3874832615654
 20
152.3916600098926
 10
146.8245542879144
 20
152.6683013598569
 10
145.8840425999909
 20
152.6683013598569
 10
145.0989048209514
 20
152.6683013598569
 10
144.3282364524954
 20
152.3275811915945
 10
143.4531816219731
 20
151.6538923250251
 10
142.34627171234
 20
150.8074318058939
 10
141.901854101563
 20
150.1097995099067
 10
141.3578731655808
 20
149.289521733736
 10
140.6299240093235
 20
148.192602607601
 10
140.2850697237515
 20
147.455696197173
 10
139.6652966370942
 20
145.8385673095858
 10
139.0506911970739
 20
144.2214384219986
 10
138.463991048893
 20
142.3252566160164
 10
138.0571250036777
 20
141.0154304484394
 10
138.0571250036777
 20
141.0154304484394
 10
133.9009590684727
 20
127.8027915271048
 10
133.9009590684727
 20
127.8027915271048
 10
133.9009590684727
 20
127.8027915271048
 10
131.4180771143097
 20
127.8027915271048
 10
131.4180771143097
 20
127.8027915271048
 10
131.4180771143097
 20
127.8027915271048
 10
139.8926730891197
 20
154.8294111834263
 10
139.8926730891197
 20
154.8294111834263
 97
        0
 75
     2
 76
     1
 98
        0
  0
SPLINE
  5
3C5
330
3BD
100
AcDbEntity
  8
レイヤー 1
370
     0
100
AcDbSpline
210
0.0
220
0.0
230
1.0
 70
    11
 71
     3
 72
    29
 73
    25
 74
     0
 42
0.000000001
 43
0.0000000001
 40
0.0
 40
0.0
 40
0.0
 40
0.0
 40
1.0
 40
1.0
 40
1.0
 40
2.0
 40
2.0
 40
2.0
 40
3.0
 40
3.0
 40
3.0
 40
4.0
 40
4.0
 40
4.0
 40
5.0
 40
5.0
 40
5.0
 40
6.0
 40
6.0
 40
6.0
 40
7.0
 40
7.0
 40
7.0
 40
8.0
 40
8.0
 40
8.0
 40
8.0
 10
101.6420971922469
 20
132.8388354296931
 30
0.0
 10
101.630039350094
 20
134.7164137077823
 30
0.0
 10
102.2236296937908
 20
138.0598810818841
 30
0.0
 10
103.7487744712405
 20
142.5378191476827
 30
0.0
 10
105.819967243327
 20
148.5896501242061
 30
0.0
 10
107.0602024361932
 20
150.8074318058939
 30
0.0
 10
108.1522984254671
 20
151.8833358357054
 30
0.0
 10
109.741177511439
 20
153.4532668840085
 30
0.0
 10
111.8740375333931
 20
153.5290590346837
 30
0.0
 10
112.5075910110823
 20
153.4532668840085
 30
0.0
 10
113.4012493694975
 20
153.3490526768302
 30
0.0
 10
114.6683563248758
 20
152.7580461564518
 30
0.0
 10
114.7493161221879
 20
150.7838328862519
 30
0.0
 10
114.8106388622796
 20
149.0909118479895
 30
0.0
 10
114.3186789024427
 20
145.9191825971221
 30
0.0
 10
112.6164561002338
 20
140.9489400617108
 30
0.0
 10
110.6444821435766
 20
135.1746117095912
 30
0.0
 10
109.4669477299053
 20
132.8960240524753
 30
0.0
 10
108.5212683953448
 20
131.9072809959403
 30
0.0
 10
106.7346406980658
 20
130.0538184021569
 30
0.0
 10
104.8222669326213
 20
130.2336525051225
 30
0.0
 10
104.5408024457958
 20
130.2336525051225
 30
0.0
 10
104.1721769856939
 20
130.2336525051225
 30
0.0
 10
101.6465758193322
 20
130.6305277668397
 30
0.0
 10
101.6420971922469
 20
132.8388354296931
 30
0.0
  0
SPLINE
  5
3C6
330
3BD
100
AcDbEntity
  8
レイヤー 1
370
     0
100
AcDbSpline
210
0.0
220
0.0
230
1.0
 70
    11
 71
     3
 72
    32
 73
    28
 74
     0
 42
0.000000001
 43
0.0000000001
 40
0.0
 40
0.0
 40
0.0
 40
0.0
 40
1.0
 40
1.0
 40
1.0
 40
2.0
 40
2.0
 40
2.0
 40
3.0
 40
3.0
 40
3.0
 40
4.0
 40
4.0
 40
4.0
 40
5.0
 40
5.0
 40
5.0
 40
6.0
 40
6.0
 40
6.0
 40
7.0
 40
7.0
 40
7.0
 40
8.0
 40
8.0
 40
8.0
 40
9.0
 40
9.0
 40
9.0
 40
9.0
 10
106.2595617172429
 20
153.4105476718098
 30
0.0
 10
104.8222669326213
 20
151.5474388043041
 30
0.0
 10
103.7177685914188
 20
149.8758773721411
 30
0.0
 10
101.9232171692965
 20
144.6141795664062
 30
0.0
 10
100.2754269116635
 20
139.7999999594306
 30
0.0
 10
99.22777268346732
 20
136.3052927937542
 30
0.0
 10
99.06964269637689
 20
132.039572749846
 30
0.0
 10
98.94665270641765
 20
128.8673267343149
 30
0.0
 10
100.8807305877373
 20
127.8027915271048
 30
0.0
 10
103.7129454545577
 20
127.8027915271048
 30
0.0
 10
104.9352661390825
 20
127.8027915271048
 30
0.0
 10
108.0151835347002
 20
127.8827177950895
 30
0.0
 10
110.2045431598849
 20
130.5926316915021
 30
0.0
 10
111.7417457794874
 20
132.4984597712065
 30
0.0
 10
113.155269389579
 20
134.475256864725
 30
0.0
 10
115.0562743324223
 20
140.9489400617108
 30
0.0
 10
116.6361961642235
 20
146.3680788349845
 30
0.0
 10
117.7282921534974
 20
149.8639917848761
 30
0.0
 10
117.6480213757369
 20
151.8595646611754
 30
0.0
 10
117.6480213757369
 20
151.8595646611754
 30
0.0
 10
117.6480213757369
 20
151.8595646611754
 30
0.0
 10
117.6480213757369
 20
151.8595646611754
 30
0.0
 10
117.13229024137
 20
155.18150017429
 30
0.0
 10
114.7162431837115
 20
155.886194920681
 30
0.0
 10
113.3351034925446
 20
155.886194920681
 30
0.0
 10
111.9829026225447
 20
155.886194920681
 30
0.0
 10
108.3414342923792
 20
156.1251124501957
 30
0.0
 10
106.2595617172429
 20
153.4105476718098
 30
0.0
  0
HATCH
  5
3C7
330
3BD
100
AcDbEntity
  8
レイヤー 1
 62
   250
420
  2234388
100
AcDbHatch
 10
0.0
 20
0.0
 30
0.0
210
0.0
220
0.0
230
1.0
  2
SOLID
 70
     1
 71
     0
 91
        2
 92
        1
 93
        1
 72
     4
 94
        3
 73
     0
 74
     1
 95
       29
 96
       25
 40
0.0
 40
0.0
 40
0.0
 40
0.0
 40
1.0
 40
1.0
 40
1.0
 40
2.0
 40
2.0
 40
2.0
 40
3.0
 40
3.0
 40
3.0
 40
4.0
 40
4.0
 40
4.0
 40
5.0
 40
5.0
 40
5.0
 40
6.0
 40
6.0
 40
6.0
 40
7.0
 40
7.0
 40
7.0
 40
8.0
 40
8.0
 40
8.0
 40
8.0
 10
101.6420971922469
 20
132.8388354296931
 10
101.630039350094
 20
134.7164137077823
 10
102.2236296937908
 20
138.0598810818841
 10
103.7487744712405
 20
142.5378191476827
 10
105.819967243327
 20
148.5896501242061
 10
107.0602024361932
 20
150.8074318058939
 10
108.1522984254671
 20
151.8833358357054
 10
109.741177511439
 20
153.4532668840085
 10
111.8740375333931
 20
153.5290590346837
 10
112.5075910110823
 20
153.4532668840085
 10
113.4012493694975
 20
153.3490526768302
 10
114.6683563248758
 20
152.7580461564518
 10
114.7493161221879
 20
150.7838328862519
 10
114.8106388622796
 20
149.0909118479895
 10
114.3186789024427
 20
145.9191825971221
 10
112.6164561002338
 20
140.9489400617108
 10
110.6444821435766
 20
135.1746117095912
 10
109.4669477299053
 20
132.8960240524753
 10
108.5212683953448
 20
131.9072809959403
 10
106.7346406980658
 20
130.0538184021569
 10
104.8222669326213
 20
130.2336525051225
 10
104.5408024457958
 20
130.2336525051225
 10
104.1721769856939
 20
130.2336525051225
 10
101.6465758193322
 20
130.6305277668397
 10
101.6420971922469
 20
132.8388354296931
 97
        0
 92
        1
 93
        1
 72
     4
 94
        3
 73
     0
 74
     1
 95
       32
 96
       28
 40
0.0
 40
0.0
 40
0.0
 40
0.0
 40
1.0
 40
1.0
 40
1.0
 40
2.0
 40
2.0
 40
2.0
 40
3.0
 40
3.0
 40
3.0
 40
4.0
 40
4.0
 40
4.0
 40
5.0
 40
5.0
 40
5.0
 40
6.0
 40
6.0
 40
6.0
 40
7.0
 40
7.0
 40
7.0
 40
8.0
 40
8.0
 40
8.0
 40
9.0
 40
9.0
 40
9.0
 40
9.0
 10
106.2595617172429
 20
153.4105476718098
 10
104.8222669326213
 20
151.5474388043041
 10
103.7177685914188
 20
149.8758773721411
 10
101.9232171692965
 20
144.6141795664062
 10
100.2754269116635
 20
139.7999999594306
 10
99.22777268346732
 20
136.3052927937542
 10
99.06964269637689
 20
132.039572749846
 10
98.94665270641765
 20
128.8673267343149
 10
100.8807305877373
 20
127.8027915271048
 10
103.7129454545577
 20
127.8027915271048
 10
104.9352661390825
 20
127.8027915271048
 10
108.0151835347002
 20
127.8827177950895
 10
110.2045431598849
 20
130.5926316915021
 10
111.7417457794874
 20
132.4984597712065
 10
113.155269389579
 20
134.475256864725
 10
115.0562743324223
 20
140.9489400617108
 10
116.6361961642235
 20
146.3680788349845
 10
117.7282921534974
 20
149.8639917848761
 10
117.6480213757369
 20
151.8595646611754
 10
117.6480213757369
 20
151.8595646611754
 10
117.6480213757369
 20
151.8595646611754
 10
117.6480213757369
 20
151.8595646611754
 10
117.13229024137
 20
155.18150017429
 10
114.7162431837115
 20
155.886194920681
 10
113.3351034925446
 20
155.886194920681
 10
111.9829026225447
 20
155.886194920681
 10
108.3414342923792
 20
156.1251124501957
 10
106.2595617172429
 20
153.4105476718098
 97
        0
 75
     2
 76
     1
 98
        0
  0
ENDBLK
  5
3C8
330
3BD
100
AcDbEntity
  8
0
100
AcDbBlockEnd
  0
BLOCK
  5
11F1
330
11F0
100
AcDbEntity
  8
0
100
AcDbBlockBegin
  2
BLOCK_2
 70
     0
 10
0.0
 20
0.0
 30
0.0
  3
BLOCK_2
  1
BLOCK_2
  0
ENDBLK
  5
11F2
330
11F0
100
AcDbEntity
  8
0
100
AcDbBlockEnd
  0
BLOCK
  5
19BA
330
19B9
100
AcDbEntity
  8
0
100
AcDbBlockBegin
  2
*D7
 70
     1
 10
0.0
 20
0.0
 30
0.0
  3
*D7
  1
*D171
  0
LINE
  5
19BC
330
19B9
100
AcDbEntity
  8
Dim
  6
Continuous
 62
     0
370
    -2
100
AcDbLine
 10
-1099.996083546581
 20
2038.96504316011
 30
0.0
 11
-1099.996083546581
 21
2303.281849329459
 31
0.0
  0
LINE
  5
19BD
330
19B9
100
AcDbEntity
  8
Dim
  6
Continuous
 62
     0
370
    -2
100
AcDbLine
 10
-1799.89088807097
 20
2038.96504316011
 30
0.0
 11
-1799.89088807097
 21
2303.281849329459
 31
0.0
  0
LINE
  5
19BE
330
19B9
100
AcDbEntity
  8
Dim
  6
Continuous
 62
     0
370
    -2
100
AcDbLine
 10
-1108.996083546581
 20
2303.281849329459
 30
0.0
 11
-1790.89088807097
 21
2303.281849329459
 31
0.0
  0
INSERT
  5
19BF
330
19B9
100
AcDbEntity
  8
Dim
 62
     0
370
    -2
100
AcDbBlockReference
  2
_DOT
 10
-1099.996083546581
 20
2303.281849329459
 30
0.0
 41
9.0
 42
9.0
 43
9.0
  0
INSERT
  5
19C0
330
19B9
100
AcDbEntity
  8
Dim
 62
     0
370
    -2
100
AcDbBlockReference
  2
_DOT
 10
-1799.89088807097
 20
2303.281849329459
 30
0.0
 41
9.0
 42
9.0
 43
9.0
 50
180.0
  0
MTEXT
  5
19C1
330
19B9
100
AcDbEntity
  8
Dim
  6
Continuous
 62
     0
100
AcDbMText
 10
-1449.943485808775
 20
2325.498157923209
 30
0.0
 40
24.4326171875
 41
0.0
 46
0.0
 71
     5
 72
     1
  1
\A1;700
  7
ＭＳ ゴシック
 73
     1
 44
1.0
  0
POINT
  5
19C2
330
19B9
100
AcDbEntity
  8
Defpoints
 62
     0
100
AcDbPoint
 10
-1099.996083546581
 20
2013.96504316011
 30
0.0
  0
POINT
  5
19C3
330
19B9
100
AcDbEntity
  8
Defpoints
 62
     0
100
AcDbPoint
 10
-1799.89088807097
 20
2013.96504316011
 30
0.0
  0
POINT
  5
19C4
330
19B9
100
AcDbEntity
  8
Defpoints
 62
     0
100
AcDbPoint
 10
-1799.89088807097
 20
2303.281849329459
 30
0.0
  0
ENDBLK
  5
19BB
330
19B9
100
AcDbEntity
  8
0
100
AcDbBlockEnd
  0
BLOCK
  5
19D6
330
19D5
100
AcDbEntity
  8
0
100
AcDbBlockBegin
  2
*D8
 70
     1
 10
0.0
 20
0.0
 30
0.0
  3
*D8
  1
*D173
  0
LINE
  5
19D8
330
19D5
100
AcDbEntity
  8
Dim
  6
Continuous
 62
     0
370
    -2
100
AcDbLine
 10
-1249.325954287327
 20
2198.454981313166
 30
0.0
 11
-1025.715534479406
 21
2198.454981313166
 31
0.0
  0
LINE
  5
19D9
330
19D5
100
AcDbEntity
  8
Dim
  6
Continuous
 62
     0
370
    -2
100
AcDbLine
 10
-1249.325954287327
 20
1828.454981313166
 30
0.0
 11
-1025.715534479406
 21
1828.454981313166
 31
0.0
  0
LINE
  5
19DA
330
19D5
100
AcDbEntity
  8
Dim
  6
Continuous
 62
     0
370
    -2
100
AcDbLine
 10
-1025.715534479406
 20
2189.454981313166
 30
0.0
 11
-1025.715534479406
 21
1837.454981313166
 31
0.0
  0
INSERT
  5
19DB
330
19D5
100
AcDbEntity
  8
Dim
 62
     0
370
    -2
100
AcDbBlockReference
  2
_DOT
 10
-1025.715534479406
 20
2198.454981313166
 30
0.0
 41
9.0
 42
9.0
 43
9.0
 50
90.0
  0
INSERT
  5
19DC
330
19D5
100
AcDbEntity
  8
Dim
 62
     0
370
    -2
100
AcDbBlockReference
  2
_DOT
 10
-1025.715534479406
 20
1828.454981313166
 30
0.0
 41
9.0
 42
9.0
 43
9.0
 50
270.0
  0
MTEXT
  5
19DD
330
19D5
100
AcDbEntity
  8
Dim
  6
Continuous
 62
     0
100
AcDbMText
 10
-1047.931843073156
 20
2013.454981313166
 30
0.0
 40
24.4326171875
 41
0.0
 46
0.0
 71
     5
 72
     1
  1
\A1;370
  7
ＭＳ ゴシック
 11
0.0
 21
1.0
 31
0.0
 73
     1
 44
1.0
  0
POINT
  5
19DE
330
19D5
100
AcDbEntity
  8
Defpoints
 62
     0
100
AcDbPoint
 10
-1274.325954287327
 20
2198.454981313166
 30
0.0
  0
POINT
  5
19DF
330
19D5
100
AcDbEntity
  8
Defpoints
 62
     0
100
AcDbPoint
 10
-1274.325954287327
 20
1828.454981313166
 30
0.0
  0
POINT
  5
19E0
330
19D5
100
AcDbEntity
  8
Defpoints
 62
     0
100
AcDbPoint
 10
-1025.715534479406
 20
1828.454981313166
 30
0.0
  0
ENDBLK
  5
19D7
330
19D5
100
AcDbEntity
  8
0
100
AcDbBlockEnd
  0
BLOCK
  5
19E6
330
19E5
100
AcDbEntity
  8
0
100
AcDbBlockBegin
  2
*D9
 70
     1
 10
0.0
 20
0.0
 30
0.0
  3
*D9
  1
*D174
  0
LINE
  5
19E8
330
19E5
100
AcDbEntity
  8
Dim
  6
Continuous
 62
     0
370
    -2
100
AcDbLine
 10
-1658.462652838284
 20
2171.208593363257
 30
0.0
 11
-1848.980854296902
 21
2171.208593363257
 31
0.0
  0
LINE
  5
19E9
330
19E5
100
AcDbEntity
  8
Dim
  6
Continuous
 62
     0
370
    -2
100
AcDbLine
 10
-1658.462652838284
 20
1856.208593363257
 30
0.0
 11
-1848.980854296902
 21
1856.208593363257
 31
0.0
  0
LINE
  5
19EA
330
19E5
100
AcDbEntity
  8
Dim
  6
Continuous
 62
     0
370
    -2
100
AcDbLine
 10
-1848.980854296902
 20
2162.208593363257
 30
0.0
 11
-1848.980854296902
 21
1865.208593363257
 31
0.0
  0
INSERT
  5
19EB
330
19E5
100
AcDbEntity
  8
Dim
 62
     0
370
    -2
100
AcDbBlockReference
  2
_DOT
 10
-1848.980854296902
 20
2171.208593363257
 30
0.0
 41
9.0
 42
9.0
 43
9.0
 50
90.0
  0
INSERT
  5
19EC
330
19E5
100
AcDbEntity
  8
Dim
 62
     0
370
    -2
100
AcDbBlockReference
  2
_DOT
 10
-1848.980854296902
 20
1856.208593363257
 30
0.0
 41
9.0
 42
9.0
 43
9.0
 50
270.0
  0
MTEXT
  5
19ED
330
19E5
100
AcDbEntity
  8
Dim
  6
Continuous
 62
     0
100
AcDbMText
 10
-1871.197162890652
 20
2013.708593363257
 30
0.0
 40
24.4326171875
 41
0.0
 46
0.0
 71
     5
 72
     1
  1
\A1;315
  7
ＭＳ ゴシック
 11
0.0
 21
1.0
 31
0.0
 73
     1
 44
1.0
  0
POINT
  5
19EE
330
19E5
100
AcDbEntity
  8
Defpoints
 62
     0
100
AcDbPoint
 10
-1633.462652838284
 20
2171.208593363257
 30
0.0
  0
POINT
  5
19EF
330
19E5
100
AcDbEntity
  8
Defpoints
 62
     0
100
AcDbPoint
 10
-1633.462652838284
 20
1856.208593363257
 30
0.0
  0
POINT
  5
19F0
330
19E5
100
AcDbEntity
  8
Defpoints
 62
     0
100
AcDbPoint
 10
-1848.980854296902
 20
1856.208593363257
 30
0.0
  0
ENDBLK
  5
19E7
330
19E5
100
AcDbEntity
  8
0
100
AcDbBlockEnd
  0
BLOCK
  5
19F5
330
19F4
100
AcDbEntity
  8
0
100
AcDbBlockBegin
  2
*D10
 70
     1
 10
0.0
 20
0.0
 30
0.0
  3
*D10
  1
*D175
  0
LINE
  5
19F7
330
19F4
100
AcDbEntity
  8
Dim
  6
Continuous
 62
     0
370
    -2
100
AcDbLine
 10
-1769.89088878071
 20
1962.447941487623
 30
0.0
 11
-1769.89088878071
 21
1742.239402837962
 31
0.0
  0
LINE
  5
19F8
330
19F4
100
AcDbEntity
  8
Dim
  6
Continuous
 62
     0
370
    -2
100
AcDbLine
 10
-1129.996082836847
 20
1962.447941487651
 30
0.0
 11
-1129.996082836847
 21
1742.239402837962
 31
0.0
  0
LINE
  5
19F9
330
19F4
100
AcDbEntity
  8
Dim
  6
Continuous
 62
     0
370
    -2
100
AcDbLine
 10
-1760.89088878071
 20
1742.239402837962
 30
0.0
 11
-1138.996082836847
 21
1742.239402837962
 31
0.0
  0
INSERT
  5
19FA
330
19F4
100
AcDbEntity
  8
Dim
 62
     0
370
    -2
100
AcDbBlockReference
  2
_DOT
 10
-1769.89088878071
 20
1742.239402837962
 30
0.0
 41
9.0
 42
9.0
 43
9.0
 50
180.0
  0
INSERT
  5
19FB
330
19F4
100
AcDbEntity
  8
Dim
 62
     0
370
    -2
100
AcDbBlockReference
  2
_DOT
 10
-1129.996082836847
 20
1742.239402837962
 30
0.0
 41
9.0
 42
9.0
 43
9.0
  0
MTEXT
  5
19FC
330
19F4
100
AcDbEntity
  8
Dim
  6
Continuous
 62
     0
100
AcDbMText
 10
-1449.943485808778
 20
1764.455711431712
 30
0.0
 40
24.4326171875
 41
0.0
 46
0.0
 71
     5
 72
     1
  1
\A1;640
  7
ＭＳ ゴシック
 73
     1
 44
1.0
  0
POINT
  5
19FD
330
19F4
100
AcDbEntity
  8
Defpoints
 62
     0
100
AcDbPoint
 10
-1769.89088878071
 20
1987.447941487623
 30
0.0
  0
POINT
  5
19FE
330
19F4
100
AcDbEntity
  8
Defpoints
 62
     0
100
AcDbPoint
 10
-1129.996082836847
 20
1987.447941487651
 30
0.0
  0
POINT
  5
19FF
330
19F4
100
AcDbEntity
  8
Defpoints
 62
     0
100
AcDbPoint
 10
-1129.996082836847
 20
1742.239402837962
 30
0.0
  0
ENDBLK
  5
19F6
330
19F4
100
AcDbEntity
  8
0
100
AcDbBlockEnd
  0
BLOCK
  5
1A05
330
1A04
100
AcDbEntity
  8
0
100
AcDbBlockBegin
  2
*D11
 70
     1
 10
0.0
 20
0.0
 30
0.0
  3
*D11
  1
*D176
  0
LINE
  5
1A07
330
1A04
100
AcDbEntity
  8
Dim
  6
Continuous
 62
     0
370
    -2
100
AcDbLine
 10
-327.3720526930472
 20
986.4496762339288
 30
0.0
 11
-327.3720526930472
 21
735.8857509555712
 31
0.0
  0
LINE
  5
1A08
330
1A04
100
AcDbEntity
  8
Dim
  6
Continuous
 62
     0
370
    -2
100
AcDbLine
 10
-512.3720526930472
 20
778.9884752019805
 30
0.0
 11
-512.3720526930472
 21
735.8857509555712
 31
0.0
  0
LINE
  5
1A09
330
1A04
100
AcDbEntity
  8
Dim
  6
Continuous
 62
     0
370
    -2
100
AcDbLine
 10
-336.3720526930472
 20
735.8857509555712
 30
0.0
 11
-503.3720526930472
 21
735.8857509555712
 31
0.0
  0
INSERT
  5
1A0A
330
1A04
100
AcDbEntity
  8
Dim
 62
     0
370
    -2
100
AcDbBlockReference
  2
_DOT
 10
-327.3720526930472
 20
735.8857509555712
 30
0.0
 41
9.0
 42
9.0
 43
9.0
  0
INSERT
  5
1A0B
330
1A04
100
AcDbEntity
  8
Dim
 62
     0
370
    -2
100
AcDbBlockReference
  2
_DOT
 10
-512.3720526930472
 20
735.8857509555712
 30
0.0
 41
9.0
 42
9.0
 43
9.0
 50
180.0
  0
MTEXT
  5
1A0C
330
1A04
100
AcDbEntity
  8
Dim
  6
Continuous
 62
     0
100
AcDbMText
 10
-419.8720526930472
 20
758.1020595493212
 30
0.0
 40
24.4326171875
 41
0.0
 46
0.0
 71
     5
 72
     1
  1
\A1;185
  7
ＭＳ ゴシック
 73
     1
 44
1.0
  0
POINT
  5
1A0D
330
1A04
100
AcDbEntity
  8
Defpoints
 62
     0
100
AcDbPoint
 10
-327.3720526930472
 20
1011.449676233929
 30
0.0
  0
POINT
  5
1A0E
330
1A04
100
AcDbEntity
  8
Defpoints
 62
     0
100
AcDbPoint
 10
-512.3720526930472
 20
803.9884752019805
 30
0.0
  0
POINT
  5
1A0F
330
1A04
100
AcDbEntity
  8
Defpoints
 62
     0
100
AcDbPoint
 10
-512.3720526930472
 20
735.8857509555712
 30
0.0
  0
ENDBLK
  5
1A06
330
1A04
100
AcDbEntity
  8
0
100
AcDbBlockEnd
  0
BLOCK
  5
1A1A
330
1A19
100
AcDbEntity
  8
0
100
AcDbBlockBegin
  2
*D12
 70
     1
 10
0.0
 20
0.0
 30
0.0
  3
*D12
  1
*D177
  0
LINE
  5
1A1C
330
1A19
100
AcDbEntity
  8
Dim
  6
Continuous
 62
     0
370
    -2
100
AcDbLine
 10
-719.6927189960682
 20
1042.146970822732
 30
0.0
 11
-761.3768901128972
 21
1042.146970822732
 31
0.0
  0
LINE
  5
1A1D
330
1A19
100
AcDbEntity
  8
Dim
  6
Continuous
 62
     0
370
    -2
100
AcDbLine
 10
-702.471264939091
 20
967.2331786268264
 30
0.0
 11
-761.3768901128972
 21
967.2331786268264
 31
0.0
  0
LINE
  5
1A1E
330
1A19
100
AcDbEntity
  8
Dim
  6
Continuous
 62
     0
370
    -2
100
AcDbLine
 10
-761.3768901128972
 20
1033.146970822732
 30
0.0
 11
-761.3768901128972
 21
976.2331786268264
 31
0.0
  0
INSERT
  5
1A1F
330
1A19
100
AcDbEntity
  8
Dim
 62
     0
370
    -2
100
AcDbBlockReference
  2
_DOT
 10
-761.3768901128972
 20
1042.146970822732
 30
0.0
 41
9.0
 42
9.0
 43
9.0
 50
90.0
  0
INSERT
  5
1A20
330
1A19
100
AcDbEntity
  8
Dim
 62
     0
370
    -2
100
AcDbBlockReference
  2
_DOT
 10
-761.3768901128972
 20
967.2331786268264
 30
0.0
 41
9.0
 42
9.0
 43
9.0
 50
270.0
  0
MTEXT
  5
1A21
330
1A19
100
AcDbEntity
  8
Dim
  6
Continuous
 62
     0
100
AcDbMText
 10
-783.5931987066472
 20
1004.690074724779
 30
0.0
 40
24.4326171875
 41
0.0
 46
0.0
 71
     5
 72
     1
  1
\A1;75
  7
ＭＳ ゴシック
 11
0.0
 21
1.0
 31
0.0
 73
     1
 44
1.0
  0
POINT
  5
1A22
330
1A19
100
AcDbEntity
  8
Defpoints
 62
     0
100
AcDbPoint
 10
-694.6927189960682
 20
1042.146970822732
 30
0.0
  0
POINT
  5
1A23
330
1A19
100
AcDbEntity
  8
Defpoints
 62
     0
100
AcDbPoint
 10
-677.471264939091
 20
967.2331786268264
 30
0.0
  0
POINT
  5
1A24
330
1A19
100
AcDbEntity
  8
Defpoints
 62
     0
100
AcDbPoint
 10
-761.3768901128972
 20
967.2331786268264
 30
0.0
  0
ENDBLK
  5
1A1B
330
1A19
100
AcDbEntity
  8
0
100
AcDbBlockEnd
  0
BLOCK
  5
1A27
330
1A26
100
AcDbEntity
  8
0
100
AcDbBlockBegin
  2
*D13
 70
     1
 10
0.0
 20
0.0
 30
0.0
  3
*D13
  1
*D178
  0
LINE
  5
1A29
330
1A26
100
AcDbEntity
  8
Dim
  6
Continuous
 62
     0
370
    -2
100
AcDbLine
 10
-727.471264939091
 20
967.2331786268264
 30
0.0
 11
-761.3768901128972
 21
967.2331786268264
 31
0.0
  0
LINE
  5
1A2A
330
1A26
100
AcDbEntity
  8
Dim
  6
Continuous
 62
     0
370
    -2
100
AcDbLine
 10
-664.2463188304221
 20
892.2331786268264
 30
0.0
 11
-761.3768901128972
 21
892.2331786268264
 31
0.0
  0
LINE
  5
1A2B
330
1A26
100
AcDbEntity
  8
Dim
  6
Continuous
 62
     0
370
    -2
100
AcDbLine
 10
-761.3768901128972
 20
958.2331786268264
 30
0.0
 11
-761.3768901128972
 21
901.2331786268264
 31
0.0
  0
INSERT
  5
1A2C
330
1A26
100
AcDbEntity
  8
Dim
 62
     0
370
    -2
100
AcDbBlockReference
  2
_DOT
 10
-761.3768901128972
 20
967.2331786268264
 30
0.0
 41
9.0
 42
9.0
 43
9.0
 50
90.0
  0
INSERT
  5
1A2D
330
1A26
100
AcDbEntity
  8
Dim
 62
     0
370
    -2
100
AcDbBlockReference
  2
_DOT
 10
-761.3768901128972
 20
892.2331786268264
 30
0.0
 41
9.0
 42
9.0
 43
9.0
 50
270.0
  0
MTEXT
  5
1A2E
330
1A26
100
AcDbEntity
  8
Dim
  6
Continuous
 62
     0
100
AcDbMText
 10
-783.5931987066472
 20
929.7331786268264
 30
0.0
 40
24.4326171875
 41
0.0
 46
0.0
 71
     5
 72
     1
  1
\A1;75
  7
ＭＳ ゴシック
 11
0.0
 21
1.0
 31
0.0
 73
     1
 44
1.0
  0
POINT
  5
1A2F
330
1A26
100
AcDbEntity
  8
Defpoints
 62
     0
100
AcDbPoint
 10
-702.471264939091
 20
967.2331786268264
 30
0.0
  0
POINT
  5
1A30
330
1A26
100
AcDbEntity
  8
Defpoints
 62
     0
100
AcDbPoint
 10
-639.2463188304221
 20
892.2331786268264
 30
0.0
  0
POINT
  5
1A31
330
1A26
100
AcDbEntity
  8
Defpoints
 62
     0
100
AcDbPoint
 10
-761.3768901128972
 20
892.2331786268264
 30
0.0
  0
ENDBLK
  5
1A28
330
1A26
100
AcDbEntity
  8
0
100
AcDbBlockEnd
  0
BLOCK
  5
1A37
330
1A36
100
AcDbEntity
  8
0
100
AcDbBlockBegin
  2
*D14
 70
     1
 10
0.0
 20
0.0
 30
0.0
  3
*D14
  1
*D179
  0
LINE
  5
1A39
330
1A36
100
AcDbEntity
  8
Dim
  6
Continuous
 62
     0
370
    -2
100
AcDbLine
 10
-1079.023640787445
 20
1042.154778093721
 30
0.0
 11
-1010.950968915361
 21
1042.154778093721
 31
0.0
  0
LINE
  5
1A3A
330
1A36
100
AcDbEntity
  8
Dim
  6
Continuous
 62
     0
370
    -2
100
AcDbLine
 10
-1127.580864198037
 20
892.1547780937206
 30
0.0
 11
-1010.950968915361
 21
892.1547780937206
 31
0.0
  0
LINE
  5
1A3B
330
1A36
100
AcDbEntity
  8
Dim
  6
Continuous
 62
     0
370
    -2
100
AcDbLine
 10
-1010.950968915361
 20
1033.154778093721
 30
0.0
 11
-1010.950968915361
 21
901.1547780937206
 31
0.0
  0
INSERT
  5
1A3C
330
1A36
100
AcDbEntity
  8
Dim
 62
     0
370
    -2
100
AcDbBlockReference
  2
_DOT
 10
-1010.950968915361
 20
1042.154778093721
 30
0.0
 41
9.0
 42
9.0
 43
9.0
 50
90.0
  0
INSERT
  5
1A3D
330
1A36
100
AcDbEntity
  8
Dim
 62
     0
370
    -2
100
AcDbBlockReference
  2
_DOT
 10
-1010.950968915361
 20
892.1547780937206
 30
0.0
 41
9.0
 42
9.0
 43
9.0
 50
270.0
  0
MTEXT
  5
1A3E
330
1A36
100
AcDbEntity
  8
Dim
  6
Continuous
 62
     0
100
AcDbMText
 10
-1033.167277509111
 20
967.1547780937207
 30
0.0
 40
24.4326171875
 41
0.0
 46
0.0
 71
     5
 72
     1
  1
\A1;150
  7
ＭＳ ゴシック
 11
0.0
 21
1.0
 31
0.0
 73
     1
 44
1.0
  0
POINT
  5
1A3F
330
1A36
100
AcDbEntity
  8
Defpoints
 62
     0
100
AcDbPoint
 10
-1104.023640787445
 20
1042.154778093721
 30
0.0
  0
POINT
  5
1A40
330
1A36
100
AcDbEntity
  8
Defpoints
 62
     0
100
AcDbPoint
 10
-1152.580864198037
 20
892.1547780937206
 30
0.0
  0
POINT
  5
1A41
330
1A36
100
AcDbEntity
  8
Defpoints
 62
     0
100
AcDbPoint
 10
-1010.950968915361
 20
892.1547780937206
 30
0.0
  0
ENDBLK
  5
1A38
330
1A36
100
AcDbEntity
  8
0
100
AcDbBlockEnd
  0
BLOCK
  5
1A44
330
1A43
100
AcDbEntity
  8
0
100
AcDbBlockBegin
  2
*D15
 70
     1
 10
0.0
 20
0.0
 30
0.0
  3
*D15
  1
*D180
  0
LINE
  5
1A46
330
1A43
100
AcDbEntity
  8
Dim
  6
Continuous
 62
     0
370
    -2
100
AcDbLine
 10
-1730.498314026006
 20
864.0829322445534
 30
0.0
 11
-1730.498314026006
 21
800.3750743564613
 31
0.0
  0
LINE
  5
1A47
330
1A43
100
AcDbEntity
  8
Dim
  6
Continuous
 62
     0
370
    -2
100
AcDbLine
 10
-1165.498314026006
 20
864.0829322445534
 30
0.0
 11
-1165.498314026006
 21
800.3750743564613
 31
0.0
  0
LINE
  5
1A48
330
1A43
100
AcDbEntity
  8
Dim
  6
Continuous
 62
     0
370
    -2
100
AcDbLine
 10
-1721.498314026006
 20
800.3750743564613
 30
0.0
 11
-1174.498314026006
 21
800.3750743564613
 31
0.0
  0
INSERT
  5
1A49
330
1A43
100
AcDbEntity
  8
Dim
 62
     0
370
    -2
100
AcDbBlockReference
  2
_DOT
 10
-1730.498314026006
 20
800.3750743564613
 30
0.0
 41
9.0
 42
9.0
 43
9.0
 50
180.0
  0
INSERT
  5
1A4A
330
1A43
100
AcDbEntity
  8
Dim
 62
     0
370
    -2
100
AcDbBlockReference
  2
_DOT
 10
-1165.498314026006
 20
800.3750743564613
 30
0.0
 41
9.0
 42
9.0
 43
9.0
  0
MTEXT
  5
1A4B
330
1A43
100
AcDbEntity
  8
Dim
  6
Continuous
 62
     0
100
AcDbMText
 10
-1447.998314026006
 20
822.5913829502113
 30
0.0
 40
24.4326171875
 41
0.0
 46
0.0
 71
     5
 72
     1
  1
\A1;565
  7
ＭＳ ゴシック
 73
     1
 44
1.0
  0
POINT
  5
1A4C
330
1A43
100
AcDbEntity
  8
Defpoints
 62
     0
100
AcDbPoint
 10
-1730.498314026006
 20
889.0829322445534
 30
0.0
  0
POINT
  5
1A4D
330
1A43
100
AcDbEntity
  8
Defpoints
 62
     0
100
AcDbPoint
 10
-1165.498314026006
 20
889.0829322445534
 30
0.0
  0
POINT
  5
1A4E
330
1A43
100
AcDbEntity
  8
Defpoints
 62
     0
100
AcDbPoint
 10
-1165.498314026006
 20
800.3750743564613
 30
0.0
  0
ENDBLK
  5
1A45
330
1A43
100
AcDbEntity
  8
0
100
AcDbBlockEnd
  0
BLOCK
  5
1A8A
330
1A89
100
AcDbEntity
  8
0
100
AcDbBlockBegin
  2
*D16
 70
     1
 10
0.0
 20
0.0
 30
0.0
  3
*D16
  1
*D182
  0
LINE
  5
1A8C
330
1A89
100
AcDbEntity
  8
Dim
  6
Continuous
 62
     0
370
    -2
100
AcDbLine
 10
-629.8720526930472
 20
868.9935144224153
 30
0.0
 11
-629.8720526930472
 21
803.9884752019805
 31
0.0
  0
LINE
  5
1A8D
330
1A89
100
AcDbEntity
  8
Dim
  6
Continuous
 62
     0
370
    -2
100
AcDbLine
 10
-394.8720526930472
 20
868.9935144224153
 30
0.0
 11
-394.8720526930472
 21
803.9884752019805
 31
0.0
  0
LINE
  5
1A8E
330
1A89
100
AcDbEntity
  8
Dim
  6
Continuous
 62
     0
370
    -2
100
AcDbLine
 10
-620.8720526930472
 20
803.9884752019805
 30
0.0
 11
-403.8720526930472
 21
803.9884752019805
 31
0.0
  0
INSERT
  5
1A8F
330
1A89
100
AcDbEntity
  8
Dim
 62
     0
370
    -2
100
AcDbBlockReference
  2
_DOT
 10
-629.8720526930472
 20
803.9884752019805
 30
0.0
 41
9.0
 42
9.0
 43
9.0
 50
180.0
  0
INSERT
  5
1A90
330
1A89
100
AcDbEntity
  8
Dim
 62
     0
370
    -2
100
AcDbBlockReference
  2
_DOT
 10
-394.8720526930472
 20
803.9884752019805
 30
0.0
 41
9.0
 42
9.0
 43
9.0
  0
MTEXT
  5
1A91
330
1A89
100
AcDbEntity
  8
Dim
  6
Continuous
 62
     0
100
AcDbMText
 10
-512.3720526930472
 20
826.2047837957305
 30
0.0
 40
24.4326171875
 41
0.0
 46
0.0
 71
     5
 72
     1
  1
\A1;235
  7
ＭＳ ゴシック
 73
     1
 44
1.0
  0
POINT
  5
1A92
330
1A89
100
AcDbEntity
  8
Defpoints
 62
     0
100
AcDbPoint
 10
-629.8720526930472
 20
893.9935144224153
 30
0.0
  0
POINT
  5
1A93
330
1A89
100
AcDbEntity
  8
Defpoints
 62
     0
100
AcDbPoint
 10
-394.8720526930472
 20
893.9935144224153
 30
0.0
  0
POINT
  5
1A94
330
1A89
100
AcDbEntity
  8
Defpoints
 62
     0
100
AcDbPoint
 10
-394.8720526930472
 20
803.9884752019805
 30
0.0
  0
ENDBLK
  5
1A8B
330
1A89
100
AcDbEntity
  8
0
100
AcDbBlockEnd
  0
BLOCK
  5
1AA6
330
1AA5
100
AcDbEntity
  8
0
100
AcDbBlockBegin
  2
*D17
 70
     1
 10
0.0
 20
0.0
 30
0.0
  3
*D17
  1
*D183
  0
LINE
  5
1AA8
330
1AA5
100
AcDbEntity
  8
Dim
  6
Continuous
 62
     0
370
    -2
100
AcDbLine
 10
-512.3720447192811
 20
1042.148728416899
 30
0.0
 11
-512.3720447192811
 21
1212.524648338775
 31
0.0
  0
LINE
  5
1AA9
330
1AA5
100
AcDbEntity
  8
Dim
  6
Continuous
 62
     0
370
    -2
100
AcDbLine
 10
-512.3720447192811
 20
929.8244651276623
 30
0.0
 11
-512.3720447192811
 21
1033.148728416899
 31
0.0
  0
INSERT
  5
1AAA
330
1AA5
100
AcDbEntity
  8
Dim
 62
     0
370
    -2
100
AcDbBlockReference
  2
_DOT
 10
-512.3720447192811
 20
920.8244651276623
 30
0.0
 41
9.0
 42
9.0
 43
9.0
 50
270.0
  0
INSERT
  5
1AAB
330
1AA5
100
AcDbEntity
  8
Dim
 62
     0
370
    -2
100
AcDbBlockReference
  2
_DOT
 10
-512.3720447192811
 20
1042.148728416899
 30
0.0
 41
9.0
 42
9.0
 43
9.0
 50
90.0
  0
MTEXT
  5
1AAC
330
1AA5
100
AcDbEntity
  8
Dim
  6
Continuous
 62
     0
100
AcDbMText
 10
-536.7506399341248
 20
1136.336688377837
 30
0.0
 40
24.4326171875
 41
0.0
 46
0.0
 71
     5
 72
     1
  1
\A1;120(深さ)
  7
ＭＳ ゴシック
 11
0.0
 21
1.0
 31
0.0
 73
     1
 44
1.0
  0
POINT
  5
1AAD
330
1AA5
100
AcDbEntity
  8
Defpoints
 62
     0
100
AcDbPoint
 10
-512.372057990432
 20
920.8244651276623
 30
0.0
  0
POINT
  5
1AAE
330
1AA5
100
AcDbEntity
  8
Defpoints
 62
     0
100
AcDbPoint
 10
-512.3720507163941
 20
1042.148728416899
 30
0.0
  0
POINT
  5
1AB3
330
1AA5
100
AcDbEntity
  8
Defpoints
 62
     0
100
AcDbPoint
 10
-512.3720447192811
 20
1042.148728416899
 30
0.0
  0
ENDBLK
  5
1AA7
330
1AA5
100
AcDbEntity
  8
0
100
AcDbBlockEnd
  0
BLOCK
  5
1D2B
330
1D2A
100
AcDbEntity
  8
0
100
AcDbBlockBegin
  2
*D18
 70
     1
 10
0.0
 20
0.0
 30
0.0
  3
*D18
  1
*D21
  0
LINE
  5
1D2D
330
1D2A
100
AcDbEntity
  8
Dim
  6
Continuous
 62
     0
370
    -2
100
AcDbLine
 10
1576.401501298723
 20
906.5842408933662
 30
0.0
 11
1993.195881265048
 21
906.5842408933662
 31
0.0
  0
LINE
  5
1D2E
330
1D2A
100
AcDbEntity
  8
Dim
  6
Continuous
 62
     0
370
    -2
100
AcDbLine
 10
1576.401501298723
 20
1491.584240893366
 30
0.0
 11
1993.195881265048
 21
1491.584240893366
 31
0.0
  0
LINE
  5
1D2F
330
1D2A
100
AcDbEntity
  8
Dim
  6
Continuous
 62
     0
370
    -2
100
AcDbLine
 10
1993.195881265048
 20
915.5842408933662
 30
0.0
 11
1993.195881265048
 21
1482.584240893366
 31
0.0
  0
INSERT
  5
1D30
330
1D2A
100
AcDbEntity
  8
Dim
 62
     0
370
    -2
100
AcDbBlockReference
  2
_DOT
 10
1993.195881265048
 20
906.5842408933662
 30
0.0
 41
9.0
 42
9.0
 43
9.0
 50
270.0
  0
INSERT
  5
1D31
330
1D2A
100
AcDbEntity
  8
Dim
 62
     0
370
    -2
100
AcDbBlockReference
  2
_DOT
 10
1993.195881265048
 20
1491.584240893366
 30
0.0
 41
9.0
 42
9.0
 43
9.0
 50
90.0
  0
MTEXT
  5
1D32
330
1D2A
100
AcDbEntity
  8
Dim
  6
Continuous
 62
     0
100
AcDbMText
 10
1970.979572671298
 20
1199.084240893366
 30
0.0
 40
24.4326171875
 41
0.0
 46
0.0
 71
     5
 72
     1
  1
\A1;585
  7
ＭＳ ゴシック
 11
0.0
 21
1.0
 31
0.0
 73
     1
 44
1.0
  0
POINT
  5
1D33
330
1D2A
100
AcDbEntity
  8
Defpoints
 62
     0
100
AcDbPoint
 10
1551.401501298723
 20
906.5842408933662
 30
0.0
  0
POINT
  5
1D34
330
1D2A
100
AcDbEntity
  8
Defpoints
 62
     0
100
AcDbPoint
 10
1551.401501298723
 20
1491.584240893366
 30
0.0
  0
POINT
  5
1D35
330
1D2A
100
AcDbEntity
  8
Defpoints
 62
     0
100
AcDbPoint
 10
1993.195881265048
 20
1491.584240893366
 30
0.0
  0
ENDBLK
  5
1D2C
330
1D2A
100
AcDbEntity
  8
0
100
AcDbBlockEnd
  0
BLOCK
  5
1D62
330
1D61
100
AcDbEntity
  8
0
100
AcDbBlockBegin
  2
*D19
 70
     1
 10
0.0
 20
0.0
 30
0.0
  3
*D19
  1
*D22
  0
LINE
  5
1D64
330
1D61
100
AcDbEntity
  8
Dim
  6
Continuous
 62
     0
370
    -2
100
AcDbLine
 10
-1582.897261422136
 20
2320.042820875376
 30
0.0
 11
-1582.897261422136
 21
2381.465523557275
 31
0.0
  0
LINE
  5
1D65
330
1D61
100
AcDbEntity
  8
Dim
  6
Continuous
 62
     0
370
    -2
100
AcDbLine
 10
-1282.897261422136
 20
2320.042820875376
 30
0.0
 11
-1282.897261422136
 21
2381.465523557275
 31
0.0
  0
LINE
  5
1D66
330
1D61
100
AcDbEntity
  8
Dim
  6
Continuous
 62
     0
370
    -2
100
AcDbLine
 10
-1573.897261422136
 20
2381.465523557275
 30
0.0
 11
-1291.897261422136
 21
2381.465523557275
 31
0.0
  0
INSERT
  5
1D67
330
1D61
100
AcDbEntity
  8
Dim
 62
     0
370
    -2
100
AcDbBlockReference
  2
_DOT
 10
-1582.897261422136
 20
2381.465523557275
 30
0.0
 41
9.0
 42
9.0
 43
9.0
 50
180.0
  0
INSERT
  5
1D68
330
1D61
100
AcDbEntity
  8
Dim
 62
     0
370
    -2
100
AcDbBlockReference
  2
_DOT
 10
-1282.897261422136
 20
2381.465523557275
 30
0.0
 41
9.0
 42
9.0
 43
9.0
  0
MTEXT
  5
1D69
330
1D61
100
AcDbEntity
  8
Dim
  6
Continuous
 62
     0
100
AcDbMText
 10
-1432.897261422136
 20
2403.681832151025
 30
0.0
 40
24.4326171875
 41
0.0
 46
0.0
 71
     5
 72
     1
  1
\A1;300
  7
ＭＳ ゴシック
 73
     1
 44
1.0
  0
POINT
  5
1D6A
330
1D61
100
AcDbEntity
  8
Defpoints
 62
     0
100
AcDbPoint
 10
-1582.897261422136
 20
2295.042820875376
 30
0.0
  0
POINT
  5
1D6B
330
1D61
100
AcDbEntity
  8
Defpoints
 62
     0
100
AcDbPoint
 10
-1282.897261422136
 20
2295.042820875376
 30
0.0
  0
POINT
  5
1D6C
330
1D61
100
AcDbEntity
  8
Defpoints
 62
     0
100
AcDbPoint
 10
-1282.897261422136
 20
2381.465523557275
 30
0.0
  0
ENDBLK
  5
1D63
330
1D61
100
AcDbEntity
  8
0
100
AcDbBlockEnd
  0
BLOCK
  5
1D6F
330
1D6E
100
AcDbEntity
  8
0
100
AcDbBlockBegin
  2
*D20
 70
     1
 10
0.0
 20
0.0
 30
0.0
  3
*D20
  1
*D23
  0
LINE
  5
1D71
330
1D6E
100
AcDbEntity
  8
Dim
  6
Continuous
 62
     0
370
    -2
100
AcDbLine
 10
-1602.897261422135
 20
2300.042820875376
 30
0.0
 11
-1678.303807024334
 21
2300.042820875376
 31
0.0
  0
LINE
  5
1D72
330
1D6E
100
AcDbEntity
  8
Dim
  6
Continuous
 62
     0
370
    -2
100
AcDbLine
 10
-1481.992093924378
 20
1950.042820875376
 30
0.0
 11
-1678.303807024334
 21
1950.042820875376
 31
0.0
  0
LINE
  5
1D73
330
1D6E
100
AcDbEntity
  8
Dim
  6
Continuous
 62
     0
370
    -2
100
AcDbLine
 10
-1678.303807024334
 20
2291.042820875376
 30
0.0
 11
-1678.303807024334
 21
1959.042820875376
 31
0.0
  0
INSERT
  5
1D74
330
1D6E
100
AcDbEntity
  8
Dim
 62
     0
370
    -2
100
AcDbBlockReference
  2
_DOT
 10
-1678.303807024334
 20
2300.042820875376
 30
0.0
 41
9.0
 42
9.0
 43
9.0
 50
90.0
  0
INSERT
  5
1D75
330
1D6E
100
AcDbEntity
  8
Dim
 62
     0
370
    -2
100
AcDbBlockReference
  2
_DOT
 10
-1678.303807024334
 20
1950.042820875376
 30
0.0
 41
9.0
 42
9.0
 43
9.0
 50
270.0
  0
MTEXT
  5
1D76
330
1D6E
100
AcDbEntity
  8
Dim
  6
Continuous
 62
     0
100
AcDbMText
 10
-1700.520115618084
 20
2125.042820875376
 30
0.0
 40
24.4326171875
 41
0.0
 46
0.0
 71
     5
 72
     1
  1
\A1;350
  7
ＭＳ ゴシック
 11
0.0
 21
1.0
 31
0.0
 73
     1
 44
1.0
  0
POINT
  5
1D77
330
1D6E
100
AcDbEntity
  8
Defpoints
 62
     0
100
AcDbPoint
 10
-1577.897261422135
 20
2300.042820875376
 30
0.0
  0
POINT
  5
1D78
330
1D6E
100
AcDbEntity
  8
Defpoints
 62
     0
100
AcDbPoint
 10
-1456.992093924378
 20
1950.042820875376
 30
0.0
  0
POINT
  5
1D79
330
1D6E
100
AcDbEntity
  8
Defpoints
 62
     0
100
AcDbPoint
 10
-1678.303807024334
 20
1950.042820875376
 30
0.0
  0
ENDBLK
  5
1D70
330
1D6E
100
AcDbEntity
  8
0
100
AcDbBlockEnd
  0
BLOCK
  5
1D7F
330
1D7E
100
AcDbEntity
  8
0
100
AcDbBlockBegin
  2
*D21
 70
     1
 10
0.0
 20
0.0
 30
0.0
  3
*D21
  1
*D24
  0
LINE
  5
1D81
330
1D7E
100
AcDbEntity
  8
Dim
  6
Continuous
 62
     0
370
    -2
100
AcDbLine
 10
-1355.304416447079
 20
1155.057522657055
 30
0.0
 11
-1355.304416447079
 21
1098.856030945055
 31
0.0
  0
LINE
  5
1D82
330
1D7E
100
AcDbEntity
  8
Dim
  6
Continuous
 62
     0
370
    -2
100
AcDbLine
 10
-1510.30441644708
 20
1155.057522657055
 30
0.0
 11
-1510.30441644708
 21
1098.856030945055
 31
0.0
  0
LINE
  5
1D83
330
1D7E
100
AcDbEntity
  8
Dim
  6
Continuous
 62
     0
370
    -2
100
AcDbLine
 10
-1364.304416447079
 20
1098.856030945055
 30
0.0
 11
-1501.30441644708
 21
1098.856030945055
 31
0.0
  0
INSERT
  5
1D84
330
1D7E
100
AcDbEntity
  8
Dim
 62
     0
370
    -2
100
AcDbBlockReference
  2
_DOT
 10
-1355.304416447079
 20
1098.856030945055
 30
0.0
 41
9.0
 42
9.0
 43
9.0
  0
INSERT
  5
1D85
330
1D7E
100
AcDbEntity
  8
Dim
 62
     0
370
    -2
100
AcDbBlockReference
  2
_DOT
 10
-1510.30441644708
 20
1098.856030945055
 30
0.0
 41
9.0
 42
9.0
 43
9.0
 50
180.0
  0
MTEXT
  5
1D86
330
1D7E
100
AcDbEntity
  8
Dim
  6
Continuous
 62
     0
100
AcDbMText
 10
-1432.804416447079
 20
1121.072339538805
 30
0.0
 40
24.4326171875
 41
0.0
 46
0.0
 71
     5
 72
     1
  1
\A1;155
  7
ＭＳ ゴシック
 73
     1
 44
1.0
  0
POINT
  5
1D87
330
1D7E
100
AcDbEntity
  8
Defpoints
 62
     0
100
AcDbPoint
 10
-1355.304416447079
 20
1180.057522657055
 30
0.0
  0
POINT
  5
1D88
330
1D7E
100
AcDbEntity
  8
Defpoints
 62
     0
100
AcDbPoint
 10
-1510.30441644708
 20
1180.057522657055
 30
0.0
  0
POINT
  5
1D89
330
1D7E
100
AcDbEntity
  8
Defpoints
 62
     0
100
AcDbPoint
 10
-1510.30441644708
 20
1098.856030945055
 30
0.0
  0
ENDBLK
  5
1D80
330
1D7E
100
AcDbEntity
  8
0
100
AcDbBlockEnd
  0
BLOCK
  5
1D93
330
1D92
100
AcDbEntity
  8
0
100
AcDbBlockBegin
  2
*D22
 70
     1
 10
0.0
 20
0.0
 30
0.0
  3
*D22
  1
*D25
  0
LINE
  5
1D95
330
1D92
100
AcDbEntity
  8
Dim
  6
Continuous
 62
     0
370
    -2
100
AcDbLine
 10
-1457.804517231641
 20
885.7780219789279
 30
0.0
 11
-1705.379257413715
 21
885.7780219789279
 31
0.0
  0
LINE
  5
1D96
330
1D92
100
AcDbEntity
  8
Dim
  6
Continuous
 62
     0
370
    -2
100
AcDbLine
 10
-1457.804517231641
 20
1265.778021978928
 30
0.0
 11
-1705.379257413715
 21
1265.778021978928
 31
0.0
  0
LINE
  5
1D97
330
1D92
100
AcDbEntity
  8
Dim
  6
Continuous
 62
     0
370
    -2
100
AcDbLine
 10
-1705.379257413715
 20
894.7780219789279
 30
0.0
 11
-1705.379257413715
 21
1256.778021978928
 31
0.0
  0
INSERT
  5
1D98
330
1D92
100
AcDbEntity
  8
Dim
 62
     0
370
    -2
100
AcDbBlockReference
  2
_DOT
 10
-1705.379257413715
 20
885.7780219789279
 30
0.0
 41
9.0
 42
9.0
 43
9.0
 50
270.0
  0
INSERT
  5
1D99
330
1D92
100
AcDbEntity
  8
Dim
 62
     0
370
    -2
100
AcDbBlockReference
  2
_DOT
 10
-1705.379257413715
 20
1265.778021978928
 30
0.0
 41
9.0
 42
9.0
 43
9.0
 50
90.0
  0
MTEXT
  5
1D9A
330
1D92
100
AcDbEntity
  8
Dim
  6
Continuous
 62
     0
100
AcDbMText
 10
-1727.595566007465
 20
1075.778021978928
 30
0.0
 40
24.4326171875
 41
0.0
 46
0.0
 71
     5
 72
     1
  1
\A1;380
  7
ＭＳ ゴシック
 11
0.0
 21
1.0
 31
0.0
 73
     1
 44
1.0
  0
POINT
  5
1D9B
330
1D92
100
AcDbEntity
  8
Defpoints
 62
     0
100
AcDbPoint
 10
-1432.804517231641
 20
885.7780219789279
 30
0.0
  0
POINT
  5
1D9C
330
1D92
100
AcDbEntity
  8
Defpoints
 62
     0
100
AcDbPoint
 10
-1432.804517231641
 20
1265.778021978928
 30
0.0
  0
POINT
  5
1D9D
330
1D92
100
AcDbEntity
  8
Defpoints
 62
     0
100
AcDbPoint
 10
-1705.379257413715
 20
1265.778021978928
 30
0.0
  0
ENDBLK
  5
1D94
330
1D92
100
AcDbEntity
  8
0
100
AcDbBlockEnd
  0
BLOCK
  5
1DA0
330
1D9F
100
AcDbEntity
  8
0
100
AcDbBlockBegin
  2
*D23
 70
     1
 10
0.0
 20
0.0
 30
0.0
  3
*D23
  1
*D26
  0
LINE
  5
1DA2
330
1D9F
100
AcDbEntity
  8
Dim
  6
Continuous
 62
     0
370
    -2
100
AcDbLine
 10
-1572.205960886243
 20
1265.778021978928
 30
0.0
 11
-1623.565483347781
 21
1265.778021978928
 31
0.0
  0
LINE
  5
1DA3
330
1D9F
100
AcDbEntity
  8
Dim
  6
Continuous
 62
     0
370
    -2
100
AcDbLine
 10
-1572.205960886243
 20
1190.778021978928
 30
0.0
 11
-1623.565483347781
 21
1190.778021978928
 31
0.0
  0
LINE
  5
1DA4
330
1D9F
100
AcDbEntity
  8
Dim
  6
Continuous
 62
     0
370
    -2
100
AcDbLine
 10
-1623.565483347781
 20
1256.778021978928
 30
0.0
 11
-1623.565483347781
 21
1199.778021978928
 31
0.0
  0
INSERT
  5
1DA5
330
1D9F
100
AcDbEntity
  8
Dim
 62
     0
370
    -2
100
AcDbBlockReference
  2
_DOT
 10
-1623.565483347781
 20
1265.778021978928
 30
0.0
 41
9.0
 42
9.0
 43
9.0
 50
90.0
  0
INSERT
  5
1DA6
330
1D9F
100
AcDbEntity
  8
Dim
 62
     0
370
    -2
100
AcDbBlockReference
  2
_DOT
 10
-1623.565483347781
 20
1190.778021978928
 30
0.0
 41
9.0
 42
9.0
 43
9.0
 50
270.0
  0
MTEXT
  5
1DA7
330
1D9F
100
AcDbEntity
  8
Dim
  6
Continuous
 62
     0
100
AcDbMText
 10
-1645.781791941531
 20
1228.278021978928
 30
0.0
 40
24.4326171875
 41
0.0
 46
0.0
 71
     5
 72
     1
  1
\A1;75
  7
ＭＳ ゴシック
 11
0.0
 21
1.0
 31
0.0
 73
     1
 44
1.0
  0
POINT
  5
1DA8
330
1D9F
100
AcDbEntity
  8
Defpoints
 62
     0
100
AcDbPoint
 10
-1547.205960886243
 20
1265.778021978928
 30
0.0
  0
POINT
  5
1DA9
330
1D9F
100
AcDbEntity
  8
Defpoints
 62
     0
100
AcDbPoint
 10
-1547.205960886243
 20
1190.778021978928
 30
0.0
  0
POINT
  5
1DAA
330
1D9F
100
AcDbEntity
  8
Defpoints
 62
     0
100
AcDbPoint
 10
-1623.565483347781
 20
1190.778021978928
 30
0.0
  0
ENDBLK
  5
1DA1
330
1D9F
100
AcDbEntity
  8
0
100
AcDbBlockEnd
  0
BLOCK
  5
1DB2
330
1DB1
100
AcDbEntity
  8
0
100
AcDbBlockBegin
  2
*D24
 70
     1
 10
0.0
 20
0.0
 30
0.0
  3
*D24
  1
*D27
  0
LINE
  5
1DB4
330
1DB1
100
AcDbEntity
  8
Dim
  6
Continuous
 62
     0
370
    -2
100
AcDbLine
 10
-1622.885722117012
 20
1265.778021978928
 30
0.0
 11
-1705.379257413715
 21
1265.778021978928
 31
0.0
  0
LINE
  5
1DB5
330
1DB1
100
AcDbEntity
  8
Dim
  6
Continuous
 62
     0
370
    -2
100
AcDbLine
 10
-1565.627697111213
 20
1470.778021978928
 30
0.0
 11
-1705.379257413715
 21
1470.778021978928
 31
0.0
  0
LINE
  5
1DB6
330
1DB1
100
AcDbEntity
  8
Dim
  6
Continuous
 62
     0
370
    -2
100
AcDbLine
 10
-1705.379257413715
 20
1274.778021978928
 30
0.0
 11
-1705.379257413715
 21
1461.778021978928
 31
0.0
  0
INSERT
  5
1DB7
330
1DB1
100
AcDbEntity
  8
Dim
 62
     0
370
    -2
100
AcDbBlockReference
  2
_DOT
 10
-1705.379257413715
 20
1265.778021978928
 30
0.0
 41
9.0
 42
9.0
 43
9.0
 50
270.0
  0
INSERT
  5
1DB8
330
1DB1
100
AcDbEntity
  8
Dim
 62
     0
370
    -2
100
AcDbBlockReference
  2
_DOT
 10
-1705.379257413715
 20
1470.778021978928
 30
0.0
 41
9.0
 42
9.0
 43
9.0
 50
90.0
  0
MTEXT
  5
1DB9
330
1DB1
100
AcDbEntity
  8
Dim
  6
Continuous
 62
     0
100
AcDbMText
 10
-1727.595566007465
 20
1368.278021978928
 30
0.0
 40
24.4326171875
 41
0.0
 46
0.0
 71
     5
 72
     1
  1
\A1;205
  7
ＭＳ ゴシック
 11
0.0
 21
1.0
 31
0.0
 73
     1
 44
1.0
  0
POINT
  5
1DBA
330
1DB1
100
AcDbEntity
  8
Defpoints
 62
     0
100
AcDbPoint
 10
-1597.885722117012
 20
1265.778021978928
 30
0.0
  0
POINT
  5
1DBB
330
1DB1
100
AcDbEntity
  8
Defpoints
 62
     0
100
AcDbPoint
 10
-1540.627697111213
 20
1470.778021978928
 30
0.0
  0
POINT
  5
1DBC
330
1DB1
100
AcDbEntity
  8
Defpoints
 62
     0
100
AcDbPoint
 10
-1705.379257413715
 20
1470.778021978928
 30
0.0
  0
ENDBLK
  5
1DB3
330
1DB1
100
AcDbEntity
  8
0
100
AcDbBlockEnd
  0
BLOCK
  5
1DCB
330
1DCA
100
AcDbEntity
  8
0
100
AcDbBlockBegin
  2
*D25
 70
     1
 10
0.0
 20
0.0
 30
0.0
  3
*D25
  1
*D28
  0
LINE
  5
1DCD
330
1DCA
100
AcDbEntity
  8
Dim
  6
Continuous
 62
     0
370
    -2
100
AcDbLine
 10
-1530.30452140313
 20
877.6054159631203
 30
0.0
 11
-1530.30452140313
 21
796.7929348378456
 31
0.0
  0
LINE
  5
1DCE
330
1DCA
100
AcDbEntity
  8
Dim
  6
Continuous
 62
     0
370
    -2
100
AcDbLine
 10
-1335.30452140313
 20
877.6054159631203
 30
0.0
 11
-1335.30452140313
 21
796.7929348378456
 31
0.0
  0
LINE
  5
1DCF
330
1DCA
100
AcDbEntity
  8
Dim
  6
Continuous
 62
     0
370
    -2
100
AcDbLine
 10
-1521.30452140313
 20
796.7929348378456
 30
0.0
 11
-1344.30452140313
 21
796.7929348378456
 31
0.0
  0
INSERT
  5
1DD0
330
1DCA
100
AcDbEntity
  8
Dim
 62
     0
370
    -2
100
AcDbBlockReference
  2
_DOT
 10
-1530.30452140313
 20
796.7929348378456
 30
0.0
 41
9.0
 42
9.0
 43
9.0
 50
180.0
  0
INSERT
  5
1DD1
330
1DCA
100
AcDbEntity
  8
Dim
 62
     0
370
    -2
100
AcDbBlockReference
  2
_DOT
 10
-1335.30452140313
 20
796.7929348378456
 30
0.0
 41
9.0
 42
9.0
 43
9.0
  0
MTEXT
  5
1DD2
330
1DCA
100
AcDbEntity
  8
Dim
  6
Continuous
 62
     0
100
AcDbMText
 10
-1432.80452140313
 20
819.0092434315956
 30
0.0
 40
24.4326171875
 41
0.0
 46
0.0
 71
     5
 72
     1
  1
\A1;195
  7
ＭＳ ゴシック
 73
     1
 44
1.0
  0
POINT
  5
1DD3
330
1DCA
100
AcDbEntity
  8
Defpoints
 62
     0
100
AcDbPoint
 10
-1530.30452140313
 20
902.6054159631203
 30
0.0
  0
POINT
  5
1DD4
330
1DCA
100
AcDbEntity
  8
Defpoints
 62
     0
100
AcDbPoint
 10
-1335.30452140313
 20
902.6054159631203
 30
0.0
  0
POINT
  5
1DD5
330
1DCA
100
AcDbEntity
  8
Defpoints
 62
     0
100
AcDbPoint
 10
-1335.30452140313
 20
796.7929348378456
 30
0.0
  0
ENDBLK
  5
1DCC
330
1DCA
100
AcDbEntity
  8
0
100
AcDbBlockEnd
  0
BLOCK
  5
1DDC
330
1DDB
100
AcDbEntity
  8
0
100
AcDbBlockBegin
  2
*D26
 70
     1
 10
0.0
 20
0.0
 30
0.0
  3
*D26
  1
*D29
  0
LINE
  5
1DDE
330
1DDB
100
AcDbEntity
  8
Dim
  6
Continuous
 62
     0
370
    -2
100
AcDbLine
 10
-1364.170504396476
 20
885.7780219789279
 30
0.0
 11
-1192.517986216988
 21
885.7780219789279
 31
0.0
  0
LINE
  5
1DDF
330
1DDB
100
AcDbEntity
  8
Dim
  6
Continuous
 62
     0
370
    -2
100
AcDbLine
 10
-1378.298569699065
 20
1005.777407354091
 30
0.0
 11
-1192.517986216988
 21
1005.777407354091
 31
0.0
  0
LINE
  5
1DE0
330
1DDB
100
AcDbEntity
  8
Dim
  6
Continuous
 62
     0
370
    -2
100
AcDbLine
 10
-1192.517986216988
 20
894.7780219789279
 30
0.0
 11
-1192.517986216988
 21
996.777407354091
 31
0.0
  0
INSERT
  5
1DE1
330
1DDB
100
AcDbEntity
  8
Dim
 62
     0
370
    -2
100
AcDbBlockReference
  2
_DOT
 10
-1192.517986216988
 20
885.7780219789279
 30
0.0
 41
9.0
 42
9.0
 43
9.0
 50
270.0
  0
INSERT
  5
1DE2
330
1DDB
100
AcDbEntity
  8
Dim
 62
     0
370
    -2
100
AcDbBlockReference
  2
_DOT
 10
-1192.517986216988
 20
1005.777407354091
 30
0.0
 41
9.0
 42
9.0
 43
9.0
 50
90.0
  0
MTEXT
  5
1DE3
330
1DDB
100
AcDbEntity
  8
Dim
  6
Continuous
 62
     0
100
AcDbMText
 10
-1214.734294810738
 20
945.7777146665094
 30
0.0
 40
24.4326171875
 41
0.0
 46
0.0
 71
     5
 72
     1
  1
\A1;120
  7
ＭＳ ゴシック
 11
0.0
 21
1.0
 31
0.0
 73
     1
 44
1.0
  0
POINT
  5
1DE4
330
1DDB
100
AcDbEntity
  8
Defpoints
 62
     0
100
AcDbPoint
 10
-1389.170504396476
 20
885.7780219789279
 30
0.0
  0
POINT
  5
1DE5
330
1DDB
100
AcDbEntity
  8
Defpoints
 62
     0
100
AcDbPoint
 10
-1403.298569699065
 20
1005.777407354091
 30
0.0
  0
POINT
  5
1DE6
330
1DDB
100
AcDbEntity
  8
Defpoints
 62
     0
100
AcDbPoint
 10
-1192.517986216988
 20
1005.777407354091
 30
0.0
  0
ENDBLK
  5
1DDD
330
1DDB
100
AcDbEntity
  8
0
100
AcDbBlockEnd
  0
BLOCK
  5
1DEC
330
1DEB
100
AcDbEntity
  8
0
100
AcDbBlockBegin
  2
*D27
 70
     1
 10
0.0
 20
0.0
 30
0.0
  3
*D27
  1
*D30
  0
LINE
  5
1DEE
330
1DEB
100
AcDbEntity
  8
Dim
  6
Continuous
 62
     0
370
    -2
100
AcDbLine
 10
-1353.298569699065
 20
1005.777407354091
 30
0.0
 11
-1192.517986216988
 21
1005.777407354091
 31
0.0
  0
LINE
  5
1DEF
330
1DEB
100
AcDbEntity
  8
Dim
  6
Continuous
 62
     0
370
    -2
100
AcDbLine
 10
-1302.803646357202
 20
1190.777311358189
 30
0.0
 11
-1192.517986216988
 21
1190.777311358189
 31
0.0
  0
LINE
  5
1DF0
330
1DEB
100
AcDbEntity
  8
Dim
  6
Continuous
 62
     0
370
    -2
100
AcDbLine
 10
-1192.517986216988
 20
1014.777407354091
 30
0.0
 11
-1192.517986216988
 21
1181.777311358189
 31
0.0
  0
INSERT
  5
1DF1
330
1DEB
100
AcDbEntity
  8
Dim
 62
     0
370
    -2
100
AcDbBlockReference
  2
_DOT
 10
-1192.517986216988
 20
1005.777407354091
 30
0.0
 41
9.0
 42
9.0
 43
9.0
 50
270.0
  0
INSERT
  5
1DF2
330
1DEB
100
AcDbEntity
  8
Dim
 62
     0
370
    -2
100
AcDbBlockReference
  2
_DOT
 10
-1192.517986216988
 20
1190.777311358189
 30
0.0
 41
9.0
 42
9.0
 43
9.0
 50
90.0
  0
MTEXT
  5
1DF3
330
1DEB
100
AcDbEntity
  8
Dim
  6
Continuous
 62
     0
100
AcDbMText
 10
-1214.734294810738
 20
1098.27735935614
 30
0.0
 40
24.4326171875
 41
0.0
 46
0.0
 71
     5
 72
     1
  1
\A1;185
  7
ＭＳ ゴシック
 11
0.0
 21
1.0
 31
0.0
 73
     1
 44
1.0
  0
POINT
  5
1DF4
330
1DEB
100
AcDbEntity
  8
Defpoints
 62
     0
100
AcDbPoint
 10
-1378.298569699065
 20
1005.777407354091
 30
0.0
  0
POINT
  5
1DF5
330
1DEB
100
AcDbEntity
  8
Defpoints
 62
     0
100
AcDbPoint
 10
-1327.803646357202
 20
1190.777311358189
 30
0.0
  0
POINT
  5
1DF6
330
1DEB
100
AcDbEntity
  8
Defpoints
 62
     0
100
AcDbPoint
 10
-1192.517986216988
 20
1190.777311358189
 30
0.0
  0
ENDBLK
  5
1DED
330
1DEB
100
AcDbEntity
  8
0
100
AcDbBlockEnd
  0
BLOCK
  5
1DFC
330
1DFB
100
AcDbEntity
  8
0
100
AcDbBlockBegin
  2
*D28
 70
     1
 10
0.0
 20
0.0
 30
0.0
  3
*D28
  1
*D31
  0
LINE
  5
1DFE
330
1DFB
100
AcDbEntity
  8
Dim
  6
Continuous
 62
     0
370
    -2
100
AcDbLine
 10
-1277.803646357202
 20
1190.777311358189
 30
0.0
 11
-1192.517986216988
 21
1190.777311358189
 31
0.0
  0
LINE
  5
1DFF
330
1DFB
100
AcDbEntity
  8
Dim
  6
Continuous
 62
     0
370
    -2
100
AcDbLine
 10
-1386.321594576895
 20
1410.777407354091
 30
0.0
 11
-1192.517986216988
 21
1410.777407354091
 31
0.0
  0
LINE
  5
1E00
330
1DFB
100
AcDbEntity
  8
Dim
  6
Continuous
 62
     0
370
    -2
100
AcDbLine
 10
-1192.517986216988
 20
1199.777311358189
 30
0.0
 11
-1192.517986216988
 21
1401.777407354091
 31
0.0
  0
INSERT
  5
1E01
330
1DFB
100
AcDbEntity
  8
Dim
 62
     0
370
    -2
100
AcDbBlockReference
  2
_DOT
 10
-1192.517986216988
 20
1190.777311358189
 30
0.0
 41
9.0
 42
9.0
 43
9.0
 50
270.0
  0
INSERT
  5
1E02
330
1DFB
100
AcDbEntity
  8
Dim
 62
     0
370
    -2
100
AcDbBlockReference
  2
_DOT
 10
-1192.517986216988
 20
1410.777407354091
 30
0.0
 41
9.0
 42
9.0
 43
9.0
 50
90.0
  0
MTEXT
  5
1E03
330
1DFB
100
AcDbEntity
  8
Dim
  6
Continuous
 62
     0
100
AcDbMText
 10
-1214.734294810738
 20
1300.77735935614
 30
0.0
 40
24.4326171875
 41
0.0
 46
0.0
 71
     5
 72
     1
  1
\A1;220
  7
ＭＳ ゴシック
 11
0.0
 21
1.0
 31
0.0
 73
     1
 44
1.0
  0
POINT
  5
1E04
330
1DFB
100
AcDbEntity
  8
Defpoints
 62
     0
100
AcDbPoint
 10
-1302.803646357202
 20
1190.777311358189
 30
0.0
  0
POINT
  5
1E05
330
1DFB
100
AcDbEntity
  8
Defpoints
 62
     0
100
AcDbPoint
 10
-1411.321594576895
 20
1410.777407354091
 30
0.0
  0
POINT
  5
1E06
330
1DFB
100
AcDbEntity
  8
Defpoints
 62
     0
100
AcDbPoint
 10
-1192.517986216988
 20
1410.777407354091
 30
0.0
  0
ENDBLK
  5
1DFD
330
1DFB
100
AcDbEntity
  8
0
100
AcDbBlockEnd
  0
BLOCK
  5
1E1A
330
1E19
100
AcDbEntity
  8
0
100
AcDbBlockBegin
  2
*D29
 70
     1
 10
0.0
 20
0.0
 30
0.0
  3
*D29
  1
*D32
  0
LINE
  5
1E1C
330
1E19
100
AcDbEntity
  8
Dim
  6
Continuous
 62
     0
370
    -2
100
AcDbLine
 10
-484.5934262932287
 20
1470.776741163754
 30
0.0
 11
-406.0514521839116
 21
1470.776741163754
 31
0.0
  0
LINE
  5
1E1D
330
1E19
100
AcDbEntity
  8
Dim
  6
Continuous
 62
     0
370
    -2
100
AcDbLine
 10
-464.0068555325936
 20
1410.776835260251
 30
0.0
 11
-406.0514521839116
 21
1410.776835260251
 31
0.0
  0
LINE
  5
1E1E
330
1E19
100
AcDbEntity
  8
Dim
  6
Continuous
 62
     0
370
    -2
100
AcDbLine
 10
-406.0514521839116
 20
1461.776741163754
 30
0.0
 11
-406.0514521839116
 21
1419.776835260251
 31
0.0
  0
INSERT
  5
1E1F
330
1E19
100
AcDbEntity
  8
Dim
 62
     0
370
    -2
100
AcDbBlockReference
  2
_DOT
 10
-406.0514521839116
 20
1470.776741163754
 30
0.0
 41
9.0
 42
9.0
 43
9.0
 50
90.0
  0
INSERT
  5
1E20
330
1E19
100
AcDbEntity
  8
Dim
 62
     0
370
    -2
100
AcDbBlockReference
  2
_DOT
 10
-406.0514521839116
 20
1410.776835260251
 30
0.0
 41
9.0
 42
9.0
 43
9.0
 50
270.0
  0
MTEXT
  5
1E21
330
1E19
100
AcDbEntity
  8
Dim
  6
Continuous
 62
     0
100
AcDbMText
 10
-428.2677607776616
 20
1440.776788212002
 30
0.0
 40
24.4326171875
 41
0.0
 46
0.0
 71
     5
 72
     1
  1
\A1;60
  7
ＭＳ ゴシック
 11
0.0
 21
1.0
 31
0.0
 73
     1
 44
1.0
  0
POINT
  5
1E22
330
1E19
100
AcDbEntity
  8
Defpoints
 62
     0
100
AcDbPoint
 10
-509.5934262932287
 20
1470.776741163754
 30
0.0
  0
POINT
  5
1E23
330
1E19
100
AcDbEntity
  8
Defpoints
 62
     0
100
AcDbPoint
 10
-489.0068555325936
 20
1410.776835260251
 30
0.0
  0
POINT
  5
1E24
330
1E19
100
AcDbEntity
  8
Defpoints
 62
     0
100
AcDbPoint
 10
-406.0514521839116
 20
1410.776835260251
 30
0.0
  0
ENDBLK
  5
1E1B
330
1E19
100
AcDbEntity
  8
0
100
AcDbBlockEnd
  0
BLOCK
  5
1E27
330
1E26
100
AcDbEntity
  8
0
100
AcDbBlockBegin
  2
*D30
 70
     1
 10
0.0
 20
0.0
 30
0.0
  3
*D30
  1
*D33
  0
LINE
  5
1E29
330
1E26
100
AcDbEntity
  8
Dim
  6
Continuous
 62
     0
370
    -2
100
AcDbLine
 10
-459.5934262932287
 20
1470.776741163754
 30
0.0
 11
-223.5609203034016
 21
1470.776741163754
 31
0.0
  0
LINE
  5
1E2A
330
1E26
100
AcDbEntity
  8
Dim
  6
Continuous
 62
     0
370
    -2
100
AcDbLine
 10
-459.5934262932287
 20
885.7767411637535
 30
0.0
 11
-223.5609203034016
 21
885.7767411637535
 31
0.0
  0
LINE
  5
1E2B
330
1E26
100
AcDbEntity
  8
Dim
  6
Continuous
 62
     0
370
    -2
100
AcDbLine
 10
-223.5609203034016
 20
1461.776741163754
 30
0.0
 11
-223.5609203034016
 21
894.7767411637535
 31
0.0
  0
INSERT
  5
1E2C
330
1E26
100
AcDbEntity
  8
Dim
 62
     0
370
    -2
100
AcDbBlockReference
  2
_DOT
 10
-223.5609203034016
 20
1470.776741163754
 30
0.0
 41
9.0
 42
9.0
 43
9.0
 50
90.0
  0
INSERT
  5
1E2D
330
1E26
100
AcDbEntity
  8
Dim
 62
     0
370
    -2
100
AcDbBlockReference
  2
_DOT
 10
-223.5609203034016
 20
885.7767411637535
 30
0.0
 41
9.0
 42
9.0
 43
9.0
 50
270.0
  0
MTEXT
  5
1E2E
330
1E26
100
AcDbEntity
  8
Dim
  6
Continuous
 62
     0
100
AcDbMText
 10
-245.7772288971516
 20
1178.276741163754
 30
0.0
 40
24.4326171875
 41
0.0
 46
0.0
 71
     5
 72
     1
  1
\A1;585
  7
ＭＳ ゴシック
 11
4.858411868445126E-17
 21
1.0
 31
0.0
 73
     1
 44
1.0
  0
POINT
  5
1E2F
330
1E26
100
AcDbEntity
  8
Defpoints
 62
     0
100
AcDbPoint
 10
-484.5934262932287
 20
1470.776741163754
 30
0.0
  0
POINT
  5
1E30
330
1E26
100
AcDbEntity
  8
Defpoints
 62
     0
100
AcDbPoint
 10
-484.5934262932287
 20
885.7767411637535
 30
0.0
  0
POINT
  5
1E31
330
1E26
100
AcDbEntity
  8
Defpoints
 62
     0
100
AcDbPoint
 10
-223.5609203034016
 20
885.7767411637535
 30
0.0
  0
ENDBLK
  5
1E28
330
1E26
100
AcDbEntity
  8
0
100
AcDbBlockEnd
  0
BLOCK
  5
1E34
330
1E33
100
AcDbEntity
  8
0
100
AcDbBlockBegin
  2
*D31
 70
     1
 10
0.0
 20
0.0
 30
0.0
  3
*D31
  1
*D34
  0
LINE
  5
1E36
330
1E33
100
AcDbEntity
  8
Dim
  6
Continuous
 62
     0
370
    -2
100
AcDbLine
 10
-459.5934262932287
 20
1410.776741163754
 30
0.0
 11
-406.0514521839116
 21
1410.776741163754
 31
0.0
  0
LINE
  5
1E37
330
1E33
100
AcDbEntity
  8
Dim
  6
Continuous
 62
     0
370
    -2
100
AcDbLine
 10
-459.5934262932287
 20
1085.776741163754
 30
0.0
 11
-406.0514521839116
 21
1085.776741163754
 31
0.0
  0
LINE
  5
1E38
330
1E33
100
AcDbEntity
  8
Dim
  6
Continuous
 62
     0
370
    -2
100
AcDbLine
 10
-406.0514521839116
 20
1401.776741163754
 30
0.0
 11
-406.0514521839116
 21
1094.776741163754
 31
0.0
  0
INSERT
  5
1E39
330
1E33
100
AcDbEntity
  8
Dim
 62
     0
370
    -2
100
AcDbBlockReference
  2
_DOT
 10
-406.0514521839116
 20
1410.776741163754
 30
0.0
 41
9.0
 42
9.0
 43
9.0
 50
90.0
  0
INSERT
  5
1E3A
330
1E33
100
AcDbEntity
  8
Dim
 62
     0
370
    -2
100
AcDbBlockReference
  2
_DOT
 10
-406.0514521839116
 20
1085.776741163754
 30
0.0
 41
9.0
 42
9.0
 43
9.0
 50
270.0
  0
MTEXT
  5
1E3B
330
1E33
100
AcDbEntity
  8
Dim
  6
Continuous
 62
     0
100
AcDbMText
 10
-428.2677607776616
 20
1248.276741163754
 30
0.0
 40
24.4326171875
 41
0.0
 46
0.0
 71
     5
 72
     1
  1
\A1;325
  7
ＭＳ ゴシック
 11
0.0
 21
1.0
 31
0.0
 73
     1
 44
1.0
  0
POINT
  5
1E3C
330
1E33
100
AcDbEntity
  8
Defpoints
 62
     0
100
AcDbPoint
 10
-484.5934262932287
 20
1410.776741163754
 30
0.0
  0
POINT
  5
1E3D
330
1E33
100
AcDbEntity
  8
Defpoints
 62
     0
100
AcDbPoint
 10
-484.5934262932287
 20
1085.776741163754
 30
0.0
  0
POINT
  5
1E3E
330
1E33
100
AcDbEntity
  8
Defpoints
 62
     0
100
AcDbPoint
 10
-406.0514521839116
 20
1085.776741163754
 30
0.0
  0
ENDBLK
  5
1E35
330
1E33
100
AcDbEntity
  8
0
100
AcDbBlockEnd
  0
BLOCK
  5
1E41
330
1E40
100
AcDbEntity
  8
0
100
AcDbBlockBegin
  2
*D32
 70
     1
 10
0.0
 20
0.0
 30
0.0
  3
*D32
  1
*D35
  0
LINE
  5
1E43
330
1E40
100
AcDbEntity
  8
Dim
  6
Continuous
 62
     0
370
    -2
100
AcDbLine
 10
-391.1090921424166
 20
1410.776741163754
 30
0.0
 11
-311.3874613380217
 21
1410.776741163754
 31
0.0
  0
LINE
  5
1E44
330
1E40
100
AcDbEntity
  8
Dim
  6
Continuous
 62
     0
370
    -2
100
AcDbLine
 10
-391.1090921424166
 20
1005.776741163754
 30
0.0
 11
-311.3874613380217
 21
1005.776741163754
 31
0.0
  0
LINE
  5
1E45
330
1E40
100
AcDbEntity
  8
Dim
  6
Continuous
 62
     0
370
    -2
100
AcDbLine
 10
-311.3874613380217
 20
1401.776741163754
 30
0.0
 11
-311.3874613380217
 21
1014.776741163754
 31
0.0
  0
INSERT
  5
1E46
330
1E40
100
AcDbEntity
  8
Dim
 62
     0
370
    -2
100
AcDbBlockReference
  2
_DOT
 10
-311.3874613380217
 20
1410.776741163754
 30
0.0
 41
9.0
 42
9.0
 43
9.0
 50
90.0
  0
INSERT
  5
1E47
330
1E40
100
AcDbEntity
  8
Dim
 62
     0
370
    -2
100
AcDbBlockReference
  2
_DOT
 10
-311.3874613380217
 20
1005.776741163754
 30
0.0
 41
9.0
 42
9.0
 43
9.0
 50
270.0
  0
MTEXT
  5
1E48
330
1E40
100
AcDbEntity
  8
Dim
  6
Continuous
 62
     0
100
AcDbMText
 10
-333.6037699317717
 20
1208.276741163754
 30
0.0
 40
24.4326171875
 41
0.0
 46
0.0
 71
     5
 72
     1
  1
\A1;405
  7
ＭＳ ゴシック
 11
0.0
 21
1.0
 31
0.0
 73
     1
 44
1.0
  0
POINT
  5
1E49
330
1E40
100
AcDbEntity
  8
Defpoints
 62
     0
100
AcDbPoint
 10
-416.1090921424166
 20
1410.776741163754
 30
0.0
  0
POINT
  5
1E4A
330
1E40
100
AcDbEntity
  8
Defpoints
 62
     0
100
AcDbPoint
 10
-416.1090921424166
 20
1005.776741163754
 30
0.0
  0
POINT
  5
1E4B
330
1E40
100
AcDbEntity
  8
Defpoints
 62
     0
100
AcDbPoint
 10
-311.3874613380217
 20
1005.776741163754
 30
0.0
  0
ENDBLK
  5
1E42
330
1E40
100
AcDbEntity
  8
0
100
AcDbBlockEnd
  0
BLOCK
  5
1EF0
330
1EEF
100
AcDbEntity
  8
0
100
AcDbBlockBegin
  2
*D33
 70
     1
 10
0.0
 20
0.0
 30
0.0
  3
*D33
  1
*D35
  0
LINE
  5
1EF2
330
1EEF
100
AcDbEntity
  8
Dim
  6
Continuous
 62
     0
370
    -2
100
AcDbLine
 10
-504.5934252228876
 20
1490.776741225511
 30
0.0
 11
-504.5934252228876
 21
1549.42259284148
 31
0.0
  0
LINE
  5
1EF3
330
1EEF
100
AcDbEntity
  8
Dim
  6
Continuous
 62
     0
370
    -2
100
AcDbLine
 10
-569.5934252228876
 20
1452.776835260251
 30
0.0
 11
-569.5934252228876
 21
1549.42259284148
 31
0.0
  0
LINE
  5
1EF4
330
1EEF
100
AcDbEntity
  8
Dim
  6
Continuous
 62
     0
370
    -2
100
AcDbLine
 10
-513.5934252228876
 20
1549.42259284148
 30
0.0
 11
-560.5934252228876
 21
1549.42259284148
 31
0.0
  0
INSERT
  5
1EF5
330
1EEF
100
AcDbEntity
  8
Dim
 62
     0
370
    -2
100
AcDbBlockReference
  2
_DOT
 10
-504.5934252228876
 20
1549.42259284148
 30
0.0
 41
9.0
 42
9.0
 43
9.0
  0
INSERT
  5
1EF6
330
1EEF
100
AcDbEntity
  8
Dim
 62
     0
370
    -2
100
AcDbBlockReference
  2
_DOT
 10
-569.5934252228876
 20
1549.42259284148
 30
0.0
 41
9.0
 42
9.0
 43
9.0
 50
180.0
  0
MTEXT
  5
1EF7
330
1EEF
100
AcDbEntity
  8
Dim
  6
Continuous
 62
     0
100
AcDbMText
 10
-537.0934252228876
 20
1571.63890143523
 30
0.0
 40
24.4326171875
 41
0.0
 46
0.0
 71
     5
 72
     1
  1
\A1;65
  7
ＭＳ ゴシック
 73
     1
 44
1.0
  0
POINT
  5
1EF8
330
1EEF
100
AcDbEntity
  8
Defpoints
 62
     0
100
AcDbPoint
 10
-504.5934252228876
 20
1465.776741225511
 30
0.0
  0
POINT
  5
1EF9
330
1EEF
100
AcDbEntity
  8
Defpoints
 62
     0
100
AcDbPoint
 10
-569.5934252228876
 20
1427.776835260251
 30
0.0
  0
POINT
  5
1EFA
330
1EEF
100
AcDbEntity
  8
Defpoints
 62
     0
100
AcDbPoint
 10
-569.5934252228876
 20
1549.42259284148
 30
0.0
  0
ENDBLK
  5
1EF1
330
1EEF
100
AcDbEntity
  8
0
100
AcDbBlockEnd
  0
BLOCK
  5
2583
330
2582
100
AcDbEntity
  8
0
100
AcDbBlockBegin
  2
*D34
 70
     1
 10
0.0
 20
0.0
 30
0.0
  3
*D34
  1
*D35
  0
LINE
  5
2585
330
2582
100
AcDbEntity
  8
Dim
  6
Continuous
 62
     0
370
    -2
100
AcDbLine
 10
460.4281188021787
 20
2469.058259589189
 30
0.0
 11
460.4281188021787
 21
2554.351999783783
 31
0.0
  0
LINE
  5
2586
330
2582
100
AcDbEntity
  8
Dim
  6
Continuous
 62
     0
370
    -2
100
AcDbLine
 10
840.4281188021787
 20
2469.058259589189
 30
0.0
 11
840.4281188021787
 21
2554.351999783783
 31
0.0
  0
LINE
  5
2587
330
2582
100
AcDbEntity
  8
Dim
  6
Continuous
 62
     0
370
    -2
100
AcDbLine
 10
469.4281188021787
 20
2554.351999783783
 30
0.0
 11
831.4281188021787
 21
2554.351999783783
 31
0.0
  0
INSERT
  5
2588
330
2582
100
AcDbEntity
  8
Dim
 62
     0
370
    -2
100
AcDbBlockReference
  2
_DOT
 10
460.4281188021787
 20
2554.351999783783
 30
0.0
 41
9.0
 42
9.0
 43
9.0
 50
180.0
  0
INSERT
  5
2589
330
2582
100
AcDbEntity
  8
Dim
 62
     0
370
    -2
100
AcDbBlockReference
  2
_DOT
 10
840.4281188021787
 20
2554.351999783783
 30
0.0
 41
9.0
 42
9.0
 43
9.0
  0
MTEXT
  5
258A
330
2582
100
AcDbEntity
  8
Dim
  6
Continuous
 62
     0
100
AcDbMText
 10
650.4281188021787
 20
2576.568308377533
 30
0.0
 40
24.4326171875
 41
0.0
 46
0.0
 71
     5
 72
     1
  1
\A1;380
  7
ＭＳ ゴシック
 73
     1
 44
1.0
  0
POINT
  5
258B
330
2582
100
AcDbEntity
  8
Defpoints
 62
     0
100
AcDbPoint
 10
460.4281188021787
 20
2444.058259589189
 30
0.0
  0
POINT
  5
258C
330
2582
100
AcDbEntity
  8
Defpoints
 62
     0
100
AcDbPoint
 10
840.4281188021787
 20
2444.058259589189
 30
0.0
  0
POINT
  5
258D
330
2582
100
AcDbEntity
  8
Defpoints
 62
     0
100
AcDbPoint
 10
840.4281188021787
 20
2554.351999783783
 30
0.0
  0
ENDBLK
  5
2584
330
2582
100
AcDbEntity
  8
0
100
AcDbBlockEnd
  0
BLOCK
  5
2590
330
258F
100
AcDbEntity
  8
0
100
AcDbBlockBegin
  2
*D35
 70
     1
 10
0.0
 20
0.0
 30
0.0
  3
*D35
  1
*D36
  0
LINE
  5
2592
330
258F
100
AcDbEntity
  8
Dim
  6
Continuous
 62
     0
370
    -2
100
AcDbLine
 10
992.5789482075841
 20
2298.49738165095
 30
0.0
 11
1103.664476619811
 21
2298.49738165095
 31
0.0
  0
LINE
  5
2593
330
258F
100
AcDbEntity
  8
Dim
  6
Continuous
 62
     0
370
    -2
100
AcDbLine
 10
818.386844066298
 20
1933.49738165095
 30
0.0
 11
1103.664476619811
 21
1933.49738165095
 31
0.0
  0
LINE
  5
2594
330
258F
100
AcDbEntity
  8
Dim
  6
Continuous
 62
     0
370
    -2
100
AcDbLine
 10
1103.664476619811
 20
2289.49738165095
 30
0.0
 11
1103.664476619811
 21
1942.49738165095
 31
0.0
  0
INSERT
  5
2595
330
258F
100
AcDbEntity
  8
Dim
 62
     0
370
    -2
100
AcDbBlockReference
  2
_DOT
 10
1103.664476619811
 20
2298.49738165095
 30
0.0
 41
9.0
 42
9.0
 43
9.0
 50
90.0
  0
INSERT
  5
2596
330
258F
100
AcDbEntity
  8
Dim
 62
     0
370
    -2
100
AcDbBlockReference
  2
_DOT
 10
1103.664476619811
 20
1933.49738165095
 30
0.0
 41
9.0
 42
9.0
 43
9.0
 50
270.0
  0
MTEXT
  5
2597
330
258F
100
AcDbEntity
  8
Dim
  6
Continuous
 62
     0
100
AcDbMText
 10
1081.448168026061
 20
2115.99738165095
 30
0.0
 40
24.4326171875
 41
0.0
 46
0.0
 71
     5
 72
     1
  1
\A1;365
  7
ＭＳ ゴシック
 11
0.0
 21
1.0
 31
0.0
 73
     1
 44
1.0
  0
POINT
  5
2598
330
258F
100
AcDbEntity
  8
Defpoints
 62
     0
100
AcDbPoint
 10
967.5789482075841
 20
2298.49738165095
 30
0.0
  0
POINT
  5
2599
330
258F
100
AcDbEntity
  8
Defpoints
 62
     0
100
AcDbPoint
 10
793.386844066298
 20
1933.49738165095
 30
0.0
  0
POINT
  5
259A
330
258F
100
AcDbEntity
  8
Defpoints
 62
     0
100
AcDbPoint
 10
1103.664476619811
 20
1933.49738165095
 30
0.0
  0
ENDBLK
  5
2591
330
258F
100
AcDbEntity
  8
0
100
AcDbBlockEnd
  0
BLOCK
  5
25A6
330
25A5
100
AcDbEntity
  8
0
100
AcDbBlockBegin
  2
*D36
 70
     1
 10
0.0
 20
0.0
 30
0.0
  3
*D36
  1
*D37
  0
LINE
  5
25A8
330
25A5
100
AcDbEntity
  8
Dim
  6
Continuous
 62
     0
370
    -2
100
AcDbLine
 10
435.1845866940705
 20
2441.779814083382
 30
0.0
 11
324.0990582818431
 21
2441.779814083382
 31
0.0
  0
LINE
  5
25A9
330
25A5
100
AcDbEntity
  8
Dim
  6
Continuous
 62
     0
370
    -2
100
AcDbLine
 10
609.3766908353566
 20
2076.779814083382
 30
0.0
 11
324.0990582818431
 21
2076.779814083382
 31
0.0
  0
LINE
  5
25AA
330
25A5
100
AcDbEntity
  8
Dim
  6
Continuous
 62
     0
370
    -2
100
AcDbLine
 10
324.0990582818431
 20
2432.779814083382
 30
0.0
 11
324.0990582818431
 21
2085.779814083382
 31
0.0
  0
INSERT
  5
25AB
330
25A5
100
AcDbEntity
  8
Dim
 62
     0
370
    -2
100
AcDbBlockReference
  2
_DOT
 10
324.0990582818431
 20
2441.779814083382
 30
0.0
 41
9.0
 42
9.0
 43
9.0
 50
90.00000000000001
  0
INSERT
  5
25AC
330
25A5
100
AcDbEntity
  8
Dim
 62
     0
370
    -2
100
AcDbBlockReference
  2
_DOT
 10
324.0990582818431
 20
2076.779814083382
 30
0.0
 41
9.0
 42
9.0
 43
9.0
 50
270.0
  0
MTEXT
  5
25AD
330
25A5
100
AcDbEntity
  8
Dim
  6
Continuous
 62
     0
100
AcDbMText
 10
301.8827496880931
 20
2259.279814083382
 30
0.0
 40
24.4326171875
 41
0.0
 46
0.0
 71
     5
 72
     1
  1
\A1;365
  7
ＭＳ ゴシック
 11
-1.557353941392000E-16
 21
1.0
 31
0.0
 73
     1
 44
1.0
  0
POINT
  5
25AE
330
25A5
100
AcDbEntity
  8
Defpoints
 62
     0
100
AcDbPoint
 10
460.1845866940705
 20
2441.779814083382
 30
0.0
  0
POINT
  5
25AF
330
25A5
100
AcDbEntity
  8
Defpoints
 62
     0
100
AcDbPoint
 10
634.3766908353566
 20
2076.779814083382
 30
0.0
  0
POINT
  5
25B0
330
25A5
100
AcDbEntity
  8
Defpoints
 62
     0
100
AcDbPoint
 10
324.0990582818431
 20
2076.779814083382
 30
0.0
  0
ENDBLK
  5
25A7
330
25A5
100
AcDbEntity
  8
0
100
AcDbBlockEnd
  0
BLOCK
  5
25B8
330
25B7
100
AcDbEntity
  8
0
100
AcDbBlockBegin
  2
*D37
 70
     1
 10
0.0
 20
0.0
 30
0.0
  3
*D37
  1
*D38
  0
LINE
  5
25BA
330
25B7
100
AcDbEntity
  8
Dim
  6
Continuous
 62
     0
370
    -2
100
AcDbLine
 10
475.4281188021787
 20
1693.17683097081
 30
0.0
 11
365.6584761553786
 21
1693.17683097081
 31
0.0
  0
LINE
  5
25BB
330
25B7
100
AcDbEntity
  8
Dim
  6
Continuous
 62
     0
370
    -2
100
AcDbLine
 10
475.4281188021787
 20
1638.17683097081
 30
0.0
 11
365.6584761553786
 21
1638.17683097081
 31
0.0
  0
LINE
  5
25BC
330
25B7
100
AcDbEntity
  8
Dim
  6
Continuous
 62
     0
370
    -2
100
AcDbLine
 10
365.6584761553786
 20
1684.17683097081
 30
0.0
 11
365.6584761553786
 21
1647.17683097081
 31
0.0
  0
INSERT
  5
25BD
330
25B7
100
AcDbEntity
  8
Dim
 62
     0
370
    -2
100
AcDbBlockReference
  2
_DOT
 10
365.6584761553786
 20
1693.17683097081
 30
0.0
 41
9.0
 42
9.0
 43
9.0
 50
90.0
  0
INSERT
  5
25BE
330
25B7
100
AcDbEntity
  8
Dim
 62
     0
370
    -2
100
AcDbBlockReference
  2
_DOT
 10
365.6584761553786
 20
1638.17683097081
 30
0.0
 41
9.0
 42
9.0
 43
9.0
 50
270.0
  0
MTEXT
  5
25BF
330
25B7
100
AcDbEntity
  8
Dim
  6
Continuous
 62
     0
100
AcDbMText
 10
343.4421675616286
 20
1665.67683097081
 30
0.0
 40
24.4326171875
 41
0.0
 46
0.0
 71
     5
 72
     1
  1
\A1;55
  7
ＭＳ ゴシック
 11
0.0
 21
1.0
 31
0.0
 73
     1
 44
1.0
  0
POINT
  5
25C0
330
25B7
100
AcDbEntity
  8
Defpoints
 62
     0
100
AcDbPoint
 10
500.4281188021787
 20
1693.17683097081
 30
0.0
  0
POINT
  5
25C1
330
25B7
100
AcDbEntity
  8
Defpoints
 62
     0
100
AcDbPoint
 10
500.4281188021787
 20
1638.17683097081
 30
0.0
  0
POINT
  5
25C2
330
25B7
100
AcDbEntity
  8
Defpoints
 62
     0
100
AcDbPoint
 10
365.6584761553786
 20
1638.17683097081
 30
0.0
  0
ENDBLK
  5
25B9
330
25B7
100
AcDbEntity
  8
0
100
AcDbBlockEnd
  0
BLOCK
  5
25C6
330
25C5
100
AcDbEntity
  8
0
100
AcDbBlockBegin
  2
*D38
 70
     1
 10
0.0
 20
0.0
 30
0.0
  3
*D38
  1
*D39
  0
LINE
  5
25C8
330
25C5
100
AcDbEntity
  8
Dim
  6
Continuous
 62
     0
370
    -2
100
AcDbLine
 10
1689.733991479169
 20
1603.113587727567
 30
0.0
 11
1775.23010858781
 21
1603.113587727567
 31
0.0
  0
LINE
  5
25C9
330
25C5
100
AcDbEntity
  8
Dim
  6
Continuous
 62
     0
370
    -2
100
AcDbLine
 10
1689.733991479169
 20
1548.113587727567
 30
0.0
 11
1775.23010858781
 21
1548.113587727567
 31
0.0
  0
LINE
  5
25CA
330
25C5
100
AcDbEntity
  8
Dim
  6
Continuous
 62
     0
370
    -2
100
AcDbLine
 10
1775.23010858781
 20
1594.113587727567
 30
0.0
 11
1775.23010858781
 21
1557.113587727567
 31
0.0
  0
INSERT
  5
25CB
330
25C5
100
AcDbEntity
  8
Dim
 62
     0
370
    -2
100
AcDbBlockReference
  2
_DOT
 10
1775.23010858781
 20
1603.113587727567
 30
0.0
 41
9.0
 42
9.0
 43
9.0
 50
90.0
  0
INSERT
  5
25CC
330
25C5
100
AcDbEntity
  8
Dim
 62
     0
370
    -2
100
AcDbBlockReference
  2
_DOT
 10
1775.23010858781
 20
1548.113587727567
 30
0.0
 41
9.0
 42
9.0
 43
9.0
 50
270.0
  0
MTEXT
  5
25CD
330
25C5
100
AcDbEntity
  8
Dim
  6
Continuous
 62
     0
100
AcDbMText
 10
1753.01379999406
 20
1575.613587727567
 30
0.0
 40
24.4326171875
 41
0.0
 46
0.0
 71
     5
 72
     1
  1
\A1;55
  7
ＭＳ ゴシック
 11
0.0
 21
1.0
 31
0.0
 73
     1
 44
1.0
  0
POINT
  5
25CE
330
25C5
100
AcDbEntity
  8
Defpoints
 62
     0
100
AcDbPoint
 10
1664.733991479169
 20
1603.113587727567
 30
0.0
  0
POINT
  5
25CF
330
25C5
100
AcDbEntity
  8
Defpoints
 62
     0
100
AcDbPoint
 10
1664.733991479169
 20
1548.113587727567
 30
0.0
  0
POINT
  5
25D0
330
25C5
100
AcDbEntity
  8
Defpoints
 62
     0
100
AcDbPoint
 10
1775.23010858781
 20
1548.113587727567
 30
0.0
  0
ENDBLK
  5
25C7
330
25C5
100
AcDbEntity
  8
0
100
AcDbBlockEnd
  0
BLOCK
  5
25D3
330
25D2
100
AcDbEntity
  8
0
100
AcDbBlockBegin
  2
*D39
 70
     1
 10
0.0
 20
0.0
 30
0.0
  3
*D39
  1
*D40
  0
LINE
  5
25D5
330
25D2
100
AcDbEntity
  8
Dim
  6
Continuous
 62
     0
370
    -2
100
AcDbLine
 10
460.154145180557
 20
833.1135877275669
 30
0.0
 11
307.0315308989027
 21
833.1135877275669
 31
0.0
  0
LINE
  5
25D6
330
25D2
100
AcDbEntity
  8
Dim
  6
Continuous
 62
     0
370
    -2
100
AcDbLine
 10
563.7362556556595
 20
1223.113587727567
 30
0.0
 11
307.0315308989027
 21
1223.113587727567
 31
0.0
  0
LINE
  5
25D7
330
25D2
100
AcDbEntity
  8
Dim
  6
Continuous
 62
     0
370
    -2
100
AcDbLine
 10
307.0315308989027
 20
842.1135877275669
 30
0.0
 11
307.0315308989027
 21
1214.113587727567
 31
0.0
  0
INSERT
  5
25D8
330
25D2
100
AcDbEntity
  8
Dim
 62
     0
370
    -2
100
AcDbBlockReference
  2
_DOT
 10
307.0315308989027
 20
833.1135877275669
 30
0.0
 41
9.0
 42
9.0
 43
9.0
 50
270.0
  0
INSERT
  5
25D9
330
25D2
100
AcDbEntity
  8
Dim
 62
     0
370
    -2
100
AcDbBlockReference
  2
_DOT
 10
307.0315308989027
 20
1223.113587727567
 30
0.0
 41
9.0
 42
9.0
 43
9.0
 50
90.0
  0
MTEXT
  5
25DA
330
25D2
100
AcDbEntity
  8
Dim
  6
Continuous
 62
     0
100
AcDbMText
 10
284.8152223051527
 20
1028.113587727567
 30
0.0
 40
24.4326171875
 41
0.0
 46
0.0
 71
     5
 72
     1
  1
\A1;390
  7
ＭＳ ゴシック
 11
0.0
 21
1.0
 31
0.0
 73
     1
 44
1.0
  0
POINT
  5
25DB
330
25D2
100
AcDbEntity
  8
Defpoints
 62
     0
100
AcDbPoint
 10
485.154145180557
 20
833.1135877275669
 30
0.0
  0
POINT
  5
25DC
330
25D2
100
AcDbEntity
  8
Defpoints
 62
     0
100
AcDbPoint
 10
588.7362556556595
 20
1223.113587727567
 30
0.0
  0
POINT
  5
25DD
330
25D2
100
AcDbEntity
  8
Defpoints
 62
     0
100
AcDbPoint
 10
307.0315308989027
 20
1223.113587727567
 30
0.0
  0
ENDBLK
  5
25D4
330
25D2
100
AcDbEntity
  8
0
100
AcDbBlockEnd
  0
BLOCK
  5
25E3
330
25E2
100
AcDbEntity
  8
0
100
AcDbBlockBegin
  2
*D40
 70
     1
 10
0.0
 20
0.0
 30
0.0
  3
*D40
  1
*D41
  0
LINE
  5
25E5
330
25E2
100
AcDbEntity
  8
Dim
  6
Continuous
 62
     0
370
    -2
100
AcDbLine
 10
424.7129146826866
 20
1223.113587727567
 30
0.0
 11
307.0315308989027
 21
1223.113587727567
 31
0.0
  0
LINE
  5
25E6
330
25E2
100
AcDbEntity
  8
Dim
  6
Continuous
 62
     0
370
    -2
100
AcDbLine
 10
460.4058894540249
 20
1603.113587727567
 30
0.0
 11
307.0315308989027
 21
1603.113587727567
 31
0.0
  0
LINE
  5
25E7
330
25E2
100
AcDbEntity
  8
Dim
  6
Continuous
 62
     0
370
    -2
100
AcDbLine
 10
307.0315308989027
 20
1232.113587727567
 30
0.0
 11
307.0315308989027
 21
1594.113587727567
 31
0.0
  0
INSERT
  5
25E8
330
25E2
100
AcDbEntity
  8
Dim
 62
     0
370
    -2
100
AcDbBlockReference
  2
_DOT
 10
307.0315308989027
 20
1223.113587727567
 30
0.0
 41
9.0
 42
9.0
 43
9.0
 50
270.0
  0
INSERT
  5
25E9
330
25E2
100
AcDbEntity
  8
Dim
 62
     0
370
    -2
100
AcDbBlockReference
  2
_DOT
 10
307.0315308989027
 20
1603.113587727567
 30
0.0
 41
9.0
 42
9.0
 43
9.0
 50
90.0
  0
MTEXT
  5
25EA
330
25E2
100
AcDbEntity
  8
Dim
  6
Continuous
 62
     0
100
AcDbMText
 10
284.8152223051527
 20
1413.113587727567
 30
0.0
 40
24.4326171875
 41
0.0
 46
0.0
 71
     5
 72
     1
  1
\A1;380
  7
ＭＳ ゴシック
 11
0.0
 21
1.0
 31
0.0
 73
     1
 44
1.0
  0
POINT
  5
25EB
330
25E2
100
AcDbEntity
  8
Defpoints
 62
     0
100
AcDbPoint
 10
449.7129146826866
 20
1223.113587727567
 30
0.0
  0
POINT
  5
25EC
330
25E2
100
AcDbEntity
  8
Defpoints
 62
     0
100
AcDbPoint
 10
485.4058894540249
 20
1603.113587727567
 30
0.0
  0
POINT
  5
25ED
330
25E2
100
AcDbEntity
  8
Defpoints
 62
     0
100
AcDbPoint
 10
307.0315308989027
 20
1603.113587727567
 30
0.0
  0
ENDBLK
  5
25E4
330
25E2
100
AcDbEntity
  8
0
100
AcDbBlockEnd
  0
BLOCK
  5
25F9
330
25F8
100
AcDbEntity
  8
0
100
AcDbBlockBegin
  2
*D41
 70
     1
 10
0.0
 20
0.0
 30
0.0
  3
*D41
  1
*D42
  0
LINE
  5
25FB
330
25F8
100
AcDbEntity
  8
Dim
  6
Continuous
 62
     0
370
    -2
100
AcDbLine
 10
825.4281188021787
 20
833.1135877275669
 30
0.0
 11
1014.643137569082
 21
833.1135877275669
 31
0.0
  0
LINE
  5
25FC
330
25F8
100
AcDbEntity
  8
Dim
  6
Continuous
 62
     0
370
    -2
100
AcDbLine
 10
704.9340705062435
 20
898.1135877275669
 30
0.0
 11
1014.643137569082
 21
898.1135877275669
 31
0.0
  0
LINE
  5
25FD
330
25F8
100
AcDbEntity
  8
Dim
  6
Continuous
 62
     0
370
    -2
100
AcDbLine
 10
1014.643137569082
 20
842.1135877275669
 30
0.0
 11
1014.643137569082
 21
889.1135877275669
 31
0.0
  0
INSERT
  5
25FE
330
25F8
100
AcDbEntity
  8
Dim
 62
     0
370
    -2
100
AcDbBlockReference
  2
_DOT
 10
1014.643137569082
 20
833.1135877275669
 30
0.0
 41
9.0
 42
9.0
 43
9.0
 50
270.0
  0
INSERT
  5
25FF
330
25F8
100
AcDbEntity
  8
Dim
 62
     0
370
    -2
100
AcDbBlockReference
  2
_DOT
 10
1014.643137569082
 20
898.1135877275669
 30
0.0
 41
9.0
 42
9.0
 43
9.0
 50
90.0
  0
MTEXT
  5
2600
330
25F8
100
AcDbEntity
  8
Dim
  6
Continuous
 62
     0
100
AcDbMText
 10
992.4268289753319
 20
865.6135877275669
 30
0.0
 40
24.4326171875
 41
0.0
 46
0.0
 71
     5
 72
     1
  1
\A1;65
  7
ＭＳ ゴシック
 11
0.0
 21
1.0
 31
0.0
 73
     1
 44
1.0
  0
POINT
  5
2601
330
25F8
100
AcDbEntity
  8
Defpoints
 62
     0
100
AcDbPoint
 10
800.4281188021787
 20
833.1135877275669
 30
0.0
  0
POINT
  5
2602
330
25F8
100
AcDbEntity
  8
Defpoints
 62
     0
100
AcDbPoint
 10
679.9340705062435
 20
898.1135877275669
 30
0.0
  0
POINT
  5
2603
330
25F8
100
AcDbEntity
  8
Defpoints
 62
     0
100
AcDbPoint
 10
1014.643137569082
 20
898.1135877275669
 30
0.0
  0
ENDBLK
  5
25FA
330
25F8
100
AcDbEntity
  8
0
100
AcDbBlockEnd
  0
BLOCK
  5
266C
330
266B
100
AcDbEntity
  8
0
100
AcDbBlockBegin
  2
*D42
 70
     1
 10
0.0
 20
0.0
 30
0.0
  3
*D42
  1
*D44
  0
LINE
  5
266E
330
266B
100
AcDbEntity
  8
Dim
  6
Continuous
 62
     0
370
    -2
100
AcDbLine
 10
813.7454951517548
 20
898.1135877275669
 30
0.0
 11
1014.643137569082
 21
898.1135877275669
 31
0.0
  0
LINE
  5
266F
330
266B
100
AcDbEntity
  8
Dim
  6
Continuous
 62
     0
370
    -2
100
AcDbLine
 10
841.183979351368
 20
1137.873042013729
 30
0.0
 11
1014.643137569082
 21
1137.873042013729
 31
0.0
  0
LINE
  5
2670
330
266B
100
AcDbEntity
  8
Dim
  6
Continuous
 62
     0
370
    -2
100
AcDbLine
 10
1014.643137569082
 20
907.1135877275669
 30
0.0
 11
1014.643137569082
 21
1128.873042013729
 31
0.0
  0
INSERT
  5
2671
330
266B
100
AcDbEntity
  8
Dim
 62
     0
370
    -2
100
AcDbBlockReference
  2
_DOT
 10
1014.643137569082
 20
898.1135877275669
 30
0.0
 41
9.0
 42
9.0
 43
9.0
 50
270.0
  0
INSERT
  5
2672
330
266B
100
AcDbEntity
  8
Dim
 62
     0
370
    -2
100
AcDbBlockReference
  2
_DOT
 10
1014.643137569082
 20
1137.873042013729
 30
0.0
 41
9.0
 42
9.0
 43
9.0
 50
90.0
  0
MTEXT
  5
2673
330
266B
100
AcDbEntity
  8
Dim
  6
Continuous
 62
     0
100
AcDbMText
 10
992.4268289753319
 20
1017.993314870648
 30
0.0
 40
24.4326171875
 41
0.0
 46
0.0
 71
     5
 72
     1
  1
\A1;240
  7
ＭＳ ゴシック
 11
0.0
 21
1.0
 31
0.0
 73
     1
 44
1.0
  0
POINT
  5
2674
330
266B
100
AcDbEntity
  8
Defpoints
 62
     0
100
AcDbPoint
 10
788.7454951517548
 20
898.1135877275669
 30
0.0
  0
POINT
  5
2675
330
266B
100
AcDbEntity
  8
Defpoints
 62
     0
100
AcDbPoint
 10
816.183979351368
 20
1137.873042013729
 30
0.0
  0
POINT
  5
2676
330
266B
100
AcDbEntity
  8
Defpoints
 62
     0
100
AcDbPoint
 10
1014.643137569082
 20
1137.873042013729
 30
0.0
  0
ENDBLK
  5
266D
330
266B
100
AcDbEntity
  8
0
100
AcDbBlockEnd
  0
BLOCK
  5
267A
330
2679
100
AcDbEntity
  8
0
100
AcDbBlockBegin
  2
*D43
 70
     1
 10
0.0
 20
0.0
 30
0.0
  3
*D43
  1
*D45
  0
LINE
  5
267C
330
2679
100
AcDbEntity
  8
Dim
  6
Continuous
 62
     0
370
    -2
100
AcDbLine
 10
510.4281188021787
 20
1087.590713692346
 30
0.0
 11
510.4281188021787
 21
1017.941186436756
 31
0.0
  0
LINE
  5
267D
330
2679
100
AcDbEntity
  8
Dim
  6
Continuous
 62
     0
370
    -2
100
AcDbLine
 10
790.4281188021787
 20
1087.590713692346
 30
0.0
 11
790.4281188021787
 21
1017.941186436756
 31
0.0
  0
LINE
  5
267E
330
2679
100
AcDbEntity
  8
Dim
  6
Continuous
 62
     0
370
    -2
100
AcDbLine
 10
519.4281188021787
 20
1017.941186436756
 30
0.0
 11
781.4281188021787
 21
1017.941186436756
 31
0.0
  0
INSERT
  5
267F
330
2679
100
AcDbEntity
  8
Dim
 62
     0
370
    -2
100
AcDbBlockReference
  2
_DOT
 10
510.4281188021787
 20
1017.941186436756
 30
0.0
 41
9.0
 42
9.0
 43
9.0
 50
180.0
  0
INSERT
  5
2680
330
2679
100
AcDbEntity
  8
Dim
 62
     0
370
    -2
100
AcDbBlockReference
  2
_DOT
 10
790.4281188021787
 20
1017.941186436756
 30
0.0
 41
9.0
 42
9.0
 43
9.0
  0
MTEXT
  5
2681
330
2679
100
AcDbEntity
  8
Dim
  6
Continuous
 62
     0
100
AcDbMText
 10
650.4281188021787
 20
1040.157495030506
 30
0.0
 40
24.4326171875
 41
0.0
 46
0.0
 71
     5
 72
     1
  1
\A1;280
  7
ＭＳ ゴシック
 73
     1
 44
1.0
  0
POINT
  5
2682
330
2679
100
AcDbEntity
  8
Defpoints
 62
     0
100
AcDbPoint
 10
510.4281188021787
 20
1112.590713692346
 30
0.0
  0
POINT
  5
2683
330
2679
100
AcDbEntity
  8
Defpoints
 62
     0
100
AcDbPoint
 10
790.4281188021787
 20
1112.590713692346
 30
0.0
  0
POINT
  5
2684
330
2679
100
AcDbEntity
  8
Defpoints
 62
     0
100
AcDbPoint
 10
790.4281188021787
 20
1017.941186436756
 30
0.0
  0
ENDBLK
  5
267B
330
2679
100
AcDbEntity
  8
0
100
AcDbBlockEnd
  0
BLOCK
  5
26EB
330
26EA
100
AcDbEntity
  8
0
100
AcDbBlockBegin
  2
*D44
 70
     1
 10
0.0
 20
0.0
 30
0.0
  3
*D44
  1
*D47
  0
LINE
  5
26ED
330
26EA
100
AcDbEntity
  8
Dim
  6
Continuous
 62
     0
370
    -2
100
AcDbLine
 10
841.183979351368
 20
1137.873042013729
 30
0.0
 11
1014.643137569082
 21
1137.873042013729
 31
0.0
  0
LINE
  5
26EE
330
26EA
100
AcDbEntity
  8
Dim
  6
Continuous
 62
     0
370
    -2
100
AcDbLine
 10
841.183979351368
 20
1602.873042013729
 30
0.0
 11
1014.643137569082
 21
1602.873042013729
 31
0.0
  0
LINE
  5
26EF
330
26EA
100
AcDbEntity
  8
Dim
  6
Continuous
 62
     0
370
    -2
100
AcDbLine
 10
1014.643137569082
 20
1146.873042013729
 30
0.0
 11
1014.643137569082
 21
1593.873042013729
 31
0.0
  0
INSERT
  5
26F0
330
26EA
100
AcDbEntity
  8
Dim
 62
     0
370
    -2
100
AcDbBlockReference
  2
_DOT
 10
1014.643137569082
 20
1137.873042013729
 30
0.0
 41
9.0
 42
9.0
 43
9.0
 50
270.0
  0
INSERT
  5
26F1
330
26EA
100
AcDbEntity
  8
Dim
 62
     0
370
    -2
100
AcDbBlockReference
  2
_DOT
 10
1014.643137569082
 20
1602.873042013729
 30
0.0
 41
9.0
 42
9.0
 43
9.0
 50
90.0
  0
MTEXT
  5
26F2
330
26EA
100
AcDbEntity
  8
Dim
  6
Continuous
 62
     0
100
AcDbMText
 10
992.4268289753319
 20
1370.373042013729
 30
0.0
 40
24.4326171875
 41
0.0
 46
0.0
 71
     5
 72
     1
  1
\A1;465
  7
ＭＳ ゴシック
 11
0.0
 21
1.0
 31
0.0
 73
     1
 44
1.0
  0
POINT
  5
26F3
330
26EA
100
AcDbEntity
  8
Defpoints
 62
     0
100
AcDbPoint
 10
816.183979351368
 20
1137.873042013729
 30
0.0
  0
POINT
  5
26F4
330
26EA
100
AcDbEntity
  8
Defpoints
 62
     0
100
AcDbPoint
 10
816.183979351368
 20
1602.873042013729
 30
0.0
  0
POINT
  5
26F5
330
26EA
100
AcDbEntity
  8
Defpoints
 62
     0
100
AcDbPoint
 10
1014.643137569082
 20
1602.873042013729
 30
0.0
  0
ENDBLK
  5
26EC
330
26EA
100
AcDbEntity
  8
0
100
AcDbBlockEnd
  0
BLOCK
  5
2777
330
2776
100
AcDbEntity
  8
0
100
AcDbBlockBegin
  2
*D45
 70
     1
 10
0.0
 20
0.0
 30
0.0
  3
*D45
  1
*D49
  0
LINE
  5
2779
330
2776
100
AcDbEntity
  8
Dim
  6
Continuous
 62
     0
370
    -2
100
AcDbLine
 10
1714.733991479169
 20
1548.113587727567
 30
0.0
 11
1775.23010858781
 21
1548.113587727567
 31
0.0
  0
LINE
  5
277A
330
2776
100
AcDbEntity
  8
Dim
  6
Continuous
 62
     0
370
    -2
100
AcDbLine
 10
1714.733991479169
 20
898.1135877275669
 30
0.0
 11
1775.23010858781
 21
898.1135877275669
 31
0.0
  0
LINE
  5
277B
330
2776
100
AcDbEntity
  8
Dim
  6
Continuous
 62
     0
370
    -2
100
AcDbLine
 10
1775.23010858781
 20
1539.113587727567
 30
0.0
 11
1775.23010858781
 21
907.1135877275669
 31
0.0
  0
INSERT
  5
277C
330
2776
100
AcDbEntity
  8
Dim
 62
     0
370
    -2
100
AcDbBlockReference
  2
_DOT
 10
1775.23010858781
 20
1548.113587727567
 30
0.0
 41
9.0
 42
9.0
 43
9.0
 50
90.0
  0
INSERT
  5
277D
330
2776
100
AcDbEntity
  8
Dim
 62
     0
370
    -2
100
AcDbBlockReference
  2
_DOT
 10
1775.23010858781
 20
898.1135877275669
 30
0.0
 41
9.0
 42
9.0
 43
9.0
 50
270.0
  0
MTEXT
  5
277E
330
2776
100
AcDbEntity
  8
Dim
  6
Continuous
 62
     0
100
AcDbMText
 10
1753.01379999406
 20
1223.113587727567
 30
0.0
 40
24.4326171875
 41
0.0
 46
0.0
 71
     5
 72
     1
  1
\A1;650
  7
ＭＳ ゴシック
 11
0.0
 21
1.0
 31
0.0
 73
     1
 44
1.0
  0
POINT
  5
277F
330
2776
100
AcDbEntity
  8
Defpoints
 62
     0
100
AcDbPoint
 10
1689.733991479169
 20
1548.113587727567
 30
0.0
  0
POINT
  5
2780
330
2776
100
AcDbEntity
  8
Defpoints
 62
     0
100
AcDbPoint
 10
1689.733991479169
 20
898.1135877275669
 30
0.0
  0
POINT
  5
2781
330
2776
100
AcDbEntity
  8
Defpoints
 62
     0
100
AcDbPoint
 10
1775.23010858781
 20
898.1135877275669
 30
0.0
  0
ENDBLK
  5
2778
330
2776
100
AcDbEntity
  8
0
100
AcDbBlockEnd
  0
BLOCK
  5
2784
330
2783
100
AcDbEntity
  8
0
100
AcDbBlockBegin
  2
*D46
 70
     1
 10
0.0
 20
0.0
 30
0.0
  3
*D46
  1
*D50
  0
LINE
  5
2786
330
2783
100
AcDbEntity
  8
Dim
  6
Continuous
 62
     0
370
    -2
100
AcDbLine
 10
1689.733991479169
 20
898.1135877275669
 30
0.0
 11
1775.23010858781
 21
898.1135877275669
 31
0.0
  0
LINE
  5
2787
330
2783
100
AcDbEntity
  8
Dim
  6
Continuous
 62
     0
370
    -2
100
AcDbLine
 10
1689.733991479169
 20
833.1135877275669
 30
0.0
 11
1775.23010858781
 21
833.1135877275669
 31
0.0
  0
LINE
  5
2788
330
2783
100
AcDbEntity
  8
Dim
  6
Continuous
 62
     0
370
    -2
100
AcDbLine
 10
1775.23010858781
 20
889.1135877275669
 30
0.0
 11
1775.23010858781
 21
842.1135877275669
 31
0.0
  0
INSERT
  5
2789
330
2783
100
AcDbEntity
  8
Dim
 62
     0
370
    -2
100
AcDbBlockReference
  2
_DOT
 10
1775.23010858781
 20
898.1135877275669
 30
0.0
 41
9.0
 42
9.0
 43
9.0
 50
90.0
  0
INSERT
  5
278A
330
2783
100
AcDbEntity
  8
Dim
 62
     0
370
    -2
100
AcDbBlockReference
  2
_DOT
 10
1775.23010858781
 20
833.1135877275669
 30
0.0
 41
9.0
 42
9.0
 43
9.0
 50
270.0
  0
MTEXT
  5
278B
330
2783
100
AcDbEntity
  8
Dim
  6
Continuous
 62
     0
100
AcDbMText
 10
1753.01379999406
 20
865.6135877275669
 30
0.0
 40
24.4326171875
 41
0.0
 46
0.0
 71
     5
 72
     1
  1
\A1;65
  7
ＭＳ ゴシック
 11
0.0
 21
1.0
 31
0.0
 73
     1
 44
1.0
  0
POINT
  5
278C
330
2783
100
AcDbEntity
  8
Defpoints
 62
     0
100
AcDbPoint
 10
1664.733991479169
 20
898.1135877275669
 30
0.0
  0
POINT
  5
278D
330
2783
100
AcDbEntity
  8
Defpoints
 62
     0
100
AcDbPoint
 10
1664.733991479169
 20
833.1135877275669
 30
0.0
  0
POINT
  5
278E
330
2783
100
AcDbEntity
  8
Defpoints
 62
     0
100
AcDbPoint
 10
1775.23010858781
 20
833.1135877275669
 30
0.0
  0
ENDBLK
  5
2785
330
2783
100
AcDbEntity
  8
0
100
AcDbBlockEnd
  0
BLOCK
  5
27F8
330
27F7
100
AcDbEntity
  8
0
100
AcDbBlockBegin
  2
*D47
 70
     1
 10
0.0
 20
0.0
 30
0.0
  3
*D47
  1
*D47
  0
LINE
  5
27FA
330
27F7
100
AcDbEntity
  8
Dim
  6
Continuous
 62
     0
370
    -2
100
AcDbLine
 10
696.9109406723628
 20
1548.113587727567
 30
0.0
 11
932.8146222825953
 21
1548.113587727567
 31
0.0
  0
LINE
  5
27FB
330
27F7
100
AcDbEntity
  8
Dim
  6
Continuous
 62
     0
370
    -2
100
AcDbLine
 10
866.183979351368
 20
1137.873042013729
 30
0.0
 11
932.8146222825953
 21
1137.873042013729
 31
0.0
  0
LINE
  5
27FC
330
27F7
100
AcDbEntity
  8
Dim
  6
Continuous
 62
     0
370
    -2
100
AcDbLine
 10
932.8146222825953
 20
1539.113587727567
 30
0.0
 11
932.8146222825953
 21
1146.873042013729
 31
0.0
  0
INSERT
  5
27FD
330
27F7
100
AcDbEntity
  8
Dim
 62
     0
370
    -2
100
AcDbBlockReference
  2
_DOT
 10
932.8146222825953
 20
1548.113587727567
 30
0.0
 41
9.0
 42
9.0
 43
9.0
 50
90.0
  0
INSERT
  5
27FE
330
27F7
100
AcDbEntity
  8
Dim
 62
     0
370
    -2
100
AcDbBlockReference
  2
_DOT
 10
932.8146222825953
 20
1137.873042013729
 30
0.0
 41
9.0
 42
9.0
 43
9.0
 50
270.0
  0
MTEXT
  5
27FF
330
27F7
100
AcDbEntity
  8
Dim
  6
Continuous
 62
     0
100
AcDbMText
 10
910.5983136888453
 20
1342.993314870648
 30
0.0
 40
24.4326171875
 41
0.0
 46
0.0
 71
     5
 72
     1
  1
\A1;410
  7
ＭＳ ゴシック
 11
0.0
 21
1.0
 31
0.0
 73
     1
 44
1.0
  0
POINT
  5
2800
330
27F7
100
AcDbEntity
  8
Defpoints
 62
     0
100
AcDbPoint
 10
671.9109406723628
 20
1548.113587727567
 30
0.0
  0
POINT
  5
2801
330
27F7
100
AcDbEntity
  8
Defpoints
 62
     0
100
AcDbPoint
 10
841.183979351368
 20
1137.873042013729
 30
0.0
  0
POINT
  5
2802
330
27F7
100
AcDbEntity
  8
Defpoints
 62
     0
100
AcDbPoint
 10
932.8146222825953
 20
1137.873042013729
 30
0.0
  0
ENDBLK
  5
27F9
330
27F7
100
AcDbEntity
  8
0
100
AcDbBlockEnd
  0
BLOCK
  5
2813
330
2812
100
AcDbEntity
  8
0
100
AcDbBlockBegin
  2
*D48
 70
     1
 10
0.0
 20
0.0
 30
0.0
  3
*D48
  1
*D48
  0
LINE
  5
2815
330
2812
100
AcDbEntity
  8
Dim
  6
Continuous
 62
     0
370
    -2
100
AcDbLine
 10
459.6722582529894
 20
1137.873042013729
 30
0.0
 11
393.551292033946
 21
1137.873042013729
 31
0.0
  0
LINE
  5
2816
330
2812
100
AcDbEntity
  8
Dim
  6
Continuous
 62
     0
370
    -2
100
AcDbLine
 10
459.6722582529894
 20
1223.113587727567
 30
0.0
 11
393.551292033946
 21
1223.113587727567
 31
0.0
  0
LINE
  5
2817
330
2812
100
AcDbEntity
  8
Dim
  6
Continuous
 62
     0
370
    -2
100
AcDbLine
 10
393.551292033946
 20
1146.873042013729
 30
0.0
 11
393.551292033946
 21
1214.113587727567
 31
0.0
  0
INSERT
  5
2818
330
2812
100
AcDbEntity
  8
Dim
 62
     0
370
    -2
100
AcDbBlockReference
  2
_DOT
 10
393.551292033946
 20
1137.873042013729
 30
0.0
 41
9.0
 42
9.0
 43
9.0
 50
270.0
  0
INSERT
  5
2819
330
2812
100
AcDbEntity
  8
Dim
 62
     0
370
    -2
100
AcDbBlockReference
  2
_DOT
 10
393.551292033946
 20
1223.113587727567
 30
0.0
 41
9.0
 42
9.0
 43
9.0
 50
90.0
  0
MTEXT
  5
281A
330
2812
100
AcDbEntity
  8
Dim
  6
Continuous
 62
     0
100
AcDbMText
 10
371.334983440196
 20
1180.493314870648
 30
0.0
 40
24.4326171875
 41
0.0
 46
0.0
 71
     5
 72
     1
  1
\A1;85
  7
ＭＳ ゴシック
 11
0.0
 21
1.0
 31
0.0
 73
     1
 44
1.0
  0
POINT
  5
281B
330
2812
100
AcDbEntity
  8
Defpoints
 62
     0
100
AcDbPoint
 10
484.6722582529894
 20
1137.873042013729
 30
0.0
  0
POINT
  5
281C
330
2812
100
AcDbEntity
  8
Defpoints
 62
     0
100
AcDbPoint
 10
484.6722582529894
 20
1223.113587727567
 30
0.0
  0
POINT
  5
281D
330
2812
100
AcDbEntity
  8
Defpoints
 62
     0
100
AcDbPoint
 10
393.551292033946
 20
1223.113587727567
 30
0.0
  0
ENDBLK
  5
2814
330
2812
100
AcDbEntity
  8
0
100
AcDbBlockEnd
  0
BLOCK
  5
284D
330
284C
100
AcDbEntity
  8
0
100
AcDbBlockBegin
  2
*D49
 70
     1
 10
0.0
 20
0.0
 30
0.0
  3
*D49
  1
*D49
  0
LINE
  5
284F
330
284C
100
AcDbEntity
  8
Dim
  6
Continuous
 62
     0
370
    -2
100
AcDbLine
 10
1664.733991479169
 20
808.1135877275669
 30
0.0
 11
1664.733991479169
 21
735.1309526962311
 31
0.0
  0
LINE
  5
2850
330
284C
100
AcDbEntity
  8
Dim
  6
Continuous
 62
     0
370
    -2
100
AcDbLine
 10
1629.733991479169
 20
848.1135877275669
 30
0.0
 11
1629.733991479169
 21
735.1309526962311
 31
0.0
  0
LINE
  5
2851
330
284C
100
AcDbEntity
  8
Dim
  6
Continuous
 62
     0
370
    -2
100
AcDbLine
 10
1655.733991479169
 20
735.1309526962311
 30
0.0
 11
1638.733991479169
 21
735.1309526962311
 31
0.0
  0
INSERT
  5
2852
330
284C
100
AcDbEntity
  8
Dim
 62
     0
370
    -2
100
AcDbBlockReference
  2
_DOT
 10
1664.733991479169
 20
735.1309526962311
 30
0.0
 41
9.0
 42
9.0
 43
9.0
  0
INSERT
  5
2853
330
284C
100
AcDbEntity
  8
Dim
 62
     0
370
    -2
100
AcDbBlockReference
  2
_DOT
 10
1629.733991479169
 20
735.1309526962311
 30
0.0
 41
9.0
 42
9.0
 43
9.0
 50
180.0
  0
MTEXT
  5
2854
330
284C
100
AcDbEntity
  8
Dim
  6
Continuous
 62
     0
100
AcDbMText
 10
1647.233991479169
 20
757.3472612899811
 30
0.0
 40
24.4326171875
 41
0.0
 46
0.0
 71
     5
 72
     1
  1
\A1;35
  7
ＭＳ ゴシック
 73
     1
 44
1.0
  0
POINT
  5
2855
330
284C
100
AcDbEntity
  8
Defpoints
 62
     0
100
AcDbPoint
 10
1664.733991479169
 20
833.1135877275669
 30
0.0
  0
POINT
  5
2856
330
284C
100
AcDbEntity
  8
Defpoints
 62
     0
100
AcDbPoint
 10
1629.733991479169
 20
873.1135877275669
 30
0.0
  0
POINT
  5
2857
330
284C
100
AcDbEntity
  8
Defpoints
 62
     0
100
AcDbPoint
 10
1629.733991479169
 20
735.1309526962311
 30
0.0
  0
ENDBLK
  5
284E
330
284C
100
AcDbEntity
  8
0
100
AcDbBlockEnd
  0
ENDSEC
  0
SECTION
  2
ENTITIES
  0
MTEXT
  5
177
330
A
100
AcDbEntity
  8
template
390
1D
100
AcDbMText
 10
82.00000000048226
 20
348.023957835319
 30
0.0
 40
16.28841145833333
 41
0.0
 46
0.0
 71
     1
 72
     1
  1
品名
  7
ＭＳ ゴシック
 73
     1
 44
0.7828267384257843
  0
MTEXT
  5
178
330
A
100
AcDbEntity
  8
template
390
1D
100
AcDbMText
 10
82.00000000048226
 20
263.0239578353188
 30
0.0
 40
16.28841145833333
 41
0.0
 46
0.0
 71
     1
 72
     1
  1
仕様
  7
ＭＳ ゴシック
 73
     1
 44
0.7828267384257843
  0
LINE
  5
179
330
A
100
AcDbEntity
  8
template
390
1D
100
AcDbLine
 10
2025.0
 20
271.4388797103189
 30
0.0
 11
75.00000000000023
 21
271.4388797103189
 31
0.0
  0
LWPOLYLINE
  5
17A
330
A
100
AcDbEntity
  8
template
390
1D
100
AcDbPolyline
 90
        5
 70
   128
 43
0.0
 10
2025.0
 20
2901.438879710319
 10
75.00000000000023
 20
2901.438879710319
 10
75.00000000000023
 20
101.4388797103188
 10
2025.0
 20
101.4388797103188
 10
2025.0
 20
2901.438879710319
  0
LINE
  5
17B
330
A
100
AcDbEntity
  8
template
390
1D
100
AcDbLine
 10
2025.0
 20
356.4388797103188
 30
0.0
 11
75.00000000000023
 21
356.4388797103188
 31
0.0
  0
LINE
  5
17C
330
A
100
AcDbEntity
  8
template
390
1D
100
AcDbLine
 10
2025.000000000482
 20
186.4388797103189
 30
0.0
 11
1272.000000000482
 21
186.4388797103189
 31
0.0
  0
MTEXT
  5
17E
330
A
100
AcDbEntity
  8
template
390
1D
100
AcDbMText
 10
1301.871406252743
 20
156.5284852370108
 30
0.0
 40
24.4326171875
 41
0.0
 46
0.0
 71
     1
 72
     1
  1
大洋金物株式会社 ティーフォルム事業部
  7
ＭＳ ゴシック
 73
     1
 44
0.7828267384257843
  0
MTEXT
  5
180
330
A
100
AcDbEntity
  8
template
390
1D
100
AcDbMText
 10
1834.000000000742
 20
234.4414968978188
 30
0.0
 40
24.4326171875
 41
0.0
 46
0.0
 71
     1
 72
     1
  1
1:10
  7
ＭＳ ゴシック
 73
     1
 44
0.7828267384257843
  0
MTEXT
  5
181
330
A
100
AcDbEntity
  8
template
390
1D
100
AcDbMText
 10
1781.000000000742
 20
263.0239578353188
 30
0.0
 40
16.28841145833333
 41
0.0
 46
0.0
 71
     1
 72
     1
  1
縮尺
  7
ＭＳ ゴシック
 73
     1
 44
0.7828267384257843
  0
LINE
  5
182
330
A
100
AcDbEntity
  8
template
390
1D
100
AcDbLine
 10
1774.000000000742
 20
186.4388797103189
 30
0.0
 11
1774.000000000742
 21
271.4388797103189
 31
0.0
  0
MTEXT
  5
183
330
A
100
AcDbEntity
  8
template
390
1D
100
AcDbMText
 10
1530.000000000742
 20
263.0239578353188
 30
0.0
 40
16.28841145833333
 41
0.0
 46
0.0
 71
     1
 72
     1
  1
容量
  7
ＭＳ ゴシック
 73
     1
 44
0.7828267384257843
  0
LINE
  5
184
330
A
100
AcDbEntity
  8
template
390
1D
100
AcDbLine
 10
1523.000000000742
 20
186.4388797103189
 30
0.0
 11
1523.000000000742
 21
271.4388797103189
 31
0.0
  0
MTEXT
  5
185
330
A
100
AcDbEntity
  8
template
390
1D
100
AcDbMText
 10
1279.000000000742
 20
348.023957835319
 30
0.0
 40
16.28841145833333
 41
0.0
 46
0.0
 71
     1
 72
     1
  1
品番
  7
ＭＳ ゴシック
 73
     1
 44
0.7828267384257843
  0
MTEXT
  5
186
330
A
100
AcDbEntity
  8
template
390
1D
100
AcDbMText
 10
1279.000000000742
 20
263.0239578353188
 30
0.0
 40
16.28841145833333
 41
0.0
 46
0.0
 71
     1
 72
     1
  1
重量
  7
ＭＳ ゴシック
 73
     1
 44
0.7828267384257843
  0
MTEXT
  5
187
330
A
100
AcDbEntity
  8
template
390
1D
100
AcDbMText
 10
1332.000000000742
 20
319.4414968978188
 30
0.0
 40
24.4326171875
 41
0.0
 46
24.4326171875
 71
     1
 72
     1
  1
{GAR71-2101}
  7
ＭＳ ゴシック
 73
     1
 44
0.7828267384257843
1001
ACAD
1000
ACAD_MTEXT_DEFINED_HEIGHT_BEGIN
1070
    46
1040
24.4326171875
1000
ACAD_MTEXT_DEFINED_HEIGHT_END
  0
LINE
  5
188
330
A
100
AcDbEntity
  8
template
390
1D
100
AcDbLine
 10
1272.000000000742
 20
101.4388797103188
 30
0.0
 11
1272.000000000742
 21
356.4388797103188
 31
0.0
  0
MTEXT
  5
189
330
A
100
AcDbEntity
  8
template
390
1D
100
AcDbMText
 10
135.0000000004822
 20
319.4414968978188
 30
0.0
 40
24.4326171875
 41
0.0
 46
27.5355595703125
 71
     1
 72
     1
  1
{小便器 -LAUFEN, Antero-}
  7
ＭＳ ゴシック
 73
     1
 44
0.7828267384257843
1001
ACAD
1000
ACAD_MTEXT_DEFINED_HEIGHT_BEGIN
1070
    46
1040
27.5355595703125
1000
ACAD_MTEXT_DEFINED_HEIGHT_END
  0
MTEXT
  5
18A
330
A
100
AcDbEntity
  8
template
390
1D
100
AcDbMText
 10
135.0000000004822
 20
234.4414968978188
 30
0.0
 40
24.4326171875
 41
0.0
 46
65.556517578125
 71
     1
 72
     1
  1
{給排水部品、壁取付金具付属/\P陶器/ホワイト}
  7
ＭＳ ゴシック
 73
     1
 44
0.9822934569727008
1001
ACAD
1000
ACAD_MTEXT_DEFINED_HEIGHT_BEGIN
1070
    46
1040
65.556517578125
1000
ACAD_MTEXT_DEFINED_HEIGHT_END
  0
INSERT
  5
3D0
330
A
100
AcDbEntity
  8
template
100
AcDbBlockReference
  2
名称未設定-1
 10
1873.559250554905
 20
30.23897196054438
 30
0.0
 41
0.7619999999999999
 42
0.7619999999999999
 43
0.7619999999999999
  0
MTEXT
  5
BDB
102
{ACAD_XDICTIONARY
360
BDC
102
}
330
A
100
AcDbEntity
  8
template
  6
Continuous
100
AcDbMText
 10
78.95663872901252
 20
86.10730750352229
 30
0.0
 40
23.0
 41
0.0
 46
23.0
 71
     1
 72
     1
  1
{20161027N}
  7
ＭＳ ゴシック
 73
     1
 44
1.0
1001
ACAD
1000
ACAD_MTEXT_DEFINED_HEIGHT_BEGIN
1070
    46
1040
23.0
1000
ACAD_MTEXT_DEFINED_HEIGHT_END
  0
LWPOLYLINE
  5
BEE
330
A
100
AcDbEntity
  8
PRINT BORDER
100
AcDbPolyline
 90
        4
 70
     1
 43
0.0
 10
0.0
 20
0.0
 10
0.0
 20
2970.0
 10
2100.0
 20
2970.0
 10
2100.0
 20
0.0
  0
INSERT
  5
1273
330
A
100
AcDbEntity
  8
0
 62
     7
100
AcDbBlockReference
  2
BLOCK_2
 10
591.2037060744204
 20
943.564364962162
 30
0.0
  0
INSERT
  5
127B
330
A
100
AcDbEntity
  8
0
 62
     7
100
AcDbBlockReference
  2
BLOCK_2
 10
1291.863324028138
 20
1038.76992320659
 30
0.0
  0
INSERT
  5
127C
330
A
100
AcDbEntity
  8
0
 62
     7
100
AcDbBlockReference
  2
BLOCK_2
 10
652.1648429406905
 20
1595.641631888467
 30
0.0
  0
CIRCLE
  5
142C
330
A
100
AcDbEntity
  8
Dim
  6
Continuous
100
AcDbCircle
 10
1366.841726484681
 20
1758.85027442579
 30
0.0
 40
0.0
  0
LINE
  5
225E
330
A
100
AcDbEntity
  8
MODEL
  6
Continuous
100
AcDbLine
 10
463.4731188018714
 20
2441.779814083382
 30
0.0
 11
460.4281188021787
 21
2441.779814083382
 31
0.0
  0
LINE
  5
225F
330
A
100
AcDbEntity
  8
MODEL
  6
Continuous
100
AcDbLine
 10
472.1441188021936
 20
2441.779814083382
 30
0.0
 11
463.4731188018714
 21
2441.779814083382
 31
0.0
  0
LINE
  5
2260
330
A
100
AcDbEntity
  8
MODEL
  6
Continuous
100
AcDbLine
 10
485.1211188015668
 20
2441.779814083382
 30
0.0
 11
472.1441188021936
 21
2441.779814083382
 31
0.0
  0
LINE
  5
2261
330
A
100
AcDbEntity
  8
MODEL
  6
Continuous
100
AcDbLine
 10
500.4281188021787
 20
2441.779814083382
 30
0.0
 11
485.1211188015668
 21
2441.779814083382
 31
0.0
  0
LINE
  5
2262
330
A
100
AcDbEntity
  8
MODEL
  6
Continuous
100
AcDbLine
 10
800.4281188021787
 20
2441.779814083382
 30
0.0
 11
500.4281188021787
 21
2441.779814083382
 31
0.0
  0
LINE
  5
2263
330
A
100
AcDbEntity
  8
MODEL
  6
Continuous
100
AcDbLine
 10
815.7351188016264
 20
2441.779814083382
 30
0.0
 11
800.4281188021787
 21
2441.779814083382
 31
0.0
  0
LINE
  5
2264
330
A
100
AcDbEntity
  8
MODEL
  6
Continuous
100
AcDbLine
 10
828.7121188021638
 20
2441.779814083382
 30
0.0
 11
815.7351188016264
 21
2441.779814083382
 31
0.0
  0
LINE
  5
2265
330
A
100
AcDbEntity
  8
MODEL
  6
Continuous
100
AcDbLine
 10
837.383118801904
 20
2441.779814083382
 30
0.0
 11
828.7121188021638
 21
2441.779814083382
 31
0.0
  0
LINE
  5
2266
330
A
100
AcDbEntity
  8
MODEL
  6
Continuous
100
AcDbLine
 10
840.4281188021787
 20
2441.779814083382
 30
0.0
 11
837.383118801904
 21
2441.779814083382
 31
0.0
  0
LINE
  5
2267
330
A
100
AcDbEntity
  8
MODEL
  6
Continuous
100
AcDbLine
 10
837.383118801904
 20
2441.779814083382
 30
0.0
 11
840.4281188021787
 21
2441.779814083382
 31
0.0
  0
LINE
  5
2268
330
A
100
AcDbEntity
  8
MODEL
  6
Continuous
100
AcDbLine
 10
828.7121188021638
 20
2441.779814083382
 30
0.0
 11
837.383118801904
 21
2441.779814083382
 31
0.0
  0
LINE
  5
2269
330
A
100
AcDbEntity
  8
MODEL
  6
Continuous
100
AcDbLine
 10
815.7351188016264
 20
2441.779814083382
 30
0.0
 11
828.7121188021638
 21
2441.779814083382
 31
0.0
  0
LINE
  5
226A
330
A
100
AcDbEntity
  8
MODEL
  6
Continuous
100
AcDbLine
 10
800.4281188021787
 20
2441.779814083382
 30
0.0
 11
815.7351188016264
 21
2441.779814083382
 31
0.0
  0
LINE
  5
226B
330
A
100
AcDbEntity
  8
MODEL
  6
Continuous
100
AcDbLine
 10
500.4281188021787
 20
2441.779814083382
 30
0.0
 11
800.4281188021787
 21
2441.779814083382
 31
0.0
  0
LINE
  5
226C
330
A
100
AcDbEntity
  8
MODEL
  6
Continuous
100
AcDbLine
 10
485.1211188015668
 20
2441.779814083382
 30
0.0
 11
500.4281188021787
 21
2441.779814083382
 31
0.0
  0
LINE
  5
226D
330
A
100
AcDbEntity
  8
MODEL
  6
Continuous
100
AcDbLine
 10
472.1441188021936
 20
2441.779814083382
 30
0.0
 11
485.1211188015668
 21
2441.779814083382
 31
0.0
  0
LINE
  5
226E
330
A
100
AcDbEntity
  8
MODEL
  6
Continuous
100
AcDbLine
 10
463.4731188018714
 20
2441.779814083382
 30
0.0
 11
472.1441188021936
 21
2441.779814083382
 31
0.0
  0
LINE
  5
226F
330
A
100
AcDbEntity
  8
MODEL
  6
Continuous
100
AcDbLine
 10
460.4281188021787
 20
2441.779814083382
 30
0.0
 11
463.4731188018714
 21
2441.779814083382
 31
0.0
  0
LINE
  5
2270
330
A
100
AcDbEntity
  8
MODEL
  6
Continuous
100
AcDbLine
 10
460.4281188021787
 20
2351.779814083382
 30
0.0
 11
463.4731188018714
 21
2351.779814083382
 31
0.0
  0
LINE
  5
2271
330
A
100
AcDbEntity
  8
MODEL
  6
Continuous
100
AcDbLine
 10
463.4731188018714
 20
2441.779814083382
 30
0.0
 11
460.4281188021787
 21
2441.779814083382
 31
0.0
  0
LINE
  5
2272
330
A
100
AcDbEntity
  8
MODEL
  6
Continuous
100
AcDbLine
 10
463.4731188018714
 20
2351.779814083382
 30
0.0
 11
472.1441188021936
 21
2351.779814083382
 31
0.0
  0
LINE
  5
2273
330
A
100
AcDbEntity
  8
MODEL
  6
Continuous
100
AcDbLine
 10
472.1441188021936
 20
2441.779814083382
 30
0.0
 11
463.4731188018714
 21
2441.779814083382
 31
0.0
  0
LINE
  5
2274
330
A
100
AcDbEntity
  8
MODEL
  6
Continuous
100
AcDbLine
 10
472.1441188021936
 20
2351.779814083382
 30
0.0
 11
485.1211188015668
 21
2351.779814083382
 31
0.0
  0
LINE
  5
2275
330
A
100
AcDbEntity
  8
MODEL
  6
Continuous
100
AcDbLine
 10
485.1211188015668
 20
2441.779814083382
 30
0.0
 11
472.1441188021936
 21
2441.779814083382
 31
0.0
  0
LINE
  5
2276
330
A
100
AcDbEntity
  8
MODEL
  6
Continuous
100
AcDbLine
 10
485.1211188015668
 20
2351.779814083382
 30
0.0
 11
500.4281188021787
 21
2351.779814083382
 31
0.0
  0
LINE
  5
2277
330
A
100
AcDbEntity
  8
MODEL
  6
Continuous
100
AcDbLine
 10
500.4281188021787
 20
2441.779814083382
 30
0.0
 11
485.1211188015668
 21
2441.779814083382
 31
0.0
  0
LINE
  5
2278
330
A
100
AcDbEntity
  8
MODEL
  6
Continuous
100
AcDbLine
 10
500.4281188021787
 20
2351.779814083382
 30
0.0
 11
800.4281188021787
 21
2351.779814083382
 31
0.0
  0
LINE
  5
2279
330
A
100
AcDbEntity
  8
MODEL
  6
Continuous
100
AcDbLine
 10
800.4281188021787
 20
2441.779814083382
 30
0.0
 11
500.4281188021787
 21
2441.779814083382
 31
0.0
  0
LINE
  5
227A
330
A
100
AcDbEntity
  8
MODEL
  6
Continuous
100
AcDbLine
 10
800.4281188021787
 20
2351.779814083382
 30
0.0
 11
815.7351188016264
 21
2351.779814083382
 31
0.0
  0
LINE
  5
227B
330
A
100
AcDbEntity
  8
MODEL
  6
Continuous
100
AcDbLine
 10
815.7351188016264
 20
2441.779814083382
 30
0.0
 11
800.4281188021787
 21
2441.779814083382
 31
0.0
  0
LINE
  5
227C
330
A
100
AcDbEntity
  8
MODEL
  6
Continuous
100
AcDbLine
 10
815.7351188016264
 20
2351.779814083382
 30
0.0
 11
828.7121188021638
 21
2351.779814083382
 31
0.0
  0
LINE
  5
227D
330
A
100
AcDbEntity
  8
MODEL
  6
Continuous
100
AcDbLine
 10
828.7121188021638
 20
2441.779814083382
 30
0.0
 11
815.7351188016264
 21
2441.779814083382
 31
0.0
  0
LINE
  5
227E
330
A
100
AcDbEntity
  8
MODEL
  6
Continuous
100
AcDbLine
 10
828.7121188021638
 20
2351.779814083382
 30
0.0
 11
837.383118801904
 21
2351.779814083382
 31
0.0
  0
LINE
  5
227F
330
A
100
AcDbEntity
  8
MODEL
  6
Continuous
100
AcDbLine
 10
837.383118801904
 20
2441.779814083382
 30
0.0
 11
828.7121188021638
 21
2441.779814083382
 31
0.0
  0
LINE
  5
2280
330
A
100
AcDbEntity
  8
MODEL
  6
Continuous
100
AcDbLine
 10
837.383118801904
 20
2351.779814083382
 30
0.0
 11
840.4281188021787
 21
2351.779814083382
 31
0.0
  0
LINE
  5
2281
330
A
100
AcDbEntity
  8
MODEL
  6
Continuous
100
AcDbLine
 10
840.4281188021787
 20
2441.779814083382
 30
0.0
 11
837.383118801904
 21
2441.779814083382
 31
0.0
  0
LINE
  5
2282
330
A
100
AcDbEntity
  8
MODEL
  6
Continuous
100
AcDbLine
 10
840.4281188021787
 20
2441.779814083382
 30
0.0
 11
840.4281188021787
 21
2351.779814083382
 31
0.0
  0
LINE
  5
2283
330
A
100
AcDbEntity
  8
MODEL
  6
Continuous
100
AcDbLine
 10
837.383118801904
 20
2441.779814083382
 30
0.0
 11
840.4281188021787
 21
2441.779814083382
 31
0.0
  0
LINE
  5
2284
330
A
100
AcDbEntity
  8
MODEL
  6
Continuous
100
AcDbLine
 10
828.7121188021638
 20
2441.779814083382
 30
0.0
 11
837.383118801904
 21
2441.779814083382
 31
0.0
  0
LINE
  5
2285
330
A
100
AcDbEntity
  8
MODEL
  6
Continuous
100
AcDbLine
 10
815.7351188016264
 20
2441.779814083382
 30
0.0
 11
828.7121188021638
 21
2441.779814083382
 31
0.0
  0
LINE
  5
2286
330
A
100
AcDbEntity
  8
MODEL
  6
Continuous
100
AcDbLine
 10
800.4281188021787
 20
2441.779814083382
 30
0.0
 11
815.7351188016264
 21
2441.779814083382
 31
0.0
  0
LINE
  5
2287
330
A
100
AcDbEntity
  8
MODEL
  6
Continuous
100
AcDbLine
 10
500.4281188021787
 20
2441.779814083382
 30
0.0
 11
800.4281188021787
 21
2441.779814083382
 31
0.0
  0
LINE
  5
2288
330
A
100
AcDbEntity
  8
MODEL
  6
Continuous
100
AcDbLine
 10
485.1211188015668
 20
2441.779814083382
 30
0.0
 11
500.4281188021787
 21
2441.779814083382
 31
0.0
  0
LINE
  5
2289
330
A
100
AcDbEntity
  8
MODEL
  6
Continuous
100
AcDbLine
 10
472.1441188021936
 20
2441.779814083382
 30
0.0
 11
485.1211188015668
 21
2441.779814083382
 31
0.0
  0
LINE
  5
228A
330
A
100
AcDbEntity
  8
MODEL
  6
Continuous
100
AcDbLine
 10
463.4731188018714
 20
2441.779814083382
 30
0.0
 11
472.1441188021936
 21
2441.779814083382
 31
0.0
  0
LINE
  5
228B
330
A
100
AcDbEntity
  8
MODEL
  6
Continuous
100
AcDbLine
 10
460.4281188021787
 20
2441.779814083382
 30
0.0
 11
463.4731188018714
 21
2441.779814083382
 31
0.0
  0
LINE
  5
228C
330
A
100
AcDbEntity
  8
MODEL
  6
Continuous
100
AcDbLine
 10
460.4281188021787
 20
2351.779814083382
 30
0.0
 11
460.4281188021787
 21
2441.779814083382
 31
0.0
  0
LINE
  5
228D
330
A
100
AcDbEntity
  8
MODEL
  6
Continuous
100
AcDbLine
 10
501.9891188018164
 20
2306.405814083371
 30
0.0
 11
496.6311188022746
 21
2296.225814083407
 31
0.0
  0
LINE
  5
228E
330
A
100
AcDbEntity
  8
MODEL
  6
Continuous
100
AcDbLine
 10
508.0471188020101
 20
2306.834814083375
 30
0.0
 11
509.0381188019319
 21
2313.554814083434
 31
0.0
  0
LINE
  5
228F
330
A
100
AcDbEntity
  8
MODEL
  6
Continuous
100
AcDbLine
 10
496.6311188022746
 20
2296.225814083407
 30
0.0
 11
494.427118802364
 21
2283.870814083455
 31
0.0
  0
LINE
  5
2290
330
A
100
AcDbEntity
  8
MODEL
  6
Continuous
100
AcDbLine
 10
509.7761188020604
 20
2295.042814083388
 30
0.0
 11
508.0471188020101
 21
2306.834814083375
 31
0.0
  0
LINE
  5
2291
330
A
100
AcDbEntity
  8
MODEL
  6
Continuous
100
AcDbLine
 10
494.427118802364
 20
2283.870814083455
 30
0.0
 11
496.1201188018686
 21
2271.608814083409
 31
0.0
  0
LINE
  5
2292
330
A
100
AcDbEntity
  8
MODEL
  6
Continuous
100
AcDbLine
 10
518.7881188022811
 20
2266.242814083342
 30
0.0
 11
509.7761188020604
 21
2295.042814083388
 31
0.0
  0
LINE
  5
2293
330
A
100
AcDbEntity
  8
MODEL
  6
Continuous
100
AcDbLine
 10
496.1201188018686
 20
2271.608814083409
 30
0.0
 11
505.4951188018686
 21
2242.254814083388
 31
0.0
  0
LINE
  5
2294
330
A
100
AcDbEntity
  8
MODEL
  6
Continuous
100
AcDbLine
 10
529.8501188020828
 20
2238.004814083359
 30
0.0
 11
518.7881188022811
 21
2266.242814083342
 31
0.0
  0
LINE
  5
2295
330
A
100
AcDbEntity
  8
MODEL
  6
Continuous
100
AcDbLine
 10
505.4951188018686
 20
2242.254814083388
 30
0.0
 11
517.5291188018537
 21
2213.468814083424
 31
0.0
  0
LINE
  5
2296
330
A
100
AcDbEntity
  8
MODEL
  6
Continuous
100
AcDbLine
 10
542.8941188017279
 20
2210.742814083458
 30
0.0
 11
529.8501188020828
 21
2238.004814083359
 31
0.0
  0
LINE
  5
2297
330
A
100
AcDbEntity
  8
MODEL
  6
Continuous
100
AcDbLine
 10
517.5291188018537
 20
2213.468814083424
 30
0.0
 11
531.758118802486
 21
2185.793814083407
 31
0.0
  0
LINE
  5
2298
330
A
100
AcDbEntity
  8
MODEL
  6
Continuous
100
AcDbLine
 10
557.8361188018835
 20
2184.755814083435
 30
0.0
 11
542.8941188017279
 21
2210.742814083458
 31
0.0
  0
LINE
  5
2299
330
A
100
AcDbEntity
  8
MODEL
  6
Continuous
100
AcDbLine
 10
531.758118802486
 20
2185.793814083407
 30
0.0
 11
548.0781188017363
 21
2159.401814083501
 31
0.0
  0
LINE
  5
229A
330
A
100
AcDbEntity
  8
MODEL
  6
Continuous
100
AcDbLine
 10
574.5841188022541
 20
2160.103814083375
 30
0.0
 11
557.8361188018835
 21
2184.755814083435
 31
0.0
  0
LINE
  5
229B
330
A
100
AcDbEntity
  8
MODEL
  6
Continuous
100
AcDbLine
 10
548.0781188017363
 20
2159.401814083501
 30
0.0
 11
566.3821188020893
 21
2134.380814083377
 31
0.0
  0
LINE
  5
229C
330
A
100
AcDbEntity
  8
MODEL
  6
Continuous
100
AcDbLine
 10
593.0301188023668
 20
2137.012814083389
 30
0.0
 11
574.5841188022541
 21
2160.103814083375
 31
0.0
  0
LINE
  5
229D
330
A
100
AcDbEntity
  8
MODEL
  6
Continuous
100
AcDbLine
 10
566.3821188020893
 20
2134.380814083377
 30
0.0
 11
586.5541188021098
 21
2110.944814083303
 31
0.0
  0
LINE
  5
229E
330
A
100
AcDbEntity
  8
MODEL
  6
Continuous
100
AcDbLine
 10
603.8441188020306
 20
2125.555814083453
 30
0.0
 11
593.0301188023668
 21
2137.012814083389
 31
0.0
  0
LINE
  5
229F
330
A
100
AcDbEntity
  8
MODEL
  6
Continuous
100
AcDbLine
 10
586.5541188021098
 20
2110.944814083303
 30
0.0
 11
600.4871188020707
 21
2098.203814083497
 31
0.0
  0
LINE
  5
22A0
330
A
100
AcDbEntity
  8
MODEL
  6
Continuous
100
AcDbLine
 10
616.4491188017792
 20
2116.728814083433
 30
0.0
 11
603.8441188020306
 21
2125.555814083453
 31
0.0
  0
LINE
  5
22A1
330
A
100
AcDbEntity
  8
MODEL
  6
Continuous
100
AcDbLine
 10
600.4871188020707
 20
2098.203814083497
 30
0.0
 11
618.2731188022672
 21
2088.521814083322
 31
0.0
  0
LINE
  5
22A2
330
A
100
AcDbEntity
  8
MODEL
  6
Continuous
100
AcDbLine
 10
634.7131188019785
 20
2109.93381408345
 30
0.0
 11
616.4491188017792
 21
2116.728814083433
 31
0.0
  0
LINE
  5
22A3
330
A
100
AcDbEntity
  8
MODEL
  6
Continuous
100
AcDbLine
 10
618.2731188022672
 20
2088.521814083322
 30
0.0
 11
632.1391188019561
 21
2083.204814083399
 31
0.0
  0
LINE
  5
22A4
330
A
100
AcDbEntity
  8
MODEL
  6
Continuous
100
AcDbLine
 10
650.4281188021787
 20
2108.00081408346
 30
0.0
 11
634.7131188019785
 21
2109.93381408345
 31
0.0
  0
LINE
  5
22A5
330
A
100
AcDbEntity
  8
MODEL
  6
Continuous
100
AcDbLine
 10
632.1391188019561
 20
2083.204814083399
 30
0.0
 11
649.4311188019719
 21
2081.117814083371
 31
0.0
  0
LINE
  5
22A6
330
A
100
AcDbEntity
  8
MODEL
  6
Continuous
100
AcDbLine
 10
666.1431188017968
 20
2109.93381408345
 30
0.0
 11
650.4281188021787
 21
2108.00081408346
 31
0.0
  0
LINE
  5
22A7
330
A
100
AcDbEntity
  8
MODEL
  6
Continuous
100
AcDbLine
 10
649.4311188019719
 20
2081.117814083371
 30
0.0
 11
666.6291188021796
 21
2082.911814083453
 31
0.0
  0
LINE
  5
22A8
330
A
100
AcDbEntity
  8
MODEL
  6
Continuous
100
AcDbLine
 10
684.4071188019961
 20
2116.723814083487
 30
0.0
 11
666.1431188017968
 21
2109.93381408345
 31
0.0
  0
LINE
  5
22A9
330
A
100
AcDbEntity
  8
MODEL
  6
Continuous
100
AcDbLine
 10
666.6291188021796
 20
2082.911814083453
 30
0.0
 11
680.6331188020204
 21
2088.188814083367
 31
0.0
  0
LINE
  5
22AA
330
A
100
AcDbEntity
  8
MODEL
  6
Continuous
100
AcDbLine
 10
697.0121188023268
 20
2125.555814083453
 30
0.0
 11
684.4071188019961
 21
2116.723814083487
 31
0.0
  0
LINE
  5
22AB
330
A
100
AcDbEntity
  8
MODEL
  6
Continuous
100
AcDbLine
 10
680.6331188020204
 20
2088.188814083367
 30
0.0
 11
698.794118801984
 21
2097.54781408348
 31
0.0
  0
LINE
  5
22AC
330
A
100
AcDbEntity
  8
MODEL
  6
Continuous
100
AcDbLine
 10
707.8261188019906
 20
2137.012814083389
 30
0.0
 11
697.0121188023268
 21
2125.555814083453
 31
0.0
  0
LINE
  5
22AD
330
A
100
AcDbEntity
  8
MODEL
  6
Continuous
100
AcDbLine
 10
698.794118801984
 20
2097.54781408348
 30
0.0
 11
712.4211188019626
 21
2109.932814083402
 31
0.0
  0
LINE
  5
22AE
330
A
100
AcDbEntity
  8
MODEL
  6
Continuous
100
AcDbLine
 10
726.2721188021033
 20
2160.103814083375
 30
0.0
 11
707.8261188019906
 21
2137.012814083389
 31
0.0
  0
LINE
  5
22AF
330
A
100
AcDbEntity
  8
MODEL
  6
Continuous
100
AcDbLine
 10
712.4211188019626
 20
2109.932814083402
 30
0.0
 11
732.0831188022066
 21
2132.528814083451
 31
0.0
  0
LINE
  5
22B0
330
A
100
AcDbEntity
  8
MODEL
  6
Continuous
100
AcDbLine
 10
743.0201188018918
 20
2184.755814083435
 30
0.0
 11
726.2721188021033
 21
2160.103814083375
 31
0.0
  0
LINE
  5
22B1
330
A
100
AcDbEntity
  8
MODEL
  6
Continuous
100
AcDbLine
 10
732.0831188022066
 20
2132.528814083451
 30
0.0
 11
750.5181188017968
 21
2157.371814083415
 31
0.0
  0
LINE
  5
22B2
330
A
100
AcDbEntity
  8
MODEL
  6
Continuous
100
AcDbLine
 10
757.9621188020474
 20
2210.742814083458
 30
0.0
 11
743.0201188018918
 21
2184.755814083435
 31
0.0
  0
LINE
  5
22B3
330
A
100
AcDbEntity
  8
MODEL
  6
Continuous
100
AcDbLine
 10
750.5181188017968
 20
2157.371814083415
 30
0.0
 11
767.0421188020055
 21
2183.630814083406
 31
0.0
  0
LINE
  5
22B4
330
A
100
AcDbEntity
  8
MODEL
  6
Continuous
100
AcDbLine
 10
771.0061188022746
 20
2238.004814083359
 30
0.0
 11
757.9621188020474
 21
2210.742814083458
 31
0.0
  0
LINE
  5
22B5
330
A
100
AcDbEntity
  8
MODEL
  6
Continuous
100
AcDbLine
 10
767.0421188020055
 20
2183.630814083406
 30
0.0
 11
781.3891188018397
 21
2211.172814083364
 31
0.0
  0
LINE
  5
22B6
330
A
100
AcDbEntity
  8
MODEL
  6
Continuous
100
AcDbLine
 10
782.0681188020762
 20
2266.242814083342
 30
0.0
 11
771.0061188022746
 21
2238.004814083359
 31
0.0
  0
LINE
  5
22B7
330
A
100
AcDbEntity
  8
MODEL
  6
Continuous
100
AcDbLine
 10
781.3891188018397
 20
2211.172814083364
 30
0.0
 11
793.6771188016655
 21
2239.79881408344
 31
0.0
  0
LINE
  5
22B8
330
A
100
AcDbEntity
  8
MODEL
  6
Continuous
100
AcDbLine
 10
791.080118802297
 20
2295.042814083388
 30
0.0
 11
782.0681188020762
 21
2266.242814083342
 31
0.0
  0
LINE
  5
22B9
330
A
100
AcDbEntity
  8
MODEL
  6
Continuous
100
AcDbLine
 10
793.6771188016655
 20
2239.79881408344
 30
0.0
 11
803.9051188020176
 21
2269.322814083387
 31
0.0
  0
LINE
  5
22BA
330
A
100
AcDbEntity
  8
MODEL
  6
Continuous
100
AcDbLine
 10
792.8091188023473
 20
2306.834814083375
 30
0.0
 11
791.080118802297
 21
2295.042814083388
 31
0.0
  0
LINE
  5
22BB
330
A
100
AcDbEntity
  8
MODEL
  6
Continuous
100
AcDbLine
 10
803.9051188020176
 20
2269.322814083387
 30
0.0
 11
806.2741188021982
 21
2282.600814083524
 31
0.0
  0
LINE
  5
22BC
330
A
100
AcDbEntity
  8
MODEL
  6
Continuous
100
AcDbLine
 10
791.8001188021526
 20
2313.675814083506
 30
0.0
 11
792.8091188023473
 21
2306.834814083375
 31
0.0
  0
LINE
  5
22BD
330
A
100
AcDbEntity
  8
MODEL
  6
Continuous
100
AcDbLine
 10
806.2741188021982
 20
2282.600814083524
 30
0.0
 11
804.5911188020045
 21
2294.91681408337
 31
0.0
  0
LINE
  5
22BE
330
A
100
AcDbEntity
  8
MODEL
  6
Continuous
100
AcDbLine
 10
804.5911188020045
 20
2294.91681408337
 30
0.0
 11
798.9091188016255
 21
2306.416814083457
 31
0.0
  0
LINE
  5
22BF
330
A
100
AcDbEntity
  8
MODEL
  6
Continuous
100
AcDbLine
 10
589.932118801903
 20
2319.896814083439
 30
0.0
 11
637.3311188017624
 21
2319.696814083398
 31
0.0
  0
LINE
  5
22C0
330
A
100
AcDbEntity
  8
MODEL
  6
Continuous
100
AcDbLine
 10
586.0421188022383
 20
2320.268814083354
 30
0.0
 11
650.4281188021787
 21
2319.549814083401
 31
0.0
  0
LINE
  5
22C1
330
A
100
AcDbEntity
  8
MODEL
  6
Continuous
100
AcDbLine
 10
574.3021188022476
 20
2319.926814083408
 30
0.0
 11
589.932118801903
 21
2319.896814083439
 31
0.0
  0
LINE
  5
22C2
330
A
100
AcDbEntity
  8
MODEL
  6
Continuous
100
AcDbLine
 10
558.5521188021312
 20
2319.904814083382
 30
0.0
 11
574.3021188022476
 21
2319.926814083408
 31
0.0
  0
LINE
  5
22C3
330
A
100
AcDbEntity
  8
MODEL
  6
Continuous
100
AcDbLine
 10
546.2601188021154
 20
2319.989814083345
 30
0.0
 11
558.5521188021312
 21
2319.904814083382
 31
0.0
  0
LINE
  5
22C4
330
A
100
AcDbEntity
  8
MODEL
  6
Continuous
100
AcDbLine
 10
537.6871188023733
 20
2320.169814083454
 30
0.0
 11
546.2601188021154
 21
2319.989814083345
 31
0.0
  0
LINE
  5
22C5
330
A
100
AcDbEntity
  8
MODEL
  6
Continuous
100
AcDbLine
 10
500.9201188022644
 20
2346.779814083382
 30
0.0
 11
487.0721188022662
 21
2346.779814083382
 31
0.0
  0
LINE
  5
22C6
330
A
100
AcDbEntity
  8
MODEL
  6
Continuous
100
AcDbLine
 10
487.0721188022662
 20
2346.779814083382
 30
0.0
 11
475.7491188017093
 21
2346.779814083382
 31
0.0
  0
LINE
  5
22C7
330
A
100
AcDbEntity
  8
MODEL
  6
Continuous
100
AcDbLine
 10
475.7491188017093
 20
2346.779814083382
 30
0.0
 11
468.1831188020669
 21
2346.779814083382
 31
0.0
  0
LINE
  5
22C8
330
A
100
AcDbEntity
  8
MODEL
  6
Continuous
100
AcDbLine
 10
468.1831188020669
 20
2346.779814083382
 30
0.0
 11
465.4281188021787
 21
2346.779814083382
 31
0.0
  0
LINE
  5
22C9
330
A
100
AcDbEntity
  8
MODEL
  6
Continuous
100
AcDbLine
 10
527.1141188019328
 20
2320.592814083318
 30
0.0
 11
537.6871188023733
 21
2320.169814083454
 31
0.0
  0
LINE
  5
22CA
330
A
100
AcDbEntity
  8
MODEL
  6
Continuous
100
AcDbLine
 10
516.6341188024171
 20
2318.787814083442
 30
0.0
 11
527.1141188019328
 21
2320.592814083318
 31
0.0
  0
LINE
  5
22CB
330
A
100
AcDbEntity
  8
MODEL
  6
Continuous
100
AcDbLine
 10
506.9401188018173
 20
2313.012814083448
 30
0.0
 11
516.6341188024171
 21
2318.787814083442
 31
0.0
  0
LINE
  5
22CC
330
A
100
AcDbEntity
  8
MODEL
  6
Continuous
100
AcDbLine
 10
498.8761188018043
 20
2304.130814083435
 30
0.0
 11
506.9401188018173
 21
2313.012814083448
 31
0.0
  0
LINE
  5
22CD
330
A
100
AcDbEntity
  8
MODEL
  6
Continuous
100
AcDbLine
 10
493.6331188019039
 20
2292.971814083392
 30
0.0
 11
498.8761188018043
 21
2304.130814083435
 31
0.0
  0
LINE
  5
22CE
330
A
100
AcDbEntity
  8
MODEL
  6
Continuous
100
AcDbLine
 10
491.9701188020781
 20
2280.728814083375
 30
0.0
 11
493.6331188019039
 21
2292.971814083392
 31
0.0
  0
LINE
  5
22D3
330
A
100
AcDbEntity
  8
MODEL
  6
Continuous
100
AcDbLine
 10
494.0291188020865
 20
2267.69381408343
 30
0.0
 11
491.9701188020781
 21
2280.728814083375
 31
0.0
  0
LINE
  5
22D4
330
A
100
AcDbEntity
  8
MODEL
  6
Continuous
100
AcDbLine
 10
494.0291188020865
 20
2267.69381408343
 30
0.0
 11
490.2901188020269
 21
2282.083814083415
 31
0.0
  0
LINE
  5
22D5
330
A
100
AcDbEntity
  8
MODEL
  6
Continuous
100
AcDbLine
 10
503.9961188022653
 20
2238.186814083418
 30
0.0
 11
494.0291188020865
 21
2267.69381408343
 31
0.0
  0
LINE
  5
22D6
330
A
100
AcDbEntity
  8
MODEL
  6
Continuous
100
AcDbLine
 10
494.0291188020865
 20
2267.69381408343
 30
0.0
 11
496.3191188020073
 21
2260.805814083395
 31
0.0
  0
LINE
  5
22D7
330
A
100
AcDbEntity
  8
MODEL
  6
Continuous
100
AcDbLine
 10
503.9961188022653
 20
2238.186814083418
 30
0.0
 11
496.3191188020073
 21
2260.805814083395
 31
0.0
  0
LINE
  5
22D8
330
A
100
AcDbEntity
  8
MODEL
  6
Continuous
100
AcDbLine
 10
516.24711880208
 20
2209.7428140834
 30
0.0
 11
503.9961188022653
 21
2238.186814083418
 31
0.0
  0
LINE
  5
22D9
330
A
100
AcDbEntity
  8
MODEL
  6
Continuous
100
AcDbLine
 10
530.730118801971
 20
2182.348814083341
 30
0.0
 11
516.24711880208
 21
2209.7428140834
 31
0.0
  0
LINE
  5
22DA
330
A
100
AcDbEntity
  8
MODEL
  6
Continuous
100
AcDbLine
 10
547.3351188019524
 20
2156.204814083429
 30
0.0
 11
530.730118801971
 21
2182.348814083341
 31
0.0
  0
LINE
  5
22DB
330
A
100
AcDbEntity
  8
MODEL
  6
Continuous
100
AcDbLine
 10
566.0011188020371
 20
2131.460814083364
 30
0.0
 11
547.3351188019524
 21
2156.204814083429
 31
0.0
  0
LINE
  5
22DC
330
A
100
AcDbEntity
  8
MODEL
  6
Continuous
100
AcDbLine
 10
586.459118801672
 20
2108.424814083372
 30
0.0
 11
566.0011188020371
 21
2131.460814083364
 31
0.0
  0
LINE
  5
22DD
330
A
100
AcDbEntity
  8
MODEL
  6
Continuous
100
AcDbLine
 10
600.7311188020185
 20
2095.889814083455
 30
0.0
 11
586.459118801672
 21
2108.424814083372
 31
0.0
  0
LINE
  5
22DE
330
A
100
AcDbEntity
  8
MODEL
  6
Continuous
100
AcDbLine
 10
496.3191188020073
 20
2260.805814083395
 30
0.0
 11
488.456118802228
 21
2283.197814083358
 31
0.0
  0
LINE
  5
22DF
330
A
100
AcDbEntity
  8
MODEL
  6
Continuous
100
AcDbLine
 10
488.456118802228
 20
2283.197814083358
 30
0.0
 11
478.9751188018499
 21
2311.548814083324
 31
0.0
  0
LINE
  5
22E0
330
A
100
AcDbEntity
  8
MODEL
  6
Continuous
100
AcDbLine
 10
478.9751188018499
 20
2311.548814083324
 30
0.0
 11
472.3431188017503
 21
2330.457814083309
 31
0.0
  0
LINE
  5
22E1
330
A
100
AcDbEntity
  8
MODEL
  6
Continuous
100
AcDbLine
 10
468.4941188017046
 20
2338.300814083448
 30
0.0
 11
464.708118802323
 21
2344.525814083425
 31
0.0
  0
LINE
  5
22E2
330
A
100
AcDbEntity
  8
MODEL
  6
Continuous
100
AcDbLine
 10
472.3431188017503
 20
2330.457814083309
 30
0.0
 11
468.4941188017046
 21
2338.300814083448
 31
0.0
  0
LINE
  5
22E3
330
A
100
AcDbEntity
  8
MODEL
  6
Continuous
100
AcDbLine
 10
464.708118802323
 20
2344.525814083425
 30
0.0
 11
460.4281188021787
 21
2351.779814083382
 31
0.0
  0
LINE
  5
22E4
330
A
100
AcDbEntity
  8
MODEL
  6
Continuous
100
AcDbLine
 10
633.299118802338
 20
2081.16681408337
 30
0.0
 11
619.3941188019608
 21
2086.397814083428
 31
0.0
  0
LINE
  5
22E5
330
A
100
AcDbEntity
  8
MODEL
  6
Continuous
100
AcDbLine
 10
650.4281188021787
 20
2079.195814083321
 30
0.0
 11
633.299118802338
 21
2081.16681408337
 31
0.0
  0
LINE
  5
22E6
330
A
100
AcDbEntity
  8
MODEL
  6
Continuous
100
AcDbLine
 10
663.5251188020129
 20
2319.696814083398
 30
0.0
 11
710.9241188018723
 21
2319.896814083439
 31
0.0
  0
LINE
  5
22E7
330
A
100
AcDbEntity
  8
MODEL
  6
Continuous
100
AcDbLine
 10
799.936118802093
 20
2346.779814083382
 30
0.0
 11
500.9201188022644
 21
2346.779814083382
 31
0.0
  0
LINE
  5
22E8
330
A
100
AcDbEntity
  8
MODEL
  6
Continuous
100
AcDbLine
 10
710.9241188018723
 20
2319.896814083439
 30
0.0
 11
727.5151188023528
 21
2319.849814083389
 31
0.0
  0
LINE
  5
22E9
330
A
100
AcDbEntity
  8
MODEL
  6
Continuous
100
AcDbLine
 10
727.5151188023528
 20
2319.849814083389
 30
0.0
 11
742.3041188022262
 21
2319.904814083382
 31
0.0
  0
LINE
  5
22EA
330
A
100
AcDbEntity
  8
MODEL
  6
Continuous
100
AcDbLine
 10
742.3041188022262
 20
2319.904814083382
 30
0.0
 11
754.5961188016599
 21
2319.989814083345
 31
0.0
  0
LINE
  5
22EB
330
A
100
AcDbEntity
  8
MODEL
  6
Continuous
100
AcDbLine
 10
754.5961188016599
 20
2319.989814083345
 30
0.0
 11
763.169118801984
 21
2320.169814083454
 31
0.0
  0
LINE
  5
22EC
330
A
100
AcDbEntity
  8
MODEL
  6
Continuous
100
AcDbLine
 10
813.7841188020911
 20
2346.779814083382
 30
0.0
 11
799.936118802093
 21
2346.779814083382
 31
0.0
  0
LINE
  5
22ED
330
A
100
AcDbEntity
  8
MODEL
  6
Continuous
100
AcDbLine
 10
825.107118802066
 20
2346.779814083382
 30
0.0
 11
813.7841188020911
 21
2346.779814083382
 31
0.0
  0
LINE
  5
22EE
330
A
100
AcDbEntity
  8
MODEL
  6
Continuous
100
AcDbLine
 10
832.6731188022904
 20
2346.779814083382
 30
0.0
 11
825.107118802066
 21
2346.779814083382
 31
0.0
  0
LINE
  5
22EF
330
A
100
AcDbEntity
  8
MODEL
  6
Continuous
100
AcDbLine
 10
835.4281188021787
 20
2346.779814083382
 30
0.0
 11
834.2611188020464
 21
2346.779814083382
 31
0.0
  0
LINE
  5
22F0
330
A
100
AcDbEntity
  8
MODEL
  6
Continuous
100
AcDbLine
 10
763.169118801984
 20
2320.169814083454
 30
0.0
 11
773.7421188018425
 21
2320.592814083318
 31
0.0
  0
LINE
  5
22F1
330
A
100
AcDbEntity
  8
MODEL
  6
Continuous
100
AcDbLine
 10
773.7421188018425
 20
2320.592814083318
 30
0.0
 11
784.2221188019403
 21
2318.787814083442
 31
0.0
  0
LINE
  5
22F2
330
A
100
AcDbEntity
  8
MODEL
  6
Continuous
100
AcDbLine
 10
784.2221188019403
 20
2318.787814083442
 30
0.0
 11
793.916118801958
 21
2313.012814083448
 31
0.0
  0
LINE
  5
22F3
330
A
100
AcDbEntity
  8
MODEL
  6
Continuous
100
AcDbLine
 10
793.916118801958
 20
2313.012814083448
 30
0.0
 11
801.980118801971
 21
2304.130814083435
 31
0.0
  0
LINE
  5
22F4
330
A
100
AcDbEntity
  8
MODEL
  6
Continuous
100
AcDbLine
 10
801.980118801971
 20
2304.130814083435
 30
0.0
 11
807.2231188018714
 21
2292.971814083392
 31
0.0
  0
LINE
  5
22F5
330
A
100
AcDbEntity
  8
MODEL
  6
Continuous
100
AcDbLine
 10
807.2231188018714
 20
2292.971814083392
 30
0.0
 11
808.8861188016972
 21
2280.728814083375
 31
0.0
  0
LINE
  5
22FA
330
A
100
AcDbEntity
  8
MODEL
  6
Continuous
100
AcDbLine
 10
808.8861188016972
 20
2280.728814083375
 30
0.0
 11
806.8271188022709
 21
2267.69381408343
 31
0.0
  0
LINE
  5
22FB
330
A
100
AcDbEntity
  8
MODEL
  6
Continuous
100
AcDbLine
 10
810.5661188017484
 20
2282.083814083415
 30
0.0
 11
806.8271188022709
 21
2267.69381408343
 31
0.0
  0
LINE
  5
22FC
330
A
100
AcDbEntity
  8
MODEL
  6
Continuous
100
AcDbLine
 10
806.8271188022709
 20
2267.69381408343
 30
0.0
 11
796.8601188020921
 21
2238.186814083418
 31
0.0
  0
LINE
  5
22FD
330
A
100
AcDbEntity
  8
MODEL
  6
Continuous
100
AcDbLine
 10
804.53711880235
 20
2260.805814083395
 30
0.0
 11
806.8271188022709
 21
2267.69381408343
 31
0.0
  0
LINE
  5
22FE
330
A
100
AcDbEntity
  8
MODEL
  6
Continuous
100
AcDbLine
 10
804.53711880235
 20
2260.805814083395
 30
0.0
 11
796.8601188020921
 21
2238.186814083418
 31
0.0
  0
LINE
  5
22FF
330
A
100
AcDbEntity
  8
MODEL
  6
Continuous
100
AcDbLine
 10
796.8601188020921
 20
2238.186814083418
 30
0.0
 11
784.6091188016953
 21
2209.7428140834
 31
0.0
  0
LINE
  5
2300
330
A
100
AcDbEntity
  8
MODEL
  6
Continuous
100
AcDbLine
 10
784.6091188016953
 20
2209.7428140834
 30
0.0
 11
770.1261188018043
 21
2182.348814083341
 31
0.0
  0
LINE
  5
2301
330
A
100
AcDbEntity
  8
MODEL
  6
Continuous
100
AcDbLine
 10
770.1261188018043
 20
2182.348814083341
 30
0.0
 11
753.521118802405
 21
2156.204814083429
 31
0.0
  0
LINE
  5
2302
330
A
100
AcDbEntity
  8
MODEL
  6
Continuous
100
AcDbLine
 10
753.521118802405
 20
2156.204814083429
 30
0.0
 11
734.8551188017382
 21
2131.460814083364
 31
0.0
  0
LINE
  5
2303
330
A
100
AcDbEntity
  8
MODEL
  6
Continuous
100
AcDbLine
 10
734.8551188017382
 20
2131.460814083364
 30
0.0
 11
714.3971188021033
 21
2108.424814083372
 31
0.0
  0
LINE
  5
2304
330
A
100
AcDbEntity
  8
MODEL
  6
Continuous
100
AcDbLine
 10
714.3971188021033
 20
2108.424814083372
 30
0.0
 11
700.1251188017568
 21
2095.889814083455
 31
0.0
  0
LINE
  5
2305
330
A
100
AcDbEntity
  8
MODEL
  6
Continuous
100
AcDbLine
 10
812.4001188021293
 20
2283.197814083358
 30
0.0
 11
804.53711880235
 21
2260.805814083395
 31
0.0
  0
LINE
  5
2306
330
A
100
AcDbEntity
  8
MODEL
  6
Continuous
100
AcDbLine
 10
821.8811188019254
 20
2311.548814083324
 30
0.0
 11
812.4001188021293
 21
2283.197814083358
 31
0.0
  0
LINE
  5
2307
330
A
100
AcDbEntity
  8
MODEL
  6
Continuous
100
AcDbLine
 10
828.513118802025
 20
2330.457814083309
 30
0.0
 11
821.8811188019254
 21
2311.548814083324
 31
0.0
  0
LINE
  5
2308
330
A
100
AcDbEntity
  8
MODEL
  6
Continuous
100
AcDbLine
 10
836.1481188020343
 20
2344.525814083425
 30
0.0
 11
832.3621188020707
 21
2338.300814083448
 31
0.0
  0
LINE
  5
2309
330
A
100
AcDbEntity
  8
MODEL
  6
Continuous
100
AcDbLine
 10
832.3621188020707
 20
2338.300814083448
 30
0.0
 11
828.513118802025
 21
2330.457814083309
 31
0.0
  0
LINE
  5
230A
330
A
100
AcDbEntity
  8
MODEL
  6
Continuous
100
AcDbLine
 10
840.4281188021787
 20
2351.779814083382
 30
0.0
 11
836.1481188020343
 21
2344.525814083425
 31
0.0
  0
LINE
  5
230B
330
A
100
AcDbEntity
  8
MODEL
  6
Continuous
100
AcDbLine
 10
700.1251188017568
 20
2095.889814083455
 30
0.0
 11
681.4621188023966
 21
2086.397814083428
 31
0.0
  0
LINE
  5
230C
330
A
100
AcDbEntity
  8
MODEL
  6
Continuous
100
AcDbLine
 10
681.4621188023966
 20
2086.397814083428
 30
0.0
 11
667.5571188020194
 21
2081.16681408337
 31
0.0
  0
LINE
  5
230D
330
A
100
AcDbEntity
  8
MODEL
  6
Continuous
100
AcDbLine
 10
667.5571188020194
 20
2081.16681408337
 30
0.0
 11
650.4281188021787
 21
2079.195814083321
 31
0.0
  0
LINE
  5
230E
330
A
100
AcDbEntity
  8
MODEL
  6
Continuous
100
AcDbLine
 10
714.8141188021191
 20
2320.268814083354
 30
0.0
 11
650.4281188021787
 21
2319.549814083401
 31
0.0
  0
LINE
  5
230F
330
A
100
AcDbEntity
  8
MODEL
  6
Continuous
100
AcDbLine
 10
460.4281188021787
 20
2351.779814083382
 30
0.0
 11
462.428118801713
 21
2348.779814083353
 31
0.0
  0
LINE
  5
2310
330
A
100
AcDbEntity
  8
MODEL
  6
Continuous
100
AcDbLine
 10
463.4731188018714
 20
2351.779814083382
 30
0.0
 11
460.4281188021787
 21
2351.779814083382
 31
0.0
  0
LINE
  5
2311
330
A
100
AcDbEntity
  8
MODEL
  6
Continuous
100
AcDbLine
 10
465.4281188021787
 20
2346.779814083382
 30
0.0
 11
468.1831188020669
 21
2346.779814083382
 31
0.0
  0
LINE
  5
2312
330
A
100
AcDbEntity
  8
MODEL
  6
Continuous
100
AcDbLine
 10
462.428118801713
 20
2348.779814083353
 30
0.0
 11
465.4281188021787
 21
2346.779814083382
 31
0.0
  0
LINE
  5
2313
330
A
100
AcDbEntity
  8
MODEL
  6
Continuous
100
AcDbLine
 10
472.1441188021936
 20
2351.779814083382
 30
0.0
 11
463.4731188018714
 21
2351.779814083382
 31
0.0
  0
LINE
  5
2314
330
A
100
AcDbEntity
  8
MODEL
  6
Continuous
100
AcDbLine
 10
468.1831188020669
 20
2346.779814083382
 30
0.0
 11
475.7491188017093
 21
2346.779814083382
 31
0.0
  0
LINE
  5
2315
330
A
100
AcDbEntity
  8
MODEL
  6
Continuous
100
AcDbLine
 10
485.1211188015668
 20
2351.779814083382
 30
0.0
 11
472.1441188021936
 21
2351.779814083382
 31
0.0
  0
LINE
  5
2316
330
A
100
AcDbEntity
  8
MODEL
  6
Continuous
100
AcDbLine
 10
475.7491188017093
 20
2346.779814083382
 30
0.0
 11
487.0721188022662
 21
2346.779814083382
 31
0.0
  0
LINE
  5
2317
330
A
100
AcDbEntity
  8
MODEL
  6
Continuous
100
AcDbLine
 10
500.4281188021787
 20
2351.779814083382
 30
0.0
 11
485.1211188015668
 21
2351.779814083382
 31
0.0
  0
LINE
  5
2318
330
A
100
AcDbEntity
  8
MODEL
  6
Continuous
100
AcDbLine
 10
487.0721188022662
 20
2346.779814083382
 30
0.0
 11
500.9201188022644
 21
2346.779814083382
 31
0.0
  0
LINE
  5
2319
330
A
100
AcDbEntity
  8
MODEL
  6
Continuous
100
AcDbLine
 10
800.4281188021787
 20
2351.779814083382
 30
0.0
 11
500.4281188021787
 21
2351.779814083382
 31
0.0
  0
LINE
  5
231A
330
A
100
AcDbEntity
  8
MODEL
  6
Continuous
100
AcDbLine
 10
500.9201188022644
 20
2346.779814083382
 30
0.0
 11
799.936118802093
 21
2346.779814083382
 31
0.0
  0
LINE
  5
231B
330
A
100
AcDbEntity
  8
MODEL
  6
Continuous
100
AcDbLine
 10
815.7351188016264
 20
2351.779814083382
 30
0.0
 11
800.4281188021787
 21
2351.779814083382
 31
0.0
  0
LINE
  5
231C
330
A
100
AcDbEntity
  8
MODEL
  6
Continuous
100
AcDbLine
 10
799.936118802093
 20
2346.779814083382
 30
0.0
 11
813.7841188020911
 21
2346.779814083382
 31
0.0
  0
LINE
  5
231D
330
A
100
AcDbEntity
  8
MODEL
  6
Continuous
100
AcDbLine
 10
828.7121188021638
 20
2351.779814083382
 30
0.0
 11
815.7351188016264
 21
2351.779814083382
 31
0.0
  0
LINE
  5
231E
330
A
100
AcDbEntity
  8
MODEL
  6
Continuous
100
AcDbLine
 10
813.7841188020911
 20
2346.779814083382
 30
0.0
 11
825.107118802066
 21
2346.779814083382
 31
0.0
  0
LINE
  5
231F
330
A
100
AcDbEntity
  8
MODEL
  6
Continuous
100
AcDbLine
 10
837.383118801904
 20
2351.779814083382
 30
0.0
 11
828.7121188021638
 21
2351.779814083382
 31
0.0
  0
LINE
  5
2320
330
A
100
AcDbEntity
  8
MODEL
  6
Continuous
100
AcDbLine
 10
825.107118802066
 20
2346.779814083382
 30
0.0
 11
832.6731188022904
 21
2346.779814083382
 31
0.0
  0
LINE
  5
2321
330
A
100
AcDbEntity
  8
MODEL
  6
Continuous
100
AcDbLine
 10
840.4281188021787
 20
2351.779814083382
 30
0.0
 11
837.383118801904
 21
2351.779814083382
 31
0.0
  0
LINE
  5
2322
330
A
100
AcDbEntity
  8
MODEL
  6
Continuous
100
AcDbLine
 10
838.4281188020623
 20
2348.779814083353
 30
0.0
 11
840.4281188021787
 21
2351.779814083382
 31
0.0
  0
LINE
  5
2323
330
A
100
AcDbEntity
  8
MODEL
  6
Continuous
100
AcDbLine
 10
832.6731188022904
 20
2346.779814083382
 30
0.0
 11
835.4281188021787
 21
2346.779814083382
 31
0.0
  0
LINE
  5
2324
330
A
100
AcDbEntity
  8
MODEL
  6
Continuous
100
AcDbLine
 10
835.4281188021787
 20
2346.779814083382
 30
0.0
 11
838.4281188020623
 21
2348.779814083353
 31
0.0
  0
LINE
  5
2325
330
A
100
AcDbEntity
  8
MODEL
  6
Continuous
100
AcDbLine
 10
496.6311188022746
 20
2296.225814083407
 30
0.0
 11
501.9891188018164
 21
2306.405814083371
 31
0.0
  0
LINE
  5
2326
330
A
100
AcDbEntity
  8
MODEL
  6
Continuous
100
AcDbLine
 10
494.427118802364
 20
2283.870814083455
 30
0.0
 11
496.6311188022746
 21
2296.225814083407
 31
0.0
  0
LINE
  5
2327
330
A
100
AcDbEntity
  8
MODEL
  6
Continuous
100
AcDbLine
 10
496.1201188018686
 20
2271.608814083409
 30
0.0
 11
494.427118802364
 21
2283.870814083455
 31
0.0
  0
LINE
  5
2328
330
A
100
AcDbEntity
  8
MODEL
  6
Continuous
100
AcDbLine
 10
505.4951188018686
 20
2242.254814083388
 30
0.0
 11
496.1201188018686
 21
2271.608814083409
 31
0.0
  0
LINE
  5
2329
330
A
100
AcDbEntity
  8
MODEL
  6
Continuous
100
AcDbLine
 10
517.5291188018537
 20
2213.468814083424
 30
0.0
 11
505.4951188018686
 21
2242.254814083388
 31
0.0
  0
LINE
  5
232A
330
A
100
AcDbEntity
  8
MODEL
  6
Continuous
100
AcDbLine
 10
531.758118802486
 20
2185.793814083407
 30
0.0
 11
517.5291188018537
 21
2213.468814083424
 31
0.0
  0
LINE
  5
232B
330
A
100
AcDbEntity
  8
MODEL
  6
Continuous
100
AcDbLine
 10
548.0781188017363
 20
2159.401814083501
 30
0.0
 11
531.758118802486
 21
2185.793814083407
 31
0.0
  0
LINE
  5
232C
330
A
100
AcDbEntity
  8
MODEL
  6
Continuous
100
AcDbLine
 10
566.3821188020893
 20
2134.380814083377
 30
0.0
 11
548.0781188017363
 21
2159.401814083501
 31
0.0
  0
LINE
  5
232D
330
A
100
AcDbEntity
  8
MODEL
  6
Continuous
100
AcDbLine
 10
586.5541188021098
 20
2110.944814083303
 30
0.0
 11
566.3821188020893
 21
2134.380814083377
 31
0.0
  0
LINE
  5
232E
330
A
100
AcDbEntity
  8
MODEL
  6
Continuous
100
AcDbLine
 10
600.4871188020707
 20
2098.203814083497
 30
0.0
 11
586.5541188021098
 21
2110.944814083303
 31
0.0
  0
LINE
  5
232F
330
A
100
AcDbEntity
  8
MODEL
  6
Continuous
100
AcDbLine
 10
618.2731188022672
 20
2088.521814083322
 30
0.0
 11
600.4871188020707
 21
2098.203814083497
 31
0.0
  0
LINE
  5
2330
330
A
100
AcDbEntity
  8
MODEL
  6
Continuous
100
AcDbLine
 10
632.1391188019561
 20
2083.204814083399
 30
0.0
 11
618.2731188022672
 21
2088.521814083322
 31
0.0
  0
LINE
  5
2331
330
A
100
AcDbEntity
  8
MODEL
  6
Continuous
100
AcDbLine
 10
649.4311188019719
 20
2081.117814083371
 30
0.0
 11
632.1391188019561
 21
2083.204814083399
 31
0.0
  0
LINE
  5
2332
330
A
100
AcDbEntity
  8
MODEL
  6
Continuous
100
AcDbLine
 10
666.6291188021796
 20
2082.911814083453
 30
0.0
 11
649.4311188019719
 21
2081.117814083371
 31
0.0
  0
LINE
  5
2333
330
A
100
AcDbEntity
  8
MODEL
  6
Continuous
100
AcDbLine
 10
680.6331188020204
 20
2088.188814083367
 30
0.0
 11
666.6291188021796
 21
2082.911814083453
 31
0.0
  0
LINE
  5
2334
330
A
100
AcDbEntity
  8
MODEL
  6
Continuous
100
AcDbLine
 10
698.794118801984
 20
2097.54781408348
 30
0.0
 11
680.6331188020204
 21
2088.188814083367
 31
0.0
  0
LINE
  5
2335
330
A
100
AcDbEntity
  8
MODEL
  6
Continuous
100
AcDbLine
 10
712.4211188019626
 20
2109.932814083402
 30
0.0
 11
698.794118801984
 21
2097.54781408348
 31
0.0
  0
LINE
  5
2336
330
A
100
AcDbEntity
  8
MODEL
  6
Continuous
100
AcDbLine
 10
732.0831188022066
 20
2132.528814083451
 30
0.0
 11
712.4211188019626
 21
2109.932814083402
 31
0.0
  0
LINE
  5
2337
330
A
100
AcDbEntity
  8
MODEL
  6
Continuous
100
AcDbLine
 10
750.5181188017968
 20
2157.371814083415
 30
0.0
 11
732.0831188022066
 21
2132.528814083451
 31
0.0
  0
LINE
  5
2338
330
A
100
AcDbEntity
  8
MODEL
  6
Continuous
100
AcDbLine
 10
767.0421188020055
 20
2183.630814083406
 30
0.0
 11
750.5181188017968
 21
2157.371814083415
 31
0.0
  0
LINE
  5
2339
330
A
100
AcDbEntity
  8
MODEL
  6
Continuous
100
AcDbLine
 10
781.3891188018397
 20
2211.172814083364
 30
0.0
 11
767.0421188020055
 21
2183.630814083406
 31
0.0
  0
LINE
  5
233A
330
A
100
AcDbEntity
  8
MODEL
  6
Continuous
100
AcDbLine
 10
793.6771188016655
 20
2239.79881408344
 30
0.0
 11
781.3891188018397
 21
2211.172814083364
 31
0.0
  0
LINE
  5
233B
330
A
100
AcDbEntity
  8
MODEL
  6
Continuous
100
AcDbLine
 10
803.9051188020176
 20
2269.322814083387
 30
0.0
 11
793.6771188016655
 21
2239.79881408344
 31
0.0
  0
LINE
  5
233C
330
A
100
AcDbEntity
  8
MODEL
  6
Continuous
100
AcDbLine
 10
806.2741188021982
 20
2282.600814083524
 30
0.0
 11
803.9051188020176
 21
2269.322814083387
 31
0.0
  0
LINE
  5
233D
330
A
100
AcDbEntity
  8
MODEL
  6
Continuous
100
AcDbLine
 10
804.5911188020045
 20
2294.91681408337
 30
0.0
 11
806.2741188021982
 21
2282.600814083524
 31
0.0
  0
LINE
  5
233E
330
A
100
AcDbEntity
  8
MODEL
  6
Continuous
100
AcDbLine
 10
798.9091188016255
 20
2306.416814083457
 30
0.0
 11
804.5911188020045
 21
2294.91681408337
 31
0.0
  0
LINE
  5
233F
330
A
100
AcDbEntity
  8
MODEL
  6
Continuous
100
AcDbLine
 10
791.9851188022085
 20
2313.576814083461
 30
0.0
 11
800.6421188018658
 21
2304.625814083372
 31
0.0
  0
LINE
  5
2340
330
A
100
AcDbEntity
  8
MODEL
  6
Continuous
100
AcDbLine
 10
519.4581188020902
 20
2319.05981408341
 30
0.0
 11
528.9711188016599
 21
2320.518814083442
 31
0.0
  0
LINE
  5
2341
330
A
100
AcDbEntity
  8
MODEL
  6
Continuous
100
AcDbLine
 10
527.1141188019328
 20
2320.592814083318
 30
0.0
 11
516.6341188024171
 21
2318.787814083442
 31
0.0
  0
LINE
  5
2342
330
A
100
AcDbEntity
  8
MODEL
  6
Continuous
100
AcDbLine
 10
508.8441188020306
 20
2313.452814083392
 30
0.0
 11
519.4581188020902
 21
2319.05981408341
 31
0.0
  0
LINE
  5
2343
330
A
100
AcDbEntity
  8
MODEL
  6
Continuous
100
AcDbLine
 10
516.6341188024171
 20
2318.787814083442
 30
0.0
 11
506.9401188018173
 21
2313.012814083448
 31
0.0
  0
LINE
  5
2344
330
A
100
AcDbEntity
  8
MODEL
  6
Continuous
100
AcDbLine
 10
500.2891188019794
 20
2304.658814083339
 30
0.0
 11
508.8441188020306
 21
2313.452814083392
 31
0.0
  0
LINE
  5
2345
330
A
100
AcDbEntity
  8
MODEL
  6
Continuous
100
AcDbLine
 10
506.9401188018173
 20
2313.012814083448
 30
0.0
 11
498.8761188018043
 21
2304.130814083435
 31
0.0
  0
LINE
  5
2346
330
A
100
AcDbEntity
  8
MODEL
  6
Continuous
100
AcDbLine
 10
494.7541188021796
 20
2293.566814083422
 30
0.0
 11
500.2891188019794
 21
2304.658814083339
 31
0.0
  0
LINE
  5
2347
330
A
100
AcDbEntity
  8
MODEL
  6
Continuous
100
AcDbLine
 10
498.8761188018043
 20
2304.130814083435
 30
0.0
 11
493.6331188019039
 21
2292.971814083392
 31
0.0
  0
LINE
  5
2348
330
A
100
AcDbEntity
  8
MODEL
  6
Continuous
100
AcDbLine
 10
492.8581188023463
 20
2281.335814083539
 30
0.0
 11
494.7541188021796
 21
2293.566814083422
 31
0.0
  0
LINE
  5
2349
330
A
100
AcDbEntity
  8
MODEL
  6
Continuous
100
AcDbLine
 10
493.6331188019039
 20
2292.971814083392
 30
0.0
 11
491.9701188020781
 21
2280.728814083375
 31
0.0
  0
LINE
  5
234A
330
A
100
AcDbEntity
  8
MODEL
  6
Continuous
100
AcDbLine
 10
494.7351188018592
 20
2268.748814083481
 30
0.0
 11
492.8581188023463
 21
2281.335814083539
 31
0.0
  0
LINE
  5
234B
330
A
100
AcDbEntity
  8
MODEL
  6
Continuous
100
AcDbLine
 10
491.9701188020781
 20
2280.728814083375
 30
0.0
 11
494.0291188020865
 21
2267.69381408343
 31
0.0
  0
LINE
  5
234C
330
A
100
AcDbEntity
  8
MODEL
  6
Continuous
100
AcDbLine
 10
504.5281188019226
 20
2239.215814083398
 30
0.0
 11
494.7351188018592
 21
2268.748814083481
 31
0.0
  0
LINE
  5
234D
330
A
100
AcDbEntity
  8
MODEL
  6
Continuous
100
AcDbLine
 10
494.0291188020865
 20
2267.69381408343
 30
0.0
 11
503.9961188022653
 21
2238.186814083418
 31
0.0
  0
LINE
  5
234E
330
A
100
AcDbEntity
  8
MODEL
  6
Continuous
100
AcDbLine
 10
516.7361188020232
 20
2210.613814083443
 30
0.0
 11
504.5281188019226
 21
2239.215814083398
 31
0.0
  0
LINE
  5
234F
330
A
100
AcDbEntity
  8
MODEL
  6
Continuous
100
AcDbLine
 10
503.9961188022653
 20
2238.186814083418
 30
0.0
 11
516.24711880208
 21
2209.7428140834
 31
0.0
  0
LINE
  5
2350
330
A
100
AcDbEntity
  8
MODEL
  6
Continuous
100
AcDbLine
 10
531.1461188019393
 20
2183.081814083378
 30
0.0
 11
516.7361188020232
 21
2210.613814083443
 31
0.0
  0
LINE
  5
2351
330
A
100
AcDbEntity
  8
MODEL
  6
Continuous
100
AcDbLine
 10
516.24711880208
 20
2209.7428140834
 30
0.0
 11
530.730118801971
 21
2182.348814083341
 31
0.0
  0
LINE
  5
2352
330
A
100
AcDbEntity
  8
MODEL
  6
Continuous
100
AcDbLine
 10
547.6571188021126
 20
2156.806814083355
 30
0.0
 11
531.1461188019393
 21
2183.081814083378
 31
0.0
  0
LINE
  5
2353
330
A
100
AcDbEntity
  8
MODEL
  6
Continuous
100
AcDbLine
 10
530.730118801971
 20
2182.348814083341
 30
0.0
 11
547.3351188019524
 21
2156.204814083429
 31
0.0
  0
LINE
  5
2354
330
A
100
AcDbEntity
  8
MODEL
  6
Continuous
100
AcDbLine
 10
566.1811188018555
 20
2131.951814083402
 30
0.0
 11
547.6571188021126
 21
2156.806814083355
 31
0.0
  0
LINE
  5
2355
330
A
100
AcDbEntity
  8
MODEL
  6
Continuous
100
AcDbLine
 10
547.3351188019524
 20
2156.204814083429
 30
0.0
 11
566.0011188020371
 21
2131.460814083364
 31
0.0
  0
LINE
  5
2356
330
A
100
AcDbEntity
  8
MODEL
  6
Continuous
100
AcDbLine
 10
586.5461188023119
 20
2108.744814083437
 30
0.0
 11
566.1811188018555
 21
2131.951814083402
 31
0.0
  0
LINE
  5
2357
330
A
100
AcDbEntity
  8
MODEL
  6
Continuous
100
AcDbLine
 10
566.0011188020371
 20
2131.460814083364
 30
0.0
 11
586.459118801672
 21
2108.424814083372
 31
0.0
  0
LINE
  5
2358
330
A
100
AcDbEntity
  8
MODEL
  6
Continuous
100
AcDbLine
 10
600.6291188024124
 20
2096.176814083408
 30
0.0
 11
586.5461188023119
 21
2108.744814083437
 31
0.0
  0
LINE
  5
2359
330
A
100
AcDbEntity
  8
MODEL
  6
Continuous
100
AcDbLine
 10
586.459118801672
 20
2108.424814083372
 30
0.0
 11
600.7311188020185
 21
2095.889814083455
 31
0.0
  0
LINE
  5
235A
330
A
100
AcDbEntity
  8
MODEL
  6
Continuous
100
AcDbLine
 10
600.7311188020185
 20
2095.889814083455
 30
0.0
 11
618.9551188020641
 21
2086.58781408343
 31
0.0
  0
LINE
  5
235B
330
A
100
AcDbEntity
  8
MODEL
  6
Continuous
100
AcDbLine
 10
618.9551188020641
 20
2086.58781408343
 30
0.0
 11
600.6291188024124
 21
2096.176814083408
 31
0.0
  0
LINE
  5
235C
330
A
100
AcDbEntity
  8
MODEL
  6
Continuous
100
AcDbLine
 10
618.9551188020641
 20
2086.58781408343
 30
0.0
 11
619.3941188019608
 21
2086.397814083428
 31
0.0
  0
LINE
  5
235D
330
A
100
AcDbEntity
  8
MODEL
  6
Continuous
100
AcDbLine
 10
632.7791188020865
 20
2081.367814083458
 30
0.0
 11
618.9551188020641
 21
2086.58781408343
 31
0.0
  0
LINE
  5
235E
330
A
100
AcDbEntity
  8
MODEL
  6
Continuous
100
AcDbLine
 10
619.3941188019608
 20
2086.397814083428
 30
0.0
 11
633.299118802338
 21
2081.16681408337
 31
0.0
  0
LINE
  5
235F
330
A
100
AcDbEntity
  8
MODEL
  6
Continuous
100
AcDbLine
 10
650.044118801984
 20
2079.386814083517
 30
0.0
 11
632.7791188020865
 21
2081.367814083458
 31
0.0
  0
LINE
  5
2360
330
A
100
AcDbEntity
  8
MODEL
  6
Continuous
100
AcDbLine
 10
633.299118802338
 20
2081.16681408337
 30
0.0
 11
650.4281188021787
 21
2079.195814083321
 31
0.0
  0
LINE
  5
2361
330
A
100
AcDbEntity
  8
MODEL
  6
Continuous
100
AcDbLine
 10
667.2621188019775
 20
2081.352814083328
 30
0.0
 11
650.044118801984
 21
2079.386814083517
 31
0.0
  0
LINE
  5
2362
330
A
100
AcDbEntity
  8
MODEL
  6
Continuous
100
AcDbLine
 10
650.4281188021787
 20
2079.195814083321
 30
0.0
 11
667.5571188020194
 21
2081.16681408337
 31
0.0
  0
LINE
  5
2363
330
A
100
AcDbEntity
  8
MODEL
  6
Continuous
100
AcDbLine
 10
681.1521188016422
 20
2086.612814083453
 30
0.0
 11
667.2621188019775
 21
2081.352814083328
 31
0.0
  0
LINE
  5
2364
330
A
100
AcDbEntity
  8
MODEL
  6
Continuous
100
AcDbLine
 10
667.5571188020194
 20
2081.16681408337
 30
0.0
 11
681.4621188023966
 21
2086.397814083428
 31
0.0
  0
LINE
  5
2365
330
A
100
AcDbEntity
  8
MODEL
  6
Continuous
100
AcDbLine
 10
699.6111188023724
 20
2096.056814083384
 30
0.0
 11
681.1521188016422
 21
2086.612814083453
 31
0.0
  0
LINE
  5
2366
330
A
100
AcDbEntity
  8
MODEL
  6
Continuous
100
AcDbLine
 10
681.4621188023966
 20
2086.397814083428
 30
0.0
 11
700.1251188017568
 21
2095.889814083455
 31
0.0
  0
LINE
  5
2367
330
A
100
AcDbEntity
  8
MODEL
  6
Continuous
100
AcDbLine
 10
713.5911188016553
 20
2108.506814083337
 30
0.0
 11
699.6111188023724
 21
2096.056814083384
 31
0.0
  0
LINE
  5
2368
330
A
100
AcDbEntity
  8
MODEL
  6
Continuous
100
AcDbLine
 10
700.1251188017568
 20
2095.889814083455
 30
0.0
 11
714.3971188021033
 21
2108.424814083372
 31
0.0
  0
LINE
  5
2369
330
A
100
AcDbEntity
  8
MODEL
  6
Continuous
100
AcDbLine
 10
733.7771188023407
 20
2131.410814083463
 30
0.0
 11
713.5911188016553
 21
2108.506814083337
 31
0.0
  0
LINE
  5
236A
330
A
100
AcDbEntity
  8
MODEL
  6
Continuous
100
AcDbLine
 10
714.3971188021033
 20
2108.424814083372
 30
0.0
 11
734.8551188017382
 21
2131.460814083364
 31
0.0
  0
LINE
  5
236B
330
A
100
AcDbEntity
  8
MODEL
  6
Continuous
100
AcDbLine
 10
752.3611188020232
 20
2156.223814083458
 30
0.0
 11
733.7771188023407
 21
2131.410814083463
 31
0.0
  0
LINE
  5
236C
330
A
100
AcDbEntity
  8
MODEL
  6
Continuous
100
AcDbLine
 10
734.8551188017382
 20
2131.460814083364
 30
0.0
 11
753.521118802405
 21
2156.204814083429
 31
0.0
  0
LINE
  5
236D
330
A
100
AcDbEntity
  8
MODEL
  6
Continuous
100
AcDbLine
 10
768.9431188020762
 20
2182.471814083363
 30
0.0
 11
752.3611188020232
 21
2156.223814083458
 31
0.0
  0
LINE
  5
236E
330
A
100
AcDbEntity
  8
MODEL
  6
Continuous
100
AcDbLine
 10
753.521118802405
 20
2156.204814083429
 30
0.0
 11
770.1261188018043
 21
2182.348814083341
 31
0.0
  0
LINE
  5
236F
330
A
100
AcDbEntity
  8
MODEL
  6
Continuous
100
AcDbLine
 10
783.3951188022411
 20
2209.979814083452
 30
0.0
 11
768.9431188020762
 21
2182.471814083363
 31
0.0
  0
LINE
  5
2370
330
A
100
AcDbEntity
  8
MODEL
  6
Continuous
100
AcDbLine
 10
770.1261188018043
 20
2182.348814083341
 30
0.0
 11
784.6091188016953
 21
2209.7428140834
 31
0.0
  0
LINE
  5
2371
330
A
100
AcDbEntity
  8
MODEL
  6
Continuous
100
AcDbLine
 10
795.6721188021265
 20
2238.576814083461
 30
0.0
 11
783.3951188022411
 21
2209.979814083452
 31
0.0
  0
LINE
  5
2372
330
A
100
AcDbEntity
  8
MODEL
  6
Continuous
100
AcDbLine
 10
784.6091188016953
 20
2209.7428140834
 30
0.0
 11
796.8601188020921
 21
2238.186814083418
 31
0.0
  0
LINE
  5
2373
330
A
100
AcDbEntity
  8
MODEL
  6
Continuous
100
AcDbLine
 10
805.724118801686
 20
2268.156814083448
 30
0.0
 11
795.6721188021265
 21
2238.576814083461
 31
0.0
  0
LINE
  5
2374
330
A
100
AcDbEntity
  8
MODEL
  6
Continuous
100
AcDbLine
 10
796.8601188020921
 20
2238.186814083418
 30
0.0
 11
806.8271188022709
 21
2267.69381408343
 31
0.0
  0
LINE
  5
2375
330
A
100
AcDbEntity
  8
MODEL
  6
Continuous
100
AcDbLine
 10
807.8591188023938
 20
2281.102814083386
 30
0.0
 11
805.724118801686
 21
2268.156814083448
 31
0.0
  0
LINE
  5
2376
330
A
100
AcDbEntity
  8
MODEL
  6
Continuous
100
AcDbLine
 10
806.8271188022709
 20
2267.69381408343
 30
0.0
 11
808.8861188016972
 21
2280.728814083375
 31
0.0
  0
LINE
  5
2377
330
A
100
AcDbEntity
  8
MODEL
  6
Continuous
100
AcDbLine
 10
806.1191188018211
 20
2293.40681408339
 30
0.0
 11
807.8591188023938
 21
2281.102814083386
 31
0.0
  0
LINE
  5
2378
330
A
100
AcDbEntity
  8
MODEL
  6
Continuous
100
AcDbLine
 10
808.8861188016972
 20
2280.728814083375
 30
0.0
 11
807.2231188018714
 21
2292.971814083392
 31
0.0
  0
LINE
  5
2379
330
A
100
AcDbEntity
  8
MODEL
  6
Continuous
100
AcDbLine
 10
800.6421188018658
 20
2304.625814083372
 30
0.0
 11
806.1191188018211
 21
2293.40681408339
 31
0.0
  0
LINE
  5
237A
330
A
100
AcDbEntity
  8
MODEL
  6
Continuous
100
AcDbLine
 10
807.2231188018714
 20
2292.971814083392
 30
0.0
 11
801.980118801971
 21
2304.130814083435
 31
0.0
  0
LINE
  5
237B
330
A
100
AcDbEntity
  8
MODEL
  6
Continuous
100
AcDbLine
 10
792.2001188019431
 20
2313.460814083481
 30
0.0
 11
800.6421188018658
 21
2304.625814083372
 31
0.0
  0
LINE
  5
237C
330
A
100
AcDbEntity
  8
MODEL
  6
Continuous
100
AcDbLine
 10
801.980118801971
 20
2304.130814083435
 30
0.0
 11
793.916118801958
 21
2313.012814083448
 31
0.0
  0
LINE
  5
237D
330
A
100
AcDbEntity
  8
MODEL
  6
Continuous
100
AcDbLine
 10
781.8821188019729
 20
2319.010814083411
 30
0.0
 11
792.2001188019431
 21
2313.460814083481
 31
0.0
  0
LINE
  5
237E
330
A
100
AcDbEntity
  8
MODEL
  6
Continuous
100
AcDbLine
 10
793.916118801958
 20
2313.012814083448
 30
0.0
 11
784.2221188019403
 21
2318.787814083442
 31
0.0
  0
LINE
  5
237F
330
A
100
AcDbEntity
  8
MODEL
  6
Continuous
100
AcDbLine
 10
771.6661188016087
 20
2320.509814083305
 30
0.0
 11
781.8821188019729
 21
2319.010814083411
 31
0.0
  0
LINE
  5
2380
330
A
100
AcDbEntity
  8
MODEL
  6
Continuous
100
AcDbLine
 10
784.2221188019403
 20
2318.787814083442
 30
0.0
 11
773.7421188018425
 21
2320.592814083318
 31
0.0
  0
LINE
  5
2381
330
A
100
AcDbEntity
  8
MODEL
  6
Continuous
100
AcDbLine
 10
693.8951188021247
 20
2269.809814083526
 30
0.0
 11
695.4281188021787
 21
2281.455814083418
 31
0.0
  0
LINE
  5
2382
330
A
100
AcDbEntity
  8
MODEL
  6
Continuous
100
AcDbLine
 10
689.3991188021982
 20
2258.955814083418
 30
0.0
 11
693.8951188021247
 21
2269.809814083526
 31
0.0
  0
LINE
  5
2383
330
A
100
AcDbEntity
  8
MODEL
  6
Continuous
100
AcDbLine
 10
682.2481188024767
 20
2249.636814083458
 30
0.0
 11
689.3991188021982
 21
2258.955814083418
 31
0.0
  0
LINE
  5
2384
330
A
100
AcDbEntity
  8
MODEL
  6
Continuous
100
AcDbLine
 10
672.9281188021787
 20
2242.484814083398
 30
0.0
 11
682.2481188024767
 21
2249.636814083458
 31
0.0
  0
LINE
  5
2385
330
A
100
AcDbEntity
  8
MODEL
  6
Continuous
100
AcDbLine
 10
662.0751188018266
 20
2237.989814083374
 30
0.0
 11
672.9281188021787
 21
2242.484814083398
 31
0.0
  0
LINE
  5
2386
330
A
100
AcDbEntity
  8
MODEL
  6
Continuous
100
AcDbLine
 10
650.4281188021787
 20
2236.455814083418
 30
0.0
 11
662.0751188018266
 21
2237.989814083374
 31
0.0
  0
LINE
  5
2387
330
A
100
AcDbEntity
  8
MODEL
  6
Continuous
100
AcDbLine
 10
638.7811188019487
 20
2237.989814083374
 30
0.0
 11
650.4281188021787
 21
2236.455814083418
 31
0.0
  0
LINE
  5
2388
330
A
100
AcDbEntity
  8
MODEL
  6
Continuous
100
AcDbLine
 10
627.9281188021787
 20
2242.484814083398
 30
0.0
 11
638.7811188019487
 21
2237.989814083374
 31
0.0
  0
LINE
  5
2389
330
A
100
AcDbEntity
  8
MODEL
  6
Continuous
100
AcDbLine
 10
618.6081188018807
 20
2249.636814083458
 30
0.0
 11
627.9281188021787
 21
2242.484814083398
 31
0.0
  0
LINE
  5
238A
330
A
100
AcDbEntity
  8
MODEL
  6
Continuous
100
AcDbLine
 10
611.4571188021591
 20
2258.955814083418
 30
0.0
 11
618.6081188018807
 21
2249.636814083458
 31
0.0
  0
LINE
  5
238B
330
A
100
AcDbEntity
  8
MODEL
  6
Continuous
100
AcDbLine
 10
606.9611188022327
 20
2269.809814083526
 30
0.0
 11
611.4571188021591
 21
2258.955814083418
 31
0.0
  0
LINE
  5
238C
330
A
100
AcDbEntity
  8
MODEL
  6
Continuous
100
AcDbLine
 10
605.4281188021787
 20
2281.455814083418
 30
0.0
 11
606.9611188022327
 21
2269.809814083526
 31
0.0
  0
LINE
  5
238D
330
A
100
AcDbEntity
  8
MODEL
  6
Continuous
100
AcDbLine
 10
606.9611188022327
 20
2293.102814083357
 30
0.0
 11
605.4281188021787
 21
2281.455814083418
 31
0.0
  0
LINE
  5
238E
330
A
100
AcDbEntity
  8
MODEL
  6
Continuous
100
AcDbLine
 10
611.4571188021591
 20
2303.955814083418
 30
0.0
 11
606.9611188022327
 21
2293.102814083357
 31
0.0
  0
LINE
  5
238F
330
A
100
AcDbEntity
  8
MODEL
  6
Continuous
100
AcDbLine
 10
618.6081188018807
 20
2313.275814083425
 30
0.0
 11
611.4571188021591
 21
2303.955814083418
 31
0.0
  0
LINE
  5
2390
330
A
100
AcDbEntity
  8
MODEL
  6
Continuous
100
AcDbLine
 10
627.0321188021126
 20
2319.739814083403
 30
0.0
 11
618.6081188018807
 21
2313.275814083425
 31
0.0
  0
LINE
  5
2391
330
A
100
AcDbEntity
  8
MODEL
  6
Continuous
100
AcDbLine
 10
682.2481188024767
 20
2313.275814083425
 30
0.0
 11
673.8241188022448
 21
2319.739814083403
 31
0.0
  0
LINE
  5
2392
330
A
100
AcDbEntity
  8
MODEL
  6
Continuous
100
AcDbLine
 10
689.3991188021982
 20
2303.955814083418
 30
0.0
 11
682.2481188024767
 21
2313.275814083425
 31
0.0
  0
LINE
  5
2393
330
A
100
AcDbEntity
  8
MODEL
  6
Continuous
100
AcDbLine
 10
693.8951188021247
 20
2293.102814083357
 30
0.0
 11
689.3991188021982
 21
2303.955814083418
 31
0.0
  0
LINE
  5
2394
330
A
100
AcDbEntity
  8
MODEL
  6
Continuous
100
AcDbLine
 10
695.4281188021787
 20
2281.455814083418
 30
0.0
 11
693.8951188021247
 21
2293.102814083357
 31
0.0
  0
LINE
  5
2395
330
A
100
AcDbEntity
  8
MODEL
  6
Continuous
100
AcDbLine
 10
686.2531188017829
 20
2319.791814083399
 30
0.0
 11
687.6741188017559
 21
2318.701814083432
 31
0.0
  0
LINE
  5
2396
330
A
100
AcDbEntity
  8
MODEL
  6
Continuous
100
AcDbLine
 10
687.8161188015156
 20
2318.84481408353
 30
0.0
 11
686.579118801551
 21
2319.793814083494
 31
0.0
  0
LINE
  5
2397
330
A
100
AcDbEntity
  8
MODEL
  6
Continuous
100
AcDbLine
 10
687.6741188017559
 20
2318.701814083432
 30
0.0
 11
696.0441188017512
 21
2307.792814083476
 31
0.0
  0
LINE
  5
2398
330
A
100
AcDbEntity
  8
MODEL
  6
Continuous
100
AcDbLine
 10
696.2191188019142
 20
2307.893814083325
 30
0.0
 11
687.8161188015156
 21
2318.84481408353
 31
0.0
  0
LINE
  5
2399
330
A
100
AcDbEntity
  8
MODEL
  6
Continuous
100
AcDbLine
 10
696.0441188017512
 20
2307.792814083476
 30
0.0
 11
701.3061188019719
 21
2295.08881408339
 31
0.0
  0
LINE
  5
239A
330
A
100
AcDbEntity
  8
MODEL
  6
Continuous
100
AcDbLine
 10
701.5011188019207
 20
2295.140814083386
 30
0.0
 11
696.2191188019142
 21
2307.893814083325
 31
0.0
  0
LINE
  5
239B
330
A
100
AcDbEntity
  8
MODEL
  6
Continuous
100
AcDbLine
 10
701.3061188019719
 20
2295.08881408339
 30
0.0
 11
703.1011188022467
 21
2281.455814083418
 31
0.0
  0
LINE
  5
239C
330
A
100
AcDbEntity
  8
MODEL
  6
Continuous
100
AcDbLine
 10
703.3031188019459
 20
2281.455814083418
 30
0.0
 11
701.5011188019207
 21
2295.140814083386
 31
0.0
  0
LINE
  5
239D
330
A
100
AcDbEntity
  8
MODEL
  6
Continuous
100
AcDbLine
 10
703.1011188022467
 20
2281.455814083418
 30
0.0
 11
701.3061188019719
 21
2267.823814083347
 31
0.0
  0
LINE
  5
239E
330
A
100
AcDbEntity
  8
MODEL
  6
Continuous
100
AcDbLine
 10
701.5011188019207
 20
2267.770814083449
 30
0.0
 11
703.3031188019459
 21
2281.455814083418
 31
0.0
  0
LINE
  5
239F
330
A
100
AcDbEntity
  8
MODEL
  6
Continuous
100
AcDbLine
 10
701.3061188019719
 20
2267.823814083347
 30
0.0
 11
696.0441188017512
 21
2255.119814083408
 31
0.0
  0
LINE
  5
23A0
330
A
100
AcDbEntity
  8
MODEL
  6
Continuous
100
AcDbLine
 10
696.2191188019142
 20
2255.018814083413
 30
0.0
 11
701.5011188019207
 21
2267.770814083449
 31
0.0
  0
LINE
  5
23A1
330
A
100
AcDbEntity
  8
MODEL
  6
Continuous
100
AcDbLine
 10
696.0441188017512
 20
2255.119814083408
 30
0.0
 11
687.6741188017559
 21
2244.210814083452
 31
0.0
  0
LINE
  5
23A2
330
A
100
AcDbEntity
  8
MODEL
  6
Continuous
100
AcDbLine
 10
687.8161188015156
 20
2244.067814083499
 30
0.0
 11
696.2191188019142
 21
2255.018814083413
 31
0.0
  0
LINE
  5
23A3
330
A
100
AcDbEntity
  8
MODEL
  6
Continuous
100
AcDbLine
 10
687.6741188017559
 20
2244.210814083452
 30
0.0
 11
676.7651188016544
 21
2235.839814083409
 31
0.0
  0
LINE
  5
23A4
330
A
100
AcDbEntity
  8
MODEL
  6
Continuous
100
AcDbLine
 10
676.8651188023296
 20
2235.664814083391
 30
0.0
 11
687.8161188015156
 21
2244.067814083499
 31
0.0
  0
LINE
  5
23A5
330
A
100
AcDbEntity
  8
MODEL
  6
Continuous
100
AcDbLine
 10
676.7651188016544
 20
2235.839814083409
 30
0.0
 11
664.0611188018602
 21
2230.577814083334
 31
0.0
  0
LINE
  5
23A6
330
A
100
AcDbEntity
  8
MODEL
  6
Continuous
100
AcDbLine
 10
664.1131188020017
 20
2230.382814083385
 30
0.0
 11
676.8651188023296
 21
2235.664814083391
 31
0.0
  0
LINE
  5
23A7
330
A
100
AcDbEntity
  8
MODEL
  6
Continuous
100
AcDbLine
 10
664.0611188018602
 20
2230.577814083334
 30
0.0
 11
650.4281188021787
 21
2228.78281408335
 31
0.0
  0
LINE
  5
23A8
330
A
100
AcDbEntity
  8
MODEL
  6
Continuous
100
AcDbLine
 10
650.4281188021787
 20
2228.58081408336
 30
0.0
 11
664.1131188020017
 21
2230.382814083385
 31
0.0
  0
LINE
  5
23A9
330
A
100
AcDbEntity
  8
MODEL
  6
Continuous
100
AcDbLine
 10
650.4281188021787
 20
2228.78281408335
 30
0.0
 11
636.7951188019151
 21
2230.577814083334
 31
0.0
  0
LINE
  5
23AA
330
A
100
AcDbEntity
  8
MODEL
  6
Continuous
100
AcDbLine
 10
636.7431188023556
 20
2230.382814083385
 30
0.0
 11
650.4281188021787
 21
2228.58081408336
 31
0.0
  0
LINE
  5
23AB
330
A
100
AcDbEntity
  8
MODEL
  6
Continuous
100
AcDbLine
 10
636.7951188019151
 20
2230.577814083334
 30
0.0
 11
624.0911188015389
 21
2235.839814083409
 31
0.0
  0
LINE
  5
23AC
330
A
100
AcDbEntity
  8
MODEL
  6
Continuous
100
AcDbLine
 10
623.9901188019803
 20
2235.664814083391
 30
0.0
 11
636.7431188023556
 21
2230.382814083385
 31
0.0
  0
LINE
  5
23AD
330
A
100
AcDbEntity
  8
MODEL
  6
Continuous
100
AcDbLine
 10
624.0911188015389
 20
2235.839814083409
 30
0.0
 11
613.1821188020194
 21
2244.210814083452
 31
0.0
  0
LINE
  5
23AE
330
A
100
AcDbEntity
  8
MODEL
  6
Continuous
100
AcDbLine
 10
613.0401188016776
 20
2244.067814083499
 30
0.0
 11
623.9901188019803
 21
2235.664814083391
 31
0.0
  0
LINE
  5
23AF
330
A
100
AcDbEntity
  8
MODEL
  6
Continuous
100
AcDbLine
 10
613.1821188020194
 20
2244.210814083452
 30
0.0
 11
604.8121188020241
 21
2255.119814083408
 31
0.0
  0
LINE
  5
23B0
330
A
100
AcDbEntity
  8
MODEL
  6
Continuous
100
AcDbLine
 10
604.6371188018611
 20
2255.018814083413
 30
0.0
 11
613.0401188016776
 21
2244.067814083499
 31
0.0
  0
LINE
  5
23B1
330
A
100
AcDbEntity
  8
MODEL
  6
Continuous
100
AcDbLine
 10
604.8121188020241
 20
2255.119814083408
 30
0.0
 11
599.5501188018034
 21
2267.823814083347
 31
0.0
  0
LINE
  5
23B2
330
A
100
AcDbEntity
  8
MODEL
  6
Continuous
100
AcDbLine
 10
599.3551188018546
 20
2267.770814083449
 30
0.0
 11
604.6371188018611
 21
2255.018814083413
 31
0.0
  0
LINE
  5
23B3
330
A
100
AcDbEntity
  8
MODEL
  6
Continuous
100
AcDbLine
 10
599.5501188018034
 20
2267.823814083347
 30
0.0
 11
597.7551188021107
 21
2281.455814083418
 31
0.0
  0
LINE
  5
23B4
330
A
100
AcDbEntity
  8
MODEL
  6
Continuous
100
AcDbLine
 10
597.5531188024115
 20
2281.455814083418
 30
0.0
 11
599.3551188018546
 21
2267.770814083449
 31
0.0
  0
LINE
  5
23B5
330
A
100
AcDbEntity
  8
MODEL
  6
Continuous
100
AcDbLine
 10
597.7551188021107
 20
2281.455814083418
 30
0.0
 11
599.5501188018034
 21
2295.08881408339
 31
0.0
  0
LINE
  5
23B6
330
A
100
AcDbEntity
  8
MODEL
  6
Continuous
100
AcDbLine
 10
599.3551188018546
 20
2295.140814083386
 30
0.0
 11
597.5531188024115
 21
2281.455814083418
 31
0.0
  0
LINE
  5
23B7
330
A
100
AcDbEntity
  8
MODEL
  6
Continuous
100
AcDbLine
 10
599.5501188018034
 20
2295.08881408339
 30
0.0
 11
604.8121188020241
 21
2307.792814083476
 31
0.0
  0
LINE
  5
23B8
330
A
100
AcDbEntity
  8
MODEL
  6
Continuous
100
AcDbLine
 10
604.6371188018611
 20
2307.893814083325
 30
0.0
 11
599.3551188018546
 21
2295.140814083386
 31
0.0
  0
LINE
  5
23B9
330
A
100
AcDbEntity
  8
MODEL
  6
Continuous
100
AcDbLine
 10
604.8121188020241
 20
2307.792814083476
 30
0.0
 11
613.1821188020194
 21
2318.701814083432
 31
0.0
  0
LINE
  5
23BA
330
A
100
AcDbEntity
  8
MODEL
  6
Continuous
100
AcDbLine
 10
613.0401188016776
 20
2318.84481408353
 30
0.0
 11
604.6371188018611
 21
2307.893814083325
 31
0.0
  0
LINE
  5
23BB
330
A
100
AcDbEntity
  8
MODEL
  6
Continuous
100
AcDbLine
 10
613.1821188020194
 20
2318.701814083432
 30
0.0
 11
614.6031188019924
 21
2319.791814083399
 31
0.0
  0
LINE
  5
23BC
330
A
100
AcDbEntity
  8
MODEL
  6
Continuous
100
AcDbLine
 10
614.2771188016422
 20
2319.793814083494
 30
0.0
 11
613.0401188016776
 21
2318.84481408353
 31
0.0
  0
LINE
  5
23BD
330
A
100
AcDbEntity
  8
MODEL
  6
Continuous
100
AcDbLine
 10
1664.733991479169
 20
873.1135877275669
 30
0.0
 11
1664.733991479169
 21
1563.113587727567
 31
0.0
  0
LINE
  5
23BE
330
A
100
AcDbEntity
  8
MODEL
  6
Continuous
100
AcDbLine
 10
1664.733991479169
 20
857.8065877275371
 30
0.0
 11
1664.733991479169
 21
873.1135877275669
 31
0.0
  0
LINE
  5
23BF
330
A
100
AcDbEntity
  8
MODEL
  6
Continuous
100
AcDbLine
 10
1664.733991479169
 20
844.8295877275818
 30
0.0
 11
1664.733991479169
 21
857.8065877275371
 31
0.0
  0
LINE
  5
23C0
330
A
100
AcDbEntity
  8
MODEL
  6
Continuous
100
AcDbLine
 10
1664.733991479169
 20
836.1585877275506
 30
0.0
 11
1664.733991479169
 21
844.8295877275818
 31
0.0
  0
LINE
  5
23C1
102
{ACAD_REACTORS
330
284B
102
}
330
A
100
AcDbEntity
  8
MODEL
  6
Continuous
100
AcDbLine
 10
1664.733991479169
 20
833.1135877275669
 30
0.0
 11
1664.733991479169
 21
836.1585877275506
 31
0.0
  0
LINE
  5
23C2
330
A
100
AcDbEntity
  8
MODEL
  6
Continuous
100
AcDbLine
 10
1664.733991479169
 20
1600.068587727583
 30
0.0
 11
1664.733991479169
 21
1603.113587727567
 31
0.0
  0
LINE
  5
23C3
330
A
100
AcDbEntity
  8
MODEL
  6
Continuous
100
AcDbLine
 10
1664.733991479169
 20
1591.397587727552
 30
0.0
 11
1664.733991479169
 21
1600.068587727583
 31
0.0
  0
LINE
  5
23C4
330
A
100
AcDbEntity
  8
MODEL
  6
Continuous
100
AcDbLine
 10
1664.733991479169
 20
1578.420587727597
 30
0.0
 11
1664.733991479169
 21
1591.397587727552
 31
0.0
  0
LINE
  5
23C5
330
A
100
AcDbEntity
  8
MODEL
  6
Continuous
100
AcDbLine
 10
1664.733991479169
 20
1563.113587727567
 30
0.0
 11
1664.733991479169
 21
1578.420587727597
 31
0.0
  0
LINE
  5
23C6
330
A
100
AcDbEntity
  8
MODEL
  6
Continuous
100
AcDbLine
 10
1574.733991479751
 20
1563.113587727567
 30
0.0
 11
1574.733991479751
 21
1578.420587727597
 31
0.0
  0
LINE
  5
23C7
330
A
100
AcDbEntity
  8
MODEL
  6
Continuous
100
AcDbLine
 10
1664.733991479169
 20
1578.420587727597
 30
0.0
 11
1664.733991479169
 21
1563.113587727567
 31
0.0
  0
LINE
  5
23C8
330
A
100
AcDbEntity
  8
MODEL
  6
Continuous
100
AcDbLine
 10
1574.733991479751
 20
1578.420587727597
 30
0.0
 11
1574.733991479751
 21
1591.397587727552
 31
0.0
  0
LINE
  5
23C9
330
A
100
AcDbEntity
  8
MODEL
  6
Continuous
100
AcDbLine
 10
1664.733991479169
 20
1591.397587727552
 30
0.0
 11
1664.733991479169
 21
1578.420587727597
 31
0.0
  0
LINE
  5
23CA
330
A
100
AcDbEntity
  8
MODEL
  6
Continuous
100
AcDbLine
 10
1574.733991479751
 20
1591.397587727552
 30
0.0
 11
1574.733991479751
 21
1600.068587727583
 31
0.0
  0
LINE
  5
23CB
330
A
100
AcDbEntity
  8
MODEL
  6
Continuous
100
AcDbLine
 10
1664.733991479169
 20
1600.068587727583
 30
0.0
 11
1664.733991479169
 21
1591.397587727552
 31
0.0
  0
LINE
  5
23CC
330
A
100
AcDbEntity
  8
MODEL
  6
Continuous
100
AcDbLine
 10
1574.733991479751
 20
1600.068587727583
 30
0.0
 11
1574.733991479751
 21
1603.113587727567
 31
0.0
  0
LINE
  5
23CD
330
A
100
AcDbEntity
  8
MODEL
  6
Continuous
100
AcDbLine
 10
1664.733991479169
 20
1603.113587727567
 30
0.0
 11
1664.733991479169
 21
1600.068587727583
 31
0.0
  0
LINE
  5
23CE
330
A
100
AcDbEntity
  8
MODEL
  6
Continuous
100
AcDbLine
 10
1664.733991479169
 20
1603.113587727567
 30
0.0
 11
1574.733991479751
 21
1603.113587727567
 31
0.0
  0
LINE
  5
23CF
330
A
100
AcDbEntity
  8
MODEL
  6
Continuous
100
AcDbLine
 10
1574.733991479751
 20
833.1135877275669
 30
0.0
 11
1574.733991479751
 21
836.1585877275506
 31
0.0
  0
LINE
  5
23D0
330
A
100
AcDbEntity
  8
MODEL
  6
Continuous
100
AcDbLine
 10
1664.733991479169
 20
833.1135877275669
 30
0.0
 11
1574.733991479751
 21
833.1135877275669
 31
0.0
  0
LINE
  5
23D1
330
A
100
AcDbEntity
  8
MODEL
  6
Continuous
100
AcDbLine
 10
1664.733991479169
 20
836.1585877275506
 30
0.0
 11
1664.733991479169
 21
833.1135877275669
 31
0.0
  0
LINE
  5
23D2
330
A
100
AcDbEntity
  8
MODEL
  6
Continuous
100
AcDbLine
 10
1574.733991479751
 20
836.1585877275506
 30
0.0
 11
1574.733991479751
 21
844.8295877275818
 31
0.0
  0
LINE
  5
23D3
330
A
100
AcDbEntity
  8
MODEL
  6
Continuous
100
AcDbLine
 10
1664.733991479169
 20
844.8295877275818
 30
0.0
 11
1664.733991479169
 21
836.1585877275506
 31
0.0
  0
LINE
  5
23D4
330
A
100
AcDbEntity
  8
MODEL
  6
Continuous
100
AcDbLine
 10
1574.733991479751
 20
844.8295877275818
 30
0.0
 11
1574.733991479751
 21
857.8065877275371
 31
0.0
  0
LINE
  5
23D5
330
A
100
AcDbEntity
  8
MODEL
  6
Continuous
100
AcDbLine
 10
1664.733991479169
 20
857.8065877275371
 30
0.0
 11
1664.733991479169
 21
844.8295877275818
 31
0.0
  0
LINE
  5
23D6
330
A
100
AcDbEntity
  8
MODEL
  6
Continuous
100
AcDbLine
 10
1574.733991479751
 20
857.8065877275371
 30
0.0
 11
1574.733991479751
 21
873.1135877275669
 31
0.0
  0
LINE
  5
23D7
330
A
100
AcDbEntity
  8
MODEL
  6
Continuous
100
AcDbLine
 10
1664.733991479169
 20
873.1135877275669
 30
0.0
 11
1664.733991479169
 21
857.8065877275371
 31
0.0
  0
LINE
  5
23D8
330
A
100
AcDbEntity
  8
MODEL
  6
Continuous
100
AcDbLine
 10
1574.733991479751
 20
873.1135877275669
 30
0.0
 11
1574.733991479751
 21
1563.113587727567
 31
0.0
  0
LINE
  5
23D9
330
A
100
AcDbEntity
  8
MODEL
  6
Continuous
100
AcDbLine
 10
1664.733991479169
 20
1563.113587727567
 30
0.0
 11
1664.733991479169
 21
873.1135877275669
 31
0.0
  0
LINE
  5
23DA
330
A
100
AcDbEntity
  8
MODEL
  6
Continuous
100
AcDbLine
 10
1542.850991479371
 20
1519.690587727674
 30
0.0
 11
1542.594991479436
 21
1521.255587727501
 31
0.0
  0
LINE
  5
23DB
330
A
100
AcDbEntity
  8
MODEL
  6
Continuous
100
AcDbLine
 10
1543.948991479719
 20
1531.532587727561
 30
0.0
 11
1551.887991479033
 21
1547.533587727522
 31
0.0
  0
LINE
  5
23DC
330
A
100
AcDbEntity
  8
MODEL
  6
Continuous
100
AcDbLine
 10
1542.880991479632
 20
1518.866587727535
 30
0.0
 11
1542.850991479371
 21
1519.690587727674
 31
0.0
  0
LINE
  5
23DD
330
A
100
AcDbEntity
  8
MODEL
  6
Continuous
100
AcDbLine
 10
1542.858991479169
 20
1511.303587727598
 30
0.0
 11
1542.880991479632
 21
1518.866587727535
 31
0.0
  0
LINE
  5
23DE
330
A
100
AcDbEntity
  8
MODEL
  6
Continuous
100
AcDbLine
 10
1542.943991479714
 20
1500.90058772752
 30
0.0
 11
1542.858991479169
 21
1511.303587727598
 31
0.0
  0
LINE
  5
23DF
330
A
100
AcDbEntity
  8
MODEL
  6
Continuous
100
AcDbLine
 10
1543.123991479532
 20
1486.513587727532
 30
0.0
 11
1542.943991479714
 21
1500.90058772752
 31
0.0
  0
LINE
  5
23E1
330
A
100
AcDbEntity
  8
MODEL
  6
Continuous
100
AcDbLine
 10
1569.733991479169
 20
1595.358587727533
 30
0.0
 11
1569.733991479169
 21
1587.7925877276
 31
0.0
  0
LINE
  5
23E2
330
A
100
AcDbEntity
  8
MODEL
  6
Continuous
100
AcDbLine
 10
1569.733991479169
 20
1587.7925877276
 30
0.0
 11
1569.733991479169
 21
1576.469587727479
 31
0.0
  0
LINE
  5
23E3
330
A
100
AcDbEntity
  8
MODEL
  6
Continuous
100
AcDbLine
 10
1569.733991479169
 20
1576.469587727479
 30
0.0
 11
1569.733991479169
 21
1562.621587727627
 31
0.0
  0
LINE
  5
23E4
330
A
100
AcDbEntity
  8
MODEL
  6
Continuous
100
AcDbLine
 10
1543.546991479251
 20
1460.186587727513
 30
0.0
 11
1543.123991479532
 21
1486.513587727532
 31
0.0
  0
LINE
  5
23E5
330
A
100
AcDbEntity
  8
MODEL
  6
Continuous
100
AcDbLine
 10
1541.741991479666
 20
1426.702587727487
 30
0.0
 11
1543.546991479251
 21
1460.186587727513
 31
0.0
  0
LINE
  5
23E6
330
A
100
AcDbEntity
  8
MODEL
  6
Continuous
100
AcDbLine
 10
1535.966991479526
 20
1391.116587727593
 30
0.0
 11
1541.741991479666
 21
1426.702587727487
 31
0.0
  0
LINE
  5
23E7
330
A
100
AcDbEntity
  8
MODEL
  6
Continuous
100
AcDbLine
 10
1527.084991479077
 20
1355.491587727593
 30
0.0
 11
1535.966991479526
 21
1391.116587727593
 31
0.0
  0
LINE
  5
23E8
330
A
100
AcDbEntity
  8
MODEL
  6
Continuous
100
AcDbLine
 10
1515.925991479325
 20
1324.419587727607
 30
0.0
 11
1527.084991479077
 21
1355.491587727593
 31
0.0
  0
LINE
  5
23E9
330
A
100
AcDbEntity
  8
MODEL
  6
Continuous
100
AcDbLine
 10
1503.682991479308
 20
1308.93958772751
 30
0.0
 11
1515.925991479325
 21
1324.419587727607
 31
0.0
  0
LINE
  5
23EA
330
A
100
AcDbEntity
  8
MODEL
  6
Continuous
100
AcDbLine
 10
1569.733991479169
 20
1562.621587727627
 30
0.0
 11
1570.233991479635
 21
1493.670587727539
 31
0.0
  0
LINE
  5
23EB
330
A
100
AcDbEntity
  8
MODEL
  6
Continuous
100
AcDbLine
 10
1570.233991479635
 20
1493.670587727539
 30
0.0
 11
1570.733991479518
 21
1424.719587727596
 31
0.0
  0
LINE
  5
23EC
330
A
100
AcDbEntity
  8
MODEL
  6
Continuous
100
AcDbLine
 10
1570.733991479518
 20
1424.719587727596
 30
0.0
 11
1571.233991479402
 21
1355.768587727508
 31
0.0
  0
LINE
  5
23ED
330
A
100
AcDbEntity
  8
MODEL
  6
Continuous
100
AcDbLine
 10
1571.233991479402
 20
1355.768587727508
 30
0.0
 11
1571.733991479286
 21
1286.818587727612
 31
0.0
  0
LINE
  5
23EE
330
A
100
AcDbEntity
  8
MODEL
  6
Continuous
100
AcDbLine
 10
1571.733991479286
 20
1286.818587727612
 30
0.0
 11
1572.233991479169
 21
1217.86758772767
 31
0.0
  0
LINE
  5
23EF
330
A
100
AcDbEntity
  8
MODEL
  6
Continuous
100
AcDbLine
 10
1572.233991479169
 20
1217.86758772767
 30
0.0
 11
1572.733991479635
 21
1148.916587727581
 31
0.0
  0
LINE
  5
23F0
330
A
100
AcDbEntity
  8
MODEL
  6
Continuous
100
AcDbLine
 10
1490.647991478926
 20
1294.998587727605
 30
0.0
 11
1503.682991479308
 21
1308.93958772751
 31
0.0
  0
LINE
  5
23F1
330
A
100
AcDbEntity
  8
MODEL
  6
Continuous
100
AcDbLine
 10
1461.140991479641
 20
1274.175587727514
 30
0.0
 11
1490.647991478926
 21
1294.998587727605
 31
0.0
  0
LINE
  5
23F2
330
A
100
AcDbEntity
  8
MODEL
  6
Continuous
100
AcDbLine
 10
1432.696991479624
 20
1261.800587727485
 30
0.0
 11
1461.140991479641
 21
1274.175587727514
 31
0.0
  0
LINE
  5
23F3
330
A
100
AcDbEntity
  8
MODEL
  6
Continuous
100
AcDbLine
 10
1405.30299147942
 20
1252.080587727542
 30
0.0
 11
1432.696991479624
 21
1261.800587727485
 31
0.0
  0
LINE
  5
23F4
330
A
100
AcDbEntity
  8
MODEL
  6
Continuous
100
AcDbLine
 10
1379.158991479216
 20
1241.936587727542
 30
0.0
 11
1405.30299147942
 21
1252.080587727542
 31
0.0
  0
LINE
  5
23F5
330
A
100
AcDbEntity
  8
MODEL
  6
Continuous
100
AcDbLine
 10
1354.414991479151
 20
1234.024587727472
 30
0.0
 11
1379.158991479216
 21
1241.936587727542
 31
0.0
  0
LINE
  5
23F6
330
A
100
AcDbEntity
  8
MODEL
  6
Continuous
100
AcDbLine
 10
1331.378991479304
 20
1226.680587727461
 30
0.0
 11
1354.414991479151
 21
1234.024587727472
 31
0.0
  0
LINE
  5
23F7
330
A
100
AcDbEntity
  8
MODEL
  6
Continuous
100
AcDbLine
 10
1318.843991479388
 20
1223.2245877276
 30
0.0
 11
1331.378991479304
 21
1226.680587727461
 31
0.0
  0
LINE
  5
23F8
330
A
100
AcDbEntity
  8
MODEL
  6
Continuous
100
AcDbLine
 10
1572.733991479635
 20
1148.916587727581
 30
0.0
 11
1573.733991479402
 21
1011.015587727598
 31
0.0
  0
LINE
  5
23F9
330
A
100
AcDbEntity
  8
MODEL
  6
Continuous
100
AcDbLine
 10
1573.733991479402
 20
1011.015587727598
 30
0.0
 11
1574.733991479751
 21
873.1135877275669
 31
0.0
  0
LINE
  5
23FA
330
A
100
AcDbEntity
  8
MODEL
  6
Continuous
100
AcDbLine
 10
1574.733991479751
 20
873.1135877275669
 30
0.0
 11
1574.733991479751
 21
857.8065877275371
 31
0.0
  0
LINE
  5
23FB
330
A
100
AcDbEntity
  8
MODEL
  6
Continuous
100
AcDbLine
 10
1574.733991479751
 20
857.8065877275371
 30
0.0
 11
1574.733991479751
 21
844.8295877275818
 31
0.0
  0
LINE
  5
23FC
330
A
100
AcDbEntity
  8
MODEL
  6
Continuous
100
AcDbLine
 10
1574.733991479751
 20
844.8295877275818
 30
0.0
 11
1574.733991479751
 21
836.1585877275506
 31
0.0
  0
LINE
  5
23FD
330
A
100
AcDbEntity
  8
MODEL
  6
Continuous
100
AcDbLine
 10
1574.733991479751
 20
836.1585877275506
 30
0.0
 11
1574.733991479751
 21
833.1135877275669
 31
0.0
  0
LINE
  5
2400
330
A
100
AcDbEntity
  8
MODEL
  6
Continuous
100
AcDbLine
 10
1309.351991479652
 20
1219.826587727585
 30
0.0
 11
1318.843991479388
 21
1223.2245877276
 31
0.0
  0
LINE
  5
2401
330
A
100
AcDbEntity
  8
MODEL
  6
Continuous
100
AcDbLine
 10
1304.120991479157
 20
1218.375587727642
 30
0.0
 11
1309.351991479652
 21
1219.826587727585
 31
0.0
  0
LINE
  5
2402
330
A
100
AcDbEntity
  8
MODEL
  6
Continuous
100
AcDbLine
 10
1302.149991479254
 20
1216.853587727529
 30
0.0
 11
1304.120991479157
 21
1218.375587727642
 31
0.0
  0
LINE
  5
2406
330
A
100
AcDbEntity
  8
MODEL
  6
Continuous
100
AcDbLine
 10
1543.948991479719
 20
1531.532587727561
 30
0.0
 11
1542.503991479188
 21
1523.802587727551
 31
0.0
  0
LINE
  5
2407
330
A
100
AcDbEntity
  8
MODEL
  6
Continuous
100
AcDbLine
 10
1559.244991479808
 20
1563.891587727558
 30
0.0
 11
1551.887991479033
 21
1547.533587727522
 31
0.0
  0
LINE
  5
2408
330
A
100
AcDbEntity
  8
MODEL
  6
Continuous
100
AcDbLine
 10
1565.652991479164
 20
1580.571587727609
 30
0.0
 11
1559.244991479808
 21
1563.891587727558
 31
0.0
  0
LINE
  5
2409
330
A
100
AcDbEntity
  8
MODEL
  6
Continuous
100
AcDbLine
 10
1568.001991478976
 20
1588.73358772762
 30
0.0
 11
1565.652991479164
 21
1580.571587727609
 31
0.0
  0
LINE
  5
240A
330
A
100
AcDbEntity
  8
MODEL
  6
Continuous
100
AcDbLine
 10
1569.733991479169
 20
1598.113587727567
 30
0.0
 11
1568.001991478976
 21
1588.73358772762
 31
0.0
  0
LINE
  5
240D
330
A
100
AcDbEntity
  8
MODEL
  6
Continuous
100
AcDbLine
 10
1302.149991479254
 20
1216.853587727529
 30
0.0
 11
1350.845991479599
 21
1127.248587727518
 31
0.0
  0
LINE
  5
240E
330
A
100
AcDbEntity
  8
MODEL
  6
Continuous
100
AcDbLine
 10
1350.845991479599
 20
1127.248587727518
 30
0.0
 11
1404.746991479205
 21
1031.063587727549
 31
0.0
  0
LINE
  5
240F
330
A
100
AcDbEntity
  8
MODEL
  6
Continuous
100
AcDbLine
 10
1404.746991479205
 20
1031.063587727549
 30
0.0
 11
1462.120991479041
 21
939.192587727594
 31
0.0
  0
LINE
  5
2410
330
A
100
AcDbEntity
  8
MODEL
  6
Continuous
100
AcDbLine
 10
1462.120991479041
 20
939.192587727594
 30
0.0
 11
1502.660991479078
 21
879.4985877275763
 31
0.0
  0
LINE
  5
2411
330
A
100
AcDbEntity
  8
MODEL
  6
Continuous
100
AcDbLine
 10
1502.660991479078
 20
879.4985877275763
 30
0.0
 11
1525.658991479449
 21
854.9895877276144
 31
0.0
  0
LINE
  5
2412
330
A
100
AcDbEntity
  8
MODEL
  6
Continuous
100
AcDbLine
 10
1525.658991479449
 20
854.9895877276144
 30
0.0
 11
1548.779991479259
 21
841.2835877275215
 31
0.0
  0
LINE
  5
2413
330
A
100
AcDbEntity
  8
MODEL
  6
Continuous
100
AcDbLine
 10
1548.779991479259
 20
841.2835877275215
 30
0.0
 11
1574.733991479751
 21
833.1135877275669
 31
0.0
  0
LINE
  5
2414
330
A
100
AcDbEntity
  8
MODEL
  6
Continuous
100
AcDbLine
 10
1542.503991479188
 20
1523.802587727551
 30
0.0
 11
1542.594991479436
 21
1521.255587727501
 31
0.0
  0
LINE
  5
2415
330
A
100
AcDbEntity
  8
MODEL
  6
Continuous
100
AcDbLine
 10
1574.733991479751
 20
873.1135877275669
 30
0.0
 11
1569.733991479169
 21
1562.621587727627
 31
0.0
  0
LINE
  5
2416
330
A
100
AcDbEntity
  8
MODEL
  6
Continuous
100
AcDbLine
 10
1574.733991479751
 20
1563.113587727567
 30
0.0
 11
1574.733991479751
 21
873.1135877275669
 31
0.0
  0
LINE
  5
2417
330
A
100
AcDbEntity
  8
MODEL
  6
Continuous
100
AcDbLine
 10
1574.733991479751
 20
1578.420587727597
 30
0.0
 11
1574.733991479751
 21
1563.113587727567
 31
0.0
  0
LINE
  5
2418
330
A
100
AcDbEntity
  8
MODEL
  6
Continuous
100
AcDbLine
 10
1569.733991479169
 20
1562.621587727627
 30
0.0
 11
1569.733991479169
 21
1576.469587727479
 31
0.0
  0
LINE
  5
2419
330
A
100
AcDbEntity
  8
MODEL
  6
Continuous
100
AcDbLine
 10
1574.733991479751
 20
1591.397587727552
 30
0.0
 11
1574.733991479751
 21
1578.420587727597
 31
0.0
  0
LINE
  5
241A
330
A
100
AcDbEntity
  8
MODEL
  6
Continuous
100
AcDbLine
 10
1569.733991479169
 20
1576.469587727479
 30
0.0
 11
1569.733991479169
 21
1587.7925877276
 31
0.0
  0
LINE
  5
241B
330
A
100
AcDbEntity
  8
MODEL
  6
Continuous
100
AcDbLine
 10
1574.733991479751
 20
1600.068587727583
 30
0.0
 11
1574.733991479751
 21
1591.397587727552
 31
0.0
  0
LINE
  5
241C
330
A
100
AcDbEntity
  8
MODEL
  6
Continuous
100
AcDbLine
 10
1569.733991479169
 20
1587.7925877276
 30
0.0
 11
1569.733991479169
 21
1595.358587727533
 31
0.0
  0
LINE
  5
241D
330
A
100
AcDbEntity
  8
MODEL
  6
Continuous
100
AcDbLine
 10
1574.733991479751
 20
1603.113587727567
 30
0.0
 11
1574.733991479751
 21
1600.068587727583
 31
0.0
  0
LINE
  5
241E
330
A
100
AcDbEntity
  8
MODEL
  6
Continuous
100
AcDbLine
 10
1571.72899147963
 20
1601.109587727552
 30
0.0
 11
1574.733991479751
 21
1603.113587727567
 31
0.0
  0
LINE
  5
241F
330
A
100
AcDbEntity
  8
MODEL
  6
Continuous
100
AcDbLine
 10
1569.733991479169
 20
1595.358587727533
 30
0.0
 11
1569.733991479169
 21
1598.113587727567
 31
0.0
  0
LINE
  5
2420
330
A
100
AcDbEntity
  8
MODEL
  6
Continuous
100
AcDbLine
 10
1569.733991479169
 20
1598.113587727567
 30
0.0
 11
1571.72899147963
 21
1601.109587727552
 31
0.0
  0
LINE
  5
2421
330
A
100
AcDbEntity
  8
MODEL
  6
Continuous
100
AcDbLine
 10
1542.594991479436
 20
1521.255587727501
 30
0.0
 11
1542.850991479371
 21
1519.690587727674
 31
0.0
  0
LINE
  5
2422
330
A
100
AcDbEntity
  8
MODEL
  6
Continuous
100
AcDbLine
 10
1536.40699147947
 20
1394.15858772758
 30
0.0
 11
1541.80699147926
 21
1427.90858772758
 31
0.0
  0
LINE
  5
2423
330
A
100
AcDbEntity
  8
MODEL
  6
Continuous
100
AcDbLine
 10
1541.741991479666
 20
1426.702587727487
 30
0.0
 11
1535.966991479526
 21
1391.116587727593
 31
0.0
  0
LINE
  5
2424
330
A
100
AcDbEntity
  8
MODEL
  6
Continuous
100
AcDbLine
 10
1527.612991479126
 20
1358.708587727452
 30
0.0
 11
1536.40699147947
 21
1394.15858772758
 31
0.0
  0
LINE
  5
2425
330
A
100
AcDbEntity
  8
MODEL
  6
Continuous
100
AcDbLine
 10
1535.966991479526
 20
1391.116587727593
 30
0.0
 11
1527.084991479077
 21
1355.491587727593
 31
0.0
  0
LINE
  5
2426
330
A
100
AcDbEntity
  8
MODEL
  6
Continuous
100
AcDbLine
 10
1516.520991479064
 20
1327.638587727561
 30
0.0
 11
1527.612991479126
 21
1358.708587727452
 31
0.0
  0
LINE
  5
2427
330
A
100
AcDbEntity
  8
MODEL
  6
Continuous
100
AcDbLine
 10
1527.084991479077
 20
1355.491587727593
 30
0.0
 11
1515.925991479325
 21
1324.419587727607
 31
0.0
  0
LINE
  5
2428
330
A
100
AcDbEntity
  8
MODEL
  6
Continuous
100
AcDbLine
 10
1504.289991479617
 20
1311.819587727514
 30
0.0
 11
1516.520991479064
 21
1327.638587727561
 31
0.0
  0
LINE
  5
2429
330
A
100
AcDbEntity
  8
MODEL
  6
Continuous
100
AcDbLine
 10
1515.925991479325
 20
1324.419587727607
 30
0.0
 11
1503.682991479308
 21
1308.93958772751
 31
0.0
  0
LINE
  5
242A
330
A
100
AcDbEntity
  8
MODEL
  6
Continuous
100
AcDbLine
 10
1491.702991479559
 20
1297.998587727489
 30
0.0
 11
1504.289991479617
 21
1311.819587727514
 31
0.0
  0
LINE
  5
242B
330
A
100
AcDbEntity
  8
MODEL
  6
Continuous
100
AcDbLine
 10
1503.682991479308
 20
1308.93958772751
 30
0.0
 11
1490.647991478926
 21
1294.998587727605
 31
0.0
  0
LINE
  5
242C
330
A
100
AcDbEntity
  8
MODEL
  6
Continuous
100
AcDbLine
 10
1462.169991479622
 20
1277.290587727476
 30
0.0
 11
1491.702991479559
 21
1297.998587727489
 31
0.0
  0
LINE
  5
242D
330
A
100
AcDbEntity
  8
MODEL
  6
Continuous
100
AcDbLine
 10
1490.647991478926
 20
1294.998587727605
 30
0.0
 11
1461.140991479641
 21
1274.175587727514
 31
0.0
  0
LINE
  5
242E
330
A
100
AcDbEntity
  8
MODEL
  6
Continuous
100
AcDbLine
 10
1433.567991479666
 20
1264.684587727534
 30
0.0
 11
1462.169991479622
 21
1277.290587727476
 31
0.0
  0
LINE
  5
242F
330
A
100
AcDbEntity
  8
MODEL
  6
Continuous
100
AcDbLine
 10
1461.140991479641
 20
1274.175587727514
 30
0.0
 11
1432.696991479624
 21
1261.800587727485
 31
0.0
  0
LINE
  5
2430
330
A
100
AcDbEntity
  8
MODEL
  6
Continuous
100
AcDbLine
 10
1406.035991479311
 20
1254.809587727505
 30
0.0
 11
1433.567991479666
 21
1264.684587727534
 31
0.0
  0
LINE
  5
2431
330
A
100
AcDbEntity
  8
MODEL
  6
Continuous
100
AcDbLine
 10
1432.696991479624
 20
1261.800587727485
 30
0.0
 11
1405.30299147942
 21
1252.080587727542
 31
0.0
  0
LINE
  5
2432
330
A
100
AcDbEntity
  8
MODEL
  6
Continuous
100
AcDbLine
 10
1379.760991479287
 20
1244.556587727566
 30
0.0
 11
1406.035991479311
 21
1254.809587727505
 31
0.0
  0
LINE
  5
2433
330
A
100
AcDbEntity
  8
MODEL
  6
Continuous
100
AcDbLine
 10
1405.30299147942
 20
1252.080587727542
 30
0.0
 11
1379.158991479216
 21
1241.936587727542
 31
0.0
  0
LINE
  5
2434
330
A
100
AcDbEntity
  8
MODEL
  6
Continuous
100
AcDbLine
 10
1354.90599147919
 20
1236.474587727571
 30
0.0
 11
1379.760991479287
 21
1244.556587727566
 31
0.0
  0
LINE
  5
2435
330
A
100
AcDbEntity
  8
MODEL
  6
Continuous
100
AcDbLine
 10
1379.158991479216
 20
1241.936587727542
 30
0.0
 11
1354.414991479151
 21
1234.024587727472
 31
0.0
  0
LINE
  5
2436
330
A
100
AcDbEntity
  8
MODEL
  6
Continuous
100
AcDbLine
 10
1331.698991479369
 20
1228.922587727575
 30
0.0
 11
1354.90599147919
 21
1236.474587727571
 31
0.0
  0
LINE
  5
2437
330
A
100
AcDbEntity
  8
MODEL
  6
Continuous
100
AcDbLine
 10
1354.414991479151
 20
1234.024587727472
 30
0.0
 11
1331.378991479304
 21
1226.680587727461
 31
0.0
  0
LINE
  5
2438
330
A
100
AcDbEntity
  8
MODEL
  6
Continuous
100
AcDbLine
 10
1319.130991479632
 20
1225.277587727615
 30
0.0
 11
1331.698991479369
 21
1228.922587727575
 31
0.0
  0
LINE
  5
2439
330
A
100
AcDbEntity
  8
MODEL
  6
Continuous
100
AcDbLine
 10
1331.378991479304
 20
1226.680587727461
 30
0.0
 11
1318.843991479388
 21
1223.2245877276
 31
0.0
  0
LINE
  5
243A
330
A
100
AcDbEntity
  8
MODEL
  6
Continuous
100
AcDbLine
 10
1309.541991479363
 20
1221.861587727472
 30
0.0
 11
1319.130991479632
 21
1225.277587727615
 31
0.0
  0
LINE
  5
243B
330
A
100
AcDbEntity
  8
MODEL
  6
Continuous
100
AcDbLine
 10
1318.843991479388
 20
1223.2245877276
 30
0.0
 11
1309.351991479652
 21
1219.826587727585
 31
0.0
  0
LINE
  5
243C
330
A
100
AcDbEntity
  8
MODEL
  6
Continuous
100
AcDbLine
 10
1304.321991479391
 20
1220.260587727535
 30
0.0
 11
1309.541991479363
 21
1221.861587727472
 31
0.0
  0
LINE
  5
243D
330
A
100
AcDbEntity
  8
MODEL
  6
Continuous
100
AcDbLine
 10
1309.351991479652
 20
1219.826587727585
 30
0.0
 11
1304.120991479157
 21
1218.375587727642
 31
0.0
  0
LINE
  5
243E
330
A
100
AcDbEntity
  8
MODEL
  6
Continuous
100
AcDbLine
 10
1302.340991479013
 20
1218.658587727551
 30
0.0
 11
1304.321991479391
 21
1220.260587727535
 31
0.0
  0
LINE
  5
243F
330
A
100
AcDbEntity
  8
MODEL
  6
Continuous
100
AcDbLine
 10
1304.120991479157
 20
1218.375587727642
 30
0.0
 11
1302.149991479254
 21
1216.853587727529
 31
0.0
  0
LINE
  5
2440
330
A
100
AcDbEntity
  8
MODEL
  6
Continuous
100
AcDbLine
 10
1302.149991479254
 20
1216.853587727529
 30
0.0
 11
1302.340991479013
 21
1218.658587727551
 31
0.0
  0
LINE
  5
2443
330
A
100
AcDbEntity
  8
MODEL
  6
Continuous
100
AcDbLine
 10
500.4281188021787
 20
1603.113587727567
 30
0.0
 11
800.4281188021787
 21
1603.113587727567
 31
0.0
  0
LINE
  5
2444
330
A
100
AcDbEntity
  8
MODEL
  6
Continuous
100
AcDbLine
 10
460.4281188021787
 20
1563.113587727567
 30
0.0
 11
463.4731188024534
 21
1578.420587727597
 31
0.0
  0
LINE
  5
2445
330
A
100
AcDbEntity
  8
MODEL
  6
Continuous
100
AcDbLine
 10
463.4731188024534
 20
1578.420587727597
 30
0.0
 11
472.1441188021936
 21
1591.397587727552
 31
0.0
  0
LINE
  5
2446
330
A
100
AcDbEntity
  8
MODEL
  6
Continuous
100
AcDbLine
 10
472.1441188021936
 20
1591.397587727552
 30
0.0
 11
485.1211188021489
 21
1600.068587727583
 31
0.0
  0
LINE
  5
2447
330
A
100
AcDbEntity
  8
MODEL
  6
Continuous
100
AcDbLine
 10
485.1211188021489
 20
1600.068587727583
 30
0.0
 11
500.4281188021787
 21
1603.113587727567
 31
0.0
  0
LINE
  5
2448
330
A
100
AcDbEntity
  8
MODEL
  6
Continuous
100
AcDbLine
 10
500.4281188021787
 20
1603.113587727567
 30
0.0
 11
800.4281188021787
 21
1603.113587727567
 31
0.0
  0
LINE
  5
2449
330
A
100
AcDbEntity
  8
MODEL
  6
Continuous
100
AcDbLine
 10
800.4281188021787
 20
1603.113587727567
 30
0.0
 11
500.4281188021787
 21
1603.113587727567
 31
0.0
  0
LINE
  5
244A
330
A
100
AcDbEntity
  8
MODEL
  6
Continuous
100
AcDbLine
 10
800.4281188021787
 20
1603.113587727567
 30
0.0
 11
815.7351188022085
 21
1600.068587727583
 31
0.0
  0
LINE
  5
244B
330
A
100
AcDbEntity
  8
MODEL
  6
Continuous
100
AcDbLine
 10
815.7351188022085
 20
1600.068587727583
 30
0.0
 11
828.7121188021638
 21
1591.397587727552
 31
0.0
  0
LINE
  5
244C
330
A
100
AcDbEntity
  8
MODEL
  6
Continuous
100
AcDbLine
 10
828.7121188021638
 20
1591.397587727552
 30
0.0
 11
837.383118802486
 21
1578.420587727597
 31
0.0
  0
LINE
  5
244D
330
A
100
AcDbEntity
  8
MODEL
  6
Continuous
100
AcDbLine
 10
837.383118802486
 20
1578.420587727597
 30
0.0
 11
840.4281188021787
 21
1563.113587727567
 31
0.0
  0
LINE
  5
244E
330
A
100
AcDbEntity
  8
MODEL
  6
Continuous
100
AcDbLine
 10
840.4281188021787
 20
1563.113587727567
 30
0.0
 11
840.4281188021787
 21
873.1135877275669
 31
0.0
  0
LINE
  5
244F
330
A
100
AcDbEntity
  8
MODEL
  6
Continuous
100
AcDbLine
 10
840.4281188021787
 20
873.1135877275669
 30
0.0
 11
837.383118802486
 21
857.8065877275371
 31
0.0
  0
LINE
  5
2450
330
A
100
AcDbEntity
  8
MODEL
  6
Continuous
100
AcDbLine
 10
837.383118802486
 20
857.8065877275371
 30
0.0
 11
828.7121188021638
 21
844.8295877275818
 31
0.0
  0
LINE
  5
2451
330
A
100
AcDbEntity
  8
MODEL
  6
Continuous
100
AcDbLine
 10
828.7121188021638
 20
844.8295877275818
 30
0.0
 11
815.7351188022085
 21
836.1585877276962
 31
0.0
  0
LINE
  5
2452
330
A
100
AcDbEntity
  8
MODEL
  6
Continuous
100
AcDbLine
 10
815.7351188022085
 20
836.1585877276962
 30
0.0
 11
800.4281188021787
 21
833.1135877275669
 31
0.0
  0
LINE
  5
2453
330
A
100
AcDbEntity
  8
MODEL
  6
Continuous
100
AcDbLine
 10
800.4281188021787
 20
833.1135877275669
 30
0.0
 11
500.4281188021787
 21
833.1135877275669
 31
0.0
  0
LINE
  5
2454
330
A
100
AcDbEntity
  8
MODEL
  6
Continuous
100
AcDbLine
 10
500.4281188021787
 20
833.1135877275669
 30
0.0
 11
485.1211188021489
 21
836.1585877276962
 31
0.0
  0
LINE
  5
2455
330
A
100
AcDbEntity
  8
MODEL
  6
Continuous
100
AcDbLine
 10
485.1211188021489
 20
836.1585877276962
 30
0.0
 11
472.1441188021936
 21
844.8295877275818
 31
0.0
  0
LINE
  5
2456
330
A
100
AcDbEntity
  8
MODEL
  6
Continuous
100
AcDbLine
 10
472.1441188021936
 20
844.8295877275818
 30
0.0
 11
463.4731188024534
 21
857.8065877275371
 31
0.0
  0
LINE
  5
2457
330
A
100
AcDbEntity
  8
MODEL
  6
Continuous
100
AcDbLine
 10
463.4731188024534
 20
857.8065877275371
 30
0.0
 11
460.4281188021787
 21
873.1135877275669
 31
0.0
  0
LINE
  5
2458
330
A
100
AcDbEntity
  8
MODEL
  6
Continuous
100
AcDbLine
 10
460.4281188021787
 20
873.1135877275669
 30
0.0
 11
460.4281188021787
 21
1563.113587727567
 31
0.0
  0
LINE
  5
2459
330
A
100
AcDbEntity
  8
MODEL
  6
Continuous
100
AcDbLine
 10
585.1771188018984
 20
1488.710587727547
 30
0.0
 11
599.2371188020707
 21
1489.473587727553
 31
0.0
  0
LINE
  5
245A
330
A
100
AcDbEntity
  8
MODEL
  6
Continuous
100
AcDbLine
 10
594.4021188023407
 20
1512.242587727524
 30
0.0
 11
579.0041188020632
 21
1511.470587727527
 31
0.0
  0
LINE
  5
245B
330
A
100
AcDbEntity
  8
MODEL
  6
Continuous
100
AcDbLine
 10
572.0311188020651
 20
1483.450587727566
 30
0.0
 11
585.1771188018984
 21
1488.710587727547
 31
0.0
  0
LINE
  5
245C
330
A
100
AcDbEntity
  8
MODEL
  6
Continuous
100
AcDbLine
 10
579.0041188020632
 20
1511.470587727527
 30
0.0
 11
565.5311188024143
 21
1506.35158772755
 31
0.0
  0
LINE
  5
245D
330
A
100
AcDbEntity
  8
MODEL
  6
Continuous
100
AcDbLine
 10
561.086118802582
 20
1474.208587727481
 30
0.0
 11
572.0311188020651
 21
1483.450587727566
 31
0.0
  0
LINE
  5
245E
330
A
100
AcDbEntity
  8
MODEL
  6
Continuous
100
AcDbLine
 10
565.5311188024143
 20
1506.35158772755
 30
0.0
 11
553.5311188022979
 21
1496.771587727563
 31
0.0
  0
LINE
  5
245F
330
A
100
AcDbEntity
  8
MODEL
  6
Continuous
100
AcDbLine
 10
553.4141188019794
 20
1461.889587727638
 30
0.0
 11
561.086118802582
 21
1474.208587727481
 31
0.0
  0
LINE
  5
2460
330
A
100
AcDbEntity
  8
MODEL
  6
Continuous
100
AcDbLine
 10
553.5311188022979
 20
1496.771587727563
 30
0.0
 11
545.0331188020436
 21
1483.910587727587
 31
0.0
  0
LINE
  5
2461
330
A
100
AcDbEntity
  8
MODEL
  6
Continuous
100
AcDbLine
 10
543.3841188023007
 20
1438.860587727541
 30
0.0
 11
553.4141188019794
 21
1461.889587727638
 31
0.0
  0
LINE
  5
2462
330
A
100
AcDbEntity
  8
MODEL
  6
Continuous
100
AcDbLine
 10
545.0331188020436
 20
1483.910587727587
 30
0.0
 11
534.4391188023519
 21
1460.437587727502
 31
0.0
  0
LINE
  5
2463
330
A
100
AcDbEntity
  8
MODEL
  6
Continuous
100
AcDbLine
 10
532.4641188022588
 20
1409.063587727579
 30
0.0
 11
543.3841188023007
 21
1438.860587727541
 31
0.0
  0
LINE
  5
2464
330
A
100
AcDbEntity
  8
MODEL
  6
Continuous
100
AcDbLine
 10
534.4391188023519
 20
1460.437587727502
 30
0.0
 11
522.4231188020576
 21
1429.585587727488
 31
0.0
  0
LINE
  5
2465
330
A
100
AcDbEntity
  8
MODEL
  6
Continuous
100
AcDbLine
 10
522.613118802351
 20
1376.015587727598
 30
0.0
 11
532.4641188022588
 21
1409.063587727579
 31
0.0
  0
LINE
  5
2466
330
A
100
AcDbEntity
  8
MODEL
  6
Continuous
100
AcDbLine
 10
522.4231188020576
 20
1429.585587727488
 30
0.0
 11
511.3171188019123
 21
1395.083587727568
 31
0.0
  0
LINE
  5
2467
330
A
100
AcDbEntity
  8
MODEL
  6
Continuous
100
AcDbLine
 10
514.7951188023808
 20
1342.36958772759
 30
0.0
 11
522.613118802351
 21
1376.015587727598
 31
0.0
  0
LINE
  5
2468
330
A
100
AcDbEntity
  8
MODEL
  6
Continuous
100
AcDbLine
 10
511.3171188019123
 20
1395.083587727568
 30
0.0
 11
502.4311188018555
 21
1359.872587727587
 31
0.0
  0
LINE
  5
2469
330
A
100
AcDbEntity
  8
MODEL
  6
Continuous
100
AcDbLine
 10
509.7761188020604
 20
1312.808587727632
 30
0.0
 11
514.7951188023808
 21
1342.36958772759
 31
0.0
  0
LINE
  5
246A
330
A
100
AcDbEntity
  8
MODEL
  6
Continuous
100
AcDbLine
 10
502.4311188018555
 20
1359.872587727587
 30
0.0
 11
496.6311188022746
 21
1328.810587727494
 31
0.0
  0
LINE
  5
246B
330
A
100
AcDbEntity
  8
MODEL
  6
Continuous
100
AcDbLine
 10
508.0471188020101
 20
1297.793587727502
 30
0.0
 11
509.7761188020604
 21
1312.808587727632
 31
0.0
  0
LINE
  5
246C
330
A
100
AcDbEntity
  8
MODEL
  6
Continuous
100
AcDbLine
 10
496.6311188022746
 20
1328.810587727494
 30
0.0
 11
494.427118802364
 21
1312.57158772758
 31
0.0
  0
LINE
  5
246D
330
A
100
AcDbEntity
  8
MODEL
  6
Continuous
100
AcDbLine
 10
509.7761188020604
 20
1284.343587727636
 30
0.0
 11
508.0471188020101
 21
1297.793587727502
 31
0.0
  0
LINE
  5
246E
330
A
100
AcDbEntity
  8
MODEL
  6
Continuous
100
AcDbLine
 10
494.427118802364
 20
1312.57158772758
 30
0.0
 11
496.1201188024506
 21
1298.713587727544
 31
0.0
  0
LINE
  5
246F
330
A
100
AcDbEntity
  8
MODEL
  6
Continuous
100
AcDbLine
 10
518.228118801876
 20
1264.924587727583
 30
0.0
 11
509.7761188020604
 21
1284.343587727636
 31
0.0
  0
LINE
  5
2470
330
A
100
AcDbEntity
  8
MODEL
  6
Continuous
100
AcDbLine
 10
496.1201188024506
 20
1298.713587727544
 30
0.0
 11
505.4951188018686
 21
1278.223587727553
 31
0.0
  0
LINE
  5
2471
330
A
100
AcDbEntity
  8
MODEL
  6
Continuous
100
AcDbLine
 10
791.080118802297
 20
1284.343587727636
 30
0.0
 11
782.5061188019254
 21
1264.644587727526
 31
0.0
  0
LINE
  5
2472
330
A
100
AcDbEntity
  8
MODEL
  6
Continuous
100
AcDbLine
 10
793.6771188022476
 20
1275.856587727467
 30
0.0
 11
803.9051188025996
 21
1296.423587727623
 31
0.0
  0
LINE
  5
2473
330
A
100
AcDbEntity
  8
MODEL
  6
Continuous
100
AcDbLine
 10
792.8091188023473
 20
1297.793587727502
 30
0.0
 11
791.080118802297
 21
1284.343587727636
 31
0.0
  0
LINE
  5
2474
330
A
100
AcDbEntity
  8
MODEL
  6
Continuous
100
AcDbLine
 10
803.9051188025996
 20
1296.423587727623
 30
0.0
 11
806.2741188021982
 21
1310.607587727573
 31
0.0
  0
LINE
  5
2475
330
A
100
AcDbEntity
  8
MODEL
  6
Continuous
100
AcDbLine
 10
791.0711188024516
 20
1312.864587727527
 30
0.0
 11
792.8091188023473
 21
1297.793587727502
 31
0.0
  0
LINE
  5
2476
330
A
100
AcDbEntity
  8
MODEL
  6
Continuous
100
AcDbLine
 10
806.2741188021982
 20
1310.607587727573
 30
0.0
 11
804.5911188020045
 21
1325.890587727481
 31
0.0
  0
LINE
  5
2477
330
A
100
AcDbEntity
  8
MODEL
  6
Continuous
100
AcDbLine
 10
782.2551188022271
 20
1359.530587727641
 30
0.0
 11
791.0711188024516
 21
1312.864587727527
 31
0.0
  0
LINE
  5
2478
330
A
100
AcDbEntity
  8
MODEL
  6
Continuous
100
AcDbLine
 10
804.5911188020045
 20
1325.890587727481
 30
0.0
 11
798.8771188024339
 21
1357.434587727621
 31
0.0
  0
LINE
  5
2479
330
A
100
AcDbEntity
  8
MODEL
  6
Continuous
100
AcDbLine
 10
774.6641188019794
 20
1389.425587727456
 30
0.0
 11
782.2551188022271
 21
1359.530587727641
 31
0.0
  0
LINE
  5
247A
330
A
100
AcDbEntity
  8
MODEL
  6
Continuous
100
AcDbLine
 10
798.8771188024339
 20
1357.434587727621
 30
0.0
 11
790.2561188021582
 21
1392.888587727503
 31
0.0
  0
LINE
  5
247B
330
A
100
AcDbEntity
  8
MODEL
  6
Continuous
100
AcDbLine
 10
766.7661188022839
 20
1414.12858772761
 30
0.0
 11
774.6641188019794
 21
1389.425587727456
 31
0.0
  0
LINE
  5
247C
330
A
100
AcDbEntity
  8
MODEL
  6
Continuous
100
AcDbLine
 10
790.2561188021582
 20
1392.888587727503
 30
0.0
 11
779.9021188022243
 21
1427.031587727688
 31
0.0
  0
LINE
  5
247D
330
A
100
AcDbEntity
  8
MODEL
  6
Continuous
100
AcDbLine
 10
757.6841188022308
 20
1438.294587727578
 30
0.0
 11
766.7661188022839
 21
1414.12858772761
 31
0.0
  0
LINE
  5
247E
330
A
100
AcDbEntity
  8
MODEL
  6
Continuous
100
AcDbLine
 10
779.9021188022243
 20
1427.031587727688
 30
0.0
 11
768.3641188019328
 21
1458.213587727515
 31
0.0
  0
LINE
  5
247F
330
A
100
AcDbEntity
  8
MODEL
  6
Continuous
100
AcDbLine
 10
747.4421188017959
 20
1461.889587727638
 30
0.0
 11
757.6841188022308
 21
1438.294587727578
 31
0.0
  0
LINE
  5
2480
330
A
100
AcDbEntity
  8
MODEL
  6
Continuous
100
AcDbLine
 10
768.3641188019328
 20
1458.213587727515
 30
0.0
 11
757.3851188019989
 21
1482.665587727534
 31
0.0
  0
LINE
  5
2481
330
A
100
AcDbEntity
  8
MODEL
  6
Continuous
100
AcDbLine
 10
739.7701188023575
 20
1474.208587727481
 30
0.0
 11
747.4421188017959
 21
1461.889587727638
 31
0.0
  0
LINE
  5
2482
330
A
100
AcDbEntity
  8
MODEL
  6
Continuous
100
AcDbLine
 10
757.3851188019989
 20
1482.665587727534
 30
0.0
 11
748.8261188023398
 21
1495.854587727518
 31
0.0
  0
LINE
  5
2483
330
A
100
AcDbEntity
  8
MODEL
  6
Continuous
100
AcDbLine
 10
728.8251188022923
 20
1483.450587727566
 30
0.0
 11
739.7701188023575
 21
1474.208587727481
 31
0.0
  0
LINE
  5
2484
330
A
100
AcDbEntity
  8
MODEL
  6
Continuous
100
AcDbLine
 10
748.8261188023398
 20
1495.854587727518
 30
0.0
 11
737.0221188022197
 21
1505.649587727676
 31
0.0
  0
LINE
  5
2485
330
A
100
AcDbEntity
  8
MODEL
  6
Continuous
100
AcDbLine
 10
715.6791188018769
 20
1488.710587727547
 30
0.0
 11
728.8251188022923
 21
1483.450587727566
 31
0.0
  0
LINE
  5
2486
330
A
100
AcDbEntity
  8
MODEL
  6
Continuous
100
AcDbLine
 10
737.0221188022197
 20
1505.649587727676
 30
0.0
 11
722.7771188019915
 21
1511.267587727489
 31
0.0
  0
LINE
  5
2487
330
A
100
AcDbEntity
  8
MODEL
  6
Continuous
100
AcDbLine
 10
701.6191188022867
 20
1489.473587727553
 30
0.0
 11
715.6791188018769
 21
1488.710587727547
 31
0.0
  0
LINE
  5
2488
330
A
100
AcDbEntity
  8
MODEL
  6
Continuous
100
AcDbLine
 10
722.7771188019915
 20
1511.267587727489
 30
0.0
 11
706.4541188020166
 21
1512.242587727524
 31
0.0
  0
LINE
  5
2489
330
A
100
AcDbEntity
  8
MODEL
  6
Continuous
100
AcDbLine
 10
706.4541188020166
 20
1512.242587727524
 30
0.0
 11
650.4281188021787
 21
1512.182587727585
 31
0.0
  0
LINE
  5
248A
330
A
100
AcDbEntity
  8
MODEL
  6
Continuous
100
AcDbLine
 10
599.2371188020707
 20
1489.473587727553
 30
0.0
 11
701.6191188022867
 21
1489.473587727553
 31
0.0
  0
LINE
  5
248B
330
A
100
AcDbEntity
  8
MODEL
  6
Continuous
100
AcDbLine
 10
650.4281188021787
 20
1512.182587727585
 30
0.0
 11
594.4021188023407
 21
1512.242587727524
 31
0.0
  0
LINE
  5
248C
330
A
100
AcDbEntity
  8
MODEL
  6
Continuous
100
AcDbLine
 10
589.932118801903
 20
1519.690587727528
 30
0.0
 11
650.4281188021787
 21
1521.255587727501
 31
0.0
  0
LINE
  5
248D
330
A
100
AcDbEntity
  8
MODEL
  6
Continuous
100
AcDbLine
 10
574.3021188022476
 20
1518.866587727535
 30
0.0
 11
589.932118801903
 21
1519.690587727528
 31
0.0
  0
LINE
  5
248E
330
A
100
AcDbEntity
  8
MODEL
  6
Continuous
100
AcDbLine
 10
558.5521188021312
 20
1511.303587727598
 30
0.0
 11
574.3021188022476
 21
1518.866587727535
 31
0.0
  0
LINE
  5
248F
330
A
100
AcDbEntity
  8
MODEL
  6
Continuous
100
AcDbLine
 10
546.2601188021154
 20
1500.90058772752
 30
0.0
 11
558.5521188021312
 21
1511.303587727598
 31
0.0
  0
LINE
  5
2490
330
A
100
AcDbEntity
  8
MODEL
  6
Continuous
100
AcDbLine
 10
537.6871188023733
 20
1486.513587727678
 30
0.0
 11
546.2601188021154
 21
1500.90058772752
 31
0.0
  0
LINE
  5
2491
330
A
100
AcDbEntity
  8
MODEL
  6
Continuous
100
AcDbLine
 10
500.9201188022644
 20
1598.113587727567
 30
0.0
 11
487.0721188022662
 21
1595.358587727533
 31
0.0
  0
LINE
  5
2492
330
A
100
AcDbEntity
  8
MODEL
  6
Continuous
100
AcDbLine
 10
487.0721188022662
 20
1595.358587727533
 30
0.0
 11
475.7491188022914
 21
1587.7925877276
 31
0.0
  0
LINE
  5
2493
330
A
100
AcDbEntity
  8
MODEL
  6
Continuous
100
AcDbLine
 10
475.7491188022914
 20
1587.7925877276
 30
0.0
 11
468.1831188020669
 21
1576.469587727479
 31
0.0
  0
LINE
  5
2494
330
A
100
AcDbEntity
  8
MODEL
  6
Continuous
100
AcDbLine
 10
468.1831188020669
 20
1576.469587727479
 30
0.0
 11
465.4281188021787
 21
1562.621587727627
 31
0.0
  0
LINE
  5
2495
330
A
100
AcDbEntity
  8
MODEL
  6
Continuous
100
AcDbLine
 10
527.1141188019328
 20
1460.186587727658
 30
0.0
 11
537.6871188023733
 21
1486.513587727678
 31
0.0
  0
LINE
  5
2496
330
A
100
AcDbEntity
  8
MODEL
  6
Continuous
100
AcDbLine
 10
516.6341188024171
 20
1426.702587727487
 30
0.0
 11
527.1141188019328
 21
1460.186587727658
 31
0.0
  0
LINE
  5
2497
330
A
100
AcDbEntity
  8
MODEL
  6
Continuous
100
AcDbLine
 10
506.9401188023994
 20
1391.116587727593
 30
0.0
 11
516.6341188024171
 21
1426.702587727487
 31
0.0
  0
LINE
  5
2498
330
A
100
AcDbEntity
  8
MODEL
  6
Continuous
100
AcDbLine
 10
498.8761188023864
 20
1355.491587727593
 30
0.0
 11
506.9401188023994
 21
1391.116587727593
 31
0.0
  0
LINE
  5
2499
330
A
100
AcDbEntity
  8
MODEL
  6
Continuous
100
AcDbLine
 10
498.8761188023864
 20
1355.491587727593
 30
0.0
 11
497.4961188020325
 21
1349.050587727543
 31
0.0
  0
LINE
  5
249A
330
A
100
AcDbEntity
  8
MODEL
  6
Continuous
100
AcDbLine
 10
493.633118802486
 20
1324.419587727607
 30
0.0
 11
498.8761188023864
 21
1355.491587727593
 31
0.0
  0
LINE
  5
249B
330
A
100
AcDbEntity
  8
MODEL
  6
Continuous
100
AcDbLine
 10
493.633118802486
 20
1324.419587727607
 30
0.0
 11
492.3421188022849
 21
1313.497587727616
 31
0.0
  0
LINE
  5
249C
330
A
100
AcDbEntity
  8
MODEL
  6
Continuous
100
AcDbLine
 10
491.9701188020781
 20
1308.93958772751
 30
0.0
 11
493.633118802486
 21
1324.419587727607
 31
0.0
  0
LINE
  5
249D
330
A
100
AcDbEntity
  8
MODEL
  6
Continuous
100
AcDbLine
 10
465.4281188021787
 20
1562.621587727627
 30
0.0
 11
464.9281188022951
 21
1493.670587727684
 31
0.0
  0
LINE
  5
249E
330
A
100
AcDbEntity
  8
MODEL
  6
Continuous
100
AcDbLine
 10
464.9281188022951
 20
1493.670587727684
 30
0.0
 11
464.4281188024115
 21
1424.719587727596
 31
0.0
  0
LINE
  5
249F
330
A
100
AcDbEntity
  8
MODEL
  6
Continuous
100
AcDbLine
 10
464.4281188024115
 20
1424.719587727596
 30
0.0
 11
463.9281188025279
 21
1355.768587727508
 31
0.0
  0
LINE
  5
24A0
330
A
100
AcDbEntity
  8
MODEL
  6
Continuous
100
AcDbLine
 10
463.9281188025279
 20
1355.768587727508
 30
0.0
 11
463.4281188020623
 21
1286.818587727612
 31
0.0
  0
LINE
  5
24A1
330
A
100
AcDbEntity
  8
MODEL
  6
Continuous
100
AcDbLine
 10
463.4281188020623
 20
1286.818587727612
 30
0.0
 11
462.9281188021787
 21
1217.86758772767
 31
0.0
  0
LINE
  5
24A2
330
A
100
AcDbEntity
  8
MODEL
  6
Continuous
100
AcDbLine
 10
462.9281188021787
 20
1217.86758772767
 30
0.0
 11
462.428118801713
 21
1148.916587727581
 31
0.0
  0
LINE
  5
24A4
330
A
100
AcDbEntity
  8
MODEL
  6
Continuous
100
AcDbLine
 10
494.0291188020865
 20
1294.99858772746
 30
0.0
 11
491.9701188020781
 21
1308.93958772751
 31
0.0
  0
LINE
  5
24A5
330
A
100
AcDbEntity
  8
MODEL
  6
Continuous
100
AcDbLine
 10
503.9961188022653
 20
1274.175587727514
 30
0.0
 11
494.0291188020865
 21
1294.99858772746
 31
0.0
  0
LINE
  5
24A6
330
A
100
AcDbEntity
  8
MODEL
  6
Continuous
100
AcDbLine
 10
516.24711880208
 20
1261.800587727485
 30
0.0
 11
503.9961188022653
 21
1274.175587727514
 31
0.0
  0
LINE
  5
24A7
330
A
100
AcDbEntity
  8
MODEL
  6
Continuous
100
AcDbLine
 10
530.730118801971
 20
1252.080587727542
 30
0.0
 11
516.24711880208
 21
1261.800587727485
 31
0.0
  0
LINE
  5
24A8
330
A
100
AcDbEntity
  8
MODEL
  6
Continuous
100
AcDbLine
 10
547.3351188025345
 20
1241.936587727542
 30
0.0
 11
530.730118801971
 21
1252.080587727542
 31
0.0
  0
LINE
  5
24A9
330
A
100
AcDbEntity
  8
MODEL
  6
Continuous
100
AcDbLine
 10
566.0011188020371
 20
1234.024587727472
 30
0.0
 11
547.3351188025345
 21
1241.936587727542
 31
0.0
  0
LINE
  5
24AA
330
A
100
AcDbEntity
  8
MODEL
  6
Continuous
100
AcDbLine
 10
586.4591188022541
 20
1226.680587727606
 30
0.0
 11
566.0011188020371
 21
1234.024587727472
 31
0.0
  0
LINE
  5
24AB
330
A
100
AcDbEntity
  8
MODEL
  6
Continuous
100
AcDbLine
 10
600.7311188020185
 20
1223.224587727455
 30
0.0
 11
586.4591188022541
 21
1226.680587727606
 31
0.0
  0
LINE
  5
24AC
330
A
100
AcDbEntity
  8
MODEL
  6
Continuous
100
AcDbLine
 10
462.428118801713
 20
1148.916587727581
 30
0.0
 11
461.4281188019459
 21
1011.015587727598
 31
0.0
  0
LINE
  5
24AD
330
A
100
AcDbEntity
  8
MODEL
  6
Continuous
100
AcDbLine
 10
461.4281188019459
 20
1011.015587727598
 30
0.0
 11
460.4281188021787
 21
873.1135877275669
 31
0.0
  0
LINE
  5
24AE
330
A
100
AcDbEntity
  8
MODEL
  6
Continuous
100
AcDbLine
 10
460.4281188021787
 20
873.1135877275669
 30
0.0
 11
463.4731188024534
 21
857.8065877275371
 31
0.0
  0
LINE
  5
24AF
330
A
100
AcDbEntity
  8
MODEL
  6
Continuous
100
AcDbLine
 10
463.4731188024534
 20
857.8065877275371
 30
0.0
 11
472.1441188021936
 21
844.8295877275818
 31
0.0
  0
LINE
  5
24B0
330
A
100
AcDbEntity
  8
MODEL
  6
Continuous
100
AcDbLine
 10
472.1441188021936
 20
844.8295877275818
 30
0.0
 11
485.1211188021489
 21
836.1585877276962
 31
0.0
  0
LINE
  5
24B1
330
A
100
AcDbEntity
  8
MODEL
  6
Continuous
100
AcDbLine
 10
485.1211188021489
 20
836.1585877276962
 30
0.0
 11
500.4281188021787
 21
833.1135877275669
 31
0.0
  0
LINE
  5
24B2
330
A
100
AcDbEntity
  8
MODEL
  6
Continuous
100
AcDbLine
 10
500.4281188021787
 20
833.1135877275669
 30
0.0
 11
530.4281188021787
 21
833.1135877275669
 31
0.0
  0
LINE
  5
24B3
330
A
100
AcDbEntity
  8
MODEL
  6
Continuous
100
AcDbLine
 10
530.4281188021787
 20
833.1135877275669
 30
0.0
 11
560.4281188021787
 21
833.1135877275669
 31
0.0
  0
LINE
  5
24B4
330
A
100
AcDbEntity
  8
MODEL
  6
Continuous
100
AcDbLine
 10
619.3941188019608
 20
1219.826587727585
 30
0.0
 11
600.7311188020185
 21
1223.224587727455
 31
0.0
  0
LINE
  5
24B5
330
A
100
AcDbEntity
  8
MODEL
  6
Continuous
100
AcDbLine
 10
633.299118802338
 20
1218.375587727642
 30
0.0
 11
619.3941188019608
 21
1219.826587727585
 31
0.0
  0
LINE
  5
24B6
330
A
100
AcDbEntity
  8
MODEL
  6
Continuous
100
AcDbLine
 10
650.4281188021787
 20
1216.853587727529
 30
0.0
 11
633.299118802338
 21
1218.375587727642
 31
0.0
  0
LINE
  5
24B7
330
A
100
AcDbEntity
  8
MODEL
  6
Continuous
100
AcDbLine
 10
560.4281188021787
 20
833.1135877275669
 30
0.0
 11
590.4281188021787
 21
833.1135877275669
 31
0.0
  0
LINE
  5
24B8
330
A
100
AcDbEntity
  8
MODEL
  6
Continuous
100
AcDbLine
 10
590.4281188021787
 20
833.1135877275669
 30
0.0
 11
620.4281188021787
 21
833.1135877275669
 31
0.0
  0
LINE
  5
24B9
330
A
100
AcDbEntity
  8
MODEL
  6
Continuous
100
AcDbLine
 10
620.4281188021787
 20
833.1135877275669
 30
0.0
 11
650.4281188021787
 21
833.1135877275669
 31
0.0
  0
LINE
  5
24BA
330
A
100
AcDbEntity
  8
MODEL
  6
Continuous
100
AcDbLine
 10
650.4281188021787
 20
1521.255587727501
 30
0.0
 11
710.9241188018723
 21
1519.690587727528
 31
0.0
  0
LINE
  5
24BB
330
A
100
AcDbEntity
  8
MODEL
  6
Continuous
100
AcDbLine
 10
799.936118802093
 20
1598.113587727567
 30
0.0
 11
500.9201188022644
 21
1598.113587727567
 31
0.0
  0
LINE
  5
24BC
330
A
100
AcDbEntity
  8
MODEL
  6
Continuous
100
AcDbLine
 10
710.9241188018723
 20
1519.690587727528
 30
0.0
 11
727.5151188023528
 21
1517.411587727548
 31
0.0
  0
LINE
  5
24BD
330
A
100
AcDbEntity
  8
MODEL
  6
Continuous
100
AcDbLine
 10
727.5151188023528
 20
1517.411587727548
 30
0.0
 11
742.3041188022262
 21
1511.303587727598
 31
0.0
  0
LINE
  5
24BE
330
A
100
AcDbEntity
  8
MODEL
  6
Continuous
100
AcDbLine
 10
742.3041188022262
 20
1511.303587727598
 30
0.0
 11
754.596118802242
 21
1500.90058772752
 31
0.0
  0
LINE
  5
24BF
330
A
100
AcDbEntity
  8
MODEL
  6
Continuous
100
AcDbLine
 10
754.596118802242
 20
1500.90058772752
 30
0.0
 11
763.169118801984
 21
1486.513587727678
 31
0.0
  0
LINE
  5
24C0
330
A
100
AcDbEntity
  8
MODEL
  6
Continuous
100
AcDbLine
 10
813.7841188020911
 20
1595.358587727533
 30
0.0
 11
799.936118802093
 21
1598.113587727567
 31
0.0
  0
LINE
  5
24C1
330
A
100
AcDbEntity
  8
MODEL
  6
Continuous
100
AcDbLine
 10
825.107118802066
 20
1587.7925877276
 30
0.0
 11
813.7841188020911
 21
1595.358587727533
 31
0.0
  0
LINE
  5
24C2
330
A
100
AcDbEntity
  8
MODEL
  6
Continuous
100
AcDbLine
 10
832.6731188022904
 20
1576.469587727479
 30
0.0
 11
825.107118802066
 21
1587.7925877276
 31
0.0
  0
LINE
  5
24C3
330
A
100
AcDbEntity
  8
MODEL
  6
Continuous
100
AcDbLine
 10
835.4281188021787
 20
1562.621587727627
 30
0.0
 11
832.6731188022904
 21
1576.469587727479
 31
0.0
  0
LINE
  5
24C4
330
A
100
AcDbEntity
  8
MODEL
  6
Continuous
100
AcDbLine
 10
763.169118801984
 20
1486.513587727678
 30
0.0
 11
773.7421188018425
 21
1460.186587727658
 31
0.0
  0
LINE
  5
24C5
330
A
100
AcDbEntity
  8
MODEL
  6
Continuous
100
AcDbLine
 10
773.7421188018425
 20
1460.186587727658
 30
0.0
 11
784.2221188025223
 21
1426.702587727487
 31
0.0
  0
LINE
  5
24C6
330
A
100
AcDbEntity
  8
MODEL
  6
Continuous
100
AcDbLine
 10
784.2221188025223
 20
1426.702587727487
 30
0.0
 11
793.91611880254
 21
1391.116587727593
 31
0.0
  0
LINE
  5
24C7
330
A
100
AcDbEntity
  8
MODEL
  6
Continuous
100
AcDbLine
 10
793.91611880254
 20
1391.116587727593
 30
0.0
 11
801.9801188025531
 21
1355.491587727593
 31
0.0
  0
LINE
  5
24C8
330
A
100
AcDbEntity
  8
MODEL
  6
Continuous
100
AcDbLine
 10
803.3601188023249
 20
1349.050587727543
 30
0.0
 11
801.9801188025531
 21
1355.491587727593
 31
0.0
  0
LINE
  5
24C9
330
A
100
AcDbEntity
  8
MODEL
  6
Continuous
100
AcDbLine
 10
801.9801188025531
 20
1355.491587727593
 30
0.0
 11
807.2231188024534
 21
1324.419587727607
 31
0.0
  0
LINE
  5
24CA
330
A
100
AcDbEntity
  8
MODEL
  6
Continuous
100
AcDbLine
 10
808.5141188020725
 20
1313.497587727616
 30
0.0
 11
807.2231188024534
 21
1324.419587727607
 31
0.0
  0
LINE
  5
24CB
330
A
100
AcDbEntity
  8
MODEL
  6
Continuous
100
AcDbLine
 10
807.2231188024534
 20
1324.419587727607
 30
0.0
 11
808.8861188022793
 21
1308.93958772751
 31
0.0
  0
LINE
  5
24CC
330
A
100
AcDbEntity
  8
MODEL
  6
Continuous
100
AcDbLine
 10
835.9281188020623
 20
1493.670587727684
 30
0.0
 11
835.4281188021787
 21
1562.621587727627
 31
0.0
  0
LINE
  5
24CD
330
A
100
AcDbEntity
  8
MODEL
  6
Continuous
100
AcDbLine
 10
836.4281188019459
 20
1424.719587727596
 30
0.0
 11
835.9281188020623
 21
1493.670587727684
 31
0.0
  0
LINE
  5
24CE
330
A
100
AcDbEntity
  8
MODEL
  6
Continuous
100
AcDbLine
 10
836.9281188024115
 20
1355.768587727508
 30
0.0
 11
836.4281188019459
 21
1424.719587727596
 31
0.0
  0
LINE
  5
24CF
330
A
100
AcDbEntity
  8
MODEL
  6
Continuous
100
AcDbLine
 10
837.428118801713
 20
1286.818587727612
 30
0.0
 11
836.9281188024115
 21
1355.768587727508
 31
0.0
  0
LINE
  5
24D0
330
A
100
AcDbEntity
  8
MODEL
  6
Continuous
100
AcDbLine
 10
837.9281188021787
 20
1217.86758772767
 30
0.0
 11
837.428118801713
 21
1286.818587727612
 31
0.0
  0
LINE
  5
24D1
330
A
100
AcDbEntity
  8
MODEL
  6
Continuous
100
AcDbLine
 10
838.4281188020623
 20
1148.916587727581
 30
0.0
 11
837.9281188021787
 21
1217.86758772767
 31
0.0
  0
LINE
  5
24D3
330
A
100
AcDbEntity
  8
MODEL
  6
Continuous
100
AcDbLine
 10
808.8861188022793
 20
1308.93958772751
 30
0.0
 11
806.8271188022709
 21
1294.99858772746
 31
0.0
  0
LINE
  5
24D4
330
A
100
AcDbEntity
  8
MODEL
  6
Continuous
100
AcDbLine
 10
806.8271188022709
 20
1294.99858772746
 30
0.0
 11
796.8601188020921
 21
1274.175587727514
 31
0.0
  0
LINE
  5
24D5
330
A
100
AcDbEntity
  8
MODEL
  6
Continuous
100
AcDbLine
 10
796.8601188020921
 20
1274.175587727514
 30
0.0
 11
784.6091188022774
 21
1261.800587727485
 31
0.0
  0
LINE
  5
24D6
330
A
100
AcDbEntity
  8
MODEL
  6
Continuous
100
AcDbLine
 10
784.6091188022774
 20
1261.800587727485
 30
0.0
 11
770.1261188018043
 21
1252.080587727542
 31
0.0
  0
LINE
  5
24D7
330
A
100
AcDbEntity
  8
MODEL
  6
Continuous
100
AcDbLine
 10
770.1261188018043
 20
1252.080587727542
 30
0.0
 11
753.521118802405
 21
1241.936587727542
 31
0.0
  0
LINE
  5
24D8
330
A
100
AcDbEntity
  8
MODEL
  6
Continuous
100
AcDbLine
 10
753.521118802405
 20
1241.936587727542
 30
0.0
 11
734.8551188023202
 21
1234.024587727472
 31
0.0
  0
LINE
  5
24D9
330
A
100
AcDbEntity
  8
MODEL
  6
Continuous
100
AcDbLine
 10
734.8551188023202
 20
1234.024587727472
 30
0.0
 11
714.3971188021033
 21
1226.680587727606
 31
0.0
  0
LINE
  5
24DA
330
A
100
AcDbEntity
  8
MODEL
  6
Continuous
100
AcDbLine
 10
714.3971188021033
 20
1226.680587727606
 30
0.0
 11
700.1251188017568
 21
1223.224587727455
 31
0.0
  0
LINE
  5
24DB
330
A
100
AcDbEntity
  8
MODEL
  6
Continuous
100
AcDbLine
 10
839.4281188024115
 20
1011.015587727598
 30
0.0
 11
838.4281188020623
 21
1148.916587727581
 31
0.0
  0
LINE
  5
24DC
330
A
100
AcDbEntity
  8
MODEL
  6
Continuous
100
AcDbLine
 10
840.4281188021787
 20
873.1135877275669
 30
0.0
 11
839.4281188024115
 21
1011.015587727598
 31
0.0
  0
LINE
  5
24DD
330
A
100
AcDbEntity
  8
MODEL
  6
Continuous
100
AcDbLine
 10
837.383118802486
 20
857.8065877275371
 30
0.0
 11
840.4281188021787
 21
873.1135877275669
 31
0.0
  0
LINE
  5
24DE
330
A
100
AcDbEntity
  8
MODEL
  6
Continuous
100
AcDbLine
 10
828.7121188021638
 20
844.8295877275818
 30
0.0
 11
837.383118802486
 21
857.8065877275371
 31
0.0
  0
LINE
  5
24DF
330
A
100
AcDbEntity
  8
MODEL
  6
Continuous
100
AcDbLine
 10
815.7351188022085
 20
836.1585877276962
 30
0.0
 11
828.7121188021638
 21
844.8295877275818
 31
0.0
  0
LINE
  5
24E0
330
A
100
AcDbEntity
  8
MODEL
  6
Continuous
100
AcDbLine
 10
800.4281188021787
 20
833.1135877275669
 30
0.0
 11
815.7351188022085
 21
836.1585877276962
 31
0.0
  0
LINE
  5
24E1
330
A
100
AcDbEntity
  8
MODEL
  6
Continuous
100
AcDbLine
 10
770.4281188021787
 20
833.1135877275669
 30
0.0
 11
800.4281188021787
 21
833.1135877275669
 31
0.0
  0
LINE
  5
24E2
330
A
100
AcDbEntity
  8
MODEL
  6
Continuous
100
AcDbLine
 10
740.4281188021787
 20
833.1135877275669
 30
0.0
 11
770.4281188021787
 21
833.1135877275669
 31
0.0
  0
LINE
  5
24E3
330
A
100
AcDbEntity
  8
MODEL
  6
Continuous
100
AcDbLine
 10
700.1251188017568
 20
1223.224587727455
 30
0.0
 11
681.4621188023966
 21
1219.826587727585
 31
0.0
  0
LINE
  5
24E4
330
A
100
AcDbEntity
  8
MODEL
  6
Continuous
100
AcDbLine
 10
681.4621188023966
 20
1219.826587727585
 30
0.0
 11
667.5571188026015
 21
1218.375587727642
 31
0.0
  0
LINE
  5
24E5
330
A
100
AcDbEntity
  8
MODEL
  6
Continuous
100
AcDbLine
 10
667.5571188026015
 20
1218.375587727642
 30
0.0
 11
650.4281188021787
 21
1216.853587727529
 31
0.0
  0
LINE
  5
24E6
330
A
100
AcDbEntity
  8
MODEL
  6
Continuous
100
AcDbLine
 10
710.4281188021787
 20
833.1135877275669
 30
0.0
 11
740.4281188021787
 21
833.1135877275669
 31
0.0
  0
LINE
  5
24E7
330
A
100
AcDbEntity
  8
MODEL
  6
Continuous
100
AcDbLine
 10
680.4281188021787
 20
833.1135877275669
 30
0.0
 11
710.4281188021787
 21
833.1135877275669
 31
0.0
  0
LINE
  5
24E8
330
A
100
AcDbEntity
  8
MODEL
  6
Continuous
100
AcDbLine
 10
650.4281188021787
 20
833.1135877275669
 30
0.0
 11
680.4281188021787
 21
833.1135877275669
 31
0.0
  0
LINE
  5
24E9
330
A
100
AcDbEntity
  8
MODEL
  6
Continuous
100
AcDbLine
 10
835.4281188021787
 20
1562.621587727627
 30
0.0
 11
835.9281188020623
 21
1493.670587727684
 31
0.0
  0
LINE
  5
24EA
330
A
100
AcDbEntity
  8
MODEL
  6
Continuous
100
AcDbLine
 10
835.9281188020623
 20
1493.670587727684
 30
0.0
 11
836.4281188019459
 21
1424.719587727596
 31
0.0
  0
LINE
  5
24EB
330
A
100
AcDbEntity
  8
MODEL
  6
Continuous
100
AcDbLine
 10
836.4281188019459
 20
1424.719587727596
 30
0.0
 11
836.9281188024115
 21
1355.768587727508
 31
0.0
  0
LINE
  5
24EC
330
A
100
AcDbEntity
  8
MODEL
  6
Continuous
100
AcDbLine
 10
836.9281188024115
 20
1355.768587727508
 30
0.0
 11
837.428118801713
 21
1286.818587727612
 31
0.0
  0
LINE
  5
24ED
330
A
100
AcDbEntity
  8
MODEL
  6
Continuous
100
AcDbLine
 10
837.428118801713
 20
1286.818587727612
 30
0.0
 11
837.9281188021787
 21
1217.86758772767
 31
0.0
  0
LINE
  5
24EE
330
A
100
AcDbEntity
  8
MODEL
  6
Continuous
100
AcDbLine
 10
837.9281188021787
 20
1217.86758772767
 30
0.0
 11
838.4281188020623
 21
1148.916587727581
 31
0.0
  0
LINE
  5
24EF
330
A
100
AcDbEntity
  8
MODEL
  6
Continuous
100
AcDbLine
 10
838.4281188020623
 20
1148.916587727581
 30
0.0
 11
839.4281188024115
 21
1011.015587727598
 31
0.0
  0
LINE
  5
24F0
330
A
100
AcDbEntity
  8
MODEL
  6
Continuous
100
AcDbLine
 10
839.4281188024115
 20
1011.015587727598
 30
0.0
 11
840.4281188021787
 21
873.1135877275669
 31
0.0
  0
LINE
  5
24F1
330
A
100
AcDbEntity
  8
MODEL
  6
Continuous
100
AcDbLine
 10
840.4281188021787
 20
873.1135877275669
 30
0.0
 11
840.4281188021787
 21
1563.113587727567
 31
0.0
  0
LINE
  5
24F2
330
A
100
AcDbEntity
  8
MODEL
  6
Continuous
100
AcDbLine
 10
460.4281188021787
 20
873.1135877275669
 30
0.0
 11
465.4281188021787
 21
1562.621587727627
 31
0.0
  0
LINE
  5
24F3
330
A
100
AcDbEntity
  8
MODEL
  6
Continuous
100
AcDbLine
 10
460.4281188021787
 20
1563.113587727567
 30
0.0
 11
460.4281188021787
 21
873.1135877275669
 31
0.0
  0
LINE
  5
24F4
330
A
100
AcDbEntity
  8
MODEL
  6
Continuous
100
AcDbLine
 10
463.4731188024534
 20
1578.420587727597
 30
0.0
 11
460.4281188021787
 21
1563.113587727567
 31
0.0
  0
LINE
  5
24F5
330
A
100
AcDbEntity
  8
MODEL
  6
Continuous
100
AcDbLine
 10
465.4281188021787
 20
1562.621587727627
 30
0.0
 11
468.1831188020669
 21
1576.469587727479
 31
0.0
  0
LINE
  5
24F6
330
A
100
AcDbEntity
  8
MODEL
  6
Continuous
100
AcDbLine
 10
472.1441188021936
 20
1591.397587727552
 30
0.0
 11
463.4731188024534
 21
1578.420587727597
 31
0.0
  0
LINE
  5
24F7
330
A
100
AcDbEntity
  8
MODEL
  6
Continuous
100
AcDbLine
 10
468.1831188020669
 20
1576.469587727479
 30
0.0
 11
475.7491188022914
 21
1587.7925877276
 31
0.0
  0
LINE
  5
24F8
330
A
100
AcDbEntity
  8
MODEL
  6
Continuous
100
AcDbLine
 10
485.1211188021489
 20
1600.068587727583
 30
0.0
 11
472.1441188021936
 21
1591.397587727552
 31
0.0
  0
LINE
  5
24F9
330
A
100
AcDbEntity
  8
MODEL
  6
Continuous
100
AcDbLine
 10
475.7491188022914
 20
1587.7925877276
 30
0.0
 11
487.0721188022662
 21
1595.358587727533
 31
0.0
  0
LINE
  5
24FA
330
A
100
AcDbEntity
  8
MODEL
  6
Continuous
100
AcDbLine
 10
500.4281188021787
 20
1603.113587727567
 30
0.0
 11
485.1211188021489
 21
1600.068587727583
 31
0.0
  0
LINE
  5
24FB
330
A
100
AcDbEntity
  8
MODEL
  6
Continuous
100
AcDbLine
 10
487.0721188022662
 20
1595.358587727533
 30
0.0
 11
500.9201188022644
 21
1598.113587727567
 31
0.0
  0
LINE
  5
24FC
330
A
100
AcDbEntity
  8
MODEL
  6
Continuous
100
AcDbLine
 10
800.4281188021787
 20
1603.113587727567
 30
0.0
 11
500.4281188021787
 21
1603.113587727567
 31
0.0
  0
LINE
  5
24FD
330
A
100
AcDbEntity
  8
MODEL
  6
Continuous
100
AcDbLine
 10
500.9201188022644
 20
1598.113587727567
 30
0.0
 11
799.936118802093
 21
1598.113587727567
 31
0.0
  0
LINE
  5
24FE
330
A
100
AcDbEntity
  8
MODEL
  6
Continuous
100
AcDbLine
 10
815.7351188022085
 20
1600.068587727583
 30
0.0
 11
800.4281188021787
 21
1603.113587727567
 31
0.0
  0
LINE
  5
24FF
330
A
100
AcDbEntity
  8
MODEL
  6
Continuous
100
AcDbLine
 10
799.936118802093
 20
1598.113587727567
 30
0.0
 11
813.7841188020911
 21
1595.358587727533
 31
0.0
  0
LINE
  5
2500
330
A
100
AcDbEntity
  8
MODEL
  6
Continuous
100
AcDbLine
 10
828.7121188021638
 20
1591.397587727552
 30
0.0
 11
815.7351188022085
 21
1600.068587727583
 31
0.0
  0
LINE
  5
2501
330
A
100
AcDbEntity
  8
MODEL
  6
Continuous
100
AcDbLine
 10
813.7841188020911
 20
1595.358587727533
 30
0.0
 11
825.107118802066
 21
1587.7925877276
 31
0.0
  0
LINE
  5
2502
330
A
100
AcDbEntity
  8
MODEL
  6
Continuous
100
AcDbLine
 10
837.383118802486
 20
1578.420587727597
 30
0.0
 11
828.7121188021638
 21
1591.397587727552
 31
0.0
  0
LINE
  5
2503
330
A
100
AcDbEntity
  8
MODEL
  6
Continuous
100
AcDbLine
 10
825.107118802066
 20
1587.7925877276
 30
0.0
 11
832.6731188022904
 21
1576.469587727479
 31
0.0
  0
LINE
  5
2504
330
A
100
AcDbEntity
  8
MODEL
  6
Continuous
100
AcDbLine
 10
840.4281188021787
 20
1563.113587727567
 30
0.0
 11
837.383118802486
 21
1578.420587727597
 31
0.0
  0
LINE
  5
2505
330
A
100
AcDbEntity
  8
MODEL
  6
Continuous
100
AcDbLine
 10
832.6731188022904
 20
1576.469587727479
 30
0.0
 11
835.4281188021787
 21
1562.621587727627
 31
0.0
  0
LINE
  5
2506
330
A
100
AcDbEntity
  8
MODEL
  6
Continuous
100
AcDbLine
 10
594.4021188023407
 20
1512.242587727524
 30
0.0
 11
650.4281188021787
 21
1512.182587727585
 31
0.0
  0
LINE
  5
2507
330
A
100
AcDbEntity
  8
MODEL
  6
Continuous
100
AcDbLine
 10
579.0041188020632
 20
1511.470587727527
 30
0.0
 11
594.4021188023407
 21
1512.242587727524
 31
0.0
  0
LINE
  5
2508
330
A
100
AcDbEntity
  8
MODEL
  6
Continuous
100
AcDbLine
 10
565.5311188024143
 20
1506.35158772755
 30
0.0
 11
579.0041188020632
 21
1511.470587727527
 31
0.0
  0
LINE
  5
2509
330
A
100
AcDbEntity
  8
MODEL
  6
Continuous
100
AcDbLine
 10
553.5311188022979
 20
1496.771587727563
 30
0.0
 11
565.5311188024143
 21
1506.35158772755
 31
0.0
  0
LINE
  5
250A
330
A
100
AcDbEntity
  8
MODEL
  6
Continuous
100
AcDbLine
 10
545.0331188020436
 20
1483.910587727587
 30
0.0
 11
553.5311188022979
 21
1496.771587727563
 31
0.0
  0
LINE
  5
250B
330
A
100
AcDbEntity
  8
MODEL
  6
Continuous
100
AcDbLine
 10
534.4391188023519
 20
1460.437587727502
 30
0.0
 11
545.0331188020436
 21
1483.910587727587
 31
0.0
  0
LINE
  5
250C
330
A
100
AcDbEntity
  8
MODEL
  6
Continuous
100
AcDbLine
 10
522.4231188020576
 20
1429.585587727488
 30
0.0
 11
534.4391188023519
 21
1460.437587727502
 31
0.0
  0
LINE
  5
250D
330
A
100
AcDbEntity
  8
MODEL
  6
Continuous
100
AcDbLine
 10
511.3171188019123
 20
1395.083587727568
 30
0.0
 11
522.4231188020576
 21
1429.585587727488
 31
0.0
  0
LINE
  5
250E
330
A
100
AcDbEntity
  8
MODEL
  6
Continuous
100
AcDbLine
 10
502.4311188018555
 20
1359.872587727587
 30
0.0
 11
511.3171188019123
 21
1395.083587727568
 31
0.0
  0
LINE
  5
250F
330
A
100
AcDbEntity
  8
MODEL
  6
Continuous
100
AcDbLine
 10
496.6311188022746
 20
1328.810587727494
 30
0.0
 11
502.4311188018555
 21
1359.872587727587
 31
0.0
  0
LINE
  5
2510
330
A
100
AcDbEntity
  8
MODEL
  6
Continuous
100
AcDbLine
 10
494.427118802364
 20
1312.57158772758
 30
0.0
 11
496.6311188022746
 21
1328.810587727494
 31
0.0
  0
LINE
  5
2511
330
A
100
AcDbEntity
  8
MODEL
  6
Continuous
100
AcDbLine
 10
496.1201188024506
 20
1298.713587727544
 30
0.0
 11
494.427118802364
 21
1312.57158772758
 31
0.0
  0
LINE
  5
2512
330
A
100
AcDbEntity
  8
MODEL
  6
Continuous
100
AcDbLine
 10
505.4951188018686
 20
1278.223587727553
 30
0.0
 11
496.1201188024506
 21
1298.713587727544
 31
0.0
  0
LINE
  5
2513
330
A
100
AcDbEntity
  8
MODEL
  6
Continuous
100
AcDbLine
 10
517.5291188024357
 20
1265.413587727526
 30
0.0
 11
505.4951188018686
 21
1278.223587727553
 31
0.0
  0
LINE
  5
2514
330
A
100
AcDbEntity
  8
MODEL
  6
Continuous
100
AcDbLine
 10
531.758118802486
 20
1255.463587727573
 30
0.0
 11
517.5291188024357
 21
1265.413587727526
 31
0.0
  0
LINE
  5
2515
330
A
100
AcDbEntity
  8
MODEL
  6
Continuous
100
AcDbLine
 10
548.0781188017363
 20
1245.20458772764
 30
0.0
 11
531.758118802486
 21
1255.463587727573
 31
0.0
  0
LINE
  5
2516
330
A
100
AcDbEntity
  8
MODEL
  6
Continuous
100
AcDbLine
 10
566.3821188020893
 20
1237.054587727617
 30
0.0
 11
548.0781188017363
 21
1245.20458772764
 31
0.0
  0
LINE
  5
2517
330
A
100
AcDbEntity
  8
MODEL
  6
Continuous
100
AcDbLine
 10
586.5541188021098
 20
1229.470587727556
 30
0.0
 11
566.3821188020893
 21
1237.054587727617
 31
0.0
  0
LINE
  5
2518
330
A
100
AcDbEntity
  8
MODEL
  6
Continuous
100
AcDbLine
 10
600.4871188020707
 20
1225.699587727577
 30
0.0
 11
586.5541188021098
 21
1229.470587727556
 31
0.0
  0
LINE
  5
2519
330
A
100
AcDbEntity
  8
MODEL
  6
Continuous
100
AcDbLine
 10
618.2731188022672
 20
1222.269587727497
 30
0.0
 11
600.4871188020707
 21
1225.699587727577
 31
0.0
  0
LINE
  5
251A
330
A
100
AcDbEntity
  8
MODEL
  6
Continuous
100
AcDbLine
 10
632.1391188019561
 20
1220.543587727589
 30
0.0
 11
618.2731188022672
 21
1222.269587727497
 31
0.0
  0
LINE
  5
251B
330
A
100
AcDbEntity
  8
MODEL
  6
Continuous
100
AcDbLine
 10
649.4311188019719
 20
1218.915587727534
 30
0.0
 11
632.1391188019561
 21
1220.543587727589
 31
0.0
  0
LINE
  5
251C
330
A
100
AcDbEntity
  8
MODEL
  6
Continuous
100
AcDbLine
 10
666.6291188021796
 20
1220.210587727634
 30
0.0
 11
649.4311188019719
 21
1218.915587727534
 31
0.0
  0
LINE
  5
251D
330
A
100
AcDbEntity
  8
MODEL
  6
Continuous
100
AcDbLine
 10
680.6331188020204
 20
1221.595587727498
 30
0.0
 11
666.6291188021796
 21
1220.210587727634
 31
0.0
  0
LINE
  5
251E
330
A
100
AcDbEntity
  8
MODEL
  6
Continuous
100
AcDbLine
 10
698.794118801984
 20
1224.911587727548
 30
0.0
 11
680.6331188020204
 21
1221.595587727498
 31
0.0
  0
LINE
  5
251F
330
A
100
AcDbEntity
  8
MODEL
  6
Continuous
100
AcDbLine
 10
712.4211188025447
 20
1228.306587727566
 30
0.0
 11
698.794118801984
 21
1224.911587727548
 31
0.0
  0
LINE
  5
2520
330
A
100
AcDbEntity
  8
MODEL
  6
Continuous
100
AcDbLine
 10
732.0831188022066
 20
1235.536587727548
 30
0.0
 11
712.4211188025447
 21
1228.306587727566
 31
0.0
  0
LINE
  5
2521
330
A
100
AcDbEntity
  8
MODEL
  6
Continuous
100
AcDbLine
 10
750.5181188017968
 20
1243.547587727663
 30
0.0
 11
732.0831188022066
 21
1235.536587727548
 31
0.0
  0
LINE
  5
2522
330
A
100
AcDbEntity
  8
MODEL
  6
Continuous
100
AcDbLine
 10
767.0421188020055
 20
1253.709587727499
 30
0.0
 11
750.5181188017968
 21
1243.547587727663
 31
0.0
  0
LINE
  5
2523
330
A
100
AcDbEntity
  8
MODEL
  6
Continuous
100
AcDbLine
 10
781.3891188024218
 20
1263.523587727541
 30
0.0
 11
767.0421188020055
 21
1253.709587727499
 31
0.0
  0
LINE
  5
2524
330
A
100
AcDbEntity
  8
MODEL
  6
Continuous
100
AcDbLine
 10
793.6771188022476
 20
1275.856587727467
 30
0.0
 11
781.3891188024218
 21
1263.523587727541
 31
0.0
  0
LINE
  5
2525
330
A
100
AcDbEntity
  8
MODEL
  6
Continuous
100
AcDbLine
 10
803.9051188025996
 20
1296.423587727623
 30
0.0
 11
793.6771188022476
 21
1275.856587727467
 31
0.0
  0
LINE
  5
2526
330
A
100
AcDbEntity
  8
MODEL
  6
Continuous
100
AcDbLine
 10
806.2741188021982
 20
1310.607587727573
 30
0.0
 11
803.9051188025996
 21
1296.423587727623
 31
0.0
  0
LINE
  5
2527
330
A
100
AcDbEntity
  8
MODEL
  6
Continuous
100
AcDbLine
 10
804.5911188020045
 20
1325.890587727481
 30
0.0
 11
806.2741188021982
 21
1310.607587727573
 31
0.0
  0
LINE
  5
2528
330
A
100
AcDbEntity
  8
MODEL
  6
Continuous
100
AcDbLine
 10
798.8771188024339
 20
1357.434587727621
 30
0.0
 11
804.5911188020045
 21
1325.890587727481
 31
0.0
  0
LINE
  5
2529
330
A
100
AcDbEntity
  8
MODEL
  6
Continuous
100
AcDbLine
 10
790.2561188021582
 20
1392.888587727503
 30
0.0
 11
798.8771188024339
 21
1357.434587727621
 31
0.0
  0
LINE
  5
252A
330
A
100
AcDbEntity
  8
MODEL
  6
Continuous
100
AcDbLine
 10
779.9021188022243
 20
1427.031587727688
 30
0.0
 11
790.2561188021582
 21
1392.888587727503
 31
0.0
  0
LINE
  5
252B
330
A
100
AcDbEntity
  8
MODEL
  6
Continuous
100
AcDbLine
 10
768.3641188019328
 20
1458.213587727515
 30
0.0
 11
779.9021188022243
 21
1427.031587727688
 31
0.0
  0
LINE
  5
252C
330
A
100
AcDbEntity
  8
MODEL
  6
Continuous
100
AcDbLine
 10
757.3851188019989
 20
1482.665587727534
 30
0.0
 11
768.3641188019328
 21
1458.213587727515
 31
0.0
  0
LINE
  5
252D
330
A
100
AcDbEntity
  8
MODEL
  6
Continuous
100
AcDbLine
 10
748.8261188023398
 20
1495.854587727518
 30
0.0
 11
757.3851188019989
 21
1482.665587727534
 31
0.0
  0
LINE
  5
252E
330
A
100
AcDbEntity
  8
MODEL
  6
Continuous
100
AcDbLine
 10
737.0221188022197
 20
1505.649587727676
 30
0.0
 11
748.8261188023398
 21
1495.854587727518
 31
0.0
  0
LINE
  5
252F
330
A
100
AcDbEntity
  8
MODEL
  6
Continuous
100
AcDbLine
 10
722.7771188019915
 20
1511.267587727489
 30
0.0
 11
737.0221188022197
 21
1505.649587727676
 31
0.0
  0
LINE
  5
2530
330
A
100
AcDbEntity
  8
MODEL
  6
Continuous
100
AcDbLine
 10
650.4281188021787
 20
1512.182587727585
 30
0.0
 11
706.4541188020166
 21
1512.242587727524
 31
0.0
  0
LINE
  5
2531
330
A
100
AcDbEntity
  8
MODEL
  6
Continuous
100
AcDbLine
 10
650.4281188021787
 20
1521.255587727501
 30
0.0
 11
589.932118801903
 21
1519.690587727528
 31
0.0
  0
LINE
  5
2532
330
A
100
AcDbEntity
  8
MODEL
  6
Continuous
100
AcDbLine
 10
589.932118801903
 20
1519.690587727528
 30
0.0
 11
574.3021188022476
 21
1518.866587727535
 31
0.0
  0
LINE
  5
2533
330
A
100
AcDbEntity
  8
MODEL
  6
Continuous
100
AcDbLine
 10
574.3021188022476
 20
1518.866587727535
 30
0.0
 11
558.5521188021312
 21
1511.303587727598
 31
0.0
  0
LINE
  5
2534
330
A
100
AcDbEntity
  8
MODEL
  6
Continuous
100
AcDbLine
 10
558.5521188021312
 20
1511.303587727598
 30
0.0
 11
546.2601188021154
 21
1500.90058772752
 31
0.0
  0
LINE
  5
2535
330
A
100
AcDbEntity
  8
MODEL
  6
Continuous
100
AcDbLine
 10
546.2601188021154
 20
1500.90058772752
 30
0.0
 11
537.6871188023733
 21
1486.513587727678
 31
0.0
  0
LINE
  5
2536
330
A
100
AcDbEntity
  8
MODEL
  6
Continuous
100
AcDbLine
 10
537.6871188023733
 20
1486.513587727678
 30
0.0
 11
527.1141188019328
 21
1460.186587727658
 31
0.0
  0
LINE
  5
2537
330
A
100
AcDbEntity
  8
MODEL
  6
Continuous
100
AcDbLine
 10
519.4581188026723
 20
1429.202587727632
 30
0.0
 11
531.0881188020949
 21
1461.209587727645
 31
0.0
  0
LINE
  5
2538
330
A
100
AcDbEntity
  8
MODEL
  6
Continuous
100
AcDbLine
 10
527.1141188019328
 20
1460.186587727658
 30
0.0
 11
516.6341188024171
 21
1426.702587727487
 31
0.0
  0
LINE
  5
2539
330
A
100
AcDbEntity
  8
MODEL
  6
Continuous
100
AcDbLine
 10
508.8441188020306
 20
1394.15858772758
 30
0.0
 11
519.4581188026723
 21
1429.202587727632
 31
0.0
  0
LINE
  5
253A
330
A
100
AcDbEntity
  8
MODEL
  6
Continuous
100
AcDbLine
 10
516.6341188024171
 20
1426.702587727487
 30
0.0
 11
506.9401188023994
 21
1391.116587727593
 31
0.0
  0
LINE
  5
253B
330
A
100
AcDbEntity
  8
MODEL
  6
Continuous
100
AcDbLine
 10
500.2891188019794
 20
1358.708587727597
 30
0.0
 11
508.8441188020306
 21
1394.15858772758
 31
0.0
  0
LINE
  5
253C
330
A
100
AcDbEntity
  8
MODEL
  6
Continuous
100
AcDbLine
 10
506.9401188023994
 20
1391.116587727593
 30
0.0
 11
498.8761188023864
 21
1355.491587727593
 31
0.0
  0
LINE
  5
253D
330
A
100
AcDbEntity
  8
MODEL
  6
Continuous
100
AcDbLine
 10
494.7541188021796
 20
1327.638587727561
 30
0.0
 11
500.2891188019794
 21
1358.708587727597
 31
0.0
  0
LINE
  5
253E
330
A
100
AcDbEntity
  8
MODEL
  6
Continuous
100
AcDbLine
 10
498.8761188023864
 20
1355.491587727593
 30
0.0
 11
493.633118802486
 21
1324.419587727607
 31
0.0
  0
LINE
  5
253F
330
A
100
AcDbEntity
  8
MODEL
  6
Continuous
100
AcDbLine
 10
492.8581188023463
 20
1311.819587727514
 30
0.0
 11
494.7541188021796
 21
1327.638587727561
 31
0.0
  0
LINE
  5
2540
330
A
100
AcDbEntity
  8
MODEL
  6
Continuous
100
AcDbLine
 10
493.633118802486
 20
1324.419587727607
 30
0.0
 11
491.9701188020781
 21
1308.93958772751
 31
0.0
  0
LINE
  5
2541
330
A
100
AcDbEntity
  8
MODEL
  6
Continuous
100
AcDbLine
 10
494.7351188024413
 20
1297.998587727634
 30
0.0
 11
492.8581188023463
 21
1311.819587727514
 31
0.0
  0
LINE
  5
2542
330
A
100
AcDbEntity
  8
MODEL
  6
Continuous
100
AcDbLine
 10
491.9701188020781
 20
1308.93958772751
 30
0.0
 11
494.0291188020865
 21
1294.99858772746
 31
0.0
  0
LINE
  5
2543
330
A
100
AcDbEntity
  8
MODEL
  6
Continuous
100
AcDbLine
 10
504.5281188019226
 20
1277.290587727621
 30
0.0
 11
494.7351188024413
 21
1297.998587727634
 31
0.0
  0
LINE
  5
2544
330
A
100
AcDbEntity
  8
MODEL
  6
Continuous
100
AcDbLine
 10
494.0291188020865
 20
1294.99858772746
 30
0.0
 11
503.9961188022653
 21
1274.175587727514
 31
0.0
  0
LINE
  5
2545
330
A
100
AcDbEntity
  8
MODEL
  6
Continuous
100
AcDbLine
 10
516.7361188020232
 20
1264.684587727534
 30
0.0
 11
504.5281188019226
 21
1277.290587727621
 31
0.0
  0
LINE
  5
2546
330
A
100
AcDbEntity
  8
MODEL
  6
Continuous
100
AcDbLine
 10
503.9961188022653
 20
1274.175587727514
 30
0.0
 11
516.24711880208
 21
1261.800587727485
 31
0.0
  0
LINE
  5
2547
330
A
100
AcDbEntity
  8
MODEL
  6
Continuous
100
AcDbLine
 10
531.1461188019393
 20
1254.809587727651
 30
0.0
 11
516.7361188020232
 21
1264.684587727534
 31
0.0
  0
LINE
  5
2548
330
A
100
AcDbEntity
  8
MODEL
  6
Continuous
100
AcDbLine
 10
516.24711880208
 20
1261.800587727485
 30
0.0
 11
530.730118801971
 21
1252.080587727542
 31
0.0
  0
LINE
  5
2549
330
A
100
AcDbEntity
  8
MODEL
  6
Continuous
100
AcDbLine
 10
547.6571188021126
 20
1244.556587727566
 30
0.0
 11
531.1461188019393
 21
1254.809587727651
 31
0.0
  0
LINE
  5
254A
330
A
100
AcDbEntity
  8
MODEL
  6
Continuous
100
AcDbLine
 10
530.730118801971
 20
1252.080587727542
 30
0.0
 11
547.3351188025345
 21
1241.936587727542
 31
0.0
  0
LINE
  5
254B
330
A
100
AcDbEntity
  8
MODEL
  6
Continuous
100
AcDbLine
 10
566.1811188024376
 20
1236.474587727571
 30
0.0
 11
547.6571188021126
 21
1244.556587727566
 31
0.0
  0
LINE
  5
254C
330
A
100
AcDbEntity
  8
MODEL
  6
Continuous
100
AcDbLine
 10
547.3351188025345
 20
1241.936587727542
 30
0.0
 11
566.0011188020371
 21
1234.024587727472
 31
0.0
  0
LINE
  5
254D
330
A
100
AcDbEntity
  8
MODEL
  6
Continuous
100
AcDbLine
 10
586.5461188023119
 20
1228.922587727575
 30
0.0
 11
566.1811188024376
 21
1236.474587727571
 31
0.0
  0
LINE
  5
254E
330
A
100
AcDbEntity
  8
MODEL
  6
Continuous
100
AcDbLine
 10
566.0011188020371
 20
1234.024587727472
 30
0.0
 11
586.4591188022541
 21
1226.680587727606
 31
0.0
  0
LINE
  5
254F
330
A
100
AcDbEntity
  8
MODEL
  6
Continuous
100
AcDbLine
 10
600.6291188024124
 20
1225.277587727615
 30
0.0
 11
586.5461188023119
 21
1228.922587727575
 31
0.0
  0
LINE
  5
2550
330
A
100
AcDbEntity
  8
MODEL
  6
Continuous
100
AcDbLine
 10
586.4591188022541
 20
1226.680587727606
 30
0.0
 11
600.7311188020185
 21
1223.224587727455
 31
0.0
  0
LINE
  5
2551
330
A
100
AcDbEntity
  8
MODEL
  6
Continuous
100
AcDbLine
 10
618.9551188020641
 20
1221.861587727617
 30
0.0
 11
600.6291188024124
 21
1225.277587727615
 31
0.0
  0
LINE
  5
2552
330
A
100
AcDbEntity
  8
MODEL
  6
Continuous
100
AcDbLine
 10
600.7311188020185
 20
1223.224587727455
 30
0.0
 11
619.3941188019608
 21
1219.826587727585
 31
0.0
  0
LINE
  5
2553
330
A
100
AcDbEntity
  8
MODEL
  6
Continuous
100
AcDbLine
 10
632.7791188020865
 20
1220.260587727681
 30
0.0
 11
618.9551188020641
 21
1221.861587727617
 31
0.0
  0
LINE
  5
2554
330
A
100
AcDbEntity
  8
MODEL
  6
Continuous
100
AcDbLine
 10
619.3941188019608
 20
1219.826587727585
 30
0.0
 11
633.299118802338
 21
1218.375587727642
 31
0.0
  0
LINE
  5
2555
330
A
100
AcDbEntity
  8
MODEL
  6
Continuous
100
AcDbLine
 10
650.044118801984
 20
1218.658587727551
 30
0.0
 11
632.7791188020865
 21
1220.260587727681
 31
0.0
  0
LINE
  5
2556
330
A
100
AcDbEntity
  8
MODEL
  6
Continuous
100
AcDbLine
 10
633.299118802338
 20
1218.375587727642
 30
0.0
 11
650.4281188021787
 21
1216.853587727529
 31
0.0
  0
LINE
  5
2557
330
A
100
AcDbEntity
  8
MODEL
  6
Continuous
100
AcDbLine
 10
667.2621188019775
 20
1220.031587727572
 30
0.0
 11
650.044118801984
 21
1218.658587727551
 31
0.0
  0
LINE
  5
2558
330
A
100
AcDbEntity
  8
MODEL
  6
Continuous
100
AcDbLine
 10
650.4281188021787
 20
1216.853587727529
 30
0.0
 11
667.5571188026015
 21
1218.375587727642
 31
0.0
  0
LINE
  5
2559
330
A
100
AcDbEntity
  8
MODEL
  6
Continuous
100
AcDbLine
 10
681.1521188022243
 20
1221.449587727548
 30
0.0
 11
667.2621188019775
 21
1220.031587727572
 31
0.0
  0
LINE
  5
255A
330
A
100
AcDbEntity
  8
MODEL
  6
Continuous
100
AcDbLine
 10
667.5571188026015
 20
1218.375587727642
 30
0.0
 11
681.4621188023966
 21
1219.826587727585
 31
0.0
  0
LINE
  5
255B
330
A
100
AcDbEntity
  8
MODEL
  6
Continuous
100
AcDbLine
 10
699.6111188023724
 20
1224.838587727573
 30
0.0
 11
681.1521188022243
 21
1221.449587727548
 31
0.0
  0
LINE
  5
255C
330
A
100
AcDbEntity
  8
MODEL
  6
Continuous
100
AcDbLine
 10
681.4621188023966
 20
1219.826587727585
 30
0.0
 11
700.1251188017568
 21
1223.224587727455
 31
0.0
  0
LINE
  5
255D
330
A
100
AcDbEntity
  8
MODEL
  6
Continuous
100
AcDbLine
 10
713.5911188022374
 20
1228.337587727583
 30
0.0
 11
699.6111188023724
 21
1224.838587727573
 31
0.0
  0
LINE
  5
255E
330
A
100
AcDbEntity
  8
MODEL
  6
Continuous
100
AcDbLine
 10
700.1251188017568
 20
1223.224587727455
 30
0.0
 11
714.3971188021033
 21
1226.680587727606
 31
0.0
  0
LINE
  5
255F
330
A
100
AcDbEntity
  8
MODEL
  6
Continuous
100
AcDbLine
 10
733.7771188023407
 20
1235.756587727665
 30
0.0
 11
713.5911188022374
 21
1228.337587727583
 31
0.0
  0
LINE
  5
2560
330
A
100
AcDbEntity
  8
MODEL
  6
Continuous
100
AcDbLine
 10
714.3971188021033
 20
1226.680587727606
 30
0.0
 11
734.8551188023202
 21
1234.024587727472
 31
0.0
  0
LINE
  5
2561
330
A
100
AcDbEntity
  8
MODEL
  6
Continuous
100
AcDbLine
 10
752.3611188020232
 20
1243.786587727519
 30
0.0
 11
733.7771188023407
 21
1235.756587727665
 31
0.0
  0
LINE
  5
2562
330
A
100
AcDbEntity
  8
MODEL
  6
Continuous
100
AcDbLine
 10
734.8551188023202
 20
1234.024587727472
 30
0.0
 11
753.521118802405
 21
1241.936587727542
 31
0.0
  0
LINE
  5
2563
330
A
100
AcDbEntity
  8
MODEL
  6
Continuous
100
AcDbLine
 10
768.9431188020762
 20
1253.983587727562
 30
0.0
 11
752.3611188020232
 21
1243.786587727519
 31
0.0
  0
LINE
  5
2564
330
A
100
AcDbEntity
  8
MODEL
  6
Continuous
100
AcDbLine
 10
753.521118802405
 20
1241.936587727542
 30
0.0
 11
770.1261188018043
 21
1252.080587727542
 31
0.0
  0
LINE
  5
2565
330
A
100
AcDbEntity
  8
MODEL
  6
Continuous
100
AcDbLine
 10
783.3951188022411
 20
1263.799587727554
 30
0.0
 11
768.9431188020762
 21
1253.983587727562
 31
0.0
  0
LINE
  5
2566
330
A
100
AcDbEntity
  8
MODEL
  6
Continuous
100
AcDbLine
 10
770.1261188018043
 20
1252.080587727542
 30
0.0
 11
784.6091188022774
 21
1261.800587727485
 31
0.0
  0
LINE
  5
2567
330
A
100
AcDbEntity
  8
MODEL
  6
Continuous
100
AcDbLine
 10
795.6721188021265
 20
1276.179587727529
 30
0.0
 11
783.3951188022411
 21
1263.799587727554
 31
0.0
  0
LINE
  5
2568
330
A
100
AcDbEntity
  8
MODEL
  6
Continuous
100
AcDbLine
 10
784.6091188022774
 20
1261.800587727485
 30
0.0
 11
796.8601188020921
 21
1274.175587727514
 31
0.0
  0
LINE
  5
2569
330
A
100
AcDbEntity
  8
MODEL
  6
Continuous
100
AcDbLine
 10
805.7241188022681
 20
1296.846587727487
 30
0.0
 11
795.6721188021265
 21
1276.179587727529
 31
0.0
  0
LINE
  5
256A
330
A
100
AcDbEntity
  8
MODEL
  6
Continuous
100
AcDbLine
 10
796.8601188020921
 20
1274.175587727514
 30
0.0
 11
806.8271188022709
 21
1294.99858772746
 31
0.0
  0
LINE
  5
256B
330
A
100
AcDbEntity
  8
MODEL
  6
Continuous
100
AcDbLine
 10
807.8591188023938
 20
1310.84258772753
 30
0.0
 11
805.7241188022681
 21
1296.846587727487
 31
0.0
  0
LINE
  5
256C
330
A
100
AcDbEntity
  8
MODEL
  6
Continuous
100
AcDbLine
 10
806.8271188022709
 20
1294.99858772746
 30
0.0
 11
808.8861188022793
 21
1308.93958772751
 31
0.0
  0
LINE
  5
256D
330
A
100
AcDbEntity
  8
MODEL
  6
Continuous
100
AcDbLine
 10
806.1191188018211
 20
1326.243587727513
 30
0.0
 11
807.8591188023938
 21
1310.84258772753
 31
0.0
  0
LINE
  5
256E
330
A
100
AcDbEntity
  8
MODEL
  6
Continuous
100
AcDbLine
 10
808.8861188022793
 20
1308.93958772751
 30
0.0
 11
807.2231188024534
 21
1324.419587727607
 31
0.0
  0
LINE
  5
256F
330
A
100
AcDbEntity
  8
MODEL
  6
Continuous
100
AcDbLine
 10
800.6421188024478
 20
1357.626587727573
 30
0.0
 11
806.1191188018211
 21
1326.243587727513
 31
0.0
  0
LINE
  5
2570
330
A
100
AcDbEntity
  8
MODEL
  6
Continuous
100
AcDbLine
 10
807.2231188024534
 20
1324.419587727607
 30
0.0
 11
801.9801188025531
 21
1355.491587727593
 31
0.0
  0
LINE
  5
2571
330
A
100
AcDbEntity
  8
MODEL
  6
Continuous
100
AcDbLine
 10
792.2001188019431
 20
1393.205587727571
 30
0.0
 11
800.6421188024478
 21
1357.626587727573
 31
0.0
  0
LINE
  5
2572
330
A
100
AcDbEntity
  8
MODEL
  6
Continuous
100
AcDbLine
 10
801.9801188025531
 20
1355.491587727593
 30
0.0
 11
793.91611880254
 21
1391.116587727593
 31
0.0
  0
LINE
  5
2573
330
A
100
AcDbEntity
  8
MODEL
  6
Continuous
100
AcDbLine
 10
793.91611880254
 20
1391.116587727593
 30
0.0
 11
784.2221188025223
 21
1426.702587727487
 31
0.0
  0
LINE
  5
2574
330
A
100
AcDbEntity
  8
MODEL
  6
Continuous
100
AcDbLine
 10
784.2221188025223
 20
1426.702587727487
 30
0.0
 11
773.7421188018425
 21
1460.186587727658
 31
0.0
  0
LINE
  5
2575
330
A
100
AcDbEntity
  8
MODEL
  6
Continuous
100
AcDbLine
 10
773.7421188018425
 20
1460.186587727658
 30
0.0
 11
763.169118801984
 21
1486.513587727678
 31
0.0
  0
LINE
  5
2576
330
A
100
AcDbEntity
  8
MODEL
  6
Continuous
100
AcDbLine
 10
763.169118801984
 20
1486.513587727678
 30
0.0
 11
754.596118802242
 21
1500.90058772752
 31
0.0
  0
LINE
  5
2577
330
A
100
AcDbEntity
  8
MODEL
  6
Continuous
100
AcDbLine
 10
754.596118802242
 20
1500.90058772752
 30
0.0
 11
742.3041188022262
 21
1511.303587727598
 31
0.0
  0
LINE
  5
2578
330
A
100
AcDbEntity
  8
MODEL
  6
Continuous
100
AcDbLine
 10
742.3041188022262
 20
1511.303587727598
 30
0.0
 11
727.5151188023528
 21
1517.411587727548
 31
0.0
  0
LINE
  5
2579
330
A
100
AcDbEntity
  8
MODEL
  6
Continuous
100
AcDbLine
 10
727.5151188023528
 20
1517.411587727548
 30
0.0
 11
710.9241188018723
 21
1519.690587727528
 31
0.0
  0
LINE
  5
257A
330
A
100
AcDbEntity
  8
MODEL
  6
Continuous
100
AcDbLine
 10
710.9241188018723
 20
1519.690587727528
 30
0.0
 11
650.4281188021787
 21
1521.255587727501
 31
0.0
  0
LINE
  5
257B
330
A
100
AcDbEntity
  8
MODEL
  6
Continuous
100
AcDbLine
 10
788.6011188021303
 20
1303.280587727495
 30
0.0
 11
790.7831188021601
 21
1314.389587727638
 31
0.0
  0
LINE
  5
257C
330
A
100
AcDbEntity
  8
MODEL
  6
Continuous
100
AcDbLine
 10
778.1041188023892
 20
1263.449587727664
 30
0.0
 11
788.6011188021303
 21
1303.280587727495
 31
0.0
  0
LINE
  5
257D
330
A
100
AcDbEntity
  8
MODEL
  6
Continuous
100
AcDbLine
 10
777.1621188018844
 20
1260.632587727596
 30
0.0
 11
778.1041188023892
 21
1263.449587727664
 31
0.0
  0
LINE
  5
257E
330
A
100
AcDbEntity
  8
MODEL
  6
Continuous
100
AcDbLine
 10
510.0581188020669
 20
1314.467587727559
 30
0.0
 11
512.2551188022271
 21
1303.280587727495
 31
0.0
  0
LINE
  5
257F
330
A
100
AcDbEntity
  8
MODEL
  6
Continuous
100
AcDbLine
 10
512.2551188022271
 20
1303.280587727495
 30
0.0
 11
522.7521188019682
 21
1263.449587727664
 31
0.0
  0
LINE
  5
2580
330
A
100
AcDbEntity
  8
MODEL
  6
Continuous
100
AcDbLine
 10
522.7521188019682
 20
1263.449587727664
 30
0.0
 11
523.4891188020492
 21
1261.246587727656
 31
0.0
  0
DIMENSION
  5
2581
330
A
100
AcDbEntity
  8
Dim
  6
Continuous
100
AcDbDimension
  2
*D34
 10
840.4281188021787
 20
2554.351999783783
 30
0.0
 11
650.4281188021787
 21
2554.351999783783
 31
0.0
 70
   160
 71
     5
 42
380.0
 73
     0
 74
     0
 75
     0
  3
JIS
100
AcDbAlignedDimension
 13
460.4281188021787
 23
2444.058259589189
 33
0.0
 14
840.4281188021787
 24
2444.058259589189
 34
0.0
100
AcDbRotatedDimension
1001
ACAD
1000
DSTYLE
1002
{
1070
   179
1070
     0
1070
   271
1070
     0
1070
    43
1040
25.0
1070
    44
1040
0.0
1070
    42
1040
25.0
1002
}
  0
DIMENSION
  5
25A4
330
A
100
AcDbEntity
  8
Dim
  6
Continuous
100
AcDbDimension
  2
*D36
 10
324.0990582818431
 20
2076.779814083382
 30
0.0
 11
324.0990582818431
 21
2259.279814083382
 31
0.0
 70
   160
 71
     5
 42
365.0
 73
     0
 74
     0
 75
     0
 52
-90.0
  3
JIS
100
AcDbAlignedDimension
 13
460.1845866940705
 23
2441.779814083382
 33
0.0
 14
634.3766908353566
 24
2076.779814083382
 34
0.0
 50
90.00000000000001
100
AcDbRotatedDimension
1001
ACAD
1000
DSTYLE
1002
{
1070
   179
1070
     0
1070
   271
1070
     0
1070
    43
1040
25.0
1070
    44
1040
0.0
1070
    42
1040
25.0
1002
}
  0
DIMENSION
  5
25C4
330
A
100
AcDbEntity
  8
Dim
  6
Continuous
100
AcDbDimension
  2
*D38
 10
1775.23010858781
 20
1548.113587727567
 30
0.0
 11
1753.01379999406
 21
1575.613587727567
 31
0.0
 70
    32
 71
     5
 42
55.0
 73
     0
 74
     0
 75
     0
  3
JIS
100
AcDbAlignedDimension
 13
1664.733991479169
 23
1603.113587727567
 33
0.0
 14
1664.733991479169
 24
1548.113587727567
 34
0.0
 50
90.0
100
AcDbRotatedDimension
1001
ACAD
1000
DSTYLE
1002
{
1070
   179
1070
     0
1070
   271
1070
     0
1070
    43
1040
25.0
1070
    44
1040
0.0
1070
    42
1040
25.0
1002
}
  0
DIMENSION
  5
25D1
330
A
100
AcDbEntity
  8
Dim
  6
Continuous
100
AcDbDimension
  2
*D39
 10
307.0315308989027
 20
1223.113587727567
 30
0.0
 11
284.8152223051527
 21
1028.113587727567
 31
0.0
 70
    32
 71
     5
 42
390.0
 73
     0
 74
     0
 75
     0
  3
JIS
100
AcDbAlignedDimension
 13
485.154145180557
 23
833.1135877275669
 33
0.0
 14
588.7362556556595
 24
1223.113587727567
 34
0.0
 50
90.0
100
AcDbRotatedDimension
1001
ACAD
1000
DSTYLE
1002
{
1070
   179
1070
     0
1070
   271
1070
     0
1070
    43
1040
25.0
1070
    44
1040
0.0
1070
    42
1040
25.0
1002
}
  0
DIMENSION
  5
25E1
330
A
100
AcDbEntity
  8
Dim
  6
Continuous
100
AcDbDimension
  2
*D40
 10
307.0315308989027
 20
1603.113587727567
 30
0.0
 11
284.8152223051527
 21
1413.113587727567
 31
0.0
 70
    32
 71
     5
 42
380.0
 73
     0
 74
     0
 75
     0
  3
JIS
100
AcDbAlignedDimension
 13
449.7129146826866
 23
1223.113587727567
 33
0.0
 14
485.4058894540249
 24
1603.113587727567
 34
0.0
 50
90.0
100
AcDbRotatedDimension
1001
ACAD
1000
DSTYLE
1002
{
1070
   179
1070
     0
1070
   271
1070
     0
1070
    43
1040
25.0
1070
    44
1040
0.0
1070
    42
1040
25.0
1002
}
  0
DIMENSION
  5
25F7
330
A
100
AcDbEntity
  8
Dim
  6
Continuous
100
AcDbDimension
  2
*D41
 10
1014.643137569082
 20
898.1135877275669
 30
0.0
 11
992.4268289753319
 21
865.6135877275669
 31
0.0
 70
    32
 71
     5
 42
64.99999999999999
 73
     0
 74
     0
 75
     0
  3
JIS
100
AcDbAlignedDimension
 13
800.4281188021787
 23
833.1135877275669
 33
0.0
 14
679.9340705062435
 24
898.1135877275669
 34
0.0
 50
90.0
100
AcDbRotatedDimension
1001
ACAD
1000
DSTYLE
1002
{
1070
   179
1070
     0
1070
   271
1070
     0
1070
    43
1040
25.0
1070
    44
1040
0.0
1070
    42
1040
25.0
1002
}
  0
LINE
  5
2605
330
A
100
AcDbEntity
  8
HIDDEN
  6
CENTER
 48
0.2
100
AcDbLine
 10
650.4281188021786
 20
868.6076360235022
 30
0.0
 11
650.4281188021786
 21
927.6195394316321
 31
0.0
  0
LINE
  5
2606
330
A
100
AcDbEntity
  8
HIDDEN
  6
CENTER
 48
0.2
100
AcDbLine
 10
620.9221670981138
 20
898.1135877275669
 30
0.0
 11
679.9340705062435
 21
898.1135877275669
 31
0.0
  0
CIRCLE
  5
2607
330
A
100
AcDbEntity
  8
HIDDEN
 48
0.5
100
AcDbCircle
 10
650.4281188021786
 20
898.1135877275669
 30
0.0
 40
25.0
  0
CIRCLE
  5
2608
330
A
100
AcDbEntity
  8
HIDDEN
  6
HIDDEN
 48
0.5
100
AcDbCircle
 10
650.4281188021787
 20
1548.113587727567
 30
0.0
 40
17.5
  0
LINE
  5
261C
330
A
100
AcDbEntity
  8
HIDDEN
  6
CENTER
 48
0.1
100
AcDbLine
 10
671.9109406723628
 20
1548.113587727567
 30
0.0
 11
628.9452969319946
 21
1548.113587727567
 31
0.0
  0
LINE
  5
261D
330
A
100
AcDbEntity
  8
HIDDEN
  6
CENTER
 48
0.1
100
AcDbLine
 10
650.4281188021787
 20
1569.596409597751
 30
0.0
 11
650.4281188021787
 21
1526.630765857383
 31
0.0
  0
LINE
  5
2631
330
A
100
AcDbEntity
  8
Dim
  6
Continuous
100
AcDbLine
 10
845.8272539274161
 20
712.1613794943552
 30
0.0
 11
672.1242948716589
 21
883.7797508728347
 31
0.0
  0
MTEXT
  5
2667
330
A
100
AcDbEntity
  8
Dim
390
1D
100
AcDbMText
 10
863.2916079405104
 20
714.4918176819676
 30
0.0
 40
24.0
 41
1169.771715461011
 46
26.688
 71
     1
 72
     1
  1
{排水位置}
  7
ＭＳ ゴシック
 73
     1
 44
1.174240107638677
1001
ACAD
1000
ACAD_MTEXT_DEFINED_HEIGHT_BEGIN
1070
    46
1040
26.688
1000
ACAD_MTEXT_DEFINED_HEIGHT_END
  0
DIMENSION
  5
266A
330
A
100
AcDbEntity
  8
Dim
  6
Continuous
100
AcDbDimension
  2
*D42
 10
1014.643137569082
 20
1137.873042013729
 30
0.0
 11
992.4268289753319
 21
1017.993314870648
 31
0.0
 70
    32
 71
     5
 42
239.7594542861621
 73
     0
 74
     0
 75
     0
  3
JIS
100
AcDbAlignedDimension
 13
788.7454951517548
 23
898.1135877275669
 33
0.0
 14
816.183979351368
 24
1137.873042013729
 34
0.0
 50
90.0
100
AcDbRotatedDimension
1001
ACAD
1000
DSTYLE
1002
{
1070
   179
1070
     0
1070
   271
1070
     0
1070
    43
1040
25.0
1070
    44
1040
0.0
1070
    42
1040
25.0
1002
}
  0
DIMENSION
  5
2678
330
A
100
AcDbEntity
  8
Dim
  6
Continuous
100
AcDbDimension
  2
*D43
 10
790.4281188021787
 20
1017.941186436756
 30
0.0
 11
650.4281188021787
 21
1040.157495030506
 31
0.0
 70
    32
 71
     5
 42
280.0
 73
     0
 74
     0
 75
     0
  3
JIS
100
AcDbAlignedDimension
 13
510.4281188021787
 23
1112.590713692346
 33
0.0
 14
790.4281188021787
 24
1112.590713692346
 34
0.0
100
AcDbRotatedDimension
1001
ACAD
1000
DSTYLE
1002
{
1070
   179
1070
     0
1070
   271
1070
     0
1070
    43
1040
25.0
1070
    44
1040
0.0
1070
    42
1040
25.0
1002
}
  0
LINE
  5
2686
330
A
100
AcDbEntity
  8
HIDDEN
  6
CENTER
 48
0.2
100
AcDbLine
 10
510.4281188021787
 20
1112.11718146454
 30
0.0
 11
510.4281188021787
 21
1163.628902562919
 31
0.0
  0
CIRCLE
  5
26B9
330
A
100
AcDbEntity
  8
HIDDEN
  6
CENTER
 48
0.2
100
AcDbCircle
 10
510.4281188021787
 20
1138.113587727567
 30
0.0
 40
8.0
  0
LINE
  5
26C0
102
{ACAD_REACTORS
330
2811
102
}
330
A
100
AcDbEntity
  8
HIDDEN
  6
CENTER
 48
0.2
100
AcDbLine
 10
484.6722582529894
 20
1137.873042013729
 30
0.0
 11
536.183979351368
 21
1137.873042013729
 31
0.0
  0
CIRCLE
  5
26D4
330
A
100
AcDbEntity
  8
HIDDEN
  6
CENTER
 48
0.2
100
AcDbCircle
 10
790.4281188021787
 20
1138.113587727567
 30
0.0
 40
8.0
  0
LINE
  5
26D5
330
A
100
AcDbEntity
  8
HIDDEN
  6
CENTER
 48
0.2
100
AcDbLine
 10
790.4281188021787
 20
1112.11718146454
 30
0.0
 11
790.4281188021787
 21
1163.628902562919
 31
0.0
  0
LINE
  5
26D6
330
A
100
AcDbEntity
  8
HIDDEN
  6
CENTER
 48
0.2
100
AcDbLine
 10
816.183979351368
 20
1137.873042013729
 30
0.0
 11
764.6722582529894
 21
1137.873042013729
 31
0.0
  0
DIMENSION
  5
26E9
330
A
100
AcDbEntity
  8
Dim
  6
Continuous
100
AcDbDimension
  2
*D44
 10
1014.643137569082
 20
1602.873042013729
 30
0.0
 11
992.4268289753319
 21
1370.373042013729
 31
0.0
 70
    32
 71
     5
 42
465.0
 73
     0
 74
     0
 75
     0
  3
JIS
100
AcDbAlignedDimension
 13
816.183979351368
 23
1137.873042013729
 33
0.0
 14
816.183979351368
 24
1602.873042013729
 34
0.0
 50
90.0
100
AcDbRotatedDimension
1001
ACAD
1000
DSTYLE
1002
{
1070
   179
1070
     0
1070
   271
1070
     0
1070
    43
1040
25.0
1070
    44
1040
0.0
1070
    42
1040
25.0
1002
}
  0
LINE
  5
2726
330
A
100
AcDbEntity
  8
Dim
  6
Continuous
100
AcDbLine
 10
664.646363973583
 20
1558.316112133117
 30
0.0
 11
801.0795871316486
 21
1691.438458878971
 31
0.0
  0
MTEXT
  5
2727
330
A
100
AcDbEntity
  8
Dim
390
1D
100
AcDbMText
 10
816.0241832635163
 20
1720.724797226096
 30
0.0
 40
24.0
 41
1169.771715461011
 46
27.408
 71
     1
 72
     1
  1
{給水位置G1/2}
  7
ＭＳ ゴシック
 73
     1
 44
1.174240107638677
1001
ACAD
1000
ACAD_MTEXT_DEFINED_HEIGHT_BEGIN
1070
    46
1040
27.408
1000
ACAD_MTEXT_DEFINED_HEIGHT_END
  0
MTEXT
  5
275D
330
A
100
AcDbEntity
  8
Dim
390
1D
100
AcDbMText
 10
1044.807177051902
 20
1293.527233369175
 30
0.0
 40
24.0
 41
1169.771715461011
 46
26.688
 71
     1
 72
     1
  1
{壁取付位置}
  7
ＭＳ ゴシック
 73
     1
 44
1.174240107638677
1001
ACAD
1000
ACAD_MTEXT_DEFINED_HEIGHT_BEGIN
1070
    46
1040
26.688
1000
ACAD_MTEXT_DEFINED_HEIGHT_END
  0
LINE
  5
275E
330
A
100
AcDbEntity
  8
Dim
  6
Continuous
100
AcDbLine
 10
1036.106354693406
 20
1261.949713199616
 30
0.0
 11
790.4281188021787
 21
1137.873042013729
 31
0.0
  0
DIMENSION
  5
2775
330
A
100
AcDbEntity
  8
Dim
  6
Continuous
100
AcDbDimension
  2
*D45
 10
1775.23010858781
 20
898.1135877275669
 30
0.0
 11
1753.01379999406
 21
1223.113587727567
 31
0.0
 70
    32
 71
     5
 42
650.0
 73
     0
 74
     0
 75
     0
  3
JIS
100
AcDbAlignedDimension
 13
1689.733991479169
 23
1548.113587727567
 33
0.0
 14
1689.733991479169
 24
898.1135877275669
 34
0.0
 50
90.0
100
AcDbRotatedDimension
1001
ACAD
1000
DSTYLE
1002
{
1070
   179
1070
     0
1070
   271
1070
     0
1070
    43
1040
25.0
1070
    44
1040
0.0
1070
    42
1040
25.0
1002
}
  0
DIMENSION
  5
2782
330
A
100
AcDbEntity
  8
Dim
  6
Continuous
100
AcDbDimension
  2
*D46
 10
1775.23010858781
 20
833.1135877275669
 30
0.0
 11
1753.01379999406
 21
865.6135877275669
 31
0.0
 70
    32
 71
     5
 42
65.0
 73
     0
 74
     0
 75
     0
  3
JIS
100
AcDbAlignedDimension
 13
1664.733991479169
 23
898.1135877275669
 33
0.0
 14
1664.733991479169
 24
833.1135877275669
 34
0.0
 50
90.0
100
AcDbRotatedDimension
1001
ACAD
1000
DSTYLE
1002
{
1070
   179
1070
     0
1070
   271
1070
     0
1070
    43
1040
25.0
1070
    44
1040
0.0
1070
    42
1040
25.0
1002
}
  0
LINE
  5
27D2
330
A
100
AcDbEntity
  8
HIDDEN
 48
0.5
100
AcDbLine
 10
1590.139936321244
 20
923.1135877275669
 30
0.0
 11
1629.733991479169
 21
923.1135877275669
 31
0.0
  0
LINE
  5
27D3
330
A
100
AcDbEntity
  8
HIDDEN
 48
0.5
100
AcDbLine
 10
1629.733991479169
 20
923.1135877275669
 30
0.0
 11
1629.733991479169
 21
873.1135877275669
 31
0.0
  0
LINE
  5
27D8
330
A
100
AcDbEntity
  8
HIDDEN
 48
0.5
100
AcDbLine
 10
1590.139936321244
 20
873.1135877275669
 30
0.0
 11
1629.733991479169
 21
873.1135877275669
 31
0.0
  0
LINE
  5
27EE
330
A
100
AcDbEntity
  8
HIDDEN
 48
0.5
100
AcDbLine
 10
1596.109016014391
 20
1565.613587727567
 30
0.0
 11
1596.109016014391
 21
1530.613587727567
 31
0.0
  0
LINE
  5
27EF
330
A
100
AcDbEntity
  8
HIDDEN
 48
0.5
100
AcDbLine
 10
1635.703071172317
 20
1530.613587727567
 30
0.0
 11
1596.109016014391
 21
1530.613587727567
 31
0.0
  0
LINE
  5
27F0
330
A
100
AcDbEntity
  8
HIDDEN
 48
0.5
100
AcDbLine
 10
1635.703071172317
 20
1565.613587727567
 30
0.0
 11
1596.109016014391
 21
1565.613587727567
 31
0.0
  0
DIMENSION
  5
27F6
330
A
100
AcDbEntity
  8
Dim
  6
Continuous
100
AcDbDimension
  2
*D47
 10
932.8146222825953
 20
1137.873042013729
 30
0.0
 11
910.5983136888453
 21
1342.993314870648
 31
0.0
 70
    32
 71
     5
 42
410.2405457138379
 73
     0
 74
     0
 75
     0
  3
JIS
100
AcDbAlignedDimension
 13
671.9109406723628
 23
1548.113587727567
 33
0.0
 14
841.183979351368
 24
1137.873042013729
 34
0.0
 50
90.0
100
AcDbRotatedDimension
1001
ACAD
1000
DSTYLE
1002
{
1070
   179
1070
     0
1070
   271
1070
     0
1070
    43
1040
25.0
1070
    44
1040
0.0
1070
    42
1040
25.0
1002
}
  0
DIMENSION
  5
280F
102
{ACAD_REACTORS
330
2811
102
}
102
{ACAD_XDICTIONARY
360
2810
102
}
330
A
100
AcDbEntity
  8
Dim
  6
Continuous
100
AcDbDimension
  2
*D48
 10
393.551292033946
 20
1223.113587727567
 30
0.0
 11
371.334983440196
 21
1180.493314870648
 31
0.0
 70
    32
 71
     5
 42
85.24054571383795
 73
     0
 74
     0
 75
     0
  3
JIS
100
AcDbAlignedDimension
 13
484.6722582529894
 23
1137.873042013729
 33
0.0
 14
484.6722582529894
 24
1223.113587727567
 34
0.0
 50
90.0
100
AcDbRotatedDimension
1001
ACAD
1000
DSTYLE
1002
{
1070
   179
1070
     0
1070
   271
1070
     0
1070
    43
1040
25.0
1070
    44
1040
0.0
1070
    42
1040
25.0
1002
}
  0
DIMENSION
  5
2849
102
{ACAD_REACTORS
330
284B
102
}
102
{ACAD_XDICTIONARY
360
284A
102
}
330
A
100
AcDbEntity
  8
Dim
  6
Continuous
100
AcDbDimension
  2
*D49
 10
1629.733991479169
 20
735.1309526962311
 30
0.0
 11
1647.233991479169
 21
735.1309526962311
 31
0.0
 70
   160
 71
     5
 42
35.0
 73
     0
 74
     0
 75
     0
  3
JIS
100
AcDbAlignedDimension
 13
1664.733991479169
 23
833.1135877275669
 33
0.0
 14
1629.733991479169
 24
873.1135877275669
 34
0.0
100
AcDbRotatedDimension
1001
ACAD
1000
DSTYLE
1002
{
1070
   179
1070
     0
1070
   271
1070
     0
1070
    43
1040
25.0
1070
    44
1040
0.0
1070
    42
1040
25.0
1002
}
  0
VIEWPORT
  5
349
330
B
100
AcDbEntity
 67
     1
  8
0
100
AcDbViewport
 10
202.5
 20
128.5
 30
0.0
 40
486.0
 41
308.4
 68
     1
 69
     1
 12
202.5
 22
128.5
 13
0.0
 23
0.0
 14
0.5
 24
0.5
 15
0.0
 25
0.0
 16
0.0
 26
0.0
 36
1.0
 17
0.0
 27
0.0
 37
0.0
 42
50.0
 43
0.0
 44
0.0
 45
308.4
 50
0.0
 51
0.0
 72
   100
 90
   557152
  1

281
     0
 71
     1
 74
     0
110
0.0
120
0.0
130
0.0
111
1.0
121
0.0
131
0.0
112
0.0
122
1.0
132
0.0
 79
     0
146
0.0
170
     0
 61
     5
348
26C
292
     1
282
     1
141
0.0
142
0.0
 63
   256
  0
VIEWPORT
  5
34A
330
B
100
AcDbEntity
 67
     1
  8
0
100
AcDbViewport
 10
202.5
 20
128.5
 30
0.0
 40
324.0
 41
205.6
 68
     2
 69
     2
 12
986.6781359294573
 22
1427.077061889956
 13
0.0
 23
0.0
 14
0.5
 24
0.5
 15
0.0
 25
0.0
 16
0.0
 26
0.0
 36
1.0
 17
0.0
 27
0.0
 37
0.0
 42
50.0
 43
0.0
 44
0.0
 45
2890.021615685494
 50
0.0
 51
0.0
 72
   100
 90
   557152
  1

281
     0
 71
     1
 74
     0
110
0.0
120
0.0
130
0.0
111
1.0
121
0.0
131
0.0
112
0.0
122
1.0
132
0.0
 79
     0
146
0.0
170
     0
 61
     5
348
26C
292
     1
282
     1
141
0.0
142
0.0
 63
   256
  0
ENDSEC
  0
SECTION
  2
OBJECTS
  0
DICTIONARY
  5
19
330
0
100
AcDbDictionary
281
     1
  3
ACAD_COLOR
350
38F
  3
ACAD_DETAILVIEWSTYLE
350
8CF
  3
ACAD_FIELDLIST
350
BA6
  3
ACAD_GROUP
350
1A
  3
ACAD_IMAGE_VARS
350
27B
  3
ACAD_LAYOUT
350
1E
  3
ACAD_MATERIAL
350
263
  3
ACAD_MLEADERSTYLE
350
336
  3
ACAD_MLINESTYLE
350
1B
  3
ACAD_PLOTSETTINGS
350
22
  3
ACAD_PLOTSTYLENAME
350
1F
  3
ACAD_SCALELIST
350
241
  3
ACAD_SECTIONVIEWSTYLE
350
8D0
  3
ACAD_TABLESTYLE
350
278
  3
ACAD_VISUALSTYLE
350
267
  3
ACDB_RECOMPOSE_DATA
350
2874
  3
AcDbVariableDictionary
350
330
  3
APPDATA
350
27A
  3
DimOffsetDictionary
350
C08
  0
SUN
  5
8C2
330
15
100
AcDbSun
 90
        1
290
     0
 63
     7
421
 16777215
 40
1.0
291
     1
 91
  2455826
 92
 54000000
292
     0
 70
     2
 71
   256
280
     1
  0
DICTIONARY
  5
2E1
330
2
100
AcDbDictionary
280
     1
281
     1
  3
ACAD_LAYERSTATES
360
2E2
  3
ACLYDICTIONARY
360
BFE
  0
DICTIONARY
  5
BDC
330
BDB
100
AcDbDictionary
280
     1
281
     1
  3
ACAD_FIELD
360
BE4
  0
DICTIONARY
  5
2810
330
280F
100
AcDbDictionary
280
     1
281
     1
  3
ACAD_DIMASSOC
360
2811
  0
DICTIONARY
  5
284A
330
2849
100
AcDbDictionary
280
     1
281
     1
  3
ACAD_DIMASSOC
360
284B
  0
DICTIONARY
  5
38F
102
{ACAD_REACTORS
330
19
102
}
330
19
100
AcDbDictionary
281
     1
  0
DICTIONARY
  5
8CF
102
{ACAD_REACTORS
330
19
102
}
330
19
100
AcDbDictionary
281
     1
  0
FIELDLIST
  5
BA6
102
{ACAD_REACTORS
330
19
102
}
330
19
100
AcDbIdSet
 90
        2
330
BDF
330
BDE
100
AcDbFieldList
  0
DICTIONARY
  5
1A
102
{ACAD_REACTORS
330
19
102
}
330
19
100
AcDbDictionary
281
     1
  0
RASTERVARIABLES
  5
27B
102
{ACAD_REACTORS
330
19
102
}
330
19
100
AcDbRasterVariables
 90
        0
 70
     1
 71
     1
 72
     1
  0
DICTIONARY
  5
1E
102
{ACAD_REACTORS
330
19
102
}
330
19
100
AcDbDictionary
281
     1
  3
Layout1
350
21
  3
Model
350
20
  0
DICTIONARY
  5
263
102
{ACAD_REACTORS
330
19
102
}
330
19
100
AcDbDictionary
281
     1
  3
ByBlock
350
1AFC
  3
ByLayer
350
264
  3
Global
350
266
  0
DICTIONARY
  5
336
102
{ACAD_REACTORS
330
19
102
}
330
19
100
AcDbDictionary
281
     1
  3
Standard
350
8D1
  0
DICTIONARY
  5
1B
102
{ACAD_REACTORS
330
19
102
}
330
19
100
AcDbDictionary
281
     1
  3
Standard
350
1C
  0
DICTIONARY
  5
22
102
{ACAD_REACTORS
330
19
102
}
330
19
100
AcDbDictionary
281
     1
  0
ACDBDICTIONARYWDFLT
  5
1F
102
{ACAD_REACTORS
330
19
102
}
330
19
100
AcDbDictionary
281
     1
  3
Normal
350
1D
100
AcDbDictionaryWithDefault
340
1D
  0
DICTIONARY
  5
241
102
{ACAD_REACTORS
330
19
102
}
330
19
100
AcDbDictionary
281
     1
  3
A0
350
242
  3
A1
350
243
  3
A2
350
244
  3
A3
350
245
  3
A4
350
246
  3
A5
350
247
  3
A6
350
248
  3
A7
350
249
  3
A8
350
24A
  3
A9
350
24B
  3
B0
350
24C
  3
B1
350
24D
  3
B2
350
24E
  3
B3
350
24F
  3
B4
350
250
  3
B5
350
251
  3
B6
350
252
  3
B7
350
253
  3
B8
350
254
  3
B9
350
255
  3
C0
350
256
  3
C1
350
257
  3
C2
350
258
  3
C3
350
259
  3
C4
350
25A
  3
C5
350
25B
  3
C6
350
25C
  3
C7
350
25D
  3
C8
350
25E
  3
C9
350
25F
  3
D0
350
260
  3
D1
350
261
  3
D2
350
262
  0
DICTIONARY
  5
8D0
102
{ACAD_REACTORS
330
19
102
}
330
19
100
AcDbDictionary
281
     1
  0
DICTIONARY
  5
278
102
{ACAD_REACTORS
330
19
102
}
330
19
100
AcDbDictionary
281
     1
  3
Standard
350
279
  0
DICTIONARY
  5
267
102
{ACAD_REACTORS
330
19
102
}
330
19
100
AcDbDictionary
281
     1
  3
2dWireframe
350
26C
  3
3D Hidden
350
26E
  3
3dWireframe
350
26D
  3
Basic
350
26F
  3
Brighten
350
273
  3
ColorChange
350
277
  3
Conceptual
350
271
  3
Dim
350
272
  3
EdgeColorOff
350
8BC
  3
Facepattern
350
276
  3
Flat
350
268
  3
FlatWithEdges
350
269
  3
Gouraud
350
26A
  3
GouraudWithEdges
350
26B
  3
Hidden
350
8B9
  3
JitterOff
350
8BA
  3
Linepattern
350
275
  3
OverhangOff
350
8BB
  3
Realistic
350
270
  3
Shaded
350
8C1
  3
Shaded with edges
350
8C0
  3
Shades of Gray
350
8BD
  3
Sketchy
350
8BE
  3
Thicken
350
274
  3
Wireframe
350
8B8
  3
X-Ray
350
8BF
  0
XRECORD
  5
2874
102
{ACAD_REACTORS
330
19
102
}
330
19
100
AcDbXrecord
280
     1
 90
        1
330
279
  0
DICTIONARY
  5
330
102
{ACAD_REACTORS
330
19
102
}
330
19
100
AcDbDictionary
281
     1
  3
CANNOSCALE
350
331
  3
CMLEADERSTYLE
350
8DA
  3
CTABLESTYLE
350
335
  3
HPTRANSPARENCY
350
C07
  3
XCLIPFRAME
350
64A
  0
DICTIONARY
  5
27A
102
{ACAD_REACTORS
330
19
102
}
330
19
100
AcDbDictionary
281
     1
  0
DICTIONARY
  5
C08
102
{ACAD_REACTORS
330
19
102
}
330
19
100
AcDbDictionary
281
     1
  3
DIMRAILANGLE
350
C0B
  3
DIMRAILFIRSTOFFSET
350
C09
  3
DIMRAILOFFSET
350
C0A
  3
DIMRAILSENABLED
350
C0C
  0
DICTIONARY
  5
2E2
102
{ACAD_REACTORS
330
2E1
102
}
330
2E1
100
AcDbDictionary
281
     1
  3
ARGON_LAYERP_15
350
870
  0
DICTIONARY
  5
BFE
102
{ACAD_REACTORS
330
2E1
102
}
330
2E1
100
AcDbDictionary
281
     1
1001
ACAD
1000
<All
  0
DICTIONARY
  5
BE4
102
{ACAD_REACTORS
330
BDC
102
}
330
BDC
100
AcDbDictionary
280
     1
281
     1
  3
TEXT
360
BDE
  0
DIMASSOC
  5
2811
102
{ACAD_REACTORS
330
2810
102
}
330
2810
100
AcDbDimAssoc
330
280F
 90
        1
 70
     0
 71
     1
  1
AcDbOsnapPointRef
 72
    13
331
26C0
 73
     0
 91
        0
 40
0.0
 10
0.0
 20
0.0
 30
0.0
 75
     0
  0
DIMASSOC
  5
284B
102
{ACAD_REACTORS
330
284A
102
}
330
284A
100
AcDbDimAssoc
330
2849
 90
        1
 70
     0
 71
     1
  1
AcDbOsnapPointRef
 72
    13
331
23C1
 73
     0
 91
        0
 40
0.0
 10
0.0
 20
0.0
 30
0.0
 75
     0
  0
LAYOUT
  5
21
102
{ACAD_REACTORS
330
1E
102
}
330
1E
100
AcDbPlotSettings
  1

  2
none_device
  4
ISO_A3_(420.00_x_297.00_MM)
  6

 40
7.5
 41
20.0
 42
7.5
 43
20.0
 44
420.0
 45
297.0
 46
0.0
 47
0.0
 48
0.0
 49
0.0
140
0.0
141
0.0
142
1.0
143
1.0
 70
     0
 72
     1
 73
     0
 74
     0
  7

 75
     0
 76
     0
 77
     2
 78
   300
147
1.0
148
0.0
149
0.0
100
AcDbLayout
  1
Layout1
 70
     0
 71
     0
 10
0.0
 20
0.0
 11
0.0
 21
0.0
 12
0.0
 22
0.0
 32
0.0
 14
0.0
 24
0.0
 34
0.0
 15
0.0
 25
0.0
 35
0.0
146
0.0
 13
0.0
 23
0.0
 33
0.0
 16
0.0
 26
0.0
 36
0.0
 17
0.0
 27
0.0
 37
0.0
 76
     0
330
B
331
349
  0
LAYOUT
  5
20
102
{ACAD_REACTORS
330
1E
102
}
330
1E
100
AcDbPlotSettings
  1

  2
none_device
  4
ISO_A3_(420.00_x_297.00_MM)
  6

 40
7.5
 41
20.0
 42
7.5
 43
20.0
 44
420.0
 45
297.0
 46
0.0
 47
0.0
 48
0.0
 49
0.0
140
0.0
141
0.0
142
1.0
143
1.0
 70
  1024
 72
     1
 73
     0
 74
     0
  7

 75
     0
 76
     0
 77
     2
 78
   300
147
1.0
148
0.0
149
0.0
100
AcDbLayout
  1
Model
 70
     0
 71
     1
 10
0.0
 20
0.0
 11
2100.0
 21
2970.0
 12
0.0
 22
0.0
 32
0.0
 14
0.0
 24
0.0
 34
0.0
 15
2100.0
 25
2970.0
 35
0.0
146
0.0
 13
0.0
 23
0.0
 33
0.0
 16
0.0
 26
0.0
 36
0.0
 17
0.0
 27
0.0
 37
0.0
 76
     0
330
A
331
15
  0
MATERIAL
  5
1AFC
102
{ACAD_REACTORS
330
263
102
}
330
263
100
AcDbMaterial
  1
ByBlock
 72
     1
 94
      127
  0
MATERIAL
  5
264
102
{ACAD_REACTORS
330
263
102
}
330
263
100
AcDbMaterial
  1
ByLayer
 72
     1
 94
      127
  0
MATERIAL
  5
266
102
{ACAD_REACTORS
330
263
102
}
330
263
100
AcDbMaterial
  1
Global
 72
     1
 94
      127
  0
MLEADERSTYLE
  5
8D1
102
{ACAD_REACTORS
330
336
102
}
330
336
100
AcDbMLeaderStyle
170
     2
171
     1
172
     0
 90
        2
 40
0.0
 41
0.0
173
     1
 91
-1056964608
340
11
 92
       -2
290
     1
 42
2.0
291
     1
 43
8.0
  3
Standard
341
0
 44
4.0
300

342
17
174
     1
178
     6
175
     1
176
     0
 93
-1056964608
 45
4.0
292
     0
297
     0
 46
4.0
343
0
 94
-1056964608
 47
1.0
 49
1.0
140
1.0
293
     1
141
0.0
294
     1
177
     0
142
1.0
295
     0
296
     0
143
3.75
1001
ACAD_MLEADERVER
1070
     2
  0
MLINESTYLE
  5
1C
102
{ACAD_REACTORS
330
1B
102
}
330
1B
100
AcDbMlineStyle
  2
Standard
 70
     0
  3

 62
     0
 51
90.0
 52
90.0
 71
     2
 49
0.5
 62
   256
  6
BYLAYER
 49
-0.5
 62
   256
  6
BYLAYER
  0
ACDBPLACEHOLDER
  5
1D
102
{ACAD_REACTORS
330
1F
102
}
330
1F
  0
SCALE
  5
242
102
{ACAD_REACTORS
330
241
102
}
330
241
100
AcDbScale
 70
     0
300
1:1
140
1.0
141
1.0
290
     1
  0
SCALE
  5
243
102
{ACAD_REACTORS
330
241
102
}
330
241
100
AcDbScale
 70
     0
300
1:2
140
1.0
141
2.0
290
     0
  0
SCALE
  5
244
102
{ACAD_REACTORS
330
241
102
}
330
241
100
AcDbScale
 70
     0
300
1:4
140
1.0
141
4.0
290
     0
  0
SCALE
  5
245
102
{ACAD_REACTORS
330
241
102
}
330
241
100
AcDbScale
 70
     0
300
1:5
140
1.0
141
5.0
290
     0
  0
SCALE
  5
246
102
{ACAD_REACTORS
330
241
102
}
330
241
100
AcDbScale
 70
     0
300
1:8
140
1.0
141
8.0
290
     0
  0
SCALE
  5
247
102
{ACAD_REACTORS
330
241
102
}
330
241
100
AcDbScale
 70
     0
300
1:10
140
1.0
141
10.0
290
     0
  0
SCALE
  5
248
102
{ACAD_REACTORS
330
241
102
}
330
241
100
AcDbScale
 70
     0
300
1:16
140
1.0
141
16.0
290
     0
  0
SCALE
  5
249
102
{ACAD_REACTORS
330
241
102
}
330
241
100
AcDbScale
 70
     0
300
1:20
140
1.0
141
20.0
290
     0
  0
SCALE
  5
24A
102
{ACAD_REACTORS
330
241
102
}
330
241
100
AcDbScale
 70
     0
300
1:30
140
1.0
141
30.0
290
     0
  0
SCALE
  5
24B
102
{ACAD_REACTORS
330
241
102
}
330
241
100
AcDbScale
 70
     0
300
1:40
140
1.0
141
40.0
290
     0
  0
SCALE
  5
24C
102
{ACAD_REACTORS
330
241
102
}
330
241
100
AcDbScale
 70
     0
300
1:50
140
1.0
141
50.0
290
     0
  0
SCALE
  5
24D
102
{ACAD_REACTORS
330
241
102
}
330
241
100
AcDbScale
 70
     0
300
1:100
140
1.0
141
100.0
290
     0
  0
SCALE
  5
24E
102
{ACAD_REACTORS
330
241
102
}
330
241
100
AcDbScale
 70
     0
300
2:1
140
2.0
141
1.0
290
     0
  0
SCALE
  5
24F
102
{ACAD_REACTORS
330
241
102
}
330
241
100
AcDbScale
 70
     0
300
4:1
140
4.0
141
1.0
290
     0
  0
SCALE
  5
250
102
{ACAD_REACTORS
330
241
102
}
330
241
100
AcDbScale
 70
     0
300
8:1
140
8.0
141
1.0
290
     0
  0
SCALE
  5
251
102
{ACAD_REACTORS
330
241
102
}
330
241
100
AcDbScale
 70
     0
300
10:1
140
10.0
141
1.0
290
     0
  0
SCALE
  5
252
102
{ACAD_REACTORS
330
241
102
}
330
241
100
AcDbScale
 70
     0
300
100:1
140
100.0
141
1.0
290
     0
  0
SCALE
  5
253
102
{ACAD_REACTORS
330
241
102
}
330
241
100
AcDbScale
 70
     0
300
1/128" = 1'-0"
140
0.0078125
141
12.0
290
     0
  0
SCALE
  5
254
102
{ACAD_REACTORS
330
241
102
}
330
241
100
AcDbScale
 70
     0
300
1/64" = 1'-0"
140
0.015625
141
12.0
290
     0
  0
SCALE
  5
255
102
{ACAD_REACTORS
330
241
102
}
330
241
100
AcDbScale
 70
     0
300
1/32" = 1'-0"
140
0.03125
141
12.0
290
     0
  0
SCALE
  5
256
102
{ACAD_REACTORS
330
241
102
}
330
241
100
AcDbScale
 70
     0
300
1/16" = 1'-0"
140
0.0625
141
12.0
290
     0
  0
SCALE
  5
257
102
{ACAD_REACTORS
330
241
102
}
330
241
100
AcDbScale
 70
     0
300
3/32" = 1'-0"
140
0.09375
141
12.0
290
     0
  0
SCALE
  5
258
102
{ACAD_REACTORS
330
241
102
}
330
241
100
AcDbScale
 70
     0
300
1/8" = 1'-0"
140
0.125
141
12.0
290
     0
  0
SCALE
  5
259
102
{ACAD_REACTORS
330
241
102
}
330
241
100
AcDbScale
 70
     0
300
3/16" = 1'-0"
140
0.1875
141
12.0
290
     0
  0
SCALE
  5
25A
102
{ACAD_REACTORS
330
241
102
}
330
241
100
AcDbScale
 70
     0
300
1/4" = 1'-0"
140
0.25
141
12.0
290
     0
  0
SCALE
  5
25B
102
{ACAD_REACTORS
330
241
102
}
330
241
100
AcDbScale
 70
     0
300
3/8" = 1'-0"
140
0.375
141
12.0
290
     0
  0
SCALE
  5
25C
102
{ACAD_REACTORS
330
241
102
}
330
241
100
AcDbScale
 70
     0
300
1/2" = 1'-0"
140
0.5
141
12.0
290
     0
  0
SCALE
  5
25D
102
{ACAD_REACTORS
330
241
102
}
330
241
100
AcDbScale
 70
     0
300
3/4" = 1'-0"
140
0.75
141
12.0
290
     0
  0
SCALE
  5
25E
102
{ACAD_REACTORS
330
241
102
}
330
241
100
AcDbScale
 70
     0
300
1" = 1'-0"
140
1.0
141
12.0
290
     0
  0
SCALE
  5
25F
102
{ACAD_REACTORS
330
241
102
}
330
241
100
AcDbScale
 70
     0
300
1-1/2" = 1'-0"
140
1.5
141
12.0
290
     0
  0
SCALE
  5
260
102
{ACAD_REACTORS
330
241
102
}
330
241
100
AcDbScale
 70
     0
300
3" = 1'-0"
140
3.0
141
12.0
290
     0
  0
SCALE
  5
261
102
{ACAD_REACTORS
330
241
102
}
330
241
100
AcDbScale
 70
     0
300
6" = 1'-0"
140
6.0
141
12.0
290
     0
  0
SCALE
  5
262
102
{ACAD_REACTORS
330
241
102
}
330
241
100
AcDbScale
 70
     0
300
1'-0" = 1'-0"
140
12.0
141
12.0
290
     0
  0
TABLESTYLE
  5
279
102
{ACAD_REACTORS
330
278
102
}
102
{ACAD_XDICTIONARY
360
2872
102
}
330
278
100
AcDbTableStyle
  3
Standard
 70
     0
 71
     0
 40
0.06
 41
0.06
280
     0
281
     0
  7
Standard
140
4.5
170
     2
 62
     0
 63
   257
283
     0
 90
        4
 91
        0
  1

274
    -2
284
     1
 64
     0
275
    -2
285
     1
 65
     0
276
    -2
286
     1
 66
     0
277
    -2
287
     1
 67
     0
278
    -2
288
     1
 68
     0
279
    -2
289
     1
 69
     0
  7
Standard
140
6.0
170
     5
 62
     0
 63
   257
283
     0
 90
        4
 91
        0
  1

274
    -2
284
     1
 64
     0
275
    -2
285
     1
 65
     0
276
    -2
286
     1
 66
     0
277
    -2
287
     1
 67
     0
278
    -2
288
     1
 68
     0
279
    -2
289
     1
 69
     0
  7
Standard
140
4.5
170
     5
 62
     0
 63
   257
283
     0
 90
        4
 91
        0
  1

274
    -2
284
     1
 64
     0
275
    -2
285
     1
 65
     0
276
    -2
286
     1
 66
     0
277
    -2
287
     1
 67
     0
278
    -2
288
     1
 68
     0
279
    -2
289
     1
 69
     0
  0
VISUALSTYLE
  5
26C
102
{ACAD_REACTORS
330
267
102
}
330
267
100
AcDbVisualStyle
  2
2dWireframe
 70
     4
 71
     0
 72
     2
 73
     0
 90
        0
 40
-0.6
 41
-30.0
 62
     5
 63
     7
421
 16777215
 74
     1
 91
        4
 64
     7
 65
   257
 75
     1
175
     1
 42
1.0
 92
        0
 66
   257
 43
1.0
 76
     1
 77
     6
 78
     2
 67
     7
 79
     5
170
     0
171
     0
290
     0
174
     0
 93
        1
 44
0.0
173
     0
291
     0
 45
0.0
  0
VISUALSTYLE
  5
26E
102
{ACAD_REACTORS
330
267
102
}
330
267
100
AcDbVisualStyle
  2
3D Hidden
 70
     6
 71
     1
 72
     2
 73
     2
 90
        0
 40
-0.6
 41
-30.0
 62
     5
 63
     7
421
 16777215
 74
     2
 91
        2
 64
     7
 65
   257
 75
     2
175
     1
 42
40.0
 92
        0
 66
   257
 43
1.0
 76
     1
 77
     6
 78
     2
 67
     7
 79
     3
170
     0
171
     0
290
     0
174
     0
 93
        1
 44
0.0
173
     0
291
     0
 45
0.0
  0
VISUALSTYLE
  5
26D
102
{ACAD_REACTORS
330
267
102
}
330
267
100
AcDbVisualStyle
  2
3dWireframe
 70
     5
 71
     0
 72
     2
 73
     0
 90
        0
 40
-0.6
 41
-30.0
 62
     5
 63
     7
421
 16777215
 74
     1
 91
        4
 64
     7
 65
   257
 75
     1
175
     1
 42
1.0
 92
        0
 66
   257
 43
1.0
 76
     1
 77
     6
 78
     2
 67
     7
 79
     5
170
     0
171
     0
290
     0
174
     0
 93
        1
 44
0.0
173
     0
291
     0
 45
0.0
  0
VISUALSTYLE
  5
26F
102
{ACAD_REACTORS
330
267
102
}
330
267
100
AcDbVisualStyle
  2
Basic
 70
     7
 71
     1
 72
     0
 73
     1
 90
        0
 40
-0.6
 41
-30.0
 62
     5
 63
     7
421
 16777215
 74
     0
 91
        4
 64
     7
 65
   257
 75
     1
175
     1
 42
1.0
 92
        8
 66
     7
 43
1.0
 76
     1
 77
     6
 78
     2
 67
     7
 79
     5
170
     0
171
     0
290
     0
174
     0
 93
        1
 44
0.0
173
     0
291
     1
 45
0.0
  0
VISUALSTYLE
  5
273
102
{ACAD_REACTORS
330
267
102
}
330
267
100
AcDbVisualStyle
  2
Brighten
 70
    12
 71
     2
 72
     2
 73
     0
 90
        0
 40
-0.6
 41
-30.0
 62
     5
 63
     7
421
 16777215
 74
     1
 91
        4
 64
     7
 65
   257
 75
     1
175
     1
 42
1.0
 92
        8
 66
     7
 43
1.0
 76
     1
 77
     6
 78
     2
 67
     7
 79
     5
170
     0
171
     0
290
     0
174
     0
 93
        1
 44
50.0
173
     0
291
     1
 45
0.0
  0
VISUALSTYLE
  5
277
102
{ACAD_REACTORS
330
267
102
}
330
267
100
AcDbVisualStyle
  2
ColorChange
 70
    16
 71
     2
 72
     2
 73
     3
 90
        0
 40
-0.6
 41
-30.0
 62
     5
 63
     8
421
  8421504
 74
     1
 91
        4
 64
     7
 65
   257
 75
     1
175
     1
 42
1.0
 92
        8
 66
     8
424
  8421504
 43
1.0
 76
     1
 77
     6
 78
     2
 67
     7
 79
     5
170
     0
171
     0
290
     0
174
     0
 93
        1
 44
0.0
173
     0
291
     1
 45
0.0
  0
VISUALSTYLE
  5
271
102
{ACAD_REACTORS
330
267
102
}
330
267
100
AcDbVisualStyle
  2
Conceptual
 70
     9
 71
     3
 72
     2
 73
     0
 90
        0
 40
-0.6
 41
-30.0
 62
     5
 63
     7
421
 16777215
 74
     2
 91
        2
 64
     7
 65
   257
 75
     1
175
     1
 42
40.0
 92
        8
 66
     7
 43
1.0
 76
     1
 77
     6
 78
     2
 67
     7
 79
     3
170
     0
171
     0
290
     0
174
     0
 93
        1
 44
0.0
173
     0
291
     0
 45
0.0
  0
VISUALSTYLE
  5
272
102
{ACAD_REACTORS
330
267
102
}
330
267
100
AcDbVisualStyle
  2
Dim
 70
    11
 71
     2
 72
     2
 73
     0
 90
        0
 40
-0.6
 41
-30.0
 62
     5
 63
     7
421
 16777215
 74
     1
 91
        4
 64
     7
 65
   257
 75
     1
175
     1
 42
1.0
 92
        8
 66
     7
 43
1.0
 76
     1
 77
     6
 78
     2
 67
     7
 79
     5
170
     0
171
     0
290
     0
174
     0
 93
        1
 44
-50.0
173
     0
291
     1
 45
0.0
  0
VISUALSTYLE
  5
8BC
102
{ACAD_REACTORS
330
267
102
}
330
267
100
AcDbVisualStyle
  2
EdgeColorOff
 70
    22
 71
     2
 72
     2
 73
     0
 90
        0
 40
0.6
 41
30.0
 62
     5
 63
     7
421
 16777215
 74
     1
 91
        4
 64
     7
 65
   257
 75
     1
175
     1
 42
1.0
 92
        8
 66
     7
 43
1.0
 76
     1
 77
     6
 78
     2
 67
     7
 79
     5
170
     0
171
     0
290
     0
174
     0
 93
        1
 44
0.0
173
     0
291
     1
 45
0.0
  0
VISUALSTYLE
  5
276
102
{ACAD_REACTORS
330
267
102
}
330
267
100
AcDbVisualStyle
  2
Facepattern
 70
    15
 71
     2
 72
     2
 73
     0
 90
        0
 40
-0.6
 41
-30.0
 62
     5
 63
     7
421
 16777215
 74
     1
 91
        4
 64
     7
 65
   257
 75
     1
175
     1
 42
1.0
 92
        8
 66
     7
 43
1.0
 76
     1
 77
     6
 78
     2
 67
     7
 79
     5
170
     0
171
     0
290
     0
174
     0
 93
        1
 44
0.0
173
     0
291
     1
 45
0.0
  0
VISUALSTYLE
  5
268
102
{ACAD_REACTORS
330
267
102
}
330
267
100
AcDbVisualStyle
  2
Flat
 70
     0
 71
     2
 72
     1
 73
     1
 90
        2
 40
-0.6
 41
30.0
 62
     5
 63
     7
421
 16777215
 74
     0
 91
        4
 64
     7
 65
   257
 75
     1
175
     1
 42
1.0
 92
        8
 66
     7
 43
1.0
 76
     1
 77
     6
 78
     2
 67
     7
 79
     5
170
     0
171
     0
290
     0
174
     0
 93
       13
 44
0.0
173
     0
291
     1
 45
0.0
  0
VISUALSTYLE
  5
269
102
{ACAD_REACTORS
330
267
102
}
330
267
100
AcDbVisualStyle
  2
FlatWithEdges
 70
     1
 71
     2
 72
     1
 73
     1
 90
        2
 40
-0.6
 41
30.0
 62
     5
 63
     7
421
 16777215
 74
     1
 91
        4
 64
     7
 65
   257
 75
     1
175
     1
 42
1.0
 92
        0
 66
   257
 43
1.0
 76
     1
 77
     6
 78
     2
 67
     7
 79
     5
170
     0
171
     0
290
     0
174
     0
 93
       13
 44
0.0
173
     0
291
     1
 45
0.0
  0
VISUALSTYLE
  5
26A
102
{ACAD_REACTORS
330
267
102
}
330
267
100
AcDbVisualStyle
  2
Gouraud
 70
     2
 71
     2
 72
     2
 73
     1
 90
        2
 40
-0.6
 41
30.0
 62
     5
 63
     7
421
 16777215
 74
     0
 91
        4
 64
     7
 65
   257
 75
     1
175
     1
 42
1.0
 92
        0
 66
     7
 43
1.0
 76
     1
 77
     6
 78
     2
 67
     7
 79
     5
170
     0
171
     0
290
     0
174
     0
 93
       13
 44
0.0
173
     0
291
     1
 45
0.0
  0
VISUALSTYLE
  5
26B
102
{ACAD_REACTORS
330
267
102
}
330
267
100
AcDbVisualStyle
  2
GouraudWithEdges
 70
     3
 71
     2
 72
     2
 73
     1
 90
        2
 40
-0.6
 41
30.0
 62
     5
 63
     7
421
 16777215
 74
     1
 91
        4
 64
     7
 65
   257
 75
     1
175
     1
 42
1.0
 92
        0
 66
   257
 43
1.0
 76
     1
 77
     6
 78
     2
 67
     7
 79
     5
170
     0
171
     0
290
     0
174
     0
 93
       13
 44
0.0
173
     0
291
     1
 45
0.0
  0
VISUALSTYLE
  5
8B9
102
{ACAD_REACTORS
330
267
102
}
330
267
100
AcDbVisualStyle
  2
Hidden
 70
     6
 71
     1
 72
     2
 73
     2
 90
        0
 40
0.6
 41
30.0
 62
     5
 63
     7
421
 16777215
 74
     2
 91
        2
 64
     7
 65
   257
 75
     2
175
     1
 42
40.0
 92
        0
 66
   257
 43
1.0
 76
     1
 77
     6
 78
     2
 67
     7
 79
     3
170
     0
171
     0
290
     0
174
     0
 93
        1
 44
0.0
173
     0
291
     0
 45
0.0
  0
VISUALSTYLE
  5
8BA
102
{ACAD_REACTORS
330
267
102
}
330
267
100
AcDbVisualStyle
  2
JitterOff
 70
    20
 71
     2
 72
     2
 73
     0
 90
        0
 40
0.6
 41
30.0
 62
     5
 63
     7
421
 16777215
 74
     1
 91
        4
 64
     7
 65
   257
 75
     1
175
     1
 42
1.0
 92
       10
 66
     7
 43
1.0
 76
     1
 77
     6
 78
     2
 67
     7
 79
     5
170
     0
171
     0
290
     0
174
     0
 93
        1
 44
0.0
173
     0
291
     1
 45
0.0
  0
VISUALSTYLE
  5
275
102
{ACAD_REACTORS
330
267
102
}
330
267
100
AcDbVisualStyle
  2
Linepattern
 70
    14
 71
     2
 72
     2
 73
     0
 90
        0
 40
-0.6
 41
-30.0
 62
     5
 63
     7
421
 16777215
 74
     1
 91
        4
 64
     7
 65
   257
 75
     7
175
     7
 42
1.0
 92
        8
 66
     7
 43
1.0
 76
     1
 77
     6
 78
     2
 67
     7
 79
     5
170
     0
171
     0
290
     0
174
     0
 93
        1
 44
0.0
173
     0
291
     1
 45
0.0
  0
VISUALSTYLE
  5
8BB
102
{ACAD_REACTORS
330
267
102
}
330
267
100
AcDbVisualStyle
  2
OverhangOff
 70
    21
 71
     2
 72
     2
 73
     0
 90
        0
 40
0.6
 41
30.0
 62
     5
 63
     7
421
 16777215
 74
     1
 91
        4
 64
     7
 65
   257
 75
     1
175
     1
 42
1.0
 92
        9
 66
     7
 43
1.0
 76
     1
 77
     6
 78
     2
 67
     7
 79
     5
170
     0
171
     0
290
     0
174
     0
 93
        1
 44
0.0
173
     0
291
     1
 45
0.0
  0
VISUALSTYLE
  5
270
102
{ACAD_REACTORS
330
267
102
}
330
267
100
AcDbVisualStyle
  2
Realistic
 70
     8
 71
     2
 72
     2
 73
     0
 90
        0
 40
-0.6
 41
-30.0
 62
     5
 63
     7
421
 16777215
 74
     1
 91
        0
 64
     7
 65
   257
 75
     1
175
     1
 42
1.0
 92
        8
 66
     8
424
  7895160
 43
1.0
 76
     1
 77
     6
 78
     2
 67
     7
 79
     5
170
     0
171
     0
290
     0
174
     0
 93
       13
 44
0.0
173
     0
291
     0
 45
0.0
  0
VISUALSTYLE
  5
8C1
102
{ACAD_REACTORS
330
267
102
}
330
267
100
AcDbVisualStyle
  2
Shaded
 70
    27
 71
     2
 72
     2
 73
     1
 90
        2
 40
0.6
 41
30.0
 62
     5
 63
     7
421
 16777215
 74
     0
 91
        4
 64
     7
 65
   257
 75
     1
175
     1
 42
1.0
 92
        8
 66
   257
 43
1.0
 76
     1
 77
     6
 78
     2
 67
     8
425
  7895160
 79
     3
170
     0
171
     0
290
     0
174
     0
 93
        5
 44
0.0
173
     0
291
     0
 45
0.0
  0
VISUALSTYLE
  5
8C0
102
{ACAD_REACTORS
330
267
102
}
330
267
100
AcDbVisualStyle
  2
Shaded with edges
 70
    26
 71
     2
 72
     2
 73
     1
 90
        2
 40
0.6
 41
30.0
 62
     5
 63
     7
421
 16777215
 74
     1
 91
       10
 64
     7
 65
   257
 75
     2
175
     1
 42
1.0
 92
        8
 66
   257
 43
1.0
 76
     1
 77
     6
 78
     2
 67
     7
 79
     3
170
     0
171
     0
290
     0
174
     0
 93
        5
 44
0.0
173
     0
291
     0
 45
0.0
  0
VISUALSTYLE
  5
8BD
102
{ACAD_REACTORS
330
267
102
}
330
267
100
AcDbVisualStyle
  2
Shades of Gray
 70
    23
 71
     2
 72
     2
 73
     3
 90
        0
 40
0.6
 41
30.0
 62
     5
 63
     7
421
 16777215
 74
     2
 91
        2
 64
     7
 65
     7
 75
     1
175
     1
 42
40.0
 92
        8
 66
     7
 43
1.0
 76
     1
 77
     6
 78
     2
 67
     7
 79
     3
170
     0
171
     0
290
     0
174
     0
 93
        1
 44
0.0
173
     0
291
     0
 45
0.0
  0
VISUALSTYLE
  5
8BE
102
{ACAD_REACTORS
330
267
102
}
330
267
100
AcDbVisualStyle
  2
Sketchy
 70
    24
 71
     1
 72
     2
 73
     2
 90
        0
 40
0.6
 41
30.0
 62
     5
 63
     7
421
 16777215
 74
     2
 91
        2
 64
     7
 65
     7
 75
     1
175
     1
 42
40.0
 92
       11
 66
     7
 43
1.0
 76
     1
 77
     6
 78
     2
 67
     7
 79
     6
170
     0
171
     0
290
     0
174
     0
 93
        1
 44
0.0
173
     0
291
     0
 45
0.0
  0
VISUALSTYLE
  5
274
102
{ACAD_REACTORS
330
267
102
}
330
267
100
AcDbVisualStyle
  2
Thicken
 70
    13
 71
     2
 72
     2
 73
     0
 90
        0
 40
-0.6
 41
-30.0
 62
     5
 63
     7
421
 16777215
 74
     1
 91
        4
 64
     7
 65
   257
 75
     1
175
     1
 42
1.0
 92
       12
 66
     7
 43
1.0
 76
     1
 77
     6
 78
     2
 67
     7
 79
     5
170
     0
171
     0
290
     0
174
     0
 93
        1
 44
0.0
173
     0
291
     1
 45
0.0
  0
VISUALSTYLE
  5
8B8
102
{ACAD_REACTORS
330
267
102
}
330
267
100
AcDbVisualStyle
  2
Wireframe
 70
     5
 71
     0
 72
     2
 73
     0
 90
        0
 40
0.6
 41
30.0
 62
     5
 63
     7
421
 16777215
 74
     1
 91
        4
 64
     7
 65
   257
 75
     1
175
     1
 42
1.0
 92
        0
 66
   257
 43
1.0
 76
     1
 77
     6
 78
     2
 67
     7
 79
     3
170
     0
171
     0
290
     0
174
     0
 93
        1
 44
0.0
173
     0
291
     0
 45
0.0
  0
VISUALSTYLE
  5
8BF
102
{ACAD_REACTORS
330
267
102
}
330
267
100
AcDbVisualStyle
  2
X-Ray
 70
    25
 71
     2
 72
     2
 73
     1
 90
        1
 40
0.5
 41
30.0
 62
     5
 63
     7
421
 16777215
 74
     1
 91
        0
 64
     7
 65
   257
 75
     1
175
     1
 42
1.0
 92
        8
 66
     7
 43
1.0
 76
     1
 77
     6
 78
     2
 67
     7
 79
     3
170
     0
171
     0
290
     0
174
     0
 93
       13
 44
0.0
173
     0
291
     0
 45
0.0
  0
DICTIONARYVAR
  5
331
102
{ACAD_REACTORS
330
330
102
}
330
330
100
DictionaryVariables
280
     0
  1
1:1
  0
DICTIONARYVAR
  5
8DA
102
{ACAD_REACTORS
330
330
102
}
330
330
100
DictionaryVariables
280
     0
  1
Standard
  0
DICTIONARYVAR
  5
335
102
{ACAD_REACTORS
330
330
102
}
330
330
100
DictionaryVariables
280
     0
  1
Standard
  0
DICTIONARYVAR
  5
C07
102
{ACAD_REACTORS
330
330
102
}
330
330
100
DictionaryVariables
280
     0
  1
ByLayer
  0
DICTIONARYVAR
  5
64A
102
{ACAD_REACTORS
330
330
102
}
330
330
100
DictionaryVariables
280
     0
  1
0
  0
DICTIONARYVAR
  5
C0B
102
{ACAD_REACTORS
330
C08
102
}
330
C08
100
DictionaryVariables
280
     0
  1
0.261799
  0
DICTIONARYVAR
  5
C09
102
{ACAD_REACTORS
330
C08
102
}
330
C08
100
DictionaryVariables
280
     0
  1
0.400000
  0
DICTIONARYVAR
  5
C0A
102
{ACAD_REACTORS
330
C08
102
}
330
C08
100
DictionaryVariables
280
     0
  1
0.250000
  0
DICTIONARYVAR
  5
C0C
102
{ACAD_REACTORS
330
C08
102
}
330
C08
100
DictionaryVariables
280
     0
  1
1
  0
XRECORD
  5
870
102
{ACAD_REACTORS
330
2E2
102
}
330
2E2
100
AcDbXrecord
280
     1
 91
     1023
301

290
     0
302
MODEL
330
14
 90
        8
 62
     7
370
    -3
331
13
  1
Color_7
330
4A
 90
        0
 62
     7
370
     9
331
13
  1
Color_7
330
4B
 90
        8
 62
     7
370
    -3
331
13
  1
Color_7
330
0
 90
        8
 62
     7
370
    -3
331
13
  1
Color_7
330
4D
 90
        9
 62
     7
370
    -3
331
13
  1
Color_7
330
382
 90
        8
 62
     7
370
    -3
331
13
  1
Color_7
330
5C4
 90
        8
 62
     7
370
     9
331
0
  1
Color_7
330
5EB
 90
        8
 62
     7
370
     9
331
13
  1
Color_7
330
0
 90
        8
 62
     7
370
    -3
331
13
  1
Color_7
  0
FIELD
  5
BDE
102
{ACAD_REACTORS
330
BE4
102
}
330
BE4
100
AcDbField
  1
_text
  2
{%<\_FldIdx 0>%N}
 90
        1
360
BDF
 97
        0
 91
       63
 92
        0
 94
        8
 95
        2
 96
        0
300

 93
        1
  6
ACFD_FIELDTEXT_CHECKSUM
 93
        2
 90
        2
140
4513.0
 94
        0
300

302

304
ACVALUE_END
  7
ACFD_FIELD_VALUE
 93
        6
 90
        4
  1
{20161027N}
 94
        0
300

302

304
ACVALUE_END
301
{20161027N}
 98
       11
  0
DICTIONARY
  5
2872
330
279
100
AcDbDictionary
280
     1
281
     1
  3
ACAD_ROUNDTRIP_2008_TABLESTYLE_CELLSTYLEMAP
360
2873
  0
FIELD
  5
BDF
330
BDE
100
AcDbField
  1
AcVar
  2
\AcVar Date \f "yyyyMMdd"
 90
        0
 97
        0
 91
       63
 92
        0
 94
        8
 95
        2
 96
        0
300

 93
        1
  6
Variable
 93
        2
 90
        4
  1
Date
 94
        0
300

302

304
ACVALUE_END
  7
ACFD_FIELD_VALUE
 93
        6
 90
        8
 92
       16
310
E0070A0000001B0004002C000C000000
 94
        0
300
yyyyMMdd
302

304
ACVALUE_END
301
20161027
 98
        8
  0
CELLSTYLEMAP
  5
2873
102
{ACAD_REACTORS
330
2872
102
}
330
2872
100
AcDbCellStyleMap
 90
        3
300
CELLSTYLE
  1
TABLEFORMAT_BEGIN
 90
        5
170
     1
 91
        0
 92
    32768
 62
   257
 93
        1
300
CONTENTFORMAT
  1
CONTENTFORMAT_BEGIN
 90
        0
 91
        0
 92
        4
 93
        0
300

 40
0.0
140
1.0
 94
        5
 62
     0
340
17
144
6.0
309
CONTENTFORMAT_END
171
     1
301
MARGIN
  1
CELLMARGIN_BEGIN
 40
0.06
 40
0.06
 40
0.06
 40
0.06
 40
0.18
 40
0.18
309
CELLMARGIN_END
 94
        6
 95
        1
302
GRIDFORMAT
  1
GRIDFORMAT_BEGIN
 90
        0
 91
        1
 62
     0
 92
       -2
340
0
 93
        0
 40
0.045
309
GRIDFORMAT_END
 95
        2
302
GRIDFORMAT
  1
GRIDFORMAT_BEGIN
 90
        0
 91
        1
 62
     0
 92
       -2
340
0
 93
        0
 40
0.045
309
GRIDFORMAT_END
 95
        4
302
GRIDFORMAT
  1
GRIDFORMAT_BEGIN
 90
        0
 91
        1
 62
     0
 92
       -2
340
0
 93
        0
 40
0.045
309
GRIDFORMAT_END
 95
        8
302
GRIDFORMAT
  1
GRIDFORMAT_BEGIN
 90
        0
 91
        1
 62
     0
 92
       -2
340
0
 93
        0
 40
0.045
309
GRIDFORMAT_END
 95
       16
302
GRIDFORMAT
  1
GRIDFORMAT_BEGIN
 90
        0
 91
        1
 62
     0
 92
       -2
340
0
 93
        0
 40
0.045
309
GRIDFORMAT_END
 95
       32
302
GRIDFORMAT
  1
GRIDFORMAT_BEGIN
 90
        0
 91
        1
 62
     0
 92
       -2
340
0
 93
        0
 40
0.045
309
GRIDFORMAT_END
309
TABLEFORMAT_END
  1
CELLSTYLE_BEGIN
 90
        1
 91
        1
300
_TITLE
309
CELLSTYLE_END
300
CELLSTYLE
  1
TABLEFORMAT_BEGIN
 90
        5
170
     1
 91
        0
 92
        0
 62
   257
 93
        1
300
CONTENTFORMAT
  1
CONTENTFORMAT_BEGIN
 90
        0
 91
        0
 92
        4
 93
        0
300

 40
0.0
140
1.0
 94
        5
 62
     0
340
17
144
4.5
309
CONTENTFORMAT_END
171
     1
301
MARGIN
  1
CELLMARGIN_BEGIN
 40
0.06
 40
0.06
 40
0.06
 40
0.06
 40
0.18
 40
0.18
309
CELLMARGIN_END
 94
        6
 95
        1
302
GRIDFORMAT
  1
GRIDFORMAT_BEGIN
 90
        0
 91
        1
 62
     0
 92
       -2
340
0
 93
        0
 40
0.045
309
GRIDFORMAT_END
 95
        2
302
GRIDFORMAT
  1
GRIDFORMAT_BEGIN
 90
        0
 91
        1
 62
     0
 92
       -2
340
0
 93
        0
 40
0.045
309
GRIDFORMAT_END
 95
        4
302
GRIDFORMAT
  1
GRIDFORMAT_BEGIN
 90
        0
 91
        1
 62
     0
 92
       -2
340
0
 93
        0
 40
0.045
309
GRIDFORMAT_END
 95
        8
302
GRIDFORMAT
  1
GRIDFORMAT_BEGIN
 90
        0
 91
        1
 62
     0
 92
       -2
340
0
 93
        0
 40
0.045
309
GRIDFORMAT_END
 95
       16
302
GRIDFORMAT
  1
GRIDFORMAT_BEGIN
 90
        0
 91
        1
 62
     0
 92
       -2
340
0
 93
        0
 40
0.045
309
GRIDFORMAT_END
 95
       32
302
GRIDFORMAT
  1
GRIDFORMAT_BEGIN
 90
        0
 91
        1
 62
     0
 92
       -2
340
0
 93
        0
 40
0.045
309
GRIDFORMAT_END
309
TABLEFORMAT_END
  1
CELLSTYLE_BEGIN
 90
        2
 91
        1
300
_HEADER
309
CELLSTYLE_END
300
CELLSTYLE
  1
TABLEFORMAT_BEGIN
 90
        5
170
     1
 91
        0
 92
        0
 62
   257
 93
        1
300
CONTENTFORMAT
  1
CONTENTFORMAT_BEGIN
 90
        0
 91
        0
 92
        4
 93
        0
300

 40
0.0
140
1.0
 94
        2
 62
     0
340
17
144
4.5
309
CONTENTFORMAT_END
171
     1
301
MARGIN
  1
CELLMARGIN_BEGIN
 40
0.06
 40
0.06
 40
0.06
 40
0.06
 40
0.18
 40
0.18
309
CELLMARGIN_END
 94
        6
 95
        1
302
GRIDFORMAT
  1
GRIDFORMAT_BEGIN
 90
        0
 91
        1
 62
     0
 92
       -2
340
0
 93
        0
 40
0.045
309
GRIDFORMAT_END
 95
        2
302
GRIDFORMAT
  1
GRIDFORMAT_BEGIN
 90
        0
 91
        1
 62
     0
 92
       -2
340
0
 93
        0
 40
0.045
309
GRIDFORMAT_END
 95
        4
302
GRIDFORMAT
  1
GRIDFORMAT_BEGIN
 90
        0
 91
        1
 62
     0
 92
       -2
340
0
 93
        0
 40
0.045
309
GRIDFORMAT_END
 95
        8
302
GRIDFORMAT
  1
GRIDFORMAT_BEGIN
 90
        0
 91
        1
 62
     0
 92
       -2
340
0
 93
        0
 40
0.045
309
GRIDFORMAT_END
 95
       16
302
GRIDFORMAT
  1
GRIDFORMAT_BEGIN
 90
        0
 91
        1
 62
     0
 92
       -2
340
0
 93
        0
 40
0.045
309
GRIDFORMAT_END
 95
       32
302
GRIDFORMAT
  1
GRIDFORMAT_BEGIN
 90
        0
 91
        1
 62
     0
 92
       -2
340
0
 93
        0
 40
0.045
309
GRIDFORMAT_END
309
TABLEFORMAT_END
  1
CELLSTYLE_BEGIN
 90
        3
 91
        2
300
_DATA
309
CELLSTYLE_END
  0
ENDSEC
  0
EOF
