  0
SECTION
  2
HEADER
  9
$ACADVER
  1
AC1021
  9
$ACADMAINTVER
 70
    25
  9
$DWGCODEPAGE
  3
ANSI_932
  9
$LASTSAVEDBY
  1
howeNelson
  9
$INSBASE
 10
0.0
 20
0.0
 30
0.0
  9
$EXTMIN
 10
136.080134898235
 20
126.6042732380138
 30
-0.0000000000002274
  9
$EXTMAX
 10
4044.509411065372
 20
5804.399587702454
 30
0.0000000000001137
  9
$LIMMIN
 10
0.0
 20
0.0
  9
$LIMMAX
 10
4200.000000000001
 20
5940.000000000001
  9
$ORTHOMODE
 70
     0
  9
$REGENMODE
 70
     1
  9
$FILLMODE
 70
     1
  9
$QTEXTMODE
 70
     0
  9
$MIRRTEXT
 70
     1
  9
$LTSCALE
 40
1.0
  9
$ATTMODE
 70
     1
  9
$TEXTSIZE
 40
533.0403732820173
  9
$TRACEWID
 40
1.0
  9
$TEXTSTYLE
  7
Standard
  9
$CLAYER
  8
DIM
  9
$CELTYPE
  6
Continuous
  9
$CECOLOR
 62
   256
  9
$CELTSCALE
 40
1.0
  9
$DISPSILH
 70
     0
  9
$DIMSCALE
 40
1.0
  9
$DIMASZ
 40
20.0
  9
$DIMEXO
 40
25.0
  9
$DIMDLI
 40
0.9999999999999999
  9
$DIMRND
 40
0.0
  9
$DIMDLE
 40
0.0
  9
$DIMEXE
 40
0.0
  9
$DIMTP
 40
0.0
  9
$DIMTM
 40
0.0
  9
$DIMTXT
 40
49.0
  9
$DIMCEN
 40
0.0
  9
$DIMTSZ
 40
0.0
  9
$DIMTOL
 70
     0
  9
$DIMLIM
 70
     0
  9
$DIMTIH
 70
     0
  9
$DIMTOH
 70
     0
  9
$DIMSE1
 70
     0
  9
$DIMSE2
 70
     0
  9
$DIMTAD
 70
     1
  9
$DIMZIN
 70
    11
  9
$DIMBLK
  1
DOT
  9
$DIMASO
 70
     1
  9
$DIMSHO
 70
     1
  9
$DIMPOST
  1
<>
  9
$DIMAPOST
  1
[]
  9
$DIMALT
 70
     0
  9
$DIMALTD
 70
     1
  9
$DIMALTF
 40
1.0
  9
$DIMLFAC
 40
1.0
  9
$DIMTOFL
 70
     1
  9
$DIMTVP
 40
0.0
  9
$DIMTIX
 70
     1
  9
$DIMSOXD
 70
     0
  9
$DIMSAH
 70
     0
  9
$DIMBLK1
  1

  9
$DIMBLK2
  1

  9
$DIMSTYLE
  2
tform線あり
  9
$DIMCLRD
 70
     0
  9
$DIMCLRE
 70
     0
  9
$DIMCLRT
 70
     0
  9
$DIMTFAC
 40
0.8
  9
$DIMGAP
 40
20.0
  9
$DIMJUST
 70
     0
  9
$DIMSD1
 70
     0
  9
$DIMSD2
 70
     0
  9
$DIMTOLJ
 70
     1
  9
$DIMTZIN
 70
    11
  9
$DIMALTZ
 70
    11
  9
$DIMALTTZ
 70
    11
  9
$DIMUPT
 70
     0
  9
$DIMDEC
 70
     0
  9
$DIMTDEC
 70
     1
  9
$DIMALTU
 70
     2
  9
$DIMALTTD
 70
     2
  9
$DIMTXSTY
  7
ＭＳ ゴシック
  9
$DIMAUNIT
 70
     0
  9
$DIMADEC
 70
     2
  9
$DIMALTRND
 40
0.0
  9
$DIMAZIN
 70
     0
  9
$DIMDSEP
 70
    46
  9
$DIMATFIT
 70
     0
  9
$DIMFRAC
 70
     2
  9
$DIMLDRBLK
  1
DOT
  9
$DIMLUNIT
 70
     2
  9
$DIMLWD
 70
    -2
  9
$DIMLWE
 70
    -2
  9
$DIMTMOVE
 70
     0
  9
$DIMFXL
 40
1.0
  9
$DIMFXLON
 70
     0
  9
$DIMJOGANG
 40
0.7853981633974483
  9
$DIMTFILL
 70
     0
  9
$DIMTFILLCLR
 70
     0
  9
$DIMARCSYM
 70
     0
  9
$DIMLTYPE
  6

  9
$DIMLTEX1
  6

  9
$DIMLTEX2
  6

  9
$LUNITS
 70
     2
  9
$LUPREC
 70
     0
  9
$SKETCHINC
 40
0.1
  9
$FILLETRAD
 40
0.0
  9
$AUNITS
 70
     0
  9
$AUPREC
 70
     0
  9
$MENU
  1
acad
  9
$ELEVATION
 40
0.0
  9
$PELEVATION
 40
0.0
  9
$THICKNESS
 40
0.0
  9
$LIMCHECK
 70
     0
  9
$CHAMFERA
 40
0.0
  9
$CHAMFERB
 40
0.0
  9
$CHAMFERC
 40
0.0
  9
$CHAMFERD
 40
0.0
  9
$SKPOLY
 70
     0
  9
$TDCREATE
 40
2447893.375
  9
$TDUCREATE
 40
0.0
  9
$TDUPDATE
 40
2458569.596787673
  9
$TDUUPDATE
 40
2458569.221787673
  9
$TDINDWG
 40
0.0005540046
  9
$TDUSRTIMER
 40
0.0004175463
  9
$USRTIMER
 70
     1
  9
$ANGBASE
 50
0.0
  9
$ANGDIR
 70
     0
  9
$PDMODE
 70
     1
  9
$PDSIZE
 40
-2.0
  9
$PLINEWID
 40
0.0
  9
$SPLFRAME
 70
     0
  9
$SPLINETYPE
 70
     6
  9
$SPLINESEGS
 70
     8
  9
$HANDSEED
  5
1C02
  9
$SURFTAB1
 70
     6
  9
$SURFTAB2
 70
     6
  9
$SURFTYPE
 70
     6
  9
$SURFU
 70
     6
  9
$SURFV
 70
     6
  9
$UCSBASE
  2

  9
$UCSNAME
  2

  9
$UCSORG
 10
0.0
 20
0.0
 30
0.0
  9
$UCSXDIR
 10
1.0
 20
0.0
 30
0.0
  9
$UCSYDIR
 10
0.0
 20
1.0
 30
0.0
  9
$UCSORTHOREF
  2

  9
$UCSORTHOVIEW
 70
     0
  9
$UCSORGTOP
 10
0.0
 20
0.0
 30
0.0
  9
$UCSORGBOTTOM
 10
0.0
 20
0.0
 30
0.0
  9
$UCSORGLEFT
 10
0.0
 20
0.0
 30
0.0
  9
$UCSORGRIGHT
 10
0.0
 20
0.0
 30
0.0
  9
$UCSORGFRONT
 10
0.0
 20
0.0
 30
0.0
  9
$UCSORGBACK
 10
0.0
 20
0.0
 30
0.0
  9
$PUCSBASE
  2

  9
$PUCSNAME
  2

  9
$PUCSORG
 10
0.0
 20
0.0
 30
0.0
  9
$PUCSXDIR
 10
1.0
 20
0.0
 30
0.0
  9
$PUCSYDIR
 10
0.0
 20
1.0
 30
0.0
  9
$PUCSORTHOREF
  2

  9
$PUCSORTHOVIEW
 70
     0
  9
$PUCSORGTOP
 10
0.0
 20
0.0
 30
0.0
  9
$PUCSORGBOTTOM
 10
0.0
 20
0.0
 30
0.0
  9
$PUCSORGLEFT
 10
0.0
 20
0.0
 30
0.0
  9
$PUCSORGRIGHT
 10
0.0
 20
0.0
 30
0.0
  9
$PUCSORGFRONT
 10
0.0
 20
0.0
 30
0.0
  9
$PUCSORGBACK
 10
0.0
 20
0.0
 30
0.0
  9
$USERI1
 70
     0
  9
$USERI2
 70
     0
  9
$USERI3
 70
     0
  9
$USERI4
 70
     0
  9
$USERI5
 70
     0
  9
$USERR1
 40
0.0
  9
$USERR2
 40
0.0
  9
$USERR3
 40
0.0
  9
$USERR4
 40
0.0
  9
$USERR5
 40
0.0
  9
$WORLDVIEW
 70
     1
  9
$SHADEDGE
 70
     3
  9
$SHADEDIF
 70
    70
  9
$TILEMODE
 70
     1
  9
$MAXACTVP
 70
    64
  9
$PINSBASE
 10
0.0
 20
0.0
 30
0.0
  9
$PLIMCHECK
 70
     0
  9
$PEXTMIN
 10
0.0
 20
0.0
 30
0.0
  9
$PEXTMAX
 10
0.0
 20
0.0
 30
0.0
  9
$PLIMMIN
 10
-7.5
 20
-20.0
  9
$PLIMMAX
 10
412.5
 20
277.0
  9
$UNITMODE
 70
     0
  9
$VISRETAIN
 70
     0
  9
$PLINEGEN
 70
     1
  9
$PSLTSCALE
 70
     0
  9
$TREEDEPTH
 70
  3020
  9
$CMLSTYLE
  2
Standard
  9
$CMLJUST
 70
     0
  9
$CMLSCALE
 40
1.0
  9
$PROXYGRAPHICS
 70
     0
  9
$MEASUREMENT
 70
     1
  9
$CELWEIGHT
370
    -1
  9
$ENDCAPS
280
     0
  9
$JOINSTYLE
280
     0
  9
$LWDISPLAY
290
     1
  9
$INSUNITS
 70
     4
  9
$HYPERLINKBASE
  1

  9
$STYLESHEET
  1

  9
$XEDIT
290
     1
  9
$CEPSNTYPE
380
     0
  9
$PSTYLEMODE
290
     1
  9
$FINGERPRINTGUID
  2

  9
$VERSIONGUID
  2

  9
$EXTNAMES
290
     1
  9
$PSVPSCALE
 40
0.0
  9
$OLESTARTUP
290
     0
  9
$SORTENTS
280
   127
  9
$INDEXCTL
280
     0
  9
$HIDETEXT
280
     1
  9
$XCLIPFRAME
290
     0
  9
$HALOGAP
280
     0
  9
$OBSCOLOR
 70
   257
  9
$OBSLTYPE
280
     0
  9
$INTERSECTIONDISPLAY
280
     0
  9
$INTERSECTIONCOLOR
 70
   257
  9
$DIMASSOC
280
     2
  9
$PROJECTNAME
  1

  9
$CAMERADISPLAY
290
     0
  9
$LENSLENGTH
 40
50.0
  9
$CAMERAHEIGHT
 40
0.0
  9
$STEPSPERSEC
 40
2.0
  9
$STEPSIZE
 40
6.0
  9
$3DDWFPREC
 40
2.0
  9
$PSOLWIDTH
 40
0.25
  9
$PSOLHEIGHT
 40
4.0
  9
$LOFTANG1
 40
1.570796326794897
  9
$LOFTANG2
 40
1.570796326794897
  9
$LOFTMAG1
 40
0.0
  9
$LOFTMAG2
 40
0.0
  9
$LOFTPARAM
 70
     7
  9
$LOFTNORMALS
280
     1
  9
$LATITUDE
 40
37.795
  9
$LONGITUDE
 40
-122.394
  9
$NORTHDIRECTION
 40
0.0
  9
$TIMEZONE
 70
 -8000
  9
$LIGHTGLYPHDISPLAY
280
     1
  9
$TILEMODELIGHTSYNCH
280
     1
  9
$SOLIDHIST
280
     1
  9
$SHOWHIST
280
     1
  9
$DWFFRAME
280
     2
  9
$DGNFRAME
280
     2
  9
$REALWORLDSCALE
290
     1
  9
$INTERFERECOLOR
 62
   256
  9
$CSHADOW
280
     0
  9
$SHADOWPLANELOCATION
 40
0.0
  0
ENDSEC
  0
SECTION
  2
CLASSES
  0
CLASS
  1
LWPOLYLINE
  2
AcDbPolyline
  3
ObjectDBX Classes
 90
        0
 91
        1
280
     0
281
     1
  0
CLASS
  1
IMAGE
  2
AcDbRasterImage
  3
ISM
 90
      127
 91
        5
280
     0
281
     1
  0
CLASS
  1
OLE2FRAME
  2
AcDbOle2Frame
  3
ObjectDBX Classes
 90
        0
 91
        1
280
     0
281
     1
  0
CLASS
  1
HATCH
  2
AcDbHatch
  3
ObjectDBX Classes
 90
        0
 91
        1
280
     0
281
     1
  0
CLASS
  1
DICTIONARYVAR
  2
AcDbDictionaryVar
  3
ObjectDBX Classes
 90
        0
 91
        4
280
     0
281
     0
  0
CLASS
  1
RASTERVARIABLES
  2
AcDbRasterVariables
  3
ISM
 90
        0
 91
        4
280
     0
281
     0
  0
CLASS
  1
IMAGEDEF
  2
AcDbRasterImageDef
  3
ISM
 90
        0
 91
        4
280
     0
281
     0
  0
CLASS
  1
IMAGEDEF_REACTOR
  2
AcDbRasterImageDefReactor
  3
ISM
 90
        1
 91
        4
280
     0
281
     0
  0
CLASS
  1
IDBUFFER
  2
AcDbIdBuffer
  3
ObjectDBX Classes
 90
        0
 91
        4
280
     0
281
     0
  0
CLASS
  1
SPATIAL_FILTER
  2
AcDbSpatialFilter
  3
ObjectDBX Classes
 90
        0
 91
        4
280
     0
281
     0
  0
CLASS
  1
XRECORD
  2
AcDbXrecord
  3
ObjectDBX Classes
 90
        0
 91
        1
280
     0
281
     0
  0
CLASS
  1
SORTENTSTABLE
  2
AcDbSortentsTable
  3
ObjectDBX Classes
 90
        0
 91
        4
280
     0
281
     0
  0
CLASS
  1
LAYER_INDEX
  2
AcDbLayerIndex
  3
ObjectDBX Classes
 90
        0
 91
        4
280
     0
281
     0
  0
CLASS
  1
SPATIAL_INDEX
  2
AcDbSpatialIndex
  3
AutoCAD 2000
 90
        0
 91
        4
280
     0
281
     0
  0
CLASS
  1
OBJECT_PTR
  2
CAseDLPNTableRecord
  3
ASE-LPNTableRecord
 90
        1
 91
        4
280
     0
281
     0
  0
CLASS
  1
LAYOUT
  2
AcDbLayout
  3
ObjectDBX Classes
 90
        0
 91
        1
280
     0
281
     0
  0
CLASS
  1
PLOTSETTINGS
  2
AcDbPlotSettings
  3
ObjectDBX Classes
 90
        0
 91
        4
280
     0
281
     0
  0
CLASS
  1
ACDBDICTIONARYWDFLT
  2
AcDbDictionaryWithDefault
  3
ObjectDBX Classes
 90
        0
 91
        4
280
     0
281
     0
  0
CLASS
  1
ACDBPLACEHOLDER
  2
AcDbPlaceHolder
  3
ObjectDBX Classes
 90
        0
 91
        1
280
     0
281
     0
  0
CLASS
  1
SCALE
  2
AcDbScale
  3
ObjectDBX Classes
 90
     1153
 91
        4
280
     0
281
     0
  0
CLASS
  1
MATERIAL
  2
AcDbMaterial
  3
ObjectDBX Classes
 90
     1153
 91
        4
280
     0
281
     0
  0
CLASS
  1
VISUALSTYLE
  2
AcDbVisualStyle
  3
ObjectDBX Classes
 90
     4095
 91
        4
280
     0
281
     0
  0
CLASS
  1
TABLESTYLE
  2
AcDbTableStyle
  3
ObjectDBX Classes
 90
     4095
 91
        4
280
     0
281
     0
  0
CLASS
  1
DIMASSOC
  2
AcDbDimAssoc
  3
"AcDbDimAssoc|Product Desc:     AcDim ARX App For Dimension|Company:          Autodesk, Inc.|WEB Address:      www.autodesk.com"
 90
        0
 91
        4
280
     0
281
     0
  0
CLASS
  1
CELLSTYLEMAP
  2
AcDbCellStyleMap
  3
ObjectDBX Classes
 90
     1152
 91
        4
280
     0
281
     0
  0
CLASS
  1
SUN
  2
AcDbSun
  3
SCENEOE
 90
     1153
 91
        4
280
     0
281
     0
  0
CLASS
  1
MLEADERSTYLE
  2
AcDbMLeaderStyle
  3
ACDB_MLEADERSTYLE_CLASS
 90
     4095
 91
        4
280
     0
281
     0
  0
CLASS
  1
FIELD
  2
AcDbField
  3
ObjectDBX Classes
 90
     1152
 91
        4
280
     0
281
     0
  0
CLASS
  1
FIELDLIST
  2
AcDbFieldList
  3
ObjectDBX Classes
 90
     1152
 91
        4
280
     0
281
     0
  0
ENDSEC
  0
SECTION
  2
TABLES
  0
TABLE
  2
VPORT
  5
7
330
0
100
AcDbSymbolTable
 70
     1
  0
VPORT
  5
15
330
7
100
AcDbSymbolTableRecord
100
AcDbViewportTableRecord
  2
*ACTIVE
 70
     0
 10
0.0
 20
0.0
 11
1.0
 21
1.0
 12
1558.341196155771
 22
3020.410681572911
 13
0.0
 23
0.0
 14
1.0
 24
1.0
 15
0.0
 25
0.0
 16
0.0
 26
0.0
 36
1.0
 17
531.9535768260321
 27
-54.90875110267734
 37
-796.100446371116
 40
5791.351220753729
 41
2.412121212121212
 42
50.0
 43
0.0
 44
0.0
 50
0.0
 51
0.0
 71
    16
 72
  2000
 73
     1
 74
     1
 75
     0
 76
     0
 77
     0
 78
     0
281
     0
 65
     1
110
0.0
120
0.0
130
0.0
111
1.0
121
0.0
131
0.0
112
0.0
122
1.0
132
0.0
 79
     0
146
0.0
348
26C
 60
     3
 61
     5
292
     1
282
     1
141
0.0
142
0.0
 63
   256
361
BE4
  0
ENDTAB
  0
TABLE
  2
LTYPE
  5
4
330
0
100
AcDbSymbolTable
 70
     3
  0
LTYPE
  5
11
330
4
100
AcDbSymbolTableRecord
100
AcDbLinetypeTableRecord
  2
ByBlock
 70
     0
  3

 72
    65
 73
     0
 40
0.0
  0
LTYPE
  5
12
330
4
100
AcDbSymbolTableRecord
100
AcDbLinetypeTableRecord
  2
ByLayer
 70
     0
  3

 72
    65
 73
     0
 40
0.0
  0
LTYPE
  5
13
330
4
100
AcDbSymbolTableRecord
100
AcDbLinetypeTableRecord
  2
Continuous
 70
     0
  3
Solid line
 72
    65
 73
     0
 40
0.0
  0
LTYPE
  5
F04
330
4
100
AcDbSymbolTableRecord
100
AcDbLinetypeTableRecord
  2
HIDDEN
 70
     0
  3
Hidden _ _ _ _ _ _ _ _ _ _ _ _ _ _ _ _ _ _ _ _ 
 72
    65
 73
     2
 40
9.524999999999999
 49
6.35
 74
     0
 49
-3.175
 74
     0
  0
LTYPE
  5
1321
330
4
100
AcDbSymbolTableRecord
100
AcDbLinetypeTableRecord
  2
CENTER
 70
     0
  3
 Center _____  _  _____  _  _____  _  _____  _ 
 72
    65
 73
     4
 40
50.8
 49
31.75
 74
     0
 49
-6.35
 74
     0
 49
6.35
 74
     0
 49
-6.35
 74
     0
  0
ENDTAB
  0
TABLE
  2
LAYER
  5
2
102
{ACAD_XDICTIONARY
360
2E1
102
}
330
0
100
AcDbSymbolTable
 70
     7
  0
LAYER
  5
14
330
2
100
AcDbSymbolTableRecord
100
AcDbLayerTableRecord
  2
0
 70
     0
 62
     7
  6
Continuous
370
    -3
390
1D
347
266
  0
LAYER
  5
4A
330
2
100
AcDbSymbolTableRecord
100
AcDbLayerTableRecord
  2
Defpoints
 70
     0
 62
     7
  6
Continuous
290
     0
370
     9
390
1D
347
266
  0
LAYER
  5
4B
330
2
100
AcDbSymbolTableRecord
100
AcDbLayerTableRecord
  2
TEMPLATE
 70
     0
 62
     7
  6
Continuous
370
    20
390
1D
347
266
  0
LAYER
  5
4D
330
2
100
AcDbSymbolTableRecord
100
AcDbLayerTableRecord
  2
MODEL
 70
     0
 62
     7
  6
Continuous
370
    20
390
1D
347
266
  0
LAYER
  5
382
330
2
100
AcDbSymbolTableRecord
100
AcDbLayerTableRecord
  2
LOGO
 70
     0
 62
     7
  6
Continuous
370
    -3
390
1D
347
266
  0
LAYER
  5
B79
330
2
100
AcDbSymbolTableRecord
100
AcDbLayerTableRecord
  2
HIDDEN
 70
     0
 62
   252
  6
HIDDEN
370
    20
390
1D
347
266
1001
AcAecLayerStandard
1000

1000

  0
LAYER
  5
B7A
330
2
100
AcDbSymbolTableRecord
100
AcDbLayerTableRecord
  2
DIM
 70
     0
 62
     3
  6
Continuous
370
    13
390
1D
347
266
1001
AcAecLayerStandard
1000

1000

  0
ENDTAB
  0
TABLE
  2
STYLE
  5
3
330
0
100
AcDbSymbolTable
 70
     2
  0
STYLE
  5
17
330
3
100
AcDbSymbolTableRecord
100
AcDbTextStyleTableRecord
  2
Standard
 70
     0
 40
0.0
 41
1.0
 50
0.0
 71
     0
 42
533.0403732820173
  3
txt
  4
BIGFONT.SHX
  0
STYLE
  5
39
330
3
100
AcDbSymbolTableRecord
100
AcDbTextStyleTableRecord
  2
ＭＳ ゴシック
 70
     0
 40
0.0
 41
1.0
 50
0.0
 71
     0
 42
533.0403732820173
  3
msgothic.ttc
  4
ＭＳ ゴシック
1001
ACAD
1000
ＭＳ ゴシック
1071
        0
  0
ENDTAB
  0
TABLE
  2
VIEW
  5
5
330
0
100
AcDbSymbolTable
 70
     0
  0
ENDTAB
  0
TABLE
  2
UCS
  5
6
330
0
100
AcDbSymbolTable
 70
     0
  0
ENDTAB
  0
TABLE
  2
APPID
  5
8
330
0
100
AcDbSymbolTable
 70
     8
  0
APPID
  5
16
330
8
100
AcDbSymbolTableRecord
100
AcDbRegAppTableRecord
  2
ACAD
 70
     0
  0
APPID
  5
5C5
330
8
100
AcDbSymbolTableRecord
100
AcDbRegAppTableRecord
  2
AcAecLayerStandard
 70
     0
  0
APPID
  5
694
330
8
100
AcDbSymbolTableRecord
100
AcDbRegAppTableRecord
  2
ACAD_DSTYLE_DIMJAG
 70
     0
  0
APPID
  5
695
330
8
100
AcDbSymbolTableRecord
100
AcDbRegAppTableRecord
  2
ACAD_DSTYLE_DIMTALN
 70
     0
  0
APPID
  5
69A
330
8
100
AcDbSymbolTableRecord
100
AcDbRegAppTableRecord
  2
ACAD_PSEXT
 70
     0
  0
APPID
  5
C69
330
8
100
AcDbSymbolTableRecord
100
AcDbRegAppTableRecord
  2
ACAD_MLEADERVER
 70
     0
  0
APPID
  5
C72
330
8
100
AcDbSymbolTableRecord
100
AcDbRegAppTableRecord
  2
ACAD_DSTYLE_DIMBREAK
 70
     0
  0
APPID
  5
C74
330
8
100
AcDbSymbolTableRecord
100
AcDbRegAppTableRecord
  2
ACAD_NAV_VCDISPLAY
 70
     0
  0
ENDTAB
  0
TABLE
  2
DIMSTYLE
  5
9
330
0
100
AcDbSymbolTable
 70
     3
100
AcDbDimStyleTable
  0
DIMSTYLE
105
18
330
9
100
AcDbSymbolTableRecord
100
AcDbDimStyleTableRecord
  2
Standard
 70
     0
178
     0
340
17
  0
DIMSTYLE
105
5C
330
9
100
AcDbSymbolTableRecord
100
AcDbDimStyleTableRecord
  2
JIS
 70
     0
  3
<>
  4
[]
 41
9.0
 42
0.0
 43
6.99999999999994
 44
19.9999999999962
 73
     0
 74
     0
 77
     1
 78
    11
140
24.4326171875
141
0.0
143
1.0
147
10.0
171
     1
174
     1
178
     0
179
     2
271
     1
272
     1
276
     2
284
    11
285
    11
286
    11
289
     0
340
39
341
4E
342
4E
  0
DIMSTYLE
105
12D2
102
{ACAD_REACTORS
330
1223
330
128C
330
1442
330
1443
330
1444
330
1445
330
1447
330
14D3
330
14D4
330
14D7
330
14D8
330
172B
102
}
330
9
100
AcDbSymbolTableRecord
100
AcDbDimStyleTableRecord
  2
tform線あり
 70
     0
  3
<>
  4
[]
 41
20.0
 42
25.0
 43
0.9999999999999999
 44
0.0
 73
     0
 74
     0
 77
     1
 78
    11
140
49.0
141
0.0
143
1.0
146
0.8
147
20.0
171
     1
172
     1
174
     1
178
     0
179
     2
271
     0
272
     1
276
     2
284
    11
285
    11
286
    11
289
     0
340
39
341
4E
342
4E
  0
ENDTAB
  0
TABLE
  2
BLOCK_RECORD
  5
1
330
0
100
AcDbSymbolTable
 70
    34
  0
BLOCK_RECORD
  5
A
102
{ACAD_XDICTIONARY
360
1659
102
}
330
1
100
AcDbSymbolTableRecord
100
AcDbBlockTableRecord
  2
*MODEL_SPACE
340
20
 70
     0
280
     1
281
     0
  0
BLOCK_RECORD
  5
B
330
1
100
AcDbSymbolTableRecord
100
AcDbBlockTableRecord
  2
*PAPER_SPACE
340
21
 70
     0
280
     1
281
     0
  0
BLOCK_RECORD
  5
4E
330
1
100
AcDbSymbolTableRecord
100
AcDbBlockTableRecord
  2
_DOT
340
0
102
{BLKREFS
331
11E5
331
11E6
331
11F4
331
11F5
331
1203
331
1204
331
1210
331
1211
331
121D
331
121E
331
122A
331
122B
331
1239
331
123A
331
1269
331
126A
331
1293
331
1294
331
12A1
331
12A2
331
12B0
331
12B1
331
1303
331
1304
331
1314
331
1315
331
1450
331
1451
331
145C
331
145D
331
1468
331
1469
331
1474
331
1475
331
1480
331
1481
331
148C
331
148D
331
14E1
331
14E2
331
14EF
331
14F0
331
14F9
331
14FA
331
1505
331
1506
331
1511
331
1512
331
1582
331
1583
331
15C9
331
15CA
331
1706
331
1707
331
1732
331
1733
102
}
 70
     0
280
     1
281
     0
  0
BLOCK_RECORD
  5
3A5
330
1
100
AcDbSymbolTableRecord
100
AcDbBlockTableRecord
  2
名称未設定-1
340
0
102
{BLKREFS
331
3D0
102
}
 70
     1
280
     1
281
     0
  0
BLOCK_RECORD
  5
3A8
330
1
100
AcDbSymbolTableRecord
100
AcDbBlockTableRecord
  2
block 2
340
0
102
{BLKREFS
331
3A7
102
}
 70
     0
280
     1
281
     0
  0
BLOCK_RECORD
  5
3AB
330
1
100
AcDbSymbolTableRecord
100
AcDbBlockTableRecord
  2
block 3
340
0
102
{BLKREFS
331
3AA
102
}
 70
     0
280
     1
281
     0
  0
BLOCK_RECORD
  5
3AE
330
1
100
AcDbSymbolTableRecord
100
AcDbBlockTableRecord
  2
block 4
340
0
102
{BLKREFS
331
3AD
102
}
 70
     0
280
     1
281
     0
  0
BLOCK_RECORD
  5
3BD
330
1
100
AcDbSymbolTableRecord
100
AcDbBlockTableRecord
  2
block 5
340
0
102
{BLKREFS
331
3BC
102
}
 70
     0
280
     1
281
     0
  0
BLOCK_RECORD
  5
11DF
330
1
100
AcDbSymbolTableRecord
100
AcDbBlockTableRecord
  2
*D6
340
0
 70
     0
280
     1
281
     0
  0
BLOCK_RECORD
  5
11EE
330
1
100
AcDbSymbolTableRecord
100
AcDbBlockTableRecord
  2
*D7
340
0
 70
     0
280
     1
281
     0
  0
BLOCK_RECORD
  5
11FD
330
1
100
AcDbSymbolTableRecord
100
AcDbBlockTableRecord
  2
*D8
340
0
 70
     0
280
     1
281
     0
  0
BLOCK_RECORD
  5
120A
330
1
100
AcDbSymbolTableRecord
100
AcDbBlockTableRecord
  2
*D9
340
0
 70
     0
280
     1
281
     0
  0
BLOCK_RECORD
  5
1217
330
1
100
AcDbSymbolTableRecord
100
AcDbBlockTableRecord
  2
*D10
340
0
 70
     0
280
     1
281
     0
  0
BLOCK_RECORD
  5
1224
330
1
100
AcDbSymbolTableRecord
100
AcDbBlockTableRecord
  2
*D11
340
0
 70
     0
280
     1
281
     0
  0
BLOCK_RECORD
  5
1233
330
1
100
AcDbSymbolTableRecord
100
AcDbBlockTableRecord
  2
*D12
340
0
 70
     0
280
     1
281
     0
  0
BLOCK_RECORD
  5
1261
330
1
100
AcDbSymbolTableRecord
100
AcDbBlockTableRecord
  2
*D13
340
0
 70
     0
280
     1
281
     0
  0
BLOCK_RECORD
  5
128D
330
1
100
AcDbSymbolTableRecord
100
AcDbBlockTableRecord
  2
*D14
340
0
 70
     0
280
     1
281
     0
  0
BLOCK_RECORD
  5
129B
330
1
100
AcDbSymbolTableRecord
100
AcDbBlockTableRecord
  2
*D15
340
0
 70
     0
280
     1
281
     0
  0
BLOCK_RECORD
  5
12AA
330
1
100
AcDbSymbolTableRecord
100
AcDbBlockTableRecord
  2
*D16
340
0
 70
     0
280
     1
281
     0
  0
BLOCK_RECORD
  5
12FE
330
1
100
AcDbSymbolTableRecord
100
AcDbBlockTableRecord
  2
*D17
340
0
 70
     0
280
     1
281
     0
  0
BLOCK_RECORD
  5
130E
330
1
100
AcDbSymbolTableRecord
100
AcDbBlockTableRecord
  2
*D18
340
0
 70
     0
280
     1
281
     0
  0
BLOCK_RECORD
  5
144A
330
1
100
AcDbSymbolTableRecord
100
AcDbBlockTableRecord
  2
*D19
340
0
 70
     0
280
     1
281
     0
  0
BLOCK_RECORD
  5
1456
330
1
100
AcDbSymbolTableRecord
100
AcDbBlockTableRecord
  2
*D20
340
0
 70
     0
280
     1
281
     0
  0
BLOCK_RECORD
  5
1462
330
1
100
AcDbSymbolTableRecord
100
AcDbBlockTableRecord
  2
*D21
340
0
 70
     0
280
     1
281
     0
  0
BLOCK_RECORD
  5
146E
330
1
100
AcDbSymbolTableRecord
100
AcDbBlockTableRecord
  2
*D22
340
0
 70
     0
280
     1
281
     0
  0
BLOCK_RECORD
  5
147A
330
1
100
AcDbSymbolTableRecord
100
AcDbBlockTableRecord
  2
*D23
340
0
 70
     0
280
     1
281
     0
  0
BLOCK_RECORD
  5
1486
330
1
100
AcDbSymbolTableRecord
100
AcDbBlockTableRecord
  2
*D24
340
0
 70
     0
280
     1
281
     0
  0
BLOCK_RECORD
  5
14DB
330
1
100
AcDbSymbolTableRecord
100
AcDbBlockTableRecord
  2
*D25
340
0
 70
     0
280
     1
281
     0
  0
BLOCK_RECORD
  5
14E7
330
1
100
AcDbSymbolTableRecord
100
AcDbBlockTableRecord
  2
*D26
340
0
 70
     0
280
     1
281
     0
  0
BLOCK_RECORD
  5
14F3
330
1
100
AcDbSymbolTableRecord
100
AcDbBlockTableRecord
  2
*D27
340
0
 70
     0
280
     1
281
     0
  0
BLOCK_RECORD
  5
14FF
330
1
100
AcDbSymbolTableRecord
100
AcDbBlockTableRecord
  2
*D28
340
0
 70
     0
280
     1
281
     0
  0
BLOCK_RECORD
  5
150B
330
1
100
AcDbSymbolTableRecord
100
AcDbBlockTableRecord
  2
*D29
340
0
 70
     0
280
     1
281
     0
  0
BLOCK_RECORD
  5
157D
330
1
100
AcDbSymbolTableRecord
100
AcDbBlockTableRecord
  2
*D30
340
0
 70
     0
280
     1
281
     0
  0
BLOCK_RECORD
  5
15C2
330
1
100
AcDbSymbolTableRecord
100
AcDbBlockTableRecord
  2
*D31
340
0
 70
     0
280
     1
281
     0
  0
BLOCK_RECORD
  5
16FE
330
1
100
AcDbSymbolTableRecord
100
AcDbBlockTableRecord
  2
*D32
340
0
 70
     0
280
     1
281
     0
  0
BLOCK_RECORD
  5
172C
330
1
100
AcDbSymbolTableRecord
100
AcDbBlockTableRecord
  2
*D33
340
0
 70
     0
280
     1
281
     0
  0
ENDTAB
  0
ENDSEC
  0
SECTION
  2
BLOCKS
  0
BLOCK
  5
D
330
A
100
AcDbEntity
  8
0
390
1D
100
AcDbBlockBegin
  2
*MODEL_SPACE
 70
     0
 10
0.0
 20
0.0
 30
0.0
  3
*MODEL_SPACE
  1
*MODEL_SPACE
  0
ENDBLK
  5
E
330
A
100
AcDbEntity
  8
0
390
1D
100
AcDbBlockEnd
  0
BLOCK
  5
F
330
B
100
AcDbEntity
 67
     1
  8
0
390
1D
100
AcDbBlockBegin
  2
*PAPER_SPACE
 70
     0
 10
0.0
 20
0.0
 30
0.0
  3
*PAPER_SPACE
  1
*PAPER_SPACE
  0
ENDBLK
  5
10
330
B
100
AcDbEntity
 67
     1
  8
0
390
1D
100
AcDbBlockEnd
  0
BLOCK
  5
153E
330
4E
100
AcDbEntity
  8
0
390
1D
100
AcDbBlockBegin
  2
_DOT
 70
     0
 10
0.0
 20
0.0
 30
0.0
  3
_DOT
  1
_DOT
  0
POLYLINE
  5
1540
330
4E
100
AcDbEntity
  8
0
  6
ByBlock
 62
     0
370
    -2
390
1D
100
AcDb2dPolyline
 66
     1
 10
0.0
 20
0.0
 30
0.0
 70
     1
 40
0.5
 41
0.5
  0
VERTEX
  5
1541
330
1540
100
AcDbEntity
  8
0
  6
ByBlock
 62
     0
370
    -2
390
1D
100
AcDbVertex
100
AcDb2dVertex
 10
-0.25
 20
0.0
 30
0.0
 42
1.0
  0
VERTEX
  5
1542
330
1540
100
AcDbEntity
  8
0
  6
ByBlock
 62
     0
370
    -2
390
1D
100
AcDbVertex
100
AcDb2dVertex
 10
0.25
 20
0.0
 30
0.0
 42
1.0
  0
SEQEND
  5
1543
330
1540
100
AcDbEntity
  8
0
390
1D
  0
LINE
  5
1544
330
4E
100
AcDbEntity
  8
0
  6
ByBlock
 62
     0
370
    -2
390
1D
100
AcDbLine
 10
-0.5
 20
0.0
 30
0.0
 11
-1.0
 21
0.0
 31
0.0
  0
ENDBLK
  5
1545
330
4E
100
AcDbEntity
  8
0
390
1D
100
AcDbBlockEnd
  0
BLOCK
  5
3A6
330
3A5
100
AcDbEntity
  8
0
100
AcDbBlockBegin
  2
名称未設定-1
 70
     0
 10
0.0
 20
0.0
 30
0.0
  3
名称未設定-1
  1
名称未設定-1
  0
INSERT
  5
3A7
330
3A5
100
AcDbEntity
  8
LOGO
100
AcDbBlockReference
  2
block 2
 10
0.0
 20
0.0
 30
0.0
  0
ENDBLK
  5
3CC
330
3A5
100
AcDbEntity
  8
0
100
AcDbBlockEnd
  0
BLOCK
  5
3A9
330
3A8
100
AcDbEntity
  8
0
100
AcDbBlockBegin
  2
block 2
 70
     0
 10
0.0
 20
0.0
 30
0.0
  3
block 2
  1
block 2
  0
INSERT
  5
3AA
330
3A8
100
AcDbEntity
  8
LOGO
100
AcDbBlockReference
  2
block 3
 10
0.0
 20
0.0
 30
0.0
  0
ENDBLK
  5
3CB
330
3A8
100
AcDbEntity
  8
0
100
AcDbBlockEnd
  0
BLOCK
  5
3AC
330
3AB
100
AcDbEntity
  8
0
100
AcDbBlockBegin
  2
block 3
 70
     0
 10
0.0
 20
0.0
 30
0.0
  3
block 3
  1
block 3
  0
INSERT
  5
3AD
330
3AB
100
AcDbEntity
  8
LOGO
100
AcDbBlockReference
  2
block 4
 10
0.0
 20
0.0
 30
0.0
  0
ENDBLK
  5
3CA
330
3AB
100
AcDbEntity
  8
0
100
AcDbBlockEnd
  0
BLOCK
  5
3AF
330
3AE
100
AcDbEntity
  8
0
100
AcDbBlockBegin
  2
block 4
 70
     0
 10
0.0
 20
0.0
 30
0.0
  3
block 4
  1
block 4
  0
POLYLINE
  5
3B0
330
3AE
100
AcDbEntity
  8
LOGO
370
     0
100
AcDb2dPolyline
 66
     1
 10
0.0
 20
0.0
 30
0.0
  0
VERTEX
  5
3B1
330
3B0
100
AcDbEntity
  8
LOGO
370
     0
100
AcDbVertex
100
AcDb2dVertex
 10
83.79545727667795
 20
167.6444858234922
 30
0.0
  0
VERTEX
  5
3B2
330
3B0
100
AcDbEntity
  8
LOGO
370
     0
100
AcDbVertex
100
AcDb2dVertex
 10
83.79545727667795
 20
159.7968976406313
 30
0.0
  0
VERTEX
  5
3B3
330
3B0
100
AcDbEntity
  8
LOGO
370
     0
100
AcDbVertex
100
AcDb2dVertex
 10
71.3631329975216
 20
159.7968976406313
 30
0.0
  0
VERTEX
  5
3B4
330
3B0
100
AcDbEntity
  8
LOGO
370
     0
100
AcDbVertex
100
AcDb2dVertex
 10
71.3631329975216
 20
127.8027915271048
 30
0.0
  0
VERTEX
  5
3B5
330
3B0
100
AcDbEntity
  8
LOGO
370
     0
100
AcDbVertex
100
AcDb2dVertex
 10
60.43011526263018
 20
127.8027915271048
 30
0.0
  0
VERTEX
  5
3B6
330
3B0
100
AcDbEntity
  8
LOGO
370
     0
100
AcDbVertex
100
AcDb2dVertex
 10
60.43011526263018
 20
159.7968976406313
 30
0.0
  0
VERTEX
  5
3B7
330
3B0
100
AcDbEntity
  8
LOGO
370
     0
100
AcDbVertex
100
AcDb2dVertex
 10
48.21793273020759
 20
159.7968976406313
 30
0.0
  0
VERTEX
  5
3B8
330
3B0
100
AcDbEntity
  8
LOGO
370
     0
100
AcDbVertex
100
AcDb2dVertex
 10
48.21793273020759
 20
167.6444858234922
 30
0.0
  0
VERTEX
  5
3B9
330
3B0
100
AcDbEntity
  8
LOGO
370
     0
100
AcDbVertex
100
AcDb2dVertex
 10
83.79545727667795
 20
167.6444858234922
 30
0.0
  0
SEQEND
  5
3BA
330
3B0
100
AcDbEntity
  8
LOGO
370
     0
  0
HATCH
  5
3BB
330
3AE
100
AcDbEntity
  8
LOGO
 62
   250
420
  2234388
100
AcDbHatch
 10
0.0
 20
0.0
 30
0.0
210
0.0
220
0.0
230
1.0
  2
SOLID
 70
     1
 71
     0
 91
        1
 92
        1
 93
        8
 72
     1
 10
83.79545727667795
 20
167.6444858234922
 11
83.79545727667795
 21
159.7968976406313
 72
     1
 10
83.79545727667795
 20
159.7968976406313
 11
71.3631329975216
 21
159.7968976406313
 72
     1
 10
71.3631329975216
 20
159.7968976406313
 11
71.3631329975216
 21
127.8027915271048
 72
     1
 10
71.3631329975216
 20
127.8027915271048
 11
60.43011526263018
 21
127.8027915271048
 72
     1
 10
60.43011526263018
 20
127.8027915271048
 11
60.43011526263018
 21
159.7968976406313
 72
     1
 10
60.43011526263018
 20
159.7968976406313
 11
48.21793273020759
 21
159.7968976406313
 72
     1
 10
48.21793273020759
 20
159.7968976406313
 11
48.21793273020759
 21
167.6444858234922
 72
     1
 10
48.21793273020759
 20
167.6444858234922
 11
83.79545727667795
 21
167.6444858234922
 97
        0
 75
     2
 76
     1
 98
        0
  0
INSERT
  5
3BC
330
3AE
100
AcDbEntity
  8
LOGO
100
AcDbBlockReference
  2
block 5
 10
0.0
 20
0.0
 30
0.0
  0
ENDBLK
  5
3C9
330
3AE
100
AcDbEntity
  8
0
100
AcDbBlockEnd
  0
BLOCK
  5
3BE
330
3BD
100
AcDbEntity
  8
0
100
AcDbBlockBegin
  2
block 5
 70
     0
 10
0.0
 20
0.0
 30
0.0
  3
block 5
  1
block 5
  0
SPLINE
  5
3BF
330
3BD
100
AcDbEntity
  8
LOGO
370
     0
100
AcDbSpline
210
0.0
220
0.0
230
1.0
 70
    11
 71
     3
 72
    56
 73
    52
 74
     0
 42
0.000000001
 43
0.0000000001
 40
0.0
 40
0.0
 40
0.0
 40
0.0
 40
1.0
 40
1.0
 40
1.0
 40
2.0
 40
2.0
 40
2.0
 40
3.0
 40
3.0
 40
3.0
 40
4.0
 40
4.0
 40
4.0
 40
5.0
 40
5.0
 40
5.0
 40
6.0
 40
6.0
 40
6.0
 40
7.0
 40
7.0
 40
7.0
 40
8.0
 40
8.0
 40
8.0
 40
9.0
 40
9.0
 40
9.0
 40
10.0
 40
10.0
 40
10.0
 40
11.0
 40
11.0
 40
11.0
 40
12.0
 40
12.0
 40
12.0
 40
13.0
 40
13.0
 40
13.0
 40
14.0
 40
14.0
 40
14.0
 40
15.0
 40
15.0
 40
15.0
 40
16.0
 40
16.0
 40
16.0
 40
17.0
 40
17.0
 40
17.0
 40
17.0
 10
100.4504378777679
 20
166.69157178364
 30
0.0
 10
101.9848844191641
 20
167.1313385124438
 30
0.0
 10
103.9637485713373
 20
166.7649523658846
 30
0.0
 10
103.9637485713373
 20
166.7649523658846
 30
0.0
 10
103.9637485713373
 20
166.7649523658846
 30
0.0
 10
103.0132460999156
 20
163.911205638077
 30
0.0
 10
103.0132460999156
 20
163.911205638077
 30
0.0
 10
103.0132460999156
 20
163.911205638077
 30
0.0
 10
101.0674548862189
 20
164.3601018759394
 30
0.0
 10
99.57090442016032
 20
163.1805004036133
 30
0.0
 10
98.40508333886608
 20
162.258247733807
 30
0.0
 10
97.65301849830304
 20
159.804132345923
 30
0.0
 10
97.3598406791005
 20
158.8699940888517
 30
0.0
 10
97.3598406791005
 20
158.8699940888517
 30
0.0
 10
96.07137411762282
 20
154.9119212747295
 30
0.0
 10
96.07137411762282
 20
154.9119212747295
 30
0.0
 10
96.07137411762282
 20
154.9119212747295
 30
0.0
 10
100.3012651448482
 20
154.9119212747295
 30
0.0
 10
100.3012651448482
 20
154.9119212747295
 30
0.0
 10
100.3012651448482
 20
154.9119212747295
 30
0.0
 10
99.64152892419852
 20
152.4199098115079
 30
0.0
 10
99.64152892419852
 20
152.4199098115079
 30
0.0
 10
99.64152892419852
 20
152.4199098115079
 30
0.0
 10
95.38097652692731
 20
152.4199098115079
 30
0.0
 10
95.38097652692731
 20
152.4199098115079
 30
0.0
 10
95.38097652692731
 20
152.4199098115079
 30
0.0
 10
87.75353009080013
 20
127.8027915271048
 30
0.0
 10
87.75353009080013
 20
127.8027915271048
 30
0.0
 10
87.75353009080013
 20
127.8027915271048
 30
0.0
 10
85.36538832498108
 20
127.8027915271048
 30
0.0
 10
85.36538832498108
 20
127.8027915271048
 30
0.0
 10
85.36538832498108
 20
127.8027915271048
 30
0.0
 10
93.00006946639998
 20
152.4199098115079
 30
0.0
 10
93.00006946639998
 20
152.4199098115079
 30
0.0
 10
93.00006946639998
 20
152.4199098115079
 30
0.0
 10
89.85297266450198
 20
152.4199098115079
 30
0.0
 10
89.85297266450198
 20
152.4199098115079
 30
0.0
 10
89.85297266450198
 20
152.4199098115079
 30
0.0
 10
90.51270888515164
 20
154.9119212747295
 30
0.0
 10
90.51270888515164
 20
154.9119212747295
 30
0.0
 10
90.51270888515164
 20
154.9119212747295
 30
0.0
 10
93.6904670570955
 20
154.9119212747295
 30
0.0
 10
93.6904670570955
 20
154.9119212747295
 30
0.0
 10
93.6904670570955
 20
154.9119212747295
 30
0.0
 10
94.81598049462158
 20
158.3616699146644
 30
0.0
 10
94.81598049462158
 20
158.3616699146644
 30
0.0
 10
95.7237637538445
 20
161.2605474231013
 30
0.0
 10
96.4968436907311
 20
162.8139420021662
 30
0.0
 10
97.15657991138076
 20
163.9844139654337
 30
0.0
 10
97.81183750494507
 20
165.1523021053827
 30
0.0
 10
99.1047826935081
 20
166.3084769129547
 30
0.0
 10
100.4504378777679
 20
166.69157178364
 30
0.0
  0
HATCH
  5
3C0
330
3BD
100
AcDbEntity
  8
LOGO
 62
   250
420
  2234388
100
AcDbHatch
 10
0.0
 20
0.0
 30
0.0
210
0.0
220
0.0
230
1.0
  2
SOLID
 70
     1
 71
     0
 91
        1
 92
        1
 93
        1
 72
     4
 94
        3
 73
     0
 74
     1
 95
       56
 96
       52
 40
0.0
 40
0.0
 40
0.0
 40
0.0
 40
1.0
 40
1.0
 40
1.0
 40
2.0
 40
2.0
 40
2.0
 40
3.0
 40
3.0
 40
3.0
 40
4.0
 40
4.0
 40
4.0
 40
5.0
 40
5.0
 40
5.0
 40
6.0
 40
6.0
 40
6.0
 40
7.0
 40
7.0
 40
7.0
 40
8.0
 40
8.0
 40
8.0
 40
9.0
 40
9.0
 40
9.0
 40
10.0
 40
10.0
 40
10.0
 40
11.0
 40
11.0
 40
11.0
 40
12.0
 40
12.0
 40
12.0
 40
13.0
 40
13.0
 40
13.0
 40
14.0
 40
14.0
 40
14.0
 40
15.0
 40
15.0
 40
15.0
 40
16.0
 40
16.0
 40
16.0
 40
17.0
 40
17.0
 40
17.0
 40
17.0
 10
100.4504378777679
 20
166.69157178364
 10
101.9848844191641
 20
167.1313385124438
 10
103.9637485713373
 20
166.7649523658846
 10
103.9637485713373
 20
166.7649523658846
 10
103.9637485713373
 20
166.7649523658846
 10
103.0132460999156
 20
163.911205638077
 10
103.0132460999156
 20
163.911205638077
 10
103.0132460999156
 20
163.911205638077
 10
101.0674548862189
 20
164.3601018759394
 10
99.57090442016032
 20
163.1805004036133
 10
98.40508333886608
 20
162.258247733807
 10
97.65301849830304
 20
159.804132345923
 10
97.3598406791005
 20
158.8699940888517
 10
97.3598406791005
 20
158.8699940888517
 10
96.07137411762282
 20
154.9119212747295
 10
96.07137411762282
 20
154.9119212747295
 10
96.07137411762282
 20
154.9119212747295
 10
100.3012651448482
 20
154.9119212747295
 10
100.3012651448482
 20
154.9119212747295
 10
100.3012651448482
 20
154.9119212747295
 10
99.64152892419852
 20
152.4199098115079
 10
99.64152892419852
 20
152.4199098115079
 10
99.64152892419852
 20
152.4199098115079
 10
95.38097652692731
 20
152.4199098115079
 10
95.38097652692731
 20
152.4199098115079
 10
95.38097652692731
 20
152.4199098115079
 10
87.75353009080013
 20
127.8027915271048
 10
87.75353009080013
 20
127.8027915271048
 10
87.75353009080013
 20
127.8027915271048
 10
85.36538832498108
 20
127.8027915271048
 10
85.36538832498108
 20
127.8027915271048
 10
85.36538832498108
 20
127.8027915271048
 10
93.00006946639998
 20
152.4199098115079
 10
93.00006946639998
 20
152.4199098115079
 10
93.00006946639998
 20
152.4199098115079
 10
89.85297266450198
 20
152.4199098115079
 10
89.85297266450198
 20
152.4199098115079
 10
89.85297266450198
 20
152.4199098115079
 10
90.51270888515164
 20
154.9119212747295
 10
90.51270888515164
 20
154.9119212747295
 10
90.51270888515164
 20
154.9119212747295
 10
93.6904670570955
 20
154.9119212747295
 10
93.6904670570955
 20
154.9119212747295
 10
93.6904670570955
 20
154.9119212747295
 10
94.81598049462158
 20
158.3616699146644
 10
94.81598049462158
 20
158.3616699146644
 10
95.7237637538445
 20
161.2605474231013
 10
96.4968436907311
 20
162.8139420021662
 10
97.15657991138076
 20
163.9844139654337
 10
97.81183750494507
 20
165.1523021053827
 10
99.1047826935081
 20
166.3084769129547
 10
100.4504378777679
 20
166.69157178364
 97
        0
 75
     2
 76
     1
 98
        0
  0
SPLINE
  5
3C1
330
3BD
100
AcDbEntity
  8
LOGO
370
     0
100
AcDbSpline
210
0.0
220
0.0
230
1.0
 70
    11
 71
     3
 72
    38
 73
    34
 74
     0
 42
0.000000001
 43
0.0000000001
 40
0.0
 40
0.0
 40
0.0
 40
0.0
 40
1.0
 40
1.0
 40
1.0
 40
2.0
 40
2.0
 40
2.0
 40
3.0
 40
3.0
 40
3.0
 40
4.0
 40
4.0
 40
4.0
 40
5.0
 40
5.0
 40
5.0
 40
6.0
 40
6.0
 40
6.0
 40
7.0
 40
7.0
 40
7.0
 40
8.0
 40
8.0
 40
8.0
 40
9.0
 40
9.0
 40
9.0
 40
10.0
 40
10.0
 40
10.0
 40
11.0
 40
11.0
 40
11.0
 40
11.0
 10
126.377554584636
 20
154.8151140277308
 30
0.0
 10
126.377554584636
 20
154.8151140277308
 30
0.0
 10
128.8311532078563
 20
154.8151140277308
 30
0.0
 10
128.8311532078563
 20
154.8151140277308
 30
0.0
 10
128.8311532078563
 20
154.8151140277308
 30
0.0
 10
127.7345785914971
 20
151.3062819612468
 30
0.0
 10
127.7345785914971
 20
151.3062819612468
 30
0.0
 10
128.571392836906
 20
152.2922689395754
 30
0.0
 10
129.8860421413442
 20
153.604506675583
 30
0.0
 10
131.0163787157314
 20
154.2664822097754
 30
0.0
 10
132.7044766171327
 20
155.2500576196734
 30
0.0
 10
133.6642808525008
 20
155.3847609420097
 30
0.0
 10
134.7284715499351
 20
155.3565111403944
 30
0.0
 10
134.7284715499351
 20
155.3565111403944
 30
0.0
 10
133.6877075172549
 20
152.0345756272799
 30
0.0
 10
133.6877075172549
 20
152.0345756272799
 30
0.0
 10
133.011434827367
 20
152.3184516825359
 30
0.0
 10
130.930940291334
 20
151.7768823149844
 30
0.0
 10
129.739280976855
 20
150.9162968950455
 30
0.0
 10
128.66613302525
 20
150.1454562717016
 30
0.0
 10
127.9192358313239
 20
149.4857200510519
 30
0.0
 10
127.0393578639405
 20
147.8282835196966
 30
0.0
 10
126.164647543194
 20
146.1699857139017
 30
0.0
 10
125.4742499524985
 20
143.5262176944419
 30
0.0
 10
124.2822461282437
 20
139.6959580071401
 30
0.0
 10
124.2822461282437
 20
139.6959580071401
 30
0.0
 10
120.5753209406769
 20
127.8027915271048
 30
0.0
 10
120.5753209406769
 20
127.8027915271048
 30
0.0
 10
120.5753209406769
 20
127.8027915271048
 30
0.0
 10
118.1964809388044
 20
127.8027915271048
 30
0.0
 10
118.1964809388044
 20
127.8027915271048
 30
0.0
 10
118.1964809388044
 20
127.8027915271048
 30
0.0
 10
126.377554584636
 20
154.8151140277308
 30
0.0
 10
126.377554584636
 20
154.8151140277308
 30
0.0
  0
HATCH
  5
3C2
330
3BD
100
AcDbEntity
  8
LOGO
 62
   250
420
  2234388
100
AcDbHatch
 10
0.0
 20
0.0
 30
0.0
210
0.0
220
0.0
230
1.0
  2
SOLID
 70
     1
 71
     0
 91
        1
 92
        1
 93
        1
 72
     4
 94
        3
 73
     0
 74
     1
 95
       38
 96
       34
 40
0.0
 40
0.0
 40
0.0
 40
0.0
 40
1.0
 40
1.0
 40
1.0
 40
2.0
 40
2.0
 40
2.0
 40
3.0
 40
3.0
 40
3.0
 40
4.0
 40
4.0
 40
4.0
 40
5.0
 40
5.0
 40
5.0
 40
6.0
 40
6.0
 40
6.0
 40
7.0
 40
7.0
 40
7.0
 40
8.0
 40
8.0
 40
8.0
 40
9.0
 40
9.0
 40
9.0
 40
10.0
 40
10.0
 40
10.0
 40
11.0
 40
11.0
 40
11.0
 40
11.0
 10
126.377554584636
 20
154.8151140277308
 10
126.377554584636
 20
154.8151140277308
 10
128.8311532078563
 20
154.8151140277308
 10
128.8311532078563
 20
154.8151140277308
 10
128.8311532078563
 20
154.8151140277308
 10
127.7345785914971
 20
151.3062819612468
 10
127.7345785914971
 20
151.3062819612468
 10
128.571392836906
 20
152.2922689395754
 10
129.8860421413442
 20
153.604506675583
 10
131.0163787157314
 20
154.2664822097754
 10
132.7044766171327
 20
155.2500576196734
 10
133.6642808525008
 20
155.3847609420097
 10
134.7284715499351
 20
155.3565111403944
 10
134.7284715499351
 20
155.3565111403944
 10
133.6877075172549
 20
152.0345756272799
 10
133.6877075172549
 20
152.0345756272799
 10
133.011434827367
 20
152.3184516825359
 10
130.930940291334
 20
151.7768823149844
 10
129.739280976855
 20
150.9162968950455
 10
128.66613302525
 20
150.1454562717016
 10
127.9192358313239
 20
149.4857200510519
 10
127.0393578639405
 20
147.8282835196966
 10
126.164647543194
 20
146.1699857139017
 10
125.4742499524985
 20
143.5262176944419
 10
124.2822461282437
 20
139.6959580071401
 10
124.2822461282437
 20
139.6959580071401
 10
120.5753209406769
 20
127.8027915271048
 10
120.5753209406769
 20
127.8027915271048
 10
120.5753209406769
 20
127.8027915271048
 10
118.1964809388044
 20
127.8027915271048
 10
118.1964809388044
 20
127.8027915271048
 10
118.1964809388044
 20
127.8027915271048
 10
126.377554584636
 20
154.8151140277308
 10
126.377554584636
 20
154.8151140277308
 97
        0
 75
     2
 76
     1
 98
        0
  0
SPLINE
  5
3C3
330
3BD
100
AcDbEntity
  8
LOGO
370
     0
100
AcDbSpline
210
0.0
220
0.0
230
1.0
 70
    11
 71
     3
 72
   104
 73
   100
 74
     0
 42
0.000000001
 43
0.0000000001
 40
0.0
 40
0.0
 40
0.0
 40
0.0
 40
1.0
 40
1.0
 40
1.0
 40
2.0
 40
2.0
 40
2.0
 40
3.0
 40
3.0
 40
3.0
 40
4.0
 40
4.0
 40
4.0
 40
5.0
 40
5.0
 40
5.0
 40
6.0
 40
6.0
 40
6.0
 40
7.0
 40
7.0
 40
7.0
 40
8.0
 40
8.0
 40
8.0
 40
9.0
 40
9.0
 40
9.0
 40
10.0
 40
10.0
 40
10.0
 40
11.0
 40
11.0
 40
11.0
 40
12.0
 40
12.0
 40
12.0
 40
13.0
 40
13.0
 40
13.0
 40
14.0
 40
14.0
 40
14.0
 40
15.0
 40
15.0
 40
15.0
 40
16.0
 40
16.0
 40
16.0
 40
17.0
 40
17.0
 40
17.0
 40
18.0
 40
18.0
 40
18.0
 40
19.0
 40
19.0
 40
19.0
 40
20.0
 40
20.0
 40
20.0
 40
21.0
 40
21.0
 40
21.0
 40
22.0
 40
22.0
 40
22.0
 40
23.0
 40
23.0
 40
23.0
 40
24.0
 40
24.0
 40
24.0
 40
25.0
 40
25.0
 40
25.0
 40
26.0
 40
26.0
 40
26.0
 40
27.0
 40
27.0
 40
27.0
 40
28.0
 40
28.0
 40
28.0
 40
29.0
 40
29.0
 40
29.0
 40
30.0
 40
30.0
 40
30.0
 40
31.0
 40
31.0
 40
31.0
 40
32.0
 40
32.0
 40
32.0
 40
33.0
 40
33.0
 40
33.0
 40
33.0
 10
139.8926730891197
 20
154.8294111834263
 30
0.0
 10
139.8926730891197
 20
154.8294111834263
 30
0.0
 10
142.0344903652445
 20
154.8294111834263
 30
0.0
 10
142.0344903652445
 20
154.8294111834263
 30
0.0
 10
142.0344903652445
 20
154.8294111834263
 30
0.0
 10
140.9516961399171
 20
151.3157559800812
 30
0.0
 10
140.9516961399171
 20
151.3157559800812
 30
0.0
 10
141.8928968473923
 20
152.7887075264977
 30
0.0
 10
142.7341897198865
 20
153.4484437471474
 30
0.0
 10
143.8552245303272
 20
154.2926649527359
 30
0.0
 10
144.9803934580775
 20
155.1296514530327
 30
0.0
 10
146.3139908001845
 20
155.3044901642492
 30
0.0
 10
147.241066606852
 20
155.3044901642492
 30
0.0
 10
148.3855280820469
 20
155.3044901642492
 30
0.0
 10
149.4969166187653
 20
155.0752189084569
 30
0.0
 10
150.0784491203092
 20
153.8172414621372
 30
0.0
 10
150.5228667310863
 20
152.833838307127
 30
0.0
 10
150.5414702589793
 20
152.7201500811143
 30
0.0
 10
150.4140016419347
 20
150.7765981809602
 30
0.0
 10
151.5818897818837
 20
152.7699317437168
 30
0.0
 10
152.4424752018226
 20
153.6256940267945
 30
0.0
 10
153.9038856707499
 20
154.4507949398263
 30
0.0
 10
155.4455669174378
 20
155.3044901642492
 30
0.0
 10
156.339225275853
 20
155.3659851592288
 30
0.0
 10
157.3748216618963
 20
155.2147453676543
 30
0.0
 10
158.911679771723
 20
154.9877134254046
 30
0.0
 10
159.8859534176746
 20
154.4390816074493
 30
0.0
 10
160.3965169054045
 20
152.7816450760939
 30
0.0
 10
160.9070803931344
 20
151.1219692311958
 30
0.0
 10
160.6328506116007
 20
150.2303779314354
 30
0.0
 10
159.9992971339115
 20
147.597634224801
 30
0.0
 10
159.7105979417943
 20
146.4014962832367
 30
0.0
 10
159.2947746424084
 20
144.9400858143094
 30
0.0
 10
158.7463150793409
 20
143.2092687007094
 30
0.0
 10
158.7463150793409
 20
143.2092687007094
 30
0.0
 10
153.9038856707499
 20
127.8027915271048
 30
0.0
 10
153.9038856707499
 20
127.8027915271048
 30
0.0
 10
153.9038856707499
 20
127.8027915271048
 30
0.0
 10
151.3882752878863
 20
127.8027915271048
 30
0.0
 10
151.3882752878863
 20
127.8027915271048
 30
0.0
 10
151.3882752878863
 20
127.8027915271048
 30
0.0
 10
155.6250565106276
 20
141.2751908193897
 30
0.0
 10
155.6250565106276
 20
141.2751908193897
 30
0.0
 10
156.5094131050963
 20
144.0936252951782
 30
0.0
 10
157.109893644309
 20
146.1506931664571
 30
0.0
 10
157.4220195011804
 20
147.4415712963654
 30
0.0
 10
157.8095929989511
 20
149.0530157726519
 30
0.0
 10
157.9656559273867
 20
149.5826995529385
 30
0.0
 10
157.7816877071116
 20
150.7529992613181
 30
0.0
 10
157.6111553680925
 20
151.8430281919372
 30
0.0
 10
157.0582171779396
 20
152.5547853887321
 30
0.0
 10
156.1170164704645
 20
152.5547853887321
 30
0.0
 10
155.1096698860365
 20
152.5547853887321
 30
0.0
 10
154.2962823053817
 20
152.4412694176073
 30
0.0
 10
153.156643967048
 20
151.2945686288697
 30
0.0
 10
152.0170056287143
 20
150.1476955852443
 30
0.0
 10
151.076149431015
 20
148.7930831468137
 30
0.0
 10
150.3337308641742
 20
147.2290087646991
 30
0.0
 10
149.5957909244188
 20
145.6683794803425
 30
0.0
 10
148.8530278478023
 20
143.6822806228776
 30
0.0
 10
148.0964843801539
 20
141.2751908193897
 30
0.0
 10
148.0964843801539
 20
141.2751908193897
 30
0.0
 10
143.8552245303272
 20
127.8027915271048
 30
0.0
 10
143.8552245303272
 20
127.8027915271048
 30
0.0
 10
143.8552245303272
 20
127.8027915271048
 30
0.0
 10
141.486030802177
 20
127.8027915271048
 30
0.0
 10
141.486030802177
 20
127.8027915271048
 30
0.0
 10
141.486030802177
 20
127.8027915271048
 30
0.0
 10
146.3329388378533
 20
143.2092687007094
 30
0.0
 10
146.3329388378533
 20
143.2092687007094
 30
0.0
 10
146.8483254624444
 20
144.8408669988801
 30
0.0
 10
147.2314203331297
 20
146.1837661049335
 30
0.0
 10
147.4867020769946
 20
147.224185627838
 30
0.0
 10
147.9169947869641
 20
149.0197705792876
 30
0.0
 10
148.0306830129768
 20
150.2400242051577
 30
0.0
 10
147.709255392159
 20
151.3157559800812
 30
0.0
 10
147.3874832615654
 20
152.3916600098926
 30
0.0
 10
146.8245542879144
 20
152.6683013598569
 30
0.0
 10
145.8840425999909
 20
152.6683013598569
 30
0.0
 10
145.0989048209514
 20
152.6683013598569
 30
0.0
 10
144.3282364524954
 20
152.3275811915945
 30
0.0
 10
143.4531816219731
 20
151.6538923250251
 30
0.0
 10
142.34627171234
 20
150.8074318058939
 30
0.0
 10
141.901854101563
 20
150.1097995099067
 30
0.0
 10
141.3578731655808
 20
149.289521733736
 30
0.0
 10
140.6299240093235
 20
148.192602607601
 30
0.0
 10
140.2850697237515
 20
147.455696197173
 30
0.0
 10
139.6652966370942
 20
145.8385673095858
 30
0.0
 10
139.0506911970739
 20
144.2214384219986
 30
0.0
 10
138.463991048893
 20
142.3252566160164
 30
0.0
 10
138.0571250036777
 20
141.0154304484394
 30
0.0
 10
138.0571250036777
 20
141.0154304484394
 30
0.0
 10
133.9009590684727
 20
127.8027915271048
 30
0.0
 10
133.9009590684727
 20
127.8027915271048
 30
0.0
 10
133.9009590684727
 20
127.8027915271048
 30
0.0
 10
131.4180771143097
 20
127.8027915271048
 30
0.0
 10
131.4180771143097
 20
127.8027915271048
 30
0.0
 10
131.4180771143097
 20
127.8027915271048
 30
0.0
 10
139.8926730891197
 20
154.8294111834263
 30
0.0
 10
139.8926730891197
 20
154.8294111834263
 30
0.0
  0
HATCH
  5
3C4
330
3BD
100
AcDbEntity
  8
LOGO
 62
   250
420
  2234388
100
AcDbHatch
 10
0.0
 20
0.0
 30
0.0
210
0.0
220
0.0
230
1.0
  2
SOLID
 70
     1
 71
     0
 91
        1
 92
        1
 93
        1
 72
     4
 94
        3
 73
     0
 74
     1
 95
      104
 96
      100
 40
0.0
 40
0.0
 40
0.0
 40
0.0
 40
1.0
 40
1.0
 40
1.0
 40
2.0
 40
2.0
 40
2.0
 40
3.0
 40
3.0
 40
3.0
 40
4.0
 40
4.0
 40
4.0
 40
5.0
 40
5.0
 40
5.0
 40
6.0
 40
6.0
 40
6.0
 40
7.0
 40
7.0
 40
7.0
 40
8.0
 40
8.0
 40
8.0
 40
9.0
 40
9.0
 40
9.0
 40
10.0
 40
10.0
 40
10.0
 40
11.0
 40
11.0
 40
11.0
 40
12.0
 40
12.0
 40
12.0
 40
13.0
 40
13.0
 40
13.0
 40
14.0
 40
14.0
 40
14.0
 40
15.0
 40
15.0
 40
15.0
 40
16.0
 40
16.0
 40
16.0
 40
17.0
 40
17.0
 40
17.0
 40
18.0
 40
18.0
 40
18.0
 40
19.0
 40
19.0
 40
19.0
 40
20.0
 40
20.0
 40
20.0
 40
21.0
 40
21.0
 40
21.0
 40
22.0
 40
22.0
 40
22.0
 40
23.0
 40
23.0
 40
23.0
 40
24.0
 40
24.0
 40
24.0
 40
25.0
 40
25.0
 40
25.0
 40
26.0
 40
26.0
 40
26.0
 40
27.0
 40
27.0
 40
27.0
 40
28.0
 40
28.0
 40
28.0
 40
29.0
 40
29.0
 40
29.0
 40
30.0
 40
30.0
 40
30.0
 40
31.0
 40
31.0
 40
31.0
 40
32.0
 40
32.0
 40
32.0
 40
33.0
 40
33.0
 40
33.0
 40
33.0
 10
139.8926730891197
 20
154.8294111834263
 10
139.8926730891197
 20
154.8294111834263
 10
142.0344903652445
 20
154.8294111834263
 10
142.0344903652445
 20
154.8294111834263
 10
142.0344903652445
 20
154.8294111834263
 10
140.9516961399171
 20
151.3157559800812
 10
140.9516961399171
 20
151.3157559800812
 10
141.8928968473923
 20
152.7887075264977
 10
142.7341897198865
 20
153.4484437471474
 10
143.8552245303272
 20
154.2926649527359
 10
144.9803934580775
 20
155.1296514530327
 10
146.3139908001845
 20
155.3044901642492
 10
147.241066606852
 20
155.3044901642492
 10
148.3855280820469
 20
155.3044901642492
 10
149.4969166187653
 20
155.0752189084569
 10
150.0784491203092
 20
153.8172414621372
 10
150.5228667310863
 20
152.833838307127
 10
150.5414702589793
 20
152.7201500811143
 10
150.4140016419347
 20
150.7765981809602
 10
151.5818897818837
 20
152.7699317437168
 10
152.4424752018226
 20
153.6256940267945
 10
153.9038856707499
 20
154.4507949398263
 10
155.4455669174378
 20
155.3044901642492
 10
156.339225275853
 20
155.3659851592288
 10
157.3748216618963
 20
155.2147453676543
 10
158.911679771723
 20
154.9877134254046
 10
159.8859534176746
 20
154.4390816074493
 10
160.3965169054045
 20
152.7816450760939
 10
160.9070803931344
 20
151.1219692311958
 10
160.6328506116007
 20
150.2303779314354
 10
159.9992971339115
 20
147.597634224801
 10
159.7105979417943
 20
146.4014962832367
 10
159.2947746424084
 20
144.9400858143094
 10
158.7463150793409
 20
143.2092687007094
 10
158.7463150793409
 20
143.2092687007094
 10
153.9038856707499
 20
127.8027915271048
 10
153.9038856707499
 20
127.8027915271048
 10
153.9038856707499
 20
127.8027915271048
 10
151.3882752878863
 20
127.8027915271048
 10
151.3882752878863
 20
127.8027915271048
 10
151.3882752878863
 20
127.8027915271048
 10
155.6250565106276
 20
141.2751908193897
 10
155.6250565106276
 20
141.2751908193897
 10
156.5094131050963
 20
144.0936252951782
 10
157.109893644309
 20
146.1506931664571
 10
157.4220195011804
 20
147.4415712963654
 10
157.8095929989511
 20
149.0530157726519
 10
157.9656559273867
 20
149.5826995529385
 10
157.7816877071116
 20
150.7529992613181
 10
157.6111553680925
 20
151.8430281919372
 10
157.0582171779396
 20
152.5547853887321
 10
156.1170164704645
 20
152.5547853887321
 10
155.1096698860365
 20
152.5547853887321
 10
154.2962823053817
 20
152.4412694176073
 10
153.156643967048
 20
151.2945686288697
 10
152.0170056287143
 20
150.1476955852443
 10
151.076149431015
 20
148.7930831468137
 10
150.3337308641742
 20
147.2290087646991
 10
149.5957909244188
 20
145.6683794803425
 10
148.8530278478023
 20
143.6822806228776
 10
148.0964843801539
 20
141.2751908193897
 10
148.0964843801539
 20
141.2751908193897
 10
143.8552245303272
 20
127.8027915271048
 10
143.8552245303272
 20
127.8027915271048
 10
143.8552245303272
 20
127.8027915271048
 10
141.486030802177
 20
127.8027915271048
 10
141.486030802177
 20
127.8027915271048
 10
141.486030802177
 20
127.8027915271048
 10
146.3329388378533
 20
143.2092687007094
 10
146.3329388378533
 20
143.2092687007094
 10
146.8483254624444
 20
144.8408669988801
 10
147.2314203331297
 20
146.1837661049335
 10
147.4867020769946
 20
147.224185627838
 10
147.9169947869641
 20
149.0197705792876
 10
148.0306830129768
 20
150.2400242051577
 10
147.709255392159
 20
151.3157559800812
 10
147.3874832615654
 20
152.3916600098926
 10
146.8245542879144
 20
152.6683013598569
 10
145.8840425999909
 20
152.6683013598569
 10
145.0989048209514
 20
152.6683013598569
 10
144.3282364524954
 20
152.3275811915945
 10
143.4531816219731
 20
151.6538923250251
 10
142.34627171234
 20
150.8074318058939
 10
141.901854101563
 20
150.1097995099067
 10
141.3578731655808
 20
149.289521733736
 10
140.6299240093235
 20
148.192602607601
 10
140.2850697237515
 20
147.455696197173
 10
139.6652966370942
 20
145.8385673095858
 10
139.0506911970739
 20
144.2214384219986
 10
138.463991048893
 20
142.3252566160164
 10
138.0571250036777
 20
141.0154304484394
 10
138.0571250036777
 20
141.0154304484394
 10
133.9009590684727
 20
127.8027915271048
 10
133.9009590684727
 20
127.8027915271048
 10
133.9009590684727
 20
127.8027915271048
 10
131.4180771143097
 20
127.8027915271048
 10
131.4180771143097
 20
127.8027915271048
 10
131.4180771143097
 20
127.8027915271048
 10
139.8926730891197
 20
154.8294111834263
 10
139.8926730891197
 20
154.8294111834263
 97
        0
 75
     2
 76
     1
 98
        0
  0
SPLINE
  5
3C5
330
3BD
100
AcDbEntity
  8
LOGO
370
     0
100
AcDbSpline
210
0.0
220
0.0
230
1.0
 70
    11
 71
     3
 72
    29
 73
    25
 74
     0
 42
0.000000001
 43
0.0000000001
 40
0.0
 40
0.0
 40
0.0
 40
0.0
 40
1.0
 40
1.0
 40
1.0
 40
2.0
 40
2.0
 40
2.0
 40
3.0
 40
3.0
 40
3.0
 40
4.0
 40
4.0
 40
4.0
 40
5.0
 40
5.0
 40
5.0
 40
6.0
 40
6.0
 40
6.0
 40
7.0
 40
7.0
 40
7.0
 40
8.0
 40
8.0
 40
8.0
 40
8.0
 10
101.6420971922469
 20
132.8388354296931
 30
0.0
 10
101.630039350094
 20
134.7164137077823
 30
0.0
 10
102.2236296937908
 20
138.0598810818841
 30
0.0
 10
103.7487744712405
 20
142.5378191476827
 30
0.0
 10
105.819967243327
 20
148.5896501242061
 30
0.0
 10
107.0602024361932
 20
150.8074318058939
 30
0.0
 10
108.1522984254671
 20
151.8833358357054
 30
0.0
 10
109.741177511439
 20
153.4532668840085
 30
0.0
 10
111.8740375333931
 20
153.5290590346837
 30
0.0
 10
112.5075910110823
 20
153.4532668840085
 30
0.0
 10
113.4012493694975
 20
153.3490526768302
 30
0.0
 10
114.6683563248758
 20
152.7580461564518
 30
0.0
 10
114.7493161221879
 20
150.7838328862519
 30
0.0
 10
114.8106388622796
 20
149.0909118479895
 30
0.0
 10
114.3186789024427
 20
145.9191825971221
 30
0.0
 10
112.6164561002338
 20
140.9489400617108
 30
0.0
 10
110.6444821435766
 20
135.1746117095912
 30
0.0
 10
109.4669477299053
 20
132.8960240524753
 30
0.0
 10
108.5212683953448
 20
131.9072809959403
 30
0.0
 10
106.7346406980658
 20
130.0538184021569
 30
0.0
 10
104.8222669326213
 20
130.2336525051225
 30
0.0
 10
104.5408024457958
 20
130.2336525051225
 30
0.0
 10
104.1721769856939
 20
130.2336525051225
 30
0.0
 10
101.6465758193322
 20
130.6305277668397
 30
0.0
 10
101.6420971922469
 20
132.8388354296931
 30
0.0
  0
SPLINE
  5
3C6
330
3BD
100
AcDbEntity
  8
LOGO
370
     0
100
AcDbSpline
210
0.0
220
0.0
230
1.0
 70
    11
 71
     3
 72
    32
 73
    28
 74
     0
 42
0.000000001
 43
0.0000000001
 40
0.0
 40
0.0
 40
0.0
 40
0.0
 40
1.0
 40
1.0
 40
1.0
 40
2.0
 40
2.0
 40
2.0
 40
3.0
 40
3.0
 40
3.0
 40
4.0
 40
4.0
 40
4.0
 40
5.0
 40
5.0
 40
5.0
 40
6.0
 40
6.0
 40
6.0
 40
7.0
 40
7.0
 40
7.0
 40
8.0
 40
8.0
 40
8.0
 40
9.0
 40
9.0
 40
9.0
 40
9.0
 10
106.2595617172429
 20
153.4105476718098
 30
0.0
 10
104.8222669326213
 20
151.5474388043041
 30
0.0
 10
103.7177685914188
 20
149.8758773721411
 30
0.0
 10
101.9232171692965
 20
144.6141795664062
 30
0.0
 10
100.2754269116635
 20
139.7999999594306
 30
0.0
 10
99.22777268346732
 20
136.3052927937542
 30
0.0
 10
99.06964269637689
 20
132.039572749846
 30
0.0
 10
98.94665270641765
 20
128.8673267343149
 30
0.0
 10
100.8807305877373
 20
127.8027915271048
 30
0.0
 10
103.7129454545577
 20
127.8027915271048
 30
0.0
 10
104.9352661390825
 20
127.8027915271048
 30
0.0
 10
108.0151835347002
 20
127.8827177950895
 30
0.0
 10
110.2045431598849
 20
130.5926316915021
 30
0.0
 10
111.7417457794874
 20
132.4984597712065
 30
0.0
 10
113.155269389579
 20
134.475256864725
 30
0.0
 10
115.0562743324223
 20
140.9489400617108
 30
0.0
 10
116.6361961642235
 20
146.3680788349845
 30
0.0
 10
117.7282921534974
 20
149.8639917848761
 30
0.0
 10
117.6480213757369
 20
151.8595646611754
 30
0.0
 10
117.6480213757369
 20
151.8595646611754
 30
0.0
 10
117.6480213757369
 20
151.8595646611754
 30
0.0
 10
117.6480213757369
 20
151.8595646611754
 30
0.0
 10
117.13229024137
 20
155.18150017429
 30
0.0
 10
114.7162431837115
 20
155.886194920681
 30
0.0
 10
113.3351034925446
 20
155.886194920681
 30
0.0
 10
111.9829026225447
 20
155.886194920681
 30
0.0
 10
108.3414342923792
 20
156.1251124501957
 30
0.0
 10
106.2595617172429
 20
153.4105476718098
 30
0.0
  0
HATCH
  5
3C7
330
3BD
100
AcDbEntity
  8
LOGO
 62
   250
420
  2234388
100
AcDbHatch
 10
0.0
 20
0.0
 30
0.0
210
0.0
220
0.0
230
1.0
  2
SOLID
 70
     1
 71
     0
 91
        2
 92
        1
 93
        1
 72
     4
 94
        3
 73
     0
 74
     1
 95
       29
 96
       25
 40
0.0
 40
0.0
 40
0.0
 40
0.0
 40
1.0
 40
1.0
 40
1.0
 40
2.0
 40
2.0
 40
2.0
 40
3.0
 40
3.0
 40
3.0
 40
4.0
 40
4.0
 40
4.0
 40
5.0
 40
5.0
 40
5.0
 40
6.0
 40
6.0
 40
6.0
 40
7.0
 40
7.0
 40
7.0
 40
8.0
 40
8.0
 40
8.0
 40
8.0
 10
101.6420971922469
 20
132.8388354296931
 10
101.630039350094
 20
134.7164137077823
 10
102.2236296937908
 20
138.0598810818841
 10
103.7487744712405
 20
142.5378191476827
 10
105.819967243327
 20
148.5896501242061
 10
107.0602024361932
 20
150.8074318058939
 10
108.1522984254671
 20
151.8833358357054
 10
109.741177511439
 20
153.4532668840085
 10
111.8740375333931
 20
153.5290590346837
 10
112.5075910110823
 20
153.4532668840085
 10
113.4012493694975
 20
153.3490526768302
 10
114.6683563248758
 20
152.7580461564518
 10
114.7493161221879
 20
150.7838328862519
 10
114.8106388622796
 20
149.0909118479895
 10
114.3186789024427
 20
145.9191825971221
 10
112.6164561002338
 20
140.9489400617108
 10
110.6444821435766
 20
135.1746117095912
 10
109.4669477299053
 20
132.8960240524753
 10
108.5212683953448
 20
131.9072809959403
 10
106.7346406980658
 20
130.0538184021569
 10
104.8222669326213
 20
130.2336525051225
 10
104.5408024457958
 20
130.2336525051225
 10
104.1721769856939
 20
130.2336525051225
 10
101.6465758193322
 20
130.6305277668397
 10
101.6420971922469
 20
132.8388354296931
 97
        0
 92
        1
 93
        1
 72
     4
 94
        3
 73
     0
 74
     1
 95
       32
 96
       28
 40
0.0
 40
0.0
 40
0.0
 40
0.0
 40
1.0
 40
1.0
 40
1.0
 40
2.0
 40
2.0
 40
2.0
 40
3.0
 40
3.0
 40
3.0
 40
4.0
 40
4.0
 40
4.0
 40
5.0
 40
5.0
 40
5.0
 40
6.0
 40
6.0
 40
6.0
 40
7.0
 40
7.0
 40
7.0
 40
8.0
 40
8.0
 40
8.0
 40
9.0
 40
9.0
 40
9.0
 40
9.0
 10
106.2595617172429
 20
153.4105476718098
 10
104.8222669326213
 20
151.5474388043041
 10
103.7177685914188
 20
149.8758773721411
 10
101.9232171692965
 20
144.6141795664062
 10
100.2754269116635
 20
139.7999999594306
 10
99.22777268346732
 20
136.3052927937542
 10
99.06964269637689
 20
132.039572749846
 10
98.94665270641765
 20
128.8673267343149
 10
100.8807305877373
 20
127.8027915271048
 10
103.7129454545577
 20
127.8027915271048
 10
104.9352661390825
 20
127.8027915271048
 10
108.0151835347002
 20
127.8827177950895
 10
110.2045431598849
 20
130.5926316915021
 10
111.7417457794874
 20
132.4984597712065
 10
113.155269389579
 20
134.475256864725
 10
115.0562743324223
 20
140.9489400617108
 10
116.6361961642235
 20
146.3680788349845
 10
117.7282921534974
 20
149.8639917848761
 10
117.6480213757369
 20
151.8595646611754
 10
117.6480213757369
 20
151.8595646611754
 10
117.6480213757369
 20
151.8595646611754
 10
117.6480213757369
 20
151.8595646611754
 10
117.13229024137
 20
155.18150017429
 10
114.7162431837115
 20
155.886194920681
 10
113.3351034925446
 20
155.886194920681
 10
111.9829026225447
 20
155.886194920681
 10
108.3414342923792
 20
156.1251124501957
 10
106.2595617172429
 20
153.4105476718098
 97
        0
 75
     2
 76
     1
 98
        0
  0
ENDBLK
  5
3C8
330
3BD
100
AcDbEntity
  8
0
100
AcDbBlockEnd
  0
BLOCK
  5
11E0
330
11DF
100
AcDbEntity
  8
0
100
AcDbBlockBegin
  2
*D6
 70
     1
 10
0.0
 20
0.0
 30
0.0
  3
*D6
  1

  0
LINE
  5
11E2
330
11DF
100
AcDbEntity
  8
DIM
  6
Continuous
 62
     0
370
    -2
100
AcDbLine
 10
7336.31263966358
 20
4467.648383056114
 30
0.0
 11
7336.31263966358
 21
5091.561366040507
 31
0.0
  0
LINE
  5
11E3
330
11DF
100
AcDbEntity
  8
DIM
  6
Continuous
 62
     0
370
    -2
100
AcDbLine
 10
6686.304057491027
 20
4528.934609226861
 30
0.0
 11
6686.304057491027
 21
5091.561366040507
 31
0.0
  0
LINE
  5
11E4
330
11DF
100
AcDbEntity
  8
DIM
  6
Continuous
 62
     0
370
    -2
100
AcDbLine
 10
7318.31263966358
 20
5091.561366040507
 30
0.0
 11
6704.304057491027
 21
5091.561366040507
 31
0.0
  0
INSERT
  5
11E5
330
11DF
100
AcDbEntity
  8
DIM
 62
     0
370
    -2
100
AcDbBlockReference
  2
_DOT
 10
7336.31263966358
 20
5091.561366040507
 30
0.0
 41
18.0
 42
18.0
 43
18.0
  0
INSERT
  5
11E6
330
11DF
100
AcDbEntity
  8
DIM
 62
     0
370
    -2
100
AcDbBlockReference
  2
_DOT
 10
6686.304057491027
 20
5091.561366040507
 30
0.0
 41
18.0
 42
18.0
 43
18.0
 50
180.0
  0
MTEXT
  5
11E7
330
11DF
100
AcDbEntity
  8
DIM
  6
Continuous
 62
     0
100
AcDbMText
 10
7011.308348577304
 20
5125.561366040507
 30
0.0
 40
48.0
 41
0.0
 46
0.0
 71
     5
 72
     1
  1
\A1;650
  7
ＭＳ ゴシック
 73
     1
 44
1.0
  0
POINT
  5
11E8
330
11DF
100
AcDbEntity
  8
Defpoints
 62
     0
100
AcDbPoint
 10
7336.31263966358
 20
4442.648383056114
 30
0.0
  0
POINT
  5
11E9
330
11DF
100
AcDbEntity
  8
Defpoints
 62
     0
100
AcDbPoint
 10
6686.304057491027
 20
4503.934609226861
 30
0.0
  0
POINT
  5
11EA
330
11DF
100
AcDbEntity
  8
Defpoints
 62
     0
100
AcDbPoint
 10
6686.304057491027
 20
5091.561366040507
 30
0.0
  0
ENDBLK
  5
11E1
330
11DF
100
AcDbEntity
  8
0
100
AcDbBlockEnd
  0
BLOCK
  5
11EF
330
11EE
100
AcDbEntity
  8
0
100
AcDbBlockBegin
  2
*D7
 70
     1
 10
0.0
 20
0.0
 30
0.0
  3
*D7
  1

  0
LINE
  5
11F1
330
11EE
100
AcDbEntity
  8
DIM
  6
Continuous
 62
     0
370
    -2
100
AcDbLine
 10
7103.377532256711
 20
4950.84409401777
 30
0.0
 11
6286.274349949818
 21
4950.84409401777
 31
0.0
  0
LINE
  5
11F2
330
11EE
100
AcDbEntity
  8
DIM
  6
Continuous
 62
     0
370
    -2
100
AcDbLine
 10
7103.377532256711
 20
3650.855536938914
 30
0.0
 11
6286.274349949818
 21
3650.855536938915
 31
0.0
  0
LINE
  5
11F3
330
11EE
100
AcDbEntity
  8
DIM
  6
Continuous
 62
     0
370
    -2
100
AcDbLine
 10
6286.274349949818
 20
4932.84409401777
 30
0.0
 11
6286.274349949818
 21
3668.855536938915
 31
0.0
  0
INSERT
  5
11F4
330
11EE
100
AcDbEntity
  8
DIM
 62
     0
370
    -2
100
AcDbBlockReference
  2
_DOT
 10
6286.274349949818
 20
4950.84409401777
 30
0.0
 41
18.0
 42
18.0
 43
18.0
 50
90.0
  0
INSERT
  5
11F5
330
11EE
100
AcDbEntity
  8
DIM
 62
     0
370
    -2
100
AcDbBlockReference
  2
_DOT
 10
6286.274349949818
 20
3650.855536938915
 30
0.0
 41
18.0
 42
18.0
 43
18.0
 50
270.0
  0
MTEXT
  5
11F6
330
11EE
100
AcDbEntity
  8
DIM
  6
Continuous
 62
     0
100
AcDbMText
 10
6252.274349949818
 20
4300.849815478342
 30
0.0
 40
48.0
 41
0.0
 46
0.0
 71
     5
 72
     1
  1
\A1;1300
  7
ＭＳ ゴシック
 11
0.0
 21
1.0
 31
0.0
 73
     1
 44
1.0
  0
POINT
  5
11F7
330
11EE
100
AcDbEntity
  8
Defpoints
 62
     0
100
AcDbPoint
 10
7128.377532256711
 20
4950.84409401777
 30
0.0
  0
POINT
  5
11F8
330
11EE
100
AcDbEntity
  8
Defpoints
 62
     0
100
AcDbPoint
 10
7128.377532256711
 20
3650.855536938914
 30
0.0
  0
POINT
  5
11F9
330
11EE
100
AcDbEntity
  8
Defpoints
 62
     0
100
AcDbPoint
 10
6286.274349949818
 20
3650.855536938915
 30
0.0
  0
ENDBLK
  5
11F0
330
11EE
100
AcDbEntity
  8
0
100
AcDbBlockEnd
  0
BLOCK
  5
11FE
330
11FD
100
AcDbEntity
  8
0
100
AcDbBlockBegin
  2
*D8
 70
     1
 10
0.0
 20
0.0
 30
0.0
  3
*D8
  1

  0
LINE
  5
1200
330
11FD
100
AcDbEntity
  8
DIM
  6
Continuous
 62
     0
370
    -2
100
AcDbLine
 10
7986.304057476382
 20
4094.70574488645
 30
0.0
 11
7986.304057476382
 21
3249.987636496717
 31
0.0
  0
LINE
  5
1201
330
11FD
100
AcDbEntity
  8
DIM
  6
Continuous
 62
     0
370
    -2
100
AcDbLine
 10
6686.304057491027
 20
4094.705744886451
 30
0.0
 11
6686.304057491027
 21
3249.987636496717
 31
0.0
  0
LINE
  5
1202
330
11FD
100
AcDbEntity
  8
DIM
  6
Continuous
 62
     0
370
    -2
100
AcDbLine
 10
7968.304057476382
 20
3249.987636496717
 30
0.0
 11
6704.304057491027
 21
3249.987636496717
 31
0.0
  0
INSERT
  5
1203
330
11FD
100
AcDbEntity
  8
DIM
 62
     0
370
    -2
100
AcDbBlockReference
  2
_DOT
 10
7986.304057476382
 20
3249.987636496717
 30
0.0
 41
18.0
 42
18.0
 43
18.0
  0
INSERT
  5
1204
330
11FD
100
AcDbEntity
  8
DIM
 62
     0
370
    -2
100
AcDbBlockReference
  2
_DOT
 10
6686.304057491027
 20
3249.987636496717
 30
0.0
 41
18.0
 42
18.0
 43
18.0
 50
180.0
  0
MTEXT
  5
1205
330
11FD
100
AcDbEntity
  8
DIM
  6
Continuous
 62
     0
100
AcDbMText
 10
7336.304057483705
 20
3283.987636496717
 30
0.0
 40
48.0
 41
0.0
 46
0.0
 71
     5
 72
     1
  1
\A1;1300
  7
ＭＳ ゴシック
 73
     1
 44
1.0
  0
POINT
  5
1206
330
11FD
100
AcDbEntity
  8
Defpoints
 62
     0
100
AcDbPoint
 10
7986.304057476382
 20
4119.70574488645
 30
0.0
  0
POINT
  5
1207
330
11FD
100
AcDbEntity
  8
Defpoints
 62
     0
100
AcDbPoint
 10
6686.304057491027
 20
4119.705744886451
 30
0.0
  0
POINT
  5
1208
330
11FD
100
AcDbEntity
  8
Defpoints
 62
     0
100
AcDbPoint
 10
6686.304057491027
 20
3249.987636496717
 30
0.0
  0
ENDBLK
  5
11FF
330
11FD
100
AcDbEntity
  8
0
100
AcDbBlockEnd
  0
BLOCK
  5
120B
330
120A
100
AcDbEntity
  8
0
100
AcDbBlockBegin
  2
*D9
 70
     1
 10
0.0
 20
0.0
 30
0.0
  3
*D9
  1

  0
LINE
  5
120D
330
120A
100
AcDbEntity
  8
DIM
  6
Continuous
 62
     0
370
    -2
100
AcDbLine
 10
6786.764194364669
 20
4089.586819436225
 30
0.0
 11
6786.764194364669
 21
3429.623115174919
 31
0.0
  0
LINE
  5
120E
330
120A
100
AcDbEntity
  8
DIM
  6
Continuous
 62
     0
370
    -2
100
AcDbLine
 10
7886.764194364669
 20
4089.586819436224
 30
0.0
 11
7886.764194364669
 21
3429.623115174919
 31
0.0
  0
LINE
  5
120F
330
120A
100
AcDbEntity
  8
DIM
  6
Continuous
 62
     0
370
    -2
100
AcDbLine
 10
6804.764194364669
 20
3429.623115174919
 30
0.0
 11
7868.764194364669
 21
3429.623115174919
 31
0.0
  0
INSERT
  5
1210
330
120A
100
AcDbEntity
  8
DIM
 62
     0
370
    -2
100
AcDbBlockReference
  2
_DOT
 10
6786.764194364669
 20
3429.623115174919
 30
0.0
 41
18.0
 42
18.0
 43
18.0
 50
180.0
  0
INSERT
  5
1211
330
120A
100
AcDbEntity
  8
DIM
 62
     0
370
    -2
100
AcDbBlockReference
  2
_DOT
 10
7886.764194364669
 20
3429.623115174919
 30
0.0
 41
18.0
 42
18.0
 43
18.0
  0
MTEXT
  5
1212
330
120A
100
AcDbEntity
  8
DIM
  6
Continuous
 62
     0
100
AcDbMText
 10
7336.764194364669
 20
3463.623115174919
 30
0.0
 40
48.0
 41
0.0
 46
0.0
 71
     5
 72
     1
  1
\A1;1100
  7
ＭＳ ゴシック
 73
     1
 44
1.0
  0
POINT
  5
1213
330
120A
100
AcDbEntity
  8
Defpoints
 62
     0
100
AcDbPoint
 10
6786.764194364669
 20
4114.586819436225
 30
0.0
  0
POINT
  5
1214
330
120A
100
AcDbEntity
  8
Defpoints
 62
     0
100
AcDbPoint
 10
7886.764194364669
 20
4114.586819436224
 30
0.0
  0
POINT
  5
1215
330
120A
100
AcDbEntity
  8
Defpoints
 62
     0
100
AcDbPoint
 10
7886.764194364669
 20
3429.623115174919
 30
0.0
  0
ENDBLK
  5
120C
330
120A
100
AcDbEntity
  8
0
100
AcDbBlockEnd
  0
BLOCK
  5
1218
330
1217
100
AcDbEntity
  8
0
100
AcDbBlockBegin
  2
*D10
 70
     1
 10
0.0
 20
0.0
 30
0.0
  3
*D10
  1

  0
LINE
  5
121A
330
1217
100
AcDbEntity
  8
DIM
  6
Continuous
 62
     0
370
    -2
100
AcDbLine
 10
7501.539737344816
 20
4850.415425137006
 30
0.0
 11
8190.920403841938
 21
4850.415425137006
 31
0.0
  0
LINE
  5
121B
330
1217
100
AcDbEntity
  8
DIM
  6
Continuous
 62
     0
370
    -2
100
AcDbLine
 10
7501.539737344816
 20
3750.415425137006
 30
0.0
 11
8190.920403841938
 21
3750.415425137006
 31
0.0
  0
LINE
  5
121C
330
1217
100
AcDbEntity
  8
DIM
  6
Continuous
 62
     0
370
    -2
100
AcDbLine
 10
8190.920403841938
 20
4832.415425137006
 30
0.0
 11
8190.920403841938
 21
3768.415425137006
 31
0.0
  0
INSERT
  5
121D
330
1217
100
AcDbEntity
  8
DIM
 62
     0
370
    -2
100
AcDbBlockReference
  2
_DOT
 10
8190.920403841938
 20
4850.415425137006
 30
0.0
 41
18.0
 42
18.0
 43
18.0
 50
90.0
  0
INSERT
  5
121E
330
1217
100
AcDbEntity
  8
DIM
 62
     0
370
    -2
100
AcDbBlockReference
  2
_DOT
 10
8190.920403841938
 20
3750.415425137006
 30
0.0
 41
18.0
 42
18.0
 43
18.0
 50
270.0
  0
MTEXT
  5
121F
330
1217
100
AcDbEntity
  8
DIM
  6
Continuous
 62
     0
100
AcDbMText
 10
8156.920403841938
 20
4300.415425137006
 30
0.0
 40
48.0
 41
0.0
 46
0.0
 71
     5
 72
     1
  1
\A1;1100
  7
ＭＳ ゴシック
 11
0.0
 21
1.0
 31
0.0
 73
     1
 44
1.0
  0
POINT
  5
1220
330
1217
100
AcDbEntity
  8
Defpoints
 62
     0
100
AcDbPoint
 10
7476.539737344816
 20
4850.415425137006
 30
0.0
  0
POINT
  5
1221
330
1217
100
AcDbEntity
  8
Defpoints
 62
     0
100
AcDbPoint
 10
7476.539737344816
 20
3750.415425137006
 30
0.0
  0
POINT
  5
1222
330
1217
100
AcDbEntity
  8
Defpoints
 62
     0
100
AcDbPoint
 10
8190.920403841938
 20
3750.415425137006
 30
0.0
  0
ENDBLK
  5
1219
330
1217
100
AcDbEntity
  8
0
100
AcDbBlockEnd
  0
BLOCK
  5
1225
330
1224
100
AcDbEntity
  8
0
100
AcDbBlockBegin
  2
*D11
 70
     1
 10
0.0
 20
0.0
 30
0.0
  3
*D11
  1

  0
LINE
  5
1227
330
1224
100
AcDbEntity
  8
DIM
  6
Continuous
 62
     0
370
    -2
100
AcDbLine
 10
3369.672170856041
 20
4269.809919472787
 30
0.0
 11
3546.556210006741
 21
4269.809919472787
 31
0.0
  0
LINE
  5
1228
330
1224
100
AcDbEntity
  8
DIM
  6
Continuous
 62
     0
370
    -2
100
AcDbLine
 10
3369.672170856041
 20
4719.847989137412
 30
0.0
 11
3546.556210006741
 21
4719.847989137412
 31
0.0
  0
LINE
  5
1229
330
1224
100
AcDbEntity
  8
DIM
  6
Continuous
 62
     0
370
    -2
100
AcDbLine
 10
3546.556210006741
 20
4289.809919472787
 30
0.0
 11
3546.556210006741
 21
4699.847989137412
 31
0.0
  0
INSERT
  5
122A
330
1224
100
AcDbEntity
  8
DIM
 62
     0
370
    -2
100
AcDbBlockReference
  2
_DOT
 10
3546.556210006741
 20
4269.809919472787
 30
0.0
 41
20.0
 42
20.0
 43
20.0
 50
270.0
  0
INSERT
  5
122B
330
1224
100
AcDbEntity
  8
DIM
 62
     0
370
    -2
100
AcDbBlockReference
  2
_DOT
 10
3546.556210006741
 20
4719.847989137412
 30
0.0
 41
20.0
 42
20.0
 43
20.0
 50
90.0
  0
MTEXT
  5
122C
330
1224
100
AcDbEntity
  8
DIM
  6
Continuous
 62
     0
100
AcDbMText
 10
3502.056210006741
 20
4494.8289543051
 30
0.0
 40
49.0
 41
0.0
 46
0.0
 71
     5
 72
     1
  1
\A1;450
  7
ＭＳ ゴシック
 11
0.0
 21
1.0
 31
0.0
 73
     1
 44
1.0
  0
POINT
  5
122D
330
1224
100
AcDbEntity
  8
Defpoints
 62
     0
100
AcDbPoint
 10
3344.672170856041
 20
4269.809919472787
 30
0.0
  0
POINT
  5
122E
330
1224
100
AcDbEntity
  8
Defpoints
 62
     0
100
AcDbPoint
 10
3344.672170856041
 20
4719.847989137412
 30
0.0
  0
POINT
  5
122F
330
1224
100
AcDbEntity
  8
Defpoints
 62
     0
100
AcDbPoint
 10
3546.556210006741
 20
4719.847989137412
 30
0.0
  0
ENDBLK
  5
1226
330
1224
100
AcDbEntity
  8
0
100
AcDbBlockEnd
  0
BLOCK
  5
1234
330
1233
100
AcDbEntity
  8
0
100
AcDbBlockBegin
  2
*D12
 70
     1
 10
0.0
 20
0.0
 30
0.0
  3
*D12
  1

  0
LINE
  5
1236
330
1233
100
AcDbEntity
  8
DIM
  6
Continuous
 62
     0
370
    -2
100
AcDbLine
 10
9594.683733838145
 20
3841.303682651941
 30
0.0
 11
8709.458244034038
 21
3841.303682651941
 31
0.0
  0
LINE
  5
1237
330
1233
100
AcDbEntity
  8
DIM
  6
Continuous
 62
     0
370
    -2
100
AcDbLine
 10
8777.860460735981
 20
3941.303242539026
 30
0.0
 11
8709.458244034038
 21
3941.303242539026
 31
0.0
  0
LINE
  5
1238
330
1233
100
AcDbEntity
  8
DIM
  6
Continuous
 62
     0
370
    -2
100
AcDbLine
 10
8709.458244034038
 20
3861.303682651941
 30
0.0
 11
8709.458244034038
 21
3921.303242539026
 31
0.0
  0
INSERT
  5
1239
330
1233
100
AcDbEntity
  8
DIM
 62
     0
370
    -2
100
AcDbBlockReference
  2
_DOT
 10
8709.458244034038
 20
3841.303682651941
 30
0.0
 41
20.0
 42
20.0
 43
20.0
 50
270.0
  0
INSERT
  5
123A
330
1233
100
AcDbEntity
  8
DIM
 62
     0
370
    -2
100
AcDbBlockReference
  2
_DOT
 10
8709.458244034038
 20
3941.303242539026
 30
0.0
 41
20.0
 42
20.0
 43
20.0
 50
90.0
  0
MTEXT
  5
123B
330
1233
100
AcDbEntity
  8
DIM
  6
Continuous
 62
     0
100
AcDbMText
 10
8664.958244034038
 20
3891.303462595483
 30
0.0
 40
49.0
 41
0.0
 46
0.0
 71
     5
 72
     1
  1
\A1;100
  7
ＭＳ ゴシック
 11
0.0
 21
1.0
 31
0.0
 73
     1
 44
1.0
  0
POINT
  5
123C
330
1233
100
AcDbEntity
  8
Defpoints
 62
     0
100
AcDbPoint
 10
9619.683733838145
 20
3841.303682651941
 30
0.0
  0
POINT
  5
123D
330
1233
100
AcDbEntity
  8
Defpoints
 62
     0
100
AcDbPoint
 10
8802.860460735981
 20
3941.303242539026
 30
0.0
  0
POINT
  5
123E
330
1233
100
AcDbEntity
  8
Defpoints
 62
     0
100
AcDbPoint
 10
8709.458244034038
 20
3941.303242539026
 30
0.0
  0
ENDBLK
  5
1235
330
1233
100
AcDbEntity
  8
0
100
AcDbBlockEnd
  0
BLOCK
  5
1262
330
1261
100
AcDbEntity
  8
0
100
AcDbBlockBegin
  2
*D13
 70
     1
 10
0.0
 20
0.0
 30
0.0
  3
*D13
  1

  0
LINE
  5
1264
330
1261
100
AcDbEntity
  8
DIM
  6
Continuous
 62
     0
370
    -2
100
AcDbLine
 10
7310.308634646603
 20
4275.852676204966
 30
0.0
 11
7310.308634646603
 21
4138.173774252193
 31
0.0
  0
LINE
  5
1265
330
1261
100
AcDbEntity
  8
DIM
  6
Continuous
 62
     0
370
    -2
100
AcDbLine
 10
7362.299480320815
 20
4275.852676204966
 30
0.0
 11
7362.299480320815
 21
4138.173774252193
 31
0.0
  0
LINE
  5
1266
330
1261
100
AcDbEntity
  8
DIM
  6
Continuous
 62
     0
370
    -2
100
AcDbLine
 10
7362.299480320815
 20
4138.173774252193
 30
0.0
 11
7507.243480320814
 21
4138.173774252193
 31
0.0
  0
LINE
  5
1267
330
1261
100
AcDbEntity
  8
DIM
  6
Continuous
 62
     0
370
    -2
100
AcDbLine
 10
7328.308634646603
 20
4138.173774252193
 30
0.0
 11
7344.299480320815
 21
4138.173774252193
 31
0.0
  0
LINE
  5
1268
330
1261
100
AcDbEntity
  8
DIM
  6
Continuous
 62
     0
370
    -2
100
AcDbLine
 10
7344.299480320815
 20
4138.173774252193
 30
0.0
 11
7326.299480320815
 21
4138.173774252193
 31
0.0
  0
INSERT
  5
1269
330
1261
100
AcDbEntity
  8
DIM
 62
     0
370
    -2
100
AcDbBlockReference
  2
_DOT
 10
7310.308634646603
 20
4138.173774252193
 30
0.0
 41
18.0
 42
18.0
 43
18.0
 50
180.0
  0
INSERT
  5
126A
330
1261
100
AcDbEntity
  8
DIM
 62
     0
370
    -2
100
AcDbBlockReference
  2
_DOT
 10
7362.299480320815
 20
4138.173774252193
 30
0.0
 41
18.0
 42
18.0
 43
18.0
  0
MTEXT
  5
126B
330
1261
100
AcDbEntity
  8
DIM
  6
Continuous
 62
     0
100
AcDbMText
 10
7452.771480320815
 20
4172.173774252193
 30
0.0
 40
48.0
 41
0.0
 46
0.0
 71
     5
 72
     1
  1
\A1;%%c52
  7
ＭＳ ゴシック
 73
     1
 44
1.0
  0
POINT
  5
126C
330
1261
100
AcDbEntity
  8
Defpoints
 62
     0
100
AcDbPoint
 10
7310.308634646603
 20
4300.852676204966
 30
0.0
  0
POINT
  5
126D
330
1261
100
AcDbEntity
  8
Defpoints
 62
     0
100
AcDbPoint
 10
7362.299480320815
 20
4300.852676204966
 30
0.0
  0
POINT
  5
1273
330
1261
100
AcDbEntity
  8
Defpoints
 62
     0
100
AcDbPoint
 10
7362.299480320815
 20
4138.173774252193
 30
0.0
  0
ENDBLK
  5
1263
330
1261
100
AcDbEntity
  8
0
100
AcDbBlockEnd
  0
BLOCK
  5
128E
330
128D
100
AcDbEntity
  8
0
100
AcDbBlockBegin
  2
*D14
 70
     1
 10
0.0
 20
0.0
 30
0.0
  3
*D14
  1

  0
LINE
  5
1290
330
128D
100
AcDbEntity
  8
DIM
  6
Continuous
 62
     0
370
    -2
100
AcDbLine
 10
3267.122840570061
 20
3902.3289543051
 30
0.0
 11
3717.734206087944
 21
3902.3289543051
 31
0.0
  0
LINE
  5
1291
330
128D
100
AcDbEntity
  8
DIM
  6
Continuous
 62
     0
370
    -2
100
AcDbLine
 10
3267.122840570061
 20
5087.3289543051
 30
0.0
 11
3717.734206087945
 21
5087.3289543051
 31
0.0
  0
LINE
  5
1292
330
128D
100
AcDbEntity
  8
DIM
  6
Continuous
 62
     0
370
    -2
100
AcDbLine
 10
3717.734206087944
 20
3922.3289543051
 30
0.0
 11
3717.734206087945
 21
5067.3289543051
 31
0.0
  0
INSERT
  5
1293
330
128D
100
AcDbEntity
  8
DIM
 62
     0
370
    -2
100
AcDbBlockReference
  2
_DOT
 10
3717.734206087944
 20
3902.3289543051
 30
0.0
 41
20.0
 42
20.0
 43
20.0
 50
270.0
  0
INSERT
  5
1294
330
128D
100
AcDbEntity
  8
DIM
 62
     0
370
    -2
100
AcDbBlockReference
  2
_DOT
 10
3717.734206087945
 20
5087.3289543051
 30
0.0
 41
20.0
 42
20.0
 43
20.0
 50
89.99999999999999
  0
MTEXT
  5
1295
330
128D
100
AcDbEntity
  8
DIM
  6
Continuous
 62
     0
100
AcDbMText
 10
3673.234206087945
 20
4494.8289543051
 30
0.0
 40
49.0
 41
0.0
 46
0.0
 71
     5
 72
     1
  1
\A1;1185
  7
ＭＳ ゴシック
 11
3.837530387227545E-16
 21
1.0
 31
0.0
 73
     1
 44
1.0
  0
POINT
  5
1296
330
128D
100
AcDbEntity
  8
Defpoints
 62
     0
100
AcDbPoint
 10
3242.122840570061
 20
3902.3289543051
 30
0.0
  0
POINT
  5
1297
330
128D
100
AcDbEntity
  8
Defpoints
 62
     0
100
AcDbPoint
 10
3242.122840570061
 20
5087.3289543051
 30
0.0
  0
POINT
  5
1298
330
128D
100
AcDbEntity
  8
Defpoints
 62
     0
100
AcDbPoint
 10
3717.734206087945
 20
5087.3289543051
 30
0.0
  0
ENDBLK
  5
128F
330
128D
100
AcDbEntity
  8
0
100
AcDbBlockEnd
  0
BLOCK
  5
129C
330
129B
100
AcDbEntity
  8
0
100
AcDbBlockBegin
  2
*D15
 70
     1
 10
0.0
 20
0.0
 30
0.0
  3
*D15
  1

  0
LINE
  5
129E
330
129B
100
AcDbEntity
  8
DIM
  6
Continuous
 62
     0
370
    -2
100
AcDbLine
 10
9151.981147836426
 20
4514.527171416642
 30
0.0
 11
8709.458244034038
 21
4514.527171416642
 31
0.0
  0
LINE
  5
129F
330
129B
100
AcDbEntity
  8
DIM
  6
Continuous
 62
     0
370
    -2
100
AcDbLine
 10
8777.860460735981
 20
3969.527171416642
 30
0.0
 11
8709.458244034038
 21
3969.527171416642
 31
0.0
  0
LINE
  5
12A0
330
129B
100
AcDbEntity
  8
DIM
  6
Continuous
 62
     0
370
    -2
100
AcDbLine
 10
8709.458244034038
 20
4494.527171416642
 30
0.0
 11
8709.458244034038
 21
3989.527171416642
 31
0.0
  0
INSERT
  5
12A1
330
129B
100
AcDbEntity
  8
DIM
 62
     0
370
    -2
100
AcDbBlockReference
  2
_DOT
 10
8709.458244034038
 20
4514.527171416642
 30
0.0
 41
20.0
 42
20.0
 43
20.0
 50
90.0
  0
INSERT
  5
12A2
330
129B
100
AcDbEntity
  8
DIM
 62
     0
370
    -2
100
AcDbBlockReference
  2
_DOT
 10
8709.458244034038
 20
3969.527171416642
 30
0.0
 41
20.0
 42
20.0
 43
20.0
 50
270.0
  0
MTEXT
  5
12A3
330
129B
100
AcDbEntity
  8
DIM
  6
Continuous
 62
     0
100
AcDbMText
 10
8664.958244034038
 20
4242.027171416642
 30
0.0
 40
49.0
 41
0.0
 46
0.0
 71
     5
 72
     1
  1
\A1;545
  7
ＭＳ ゴシック
 11
0.0
 21
1.0
 31
0.0
 73
     1
 44
1.0
  0
POINT
  5
12A4
330
129B
100
AcDbEntity
  8
Defpoints
 62
     0
100
AcDbPoint
 10
9176.981147836426
 20
4514.527171416642
 30
0.0
  0
POINT
  5
12A5
330
129B
100
AcDbEntity
  8
Defpoints
 62
     0
100
AcDbPoint
 10
8802.860460735981
 20
3969.527171416642
 30
0.0
  0
POINT
  5
12A6
330
129B
100
AcDbEntity
  8
Defpoints
 62
     0
100
AcDbPoint
 10
8709.458244034038
 20
3969.527171416642
 30
0.0
  0
ENDBLK
  5
129D
330
129B
100
AcDbEntity
  8
0
100
AcDbBlockEnd
  0
BLOCK
  5
12AB
330
12AA
100
AcDbEntity
  8
0
100
AcDbBlockBegin
  2
*D16
 70
     1
 10
0.0
 20
0.0
 30
0.0
  3
*D16
  1

  0
LINE
  5
12AD
330
12AA
100
AcDbEntity
  8
DIM
  6
Continuous
 62
     0
370
    -2
100
AcDbLine
 10
9151.981147836426
 20
4514.527171416642
 30
0.0
 11
8967.889271676506
 21
4514.527171416642
 31
0.0
  0
LINE
  5
12AE
330
12AA
100
AcDbEntity
  8
DIM
  6
Continuous
 62
     0
370
    -2
100
AcDbLine
 10
9437.858176258465
 20
4014.527171416642
 30
0.0
 11
8967.889271676506
 21
4014.527171416642
 31
0.0
  0
LINE
  5
12AF
330
12AA
100
AcDbEntity
  8
DIM
  6
Continuous
 62
     0
370
    -2
100
AcDbLine
 10
8967.889271676506
 20
4494.527171416642
 30
0.0
 11
8967.889271676506
 21
4034.527171416642
 31
0.0
  0
INSERT
  5
12B0
330
12AA
100
AcDbEntity
  8
DIM
 62
     0
370
    -2
100
AcDbBlockReference
  2
_DOT
 10
8967.889271676506
 20
4514.527171416642
 30
0.0
 41
20.0
 42
20.0
 43
20.0
 50
90.0
  0
INSERT
  5
12B1
330
12AA
100
AcDbEntity
  8
DIM
 62
     0
370
    -2
100
AcDbBlockReference
  2
_DOT
 10
8967.889271676506
 20
4014.527171416642
 30
0.0
 41
20.0
 42
20.0
 43
20.0
 50
270.0
  0
MTEXT
  5
12B2
330
12AA
100
AcDbEntity
  8
DIM
  6
Continuous
 62
     0
100
AcDbMText
 10
8923.389271676506
 20
4264.527171416642
 30
0.0
 40
49.0
 41
0.0
 46
0.0
 71
     5
 72
     1
  1
\A1;500
  7
ＭＳ ゴシック
 11
0.0
 21
1.0
 31
0.0
 73
     1
 44
1.0
  0
POINT
  5
12B3
330
12AA
100
AcDbEntity
  8
Defpoints
 62
     0
100
AcDbPoint
 10
9176.981147836426
 20
4514.527171416642
 30
0.0
  0
POINT
  5
12B4
330
12AA
100
AcDbEntity
  8
Defpoints
 62
     0
100
AcDbPoint
 10
9462.858176258465
 20
4014.527171416642
 30
0.0
  0
POINT
  5
12B5
330
12AA
100
AcDbEntity
  8
Defpoints
 62
     0
100
AcDbPoint
 10
8967.889271676506
 20
4014.527171416642
 30
0.0
  0
ENDBLK
  5
12AC
330
12AA
100
AcDbEntity
  8
0
100
AcDbBlockEnd
  0
BLOCK
  5
12FF
330
12FE
100
AcDbEntity
  8
0
100
AcDbBlockBegin
  2
*D17
 70
     1
 10
0.0
 20
0.0
 30
0.0
  3
*D17
  1
*D231
  0
LINE
  5
1300
330
12FE
100
AcDbEntity
  8
DIM
  6
Continuous
 62
     0
370
    -2
100
AcDbLine
 10
39.36800585937427
 20
119.4995949166278
 30
0.0
 11
39.36800585937439
 21
464.9815949166277
 31
0.0
  0
LINE
  5
1301
330
12FE
100
AcDbEntity
  8
DIM
  6
Continuous
 62
     0
370
    -2
100
AcDbLine
 10
39.36800585937424
 20
24.99969482421875
 30
0.0
 11
39.36800585937426
 21
99.49959491662776
 31
0.0
  0
LINE
  5
1302
330
12FE
100
AcDbEntity
  8
DIM
  6
Continuous
 62
     0
370
    -2
100
AcDbLine
 10
39.36800585937426
 20
99.49959491662776
 30
0.0
 11
39.36800585937426
 21
79.49959491662776
 31
0.0
  0
INSERT
  5
1303
330
12FE
100
AcDbEntity
  8
DIM
 62
     0
370
    -2
100
AcDbBlockReference
  2
_DOT
 10
39.36800585937424
 20
4.99969482421875
 30
0.0
 41
20.0
 42
20.0
 43
20.0
 50
270.0
  0
INSERT
  5
1304
330
12FE
100
AcDbEntity
  8
DIM
 62
     0
370
    -2
100
AcDbBlockReference
  2
_DOT
 10
39.36800585937427
 20
119.4995949166278
 30
0.0
 41
20.0
 42
20.0
 43
20.0
 50
89.99999999999999
  0
MTEXT
  5
1305
330
12FE
100
AcDbEntity
  8
DIM
  6
Continuous
 62
     0
100
AcDbMText
 10
-9.468494140625666
 20
312.2405949166277
 30
0.0
 40
49.0
 41
0.0
 46
0.0
 71
     5
 72
     1
  1
\A1;115(深さ)
  7
ＭＳ ゴシック
 11
3.102809413749030E-16
 21
1.0
 31
0.0
 73
     1
 44
1.0
  0
POINT
  5
1306
330
12FE
100
AcDbEntity
  8
Defpoints
 62
     0
100
AcDbPoint
 10
39.36800585937431
 20
4.99969482421875
 30
0.0
  0
POINT
  5
1307
330
12FE
100
AcDbEntity
  8
Defpoints
 62
     0
100
AcDbPoint
 10
60.26101252631724
 20
119.4995949166278
 30
0.0
  0
POINT
  5
130B
330
12FE
100
AcDbEntity
  8
Defpoints
 62
     0
100
AcDbPoint
 10
39.36800585937427
 20
119.4995949166278
 30
0.0
  0
ENDBLK
  5
1308
330
12FE
100
AcDbEntity
  8
0
100
AcDbBlockEnd
  0
BLOCK
  5
130F
330
130E
100
AcDbEntity
  8
0
100
AcDbBlockBegin
  2
*D18
 70
     1
 10
0.0
 20
0.0
 30
0.0
  3
*D18
  1

  0
LINE
  5
1311
330
130E
100
AcDbEntity
  8
DIM
  6
Continuous
 62
     0
370
    -2
100
AcDbLine
 10
5464.077118063022
 20
2786.659189772276
 30
0.0
 11
5464.077118063022
 21
2959.033888991026
 31
0.0
  0
LINE
  5
1312
330
130E
100
AcDbEntity
  8
DIM
  6
Continuous
 62
     0
370
    -2
100
AcDbLine
 10
5464.077118063022
 20
2682.158679328305
 30
0.0
 11
5464.077118063022
 21
2776.659800123839
 31
0.0
  0
LINE
  5
1313
330
130E
100
AcDbEntity
  8
DIM
  6
Continuous
 62
     0
370
    -2
100
AcDbLine
 10
5464.077118063022
 20
2776.659800123839
 30
0.0
 11
5464.077118063022
 21
2766.660410475401
 31
0.0
  0
INSERT
  5
1314
330
130E
100
AcDbEntity
  8
DIM
 62
     0
370
    -2
100
AcDbBlockReference
  2
_DOT
 10
5464.077118063022
 20
2672.159289679867
 30
0.0
 41
9.999389648437498
 42
9.999389648437498
 43
9.999389648437498
 50
270.0
  0
INSERT
  5
1315
330
130E
100
AcDbEntity
  8
DIM
 62
     0
370
    -2
100
AcDbBlockReference
  2
_DOT
 10
5464.077118063022
 20
2786.659189772276
 30
0.0
 41
9.999389648437498
 42
9.999389648437498
 43
9.999389648437498
 50
90.0
  0
MTEXT
  5
1316
330
130E
100
AcDbEntity
  8
DIM
  6
Continuous
 62
     0
100
AcDbMText
 10
5439.698522848178
 20
2882.845929030089
 30
0.0
 40
24.4326171875
 41
0.0
 46
0.0
 71
     5
 72
     1
  1
\A1;115(深さ)
  7
ＭＳ ゴシック
 11
0.0
 21
1.0
 31
0.0
 73
     1
 44
1.0
  0
POINT
  5
1317
330
130E
100
AcDbEntity
  8
Defpoints
 62
     0
100
AcDbPoint
 10
5464.077118063022
 20
2672.159289679867
 30
0.0
  0
POINT
  5
1318
330
130E
100
AcDbEntity
  8
Defpoints
 62
     0
100
AcDbPoint
 10
5484.970124729964
 20
2786.659189772276
 30
0.0
  0
POINT
  5
1319
330
130E
100
AcDbEntity
  8
Defpoints
 62
     0
100
AcDbPoint
 10
5464.077118063022
 20
2786.659189772276
 30
0.0
  0
ENDBLK
  5
1310
330
130E
100
AcDbEntity
  8
0
100
AcDbBlockEnd
  0
BLOCK
  5
144B
330
144A
100
AcDbEntity
  8
0
100
AcDbBlockBegin
  2
*D19
 70
     1
 10
0.0
 20
0.0
 30
0.0
  3
*D19
  1

  0
LINE
  5
144D
330
144A
100
AcDbEntity
  8
DIM
  6
Continuous
 62
     0
370
    -2
100
AcDbLine
 10
1516.468878470435
 20
1966.413738926505
 30
0.0
 11
2239.16689321849
 21
1966.413738926504
 31
0.0
  0
LINE
  5
144E
330
144A
100
AcDbEntity
  8
DIM
  6
Continuous
 62
     0
370
    -2
100
AcDbLine
 10
1625.49192199507
 20
2616.422321099059
 30
0.0
 11
2239.16689321849
 21
2616.422321099058
 31
0.0
  0
LINE
  5
144F
330
144A
100
AcDbEntity
  8
DIM
  6
Continuous
 62
     0
370
    -2
100
AcDbLine
 10
2239.16689321849
 20
1986.413738926504
 30
0.0
 11
2239.16689321849
 21
2596.422321099058
 31
0.0
  0
INSERT
  5
1450
330
144A
100
AcDbEntity
  8
DIM
 62
     0
370
    -2
100
AcDbBlockReference
  2
_DOT
 10
2239.16689321849
 20
1966.413738926504
 30
0.0
 41
20.0
 42
20.0
 43
20.0
 50
269.9999999999999
  0
INSERT
  5
1451
330
144A
100
AcDbEntity
  8
DIM
 62
     0
370
    -2
100
AcDbBlockReference
  2
_DOT
 10
2239.16689321849
 20
2616.422321099058
 30
0.0
 41
20.0
 42
20.0
 43
20.0
 50
89.99999999999996
  0
MTEXT
  5
1452
330
144A
100
AcDbEntity
  8
DIM
  6
Continuous
 62
     0
100
AcDbMText
 10
2194.66689321849
 20
2291.418030012781
 30
0.0
 40
49.0
 41
0.0
 46
0.0
 71
     5
 72
     1
  1
\A1;650
  7
ＭＳ ゴシック
 11
6.996020719704053E-16
 21
1.0
 31
0.0
 73
     1
 44
1.0
  0
POINT
  5
1453
330
144A
100
AcDbEntity
  8
Defpoints
 62
     0
100
AcDbPoint
 10
1491.468878470435
 20
1966.413738926505
 30
0.0
  0
POINT
  5
1454
330
144A
100
AcDbEntity
  8
Defpoints
 62
     0
100
AcDbPoint
 10
1600.49192199507
 20
2616.422321099059
 30
0.0
  0
POINT
  5
1455
330
144A
100
AcDbEntity
  8
Defpoints
 62
     0
100
AcDbPoint
 10
2239.16689321849
 20
2616.422321099058
 30
0.0
  0
ENDBLK
  5
144C
330
144A
100
AcDbEntity
  8
0
100
AcDbBlockEnd
  0
BLOCK
  5
1457
330
1456
100
AcDbEntity
  8
0
100
AcDbBlockBegin
  2
*D20
 70
     1
 10
0.0
 20
0.0
 30
0.0
  3
*D20
  1

  0
LINE
  5
1459
330
1456
100
AcDbEntity
  8
DIM
  6
Continuous
 62
     0
370
    -2
100
AcDbLine
 10
778.9888694203955
 20
2199.366010693126
 30
0.0
 11
778.9888694203955
 21
2883.874414983718
 31
0.0
  0
LINE
  5
145A
330
1456
100
AcDbEntity
  8
DIM
  6
Continuous
 62
     0
370
    -2
100
AcDbLine
 10
2078.977426499251
 20
2199.366010693126
 30
0.0
 11
2078.977426499251
 21
2883.874414983718
 31
0.0
  0
LINE
  5
145B
330
1456
100
AcDbEntity
  8
DIM
  6
Continuous
 62
     0
370
    -2
100
AcDbLine
 10
798.9888694203955
 20
2883.874414983718
 30
0.0
 11
2058.977426499251
 21
2883.874414983718
 31
0.0
  0
INSERT
  5
145C
330
1456
100
AcDbEntity
  8
DIM
 62
     0
370
    -2
100
AcDbBlockReference
  2
_DOT
 10
778.9888694203955
 20
2883.874414983718
 30
0.0
 41
20.0
 42
20.0
 43
20.0
 50
180.0
  0
INSERT
  5
145D
330
1456
100
AcDbEntity
  8
DIM
 62
     0
370
    -2
100
AcDbBlockReference
  2
_DOT
 10
2078.977426499251
 20
2883.874414983718
 30
0.0
 41
20.0
 42
20.0
 43
20.0
  0
MTEXT
  5
145E
330
1456
100
AcDbEntity
  8
DIM
  6
Continuous
 62
     0
100
AcDbMText
 10
1428.983147959823
 20
2928.374414983718
 30
0.0
 40
49.0
 41
0.0
 46
0.0
 71
     5
 72
     1
  1
\A1;1300
  7
ＭＳ ゴシック
 73
     1
 44
1.0
  0
POINT
  5
145F
330
1456
100
AcDbEntity
  8
Defpoints
 62
     0
100
AcDbPoint
 10
778.9888694203955
 20
2174.366010693126
 30
0.0
  0
POINT
  5
1460
330
1456
100
AcDbEntity
  8
Defpoints
 62
     0
100
AcDbPoint
 10
2078.977426499251
 20
2174.366010693126
 30
0.0
  0
POINT
  5
1461
330
1456
100
AcDbEntity
  8
Defpoints
 62
     0
100
AcDbPoint
 10
2078.977426499251
 20
2883.874414983718
 30
0.0
  0
ENDBLK
  5
1458
330
1456
100
AcDbEntity
  8
0
100
AcDbBlockEnd
  0
BLOCK
  5
1463
330
1462
100
AcDbEntity
  8
0
100
AcDbBlockBegin
  2
*D21
 70
     1
 10
0.0
 20
0.0
 30
0.0
  3
*D21
  1

  0
LINE
  5
1465
330
1462
100
AcDbEntity
  8
DIM
  6
Continuous
 62
     0
370
    -2
100
AcDbLine
 10
1204.452514207174
 20
1316.439485473454
 30
0.0
 11
491.602398482678
 21
1316.439485473454
 31
0.0
  0
LINE
  5
1466
330
1462
100
AcDbEntity
  8
DIM
  6
Continuous
 62
     0
370
    -2
100
AcDbLine
 10
1204.452514207175
 20
2616.439485458808
 30
0.0
 11
491.6023984826788
 21
2616.439485458809
 31
0.0
  0
LINE
  5
1467
330
1462
100
AcDbEntity
  8
DIM
  6
Continuous
 62
     0
370
    -2
100
AcDbLine
 10
491.602398482678
 20
1336.439485473454
 30
0.0
 11
491.6023984826788
 21
2596.439485458809
 31
0.0
  0
INSERT
  5
1468
330
1462
100
AcDbEntity
  8
DIM
 62
     0
370
    -2
100
AcDbBlockReference
  2
_DOT
 10
491.602398482678
 20
1316.439485473454
 30
0.0
 41
20.0
 42
20.0
 43
20.0
 50
269.9999999999999
  0
INSERT
  5
1469
330
1462
100
AcDbEntity
  8
DIM
 62
     0
370
    -2
100
AcDbBlockReference
  2
_DOT
 10
491.6023984826788
 20
2616.439485458809
 30
0.0
 41
20.0
 42
20.0
 43
20.0
 50
89.99999999999996
  0
MTEXT
  5
146A
330
1462
100
AcDbEntity
  8
DIM
  6
Continuous
 62
     0
100
AcDbMText
 10
447.1023984826784
 20
1966.439485466131
 30
0.0
 40
49.0
 41
0.0
 46
0.0
 71
     5
 72
     1
  1
\A1;1300
  7
ＭＳ ゴシック
 11
6.121598954309828E-16
 21
1.0
 31
0.0
 73
     1
 44
1.0
  0
POINT
  5
146B
330
1462
100
AcDbEntity
  8
Defpoints
 62
     0
100
AcDbPoint
 10
1229.452514207174
 20
1316.439485473454
 30
0.0
  0
POINT
  5
146C
330
1462
100
AcDbEntity
  8
Defpoints
 62
     0
100
AcDbPoint
 10
1229.452514207175
 20
2616.439485458808
 30
0.0
  0
POINT
  5
146D
330
1462
100
AcDbEntity
  8
Defpoints
 62
     0
100
AcDbPoint
 10
491.6023984826788
 20
2616.439485458809
 30
0.0
  0
ENDBLK
  5
1464
330
1462
100
AcDbEntity
  8
0
100
AcDbBlockEnd
  0
BLOCK
  5
146F
330
146E
100
AcDbEntity
  8
0
100
AcDbBlockBegin
  2
*D22
 70
     1
 10
0.0
 20
0.0
 30
0.0
  3
*D22
  1

  0
LINE
  5
1471
330
146E
100
AcDbEntity
  8
DIM
  6
Continuous
 62
     0
370
    -2
100
AcDbLine
 10
3111.879101868571
 20
5044.806068492109
 30
0.0
 11
2549.013821856357
 21
5044.806068492109
 31
0.0
  0
LINE
  5
1472
330
146E
100
AcDbEntity
  8
DIM
  6
Continuous
 62
     0
370
    -2
100
AcDbLine
 10
3111.879101868571
 20
3944.806068492109
 30
0.0
 11
2549.013821856356
 21
3944.80606849211
 31
0.0
  0
LINE
  5
1473
330
146E
100
AcDbEntity
  8
DIM
  6
Continuous
 62
     0
370
    -2
100
AcDbLine
 10
2549.013821856357
 20
5024.806068492109
 30
0.0
 11
2549.013821856356
 21
3964.80606849211
 31
0.0
  0
INSERT
  5
1474
330
146E
100
AcDbEntity
  8
DIM
 62
     0
370
    -2
100
AcDbBlockReference
  2
_DOT
 10
2549.013821856357
 20
5044.806068492109
 30
0.0
 41
20.0
 42
20.0
 43
20.0
 50
89.99999999999996
  0
INSERT
  5
1475
330
146E
100
AcDbEntity
  8
DIM
 62
     0
370
    -2
100
AcDbBlockReference
  2
_DOT
 10
2549.013821856356
 20
3944.80606849211
 30
0.0
 41
20.0
 42
20.0
 43
20.0
 50
270.0
  0
MTEXT
  5
1476
330
146E
100
AcDbEntity
  8
DIM
  6
Continuous
 62
     0
100
AcDbMText
 10
2504.513821856356
 20
4494.806068492109
 30
0.0
 40
49.0
 41
0.0
 46
0.0
 71
     5
 72
     1
  1
\A1;1100
  7
ＭＳ ゴシック
 11
4.134066826240584E-16
 21
1.0
 31
0.0
 73
     1
 44
1.0
  0
POINT
  5
1477
330
146E
100
AcDbEntity
  8
Defpoints
 62
     0
100
AcDbPoint
 10
3136.879101868571
 20
5044.806068492109
 30
0.0
  0
POINT
  5
1478
330
146E
100
AcDbEntity
  8
Defpoints
 62
     0
100
AcDbPoint
 10
3136.879101868571
 20
3944.806068492109
 30
0.0
  0
POINT
  5
1479
330
146E
100
AcDbEntity
  8
Defpoints
 62
     0
100
AcDbPoint
 10
2549.013821856356
 20
3944.80606849211
 30
0.0
  0
ENDBLK
  5
1470
330
146E
100
AcDbEntity
  8
0
100
AcDbBlockEnd
  0
BLOCK
  5
147B
330
147A
100
AcDbEntity
  8
0
100
AcDbBlockBegin
  2
*D23
 70
     1
 10
0.0
 20
0.0
 30
0.0
  3
*D23
  1

  0
LINE
  5
147D
330
147A
100
AcDbEntity
  8
DIM
  6
Continuous
 62
     0
370
    -2
100
AcDbLine
 10
7501.539737344816
 20
6978.298260035155
 30
0.0
 11
8190.920403841938
 21
6978.298260035155
 31
0.0
  0
LINE
  5
147E
330
147A
100
AcDbEntity
  8
DIM
  6
Continuous
 62
     0
370
    -2
100
AcDbLine
 10
7501.539737344816
 20
5878.298260035155
 30
0.0
 11
8190.920403841938
 21
5878.298260035155
 31
0.0
  0
LINE
  5
147F
330
147A
100
AcDbEntity
  8
DIM
  6
Continuous
 62
     0
370
    -2
100
AcDbLine
 10
8190.920403841938
 20
6960.298260035155
 30
0.0
 11
8190.920403841938
 21
5896.298260035155
 31
0.0
  0
INSERT
  5
1480
330
147A
100
AcDbEntity
  8
DIM
 62
     0
370
    -2
100
AcDbBlockReference
  2
_DOT
 10
8190.920403841938
 20
6978.298260035155
 30
0.0
 41
18.0
 42
18.0
 43
18.0
 50
90.0
  0
INSERT
  5
1481
330
147A
100
AcDbEntity
  8
DIM
 62
     0
370
    -2
100
AcDbBlockReference
  2
_DOT
 10
8190.920403841938
 20
5878.298260035155
 30
0.0
 41
18.0
 42
18.0
 43
18.0
 50
270.0
  0
MTEXT
  5
1482
330
147A
100
AcDbEntity
  8
DIM
  6
Continuous
 62
     0
100
AcDbMText
 10
8156.920403841938
 20
6428.298260035155
 30
0.0
 40
48.0
 41
0.0
 46
0.0
 71
     5
 72
     1
  1
\A1;1100
  7
ＭＳ ゴシック
 11
0.0
 21
1.0
 31
0.0
 73
     1
 44
1.0
  0
POINT
  5
1483
330
147A
100
AcDbEntity
  8
Defpoints
 62
     0
100
AcDbPoint
 10
7476.539737344816
 20
6978.298260035155
 30
0.0
  0
POINT
  5
1484
330
147A
100
AcDbEntity
  8
Defpoints
 62
     0
100
AcDbPoint
 10
7476.539737344816
 20
5878.298260035155
 30
0.0
  0
POINT
  5
1485
330
147A
100
AcDbEntity
  8
Defpoints
 62
     0
100
AcDbPoint
 10
8190.920403841938
 20
5878.298260035155
 30
0.0
  0
ENDBLK
  5
147C
330
147A
100
AcDbEntity
  8
0
100
AcDbBlockEnd
  0
BLOCK
  5
1487
330
1486
100
AcDbEntity
  8
0
100
AcDbBlockBegin
  2
*D24
 70
     1
 10
0.0
 20
0.0
 30
0.0
  3
*D24
  1

  0
LINE
  5
1489
330
1486
100
AcDbEntity
  8
DIM
  6
Continuous
 62
     0
370
    -2
100
AcDbLine
 10
1454.984292250176
 20
1991.430903286257
 30
0.0
 11
1454.984292250176
 21
2090.55573469193
 31
0.0
  0
LINE
  5
148A
330
1486
100
AcDbEntity
  8
DIM
  6
Continuous
 62
     0
370
    -2
100
AcDbLine
 10
1402.993446575963
 20
1991.430903286257
 30
0.0
 11
1402.993446575963
 21
2090.55573469193
 31
0.0
  0
LINE
  5
148B
330
1486
100
AcDbEntity
  8
DIM
  6
Continuous
 62
     0
370
    -2
100
AcDbLine
 10
1434.984292250176
 20
2090.55573469193
 30
0.0
 11
1422.993446575963
 21
2090.55573469193
 31
0.0
  0
INSERT
  5
148C
330
1486
100
AcDbEntity
  8
DIM
 62
     0
370
    -2
100
AcDbBlockReference
  2
_DOT
 10
1454.984292250176
 20
2090.55573469193
 30
0.0
 41
20.0
 42
20.0
 43
20.0
  0
INSERT
  5
148D
330
1486
100
AcDbEntity
  8
DIM
 62
     0
370
    -2
100
AcDbBlockReference
  2
_DOT
 10
1402.993446575963
 20
2090.55573469193
 30
0.0
 41
20.0
 42
20.0
 43
20.0
 50
180.0
  0
MTEXT
  5
148E
330
1486
100
AcDbEntity
  8
DIM
  6
Continuous
 62
     0
100
AcDbMText
 10
1428.98886941307
 20
2135.05573469193
 30
0.0
 40
49.0
 41
0.0
 46
0.0
 71
     5
 72
     1
  1
\A1;%%c52
  7
ＭＳ ゴシック
 73
     1
 44
1.0
  0
POINT
  5
148F
330
1486
100
AcDbEntity
  8
Defpoints
 62
     0
100
AcDbPoint
 10
1454.984292250176
 20
1966.430903286257
 30
0.0
  0
POINT
  5
1490
330
1486
100
AcDbEntity
  8
Defpoints
 62
     0
100
AcDbPoint
 10
1402.993446575963
 20
1966.430903286257
 30
0.0
  0
POINT
  5
1491
330
1486
100
AcDbEntity
  8
Defpoints
 62
     0
100
AcDbPoint
 10
1402.993446575963
 20
2090.55573469193
 30
0.0
  0
ENDBLK
  5
1488
330
1486
100
AcDbEntity
  8
0
100
AcDbBlockEnd
  0
BLOCK
  5
14DC
330
14DB
100
AcDbEntity
  8
0
100
AcDbBlockBegin
  2
*D25
 70
     1
 10
0.0
 20
0.0
 30
0.0
  3
*D25
  1

  0
LINE
  5
14DE
330
14DB
100
AcDbEntity
  8
DIM
  6
Continuous
 62
     0
370
    -2
100
AcDbLine
 10
3367.298820666904
 20
1744.92770147549
 30
0.0
 11
3544.182859817604
 21
1744.92770147549
 31
0.0
  0
LINE
  5
14DF
330
14DB
100
AcDbEntity
  8
DIM
  6
Continuous
 62
     0
370
    -2
100
AcDbLine
 10
3367.298820666904
 20
2194.965771140114
 30
0.0
 11
3544.182859817604
 21
2194.965771140114
 31
0.0
  0
LINE
  5
14E0
330
14DB
100
AcDbEntity
  8
DIM
  6
Continuous
 62
     0
370
    -2
100
AcDbLine
 10
3544.182859817604
 20
1764.92770147549
 30
0.0
 11
3544.182859817604
 21
2174.965771140114
 31
0.0
  0
INSERT
  5
14E1
330
14DB
100
AcDbEntity
  8
DIM
 62
     0
370
    -2
100
AcDbBlockReference
  2
_DOT
 10
3544.182859817604
 20
1744.92770147549
 30
0.0
 41
20.0
 42
20.0
 43
20.0
 50
270.0
  0
INSERT
  5
14E2
330
14DB
100
AcDbEntity
  8
DIM
 62
     0
370
    -2
100
AcDbBlockReference
  2
_DOT
 10
3544.182859817604
 20
2194.965771140114
 30
0.0
 41
20.0
 42
20.0
 43
20.0
 50
90.0
  0
MTEXT
  5
14E3
330
14DB
100
AcDbEntity
  8
DIM
  6
Continuous
 62
     0
100
AcDbMText
 10
3499.682859817604
 20
1969.946736307802
 30
0.0
 40
49.0
 41
0.0
 46
0.0
 71
     5
 72
     1
  1
\A1;450
  7
ＭＳ ゴシック
 11
0.0
 21
1.0
 31
0.0
 73
     1
 44
1.0
  0
POINT
  5
14E4
330
14DB
100
AcDbEntity
  8
Defpoints
 62
     0
100
AcDbPoint
 10
3342.298820666904
 20
1744.92770147549
 30
0.0
  0
POINT
  5
14E5
330
14DB
100
AcDbEntity
  8
Defpoints
 62
     0
100
AcDbPoint
 10
3342.298820666904
 20
2194.965771140114
 30
0.0
  0
POINT
  5
14E6
330
14DB
100
AcDbEntity
  8
Defpoints
 62
     0
100
AcDbPoint
 10
3544.182859817604
 20
2194.965771140114
 30
0.0
  0
ENDBLK
  5
14DD
330
14DB
100
AcDbEntity
  8
0
100
AcDbBlockEnd
  0
BLOCK
  5
14E8
330
14E7
100
AcDbEntity
  8
0
100
AcDbBlockBegin
  2
*D26
 70
     1
 10
0.0
 20
0.0
 30
0.0
  3
*D26
  1

  0
LINE
  5
14EA
330
14E7
100
AcDbEntity
  8
DIM
  6
Continuous
 62
     0
370
    -2
100
AcDbLine
 10
3342.397030213096
 20
1540.852095313418
 30
0.0
 11
3342.397030213099
 21
1022.943418680705
 31
0.0
  0
LINE
  5
14EB
330
14E7
100
AcDbEntity
  8
DIM
  6
Continuous
 62
     0
370
    -2
100
AcDbLine
 10
3242.397470326016
 20
1127.937303488345
 30
0.0
 11
3242.397470326017
 21
1022.943418680704
 31
0.0
  0
LINE
  5
14EC
330
14E7
100
AcDbEntity
  8
DIM
  6
Continuous
 62
     0
370
    -2
100
AcDbLine
 10
3342.397030213099
 20
1022.943418680705
 30
0.0
 11
3509.2250302131
 21
1022.943418680706
 31
0.0
  0
LINE
  5
14ED
330
14E7
100
AcDbEntity
  8
DIM
  6
Continuous
 62
     0
370
    -2
100
AcDbLine
 10
3322.397030213099
 20
1022.943418680705
 30
0.0
 11
3262.397470326017
 21
1022.943418680704
 31
0.0
  0
LINE
  5
14EE
330
14E7
100
AcDbEntity
  8
DIM
  6
Continuous
 62
     0
370
    -2
100
AcDbLine
 10
3322.397030213099
 20
1022.943418680705
 30
0.0
 11
3302.397030213099
 21
1022.943418680705
 31
0.0
  0
INSERT
  5
14EF
330
14E7
100
AcDbEntity
  8
DIM
 62
     0
370
    -2
100
AcDbBlockReference
  2
_DOT
 10
3342.397030213099
 20
1022.943418680705
 30
0.0
 41
20.0
 42
20.0
 43
20.0
 50
0.0000000000003908
  0
INSERT
  5
14F0
330
14E7
100
AcDbEntity
  8
DIM
 62
     0
370
    -2
100
AcDbBlockReference
  2
_DOT
 10
3242.397470326017
 20
1022.943418680704
 30
0.0
 41
20.0
 42
20.0
 43
20.0
 50
180.0000000000004
  0
MTEXT
  5
14F1
330
14E7
100
AcDbEntity
  8
DIM
  6
Continuous
 62
     0
100
AcDbMText
 10
3445.811030213099
 20
1067.443418680706
 30
0.0
 40
49.0
 41
0.0
 46
0.0
 71
     5
 72
     1
  1
\A1;100
  7
ＭＳ ゴシック
 73
     1
 44
1.0
  0
POINT
  5
14F2
330
14E7
100
AcDbEntity
  8
Defpoints
 62
     0
100
AcDbPoint
 10
3342.397030213096
 20
1565.852095313418
 30
0.0
  0
POINT
  5
1671
330
14E7
100
AcDbEntity
  8
Defpoints
 62
     0
100
AcDbPoint
 10
3242.397470326016
 20
1152.937303488345
 30
0.0
  0
POINT
  5
1672
330
14E7
100
AcDbEntity
  8
Defpoints
 62
     0
100
AcDbPoint
 10
3242.397470326017
 20
1022.943418680704
 30
0.0
  0
ENDBLK
  5
14E9
330
14E7
100
AcDbEntity
  8
0
100
AcDbBlockEnd
  0
BLOCK
  5
14F4
330
14F3
100
AcDbEntity
  8
0
100
AcDbBlockBegin
  2
*D27
 70
     1
 10
0.0
 20
0.0
 30
0.0
  3
*D27
  1

  0
LINE
  5
14F6
330
14F3
100
AcDbEntity
  8
DIM
  6
Continuous
 62
     0
370
    -2
100
AcDbLine
 10
6747.328472685125
 20
3944.527171416642
 30
0.0
 11
6747.328472685125
 21
3423.900484066415
 31
0.0
  0
LINE
  5
14F7
330
14F3
100
AcDbEntity
  8
DIM
  6
Continuous
 62
     0
370
    -2
100
AcDbLine
 10
7932.328472685125
 20
3944.527171416642
 30
0.0
 11
7932.328472685125
 21
3423.900484066415
 31
0.0
  0
LINE
  5
14F8
330
14F3
100
AcDbEntity
  8
DIM
  6
Continuous
 62
     0
370
    -2
100
AcDbLine
 10
6765.328472685125
 20
3423.900484066415
 30
0.0
 11
7914.328472685125
 21
3423.900484066415
 31
0.0
  0
INSERT
  5
14F9
330
14F3
100
AcDbEntity
  8
DIM
 62
     0
370
    -2
100
AcDbBlockReference
  2
_DOT
 10
6747.328472685125
 20
3423.900484066415
 30
0.0
 41
18.0
 42
18.0
 43
18.0
 50
180.0
  0
INSERT
  5
14FA
330
14F3
100
AcDbEntity
  8
DIM
 62
     0
370
    -2
100
AcDbBlockReference
  2
_DOT
 10
7932.328472685125
 20
3423.900484066415
 30
0.0
 41
18.0
 42
18.0
 43
18.0
  0
MTEXT
  5
14FB
330
14F3
100
AcDbEntity
  8
DIM
  6
Continuous
 62
     0
100
AcDbMText
 10
7339.828472685125
 20
3457.900484066415
 30
0.0
 40
48.0
 41
0.0
 46
0.0
 71
     5
 72
     1
  1
\A1;1185
  7
ＭＳ ゴシック
 73
     1
 44
1.0
  0
POINT
  5
14FC
330
14F3
100
AcDbEntity
  8
Defpoints
 62
     0
100
AcDbPoint
 10
6747.328472685125
 20
3969.527171416642
 30
0.0
  0
POINT
  5
14FD
330
14F3
100
AcDbEntity
  8
Defpoints
 62
     0
100
AcDbPoint
 10
7932.328472685125
 20
3969.527171416642
 30
0.0
  0
POINT
  5
14FE
330
14F3
100
AcDbEntity
  8
Defpoints
 62
     0
100
AcDbPoint
 10
7932.328472685125
 20
3423.900484066415
 30
0.0
  0
ENDBLK
  5
14F5
330
14F3
100
AcDbEntity
  8
0
100
AcDbBlockEnd
  0
BLOCK
  5
1500
330
14FF
100
AcDbEntity
  8
0
100
AcDbBlockBegin
  2
*D28
 70
     1
 10
0.0
 20
0.0
 30
0.0
  3
*D28
  1

  0
LINE
  5
1502
330
14FF
100
AcDbEntity
  8
DIM
  6
Continuous
 62
     0
370
    -2
100
AcDbLine
 10
2692.122840570067
 20
2682.653393340809
 30
0.0
 11
2692.12284057007
 21
3024.243397928845
 31
0.0
  0
LINE
  5
1503
330
14FF
100
AcDbEntity
  8
DIM
  6
Continuous
 62
     0
370
    -2
100
AcDbLine
 10
3242.397470326016
 20
2811.933283314265
 30
0.0
 11
3242.397470326018
 21
3024.243397928845
 31
0.0
  0
LINE
  5
1504
330
14FF
100
AcDbEntity
  8
DIM
  6
Continuous
 62
     0
370
    -2
100
AcDbLine
 10
2712.12284057007
 20
3024.243397928845
 30
0.0
 11
3222.397470326018
 21
3024.243397928845
 31
0.0
  0
INSERT
  5
1505
330
14FF
100
AcDbEntity
  8
DIM
 62
     0
370
    -2
100
AcDbBlockReference
  2
_DOT
 10
2692.12284057007
 20
3024.243397928845
 30
0.0
 41
20.0
 42
20.0
 43
20.0
 50
180.0
  0
INSERT
  5
1506
330
14FF
100
AcDbEntity
  8
DIM
 62
     0
370
    -2
100
AcDbBlockReference
  2
_DOT
 10
3242.397470326018
 20
3024.243397928845
 30
0.0
 41
20.0
 42
20.0
 43
20.0
  0
MTEXT
  5
1507
330
14FF
100
AcDbEntity
  8
DIM
  6
Continuous
 62
     0
100
AcDbMText
 10
2967.260155448044
 20
3068.743397928845
 30
0.0
 40
49.0
 41
0.0
 46
0.0
 71
     5
 72
     1
  1
\A1;550
  7
ＭＳ ゴシック
 73
     1
 44
1.0
  0
POINT
  5
1508
330
14FF
100
AcDbEntity
  8
Defpoints
 62
     0
100
AcDbPoint
 10
2692.122840570067
 20
2657.653393340809
 30
0.0
  0
POINT
  5
1509
330
14FF
100
AcDbEntity
  8
Defpoints
 62
     0
100
AcDbPoint
 10
3242.397470326016
 20
2786.933283314265
 30
0.0
  0
POINT
  5
150A
330
14FF
100
AcDbEntity
  8
Defpoints
 62
     0
100
AcDbPoint
 10
3242.397470326018
 20
3024.243397928845
 30
0.0
  0
ENDBLK
  5
1501
330
14FF
100
AcDbEntity
  8
0
100
AcDbBlockEnd
  0
BLOCK
  5
150C
330
150B
100
AcDbEntity
  8
0
100
AcDbBlockBegin
  2
*D29
 70
     1
 10
0.0
 20
0.0
 30
0.0
  3
*D29
  1

  0
LINE
  5
150E
330
150B
100
AcDbEntity
  8
DIM
  6
Continuous
 62
     0
370
    -2
100
AcDbLine
 10
2692.122840570067
 20
2682.653393340809
 30
0.0
 11
2692.122840570069
 21
2883.874414983717
 31
0.0
  0
LINE
  5
150F
330
150B
100
AcDbEntity
  8
DIM
  6
Continuous
 62
     0
370
    -2
100
AcDbLine
 10
3197.122840570063
 20
2396.776364918767
 30
0.0
 11
3197.122840570067
 21
2883.874414983717
 31
0.0
  0
LINE
  5
1510
330
150B
100
AcDbEntity
  8
DIM
  6
Continuous
 62
     0
370
    -2
100
AcDbLine
 10
2712.122840570069
 20
2883.874414983717
 30
0.0
 11
3177.122840570067
 21
2883.874414983717
 31
0.0
  0
INSERT
  5
1511
330
150B
100
AcDbEntity
  8
DIM
 62
     0
370
    -2
100
AcDbBlockReference
  2
_DOT
 10
2692.122840570069
 20
2883.874414983717
 30
0.0
 41
20.0
 42
20.0
 43
20.0
 50
180.0
  0
INSERT
  5
1512
330
150B
100
AcDbEntity
  8
DIM
 62
     0
370
    -2
100
AcDbBlockReference
  2
_DOT
 10
3197.122840570067
 20
2883.874414983717
 30
0.0
 41
20.0
 42
20.0
 43
20.0
  0
MTEXT
  5
1513
330
150B
100
AcDbEntity
  8
DIM
  6
Continuous
 62
     0
100
AcDbMText
 10
2944.622840570068
 20
2928.374414983717
 30
0.0
 40
49.0
 41
0.0
 46
0.0
 71
     5
 72
     1
  1
\A1;505
  7
ＭＳ ゴシック
 73
     1
 44
1.0
  0
POINT
  5
1514
330
150B
100
AcDbEntity
  8
Defpoints
 62
     0
100
AcDbPoint
 10
2692.122840570067
 20
2657.653393340809
 30
0.0
  0
POINT
  5
1515
330
150B
100
AcDbEntity
  8
Defpoints
 62
     0
100
AcDbPoint
 10
3197.122840570063
 20
2371.776364918767
 30
0.0
  0
POINT
  5
1516
330
150B
100
AcDbEntity
  8
Defpoints
 62
     0
100
AcDbPoint
 10
3197.122840570067
 20
2883.874414983717
 30
0.0
  0
ENDBLK
  5
150D
330
150B
100
AcDbEntity
  8
0
100
AcDbBlockEnd
  0
BLOCK
  5
157E
330
157D
100
AcDbEntity
  8
0
100
AcDbBlockBegin
  2
*D30
 70
     1
 10
0.0
 20
0.0
 30
0.0
  3
*D30
  1

  0
LINE
  5
157F
330
157D
100
AcDbEntity
  8
DIM
  6
Continuous
 62
     0
370
    -2
100
AcDbLine
 10
10.00000000000001
 20
25.0
 30
0.0
 11
10.00000000000023
 21
737.8501157244971
 31
0.0
  0
LINE
  5
1580
330
157D
100
AcDbEntity
  8
DIM
  6
Continuous
 62
     0
370
    -2
100
AcDbLine
 10
1309.999999985354
 20
25.0
 30
0.0
 11
1309.999999985355
 21
737.8501157244964
 31
0.0
  0
LINE
  5
1581
330
157D
100
AcDbEntity
  8
DIM
  6
Continuous
 62
     0
370
    -2
100
AcDbLine
 10
30.00000000000023
 20
737.8501157244971
 30
0.0
 11
1289.999999985355
 21
737.8501157244964
 31
0.0
  0
INSERT
  5
1582
330
157D
100
AcDbEntity
  8
DIM
 62
     0
370
    -2
100
AcDbBlockReference
  2
_DOT
 10
10.00000000000023
 20
737.8501157244971
 30
0.0
 41
20.0
 42
20.0
 43
20.0
 50
180.0
  0
INSERT
  5
1583
330
157D
100
AcDbEntity
  8
DIM
 62
     0
370
    -2
100
AcDbBlockReference
  2
_DOT
 10
1309.999999985355
 20
737.8501157244964
 30
0.0
 41
20.0
 42
20.0
 43
20.0
 50
359.9999999999998
  0
MTEXT
  5
1584
330
157D
100
AcDbEntity
  8
DIM
  6
Continuous
 62
     0
100
AcDbMText
 10
659.9999999926774
 20
782.3501157244967
 30
0.0
 40
49.0
 41
0.0
 46
0.0
 71
     5
 72
     1
  1
\A1;1300
  7
ＭＳ ゴシック
 73
     1
 44
1.0
  0
POINT
  5
1585
330
157D
100
AcDbEntity
  8
Defpoints
 62
     0
100
AcDbPoint
 10
10.0
 20
0.0
 30
0.0
  0
POINT
  5
1586
330
157D
100
AcDbEntity
  8
Defpoints
 62
     0
100
AcDbPoint
 10
1309.999999985354
 20
0.0
 30
0.0
  0
POINT
  5
1587
330
157D
100
AcDbEntity
  8
Defpoints
 62
     0
100
AcDbPoint
 10
1309.999999985355
 20
737.8501157244964
 30
0.0
  0
ENDBLK
  5
1588
330
157D
100
AcDbEntity
  8
0
100
AcDbBlockEnd
  0
BLOCK
  5
15C3
330
15C2
100
AcDbEntity
  8
0
100
AcDbBlockBegin
  2
*D31
 70
     1
 10
0.0
 20
0.0
 30
0.0
  3
*D31
  1

  0
LINE
  5
15C4
330
15C2
100
AcDbEntity
  8
DIM
  6
Continuous
 62
     0
370
    -2
100
AcDbLine
 10
206.678901952776
 20
222.7878456742128
 30
0.0
 11
69.00000000000095
 21
222.7878456742129
 31
0.0
  0
LINE
  5
15C5
330
15C2
100
AcDbEntity
  8
DIM
  6
Continuous
 62
     0
370
    -2
100
AcDbLine
 10
206.678901952776
 20
170.7970000000005
 30
0.0
 11
69.00000000000094
 21
170.7970000000005
 31
0.0
  0
LINE
  5
15C6
330
15C2
100
AcDbEntity
  8
DIM
  6
Continuous
 62
     0
370
    -2
100
AcDbLine
 10
69.00000000000094
 20
170.7970000000005
 30
0.0
 11
69.0000000000009
 21
0.0000000000002274
 31
0.0
  0
LINE
  5
15C7
330
15C2
100
AcDbEntity
  8
DIM
  6
Continuous
 62
     0
370
    -2
100
AcDbLine
 10
69.00000000000095
 20
202.7878456742129
 30
0.0
 11
69.00000000000094
 21
190.7970000000005
 31
0.0
  0
LINE
  5
15C8
330
15C2
100
AcDbEntity
  8
DIM
  6
Continuous
 62
     0
370
    -2
100
AcDbLine
 10
69.00000000000094
 20
190.7970000000005
 30
0.0
 11
69.00000000000094
 21
210.7970000000005
 31
0.0
  0
INSERT
  5
15C9
330
15C2
100
AcDbEntity
  8
DIM
 62
     0
370
    -2
100
AcDbBlockReference
  2
_DOT
 10
69.00000000000095
 20
222.7878456742129
 30
0.0
 41
20.0
 42
20.0
 43
20.0
 50
89.99999999999999
  0
INSERT
  5
15CA
330
15C2
100
AcDbEntity
  8
DIM
 62
     0
370
    -2
100
AcDbBlockReference
  2
_DOT
 10
69.00000000000094
 20
170.7970000000005
 30
0.0
 41
20.0
 42
20.0
 43
20.0
 50
270.0
  0
MTEXT
  5
15CB
330
15C2
100
AcDbEntity
  8
DIM
  6
Continuous
 62
     0
100
AcDbMText
 10
24.50000000000091
 20
65.39850000000025
 30
0.0
 40
49.0
 41
0.0
 46
0.0
 71
     5
 72
     1
  1
\A1;%%c52
  7
ＭＳ ゴシック
 11
2.733337865717896E-16
 21
1.0
 31
0.0
 73
     1
 44
1.0
  0
POINT
  5
15CC
330
15C2
100
AcDbEntity
  8
Defpoints
 62
     0
100
AcDbPoint
 10
231.678901952776
 20
222.7878456742128
 30
0.0
  0
POINT
  5
15CD
330
15C2
100
AcDbEntity
  8
Defpoints
 62
     0
100
AcDbPoint
 10
231.678901952776
 20
170.7970000000005
 30
0.0
  0
POINT
  5
15CE
330
15C2
100
AcDbEntity
  8
Defpoints
 62
     0
100
AcDbPoint
 10
69.00000000000091
 20
170.7970000000005
 30
0.0
  0
ENDBLK
  5
15CF
330
15C2
100
AcDbEntity
  8
0
100
AcDbBlockEnd
  0
BLOCK
  5
16FF
330
16FE
100
AcDbEntity
  8
0
100
AcDbBlockBegin
  2
*D32
 70
     1
 10
0.0
 20
0.0
 30
0.0
  3
*D32
  1

  0
LINE
  5
1701
330
16FE
100
AcDbEntity
  8
DIM
  6
Continuous
 62
     0
370
    -2
100
AcDbLine
 10
7089.828472685125
 20
6203.735511103116
 30
0.0
 11
6900.670220652792
 21
6203.735511103116
 31
0.0
  0
LINE
  5
1702
330
16FE
100
AcDbEntity
  8
DIM
  6
Continuous
 62
     0
370
    -2
100
AcDbLine
 10
7089.828472685125
 20
6323.735511103116
 30
0.0
 11
6900.670220652792
 21
6323.735511103116
 31
0.0
  0
LINE
  5
1703
330
16FE
100
AcDbEntity
  8
DIM
  6
Continuous
 62
     0
370
    -2
100
AcDbLine
 10
6900.670220652792
 20
6203.735511103116
 30
0.0
 11
6900.670220652792
 21
6323.735511103116
 31
0.0
  0
LINE
  5
1704
330
16FE
100
AcDbEntity
  8
DIM
  6
Continuous
 62
     0
370
    -2
100
AcDbLine
 10
6900.670220652792
 20
6183.735511103116
 30
0.0
 11
6900.670220652792
 21
6163.735511103116
 31
0.0
  0
LINE
  5
1705
330
16FE
100
AcDbEntity
  8
DIM
  6
Continuous
 62
     0
370
    -2
100
AcDbLine
 10
6900.670220652792
 20
6343.735511103116
 30
0.0
 11
6900.670220652792
 21
6363.735511103116
 31
0.0
  0
INSERT
  5
1706
330
16FE
100
AcDbEntity
  8
DIM
 62
     0
370
    -2
100
AcDbBlockReference
  2
_DOT
 10
6900.670220652792
 20
6203.735511103116
 30
0.0
 41
20.0
 42
20.0
 43
20.0
 50
90.0
  0
INSERT
  5
1707
330
16FE
100
AcDbEntity
  8
DIM
 62
     0
370
    -2
100
AcDbBlockReference
  2
_DOT
 10
6900.670220652792
 20
6323.735511103116
 30
0.0
 41
20.0
 42
20.0
 43
20.0
 50
270.0
  0
MTEXT
  5
1708
330
16FE
100
AcDbEntity
  8
DIM
  6
Continuous
 62
     0
100
AcDbMText
 10
6856.170220652792
 20
6263.735511103116
 30
0.0
 40
49.0
 41
0.0
 46
0.0
 71
     5
 72
     1
  1
\A1;120
  7
ＭＳ ゴシック
 11
0.0
 21
1.0
 31
0.0
 73
     1
 44
1.0
  0
POINT
  5
1709
330
16FE
100
AcDbEntity
  8
Defpoints
 62
     0
100
AcDbPoint
 10
7114.828472685125
 20
6203.735511103116
 30
0.0
  0
POINT
  5
170A
330
16FE
100
AcDbEntity
  8
Defpoints
 62
     0
100
AcDbPoint
 10
7114.828472685125
 20
6323.735511103116
 30
0.0
  0
POINT
  5
170B
330
16FE
100
AcDbEntity
  8
Defpoints
 62
     0
100
AcDbPoint
 10
6900.670220652792
 20
6323.735511103116
 30
0.0
  0
ENDBLK
  5
1700
330
16FE
100
AcDbEntity
  8
0
100
AcDbBlockEnd
  0
BLOCK
  5
172D
330
172C
100
AcDbEntity
  8
0
100
AcDbBlockBegin
  2
*D33
 70
     1
 10
0.0
 20
0.0
 30
0.0
  3
*D33
  1

  0
LINE
  5
172F
330
172C
100
AcDbEntity
  8
DIM
  6
Continuous
 62
     0
370
    -2
100
AcDbLine
 10
3111.879101868571
 20
2519.923850494812
 30
0.0
 11
2549.013821856357
 21
2519.923850494812
 31
0.0
  0
LINE
  5
1730
330
172C
100
AcDbEntity
  8
DIM
  6
Continuous
 62
     0
370
    -2
100
AcDbLine
 10
3111.879101868571
 20
1419.923850494812
 30
0.0
 11
2549.013821856356
 21
1419.923850494812
 31
0.0
  0
LINE
  5
1731
330
172C
100
AcDbEntity
  8
DIM
  6
Continuous
 62
     0
370
    -2
100
AcDbLine
 10
2549.013821856357
 20
2499.923850494812
 30
0.0
 11
2549.013821856356
 21
1439.923850494812
 31
0.0
  0
INSERT
  5
1732
330
172C
100
AcDbEntity
  8
DIM
 62
     0
370
    -2
100
AcDbBlockReference
  2
_DOT
 10
2549.013821856357
 20
2519.923850494812
 30
0.0
 41
20.0
 42
20.0
 43
20.0
 50
89.99999999999996
  0
INSERT
  5
1733
330
172C
100
AcDbEntity
  8
DIM
 62
     0
370
    -2
100
AcDbBlockReference
  2
_DOT
 10
2549.013821856356
 20
1419.923850494812
 30
0.0
 41
20.0
 42
20.0
 43
20.0
 50
270.0
  0
MTEXT
  5
1734
330
172C
100
AcDbEntity
  8
DIM
  6
Continuous
 62
     0
100
AcDbMText
 10
2504.513821856356
 20
1969.923850494812
 30
0.0
 40
49.0
 41
0.0
 46
0.0
 71
     5
 72
     1
  1
\A1;1100
  7
ＭＳ ゴシック
 11
4.134066826240583E-16
 21
1.0
 31
0.0
 73
     1
 44
1.0
  0
POINT
  5
1735
330
172C
100
AcDbEntity
  8
Defpoints
 62
     0
100
AcDbPoint
 10
3136.879101868571
 20
2519.923850494812
 30
0.0
  0
POINT
  5
1736
330
172C
100
AcDbEntity
  8
Defpoints
 62
     0
100
AcDbPoint
 10
3136.879101868571
 20
1419.923850494812
 30
0.0
  0
POINT
  5
1737
330
172C
100
AcDbEntity
  8
Defpoints
 62
     0
100
AcDbPoint
 10
2549.013821856356
 20
1419.923850494812
 30
0.0
  0
ENDBLK
  5
172E
330
172C
100
AcDbEntity
  8
0
100
AcDbBlockEnd
  0
ENDSEC
  0
SECTION
  2
ENTITIES
  0
MTEXT
  5
177
330
A
100
AcDbEntity
  8
TEMPLATE
390
1D
100
AcDbMText
 10
158.5094110653718
 20
697.5697439524535
 30
0.0
 40
32.57682291666666
 41
0.0
 46
0.0
 71
     1
 72
     1
  1
品名
  7
ＭＳ ゴシック
 73
     1
 44
0.7828267384257843
  0
MTEXT
  5
178
330
A
100
AcDbEntity
  8
TEMPLATE
390
1D
100
AcDbMText
 10
158.5094110653718
 20
527.5697439524531
 30
0.0
 40
32.57682291666666
 41
0.0
 46
0.0
 71
     1
 72
     1
  1
仕様
  7
ＭＳ ゴシック
 73
     1
 44
0.7828267384257843
  0
LINE
  5
179
330
A
100
AcDbEntity
  8
TEMPLATE
390
1D
100
AcDbLine
 10
4044.509411064408
 20
544.3995877024532
 30
0.0
 11
144.5094110644077
 21
544.3995877024532
 31
0.0
  0
LWPOLYLINE
  5
17A
330
A
100
AcDbEntity
  8
TEMPLATE
390
1D
100
AcDbPolyline
 90
        5
 70
   128
 43
0.0
 10
4044.509411064408
 20
5804.399587702454
 10
144.5094110644077
 20
5804.399587702454
 10
144.5094110644077
 20
204.3995877024531
 10
4044.509411064408
 20
204.3995877024531
 10
4044.509411064408
 20
5804.399587702454
  0
LINE
  5
17B
330
A
100
AcDbEntity
  8
TEMPLATE
390
1D
100
AcDbLine
 10
4044.509411064408
 20
714.399587702453
 30
0.0
 11
144.5094110644077
 21
714.399587702453
 31
0.0
  0
LINE
  5
17C
330
A
100
AcDbEntity
  8
TEMPLATE
390
1D
100
AcDbLine
 10
4044.509411065372
 20
374.3995877024532
 30
0.0
 11
2538.509411065372
 21
374.3995877024532
 31
0.0
  0
MTEXT
  5
17E
330
A
100
AcDbEntity
  8
TEMPLATE
390
1D
100
AcDbMText
 10
2598.252223569894
 20
314.5787987558371
 30
0.0
 40
48.865234375
 41
0.0
 46
0.0
 71
     1
 72
     1
  1
大洋金物株式会社 ティーフォルム事業部
  7
ＭＳ ゴシック
 73
     1
 44
0.7828267384257843
  0
MTEXT
  5
180
330
A
100
AcDbEntity
  8
TEMPLATE
390
1D
100
AcDbMText
 10
3662.509411065892
 20
470.404822077453
 30
0.0
 40
48.865234375
 41
0.0
 46
24.4326171875
 71
     1
 72
     1
  1
{1:20}
  7
ＭＳ ゴシック
 73
     1
 44
0.7828267384257843
1001
ACAD
1000
ACAD_MTEXT_DEFINED_HEIGHT_BEGIN
1070
    46
1040
24.4326171875
1000
ACAD_MTEXT_DEFINED_HEIGHT_END
  0
MTEXT
  5
181
330
A
100
AcDbEntity
  8
TEMPLATE
390
1D
100
AcDbMText
 10
3556.509411065892
 20
527.5697439524531
 30
0.0
 40
32.57682291666666
 41
0.0
 46
0.0
 71
     1
 72
     1
  1
縮尺
  7
ＭＳ ゴシック
 73
     1
 44
0.7828267384257843
  0
LINE
  5
182
330
A
100
AcDbEntity
  8
TEMPLATE
390
1D
100
AcDbLine
 10
3542.509411065892
 20
374.3995877024532
 30
0.0
 11
3542.509411065892
 21
544.3995877024532
 31
0.0
  0
MTEXT
  5
183
330
A
100
AcDbEntity
  8
TEMPLATE
390
1D
100
AcDbMText
 10
3054.509411065892
 20
527.5697439524531
 30
0.0
 40
32.57682291666666
 41
0.0
 46
0.0
 71
     1
 72
     1
  1
容量
  7
ＭＳ ゴシック
 73
     1
 44
0.7828267384257843
  0
LINE
  5
184
330
A
100
AcDbEntity
  8
TEMPLATE
390
1D
100
AcDbLine
 10
3040.509411065892
 20
374.3995877024532
 30
0.0
 11
3040.509411065892
 21
544.3995877024532
 31
0.0
  0
MTEXT
  5
185
330
A
100
AcDbEntity
  8
TEMPLATE
390
1D
100
AcDbMText
 10
2552.509411065892
 20
697.5697439524535
 30
0.0
 40
32.57682291666666
 41
0.0
 46
0.0
 71
     1
 72
     1
  1
品番
  7
ＭＳ ゴシック
 73
     1
 44
0.7828267384257843
  0
MTEXT
  5
186
330
A
100
AcDbEntity
  8
TEMPLATE
390
1D
100
AcDbMText
 10
2552.509411065892
 20
527.5697439524531
 30
0.0
 40
32.57682291666666
 41
0.0
 46
0.0
 71
     1
 72
     1
  1
重量
  7
ＭＳ ゴシック
 73
     1
 44
0.7828267384257843
  0
MTEXT
  5
187
330
A
100
AcDbEntity
  8
TEMPLATE
390
1D
100
AcDbMText
 10
2658.509411065892
 20
640.404822077453
 30
0.0
 40
48.865234375
 41
0.0
 46
48.865234375
 71
     1
 72
     1
  1
{GAR72-2002}
  7
ＭＳ ゴシック
 73
     1
 44
0.7828267384257843
1001
ACAD
1000
ACAD_MTEXT_DEFINED_HEIGHT_BEGIN
1070
    46
1040
48.865234375
1000
ACAD_MTEXT_DEFINED_HEIGHT_END
  0
LINE
  5
188
330
A
100
AcDbEntity
  8
TEMPLATE
390
1D
100
AcDbLine
 10
2538.509411065892
 20
204.3995877024531
 30
0.0
 11
2538.509411065892
 21
714.399587702453
 31
0.0
  0
MTEXT
  5
189
330
A
100
AcDbEntity
  8
TEMPLATE
390
1D
100
AcDbMText
 10
264.5094110653717
 20
640.404822077453
 30
0.0
 40
48.865234375
 41
0.0
 46
55.071119140625
 71
     1
 72
     1
  1
{バスタブ -LAUFEN,Val-}
  7
ＭＳ ゴシック
 73
     1
 44
0.7828267384257843
1001
ACAD
1000
ACAD_MTEXT_DEFINED_HEIGHT_BEGIN
1070
    46
1040
55.071119140625
1000
ACAD_MTEXT_DEFINED_HEIGHT_END
  0
MTEXT
  5
18A
330
A
100
AcDbEntity
  8
TEMPLATE
390
1D
100
AcDbMText
 10
264.5094110653717
 20
470.404822077453
 30
0.0
 40
48.865234375
 41
0.0
 46
168.6347888376423
 71
     1
 72
     1
  1
{フリースタンディング/ポップアップ排水金具付属\P人造石/ホワイト}
  7
ＭＳ ゴシック
 73
     1
 44
1.304711230709641
1001
ACAD
1000
ACAD_MTEXT_DEFINED_HEIGHT_BEGIN
1070
    46
1040
168.6347888376423
1000
ACAD_MTEXT_DEFINED_HEIGHT_END
  0
INSERT
  5
3D0
330
A
100
AcDbEntity
  8
TEMPLATE
100
AcDbBlockReference
  2
名称未設定-1
 10
3741.627912174218
 20
61.99977220290424
 30
0.0
 41
1.524
 42
1.524
 43
1.524
  0
MTEXT
  5
FDA
330
A
100
AcDbEntity
  8
TEMPLATE
390
1D
100
AcDbMText
 10
2658.509411065892
 20
470.4048220774532
 30
0.0
 40
48.865234375
 41
0.0
 46
56.78140234375
 71
     1
 72
     1
  1
{129kg}
  7
ＭＳ ゴシック
 73
     1
 44
0.7828267384257843
1001
ACAD
1000
ACAD_MTEXT_DEFINED_HEIGHT_BEGIN
1070
    46
1040
56.78140234375
1000
ACAD_MTEXT_DEFINED_HEIGHT_END
  0
MTEXT
  5
FDB
330
A
100
AcDbEntity
  8
TEMPLATE
390
1D
100
AcDbMText
 10
3160.509411065892
 20
470.4048220774532
 30
0.0
 40
48.865234375
 41
0.0
 46
48.865234375
 71
     1
 72
     1
  1
{460L}
  7
ＭＳ ゴシック
 73
     1
 44
0.7828267384257843
1001
ACAD
1000
ACAD_MTEXT_DEFINED_HEIGHT_BEGIN
1070
    46
1040
48.865234375
1000
ACAD_MTEXT_DEFINED_HEIGHT_END
  0
MTEXT
  5
FE2
102
{ACAD_XDICTIONARY
360
FE4
102
}
330
A
100
AcDbEntity
  8
TEMPLATE
  6
Continuous
100
AcDbMText
 10
141.541134898235
 20
177.4591638630141
 30
0.0
 40
43.0
 41
0.0
 46
43.0
 71
     1
 72
     1
  1
{190326N}
  7
ＭＳ ゴシック
 73
     1
 44
1.0
1001
ACAD
1000
ACAD_MTEXT_DEFINED_HEIGHT_BEGIN
1070
    46
1040
43.0
1000
ACAD_MTEXT_DEFINED_HEIGHT_END
  0
SPLINE
  5
10EC
330
A
100
AcDbEntity
  8
HIDDEN
 48
6.0
100
AcDbSpline
210
0.0
220
0.0
230
1.0
 70
     8
 71
     3
 72
    11
 73
     7
 74
     0
 42
0.000000001
 43
0.0000000001
 40
0.0
 40
0.0
 40
0.0
 40
0.0
 40
1.0
 40
1.0
 40
1.0
 40
2.0
 40
2.0
 40
2.0
 40
2.0
 10
3197.335304536412
 20
4537.12193672216
 30
0.0
 10
3197.375354709156
 20
4536.309490360789
 30
0.0
 10
3197.655705918361
 20
4535.468436733183
 30
0.0
 10
3198.187801070523
 20
4534.804748156286
 30
0.0
 10
3198.187801070523
 20
4534.804748156286
 30
0.0
 10
3200.974148802815
 20
4531.211675515882
 30
0.0
 10
3200.974148802815
 20
4531.211675515882
 30
0.0
  0
SPLINE
  5
1101
330
A
100
AcDbEntity
  8
MODEL
100
AcDbSpline
210
0.0
220
0.0
230
1.0
 70
     8
 71
     3
 72
     8
 73
     4
 74
     0
 42
0.000000001
 43
0.0000000001
 40
0.0
 40
0.0
 40
0.0
 40
0.0
 40
1.0
 40
1.0
 40
1.0
 40
1.0
 10
2692.256854615823
 20
5141.81660916215
 30
0.0
 10
2692.256854615823
 20
5141.942481133625
 30
0.0
 10
2692.268297522321
 20
5142.051188745358
 30
0.0
 10
2692.268297522321
 20
5142.108403277849
 30
0.0
  0
SPLINE
  5
1102
330
A
100
AcDbEntity
  8
MODEL
100
AcDbSpline
210
0.0
220
0.0
230
1.0
 70
     8
 71
     3
 72
    11
 73
     7
 74
     0
 42
0.000000001
 43
0.0000000001
 40
1.0
 40
1.0
 40
1.0
 40
1.0
 40
2.0
 40
2.0
 40
2.0
 40
3.0
 40
3.0
 40
3.0
 40
3.0
 10
2692.268297522321
 20
5142.108403277849
 30
0.0
 10
2692.434219666543
 20
5143.790510533076
 30
0.0
 10
2693.9103546048
 20
5145.003458621872
 30
0.0
 10
2695.563854593779
 20
5144.808929211405
 30
0.0
 10
2695.563854593779
 20
5144.808929211405
 30
0.0
 10
3235.068288713969
 20
5088.034948620978
 30
0.0
 10
3235.068288713969
 20
5088.034948620978
 30
0.0
  0
SPLINE
  5
1103
330
A
100
AcDbEntity
  8
MODEL
100
AcDbSpline
210
0.0
220
0.0
230
1.0
 70
     8
 71
     3
 72
    11
 73
     7
 74
     0
 42
0.000000001
 43
0.0000000001
 40
3.0
 40
3.0
 40
3.0
 40
3.0
 40
4.0
 40
4.0
 40
4.0
 40
5.0
 40
5.0
 40
5.0
 40
5.0
 10
3235.068288713969
 20
5088.034948620978
 30
0.0
 10
3236.292679709269
 20
5087.949126822237
 30
0.0
 10
3237.356870013594
 20
5087.03941575564
 30
0.0
 10
3237.660107035793
 20
5085.826467666837
 30
0.0
 10
3237.660107035793
 20
5085.826467666837
 30
0.0
 10
3238.747183153116
 20
5081.844336205493
 30
0.0
 10
3238.747183153116
 20
5081.844336205493
 30
0.0
  0
SPLINE
  5
1104
330
A
100
AcDbEntity
  8
MODEL
100
AcDbSpline
210
0.0
220
0.0
230
1.0
 70
     8
 71
     3
 72
     8
 73
     4
 74
     0
 42
0.000000001
 43
0.0000000001
 40
5.0
 40
5.0
 40
5.0
 40
5.0
 40
6.0
 40
6.0
 40
6.0
 40
6.0
 10
3238.747183153116
 20
5081.844336205493
 30
0.0
 10
3238.981762736327
 20
5080.923182232396
 30
0.0
 10
3239.559629514481
 20
5080.122178777525
 30
0.0
 10
3240.360632969349
 20
5079.572919265618
 30
0.0
  0
SPLINE
  5
1105
330
A
100
AcDbEntity
  8
MODEL
100
AcDbSpline
210
0.0
220
0.0
230
1.0
 70
     8
 71
     3
 72
    14
 73
    10
 74
     0
 42
0.000000001
 43
0.0000000001
 40
6.0
 40
6.0
 40
6.0
 40
6.0
 40
7.0
 40
7.0
 40
7.0
 40
8.0
 40
8.0
 40
8.0
 40
9.0
 40
9.0
 40
9.0
 40
9.0
 10
3240.360632969349
 20
5079.572919265618
 30
0.0
 10
3241.476316352918
 20
5078.800523076989
 30
0.0
 10
3242.122840570061
 20
5077.558967721943
 30
0.0
 10
3242.122840570061
 20
5076.237312021414
 30
0.0
 10
3242.122840570061
 20
5076.237312021414
 30
0.0
 10
3242.122840570061
 20
3913.145966832835
 30
0.0
 10
3242.122840570061
 20
3913.145966832835
 30
0.0
 10
3242.122840570061
 20
3911.778539506307
 30
0.0
 10
3241.476316352918
 20
3910.542705604512
 30
0.0
 10
3240.360632969349
 20
3909.781752322389
 30
0.0
  0
SPLINE
  5
1106
330
A
100
AcDbEntity
  8
MODEL
100
AcDbSpline
210
0.0
220
0.0
230
1.0
 70
     8
 71
     3
 72
    11
 73
     7
 74
     0
 42
0.000000001
 43
0.0000000001
 40
9.0
 40
9.0
 40
9.0
 40
9.0
 40
10.0
 40
10.0
 40
10.0
 40
11.0
 40
11.0
 40
11.0
 40
11.0
 10
3240.360632969349
 20
3909.781752322389
 30
0.0
 10
3239.559629514481
 20
3909.261100076725
 30
0.0
 10
3238.981762736327
 20
3908.460096621853
 30
0.0
 10
3238.747183153116
 20
3907.493171022765
 30
0.0
 10
3238.747183153116
 20
3907.493171022765
 30
0.0
 10
3237.660107035793
 20
3903.511039561414
 30
0.0
 10
3237.660107035793
 20
3903.511039561414
 30
0.0
  0
SPLINE
  5
1107
330
A
100
AcDbEntity
  8
MODEL
100
AcDbSpline
210
0.0
220
0.0
230
1.0
 70
     8
 71
     3
 72
    11
 73
     7
 74
     0
 42
0.000000001
 43
0.0000000001
 40
11.0
 40
11.0
 40
11.0
 40
11.0
 40
12.0
 40
12.0
 40
12.0
 40
13.0
 40
13.0
 40
13.0
 40
13.0
 10
3237.660107035793
 20
3903.511039561414
 30
0.0
 10
3237.356870013594
 20
3902.32669873886
 30
0.0
 10
3236.292679709269
 20
3901.457037845004
 30
0.0
 10
3235.068288713969
 20
3901.30828006053
 30
0.0
 10
3235.068288713969
 20
3901.30828006053
 30
0.0
 10
2695.563854593779
 20
3844.534299470095
 30
0.0
 10
2695.563854593779
 20
3844.534299470095
 30
0.0
  0
SPLINE
  5
1108
330
A
100
AcDbEntity
  8
MODEL
100
AcDbSpline
210
0.0
220
0.0
230
1.0
 70
     8
 71
     3
 72
    14
 73
    10
 74
     0
 42
0.000000001
 43
0.0000000001
 40
13.0
 40
13.0
 40
13.0
 40
13.0
 40
14.0
 40
14.0
 40
14.0
 40
15.0
 40
15.0
 40
15.0
 40
16.0
 40
16.0
 40
16.0
 40
16.0
 10
2695.563854593779
 20
3844.534299470095
 30
0.0
 10
2695.455146982046
 20
3844.534299470095
 30
0.0
 10
2695.357882276813
 20
3844.534299470095
 30
0.0
 10
2695.260617571578
 20
3844.534299470095
 30
0.0
 10
2693.595674676103
 20
3844.534299470095
 30
0.0
 10
2692.256854615823
 20
3845.884562436875
 30
0.0
 10
2692.256854615823
 20
3847.520898066108
 30
0.0
 10
2692.256854615823
 20
3847.520898066108
 30
0.0
 10
2692.256854615823
 20
5141.81660916215
 30
0.0
 10
2692.256854615823
 20
5141.81660916215
 30
0.0
  0
LINE
  5
1109
330
A
100
AcDbEntity
  8
HIDDEN
 48
0.5
100
AcDbLine
 10
3204.750307947196
 20
4526.399933333418
 30
0.0
 11
3209.10433386973
 21
4520.804352055839
 31
0.0
  0
LINE
  5
110A
330
A
100
AcDbEntity
  8
HIDDEN
 48
0.5
100
AcDbLine
 10
3209.10433386973
 20
4520.804352055839
 30
0.0
 11
3216.158885725822
 21
4520.804352055839
 31
0.0
  0
LINE
  5
110B
330
A
100
AcDbEntity
  8
HIDDEN
 48
0.5
100
AcDbLine
 10
3230.342368330245
 20
4520.804352055839
 30
0.0
 11
3237.396920186337
 21
4520.804352055839
 31
0.0
  0
LINE
  5
110C
330
A
100
AcDbEntity
  8
HIDDEN
 48
0.5
100
AcDbLine
 10
3237.396920186337
 20
4520.804352055839
 30
0.0
 11
3237.396920186337
 21
4513.749800199748
 31
0.0
  0
LINE
  5
110D
330
A
100
AcDbEntity
  8
HIDDEN
 48
0.5
100
AcDbLine
 10
3237.396920186337
 20
4501.139717238813
 30
0.0
 11
3237.396920186337
 21
4482.190264077926
 31
0.0
  0
LINE
  5
110E
330
A
100
AcDbEntity
  8
HIDDEN
 48
0.5
100
AcDbLine
 10
3237.396920186337
 20
4475.879501144209
 30
0.0
 11
3237.396920186337
 21
4468.824949288119
 31
0.0
  0
LINE
  5
110F
330
A
100
AcDbEntity
  8
HIDDEN
 48
0.5
100
AcDbLine
 10
3237.396920186337
 20
4468.824949288119
 30
0.0
 11
3230.342368330245
 21
4468.824949288119
 31
0.0
  0
LINE
  5
1110
330
A
100
AcDbEntity
  8
HIDDEN
 48
0.5
100
AcDbLine
 10
3216.158885725822
 20
4468.824949288119
 30
0.0
 11
3209.10433386973
 21
4468.824949288119
 31
0.0
  0
LINE
  5
1111
330
A
100
AcDbEntity
  8
HIDDEN
 48
0.5
100
AcDbLine
 10
3209.10433386973
 20
4468.824949288119
 30
0.0
 11
3204.750307947196
 21
4463.229368010539
 31
0.0
  0
SPLINE
  5
1112
330
A
100
AcDbEntity
  8
HIDDEN
 48
6.0
100
AcDbSpline
210
0.0
220
0.0
230
1.0
 70
    24
 71
     3
 72
     8
 73
     4
 74
     0
 42
0.000000001
 43
0.0000000001
 40
0.0
 40
0.0
 40
0.0
 40
0.0
 40
1.0
 40
1.0
 40
1.0
 40
1.0
 10
3200.974148802815
 20
4458.394740015083
 30
0.0
 10
3200.974148802815
 20
4458.394740015083
 30
0.0
 10
3198.187801070523
 20
4454.813110281171
 30
0.0
 10
3198.187801070523
 20
4454.813110281171
 30
0.0
  0
SPLINE
  5
1113
330
A
100
AcDbEntity
  8
HIDDEN
 48
6.0
100
AcDbSpline
210
0.0
220
0.0
230
1.0
 70
     8
 71
     3
 72
     8
 73
     4
 74
     0
 42
0.000000001
 43
0.0000000001
 40
1.0
 40
1.0
 40
1.0
 40
1.0
 40
2.0
 40
2.0
 40
2.0
 40
2.0
 10
3198.187801070523
 20
4454.813110281171
 30
0.0
 10
3197.655705918361
 20
4454.160864610774
 30
0.0
 10
3197.375354709156
 20
4453.36558260916
 30
0.0
 10
3197.335304536412
 20
4452.484478808805
 30
0.0
  0
LINE
  5
1114
330
A
100
AcDbEntity
  8
HIDDEN
 48
0.5
100
AcDbLine
 10
3177.338825430946
 20
4494.817511398604
 30
0.0
 11
3242.397470326016
 21
4494.817511398604
 31
0.0
  0
SPLINE
  5
1115
330
A
100
AcDbEntity
  8
MODEL
100
AcDbSpline
210
0.0
220
0.0
230
1.0
 70
     8
 71
     3
 72
     8
 73
     4
 74
     0
 42
0.000000001
 43
0.0000000001
 40
0.0
 40
0.0
 40
0.0
 40
0.0
 40
1.0
 40
1.0
 40
1.0
 40
1.0
 10
2692.256854615823
 20
3855.65108313302
 30
0.0
 10
2692.256854615823
 20
3856.629451638615
 30
0.0
 10
2692.726013782246
 20
3857.556327064962
 30
0.0
 10
2693.538460143612
 20
3858.105586576869
 30
0.0
  0
SPLINE
  5
1116
330
A
100
AcDbEntity
  8
HIDDEN
 48
6.0
100
AcDbSpline
210
0.0
220
0.0
230
1.0
 70
     8
 71
     3
 72
     8
 73
     4
 74
     0
 42
0.000000001
 43
0.0000000001
 40
1.0
 40
1.0
 40
1.0
 40
1.0
 40
2.0
 40
2.0
 40
2.0
 40
2.0
 10
2693.538460143612
 20
3858.105586576869
 30
0.0
 10
2694.694193699922
 20
3858.91803293824
 30
0.0
 10
2695.86709161598
 20
3859.719036393104
 30
0.0
 10
2697.051432438536
 20
3860.462825315484
 30
0.0
  0
SPLINE
  5
1117
330
A
100
AcDbEntity
  8
HIDDEN
 48
6.0
100
AcDbSpline
210
0.0
220
0.0
230
1.0
 70
     8
 71
     3
 72
     8
 73
     4
 74
     0
 42
0.000000001
 43
0.0000000001
 40
0.0
 40
0.0
 40
0.0
 40
0.0
 40
1.0
 40
1.0
 40
1.0
 40
1.0
 10
2709.301063844775
 20
3867.3686193871
 30
0.0
 10
2719.994459967268
 20
3872.546534577497
 30
0.0
 10
2731.448809371889
 20
3876.048063965925
 30
0.0
 10
2743.246445971453
 20
3877.741614127644
 30
0.0
  0
SPLINE
  5
1118
330
A
100
AcDbEntity
  8
HIDDEN
 48
6.0
100
AcDbSpline
210
0.0
220
0.0
230
1.0
 70
     8
 71
     3
 72
     8
 73
     4
 74
     0
 42
0.000000001
 43
0.0000000001
 40
1.0
 40
1.0
 40
1.0
 40
1.0
 40
2.0
 40
2.0
 40
2.0
 40
2.0
 10
2743.246445971453
 20
3877.741614127644
 30
0.0
 10
2745.87831446602
 20
3878.113508588835
 30
0.0
 10
2748.510182960587
 20
3878.405302704541
 30
0.0
 10
2751.170658721402
 20
3878.582667755258
 30
0.0
  0
SPLINE
  5
1119
330
A
100
AcDbEntity
  8
HIDDEN
 48
6.0
100
AcDbSpline
210
0.0
220
0.0
230
1.0
 70
    24
 71
     3
 72
     8
 73
     4
 74
     0
 42
0.000000001
 43
0.0000000001
 40
2.0
 40
2.0
 40
2.0
 40
2.0
 40
3.0
 40
3.0
 40
3.0
 40
3.0
 10
2751.170658721402
 20
3878.582667755258
 30
0.0
 10
2751.54255318259
 20
3878.611275021507
 30
0.0
 10
2751.914447643779
 20
3878.639882287749
 30
0.0
 10
2752.286342104969
 20
3878.668489553991
 30
0.0
  0
SPLINE
  5
111A
330
A
100
AcDbEntity
  8
HIDDEN
 48
6.0
100
AcDbSpline
210
0.0
220
0.0
230
1.0
 70
     8
 71
     3
 72
     8
 73
     4
 74
     0
 42
0.000000001
 43
0.0000000001
 40
3.0
 40
3.0
 40
3.0
 40
3.0
 40
4.0
 40
4.0
 40
4.0
 40
4.0
 10
2752.286342104969
 20
3878.668489553991
 30
0.0
 10
2752.572414767422
 20
3878.69709682024
 30
0.0
 10
2752.875651789621
 20
3878.737146992982
 30
0.0
 10
2753.167445905324
 20
3878.737146992982
 30
0.0
  0
SPLINE
  5
111B
330
A
100
AcDbEntity
  8
HIDDEN
 48
6.0
100
AcDbSpline
210
0.0
220
0.0
230
1.0
 70
     8
 71
     3
 72
     8
 73
     4
 74
     0
 42
0.000000001
 43
0.0000000001
 40
4.0
 40
4.0
 40
4.0
 40
4.0
 40
5.0
 40
5.0
 40
5.0
 40
5.0
 10
2753.167445905324
 20
3878.737146992982
 30
0.0
 10
2755.164233089245
 20
3878.874461870964
 30
0.0
 10
2757.149577366669
 20
3879.023219655439
 30
0.0
 10
2759.134921644093
 20
3879.137648720414
 30
0.0
  0
SPLINE
  5
111C
330
A
100
AcDbEntity
  8
HIDDEN
 48
6.0
100
AcDbSpline
210
0.0
220
0.0
230
1.0
 70
     8
 71
     3
 72
     8
 73
     4
 74
     0
 42
0.000000001
 43
0.0000000001
 40
5.0
 40
5.0
 40
5.0
 40
5.0
 40
6.0
 40
6.0
 40
6.0
 40
6.0
 10
2759.134921644093
 20
3879.137648720414
 30
0.0
 10
2872.820197702932
 20
3886.506880505211
 30
0.0
 10
2986.471145042276
 20
3893.853226477
 30
0.0
 10
3100.047713489382
 20
3901.251065528038
 30
0.0
  0
SPLINE
  5
111D
330
A
100
AcDbEntity
  8
HIDDEN
 48
6.0
100
AcDbSpline
210
0.0
220
0.0
230
1.0
 70
     8
 71
     3
 72
    17
 73
    13
 74
     0
 42
0.000000001
 43
0.0000000001
 40
6.0
 40
6.0
 40
6.0
 40
6.0
 40
7.0
 40
7.0
 40
7.0
 40
8.0
 40
8.0
 40
8.0
 40
9.0
 40
9.0
 40
9.0
 40
10.0
 40
10.0
 40
10.0
 40
10.0
 10
3100.047713489382
 20
3901.251065528038
 30
0.0
 10
3144.114346413648
 20
3904.08890633957
 30
0.0
 10
3178.855010541946
 20
3939.853710599451
 30
0.0
 10
3180.457017451684
 20
3984.017608228951
 30
0.0
 10
3180.457017451684
 20
3984.017608228951
 30
0.0
 10
3197.335304536412
 20
4452.484478808805
 30
0.0
 10
3197.335304536412
 20
4452.484478808805
 30
0.0
 10
3197.335304536412
 20
4452.484478808805
 30
0.0
 10
3197.335304536412
 20
4537.12193672216
 30
0.0
 10
3197.335304536412
 20
4537.12193672216
 30
0.0
 10
3197.335304536412
 20
4537.12193672216
 30
0.0
 10
3180.457017451684
 20
5005.354227718799
 30
0.0
 10
3180.457017451684
 20
5005.354227718799
 30
0.0
  0
SPLINE
  5
111E
330
A
100
AcDbEntity
  8
HIDDEN
 48
6.0
100
AcDbSpline
210
0.0
220
0.0
230
1.0
 70
     8
 71
     3
 72
     8
 73
     4
 74
     0
 42
0.000000001
 43
0.0000000001
 40
10.0
 40
10.0
 40
10.0
 40
10.0
 40
11.0
 40
11.0
 40
11.0
 40
11.0
 10
3180.457017451684
 20
5005.354227718799
 30
0.0
 10
3178.855010541946
 20
5049.478075175557
 30
0.0
 10
3144.114346413648
 20
5085.248600888681
 30
0.0
 10
3100.047713489382
 20
5088.115048966461
 30
0.0
  0
SPLINE
  5
111F
330
A
100
AcDbEntity
  8
HIDDEN
 48
6.0
100
AcDbSpline
210
0.0
220
0.0
230
1.0
 70
     8
 71
     3
 72
     8
 73
     4
 74
     0
 42
0.000000001
 43
0.0000000001
 40
11.0
 40
11.0
 40
11.0
 40
11.0
 40
12.0
 40
12.0
 40
12.0
 40
12.0
 10
3100.047713489382
 20
5088.115048966461
 30
0.0
 10
2986.471145042276
 20
5095.501445111
 30
0.0
 10
2872.820197702932
 20
5102.859233989289
 30
0.0
 10
2759.134921644093
 20
5110.245630133828
 30
0.0
  0
SPLINE
  5
1120
330
A
100
AcDbEntity
  8
HIDDEN
 48
6.0
100
AcDbSpline
210
0.0
220
0.0
230
1.0
 70
     8
 71
     3
 72
     8
 73
     4
 74
     0
 42
0.000000001
 43
0.0000000001
 40
12.0
 40
12.0
 40
12.0
 40
12.0
 40
13.0
 40
13.0
 40
13.0
 40
13.0
 10
2759.134921644093
 20
5110.245630133828
 30
0.0
 10
2757.149577366669
 20
5110.360059198811
 30
0.0
 10
2755.164233089245
 20
5110.468766810543
 30
0.0
 10
2753.167445905324
 20
5110.606081688518
 30
0.0
  0
SPLINE
  5
1121
330
A
100
AcDbEntity
  8
HIDDEN
 48
6.0
100
AcDbSpline
210
0.0
220
0.0
230
1.0
 70
     8
 71
     3
 72
     8
 73
     4
 74
     0
 42
0.000000001
 43
0.0000000001
 40
13.0
 40
13.0
 40
13.0
 40
13.0
 40
14.0
 40
14.0
 40
14.0
 40
14.0
 10
2753.167445905324
 20
5110.606081688518
 30
0.0
 10
2752.875651789621
 20
5110.646131861267
 30
0.0
 10
2752.572414767422
 20
5110.646131861267
 30
0.0
 10
2752.286342104969
 20
5110.686182034009
 30
0.0
  0
SPLINE
  5
1122
330
A
100
AcDbEntity
  8
HIDDEN
 48
6.0
100
AcDbSpline
210
0.0
220
0.0
230
1.0
 70
    24
 71
     3
 72
     8
 73
     4
 74
     0
 42
0.000000001
 43
0.0000000001
 40
14.0
 40
14.0
 40
14.0
 40
14.0
 40
15.0
 40
15.0
 40
15.0
 40
15.0
 10
2752.286342104969
 20
5110.686182034009
 30
0.0
 10
2751.914447643779
 20
5110.714789300251
 30
0.0
 10
2751.54255318259
 20
5110.7433965665
 30
0.0
 10
2751.170658721402
 20
5110.772003832742
 30
0.0
  0
SPLINE
  5
1123
330
A
100
AcDbEntity
  8
HIDDEN
 48
6.0
100
AcDbSpline
210
0.0
220
0.0
230
1.0
 70
     8
 71
     3
 72
     8
 73
     4
 74
     0
 42
0.000000001
 43
0.0000000001
 40
15.0
 40
15.0
 40
15.0
 40
15.0
 40
16.0
 40
16.0
 40
16.0
 40
16.0
 10
2751.170658721402
 20
5110.772003832742
 30
0.0
 10
2748.510182960587
 20
5110.937925976967
 30
0.0
 10
2745.87831446602
 20
5111.212555732924
 30
0.0
 10
2743.246445971453
 20
5111.595893100606
 30
0.0
  0
SPLINE
  5
1124
330
A
100
AcDbEntity
  8
HIDDEN
 48
6.0
100
AcDbSpline
210
0.0
220
0.0
230
1.0
 70
     8
 71
     3
 72
     8
 73
     4
 74
     0
 42
0.000000001
 43
0.0000000001
 40
16.0
 40
16.0
 40
16.0
 40
16.0
 40
17.0
 40
17.0
 40
17.0
 40
17.0
 10
2743.246445971453
 20
5111.595893100606
 30
0.0
 10
2729.108734993023
 20
5113.667059176765
 30
0.0
 10
2715.451626087514
 20
5118.307157761756
 30
0.0
 10
2703.007465270807
 20
5125.281609272362
 30
0.0
  0
SPLINE
  5
1125
330
A
100
AcDbEntity
  8
HIDDEN
 48
6.0
100
AcDbSpline
210
0.0
220
0.0
230
1.0
 70
     8
 71
     3
 72
     8
 73
     4
 74
     0
 42
0.000000001
 43
0.0000000001
 40
0.0
 40
0.0
 40
0.0
 40
0.0
 40
1.0
 40
1.0
 40
1.0
 40
1.0
 10
2697.039989532036
 20
5128.903289179016
 30
0.0
 10
2695.855648709482
 20
5129.664242461145
 30
0.0
 10
2694.694193699922
 20
5130.425195743268
 30
0.0
 10
2693.538460143612
 20
5131.237642104632
 30
0.0
  0
SPLINE
  5
1126
330
A
100
AcDbEntity
  8
MODEL
100
AcDbSpline
210
0.0
220
0.0
230
1.0
 70
     8
 71
     3
 72
     8
 73
     4
 74
     0
 42
0.000000001
 43
0.0000000001
 40
1.0
 40
1.0
 40
1.0
 40
1.0
 40
2.0
 40
2.0
 40
2.0
 40
2.0
 10
2693.538460143612
 20
5131.237642104632
 30
0.0
 10
2692.726013782246
 20
5131.815508882788
 30
0.0
 10
2692.256854615823
 20
5132.708055589643
 30
0.0
 10
2692.256854615823
 20
5133.732195721223
 30
0.0
  0
LINE
  5
1127
330
A
100
AcDbEntity
  8
HIDDEN
 48
0.5
100
AcDbLine
 10
3209.10433386973
 20
4468.824949288119
 30
0.0
 11
3209.10433386973
 21
4475.879501144209
 31
0.0
  0
LINE
  5
1128
330
A
100
AcDbEntity
  8
HIDDEN
 48
0.5
100
AcDbLine
 10
3209.10433386973
 20
4488.489584105144
 30
0.0
 11
3209.10433386973
 21
4507.467644532273
 31
0.0
  0
LINE
  5
1129
330
A
100
AcDbEntity
  8
HIDDEN
 48
0.5
100
AcDbLine
 10
3209.10433386973
 20
4513.749800199748
 30
0.0
 11
3209.10433386973
 21
4520.804352055839
 31
0.0
  0
DIMENSION
  5
1223
330
A
100
AcDbEntity
  8
DIM
  6
Continuous
100
AcDbDimension
  2
*D11
 10
3546.556210006741
 20
4719.847989137412
 30
0.0
 11
3502.056210006741
 21
4494.8289543051
 31
0.0
 70
    32
 71
     5
 42
450.0380696646243
 73
     0
 74
     0
 75
     0
  3
tform線あり
100
AcDbAlignedDimension
 13
3344.672170856041
 23
4269.809919472787
 33
0.0
 14
3344.672170856041
 24
4719.847989137412
 34
0.0
 50
89.99999999999999
100
AcDbRotatedDimension
  0
DIMENSION
  5
128C
330
A
100
AcDbEntity
  8
DIM
  6
Continuous
100
AcDbDimension
  2
*D14
 10
3717.734206087945
 20
5087.3289543051
 30
0.0
 11
3673.234206087945
 21
4494.8289543051
 31
0.0
 70
    32
 71
     5
 42
1185.0
 73
     0
 74
     0
 75
     0
  3
tform線あり
100
AcDbAlignedDimension
 13
3242.122840570061
 23
3902.3289543051
 33
0.0
 14
3242.122840570061
 24
5087.3289543051
 34
0.0
 50
89.99999999999999
100
AcDbRotatedDimension
  0
LINE
  5
138E
330
A
100
AcDbEntity
  8
MODEL
  6
Continuous
100
AcDbLine
 10
1376.891853844361
 20
4048.539490086602
 30
0.0
 11
1201.891853844361
 21
4351.648381411155
 31
0.0
  0
LINE
  5
1392
102
{ACAD_REACTORS
330
1429
102
}
330
A
100
AcDbEntity
  8
DIM
  6
Continuous
100
AcDbLine
 10
1092.670495411421
 20
4367.62024273181
 30
0.0
 11
1047.579028132761
 21
4445.720955046279
 31
0.0
  0
LINE
  5
1393
102
{ACAD_REACTORS
330
142F
102
}
330
A
100
AcDbEntity
  8
DIM
  6
Continuous
100
AcDbLine
 10
1275.855884339408
 20
3872.842129939266
 30
0.0
 11
1312.718316085829
 21
3937.387662187383
 31
0.0
  0
LINE
  5
1395
102
{ACAD_REACTORS
330
1429
102
}
330
A
100
AcDbEntity
  8
DIM
  6
Continuous
100
AcDbLine
 10
1316.447426113187
 20
4759.450092600527
 30
0.0
 11
1271.355958834527
 21
4837.550804914993
 31
0.0
  0
LINE
  5
1396
330
A
100
AcDbEntity
  8
MODEL
  6
Continuous
100
AcDbLine
 10
1201.891853844361
 20
4351.648381411155
 30
0.0
 11
1101.891853844361
 21
4351.648381411155
 31
0.0
  0
LINE
  5
1397
330
A
100
AcDbEntity
  8
HIDDEN
 48
6.0
100
AcDbLine
 10
1326.891853844361
 20
3961.936949708158
 30
0.0
 11
1426.891853844361
 21
3961.936949708158
 31
0.0
  0
LINE
  5
1399
102
{ACAD_REACTORS
330
1743
102
}
330
A
100
AcDbEntity
  8
HIDDEN
  6
CENTER
 48
2.0
100
AcDbLine
 10
1328.725960559766
 20
4521.676696150455
 30
0.0
 11
1528.725960559766
 21
4175.26653463668
 31
0.0
  0
LINE
  5
139A
102
{ACAD_REACTORS
330
1429
102
}
330
A
100
AcDbEntity
  8
DIM
  6
Continuous
100
AcDbLine
 10
1047.579028132761
 20
4445.720955046279
 30
0.0
 11
1271.355958834527
 21
4837.550804914993
 31
0.0
  0
LINE
  5
139B
330
A
100
AcDbEntity
  8
MODEL
  6
Continuous
100
AcDbLine
 10
1101.891853844361
 20
4351.648381411155
 30
0.0
 11
1326.891853844361
 21
3961.936949708158
 31
0.0
  0
LINE
  5
139D
102
{ACAD_REACTORS
330
142F
102
}
330
A
100
AcDbEntity
  8
DIM
  6
Continuous
100
AcDbLine
 10
1275.855884339408
 20
3872.842129939266
 30
0.0
 11
1216.042606342166
 21
3976.44176639773
 31
0.0
  0
LINE
  5
139E
102
{ACAD_REACTORS
330
142F
102
}
330
A
100
AcDbEntity
  8
DIM
  6
Continuous
100
AcDbLine
 10
1216.042606342166
 20
3976.44176639773
 30
0.0
 11
1252.905038088586
 21
4040.987298645848
 31
0.0
  0
LINE
  5
13A0
102
{ACAD_REACTORS
330
1428
102
}
330
A
100
AcDbEntity
  8
DIM
  6
Continuous
100
AcDbLine
 10
1380.470941523072
 20
3869.135247625441
 30
0.0
 11
1440.470941523072
 21
3973.058296079575
 31
0.0
  0
LINE
  5
13A1
102
{ACAD_REACTORS
330
1428
102
}
330
A
100
AcDbEntity
  8
DIM
  6
Continuous
100
AcDbLine
 10
1440.470941523072
 20
3973.058296079575
 30
0.0
 11
1398.900491901148
 21
4045.06042691823
 31
0.0
  0
LINE
  5
13A2
102
{ACAD_REACTORS
330
1428
102
}
330
A
100
AcDbEntity
  8
DIM
  6
Continuous
100
AcDbLine
 10
1380.470941523072
 20
3869.135247625441
 30
0.0
 11
1338.900491901148
 21
3941.137378464097
 31
0.0
  0
LINE
  5
13A3
330
A
100
AcDbEntity
  8
HIDDEN
 48
6.0
100
AcDbLine
 10
1376.891853844361
 20
4048.539490086602
 30
0.0
 11
1426.891853844361
 21
3961.936949708158
 31
0.0
  0
LINE
  5
13A5
102
{ACAD_REACTORS
330
13E3
102
}
330
A
100
AcDbEntity
  8
DIM
  6
CENTER
 62
     4
 48
3.0
100
AcDbLine
 10
1470.658668475147
 20
4093.97669999045
 30
0.0
 11
1383.125039213573
 21
4245.589393242394
 31
0.0
  0
ELLIPSE
  5
13A6
102
{ACAD_REACTORS
330
13E3
102
}
330
A
100
AcDbEntity
  8
MODEL
  6
Continuous
100
AcDbEllipse
 10
1426.891853844361
 20
4169.783046616422
 30
0.0
 11
9.280033338842780E-15
 21
30.31088913245485
 31
0.0
210
0.0
220
0.0
230
1.0
 40
0.5773502691896373
 41
0.0
 42
6.283185307179586
  0
LINE
  5
13A7
102
{ACAD_REACTORS
330
13E3
102
}
330
A
100
AcDbEntity
  8
DIM
  6
CENTER
 62
     4
 48
3.0
100
AcDbLine
 10
1383.125039213573
 20
4093.97669999045
 30
0.0
 11
1470.658668475147
 21
4245.589393242394
 31
0.0
  0
MTEXT
  5
13A8
102
{ACAD_REACTORS
330
142F
102
}
330
A
100
AcDbEntity
  8
DIM
390
1D
100
AcDbMText
 10
1190.529135171728
 20
3844.492151809422
 30
0.0
 40
48.865234375
 41
0.0
 46
48.865234375
 71
     1
 72
     1
  1
{120}
  7
ＭＳ ゴシック
 11
3.061616997868383E-16
 21
1.0
 31
0.0
 73
     1
 44
0.7828267384257843
1001
ACAD
1000
ACAD_MTEXT_DEFINED_HEIGHT_BEGIN
1070
    46
1040
48.865234375
1000
ACAD_MTEXT_DEFINED_HEIGHT_END
  0
MTEXT
  5
13A9
102
{ACAD_REACTORS
330
1428
102
}
330
A
100
AcDbEntity
  8
DIM
390
1D
100
AcDbMText
 10
1421.474320976453
 20
3837.267198150282
 30
0.0
 40
48.865234375
 41
0.0
 46
48.865234375
 71
     1
 72
     1
  1
{120}
  7
ＭＳ ゴシック
 11
3.061616997868383E-16
 21
1.0
 31
0.0
 73
     1
 44
0.7828267384257843
1001
ACAD
1000
ACAD_MTEXT_DEFINED_HEIGHT_BEGIN
1070
    46
1040
48.865234375
1000
ACAD_MTEXT_DEFINED_HEIGHT_END
  0
MTEXT
  5
13AA
102
{ACAD_REACTORS
330
1429
102
}
330
A
100
AcDbEntity
  8
DIM
390
1D
100
AcDbMText
 10
1093.674411181175
 20
4640.266087685338
 30
0.0
 40
48.865234375
 41
0.0
 46
48.865234375
 71
     1
 72
     1
  1
{450}
  7
ＭＳ ゴシック
 11
3.061616997868383E-16
 21
1.0
 31
0.0
 73
     1
 44
0.7828267384257843
1001
ACAD
1000
ACAD_MTEXT_DEFINED_HEIGHT_BEGIN
1070
    46
1040
48.865234375
1000
ACAD_MTEXT_DEFINED_HEIGHT_END
  0
LINE
  5
13AB
102
{ACAD_REACTORS
330
13F0
102
}
330
A
100
AcDbEntity
  8
DIM
  6
Continuous
100
AcDbLine
 10
1426.891853844361
 20
4771.750908151157
 30
0.0
 11
1426.891853844361
 21
4849.851620465623
 31
0.0
  0
LINE
  5
13AC
102
{ACAD_REACTORS
330
13F0
102
}
330
A
100
AcDbEntity
  8
DIM
  6
Continuous
100
AcDbLine
 10
1326.891853844361
 20
4771.750908151157
 30
0.0
 11
1326.891853844361
 21
4849.851620465623
 31
0.0
  0
LINE
  5
13AD
102
{ACAD_REACTORS
330
13F0
102
}
330
A
100
AcDbEntity
  8
DIM
  6
Continuous
100
AcDbLine
 10
1326.891853844361
 20
4849.851620465623
 30
0.0
 11
1426.891853844361
 21
4849.851620465623
 31
0.0
  0
MTEXT
  5
13AE
102
{ACAD_REACTORS
330
13F0
102
}
330
A
100
AcDbEntity
  8
DIM
390
1D
100
AcDbMText
 10
1351.036716340837
 20
4869.140332560083
 30
0.0
 40
48.865234375
 41
0.0
 46
48.865234375
 71
     1
 72
     1
  1
{100}
  7
ＭＳ ゴシック
 11
3.061616997868383E-16
 21
1.0
 31
0.0
 73
     1
 44
0.7828267384257843
1001
ACAD
1000
ACAD_MTEXT_DEFINED_HEIGHT_BEGIN
1070
    46
1040
48.865234375
1000
ACAD_MTEXT_DEFINED_HEIGHT_END
  0
LINE
  5
13AF
330
A
100
AcDbEntity
  8
MODEL
  6
Continuous
100
AcDbLine
 10
1449.072374733141
 20
4164.259936885667
 30
0.0
 11
1692.953379471826
 21
4039.581302436946
 31
0.0
  0
MTEXT
  5
13B0
330
A
100
AcDbEntity
  8
DIM
390
1D
100
AcDbMText
 10
1710.164362714936
 20
3919.43932606772
 30
0.0
 40
48.865234375
 41
0.0
 46
54.338140625
 71
     1
 72
     1
  1
{排水位置}
  7
ＭＳ ゴシック
 11
3.061616997868383E-16
 21
1.0
 31
0.0
 73
     1
 44
0.7828267384257843
1001
ACAD
1000
ACAD_MTEXT_DEFINED_HEIGHT_BEGIN
1070
    46
1040
54.338140625
1000
ACAD_MTEXT_DEFINED_HEIGHT_END
  0
HATCH
  5
13B1
102
{ACAD_REACTORS
330
142F
102
}
330
A
100
AcDbEntity
  8
DIM
  6
Continuous
100
AcDbHatch
 10
0.0
 20
0.0
 30
0.0
210
0.0
220
0.0
230
1.0
  2
SOLID
 70
     1
 71
     0
 91
        1
 92
        1
 93
        1
 72
     3
 10
1275.855884339408
 20
3872.842129939266
 11
0.0
 21
7.577722283112962
 40
0.5773502691896926
 50
0.0
 51
360.0
 73
     1
 97
        0
 75
     0
 76
     1
 98
        1
 10
4358.228935493712
 20
-1171.593579706561
1001
ACAD
1010
0.0
1020
0.0
1030
0.0
  0
ELLIPSE
  5
13B2
102
{ACAD_REACTORS
330
142F
102
}
330
A
100
AcDbEntity
  8
DIM
  6
Continuous
100
AcDbEllipse
 10
1275.855884339408
 20
3872.842129939266
 30
0.0
 11
2.320008334710695E-15
 21
7.577722283113712
 31
0.0
210
0.0
220
0.0
230
1.0
 40
0.5773502691896373
 41
0.0
 42
6.283185307179586
  0
HATCH
  5
13B3
102
{ACAD_REACTORS
330
142F
102
}
330
A
100
AcDbEntity
  8
DIM
  6
Continuous
100
AcDbHatch
 10
0.0
 20
0.0
 30
0.0
210
0.0
220
0.0
230
1.0
  2
SOLID
 70
     1
 71
     0
 91
        1
 92
        1
 93
        1
 72
     3
 10
1216.042606342166
 20
3976.44176639773
 11
0.0
 21
7.577722283112962
 40
0.5773502691896926
 50
0.0
 51
360.0
 73
     1
 97
        0
 75
     0
 76
     1
 98
        1
 10
4298.415657496472
 20
-1067.993943248097
1001
ACAD
1010
0.0
1020
0.0
1030
0.0
  0
ELLIPSE
  5
13B4
102
{ACAD_REACTORS
330
142F
102
}
330
A
100
AcDbEntity
  8
DIM
  6
Continuous
100
AcDbEllipse
 10
1216.042606342166
 20
3976.44176639773
 30
0.0
 11
2.320008334710695E-15
 21
7.577722283113712
 31
0.0
210
0.0
220
0.0
230
1.0
 40
0.5773502691896373
 41
0.0
 42
6.283185307179586
  0
HATCH
  5
13B5
102
{ACAD_REACTORS
330
1428
102
}
330
A
100
AcDbEntity
  8
DIM
  6
Continuous
100
AcDbHatch
 10
0.0
 20
0.0
 30
0.0
210
0.0
220
0.0
230
1.0
  2
SOLID
 70
     1
 71
     0
 91
        1
 92
        1
 93
        1
 72
     3
 10
1380.470941523072
 20
3869.135247625441
 11
0.0
 21
7.577722283112962
 40
0.5773502691896926
 50
0.0
 51
360.0
 73
     1
 97
        0
 75
     0
 76
     1
 98
        1
 10
4462.843992677378
 20
-1175.300462020386
1001
ACAD
1010
0.0
1020
0.0
1030
0.0
  0
ELLIPSE
  5
13B6
102
{ACAD_REACTORS
330
1428
102
}
330
A
100
AcDbEntity
  8
DIM
  6
Continuous
100
AcDbEllipse
 10
1380.470941523072
 20
3869.135247625441
 30
0.0
 11
2.320008334710695E-15
 21
7.577722283113712
 31
0.0
210
0.0
220
0.0
230
1.0
 40
0.5773502691896373
 41
0.0
 42
6.283185307179586
  0
HATCH
  5
13B7
102
{ACAD_REACTORS
330
1428
102
}
330
A
100
AcDbEntity
  8
DIM
  6
Continuous
100
AcDbHatch
 10
0.0
 20
0.0
 30
0.0
210
0.0
220
0.0
230
1.0
  2
SOLID
 70
     1
 71
     0
 91
        1
 92
        1
 93
        1
 72
     3
 10
1440.470941523072
 20
3973.058296079575
 11
0.0
 21
7.577722283112962
 40
0.5773502691896926
 50
0.0
 51
360.0
 73
     1
 97
        0
 75
     0
 76
     1
 98
        1
 10
4522.843992677378
 20
-1071.377413566252
1001
ACAD
1010
0.0
1020
0.0
1030
0.0
  0
ELLIPSE
  5
13B8
102
{ACAD_REACTORS
330
1428
102
}
330
A
100
AcDbEntity
  8
DIM
  6
Continuous
100
AcDbEllipse
 10
1440.470941523072
 20
3973.058296079575
 30
0.0
 11
2.320008334710695E-15
 21
7.577722283113712
 31
0.0
210
0.0
220
0.0
230
1.0
 40
0.5773502691896373
 41
0.0
 42
6.283185307179586
  0
HATCH
  5
13B9
102
{ACAD_REACTORS
330
1429
102
}
330
A
100
AcDbEntity
  8
DIM
  6
Continuous
100
AcDbHatch
 10
0.0
 20
0.0
 30
0.0
210
0.0
220
0.0
230
1.0
  2
SOLID
 70
     1
 71
     0
 91
        1
 92
        1
 93
        1
 72
     3
 10
1047.579028132761
 20
4445.720955046279
 11
0.0
 21
7.577722283112962
 40
0.5773502691896926
 50
0.0
 51
360.0
 73
     1
 97
        0
 75
     0
 76
     1
 98
        1
 10
4129.952079287067
 20
-598.7147545995485
1001
ACAD
1010
0.0
1020
0.0
1030
0.0
  0
ELLIPSE
  5
13BA
102
{ACAD_REACTORS
330
1429
102
}
330
A
100
AcDbEntity
  8
DIM
  6
Continuous
100
AcDbEllipse
 10
1047.579028132761
 20
4445.720955046279
 30
0.0
 11
2.320008334710695E-15
 21
7.577722283113712
 31
0.0
210
0.0
220
0.0
230
1.0
 40
0.5773502691896373
 41
0.0
 42
6.283185307179586
  0
HATCH
  5
13BB
102
{ACAD_REACTORS
330
1429
102
}
330
A
100
AcDbEntity
  8
DIM
  6
Continuous
100
AcDbHatch
 10
0.0
 20
0.0
 30
0.0
210
0.0
220
0.0
230
1.0
  2
SOLID
 70
     1
 71
     0
 91
        1
 92
        1
 93
        1
 72
     3
 10
1271.355958834527
 20
4837.550804914993
 11
0.0
 21
7.577722283114781
 40
0.5773502691895539
 50
0.0
 51
360.0
 73
     1
 97
        0
 75
     0
 76
     1
 98
        1
 10
4353.729009988833
 20
-206.8849047308331
1001
ACAD
1010
0.0
1020
0.0
1030
0.0
  0
ELLIPSE
  5
13BC
102
{ACAD_REACTORS
330
1429
102
}
330
A
100
AcDbEntity
  8
DIM
  6
Continuous
100
AcDbEllipse
 10
1271.355958834527
 20
4837.550804914993
 30
0.0
 11
2.320008334710695E-15
 21
7.577722283113712
 31
0.0
210
0.0
220
0.0
230
1.0
 40
0.5773502691896373
 41
0.0
 42
6.283185307179586
  0
HATCH
  5
13BD
102
{ACAD_REACTORS
330
13F0
102
}
330
A
100
AcDbEntity
  8
DIM
  6
Continuous
100
AcDbHatch
 10
0.0
 20
0.0
 30
0.0
210
0.0
220
0.0
230
1.0
  2
SOLID
 70
     1
 71
     0
 91
        1
 92
        1
 93
        1
 72
     2
 10
1426.891853844361
 20
4849.851620465623
 40
7.577722283113872
 50
89.99999999999999
 51
450.0
 73
     1
 97
        0
 75
     0
 76
     1
 98
        1
 10
4312.530831629009
 20
-1458.747928976231
1001
ACAD
1010
0.0
1020
0.0
1030
0.0
  0
CIRCLE
  5
13BE
102
{ACAD_REACTORS
330
13F0
102
}
330
A
100
AcDbEntity
  8
DIM
  6
Continuous
100
AcDbCircle
 10
1426.891853844361
 20
4849.851620465623
 30
0.0
 40
7.577722283113872
  0
HATCH
  5
13BF
102
{ACAD_REACTORS
330
13F0
102
}
330
A
100
AcDbEntity
  8
DIM
  6
Continuous
100
AcDbHatch
 10
0.0
 20
0.0
 30
0.0
210
0.0
220
0.0
230
1.0
  2
SOLID
 70
     1
 71
     0
 91
        1
 92
        1
 93
        1
 72
     2
 10
1326.891853844361
 20
4849.851620465623
 40
7.577722283113872
 50
89.99999999999999
 51
450.0
 73
     1
 97
        0
 75
     0
 76
     1
 98
        1
 10
4212.530831629009
 20
-1458.747928976231
1001
ACAD
1010
0.0
1020
0.0
1030
0.0
  0
CIRCLE
  5
13C0
102
{ACAD_REACTORS
330
13F0
102
}
330
A
100
AcDbEntity
  8
DIM
  6
Continuous
100
AcDbCircle
 10
1326.891853844361
 20
4849.851620465623
 30
0.0
 40
7.577722283113872
  0
MTEXT
  5
13C3
330
A
100
AcDbEntity
  8
DIM
390
1D
100
AcDbMText
 10
689.3281478974241
 20
4265.196331604075
 30
0.0
 40
48.865234375
 41
0.0
 46
53.556296875
 71
     1
 72
     1
  1
{床加工図}
  7
ＭＳ ゴシック
 11
3.061616997868383E-16
 21
1.0
 31
0.0
 73
     1
 44
0.7828267384257843
1001
ACAD
1000
ACAD_MTEXT_DEFINED_HEIGHT_BEGIN
1070
    46
1040
53.556296875
1000
ACAD_MTEXT_DEFINED_HEIGHT_END
  0
LINE
  5
13C4
102
{ACAD_REACTORS
330
142F
102
}
330
A
100
AcDbEntity
  8
DIM
  6
Continuous
100
AcDbLine
 10
989.3200301360521
 20
4156.662999716053
 30
0.0
 11
1214.566090740052
 21
3766.525378545189
 31
0.0
  0
LINE
  5
13C5
102
{ACAD_REACTORS
330
142F
102
}
330
A
100
AcDbEntity
  8
DIM
  6
Continuous
100
AcDbLine
 10
1087.719835536529
 20
4327.096462124568
 30
0.0
 11
989.3200301360521
 21
4156.662999716053
 31
0.0
  0
HATCH
  5
13C6
102
{ACAD_REACTORS
330
142F
102
}
330
A
100
AcDbEntity
  8
DIM
  6
Continuous
100
AcDbHatch
 10
0.0
 20
0.0
 30
0.0
210
0.0
220
0.0
230
1.0
  2
SOLID
 70
     1
 71
     0
 91
        1
 92
        1
 93
        1
 72
     3
 10
989.3200301360521
 20
4156.662999716053
 11
0.0
 21
-7.577722283112962
 40
0.5773502691896926
 50
0.0
 51
360.0
 73
     0
 97
        0
 75
     0
 76
     1
 98
        1
 10
4071.69308129036
 20
9201.098709361886
1001
ACAD
1010
0.0
1020
0.0
1030
0.0
  0
ELLIPSE
  5
13C7
102
{ACAD_REACTORS
330
142F
102
}
330
A
100
AcDbEntity
  8
DIM
  6
Continuous
100
AcDbEllipse
 10
989.3200301360521
 20
4156.662999716053
 30
0.0
 11
-2.320008334710695E-15
 21
-7.577722283113712
 31
0.0
210
0.0
220
0.0
230
-1.0
 40
0.5773502691896373
 41
0.0
 42
6.283185307179586
  0
LINE
  5
13C8
102
{ACAD_REACTORS
330
142F
102
}
330
A
100
AcDbEntity
  8
DIM
  6
Continuous
100
AcDbLine
 10
1275.855884339408
 20
3872.842129939266
 30
0.0
 11
1214.566090740052
 21
3766.525378545189
 31
0.0
  0
HATCH
  5
13C9
102
{ACAD_REACTORS
330
142F
102
}
330
A
100
AcDbEntity
  8
DIM
  6
Continuous
100
AcDbHatch
 10
0.0
 20
0.0
 30
0.0
210
0.0
220
0.0
230
1.0
  2
SOLID
 70
     1
 71
     0
 91
        1
 92
        1
 93
        1
 72
     3
 10
1214.566090740052
 20
3766.525378545189
 11
0.0
 21
-7.577722283112962
 40
0.5773502691896926
 50
0.0
 51
360.0
 73
     0
 97
        0
 75
     0
 76
     1
 98
        1
 10
4296.939141894361
 20
8810.96108819102
1001
ACAD
1010
0.0
1020
0.0
1030
0.0
  0
ELLIPSE
  5
13CA
102
{ACAD_REACTORS
330
142F
102
}
330
A
100
AcDbEntity
  8
DIM
  6
Continuous
100
AcDbEllipse
 10
1214.566090740052
 20
3766.525378545189
 30
0.0
 11
-2.320008334710695E-15
 21
-7.577722283113712
 31
0.0
210
0.0
220
0.0
230
-1.0
 40
0.5773502691896373
 41
0.0
 42
6.283185307179586
  0
MTEXT
  5
13CB
102
{ACAD_REACTORS
330
142F
102
}
330
A
100
AcDbEntity
  8
DIM
390
1D
100
AcDbMText
 10
1027.329998862384
 20
3897.857255238611
 30
0.0
 40
48.865234375
 41
0.0
 46
48.865234375
 71
     1
 72
     1
  1
{450}
  7
ＭＳ ゴシック
 11
3.061616997868383E-16
 21
1.0
 31
0.0
 73
     1
 44
0.7828267384257843
1001
ACAD
1000
ACAD_MTEXT_DEFINED_HEIGHT_BEGIN
1070
    46
1040
48.865234375
1000
ACAD_MTEXT_DEFINED_HEIGHT_END
  0
LINE
  5
13E5
330
A
100
AcDbEntity
  8
MODEL
  6
Continuous
100
AcDbLine
 10
1551.891853844361
 20
4351.648381411155
 30
0.0
 11
1326.891853844361
 21
3961.936949708158
 31
0.0
  0
LINE
  5
13E6
330
A
100
AcDbEntity
  8
MODEL
  6
Continuous
100
AcDbLine
 10
1326.891853844361
 20
4741.359813114153
 30
0.0
 11
1101.891853844361
 21
4351.648381411155
 31
0.0
  0
LINE
  5
13E7
330
A
100
AcDbEntity
  8
MODEL
  6
Continuous
100
AcDbLine
 10
1376.891853844361
 20
4654.757272735708
 30
0.0
 11
1201.891853844361
 21
4351.648381411155
 31
0.0
  0
LINE
  5
13E8
330
A
100
AcDbEntity
  8
HIDDEN
 48
6.0
100
AcDbLine
 10
1651.891853844361
 20
4351.648381411155
 30
0.0
 11
1426.891853844361
 21
3961.936949708158
 31
0.0
  0
LINE
  5
13E9
330
A
100
AcDbEntity
  8
MODEL
  6
Continuous
100
AcDbLine
 10
1326.891853844361
 20
4741.359813114153
 30
0.0
 11
1551.891853844361
 21
4351.648381411155
 31
0.0
  0
LINE
  5
13EA
330
A
100
AcDbEntity
  8
HIDDEN
 48
6.0
100
AcDbLine
 10
1551.891853844361
 20
4351.648381411155
 30
0.0
 11
1651.891853844361
 21
4351.648381411155
 31
0.0
  0
LINE
  5
13EB
330
A
100
AcDbEntity
  8
HIDDEN
 48
6.0
100
AcDbLine
 10
1326.891853844361
 20
4741.359813114153
 30
0.0
 11
1426.891853844361
 21
4741.359813114153
 31
0.0
  0
LINE
  5
13ED
330
A
100
AcDbEntity
  8
HIDDEN
 48
6.0
100
AcDbLine
 10
1426.891853844361
 20
4741.359813114153
 30
0.0
 11
1651.891853844361
 21
4351.648381411155
 31
0.0
  0
LINE
  5
13F4
330
A
100
AcDbEntity
  8
HIDDEN
 48
6.0
100
AcDbLine
 10
1426.891853844361
 20
4741.359813114153
 30
0.0
 11
1376.891853844361
 21
4654.757272735708
 31
0.0
  0
SPLINE
  5
1439
330
A
100
AcDbEntity
  8
MODEL
100
AcDbSpline
210
0.0
220
0.0
230
1.0
 70
    11
 71
     3
 72
    17
 73
    13
 74
     0
 42
0.000000001
 43
0.0000000001
 40
0.0
 40
0.0
 40
0.0
 40
0.0
 40
1.0
 40
1.0
 40
1.0
 40
2.0
 40
2.0
 40
2.0
 40
3.0
 40
3.0
 40
3.0
 40
4.0
 40
4.0
 40
4.0
 40
4.0
 10
1428.980287233198
 20
2006.423861497196
 30
0.0
 10
1406.906920598321
 20
2006.423861497196
 30
0.0
 10
1388.964443209266
 20
1988.521434280881
 30
0.0
 10
1388.964443209266
 20
1966.430903286257
 30
0.0
 10
1388.964443209266
 20
1944.340372291631
 30
0.0
 10
1406.906920598321
 20
1926.437945075323
 30
0.0
 10
1428.980287233198
 20
1926.437945075323
 30
0.0
 10
1451.087982587569
 20
1926.437945075323
 30
0.0
 10
1468.973245444133
 20
1944.340372291631
 30
0.0
 10
1468.973245444133
 20
1966.430903286257
 30
0.0
 10
1468.973245444133
 20
1988.521434280881
 30
0.0
 10
1451.087982587569
 20
2006.423861497196
 30
0.0
 10
1428.980287233198
 20
2006.423861497196
 30
0.0
  0
SPLINE
  5
143A
330
A
100
AcDbEntity
  8
MODEL
100
AcDbSpline
210
0.0
220
0.0
230
1.0
 70
    11
 71
     3
 72
    17
 73
    13
 74
     0
 42
0.000000001
 43
0.0000000001
 40
0.0
 40
0.0
 40
0.0
 40
0.0
 40
1.0
 40
1.0
 40
1.0
 40
2.0
 40
2.0
 40
2.0
 40
3.0
 40
3.0
 40
3.0
 40
4.0
 40
4.0
 40
4.0
 40
4.0
 10
1428.980287233199
 20
2616.422321099059
 30
0.0
 10
1787.97287134552
 20
2616.422321099059
 30
0.0
 10
2078.977426499251
 20
2325.412044492083
 30
0.0
 10
2078.977426499249
 20
1966.430903286257
 30
0.0
 10
2078.977426499249
 20
1607.438319173937
 30
0.0
 10
1787.97287134552
 20
1316.422321113704
 30
0.0
 10
1428.980287233198
 20
1316.422321113704
 30
0.0
 10
1070.004867480624
 20
1316.422321113704
 30
0.0
 10
778.9888694203946
 20
1607.438319173937
 30
0.0
 10
778.9888694203946
 20
1966.430903286257
 30
0.0
 10
778.9888694203955
 20
2325.412044492083
 30
0.0
 10
1070.004867480625
 20
2616.422321099059
 30
0.0
 10
1428.980287233199
 20
2616.422321099059
 30
0.0
  0
SPLINE
  5
143B
330
A
100
AcDbEntity
  8
MODEL
100
AcDbSpline
210
0.0
220
0.0
230
1.0
 70
    11
 71
     3
 72
    17
 73
    13
 74
     0
 42
0.000000001
 43
0.0000000001
 40
0.0
 40
0.0
 40
0.0
 40
0.0
 40
1.0
 40
1.0
 40
1.0
 40
2.0
 40
2.0
 40
2.0
 40
3.0
 40
3.0
 40
3.0
 40
4.0
 40
4.0
 40
4.0
 40
4.0
 10
1428.980287233199
 20
2602.421924998604
 30
0.0
 10
1780.243188006039
 20
2602.421924998604
 30
0.0
 10
2064.988473305298
 20
2317.693804059096
 30
0.0
 10
2064.988473305298
 20
1966.430903286257
 30
0.0
 10
2064.988473305298
 20
1615.168002513417
 30
0.0
 10
1780.243188006037
 20
1330.41127430766
 30
0.0
 10
1428.980287233198
 20
1330.41127430766
 30
0.0
 10
1077.717386460359
 20
1330.41127430766
 30
0.0
 10
792.9892655208478
 20
1615.168002513417
 30
0.0
 10
792.9892655208478
 20
1966.430903286257
 30
0.0
 10
792.9892655208487
 20
2317.693804059096
 30
0.0
 10
1077.71738646036
 20
2602.421924998604
 30
0.0
 10
1428.980287233199
 20
2602.421924998604
 30
0.0
  0
SPLINE
  5
143C
330
A
100
AcDbEntity
  8
MODEL
100
AcDbSpline
210
0.0
220
0.0
230
1.0
 70
    11
 71
     3
 72
    17
 73
    13
 74
     0
 42
0.000000001
 43
0.0000000001
 40
0.0
 40
0.0
 40
0.0
 40
0.0
 40
1.0
 40
1.0
 40
1.0
 40
2.0
 40
2.0
 40
2.0
 40
3.0
 40
3.0
 40
3.0
 40
4.0
 40
4.0
 40
4.0
 40
4.0
 10
1428.980287233199
 20
2515.965044952047
 30
0.0
 10
1732.469053376381
 20
2515.965044952047
 30
0.0
 10
1978.531593258739
 20
2269.931112335935
 30
0.0
 10
1978.531593258737
 20
1966.430903286257
 30
0.0
 10
1978.531593258737
 20
1662.913529876828
 30
0.0
 10
1732.469053376381
 20
1416.882457987345
 30
0.0
 10
1428.980287233198
 20
1416.882457987345
 30
0.0
 10
1125.457192370523
 20
1416.882457987345
 30
0.0
 10
879.4175383011589
 20
1662.913529876829
 30
0.0
 10
879.4175383011589
 20
1966.430903286257
 30
0.0
 10
879.4175383011598
 20
2269.931112335935
 30
0.0
 10
1125.457192370523
 20
2515.965044952047
 30
0.0
 10
1428.980287233199
 20
2515.965044952047
 30
0.0
  0
SPLINE
  5
143D
330
A
100
AcDbEntity
  8
MODEL
100
AcDbSpline
210
0.0
220
0.0
230
1.0
 70
     8
 71
     3
 72
     8
 73
     4
 74
     0
 42
0.000000001
 43
0.0000000001
 40
0.0
 40
0.0
 40
0.0
 40
0.0
 40
1.0
 40
1.0
 40
1.0
 40
1.0
 10
1428.980287233198
 20
1992.417743943492
 30
0.0
 10
1421.817027765373
 20
1992.417743943492
 30
0.0
 10
1415.311735421192
 20
1989.499802786469
 30
0.0
 10
1410.597257943966
 20
1984.813932575487
 30
0.0
  0
SPLINE
  5
143E
330
A
100
AcDbEntity
  8
MODEL
100
AcDbSpline
210
0.0
220
0.0
230
1.0
 70
     8
 71
     3
 72
    11
 73
     7
 74
     0
 42
0.000000001
 43
0.0000000001
 40
1.0
 40
1.0
 40
1.0
 40
1.0
 40
2.0
 40
2.0
 40
2.0
 40
3.0
 40
3.0
 40
3.0
 40
3.0
 10
1410.597257943966
 20
1984.813932575487
 30
0.0
 10
1405.88850191999
 20
1980.099455098263
 30
0.0
 10
1402.993446575963
 20
1973.59416275408
 30
0.0
 10
1402.993446575963
 20
1966.430903286257
 30
0.0
 10
1402.993446575963
 20
1959.239036552191
 30
0.0
 10
1405.88850191999
 20
1952.733744208007
 30
0.0
 10
1410.597257943966
 20
1948.036431090525
 30
0.0
  0
SPLINE
  5
143F
330
A
100
AcDbEntity
  8
MODEL
100
AcDbSpline
210
0.0
220
0.0
230
1.0
 70
     8
 71
     3
 72
    11
 73
     7
 74
     0
 42
0.000000001
 43
0.0000000001
 40
3.0
 40
3.0
 40
3.0
 40
3.0
 40
4.0
 40
4.0
 40
4.0
 40
5.0
 40
5.0
 40
5.0
 40
5.0
 10
1410.597257943966
 20
1948.036431090525
 30
0.0
 10
1415.311735421192
 20
1943.333396519802
 30
0.0
 10
1421.817027765373
 20
1940.426898269279
 30
0.0
 10
1428.980287233198
 20
1940.426898269279
 30
0.0
 10
1436.177875420517
 20
1940.426898269279
 30
0.0
 10
1442.677446311451
 20
1943.333396519802
 30
0.0
 10
1447.391923788677
 20
1948.036431090525
 30
0.0
  0
SPLINE
  5
1440
330
A
100
AcDbEntity
  8
MODEL
100
AcDbSpline
210
0.0
220
0.0
230
1.0
 70
     8
 71
     3
 72
    11
 73
     7
 74
     0
 42
0.000000001
 43
0.0000000001
 40
5.0
 40
5.0
 40
5.0
 40
5.0
 40
6.0
 40
6.0
 40
6.0
 40
7.0
 40
7.0
 40
7.0
 40
7.0
 10
1447.391923788677
 20
1948.036431090525
 30
0.0
 10
1452.077793999657
 20
1952.733744208007
 30
0.0
 10
1455.001456609927
 20
1959.239036552191
 30
0.0
 10
1455.001456609927
 20
1966.430903286257
 30
0.0
 10
1455.001456609927
 20
1973.59416275408
 30
0.0
 10
1452.077793999657
 20
1980.099455098263
 30
0.0
 10
1447.391923788677
 20
1984.813932575487
 30
0.0
  0
SPLINE
  5
1441
330
A
100
AcDbEntity
  8
MODEL
100
AcDbSpline
210
0.0
220
0.0
230
1.0
 70
     8
 71
     3
 72
     8
 73
     4
 74
     0
 42
0.000000001
 43
0.0000000001
 40
7.0
 40
7.0
 40
7.0
 40
7.0
 40
8.0
 40
8.0
 40
8.0
 40
8.0
 10
1447.391923788677
 20
1984.813932575487
 30
0.0
 10
1442.677446311451
 20
1989.499802786469
 30
0.0
 10
1436.177875420517
 20
1992.417743943492
 30
0.0
 10
1428.980287233198
 20
1992.417743943492
 30
0.0
  0
DIMENSION
  5
1442
330
A
100
AcDbEntity
  8
DIM
  6
Continuous
100
AcDbDimension
  2
*D19
 10
2239.16689321849
 20
2616.422321099058
 30
0.0
 11
2194.66689321849
 21
2291.418030012781
 31
0.0
 70
    32
 71
     5
 42
650.0085821725535
 73
     0
 74
     0
 75
     0
  3
tform線あり
100
AcDbAlignedDimension
 13
1491.468878470435
 23
1966.413738926505
 33
0.0
 14
1600.49192199507
 24
2616.422321099059
 34
0.0
 50
-90.00000000000006
100
AcDbRotatedDimension
  0
DIMENSION
  5
1443
330
A
100
AcDbEntity
  8
DIM
  6
Continuous
100
AcDbDimension
  2
*D20
 10
2078.977426499251
 20
2883.874414983718
 30
0.0
 11
1428.983147959823
 21
2928.374414983718
 31
0.0
 70
    32
 71
     5
 42
1299.988557078856
 73
     0
 74
     0
 75
     0
 52
270.0
  3
tform線あり
100
AcDbAlignedDimension
 13
778.9888694203955
 23
2174.366010693126
 33
0.0
 14
2078.977426499251
 24
2174.366010693126
 34
0.0
 50
-180.0
100
AcDbRotatedDimension
  0
DIMENSION
  5
1444
330
A
100
AcDbEntity
  8
DIM
  6
Continuous
100
AcDbDimension
  2
*D21
 10
491.6023984826788
 20
2616.439485458809
 30
0.0
 11
447.1023984826784
 21
1966.439485466131
 31
0.0
 70
    32
 71
     5
 42
1299.999999985354
 73
     0
 74
     0
 75
     0
  3
tform線あり
100
AcDbAlignedDimension
 13
1229.452514207174
 23
1316.439485473454
 33
0.0
 14
1229.452514207175
 24
2616.439485458808
 34
0.0
 50
-90.00000000000004
100
AcDbRotatedDimension
  0
DIMENSION
  5
1445
330
A
100
AcDbEntity
  8
DIM
  6
Continuous
100
AcDbDimension
  2
*D22
 10
2549.013821856356
 20
3944.80606849211
 30
0.0
 11
2504.513821856356
 21
4494.806068492109
 31
0.0
 70
    32
 71
     5
 42
1100.0
 73
     0
 74
     0
 75
     0
  3
tform線あり
100
AcDbAlignedDimension
 13
3136.879101868571
 23
5044.806068492109
 33
0.0
 14
3136.879101868571
 24
3944.806068492109
 34
0.0
 50
-90.00000000000004
100
AcDbRotatedDimension
  0
DIMENSION
  5
1447
330
A
100
AcDbEntity
  8
DIM
  6
Continuous
100
AcDbDimension
  2
*D24
 10
1402.993446575963
 20
2090.55573469193
 30
0.0
 11
1428.98886941307
 21
2090.55573469193
 31
0.0
 70
   160
 71
     5
 42
51.99084567421232
 73
     0
 74
     0
 75
     0
 52
-270.0
  3
tform線あり
100
AcDbAlignedDimension
 13
1454.984292250176
 23
1966.430903286257
 33
0.0
 14
1402.993446575963
 24
1966.430903286257
 34
0.0
 50
180.0
100
AcDbRotatedDimension
1001
ACAD
1000
DSTYLE
1002
{
1070
     3
1000
%%c<>
1002
}
  0
SPLINE
  5
1495
330
A
100
AcDbEntity
  8
HIDDEN
 48
6.0
100
AcDbSpline
210
0.0
220
0.0
230
1.0
 70
     8
 71
     3
 72
    11
 73
     7
 74
     0
 42
0.000000001
 43
0.0000000001
 40
0.0
 40
0.0
 40
0.0
 40
0.0
 40
1.0
 40
1.0
 40
1.0
 40
2.0
 40
2.0
 40
2.0
 40
2.0
 10
3197.335304536412
 20
2012.239718724863
 30
0.0
 10
3197.375354709156
 20
2011.427272363491
 30
0.0
 10
3197.655705918361
 20
2010.586218735885
 30
0.0
 10
3198.187801070523
 20
2009.922530158989
 30
0.0
 10
3198.187801070523
 20
2009.922530158989
 30
0.0
 10
3200.974148802815
 20
2006.329457518585
 30
0.0
 10
3200.974148802815
 20
2006.329457518585
 30
0.0
  0
SPLINE
  5
1496
330
A
100
AcDbEntity
  8
HIDDEN
 48
6.0
100
AcDbSpline
210
0.0
220
0.0
230
1.0
 70
    11
 71
     3
 72
    23
 73
    19
 74
     0
 42
0.000000001
 43
0.0000000001
 40
0.0
 40
0.0
 40
0.0
 40
0.0
 40
1.0
 40
1.0
 40
1.0
 40
2.0
 40
2.0
 40
2.0
 40
3.0
 40
3.0
 40
3.0
 40
4.0
 40
4.0
 40
4.0
 40
5.0
 40
5.0
 40
5.0
 40
6.0
 40
6.0
 40
6.0
 40
6.0
 10
2762.287442384327
 20
1934.931442423554
 30
0.0
 10
2762.287442384327
 20
1932.173701957508
 30
0.0
 10
2760.044632710694
 20
1929.902285017624
 30
0.0
 10
2757.27544933815
 20
1929.902285017624
 30
0.0
 10
2754.517708872102
 20
1929.902285017624
 30
0.0
 10
2752.286342104969
 20
1932.173701957508
 30
0.0
 10
2752.286342104969
 20
1934.931442423554
 30
0.0
 10
2752.286342104969
 20
1934.931442423554
 30
0.0
 10
2752.286342104969
 20
2004.979194551806
 30
0.0
 10
2752.286342104969
 20
2004.979194551806
 30
0.0
 10
2752.286342104969
 20
2007.708327751605
 30
0.0
 10
2754.517708872102
 20
2009.939694518738
 30
0.0
 10
2757.27544933815
 20
2009.939694518738
 30
0.0
 10
2760.044632710694
 20
2009.939694518738
 30
0.0
 10
2762.287442384327
 20
2007.708327751605
 30
0.0
 10
2762.287442384327
 20
2004.979194551806
 30
0.0
 10
2762.287442384327
 20
2004.979194551806
 30
0.0
 10
2762.287442384327
 20
1934.931442423554
 30
0.0
 10
2762.287442384327
 20
1934.931442423554
 30
0.0
  0
SPLINE
  5
1497
330
A
100
AcDbEntity
  8
MODEL
100
AcDbSpline
210
0.0
220
0.0
230
1.0
 70
     8
 71
     3
 72
     8
 73
     4
 74
     0
 42
0.000000001
 43
0.0000000001
 40
0.0
 40
0.0
 40
0.0
 40
0.0
 40
1.0
 40
1.0
 40
1.0
 40
1.0
 10
2692.256854615823
 20
2616.934391164852
 30
0.0
 10
2692.256854615823
 20
2617.060263136327
 30
0.0
 10
2692.268297522322
 20
2617.16897074806
 30
0.0
 10
2692.268297522322
 20
2617.226185280551
 30
0.0
  0
SPLINE
  5
1498
330
A
100
AcDbEntity
  8
MODEL
100
AcDbSpline
210
0.0
220
0.0
230
1.0
 70
     8
 71
     3
 72
    11
 73
     7
 74
     0
 42
0.000000001
 43
0.0000000001
 40
1.0
 40
1.0
 40
1.0
 40
1.0
 40
2.0
 40
2.0
 40
2.0
 40
3.0
 40
3.0
 40
3.0
 40
3.0
 10
2692.268297522322
 20
2617.226185280551
 30
0.0
 10
2692.434219666543
 20
2618.908292535778
 30
0.0
 10
2693.9103546048
 20
2620.121240624574
 30
0.0
 10
2695.563854593781
 20
2619.926711214108
 30
0.0
 10
2695.563854593781
 20
2619.926711214108
 30
0.0
 10
3235.068288713969
 20
2563.15273062368
 30
0.0
 10
3235.068288713969
 20
2563.15273062368
 30
0.0
  0
SPLINE
  5
1499
330
A
100
AcDbEntity
  8
MODEL
100
AcDbSpline
210
0.0
220
0.0
230
1.0
 70
     8
 71
     3
 72
    11
 73
     7
 74
     0
 42
0.000000001
 43
0.0000000001
 40
3.0
 40
3.0
 40
3.0
 40
3.0
 40
4.0
 40
4.0
 40
4.0
 40
5.0
 40
5.0
 40
5.0
 40
5.0
 10
3235.068288713969
 20
2563.15273062368
 30
0.0
 10
3236.292679709269
 20
2563.06690882494
 30
0.0
 10
3237.356870013594
 20
2562.157197758343
 30
0.0
 10
3237.660107035793
 20
2560.944249669539
 30
0.0
 10
3237.660107035793
 20
2560.944249669539
 30
0.0
 10
3238.747183153116
 20
2556.962118208196
 30
0.0
 10
3238.747183153116
 20
2556.962118208196
 30
0.0
  0
SPLINE
  5
149A
330
A
100
AcDbEntity
  8
MODEL
100
AcDbSpline
210
0.0
220
0.0
230
1.0
 70
     8
 71
     3
 72
     8
 73
     4
 74
     0
 42
0.000000001
 43
0.0000000001
 40
5.0
 40
5.0
 40
5.0
 40
5.0
 40
6.0
 40
6.0
 40
6.0
 40
6.0
 10
3238.747183153116
 20
2556.962118208196
 30
0.0
 10
3238.981762736327
 20
2556.040964235099
 30
0.0
 10
3239.559629514481
 20
2555.239960780227
 30
0.0
 10
3240.360632969349
 20
2554.69070126832
 30
0.0
  0
SPLINE
  5
149B
330
A
100
AcDbEntity
  8
MODEL
100
AcDbSpline
210
0.0
220
0.0
230
1.0
 70
     8
 71
     3
 72
    14
 73
    10
 74
     0
 42
0.000000001
 43
0.0000000001
 40
6.0
 40
6.0
 40
6.0
 40
6.0
 40
7.0
 40
7.0
 40
7.0
 40
8.0
 40
8.0
 40
8.0
 40
9.0
 40
9.0
 40
9.0
 40
9.0
 10
3240.360632969349
 20
2554.69070126832
 30
0.0
 10
3241.476316352918
 20
2553.918305079691
 30
0.0
 10
3242.122840570061
 20
2552.676749724646
 30
0.0
 10
3242.122840570061
 20
2551.355094024117
 30
0.0
 10
3242.122840570061
 20
2551.355094024117
 30
0.0
 10
3242.122840570061
 20
1388.263748835538
 30
0.0
 10
3242.122840570061
 20
1388.263748835538
 30
0.0
 10
3242.122840570061
 20
1386.89632150901
 30
0.0
 10
3241.476316352918
 20
1385.660487607214
 30
0.0
 10
3240.360632969349
 20
1384.899534325092
 30
0.0
  0
SPLINE
  5
149C
330
A
100
AcDbEntity
  8
MODEL
100
AcDbSpline
210
0.0
220
0.0
230
1.0
 70
     8
 71
     3
 72
    11
 73
     7
 74
     0
 42
0.000000001
 43
0.0000000001
 40
9.0
 40
9.0
 40
9.0
 40
9.0
 40
10.0
 40
10.0
 40
10.0
 40
11.0
 40
11.0
 40
11.0
 40
11.0
 10
3240.360632969349
 20
1384.899534325092
 30
0.0
 10
3239.559629514481
 20
1384.378882079427
 30
0.0
 10
3238.981762736327
 20
1383.577878624556
 30
0.0
 10
3238.747183153116
 20
1382.610953025467
 30
0.0
 10
3238.747183153116
 20
1382.610953025467
 30
0.0
 10
3237.660107035793
 20
1378.628821564116
 30
0.0
 10
3237.660107035793
 20
1378.628821564116
 30
0.0
  0
SPLINE
  5
149D
330
A
100
AcDbEntity
  8
MODEL
100
AcDbSpline
210
0.0
220
0.0
230
1.0
 70
     8
 71
     3
 72
    11
 73
     7
 74
     0
 42
0.000000001
 43
0.0000000001
 40
11.0
 40
11.0
 40
11.0
 40
11.0
 40
12.0
 40
12.0
 40
12.0
 40
13.0
 40
13.0
 40
13.0
 40
13.0
 10
3237.660107035793
 20
1378.628821564116
 30
0.0
 10
3237.356870013594
 20
1377.444480741562
 30
0.0
 10
3236.292679709269
 20
1376.574819847707
 30
0.0
 10
3235.068288713969
 20
1376.426062063232
 30
0.0
 10
3235.068288713969
 20
1376.426062063232
 30
0.0
 10
2695.563854593779
 20
1319.652081472797
 30
0.0
 10
2695.563854593779
 20
1319.652081472797
 30
0.0
  0
SPLINE
  5
149E
330
A
100
AcDbEntity
  8
MODEL
100
AcDbSpline
210
0.0
220
0.0
230
1.0
 70
     8
 71
     3
 72
    14
 73
    10
 74
     0
 42
0.000000001
 43
0.0000000001
 40
13.0
 40
13.0
 40
13.0
 40
13.0
 40
14.0
 40
14.0
 40
14.0
 40
15.0
 40
15.0
 40
15.0
 40
16.0
 40
16.0
 40
16.0
 40
16.0
 10
2695.563854593779
 20
1319.652081472797
 30
0.0
 10
2695.455146982046
 20
1319.652081472797
 30
0.0
 10
2695.357882276813
 20
1319.652081472797
 30
0.0
 10
2695.260617571578
 20
1319.652081472797
 30
0.0
 10
2693.595674676103
 20
1319.652081472797
 30
0.0
 10
2692.256854615823
 20
1321.002344439577
 30
0.0
 10
2692.256854615823
 20
1322.638680068811
 30
0.0
 10
2692.256854615823
 20
1322.638680068811
 30
0.0
 10
2692.256854615823
 20
2616.934391164852
 30
0.0
 10
2692.256854615823
 20
2616.934391164852
 30
0.0
  0
LINE
  5
149F
330
A
100
AcDbEntity
  8
HIDDEN
 48
0.5
100
AcDbLine
 10
3204.750307947196
 20
2001.51771533612
 30
0.0
 11
3209.10433386973
 21
1995.922134058541
 31
0.0
  0
LINE
  5
14A0
330
A
100
AcDbEntity
  8
HIDDEN
 48
0.5
100
AcDbLine
 10
3209.10433386973
 20
1995.922134058541
 30
0.0
 11
3216.158885725822
 21
1995.922134058541
 31
0.0
  0
LINE
  5
14A1
330
A
100
AcDbEntity
  8
HIDDEN
 48
0.5
100
AcDbLine
 10
3230.342368330245
 20
1995.922134058541
 30
0.0
 11
3237.396920186337
 21
1995.922134058541
 31
0.0
  0
LINE
  5
14A2
330
A
100
AcDbEntity
  8
HIDDEN
 48
0.5
100
AcDbLine
 10
3237.396920186337
 20
1995.922134058541
 30
0.0
 11
3237.396920186337
 21
1988.867582202451
 31
0.0
  0
LINE
  5
14A3
330
A
100
AcDbEntity
  8
HIDDEN
 48
0.5
100
AcDbLine
 10
3237.396920186337
 20
1976.257499241516
 30
0.0
 11
3237.396920186337
 21
1957.308046080629
 31
0.0
  0
LINE
  5
14A4
330
A
100
AcDbEntity
  8
HIDDEN
 48
0.5
100
AcDbLine
 10
3237.396920186337
 20
1950.997283146911
 30
0.0
 11
3237.396920186337
 21
1943.942731290821
 31
0.0
  0
LINE
  5
14A5
330
A
100
AcDbEntity
  8
HIDDEN
 48
0.5
100
AcDbLine
 10
3237.396920186337
 20
1943.942731290821
 30
0.0
 11
3230.342368330245
 21
1943.942731290821
 31
0.0
  0
LINE
  5
14A6
330
A
100
AcDbEntity
  8
HIDDEN
 48
0.5
100
AcDbLine
 10
3216.158885725822
 20
1943.942731290821
 30
0.0
 11
3209.10433386973
 21
1943.942731290821
 31
0.0
  0
LINE
  5
14A7
330
A
100
AcDbEntity
  8
HIDDEN
 48
0.5
100
AcDbLine
 10
3209.10433386973
 20
1943.942731290821
 30
0.0
 11
3204.750307947196
 21
1938.347150013242
 31
0.0
  0
SPLINE
  5
14A8
330
A
100
AcDbEntity
  8
HIDDEN
 48
6.0
100
AcDbSpline
210
0.0
220
0.0
230
1.0
 70
    24
 71
     3
 72
     8
 73
     4
 74
     0
 42
0.000000001
 43
0.0000000001
 40
0.0
 40
0.0
 40
0.0
 40
0.0
 40
1.0
 40
1.0
 40
1.0
 40
1.0
 10
3200.974148802815
 20
1933.512522017785
 30
0.0
 10
3200.974148802815
 20
1933.512522017785
 30
0.0
 10
3198.187801070523
 20
1929.930892283874
 30
0.0
 10
3198.187801070523
 20
1929.930892283874
 30
0.0
  0
SPLINE
  5
14A9
330
A
100
AcDbEntity
  8
HIDDEN
 48
6.0
100
AcDbSpline
210
0.0
220
0.0
230
1.0
 70
     8
 71
     3
 72
     8
 73
     4
 74
     0
 42
0.000000001
 43
0.0000000001
 40
1.0
 40
1.0
 40
1.0
 40
1.0
 40
2.0
 40
2.0
 40
2.0
 40
2.0
 10
3198.187801070523
 20
1929.930892283874
 30
0.0
 10
3197.655705918361
 20
1929.278646613477
 30
0.0
 10
3197.375354709156
 20
1928.483364611862
 30
0.0
 10
3197.335304536412
 20
1927.602260811507
 30
0.0
  0
LINE
  5
14AA
330
A
100
AcDbEntity
  8
HIDDEN
 48
0.5
100
AcDbLine
 10
3177.338825430946
 20
1969.935293401306
 30
0.0
 11
3242.397470326016
 21
1969.935293401306
 31
0.0
  0
SPLINE
  5
14AB
330
A
100
AcDbEntity
  8
MODEL
100
AcDbSpline
210
0.0
220
0.0
230
1.0
 70
     8
 71
     3
 72
     8
 73
     4
 74
     0
 42
0.000000001
 43
0.0000000001
 40
0.0
 40
0.0
 40
0.0
 40
0.0
 40
1.0
 40
1.0
 40
1.0
 40
1.0
 10
2692.256854615823
 20
1330.768865135722
 30
0.0
 10
2692.256854615823
 20
1331.747233641318
 30
0.0
 10
2692.726013782246
 20
1332.674109067664
 30
0.0
 10
2693.538460143612
 20
1333.223368579571
 30
0.0
  0
SPLINE
  5
14AC
330
A
100
AcDbEntity
  8
HIDDEN
 48
6.0
100
AcDbSpline
210
0.0
220
0.0
230
1.0
 70
     8
 71
     3
 72
     8
 73
     4
 74
     0
 42
0.000000001
 43
0.0000000001
 40
1.0
 40
1.0
 40
1.0
 40
1.0
 40
2.0
 40
2.0
 40
2.0
 40
2.0
 10
2693.538460143612
 20
1333.223368579571
 30
0.0
 10
2694.694193699922
 20
1334.035814940942
 30
0.0
 10
2695.86709161598
 20
1334.836818395806
 30
0.0
 10
2697.051432438536
 20
1335.580607318187
 30
0.0
  0
SPLINE
  5
14AD
330
A
100
AcDbEntity
  8
HIDDEN
 48
6.0
100
AcDbSpline
210
0.0
220
0.0
230
1.0
 70
     8
 71
     3
 72
     8
 73
     4
 74
     0
 42
0.000000001
 43
0.0000000001
 40
0.0
 40
0.0
 40
0.0
 40
0.0
 40
1.0
 40
1.0
 40
1.0
 40
1.0
 10
2709.301063844775
 20
1342.486401389802
 30
0.0
 10
2719.994459967268
 20
1347.6643165802
 30
0.0
 10
2731.448809371889
 20
1351.165845968628
 30
0.0
 10
2743.246445971453
 20
1352.859396130347
 30
0.0
  0
SPLINE
  5
14AE
330
A
100
AcDbEntity
  8
HIDDEN
 48
6.0
100
AcDbSpline
210
0.0
220
0.0
230
1.0
 70
     8
 71
     3
 72
     8
 73
     4
 74
     0
 42
0.000000001
 43
0.0000000001
 40
1.0
 40
1.0
 40
1.0
 40
1.0
 40
2.0
 40
2.0
 40
2.0
 40
2.0
 10
2743.246445971453
 20
1352.859396130347
 30
0.0
 10
2745.87831446602
 20
1353.231290591537
 30
0.0
 10
2748.510182960587
 20
1353.523084707243
 30
0.0
 10
2751.170658721402
 20
1353.70044975796
 30
0.0
  0
SPLINE
  5
14AF
330
A
100
AcDbEntity
  8
HIDDEN
 48
6.0
100
AcDbSpline
210
0.0
220
0.0
230
1.0
 70
    24
 71
     3
 72
     8
 73
     4
 74
     0
 42
0.000000001
 43
0.0000000001
 40
2.0
 40
2.0
 40
2.0
 40
2.0
 40
3.0
 40
3.0
 40
3.0
 40
3.0
 10
2751.170658721402
 20
1353.70044975796
 30
0.0
 10
2751.54255318259
 20
1353.729057024209
 30
0.0
 10
2751.914447643779
 20
1353.757664290451
 30
0.0
 10
2752.286342104969
 20
1353.786271556693
 30
0.0
  0
SPLINE
  5
14B0
330
A
100
AcDbEntity
  8
HIDDEN
 48
6.0
100
AcDbSpline
210
0.0
220
0.0
230
1.0
 70
     8
 71
     3
 72
     8
 73
     4
 74
     0
 42
0.000000001
 43
0.0000000001
 40
3.0
 40
3.0
 40
3.0
 40
3.0
 40
4.0
 40
4.0
 40
4.0
 40
4.0
 10
2752.286342104969
 20
1353.786271556693
 30
0.0
 10
2752.572414767422
 20
1353.814878822943
 30
0.0
 10
2752.875651789621
 20
1353.854928995685
 30
0.0
 10
2753.167445905324
 20
1353.854928995685
 30
0.0
  0
SPLINE
  5
14B1
330
A
100
AcDbEntity
  8
HIDDEN
 48
6.0
100
AcDbSpline
210
0.0
220
0.0
230
1.0
 70
     8
 71
     3
 72
     8
 73
     4
 74
     0
 42
0.000000001
 43
0.0000000001
 40
4.0
 40
4.0
 40
4.0
 40
4.0
 40
5.0
 40
5.0
 40
5.0
 40
5.0
 10
2753.167445905324
 20
1353.854928995685
 30
0.0
 10
2755.164233089245
 20
1353.992243873667
 30
0.0
 10
2757.149577366669
 20
1354.141001658141
 30
0.0
 10
2759.134921644093
 20
1354.255430723117
 30
0.0
  0
SPLINE
  5
14B2
330
A
100
AcDbEntity
  8
HIDDEN
 48
6.0
100
AcDbSpline
210
0.0
220
0.0
230
1.0
 70
     8
 71
     3
 72
     8
 73
     4
 74
     0
 42
0.000000001
 43
0.0000000001
 40
5.0
 40
5.0
 40
5.0
 40
5.0
 40
6.0
 40
6.0
 40
6.0
 40
6.0
 10
2759.134921644093
 20
1354.255430723117
 30
0.0
 10
2872.820197702932
 20
1361.624662507913
 30
0.0
 10
2986.471145042276
 20
1368.971008479703
 30
0.0
 10
3100.047713489382
 20
1376.368847530741
 30
0.0
  0
SPLINE
  5
14B3
330
A
100
AcDbEntity
  8
HIDDEN
 48
6.0
100
AcDbSpline
210
0.0
220
0.0
230
1.0
 70
     8
 71
     3
 72
    17
 73
    13
 74
     0
 42
0.000000001
 43
0.0000000001
 40
6.0
 40
6.0
 40
6.0
 40
6.0
 40
7.0
 40
7.0
 40
7.0
 40
8.0
 40
8.0
 40
8.0
 40
9.0
 40
9.0
 40
9.0
 40
10.0
 40
10.0
 40
10.0
 40
10.0
 10
3100.047713489382
 20
1376.368847530741
 30
0.0
 10
3144.114346413648
 20
1379.206688342272
 30
0.0
 10
3178.855010541946
 20
1414.971492602153
 30
0.0
 10
3180.457017451684
 20
1459.135390231653
 30
0.0
 10
3180.457017451684
 20
1459.135390231653
 30
0.0
 10
3197.335304536412
 20
1927.602260811507
 30
0.0
 10
3197.335304536412
 20
1927.602260811507
 30
0.0
 10
3197.335304536412
 20
1927.602260811507
 30
0.0
 10
3197.335304536412
 20
2012.239718724863
 30
0.0
 10
3197.335304536412
 20
2012.239718724863
 30
0.0
 10
3197.335304536412
 20
2012.239718724863
 30
0.0
 10
3180.457017451684
 20
2480.472009721501
 30
0.0
 10
3180.457017451684
 20
2480.472009721501
 30
0.0
  0
SPLINE
  5
14B4
330
A
100
AcDbEntity
  8
HIDDEN
 48
6.0
100
AcDbSpline
210
0.0
220
0.0
230
1.0
 70
     8
 71
     3
 72
     8
 73
     4
 74
     0
 42
0.000000001
 43
0.0000000001
 40
10.0
 40
10.0
 40
10.0
 40
10.0
 40
11.0
 40
11.0
 40
11.0
 40
11.0
 10
3180.457017451684
 20
2480.472009721501
 30
0.0
 10
3178.855010541946
 20
2524.595857178259
 30
0.0
 10
3144.114346413648
 20
2560.366382891383
 30
0.0
 10
3100.047713489382
 20
2563.232830969164
 30
0.0
  0
SPLINE
  5
14B5
330
A
100
AcDbEntity
  8
HIDDEN
 48
6.0
100
AcDbSpline
210
0.0
220
0.0
230
1.0
 70
     8
 71
     3
 72
     8
 73
     4
 74
     0
 42
0.000000001
 43
0.0000000001
 40
11.0
 40
11.0
 40
11.0
 40
11.0
 40
12.0
 40
12.0
 40
12.0
 40
12.0
 10
3100.047713489382
 20
2563.232830969164
 30
0.0
 10
2986.471145042277
 20
2570.619227113702
 30
0.0
 10
2872.820197702932
 20
2577.977015991992
 30
0.0
 10
2759.134921644095
 20
2585.36341213653
 30
0.0
  0
SPLINE
  5
14B6
330
A
100
AcDbEntity
  8
HIDDEN
 48
6.0
100
AcDbSpline
210
0.0
220
0.0
230
1.0
 70
     8
 71
     3
 72
     8
 73
     4
 74
     0
 42
0.000000001
 43
0.0000000001
 40
12.0
 40
12.0
 40
12.0
 40
12.0
 40
13.0
 40
13.0
 40
13.0
 40
13.0
 10
2759.134921644095
 20
2585.36341213653
 30
0.0
 10
2757.149577366669
 20
2585.477841201513
 30
0.0
 10
2755.164233089247
 20
2585.586548813246
 30
0.0
 10
2753.167445905326
 20
2585.723863691221
 30
0.0
  0
SPLINE
  5
14B7
330
A
100
AcDbEntity
  8
HIDDEN
 48
6.0
100
AcDbSpline
210
0.0
220
0.0
230
1.0
 70
     8
 71
     3
 72
     8
 73
     4
 74
     0
 42
0.000000001
 43
0.0000000001
 40
13.0
 40
13.0
 40
13.0
 40
13.0
 40
14.0
 40
14.0
 40
14.0
 40
14.0
 10
2753.167445905326
 20
2585.723863691221
 30
0.0
 10
2752.875651789623
 20
2585.76391386397
 30
0.0
 10
2752.572414767424
 20
2585.76391386397
 30
0.0
 10
2752.286342104971
 20
2585.803964036711
 30
0.0
  0
SPLINE
  5
14B8
330
A
100
AcDbEntity
  8
HIDDEN
 48
6.0
100
AcDbSpline
210
0.0
220
0.0
230
1.0
 70
    24
 71
     3
 72
     8
 73
     4
 74
     0
 42
0.000000001
 43
0.0000000001
 40
14.0
 40
14.0
 40
14.0
 40
14.0
 40
15.0
 40
15.0
 40
15.0
 40
15.0
 10
2752.286342104971
 20
2585.803964036711
 30
0.0
 10
2751.91444764378
 20
2585.832571302954
 30
0.0
 10
2751.54255318259
 20
2585.861178569203
 30
0.0
 10
2751.170658721404
 20
2585.889785835445
 30
0.0
  0
SPLINE
  5
14B9
330
A
100
AcDbEntity
  8
HIDDEN
 48
6.0
100
AcDbSpline
210
0.0
220
0.0
230
1.0
 70
     8
 71
     3
 72
     8
 73
     4
 74
     0
 42
0.000000001
 43
0.0000000001
 40
15.0
 40
15.0
 40
15.0
 40
15.0
 40
16.0
 40
16.0
 40
16.0
 40
16.0
 10
2751.170658721404
 20
2585.889785835445
 30
0.0
 10
2748.510182960589
 20
2586.055707979669
 30
0.0
 10
2745.87831446602
 20
2586.330337735626
 30
0.0
 10
2743.246445971455
 20
2586.713675103309
 30
0.0
  0
SPLINE
  5
14BA
330
A
100
AcDbEntity
  8
HIDDEN
 48
6.0
100
AcDbSpline
210
0.0
220
0.0
230
1.0
 70
     8
 71
     3
 72
     8
 73
     4
 74
     0
 42
0.000000001
 43
0.0000000001
 40
16.0
 40
16.0
 40
16.0
 40
16.0
 40
17.0
 40
17.0
 40
17.0
 40
17.0
 10
2743.246445971455
 20
2586.713675103309
 30
0.0
 10
2729.108734993025
 20
2588.784841179468
 30
0.0
 10
2715.451626087514
 20
2593.424939764458
 30
0.0
 10
2703.007465270807
 20
2600.399391275065
 30
0.0
  0
SPLINE
  5
14BB
330
A
100
AcDbEntity
  8
HIDDEN
 48
6.0
100
AcDbSpline
210
0.0
220
0.0
230
1.0
 70
     8
 71
     3
 72
     8
 73
     4
 74
     0
 42
0.000000001
 43
0.0000000001
 40
0.0
 40
0.0
 40
0.0
 40
0.0
 40
1.0
 40
1.0
 40
1.0
 40
1.0
 10
2697.039989532038
 20
2604.021071181718
 30
0.0
 10
2695.855648709484
 20
2604.782024463848
 30
0.0
 10
2694.694193699922
 20
2605.54297774597
 30
0.0
 10
2693.538460143614
 20
2606.355424107334
 30
0.0
  0
SPLINE
  5
14BC
330
A
100
AcDbEntity
  8
MODEL
100
AcDbSpline
210
0.0
220
0.0
230
1.0
 70
     8
 71
     3
 72
     8
 73
     4
 74
     0
 42
0.000000001
 43
0.0000000001
 40
1.0
 40
1.0
 40
1.0
 40
1.0
 40
2.0
 40
2.0
 40
2.0
 40
2.0
 10
2693.538460143614
 20
2606.355424107334
 30
0.0
 10
2692.726013782246
 20
2606.93329088549
 30
0.0
 10
2692.256854615823
 20
2607.825837592345
 30
0.0
 10
2692.256854615823
 20
2608.849977723925
 30
0.0
  0
LINE
  5
14BD
330
A
100
AcDbEntity
  8
HIDDEN
 48
0.5
100
AcDbLine
 10
3209.10433386973
 20
1943.942731290821
 30
0.0
 11
3209.10433386973
 21
1950.997283146911
 31
0.0
  0
LINE
  5
14BE
330
A
100
AcDbEntity
  8
HIDDEN
 48
0.5
100
AcDbLine
 10
3209.10433386973
 20
1963.607366107846
 30
0.0
 11
3209.10433386973
 21
1982.585426534975
 31
0.0
  0
LINE
  5
14BF
330
A
100
AcDbEntity
  8
HIDDEN
 48
0.5
100
AcDbLine
 10
3209.10433386973
 20
1988.867582202451
 30
0.0
 11
3209.10433386973
 21
1995.922134058541
 31
0.0
  0
DIMENSION
  5
14D3
330
A
100
AcDbEntity
  8
DIM
  6
Continuous
100
AcDbDimension
  2
*D25
 10
3544.182859817604
 20
2194.965771140114
 30
0.0
 11
3499.682859817604
 21
1969.946736307802
 31
0.0
 70
    32
 71
     5
 42
450.0380696646243
 73
     0
 74
     0
 75
     0
  3
tform線あり
100
AcDbAlignedDimension
 13
3342.298820666904
 23
1744.92770147549
 33
0.0
 14
3342.298820666904
 24
2194.965771140114
 34
0.0
 50
89.99999999999999
100
AcDbRotatedDimension
  0
DIMENSION
  5
14D4
330
A
100
AcDbEntity
  8
DIM
  6
Continuous
100
AcDbDimension
  2
*D26
 10
3242.397470326017
 20
1022.943418680704
 30
0.0
 11
3445.8110302131
 21
1022.943418680706
 31
0.0
 70
   160
 71
     5
 42
99.99955988708177
 73
     0
 74
     1
 75
     1
  3
tform線あり
100
AcDbAlignedDimension
 13
3342.397030213096
 23
1565.852095313418
 33
0.0
 14
3242.397470326016
 24
1152.937303488345
 34
0.0
 50
-179.9999999999996
100
AcDbRotatedDimension
  0
DIMENSION
  5
14D7
330
A
100
AcDbEntity
  8
DIM
  6
Continuous
100
AcDbDimension
  2
*D28
 10
3242.397470326018
 20
3024.243397928845
 30
0.0
 11
2967.260155448044
 21
3068.743397928845
 31
0.0
 70
    32
 71
     5
 42
550.2746297559479
 73
     0
 74
     0
 75
     0
 52
-90.00000000000001
  3
tform線あり
100
AcDbAlignedDimension
 13
2692.122840570067
 23
2657.653393340809
 33
0.0
 14
3242.397470326016
 24
2786.933283314265
 34
0.0
 50
-0.0000000000003817
100
AcDbRotatedDimension
  0
DIMENSION
  5
14D8
102
{ACAD_XDICTIONARY
360
14D9
102
}
330
A
100
AcDbEntity
  8
DIM
  6
Continuous
100
AcDbDimension
  2
*D29
 10
3197.122840570067
 20
2883.874414983717
 30
0.0
 11
2944.622840570068
 21
2928.374414983717
 31
0.0
 70
    32
 71
     5
 42
504.9999999999978
 73
     0
 74
     0
 75
     0
 52
-90.00000000000001
  3
tform線あり
100
AcDbAlignedDimension
 13
2692.122840570067
 23
2657.653393340809
 33
0.0
 14
3197.122840570063
 24
2371.776364918767
 34
0.0
 50
-0.0000000000003817
100
AcDbRotatedDimension
  0
SPLINE
  5
15D2
330
A
100
AcDbEntity
  8
HIDDEN
 48
6.0
100
AcDbSpline
210
0.0
220
0.0
230
1.0
 70
    11
 71
     3
 72
    23
 73
    19
 74
     0
 42
0.000000001
 43
0.0000000001
 40
0.0
 40
0.0
 40
0.0
 40
0.0
 40
1.0
 40
1.0
 40
1.0
 40
2.0
 40
2.0
 40
2.0
 40
3.0
 40
3.0
 40
3.0
 40
4.0
 40
4.0
 40
4.0
 40
5.0
 40
5.0
 40
5.0
 40
6.0
 40
6.0
 40
6.0
 40
6.0
 10
813.3662488402633
 20
1934.931442423554
 30
0.0
 10
813.3662488402633
 20
1932.173701957508
 30
0.0
 10
811.1234391666303
 20
1929.902285017624
 30
0.0
 10
808.3542557940864
 20
1929.902285017624
 30
0.0
 10
805.5965153280385
 20
1929.902285017624
 30
0.0
 10
803.3651485609053
 20
1932.173701957508
 30
0.0
 10
803.3651485609053
 20
1934.931442423554
 30
0.0
 10
803.3651485609053
 20
1934.931442423554
 30
0.0
 10
803.3651485609053
 20
2004.979194551806
 30
0.0
 10
803.3651485609053
 20
2004.979194551806
 30
0.0
 10
803.3651485609053
 20
2007.708327751605
 30
0.0
 10
805.5965153280385
 20
2009.939694518738
 30
0.0
 10
808.3542557940864
 20
2009.939694518738
 30
0.0
 10
811.1234391666303
 20
2009.939694518738
 30
0.0
 10
813.3662488402633
 20
2007.708327751605
 30
0.0
 10
813.3662488402633
 20
2004.979194551806
 30
0.0
 10
813.3662488402633
 20
2004.979194551806
 30
0.0
 10
813.3662488402633
 20
1934.931442423554
 30
0.0
 10
813.3662488402633
 20
1934.931442423554
 30
0.0
  0
LINE
  5
15D3
330
A
100
AcDbEntity
  8
DIM
  6
Continuous
100
AcDbLine
 10
803.3651485609053
 20
1973.555027824712
 30
0.0
 11
689.4708325887887
 21
2026.718072061176
 31
0.0
  0
LINE
  5
15D4
330
A
100
AcDbEntity
  8
DIM
  6
Continuous
100
AcDbLine
 10
689.4708325887887
 20
2026.718072061176
 30
0.0
 11
689.4708325887905
 21
2541.122442086382
 31
0.0
  0
MTEXT
  5
1606
330
A
100
AcDbEntity
  8
DIM
390
1D
100
AcDbMText
 10
605.5514475313948
 20
2060.756363805009
 30
0.0
 40
48.865234375
 41
0.0
 46
50.33119140625
 71
     1
 72
     1
  1
{オーバーフロー}
  7
ＭＳ ゴシック
 11
3.061616997868383E-16
 21
1.0
 31
0.0
 73
     1
 44
0.7828267384257843
1001
ACAD
1000
ACAD_MTEXT_DEFINED_HEIGHT_BEGIN
1070
    46
1040
50.33119140625
1000
ACAD_MTEXT_DEFINED_HEIGHT_END
  0
LINE
  5
1641
330
A
100
AcDbEntity
  8
MODEL
100
AcDbLine
 10
3242.397470326016
 20
2786.933283314265
 30
0.0
 11
3242.397470326016
 21
1152.937303488345
 31
0.0
  0
LINE
  5
1647
330
A
100
AcDbEntity
  8
DIM
  6
Continuous
100
AcDbLine
 10
3342.397470326016
 20
1744.946736307802
 30
0.0
 11
3342.397470326016
 21
2194.946736307802
 31
0.0
  0
LINE
  5
1648
330
A
100
AcDbEntity
  8
DIM
  6
Continuous
100
AcDbLine
 10
3342.397470326016
 20
2194.946736307802
 30
0.0
 11
3242.397470326016
 21
2194.946736307802
 31
0.0
  0
LINE
  5
164B
330
A
100
AcDbEntity
  8
DIM
  6
Continuous
100
AcDbLine
 10
3242.397470326016
 20
2194.946736307802
 30
0.0
 11
3242.397470326016
 21
2786.933283314265
 31
0.0
  0
LINE
  5
164C
330
A
100
AcDbEntity
  8
DIM
  6
Continuous
100
AcDbLine
 10
3342.397470326016
 20
1744.946736307802
 30
0.0
 11
3242.397470326016
 21
1744.946736307802
 31
0.0
  0
LINE
  5
164D
330
A
100
AcDbEntity
  8
DIM
  6
Continuous
100
AcDbLine
 10
3242.397470326016
 20
1744.946736307802
 30
0.0
 11
3242.397470326016
 21
1152.960189301339
 31
0.0
  0
LINE
  5
1652
330
A
100
AcDbEntity
  8
DIM
  6
Continuous
100
AcDbLine
 10
3242.397470326016
 20
4719.8289543051
 30
0.0
 11
3242.397470326016
 21
5311.815501311563
 31
0.0
  0
LINE
  5
1653
330
A
100
AcDbEntity
  8
DIM
  6
Continuous
100
AcDbLine
 10
3342.397470326016
 20
4269.8289543051
 30
0.0
 11
3342.397470326016
 21
4719.8289543051
 31
0.0
  0
LINE
  5
1654
330
A
100
AcDbEntity
  8
DIM
  6
Continuous
100
AcDbLine
 10
3342.397470326016
 20
4719.8289543051
 30
0.0
 11
3242.397470326016
 21
4719.8289543051
 31
0.0
  0
LINE
  5
1655
330
A
100
AcDbEntity
  8
DIM
  6
Continuous
100
AcDbLine
 10
3342.397470326016
 20
4269.8289543051
 30
0.0
 11
3242.397470326016
 21
4269.8289543051
 31
0.0
  0
LINE
  5
1656
330
A
100
AcDbEntity
  8
DIM
  6
Continuous
100
AcDbLine
 10
3242.397470326016
 20
4269.8289543051
 30
0.0
 11
3242.397470326016
 21
3677.842407298636
 31
0.0
  0
HATCH
  5
165F
330
A
100
AcDbEntity
  8
DIM
  6
Continuous
100
AcDbHatch
 10
0.0
 20
0.0
 30
0.0
210
0.0
220
0.0
230
1.0
  2
ANSI31
 70
     0
 71
     0
 91
        1
 92
        1
 93
        8
 72
     1
 10
3416.564663736554
 20
5311.815501311563
 11
3416.564663736554
 21
3677.819521485642
 72
     1
 10
3416.564663736554
 20
3677.819521485642
 11
3242.397470326016
 21
3677.842407298636
 72
     1
 10
3242.397470326016
 20
3677.842407298636
 11
3242.397470326016
 21
4269.8289543051
 72
     1
 10
3242.397470326016
 20
4269.8289543051
 11
3342.397470326016
 21
4269.8289543051
 72
     1
 10
3342.397470326016
 20
4269.8289543051
 11
3342.397470326016
 21
4719.8289543051
 72
     1
 10
3342.397470326016
 20
4719.8289543051
 11
3242.397470326016
 21
4719.8289543051
 72
     1
 10
3242.397470326016
 20
4719.8289543051
 11
3242.397470326016
 21
5311.815501311563
 72
     1
 10
3242.397470326016
 20
5311.815501311563
 11
3416.564663736555
 21
5311.815501311563
 97
        0
 75
     0
 76
     1
 52
90.0
 41
15.0
 77
     0
 78
     1
 53
135.0
 43
7211.650011986702
 44
-5369.881736377323
 45
-33.67596045400933
 46
-33.67596045400933
 79
     0
 98
        1
 10
7211.650011986702
 20
-5369.881736377323
1001
ACAD
1010
0.0
1020
0.0
1030
0.0
  0
HATCH
  5
166A
330
A
100
AcDbEntity
  8
DIM
  6
Continuous
100
AcDbHatch
 10
0.0
 20
0.0
 30
0.0
210
0.0
220
0.0
230
1.0
  2
ANSI31
 70
     0
 71
     0
 91
        1
 92
        1
 93
        8
 72
     1
 10
3416.564663736554
 20
2786.933283314265
 11
3416.564663736554
 21
1152.937303488345
 72
     1
 10
3416.564663736554
 20
1152.937303488345
 11
3242.397470326016
 21
1152.960189301339
 72
     1
 10
3242.397470326016
 20
1152.960189301339
 11
3242.397470326016
 21
1744.946736307802
 72
     1
 10
3242.397470326016
 20
1744.946736307802
 11
3342.397470326016
 21
1744.946736307802
 72
     1
 10
3342.397470326016
 20
1744.946736307802
 11
3342.397470326016
 21
2194.946736307802
 72
     1
 10
3342.397470326016
 20
2194.946736307802
 11
3242.397470326016
 21
2194.946736307802
 72
     1
 10
3242.397470326016
 20
2194.946736307802
 11
3242.397470326016
 21
2786.933283314265
 72
     1
 10
3242.397470326016
 20
2786.933283314265
 11
3416.564663736555
 21
2786.933283314265
 97
        0
 75
     0
 76
     1
 52
90.0
 41
15.0
 77
     0
 78
     1
 53
135.0
 43
7211.650011986702
 44
-5369.881736377323
 45
-33.67596045400933
 46
-33.67596045400933
 79
     0
 98
        1
 10
7211.650011986702
 20
-5369.881736377323
1001
ACAD
1010
0.0
1020
0.0
1030
0.0
  0
LINE
  5
167D
102
{ACAD_REACTORS
330
170F
102
}
330
A
100
AcDbEntity
  8
HIDDEN
 48
6.0
100
AcDbLine
 10
1653.980287233198
 20
1744.946736307802
 30
0.0
 11
1203.980287233198
 21
1744.946736307802
 31
0.0
  0
LINE
  5
167E
102
{ACAD_REACTORS
330
170F
102
}
330
A
100
AcDbEntity
  8
HIDDEN
 48
6.0
100
AcDbLine
 10
1653.980287233199
 20
2194.946736307802
 30
0.0
 11
1203.980287233199
 21
2194.946736307802
 31
0.0
  0
LINE
  5
16B3
102
{ACAD_REACTORS
330
170F
102
}
330
A
100
AcDbEntity
  8
HIDDEN
 48
6.0
100
AcDbLine
 10
1203.980287233198
 20
1744.946736307802
 30
0.0
 11
1203.980287233199
 21
2194.946736307802
 31
0.0
  0
LINE
  5
16B4
102
{ACAD_REACTORS
330
170F
102
}
330
A
100
AcDbEntity
  8
HIDDEN
 48
6.0
100
AcDbLine
 10
1653.980287233198
 20
1744.946736307802
 30
0.0
 11
1653.980287233199
 21
2194.946736307802
 31
0.0
  0
LINE
  5
16F8
102
{ACAD_REACTORS
330
170F
102
}
330
A
100
AcDbEntity
  8
HIDDEN
  6
CENTER
 48
2.0
100
AcDbLine
 10
1607.300899633839
 20
1864.946736307803
 30
0.0
 11
1460.659674832557
 21
1864.946736307803
 31
0.0
  0
LINE
  5
16F9
102
{ACAD_REACTORS
330
170F
102
}
330
A
100
AcDbEntity
  8
HIDDEN
  6
CENTER
 48
2.0
100
AcDbLine
 10
1533.980287233198
 20
1798.814419240557
 30
0.0
 11
1533.980287233198
 21
1931.079053375047
 31
0.0
  0
CIRCLE
  5
16FA
102
{ACAD_REACTORS
330
170F
102
}
330
A
100
AcDbEntity
  8
HIDDEN
 48
3.0
100
AcDbCircle
 10
1533.980287233198
 20
1864.946736307803
 30
0.0
 40
26.0
  0
DIMENSION
  5
172B
330
A
100
AcDbEntity
  8
DIM
  6
Continuous
100
AcDbDimension
  2
*D33
 10
2549.013821856356
 20
1419.923850494812
 30
0.0
 11
2504.513821856356
 21
1969.923850494812
 31
0.0
 70
    32
 71
     5
 42
1100.0
 73
     0
 74
     0
 75
     0
  3
tform線あり
100
AcDbAlignedDimension
 13
3136.879101868571
 23
2519.923850494812
 33
0.0
 14
3136.879101868571
 24
1419.923850494812
 34
0.0
 50
-90.00000000000004
100
AcDbRotatedDimension
  0
LINE
  5
1742
102
{ACAD_REACTORS
330
1743
102
}
330
A
100
AcDbEntity
  8
HIDDEN
  6
CENTER
 48
2.0
100
AcDbLine
 10
1328.725960559766
 20
4175.266534636682
 30
0.0
 11
1528.725960559766
 21
4521.676696150457
 31
0.0
  0
CIRCLE
  5
19C9
330
A
100
AcDbEntity
  8
MODEL
  6
Continuous
100
AcDbCircle
 10
1419.296509159173
 20
4162.139377990699
 30
0.0
 40
104.7294513991847
  0
LINE
  5
1AFC
330
A
100
AcDbEntity
  8
MODEL
  6
Continuous
100
AcDbLine
 10
1509.735179810453
 20
4208.159531769892
 30
0.0
 11
1835.364310289376
 21
4364.806199942272
 31
0.0
  0
MTEXT
  5
1AFD
330
A
100
AcDbEntity
  8
DIM
390
1D
100
AcDbMText
 10
1959.627722947173
 20
4253.119537154842
 30
0.0
 40
48.865234375
 41
0.0
 46
55.80409765625
 71
     1
 72
     1
  1
{VP/VU 50}
  7
ＭＳ ゴシック
 11
1.906243444070936E-15
 21
1.0
 31
0.0
 73
     1
 44
0.7828267384257843
1001
ACAD
1000
ACAD_MTEXT_DEFINED_HEIGHT_BEGIN
1070
    46
1040
55.80409765625
1000
ACAD_MTEXT_DEFINED_HEIGHT_END
  0
LINE
  5
1AFE
330
A
100
AcDbEntity
  8
DIM
  6
Continuous
100
AcDbLine
 10
2183.533996369421
 20
4048.374796308251
 30
0.0
 11
2183.533996369422
 21
4685.646635927073
 31
0.0
  0
LINE
  5
1AFF
330
A
100
AcDbEntity
  8
DIM
  6
Continuous
100
AcDbLine
 10
2183.533996369421
 20
4260.19156237029
 30
0.0
 11
2102.816639858501
 21
4260.191562370288
 31
0.0
  0
LINE
  5
1B00
330
A
100
AcDbEntity
  8
DIM
  6
Continuous
100
AcDbLine
 10
2072.8166398585
 20
4388.26973330261
 30
0.0
 11
2135.257761378154
 21
4388.26973330261
 31
0.0
  0
LINE
  5
1B01
330
A
100
AcDbEntity
  8
DIM
  6
Continuous
100
AcDbLine
 10
2155.257761378154
 20
4345.577009658502
 30
0.0
 11
2183.533996369422
 21
4345.577009658502
 31
0.0
  0
LINE
  5
1B02
330
A
100
AcDbEntity
  8
DIM
  6
Continuous
100
AcDbLine
 10
2145.257761378154
 20
4378.26973330261
 30
0.0
 11
2145.257761378154
 21
4355.577009658502
 31
0.0
  0
LINE
  5
1B03
330
A
100
AcDbEntity
  8
DIM
  6
Continuous
100
AcDbLine
 10
2062.8166398585
 20
4300.191562370288
 30
0.0
 11
2062.8166398585
 21
4378.26973330261
 31
0.0
  0
ARC
  5
1B04
330
A
100
AcDbEntity
  8
DIM
  6
Continuous
100
AcDbCircle
 10
2102.816639858499
 20
4300.191562370288
 30
0.0
 40
39.99999999999999
100
AcDbArc
 50
180.0
 51
270.0000000000026
  0
ARC
  5
1B05
330
A
100
AcDbEntity
  8
DIM
  6
Continuous
100
AcDbCircle
 10
2072.8166398585
 20
4378.26973330261
 30
0.0
 40
9.999999999999996
100
AcDbArc
 50
90.0
 51
180.0
  0
ARC
  5
1B06
330
A
100
AcDbEntity
  8
DIM
  6
Continuous
100
AcDbCircle
 10
2135.257761378154
 20
4378.26973330261
 30
0.0
 40
9.999999999999996
100
AcDbArc
 50
0.0
 51
90.0
  0
ARC
  5
1B07
330
A
100
AcDbEntity
  8
DIM
  6
Continuous
100
AcDbCircle
 10
2155.257761378154
 20
4355.577009658502
 30
0.0
 40
9.999999999999996
100
AcDbArc
 50
180.0
 51
270.0
  0
LINE
  5
1B08
330
A
100
AcDbEntity
  8
DIM
100
AcDbLine
 10
2069.530894795251
 20
4536.859662096882
 30
0.0
 11
2132.53089479525
 21
4536.859662096882
 31
0.0
  0
LINE
  5
1B09
330
A
100
AcDbEntity
  8
DIM
100
AcDbLine
 10
2063.895030953947
 20
4536.859662096882
 30
0.0
 11
2101.03089479525
 21
4536.859662096882
 31
0.0
  0
LINE
  5
1B0A
330
A
100
AcDbEntity
  8
DIM
100
AcDbLine
 10
2063.895030953945
 20
4536.859662096882
 30
0.0
 11
2063.895030953945
 21
4551.933645235236
 31
0.0
  0
LINE
  5
1B0B
330
A
100
AcDbEntity
  8
DIM
100
AcDbLine
 10
2063.895030953945
 20
4551.933645235236
 30
0.0
 11
2101.030894795249
 21
4551.933645235236
 31
0.0
  0
LINE
  5
1B0C
330
A
100
AcDbEntity
  8
DIM
100
AcDbLine
 10
2138.166758636556
 20
4536.859662096882
 30
0.0
 11
2101.03089479525
 21
4536.859662096882
 31
0.0
  0
LINE
  5
1B0D
330
A
100
AcDbEntity
  8
DIM
100
AcDbLine
 10
2138.166758636556
 20
4551.933645235236
 30
0.0
 11
2101.03089479525
 21
4551.933645235236
 31
0.0
  0
LINE
  5
1B0E
330
A
100
AcDbEntity
  8
DIM
100
AcDbLine
 10
2138.166758636554
 20
4536.859662096882
 30
0.0
 11
2138.166758636554
 21
4551.933645235236
 31
0.0
  0
LINE
  5
1B0F
330
A
100
AcDbEntity
  8
DIM
100
AcDbLine
 10
2133.644043215403
 20
4551.933645235236
 30
0.0
 11
2068.417746375099
 21
4551.933645235236
 31
0.0
  0
POLYLINE
  5
1B10
330
A
100
AcDbEntity
  8
DIM
100
AcDb2dPolyline
 66
     1
 10
0.0
 20
0.0
 30
0.0
  0
VERTEX
  5
1B11
330
1B10
100
AcDbEntity
  8
DIM
100
AcDbVertex
100
AcDb2dVertex
 10
2136.3724470026
 20
4499.51276250985
 30
0.0
  0
VERTEX
  5
1B12
330
1B10
100
AcDbEntity
  8
DIM
100
AcDbVertex
100
AcDb2dVertex
 10
2134.367099622932
 20
4502.519243374001
 30
0.0
  0
SEQEND
  5
1B13
330
1B10
100
AcDbEntity
  8
DIM
  0
POLYLINE
  5
1B14
330
A
100
AcDbEntity
  8
DIM
100
AcDb2dPolyline
 66
     1
 10
0.0
 20
0.0
 30
0.0
  0
VERTEX
  5
1B15
330
1B14
100
AcDbEntity
  8
DIM
100
AcDbVertex
100
AcDb2dVertex
 10
2065.680101355729
 20
4499.51276250985
 30
0.0
  0
VERTEX
  5
1B16
330
1B14
100
AcDbEntity
  8
DIM
100
AcDbVertex
100
AcDb2dVertex
 10
2067.688529146126
 20
4502.519243374001
 30
0.0
  0
SEQEND
  5
1B17
330
1B14
100
AcDbEntity
  8
DIM
  0
POLYLINE
  5
1B18
330
A
100
AcDbEntity
  8
DIM
100
AcDb2dPolyline
 66
     1
 10
0.0
 20
0.0
 30
0.0
  0
VERTEX
  5
1B19
330
1B18
100
AcDbEntity
  8
DIM
100
AcDbVertex
100
AcDb2dVertex
 10
2136.375527413325
 20
4536.859662096882
 30
0.0
  0
VERTEX
  5
1B1A
330
1B18
100
AcDbEntity
  8
DIM
100
AcDbVertex
100
AcDb2dVertex
 10
2139.043163098109
 20
4536.859662096882
 30
0.0
  0
SEQEND
  5
1B1B
330
1B18
100
AcDbEntity
  8
DIM
  0
SPLINE
  5
1B1C
330
A
100
AcDbEntity
  8
DIM
100
AcDbSpline
210
0.0
220
0.0
230
1.0
 70
     8
 71
     3
 72
    17
 73
    13
 74
     0
 42
0.000000001
 43
0.0000000001
 40
0.0
 40
0.0
 40
0.0
 40
0.0
 40
1.0
 40
1.0
 40
1.0
 40
2.0
 40
2.0
 40
2.0
 40
3.0
 40
3.0
 40
3.0
 40
4.0
 40
4.0
 40
4.0
 40
4.0
 10
2143.035375393124
 20
4530.181331652748
 30
0.0
 10
2143.035375393124
 20
4530.181331652748
 30
0.0
 10
2143.035375393124
 20
4532.848967337533
 30
0.0
 10
2143.035375393124
 20
4532.848967337533
 30
0.0
 10
2143.035375393124
 20
4532.848967337533
 30
0.0
 10
2142.893676499939
 20
4533.372637160188
 30
0.0
 10
2142.893676499939
 20
4533.372637160188
 30
0.0
 10
2142.351524212965
 20
4534.943646628126
 30
0.0
 10
2141.137842388705
 20
4536.157328452386
 30
0.0
 10
2139.566832920758
 20
4536.705641560804
 30
0.0
 10
2139.566832920758
 20
4536.705641560804
 30
0.0
 10
2139.043163098109
 20
4536.859662096882
 30
0.0
 10
2139.043163098109
 20
4536.859662096882
 30
0.0
  0
POLYLINE
  5
1B1D
330
A
100
AcDbEntity
  8
DIM
100
AcDb2dPolyline
 66
     1
 10
0.0
 20
0.0
 30
0.0
  0
VERTEX
  5
1B1E
330
1B1D
100
AcDbEntity
  8
DIM
100
AcDbVertex
100
AcDb2dVertex
 10
2136.375527413325
 20
4536.859662096882
 30
0.0
  0
VERTEX
  5
1B1F
330
1B1D
100
AcDbEntity
  8
DIM
100
AcDbVertex
100
AcDb2dVertex
 10
2135.032468338766
 20
4536.859662096882
 30
0.0
  0
SEQEND
  5
1B20
330
1B1D
100
AcDbEntity
  8
DIM
  0
POLYLINE
  5
1B21
330
A
100
AcDbEntity
  8
DIM
100
AcDb2dPolyline
 66
     1
 10
0.0
 20
0.0
 30
0.0
  0
VERTEX
  5
1B22
330
1B21
100
AcDbEntity
  8
DIM
100
AcDbVertex
100
AcDb2dVertex
 10
2143.035375393124
 20
4530.181331652748
 30
0.0
  0
VERTEX
  5
1B23
330
1B21
100
AcDbEntity
  8
DIM
100
AcDbVertex
100
AcDb2dVertex
 10
2143.035375393124
 20
4527.532178432288
 30
0.0
  0
SEQEND
  5
1B24
330
1B21
100
AcDbEntity
  8
DIM
  0
POLYLINE
  5
1B25
330
A
100
AcDbEntity
  8
DIM
100
AcDb2dPolyline
 66
     1
 10
0.0
 20
0.0
 30
0.0
  0
VERTEX
  5
1B26
330
1B25
100
AcDbEntity
  8
DIM
100
AcDbVertex
100
AcDb2dVertex
 10
2135.032468338766
 20
4536.859662096882
 30
0.0
  0
VERTEX
  5
1B27
330
1B25
100
AcDbEntity
  8
DIM
100
AcDbVertex
100
AcDb2dVertex
 10
2101.03089479525
 20
4536.859662096882
 30
0.0
  0
SEQEND
  5
1B28
330
1B25
100
AcDbEntity
  8
DIM
  0
SPLINE
  5
1B29
330
A
100
AcDbEntity
  8
DIM
100
AcDbSpline
210
0.0
220
0.0
230
1.0
 70
     8
 71
     3
 72
    14
 73
    10
 74
     0
 42
0.000000001
 43
0.0000000001
 40
0.0
 40
0.0
 40
0.0
 40
0.0
 40
1.0
 40
1.0
 40
1.0
 40
2.0
 40
2.0
 40
2.0
 40
3.0
 40
3.0
 40
3.0
 40
3.0
 10
2133.707891728538
 20
4526.990026145309
 30
0.0
 10
2133.707891728538
 20
4526.990026145309
 30
0.0
 10
2133.295116691859
 20
4526.712789180379
 30
0.0
 10
2133.295116691859
 20
4526.712789180379
 30
0.0
 10
2131.169633294055
 20
4525.129458069539
 30
0.0
 10
2131.169633294055
 20
4521.913509276341
 30
0.0
 10
2133.295116691859
 20
4520.33017816551
 30
0.0
 10
2133.295116691859
 20
4520.33017816551
 30
0.0
 10
2133.707891728538
 20
4520.065262843465
 30
0.0
 10
2133.707891728538
 20
4520.065262843465
 30
0.0
  0
POLYLINE
  5
1B2A
330
A
100
AcDbEntity
  8
DIM
100
AcDb2dPolyline
 66
     1
 10
0.0
 20
0.0
 30
0.0
  0
VERTEX
  5
1B2B
330
1B2A
100
AcDbEntity
  8
DIM
100
AcDbVertex
100
AcDb2dVertex
 10
2135.032468338766
 20
4519.523110556482
 30
0.0
  0
VERTEX
  5
1B2C
330
1B2A
100
AcDbEntity
  8
DIM
100
AcDbVertex
100
AcDb2dVertex
 10
2135.032468338766
 20
4517.859688766892
 30
0.0
  0
SEQEND
  5
1B2D
330
1B2A
100
AcDbEntity
  8
DIM
  0
SPLINE
  5
1B2E
330
A
100
AcDbEntity
  8
DIM
100
AcDbSpline
210
0.0
220
0.0
230
1.0
 70
     8
 71
     3
 72
    14
 73
    10
 74
     0
 42
0.000000001
 43
0.0000000001
 40
0.0
 40
0.0
 40
0.0
 40
0.0
 40
1.0
 40
1.0
 40
1.0
 40
2.0
 40
2.0
 40
2.0
 40
3.0
 40
3.0
 40
3.0
 40
3.0
 10
2135.032468338766
 20
4513.189786113151
 30
0.0
 10
2135.032468338766
 20
4513.189786113151
 30
0.0
 10
2135.303544482258
 20
4513.214429398926
 30
0.0
 10
2135.303544482258
 20
4513.214429398926
 30
0.0
 10
2136.726694235574
 20
4513.522470471071
 30
0.0
 10
2136.714372592681
 20
4515.512415797137
 30
0.0
 10
2135.303544482258
 20
4515.826617690724
 30
0.0
 10
2135.303544482258
 20
4515.826617690724
 30
0.0
 10
2135.032468338766
 20
4515.857421797946
 30
0.0
 10
2135.032468338766
 20
4515.857421797946
 30
0.0
  0
POLYLINE
  5
1B2F
330
A
100
AcDbEntity
  8
DIM
100
AcDb2dPolyline
 66
     1
 10
0.0
 20
0.0
 30
0.0
  0
VERTEX
  5
1B30
330
1B2F
100
AcDbEntity
  8
DIM
100
AcDbVertex
100
AcDb2dVertex
 10
2143.035375393124
 20
4527.532178432288
 30
0.0
  0
VERTEX
  5
1B31
330
1B2F
100
AcDbEntity
  8
DIM
100
AcDbVertex
100
AcDb2dVertex
 10
2135.032468338766
 20
4527.532178432288
 30
0.0
  0
SEQEND
  5
1B32
330
1B2F
100
AcDbEntity
  8
DIM
  0
POLYLINE
  5
1B33
330
A
100
AcDbEntity
  8
DIM
100
AcDb2dPolyline
 66
     1
 10
0.0
 20
0.0
 30
0.0
  0
VERTEX
  5
1B34
330
1B33
100
AcDbEntity
  8
DIM
100
AcDbVertex
100
AcDb2dVertex
 10
2135.032468338766
 20
4517.859688766892
 30
0.0
  0
VERTEX
  5
1B35
330
1B33
100
AcDbEntity
  8
DIM
100
AcDbVertex
100
AcDb2dVertex
 10
2134.034415265012
 20
4517.859688766892
 30
0.0
  0
SEQEND
  5
1B36
330
1B33
100
AcDbEntity
  8
DIM
  0
POLYLINE
  5
1B37
330
A
100
AcDbEntity
  8
DIM
100
AcDb2dPolyline
 66
     1
 10
0.0
 20
0.0
 30
0.0
  0
VERTEX
  5
1B38
330
1B37
100
AcDbEntity
  8
DIM
100
AcDbVertex
100
AcDb2dVertex
 10
2135.032468338766
 20
4515.857421797946
 30
0.0
  0
VERTEX
  5
1B39
330
1B37
100
AcDbEntity
  8
DIM
100
AcDbVertex
100
AcDb2dVertex
 10
2134.034415265012
 20
4515.857421797946
 30
0.0
  0
SEQEND
  5
1B3A
330
1B37
100
AcDbEntity
  8
DIM
  0
SPLINE
  5
1B3B
330
A
100
AcDbEntity
  8
DIM
100
AcDbSpline
210
0.0
220
0.0
230
1.0
 70
     8
 71
     3
 72
    14
 73
    10
 74
     0
 42
0.000000001
 43
0.0000000001
 40
0.0
 40
0.0
 40
0.0
 40
0.0
 40
1.0
 40
1.0
 40
1.0
 40
2.0
 40
2.0
 40
2.0
 40
3.0
 40
3.0
 40
3.0
 40
3.0
 10
2134.034415265012
 20
4517.859688766892
 30
0.0
 10
2134.034415265012
 20
4517.859688766892
 30
0.0
 10
2133.806464871628
 20
4517.835045481124
 30
0.0
 10
2133.806464871628
 20
4517.835045481124
 30
0.0
 10
2132.783768512099
 20
4517.551647694749
 30
0.0
 10
2132.765286047764
 20
4516.140819584318
 30
0.0
 10
2133.806464871628
 20
4515.882065083711
 30
0.0
 10
2133.806464871628
 20
4515.882065083711
 30
0.0
 10
2134.034415265012
 20
4515.857421797946
 30
0.0
 10
2134.034415265012
 20
4515.857421797946
 30
0.0
  0
SPLINE
  5
1B3C
330
A
100
AcDbEntity
  8
DIM
100
AcDbSpline
210
0.0
220
0.0
230
1.0
 70
     8
 71
     3
 72
    14
 73
    10
 74
     0
 42
0.000000001
 43
0.0000000001
 40
0.0
 40
0.0
 40
0.0
 40
0.0
 40
1.0
 40
1.0
 40
1.0
 40
2.0
 40
2.0
 40
2.0
 40
3.0
 40
3.0
 40
3.0
 40
3.0
 10
2134.367099622932
 20
4512.838619290906
 30
0.0
 10
2134.367099622932
 20
4512.838619290906
 30
0.0
 10
2134.059058550783
 20
4512.622990540403
 30
0.0
 10
2134.059058550783
 20
4512.622990540403
 30
0.0
 10
2132.70367783334
 20
4511.563329252222
 30
0.0
 10
2132.697517011893
 20
4509.474810783069
 30
0.0
 10
2134.059058550783
 20
4508.415149494887
 30
0.0
 10
2134.059058550783
 20
4508.415149494887
 30
0.0
 10
2134.367099622932
 20
4508.205681565831
 30
0.0
 10
2134.367099622932
 20
4508.205681565831
 30
0.0
  0
SPLINE
  5
1B3D
330
A
100
AcDbEntity
  8
DIM
100
AcDbSpline
210
0.0
220
0.0
230
1.0
 70
     8
 71
     3
 72
    14
 73
    10
 74
     0
 42
0.000000001
 43
0.0000000001
 40
0.0
 40
0.0
 40
0.0
 40
0.0
 40
1.0
 40
1.0
 40
1.0
 40
2.0
 40
2.0
 40
2.0
 40
3.0
 40
3.0
 40
3.0
 40
3.0
 10
2135.032468338766
 20
4505.186879058794
 30
0.0
 10
2135.032468338766
 20
4505.186879058794
 30
0.0
 10
2135.303544482258
 20
4505.211522344565
 30
0.0
 10
2135.303544482258
 20
4505.211522344565
 30
0.0
 10
2136.726694235574
 20
4505.53804588104
 30
0.0
 10
2136.726694235574
 20
4507.497187099883
 30
0.0
 10
2135.303544482258
 20
4507.823710636365
 30
0.0
 10
2135.303544482258
 20
4507.823710636365
 30
0.0
 10
2135.032468338766
 20
4507.85451474358
 30
0.0
 10
2135.032468338766
 20
4507.85451474358
 30
0.0
  0
SPLINE
  5
1B3E
330
A
100
AcDbEntity
  8
DIM
100
AcDbSpline
210
0.0
220
0.0
230
1.0
 70
     8
 71
     3
 72
    14
 73
    10
 74
     0
 42
0.000000001
 43
0.0000000001
 40
0.0
 40
0.0
 40
0.0
 40
0.0
 40
1.0
 40
1.0
 40
1.0
 40
2.0
 40
2.0
 40
2.0
 40
3.0
 40
3.0
 40
3.0
 40
3.0
 10
2134.367099622932
 20
4505.186879058794
 30
0.0
 10
2134.367099622932
 20
4505.186879058794
 30
0.0
 10
2134.102184300883
 20
4505.156074951577
 30
0.0
 10
2134.102184300883
 20
4505.156074951577
 30
0.0
 10
2132.679034547567
 20
4504.829551415103
 30
0.0
 10
2132.679034547567
 20
4502.870410196247
 30
0.0
 10
2134.102184300883
 20
4502.543886659774
 30
0.0
 10
2134.102184300883
 20
4502.543886659774
 30
0.0
 10
2134.367099622932
 20
4502.519243374001
 30
0.0
 10
2134.367099622932
 20
4502.519243374001
 30
0.0
  0
SPLINE
  5
1B3F
330
A
100
AcDbEntity
  8
DIM
100
AcDbSpline
210
0.0
220
0.0
230
1.0
 70
     8
 71
     3
 72
    14
 73
    10
 74
     0
 42
0.000000001
 43
0.0000000001
 40
0.0
 40
0.0
 40
0.0
 40
0.0
 40
1.0
 40
1.0
 40
1.0
 40
2.0
 40
2.0
 40
2.0
 40
3.0
 40
3.0
 40
3.0
 40
3.0
 10
2134.367099622932
 20
4499.284812116464
 30
0.0
 10
2134.367099622932
 20
4499.284812116464
 30
0.0
 10
2133.917359657594
 20
4499.099987473179
 30
0.0
 10
2133.917359657594
 20
4499.099987473179
 30
0.0
 10
2130.957084954267
 20
4497.553621291001
 30
0.0
 10
2130.957084954267
 20
4493.475157495775
 30
0.0
 10
2133.917359657594
 20
4491.928791313607
 30
0.0
 10
2133.917359657594
 20
4491.928791313607
 30
0.0
 10
2134.367099622932
 20
4491.743966670316
 30
0.0
 10
2134.367099622932
 20
4491.743966670316
 30
0.0
  0
POLYLINE
  5
1B40
330
A
100
AcDbEntity
  8
DIM
100
AcDb2dPolyline
 66
     1
 10
0.0
 20
0.0
 30
0.0
  0
VERTEX
  5
1B41
330
1B40
100
AcDbEntity
  8
DIM
100
AcDbVertex
100
AcDb2dVertex
 10
2135.032468338766
 20
4491.435925598184
 30
0.0
  0
VERTEX
  5
1B42
330
1B40
100
AcDbEntity
  8
DIM
100
AcDbVertex
100
AcDb2dVertex
 10
2135.032468338766
 20
4490.092866523617
 30
0.0
  0
VERTEX
  5
1B43
330
1B40
100
AcDbEntity
  8
DIM
100
AcDbVertex
100
AcDb2dVertex
 10
2131.702544348869
 20
4488.176851054872
 30
0.0
  0
VERTEX
  5
1B44
330
1B40
100
AcDbEntity
  8
DIM
100
AcDbVertex
100
AcDb2dVertex
 10
2124.697690368251
 20
4488.176851054872
 30
0.0
  0
SEQEND
  5
1B45
330
1B40
100
AcDbEntity
  8
DIM
  0
POLYLINE
  5
1B46
330
A
100
AcDbEntity
  8
DIM
100
AcDb2dPolyline
 66
     1
 10
0.0
 20
0.0
 30
0.0
  0
VERTEX
  5
1B47
330
1B46
100
AcDbEntity
  8
DIM
100
AcDbVertex
100
AcDb2dVertex
 10
2135.032468338766
 20
4505.186879058794
 30
0.0
  0
VERTEX
  5
1B48
330
1B46
100
AcDbEntity
  8
DIM
100
AcDbVertex
100
AcDb2dVertex
 10
2134.367099622932
 20
4505.186879058794
 30
0.0
  0
SEQEND
  5
1B49
330
1B46
100
AcDbEntity
  8
DIM
  0
POLYLINE
  5
1B4A
330
A
100
AcDbEntity
  8
DIM
100
AcDb2dPolyline
 66
     1
 10
0.0
 20
0.0
 30
0.0
  0
VERTEX
  5
1B4B
330
1B4A
100
AcDbEntity
  8
DIM
100
AcDbVertex
100
AcDb2dVertex
 10
2135.032468338766
 20
4513.189786113151
 30
0.0
  0
VERTEX
  5
1B4C
330
1B4A
100
AcDbEntity
  8
DIM
100
AcDbVertex
100
AcDb2dVertex
 10
2134.367099622932
 20
4512.838619290906
 30
0.0
  0
SEQEND
  5
1B4D
330
1B4A
100
AcDbEntity
  8
DIM
  0
POLYLINE
  5
1B4E
330
A
100
AcDbEntity
  8
DIM
100
AcDb2dPolyline
 66
     1
 10
0.0
 20
0.0
 30
0.0
  0
VERTEX
  5
1B4F
330
1B4E
100
AcDbEntity
  8
DIM
100
AcDbVertex
100
AcDb2dVertex
 10
2134.367099622932
 20
4508.205681565831
 30
0.0
  0
VERTEX
  5
1B50
330
1B4E
100
AcDbEntity
  8
DIM
100
AcDbVertex
100
AcDb2dVertex
 10
2135.032468338766
 20
4507.85451474358
 30
0.0
  0
SEQEND
  5
1B51
330
1B4E
100
AcDbEntity
  8
DIM
  0
POLYLINE
  5
1B52
330
A
100
AcDbEntity
  8
DIM
100
AcDb2dPolyline
 66
     1
 10
0.0
 20
0.0
 30
0.0
  0
VERTEX
  5
1B53
330
1B52
100
AcDbEntity
  8
DIM
100
AcDbVertex
100
AcDb2dVertex
 10
2133.707891728538
 20
4526.990026145309
 30
0.0
  0
VERTEX
  5
1B54
330
1B52
100
AcDbEntity
  8
DIM
100
AcDbVertex
100
AcDb2dVertex
 10
2135.032468338766
 20
4527.532178432288
 30
0.0
  0
SEQEND
  5
1B55
330
1B52
100
AcDbEntity
  8
DIM
  0
POLYLINE
  5
1B56
330
A
100
AcDbEntity
  8
DIM
100
AcDb2dPolyline
 66
     1
 10
0.0
 20
0.0
 30
0.0
  0
VERTEX
  5
1B57
330
1B56
100
AcDbEntity
  8
DIM
100
AcDbVertex
100
AcDb2dVertex
 10
2133.707891728538
 20
4520.065262843465
 30
0.0
  0
VERTEX
  5
1B58
330
1B56
100
AcDbEntity
  8
DIM
100
AcDbVertex
100
AcDb2dVertex
 10
2135.032468338766
 20
4519.523110556482
 30
0.0
  0
SEQEND
  5
1B59
330
1B56
100
AcDbEntity
  8
DIM
  0
POLYLINE
  5
1B5A
330
A
100
AcDbEntity
  8
DIM
100
AcDb2dPolyline
 66
     1
 10
0.0
 20
0.0
 30
0.0
  0
VERTEX
  5
1B5B
330
1B5A
100
AcDbEntity
  8
DIM
100
AcDbVertex
100
AcDb2dVertex
 10
2136.3724470026
 20
4499.51276250985
 30
0.0
  0
VERTEX
  5
1B5C
330
1B5A
100
AcDbEntity
  8
DIM
100
AcDbVertex
100
AcDb2dVertex
 10
2134.367099622932
 20
4499.284812116464
 30
0.0
  0
SEQEND
  5
1B5D
330
1B5A
100
AcDbEntity
  8
DIM
  0
POLYLINE
  5
1B5E
330
A
100
AcDbEntity
  8
DIM
100
AcDb2dPolyline
 66
     1
 10
0.0
 20
0.0
 30
0.0
  0
VERTEX
  5
1B5F
330
1B5E
100
AcDbEntity
  8
DIM
100
AcDbVertex
100
AcDb2dVertex
 10
2134.367099622932
 20
4491.743966670316
 30
0.0
  0
VERTEX
  5
1B60
330
1B5E
100
AcDbEntity
  8
DIM
100
AcDbVertex
100
AcDb2dVertex
 10
2135.032468338766
 20
4491.435925598184
 30
0.0
  0
SEQEND
  5
1B61
330
1B5E
100
AcDbEntity
  8
DIM
  0
POLYLINE
  5
1B62
330
A
100
AcDbEntity
  8
DIM
100
AcDb2dPolyline
 66
     1
 10
0.0
 20
0.0
 30
0.0
  0
VERTEX
  5
1B63
330
1B62
100
AcDbEntity
  8
DIM
100
AcDbVertex
100
AcDb2dVertex
 10
2124.697690368251
 20
4488.176851054872
 30
0.0
  0
VERTEX
  5
1B64
330
1B62
100
AcDbEntity
  8
DIM
100
AcDbVertex
100
AcDb2dVertex
 10
2101.027814384524
 20
4488.176851054872
 30
0.0
  0
SEQEND
  5
1B65
330
1B62
100
AcDbEntity
  8
DIM
  0
POLYLINE
  5
1B66
330
A
100
AcDbEntity
  8
DIM
100
AcDb2dPolyline
 66
     1
 10
0.0
 20
0.0
 30
0.0
  0
VERTEX
  5
1B67
330
1B66
100
AcDbEntity
  8
DIM
100
AcDbVertex
100
AcDb2dVertex
 10
2077.354857990078
 20
4488.176851054872
 30
0.0
  0
VERTEX
  5
1B68
330
1B66
100
AcDbEntity
  8
DIM
100
AcDbVertex
100
AcDb2dVertex
 10
2101.027814384524
 20
4488.176851054872
 30
0.0
  0
SEQEND
  5
1B69
330
1B66
100
AcDbEntity
  8
DIM
  0
POLYLINE
  5
1B6A
330
A
100
AcDbEntity
  8
DIM
100
AcDb2dPolyline
 66
     1
 10
0.0
 20
0.0
 30
0.0
  0
VERTEX
  5
1B6B
330
1B6A
100
AcDbEntity
  8
DIM
100
AcDbVertex
100
AcDb2dVertex
 10
2067.6854487354
 20
4491.743966670316
 30
0.0
  0
VERTEX
  5
1B6C
330
1B6A
100
AcDbEntity
  8
DIM
100
AcDbVertex
100
AcDb2dVertex
 10
2067.007758376682
 20
4491.49137299116
 30
0.0
  0
SEQEND
  5
1B6D
330
1B6A
100
AcDbEntity
  8
DIM
  0
POLYLINE
  5
1B6E
330
A
100
AcDbEntity
  8
DIM
100
AcDb2dPolyline
 66
     1
 10
0.0
 20
0.0
 30
0.0
  0
VERTEX
  5
1B6F
330
1B6E
100
AcDbEntity
  8
DIM
100
AcDbVertex
100
AcDb2dVertex
 10
2065.680101355729
 20
4499.51276250985
 30
0.0
  0
VERTEX
  5
1B70
330
1B6E
100
AcDbEntity
  8
DIM
100
AcDbVertex
100
AcDb2dVertex
 10
2067.6854487354
 20
4499.284812116464
 30
0.0
  0
SEQEND
  5
1B71
330
1B6E
100
AcDbEntity
  8
DIM
  0
POLYLINE
  5
1B72
330
A
100
AcDbEntity
  8
DIM
100
AcDb2dPolyline
 66
     1
 10
0.0
 20
0.0
 30
0.0
  0
VERTEX
  5
1B73
330
1B72
100
AcDbEntity
  8
DIM
100
AcDbVertex
100
AcDb2dVertex
 10
2068.353897861953
 20
4520.065262843465
 30
0.0
  0
VERTEX
  5
1B74
330
1B72
100
AcDbEntity
  8
DIM
100
AcDbVertex
100
AcDb2dVertex
 10
2067.010838787401
 20
4519.523110556482
 30
0.0
  0
SEQEND
  5
1B75
330
1B72
100
AcDbEntity
  8
DIM
  0
POLYLINE
  5
1B76
330
A
100
AcDbEntity
  8
DIM
100
AcDb2dPolyline
 66
     1
 10
0.0
 20
0.0
 30
0.0
  0
VERTEX
  5
1B77
330
1B76
100
AcDbEntity
  8
DIM
100
AcDbVertex
100
AcDb2dVertex
 10
2068.353897861953
 20
4526.990026145309
 30
0.0
  0
VERTEX
  5
1B78
330
1B76
100
AcDbEntity
  8
DIM
100
AcDbVertex
100
AcDb2dVertex
 10
2067.010838787401
 20
4527.532178432288
 30
0.0
  0
SEQEND
  5
1B79
330
1B76
100
AcDbEntity
  8
DIM
  0
POLYLINE
  5
1B7A
330
A
100
AcDbEntity
  8
DIM
100
AcDb2dPolyline
 66
     1
 10
0.0
 20
0.0
 30
0.0
  0
VERTEX
  5
1B7B
330
1B7A
100
AcDbEntity
  8
DIM
100
AcDbVertex
100
AcDb2dVertex
 10
2067.688529146126
 20
4508.205681565831
 30
0.0
  0
VERTEX
  5
1B7C
330
1B7A
100
AcDbEntity
  8
DIM
100
AcDbVertex
100
AcDb2dVertex
 10
2067.010838787401
 20
4507.85451474358
 30
0.0
  0
SEQEND
  5
1B7D
330
1B7A
100
AcDbEntity
  8
DIM
  0
POLYLINE
  5
1B7E
330
A
100
AcDbEntity
  8
DIM
100
AcDb2dPolyline
 66
     1
 10
0.0
 20
0.0
 30
0.0
  0
VERTEX
  5
1B7F
330
1B7E
100
AcDbEntity
  8
DIM
100
AcDbVertex
100
AcDb2dVertex
 10
2067.010838787401
 20
4513.189786113151
 30
0.0
  0
VERTEX
  5
1B80
330
1B7E
100
AcDbEntity
  8
DIM
100
AcDbVertex
100
AcDb2dVertex
 10
2067.688529146126
 20
4512.838619290906
 30
0.0
  0
SEQEND
  5
1B81
330
1B7E
100
AcDbEntity
  8
DIM
  0
POLYLINE
  5
1B82
330
A
100
AcDbEntity
  8
DIM
100
AcDb2dPolyline
 66
     1
 10
0.0
 20
0.0
 30
0.0
  0
VERTEX
  5
1B83
330
1B82
100
AcDbEntity
  8
DIM
100
AcDbVertex
100
AcDb2dVertex
 10
2067.010838787401
 20
4505.186879058794
 30
0.0
  0
VERTEX
  5
1B84
330
1B82
100
AcDbEntity
  8
DIM
100
AcDbVertex
100
AcDb2dVertex
 10
2067.688529146126
 20
4505.186879058794
 30
0.0
  0
SEQEND
  5
1B85
330
1B82
100
AcDbEntity
  8
DIM
  0
POLYLINE
  5
1B86
330
A
100
AcDbEntity
  8
DIM
100
AcDb2dPolyline
 66
     1
 10
0.0
 20
0.0
 30
0.0
  0
VERTEX
  5
1B87
330
1B86
100
AcDbEntity
  8
DIM
100
AcDbVertex
100
AcDb2dVertex
 10
2077.354857990078
 20
4488.176851054872
 30
0.0
  0
VERTEX
  5
1B88
330
1B86
100
AcDbEntity
  8
DIM
100
AcDbVertex
100
AcDb2dVertex
 10
2070.337682366581
 20
4488.176851054872
 30
0.0
  0
VERTEX
  5
1B89
330
1B86
100
AcDbEntity
  8
DIM
100
AcDbVertex
100
AcDb2dVertex
 10
2067.007758376682
 20
4490.166796380927
 30
0.0
  0
VERTEX
  5
1B8A
330
1B86
100
AcDbEntity
  8
DIM
100
AcDbVertex
100
AcDb2dVertex
 10
2067.007758376682
 20
4491.49137299116
 30
0.0
  0
SEQEND
  5
1B8B
330
1B86
100
AcDbEntity
  8
DIM
  0
SPLINE
  5
1B8C
330
A
100
AcDbEntity
  8
DIM
100
AcDbSpline
210
0.0
220
0.0
230
1.0
 70
     8
 71
     3
 72
    14
 73
    10
 74
     0
 42
0.000000001
 43
0.0000000001
 40
0.0
 40
0.0
 40
0.0
 40
0.0
 40
1.0
 40
1.0
 40
1.0
 40
2.0
 40
2.0
 40
2.0
 40
3.0
 40
3.0
 40
3.0
 40
3.0
 10
2067.6854487354
 20
4491.743966670316
 30
0.0
 10
2067.6854487354
 20
4491.743966670316
 30
0.0
 10
2068.138269111462
 20
4491.928791313607
 30
0.0
 10
2068.138269111462
 20
4491.928791313607
 30
0.0
 10
2071.073900529013
 20
4493.444353388571
 30
0.0
 10
2071.073900529013
 20
4497.584425398212
 30
0.0
 10
2068.138269111462
 20
4499.099987473179
 30
0.0
 10
2068.138269111462
 20
4499.099987473179
 30
0.0
 10
2067.6854487354
 20
4499.284812116464
 30
0.0
 10
2067.6854487354
 20
4499.284812116464
 30
0.0
  0
SPLINE
  5
1B8D
330
A
100
AcDbEntity
  8
DIM
100
AcDbSpline
210
0.0
220
0.0
230
1.0
 70
     8
 71
     3
 72
    14
 73
    10
 74
     0
 42
0.000000001
 43
0.0000000001
 40
0.0
 40
0.0
 40
0.0
 40
0.0
 40
1.0
 40
1.0
 40
1.0
 40
2.0
 40
2.0
 40
2.0
 40
3.0
 40
3.0
 40
3.0
 40
3.0
 10
2067.688529146126
 20
4502.519243374001
 30
0.0
 10
2067.688529146126
 20
4502.519243374001
 30
0.0
 10
2067.941122825285
 20
4502.543886659774
 30
0.0
 10
2067.941122825285
 20
4502.543886659774
 30
0.0
 10
2069.370433400044
 20
4502.864249374808
 30
0.0
 10
2069.370433400044
 20
4504.841873057987
 30
0.0
 10
2067.941122825285
 20
4505.156074951577
 30
0.0
 10
2067.941122825285
 20
4505.156074951577
 30
0.0
 10
2067.688529146126
 20
4505.186879058794
 30
0.0
 10
2067.688529146126
 20
4505.186879058794
 30
0.0
  0
SPLINE
  5
1B8E
330
A
100
AcDbEntity
  8
DIM
100
AcDbSpline
210
0.0
220
0.0
230
1.0
 70
     8
 71
     3
 72
    14
 73
    10
 74
     0
 42
0.000000001
 43
0.0000000001
 40
0.0
 40
0.0
 40
0.0
 40
0.0
 40
1.0
 40
1.0
 40
1.0
 40
2.0
 40
2.0
 40
2.0
 40
3.0
 40
3.0
 40
3.0
 40
3.0
 10
2067.010838787401
 20
4507.85451474358
 30
0.0
 10
2067.010838787401
 20
4507.85451474358
 30
0.0
 10
2066.752084286797
 20
4507.823710636365
 30
0.0
 10
2066.752084286797
 20
4507.823710636365
 30
0.0
 10
2065.328934533484
 20
4507.527991207102
 30
0.0
 10
2065.328934533484
 20
4505.507241773823
 30
0.0
 10
2066.752084286797
 20
4505.211522344565
 30
0.0
 10
2066.752084286797
 20
4505.211522344565
 30
0.0
 10
2067.010838787401
 20
4505.186879058794
 30
0.0
 10
2067.010838787401
 20
4505.186879058794
 30
0.0
  0
SPLINE
  5
1B8F
330
A
100
AcDbEntity
  8
DIM
100
AcDbSpline
210
0.0
220
0.0
230
1.0
 70
     8
 71
     3
 72
    14
 73
    10
 74
     0
 42
0.000000001
 43
0.0000000001
 40
0.0
 40
0.0
 40
0.0
 40
0.0
 40
1.0
 40
1.0
 40
1.0
 40
2.0
 40
2.0
 40
2.0
 40
3.0
 40
3.0
 40
3.0
 40
3.0
 10
2067.688529146126
 20
4508.205681565831
 30
0.0
 10
2067.688529146126
 20
4508.205681565831
 30
0.0
 10
2067.984248575382
 20
4508.415149494887
 30
0.0
 10
2067.984248575382
 20
4508.415149494887
 30
0.0
 10
2069.364272578602
 20
4509.487132425955
 30
0.0
 10
2069.358111757154
 20
4511.557168430772
 30
0.0
 10
2067.984248575382
 20
4512.622990540403
 30
0.0
 10
2067.984248575382
 20
4512.622990540403
 30
0.0
 10
2067.688529146126
 20
4512.838619290906
 30
0.0
 10
2067.688529146126
 20
4512.838619290906
 30
0.0
  0
SPLINE
  5
1B90
330
A
100
AcDbEntity
  8
DIM
100
AcDbSpline
210
0.0
220
0.0
230
1.0
 70
     8
 71
     3
 72
    14
 73
    10
 74
     0
 42
0.000000001
 43
0.0000000001
 40
0.0
 40
0.0
 40
0.0
 40
0.0
 40
1.0
 40
1.0
 40
1.0
 40
2.0
 40
2.0
 40
2.0
 40
3.0
 40
3.0
 40
3.0
 40
3.0
 10
2068.008891861155
 20
4515.857421797946
 30
0.0
 10
2068.008891861155
 20
4515.857421797946
 30
0.0
 10
2068.236842254541
 20
4515.882065083711
 30
0.0
 10
2068.236842254541
 20
4515.882065083711
 30
0.0
 10
2069.278021078399
 20
4516.12849794143
 30
0.0
 10
2069.265699435513
 20
4517.570130159078
 30
0.0
 10
2068.236842254541
 20
4517.835045481124
 30
0.0
 10
2068.236842254541
 20
4517.835045481124
 30
0.0
 10
2068.008891861155
 20
4517.859688766892
 30
0.0
 10
2068.008891861155
 20
4517.859688766892
 30
0.0
  0
POLYLINE
  5
1B91
330
A
100
AcDbEntity
  8
DIM
100
AcDb2dPolyline
 66
     1
 10
0.0
 20
0.0
 30
0.0
  0
VERTEX
  5
1B92
330
1B91
100
AcDbEntity
  8
DIM
100
AcDbVertex
100
AcDb2dVertex
 10
2067.010838787401
 20
4515.857421797946
 30
0.0
  0
VERTEX
  5
1B93
330
1B91
100
AcDbEntity
  8
DIM
100
AcDbVertex
100
AcDb2dVertex
 10
2068.008891861155
 20
4515.857421797946
 30
0.0
  0
SEQEND
  5
1B94
330
1B91
100
AcDbEntity
  8
DIM
  0
POLYLINE
  5
1B95
330
A
100
AcDbEntity
  8
DIM
100
AcDb2dPolyline
 66
     1
 10
0.0
 20
0.0
 30
0.0
  0
VERTEX
  5
1B96
330
1B95
100
AcDbEntity
  8
DIM
100
AcDbVertex
100
AcDb2dVertex
 10
2067.010838787401
 20
4517.859688766892
 30
0.0
  0
VERTEX
  5
1B97
330
1B95
100
AcDbEntity
  8
DIM
100
AcDbVertex
100
AcDb2dVertex
 10
2068.008891861155
 20
4517.859688766892
 30
0.0
  0
SEQEND
  5
1B98
330
1B95
100
AcDbEntity
  8
DIM
  0
POLYLINE
  5
1B99
330
A
100
AcDbEntity
  8
DIM
100
AcDb2dPolyline
 66
     1
 10
0.0
 20
0.0
 30
0.0
  0
VERTEX
  5
1B9A
330
1B99
100
AcDbEntity
  8
DIM
100
AcDbVertex
100
AcDb2dVertex
 10
2059.007931733041
 20
4527.532178432288
 30
0.0
  0
VERTEX
  5
1B9B
330
1B99
100
AcDbEntity
  8
DIM
100
AcDbVertex
100
AcDb2dVertex
 10
2067.010838787401
 20
4527.532178432288
 30
0.0
  0
SEQEND
  5
1B9C
330
1B99
100
AcDbEntity
  8
DIM
  0
SPLINE
  5
1B9D
330
A
100
AcDbEntity
  8
DIM
100
AcDbSpline
210
0.0
220
0.0
230
1.0
 70
     8
 71
     3
 72
    14
 73
    10
 74
     0
 42
0.000000001
 43
0.0000000001
 40
0.0
 40
0.0
 40
0.0
 40
0.0
 40
1.0
 40
1.0
 40
1.0
 40
2.0
 40
2.0
 40
2.0
 40
3.0
 40
3.0
 40
3.0
 40
3.0
 10
2067.010838787401
 20
4515.857421797946
 30
0.0
 10
2067.010838787401
 20
4515.857421797946
 30
0.0
 10
2066.752084286797
 20
4515.826617690724
 30
0.0
 10
2066.752084286797
 20
4515.826617690724
 30
0.0
 10
2065.335095354931
 20
4515.524737440028
 30
0.0
 10
2065.322773712036
 20
4513.510148828189
 30
0.0
 10
2066.752084286797
 20
4513.214429398926
 30
0.0
 10
2066.752084286797
 20
4513.214429398926
 30
0.0
 10
2067.010838787401
 20
4513.189786113151
 30
0.0
 10
2067.010838787401
 20
4513.189786113151
 30
0.0
  0
POLYLINE
  5
1B9E
330
A
100
AcDbEntity
  8
DIM
100
AcDb2dPolyline
 66
     1
 10
0.0
 20
0.0
 30
0.0
  0
VERTEX
  5
1B9F
330
1B9E
100
AcDbEntity
  8
DIM
100
AcDbVertex
100
AcDb2dVertex
 10
2067.010838787401
 20
4519.523110556482
 30
0.0
  0
VERTEX
  5
1BA0
330
1B9E
100
AcDbEntity
  8
DIM
100
AcDbVertex
100
AcDb2dVertex
 10
2067.010838787401
 20
4517.859688766892
 30
0.0
  0
SEQEND
  5
1BA1
330
1B9E
100
AcDbEntity
  8
DIM
  0
SPLINE
  5
1BA2
330
A
100
AcDbEntity
  8
DIM
100
AcDbSpline
210
0.0
220
0.0
230
1.0
 70
     8
 71
     3
 72
    14
 73
    10
 74
     0
 42
0.000000001
 43
0.0000000001
 40
0.0
 40
0.0
 40
0.0
 40
0.0
 40
1.0
 40
1.0
 40
1.0
 40
2.0
 40
2.0
 40
2.0
 40
3.0
 40
3.0
 40
3.0
 40
3.0
 10
2068.353897861953
 20
4520.065262843465
 30
0.0
 10
2068.353897861953
 20
4520.065262843465
 30
0.0
 10
2068.760512077199
 20
4520.33017816551
 30
0.0
 10
2068.760512077199
 20
4520.33017816551
 30
0.0
 10
2070.879834653555
 20
4521.944313383554
 30
0.0
 10
2070.879834653555
 20
4525.104814783783
 30
0.0
 10
2068.760512077199
 20
4526.712789180379
 30
0.0
 10
2068.760512077199
 20
4526.712789180379
 30
0.0
 10
2068.353897861953
 20
4526.990026145309
 30
0.0
 10
2068.353897861953
 20
4526.990026145309
 30
0.0
  0
POLYLINE
  5
1BA3
330
A
100
AcDbEntity
  8
DIM
100
AcDb2dPolyline
 66
     1
 10
0.0
 20
0.0
 30
0.0
  0
VERTEX
  5
1BA4
330
1BA3
100
AcDbEntity
  8
DIM
100
AcDbVertex
100
AcDb2dVertex
 10
2074.348377125926
 20
4536.859662096882
 30
0.0
  0
VERTEX
  5
1BA5
330
1BA3
100
AcDbEntity
  8
DIM
100
AcDbVertex
100
AcDb2dVertex
 10
2075.679114557598
 20
4536.859662096882
 30
0.0
  0
SEQEND
  5
1BA6
330
1BA3
100
AcDbEntity
  8
DIM
  0
POLYLINE
  5
1BA7
330
A
100
AcDbEntity
  8
DIM
100
AcDb2dPolyline
 66
     1
 10
0.0
 20
0.0
 30
0.0
  0
VERTEX
  5
1BA8
330
1BA7
100
AcDbEntity
  8
DIM
100
AcDbVertex
100
AcDb2dVertex
 10
2067.010838787401
 20
4536.859662096882
 30
0.0
  0
VERTEX
  5
1BA9
330
1BA7
100
AcDbEntity
  8
DIM
100
AcDbVertex
100
AcDb2dVertex
 10
2101.03089479525
 20
4536.859662096882
 30
0.0
  0
SEQEND
  5
1BAA
330
1BA7
100
AcDbEntity
  8
DIM
  0
POLYLINE
  5
1BAB
330
A
100
AcDbEntity
  8
DIM
100
AcDb2dPolyline
 66
     1
 10
0.0
 20
0.0
 30
0.0
  0
VERTEX
  5
1BAC
330
1BAB
100
AcDbEntity
  8
DIM
100
AcDbVertex
100
AcDb2dVertex
 10
2059.007931733041
 20
4530.181331652748
 30
0.0
  0
VERTEX
  5
1BAD
330
1BAB
100
AcDbEntity
  8
DIM
100
AcDbVertex
100
AcDb2dVertex
 10
2059.007931733041
 20
4527.532178432288
 30
0.0
  0
SEQEND
  5
1BAE
330
1BAB
100
AcDbEntity
  8
DIM
  0
POLYLINE
  5
1BAF
330
A
100
AcDbEntity
  8
DIM
100
AcDb2dPolyline
 66
     1
 10
0.0
 20
0.0
 30
0.0
  0
VERTEX
  5
1BB0
330
1BAF
100
AcDbEntity
  8
DIM
100
AcDbVertex
100
AcDb2dVertex
 10
2065.680101355729
 20
4536.859662096882
 30
0.0
  0
VERTEX
  5
1BB1
330
1BAF
100
AcDbEntity
  8
DIM
100
AcDbVertex
100
AcDb2dVertex
 10
2067.010838787401
 20
4536.859662096882
 30
0.0
  0
SEQEND
  5
1BB2
330
1BAF
100
AcDbEntity
  8
DIM
  0
SPLINE
  5
1BB3
330
A
100
AcDbEntity
  8
DIM
100
AcDbSpline
210
0.0
220
0.0
230
1.0
 70
     8
 71
     3
 72
    14
 73
    10
 74
     0
 42
0.000000001
 43
0.0000000001
 40
0.0
 40
0.0
 40
0.0
 40
0.0
 40
1.0
 40
1.0
 40
1.0
 40
2.0
 40
2.0
 40
2.0
 40
3.0
 40
3.0
 40
3.0
 40
3.0
 10
2063.01246567094
 20
4536.859662096882
 30
0.0
 10
2063.01246567094
 20
4536.859662096882
 30
0.0
 10
2062.494956669733
 20
4536.705641560804
 30
0.0
 10
2062.494956669733
 20
4536.705641560804
 30
0.0
 10
2060.917786380344
 20
4536.175810916717
 30
0.0
 10
2059.691782913204
 20
4534.943646628126
 30
0.0
 10
2059.161952269109
 20
4533.372637160188
 30
0.0
 10
2059.161952269109
 20
4533.372637160188
 30
0.0
 10
2059.007931733041
 20
4532.848967337533
 30
0.0
 10
2059.007931733041
 20
4532.848967337533
 30
0.0
  0
POLYLINE
  5
1BB4
330
A
100
AcDbEntity
  8
DIM
100
AcDb2dPolyline
 66
     1
 10
0.0
 20
0.0
 30
0.0
  0
VERTEX
  5
1BB5
330
1BB4
100
AcDbEntity
  8
DIM
100
AcDbVertex
100
AcDb2dVertex
 10
2059.007931733041
 20
4530.181331652748
 30
0.0
  0
VERTEX
  5
1BB6
330
1BB4
100
AcDbEntity
  8
DIM
100
AcDbVertex
100
AcDb2dVertex
 10
2059.007931733041
 20
4532.848967337533
 30
0.0
  0
SEQEND
  5
1BB7
330
1BB4
100
AcDbEntity
  8
DIM
  0
POLYLINE
  5
1BB8
330
A
100
AcDbEntity
  8
DIM
100
AcDb2dPolyline
 66
     1
 10
0.0
 20
0.0
 30
0.0
  0
VERTEX
  5
1BB9
330
1BB8
100
AcDbEntity
  8
DIM
100
AcDbVertex
100
AcDb2dVertex
 10
2065.680101355729
 20
4536.859662096882
 30
0.0
  0
VERTEX
  5
1BBA
330
1BB8
100
AcDbEntity
  8
DIM
100
AcDbVertex
100
AcDb2dVertex
 10
2063.01246567094
 20
4536.859662096882
 30
0.0
  0
SEQEND
  5
1BBB
330
1BB8
100
AcDbEntity
  8
DIM
  0
SPLINE
  5
1BBC
330
A
100
AcDbEntity
  8
DIM
100
AcDbSpline
210
0.0
220
0.0
230
1.0
 70
    11
 71
     3
 72
    29
 73
    25
 74
     0
 42
0.000000001
 43
0.0000000001
 40
0.0
 40
0.0
 40
0.0
 40
0.0
 40
1.0
 40
1.0
 40
1.0
 40
2.0
 40
2.0
 40
2.0
 40
3.0
 40
3.0
 40
3.0
 40
4.0
 40
4.0
 40
4.0
 40
5.0
 40
5.0
 40
5.0
 40
6.0
 40
6.0
 40
6.0
 40
7.0
 40
7.0
 40
7.0
 40
8.0
 40
8.0
 40
8.0
 40
8.0
 10
2070.337682366581
 20
4523.52148367295
 30
0.0
 10
2070.337682366581
 20
4523.52148367295
 30
0.0
 10
2070.313039080808
 20
4524.00202774549
 30
0.0
 10
2070.313039080808
 20
4524.00202774549
 30
0.0
 10
2070.313039080808
 20
4524.00202774549
 30
0.0
 10
2070.226787580614
 20
4524.48257181804
 30
0.0
 10
2070.226787580614
 20
4524.48257181804
 30
0.0
 10
2069.037749042127
 20
4528.788986006639
 30
0.0
 10
2063.024787313826
 20
4528.400854255739
 30
0.0
 10
2062.377901062321
 20
4524.00202774549
 30
0.0
 10
2062.377901062321
 20
4524.00202774549
 30
0.0
 10
2062.347096955104
 20
4523.52148367295
 30
0.0
 10
2062.347096955104
 20
4523.52148367295
 30
0.0
 10
2062.347096955104
 20
4523.52148367295
 30
0.0
 10
2062.377901062321
 20
4523.0409396004
 30
0.0
 10
2062.377901062321
 20
4523.0409396004
 30
0.0
 10
2063.018626492384
 20
4518.635952268705
 30
0.0
 10
2069.050070685008
 20
4518.266302982134
 30
0.0
 10
2070.226787580614
 20
4522.560395527848
 30
0.0
 10
2070.226787580614
 20
4522.560395527848
 30
0.0
 10
2070.313039080808
 20
4523.0409396004
 30
0.0
 10
2070.313039080808
 20
4523.0409396004
 30
0.0
 10
2070.313039080808
 20
4523.0409396004
 30
0.0
 10
2070.337682366581
 20
4523.52148367295
 30
0.0
 10
2070.337682366581
 20
4523.52148367295
 30
0.0
  0
SPLINE
  5
1BBD
330
A
100
AcDbEntity
  8
DIM
100
AcDbSpline
210
0.0
220
0.0
230
1.0
 70
    11
 71
     3
 72
    29
 73
    25
 74
     0
 42
0.000000001
 43
0.0000000001
 40
0.0
 40
0.0
 40
0.0
 40
0.0
 40
1.0
 40
1.0
 40
1.0
 40
2.0
 40
2.0
 40
2.0
 40
3.0
 40
3.0
 40
3.0
 40
4.0
 40
4.0
 40
4.0
 40
5.0
 40
5.0
 40
5.0
 40
6.0
 40
6.0
 40
6.0
 40
7.0
 40
7.0
 40
7.0
 40
8.0
 40
8.0
 40
8.0
 40
8.0
 10
2070.337682366581
 20
4495.514389393396
 30
0.0
 10
2070.337682366581
 20
4495.514389393396
 30
0.0
 10
2070.309958670089
 20
4495.994933465943
 30
0.0
 10
2070.309958670089
 20
4495.994933465943
 30
0.0
 10
2070.309958670089
 20
4495.994933465943
 30
0.0
 10
2070.226787580614
 20
4496.475477538497
 30
0.0
 10
2070.226787580614
 20
4496.475477538497
 30
0.0
 10
2069.050070685008
 20
4500.769570084214
 30
0.0
 10
2063.015546081666
 20
4500.399920797634
 30
0.0
 10
2062.377901062321
 20
4495.994933465943
 30
0.0
 10
2062.377901062321
 20
4495.994933465943
 30
0.0
 10
2062.347096955104
 20
4495.514389393396
 30
0.0
 10
2062.347096955104
 20
4495.514389393396
 30
0.0
 10
2062.347096955104
 20
4495.514389393396
 30
0.0
 10
2062.377901062321
 20
4495.033845320848
 30
0.0
 10
2062.377901062321
 20
4495.033845320848
 30
0.0
 10
2063.021706903101
 20
4490.635018810593
 30
0.0
 10
2069.034668631401
 20
4490.246887059689
 30
0.0
 10
2070.226787580614
 20
4494.553301248296
 30
0.0
 10
2070.226787580614
 20
4494.553301248296
 30
0.0
 10
2070.309958670089
 20
4495.033845320848
 30
0.0
 10
2070.309958670089
 20
4495.033845320848
 30
0.0
 10
2070.309958670089
 20
4495.033845320848
 30
0.0
 10
2070.337682366581
 20
4495.514389393396
 30
0.0
 10
2070.337682366581
 20
4495.514389393396
 30
0.0
  0
SPLINE
  5
1BBE
330
A
100
AcDbEntity
  8
DIM
100
AcDbSpline
210
0.0
220
0.0
230
1.0
 70
    11
 71
     3
 72
    29
 73
    25
 74
     0
 42
0.000000001
 43
0.0000000001
 40
0.0
 40
0.0
 40
0.0
 40
0.0
 40
1.0
 40
1.0
 40
1.0
 40
2.0
 40
2.0
 40
2.0
 40
3.0
 40
3.0
 40
3.0
 40
4.0
 40
4.0
 40
4.0
 40
5.0
 40
5.0
 40
5.0
 40
6.0
 40
6.0
 40
6.0
 40
7.0
 40
7.0
 40
7.0
 40
8.0
 40
8.0
 40
8.0
 40
8.0
 10
2139.702370992507
 20
4495.514389393396
 30
0.0
 10
2139.702370992507
 20
4495.514389393396
 30
0.0
 10
2139.674647296009
 20
4495.994933465943
 30
0.0
 10
2139.674647296009
 20
4495.994933465943
 30
0.0
 10
2139.674647296009
 20
4495.994933465943
 30
0.0
 10
2139.591476206533
 20
4496.475477538497
 30
0.0
 10
2139.591476206533
 20
4496.475477538497
 30
0.0
 10
2138.387035614436
 20
4500.769570084214
 30
0.0
 10
2132.377154296866
 20
4500.406081619079
 30
0.0
 10
2131.727187634638
 20
4495.994933465943
 30
0.0
 10
2131.727187634638
 20
4495.994933465943
 30
0.0
 10
2131.702544348869
 20
4495.514389393396
 30
0.0
 10
2131.702544348869
 20
4495.514389393396
 30
0.0
 10
2131.702544348869
 20
4495.514389393396
 30
0.0
 10
2131.727187634638
 20
4495.033845320848
 30
0.0
 10
2131.727187634638
 20
4495.033845320848
 30
0.0
 10
2132.367913064705
 20
4490.647340453477
 30
0.0
 10
2138.36855315011
 20
4490.234565416806
 30
0.0
 10
2139.591476206533
 20
4494.553301248296
 30
0.0
 10
2139.591476206533
 20
4494.553301248296
 30
0.0
 10
2139.674647296009
 20
4495.033845320848
 30
0.0
 10
2139.674647296009
 20
4495.033845320848
 30
0.0
 10
2139.674647296009
 20
4495.033845320848
 30
0.0
 10
2139.702370992507
 20
4495.514389393396
 30
0.0
 10
2139.702370992507
 20
4495.514389393396
 30
0.0
  0
SPLINE
  5
1BBF
330
A
100
AcDbEntity
  8
DIM
100
AcDbSpline
210
0.0
220
0.0
230
1.0
 70
    11
 71
     3
 72
    29
 73
    25
 74
     0
 42
0.000000001
 43
0.0000000001
 40
0.0
 40
0.0
 40
0.0
 40
0.0
 40
1.0
 40
1.0
 40
1.0
 40
2.0
 40
2.0
 40
2.0
 40
3.0
 40
3.0
 40
3.0
 40
4.0
 40
4.0
 40
4.0
 40
5.0
 40
5.0
 40
5.0
 40
6.0
 40
6.0
 40
6.0
 40
7.0
 40
7.0
 40
7.0
 40
8.0
 40
8.0
 40
8.0
 40
8.0
 10
2139.702370992507
 20
4523.52148367295
 30
0.0
 10
2139.702370992507
 20
4523.52148367295
 30
0.0
 10
2139.677727706737
 20
4524.00202774549
 30
0.0
 10
2139.677727706737
 20
4524.00202774549
 30
0.0
 10
2139.677727706737
 20
4524.00202774549
 30
0.0
 10
2139.591476206533
 20
4524.48257181804
 30
0.0
 10
2139.591476206533
 20
4524.48257181804
 30
0.0
 10
2138.371633560835
 20
4528.801307649526
 30
0.0
 10
2132.370993475424
 20
4528.388532612851
 30
0.0
 10
2131.730268045357
 20
4524.00202774549
 30
0.0
 10
2131.730268045357
 20
4524.00202774549
 30
0.0
 10
2131.705624759586
 20
4523.52148367295
 30
0.0
 10
2131.705624759586
 20
4523.52148367295
 30
0.0
 10
2131.705624759586
 20
4523.52148367295
 30
0.0
 10
2131.730268045357
 20
4523.0409396004
 30
0.0
 10
2131.730268045357
 20
4523.0409396004
 30
0.0
 10
2132.377154296866
 20
4518.635952268705
 30
0.0
 10
2138.390116025166
 20
4518.272463803569
 30
0.0
 10
2139.591476206533
 20
4522.560395527848
 30
0.0
 10
2139.591476206533
 20
4522.560395527848
 30
0.0
 10
2139.677727706737
 20
4523.0409396004
 30
0.0
 10
2139.677727706737
 20
4523.0409396004
 30
0.0
 10
2139.677727706737
 20
4523.0409396004
 30
0.0
 10
2139.702370992507
 20
4523.52148367295
 30
0.0
 10
2139.702370992507
 20
4523.52148367295
 30
0.0
  0
POLYLINE
  5
1BC0
330
A
100
AcDbEntity
  8
DIM
100
AcDb2dPolyline
 66
     1
 10
0.0
 20
0.0
 30
0.0
  0
VERTEX
  5
1BC1
330
1BC0
100
AcDbEntity
  8
DIM
100
AcDbVertex
100
AcDb2dVertex
 10
2135.032468338766
 20
4527.532178432288
 30
0.0
  0
VERTEX
  5
1BC2
330
1BC0
100
AcDbEntity
  8
DIM
100
AcDbVertex
100
AcDb2dVertex
 10
2067.010838787401
 20
4527.532178432288
 30
0.0
  0
SEQEND
  5
1BC3
330
1BC0
100
AcDbEntity
  8
DIM
  0
POLYLINE
  5
1BC4
330
A
100
AcDbEntity
  8
DIM
100
AcDb2dPolyline
 66
     1
 10
0.0
 20
0.0
 30
0.0
  0
VERTEX
  5
1BC5
330
1BC4
100
AcDbEntity
  8
DIM
100
AcDbVertex
100
AcDb2dVertex
 10
2134.749070552388
 20
4519.640166163894
 30
0.0
  0
VERTEX
  5
1BC6
330
1BC4
100
AcDbEntity
  8
DIM
100
AcDbVertex
100
AcDb2dVertex
 10
2067.294236573775
 20
4519.640166163894
 30
0.0
  0
SEQEND
  5
1BC7
330
1BC4
100
AcDbEntity
  8
DIM
  0
POLYLINE
  5
1BC8
330
A
100
AcDbEntity
  8
DIM
100
AcDb2dPolyline
 66
     1
 10
0.0
 20
0.0
 30
0.0
  0
VERTEX
  5
1BC9
330
1BC8
100
AcDbEntity
  8
DIM
100
AcDbVertex
100
AcDb2dVertex
 10
2135.032468338766
 20
4517.859688766892
 30
0.0
  0
VERTEX
  5
1BCA
330
1BC8
100
AcDbEntity
  8
DIM
100
AcDbVertex
100
AcDb2dVertex
 10
2068.008891861155
 20
4517.859688766892
 30
0.0
  0
SEQEND
  5
1BCB
330
1BC8
100
AcDbEntity
  8
DIM
  0
POLYLINE
  5
1BCC
330
A
100
AcDbEntity
  8
DIM
100
AcDb2dPolyline
 66
     1
 10
0.0
 20
0.0
 30
0.0
  0
VERTEX
  5
1BCD
330
1BCC
100
AcDbEntity
  8
DIM
100
AcDbVertex
100
AcDb2dVertex
 10
2134.539602623333
 20
4515.857421797946
 30
0.0
  0
VERTEX
  5
1BCE
330
1BCC
100
AcDbEntity
  8
DIM
100
AcDbVertex
100
AcDb2dVertex
 10
2068.008891861155
 20
4515.857421797946
 30
0.0
  0
SEQEND
  5
1BCF
330
1BCC
100
AcDbEntity
  8
DIM
  0
POLYLINE
  5
1BD0
330
A
100
AcDbEntity
  8
DIM
100
AcDb2dPolyline
 66
     1
 10
0.0
 20
0.0
 30
0.0
  0
VERTEX
  5
1BD1
330
1BD0
100
AcDbEntity
  8
DIM
100
AcDbVertex
100
AcDb2dVertex
 10
2135.032468338766
 20
4513.189786113151
 30
0.0
  0
VERTEX
  5
1BD2
330
1BD0
100
AcDbEntity
  8
DIM
100
AcDbVertex
100
AcDb2dVertex
 10
2067.010838787401
 20
4513.189786113151
 30
0.0
  0
SEQEND
  5
1BD3
330
1BD0
100
AcDbEntity
  8
DIM
  0
POLYLINE
  5
1BD4
330
A
100
AcDbEntity
  8
DIM
100
AcDb2dPolyline
 66
     1
 10
0.0
 20
0.0
 30
0.0
  0
VERTEX
  5
1BD5
330
1BD4
100
AcDbEntity
  8
DIM
100
AcDbVertex
100
AcDb2dVertex
 10
2135.032468338766
 20
4507.85451474358
 30
0.0
  0
VERTEX
  5
1BD6
330
1BD4
100
AcDbEntity
  8
DIM
100
AcDbVertex
100
AcDb2dVertex
 10
2067.010838787401
 20
4507.85451474358
 30
0.0
  0
SEQEND
  5
1BD7
330
1BD4
100
AcDbEntity
  8
DIM
  0
POLYLINE
  5
1BD8
330
A
100
AcDbEntity
  8
DIM
100
AcDb2dPolyline
 66
     1
 10
0.0
 20
0.0
 30
0.0
  0
VERTEX
  5
1BD9
330
1BD8
100
AcDbEntity
  8
DIM
100
AcDbVertex
100
AcDb2dVertex
 10
2134.367099622932
 20
4505.186879058794
 30
0.0
  0
VERTEX
  5
1BDA
330
1BD8
100
AcDbEntity
  8
DIM
100
AcDbVertex
100
AcDb2dVertex
 10
2068.169073218671
 20
4505.186879058794
 30
0.0
  0
SEQEND
  5
1BDB
330
1BD8
100
AcDbEntity
  8
DIM
  0
POLYLINE
  5
1BDC
330
A
100
AcDbEntity
  8
DIM
100
AcDb2dPolyline
 66
     1
 10
0.0
 20
0.0
 30
0.0
  0
VERTEX
  5
1BDD
330
1BDC
100
AcDbEntity
  8
DIM
100
AcDbVertex
100
AcDb2dVertex
 10
2134.367099622932
 20
4502.519243374001
 30
0.0
  0
VERTEX
  5
1BDE
330
1BDC
100
AcDbEntity
  8
DIM
100
AcDbVertex
100
AcDb2dVertex
 10
2067.688529146126
 20
4502.519243374001
 30
0.0
  0
SEQEND
  5
1BDF
330
1BDC
100
AcDbEntity
  8
DIM
  0
POLYLINE
  5
1BE0
330
A
100
AcDbEntity
  8
DIM
100
AcDb2dPolyline
 66
     1
 10
0.0
 20
0.0
 30
0.0
  0
VERTEX
  5
1BE1
330
1BE0
100
AcDbEntity
  8
DIM
100
AcDbVertex
100
AcDb2dVertex
 10
2136.3724470026
 20
4499.51276250985
 30
0.0
  0
VERTEX
  5
1BE2
330
1BE0
100
AcDbEntity
  8
DIM
100
AcDbVertex
100
AcDb2dVertex
 10
2066.049750642308
 20
4499.51276250985
 30
0.0
  0
SEQEND
  5
1BE3
330
1BE0
100
AcDbEntity
  8
DIM
  0
POLYLINE
  5
1BE4
330
A
100
AcDbEntity
  8
DIM
100
AcDb2dPolyline
 66
     1
 10
0.0
 20
0.0
 30
0.0
  0
VERTEX
  5
1BE5
330
1BE4
100
AcDbEntity
  8
DIM
100
AcDbVertex
100
AcDb2dVertex
 10
2135.032468338766
 20
4491.435925598184
 30
0.0
  0
VERTEX
  5
1BE6
330
1BE4
100
AcDbEntity
  8
DIM
100
AcDbVertex
100
AcDb2dVertex
 10
2067.007758376682
 20
4491.435925598184
 30
0.0
  0
SEQEND
  5
1BE7
330
1BE4
100
AcDbEntity
  8
DIM
  0
POLYLINE
  5
1BE8
330
A
100
AcDbEntity
  8
DIM
100
AcDb2dPolyline
 66
     1
 10
0.0
 20
0.0
 30
0.0
  0
VERTEX
  5
1BE9
330
1BE8
100
AcDbEntity
  8
DIM
100
AcDbVertex
100
AcDb2dVertex
 10
2135.032468338766
 20
4490.092866523617
 30
0.0
  0
VERTEX
  5
1BEA
330
1BE8
100
AcDbEntity
  8
DIM
100
AcDbVertex
100
AcDb2dVertex
 10
2067.226467537903
 20
4490.092866523617
 30
0.0
  0
SEQEND
  5
1BEB
330
1BE8
100
AcDbEntity
  8
DIM
  0
LINE
  5
1BEC
330
A
100
AcDbEntity
  8
DIM
  6
Continuous
100
AcDbLine
 10
2069.650770523464
 20
4551.933645235236
 30
0.0
 11
2069.650770523464
 21
4671.825248762994
 31
0.0
  0
LINE
  5
1BED
330
A
100
AcDbEntity
  8
DIM
  6
Continuous
100
AcDbLine
 10
2132.411019067034
 20
4551.93364523524
 30
0.0
 11
2132.411019067022
 21
4671.825248762998
 31
0.0
  0
LINE
  5
1BEE
330
A
100
AcDbEntity
  8
DIM
  6
Continuous
100
AcDbLine
 10
2183.533996369421
 20
4099.900497258035
 30
0.0
 11
2235.200136777185
 21
4035.125330349736
 31
0.0
  0
LINE
  5
1BEF
330
A
100
AcDbEntity
  8
DIM
  6
Continuous
100
AcDbLine
 10
2183.533996369421
 20
4155.842686860657
 30
0.0
 11
2235.200136777185
 21
4091.067519952356
 31
0.0
  0
LINE
  5
1BF0
330
A
100
AcDbEntity
  8
DIM
  6
Continuous
100
AcDbLine
 10
2183.533996369421
 20
4211.549330401793
 30
0.0
 11
2235.200136777185
 21
4146.774163493492
 31
0.0
  0
MTEXT
  5
1BF1
330
A
100
AcDbEntity
  8
DIM
390
1D
100
AcDbMText
 10
1867.107406270694
 20
4194.260722274488
 30
0.0
 40
48.865234375
 41
0.0
 46
53.800623046875
 71
     1
 72
     1
  1
{接続部施工例}
  7
ＭＳ ゴシック
 11
1.906243444070936E-15
 21
1.0
 31
0.0
 73
     1
 44
0.7828267384257843
1001
ACAD
1000
ACAD_MTEXT_DEFINED_HEIGHT_BEGIN
1070
    46
1040
53.800623046875
1000
ACAD_MTEXT_DEFINED_HEIGHT_END
  0
VIEWPORT
  5
349
330
B
100
AcDbEntity
 67
     1
  8
0
100
AcDbViewport
 10
202.5
 20
128.5
 30
0.0
 40
486.0
 41
308.4
 68
     1
 69
     1
 12
202.5
 22
128.5
 13
0.0
 23
0.0
 14
0.5
 24
0.5
 15
0.0
 25
0.0
 16
0.0
 26
0.0
 36
1.0
 17
0.0
 27
0.0
 37
0.0
 42
50.0
 43
0.0
 44
0.0
 45
308.4
 50
0.0
 51
0.0
 72
   100
 90
   557152
  1

281
     0
 71
     1
 74
     0
110
0.0
120
0.0
130
0.0
111
1.0
121
0.0
131
0.0
112
0.0
122
1.0
132
0.0
 79
     0
146
0.0
170
     0
 61
     5
348
26C
292
     1
282
     1
141
0.0
142
0.0
 63
   256
  0
VIEWPORT
  5
34A
330
B
100
AcDbEntity
 67
     1
  8
0
100
AcDbViewport
 10
202.5
 20
128.5
 30
0.0
 40
324.0
 41
205.6
 68
     2
 69
     2
 12
986.6781359294573
 22
1427.077061889956
 13
0.0
 23
0.0
 14
0.5
 24
0.5
 15
0.0
 25
0.0
 16
0.0
 26
0.0
 36
1.0
 17
0.0
 27
0.0
 37
0.0
 42
50.0
 43
0.0
 44
0.0
 45
2890.021615685494
 50
0.0
 51
0.0
 72
   100
 90
   557152
  1

281
     0
 71
     1
 74
     0
110
0.0
120
0.0
130
0.0
111
1.0
121
0.0
131
0.0
112
0.0
122
1.0
132
0.0
 79
     0
146
0.0
170
     0
 61
     5
348
26C
292
     1
282
     1
141
0.0
142
0.0
 63
   256
  0
ENDSEC
  0
SECTION
  2
OBJECTS
  0
DICTIONARY
  5
19
330
0
100
AcDbDictionary
281
     1
  3
ACAD_COLOR
350
38F
  3
ACAD_DETAILVIEWSTYLE
350
BE8
  3
ACAD_FIELDLIST
350
FE6
  3
ACAD_GROUP
350
1A
  3
ACAD_IMAGE_VARS
350
27B
  3
ACAD_LAYOUT
350
1E
  3
ACAD_MATERIAL
350
263
  3
ACAD_MLEADERSTYLE
350
336
  3
ACAD_MLINESTYLE
350
1B
  3
ACAD_PLOTSETTINGS
350
22
  3
ACAD_PLOTSTYLENAME
350
1F
  3
ACAD_SCALELIST
350
241
  3
ACAD_SECTIONVIEWSTYLE
350
BE9
  3
ACAD_TABLESTYLE
350
278
  3
ACAD_VISUALSTYLE
350
267
  3
ACDB_RECOMPOSE_DATA
350
1C01
  3
AcDbVariableDictionary
350
330
  3
APPDATA
350
27A
  0
SUN
  5
BE4
330
15
100
AcDbSun
 90
        1
290
     0
 63
     7
421
 16777215
 40
1.0
291
     1
 91
  2455826
 92
 54000000
292
     0
 70
     2
 71
   256
280
     1
  0
DICTIONARY
  5
2E1
330
2
100
AcDbDictionary
280
     1
281
     1
  3
ACAD_LAYERSTATES
360
2E2
  3
ACLYDICTIONARY
360
F26
  0
DICTIONARY
  5
1659
330
A
100
AcDbDictionary
280
     1
281
     1
  3
ACAD_SORTENTS
360
165A
  0
DICTIONARY
  5
FE4
330
FE2
100
AcDbDictionary
280
     1
281
     1
  3
ACAD_FIELD
360
1BFB
  0
DICTIONARY
  5
14D9
330
14D8
100
AcDbDictionary
280
     1
281
     1
  3
ACAD_DIMASSOC
360
14DA
  0
DICTIONARY
  5
38F
102
{ACAD_REACTORS
330
19
102
}
330
19
100
AcDbDictionary
281
     1
  0
DICTIONARY
  5
BE8
102
{ACAD_REACTORS
330
19
102
}
330
19
100
AcDbDictionary
281
     1
  0
FIELDLIST
  5
FE6
102
{ACAD_REACTORS
330
19
102
}
330
19
100
AcDbIdSet
 90
        2
330
FE7
330
FE3
100
AcDbFieldList
  0
DICTIONARY
  5
1A
102
{ACAD_REACTORS
330
19
102
}
330
19
100
AcDbDictionary
281
     1
  3
*A1
350
1428
  3
*A2
350
1429
  3
*A3
350
142F
  3
*A4
350
170F
  3
*A5
350
1743
  3
*A6
350
13E3
  3
*A7
350
13F0
  0
RASTERVARIABLES
  5
27B
102
{ACAD_REACTORS
330
19
102
}
330
19
100
AcDbRasterVariables
 90
        0
 70
     1
 71
     1
 72
     1
  0
DICTIONARY
  5
1E
102
{ACAD_REACTORS
330
19
102
}
330
19
100
AcDbDictionary
281
     1
  3
Layout1
350
21
  3
Model
350
20
  0
DICTIONARY
  5
263
102
{ACAD_REACTORS
330
19
102
}
330
19
100
AcDbDictionary
281
     1
  3
ByBlock
350
265
  3
ByLayer
350
264
  3
Global
350
266
  0
DICTIONARY
  5
336
102
{ACAD_REACTORS
330
19
102
}
330
19
100
AcDbDictionary
281
     1
  3
Standard
350
C68
  0
DICTIONARY
  5
1B
102
{ACAD_REACTORS
330
19
102
}
330
19
100
AcDbDictionary
281
     1
  3
Standard
350
1C
  0
DICTIONARY
  5
22
102
{ACAD_REACTORS
330
19
102
}
330
19
100
AcDbDictionary
281
     1
  0
ACDBDICTIONARYWDFLT
  5
1F
102
{ACAD_REACTORS
330
19
102
}
330
19
100
AcDbDictionary
281
     1
  3
Normal
350
1D
100
AcDbDictionaryWithDefault
340
1D
  0
DICTIONARY
  5
241
102
{ACAD_REACTORS
330
19
102
}
330
19
100
AcDbDictionary
281
     1
  3
A0
350
242
  3
A1
350
243
  3
A2
350
244
  3
A3
350
245
  3
A4
350
246
  3
A5
350
247
  3
A6
350
248
  3
A7
350
249
  3
A8
350
24A
  3
A9
350
24B
  3
B0
350
24C
  3
B1
350
24D
  3
B2
350
24E
  3
B3
350
24F
  3
B4
350
250
  3
B5
350
251
  3
B6
350
252
  3
B7
350
253
  3
B8
350
254
  3
B9
350
255
  3
C0
350
256
  3
C1
350
257
  3
C2
350
258
  3
C3
350
259
  3
C4
350
25A
  3
C5
350
25B
  3
C6
350
25C
  3
C7
350
25D
  3
C8
350
25E
  3
C9
350
25F
  3
D0
350
260
  3
D1
350
261
  3
D2
350
262
  0
DICTIONARY
  5
BE9
102
{ACAD_REACTORS
330
19
102
}
330
19
100
AcDbDictionary
281
     1
  0
DICTIONARY
  5
278
102
{ACAD_REACTORS
330
19
102
}
330
19
100
AcDbDictionary
281
     1
  3
Standard
350
279
  0
DICTIONARY
  5
267
102
{ACAD_REACTORS
330
19
102
}
330
19
100
AcDbDictionary
281
     1
  3
2dWireframe
350
26C
  3
3D Hidden
350
26E
  3
3dWireframe
350
26D
  3
Basic
350
26F
  3
Brighten
350
273
  3
ColorChange
350
277
  3
Conceptual
350
271
  3
Dim
350
272
  3
EdgeColorOff
350
BDE
  3
Facepattern
350
276
  3
Flat
350
268
  3
FlatWithEdges
350
269
  3
Gouraud
350
26A
  3
GouraudWithEdges
350
26B
  3
Hidden
350
BDB
  3
JitterOff
350
BDC
  3
Linepattern
350
275
  3
OverhangOff
350
BDD
  3
Realistic
350
270
  3
Shaded
350
BE3
  3
Shaded with edges
350
BE2
  3
Shades of Gray
350
BDF
  3
Sketchy
350
BE0
  3
Thicken
350
274
  3
Wireframe
350
BDA
  3
X-Ray
350
BE1
  0
XRECORD
  5
1C01
102
{ACAD_REACTORS
330
19
102
}
330
19
100
AcDbXrecord
280
     1
 90
        1
330
279
  0
DICTIONARY
  5
330
102
{ACAD_REACTORS
330
19
102
}
330
19
100
AcDbDictionary
281
     1
  3
CANNOSCALE
350
331
  3
CMLEADERSTYLE
350
C6D
  3
CTABLESTYLE
350
335
  3
HPTRANSPARENCY
350
C00
  3
XCLIPFRAME
350
64A
  0
DICTIONARY
  5
27A
102
{ACAD_REACTORS
330
19
102
}
330
19
100
AcDbDictionary
281
     1
  0
DICTIONARY
  5
2E2
102
{ACAD_REACTORS
330
2E1
102
}
330
2E1
100
AcDbDictionary
281
     1
  0
DICTIONARY
  5
F26
102
{ACAD_REACTORS
330
2E1
102
}
330
2E1
100
AcDbDictionary
281
     1
1001
ACAD
1000
<All
  0
SORTENTSTABLE
  5
165A
102
{ACAD_REACTORS
330
1659
102
}
330
1659
100
AcDbSortentsTable
330
A
331
0
  5
164E
331
1647
  5
164F
331
1648
  5
1650
331
164B
  5
1653
331
164C
  5
1654
331
164D
  5
1655
331
1652
  5
1665
331
1653
  5
1666
331
1654
  5
1667
331
1655
  5
1668
331
1656
  5
1669
331
166A
  5
164D
  0
DICTIONARY
  5
1BFB
102
{ACAD_REACTORS
330
FE4
102
}
330
FE4
100
AcDbDictionary
280
     1
281
     1
  3
TEXT
360
FE3
  0
DIMASSOC
  5
14DA
102
{ACAD_REACTORS
330
14D9
102
}
330
14D9
100
AcDbDimAssoc
330
14D8
 90
        0
 70
     0
 71
     1
  0
GROUP
  5
1428
102
{ACAD_REACTORS
330
1A
102
}
330
1A
100
AcDbGroup
300

 70
     1
 71
     1
340
13A0
340
13A2
340
13A9
340
13B5
340
13B6
340
13A1
340
13B7
340
13B8
  0
GROUP
  5
1429
102
{ACAD_REACTORS
330
1A
102
}
330
1A
100
AcDbGroup
300

 70
     1
 71
     1
340
139A
340
13AA
340
1392
340
13B9
340
13BA
340
1395
340
13BB
340
13BC
  0
GROUP
  5
142F
102
{ACAD_REACTORS
330
1A
102
}
330
1A
100
AcDbGroup
300

 70
     1
 71
     1
340
13C4
340
13C5
340
13C6
340
13C7
340
13CB
340
13C8
340
13C9
340
13CA
340
139D
340
139E
340
13A8
340
13B3
340
13B4
340
1393
340
13B1
340
13B2
  0
GROUP
  5
170F
102
{ACAD_REACTORS
330
1A
102
}
330
1A
100
AcDbGroup
300

 70
     1
 71
     1
340
16F8
340
16F9
340
16FA
340
16B4
340
167D
340
16B3
340
167E
  0
GROUP
  5
1743
102
{ACAD_REACTORS
330
1A
102
}
330
1A
100
AcDbGroup
300

 70
     1
 71
     1
340
1399
340
1742
  0
GROUP
  5
13E3
102
{ACAD_REACTORS
330
1A
102
}
330
1A
100
AcDbGroup
300

 70
     1
 71
     1
340
13A5
340
13A6
340
13A7
  0
GROUP
  5
13F0
102
{ACAD_REACTORS
330
1A
102
}
330
1A
100
AcDbGroup
300

 70
     1
 71
     1
340
13AB
340
13AC
340
13AD
340
13AE
340
13BD
340
13BE
340
13BF
340
13C0
  0
LAYOUT
  5
21
102
{ACAD_REACTORS
330
1E
102
}
330
1E
100
AcDbPlotSettings
  1

  2
none_device
  4
ISO_A3_(420.00_x_297.00_MM)
  6

 40
7.5
 41
20.0
 42
7.5
 43
20.0
 44
420.0
 45
297.0
 46
0.0
 47
0.0
 48
0.0
 49
0.0
140
0.0
141
0.0
142
1.0
143
1.0
 70
     0
 72
     1
 73
     0
 74
     0
  7

 75
     0
 76
     0
 77
     2
 78
   300
147
1.0
148
0.0
149
0.0
100
AcDbLayout
  1
Layout1
 70
     0
 71
     0
 10
0.0
 20
0.0
 11
0.0
 21
0.0
 12
0.0
 22
0.0
 32
0.0
 14
0.0
 24
0.0
 34
0.0
 15
0.0
 25
0.0
 35
0.0
146
0.0
 13
0.0
 23
0.0
 33
0.0
 16
0.0
 26
0.0
 36
0.0
 17
0.0
 27
0.0
 37
0.0
 76
     0
330
B
331
349
  0
LAYOUT
  5
20
102
{ACAD_REACTORS
330
1E
102
}
330
1E
100
AcDbPlotSettings
  1

  2
none_device
  4
ISO_A3_(420.00_x_297.00_MM)
  6

 40
7.5
 41
20.0
 42
7.5
 43
20.0
 44
420.0
 45
297.0
 46
0.0
 47
0.0
 48
0.0
 49
0.0
140
0.0
141
0.0
142
1.0
143
1.0
 70
  1024
 72
     1
 73
     0
 74
     0
  7

 75
     0
 76
     0
 77
     2
 78
   300
147
1.0
148
0.0
149
0.0
100
AcDbLayout
  1
Model
 70
     0
 71
     1
 10
0.0
 20
0.0
 11
4200.000000000001
 21
5940.000000000001
 12
0.0
 22
0.0
 32
0.0
 14
136.080134898235
 24
126.6042732380138
 34
-0.0000000000002274
 15
4044.509411065372
 25
5804.399587702454
 35
0.0000000000001137
146
0.0
 13
0.0
 23
0.0
 33
0.0
 16
0.0
 26
0.0
 36
0.0
 17
0.0
 27
0.0
 37
0.0
 76
     0
330
A
331
15
  0
MATERIAL
  5
265
102
{ACAD_REACTORS
330
263
102
}
330
263
100
AcDbMaterial
  1
ByBlock
 72
     1
 94
      127
  0
MATERIAL
  5
264
102
{ACAD_REACTORS
330
263
102
}
330
263
100
AcDbMaterial
  1
ByLayer
 72
     1
 94
      127
  0
MATERIAL
  5
266
102
{ACAD_REACTORS
330
263
102
}
330
263
100
AcDbMaterial
  1
Global
 72
     1
 94
      127
  0
MLEADERSTYLE
  5
C68
102
{ACAD_REACTORS
330
336
102
}
330
336
100
AcDbMLeaderStyle
170
     2
171
     1
172
     0
 90
        2
 40
0.0
 41
0.0
173
     1
 91
-1056964608
340
11
 92
       -2
290
     1
 42
2.0
291
     1
 43
8.0
  3
Standard
341
0
 44
4.0
300

342
17
174
     1
178
     6
175
     1
176
     0
 93
-1056964608
 45
4.0
292
     0
297
     0
 46
4.0
343
0
 94
-1056964608
 47
1.0
 49
1.0
140
1.0
293
     1
141
0.0
294
     1
177
     0
142
1.0
295
     0
296
     0
143
3.75
1001
ACAD_MLEADERVER
1070
     2
  0
MLINESTYLE
  5
1C
102
{ACAD_REACTORS
330
1B
102
}
330
1B
100
AcDbMlineStyle
  2
Standard
 70
     0
  3

 62
     0
 51
90.0
 52
90.0
 71
     2
 49
0.5
 62
   256
  6
BYLAYER
 49
-0.5
 62
   256
  6
BYLAYER
  0
ACDBPLACEHOLDER
  5
1D
102
{ACAD_REACTORS
330
1F
102
}
330
1F
  0
SCALE
  5
242
102
{ACAD_REACTORS
330
241
102
}
330
241
100
AcDbScale
 70
     0
300
1:1
140
1.0
141
1.0
290
     1
  0
SCALE
  5
243
102
{ACAD_REACTORS
330
241
102
}
330
241
100
AcDbScale
 70
     0
300
1:2
140
1.0
141
2.0
290
     0
  0
SCALE
  5
244
102
{ACAD_REACTORS
330
241
102
}
330
241
100
AcDbScale
 70
     0
300
1:4
140
1.0
141
4.0
290
     0
  0
SCALE
  5
245
102
{ACAD_REACTORS
330
241
102
}
330
241
100
AcDbScale
 70
     0
300
1:5
140
1.0
141
5.0
290
     0
  0
SCALE
  5
246
102
{ACAD_REACTORS
330
241
102
}
330
241
100
AcDbScale
 70
     0
300
1:8
140
1.0
141
8.0
290
     0
  0
SCALE
  5
247
102
{ACAD_REACTORS
330
241
102
}
330
241
100
AcDbScale
 70
     0
300
1:10
140
1.0
141
10.0
290
     0
  0
SCALE
  5
248
102
{ACAD_REACTORS
330
241
102
}
330
241
100
AcDbScale
 70
     0
300
1:16
140
1.0
141
16.0
290
     0
  0
SCALE
  5
249
102
{ACAD_REACTORS
330
241
102
}
330
241
100
AcDbScale
 70
     0
300
1:20
140
1.0
141
20.0
290
     0
  0
SCALE
  5
24A
102
{ACAD_REACTORS
330
241
102
}
330
241
100
AcDbScale
 70
     0
300
1:30
140
1.0
141
30.0
290
     0
  0
SCALE
  5
24B
102
{ACAD_REACTORS
330
241
102
}
330
241
100
AcDbScale
 70
     0
300
1:40
140
1.0
141
40.0
290
     0
  0
SCALE
  5
24C
102
{ACAD_REACTORS
330
241
102
}
330
241
100
AcDbScale
 70
     0
300
1:50
140
1.0
141
50.0
290
     0
  0
SCALE
  5
24D
102
{ACAD_REACTORS
330
241
102
}
330
241
100
AcDbScale
 70
     0
300
1:100
140
1.0
141
100.0
290
     0
  0
SCALE
  5
24E
102
{ACAD_REACTORS
330
241
102
}
330
241
100
AcDbScale
 70
     0
300
2:1
140
2.0
141
1.0
290
     0
  0
SCALE
  5
24F
102
{ACAD_REACTORS
330
241
102
}
330
241
100
AcDbScale
 70
     0
300
4:1
140
4.0
141
1.0
290
     0
  0
SCALE
  5
250
102
{ACAD_REACTORS
330
241
102
}
330
241
100
AcDbScale
 70
     0
300
8:1
140
8.0
141
1.0
290
     0
  0
SCALE
  5
251
102
{ACAD_REACTORS
330
241
102
}
330
241
100
AcDbScale
 70
     0
300
10:1
140
10.0
141
1.0
290
     0
  0
SCALE
  5
252
102
{ACAD_REACTORS
330
241
102
}
330
241
100
AcDbScale
 70
     0
300
100:1
140
100.0
141
1.0
290
     0
  0
SCALE
  5
253
102
{ACAD_REACTORS
330
241
102
}
330
241
100
AcDbScale
 70
     0
300
1/128" = 1'-0"
140
0.0078125
141
12.0
290
     0
  0
SCALE
  5
254
102
{ACAD_REACTORS
330
241
102
}
330
241
100
AcDbScale
 70
     0
300
1/64" = 1'-0"
140
0.015625
141
12.0
290
     0
  0
SCALE
  5
255
102
{ACAD_REACTORS
330
241
102
}
330
241
100
AcDbScale
 70
     0
300
1/32" = 1'-0"
140
0.03125
141
12.0
290
     0
  0
SCALE
  5
256
102
{ACAD_REACTORS
330
241
102
}
330
241
100
AcDbScale
 70
     0
300
1/16" = 1'-0"
140
0.0625
141
12.0
290
     0
  0
SCALE
  5
257
102
{ACAD_REACTORS
330
241
102
}
330
241
100
AcDbScale
 70
     0
300
3/32" = 1'-0"
140
0.09375
141
12.0
290
     0
  0
SCALE
  5
258
102
{ACAD_REACTORS
330
241
102
}
330
241
100
AcDbScale
 70
     0
300
1/8" = 1'-0"
140
0.125
141
12.0
290
     0
  0
SCALE
  5
259
102
{ACAD_REACTORS
330
241
102
}
330
241
100
AcDbScale
 70
     0
300
3/16" = 1'-0"
140
0.1875
141
12.0
290
     0
  0
SCALE
  5
25A
102
{ACAD_REACTORS
330
241
102
}
330
241
100
AcDbScale
 70
     0
300
1/4" = 1'-0"
140
0.25
141
12.0
290
     0
  0
SCALE
  5
25B
102
{ACAD_REACTORS
330
241
102
}
330
241
100
AcDbScale
 70
     0
300
3/8" = 1'-0"
140
0.375
141
12.0
290
     0
  0
SCALE
  5
25C
102
{ACAD_REACTORS
330
241
102
}
330
241
100
AcDbScale
 70
     0
300
1/2" = 1'-0"
140
0.5
141
12.0
290
     0
  0
SCALE
  5
25D
102
{ACAD_REACTORS
330
241
102
}
330
241
100
AcDbScale
 70
     0
300
3/4" = 1'-0"
140
0.75
141
12.0
290
     0
  0
SCALE
  5
25E
102
{ACAD_REACTORS
330
241
102
}
330
241
100
AcDbScale
 70
     0
300
1" = 1'-0"
140
1.0
141
12.0
290
     0
  0
SCALE
  5
25F
102
{ACAD_REACTORS
330
241
102
}
330
241
100
AcDbScale
 70
     0
300
1-1/2" = 1'-0"
140
1.5
141
12.0
290
     0
  0
SCALE
  5
260
102
{ACAD_REACTORS
330
241
102
}
330
241
100
AcDbScale
 70
     0
300
3" = 1'-0"
140
3.0
141
12.0
290
     0
  0
SCALE
  5
261
102
{ACAD_REACTORS
330
241
102
}
330
241
100
AcDbScale
 70
     0
300
6" = 1'-0"
140
6.0
141
12.0
290
     0
  0
SCALE
  5
262
102
{ACAD_REACTORS
330
241
102
}
330
241
100
AcDbScale
 70
     0
300
1'-0" = 1'-0"
140
12.0
141
12.0
290
     0
  0
TABLESTYLE
  5
279
102
{ACAD_REACTORS
330
278
102
}
102
{ACAD_XDICTIONARY
360
1BFF
102
}
330
278
100
AcDbTableStyle
  3
Standard
 70
     0
 71
     0
 40
0.06
 41
0.06
280
     0
281
     0
  7
Standard
140
4.5
170
     2
 62
     0
 63
   257
283
     0
 90
        4
 91
        0
  1

274
    -2
284
     1
 64
     0
275
    -2
285
     1
 65
     0
276
    -2
286
     1
 66
     0
277
    -2
287
     1
 67
     0
278
    -2
288
     1
 68
     0
279
    -2
289
     1
 69
     0
  7
Standard
140
6.0
170
     5
 62
     0
 63
   257
283
     0
 90
        4
 91
        0
  1

274
    -2
284
     1
 64
     0
275
    -2
285
     1
 65
     0
276
    -2
286
     1
 66
     0
277
    -2
287
     1
 67
     0
278
    -2
288
     1
 68
     0
279
    -2
289
     1
 69
     0
  7
Standard
140
4.5
170
     5
 62
     0
 63
   257
283
     0
 90
        4
 91
        0
  1

274
    -2
284
     1
 64
     0
275
    -2
285
     1
 65
     0
276
    -2
286
     1
 66
     0
277
    -2
287
     1
 67
     0
278
    -2
288
     1
 68
     0
279
    -2
289
     1
 69
     0
  0
VISUALSTYLE
  5
26C
102
{ACAD_REACTORS
330
267
102
}
330
267
100
AcDbVisualStyle
  2
2dWireframe
 70
     4
 71
     0
 72
     2
 73
     0
 90
        0
 40
-0.6
 41
-30.0
 62
     5
 63
     7
421
 16777215
 74
     1
 91
        4
 64
     7
 65
   257
 75
     1
175
     1
 42
1.0
 92
        0
 66
   257
 43
1.0
 76
     1
 77
     6
 78
     2
 67
     7
 79
     5
170
     0
171
     0
290
     0
174
     0
 93
        1
 44
0.0
173
     0
291
     0
 45
0.0
  0
VISUALSTYLE
  5
26E
102
{ACAD_REACTORS
330
267
102
}
330
267
100
AcDbVisualStyle
  2
3D Hidden
 70
     6
 71
     1
 72
     2
 73
     2
 90
        0
 40
-0.6
 41
-30.0
 62
     5
 63
     7
421
 16777215
 74
     2
 91
        2
 64
     7
 65
   257
 75
     2
175
     1
 42
40.0
 92
        0
 66
   257
 43
1.0
 76
     1
 77
     6
 78
     2
 67
     7
 79
     3
170
     0
171
     0
290
     0
174
     0
 93
        1
 44
0.0
173
     0
291
     0
 45
0.0
  0
VISUALSTYLE
  5
26D
102
{ACAD_REACTORS
330
267
102
}
330
267
100
AcDbVisualStyle
  2
3dWireframe
 70
     5
 71
     0
 72
     2
 73
     0
 90
        0
 40
-0.6
 41
-30.0
 62
     5
 63
     7
421
 16777215
 74
     1
 91
        4
 64
     7
 65
   257
 75
     1
175
     1
 42
1.0
 92
        0
 66
   257
 43
1.0
 76
     1
 77
     6
 78
     2
 67
     7
 79
     5
170
     0
171
     0
290
     0
174
     0
 93
        1
 44
0.0
173
     0
291
     0
 45
0.0
  0
VISUALSTYLE
  5
26F
102
{ACAD_REACTORS
330
267
102
}
330
267
100
AcDbVisualStyle
  2
Basic
 70
     7
 71
     1
 72
     0
 73
     1
 90
        0
 40
-0.6
 41
-30.0
 62
     5
 63
     7
421
 16777215
 74
     0
 91
        4
 64
     7
 65
   257
 75
     1
175
     1
 42
1.0
 92
        8
 66
     7
 43
1.0
 76
     1
 77
     6
 78
     2
 67
     7
 79
     5
170
     0
171
     0
290
     0
174
     0
 93
        1
 44
0.0
173
     0
291
     1
 45
0.0
  0
VISUALSTYLE
  5
273
102
{ACAD_REACTORS
330
267
102
}
330
267
100
AcDbVisualStyle
  2
Brighten
 70
    12
 71
     2
 72
     2
 73
     0
 90
        0
 40
-0.6
 41
-30.0
 62
     5
 63
     7
421
 16777215
 74
     1
 91
        4
 64
     7
 65
   257
 75
     1
175
     1
 42
1.0
 92
        8
 66
     7
 43
1.0
 76
     1
 77
     6
 78
     2
 67
     7
 79
     5
170
     0
171
     0
290
     0
174
     0
 93
        1
 44
50.0
173
     0
291
     1
 45
0.0
  0
VISUALSTYLE
  5
277
102
{ACAD_REACTORS
330
267
102
}
330
267
100
AcDbVisualStyle
  2
ColorChange
 70
    16
 71
     2
 72
     2
 73
     3
 90
        0
 40
-0.6
 41
-30.0
 62
     5
 63
     8
421
  8421504
 74
     1
 91
        4
 64
     7
 65
   257
 75
     1
175
     1
 42
1.0
 92
        8
 66
     8
424
  8421504
 43
1.0
 76
     1
 77
     6
 78
     2
 67
     7
 79
     5
170
     0
171
     0
290
     0
174
     0
 93
        1
 44
0.0
173
     0
291
     1
 45
0.0
  0
VISUALSTYLE
  5
271
102
{ACAD_REACTORS
330
267
102
}
330
267
100
AcDbVisualStyle
  2
Conceptual
 70
     9
 71
     3
 72
     2
 73
     0
 90
        0
 40
-0.6
 41
-30.0
 62
     5
 63
     7
421
 16777215
 74
     2
 91
        2
 64
     7
 65
   257
 75
     1
175
     1
 42
40.0
 92
        8
 66
     7
 43
1.0
 76
     1
 77
     6
 78
     2
 67
     7
 79
     3
170
     0
171
     0
290
     0
174
     0
 93
        1
 44
0.0
173
     0
291
     0
 45
0.0
  0
VISUALSTYLE
  5
272
102
{ACAD_REACTORS
330
267
102
}
330
267
100
AcDbVisualStyle
  2
Dim
 70
    11
 71
     2
 72
     2
 73
     0
 90
        0
 40
-0.6
 41
-30.0
 62
     5
 63
     7
421
 16777215
 74
     1
 91
        4
 64
     7
 65
   257
 75
     1
175
     1
 42
1.0
 92
        8
 66
     7
 43
1.0
 76
     1
 77
     6
 78
     2
 67
     7
 79
     5
170
     0
171
     0
290
     0
174
     0
 93
        1
 44
-50.0
173
     0
291
     1
 45
0.0
  0
VISUALSTYLE
  5
BDE
102
{ACAD_REACTORS
330
267
102
}
330
267
100
AcDbVisualStyle
  2
EdgeColorOff
 70
    22
 71
     2
 72
     2
 73
     0
 90
        0
 40
0.6
 41
30.0
 62
     5
 63
     7
421
 16777215
 74
     1
 91
        4
 64
     7
 65
   257
 75
     1
175
     1
 42
1.0
 92
        8
 66
     7
 43
1.0
 76
     1
 77
     6
 78
     2
 67
     7
 79
     5
170
     0
171
     0
290
     0
174
     0
 93
        1
 44
0.0
173
     0
291
     1
 45
0.0
  0
VISUALSTYLE
  5
276
102
{ACAD_REACTORS
330
267
102
}
330
267
100
AcDbVisualStyle
  2
Facepattern
 70
    15
 71
     2
 72
     2
 73
     0
 90
        0
 40
-0.6
 41
-30.0
 62
     5
 63
     7
421
 16777215
 74
     1
 91
        4
 64
     7
 65
   257
 75
     1
175
     1
 42
1.0
 92
        8
 66
     7
 43
1.0
 76
     1
 77
     6
 78
     2
 67
     7
 79
     5
170
     0
171
     0
290
     0
174
     0
 93
        1
 44
0.0
173
     0
291
     1
 45
0.0
  0
VISUALSTYLE
  5
268
102
{ACAD_REACTORS
330
267
102
}
330
267
100
AcDbVisualStyle
  2
Flat
 70
     0
 71
     2
 72
     1
 73
     1
 90
        2
 40
-0.6
 41
30.0
 62
     5
 63
     7
421
 16777215
 74
     0
 91
        4
 64
     7
 65
   257
 75
     1
175
     1
 42
1.0
 92
        8
 66
     7
 43
1.0
 76
     1
 77
     6
 78
     2
 67
     7
 79
     5
170
     0
171
     0
290
     0
174
     0
 93
       13
 44
0.0
173
     0
291
     1
 45
0.0
  0
VISUALSTYLE
  5
269
102
{ACAD_REACTORS
330
267
102
}
330
267
100
AcDbVisualStyle
  2
FlatWithEdges
 70
     1
 71
     2
 72
     1
 73
     1
 90
        2
 40
-0.6
 41
30.0
 62
     5
 63
     7
421
 16777215
 74
     1
 91
        4
 64
     7
 65
   257
 75
     1
175
     1
 42
1.0
 92
        0
 66
   257
 43
1.0
 76
     1
 77
     6
 78
     2
 67
     7
 79
     5
170
     0
171
     0
290
     0
174
     0
 93
       13
 44
0.0
173
     0
291
     1
 45
0.0
  0
VISUALSTYLE
  5
26A
102
{ACAD_REACTORS
330
267
102
}
330
267
100
AcDbVisualStyle
  2
Gouraud
 70
     2
 71
     2
 72
     2
 73
     1
 90
        2
 40
-0.6
 41
30.0
 62
     5
 63
     7
421
 16777215
 74
     0
 91
        4
 64
     7
 65
   257
 75
     1
175
     1
 42
1.0
 92
        0
 66
     7
 43
1.0
 76
     1
 77
     6
 78
     2
 67
     7
 79
     5
170
     0
171
     0
290
     0
174
     0
 93
       13
 44
0.0
173
     0
291
     1
 45
0.0
  0
VISUALSTYLE
  5
26B
102
{ACAD_REACTORS
330
267
102
}
330
267
100
AcDbVisualStyle
  2
GouraudWithEdges
 70
     3
 71
     2
 72
     2
 73
     1
 90
        2
 40
-0.6
 41
30.0
 62
     5
 63
     7
421
 16777215
 74
     1
 91
        4
 64
     7
 65
   257
 75
     1
175
     1
 42
1.0
 92
        0
 66
   257
 43
1.0
 76
     1
 77
     6
 78
     2
 67
     7
 79
     5
170
     0
171
     0
290
     0
174
     0
 93
       13
 44
0.0
173
     0
291
     1
 45
0.0
  0
VISUALSTYLE
  5
BDB
102
{ACAD_REACTORS
330
267
102
}
330
267
100
AcDbVisualStyle
  2
Hidden
 70
     6
 71
     1
 72
     2
 73
     2
 90
        0
 40
0.6
 41
30.0
 62
     5
 63
     7
421
 16777215
 74
     2
 91
        2
 64
     7
 65
   257
 75
     2
175
     1
 42
40.0
 92
        0
 66
   257
 43
1.0
 76
     1
 77
     6
 78
     2
 67
     7
 79
     3
170
     0
171
     0
290
     0
174
     0
 93
        1
 44
0.0
173
     0
291
     0
 45
0.0
  0
VISUALSTYLE
  5
BDC
102
{ACAD_REACTORS
330
267
102
}
330
267
100
AcDbVisualStyle
  2
JitterOff
 70
    20
 71
     2
 72
     2
 73
     0
 90
        0
 40
0.6
 41
30.0
 62
     5
 63
     7
421
 16777215
 74
     1
 91
        4
 64
     7
 65
   257
 75
     1
175
     1
 42
1.0
 92
       10
 66
     7
 43
1.0
 76
     1
 77
     6
 78
     2
 67
     7
 79
     5
170
     0
171
     0
290
     0
174
     0
 93
        1
 44
0.0
173
     0
291
     1
 45
0.0
  0
VISUALSTYLE
  5
275
102
{ACAD_REACTORS
330
267
102
}
330
267
100
AcDbVisualStyle
  2
Linepattern
 70
    14
 71
     2
 72
     2
 73
     0
 90
        0
 40
-0.6
 41
-30.0
 62
     5
 63
     7
421
 16777215
 74
     1
 91
        4
 64
     7
 65
   257
 75
     7
175
     7
 42
1.0
 92
        8
 66
     7
 43
1.0
 76
     1
 77
     6
 78
     2
 67
     7
 79
     5
170
     0
171
     0
290
     0
174
     0
 93
        1
 44
0.0
173
     0
291
     1
 45
0.0
  0
VISUALSTYLE
  5
BDD
102
{ACAD_REACTORS
330
267
102
}
330
267
100
AcDbVisualStyle
  2
OverhangOff
 70
    21
 71
     2
 72
     2
 73
     0
 90
        0
 40
0.6
 41
30.0
 62
     5
 63
     7
421
 16777215
 74
     1
 91
        4
 64
     7
 65
   257
 75
     1
175
     1
 42
1.0
 92
        9
 66
     7
 43
1.0
 76
     1
 77
     6
 78
     2
 67
     7
 79
     5
170
     0
171
     0
290
     0
174
     0
 93
        1
 44
0.0
173
     0
291
     1
 45
0.0
  0
VISUALSTYLE
  5
270
102
{ACAD_REACTORS
330
267
102
}
330
267
100
AcDbVisualStyle
  2
Realistic
 70
     8
 71
     2
 72
     2
 73
     0
 90
        0
 40
-0.6
 41
-30.0
 62
     5
 63
     7
421
 16777215
 74
     1
 91
        0
 64
     7
 65
   257
 75
     1
175
     1
 42
1.0
 92
        8
 66
     8
424
  7895160
 43
1.0
 76
     1
 77
     6
 78
     2
 67
     7
 79
     5
170
     0
171
     0
290
     0
174
     0
 93
       13
 44
0.0
173
     0
291
     0
 45
0.0
  0
VISUALSTYLE
  5
BE3
102
{ACAD_REACTORS
330
267
102
}
330
267
100
AcDbVisualStyle
  2
Shaded
 70
    27
 71
     2
 72
     2
 73
     1
 90
        2
 40
0.6
 41
30.0
 62
     5
 63
     7
421
 16777215
 74
     0
 91
        4
 64
     7
 65
   257
 75
     1
175
     1
 42
1.0
 92
        8
 66
   257
 43
1.0
 76
     1
 77
     6
 78
     2
 67
     8
425
  7895160
 79
     3
170
     0
171
     0
290
     0
174
     0
 93
        5
 44
0.0
173
     0
291
     0
 45
0.0
  0
VISUALSTYLE
  5
BE2
102
{ACAD_REACTORS
330
267
102
}
330
267
100
AcDbVisualStyle
  2
Shaded with edges
 70
    26
 71
     2
 72
     2
 73
     1
 90
        2
 40
0.6
 41
30.0
 62
     5
 63
     7
421
 16777215
 74
     1
 91
       10
 64
     7
 65
   257
 75
     2
175
     1
 42
1.0
 92
        8
 66
   257
 43
1.0
 76
     1
 77
     6
 78
     2
 67
     7
 79
     3
170
     0
171
     0
290
     0
174
     0
 93
        5
 44
0.0
173
     0
291
     0
 45
0.0
  0
VISUALSTYLE
  5
BDF
102
{ACAD_REACTORS
330
267
102
}
330
267
100
AcDbVisualStyle
  2
Shades of Gray
 70
    23
 71
     2
 72
     2
 73
     3
 90
        0
 40
0.6
 41
30.0
 62
     5
 63
     7
421
 16777215
 74
     2
 91
        2
 64
     7
 65
     7
 75
     1
175
     1
 42
40.0
 92
        8
 66
     7
 43
1.0
 76
     1
 77
     6
 78
     2
 67
     7
 79
     3
170
     0
171
     0
290
     0
174
     0
 93
        1
 44
0.0
173
     0
291
     0
 45
0.0
  0
VISUALSTYLE
  5
BE0
102
{ACAD_REACTORS
330
267
102
}
330
267
100
AcDbVisualStyle
  2
Sketchy
 70
    24
 71
     1
 72
     2
 73
     2
 90
        0
 40
0.6
 41
30.0
 62
     5
 63
     7
421
 16777215
 74
     2
 91
        2
 64
     7
 65
     7
 75
     1
175
     1
 42
40.0
 92
       11
 66
     7
 43
1.0
 76
     1
 77
     6
 78
     2
 67
     7
 79
     6
170
     0
171
     0
290
     0
174
     0
 93
        1
 44
0.0
173
     0
291
     0
 45
0.0
  0
VISUALSTYLE
  5
274
102
{ACAD_REACTORS
330
267
102
}
330
267
100
AcDbVisualStyle
  2
Thicken
 70
    13
 71
     2
 72
     2
 73
     0
 90
        0
 40
-0.6
 41
-30.0
 62
     5
 63
     7
421
 16777215
 74
     1
 91
        4
 64
     7
 65
   257
 75
     1
175
     1
 42
1.0
 92
       12
 66
     7
 43
1.0
 76
     1
 77
     6
 78
     2
 67
     7
 79
     5
170
     0
171
     0
290
     0
174
     0
 93
        1
 44
0.0
173
     0
291
     1
 45
0.0
  0
VISUALSTYLE
  5
BDA
102
{ACAD_REACTORS
330
267
102
}
330
267
100
AcDbVisualStyle
  2
Wireframe
 70
     5
 71
     0
 72
     2
 73
     0
 90
        0
 40
0.6
 41
30.0
 62
     5
 63
     7
421
 16777215
 74
     1
 91
        4
 64
     7
 65
   257
 75
     1
175
     1
 42
1.0
 92
        0
 66
   257
 43
1.0
 76
     1
 77
     6
 78
     2
 67
     7
 79
     3
170
     0
171
     0
290
     0
174
     0
 93
        1
 44
0.0
173
     0
291
     0
 45
0.0
  0
VISUALSTYLE
  5
BE1
102
{ACAD_REACTORS
330
267
102
}
330
267
100
AcDbVisualStyle
  2
X-Ray
 70
    25
 71
     2
 72
     2
 73
     1
 90
        1
 40
0.5
 41
30.0
 62
     5
 63
     7
421
 16777215
 74
     1
 91
        0
 64
     7
 65
   257
 75
     1
175
     1
 42
1.0
 92
        8
 66
     7
 43
1.0
 76
     1
 77
     6
 78
     2
 67
     7
 79
     3
170
     0
171
     0
290
     0
174
     0
 93
       13
 44
0.0
173
     0
291
     0
 45
0.0
  0
DICTIONARYVAR
  5
331
102
{ACAD_REACTORS
330
330
102
}
330
330
100
DictionaryVariables
280
     0
  1
1:1
  0
DICTIONARYVAR
  5
C6D
102
{ACAD_REACTORS
330
330
102
}
330
330
100
DictionaryVariables
280
     0
  1
Standard
  0
DICTIONARYVAR
  5
335
102
{ACAD_REACTORS
330
330
102
}
330
330
100
DictionaryVariables
280
     0
  1
Standard
  0
DICTIONARYVAR
  5
C00
102
{ACAD_REACTORS
330
330
102
}
330
330
100
DictionaryVariables
280
     0
  1
ByLayer
  0
DICTIONARYVAR
  5
64A
102
{ACAD_REACTORS
330
330
102
}
330
330
100
DictionaryVariables
280
     0
  1
0
  0
FIELD
  5
FE3
102
{ACAD_REACTORS
330
1BFB
102
}
330
1BFB
100
AcDbField
  1
_text
  2
{%<\_FldIdx 0>%N}
 90
        1
360
FE7
 97
        0
 91
       63
 92
        0
 94
       11
 95
        2
 96
        0
300

 93
        1
  6
ACFD_FIELDTEXT_CHECKSUM
 93
        2
 90
        2
140
3266.0
 94
        0
300

302

304
ACVALUE_END
  7
ACFD_FIELD_VALUE
 93
        6
 90
        4
  1
{190326N}
 94
        0
300

302

304
ACVALUE_END
301
{190326N}
 98
        9
  0
DICTIONARY
  5
1BFF
330
279
100
AcDbDictionary
280
     1
281
     1
  3
ACAD_ROUNDTRIP_2008_TABLESTYLE_CELLSTYLEMAP
360
1C00
  0
FIELD
  5
FE7
330
FE3
100
AcDbField
  1
AcVar
  2
\AcVar CreateDate \f "yyMMdd"
 90
        0
 97
        0
 91
       63
 92
        0
 94
       11
 95
        2
 96
        0
300

 93
        1
  6
Variable
 93
        2
 90
        4
  1
CreateDate
 94
        0
300

302

304
ACVALUE_END
  7
ACFD_FIELD_VALUE
 93
        6
 90
        8
 92
       16
310
E307030000001A000500100036000000
 94
        0
300
yyMMdd
302

304
ACVALUE_END
301
190326
 98
        6
  0
CELLSTYLEMAP
  5
1C00
102
{ACAD_REACTORS
330
1BFF
102
}
330
1BFF
100
AcDbCellStyleMap
 90
        3
300
CELLSTYLE
  1
TABLEFORMAT_BEGIN
 90
        5
170
     1
 91
        0
 92
    32768
 62
   257
 93
        1
300
CONTENTFORMAT
  1
CONTENTFORMAT_BEGIN
 90
        0
 91
        0
 92
        4
 93
        0
300

 40
0.0
140
1.0
 94
        5
 62
     0
340
17
144
6.0
309
CONTENTFORMAT_END
171
     1
301
MARGIN
  1
CELLMARGIN_BEGIN
 40
0.06
 40
0.06
 40
0.06
 40
0.06
 40
0.18
 40
0.18
309
CELLMARGIN_END
 94
        6
 95
        1
302
GRIDFORMAT
  1
GRIDFORMAT_BEGIN
 90
        0
 91
        1
 62
     0
 92
       -2
340
0
 93
        0
 40
0.045
309
GRIDFORMAT_END
 95
        2
302
GRIDFORMAT
  1
GRIDFORMAT_BEGIN
 90
        0
 91
        1
 62
     0
 92
       -2
340
0
 93
        0
 40
0.045
309
GRIDFORMAT_END
 95
        4
302
GRIDFORMAT
  1
GRIDFORMAT_BEGIN
 90
        0
 91
        1
 62
     0
 92
       -2
340
0
 93
        0
 40
0.045
309
GRIDFORMAT_END
 95
        8
302
GRIDFORMAT
  1
GRIDFORMAT_BEGIN
 90
        0
 91
        1
 62
     0
 92
       -2
340
0
 93
        0
 40
0.045
309
GRIDFORMAT_END
 95
       16
302
GRIDFORMAT
  1
GRIDFORMAT_BEGIN
 90
        0
 91
        1
 62
     0
 92
       -2
340
0
 93
        0
 40
0.045
309
GRIDFORMAT_END
 95
       32
302
GRIDFORMAT
  1
GRIDFORMAT_BEGIN
 90
        0
 91
        1
 62
     0
 92
       -2
340
0
 93
        0
 40
0.045
309
GRIDFORMAT_END
309
TABLEFORMAT_END
  1
CELLSTYLE_BEGIN
 90
        1
 91
        1
300
_TITLE
309
CELLSTYLE_END
300
CELLSTYLE
  1
TABLEFORMAT_BEGIN
 90
        5
170
     1
 91
        0
 92
        0
 62
   257
 93
        1
300
CONTENTFORMAT
  1
CONTENTFORMAT_BEGIN
 90
        0
 91
        0
 92
        4
 93
        0
300

 40
0.0
140
1.0
 94
        5
 62
     0
340
17
144
4.5
309
CONTENTFORMAT_END
171
     1
301
MARGIN
  1
CELLMARGIN_BEGIN
 40
0.06
 40
0.06
 40
0.06
 40
0.06
 40
0.18
 40
0.18
309
CELLMARGIN_END
 94
        6
 95
        1
302
GRIDFORMAT
  1
GRIDFORMAT_BEGIN
 90
        0
 91
        1
 62
     0
 92
       -2
340
0
 93
        0
 40
0.045
309
GRIDFORMAT_END
 95
        2
302
GRIDFORMAT
  1
GRIDFORMAT_BEGIN
 90
        0
 91
        1
 62
     0
 92
       -2
340
0
 93
        0
 40
0.045
309
GRIDFORMAT_END
 95
        4
302
GRIDFORMAT
  1
GRIDFORMAT_BEGIN
 90
        0
 91
        1
 62
     0
 92
       -2
340
0
 93
        0
 40
0.045
309
GRIDFORMAT_END
 95
        8
302
GRIDFORMAT
  1
GRIDFORMAT_BEGIN
 90
        0
 91
        1
 62
     0
 92
       -2
340
0
 93
        0
 40
0.045
309
GRIDFORMAT_END
 95
       16
302
GRIDFORMAT
  1
GRIDFORMAT_BEGIN
 90
        0
 91
        1
 62
     0
 92
       -2
340
0
 93
        0
 40
0.045
309
GRIDFORMAT_END
 95
       32
302
GRIDFORMAT
  1
GRIDFORMAT_BEGIN
 90
        0
 91
        1
 62
     0
 92
       -2
340
0
 93
        0
 40
0.045
309
GRIDFORMAT_END
309
TABLEFORMAT_END
  1
CELLSTYLE_BEGIN
 90
        2
 91
        1
300
_HEADER
309
CELLSTYLE_END
300
CELLSTYLE
  1
TABLEFORMAT_BEGIN
 90
        5
170
     1
 91
        0
 92
        0
 62
   257
 93
        1
300
CONTENTFORMAT
  1
CONTENTFORMAT_BEGIN
 90
        0
 91
        0
 92
        4
 93
        0
300

 40
0.0
140
1.0
 94
        2
 62
     0
340
17
144
4.5
309
CONTENTFORMAT_END
171
     1
301
MARGIN
  1
CELLMARGIN_BEGIN
 40
0.06
 40
0.06
 40
0.06
 40
0.06
 40
0.18
 40
0.18
309
CELLMARGIN_END
 94
        6
 95
        1
302
GRIDFORMAT
  1
GRIDFORMAT_BEGIN
 90
        0
 91
        1
 62
     0
 92
       -2
340
0
 93
        0
 40
0.045
309
GRIDFORMAT_END
 95
        2
302
GRIDFORMAT
  1
GRIDFORMAT_BEGIN
 90
        0
 91
        1
 62
     0
 92
       -2
340
0
 93
        0
 40
0.045
309
GRIDFORMAT_END
 95
        4
302
GRIDFORMAT
  1
GRIDFORMAT_BEGIN
 90
        0
 91
        1
 62
     0
 92
       -2
340
0
 93
        0
 40
0.045
309
GRIDFORMAT_END
 95
        8
302
GRIDFORMAT
  1
GRIDFORMAT_BEGIN
 90
        0
 91
        1
 62
     0
 92
       -2
340
0
 93
        0
 40
0.045
309
GRIDFORMAT_END
 95
       16
302
GRIDFORMAT
  1
GRIDFORMAT_BEGIN
 90
        0
 91
        1
 62
     0
 92
       -2
340
0
 93
        0
 40
0.045
309
GRIDFORMAT_END
 95
       32
302
GRIDFORMAT
  1
GRIDFORMAT_BEGIN
 90
        0
 91
        1
 62
     0
 92
       -2
340
0
 93
        0
 40
0.045
309
GRIDFORMAT_END
309
TABLEFORMAT_END
  1
CELLSTYLE_BEGIN
 90
        3
 91
        2
300
_DATA
309
CELLSTYLE_END
  0
ENDSEC
  0
EOF
