  0
SECTION
  2
HEADER
  9
$ACADVER
  1
AC1021
  9
$ACADMAINTVER
 70
    25
  9
$DWGCODEPAGE
  3
ANSI_932
  9
$LASTSAVEDBY
  1
howeNelson
  9
$INSBASE
 10
0.0
 20
0.0
 30
0.0
  9
$EXTMIN
 10
0.0
 20
0.0
 30
0.0
  9
$EXTMAX
 10
296.9999999999999
 20
210.0
 30
0.0
  9
$LIMMIN
 10
0.0
 20
0.0
  9
$LIMMAX
 10
297.0
 20
210.0
  9
$ORTHOMODE
 70
     0
  9
$REGENMODE
 70
     1
  9
$FILLMODE
 70
     1
  9
$QTEXTMODE
 70
     0
  9
$MIRRTEXT
 70
     1
  9
$LTSCALE
 40
1.0
  9
$ATTMODE
 70
     1
  9
$TEXTSIZE
 40
2.5
  9
$TRACEWID
 40
0.05
  9
$TEXTSTYLE
  7
STYLE3
  9
$CLAYER
  8
DIM
  9
$CELTYPE
  6
BYLAYER
  9
$CECOLOR
 62
   256
  9
$CELTSCALE
 40
6.0
  9
$DISPSILH
 70
     0
  9
$DIMSCALE
 40
1.0
  9
$DIMASZ
 40
1.0
  9
$DIMEXO
 40
2.0
  9
$DIMDLI
 40
0.9999999999999999
  9
$DIMRND
 40
0.0
  9
$DIMDLE
 40
0.0
  9
$DIMEXE
 40
0.0
  9
$DIMTP
 40
0.0
  9
$DIMTM
 40
0.0
  9
$DIMTXT
 40
2.75
  9
$DIMCEN
 40
0.0
  9
$DIMTSZ
 40
0.0
  9
$DIMTOL
 70
     0
  9
$DIMLIM
 70
     0
  9
$DIMTIH
 70
     0
  9
$DIMTOH
 70
     0
  9
$DIMSE1
 70
     0
  9
$DIMSE2
 70
     0
  9
$DIMTAD
 70
     1
  9
$DIMZIN
 70
    11
  9
$DIMBLK
  1
Dot
  9
$DIMASO
 70
     1
  9
$DIMSHO
 70
     1
  9
$DIMPOST
  1
<>
  9
$DIMAPOST
  1
[]
  9
$DIMALT
 70
     0
  9
$DIMALTD
 70
     1
  9
$DIMALTF
 40
1.0
  9
$DIMLFAC
 40
1.0
  9
$DIMTOFL
 70
     0
  9
$DIMTVP
 40
0.0
  9
$DIMTIX
 70
     1
  9
$DIMSOXD
 70
     0
  9
$DIMSAH
 70
     0
  9
$DIMBLK1
  1

  9
$DIMBLK2
  1

  9
$DIMSTYLE
  2
tfrom線あり
  9
$DIMCLRD
 70
     0
  9
$DIMCLRE
 70
     0
  9
$DIMCLRT
 70
     0
  9
$DIMTFAC
 40
1.0
  9
$DIMGAP
 40
1.0
  9
$DIMJUST
 70
     0
  9
$DIMSD1
 70
     0
  9
$DIMSD2
 70
     0
  9
$DIMTOLJ
 70
     1
  9
$DIMTZIN
 70
    11
  9
$DIMALTZ
 70
    11
  9
$DIMALTTZ
 70
    11
  9
$DIMUPT
 70
     0
  9
$DIMDEC
 70
     1
  9
$DIMTDEC
 70
     1
  9
$DIMALTU
 70
     2
  9
$DIMALTTD
 70
     2
  9
$DIMTXSTY
  7
ＭＳ ゴシック
  9
$DIMAUNIT
 70
     0
  9
$DIMADEC
 70
     2
  9
$DIMALTRND
 40
0.0
  9
$DIMAZIN
 70
     0
  9
$DIMDSEP
 70
    46
  9
$DIMATFIT
 70
     0
  9
$DIMFRAC
 70
     2
  9
$DIMLDRBLK
  1
Dot
  9
$DIMLUNIT
 70
     2
  9
$DIMLWD
 70
    -2
  9
$DIMLWE
 70
    -2
  9
$DIMTMOVE
 70
     0
  9
$DIMFXL
 40
1.0
  9
$DIMFXLON
 70
     0
  9
$DIMJOGANG
 40
0.7853981633974483
  9
$DIMTFILL
 70
     0
  9
$DIMTFILLCLR
 70
     0
  9
$DIMARCSYM
 70
     0
  9
$DIMLTYPE
  6

  9
$DIMLTEX1
  6

  9
$DIMLTEX2
  6

  9
$LUNITS
 70
     2
  9
$LUPREC
 70
     4
  9
$SKETCHINC
 40
0.1
  9
$FILLETRAD
 40
0.5
  9
$AUNITS
 70
     0
  9
$AUPREC
 70
     0
  9
$MENU
  1
acad
  9
$ELEVATION
 40
0.0
  9
$PELEVATION
 40
0.0
  9
$THICKNESS
 40
0.0
  9
$LIMCHECK
 70
     0
  9
$CHAMFERA
 40
10.0
  9
$CHAMFERB
 40
10.0
  9
$CHAMFERC
 40
20.0
  9
$CHAMFERD
 40
0.0
  9
$SKPOLY
 70
     0
  9
$TDCREATE
 40
2455126.823462732
  9
$TDUCREATE
 40
2455126.448462732
  9
$TDUPDATE
 40
2458501.613021516
  9
$TDUUPDATE
 40
2458501.238021516
  9
$TDINDWG
 40
0.0219863889
  9
$TDUSRTIMER
 40
0.0000057986
  9
$USRTIMER
 70
     1
  9
$ANGBASE
 50
0.0
  9
$ANGDIR
 70
     0
  9
$PDMODE
 70
     0
  9
$PDSIZE
 40
0.0
  9
$PLINEWID
 40
0.0
  9
$SPLFRAME
 70
     0
  9
$SPLINETYPE
 70
     6
  9
$SPLINESEGS
 70
     8
  9
$HANDSEED
  5
10F4
  9
$SURFTAB1
 70
     6
  9
$SURFTAB2
 70
     6
  9
$SURFTYPE
 70
     6
  9
$SURFU
 70
     6
  9
$SURFV
 70
     6
  9
$UCSBASE
  2

  9
$UCSNAME
  2

  9
$UCSORG
 10
0.0
 20
0.0
 30
0.0
  9
$UCSXDIR
 10
1.0
 20
0.0
 30
0.0
  9
$UCSYDIR
 10
0.0
 20
1.0
 30
0.0
  9
$UCSORTHOREF
  2

  9
$UCSORTHOVIEW
 70
     0
  9
$UCSORGTOP
 10
0.0
 20
0.0
 30
0.0
  9
$UCSORGBOTTOM
 10
0.0
 20
0.0
 30
0.0
  9
$UCSORGLEFT
 10
0.0
 20
0.0
 30
0.0
  9
$UCSORGRIGHT
 10
0.0
 20
0.0
 30
0.0
  9
$UCSORGFRONT
 10
0.0
 20
0.0
 30
0.0
  9
$UCSORGBACK
 10
0.0
 20
0.0
 30
0.0
  9
$PUCSBASE
  2

  9
$PUCSNAME
  2

  9
$PUCSORG
 10
0.0
 20
0.0
 30
0.0
  9
$PUCSXDIR
 10
1.0
 20
0.0
 30
0.0
  9
$PUCSYDIR
 10
0.0
 20
1.0
 30
0.0
  9
$PUCSORTHOREF
  2

  9
$PUCSORTHOVIEW
 70
     0
  9
$PUCSORGTOP
 10
0.0
 20
0.0
 30
0.0
  9
$PUCSORGBOTTOM
 10
0.0
 20
0.0
 30
0.0
  9
$PUCSORGLEFT
 10
0.0
 20
0.0
 30
0.0
  9
$PUCSORGRIGHT
 10
0.0
 20
0.0
 30
0.0
  9
$PUCSORGFRONT
 10
0.0
 20
0.0
 30
0.0
  9
$PUCSORGBACK
 10
0.0
 20
0.0
 30
0.0
  9
$USERI1
 70
     0
  9
$USERI2
 70
     0
  9
$USERI3
 70
     0
  9
$USERI4
 70
     0
  9
$USERI5
 70
     0
  9
$USERR1
 40
0.0
  9
$USERR2
 40
0.0
  9
$USERR3
 40
0.0
  9
$USERR4
 40
0.0
  9
$USERR5
 40
0.0
  9
$WORLDVIEW
 70
     1
  9
$SHADEDGE
 70
     3
  9
$SHADEDIF
 70
    70
  9
$TILEMODE
 70
     1
  9
$MAXACTVP
 70
    16
  9
$PINSBASE
 10
0.0
 20
0.0
 30
0.0
  9
$PLIMCHECK
 70
     0
  9
$PEXTMIN
 10
-0.015667337610239
 20
-0.8386533574724808
 30
-0.0000610323622112
  9
$PEXTMAX
 10
198.940981211386
 20
285.2452901313876
 30
1.000061041675721
  9
$PLIMMIN
 10
-4.992388058149174
 20
-5.996096078054734
  9
$PLIMMAX
 10
205.0232827182179
 20
291.0145545567109
  9
$UNITMODE
 70
     0
  9
$VISRETAIN
 70
     0
  9
$PLINEGEN
 70
     0
  9
$PSLTSCALE
 70
     1
  9
$TREEDEPTH
 70
  3020
  9
$CMLSTYLE
  2
STANDARD
  9
$CMLJUST
 70
     0
  9
$CMLSCALE
 40
20.0
  9
$PROXYGRAPHICS
 70
     1
  9
$MEASUREMENT
 70
     1
  9
$CELWEIGHT
370
    -1
  9
$ENDCAPS
280
     0
  9
$JOINSTYLE
280
     0
  9
$LWDISPLAY
290
     0
  9
$INSUNITS
 70
     0
  9
$HYPERLINKBASE
  1

  9
$STYLESHEET
  1

  9
$XEDIT
290
     1
  9
$CEPSNTYPE
380
     0
  9
$PSTYLEMODE
290
     1
  9
$FINGERPRINTGUID
  2
{EE220400-621C-11D4-9DC4-004005369732}
  9
$VERSIONGUID
  2
{844B70D0-0155-409F-A32F-DDB81AE7C42A}
  9
$EXTNAMES
290
     1
  9
$PSVPSCALE
 40
0.0
  9
$OLESTARTUP
290
     0
  9
$SORTENTS
280
   127
  9
$INDEXCTL
280
     0
  9
$HIDETEXT
280
     1
  9
$XCLIPFRAME
290
     0
  9
$HALOGAP
280
     0
  9
$OBSCOLOR
 70
   257
  9
$OBSLTYPE
280
     0
  9
$INTERSECTIONDISPLAY
280
     0
  9
$INTERSECTIONCOLOR
 70
   257
  9
$DIMASSOC
280
     2
  9
$PROJECTNAME
  1

  9
$CAMERADISPLAY
290
     0
  9
$LENSLENGTH
 40
50.0
  9
$CAMERAHEIGHT
 40
0.0
  9
$STEPSPERSEC
 40
2.0
  9
$STEPSIZE
 40
6.0
  9
$3DDWFPREC
 40
2.0
  9
$PSOLWIDTH
 40
0.25
  9
$PSOLHEIGHT
 40
4.0
  9
$LOFTANG1
 40
1.570796326794897
  9
$LOFTANG2
 40
1.570796326794897
  9
$LOFTMAG1
 40
0.0
  9
$LOFTMAG2
 40
0.0
  9
$LOFTPARAM
 70
     7
  9
$LOFTNORMALS
280
     1
  9
$LATITUDE
 40
37.795
  9
$LONGITUDE
 40
-122.394
  9
$NORTHDIRECTION
 40
0.0
  9
$TIMEZONE
 70
 -8000
  9
$LIGHTGLYPHDISPLAY
280
     1
  9
$TILEMODELIGHTSYNCH
280
     1
  9
$SOLIDHIST
280
     0
  9
$SHOWHIST
280
     1
  9
$DWFFRAME
280
     2
  9
$DGNFRAME
280
     2
  9
$REALWORLDSCALE
290
     1
  9
$INTERFERECOLOR
 62
   256
  9
$CSHADOW
280
     0
  9
$SHADOWPLANELOCATION
 40
0.0
  0
ENDSEC
  0
SECTION
  2
CLASSES
  0
CLASS
  1
ACDBDICTIONARYWDFLT
  2
AcDbDictionaryWithDefault
  3
ObjectDBX Classes
 90
        0
 91
        6
280
     0
281
     0
  0
CLASS
  1
ACDBPLACEHOLDER
  2
AcDbPlaceHolder
  3
ObjectDBX Classes
 90
        0
 91
        1
280
     0
281
     0
  0
CLASS
  1
LAYOUT
  2
AcDbLayout
  3
ObjectDBX Classes
 90
        0
 91
        1
280
     0
281
     0
  0
CLASS
  1
SCALE
  2
AcDbScale
  3
ObjectDBX Classes
 90
     1153
 91
        6
280
     0
281
     0
  0
CLASS
  1
VISUALSTYLE
  2
AcDbVisualStyle
  3
ObjectDBX Classes
 90
     4095
 91
        6
280
     0
281
     0
  0
CLASS
  1
MATERIAL
  2
AcDbMaterial
  3
ObjectDBX Classes
 90
     1153
 91
        6
280
     0
281
     0
  0
CLASS
  1
TABLESTYLE
  2
AcDbTableStyle
  3
ObjectDBX Classes
 90
     4095
 91
        6
280
     0
281
     0
  0
CLASS
  1
MLEADERSTYLE
  2
AcDbMLeaderStyle
  3
ACDB_MLEADERSTYLE_CLASS
 90
     4095
 91
        6
280
     0
281
     0
  0
CLASS
  1
FIELD
  2
AcDbField
  3
ObjectDBX Classes
 90
     1152
 91
        6
280
     0
281
     0
  0
CLASS
  1
FIELDLIST
  2
AcDbFieldList
  3
ObjectDBX Classes
 90
     1152
 91
        6
280
     0
281
     0
  0
CLASS
  1
DICTIONARYVAR
  2
AcDbDictionaryVar
  3
ObjectDBX Classes
 90
        0
 91
        6
280
     0
281
     0
  0
CLASS
  1
SORTENTSTABLE
  2
AcDbSortentsTable
  3
ObjectDBX Classes
 90
        0
 91
        6
280
     0
281
     0
  0
CLASS
  1
DIMASSOC
  2
AcDbDimAssoc
  3
"AcDbDimAssoc|Product Desc:     AcDim ARX App For Dimension|Company:          Autodesk, Inc.|WEB Address:      www.autodesk.com"
 90
        0
 91
        6
280
     0
281
     0
  0
CLASS
  1
CELLSTYLEMAP
  2
AcDbCellStyleMap
  3
ObjectDBX Classes
 90
     1152
 91
        6
280
     0
281
     0
  0
CLASS
  1
SUN
  2
AcDbSun
  3
SCENEOE
 90
     1153
 91
        6
280
     0
281
     0
  0
ENDSEC
  0
SECTION
  2
TABLES
  0
TABLE
  2
VPORT
  5
8
330
0
100
AcDbSymbolTable
 70
     1
  0
VPORT
  5
6AC
330
8
100
AcDbSymbolTableRecord
100
AcDbViewportTableRecord
  2
*Active
 70
     0
 10
0.0
 20
0.0
 11
1.0
 21
1.0
 12
148.4999999999999
 22
105.0
 13
0.0
 23
0.0
 14
10.0
 24
10.0
 15
10.0
 25
10.0
 16
0.0
 26
0.0
 36
1.0
 17
0.0
 27
0.0
 37
0.0
 40
214.2
 41
2.351550960118169
 42
50.0
 43
0.0
 44
0.0
 50
0.0
 51
0.0
 71
    16
 72
   100
 73
     1
 74
     0
 75
     0
 76
     0
 77
     0
 78
     0
281
     0
 65
     1
110
0.0
120
0.0
130
0.0
111
1.0
121
0.0
131
0.0
112
0.0
122
1.0
132
0.0
 79
     0
146
0.0
348
9DB
 60
     3
 61
     5
292
     1
282
     1
141
0.0
142
0.0
 63
   250
361
10E9
  0
ENDTAB
  0
TABLE
  2
LTYPE
  5
5
330
0
100
AcDbSymbolTable
 70
     6
  0
LTYPE
  5
13
330
5
100
AcDbSymbolTableRecord
100
AcDbLinetypeTableRecord
  2
BYBLOCK
 70
     0
  3

 72
    65
 73
     0
 40
0.0
  0
LTYPE
  5
14
330
5
100
AcDbSymbolTableRecord
100
AcDbLinetypeTableRecord
  2
BYLAYER
 70
     0
  3

 72
    65
 73
     0
 40
0.0
  0
LTYPE
  5
15
330
5
100
AcDbSymbolTableRecord
100
AcDbLinetypeTableRecord
  2
CONTINUOUS
 70
     0
  3
Solid line
 72
    65
 73
     0
 40
0.0
  0
LTYPE
  5
97
330
5
100
AcDbSymbolTableRecord
100
AcDbLinetypeTableRecord
  2
PHANTOM2
 70
     0
  3
___ _ _ ___ _ _ ___ _ _ ___ _ _ ___ _ _ ___ _ _
 72
    65
 73
     6
 40
1.25
 49
0.625
 74
     0
 49
-0.125
 74
     0
 49
0.125
 74
     0
 49
-0.125
 74
     0
 49
0.125
 74
     0
 49
-0.125
 74
     0
  0
LTYPE
  5
98
330
5
100
AcDbSymbolTableRecord
100
AcDbLinetypeTableRecord
  2
CENTER2
 70
     0
  3
___ _ ___ _ ___ _ ___ _ ___ _ ___ _ ___ _ ___ _
 72
    65
 73
     4
 40
1.125
 49
0.75
 74
     0
 49
-0.125
 74
     0
 49
0.125
 74
     0
 49
-0.125
 74
     0
  0
LTYPE
  5
99
330
5
100
AcDbSymbolTableRecord
100
AcDbLinetypeTableRecord
  2
DASHED2
 70
     0
  3
_ _ _ _ _ _ _ _ _ _ _ _ _ _ _ _ _ _ _ _ _ _ _ _
 72
    65
 73
     2
 40
0.375
 49
0.25
 74
     0
 49
-0.125
 74
     0
  0
LTYPE
  5
7A7
330
5
100
AcDbSymbolTableRecord
100
AcDbLinetypeTableRecord
  2
HIDDEN
 70
     0
  3
Hidden __ __ __ __ __ __ __ __ __ __ __ __ __ __
 72
    65
 73
     2
 40
1.905
 49
1.27
 74
     0
 49
-0.635
 74
     0
  0
LTYPE
  5
87F
330
5
100
AcDbSymbolTableRecord
100
AcDbLinetypeTableRecord
  2
BORDER
 70
     0
  3
Border __  __  . __  __  . __  __  . __  __  . 
 72
    65
 73
     6
 40
44.45
 49
12.7
 74
     0
 49
-6.35
 74
     0
 49
12.7
 74
     0
 49
-6.35
 74
     0
 49
0.0
 74
     0
 49
-6.35
 74
     0
  0
ENDTAB
  0
TABLE
  2
LAYER
  5
2
102
{ACAD_XDICTIONARY
360
775
102
}
330
0
100
AcDbSymbolTable
 70
    19
  0
LAYER
  5
F
330
2
100
AcDbSymbolTableRecord
100
AcDbLayerTableRecord
  2
0
 70
     0
 62
     7
  6
CONTINUOUS
370
    -3
390
1CA
347
9F2
  0
LAYER
  5
9A
330
2
100
AcDbSymbolTableRecord
100
AcDbLayerTableRecord
  2
DEFPOINTS
 70
     0
 62
     7
  6
CONTINUOUS
290
     0
370
    -3
390
1CA
347
9F2
  0
LAYER
  5
9B
330
2
100
AcDbSymbolTableRecord
100
AcDbLayerTableRecord
  2
実線
 70
     0
 62
     7
  6
CONTINUOUS
370
    -3
390
1CA
347
9F2
  0
LAYER
  5
9C
330
2
100
AcDbSymbolTableRecord
100
AcDbLayerTableRecord
  2
破線
 70
     0
 62
     7
  6
DASHED2
370
    -3
390
1CA
347
9F2
  0
LAYER
  5
9D
330
2
100
AcDbSymbolTableRecord
100
AcDbLayerTableRecord
  2
寸法線
 70
     0
 62
     1
  6
CONTINUOUS
370
    -3
390
1CA
347
9F2
  0
LAYER
  5
9E
330
2
100
AcDbSymbolTableRecord
100
AcDbLayerTableRecord
  2
中心線
 70
     0
 62
     2
  6
CENTER2
370
    -3
390
1CA
347
9F2
  0
LAYER
  5
9F
330
2
100
AcDbSymbolTableRecord
100
AcDbLayerTableRecord
  2
想像線
 70
     0
 62
     3
  6
PHANTOM2
370
    -3
390
1CA
347
9F2
  0
LAYER
  5
A0
330
2
100
AcDbSymbolTableRecord
100
AcDbLayerTableRecord
  2
細線
 70
     0
 62
     6
  6
CONTINUOUS
370
    -3
390
1CA
347
9F2
  0
LAYER
  5
A1
330
2
100
AcDbSymbolTableRecord
100
AcDbLayerTableRecord
  2
枠線
 70
     0
 62
    19
  6
CONTINUOUS
370
    -3
390
1CA
347
9F2
  0
LAYER
  5
7A1
330
2
100
AcDbSymbolTableRecord
100
AcDbLayerTableRecord
  2
レイヤー 1
 70
     0
 62
     7
  6
CONTINUOUS
370
    -3
390
1CA
347
9F2
  0
LAYER
  5
7A2
330
2
100
AcDbSymbolTableRecord
100
AcDbLayerTableRecord
  2
寸法
 70
     0
 62
     7
  6
CONTINUOUS
370
    13
390
1CA
347
9F2
1001
AcAecLayerStandard
1000

1000

  0
LAYER
  5
7A4
330
2
100
AcDbSymbolTableRecord
100
AcDbLayerTableRecord
  2
テンプレート
 70
     0
 62
     7
  6
CONTINUOUS
370
    20
390
1CA
347
9F2
1001
AcAecLayerStandard
1000

1000

  0
LAYER
  5
7A5
330
2
100
AcDbSymbolTableRecord
100
AcDbLayerTableRecord
  2
TFORMLOGO
 70
     0
 62
     7
  6
CONTINUOUS
370
    20
390
1CA
347
9F2
  0
LAYER
  5
7A6
330
2
100
AcDbSymbolTableRecord
100
AcDbLayerTableRecord
  2
PRINT BORDER
 70
     0
 62
     4
  6
CONTINUOUS
290
     0
370
    -3
390
1CA
347
9F2
1001
AcAecLayerStandard
1000

1000

  0
LAYER
  5
877
330
2
100
AcDbSymbolTableRecord
100
AcDbLayerTableRecord
  2
TEMPLATE
 70
     0
 62
     7
  6
CONTINUOUS
370
    20
390
1CA
347
9F2
  0
LAYER
  5
879
330
2
100
AcDbSymbolTableRecord
100
AcDbLayerTableRecord
  2
DIM
 70
     0
 62
     3
  6
CONTINUOUS
370
    13
390
1CA
347
9F2
  0
LAYER
  5
87A
330
2
100
AcDbSymbolTableRecord
100
AcDbLayerTableRecord
  2
MODEL
 70
     0
 62
     7
  6
CONTINUOUS
370
    20
390
1CA
347
9F2
  0
LAYER
  5
87B
330
2
100
AcDbSymbolTableRecord
100
AcDbLayerTableRecord
  2
HIDDEN
 70
     0
 62
     8
  6
HIDDEN
370
    20
390
1CA
347
9F2
1001
AcAecLayerStandard
1000

1000

  0
LAYER
  5
87E
330
2
100
AcDbSymbolTableRecord
100
AcDbLayerTableRecord
  2
BORDER
 70
     0
 62
     4
  6
BORDER
290
     0
370
    20
390
1CA
347
9F2
1001
AcAecLayerStandard
1000

1000

  0
ENDTAB
  0
TABLE
  2
STYLE
  5
3
330
0
100
AcDbSymbolTable
 70
     4
  0
STYLE
  5
10
330
3
100
AcDbSymbolTableRecord
100
AcDbTextStyleTableRecord
  2
STANDARD
 70
     0
 40
0.0
 41
1.0
 50
0.0
 71
     0
 42
3.5
  3
txt
  4

  0
STYLE
  5
A2
330
3
100
AcDbSymbolTableRecord
100
AcDbTextStyleTableRecord
  2
STYLE1
 70
     0
 40
2.5
 41
0.9
 50
0.0
 71
     0
 42
2.5
  3
romans.shx
  4
bigfont.shx
  0
STYLE
  5
A3
330
3
100
AcDbSymbolTableRecord
100
AcDbTextStyleTableRecord
  2
STYLE3
 70
     0
 40
2.5
 41
0.9
 50
0.0
 71
     0
 42
2.5
  3
Msgothi1.ttf
  4
bigfont.shx
  0
STYLE
  5
7B7
330
3
100
AcDbSymbolTableRecord
100
AcDbTextStyleTableRecord
  2
ＭＳ ゴシック
 70
     0
 40
0.0
 41
1.0
 50
0.0
 71
     0
 42
2.5
  3
msgothic.ttc
  4
ＭＳ ゴシック
1001
ACAD
1000
ＭＳ ゴシック
1071
        0
  0
ENDTAB
  0
TABLE
  2
VIEW
  5
6
330
0
100
AcDbSymbolTable
 70
     0
  0
ENDTAB
  0
TABLE
  2
UCS
  5
7
330
0
100
AcDbSymbolTable
 70
     0
  0
ENDTAB
  0
TABLE
  2
APPID
  5
9
330
0
100
AcDbSymbolTable
 70
     3
  0
APPID
  5
11
330
9
100
AcDbSymbolTableRecord
100
AcDbRegAppTableRecord
  2
ACAD
 70
     0
  0
APPID
  5
7A3
330
9
100
AcDbSymbolTableRecord
100
AcDbRegAppTableRecord
  2
AcAecLayerStandard
 70
     0
  0
APPID
  5
10E7
330
9
100
AcDbSymbolTableRecord
100
AcDbRegAppTableRecord
  2
ACAD_MLEADERVER
 70
     0
  0
ENDTAB
  0
TABLE
  2
DIMSTYLE
  5
A
330
0
100
AcDbSymbolTable
 70
    11
100
AcDbDimStyleTable
  0
DIMSTYLE
105
3A0
330
A
100
AcDbSymbolTableRecord
100
AcDbDimStyleTableRecord
  2
ＧＰ寸法（1：1）
 70
     0
 41
2.0
 42
0.0
 43
10.0
 44
2.0
 73
     0
 74
     0
 77
     1
 78
     8
140
2.5
141
-5.0
143
0.03937
147
0.625
172
     1
173
     1
176
   256
177
   256
271
     2
178
   256
271
     2
272
     2
284
     8
340
A2
341
393
343
19E
344
19E
371
    -1
372
    -1
  0
DIMSTYLE
105
3A1
330
A
100
AcDbSymbolTableRecord
100
AcDbDimStyleTableRecord
  2
ＧＰ寸法（1：1）$7
 70
     0
 41
1.0
 42
0.0
 43
10.0
 44
2.0
 73
     0
 74
     0
 77
     1
 78
     8
140
2.5
141
-5.0
143
0.03937
147
0.625
172
     1
173
     1
176
   256
177
   256
271
     2
178
   256
271
     2
272
     2
284
     8
340
A3
341
393
343
19E
344
19E
371
    -1
372
    -1
  0
DIMSTYLE
105
3A5
330
A
100
AcDbSymbolTableRecord
100
AcDbDimStyleTableRecord
  2
ＧＰ寸法（1：1）$3
 70
     0
 41
2.0
 42
0.0
 43
10.0
 44
2.0
 77
     1
 78
     8
140
2.5
141
0.0
143
0.03937
147
0.625
173
     1
176
   256
177
   256
271
     2
178
   256
271
     2
272
     2
284
     8
288
     1
289
     2
340
A2
341
393
343
19E
344
19E
371
    -1
372
    -1
  0
DIMSTYLE
105
3A6
330
A
100
AcDbSymbolTableRecord
100
AcDbDimStyleTableRecord
  2
ＧＰ寸法（1：1）$4
 70
     0
 41
2.0
 42
0.0
 43
10.0
 44
2.0
 77
     1
 78
     8
140
2.5
141
0.0
143
0.03937
147
0.625
173
     1
176
   256
177
   256
271
     2
178
   256
271
     2
272
     2
284
     8
340
A2
341
393
343
19E
344
19E
371
    -1
372
    -1
  0
DIMSTYLE
105
3D3
330
A
100
AcDbSymbolTableRecord
100
AcDbDimStyleTableRecord
  2
ＧＰ寸法（1：1）$2
 70
     0
 41
2.0
 42
0.0
 43
10.0
 44
2.0
 73
     0
 74
     0
 77
     1
 78
     8
140
2.5
141
-5.0
143
0.03937
147
0.625
172
     1
173
     1
176
   256
177
   256
271
     2
178
   256
271
     2
272
     2
284
     8
340
A2
341
393
343
19E
344
19E
371
    -1
372
    -1
  0
DIMSTYLE
105
483
330
A
100
AcDbSymbolTableRecord
100
AcDbDimStyleTableRecord
  2
ＧＰ寸法（1：2）
 70
     0
 40
0.5
 41
2.0
 42
0.0
 43
10.0
 44
2.0
 73
     0
 74
     0
 77
     1
 78
     8
140
1.25
141
-5.0
143
0.03937
147
0.625
172
     1
173
     1
176
   256
177
   256
271
     2
178
   256
271
     2
272
     2
284
     8
340
A2
341
393
343
19E
344
19E
371
    -1
372
    -1
  0
DIMSTYLE
105
4CF
330
A
100
AcDbSymbolTableRecord
100
AcDbDimStyleTableRecord
  2
ＧＰ寸法（1：2）$7
 70
     0
 40
0.5
 41
1.0
 42
0.0
 43
10.0
 44
2.0
 73
     0
 74
     0
 77
     1
 78
     8
140
1.25
141
-5.0
143
0.03937
147
0.625
172
     1
173
     1
176
   256
177
   256
271
     2
178
   256
271
     2
272
     2
284
     8
340
A3
341
393
343
19E
344
19E
371
    -1
372
    -1
  0
DIMSTYLE
105
4D0
330
A
100
AcDbSymbolTableRecord
100
AcDbDimStyleTableRecord
  2
ＧＰ寸法（1：2）$2
 70
     0
 40
0.5
 41
2.0
 42
0.0
 43
10.0
 44
2.0
 73
     0
 74
     0
 77
     1
 78
     8
140
1.25
141
-5.0
143
0.03937
147
0.625
172
     1
173
     1
176
   256
177
   256
271
     2
178
   256
271
     2
272
     2
284
     8
340
A2
341
393
343
19E
344
19E
371
    -1
372
    -1
  0
DIMSTYLE
105
4D1
330
A
100
AcDbSymbolTableRecord
100
AcDbDimStyleTableRecord
  2
ＧＰ寸法（1：2）$4
 70
     0
 40
0.5
 41
2.0
 42
0.0
 43
10.0
 44
2.0
 77
     1
 78
     8
140
1.25
141
0.0
143
0.03937
147
0.625
173
     1
176
   256
177
   256
271
     2
178
   256
271
     2
272
     2
284
     8
340
A2
341
393
343
19E
344
19E
371
    -1
372
    -1
  0
DIMSTYLE
105
4D2
330
A
100
AcDbSymbolTableRecord
100
AcDbDimStyleTableRecord
  2
ＧＰ寸法（1：2）$3
 70
     0
 40
0.5
 41
2.0
 42
0.0
 43
10.0
 44
2.0
 77
     1
 78
     8
140
1.25
141
0.0
143
0.03937
147
0.625
173
     1
176
   256
177
   256
271
     2
178
   256
271
     2
272
     2
284
     8
288
     1
289
     2
340
A2
341
393
343
19E
344
19E
371
    -1
372
    -1
  0
DIMSTYLE
105
880
102
{ACAD_REACTORS
330
FA0
330
FA1
330
FA2
330
FA3
330
FA4
330
FA5
330
FA6
330
FA7
330
FA8
330
FA9
330
FAA
330
FAB
330
FAC
330
FAD
330
FAE
102
}
330
A
100
AcDbSymbolTableRecord
100
AcDbDimStyleTableRecord
  2
tfrom線あり
 70
     0
  3
<>
  4
[]
 41
1.0
 42
2.0
 43
0.9999999999999999
 44
0.0
 73
     0
 74
     0
 77
     1
 78
    11
140
2.75
141
0.0
143
1.0
147
1.0
171
     1
174
     1
178
     0
179
     2
271
     1
272
     1
276
     2
284
    11
285
    11
286
    11
289
     0
340
7B7
341
393
342
393
  0
ENDTAB
  0
TABLE
  2
BLOCK_RECORD
  5
1
330
0
100
AcDbSymbolTable
 70
    75
  0
BLOCK_RECORD
  5
19
330
1
100
AcDbSymbolTableRecord
100
AcDbBlockTableRecord
  2
*MODEL_SPACE
340
1CD
 70
     0
280
     1
281
     0
  0
BLOCK_RECORD
  5
16
330
1
100
AcDbSymbolTableRecord
100
AcDbBlockTableRecord
  2
*PAPER_SPACE
340
1CE
 70
     0
280
     1
281
     0
  0
BLOCK_RECORD
  5
23
330
1
100
AcDbSymbolTableRecord
100
AcDbBlockTableRecord
  2
A$C9381
340
0
102
{BLKREFS
331
C1
102
}
 70
     0
280
     1
281
     0
  0
BLOCK_RECORD
  5
52
330
1
100
AcDbSymbolTableRecord
100
AcDbBlockTableRecord
  2
A$CA221
340
0
102
{BLKREFS
331
B9
102
}
 70
     0
280
     1
281
     0
  0
BLOCK_RECORD
  5
61
330
1
100
AcDbSymbolTableRecord
100
AcDbBlockTableRecord
  2
A$CB311
340
0
102
{BLKREFS
331
A6
102
}
 70
     0
280
     1
281
     0
  0
BLOCK_RECORD
  5
8A
330
1
100
AcDbSymbolTableRecord
100
AcDbBlockTableRecord
  2
A$CA1A2
340
0
102
{BLKREFS
331
A5
102
}
 70
     0
280
     1
281
     0
  0
BLOCK_RECORD
  5
A4
330
1
100
AcDbSymbolTableRecord
100
AcDbBlockTableRecord
  2
A$CB131
340
0
 70
     0
280
     1
281
     0
  0
BLOCK_RECORD
  5
19E
330
1
100
AcDbSymbolTableRecord
100
AcDbBlockTableRecord
  2
_OPEN
340
0
 70
     0
280
     1
281
     0
  0
BLOCK_RECORD
  5
393
330
1
100
AcDbSymbolTableRecord
100
AcDbBlockTableRecord
  2
_Dot
340
0
102
{BLKREFS
331
69D
331
69E
331
6A6
331
6A7
331
679
331
67A
331
8E6
331
8E7
331
8F5
331
8F6
331
945
331
946
331
951
331
952
331
A58
331
A59
331
A65
331
A66
331
A72
331
A73
331
A80
331
A81
331
A8C
331
A96
331
A97
331
ACC
331
ACD
331
AD8
331
AD9
331
AE4
331
AE5
331
AF2
331
AF3
331
AFC
331
B05
331
B06
331
B95
331
B96
331
C29
331
C2A
331
C36
331
C37
331
C43
331
C44
331
C51
331
C52
331
C5D
331
C8F
331
C90
331
C9B
331
C9C
331
CA7
331
CA8
331
CB5
331
CB6
331
CBF
331
CCD
331
CCE
331
E19
331
E1A
331
E26
331
E27
331
E33
331
E34
331
E40
331
E41
331
E4D
331
E4E
331
E5B
331
E5C
331
E67
331
E68
331
E74
331
E75
331
E83
331
E84
331
E90
331
E91
331
E9E
331
E9F
331
EAA
331
EAB
331
EB7
331
EB8
331
EC4
331
EC5
331
ED1
331
ED2
331
EDD
331
FB6
331
FB7
331
FC2
331
FC3
331
FCE
331
FCF
331
FDA
331
FDB
331
FE6
331
FE7
331
FF5
331
FF6
331
FFF
331
1000
331
100B
331
100C
331
1019
331
101A
331
1025
331
1026
331
1034
331
1035
331
103E
331
103F
331
104A
331
104B
331
1056
331
1057
331
1062
331
1063
331
106D
102
}
 70
     0
280
     1
281
     0
  0
BLOCK_RECORD
  5
5BB
330
1
100
AcDbSymbolTableRecord
100
AcDbBlockTableRecord
  2
*D7
340
0
 70
     0
280
     1
281
     0
  0
BLOCK_RECORD
  5
5FE
330
1
100
AcDbSymbolTableRecord
100
AcDbBlockTableRecord
  2
*D8
340
0
 70
     0
280
     1
281
     0
  0
BLOCK_RECORD
  5
627
330
1
100
AcDbSymbolTableRecord
100
AcDbBlockTableRecord
  2
*D9
340
0
 70
     0
280
     1
281
     0
  0
BLOCK_RECORD
  5
7E8
330
1
100
AcDbSymbolTableRecord
100
AcDbBlockTableRecord
  2
名称未設定-1
340
0
102
{BLKREFS
331
837
102
}
 70
     0
280
     1
281
     0
  0
BLOCK_RECORD
  5
7EB
330
1
100
AcDbSymbolTableRecord
100
AcDbBlockTableRecord
  2
block 2
340
0
102
{BLKREFS
331
7EA
102
}
 70
     0
280
     1
281
     0
  0
BLOCK_RECORD
  5
7EE
330
1
100
AcDbSymbolTableRecord
100
AcDbBlockTableRecord
  2
block 3
340
0
102
{BLKREFS
331
7ED
102
}
 70
     0
280
     1
281
     0
  0
BLOCK_RECORD
  5
7F1
330
1
100
AcDbSymbolTableRecord
100
AcDbBlockTableRecord
  2
block 4
340
0
102
{BLKREFS
331
7F0
102
}
 70
     0
280
     1
281
     0
  0
BLOCK_RECORD
  5
800
330
1
100
AcDbSymbolTableRecord
100
AcDbBlockTableRecord
  2
block 5
340
0
102
{BLKREFS
331
7FF
102
}
 70
     0
280
     1
281
     0
  0
BLOCK_RECORD
  5
8E1
330
1
100
AcDbSymbolTableRecord
100
AcDbBlockTableRecord
  2
*D15
340
0
 70
     0
280
     1
281
     0
  0
BLOCK_RECORD
  5
8F0
330
1
100
AcDbSymbolTableRecord
100
AcDbBlockTableRecord
  2
*D16
340
0
 70
     0
280
     1
281
     0
  0
BLOCK_RECORD
  5
93F
330
1
100
AcDbSymbolTableRecord
100
AcDbBlockTableRecord
  2
*D17
340
0
 70
     0
280
     1
281
     0
  0
BLOCK_RECORD
  5
94B
330
1
100
AcDbSymbolTableRecord
100
AcDbBlockTableRecord
  2
*D18
340
0
 70
     0
280
     1
281
     0
  0
BLOCK_RECORD
  5
A53
330
1
100
AcDbSymbolTableRecord
100
AcDbBlockTableRecord
  2
*D19
340
0
 70
     0
280
     1
281
     0
  0
BLOCK_RECORD
  5
A60
330
1
100
AcDbSymbolTableRecord
100
AcDbBlockTableRecord
  2
*D20
340
0
 70
     0
280
     1
281
     0
  0
BLOCK_RECORD
  5
A6D
330
1
100
AcDbSymbolTableRecord
100
AcDbBlockTableRecord
  2
*D21
340
0
 70
     0
280
     1
281
     0
  0
BLOCK_RECORD
  5
A7A
330
1
100
AcDbSymbolTableRecord
100
AcDbBlockTableRecord
  2
*D22
340
0
 70
     0
280
     1
281
     0
  0
BLOCK_RECORD
  5
A88
330
1
100
AcDbSymbolTableRecord
100
AcDbBlockTableRecord
  2
*D23
340
0
 70
     0
280
     1
281
     0
  0
BLOCK_RECORD
  5
A91
330
1
100
AcDbSymbolTableRecord
100
AcDbBlockTableRecord
  2
*D24
340
0
 70
     0
280
     1
281
     0
  0
BLOCK_RECORD
  5
AC6
330
1
100
AcDbSymbolTableRecord
100
AcDbBlockTableRecord
  2
*D25
340
0
 70
     0
280
     1
281
     0
  0
BLOCK_RECORD
  5
AD2
330
1
100
AcDbSymbolTableRecord
100
AcDbBlockTableRecord
  2
*D26
340
0
 70
     0
280
     1
281
     0
  0
BLOCK_RECORD
  5
ADE
330
1
100
AcDbSymbolTableRecord
100
AcDbBlockTableRecord
  2
*D27
340
0
 70
     0
280
     1
281
     0
  0
BLOCK_RECORD
  5
AEA
330
1
100
AcDbSymbolTableRecord
100
AcDbBlockTableRecord
  2
*D28
340
0
 70
     0
280
     1
281
     0
  0
BLOCK_RECORD
  5
AF7
330
1
100
AcDbSymbolTableRecord
100
AcDbBlockTableRecord
  2
*D29
340
0
 70
     0
280
     1
281
     0
  0
BLOCK_RECORD
  5
AFF
330
1
100
AcDbSymbolTableRecord
100
AcDbBlockTableRecord
  2
*D30
340
0
 70
     0
280
     1
281
     0
  0
BLOCK_RECORD
  5
B8F
330
1
100
AcDbSymbolTableRecord
100
AcDbBlockTableRecord
  2
*D31
340
0
 70
     0
280
     1
281
     0
  0
BLOCK_RECORD
  5
C24
330
1
100
AcDbSymbolTableRecord
100
AcDbBlockTableRecord
  2
*D32
340
0
 70
     0
280
     1
281
     0
  0
BLOCK_RECORD
  5
C31
330
1
100
AcDbSymbolTableRecord
100
AcDbBlockTableRecord
  2
*D33
340
0
 70
     0
280
     1
281
     0
  0
BLOCK_RECORD
  5
C3E
330
1
100
AcDbSymbolTableRecord
100
AcDbBlockTableRecord
  2
*D34
340
0
 70
     0
280
     1
281
     0
  0
BLOCK_RECORD
  5
C4B
330
1
100
AcDbSymbolTableRecord
100
AcDbBlockTableRecord
  2
*D35
340
0
 70
     0
280
     1
281
     0
  0
BLOCK_RECORD
  5
C59
330
1
100
AcDbSymbolTableRecord
100
AcDbBlockTableRecord
  2
*D36
340
0
 70
     0
280
     1
281
     0
  0
BLOCK_RECORD
  5
C89
330
1
100
AcDbSymbolTableRecord
100
AcDbBlockTableRecord
  2
*D37
340
0
 70
     0
280
     1
281
     0
  0
BLOCK_RECORD
  5
C95
330
1
100
AcDbSymbolTableRecord
100
AcDbBlockTableRecord
  2
*D38
340
0
 70
     0
280
     1
281
     0
  0
BLOCK_RECORD
  5
CA1
330
1
100
AcDbSymbolTableRecord
100
AcDbBlockTableRecord
  2
*D39
340
0
 70
     0
280
     1
281
     0
  0
BLOCK_RECORD
  5
CAD
330
1
100
AcDbSymbolTableRecord
100
AcDbBlockTableRecord
  2
*D40
340
0
 70
     0
280
     1
281
     0
  0
BLOCK_RECORD
  5
CBA
330
1
100
AcDbSymbolTableRecord
100
AcDbBlockTableRecord
  2
*D41
340
0
 70
     0
280
     1
281
     0
  0
BLOCK_RECORD
  5
CC7
330
1
100
AcDbSymbolTableRecord
100
AcDbBlockTableRecord
  2
*D42
340
0
 70
     0
280
     1
281
     0
  0
BLOCK_RECORD
  5
E14
330
1
100
AcDbSymbolTableRecord
100
AcDbBlockTableRecord
  2
*D43
340
0
 70
     0
280
     1
281
     0
  0
BLOCK_RECORD
  5
E21
330
1
100
AcDbSymbolTableRecord
100
AcDbBlockTableRecord
  2
*D44
340
0
 70
     0
280
     1
281
     0
  0
BLOCK_RECORD
  5
E2E
330
1
100
AcDbSymbolTableRecord
100
AcDbBlockTableRecord
  2
*D45
340
0
 70
     0
280
     1
281
     0
  0
BLOCK_RECORD
  5
E3B
330
1
100
AcDbSymbolTableRecord
100
AcDbBlockTableRecord
  2
*D46
340
0
 70
     0
280
     1
281
     0
  0
BLOCK_RECORD
  5
E48
330
1
100
AcDbSymbolTableRecord
100
AcDbBlockTableRecord
  2
*D47
340
0
 70
     0
280
     1
281
     0
  0
BLOCK_RECORD
  5
E55
330
1
100
AcDbSymbolTableRecord
100
AcDbBlockTableRecord
  2
*D48
340
0
 70
     0
280
     1
281
     0
  0
BLOCK_RECORD
  5
E62
330
1
100
AcDbSymbolTableRecord
100
AcDbBlockTableRecord
  2
*D49
340
0
 70
     0
280
     1
281
     0
  0
BLOCK_RECORD
  5
E6F
330
1
100
AcDbSymbolTableRecord
100
AcDbBlockTableRecord
  2
*D50
340
0
 70
     0
280
     1
281
     0
  0
BLOCK_RECORD
  5
E7C
330
1
100
AcDbSymbolTableRecord
100
AcDbBlockTableRecord
  2
*D51
340
0
 70
     0
280
     1
281
     0
  0
BLOCK_RECORD
  5
E8B
330
1
100
AcDbSymbolTableRecord
100
AcDbBlockTableRecord
  2
*D52
340
0
 70
     0
280
     1
281
     0
  0
BLOCK_RECORD
  5
E98
330
1
100
AcDbSymbolTableRecord
100
AcDbBlockTableRecord
  2
*D53
340
0
 70
     0
280
     1
281
     0
  0
BLOCK_RECORD
  5
EA5
330
1
100
AcDbSymbolTableRecord
100
AcDbBlockTableRecord
  2
*D54
340
0
 70
     0
280
     1
281
     0
  0
BLOCK_RECORD
  5
EB2
330
1
100
AcDbSymbolTableRecord
100
AcDbBlockTableRecord
  2
*D55
340
0
 70
     0
280
     1
281
     0
  0
BLOCK_RECORD
  5
EBF
330
1
100
AcDbSymbolTableRecord
100
AcDbBlockTableRecord
  2
*D56
340
0
 70
     0
280
     1
281
     0
  0
BLOCK_RECORD
  5
ECC
330
1
100
AcDbSymbolTableRecord
100
AcDbBlockTableRecord
  2
*D57
340
0
 70
     0
280
     1
281
     0
  0
BLOCK_RECORD
  5
ED9
330
1
100
AcDbSymbolTableRecord
100
AcDbBlockTableRecord
  2
*D58
340
0
 70
     0
280
     1
281
     0
  0
BLOCK_RECORD
  5
FB0
330
1
100
AcDbSymbolTableRecord
100
AcDbBlockTableRecord
  2
*D59
340
0
 70
     0
280
     1
281
     0
  0
BLOCK_RECORD
  5
FBC
330
1
100
AcDbSymbolTableRecord
100
AcDbBlockTableRecord
  2
*D60
340
0
 70
     0
280
     1
281
     0
  0
BLOCK_RECORD
  5
FC8
330
1
100
AcDbSymbolTableRecord
100
AcDbBlockTableRecord
  2
*D61
340
0
 70
     0
280
     1
281
     0
  0
BLOCK_RECORD
  5
FD4
330
1
100
AcDbSymbolTableRecord
100
AcDbBlockTableRecord
  2
*D62
340
0
 70
     0
280
     1
281
     0
  0
BLOCK_RECORD
  5
FE0
330
1
100
AcDbSymbolTableRecord
100
AcDbBlockTableRecord
  2
*D63
340
0
 70
     0
280
     1
281
     0
  0
BLOCK_RECORD
  5
FEC
330
1
100
AcDbSymbolTableRecord
100
AcDbBlockTableRecord
  2
*D64
340
0
 70
     0
280
     1
281
     0
  0
BLOCK_RECORD
  5
FF9
330
1
100
AcDbSymbolTableRecord
100
AcDbBlockTableRecord
  2
*D65
340
0
 70
     0
280
     1
281
     0
  0
BLOCK_RECORD
  5
1005
330
1
100
AcDbSymbolTableRecord
100
AcDbBlockTableRecord
  2
*D66
340
0
 70
     0
280
     1
281
     0
  0
BLOCK_RECORD
  5
1011
330
1
100
AcDbSymbolTableRecord
100
AcDbBlockTableRecord
  2
*D67
340
0
 70
     0
280
     1
281
     0
  0
BLOCK_RECORD
  5
101F
330
1
100
AcDbSymbolTableRecord
100
AcDbBlockTableRecord
  2
*D68
340
0
 70
     0
280
     1
281
     0
  0
BLOCK_RECORD
  5
102B
330
1
100
AcDbSymbolTableRecord
100
AcDbBlockTableRecord
  2
*D69
340
0
 70
     0
280
     1
281
     0
  0
BLOCK_RECORD
  5
1038
330
1
100
AcDbSymbolTableRecord
100
AcDbBlockTableRecord
  2
*D70
340
0
 70
     0
280
     1
281
     0
  0
BLOCK_RECORD
  5
1044
330
1
100
AcDbSymbolTableRecord
100
AcDbBlockTableRecord
  2
*D71
340
0
 70
     0
280
     1
281
     0
  0
BLOCK_RECORD
  5
1050
330
1
100
AcDbSymbolTableRecord
100
AcDbBlockTableRecord
  2
*D72
340
0
 70
     0
280
     1
281
     0
  0
BLOCK_RECORD
  5
105C
330
1
100
AcDbSymbolTableRecord
100
AcDbBlockTableRecord
  2
*D73
340
0
 70
     0
280
     1
281
     0
  0
BLOCK_RECORD
  5
1068
330
1
100
AcDbSymbolTableRecord
100
AcDbBlockTableRecord
  2
*D74
340
0
 70
     0
280
     1
281
     0
  0
ENDTAB
  0
ENDSEC
  0
SECTION
  2
BLOCKS
  0
BLOCK
  5
1A
330
19
100
AcDbEntity
  8
0
100
AcDbBlockBegin
  2
*MODEL_SPACE
 70
     0
 10
0.0
 20
0.0
 30
0.0
  3
*MODEL_SPACE
  1

  0
ENDBLK
  5
1B
330
19
100
AcDbEntity
  8
0
100
AcDbBlockEnd
  0
BLOCK
  5
17
330
16
100
AcDbEntity
 67
     1
  8
0
100
AcDbBlockBegin
  2
*PAPER_SPACE
 70
     0
 10
0.0
 20
0.0
 30
0.0
  3
*PAPER_SPACE
  1

  0
ENDBLK
  5
18
330
16
100
AcDbEntity
 67
     1
  8
0
100
AcDbBlockEnd
  0
BLOCK
  5
50
330
23
100
AcDbEntity
  8
0
100
AcDbBlockBegin
  2
A$C9381
 70
     2
 10
0.0
 20
0.0
 30
0.0
  3
A$C9381
  1

  0
ATTDEF
  5
24
330
23
100
AcDbEntity
  8
細線
 48
6.0
100
AcDbText
 10
86.65712811754496
 20
36.81147137126318
 30
0.0
 40
4.0
  1

  7
STYLE1
100
AcDbAttributeDefinition
  3
品番
  2
品番
 70
     0
280
     0
  0
ATTDEF
  5
25
330
23
100
AcDbEntity
  8
細線
 48
6.0
100
AcDbText
 10
86.65712811754496
 20
26.31147137126318
 30
0.0
 40
4.0
  1

  7
STYLE1
100
AcDbAttributeDefinition
  3
品名
  2
品名
 70
     0
280
     0
  0
ATTDEF
  5
26
330
23
100
AcDbEntity
  8
細線
 48
6.0
100
AcDbText
 10
86.65712811754496
 20
16.14480470459649
 30
0.0
 40
3.0
  1

  7
STYLE1
100
AcDbAttributeDefinition
  3
ｺｰﾄﾞﾅﾝﾊﾞｰ
  2
ｺｰﾄﾞﾅﾝﾊﾞｰ
 70
     0
280
     0
  0
ATTDEF
  5
27
330
23
100
AcDbEntity
  8
細線
 48
6.0
100
AcDbText
 10
130.1571281175449
 20
16.14480470459649
 30
0.0
 40
3.0
  1

  7
STYLE1
100
AcDbAttributeDefinition
  3
図番
  2
図番
 70
     0
280
     0
  0
ATTDEF
  5
28
330
23
100
AcDbEntity
  8
細線
 48
6.0
100
AcDbText
 10
72.04643715359286
 20
4.066185073466684
 30
0.0
 40
3.0
  1

  7
STYLE1
100
AcDbAttributeDefinition
  3
尺度
  2
1:1
 70
     0
280
     0
  0
ATTDEF
  5
29
330
23
100
AcDbEntity
  8
細線
 48
6.0
100
AcDbText
 10
149.0752236978236
 20
4.386453421041224
 30
0.0
 40
2.0
  1

  7
STYLE1
100
AcDbAttributeDefinition
  3
作成年月日
  2
1999/12/25
 70
     0
280
     0
  0
LINE
  5
2A
330
23
100
AcDbEntity
  8
実線
 48
6.0
100
AcDbLine
 10
0.1571281175449535
 20
15.64480470459649
 30
0.0
 11
173.1571281175449
 21
15.64480470459649
 31
0.0
  0
LINE
  5
2B
330
23
100
AcDbEntity
  8
実線
 48
6.0
100
AcDbLine
 10
85.65712811754496
 20
25.31147137126318
 30
0.0
 11
173.1571281175449
 21
25.31147137126318
 31
0.0
  0
LINE
  5
2C
330
23
100
AcDbEntity
  8
実線
 48
6.0
100
AcDbLine
 10
85.65712811754496
 20
35.81147137126318
 30
0.0
 11
173.1571281175449
 21
35.81147137126318
 31
0.0
  0
LINE
  5
2D
330
23
100
AcDbEntity
  8
実線
 48
6.0
100
AcDbLine
 39
1.0
 10
0.1571281175449677
 20
46.31147137126321
 30
0.0
 11
173.1571281175449
 21
46.31147137126321
 31
0.0
  0
LINE
  5
2E
330
23
100
AcDbEntity
  8
細線
 48
6.0
100
AcDbLine
 10
65.65712811754497
 20
12.14480470459649
 30
0.0
 11
173.1571281175449
 21
12.14480470459649
 31
0.0
  0
TEXT
  5
2F
330
23
100
AcDbEntity
  8
細線
 48
6.0
100
AcDbText
 10
104.8171281175449
 20
12.64480470459649
 30
0.0
 40
2.5
  1
担当
  7
STYLE1
100
AcDbText
  0
TEXT
  5
30
330
23
100
AcDbEntity
  8
細線
 48
6.0
100
AcDbText
 10
86.65712811754496
 20
22.31147137126318
 30
0.0
 40
2.5
  1
ｺｰﾄﾞﾅﾝﾊﾞｰ CODE No.
  7
STYLE1
100
AcDbText
  0
LINE
  5
31
330
23
100
AcDbEntity
  8
細線
 48
6.0
100
AcDbLine
 10
85.65712811754496
 20
21.81147137126318
 30
0.0
 11
173.1571281175449
 21
21.81147137126318
 31
0.0
  0
LINE
  5
32
330
23
100
AcDbEntity
  8
細線
 48
6.0
100
AcDbLine
 10
85.65712811754496
 20
32.31147137126318
 30
0.0
 11
173.1571281175449
 21
32.31147137126318
 31
0.0
  0
LINE
  5
33
330
23
100
AcDbEntity
  8
細線
 48
6.0
100
AcDbLine
 10
85.65712811754496
 20
42.81147137126318
 30
0.0
 11
173.1571281175449
 21
42.81147137126318
 31
0.0
  0
TEXT
  5
34
330
23
100
AcDbEntity
  8
細線
 48
6.0
100
AcDbText
 10
66.02266700131798
 20
12.64480470459649
 30
0.0
 40
2.5
  1
尺度 SCALE
  7
STYLE1
100
AcDbText
  0
TEXT
  5
35
330
23
100
AcDbEntity
  8
細線
 48
6.0
100
AcDbText
 10
86.65712811754496
 20
32.81147137126318
 30
0.0
 40
2.5
  1
品名 TYPE
  7
STYLE1
100
AcDbText
  0
TEXT
  5
36
330
23
100
AcDbEntity
  8
細線
 48
6.0
100
AcDbText
 10
86.65712811754496
 20
43.31147137126317
 30
0.0
 40
2.5
  1
品番 Lot No.
  7
STYLE1
100
AcDbText
  0
LINE
  5
37
330
23
100
AcDbEntity
  8
実線
 48
6.0
100
AcDbLine
 10
85.65712811754494
 20
0.1448047045964955
 30
0.0
 11
85.65712811754496
 21
46.31147137126318
 31
0.0
  0
LINE
  5
38
330
23
100
AcDbEntity
  8
実線
 48
6.0
100
AcDbLine
 10
85.65712811754496
 20
15.64480470459649
 30
0.0
 11
85.65712811754496
 21
0.1448047045964955
 31
0.0
  0
TEXT
  5
39
330
23
100
AcDbEntity
  8
細線
 48
6.0
100
AcDbText
 10
90.31712811754495
 20
12.64480470459649
 30
0.0
 40
2.5
  1
承認
  7
STYLE1
100
AcDbText
  0
LINE
  5
3A
330
23
100
AcDbEntity
  8
実線
 48
6.0
100
AcDbLine
 10
100.1571281175449
 20
15.64480470459649
 30
0.0
 11
100.1571281175449
 21
0.1448047045964955
 31
0.0
  0
TEXT
  5
3B
330
23
100
AcDbEntity
  8
細線
 48
6.0
100
AcDbText
 10
129.1571281175449
 20
22.37030362417924
 30
0.0
 40
2.5
  1
図番 DWG No.
  7
STYLE1
100
AcDbText
  0
LINE
  5
3C
330
23
100
AcDbEntity
  8
実線
 48
6.0
100
AcDbLine
 10
114.6571281175449
 20
15.64480470459649
 30
0.0
 11
114.6571281175449
 21
0.1448047045964955
 31
0.0
  0
TEXT
  5
3D
330
23
100
AcDbEntity
  8
細線
 48
6.0
100
AcDbText
 10
119.3171281175449
 20
12.64480470459649
 30
0.0
 40
2.5
  1
検図
  7
STYLE1
100
AcDbText
  0
TEXT
  5
3E
330
23
100
AcDbEntity
  8
細線
 48
6.0
100
AcDbText
 10
133.8171281175449
 20
12.64480470459649
 30
0.0
 40
2.5
  1
作図
  7
STYLE1
100
AcDbText
  0
LINE
  5
3F
330
23
100
AcDbEntity
  8
実線
 48
6.0
100
AcDbLine
 10
129.1571281175449
 20
25.31147137126318
 30
0.0
 11
129.1571281175449
 21
0.1448047045964955
 31
0.0
  0
LINE
  5
40
330
23
100
AcDbEntity
  8
実線
 48
6.0
100
AcDbLine
 10
143.6571281175449
 20
15.64480470459649
 30
0.0
 11
143.6571281175449
 21
0.1448047045964955
 31
0.0
  0
TEXT
  5
41
330
23
100
AcDbEntity
  8
細線
 48
6.0
100
AcDbText
 10
151.4071281175449
 20
12.64480470459649
 30
0.0
 40
2.5
  1
作成年月日
  7
STYLE1
100
AcDbText
  0
TEXT
  5
42
330
23
100
AcDbEntity
  8
細線
 48
6.0
100
AcDbText
 10
44.94717437999407
 20
9.758832726970084
 30
0.0
 40
2.5
  1
3rd ANGLE
  7
STYLE1
100
AcDbText
  0
TEXT
  5
43
330
23
100
AcDbEntity
  8
細線
 48
6.0
100
AcDbText
 10
43.58591122894702
 20
6.765063031168736
 30
0.0
 40
2.5
  1
  PROJECT
  7
STYLE1
100
AcDbText
  0
LINE
  5
44
330
23
100
AcDbEntity
  8
実線
 48
6.0
100
AcDbLine
 10
43.65712811754497
 20
15.64480470459649
 30
0.0
 11
43.657128117545
 21
0.1448047045964955
 31
0.0
  0
LINE
  5
45
330
23
100
AcDbEntity
  8
中心線
 48
6.0
100
AcDbLine
 10
62.92042429461213
 20
3.002708955260359
 30
0.0
 11
54.8379243352702
 21
3.002708955260359
 31
0.0
  0
LINE
  5
46
330
23
100
AcDbEntity
  8
実線
 48
6.0
100
AcDbLine
 10
55.8588716985555
 20
4.434388662235122
 30
0.0
 11
61.68677956397573
 21
5.214761575711875
 31
0.0
  0
LINE
  5
47
330
23
100
AcDbEntity
  8
実線
 48
6.0
100
AcDbLine
 10
55.8588716985555
 20
1.571029248285597
 30
0.0
 11
61.68677956397573
 21
0.790656334808844
 31
0.0
  0
TEXT
  5
48
330
23
100
AcDbEntity
  8
細線
 48
6.0
100
AcDbText
 10
44.41108191758243
 20
12.69165273852597
 30
0.0
 40
2.5
  1
    三角法
  7
STYLE1
100
AcDbText
  0
LINE
  5
49
330
23
100
AcDbEntity
  8
中心線
 48
6.0
100
AcDbLine
 10
50.24366120048637
 20
0.5027089552603599
 30
0.0
 11
50.24366120048637
 21
5.502708955260359
 31
0.0
  0
LINE
  5
4A
330
23
100
AcDbEntity
  8
実線
 48
6.0
100
AcDbLine
 10
55.8588716985555
 20
4.434388662235122
 30
0.0
 11
55.8588716985555
 21
1.57102924828554
 31
0.0
  0
CIRCLE
  5
4B
330
23
100
AcDbEntity
  8
実線
 48
6.0
100
AcDbCircle
 10
50.24366120048637
 20
3.002708955260359
 30
0.0
 40
1.431679706974767
  0
CIRCLE
  5
4C
330
23
100
AcDbEntity
  8
実線
 48
6.0
100
AcDbCircle
 10
50.24366120048637
 20
3.002708955260359
 30
0.0
 40
2.212052620451487
  0
LINE
  5
4D
330
23
100
AcDbEntity
  8
中心線
 48
6.0
100
AcDbLine
 10
47.74366120048637
 20
3.002708955260359
 30
0.0
 11
52.74366120048637
 21
3.002708955260359
 31
0.0
  0
LINE
  5
4E
330
23
100
AcDbEntity
  8
実線
 48
6.0
100
AcDbLine
 10
61.68677956397573
 20
5.214761575711875
 30
0.0
 11
61.68677956397573
 21
0.790656334808844
 31
0.0
  0
LINE
  5
4F
330
23
100
AcDbEntity
  8
実線
 48
6.0
100
AcDbLine
 10
65.657128117545
 20
0.1448047045964955
 30
0.0
 11
65.65712811754499
 21
15.64480470459649
 31
0.0
  0
ENDBLK
  5
51
330
23
100
AcDbEntity
  8
0
100
AcDbBlockEnd
  0
BLOCK
  5
5F
330
52
100
AcDbEntity
  8
0
100
AcDbBlockBegin
  2
A$CA221
 70
     2
 10
0.0
 20
0.0
 30
0.0
  3
A$CA221
  1

  0
ATTDEF
  5
53
330
52
100
AcDbEntity
  8
細線
 48
6.0
100
AcDbText
 10
0.5802892393156754
 20
0.5748278204148676
 30
0.0
 40
2.799999999999999
  1
No.
  7
STYLE1
100
AcDbAttributeDefinition
  3
No.
  2
NO.
 70
     0
280
     0
  0
ATTDEF
  5
54
330
52
100
AcDbEntity
  8
細線
 48
6.0
100
AcDbText
 10
8.153635613241818
 20
0.6894523722187103
 30
0.0
 40
2.799999999999999
  1
    図     番
  7
STYLE1
100
AcDbAttributeDefinition
  3
     図     番
  2
図番
 70
     0
280
     0
  0
ATTDEF
  5
55
330
52
100
AcDbEntity
  8
細線
 48
6.0
100
AcDbText
 10
36.15363561324182
 20
0.7467646481206601
 30
0.0
 40
2.799999999999999
  1
          部     品     名
  7
STYLE1
100
AcDbAttributeDefinition
  3
部品名
  2
部品名
 70
     0
280
     0
  0
ATTDEF
  5
56
330
52
100
AcDbEntity
  8
細線
 48
6.0
100
AcDbText
 10
98.15363561324183
 20
0.5890779427889186
 30
0.0
 40
2.799999999999999
  1
      材     質
  7
STYLE1
100
AcDbAttributeDefinition
  3
材質
  2
材質
 70
     0
280
     0
  0
ATTDEF
  5
57
330
52
100
AcDbEntity
  8
細線
 48
6.0
100
AcDbText
 10
129.1536356132418
 20
0.5890779427889186
 30
0.0
 40
2.799999999999999
  1
個数
  7
STYLE1
100
AcDbAttributeDefinition
  3
個数
  2
個数
 70
     0
280
     0
  0
ATTDEF
  5
58
330
52
100
AcDbEntity
  8
細線
 48
6.0
100
AcDbText
 10
137.1536356132418
 20
0.5890779427889186
 30
0.0
 40
2.799999999999999
  1
       摘     要
  7
STYLE1
100
AcDbAttributeDefinition
  3
摘要
  2
摘要
 70
     0
280
     0
  0
LINE
  5
59
330
52
100
AcDbEntity
  8
細線
 48
6.0
100
AcDbLine
 10
0.1536356132418177
 20
0.0528519855554635
 30
0.0
 11
173.1536356132418
 21
0.0528519855554066
 31
0.0
  0
LINE
  5
5A
330
52
100
AcDbEntity
  8
細線
 48
6.0
100
AcDbLine
 10
7.153635613241817
 20
0.0528519855554066
 30
0.0
 11
7.153635613241789
 21
4.05285198555552
 31
0.0
  0
LINE
  5
5B
330
52
100
AcDbEntity
  8
細線
 48
6.0
100
AcDbLine
 10
35.15363561324182
 20
0.0528519855554066
 30
0.0
 11
35.15363561324182
 21
4.05285198555552
 31
0.0
  0
LINE
  5
5C
330
52
100
AcDbEntity
  8
細線
 48
6.0
100
AcDbLine
 10
97.1536356132418
 20
0.0528519855554066
 30
0.0
 11
97.1536356132418
 21
4.05285198555552
 31
0.0
  0
LINE
  5
5D
330
52
100
AcDbEntity
  8
細線
 48
6.0
100
AcDbLine
 10
128.1536356132418
 20
0.0528519855554066
 30
0.0
 11
128.1536356132418
 21
4.05285198555552
 31
0.0
  0
LINE
  5
5E
330
52
100
AcDbEntity
  8
細線
 48
6.0
100
AcDbLine
 10
136.1536356132418
 20
0.0528519855554066
 30
0.0
 11
136.1536356132418
 21
4.05285198555552
 31
0.0
  0
ENDBLK
  5
60
330
52
100
AcDbEntity
  8
0
100
AcDbBlockEnd
  0
BLOCK
  5
88
330
61
100
AcDbEntity
  8
0
100
AcDbBlockBegin
  2
A$CB311
 70
     2
 10
0.0
 20
0.0
 30
0.0
  3
A$CB311
  1

  0
ATTDEF
  5
62
330
61
100
AcDbEntity
  8
細線
 48
6.0
100
AcDbText
 10
2.225043243023016
 20
5.754682291120985
 30
0.0
 40
2.5
  1

 41
0.9
  7
STYLE1
100
AcDbAttributeDefinition
  3
改番１
  2
改番１
 70
     0
280
     0
  0
ATTDEF
  5
63
330
61
100
AcDbEntity
  8
細線
 48
6.0
100
AcDbText
 10
6.163384780119692
 20
6.010846752634719
 30
0.0
 40
2.5
  1

 41
0.9
  7
STYLE1
100
AcDbAttributeDefinition
  3
改訂日１
  2
改訂日１
 70
     0
280
     0
  0
ATTDEF
  5
64
330
61
100
AcDbEntity
  8
細線
 48
6.0
100
AcDbText
 10
21.74466305742597
 20
6.267011214148467
 30
0.0
 40
2.5
  1

 41
0.9
  7
STYLE1
100
AcDbAttributeDefinition
  3
改訂内容１
  2
改訂内容１
 70
     0
280
     0
  0
ATTDEF
  5
65
330
61
100
AcDbEntity
  8
細線
 48
6.0
100
AcDbText
 10
2.225043243023016
 20
10.87237151354865
 30
0.0
 40
2.5
  1

 41
0.9
  7
STYLE1
100
AcDbAttributeDefinition
  3
改番２
  2
改番２
 70
     0
280
     0
  0
ATTDEF
  5
66
330
61
100
AcDbEntity
  8
細線
 48
6.0
100
AcDbText
 10
6.163384780119692
 20
11.12853597506239
 30
0.0
 40
2.5
  1

 41
0.9
  7
STYLE1
100
AcDbAttributeDefinition
  3
改訂日２
  2
改訂日２
 70
     0
280
     0
  0
ATTDEF
  5
67
330
61
100
AcDbEntity
  8
細線
 48
6.0
100
AcDbText
 10
21.74466305742597
 20
11.38470043657614
 30
0.0
 40
2.5
  1

 41
0.9
  7
STYLE1
100
AcDbAttributeDefinition
  3
改訂内容２
  2
改訂内容２
 70
     0
280
     0
  0
ATTDEF
  5
68
330
61
100
AcDbEntity
  8
細線
 48
6.0
100
AcDbText
 10
2.225043243023016
 20
16.07205454990385
 30
0.0
 40
2.5
  1

 41
0.9
  7
STYLE1
100
AcDbAttributeDefinition
  3
改番３
  2
改番３
 70
     0
280
     0
  0
ATTDEF
  5
69
330
61
100
AcDbEntity
  8
細線
 48
6.0
100
AcDbText
 10
6.163384780119692
 20
16.32821901141758
 30
0.0
 40
2.5
  1

 41
0.9
  7
STYLE1
100
AcDbAttributeDefinition
  3
改訂日３
  2
改訂日３
 70
     0
280
     0
  0
ATTDEF
  5
6A
330
61
100
AcDbEntity
  8
細線
 48
6.0
100
AcDbText
 10
21.74466305742597
 20
16.58438347293133
 30
0.0
 40
2.5
  1

 41
0.9
  7
STYLE1
100
AcDbAttributeDefinition
  3
改訂内容３
  2
改訂内容３
 70
     0
280
     0
  0
ATTDEF
  5
6B
330
61
100
AcDbEntity
  8
細線
 48
6.0
100
AcDbText
 10
2.225043243023016
 20
21.01327173017884
 30
0.0
 40
2.5
  1

 41
0.9
  7
STYLE1
100
AcDbAttributeDefinition
  3
改番４
  2
改番４
 70
     0
280
     0
  0
ATTDEF
  5
6C
330
61
100
AcDbEntity
  8
細線
 48
6.0
100
AcDbText
 10
6.163384780119692
 20
21.26943619169257
 30
0.0
 40
2.5
  1

 41
0.9
  7
STYLE1
100
AcDbAttributeDefinition
  3
改訂日４
  2
改訂日４
 70
     0
280
     0
  0
ATTDEF
  5
6D
330
61
100
AcDbEntity
  8
細線
 48
6.0
100
AcDbText
 10
21.74466305742597
 20
21.52560065320632
 30
0.0
 40
2.5
  1

 41
0.9
  7
STYLE1
100
AcDbAttributeDefinition
  3
改訂内容４
  2
改訂内容４
 70
     0
280
     0
  0
ATTDEF
  5
6E
330
61
100
AcDbEntity
  8
細線
 48
6.0
100
AcDbText
 10
2.225043243023016
 20
26.12103103837366
 30
0.0
 40
2.5
  1

 41
0.9
  7
STYLE1
100
AcDbAttributeDefinition
  3
改番５
  2
改番５
 70
     0
280
     0
  0
ATTDEF
  5
6F
330
61
100
AcDbEntity
  8
細線
 48
6.0
100
AcDbText
 10
6.163384780119692
 20
26.37719549988739
 30
0.0
 40
2.5
  1

 41
0.9
  7
STYLE1
100
AcDbAttributeDefinition
  3
改訂日５
  2
改訂日５
 70
     0
280
     0
  0
ATTDEF
  5
70
330
61
100
AcDbEntity
  8
細線
 48
6.0
100
AcDbText
 10
21.74466305742597
 20
26.63335996140114
 30
0.0
 40
2.5
  1

 41
0.9
  7
STYLE1
100
AcDbAttributeDefinition
  3
改訂内容５
  2
改訂内容５
 70
     0
280
     0
  0
LINE
  5
71
330
61
100
AcDbEntity
  8
細線
 48
6.0
100
AcDbLine
 10
85.50498202193812
 20
5.268123968322313
 30
0.0
 11
0.0049820219381402
 21
5.26812396832237
 31
0.0
  0
LINE
  5
72
330
61
100
AcDbEntity
  8
細線
 48
6.0
100
AcDbLine
 10
85.50498202193812
 20
10.36812396832233
 30
0.0
 11
0.0049820219381402
 21
10.36812396832233
 31
0.0
  0
LINE
  5
73
330
61
100
AcDbEntity
  8
細線
 48
6.0
100
AcDbLine
 10
85.50498202193812
 20
15.4681239683223
 30
0.0
 11
0.0049820219381402
 21
15.46812396832236
 31
0.0
  0
LINE
  5
74
330
61
100
AcDbEntity
  8
細線
 48
6.0
100
AcDbLine
 10
85.50498202193812
 20
20.56812396832232
 30
0.0
 11
0.0049820219381402
 21
20.56812396832232
 31
0.0
  0
LINE
  5
75
330
61
100
AcDbEntity
  8
細線
 48
6.0
100
AcDbLine
 10
85.50498202193812
 20
25.66812396832229
 30
0.0
 11
0.0049820219381402
 21
25.66812396832235
 31
0.0
  0
LINE
  5
76
330
61
100
AcDbEntity
  8
細線
 48
6.0
100
AcDbLine
 10
0.0049820219381402
 20
10.36812396832233
 30
0.0
 11
3.00498202193814
 21
15.46812396832236
 31
0.0
  0
LINE
  5
77
330
61
100
AcDbEntity
  8
細線
 48
6.0
100
AcDbLine
 10
3.00498202193814
 20
15.46812396832236
 30
0.0
 11
6.004982021938154
 21
10.36812396832233
 31
0.0
  0
LINE
  5
78
330
61
100
AcDbEntity
  8
細線
 48
6.0
100
AcDbLine
 10
21.00498202193816
 20
0.1014573016556284
 30
0.0
 11
21.00498202193814
 21
30.76812396832231
 31
0.0
  0
LINE
  5
79
330
61
100
AcDbEntity
  8
細線
 48
6.0
100
AcDbLine
 10
6.004982021938154
 20
0.1014573016556284
 30
0.0
 11
6.00498202193814
 21
30.76812396832231
 31
0.0
  0
LINE
  5
7A
330
61
100
AcDbEntity
  8
細線
 48
6.0
100
AcDbLine
 10
0.0049820219381402
 20
5.26812396832237
 30
0.0
 11
3.00498202193814
 21
10.36812396832233
 31
0.0
  0
LINE
  5
7B
330
61
100
AcDbEntity
  8
細線
 48
6.0
100
AcDbLine
 10
3.00498202193814
 20
10.36812396832233
 30
0.0
 11
6.004982021938154
 21
5.26812396832237
 31
0.0
  0
TEXT
  5
7C
330
61
100
AcDbEntity
  8
細線
 48
6.0
100
AcDbText
 10
9.504982021938154
 20
0.6014573016556284
 30
0.0
 40
2.5
  1
年月日
  7
STYLE1
100
AcDbText
  0
LINE
  5
7D
330
61
100
AcDbEntity
  8
細線
 48
6.0
100
AcDbLine
 10
0.0049820219381402
 20
25.66812396832235
 30
0.0
 11
3.00498202193814
 21
30.76812396832234
 31
0.0
  0
LINE
  5
7E
330
61
100
AcDbEntity
  8
細線
 48
6.0
100
AcDbLine
 10
0.0049820219381402
 20
20.56812396832232
 30
0.0
 11
3.00498202193814
 21
25.66812396832235
 31
0.0
  0
LINE
  5
7F
330
61
100
AcDbEntity
  8
細線
 48
6.0
100
AcDbLine
 10
0.0049820219381402
 20
15.46812396832236
 30
0.0
 11
3.00498202193814
 21
20.56812396832232
 31
0.0
  0
LINE
  5
80
330
61
100
AcDbEntity
  8
細線
 48
6.0
100
AcDbLine
 10
3.00498202193814
 20
30.76812396832234
 30
0.0
 11
6.004982021938154
 21
25.66812396832235
 31
0.0
  0
LINE
  5
81
330
61
100
AcDbEntity
  8
細線
 48
6.0
100
AcDbLine
 10
3.00498202193814
 20
25.66812396832235
 30
0.0
 11
6.004982021938154
 21
20.56812396832232
 31
0.0
  0
LINE
  5
82
330
61
100
AcDbEntity
  8
細線
 48
6.0
100
AcDbLine
 10
3.00498202193814
 20
20.56812396832232
 30
0.0
 11
6.004982021938154
 21
15.46812396832236
 31
0.0
  0
LINE
  5
83
330
61
100
AcDbEntity
  8
細線
 48
6.0
100
AcDbLine
 10
65.50498202193816
 20
0.1014573016556284
 30
0.0
 11
65.50498202193813
 21
30.76812396832231
 31
0.0
  0
TEXT
  5
84
330
61
100
AcDbEntity
  8
細線
 48
6.0
100
AcDbText
 10
32.15498202193817
 20
0.6014573016556284
 30
0.0
 40
2.5
  1
改訂 REVISED
  7
STYLE1
100
AcDbText
  0
LINE
  5
85
330
61
100
AcDbEntity
  8
細線
 48
6.0
100
AcDbLine
 10
75.50498202193813
 20
0.1014573016556284
 30
0.0
 11
75.50498202193813
 21
30.76812396832231
 31
0.0
  0
TEXT
  5
86
330
61
100
AcDbEntity
  8
細線
 48
6.0
100
AcDbText
 10
67.7073332716516
 20
0.6014573016556284
 30
0.0
 40
2.5
  1
検図
  7
STYLE1
100
AcDbText
  0
TEXT
  5
87
330
61
100
AcDbEntity
  8
細線
 48
6.0
100
AcDbText
 10
77.7073332716516
 20
0.6014573016556284
 30
0.0
 40
2.5
  1
担当
  7
STYLE1
100
AcDbText
  0
ENDBLK
  5
89
330
61
100
AcDbEntity
  8
0
100
AcDbBlockEnd
  0
BLOCK
  5
95
330
8A
100
AcDbEntity
  8
0
100
AcDbBlockBegin
  2
A$CA1A2
 70
     0
 10
0.0
 20
0.0
 30
0.0
  3
A$CA1A2
  1

  0
LINE
  5
8B
330
8A
100
AcDbEntity
  8
枠線
 48
6.0
100
AcDbLine
 10
0.1715470506888721
 20
192.2292418772573
 30
0.0
 11
0.1715470506888721
 21
0.8574007220191575
 31
0.0
  0
LINE
  5
8C
330
8A
100
AcDbEntity
  8
破線
 48
6.0
100
AcDbLine
 10
8.405805483933788
 20
189.8285198555966
 30
0.0
 11
8.405805483933788
 21
0.171480144401805
 31
0.0
  0
LINE
  5
8D
330
8A
100
AcDbEntity
  8
中心線
 48
6.0
100
AcDbLine
 10
18.35553442410474
 20
187.7707581227446
 30
0.0
 11
18.35553442410474
 21
31.72382671479951
 31
0.0
  0
LINE
  5
8E
330
8A
100
AcDbEntity
  8
寸法線
 48
6.0
100
AcDbLine
 10
28.30526336427567
 20
188.7996389891706
 30
0.0
 11
28.30526336427567
 21
37.21119133573822
 31
0.0
  0
LINE
  5
8F
330
8A
100
AcDbEntity
  8
想像線
 48
6.0
100
AcDbLine
 10
24.5312282490384
 20
187.4277978339359
 30
0.0
 11
24.5312282490384
 21
42.35559566786829
 31
0.0
  0
LINE
  5
90
330
8A
100
AcDbEntity
  8
実線
 48
6.0
100
AcDbLine
 10
43.40140382522469
 20
185.3700361010839
 30
0.0
 11
43.40140382522469
 21
50.58664259927638
 31
0.0
  0
LINE
  5
91
330
8A
100
AcDbEntity
  8
細線
 48
6.0
100
AcDbLine
 10
53.00803866401048
 20
181.9404332129972
 30
0.0
 11
53.00803866401048
 21
57.44584837544979
 31
0.0
  0
LINE
  5
92
330
8A
100
AcDbEntity
  8
DEFPOINTS
 48
6.0
100
AcDbLine
 10
63.3008617055666
 20
184.3411552346578
 30
0.0
 11
63.3008617055666
 21
52.64440433212841
 31
0.0
  0
LINE
  5
93
330
8A
100
AcDbEntity
  8
0
 48
6.0
100
AcDbLine
 10
73.25059064573759
 20
180.5685920577625
 30
0.0
 11
73.25059064573759
 21
68.42057761732724
 31
0.0
  0
MTEXT
  5
94
330
8A
100
AcDbEntity
  8
枠線
 48
6.0
100
AcDbMText
 10
96.58098953993154
 20
90.71299638989083
 30
0.0
 40
2.5
 41
40.82819806483946
 46
0.0
 71
     1
 72
     5
  1
123456789
  7
STYLE3
 73
     1
 44
1.0
  0
ENDBLK
  5
96
330
8A
100
AcDbEntity
  8
0
100
AcDbBlockEnd
  0
BLOCK
  5
10A
330
A4
100
AcDbEntity
  8
0
100
AcDbBlockBegin
  2
A$CB131
 70
     0
 10
0.0
 20
0.0
 30
0.0
  3
A$CB131
  1

  0
INSERT
  5
A5
330
A4
100
AcDbEntity
  8
細線
100
AcDbBlockReference
  2
A$CA1A2
 10
48.24531469408676
 20
65.73220216606363
 30
0.0
  0
INSERT
  5
A6
330
A4
100
AcDbEntity
  8
細線
100
AcDbBlockReference
 66
     1
  2
A$CB311
 10
21.09501797806188
 20
19.39854269834437
 30
0.0
  0
ATTRIB
  5
A7
330
A6
100
AcDbEntity
  8
細線
 48
6.0
100
AcDbText
 10
23.32006122108489
 20
25.15322498946535
 30
0.0
 40
2.5
  1

 41
0.9
  7
STYLE1
100
AcDbAttribute
  2
改番１
 70
     0
280
     0
  0
ATTRIB
  5
A8
330
A6
100
AcDbEntity
  8
細線
 48
6.0
100
AcDbText
 10
27.25840275818157
 20
25.40938945097909
 30
0.0
 40
2.5
  1

 41
0.9
  7
STYLE1
100
AcDbAttribute
  2
改訂日１
 70
     0
280
     0
  0
ATTRIB
  5
A9
330
A6
100
AcDbEntity
  8
細線
 48
6.0
100
AcDbText
 10
42.83968103548786
 20
25.66555391249284
 30
0.0
 40
2.5
  1

 41
0.9
  7
STYLE1
100
AcDbAttribute
  2
改訂内容１
 70
     0
280
     0
  0
ATTRIB
  5
AA
330
A6
100
AcDbEntity
  8
細線
 48
6.0
100
AcDbText
 10
23.32006122108489
 20
30.27091421189302
 30
0.0
 40
2.5
  1

 41
0.9
  7
STYLE1
100
AcDbAttribute
  2
改番２
 70
     0
280
     0
  0
ATTRIB
  5
AB
330
A6
100
AcDbEntity
  8
細線
 48
6.0
100
AcDbText
 10
27.25840275818157
 20
30.52707867340676
 30
0.0
 40
2.5
  1

 41
0.9
  7
STYLE1
100
AcDbAttribute
  2
改訂日２
 70
     0
280
     0
  0
ATTRIB
  5
AC
330
A6
100
AcDbEntity
  8
細線
 48
6.0
100
AcDbText
 10
42.83968103548786
 20
30.78324313492051
 30
0.0
 40
2.5
  1

 41
0.9
  7
STYLE1
100
AcDbAttribute
  2
改訂内容２
 70
     0
280
     0
  0
ATTRIB
  5
AD
330
A6
100
AcDbEntity
  8
細線
 48
6.0
100
AcDbText
 10
23.32006122108489
 20
35.47059724824822
 30
0.0
 40
2.5
  1

 41
0.9
  7
STYLE1
100
AcDbAttribute
  2
改番３
 70
     0
280
     0
  0
ATTRIB
  5
AE
330
A6
100
AcDbEntity
  8
細線
 48
6.0
100
AcDbText
 10
27.25840275818157
 20
35.72676170976196
 30
0.0
 40
2.5
  1

 41
0.9
  7
STYLE1
100
AcDbAttribute
  2
改訂日３
 70
     0
280
     0
  0
ATTRIB
  5
AF
330
A6
100
AcDbEntity
  8
細線
 48
6.0
100
AcDbText
 10
42.83968103548786
 20
35.98292617127571
 30
0.0
 40
2.5
  1

 41
0.9
  7
STYLE1
100
AcDbAttribute
  2
改訂内容３
 70
     0
280
     0
  0
ATTRIB
  5
B0
330
A6
100
AcDbEntity
  8
細線
 48
6.0
100
AcDbText
 10
23.32006122108489
 20
40.41181442852321
 30
0.0
 40
2.5
  1

 41
0.9
  7
STYLE1
100
AcDbAttribute
  2
改番４
 70
     0
280
     0
  0
ATTRIB
  5
B1
330
A6
100
AcDbEntity
  8
細線
 48
6.0
100
AcDbText
 10
27.25840275818157
 20
40.66797889003694
 30
0.0
 40
2.5
  1

 41
0.9
  7
STYLE1
100
AcDbAttribute
  2
改訂日４
 70
     0
280
     0
  0
ATTRIB
  5
B2
330
A6
100
AcDbEntity
  8
細線
 48
6.0
100
AcDbText
 10
42.83968103548786
 20
40.92414335155069
 30
0.0
 40
2.5
  1

 41
0.9
  7
STYLE1
100
AcDbAttribute
  2
改訂内容４
 70
     0
280
     0
  0
ATTRIB
  5
B3
330
A6
100
AcDbEntity
  8
細線
 48
6.0
100
AcDbText
 10
23.32006122108489
 20
45.51957373671803
 30
0.0
 40
2.5
  1

 41
0.9
  7
STYLE1
100
AcDbAttribute
  2
改番５
 70
     0
280
     0
  0
ATTRIB
  5
B4
330
A6
100
AcDbEntity
  8
細線
 48
6.0
100
AcDbText
 10
27.25840275818157
 20
45.77573819823176
 30
0.0
 40
2.5
  1

 41
0.9
  7
STYLE1
100
AcDbAttribute
  2
改訂日５
 70
     0
280
     0
  0
ATTRIB
  5
B5
330
A6
100
AcDbEntity
  8
細線
 48
6.0
100
AcDbText
 10
42.83968103548786
 20
46.03190265974551
 30
0.0
 40
2.5
  1

 41
0.9
  7
STYLE1
100
AcDbAttribute
  2
改訂内容５
 70
     0
280
     0
  0
SEQEND
  5
B6
330
A6
100
AcDbEntity
  8
細線
  0
LINE
  5
B7
330
A4
100
AcDbEntity
  8
細線
100
AcDbLine
 10
21.10000000000002
 20
279.0
 30
0.0
 11
21.10000000000002
 21
283.0
 31
0.0
  0
LINE
  5
B8
330
A4
100
AcDbEntity
  8
細線
100
AcDbLine
 10
194.1
 20
279.0
 30
0.0
 11
194.1
 21
283.0
 31
0.0
  0
INSERT
  5
B9
330
A4
100
AcDbEntity
  8
枠線
100
AcDbBlockReference
 66
     1
  2
A$CA221
 10
20.94636438675816
 20
278.9471480144445
 30
0.0
  0
ATTRIB
  5
BA
330
B9
100
AcDbEntity
  8
細線
 48
6.0
100
AcDbText
 10
21.52665362607384
 20
279.5219758348594
 30
0.0
 40
2.799999999999999
  1
No.
  7
STYLE1
100
AcDbAttribute
  2
NO.
 70
     0
280
     0
  0
ATTRIB
  5
BB
330
B9
100
AcDbEntity
  8
細線
 48
6.0
100
AcDbText
 10
29.09999999999998
 20
279.6366003866633
 30
0.0
 40
2.799999999999999
  1
    図     番
  7
STYLE1
100
AcDbAttribute
  2
図番
 70
     0
280
     0
  0
ATTRIB
  5
BC
330
B9
100
AcDbEntity
  8
細線
 48
6.0
100
AcDbText
 10
57.09999999999999
 20
279.6939126625652
 30
0.0
 40
2.799999999999999
  1
          部     品     名
  7
STYLE1
100
AcDbAttribute
  2
部品名
 70
     0
280
     0
  0
ATTRIB
  5
BD
330
B9
100
AcDbEntity
  8
細線
 48
6.0
100
AcDbText
 10
119.1
 20
279.5362259572335
 30
0.0
 40
2.799999999999999
  1
      材     質
  7
STYLE1
100
AcDbAttribute
  2
材質
 70
     0
280
     0
  0
ATTRIB
  5
BE
330
B9
100
AcDbEntity
  8
細線
 48
6.0
100
AcDbText
 10
150.0999999999999
 20
279.5362259572335
 30
0.0
 40
2.799999999999999
  1
個数
  7
STYLE1
100
AcDbAttribute
  2
個数
 70
     0
280
     0
  0
ATTRIB
  5
BF
330
B9
100
AcDbEntity
  8
細線
 48
6.0
100
AcDbText
 10
158.0999999999999
 20
279.5362259572335
 30
0.0
 40
2.799999999999999
  1
       摘     要
  7
STYLE1
100
AcDbAttribute
  2
摘要
 70
     0
280
     0
  0
SEQEND
  5
C0
330
B9
100
AcDbEntity
  8
枠線
  0
INSERT
  5
C1
330
A4
100
AcDbEntity
  8
枠線
100
AcDbBlockReference
 66
     1
  2
A$C9381
 10
20.94287188245505
 20
3.855195295403518
 30
0.0
  0
ATTRIB
  5
C2
330
C1
100
AcDbEntity
  8
細線
 48
6.0
100
AcDbText
 10
107.6
 20
40.66666666666671
 30
0.0
 40
4.0
  1

  7
STYLE1
100
AcDbAttribute
  2
品番
 70
     0
280
     0
  0
ATTRIB
  5
C3
330
C1
100
AcDbEntity
  8
細線
 48
6.0
100
AcDbText
 10
107.6
 20
30.16666666666671
 30
0.0
 40
4.0
  1

  7
STYLE1
100
AcDbAttribute
  2
品名
 70
     0
280
     0
  0
ATTRIB
  5
C4
330
C1
100
AcDbEntity
  8
細線
 48
6.0
100
AcDbText
 10
107.6
 20
20.00000000000003
 30
0.0
 40
3.0
  1

  7
STYLE1
100
AcDbAttribute
  2
ｺｰﾄﾞﾅﾝﾊﾞｰ
 70
     0
280
     0
  0
ATTRIB
  5
C5
330
C1
100
AcDbEntity
  8
細線
 48
6.0
100
AcDbText
 10
151.1
 20
20.00000000000003
 30
0.0
 40
3.0
  1

  7
STYLE1
100
AcDbAttribute
  2
図番
 70
     0
280
     0
  0
ATTRIB
  5
C6
330
C1
100
AcDbEntity
  8
細線
 48
6.0
100
AcDbText
 10
92.98930903604791
 20
7.921380368870217
 30
0.0
 40
3.0
  1

  7
STYLE1
100
AcDbAttribute
  2
1:1
 70
     0
280
     0
  0
ATTRIB
  5
C7
330
C1
100
AcDbEntity
  8
細線
 48
6.0
100
AcDbText
 10
170.0180955802787
 20
8.241648716444757
 30
0.0
 40
2.0
  1

  7
STYLE1
100
AcDbAttribute
  2
1999/12/25
 70
     0
280
     0
  0
SEQEND
  5
C8
330
C1
100
AcDbEntity
  8
枠線
  0
LINE
  5
C9
330
A4
100
AcDbEntity
  8
細線
 48
6.0
100
AcDbLine
 10
194.1
 20
229.0
 30
0.0
 11
194.1
 21
233.0000000000001
 31
0.0
  0
LINE
  5
CA
330
A4
100
AcDbEntity
  8
細線
 48
6.0
100
AcDbLine
 10
21.09999999999999
 20
229.0
 30
0.0
 11
21.10000000000002
 21
233.0000000000001
 31
0.0
  0
VIEWPORT
  5
CB
330
A4
100
AcDbEntity
  8
0
 48
6.0
100
AcDbViewport
 10
107.6
 20
164.5833333333333
 30
0.0
 40
173.0
 41
228.8333333333333
 69
    -1
 12
190.3439999999999
 22
105.0
 13
0.0
 23
0.0
 14
10.0
 24
10.0
 15
10.0
 25
10.0
 16
0.0
 26
0.0
 36
1.0
 17
0.0
 27
0.0
 37
0.0
 42
50.0
 43
0.0
 44
0.0
 45
228.8333333333332
 50
0.0
 51
0.0
 72
   100
 90
    32768
  1

281
     0
 71
     1
 74
     0
110
0.0
120
0.0
130
0.0
111
1.0
121
0.0
131
0.0
112
0.0
122
1.0
132
0.0
 79
     0
146
0.0
170
     0
 61
     5
348
9DB
292
     1
282
     1
141
0.0
142
0.0
 63
   256
  0
MTEXT
  5
CC
330
A4
100
AcDbEntity
  8
細線
 48
6.0
100
AcDbMText
 10
5.495054403670366
 20
136.6115244515472
 30
0.0
 40
2.5
 41
8.577352534630135
 46
0.0
 71
     1
 72
     5
  1
B-01
  7
STYLE1
 11
0.0
 21
1.0
 31
0.0
 73
     1
 44
1.0
  0
LINE
  5
CF
330
A4
100
AcDbEntity
  8
枠線
 62
     8
 48
6.0
100
AcDbLine
 39
1.0
 10
21.10000000000002
 20
4.0
 30
0.0
 11
194.1
 21
4.0
 31
0.0
  0
LINE
  5
D0
330
A4
100
AcDbEntity
  8
枠線
 62
     8
 48
6.0
100
AcDbLine
 39
1.0
 10
21.10000000000002
 20
279.0
 30
0.0
 11
21.10000000000002
 21
4.0
 31
0.0
  0
LINE
  5
D1
330
A4
100
AcDbEntity
  8
枠線
 62
     8
 48
6.0
100
AcDbLine
 39
1.0
 10
194.1
 20
279.0
 30
0.0
 11
21.10000000000002
 21
279.0
 31
0.0
  0
LINE
  5
D2
330
A4
100
AcDbEntity
  8
枠線
 62
     8
 48
6.0
100
AcDbLine
 39
1.0
 10
194.1
 20
4.0
 30
0.0
 11
194.1
 21
279.0
 31
0.0
  0
LWPOLYLINE
  5
D3
330
A4
100
AcDbEntity
  8
細線
 48
6.0
100
AcDbPolyline
 90
        2
 70
     0
 43
0.0
 10
106.6
 20
50.16666666666669
 10
106.6
 20
50.16666666666669
  0
LINE
  5
D6
330
A4
100
AcDbEntity
  8
細線
 48
6.0
100
AcDbLine
 10
108.6
 20
0.0
 30
0.0
 11
108.6
 21
4.0
 31
0.0
  0
ARC
  5
D7
330
A4
100
AcDbEntity
  8
細線
 48
6.0
100
AcDbCircle
 10
21.10000000000002
 20
4.0
 30
0.0
 40
4.0
100
AcDbArc
 50
180.0
 51
270.0
  0
ARC
  5
D8
330
A4
100
AcDbEntity
  8
細線
 48
6.0
100
AcDbCircle
 10
194.1000000000001
 20
4.0
 30
0.0
 40
4.0
100
AcDbArc
 50
270.0
 51
0.0000000000000254
  0
ARC
  5
D9
330
A4
100
AcDbEntity
  8
細線
 48
6.0
100
AcDbCircle
 10
21.10000000000002
 20
279.0
 30
0.0
 40
4.0
100
AcDbArc
 50
90.0
 51
180.0
  0
ARC
  5
DA
330
A4
100
AcDbEntity
  8
細線
 48
6.0
100
AcDbCircle
 10
194.1
 20
279.0
 30
0.0
 40
4.0
100
AcDbArc
 50
0.0
 51
90.0
  0
LINE
  5
DB
330
A4
100
AcDbEntity
  8
細線
 48
6.0
100
AcDbLine
 10
21.10000000000002
 20
0.0
 30
0.0
 11
194.1000000000001
 21
0.0
 31
0.0
  0
LINE
  5
DC
330
A4
100
AcDbEntity
  8
細線
 48
6.0
100
AcDbLine
 10
17.10000000000002
 20
279.0
 30
0.0
 11
17.10000000000002
 21
4.0
 31
0.0
  0
LINE
  5
DD
330
A4
100
AcDbEntity
  8
細線
 48
6.0
100
AcDbLine
 10
194.1
 20
283.0
 30
0.0
 11
21.10000000000002
 21
283.0
 31
0.0
  0
LINE
  5
DE
330
A4
100
AcDbEntity
  8
細線
 48
6.0
100
AcDbLine
 10
198.1000000000001
 20
4.000000000000001
 30
0.0
 11
198.1
 21
279.0
 31
0.0
  0
LINE
  5
DF
330
A4
100
AcDbEntity
  8
細線
 48
6.0
100
AcDbLine
 10
21.10000000000002
 20
141.5
 30
0.0
 11
17.10000000000002
 21
141.5
 31
0.0
  0
LINE
  5
E0
330
A4
100
AcDbEntity
  8
細線
 48
6.0
100
AcDbLine
 10
4.100000000000022
 20
140.5
 30
0.0
 11
0.0000000000000213
 21
141.5
 31
0.0
  0
LINE
  5
E1
330
A4
100
AcDbEntity
  8
細線
 48
6.0
100
AcDbLine
 10
4.100000000000022
 20
142.5
 30
0.0
 11
4.100000000000022
 21
140.5
 31
0.0
  0
LINE
  5
E2
330
A4
100
AcDbEntity
  8
細線
 48
6.0
100
AcDbLine
 10
0.1000000000000227
 20
141.5
 30
0.0
 11
4.100000000000022
 21
142.5
 31
0.0
  0
POINT
  5
E3
330
A4
100
AcDbEntity
  8
細線
 48
6.0
100
AcDbPoint
 10
0.0000000000000142
 20
285.24
 30
0.0
  0
TEXT
  5
E4
330
A4
100
AcDbEntity
  8
細線
 48
6.0
100
AcDbText
 10
172.225
 20
0.75
 30
0.0
 40
2.0
  1
4
  7
STYLE1
100
AcDbText
  0
TEXT
  5
E5
330
A4
100
AcDbEntity
  8
細線
 48
6.0
100
AcDbText
 10
40.97500000000002
 20
0.75
 30
0.0
 40
2.0
  1
1
  7
STYLE1
100
AcDbText
  0
TEXT
  5
E6
330
A4
100
AcDbEntity
  8
細線
 48
6.0
100
AcDbText
 10
195.35
 20
25.10000000000002
 30
0.0
 40
2.0
  1
F
  7
STYLE1
100
AcDbText
  0
TEXT
  5
E7
330
A4
100
AcDbEntity
  8
細線
 48
6.0
100
AcDbText
 10
195.35
 20
71.26666666666671
 30
0.0
 40
2.0
  1
E
  7
STYLE1
100
AcDbText
  0
TEXT
  5
E8
330
A4
100
AcDbEntity
  8
細線
 48
6.0
100
AcDbText
 10
195.35
 20
117.4333333333333
 30
0.0
 40
2.0
  1
D
  7
STYLE1
100
AcDbText
  0
TEXT
  5
E9
330
A4
100
AcDbEntity
  8
細線
 48
6.0
100
AcDbText
 10
195.35
 20
163.5999999999999
 30
0.0
 40
2.0
  1
C
  7
STYLE1
100
AcDbText
  0
TEXT
  5
EA
330
A4
100
AcDbEntity
  8
細線
 48
6.0
100
AcDbText
 10
195.35
 20
209.7666666666667
 30
0.0
 40
2.0
  1
B
  7
STYLE1
100
AcDbText
  0
TEXT
  5
EB
330
A4
100
AcDbEntity
  8
細線
 48
6.0
100
AcDbText
 10
195.35
 20
255.9333333333333
 30
0.0
 40
2.0
  1
A
  7
STYLE1
100
AcDbText
  0
TEXT
  5
EC
330
A4
100
AcDbEntity
  8
細線
 48
6.0
100
AcDbText
 10
17.85000000000002
 20
25.10000000000002
 30
0.0
 40
2.0
  1
F
  7
STYLE1
100
AcDbText
  0
TEXT
  5
ED
330
A4
100
AcDbEntity
  8
細線
 48
6.0
100
AcDbText
 10
17.85000000000002
 20
71.26666666666671
 30
0.0
 40
2.0
  1
E
  7
STYLE1
100
AcDbText
  0
TEXT
  5
EE
330
A4
100
AcDbEntity
  8
細線
 48
6.0
100
AcDbText
 10
17.85000000000002
 20
117.4333333333333
 30
0.0
 40
2.0
  1
D
  7
STYLE1
100
AcDbText
  0
TEXT
  5
EF
330
A4
100
AcDbEntity
  8
細線
 48
6.0
100
AcDbText
 10
17.85000000000002
 20
163.5999999999999
 30
0.0
 40
2.0
  1
C
  7
STYLE1
100
AcDbText
  0
TEXT
  5
F0
330
A4
100
AcDbEntity
  8
細線
 48
6.0
100
AcDbText
 10
17.85000000000002
 20
209.7666666666667
 30
0.0
 40
2.0
  1
B
  7
STYLE1
100
AcDbText
  0
TEXT
  5
F1
330
A4
100
AcDbEntity
  8
細線
 48
6.0
100
AcDbText
 10
17.85000000000002
 20
255.9333333333333
 30
0.0
 40
2.0
  1
A
  7
STYLE1
100
AcDbText
  0
LINE
  5
F2
330
A4
100
AcDbEntity
  8
細線
 48
6.0
100
AcDbLine
 10
57.60000000000002
 20
2.5
 30
0.0
 11
157.6
 21
2.5
 31
0.0
  0
LINE
  5
F3
330
A4
100
AcDbEntity
  8
細線
 48
6.0
100
AcDbLine
 10
57.60000000000002
 20
2.500000000000056
 30
0.0
 11
57.60000000000002
 21
4.0
 31
0.0
  0
LINE
  5
F4
330
A4
100
AcDbEntity
  8
細線
 48
6.0
100
AcDbLine
 10
67.60000000000002
 20
2.500000000000056
 30
0.0
 11
67.60000000000002
 21
4.0
 31
0.0
  0
LINE
  5
F5
330
A4
100
AcDbEntity
  8
細線
 48
6.0
100
AcDbLine
 10
77.60000000000002
 20
2.500000000000056
 30
0.0
 11
77.60000000000002
 21
4.0
 31
0.0
  0
LINE
  5
F6
330
A4
100
AcDbEntity
  8
細線
 48
6.0
100
AcDbLine
 10
87.60000000000004
 20
2.500000000000056
 30
0.0
 11
87.60000000000004
 21
4.0
 31
0.0
  0
LINE
  5
F7
330
A4
100
AcDbEntity
  8
細線
 48
6.0
100
AcDbLine
 10
97.60000000000004
 20
2.500000000000056
 30
0.0
 11
97.60000000000004
 21
4.0
 31
0.0
  0
LINE
  5
F8
330
A4
100
AcDbEntity
  8
細線
 48
6.0
100
AcDbLine
 10
157.6
 20
2.500000000000056
 30
0.0
 11
157.6
 21
4.0
 31
0.0
  0
LINE
  5
F9
330
A4
100
AcDbEntity
  8
細線
 48
6.0
100
AcDbLine
 10
147.6
 20
2.500000000000056
 30
0.0
 11
147.6
 21
4.0
 31
0.0
  0
LINE
  5
FA
330
A4
100
AcDbEntity
  8
細線
 48
6.0
100
AcDbLine
 10
137.6
 20
2.500000000000056
 30
0.0
 11
137.6
 21
4.0
 31
0.0
  0
LINE
  5
FB
330
A4
100
AcDbEntity
  8
細線
 48
6.0
100
AcDbLine
 10
127.6
 20
2.500000000000056
 30
0.0
 11
127.6
 21
4.0
 31
0.0
  0
LINE
  5
FC
330
A4
100
AcDbEntity
  8
細線
 48
6.0
100
AcDbLine
 10
117.6
 20
2.500000000000056
 30
0.0
 11
117.6
 21
4.0
 31
0.0
  0
LINE
  5
FD
330
A4
100
AcDbEntity
  8
細線
 48
6.0
100
AcDbLine
 10
151.35
 20
0.0
 30
0.0
 11
151.35
 21
2.500000000000056
 31
0.0
  0
LINE
  5
FE
330
A4
100
AcDbEntity
  8
細線
 48
6.0
100
AcDbLine
 10
63.85000000000001
 20
0.0
 30
0.0
 11
63.85000000000001
 21
2.5
 31
0.0
  0
LINE
  5
FF
330
A4
100
AcDbEntity
  8
細線
 48
6.0
100
AcDbLine
 10
198.1
 20
49.16666666666665
 30
0.0
 11
194.1
 21
49.16666666666674
 31
0.0
  0
LINE
  5
100
330
A4
100
AcDbEntity
  8
細線
 48
6.0
100
AcDbLine
 10
198.1
 20
95.33333333333336
 30
0.0
 11
194.1
 21
95.33333333333341
 31
0.0
  0
LINE
  5
101
330
A4
100
AcDbEntity
  8
細線
 48
6.0
100
AcDbLine
 10
198.1
 20
141.4999999999999
 30
0.0
 11
194.1
 21
141.5
 31
0.0
  0
LINE
  5
102
330
A4
100
AcDbEntity
  8
細線
 48
6.0
100
AcDbLine
 10
198.1
 20
187.6666666666666
 30
0.0
 11
194.1
 21
187.6666666666667
 31
0.0
  0
LINE
  5
103
330
A4
100
AcDbEntity
  8
細線
 48
6.0
100
AcDbLine
 10
198.1
 20
233.8333333333333
 30
0.0
 11
194.1
 21
233.8333333333333
 31
0.0
  0
LINE
  5
104
330
A4
100
AcDbEntity
  8
細線
 48
6.0
100
AcDbLine
 10
21.10000000000002
 20
49.16666666666671
 30
0.0
 11
17.10000000000002
 21
49.16666666666671
 31
0.0
  0
LINE
  5
105
330
A4
100
AcDbEntity
  8
細線
 48
6.0
100
AcDbLine
 10
21.10000000000002
 20
95.33333333333336
 30
0.0
 11
17.10000000000002
 21
95.33333333333336
 31
0.0
  0
LINE
  5
106
330
A4
100
AcDbEntity
  8
細線
 48
6.0
100
AcDbLine
 10
21.10000000000002
 20
187.6666666666667
 30
0.0
 11
17.10000000000002
 21
187.6666666666667
 31
0.0
  0
LINE
  5
107
330
A4
100
AcDbEntity
  8
細線
 48
6.0
100
AcDbLine
 10
21.10000000000002
 20
233.8333333333334
 30
0.0
 11
17.10000000000002
 21
233.8333333333333
 31
0.0
  0
CIRCLE
  5
108
330
A4
100
AcDbEntity
  8
細線
 48
6.0
100
AcDbCircle
 10
7.600000000000022
 20
101.5
 30
0.0
 40
2.75
  0
CIRCLE
  5
109
330
A4
100
AcDbEntity
  8
細線
 48
6.0
100
AcDbCircle
 10
7.600000000000022
 20
181.4999999999999
 30
0.0
 40
2.75
  0
ENDBLK
  5
10B
330
A4
100
AcDbEntity
  8
0
100
AcDbBlockEnd
  0
BLOCK
  5
19F
330
19E
100
AcDbEntity
  8
0
100
AcDbBlockBegin
  2
_OPEN
 70
     0
 10
0.0
 20
0.0
 30
0.0
  3
_OPEN
  1
waku.dwg
  0
LINE
  5
1A0
330
19E
100
AcDbEntity
  8
0
  6
ByBlock
 62
     0
100
AcDbLine
 10
-1.0
 20
0.1666666666666666
 30
0.0
 11
0.0
 21
0.0
 31
0.0
  0
LINE
  5
1A1
330
19E
100
AcDbEntity
  8
0
  6
ByBlock
 62
     0
100
AcDbLine
 10
0.0
 20
0.0
 30
0.0
 11
-1.0
 21
-0.1666666666666666
 31
0.0
  0
LINE
  5
1A2
330
19E
100
AcDbEntity
  8
0
  6
ByBlock
 62
     0
100
AcDbLine
 10
0.0
 20
0.0
 30
0.0
 11
-1.0
 21
0.0
 31
0.0
  0
ENDBLK
  5
1A3
330
19E
100
AcDbEntity
  8
0
100
AcDbBlockEnd
  0
BLOCK
  5
10DA
330
393
100
AcDbEntity
  8
0
 48
6.0
100
AcDbBlockBegin
  2
_Dot
 70
     0
 10
0.0
 20
0.0
 30
0.0
  3
_Dot
  1

  0
LWPOLYLINE
  5
10DC
330
393
100
AcDbEntity
  8
寸法線
 62
     0
100
AcDbPolyline
 90
        2
 70
     1
 43
0.5
 10
-0.25
 20
0.0
 42
1.0
 10
0.25
 20
0.0
 42
1.0
  0
LINE
  5
10DF
330
393
100
AcDbEntity
  8
寸法線
 62
     0
370
    -2
100
AcDbLine
 10
-0.5
 20
0.0
 30
0.0
 11
-1.0
 21
0.0
 31
0.0
  0
ENDBLK
  5
10E0
330
393
100
AcDbEntity
  8
0
 48
6.0
100
AcDbBlockEnd
  0
BLOCK
  5
5C5
330
5BB
100
AcDbEntity
  8
0
 48
6.0
100
AcDbBlockBegin
  2
*D7
 70
     1
 10
0.0
 20
0.0
 30
0.0
  3
*D7
  1

  0
LINE
  5
69A
330
5BB
100
AcDbEntity
  8
DIM
 62
     0
370
    -2
100
AcDbLine
 10
86.70496715471762
 20
118.0402969019438
 30
0.0
 11
86.70496715471762
 21
99.44029690194395
 31
0.0
  0
LINE
  5
69B
330
5BB
100
AcDbEntity
  8
DIM
 62
     0
370
    -2
100
AcDbLine
 10
96.70496715471756
 20
118.0402969019437
 30
0.0
 11
96.70496715471756
 21
99.44029690194395
 31
0.0
  0
LINE
  5
69C
330
5BB
100
AcDbEntity
  8
DIM
 62
     0
370
    -2
100
AcDbLine
 10
87.70496715471762
 20
99.44029690194395
 30
0.0
 11
95.70496715471756
 21
99.44029690194395
 31
0.0
  0
INSERT
  5
69D
330
5BB
100
AcDbEntity
  8
DIM
 62
     0
370
    -2
100
AcDbBlockReference
  2
_Dot
 10
86.70496715471762
 20
99.44029690194395
 30
0.0
 50
180.0
  0
INSERT
  5
69E
330
5BB
100
AcDbEntity
  8
DIM
 62
     0
370
    -2
100
AcDbBlockReference
  2
_Dot
 10
96.70496715471756
 20
99.44029690194395
 30
0.0
  0
MTEXT
  5
69F
330
5BB
100
AcDbEntity
  8
DIM
 62
     0
 48
6.0
100
AcDbMText
 10
91.7049671547176
 20
101.815296901944
 30
0.0
 40
2.75
 41
0.0
 46
0.0
 71
     5
 72
     1
  1
\A1;10
  7
ＭＳ ゴシック
 73
     1
 44
1.0
  0
POINT
  5
6A0
330
5BB
100
AcDbEntity
  8
DEFPOINTS
 62
     0
100
AcDbPoint
 10
86.70496715471762
 20
120.0402969019438
 30
0.0
  0
POINT
  5
6A1
330
5BB
100
AcDbEntity
  8
DEFPOINTS
 62
     0
100
AcDbPoint
 10
96.70496715471756
 20
120.0402969019437
 30
0.0
  0
POINT
  5
6A2
330
5BB
100
AcDbEntity
  8
DEFPOINTS
 62
     0
100
AcDbPoint
 10
96.70496715471756
 20
99.44029690194395
 30
0.0
  0
ENDBLK
  5
5C6
330
5BB
100
AcDbEntity
  8
0
 48
6.0
100
AcDbBlockEnd
  0
BLOCK
  5
608
330
5FE
100
AcDbEntity
  8
0
 48
6.0
100
AcDbBlockBegin
  2
*D8
 70
     1
 10
0.0
 20
0.0
 30
0.0
  3
*D8
  1

  0
LINE
  5
6A3
330
5FE
100
AcDbEntity
  8
DIM
 62
     0
 48
6.0
370
    -2
100
AcDbLine
 10
99.40496715471757
 20
121.4402969019438
 30
0.0
 11
107.9049671547176
 21
121.4402969019438
 31
0.0
  0
LINE
  5
6A4
330
5FE
100
AcDbEntity
  8
DIM
 62
     0
 48
6.0
370
    -2
100
AcDbLine
 10
93.70542030718366
 20
132.4402969019438
 30
0.0
 11
107.9049671547176
 21
132.4402969019438
 31
0.0
  0
LINE
  5
6A5
330
5FE
100
AcDbEntity
  8
DIM
 62
     0
 48
6.0
370
    -2
100
AcDbLine
 10
107.9049671547176
 20
122.4402969019438
 30
0.0
 11
107.9049671547176
 21
131.4402969019438
 31
0.0
  0
INSERT
  5
6A6
330
5FE
100
AcDbEntity
  8
DIM
 62
     0
370
    -2
100
AcDbBlockReference
  2
_Dot
 10
107.9049671547176
 20
121.4402969019438
 30
0.0
 50
270.0
  0
INSERT
  5
6A7
330
5FE
100
AcDbEntity
  8
DIM
 62
     0
370
    -2
100
AcDbBlockReference
  2
_Dot
 10
107.9049671547176
 20
132.4402969019438
 30
0.0
 50
90.0
  0
MTEXT
  5
6A8
330
5FE
100
AcDbEntity
  8
DIM
 62
     0
 48
6.0
100
AcDbMText
 10
105.5299671547176
 20
126.9402969019438
 30
0.0
 40
2.75
 41
0.0
 46
0.0
 71
     5
 72
     1
  1
\A1;11
  7
ＭＳ ゴシック
 11
0.0
 21
1.0
 31
0.0
 73
     1
 44
1.0
  0
POINT
  5
6A9
330
5FE
100
AcDbEntity
  8
DEFPOINTS
 62
     0
100
AcDbPoint
 10
97.40496715471757
 20
121.4402969019438
 30
0.0
  0
POINT
  5
6AA
330
5FE
100
AcDbEntity
  8
DEFPOINTS
 62
     0
100
AcDbPoint
 10
91.70542030718366
 20
132.4402969019438
 30
0.0
  0
POINT
  5
6AB
330
5FE
100
AcDbEntity
  8
DEFPOINTS
 62
     0
100
AcDbPoint
 10
107.9049671547176
 20
132.4402969019438
 30
0.0
  0
ENDBLK
  5
609
330
5FE
100
AcDbEntity
  8
0
 48
6.0
100
AcDbBlockEnd
  0
BLOCK
  5
631
330
627
100
AcDbEntity
  8
0
 48
6.0
100
AcDbBlockBegin
  2
*D9
 70
     1
 10
0.0
 20
0.0
 30
0.0
  3
*D9
  1

  0
LINE
  5
676
330
627
100
AcDbEntity
  8
DIM
 62
     0
 48
6.0
370
    -2
100
AcDbLine
 10
207.7844556201136
 20
107.440296901944
 30
0.0
 11
207.7844556201136
 21
99.44029690194395
 31
0.0
  0
LINE
  5
677
330
627
100
AcDbEntity
  8
DIM
 62
     0
 48
6.0
370
    -2
100
AcDbLine
 10
127.7844556201136
 20
107.440296901944
 30
0.0
 11
127.7844556201136
 21
99.44029690194395
 31
0.0
  0
LINE
  5
678
330
627
100
AcDbEntity
  8
DIM
 62
     0
 48
6.0
370
    -2
100
AcDbLine
 10
206.7844556201136
 20
99.44029690194395
 30
0.0
 11
128.7844556201136
 21
99.44029690194395
 31
0.0
  0
INSERT
  5
679
330
627
100
AcDbEntity
  8
DIM
 62
     0
370
    -2
100
AcDbBlockReference
  2
_Dot
 10
207.7844556201136
 20
99.44029690194395
 30
0.0
  0
INSERT
  5
67A
330
627
100
AcDbEntity
  8
DIM
 62
     0
370
    -2
100
AcDbBlockReference
  2
_Dot
 10
127.7844556201136
 20
99.44029690194395
 30
0.0
 50
180.0
  0
MTEXT
  5
67B
330
627
100
AcDbEntity
  8
DIM
 62
     0
 48
6.0
100
AcDbMText
 10
167.7844556201136
 20
101.815296901944
 30
0.0
 40
2.75
 41
0.0
 46
0.0
 71
     5
 72
     1
  1
\A1;2500
  7
ＭＳ ゴシック
 73
     1
 44
1.0
  0
POINT
  5
67C
330
627
100
AcDbEntity
  8
DEFPOINTS
 62
     0
100
AcDbPoint
 10
207.7844556201136
 20
109.440296901944
 30
0.0
  0
POINT
  5
67D
330
627
100
AcDbEntity
  8
DEFPOINTS
 62
     0
100
AcDbPoint
 10
127.7844556201136
 20
109.440296901944
 30
0.0
  0
POINT
  5
67E
330
627
100
AcDbEntity
  8
DEFPOINTS
 62
     0
100
AcDbPoint
 10
127.7844556201136
 20
99.44029690194395
 30
0.0
  0
ENDBLK
  5
632
330
627
100
AcDbEntity
  8
0
 48
6.0
100
AcDbBlockEnd
  0
BLOCK
  5
7E9
330
7E8
100
AcDbEntity
  8
0
100
AcDbBlockBegin
  2
名称未設定-1
 70
     0
 10
0.0
 20
0.0
 30
0.0
  3
名称未設定-1
  1
名称未設定-1
  0
INSERT
  5
7EA
330
7E8
100
AcDbEntity
  8
TFORMLOGO
100
AcDbBlockReference
  2
block 2
 10
0.0
 20
0.0
 30
0.0
  0
ENDBLK
  5
80F
330
7E8
100
AcDbEntity
  8
0
100
AcDbBlockEnd
  0
BLOCK
  5
7EC
330
7EB
100
AcDbEntity
  8
0
100
AcDbBlockBegin
  2
block 2
 70
     0
 10
0.0
 20
0.0
 30
0.0
  3
block 2
  1
block 2
  0
INSERT
  5
7ED
330
7EB
100
AcDbEntity
  8
TFORMLOGO
100
AcDbBlockReference
  2
block 3
 10
0.0
 20
0.0
 30
0.0
  0
ENDBLK
  5
80E
330
7EB
100
AcDbEntity
  8
0
100
AcDbBlockEnd
  0
BLOCK
  5
7EF
330
7EE
100
AcDbEntity
  8
0
100
AcDbBlockBegin
  2
block 3
 70
     0
 10
0.0
 20
0.0
 30
0.0
  3
block 3
  1
block 3
  0
INSERT
  5
7F0
330
7EE
100
AcDbEntity
  8
レイヤー 1
100
AcDbBlockReference
  2
block 4
 10
0.0
 20
0.0
 30
0.0
  0
ENDBLK
  5
80D
330
7EE
100
AcDbEntity
  8
0
100
AcDbBlockEnd
  0
BLOCK
  5
7F2
330
7F1
100
AcDbEntity
  8
0
100
AcDbBlockBegin
  2
block 4
 70
     0
 10
0.0
 20
0.0
 30
0.0
  3
block 4
  1
block 4
  0
POLYLINE
  5
7F3
330
7F1
100
AcDbEntity
  8
レイヤー 1
370
     0
100
AcDb2dPolyline
 66
     1
 10
0.0
 20
0.0
 30
0.0
  0
VERTEX
  5
7F4
330
7F3
100
AcDbEntity
  8
レイヤー 1
370
     0
100
AcDbVertex
100
AcDb2dVertex
 10
83.79545727667795
 20
167.6444858234922
 30
0.0
  0
VERTEX
  5
7F5
330
7F3
100
AcDbEntity
  8
レイヤー 1
370
     0
100
AcDbVertex
100
AcDb2dVertex
 10
83.79545727667795
 20
159.7968976406313
 30
0.0
  0
VERTEX
  5
7F6
330
7F3
100
AcDbEntity
  8
レイヤー 1
370
     0
100
AcDbVertex
100
AcDb2dVertex
 10
71.3631329975216
 20
159.7968976406313
 30
0.0
  0
VERTEX
  5
7F7
330
7F3
100
AcDbEntity
  8
レイヤー 1
370
     0
100
AcDbVertex
100
AcDb2dVertex
 10
71.3631329975216
 20
127.8027915271048
 30
0.0
  0
VERTEX
  5
7F8
330
7F3
100
AcDbEntity
  8
レイヤー 1
370
     0
100
AcDbVertex
100
AcDb2dVertex
 10
60.43011526263018
 20
127.8027915271048
 30
0.0
  0
VERTEX
  5
7F9
330
7F3
100
AcDbEntity
  8
レイヤー 1
370
     0
100
AcDbVertex
100
AcDb2dVertex
 10
60.43011526263018
 20
159.7968976406313
 30
0.0
  0
VERTEX
  5
7FA
330
7F3
100
AcDbEntity
  8
レイヤー 1
370
     0
100
AcDbVertex
100
AcDb2dVertex
 10
48.21793273020759
 20
159.7968976406313
 30
0.0
  0
VERTEX
  5
7FB
330
7F3
100
AcDbEntity
  8
レイヤー 1
370
     0
100
AcDbVertex
100
AcDb2dVertex
 10
48.21793273020759
 20
167.6444858234922
 30
0.0
  0
VERTEX
  5
7FC
330
7F3
100
AcDbEntity
  8
レイヤー 1
370
     0
100
AcDbVertex
100
AcDb2dVertex
 10
83.79545727667795
 20
167.6444858234922
 30
0.0
  0
SEQEND
  5
7FD
330
7F3
100
AcDbEntity
  8
レイヤー 1
370
     0
  0
HATCH
  5
7FE
330
7F1
100
AcDbEntity
  8
レイヤー 1
 62
   250
100
AcDbHatch
 10
0.0
 20
0.0
 30
0.0
210
0.0
220
0.0
230
1.0
  2
SOLID
 70
     1
 71
     0
 91
        1
 92
        1
 93
        8
 72
     1
 10
83.79545727667795
 20
167.6444858234922
 11
83.79545727667795
 21
159.7968976406313
 72
     1
 10
83.79545727667795
 20
159.7968976406313
 11
71.3631329975216
 21
159.7968976406313
 72
     1
 10
71.3631329975216
 20
159.7968976406313
 11
71.3631329975216
 21
127.8027915271048
 72
     1
 10
71.3631329975216
 20
127.8027915271048
 11
60.43011526263018
 21
127.8027915271048
 72
     1
 10
60.43011526263018
 20
127.8027915271048
 11
60.43011526263018
 21
159.7968976406313
 72
     1
 10
60.43011526263018
 20
159.7968976406313
 11
48.21793273020759
 21
159.7968976406313
 72
     1
 10
48.21793273020759
 20
159.7968976406313
 11
48.21793273020759
 21
167.6444858234922
 72
     1
 10
48.21793273020759
 20
167.6444858234922
 11
83.79545727667795
 21
167.6444858234922
 97
        0
 75
     2
 76
     1
 98
        0
  0
INSERT
  5
7FF
330
7F1
100
AcDbEntity
  8
レイヤー 1
100
AcDbBlockReference
  2
block 5
 10
0.0
 20
0.0
 30
0.0
  0
ENDBLK
  5
80C
330
7F1
100
AcDbEntity
  8
0
100
AcDbBlockEnd
  0
BLOCK
  5
801
330
800
100
AcDbEntity
  8
0
100
AcDbBlockBegin
  2
block 5
 70
     0
 10
0.0
 20
0.0
 30
0.0
  3
block 5
  1
block 5
  0
SPLINE
  5
802
330
800
100
AcDbEntity
  8
レイヤー 1
370
     0
100
AcDbSpline
210
0.0
220
0.0
230
1.0
 70
    11
 71
     3
 72
    56
 73
    52
 74
     0
 42
0.000000001
 43
0.0000000001
 40
0.0
 40
0.0
 40
0.0
 40
0.0
 40
1.0
 40
1.0
 40
1.0
 40
2.0
 40
2.0
 40
2.0
 40
3.0
 40
3.0
 40
3.0
 40
4.0
 40
4.0
 40
4.0
 40
5.0
 40
5.0
 40
5.0
 40
6.0
 40
6.0
 40
6.0
 40
7.0
 40
7.0
 40
7.0
 40
8.0
 40
8.0
 40
8.0
 40
9.0
 40
9.0
 40
9.0
 40
10.0
 40
10.0
 40
10.0
 40
11.0
 40
11.0
 40
11.0
 40
12.0
 40
12.0
 40
12.0
 40
13.0
 40
13.0
 40
13.0
 40
14.0
 40
14.0
 40
14.0
 40
15.0
 40
15.0
 40
15.0
 40
16.0
 40
16.0
 40
16.0
 40
17.0
 40
17.0
 40
17.0
 40
17.0
 10
100.4504378777679
 20
166.69157178364
 30
0.0
 10
101.9848844191641
 20
167.1313385124438
 30
0.0
 10
103.9637485713373
 20
166.7649523658846
 30
0.0
 10
103.9637485713373
 20
166.7649523658846
 30
0.0
 10
103.9637485713373
 20
166.7649523658846
 30
0.0
 10
103.0132460999156
 20
163.911205638077
 30
0.0
 10
103.0132460999156
 20
163.911205638077
 30
0.0
 10
103.0132460999156
 20
163.911205638077
 30
0.0
 10
101.0674548862189
 20
164.3601018759394
 30
0.0
 10
99.57090442016032
 20
163.1805004036133
 30
0.0
 10
98.40508333886608
 20
162.258247733807
 30
0.0
 10
97.65301849830304
 20
159.804132345923
 30
0.0
 10
97.3598406791005
 20
158.8699940888517
 30
0.0
 10
97.3598406791005
 20
158.8699940888517
 30
0.0
 10
96.07137411762282
 20
154.9119212747295
 30
0.0
 10
96.07137411762282
 20
154.9119212747295
 30
0.0
 10
96.07137411762282
 20
154.9119212747295
 30
0.0
 10
100.3012651448482
 20
154.9119212747295
 30
0.0
 10
100.3012651448482
 20
154.9119212747295
 30
0.0
 10
100.3012651448482
 20
154.9119212747295
 30
0.0
 10
99.64152892419852
 20
152.4199098115079
 30
0.0
 10
99.64152892419852
 20
152.4199098115079
 30
0.0
 10
99.64152892419852
 20
152.4199098115079
 30
0.0
 10
95.38097652692731
 20
152.4199098115079
 30
0.0
 10
95.38097652692731
 20
152.4199098115079
 30
0.0
 10
95.38097652692731
 20
152.4199098115079
 30
0.0
 10
87.75353009080013
 20
127.8027915271048
 30
0.0
 10
87.75353009080013
 20
127.8027915271048
 30
0.0
 10
87.75353009080013
 20
127.8027915271048
 30
0.0
 10
85.36538832498108
 20
127.8027915271048
 30
0.0
 10
85.36538832498108
 20
127.8027915271048
 30
0.0
 10
85.36538832498108
 20
127.8027915271048
 30
0.0
 10
93.00006946639998
 20
152.4199098115079
 30
0.0
 10
93.00006946639998
 20
152.4199098115079
 30
0.0
 10
93.00006946639998
 20
152.4199098115079
 30
0.0
 10
89.85297266450198
 20
152.4199098115079
 30
0.0
 10
89.85297266450198
 20
152.4199098115079
 30
0.0
 10
89.85297266450198
 20
152.4199098115079
 30
0.0
 10
90.51270888515164
 20
154.9119212747295
 30
0.0
 10
90.51270888515164
 20
154.9119212747295
 30
0.0
 10
90.51270888515164
 20
154.9119212747295
 30
0.0
 10
93.6904670570955
 20
154.9119212747295
 30
0.0
 10
93.6904670570955
 20
154.9119212747295
 30
0.0
 10
93.6904670570955
 20
154.9119212747295
 30
0.0
 10
94.81598049462158
 20
158.3616699146644
 30
0.0
 10
94.81598049462158
 20
158.3616699146644
 30
0.0
 10
95.7237637538445
 20
161.2605474231013
 30
0.0
 10
96.4968436907311
 20
162.8139420021662
 30
0.0
 10
97.15657991138076
 20
163.9844139654337
 30
0.0
 10
97.81183750494507
 20
165.1523021053827
 30
0.0
 10
99.1047826935081
 20
166.3084769129547
 30
0.0
 10
100.4504378777679
 20
166.69157178364
 30
0.0
  0
HATCH
  5
803
330
800
100
AcDbEntity
  8
レイヤー 1
 62
   250
100
AcDbHatch
 10
0.0
 20
0.0
 30
0.0
210
0.0
220
0.0
230
1.0
  2
SOLID
 70
     1
 71
     0
 91
        1
 92
        1
 93
        1
 72
     4
 94
        3
 73
     0
 74
     1
 95
       56
 96
       52
 40
0.0
 40
0.0
 40
0.0
 40
0.0
 40
1.0
 40
1.0
 40
1.0
 40
2.0
 40
2.0
 40
2.0
 40
3.0
 40
3.0
 40
3.0
 40
4.0
 40
4.0
 40
4.0
 40
5.0
 40
5.0
 40
5.0
 40
6.0
 40
6.0
 40
6.0
 40
7.0
 40
7.0
 40
7.0
 40
8.0
 40
8.0
 40
8.0
 40
9.0
 40
9.0
 40
9.0
 40
10.0
 40
10.0
 40
10.0
 40
11.0
 40
11.0
 40
11.0
 40
12.0
 40
12.0
 40
12.0
 40
13.0
 40
13.0
 40
13.0
 40
14.0
 40
14.0
 40
14.0
 40
15.0
 40
15.0
 40
15.0
 40
16.0
 40
16.0
 40
16.0
 40
17.0
 40
17.0
 40
17.0
 40
17.0
 10
100.4504378777679
 20
166.69157178364
 10
101.9848844191641
 20
167.1313385124438
 10
103.9637485713373
 20
166.7649523658846
 10
103.9637485713373
 20
166.7649523658846
 10
103.9637485713373
 20
166.7649523658846
 10
103.0132460999156
 20
163.911205638077
 10
103.0132460999156
 20
163.911205638077
 10
103.0132460999156
 20
163.911205638077
 10
101.0674548862189
 20
164.3601018759394
 10
99.57090442016032
 20
163.1805004036133
 10
98.40508333886608
 20
162.258247733807
 10
97.65301849830304
 20
159.804132345923
 10
97.3598406791005
 20
158.8699940888517
 10
97.3598406791005
 20
158.8699940888517
 10
96.07137411762282
 20
154.9119212747295
 10
96.07137411762282
 20
154.9119212747295
 10
96.07137411762282
 20
154.9119212747295
 10
100.3012651448482
 20
154.9119212747295
 10
100.3012651448482
 20
154.9119212747295
 10
100.3012651448482
 20
154.9119212747295
 10
99.64152892419852
 20
152.4199098115079
 10
99.64152892419852
 20
152.4199098115079
 10
99.64152892419852
 20
152.4199098115079
 10
95.38097652692731
 20
152.4199098115079
 10
95.38097652692731
 20
152.4199098115079
 10
95.38097652692731
 20
152.4199098115079
 10
87.75353009080013
 20
127.8027915271048
 10
87.75353009080013
 20
127.8027915271048
 10
87.75353009080013
 20
127.8027915271048
 10
85.36538832498108
 20
127.8027915271048
 10
85.36538832498108
 20
127.8027915271048
 10
85.36538832498108
 20
127.8027915271048
 10
93.00006946639998
 20
152.4199098115079
 10
93.00006946639998
 20
152.4199098115079
 10
93.00006946639998
 20
152.4199098115079
 10
89.85297266450198
 20
152.4199098115079
 10
89.85297266450198
 20
152.4199098115079
 10
89.85297266450198
 20
152.4199098115079
 10
90.51270888515164
 20
154.9119212747295
 10
90.51270888515164
 20
154.9119212747295
 10
90.51270888515164
 20
154.9119212747295
 10
93.6904670570955
 20
154.9119212747295
 10
93.6904670570955
 20
154.9119212747295
 10
93.6904670570955
 20
154.9119212747295
 10
94.81598049462158
 20
158.3616699146644
 10
94.81598049462158
 20
158.3616699146644
 10
95.7237637538445
 20
161.2605474231013
 10
96.4968436907311
 20
162.8139420021662
 10
97.15657991138076
 20
163.9844139654337
 10
97.81183750494507
 20
165.1523021053827
 10
99.1047826935081
 20
166.3084769129547
 10
100.4504378777679
 20
166.69157178364
 97
        0
 75
     2
 76
     1
 98
        0
  0
SPLINE
  5
804
330
800
100
AcDbEntity
  8
レイヤー 1
370
     0
100
AcDbSpline
210
0.0
220
0.0
230
1.0
 70
    11
 71
     3
 72
    38
 73
    34
 74
     0
 42
0.000000001
 43
0.0000000001
 40
0.0
 40
0.0
 40
0.0
 40
0.0
 40
1.0
 40
1.0
 40
1.0
 40
2.0
 40
2.0
 40
2.0
 40
3.0
 40
3.0
 40
3.0
 40
4.0
 40
4.0
 40
4.0
 40
5.0
 40
5.0
 40
5.0
 40
6.0
 40
6.0
 40
6.0
 40
7.0
 40
7.0
 40
7.0
 40
8.0
 40
8.0
 40
8.0
 40
9.0
 40
9.0
 40
9.0
 40
10.0
 40
10.0
 40
10.0
 40
11.0
 40
11.0
 40
11.0
 40
11.0
 10
126.377554584636
 20
154.8151140277308
 30
0.0
 10
126.377554584636
 20
154.8151140277308
 30
0.0
 10
128.8311532078563
 20
154.8151140277308
 30
0.0
 10
128.8311532078563
 20
154.8151140277308
 30
0.0
 10
128.8311532078563
 20
154.8151140277308
 30
0.0
 10
127.7345785914971
 20
151.3062819612468
 30
0.0
 10
127.7345785914971
 20
151.3062819612468
 30
0.0
 10
128.571392836906
 20
152.2922689395754
 30
0.0
 10
129.8860421413442
 20
153.604506675583
 30
0.0
 10
131.0163787157314
 20
154.2664822097754
 30
0.0
 10
132.7044766171327
 20
155.2500576196734
 30
0.0
 10
133.6642808525008
 20
155.3847609420097
 30
0.0
 10
134.7284715499351
 20
155.3565111403944
 30
0.0
 10
134.7284715499351
 20
155.3565111403944
 30
0.0
 10
133.6877075172549
 20
152.0345756272799
 30
0.0
 10
133.6877075172549
 20
152.0345756272799
 30
0.0
 10
133.011434827367
 20
152.3184516825359
 30
0.0
 10
130.930940291334
 20
151.7768823149844
 30
0.0
 10
129.739280976855
 20
150.9162968950455
 30
0.0
 10
128.66613302525
 20
150.1454562717016
 30
0.0
 10
127.9192358313239
 20
149.4857200510519
 30
0.0
 10
127.0393578639405
 20
147.8282835196966
 30
0.0
 10
126.164647543194
 20
146.1699857139017
 30
0.0
 10
125.4742499524985
 20
143.5262176944419
 30
0.0
 10
124.2822461282437
 20
139.6959580071401
 30
0.0
 10
124.2822461282437
 20
139.6959580071401
 30
0.0
 10
120.5753209406769
 20
127.8027915271048
 30
0.0
 10
120.5753209406769
 20
127.8027915271048
 30
0.0
 10
120.5753209406769
 20
127.8027915271048
 30
0.0
 10
118.1964809388044
 20
127.8027915271048
 30
0.0
 10
118.1964809388044
 20
127.8027915271048
 30
0.0
 10
118.1964809388044
 20
127.8027915271048
 30
0.0
 10
126.377554584636
 20
154.8151140277308
 30
0.0
 10
126.377554584636
 20
154.8151140277308
 30
0.0
  0
HATCH
  5
805
330
800
100
AcDbEntity
  8
レイヤー 1
 62
   250
100
AcDbHatch
 10
0.0
 20
0.0
 30
0.0
210
0.0
220
0.0
230
1.0
  2
SOLID
 70
     1
 71
     0
 91
        1
 92
        1
 93
        1
 72
     4
 94
        3
 73
     0
 74
     1
 95
       38
 96
       34
 40
0.0
 40
0.0
 40
0.0
 40
0.0
 40
1.0
 40
1.0
 40
1.0
 40
2.0
 40
2.0
 40
2.0
 40
3.0
 40
3.0
 40
3.0
 40
4.0
 40
4.0
 40
4.0
 40
5.0
 40
5.0
 40
5.0
 40
6.0
 40
6.0
 40
6.0
 40
7.0
 40
7.0
 40
7.0
 40
8.0
 40
8.0
 40
8.0
 40
9.0
 40
9.0
 40
9.0
 40
10.0
 40
10.0
 40
10.0
 40
11.0
 40
11.0
 40
11.0
 40
11.0
 10
126.377554584636
 20
154.8151140277308
 10
126.377554584636
 20
154.8151140277308
 10
128.8311532078563
 20
154.8151140277308
 10
128.8311532078563
 20
154.8151140277308
 10
128.8311532078563
 20
154.8151140277308
 10
127.7345785914971
 20
151.3062819612468
 10
127.7345785914971
 20
151.3062819612468
 10
128.571392836906
 20
152.2922689395754
 10
129.8860421413442
 20
153.604506675583
 10
131.0163787157314
 20
154.2664822097754
 10
132.7044766171327
 20
155.2500576196734
 10
133.6642808525008
 20
155.3847609420097
 10
134.7284715499351
 20
155.3565111403944
 10
134.7284715499351
 20
155.3565111403944
 10
133.6877075172549
 20
152.0345756272799
 10
133.6877075172549
 20
152.0345756272799
 10
133.011434827367
 20
152.3184516825359
 10
130.930940291334
 20
151.7768823149844
 10
129.739280976855
 20
150.9162968950455
 10
128.66613302525
 20
150.1454562717016
 10
127.9192358313239
 20
149.4857200510519
 10
127.0393578639405
 20
147.8282835196966
 10
126.164647543194
 20
146.1699857139017
 10
125.4742499524985
 20
143.5262176944419
 10
124.2822461282437
 20
139.6959580071401
 10
124.2822461282437
 20
139.6959580071401
 10
120.5753209406769
 20
127.8027915271048
 10
120.5753209406769
 20
127.8027915271048
 10
120.5753209406769
 20
127.8027915271048
 10
118.1964809388044
 20
127.8027915271048
 10
118.1964809388044
 20
127.8027915271048
 10
118.1964809388044
 20
127.8027915271048
 10
126.377554584636
 20
154.8151140277308
 10
126.377554584636
 20
154.8151140277308
 97
        0
 75
     2
 76
     1
 98
        0
  0
SPLINE
  5
806
330
800
100
AcDbEntity
  8
レイヤー 1
370
     0
100
AcDbSpline
210
0.0
220
0.0
230
1.0
 70
    11
 71
     3
 72
   104
 73
   100
 74
     0
 42
0.000000001
 43
0.0000000001
 40
0.0
 40
0.0
 40
0.0
 40
0.0
 40
1.0
 40
1.0
 40
1.0
 40
2.0
 40
2.0
 40
2.0
 40
3.0
 40
3.0
 40
3.0
 40
4.0
 40
4.0
 40
4.0
 40
5.0
 40
5.0
 40
5.0
 40
6.0
 40
6.0
 40
6.0
 40
7.0
 40
7.0
 40
7.0
 40
8.0
 40
8.0
 40
8.0
 40
9.0
 40
9.0
 40
9.0
 40
10.0
 40
10.0
 40
10.0
 40
11.0
 40
11.0
 40
11.0
 40
12.0
 40
12.0
 40
12.0
 40
13.0
 40
13.0
 40
13.0
 40
14.0
 40
14.0
 40
14.0
 40
15.0
 40
15.0
 40
15.0
 40
16.0
 40
16.0
 40
16.0
 40
17.0
 40
17.0
 40
17.0
 40
18.0
 40
18.0
 40
18.0
 40
19.0
 40
19.0
 40
19.0
 40
20.0
 40
20.0
 40
20.0
 40
21.0
 40
21.0
 40
21.0
 40
22.0
 40
22.0
 40
22.0
 40
23.0
 40
23.0
 40
23.0
 40
24.0
 40
24.0
 40
24.0
 40
25.0
 40
25.0
 40
25.0
 40
26.0
 40
26.0
 40
26.0
 40
27.0
 40
27.0
 40
27.0
 40
28.0
 40
28.0
 40
28.0
 40
29.0
 40
29.0
 40
29.0
 40
30.0
 40
30.0
 40
30.0
 40
31.0
 40
31.0
 40
31.0
 40
32.0
 40
32.0
 40
32.0
 40
33.0
 40
33.0
 40
33.0
 40
33.0
 10
139.8926730891197
 20
154.8294111834263
 30
0.0
 10
139.8926730891197
 20
154.8294111834263
 30
0.0
 10
142.0344903652445
 20
154.8294111834263
 30
0.0
 10
142.0344903652445
 20
154.8294111834263
 30
0.0
 10
142.0344903652445
 20
154.8294111834263
 30
0.0
 10
140.9516961399171
 20
151.3157559800812
 30
0.0
 10
140.9516961399171
 20
151.3157559800812
 30
0.0
 10
141.8928968473923
 20
152.7887075264977
 30
0.0
 10
142.7341897198865
 20
153.4484437471474
 30
0.0
 10
143.8552245303272
 20
154.2926649527359
 30
0.0
 10
144.9803934580775
 20
155.1296514530327
 30
0.0
 10
146.3139908001845
 20
155.3044901642492
 30
0.0
 10
147.241066606852
 20
155.3044901642492
 30
0.0
 10
148.3855280820469
 20
155.3044901642492
 30
0.0
 10
149.4969166187653
 20
155.0752189084569
 30
0.0
 10
150.0784491203092
 20
153.8172414621372
 30
0.0
 10
150.5228667310863
 20
152.833838307127
 30
0.0
 10
150.5414702589793
 20
152.7201500811143
 30
0.0
 10
150.4140016419347
 20
150.7765981809602
 30
0.0
 10
151.5818897818837
 20
152.7699317437168
 30
0.0
 10
152.4424752018226
 20
153.6256940267945
 30
0.0
 10
153.9038856707499
 20
154.4507949398263
 30
0.0
 10
155.4455669174378
 20
155.3044901642492
 30
0.0
 10
156.339225275853
 20
155.3659851592288
 30
0.0
 10
157.3748216618963
 20
155.2147453676543
 30
0.0
 10
158.911679771723
 20
154.9877134254046
 30
0.0
 10
159.8859534176746
 20
154.4390816074493
 30
0.0
 10
160.3965169054045
 20
152.7816450760939
 30
0.0
 10
160.9070803931344
 20
151.1219692311958
 30
0.0
 10
160.6328506116007
 20
150.2303779314354
 30
0.0
 10
159.9992971339115
 20
147.597634224801
 30
0.0
 10
159.7105979417943
 20
146.4014962832367
 30
0.0
 10
159.2947746424084
 20
144.9400858143094
 30
0.0
 10
158.7463150793409
 20
143.2092687007094
 30
0.0
 10
158.7463150793409
 20
143.2092687007094
 30
0.0
 10
153.9038856707499
 20
127.8027915271048
 30
0.0
 10
153.9038856707499
 20
127.8027915271048
 30
0.0
 10
153.9038856707499
 20
127.8027915271048
 30
0.0
 10
151.3882752878863
 20
127.8027915271048
 30
0.0
 10
151.3882752878863
 20
127.8027915271048
 30
0.0
 10
151.3882752878863
 20
127.8027915271048
 30
0.0
 10
155.6250565106276
 20
141.2751908193897
 30
0.0
 10
155.6250565106276
 20
141.2751908193897
 30
0.0
 10
156.5094131050963
 20
144.0936252951782
 30
0.0
 10
157.109893644309
 20
146.1506931664571
 30
0.0
 10
157.4220195011804
 20
147.4415712963654
 30
0.0
 10
157.8095929989511
 20
149.0530157726519
 30
0.0
 10
157.9656559273867
 20
149.5826995529385
 30
0.0
 10
157.7816877071116
 20
150.7529992613181
 30
0.0
 10
157.6111553680925
 20
151.8430281919372
 30
0.0
 10
157.0582171779396
 20
152.5547853887321
 30
0.0
 10
156.1170164704645
 20
152.5547853887321
 30
0.0
 10
155.1096698860365
 20
152.5547853887321
 30
0.0
 10
154.2962823053817
 20
152.4412694176073
 30
0.0
 10
153.156643967048
 20
151.2945686288697
 30
0.0
 10
152.0170056287143
 20
150.1476955852443
 30
0.0
 10
151.076149431015
 20
148.7930831468137
 30
0.0
 10
150.3337308641742
 20
147.2290087646991
 30
0.0
 10
149.5957909244188
 20
145.6683794803425
 30
0.0
 10
148.8530278478023
 20
143.6822806228776
 30
0.0
 10
148.0964843801539
 20
141.2751908193897
 30
0.0
 10
148.0964843801539
 20
141.2751908193897
 30
0.0
 10
143.8552245303272
 20
127.8027915271048
 30
0.0
 10
143.8552245303272
 20
127.8027915271048
 30
0.0
 10
143.8552245303272
 20
127.8027915271048
 30
0.0
 10
141.486030802177
 20
127.8027915271048
 30
0.0
 10
141.486030802177
 20
127.8027915271048
 30
0.0
 10
141.486030802177
 20
127.8027915271048
 30
0.0
 10
146.3329388378533
 20
143.2092687007094
 30
0.0
 10
146.3329388378533
 20
143.2092687007094
 30
0.0
 10
146.8483254624444
 20
144.8408669988801
 30
0.0
 10
147.2314203331297
 20
146.1837661049335
 30
0.0
 10
147.4867020769946
 20
147.224185627838
 30
0.0
 10
147.9169947869641
 20
149.0197705792876
 30
0.0
 10
148.0306830129768
 20
150.2400242051577
 30
0.0
 10
147.709255392159
 20
151.3157559800812
 30
0.0
 10
147.3874832615654
 20
152.3916600098926
 30
0.0
 10
146.8245542879144
 20
152.6683013598569
 30
0.0
 10
145.8840425999909
 20
152.6683013598569
 30
0.0
 10
145.0989048209514
 20
152.6683013598569
 30
0.0
 10
144.3282364524954
 20
152.3275811915945
 30
0.0
 10
143.4531816219731
 20
151.6538923250251
 30
0.0
 10
142.34627171234
 20
150.8074318058939
 30
0.0
 10
141.901854101563
 20
150.1097995099067
 30
0.0
 10
141.3578731655808
 20
149.289521733736
 30
0.0
 10
140.6299240093235
 20
148.192602607601
 30
0.0
 10
140.2850697237515
 20
147.455696197173
 30
0.0
 10
139.6652966370942
 20
145.8385673095858
 30
0.0
 10
139.0506911970739
 20
144.2214384219986
 30
0.0
 10
138.463991048893
 20
142.3252566160164
 30
0.0
 10
138.0571250036777
 20
141.0154304484394
 30
0.0
 10
138.0571250036777
 20
141.0154304484394
 30
0.0
 10
133.9009590684727
 20
127.8027915271048
 30
0.0
 10
133.9009590684727
 20
127.8027915271048
 30
0.0
 10
133.9009590684727
 20
127.8027915271048
 30
0.0
 10
131.4180771143097
 20
127.8027915271048
 30
0.0
 10
131.4180771143097
 20
127.8027915271048
 30
0.0
 10
131.4180771143097
 20
127.8027915271048
 30
0.0
 10
139.8926730891197
 20
154.8294111834263
 30
0.0
 10
139.8926730891197
 20
154.8294111834263
 30
0.0
  0
HATCH
  5
807
330
800
100
AcDbEntity
  8
レイヤー 1
 62
   250
100
AcDbHatch
 10
0.0
 20
0.0
 30
0.0
210
0.0
220
0.0
230
1.0
  2
SOLID
 70
     1
 71
     0
 91
        1
 92
        1
 93
        1
 72
     4
 94
        3
 73
     0
 74
     1
 95
      104
 96
      100
 40
0.0
 40
0.0
 40
0.0
 40
0.0
 40
1.0
 40
1.0
 40
1.0
 40
2.0
 40
2.0
 40
2.0
 40
3.0
 40
3.0
 40
3.0
 40
4.0
 40
4.0
 40
4.0
 40
5.0
 40
5.0
 40
5.0
 40
6.0
 40
6.0
 40
6.0
 40
7.0
 40
7.0
 40
7.0
 40
8.0
 40
8.0
 40
8.0
 40
9.0
 40
9.0
 40
9.0
 40
10.0
 40
10.0
 40
10.0
 40
11.0
 40
11.0
 40
11.0
 40
12.0
 40
12.0
 40
12.0
 40
13.0
 40
13.0
 40
13.0
 40
14.0
 40
14.0
 40
14.0
 40
15.0
 40
15.0
 40
15.0
 40
16.0
 40
16.0
 40
16.0
 40
17.0
 40
17.0
 40
17.0
 40
18.0
 40
18.0
 40
18.0
 40
19.0
 40
19.0
 40
19.0
 40
20.0
 40
20.0
 40
20.0
 40
21.0
 40
21.0
 40
21.0
 40
22.0
 40
22.0
 40
22.0
 40
23.0
 40
23.0
 40
23.0
 40
24.0
 40
24.0
 40
24.0
 40
25.0
 40
25.0
 40
25.0
 40
26.0
 40
26.0
 40
26.0
 40
27.0
 40
27.0
 40
27.0
 40
28.0
 40
28.0
 40
28.0
 40
29.0
 40
29.0
 40
29.0
 40
30.0
 40
30.0
 40
30.0
 40
31.0
 40
31.0
 40
31.0
 40
32.0
 40
32.0
 40
32.0
 40
33.0
 40
33.0
 40
33.0
 40
33.0
 10
139.8926730891197
 20
154.8294111834263
 10
139.8926730891197
 20
154.8294111834263
 10
142.0344903652445
 20
154.8294111834263
 10
142.0344903652445
 20
154.8294111834263
 10
142.0344903652445
 20
154.8294111834263
 10
140.9516961399171
 20
151.3157559800812
 10
140.9516961399171
 20
151.3157559800812
 10
141.8928968473923
 20
152.7887075264977
 10
142.7341897198865
 20
153.4484437471474
 10
143.8552245303272
 20
154.2926649527359
 10
144.9803934580775
 20
155.1296514530327
 10
146.3139908001845
 20
155.3044901642492
 10
147.241066606852
 20
155.3044901642492
 10
148.3855280820469
 20
155.3044901642492
 10
149.4969166187653
 20
155.0752189084569
 10
150.0784491203092
 20
153.8172414621372
 10
150.5228667310863
 20
152.833838307127
 10
150.5414702589793
 20
152.7201500811143
 10
150.4140016419347
 20
150.7765981809602
 10
151.5818897818837
 20
152.7699317437168
 10
152.4424752018226
 20
153.6256940267945
 10
153.9038856707499
 20
154.4507949398263
 10
155.4455669174378
 20
155.3044901642492
 10
156.339225275853
 20
155.3659851592288
 10
157.3748216618963
 20
155.2147453676543
 10
158.911679771723
 20
154.9877134254046
 10
159.8859534176746
 20
154.4390816074493
 10
160.3965169054045
 20
152.7816450760939
 10
160.9070803931344
 20
151.1219692311958
 10
160.6328506116007
 20
150.2303779314354
 10
159.9992971339115
 20
147.597634224801
 10
159.7105979417943
 20
146.4014962832367
 10
159.2947746424084
 20
144.9400858143094
 10
158.7463150793409
 20
143.2092687007094
 10
158.7463150793409
 20
143.2092687007094
 10
153.9038856707499
 20
127.8027915271048
 10
153.9038856707499
 20
127.8027915271048
 10
153.9038856707499
 20
127.8027915271048
 10
151.3882752878863
 20
127.8027915271048
 10
151.3882752878863
 20
127.8027915271048
 10
151.3882752878863
 20
127.8027915271048
 10
155.6250565106276
 20
141.2751908193897
 10
155.6250565106276
 20
141.2751908193897
 10
156.5094131050963
 20
144.0936252951782
 10
157.109893644309
 20
146.1506931664571
 10
157.4220195011804
 20
147.4415712963654
 10
157.8095929989511
 20
149.0530157726519
 10
157.9656559273867
 20
149.5826995529385
 10
157.7816877071116
 20
150.7529992613181
 10
157.6111553680925
 20
151.8430281919372
 10
157.0582171779396
 20
152.5547853887321
 10
156.1170164704645
 20
152.5547853887321
 10
155.1096698860365
 20
152.5547853887321
 10
154.2962823053817
 20
152.4412694176073
 10
153.156643967048
 20
151.2945686288697
 10
152.0170056287143
 20
150.1476955852443
 10
151.076149431015
 20
148.7930831468137
 10
150.3337308641742
 20
147.2290087646991
 10
149.5957909244188
 20
145.6683794803425
 10
148.8530278478023
 20
143.6822806228776
 10
148.0964843801539
 20
141.2751908193897
 10
148.0964843801539
 20
141.2751908193897
 10
143.8552245303272
 20
127.8027915271048
 10
143.8552245303272
 20
127.8027915271048
 10
143.8552245303272
 20
127.8027915271048
 10
141.486030802177
 20
127.8027915271048
 10
141.486030802177
 20
127.8027915271048
 10
141.486030802177
 20
127.8027915271048
 10
146.3329388378533
 20
143.2092687007094
 10
146.3329388378533
 20
143.2092687007094
 10
146.8483254624444
 20
144.8408669988801
 10
147.2314203331297
 20
146.1837661049335
 10
147.4867020769946
 20
147.224185627838
 10
147.9169947869641
 20
149.0197705792876
 10
148.0306830129768
 20
150.2400242051577
 10
147.709255392159
 20
151.3157559800812
 10
147.3874832615654
 20
152.3916600098926
 10
146.8245542879144
 20
152.6683013598569
 10
145.8840425999909
 20
152.6683013598569
 10
145.0989048209514
 20
152.6683013598569
 10
144.3282364524954
 20
152.3275811915945
 10
143.4531816219731
 20
151.6538923250251
 10
142.34627171234
 20
150.8074318058939
 10
141.901854101563
 20
150.1097995099067
 10
141.3578731655808
 20
149.289521733736
 10
140.6299240093235
 20
148.192602607601
 10
140.2850697237515
 20
147.455696197173
 10
139.6652966370942
 20
145.8385673095858
 10
139.0506911970739
 20
144.2214384219986
 10
138.463991048893
 20
142.3252566160164
 10
138.0571250036777
 20
141.0154304484394
 10
138.0571250036777
 20
141.0154304484394
 10
133.9009590684727
 20
127.8027915271048
 10
133.9009590684727
 20
127.8027915271048
 10
133.9009590684727
 20
127.8027915271048
 10
131.4180771143097
 20
127.8027915271048
 10
131.4180771143097
 20
127.8027915271048
 10
131.4180771143097
 20
127.8027915271048
 10
139.8926730891197
 20
154.8294111834263
 10
139.8926730891197
 20
154.8294111834263
 97
        0
 75
     2
 76
     1
 98
        0
  0
SPLINE
  5
808
330
800
100
AcDbEntity
  8
レイヤー 1
370
     0
100
AcDbSpline
210
0.0
220
0.0
230
1.0
 70
    11
 71
     3
 72
    29
 73
    25
 74
     0
 42
0.000000001
 43
0.0000000001
 40
0.0
 40
0.0
 40
0.0
 40
0.0
 40
1.0
 40
1.0
 40
1.0
 40
2.0
 40
2.0
 40
2.0
 40
3.0
 40
3.0
 40
3.0
 40
4.0
 40
4.0
 40
4.0
 40
5.0
 40
5.0
 40
5.0
 40
6.0
 40
6.0
 40
6.0
 40
7.0
 40
7.0
 40
7.0
 40
8.0
 40
8.0
 40
8.0
 40
8.0
 10
101.6420971922469
 20
132.8388354296931
 30
0.0
 10
101.630039350094
 20
134.7164137077823
 30
0.0
 10
102.2236296937908
 20
138.0598810818841
 30
0.0
 10
103.7487744712405
 20
142.5378191476827
 30
0.0
 10
105.819967243327
 20
148.5896501242061
 30
0.0
 10
107.0602024361932
 20
150.8074318058939
 30
0.0
 10
108.1522984254671
 20
151.8833358357054
 30
0.0
 10
109.741177511439
 20
153.4532668840085
 30
0.0
 10
111.8740375333931
 20
153.5290590346837
 30
0.0
 10
112.5075910110823
 20
153.4532668840085
 30
0.0
 10
113.4012493694975
 20
153.3490526768302
 30
0.0
 10
114.6683563248758
 20
152.7580461564518
 30
0.0
 10
114.7493161221879
 20
150.7838328862519
 30
0.0
 10
114.8106388622796
 20
149.0909118479895
 30
0.0
 10
114.3186789024427
 20
145.9191825971221
 30
0.0
 10
112.6164561002338
 20
140.9489400617108
 30
0.0
 10
110.6444821435766
 20
135.1746117095912
 30
0.0
 10
109.4669477299053
 20
132.8960240524753
 30
0.0
 10
108.5212683953448
 20
131.9072809959403
 30
0.0
 10
106.7346406980658
 20
130.0538184021569
 30
0.0
 10
104.8222669326213
 20
130.2336525051225
 30
0.0
 10
104.5408024457958
 20
130.2336525051225
 30
0.0
 10
104.1721769856939
 20
130.2336525051225
 30
0.0
 10
101.6465758193322
 20
130.6305277668397
 30
0.0
 10
101.6420971922469
 20
132.8388354296931
 30
0.0
  0
SPLINE
  5
809
330
800
100
AcDbEntity
  8
レイヤー 1
370
     0
100
AcDbSpline
210
0.0
220
0.0
230
1.0
 70
    11
 71
     3
 72
    32
 73
    28
 74
     0
 42
0.000000001
 43
0.0000000001
 40
0.0
 40
0.0
 40
0.0
 40
0.0
 40
1.0
 40
1.0
 40
1.0
 40
2.0
 40
2.0
 40
2.0
 40
3.0
 40
3.0
 40
3.0
 40
4.0
 40
4.0
 40
4.0
 40
5.0
 40
5.0
 40
5.0
 40
6.0
 40
6.0
 40
6.0
 40
7.0
 40
7.0
 40
7.0
 40
8.0
 40
8.0
 40
8.0
 40
9.0
 40
9.0
 40
9.0
 40
9.0
 10
106.2595617172429
 20
153.4105476718098
 30
0.0
 10
104.8222669326213
 20
151.5474388043041
 30
0.0
 10
103.7177685914188
 20
149.8758773721411
 30
0.0
 10
101.9232171692965
 20
144.6141795664062
 30
0.0
 10
100.2754269116635
 20
139.7999999594306
 30
0.0
 10
99.22777268346732
 20
136.3052927937542
 30
0.0
 10
99.06964269637689
 20
132.039572749846
 30
0.0
 10
98.94665270641765
 20
128.8673267343149
 30
0.0
 10
100.8807305877373
 20
127.8027915271048
 30
0.0
 10
103.7129454545577
 20
127.8027915271048
 30
0.0
 10
104.9352661390825
 20
127.8027915271048
 30
0.0
 10
108.0151835347002
 20
127.8827177950895
 30
0.0
 10
110.2045431598849
 20
130.5926316915021
 30
0.0
 10
111.7417457794874
 20
132.4984597712065
 30
0.0
 10
113.155269389579
 20
134.475256864725
 30
0.0
 10
115.0562743324223
 20
140.9489400617108
 30
0.0
 10
116.6361961642235
 20
146.3680788349845
 30
0.0
 10
117.7282921534974
 20
149.8639917848761
 30
0.0
 10
117.6480213757369
 20
151.8595646611754
 30
0.0
 10
117.6480213757369
 20
151.8595646611754
 30
0.0
 10
117.6480213757369
 20
151.8595646611754
 30
0.0
 10
117.6480213757369
 20
151.8595646611754
 30
0.0
 10
117.13229024137
 20
155.18150017429
 30
0.0
 10
114.7162431837115
 20
155.886194920681
 30
0.0
 10
113.3351034925446
 20
155.886194920681
 30
0.0
 10
111.9829026225447
 20
155.886194920681
 30
0.0
 10
108.3414342923792
 20
156.1251124501957
 30
0.0
 10
106.2595617172429
 20
153.4105476718098
 30
0.0
  0
HATCH
  5
80A
330
800
100
AcDbEntity
  8
レイヤー 1
 62
   250
100
AcDbHatch
 10
0.0
 20
0.0
 30
0.0
210
0.0
220
0.0
230
1.0
  2
SOLID
 70
     1
 71
     0
 91
        2
 92
        1
 93
        1
 72
     4
 94
        3
 73
     0
 74
     1
 95
       29
 96
       25
 40
0.0
 40
0.0
 40
0.0
 40
0.0
 40
1.0
 40
1.0
 40
1.0
 40
2.0
 40
2.0
 40
2.0
 40
3.0
 40
3.0
 40
3.0
 40
4.0
 40
4.0
 40
4.0
 40
5.0
 40
5.0
 40
5.0
 40
6.0
 40
6.0
 40
6.0
 40
7.0
 40
7.0
 40
7.0
 40
8.0
 40
8.0
 40
8.0
 40
8.0
 10
101.6420971922469
 20
132.8388354296931
 10
101.630039350094
 20
134.7164137077823
 10
102.2236296937908
 20
138.0598810818841
 10
103.7487744712405
 20
142.5378191476827
 10
105.819967243327
 20
148.5896501242061
 10
107.0602024361932
 20
150.8074318058939
 10
108.1522984254671
 20
151.8833358357054
 10
109.741177511439
 20
153.4532668840085
 10
111.8740375333931
 20
153.5290590346837
 10
112.5075910110823
 20
153.4532668840085
 10
113.4012493694975
 20
153.3490526768302
 10
114.6683563248758
 20
152.7580461564518
 10
114.7493161221879
 20
150.7838328862519
 10
114.8106388622796
 20
149.0909118479895
 10
114.3186789024427
 20
145.9191825971221
 10
112.6164561002338
 20
140.9489400617108
 10
110.6444821435766
 20
135.1746117095912
 10
109.4669477299053
 20
132.8960240524753
 10
108.5212683953448
 20
131.9072809959403
 10
106.7346406980658
 20
130.0538184021569
 10
104.8222669326213
 20
130.2336525051225
 10
104.5408024457958
 20
130.2336525051225
 10
104.1721769856939
 20
130.2336525051225
 10
101.6465758193322
 20
130.6305277668397
 10
101.6420971922469
 20
132.8388354296931
 97
        0
 92
        1
 93
        1
 72
     4
 94
        3
 73
     0
 74
     1
 95
       32
 96
       28
 40
0.0
 40
0.0
 40
0.0
 40
0.0
 40
1.0
 40
1.0
 40
1.0
 40
2.0
 40
2.0
 40
2.0
 40
3.0
 40
3.0
 40
3.0
 40
4.0
 40
4.0
 40
4.0
 40
5.0
 40
5.0
 40
5.0
 40
6.0
 40
6.0
 40
6.0
 40
7.0
 40
7.0
 40
7.0
 40
8.0
 40
8.0
 40
8.0
 40
9.0
 40
9.0
 40
9.0
 40
9.0
 10
106.2595617172429
 20
153.4105476718098
 10
104.8222669326213
 20
151.5474388043041
 10
103.7177685914188
 20
149.8758773721411
 10
101.9232171692965
 20
144.6141795664062
 10
100.2754269116635
 20
139.7999999594306
 10
99.22777268346732
 20
136.3052927937542
 10
99.06964269637689
 20
132.039572749846
 10
98.94665270641765
 20
128.8673267343149
 10
100.8807305877373
 20
127.8027915271048
 10
103.7129454545577
 20
127.8027915271048
 10
104.9352661390825
 20
127.8027915271048
 10
108.0151835347002
 20
127.8827177950895
 10
110.2045431598849
 20
130.5926316915021
 10
111.7417457794874
 20
132.4984597712065
 10
113.155269389579
 20
134.475256864725
 10
115.0562743324223
 20
140.9489400617108
 10
116.6361961642235
 20
146.3680788349845
 10
117.7282921534974
 20
149.8639917848761
 10
117.6480213757369
 20
151.8595646611754
 10
117.6480213757369
 20
151.8595646611754
 10
117.6480213757369
 20
151.8595646611754
 10
117.6480213757369
 20
151.8595646611754
 10
117.13229024137
 20
155.18150017429
 10
114.7162431837115
 20
155.886194920681
 10
113.3351034925446
 20
155.886194920681
 10
111.9829026225447
 20
155.886194920681
 10
108.3414342923792
 20
156.1251124501957
 10
106.2595617172429
 20
153.4105476718098
 97
        0
 75
     2
 76
     1
 98
        0
  0
ENDBLK
  5
80B
330
800
100
AcDbEntity
  8
0
100
AcDbBlockEnd
  0
BLOCK
  5
8E2
330
8E1
100
AcDbEntity
  8
0
100
AcDbBlockBegin
  2
*D15
 70
     1
 10
0.0
 20
0.0
 30
0.0
  3
*D15
  1

  0
LINE
  5
8E3
330
8E1
100
AcDbEntity
  8
DIM
 62
     0
370
    -2
100
AcDbLine
 10
82.38308890577508
 20
160.5423689209726
 30
0.0
 11
82.38308890577508
 21
193.6154914303951
 31
0.0
  0
LINE
  5
8E4
330
8E1
100
AcDbEntity
  8
DIM
 62
     0
370
    -2
100
AcDbLine
 10
139.4720858662612
 20
160.5423689209726
 30
0.0
 11
139.4720858662612
 21
193.6154914303951
 31
0.0
  0
LINE
  5
8E5
330
8E1
100
AcDbEntity
  8
DIM
 62
     0
370
    -2
100
AcDbLine
 10
83.38308890577508
 20
193.6154914303951
 30
0.0
 11
138.4720858662612
 21
193.6154914303951
 31
0.0
  0
INSERT
  5
8E6
330
8E1
100
AcDbEntity
  8
DIM
 62
     0
370
    -2
100
AcDbBlockReference
  2
_Dot
 10
82.38308890577508
 20
193.6154914303951
 30
0.0
 50
180.0
  0
INSERT
  5
8E7
330
8E1
100
AcDbEntity
  8
DIM
 62
     0
370
    -2
100
AcDbBlockReference
  2
_Dot
 10
139.4720858662612
 20
193.6154914303951
 30
0.0
  0
MTEXT
  5
8E8
330
8E1
100
AcDbEntity
  8
DIM
 62
     0
100
AcDbMText
 10
110.9275873860181
 20
196.1154914303951
 30
0.0
 40
3.0
 41
0.0
 46
0.0
 71
     5
 72
     1
  1
\A1;57
  7
ＭＳ ゴシック
 73
     1
 44
1.0
  0
POINT
  5
8E9
330
8E1
100
AcDbEntity
  8
DEFPOINTS
 62
     0
100
AcDbPoint
 10
82.38308890577508
 20
158.5423689209726
 30
0.0
  0
POINT
  5
8EA
330
8E1
100
AcDbEntity
  8
DEFPOINTS
 62
     0
100
AcDbPoint
 10
139.4720858662612
 20
158.5423689209726
 30
0.0
  0
POINT
  5
8EB
330
8E1
100
AcDbEntity
  8
DEFPOINTS
 62
     0
100
AcDbPoint
 10
139.4720858662612
 20
193.6154914303951
 30
0.0
  0
ENDBLK
  5
8EC
330
8E1
100
AcDbEntity
  8
0
100
AcDbBlockEnd
  0
BLOCK
  5
8F1
330
8F0
100
AcDbEntity
  8
0
100
AcDbBlockBegin
  2
*D16
 70
     1
 10
0.0
 20
0.0
 30
0.0
  3
*D16
  1

  0
LINE
  5
8F2
330
8F0
100
AcDbEntity
  8
DIM
 62
     0
370
    -2
100
AcDbLine
 10
91.98413169352595
 20
156.5423689209726
 30
0.0
 11
91.98413169352595
 21
115.193036106383
 31
0.0
  0
LINE
  5
8F3
330
8F0
100
AcDbEntity
  8
DIM
 62
     0
370
    -2
100
AcDbLine
 10
129.8710430785104
 20
156.5423689209726
 30
0.0
 11
129.8710430785104
 21
115.193036106383
 31
0.0
  0
LINE
  5
8F4
330
8F0
100
AcDbEntity
  8
DIM
 62
     0
370
    -2
100
AcDbLine
 10
92.98413169352595
 20
115.193036106383
 30
0.0
 11
128.8710430785104
 21
115.193036106383
 31
0.0
  0
INSERT
  5
8F5
330
8F0
100
AcDbEntity
  8
DIM
 62
     0
370
    -2
100
AcDbBlockReference
  2
_Dot
 10
91.98413169352595
 20
115.193036106383
 30
0.0
 50
180.0
  0
INSERT
  5
8F6
330
8F0
100
AcDbEntity
  8
DIM
 62
     0
370
    -2
100
AcDbBlockReference
  2
_Dot
 10
129.8710430785104
 20
115.193036106383
 30
0.0
  0
MTEXT
  5
8F7
330
8F0
100
AcDbEntity
  8
DIM
 62
     0
100
AcDbMText
 10
110.9275873860182
 20
117.693036106383
 30
0.0
 40
3.0
 41
0.0
 46
0.0
 71
     5
 72
     1
  1
\A1;38
  7
ＭＳ ゴシック
 73
     1
 44
1.0
  0
POINT
  5
8F8
330
8F0
100
AcDbEntity
  8
DEFPOINTS
 62
     0
100
AcDbPoint
 10
91.98413169352595
 20
158.5423689209726
 30
0.0
  0
POINT
  5
8F9
330
8F0
100
AcDbEntity
  8
DEFPOINTS
 62
     0
100
AcDbPoint
 10
129.8710430785104
 20
158.5423689209726
 30
0.0
  0
POINT
  5
8FA
330
8F0
100
AcDbEntity
  8
DEFPOINTS
 62
     0
100
AcDbPoint
 10
129.8710430785104
 20
115.193036106383
 30
0.0
  0
ENDBLK
  5
8FB
330
8F0
100
AcDbEntity
  8
0
100
AcDbBlockEnd
  0
BLOCK
  5
940
330
93F
100
AcDbEntity
  8
0
100
AcDbBlockBegin
  2
*D17
 70
     1
 10
0.0
 20
0.0
 30
0.0
  3
*D17
  1

  0
LINE
  5
942
330
93F
100
AcDbEntity
  8
DIM
 62
     0
370
    -2
100
AcDbLine
 10
411.2277697568388
 20
167.3944965805471
 30
0.0
 11
411.2277697568388
 21
200.4676190899696
 31
0.0
  0
LINE
  5
943
330
93F
100
AcDbEntity
  8
DIM
 62
     0
370
    -2
100
AcDbLine
 10
468.3167667173249
 20
167.3944965805471
 30
0.0
 11
468.3167667173249
 21
200.4676190899696
 31
0.0
  0
LINE
  5
944
330
93F
100
AcDbEntity
  8
DIM
 62
     0
370
    -2
100
AcDbLine
 10
412.2277697568388
 20
200.4676190899696
 30
0.0
 11
467.3167667173249
 21
200.4676190899696
 31
0.0
  0
INSERT
  5
945
330
93F
100
AcDbEntity
  8
DIM
 62
     0
370
    -2
100
AcDbBlockReference
  2
_Dot
 10
411.2277697568388
 20
200.4676190899696
 30
0.0
 50
180.0
  0
INSERT
  5
946
330
93F
100
AcDbEntity
  8
DIM
 62
     0
370
    -2
100
AcDbBlockReference
  2
_Dot
 10
468.3167667173249
 20
200.4676190899696
 30
0.0
  0
MTEXT
  5
947
330
93F
100
AcDbEntity
  8
DIM
 62
     0
 48
6.0
100
AcDbMText
 10
439.7722682370818
 20
202.9676190899696
 30
0.0
 40
3.0
 41
0.0
 46
0.0
 71
     5
 72
     1
  1
\A1;57
  7
ＭＳ ゴシック
 73
     1
 44
1.0
  0
POINT
  5
948
330
93F
100
AcDbEntity
  8
DEFPOINTS
 62
     0
100
AcDbPoint
 10
411.2277697568388
 20
165.3944965805471
 30
0.0
  0
POINT
  5
949
330
93F
100
AcDbEntity
  8
DEFPOINTS
 62
     0
100
AcDbPoint
 10
468.3167667173249
 20
165.3944965805471
 30
0.0
  0
POINT
  5
94A
330
93F
100
AcDbEntity
  8
DEFPOINTS
 62
     0
100
AcDbPoint
 10
468.3167667173249
 20
200.4676190899696
 30
0.0
  0
ENDBLK
  5
941
330
93F
100
AcDbEntity
  8
0
100
AcDbBlockEnd
  0
BLOCK
  5
94C
330
94B
100
AcDbEntity
  8
0
100
AcDbBlockBegin
  2
*D18
 70
     1
 10
0.0
 20
0.0
 30
0.0
  3
*D18
  1

  0
LINE
  5
94E
330
94B
100
AcDbEntity
  8
DIM
 62
     0
370
    -2
100
AcDbLine
 10
420.8288125445897
 20
163.3944965805471
 30
0.0
 11
420.8288125445897
 21
122.0451637659575
 31
0.0
  0
LINE
  5
94F
330
94B
100
AcDbEntity
  8
DIM
 62
     0
370
    -2
100
AcDbLine
 10
458.7157239295741
 20
163.3944965805471
 30
0.0
 11
458.7157239295741
 21
122.0451637659575
 31
0.0
  0
LINE
  5
950
330
94B
100
AcDbEntity
  8
DIM
 62
     0
370
    -2
100
AcDbLine
 10
421.8288125445897
 20
122.0451637659575
 30
0.0
 11
457.7157239295741
 21
122.0451637659575
 31
0.0
  0
INSERT
  5
951
330
94B
100
AcDbEntity
  8
DIM
 62
     0
370
    -2
100
AcDbBlockReference
  2
_Dot
 10
420.8288125445897
 20
122.0451637659575
 30
0.0
 50
180.0
  0
INSERT
  5
952
330
94B
100
AcDbEntity
  8
DIM
 62
     0
370
    -2
100
AcDbBlockReference
  2
_Dot
 10
458.7157239295741
 20
122.0451637659575
 30
0.0
  0
MTEXT
  5
953
330
94B
100
AcDbEntity
  8
DIM
 62
     0
 48
6.0
100
AcDbMText
 10
439.7722682370819
 20
124.5451637659575
 30
0.0
 40
3.0
 41
0.0
 46
0.0
 71
     5
 72
     1
  1
\A1;38
  7
ＭＳ ゴシック
 73
     1
 44
1.0
  0
POINT
  5
954
330
94B
100
AcDbEntity
  8
DEFPOINTS
 62
     0
100
AcDbPoint
 10
420.8288125445897
 20
165.3944965805471
 30
0.0
  0
POINT
  5
955
330
94B
100
AcDbEntity
  8
DEFPOINTS
 62
     0
100
AcDbPoint
 10
458.7157239295741
 20
165.3944965805471
 30
0.0
  0
POINT
  5
956
330
94B
100
AcDbEntity
  8
DEFPOINTS
 62
     0
100
AcDbPoint
 10
458.7157239295741
 20
122.0451637659575
 30
0.0
  0
ENDBLK
  5
94D
330
94B
100
AcDbEntity
  8
0
100
AcDbBlockEnd
  0
BLOCK
  5
A54
330
A53
100
AcDbEntity
  8
0
 48
6.0
100
AcDbBlockBegin
  2
*D19
 70
     1
 10
0.0
 20
0.0
 30
0.0
  3
*D19
  1

  0
LINE
  5
A55
330
A53
100
AcDbEntity
  8
寸法線
 62
     0
 48
6.0
370
    -2
100
AcDbLine
 10
58.50000172850002
 20
77.20286577609893
 30
0.0
 11
66.50000086430012
 21
77.20286577609893
 31
0.0
  0
LINE
  5
A56
330
A53
100
AcDbEntity
  8
寸法線
 62
     0
 48
6.0
370
    -2
100
AcDbLine
 10
58.50000172850002
 20
63.10286551389895
 30
0.0
 11
66.50000086430012
 21
63.10286551389895
 31
0.0
  0
LINE
  5
A57
330
A53
100
AcDbEntity
  8
寸法線
 62
     0
 48
6.0
370
    -2
100
AcDbLine
 10
66.50000086430012
 20
76.20286577609893
 30
0.0
 11
66.50000086430012
 21
64.10286551389895
 31
0.0
  0
INSERT
  5
A58
330
A53
100
AcDbEntity
  8
寸法線
 62
     0
370
    -2
100
AcDbBlockReference
  2
_Dot
 10
66.50000086430012
 20
77.20286577609893
 30
0.0
 50
90.0
  0
INSERT
  5
A59
330
A53
100
AcDbEntity
  8
寸法線
 62
     0
370
    -2
100
AcDbBlockReference
  2
_Dot
 10
66.50000086430012
 20
63.10286551389895
 30
0.0
 50
270.0
  0
MTEXT
  5
A5A
330
A53
100
AcDbEntity
  8
寸法線
 62
     0
 48
6.0
100
AcDbMText
 10
64.12500086430012
 20
70.15286564499894
 30
0.0
 40
2.75
 41
0.0
 46
0.0
 71
     5
 72
     1
  1
\A1;14.1
  7
ＭＳ ゴシック
 11
0.0
 21
1.0
 31
0.0
 73
     1
 44
1.0
  0
POINT
  5
A5B
330
A53
100
AcDbEntity
  8
DEFPOINTS
 62
     0
100
AcDbPoint
 10
56.50000172850002
 20
77.20286577609893
 30
0.0
  0
POINT
  5
A5C
330
A53
100
AcDbEntity
  8
DEFPOINTS
 62
     0
100
AcDbPoint
 10
56.50000172850002
 20
63.10286551389895
 30
0.0
  0
POINT
  5
A5D
330
A53
100
AcDbEntity
  8
DEFPOINTS
 62
     0
100
AcDbPoint
 10
66.50000086430012
 20
63.10286551389895
 30
0.0
  0
ENDBLK
  5
A5E
330
A53
100
AcDbEntity
  8
0
 48
6.0
100
AcDbBlockEnd
  0
BLOCK
  5
A61
330
A60
100
AcDbEntity
  8
0
 48
6.0
100
AcDbBlockBegin
  2
*D20
 70
     1
 10
0.0
 20
0.0
 30
0.0
  3
*D20
  1

  0
LINE
  5
A62
330
A60
100
AcDbEntity
  8
寸法線
 62
     0
 48
6.0
370
    -2
100
AcDbLine
 10
0.5
 20
14.79526668989907
 30
0.0
 11
0.5
 21
4.795265915099051
 31
0.0
  0
LINE
  5
A63
330
A60
100
AcDbEntity
  8
寸法線
 62
     0
 48
6.0
370
    -2
100
AcDbLine
 10
56.50000172850002
 20
14.79526668989907
 30
0.0
 11
56.50000172850002
 21
4.795265915099051
 31
0.0
  0
LINE
  5
A64
330
A60
100
AcDbEntity
  8
寸法線
 62
     0
 48
6.0
370
    -2
100
AcDbLine
 10
1.5
 20
4.795265915099051
 30
0.0
 11
55.50000172850002
 21
4.795265915099051
 31
0.0
  0
INSERT
  5
A65
330
A60
100
AcDbEntity
  8
寸法線
 62
     0
370
    -2
100
AcDbBlockReference
  2
_Dot
 10
0.5
 20
4.795265915099051
 30
0.0
 50
180.0
  0
INSERT
  5
A66
330
A60
100
AcDbEntity
  8
寸法線
 62
     0
370
    -2
100
AcDbBlockReference
  2
_Dot
 10
56.50000172850002
 20
4.795265915099051
 30
0.0
  0
MTEXT
  5
A67
330
A60
100
AcDbEntity
  8
寸法線
 62
     0
 48
6.0
100
AcDbMText
 10
28.50000086425001
 20
7.170265915099051
 30
0.0
 40
2.75
 41
0.0
 46
0.0
 71
     5
 72
     1
  1
\A1;56
  7
ＭＳ ゴシック
 73
     1
 44
1.0
  0
POINT
  5
A68
330
A60
100
AcDbEntity
  8
DEFPOINTS
 62
     0
100
AcDbPoint
 10
0.5
 20
16.79526668989907
 30
0.0
  0
POINT
  5
A69
330
A60
100
AcDbEntity
  8
DEFPOINTS
 62
     0
100
AcDbPoint
 10
56.50000172850002
 20
16.79526668989907
 30
0.0
  0
POINT
  5
A6A
330
A60
100
AcDbEntity
  8
DEFPOINTS
 62
     0
100
AcDbPoint
 10
56.50000172850002
 20
4.795265915099051
 30
0.0
  0
ENDBLK
  5
A6B
330
A60
100
AcDbEntity
  8
0
 48
6.0
100
AcDbBlockEnd
  0
BLOCK
  5
A6E
330
A6D
100
AcDbEntity
  8
0
 48
6.0
100
AcDbBlockBegin
  2
*D21
 70
     1
 10
0.0
 20
0.0
 30
0.0
  3
*D21
  1

  0
LINE
  5
A6F
330
A6D
100
AcDbEntity
  8
寸法線
 62
     0
 48
6.0
370
    -2
100
AcDbLine
 10
56.50000140070003
 20
14.79526636209904
 30
0.0
 11
66.50000086430012
 21
14.79526636209904
 31
0.0
  0
LINE
  5
A70
330
A6D
100
AcDbEntity
  8
寸法線
 62
     0
 48
6.0
370
    -2
100
AcDbLine
 10
58.50000172850002
 20
35.59526589479893
 30
0.0
 11
66.50000086430012
 21
35.59526589479893
 31
0.0
  0
LINE
  5
A71
330
A6D
100
AcDbEntity
  8
寸法線
 62
     0
 48
6.0
370
    -2
100
AcDbLine
 10
66.50000086430012
 20
15.79526636209904
 30
0.0
 11
66.50000086430012
 21
34.59526589479893
 31
0.0
  0
INSERT
  5
A72
330
A6D
100
AcDbEntity
  8
寸法線
 62
     0
370
    -2
100
AcDbBlockReference
  2
_Dot
 10
66.50000086430012
 20
14.79526636209904
 30
0.0
 50
270.0
  0
INSERT
  5
A73
330
A6D
100
AcDbEntity
  8
寸法線
 62
     0
370
    -2
100
AcDbBlockReference
  2
_Dot
 10
66.50000086430012
 20
35.59526589479893
 30
0.0
 50
90.0
  0
MTEXT
  5
A74
330
A6D
100
AcDbEntity
  8
寸法線
 62
     0
 48
6.0
100
AcDbMText
 10
64.12500086430012
 20
25.19526612844898
 30
0.0
 40
2.75
 41
0.0
 46
0.0
 71
     5
 72
     1
  1
\A1;20.8
  7
ＭＳ ゴシック
 11
0.0
 21
1.0
 31
0.0
 73
     1
 44
1.0
  0
POINT
  5
A75
330
A6D
100
AcDbEntity
  8
DEFPOINTS
 62
     0
100
AcDbPoint
 10
54.50000140070003
 20
14.79526636209904
 30
0.0
  0
POINT
  5
A76
330
A6D
100
AcDbEntity
  8
DEFPOINTS
 62
     0
100
AcDbPoint
 10
56.50000172850002
 20
35.59526589479893
 30
0.0
  0
POINT
  5
A77
330
A6D
100
AcDbEntity
  8
DEFPOINTS
 62
     0
100
AcDbPoint
 10
66.50000086430012
 20
35.59526589479893
 30
0.0
  0
ENDBLK
  5
A78
330
A6D
100
AcDbEntity
  8
0
 48
6.0
100
AcDbBlockEnd
  0
BLOCK
  5
A7B
330
A7A
100
AcDbEntity
  8
0
 48
6.0
100
AcDbBlockBegin
  2
*D22
 70
     1
 10
0.0
 20
0.0
 30
0.0
  3
*D22
  1

  0
LINE
  5
A7C
330
A7A
100
AcDbEntity
  8
寸法線
 62
     0
 48
6.0
370
    -2
100
AcDbLine
 10
99.77116597600002
 20
13.01666481883474
 30
0.0
 11
99.77116597600002
 21
4.795265915099051
 31
0.0
  0
LINE
  5
A7D
330
A7A
100
AcDbEntity
  8
寸法線
 62
     0
 48
6.0
370
    -2
100
AcDbLine
 10
100.571165976
 20
13.01666481883474
 30
0.0
 11
100.571165976
 21
4.795265915099051
 31
0.0
  0
LINE
  5
A7E
330
A7A
100
AcDbEntity
  8
寸法線
 62
     0
 48
6.0
370
    -2
100
AcDbLine
 10
98.77116597600002
 20
4.795265915099051
 30
0.0
 11
97.77116597600002
 21
4.795265915099051
 31
0.0
  0
LINE
  5
A7F
330
A7A
100
AcDbEntity
  8
寸法線
 62
     0
 48
6.0
370
    -2
100
AcDbLine
 10
101.571165976
 20
4.795265915099051
 30
0.0
 11
102.571165976
 21
4.795265915099051
 31
0.0
  0
INSERT
  5
A80
330
A7A
100
AcDbEntity
  8
寸法線
 62
     0
370
    -2
100
AcDbBlockReference
  2
_Dot
 10
99.77116597600002
 20
4.795265915099051
 30
0.0
  0
INSERT
  5
A81
330
A7A
100
AcDbEntity
  8
寸法線
 62
     0
370
    -2
100
AcDbBlockReference
  2
_Dot
 10
100.571165976
 20
4.795265915099051
 30
0.0
 50
180.0
  0
MTEXT
  5
A82
330
A7A
100
AcDbEntity
  8
寸法線
 62
     0
 48
6.0
100
AcDbMText
 10
100.171165976
 20
7.170265915099051
 30
0.0
 40
2.75
 41
0.0
 46
0.0
 71
     5
 72
     1
  1
\A1;t=0.8
  7
ＭＳ ゴシック
 73
     1
 44
1.0
  0
POINT
  5
A83
330
A7A
100
AcDbEntity
  8
DEFPOINTS
 62
     0
100
AcDbPoint
 10
99.77116597600002
 20
15.01666481883474
 30
0.0
  0
POINT
  5
A84
330
A7A
100
AcDbEntity
  8
DEFPOINTS
 62
     0
100
AcDbPoint
 10
100.571165976
 20
15.01666481883474
 30
0.0
  0
POINT
  5
A85
330
A7A
100
AcDbEntity
  8
DEFPOINTS
 62
     0
100
AcDbPoint
 10
100.571165976
 20
4.795265915099051
 30
0.0
  0
ENDBLK
  5
A86
330
A7A
100
AcDbEntity
  8
0
 48
6.0
100
AcDbBlockEnd
  0
BLOCK
  5
A89
330
A88
100
AcDbEntity
  8
0
 48
6.0
100
AcDbBlockBegin
  2
*D23
 70
     1
 10
0.0
 20
0.0
 30
0.0
  3
*D23
  1

  0
LINE
  5
A8A
330
A88
100
AcDbEntity
  8
寸法線
 62
     0
 48
6.0
370
    -2
100
AcDbLine
 10
56.62132120785982
 20
14.67394557153953
 30
0.0
 11
71.45586840708178
 21
-0.1606016276767597
 31
0.0
  0
MTEXT
  5
A8B
330
A88
100
AcDbEntity
  8
寸法線
 62
     0
 48
6.0
100
AcDbMText
 10
70.66152232676555
 20
3.992501663274624
 30
0.0
 40
2.75
 41
0.0
 46
0.0
 71
     5
 72
     1
  1
\A1;2-2
  7
ＭＳ ゴシック
 11
0.7071067811866825
 21
-0.7071067811864125
 31
0.0
 73
     1
 44
1.0
  0
INSERT
  5
A8C
330
A88
100
AcDbEntity
  8
寸法線
 62
     0
370
    -2
100
AcDbBlockReference
  2
_Dot
 10
55.91421442667314
 20
15.38105235272594
 30
0.0
 50
135.0000000000109
  0
POINT
  5
A8D
330
A88
100
AcDbEntity
  8
DEFPOINTS
 62
     0
100
AcDbPoint
 10
55.91421442667314
 20
15.38105235272594
 30
0.0
  0
POINT
  5
A8E
330
A88
100
AcDbEntity
  8
DEFPOINTS
 62
     0
100
AcDbPoint
 10
54.50000086429972
 20
16.79526591509882
 30
0.0
  0
ENDBLK
  5
A8F
330
A88
100
AcDbEntity
  8
0
 48
6.0
100
AcDbBlockEnd
  0
BLOCK
  5
A92
330
A91
100
AcDbEntity
  8
0
100
AcDbBlockBegin
  2
*D24
 70
     1
 10
0.0
 20
0.0
 30
0.0
  3
*D24
  1

  0
LINE
  5
A93
330
A91
100
AcDbEntity
  8
寸法線
 62
     0
 48
6.0
370
    -2
100
AcDbLine
 10
105.9781300066989
 20
15.60636076157337
 30
0.0
 11
115.978129470199
 21
15.60636076157337
 31
0.0
  0
LINE
  5
A94
330
A91
100
AcDbEntity
  8
寸法線
 62
     0
 48
6.0
370
    -2
100
AcDbLine
 10
107.978130334499
 20
36.40636029437353
 30
0.0
 11
115.978129470199
 21
36.40636029437353
 31
0.0
  0
LINE
  5
A95
330
A91
100
AcDbEntity
  8
寸法線
 62
     0
 48
6.0
370
    -2
100
AcDbLine
 10
115.978129470199
 20
16.60636076157337
 30
0.0
 11
115.978129470199
 21
35.40636029437353
 31
0.0
  0
INSERT
  5
A96
330
A91
100
AcDbEntity
  8
寸法線
 62
     0
370
    -2
100
AcDbBlockReference
  2
_Dot
 10
115.978129470199
 20
15.60636076157337
 30
0.0
 50
270.0
  0
INSERT
  5
A97
330
A91
100
AcDbEntity
  8
寸法線
 62
     0
370
    -2
100
AcDbBlockReference
  2
_Dot
 10
115.978129470199
 20
36.40636029437353
 30
0.0
 50
90.0
  0
MTEXT
  5
A98
330
A91
100
AcDbEntity
  8
寸法線
 62
     0
 48
6.0
100
AcDbMText
 10
113.603129470199
 20
26.00636052797345
 30
0.0
 40
2.75
 41
0.0
 46
0.0
 71
     5
 72
     1
  1
\A1;20.8
  7
ＭＳ ゴシック
 11
0.0
 21
1.0
 31
0.0
 73
     1
 44
1.0
  0
POINT
  5
A99
330
A91
100
AcDbEntity
  8
DEFPOINTS
 62
     0
100
AcDbPoint
 10
103.9781300066989
 20
15.60636076157337
 30
0.0
  0
POINT
  5
A9A
330
A91
100
AcDbEntity
  8
DEFPOINTS
 62
     0
100
AcDbPoint
 10
105.978130334499
 20
36.40636029437353
 30
0.0
  0
POINT
  5
A9B
330
A91
100
AcDbEntity
  8
DEFPOINTS
 62
     0
100
AcDbPoint
 10
115.978129470199
 20
36.40636029437353
 30
0.0
  0
ENDBLK
  5
A9C
330
A91
100
AcDbEntity
  8
0
100
AcDbBlockEnd
  0
BLOCK
  5
AC7
330
AC6
100
AcDbEntity
  8
0
100
AcDbBlockBegin
  2
*D25
 70
     1
 10
0.0
 20
0.0
 30
0.0
  3
*D25
  1

  0
LINE
  5
AC9
330
AC6
100
AcDbEntity
  8
DIM
 62
     0
 48
6.0
370
    -2
100
AcDbLine
 10
139.212187843714
 20
158.0579063964829
 30
0.0
 11
147.2121869795141
 21
158.0579063964829
 31
0.0
  0
LINE
  5
ACA
330
AC6
100
AcDbEntity
  8
DIM
 62
     0
 48
6.0
370
    -2
100
AcDbLine
 10
139.212187843714
 20
143.9579061342829
 30
0.0
 11
147.2121869795141
 21
143.9579061342829
 31
0.0
  0
LINE
  5
ACB
330
AC6
100
AcDbEntity
  8
DIM
 62
     0
 48
6.0
370
    -2
100
AcDbLine
 10
147.2121869795141
 20
157.0579063964829
 30
0.0
 11
147.2121869795141
 21
144.9579061342829
 31
0.0
  0
INSERT
  5
ACC
330
AC6
100
AcDbEntity
  8
DIM
 62
     0
370
    -2
100
AcDbBlockReference
  2
_Dot
 10
147.2121869795141
 20
158.0579063964829
 30
0.0
 50
90.0
  0
INSERT
  5
ACD
330
AC6
100
AcDbEntity
  8
DIM
 62
     0
370
    -2
100
AcDbBlockReference
  2
_Dot
 10
147.2121869795141
 20
143.9579061342829
 30
0.0
 50
270.0
  0
MTEXT
  5
ACE
330
AC6
100
AcDbEntity
  8
DIM
 62
     0
 48
6.0
100
AcDbMText
 10
144.7121869795141
 20
151.0079062653829
 30
0.0
 40
3.0
 41
0.0
 46
0.0
 71
     5
 72
     1
  1
\A1;14.1
  7
ＭＳ ゴシック
 11
0.0
 21
1.0
 31
0.0
 73
     1
 44
1.0
  0
POINT
  5
ACF
330
AC6
100
AcDbEntity
  8
DEFPOINTS
 62
     0
100
AcDbPoint
 10
137.212187843714
 20
158.0579063964829
 30
0.0
  0
POINT
  5
AD0
330
AC6
100
AcDbEntity
  8
DEFPOINTS
 62
     0
100
AcDbPoint
 10
137.212187843714
 20
143.9579061342829
 30
0.0
  0
POINT
  5
AD1
330
AC6
100
AcDbEntity
  8
DEFPOINTS
 62
     0
100
AcDbPoint
 10
147.2121869795141
 20
143.9579061342829
 30
0.0
  0
ENDBLK
  5
AC8
330
AC6
100
AcDbEntity
  8
0
100
AcDbBlockEnd
  0
BLOCK
  5
AD3
330
AD2
100
AcDbEntity
  8
0
100
AcDbBlockBegin
  2
*D26
 70
     1
 10
0.0
 20
0.0
 30
0.0
  3
*D26
  1

  0
LINE
  5
AD5
330
AD2
100
AcDbEntity
  8
DIM
 62
     0
 48
6.0
370
    -2
100
AcDbLine
 10
81.21218611521397
 20
83.6272644742417
 30
0.0
 11
81.21218611521397
 21
73.62726369944168
 31
0.0
  0
LINE
  5
AD6
330
AD2
100
AcDbEntity
  8
DIM
 62
     0
 48
6.0
370
    -2
100
AcDbLine
 10
137.212187843714
 20
83.6272644742417
 30
0.0
 11
137.212187843714
 21
73.62726369944168
 31
0.0
  0
LINE
  5
AD7
330
AD2
100
AcDbEntity
  8
DIM
 62
     0
 48
6.0
370
    -2
100
AcDbLine
 10
82.21218611521397
 20
73.62726369944168
 30
0.0
 11
136.212187843714
 21
73.62726369944168
 31
0.0
  0
INSERT
  5
AD8
330
AD2
100
AcDbEntity
  8
DIM
 62
     0
370
    -2
100
AcDbBlockReference
  2
_Dot
 10
81.21218611521397
 20
73.62726369944168
 30
0.0
 50
180.0
  0
INSERT
  5
AD9
330
AD2
100
AcDbEntity
  8
DIM
 62
     0
370
    -2
100
AcDbBlockReference
  2
_Dot
 10
137.212187843714
 20
73.62726369944168
 30
0.0
  0
MTEXT
  5
ADA
330
AD2
100
AcDbEntity
  8
DIM
 62
     0
 48
6.0
100
AcDbMText
 10
109.212186979464
 20
76.12726369944168
 30
0.0
 40
3.0
 41
0.0
 46
0.0
 71
     5
 72
     1
  1
\A1;56
  7
ＭＳ ゴシック
 73
     1
 44
1.0
  0
POINT
  5
ADB
330
AD2
100
AcDbEntity
  8
DEFPOINTS
 62
     0
100
AcDbPoint
 10
81.21218611521397
 20
85.6272644742417
 30
0.0
  0
POINT
  5
ADC
330
AD2
100
AcDbEntity
  8
DEFPOINTS
 62
     0
100
AcDbPoint
 10
137.212187843714
 20
85.6272644742417
 30
0.0
  0
POINT
  5
ADD
330
AD2
100
AcDbEntity
  8
DEFPOINTS
 62
     0
100
AcDbPoint
 10
137.212187843714
 20
73.62726369944168
 30
0.0
  0
ENDBLK
  5
AD4
330
AD2
100
AcDbEntity
  8
0
100
AcDbBlockEnd
  0
BLOCK
  5
ADF
330
ADE
100
AcDbEntity
  8
0
100
AcDbBlockBegin
  2
*D27
 70
     1
 10
0.0
 20
0.0
 30
0.0
  3
*D27
  1

  0
LINE
  5
AE1
330
ADE
100
AcDbEntity
  8
DIM
 62
     0
 48
6.0
370
    -2
100
AcDbLine
 10
138.074776800877
 20
83.62726414644168
 30
0.0
 11
148.0747762644772
 21
83.62726414644168
 31
0.0
  0
LINE
  5
AE2
330
ADE
100
AcDbEntity
  8
DIM
 62
     0
 48
6.0
370
    -2
100
AcDbLine
 10
140.0747771286771
 20
104.4272636791416
 30
0.0
 11
148.0747762644772
 21
104.4272636791416
 31
0.0
  0
LINE
  5
AE3
330
ADE
100
AcDbEntity
  8
DIM
 62
     0
 48
6.0
370
    -2
100
AcDbLine
 10
148.0747762644772
 20
84.62726414644168
 30
0.0
 11
148.0747762644772
 21
103.4272636791416
 31
0.0
  0
INSERT
  5
AE4
330
ADE
100
AcDbEntity
  8
DIM
 62
     0
370
    -2
100
AcDbBlockReference
  2
_Dot
 10
148.0747762644772
 20
83.62726414644168
 30
0.0
 50
270.0
  0
INSERT
  5
AE5
330
ADE
100
AcDbEntity
  8
DIM
 62
     0
370
    -2
100
AcDbBlockReference
  2
_Dot
 10
148.0747762644772
 20
104.4272636791416
 30
0.0
 50
90.0
  0
MTEXT
  5
AE6
330
ADE
100
AcDbEntity
  8
DIM
 62
     0
 48
6.0
100
AcDbMText
 10
145.5747762644772
 20
94.02726391279162
 30
0.0
 40
3.0
 41
0.0
 46
0.0
 71
     5
 72
     1
  1
\A1;20.8
  7
ＭＳ ゴシック
 11
0.0
 21
1.0
 31
0.0
 73
     1
 44
1.0
  0
POINT
  5
AE7
330
ADE
100
AcDbEntity
  8
DEFPOINTS
 62
     0
100
AcDbPoint
 10
136.074776800877
 20
83.62726414644168
 30
0.0
  0
POINT
  5
AE8
330
ADE
100
AcDbEntity
  8
DEFPOINTS
 62
     0
100
AcDbPoint
 10
138.0747771286771
 20
104.4272636791416
 30
0.0
  0
POINT
  5
AE9
330
ADE
100
AcDbEntity
  8
DEFPOINTS
 62
     0
100
AcDbPoint
 10
148.0747762644772
 20
104.4272636791416
 30
0.0
  0
ENDBLK
  5
AE0
330
ADE
100
AcDbEntity
  8
0
100
AcDbBlockEnd
  0
BLOCK
  5
AEB
330
AEA
100
AcDbEntity
  8
0
100
AcDbBlockBegin
  2
*D28
 70
     1
 10
0.0
 20
0.0
 30
0.0
  3
*D28
  1

  0
LINE
  5
AED
330
AEA
100
AcDbEntity
  8
DIM
 62
     0
 48
6.0
370
    -2
100
AcDbLine
 10
189.9752280144045
 20
81.84866260317737
 30
0.0
 11
189.9752280144045
 21
76.12726369944167
 31
0.0
  0
LINE
  5
AEE
330
AEA
100
AcDbEntity
  8
DIM
 62
     0
 48
6.0
370
    -2
100
AcDbLine
 10
190.7752280144045
 20
81.84866260317737
 30
0.0
 11
190.7752280144045
 21
76.12726369944167
 31
0.0
  0
LINE
  5
AEF
330
AEA
100
AcDbEntity
  8
DIM
 62
     0
 48
6.0
370
    -2
100
AcDbLine
 10
190.7752280144045
 20
76.12726369944167
 30
0.0
 11
204.1742280144045
 21
76.12726369944167
 31
0.0
  0
LINE
  5
AF0
330
AEA
100
AcDbEntity
  8
DIM
 62
     0
 48
6.0
370
    -2
100
AcDbLine
 10
190.9752280144045
 20
76.12726369944167
 30
0.0
 11
189.7752280144045
 21
76.12726369944167
 31
0.0
  0
LINE
  5
AF1
330
AEA
100
AcDbEntity
  8
DIM
 62
     0
 48
6.0
370
    -2
100
AcDbLine
 10
189.7752280144045
 20
76.12726369944167
 30
0.0
 11
188.7752280144045
 21
76.12726369944167
 31
0.0
  0
INSERT
  5
AF2
330
AEA
100
AcDbEntity
  8
DIM
 62
     0
370
    -2
100
AcDbBlockReference
  2
_Dot
 10
189.9752280144045
 20
76.12726369944167
 30
0.0
 50
180.0
  0
INSERT
  5
AF3
330
AEA
100
AcDbEntity
  8
DIM
 62
     0
370
    -2
100
AcDbBlockReference
  2
_Dot
 10
190.7752280144045
 20
76.12726369944167
 30
0.0
  0
MTEXT
  5
AF4
330
AEA
100
AcDbEntity
  8
DIM
 62
     0
 48
6.0
100
AcDbMText
 10
198.4747280144045
 20
78.62726369944167
 30
0.0
 40
3.0
 41
0.0
 46
0.0
 71
     5
 72
     1
  1
\A1;t=0.8
  7
ＭＳ ゴシック
 73
     1
 44
1.0
  0
POINT
  5
AF5
330
AEA
100
AcDbEntity
  8
DEFPOINTS
 62
     0
100
AcDbPoint
 10
189.9752280144045
 20
83.84866260317737
 30
0.0
  0
POINT
  5
AF6
330
AEA
100
AcDbEntity
  8
DEFPOINTS
 62
     0
100
AcDbPoint
 10
190.7752280144045
 20
83.84866260317737
 30
0.0
  0
POINT
  5
B8A
330
AEA
100
AcDbEntity
  8
DEFPOINTS
 62
     0
100
AcDbPoint
 10
190.7752280144045
 20
76.12726369944167
 30
0.0
  0
ENDBLK
  5
AEC
330
AEA
100
AcDbEntity
  8
0
100
AcDbBlockEnd
  0
BLOCK
  5
AF8
330
AF7
100
AcDbEntity
  8
0
100
AcDbBlockBegin
  2
*D29
 70
     1
 10
0.0
 20
0.0
 30
0.0
  3
*D29
  1

  0
LINE
  5
AFA
330
AF7
100
AcDbEntity
  8
DIM
 62
     0
 48
6.0
370
    -2
100
AcDbLine
 10
368.6979829508434
 20
89.45814054938297
 30
0.0
 11
383.6931317777426
 21
74.46299172248989
 31
0.0
  0
MTEXT
  5
AFB
330
AF7
100
AcDbEntity
  8
DIM
 62
     0
 48
6.0
100
AcDbMText
 10
382.8265724173975
 20
78.86508498876657
 30
0.0
 40
3.0
 41
0.0
 46
0.0
 71
     5
 72
     1
  1
\A1;2-2
  7
ＭＳ ゴシック
 11
0.7071067811866896
 21
-0.7071067811864054
 31
0.0
 73
     1
 44
1.0
  0
INSERT
  5
AFC
330
AF7
100
AcDbEntity
  8
DIM
 62
     0
370
    -2
100
AcDbBlockReference
  2
_Dot
 10
367.9908761696568
 20
90.16524733056939
 30
0.0
 50
135.0000000000115
  0
POINT
  5
AFD
330
AF7
100
AcDbEntity
  8
DEFPOINTS
 62
     0
100
AcDbPoint
 10
367.9908761696568
 20
90.16524733056939
 30
0.0
  0
POINT
  5
AFE
330
AF7
100
AcDbEntity
  8
DEFPOINTS
 62
     0
100
AcDbPoint
 10
366.5766626072833
 20
91.57946089294227
 30
0.0
  0
ENDBLK
  5
AF9
330
AF7
100
AcDbEntity
  8
0
100
AcDbBlockEnd
  0
BLOCK
  5
B00
330
AFF
100
AcDbEntity
  8
0
100
AcDbBlockBegin
  2
*D30
 70
     1
 10
0.0
 20
0.0
 30
0.0
  3
*D30
  1

  0
LINE
  5
B02
330
AFF
100
AcDbEntity
  8
DIM
 62
     0
 48
6.0
370
    -2
100
AcDbLine
 10
192.7752281455046
 20
83.62726414644168
 30
0.0
 11
202.7752276090047
 21
83.62726414644168
 31
0.0
  0
LINE
  5
B03
330
AFF
100
AcDbEntity
  8
DIM
 62
     0
 48
6.0
370
    -2
100
AcDbLine
 10
194.7752284733047
 20
104.4272636792418
 30
0.0
 11
202.7752276090047
 21
104.4272636792418
 31
0.0
  0
LINE
  5
B04
330
AFF
100
AcDbEntity
  8
DIM
 62
     0
 48
6.0
370
    -2
100
AcDbLine
 10
202.7752276090047
 20
84.62726414644168
 30
0.0
 11
202.7752276090047
 21
103.4272636792418
 31
0.0
  0
INSERT
  5
B05
330
AFF
100
AcDbEntity
  8
DIM
 62
     0
370
    -2
100
AcDbBlockReference
  2
_Dot
 10
202.7752276090047
 20
83.62726414644168
 30
0.0
 50
270.0
  0
INSERT
  5
B06
330
AFF
100
AcDbEntity
  8
DIM
 62
     0
370
    -2
100
AcDbBlockReference
  2
_Dot
 10
202.7752276090047
 20
104.4272636792418
 30
0.0
 50
90.0
  0
MTEXT
  5
B07
330
AFF
100
AcDbEntity
  8
DIM
 62
     0
 48
6.0
100
AcDbMText
 10
200.2752276090047
 20
94.02726391284176
 30
0.0
 40
3.0
 41
0.0
 46
0.0
 71
     5
 72
     1
  1
\A1;20.8
  7
ＭＳ ゴシック
 11
0.0
 21
1.0
 31
0.0
 73
     1
 44
1.0
  0
POINT
  5
B08
330
AFF
100
AcDbEntity
  8
DEFPOINTS
 62
     0
100
AcDbPoint
 10
190.7752281455046
 20
83.62726414644168
 30
0.0
  0
POINT
  5
B09
330
AFF
100
AcDbEntity
  8
DEFPOINTS
 62
     0
100
AcDbPoint
 10
192.7752284733047
 20
104.4272636792418
 30
0.0
  0
POINT
  5
B0A
330
AFF
100
AcDbEntity
  8
DEFPOINTS
 62
     0
100
AcDbPoint
 10
202.7752276090047
 20
104.4272636792418
 30
0.0
  0
ENDBLK
  5
B01
330
AFF
100
AcDbEntity
  8
0
100
AcDbBlockEnd
  0
BLOCK
  5
B90
330
B8F
100
AcDbEntity
  8
0
100
AcDbBlockBegin
  2
*D31
 70
     1
 10
0.0
 20
0.0
 30
0.0
  3
*D31
  1

  0
LINE
  5
B92
330
B8F
100
AcDbEntity
  8
DIM
 62
     0
 48
6.0
370
    -2
100
AcDbLine
 10
189.9752280144045
 20
81.84866260317737
 30
0.0
 11
189.9752280144045
 21
76.12726369944167
 31
0.0
  0
LINE
  5
B93
330
B8F
100
AcDbEntity
  8
DIM
 62
     0
 48
6.0
370
    -2
100
AcDbLine
 10
177.4752279213045
 20
81.84866260317737
 30
0.0
 11
177.4752279213045
 21
76.12726369944167
 31
0.0
  0
LINE
  5
B94
330
B8F
100
AcDbEntity
  8
DIM
 62
     0
 48
6.0
370
    -2
100
AcDbLine
 10
188.9752280144045
 20
76.12726369944167
 30
0.0
 11
178.4752279213045
 21
76.12726369944167
 31
0.0
  0
INSERT
  5
B95
330
B8F
100
AcDbEntity
  8
DIM
 62
     0
370
    -2
100
AcDbBlockReference
  2
_Dot
 10
189.9752280144045
 20
76.12726369944167
 30
0.0
  0
INSERT
  5
B96
330
B8F
100
AcDbEntity
  8
DIM
 62
     0
370
    -2
100
AcDbBlockReference
  2
_Dot
 10
177.4752279213045
 20
76.12726369944167
 30
0.0
 50
180.0
  0
MTEXT
  5
B97
330
B8F
100
AcDbEntity
  8
DIM
 62
     0
 48
6.0
100
AcDbMText
 10
183.7252279678545
 20
78.62726369944167
 30
0.0
 40
3.0
 41
0.0
 46
0.0
 71
     5
 72
     1
  1
\A1;12.5
  7
ＭＳ ゴシック
 73
     1
 44
1.0
  0
POINT
  5
B98
330
B8F
100
AcDbEntity
  8
DEFPOINTS
 62
     0
100
AcDbPoint
 10
189.9752280144045
 20
83.84866260317737
 30
0.0
  0
POINT
  5
B99
330
B8F
100
AcDbEntity
  8
DEFPOINTS
 62
     0
100
AcDbPoint
 10
177.4752279213045
 20
83.84866260317737
 30
0.0
  0
POINT
  5
B9A
330
B8F
100
AcDbEntity
  8
DEFPOINTS
 62
     0
100
AcDbPoint
 10
177.4752279213045
 20
76.12726369944167
 30
0.0
  0
ENDBLK
  5
B91
330
B8F
100
AcDbEntity
  8
0
100
AcDbBlockEnd
  0
BLOCK
  5
C25
330
C24
100
AcDbEntity
  8
0
 48
6.0
100
AcDbBlockBegin
  2
*D32
 70
     1
 10
0.0
 20
0.0
 30
0.0
  3
*D32
  1

  0
LINE
  5
C26
330
C24
100
AcDbEntity
  8
寸法線
 62
     0
 48
6.0
370
    -2
100
AcDbLine
 10
58.50000172860011
 20
63.94172086479942
 30
0.0
 11
66.5000008643001
 21
63.94172086479942
 31
0.0
  0
LINE
  5
C27
330
C24
100
AcDbEntity
  8
寸法線
 62
     0
 48
6.0
370
    -2
100
AcDbLine
 10
58.50000172860011
 20
76.04172079929954
 30
0.0
 11
66.5000008643001
 21
76.04172079929954
 31
0.0
  0
LINE
  5
C28
330
C24
100
AcDbEntity
  8
寸法線
 62
     0
 48
6.0
370
    -2
100
AcDbLine
 10
66.5000008643001
 20
64.94172086479942
 30
0.0
 11
66.5000008643001
 21
75.04172079929954
 31
0.0
  0
INSERT
  5
C29
330
C24
100
AcDbEntity
  8
寸法線
 62
     0
370
    -2
100
AcDbBlockReference
  2
_Dot
 10
66.5000008643001
 20
63.94172086479942
 30
0.0
 50
270.0
  0
INSERT
  5
C2A
330
C24
100
AcDbEntity
  8
寸法線
 62
     0
370
    -2
100
AcDbBlockReference
  2
_Dot
 10
66.5000008643001
 20
76.04172079929954
 30
0.0
 50
90.0
  0
MTEXT
  5
C2B
330
C24
100
AcDbEntity
  8
寸法線
 62
     0
 48
6.0
100
AcDbMText
 10
64.1250008643001
 20
69.99172083204948
 30
0.0
 40
2.75
 41
0.0
 46
0.0
 71
     5
 72
     1
  1
\A1;12.1
  7
ＭＳ ゴシック
 11
0.0
 21
1.0
 31
0.0
 73
     1
 44
1.0
  0
POINT
  5
C2C
330
C24
100
AcDbEntity
  8
DEFPOINTS
 62
     0
100
AcDbPoint
 10
56.50000172860011
 20
63.94172086479942
 30
0.0
  0
POINT
  5
C2D
330
C24
100
AcDbEntity
  8
DEFPOINTS
 62
     0
100
AcDbPoint
 10
56.50000172860011
 20
76.04172079929954
 30
0.0
  0
POINT
  5
C2E
330
C24
100
AcDbEntity
  8
DEFPOINTS
 62
     0
100
AcDbPoint
 10
66.5000008643001
 20
76.04172079929954
 30
0.0
  0
ENDBLK
  5
C2F
330
C24
100
AcDbEntity
  8
0
 48
6.0
100
AcDbBlockEnd
  0
BLOCK
  5
C32
330
C31
100
AcDbEntity
  8
0
 48
6.0
100
AcDbBlockBegin
  2
*D33
 70
     1
 10
0.0
 20
0.0
 30
0.0
  3
*D33
  1

  0
LINE
  5
C33
330
C31
100
AcDbEntity
  8
寸法線
 62
     0
 48
6.0
370
    -2
100
AcDbLine
 10
0.5
 20
14.79526668989952
 30
0.0
 11
0.5
 21
4.795265915099506
 31
0.0
  0
LINE
  5
C34
330
C31
100
AcDbEntity
  8
寸法線
 62
     0
 48
6.0
370
    -2
100
AcDbLine
 10
56.50000172860011
 20
14.79526668989952
 30
0.0
 11
56.50000172860011
 21
4.795265915099506
 31
0.0
  0
LINE
  5
C35
330
C31
100
AcDbEntity
  8
寸法線
 62
     0
 48
6.0
370
    -2
100
AcDbLine
 10
1.5
 20
4.795265915099506
 30
0.0
 11
55.50000172860011
 21
4.795265915099506
 31
0.0
  0
INSERT
  5
C36
330
C31
100
AcDbEntity
  8
寸法線
 62
     0
370
    -2
100
AcDbBlockReference
  2
_Dot
 10
0.5
 20
4.795265915099506
 30
0.0
 50
180.0
  0
INSERT
  5
C37
330
C31
100
AcDbEntity
  8
寸法線
 62
     0
370
    -2
100
AcDbBlockReference
  2
_Dot
 10
56.50000172860011
 20
4.795265915099506
 30
0.0
  0
MTEXT
  5
C38
330
C31
100
AcDbEntity
  8
寸法線
 62
     0
 48
6.0
100
AcDbMText
 10
28.50000086430006
 20
7.170265915099506
 30
0.0
 40
2.75
 41
0.0
 46
0.0
 71
     5
 72
     1
  1
\A1;56
  7
ＭＳ ゴシック
 73
     1
 44
1.0
  0
POINT
  5
C39
330
C31
100
AcDbEntity
  8
DEFPOINTS
 62
     0
100
AcDbPoint
 10
0.5
 20
16.79526668989952
 30
0.0
  0
POINT
  5
C3A
330
C31
100
AcDbEntity
  8
DEFPOINTS
 62
     0
100
AcDbPoint
 10
56.50000172860011
 20
16.79526668989952
 30
0.0
  0
POINT
  5
C3B
330
C31
100
AcDbEntity
  8
DEFPOINTS
 62
     0
100
AcDbPoint
 10
56.50000172860011
 20
4.795265915099506
 30
0.0
  0
ENDBLK
  5
C3C
330
C31
100
AcDbEntity
  8
0
 48
6.0
100
AcDbBlockEnd
  0
BLOCK
  5
C3F
330
C3E
100
AcDbEntity
  8
0
 48
6.0
100
AcDbBlockBegin
  2
*D34
 70
     1
 10
0.0
 20
0.0
 30
0.0
  3
*D34
  1

  0
LINE
  5
C40
330
C3E
100
AcDbEntity
  8
寸法線
 62
     0
 48
6.0
370
    -2
100
AcDbLine
 10
56.5000014008
 20
14.79526636209941
 30
0.0
 11
66.5000008643001
 21
14.79526636209941
 31
0.0
  0
LINE
  5
C41
330
C3E
100
AcDbEntity
  8
寸法線
 62
     0
 48
6.0
370
    -2
100
AcDbLine
 10
58.50000172860011
 20
35.59526589489953
 30
0.0
 11
66.5000008643001
 21
35.59526589489953
 31
0.0
  0
LINE
  5
C42
330
C3E
100
AcDbEntity
  8
寸法線
 62
     0
 48
6.0
370
    -2
100
AcDbLine
 10
66.5000008643001
 20
15.79526636209941
 30
0.0
 11
66.5000008643001
 21
34.59526589489953
 31
0.0
  0
INSERT
  5
C43
330
C3E
100
AcDbEntity
  8
寸法線
 62
     0
370
    -2
100
AcDbBlockReference
  2
_Dot
 10
66.5000008643001
 20
14.79526636209941
 30
0.0
 50
270.0
  0
INSERT
  5
C44
330
C3E
100
AcDbEntity
  8
寸法線
 62
     0
370
    -2
100
AcDbBlockReference
  2
_Dot
 10
66.5000008643001
 20
35.59526589489953
 30
0.0
 50
90.0
  0
MTEXT
  5
C45
330
C3E
100
AcDbEntity
  8
寸法線
 62
     0
 48
6.0
100
AcDbMText
 10
64.1250008643001
 20
25.19526612849947
 30
0.0
 40
2.75
 41
0.0
 46
0.0
 71
     5
 72
     1
  1
\A1;20.8
  7
ＭＳ ゴシック
 11
0.0
 21
1.0
 31
0.0
 73
     1
 44
1.0
  0
POINT
  5
C46
330
C3E
100
AcDbEntity
  8
DEFPOINTS
 62
     0
100
AcDbPoint
 10
54.5000014008
 20
14.79526636209941
 30
0.0
  0
POINT
  5
C47
330
C3E
100
AcDbEntity
  8
DEFPOINTS
 62
     0
100
AcDbPoint
 10
56.50000172860011
 20
35.59526589489953
 30
0.0
  0
POINT
  5
C48
330
C3E
100
AcDbEntity
  8
DEFPOINTS
 62
     0
100
AcDbPoint
 10
66.5000008643001
 20
35.59526589489953
 30
0.0
  0
ENDBLK
  5
C49
330
C3E
100
AcDbEntity
  8
0
 48
6.0
100
AcDbBlockEnd
  0
BLOCK
  5
C4C
330
C4B
100
AcDbEntity
  8
0
 48
6.0
100
AcDbBlockBegin
  2
*D35
 70
     1
 10
0.0
 20
0.0
 30
0.0
  3
*D35
  1

  0
LINE
  5
C4D
330
C4B
100
AcDbEntity
  8
寸法線
 62
     0
 48
6.0
370
    -2
100
AcDbLine
 10
98.84948562040002
 20
12.79526636209941
 30
0.0
 11
98.84948562040002
 21
4.795265915099506
 31
0.0
  0
LINE
  5
C4E
330
C4B
100
AcDbEntity
  8
寸法線
 62
     0
 48
6.0
370
    -2
100
AcDbLine
 10
99.6494856584
 20
12.79526636209941
 30
0.0
 11
99.6494856584
 21
4.795265915099506
 31
0.0
  0
LINE
  5
C4F
330
C4B
100
AcDbEntity
  8
寸法線
 62
     0
 48
6.0
370
    -2
100
AcDbLine
 10
97.84948562040002
 20
4.795265915099506
 30
0.0
 11
96.84948562040002
 21
4.795265915099506
 31
0.0
  0
LINE
  5
C50
330
C4B
100
AcDbEntity
  8
寸法線
 62
     0
 48
6.0
370
    -2
100
AcDbLine
 10
100.6494856584
 20
4.795265915099506
 30
0.0
 11
101.6494856584
 21
4.795265915099506
 31
0.0
  0
INSERT
  5
C51
330
C4B
100
AcDbEntity
  8
寸法線
 62
     0
370
    -2
100
AcDbBlockReference
  2
_Dot
 10
98.84948562040002
 20
4.795265915099506
 30
0.0
  0
INSERT
  5
C52
330
C4B
100
AcDbEntity
  8
寸法線
 62
     0
370
    -2
100
AcDbBlockReference
  2
_Dot
 10
99.6494856584
 20
4.795265915099506
 30
0.0
 50
180.0
  0
MTEXT
  5
C53
330
C4B
100
AcDbEntity
  8
寸法線
 62
     0
 48
6.0
100
AcDbMText
 10
99.2494856394
 20
7.170265915099506
 30
0.0
 40
2.75
 41
0.0
 46
0.0
 71
     5
 72
     1
  1
\A1;t=0.8
  7
ＭＳ ゴシック
 73
     1
 44
1.0
  0
POINT
  5
C54
330
C4B
100
AcDbEntity
  8
DEFPOINTS
 62
     0
100
AcDbPoint
 10
98.84948562040002
 20
14.79526636209941
 30
0.0
  0
POINT
  5
C55
330
C4B
100
AcDbEntity
  8
DEFPOINTS
 62
     0
100
AcDbPoint
 10
99.6494856584
 20
14.79526636209941
 30
0.0
  0
POINT
  5
C56
330
C4B
100
AcDbEntity
  8
DEFPOINTS
 62
     0
100
AcDbPoint
 10
99.6494856584
 20
4.795265915099506
 30
0.0
  0
ENDBLK
  5
C57
330
C4B
100
AcDbEntity
  8
0
 48
6.0
100
AcDbBlockEnd
  0
BLOCK
  5
C5A
330
C59
100
AcDbEntity
  8
0
 48
6.0
100
AcDbBlockBegin
  2
*D36
 70
     1
 10
0.0
 20
0.0
 30
0.0
  3
*D36
  1

  0
LINE
  5
C5B
330
C59
100
AcDbEntity
  8
寸法線
 62
     0
 48
6.0
370
    -2
100
AcDbLine
 10
56.62132120785959
 20
14.67394557153963
 30
0.0
 11
71.45586840707429
 21
-0.1606016276771522
 31
0.0
  0
MTEXT
  5
C5C
330
C59
100
AcDbEntity
  8
寸法線
 62
     0
 48
6.0
100
AcDbMText
 10
70.66152232675914
 20
3.992501663274439
 30
0.0
 40
2.75
 41
0.0
 46
0.0
 71
     5
 72
     1
  1
\A1;2-2
  7
ＭＳ ゴシック
 11
0.7071067811864977
 21
-0.7071067811865972
 31
0.0
 73
     1
 44
1.0
  0
INSERT
  5
C5D
330
C59
100
AcDbEntity
  8
寸法線
 62
     0
370
    -2
100
AcDbBlockReference
  2
_Dot
 10
55.9142144266731
 20
15.38105235272623
 30
0.0
 50
134.999999999996
  0
POINT
  5
C5E
330
C59
100
AcDbEntity
  8
DEFPOINTS
 62
     0
100
AcDbPoint
 10
55.9142144266731
 20
15.38105235272623
 30
0.0
  0
POINT
  5
C5F
330
C59
100
AcDbEntity
  8
DEFPOINTS
 62
     0
100
AcDbPoint
 10
54.50000086430002
 20
16.79526591509951
 30
0.0
  0
ENDBLK
  5
C60
330
C59
100
AcDbEntity
  8
0
 48
6.0
100
AcDbBlockEnd
  0
BLOCK
  5
C8A
330
C89
100
AcDbEntity
  8
0
100
AcDbBlockBegin
  2
*D37
 70
     1
 10
0.0
 20
0.0
 30
0.0
  3
*D37
  1

  0
LINE
  5
C8C
330
C89
100
AcDbEntity
  8
DIM
 62
     0
 48
6.0
370
    -2
100
AcDbLine
 10
149.390339052086
 20
137.0030517717419
 30
0.0
 11
157.390338187786
 21
137.0030517717419
 31
0.0
  0
LINE
  5
C8D
330
C89
100
AcDbEntity
  8
DIM
 62
     0
 48
6.0
370
    -2
100
AcDbLine
 10
149.390339052086
 20
149.103051706242
 30
0.0
 11
157.390338187786
 21
149.103051706242
 31
0.0
  0
LINE
  5
C8E
330
C89
100
AcDbEntity
  8
DIM
 62
     0
 48
6.0
370
    -2
100
AcDbLine
 10
157.390338187786
 20
138.0030517717419
 30
0.0
 11
157.390338187786
 21
148.103051706242
 31
0.0
  0
INSERT
  5
C8F
330
C89
100
AcDbEntity
  8
DIM
 62
     0
370
    -2
100
AcDbBlockReference
  2
_Dot
 10
157.390338187786
 20
137.0030517717419
 30
0.0
 50
270.0
  0
INSERT
  5
C90
330
C89
100
AcDbEntity
  8
DIM
 62
     0
370
    -2
100
AcDbBlockReference
  2
_Dot
 10
157.390338187786
 20
149.103051706242
 30
0.0
 50
90.0
  0
MTEXT
  5
C91
330
C89
100
AcDbEntity
  8
DIM
 62
     0
 48
6.0
100
AcDbMText
 10
154.890338187786
 20
143.053051738992
 30
0.0
 40
3.0
 41
0.0
 46
0.0
 71
     5
 72
     1
  1
\A1;12.1
  7
ＭＳ ゴシック
 11
0.0
 21
1.0
 31
0.0
 73
     1
 44
1.0
  0
POINT
  5
C92
330
C89
100
AcDbEntity
  8
DEFPOINTS
 62
     0
100
AcDbPoint
 10
147.390339052086
 20
137.0030517717419
 30
0.0
  0
POINT
  5
C93
330
C89
100
AcDbEntity
  8
DEFPOINTS
 62
     0
100
AcDbPoint
 10
147.390339052086
 20
149.103051706242
 30
0.0
  0
POINT
  5
C94
330
C89
100
AcDbEntity
  8
DEFPOINTS
 62
     0
100
AcDbPoint
 10
157.390338187786
 20
149.103051706242
 30
0.0
  0
ENDBLK
  5
C8B
330
C89
100
AcDbEntity
  8
0
100
AcDbBlockEnd
  0
BLOCK
  5
C96
330
C95
100
AcDbEntity
  8
0
100
AcDbBlockBegin
  2
*D38
 70
     1
 10
0.0
 20
0.0
 30
0.0
  3
*D38
  1

  0
LINE
  5
C98
330
C95
100
AcDbEntity
  8
DIM
 62
     0
 48
6.0
370
    -2
100
AcDbLine
 10
91.39033732348588
 20
87.85659759684201
 30
0.0
 11
91.39033732348588
 21
77.856596822042
 31
0.0
  0
LINE
  5
C99
330
C95
100
AcDbEntity
  8
DIM
 62
     0
 48
6.0
370
    -2
100
AcDbLine
 10
147.390339052086
 20
87.85659759684201
 30
0.0
 11
147.390339052086
 21
77.856596822042
 31
0.0
  0
LINE
  5
C9A
330
C95
100
AcDbEntity
  8
DIM
 62
     0
 48
6.0
370
    -2
100
AcDbLine
 10
92.39033732348588
 20
77.856596822042
 30
0.0
 11
146.390339052086
 21
77.856596822042
 31
0.0
  0
INSERT
  5
C9B
330
C95
100
AcDbEntity
  8
DIM
 62
     0
370
    -2
100
AcDbBlockReference
  2
_Dot
 10
91.39033732348588
 20
77.856596822042
 30
0.0
 50
180.0
  0
INSERT
  5
C9C
330
C95
100
AcDbEntity
  8
DIM
 62
     0
370
    -2
100
AcDbBlockReference
  2
_Dot
 10
147.390339052086
 20
77.856596822042
 30
0.0
  0
MTEXT
  5
C9D
330
C95
100
AcDbEntity
  8
DIM
 62
     0
 48
6.0
100
AcDbMText
 10
119.3903381877859
 20
80.356596822042
 30
0.0
 40
3.0
 41
0.0
 46
0.0
 71
     5
 72
     1
  1
\A1;56
  7
ＭＳ ゴシック
 73
     1
 44
1.0
  0
POINT
  5
C9E
330
C95
100
AcDbEntity
  8
DEFPOINTS
 62
     0
100
AcDbPoint
 10
91.39033732348588
 20
89.85659759684201
 30
0.0
  0
POINT
  5
C9F
330
C95
100
AcDbEntity
  8
DEFPOINTS
 62
     0
100
AcDbPoint
 10
147.390339052086
 20
89.85659759684201
 30
0.0
  0
POINT
  5
CA0
330
C95
100
AcDbEntity
  8
DEFPOINTS
 62
     0
100
AcDbPoint
 10
147.390339052086
 20
77.856596822042
 30
0.0
  0
ENDBLK
  5
C97
330
C95
100
AcDbEntity
  8
0
100
AcDbBlockEnd
  0
BLOCK
  5
CA2
330
CA1
100
AcDbEntity
  8
0
100
AcDbBlockBegin
  2
*D39
 70
     1
 10
0.0
 20
0.0
 30
0.0
  3
*D39
  1

  0
LINE
  5
CA4
330
CA1
100
AcDbEntity
  8
DIM
 62
     0
 48
6.0
370
    -2
100
AcDbLine
 10
147.3903387242859
 20
87.8565972690419
 30
0.0
 11
157.390338187786
 21
87.8565972690419
 31
0.0
  0
LINE
  5
CA5
330
CA1
100
AcDbEntity
  8
DIM
 62
     0
 48
6.0
370
    -2
100
AcDbLine
 10
149.390339052086
 20
108.656596801842
 30
0.0
 11
157.390338187786
 21
108.656596801842
 31
0.0
  0
LINE
  5
CA6
330
CA1
100
AcDbEntity
  8
DIM
 62
     0
 48
6.0
370
    -2
100
AcDbLine
 10
157.390338187786
 20
88.8565972690419
 30
0.0
 11
157.390338187786
 21
107.656596801842
 31
0.0
  0
INSERT
  5
CA7
330
CA1
100
AcDbEntity
  8
DIM
 62
     0
370
    -2
100
AcDbBlockReference
  2
_Dot
 10
157.390338187786
 20
87.8565972690419
 30
0.0
 50
270.0
  0
INSERT
  5
CA8
330
CA1
100
AcDbEntity
  8
DIM
 62
     0
370
    -2
100
AcDbBlockReference
  2
_Dot
 10
157.390338187786
 20
108.656596801842
 30
0.0
 50
90.0
  0
MTEXT
  5
CA9
330
CA1
100
AcDbEntity
  8
DIM
 62
     0
 48
6.0
100
AcDbMText
 10
154.890338187786
 20
98.25659703544196
 30
0.0
 40
3.0
 41
0.0
 46
0.0
 71
     5
 72
     1
  1
\A1;20.8
  7
ＭＳ ゴシック
 11
0.0
 21
1.0
 31
0.0
 73
     1
 44
1.0
  0
POINT
  5
CAA
330
CA1
100
AcDbEntity
  8
DEFPOINTS
 62
     0
100
AcDbPoint
 10
145.3903387242859
 20
87.8565972690419
 30
0.0
  0
POINT
  5
CAB
330
CA1
100
AcDbEntity
  8
DEFPOINTS
 62
     0
100
AcDbPoint
 10
147.390339052086
 20
108.656596801842
 30
0.0
  0
POINT
  5
CAC
330
CA1
100
AcDbEntity
  8
DEFPOINTS
 62
     0
100
AcDbPoint
 10
157.390338187786
 20
108.656596801842
 30
0.0
  0
ENDBLK
  5
CA3
330
CA1
100
AcDbEntity
  8
0
100
AcDbBlockEnd
  0
BLOCK
  5
CAE
330
CAD
100
AcDbEntity
  8
0
100
AcDbBlockBegin
  2
*D40
 70
     1
 10
0.0
 20
0.0
 30
0.0
  3
*D40
  1

  0
LINE
  5
CB0
330
CAD
100
AcDbEntity
  8
DIM
 62
     0
 48
6.0
370
    -2
100
AcDbLine
 10
189.7398229438859
 20
85.8565972690419
 30
0.0
 11
189.7398229438859
 21
77.856596822042
 31
0.0
  0
LINE
  5
CB1
330
CAD
100
AcDbEntity
  8
DIM
 62
     0
 48
6.0
370
    -2
100
AcDbLine
 10
190.5398229818859
 20
85.8565972690419
 30
0.0
 11
190.5398229818859
 21
77.856596822042
 31
0.0
  0
LINE
  5
CB2
330
CAD
100
AcDbEntity
  8
DIM
 62
     0
 48
6.0
370
    -2
100
AcDbLine
 10
190.5398229818859
 20
77.856596822042
 30
0.0
 11
203.9388229818859
 21
77.856596822042
 31
0.0
  0
LINE
  5
CB3
330
CAD
100
AcDbEntity
  8
DIM
 62
     0
 48
6.0
370
    -2
100
AcDbLine
 10
188.7398229438859
 20
77.856596822042
 30
0.0
 11
187.7398229438859
 21
77.856596822042
 31
0.0
  0
LINE
  5
CB4
330
CAD
100
AcDbEntity
  8
DIM
 62
     0
 48
6.0
370
    -2
100
AcDbLine
 10
191.5398229818859
 20
77.856596822042
 30
0.0
 11
192.5398229818859
 21
77.856596822042
 31
0.0
  0
INSERT
  5
CB5
330
CAD
100
AcDbEntity
  8
DIM
 62
     0
370
    -2
100
AcDbBlockReference
  2
_Dot
 10
189.7398229438859
 20
77.856596822042
 30
0.0
  0
INSERT
  5
CB6
330
CAD
100
AcDbEntity
  8
DIM
 62
     0
370
    -2
100
AcDbBlockReference
  2
_Dot
 10
190.5398229818859
 20
77.856596822042
 30
0.0
 50
180.0
  0
MTEXT
  5
CB7
330
CAD
100
AcDbEntity
  8
DIM
 62
     0
 48
6.0
100
AcDbMText
 10
198.2393229818859
 20
80.356596822042
 30
0.0
 40
3.0
 41
0.0
 46
0.0
 71
     5
 72
     1
  1
\A1;t=0.8
  7
ＭＳ ゴシック
 73
     1
 44
1.0
  0
POINT
  5
CB8
330
CAD
100
AcDbEntity
  8
DEFPOINTS
 62
     0
100
AcDbPoint
 10
189.7398229438859
 20
87.8565972690419
 30
0.0
  0
POINT
  5
CB9
330
CAD
100
AcDbEntity
  8
DEFPOINTS
 62
     0
100
AcDbPoint
 10
190.5398229818859
 20
87.8565972690419
 30
0.0
  0
POINT
  5
CC2
330
CAD
100
AcDbEntity
  8
DEFPOINTS
 62
     0
100
AcDbPoint
 10
190.5398229818859
 20
77.856596822042
 30
0.0
  0
ENDBLK
  5
CAF
330
CAD
100
AcDbEntity
  8
0
100
AcDbBlockEnd
  0
BLOCK
  5
CBB
330
CBA
100
AcDbEntity
  8
0
100
AcDbBlockBegin
  2
*D41
 70
     1
 10
0.0
 20
0.0
 30
0.0
  3
*D41
  1

  0
LINE
  5
CBD
330
CBA
100
AcDbEntity
  8
DIM
 62
     0
 48
6.0
370
    -2
100
AcDbLine
 10
385.599546271375
 20
87.7352764784821
 30
0.0
 11
400.5946950982666
 21
72.74012765158815
 31
0.0
  0
MTEXT
  5
CBE
330
CBA
100
AcDbEntity
  8
DIM
 62
     0
 48
6.0
100
AcDbMText
 10
399.7281357379228
 20
77.14222091786509
 30
0.0
 40
3.0
 41
0.0
 46
0.0
 71
     5
 72
     1
  1
\A1;2-2
  7
ＭＳ ゴシック
 11
0.7071067811864906
 21
-0.7071067811866043
 31
0.0
 73
     1
 44
1.0
  0
INSERT
  5
CBF
330
CBA
100
AcDbEntity
  8
DIM
 62
     0
370
    -2
100
AcDbBlockReference
  2
_Dot
 10
384.8924394901885
 20
88.44238325966872
 30
0.0
 50
134.9999999999954
  0
POINT
  5
CC0
330
CBA
100
AcDbEntity
  8
DEFPOINTS
 62
     0
100
AcDbPoint
 10
384.8924394901885
 20
88.44238325966872
 30
0.0
  0
POINT
  5
CC1
330
CBA
100
AcDbEntity
  8
DEFPOINTS
 62
     0
100
AcDbPoint
 10
383.4782259278155
 20
89.856596822042
 30
0.0
  0
ENDBLK
  5
CBC
330
CBA
100
AcDbEntity
  8
0
100
AcDbBlockEnd
  0
BLOCK
  5
CC8
330
CC7
100
AcDbEntity
  8
0
100
AcDbBlockBegin
  2
*D42
 70
     1
 10
0.0
 20
0.0
 30
0.0
  3
*D42
  1

  0
LINE
  5
CCA
330
CC7
100
AcDbEntity
  8
DIM
 62
     0
 48
6.0
370
    -2
100
AcDbLine
 10
189.7398229438859
 20
85.8565972690419
 30
0.0
 11
189.7398229438859
 21
77.856596822042
 31
0.0
  0
LINE
  5
CCB
330
CC7
100
AcDbEntity
  8
DIM
 62
     0
 48
6.0
370
    -2
100
AcDbLine
 10
179.2398230853859
 20
85.8565972690419
 30
0.0
 11
179.2398230853859
 21
77.856596822042
 31
0.0
  0
LINE
  5
CCC
330
CC7
100
AcDbEntity
  8
DIM
 62
     0
 48
6.0
370
    -2
100
AcDbLine
 10
188.7398229438859
 20
77.856596822042
 30
0.0
 11
180.2398230853859
 21
77.856596822042
 31
0.0
  0
INSERT
  5
CCD
330
CC7
100
AcDbEntity
  8
DIM
 62
     0
370
    -2
100
AcDbBlockReference
  2
_Dot
 10
189.7398229438859
 20
77.856596822042
 30
0.0
  0
INSERT
  5
CCE
330
CC7
100
AcDbEntity
  8
DIM
 62
     0
370
    -2
100
AcDbBlockReference
  2
_Dot
 10
179.2398230853859
 20
77.856596822042
 30
0.0
 50
180.0
  0
MTEXT
  5
CCF
330
CC7
100
AcDbEntity
  8
DIM
 62
     0
 48
6.0
100
AcDbMText
 10
184.4898230146359
 20
80.356596822042
 30
0.0
 40
3.0
 41
0.0
 46
0.0
 71
     5
 72
     1
  1
\A1;10.5
  7
ＭＳ ゴシック
 73
     1
 44
1.0
  0
POINT
  5
CD0
330
CC7
100
AcDbEntity
  8
DEFPOINTS
 62
     0
100
AcDbPoint
 10
189.7398229438859
 20
87.8565972690419
 30
0.0
  0
POINT
  5
CD1
330
CC7
100
AcDbEntity
  8
DEFPOINTS
 62
     0
100
AcDbPoint
 10
179.2398230853859
 20
87.8565972690419
 30
0.0
  0
POINT
  5
CD2
330
CC7
100
AcDbEntity
  8
DEFPOINTS
 62
     0
100
AcDbPoint
 10
179.2398230853859
 20
77.856596822042
 30
0.0
  0
ENDBLK
  5
CC9
330
CC7
100
AcDbEntity
  8
0
100
AcDbBlockEnd
  0
BLOCK
  5
E15
330
E14
100
AcDbEntity
  8
0
 48
6.0
100
AcDbBlockBegin
  2
*D43
 70
     1
 10
0.0
 20
0.0
 30
0.0
  3
*D43
  1

  0
LINE
  5
E16
330
E14
100
AcDbEntity
  8
寸法線
 62
     0
 48
6.0
370
    -2
100
AcDbLine
 10
10.6668745705
 20
101.406423916077
 30
0.0
 11
3.559319284800011
 21
101.406423916077
 31
0.0
  0
LINE
  5
E17
330
E14
100
AcDbEntity
  8
寸法線
 62
     0
 48
6.0
370
    -2
100
AcDbLine
 10
6.529374034100016
 20
117.406423916077
 30
0.0
 11
3.559319284800011
 21
117.406423916077
 31
0.0
  0
LINE
  5
E18
330
E14
100
AcDbEntity
  8
寸法線
 62
     0
 48
6.0
370
    -2
100
AcDbLine
 10
3.559319284800011
 20
102.406423916077
 30
0.0
 11
3.559319284800011
 21
116.406423916077
 31
0.0
  0
INSERT
  5
E19
330
E14
100
AcDbEntity
  8
寸法線
 62
     0
370
    -2
100
AcDbBlockReference
  2
_Dot
 10
3.559319284800011
 20
101.406423916077
 30
0.0
 50
270.0
  0
INSERT
  5
E1A
330
E14
100
AcDbEntity
  8
寸法線
 62
     0
370
    -2
100
AcDbBlockReference
  2
_Dot
 10
3.559319284800011
 20
117.406423916077
 30
0.0
 50
90.0
  0
MTEXT
  5
E1B
330
E14
100
AcDbEntity
  8
寸法線
 62
     0
 48
6.0
100
AcDbMText
 10
1.184319284800011
 20
109.406423916077
 30
0.0
 40
2.75
 41
0.0
 46
0.0
 71
     5
 72
     1
  1
\A1;16
  7
ＭＳ ゴシック
 11
5.551115123125783E-17
 21
1.0
 31
0.0
 73
     1
 44
1.0
  0
POINT
  5
E1C
330
E14
100
AcDbEntity
  8
DEFPOINTS
 62
     0
100
AcDbPoint
 10
12.6668745705
 20
101.406423916077
 30
0.0
  0
POINT
  5
E1D
330
E14
100
AcDbEntity
  8
DEFPOINTS
 62
     0
100
AcDbPoint
 10
8.529374034100016
 20
117.406423916077
 30
0.0
  0
POINT
  5
E1E
330
E14
100
AcDbEntity
  8
DEFPOINTS
 62
     0
100
AcDbPoint
 10
3.559319284800011
 20
117.406423916077
 30
0.0
  0
ENDBLK
  5
E1F
330
E14
100
AcDbEntity
  8
0
 48
6.0
100
AcDbBlockEnd
  0
BLOCK
  5
E22
330
E21
100
AcDbEntity
  8
0
 48
6.0
100
AcDbBlockBegin
  2
*D44
 70
     1
 10
0.0
 20
0.0
 30
0.0
  3
*D44
  1

  0
LINE
  5
E23
330
E21
100
AcDbEntity
  8
寸法線
 62
     0
 48
6.0
370
    -2
100
AcDbLine
 10
9.529374570499698
 20
95.90642391607713
 30
0.0
 11
9.529374570499698
 21
82.40642391607702
 31
0.0
  0
LINE
  5
E24
330
E21
100
AcDbEntity
  8
寸法線
 62
     0
 48
6.0
370
    -2
100
AcDbLine
 10
59.52937494310007
 20
95.90642391607713
 30
0.0
 11
59.52937494310007
 21
82.40642391607702
 31
0.0
  0
LINE
  5
E25
330
E21
100
AcDbEntity
  8
寸法線
 62
     0
 48
6.0
370
    -2
100
AcDbLine
 10
10.5293745704997
 20
82.40642391607702
 30
0.0
 11
58.52937494310007
 21
82.40642391607702
 31
0.0
  0
INSERT
  5
E26
330
E21
100
AcDbEntity
  8
寸法線
 62
     0
370
    -2
100
AcDbBlockReference
  2
_Dot
 10
9.529374570499698
 20
82.40642391607702
 30
0.0
 50
180.0
  0
INSERT
  5
E27
330
E21
100
AcDbEntity
  8
寸法線
 62
     0
370
    -2
100
AcDbBlockReference
  2
_Dot
 10
59.52937494310007
 20
82.40642391607702
 30
0.0
  0
MTEXT
  5
E28
330
E21
100
AcDbEntity
  8
寸法線
 62
     0
 48
6.0
100
AcDbMText
 10
34.52937475679988
 20
84.78142391607702
 30
0.0
 40
2.75
 41
0.0
 46
0.0
 71
     5
 72
     1
  1
\A1;50
  7
ＭＳ ゴシック
 73
     1
 44
1.0
  0
POINT
  5
E29
330
E21
100
AcDbEntity
  8
DEFPOINTS
 62
     0
100
AcDbPoint
 10
9.529374570499698
 20
97.90642391607713
 30
0.0
  0
POINT
  5
E2A
330
E21
100
AcDbEntity
  8
DEFPOINTS
 62
     0
100
AcDbPoint
 10
59.52937494310007
 20
97.90642391607713
 30
0.0
  0
POINT
  5
E2B
330
E21
100
AcDbEntity
  8
DEFPOINTS
 62
     0
100
AcDbPoint
 10
59.52937494310007
 20
82.40642391607702
 30
0.0
  0
ENDBLK
  5
E2C
330
E21
100
AcDbEntity
  8
0
 48
6.0
100
AcDbBlockEnd
  0
BLOCK
  5
E2F
330
E2E
100
AcDbEntity
  8
0
 48
6.0
100
AcDbBlockBegin
  2
*D45
 70
     1
 10
0.0
 20
0.0
 30
0.0
  3
*D45
  1

  0
LINE
  5
E30
330
E2E
100
AcDbEntity
  8
寸法線
 62
     0
 48
6.0
370
    -2
100
AcDbLine
 10
8.529374034100016
 20
92.40642387137703
 30
0.0
 11
8.529374034100016
 21
72.40642391607713
 31
0.0
  0
LINE
  5
E31
330
E2E
100
AcDbEntity
  8
寸法線
 62
     0
 48
6.0
370
    -2
100
AcDbLine
 10
60.52937510700005
 20
92.40642387137703
 30
0.0
 11
60.52937510700005
 21
72.40642391607713
 31
0.0
  0
LINE
  5
E32
330
E2E
100
AcDbEntity
  8
寸法線
 62
     0
 48
6.0
370
    -2
100
AcDbLine
 10
9.529374034100016
 20
72.40642391607713
 30
0.0
 11
59.52937510700005
 21
72.40642391607713
 31
0.0
  0
INSERT
  5
E33
330
E2E
100
AcDbEntity
  8
寸法線
 62
     0
370
    -2
100
AcDbBlockReference
  2
_Dot
 10
8.529374034100016
 20
72.40642391607713
 30
0.0
 50
180.0
  0
INSERT
  5
E34
330
E2E
100
AcDbEntity
  8
寸法線
 62
     0
370
    -2
100
AcDbBlockReference
  2
_Dot
 10
60.52937510700005
 20
72.40642391607713
 30
0.0
  0
MTEXT
  5
E35
330
E2E
100
AcDbEntity
  8
寸法線
 62
     0
 48
6.0
100
AcDbMText
 10
34.52937457055003
 20
74.78142391607713
 30
0.0
 40
2.75
 41
0.0
 46
0.0
 71
     5
 72
     1
  1
\A1;52
  7
ＭＳ ゴシック
 73
     1
 44
1.0
  0
POINT
  5
E36
330
E2E
100
AcDbEntity
  8
DEFPOINTS
 62
     0
100
AcDbPoint
 10
8.529374034100016
 20
94.40642387137703
 30
0.0
  0
POINT
  5
E37
330
E2E
100
AcDbEntity
  8
DEFPOINTS
 62
     0
100
AcDbPoint
 10
60.52937510700005
 20
94.40642387137703
 30
0.0
  0
POINT
  5
E38
330
E2E
100
AcDbEntity
  8
DEFPOINTS
 62
     0
100
AcDbPoint
 10
60.52937510700005
 20
72.40642391607713
 30
0.0
  0
ENDBLK
  5
E39
330
E2E
100
AcDbEntity
  8
0
 48
6.0
100
AcDbBlockEnd
  0
BLOCK
  5
E3C
330
E3B
100
AcDbEntity
  8
0
 48
6.0
100
AcDbBlockBegin
  2
*D46
 70
     1
 10
0.0
 20
0.0
 30
0.0
  3
*D46
  1

  0
LINE
  5
E3D
330
E3B
100
AcDbEntity
  8
寸法線
 62
     0
 48
6.0
370
    -2
100
AcDbLine
 10
56.52937412350005
 20
92.90642455687714
 30
0.0
 11
70.52937457050007
 21
92.90642455687714
 31
0.0
  0
LINE
  5
E3E
330
E3B
100
AcDbEntity
  8
寸法線
 62
     0
 48
6.0
370
    -2
100
AcDbLine
 10
56.52937412350005
 20
109.9064240837772
 30
0.0
 11
70.52937457050007
 21
109.9064240837772
 31
0.0
  0
LINE
  5
E3F
330
E3B
100
AcDbEntity
  8
寸法線
 62
     0
 48
6.0
370
    -2
100
AcDbLine
 10
70.52937457050007
 20
93.90642455687714
 30
0.0
 11
70.52937457050007
 21
108.9064240837772
 31
0.0
  0
INSERT
  5
E40
330
E3B
100
AcDbEntity
  8
寸法線
 62
     0
370
    -2
100
AcDbBlockReference
  2
_Dot
 10
70.52937457050007
 20
92.90642455687714
 30
0.0
 50
270.0
  0
INSERT
  5
E41
330
E3B
100
AcDbEntity
  8
寸法線
 62
     0
370
    -2
100
AcDbBlockReference
  2
_Dot
 10
70.52937457050007
 20
109.9064240837772
 30
0.0
 50
90.0
  0
MTEXT
  5
E42
330
E3B
100
AcDbEntity
  8
寸法線
 62
     0
 48
6.0
100
AcDbMText
 10
68.15437457050007
 20
101.4064243203272
 30
0.0
 40
2.75
 41
0.0
 46
0.0
 71
     5
 72
     1
  1
\A1;17
  7
ＭＳ ゴシック
 11
0.0
 21
1.0
 31
0.0
 73
     1
 44
1.0
  0
POINT
  5
E43
330
E3B
100
AcDbEntity
  8
DEFPOINTS
 62
     0
100
AcDbPoint
 10
54.52937412350005
 20
92.90642455687714
 30
0.0
  0
POINT
  5
E44
330
E3B
100
AcDbEntity
  8
DEFPOINTS
 62
     0
100
AcDbPoint
 10
54.52937412350005
 20
109.9064240837772
 30
0.0
  0
POINT
  5
E45
330
E3B
100
AcDbEntity
  8
DEFPOINTS
 62
     0
100
AcDbPoint
 10
70.52937457050007
 20
109.9064240837772
 30
0.0
  0
ENDBLK
  5
E46
330
E3B
100
AcDbEntity
  8
0
 48
6.0
100
AcDbBlockEnd
  0
BLOCK
  5
E49
330
E48
100
AcDbEntity
  8
0
 48
6.0
100
AcDbBlockBegin
  2
*D47
 70
     1
 10
0.0
 20
0.0
 30
0.0
  3
*D47
  1

  0
LINE
  5
E4A
330
E48
100
AcDbEntity
  8
寸法線
 62
     0
 48
6.0
370
    -2
100
AcDbLine
 10
60.52937477910007
 20
92.40642354357712
 30
0.0
 11
80.52937457050007
 21
92.40642354357712
 31
0.0
  0
LINE
  5
E4B
330
E48
100
AcDbEntity
  8
寸法線
 62
     0
 48
6.0
370
    -2
100
AcDbLine
 10
62.52937510700005
 20
117.406423916077
 30
0.0
 11
80.52937457050007
 21
117.406423916077
 31
0.0
  0
LINE
  5
E4C
330
E48
100
AcDbEntity
  8
寸法線
 62
     0
 48
6.0
370
    -2
100
AcDbLine
 10
80.52937457050007
 20
93.40642354357712
 30
0.0
 11
80.52937457050007
 21
116.406423916077
 31
0.0
  0
INSERT
  5
E4D
330
E48
100
AcDbEntity
  8
寸法線
 62
     0
370
    -2
100
AcDbBlockReference
  2
_Dot
 10
80.52937457050007
 20
92.40642354357712
 30
0.0
 50
270.0
  0
INSERT
  5
E4E
330
E48
100
AcDbEntity
  8
寸法線
 62
     0
370
    -2
100
AcDbBlockReference
  2
_Dot
 10
80.52937457050007
 20
117.406423916077
 30
0.0
 50
90.0
  0
MTEXT
  5
E4F
330
E48
100
AcDbEntity
  8
寸法線
 62
     0
 48
6.0
100
AcDbMText
 10
78.15437457050007
 20
104.9064237298271
 30
0.0
 40
2.75
 41
0.0
 46
0.0
 71
     5
 72
     1
  1
\A1;25
  7
ＭＳ ゴシック
 11
0.0
 21
1.0
 31
0.0
 73
     1
 44
1.0
  0
POINT
  5
E50
330
E48
100
AcDbEntity
  8
DEFPOINTS
 62
     0
100
AcDbPoint
 10
58.52937477910007
 20
92.40642354357712
 30
0.0
  0
POINT
  5
E51
330
E48
100
AcDbEntity
  8
DEFPOINTS
 62
     0
100
AcDbPoint
 10
60.52937510700005
 20
117.406423916077
 30
0.0
  0
POINT
  5
E52
330
E48
100
AcDbEntity
  8
DEFPOINTS
 62
     0
100
AcDbPoint
 10
80.52937457050007
 20
117.406423916077
 30
0.0
  0
ENDBLK
  5
E53
330
E48
100
AcDbEntity
  8
0
 48
6.0
100
AcDbBlockEnd
  0
BLOCK
  5
E56
330
E55
100
AcDbEntity
  8
0
 48
6.0
100
AcDbBlockBegin
  2
*D48
 70
     1
 10
0.0
 20
0.0
 30
0.0
  3
*D48
  1

  0
LINE
  5
E57
330
E55
100
AcDbEntity
  8
寸法線
 62
     0
 48
6.0
370
    -2
100
AcDbLine
 10
106.4584305680001
 20
90.34392391607713
 30
0.0
 11
106.4584305680001
 21
82.40642391607702
 31
0.0
  0
LINE
  5
E58
330
E55
100
AcDbEntity
  8
寸法線
 62
     0
 48
6.0
370
    -2
100
AcDbLine
 10
99.95843043390005
 20
92.90642302207712
 30
0.0
 11
99.95843043390005
 21
82.40642391607702
 31
0.0
  0
LINE
  5
E59
330
E55
100
AcDbEntity
  8
寸法線
 62
     0
 48
6.0
370
    -2
100
AcDbLine
 10
107.4584305680001
 20
82.40642391607702
 30
0.0
 11
108.4584305680001
 21
82.40642391607702
 31
0.0
  0
LINE
  5
E5A
330
E55
100
AcDbEntity
  8
寸法線
 62
     0
 48
6.0
370
    -2
100
AcDbLine
 10
98.95843043390005
 20
82.40642391607702
 30
0.0
 11
97.95843043390005
 21
82.40642391607702
 31
0.0
  0
INSERT
  5
E5B
330
E55
100
AcDbEntity
  8
寸法線
 62
     0
370
    -2
100
AcDbBlockReference
  2
_Dot
 10
106.4584305680001
 20
82.40642391607702
 30
0.0
 50
180.0
  0
INSERT
  5
E5C
330
E55
100
AcDbEntity
  8
寸法線
 62
     0
370
    -2
100
AcDbBlockReference
  2
_Dot
 10
99.95843043390005
 20
82.40642391607702
 30
0.0
  0
MTEXT
  5
E5D
330
E55
100
AcDbEntity
  8
寸法線
 62
     0
 48
6.0
100
AcDbMText
 10
103.2084305009501
 20
84.78142391607702
 30
0.0
 40
2.75
 41
0.0
 46
0.0
 71
     5
 72
     1
  1
\A1;6.5
  7
ＭＳ ゴシック
 73
     1
 44
1.0
  0
POINT
  5
E5E
330
E55
100
AcDbEntity
  8
DEFPOINTS
 62
     0
100
AcDbPoint
 10
106.4584305680001
 20
92.34392391607713
 30
0.0
  0
POINT
  5
E5F
330
E55
100
AcDbEntity
  8
DEFPOINTS
 62
     0
100
AcDbPoint
 10
99.95843043390005
 20
94.90642302207712
 30
0.0
  0
POINT
  5
EE3
330
E55
100
AcDbEntity
  8
DEFPOINTS
 62
     0
100
AcDbPoint
 10
99.95843043390005
 20
82.40642391607702
 30
0.0
  0
ENDBLK
  5
E60
330
E55
100
AcDbEntity
  8
0
 48
6.0
100
AcDbBlockEnd
  0
BLOCK
  5
E63
330
E62
100
AcDbEntity
  8
0
 48
6.0
100
AcDbBlockBegin
  2
*D49
 70
     1
 10
0.0
 20
0.0
 30
0.0
  3
*D49
  1

  0
LINE
  5
E64
330
E62
100
AcDbEntity
  8
寸法線
 62
     0
 48
6.0
370
    -2
100
AcDbLine
 10
106.4584305680001
 20
90.34392391607713
 30
0.0
 11
106.4584305680001
 21
82.40642391607702
 31
0.0
  0
LINE
  5
E65
330
E62
100
AcDbEntity
  8
寸法線
 62
     0
 48
6.0
370
    -2
100
AcDbLine
 10
126.4584305680001
 20
113.3439239160771
 30
0.0
 11
126.4584305680001
 21
82.40642391607702
 31
0.0
  0
LINE
  5
E66
330
E62
100
AcDbEntity
  8
寸法線
 62
     0
 48
6.0
370
    -2
100
AcDbLine
 10
107.4584305680001
 20
82.40642391607702
 30
0.0
 11
125.4584305680001
 21
82.40642391607702
 31
0.0
  0
INSERT
  5
E67
330
E62
100
AcDbEntity
  8
寸法線
 62
     0
370
    -2
100
AcDbBlockReference
  2
_Dot
 10
106.4584305680001
 20
82.40642391607702
 30
0.0
 50
180.0
  0
INSERT
  5
E68
330
E62
100
AcDbEntity
  8
寸法線
 62
     0
370
    -2
100
AcDbBlockReference
  2
_Dot
 10
126.4584305680001
 20
82.40642391607702
 30
0.0
  0
MTEXT
  5
E69
330
E62
100
AcDbEntity
  8
寸法線
 62
     0
 48
6.0
100
AcDbMText
 10
116.4584305680001
 20
84.78142391607702
 30
0.0
 40
2.75
 41
0.0
 46
0.0
 71
     5
 72
     1
  1
\A1;20
  7
ＭＳ ゴシック
 73
     1
 44
1.0
  0
POINT
  5
E6A
330
E62
100
AcDbEntity
  8
DEFPOINTS
 62
     0
100
AcDbPoint
 10
106.4584305680001
 20
92.34392391607713
 30
0.0
  0
POINT
  5
E6B
330
E62
100
AcDbEntity
  8
DEFPOINTS
 62
     0
100
AcDbPoint
 10
126.4584305680001
 20
115.3439239160771
 30
0.0
  0
POINT
  5
E6C
330
E62
100
AcDbEntity
  8
DEFPOINTS
 62
     0
100
AcDbPoint
 10
126.4584305680001
 20
82.40642391607702
 30
0.0
  0
ENDBLK
  5
E6D
330
E62
100
AcDbEntity
  8
0
 48
6.0
100
AcDbBlockEnd
  0
BLOCK
  5
E70
330
E6F
100
AcDbEntity
  8
0
 48
6.0
100
AcDbBlockBegin
  2
*D50
 70
     1
 10
0.0
 20
0.0
 30
0.0
  3
*D50
  1

  0
LINE
  5
E71
330
E6F
100
AcDbEntity
  8
寸法線
 62
     0
 48
6.0
370
    -2
100
AcDbLine
 10
99.95843043390005
 20
92.90642302207712
 30
0.0
 11
99.95843043390005
 21
72.40642391607713
 31
0.0
  0
LINE
  5
E72
330
E6F
100
AcDbEntity
  8
寸法線
 62
     0
 48
6.0
370
    -2
100
AcDbLine
 10
126.458430121
 20
113.4064239160771
 30
0.0
 11
126.458430121
 21
72.40642391607713
 31
0.0
  0
LINE
  5
E73
330
E6F
100
AcDbEntity
  8
寸法線
 62
     0
 48
6.0
370
    -2
100
AcDbLine
 10
100.9584304339
 20
72.40642391607713
 30
0.0
 11
125.458430121
 21
72.40642391607713
 31
0.0
  0
INSERT
  5
E74
330
E6F
100
AcDbEntity
  8
寸法線
 62
     0
370
    -2
100
AcDbBlockReference
  2
_Dot
 10
99.95843043390005
 20
72.40642391607713
 30
0.0
 50
180.0
  0
INSERT
  5
E75
330
E6F
100
AcDbEntity
  8
寸法線
 62
     0
370
    -2
100
AcDbBlockReference
  2
_Dot
 10
126.458430121
 20
72.40642391607713
 30
0.0
  0
MTEXT
  5
E76
330
E6F
100
AcDbEntity
  8
寸法線
 62
     0
 48
6.0
100
AcDbMText
 10
113.20843027745
 20
74.78142391607713
 30
0.0
 40
2.75
 41
0.0
 46
0.0
 71
     5
 72
     1
  1
\A1;26.5
  7
ＭＳ ゴシック
 73
     1
 44
1.0
  0
POINT
  5
E77
330
E6F
100
AcDbEntity
  8
DEFPOINTS
 62
     0
100
AcDbPoint
 10
99.95843043390005
 20
94.90642302207712
 30
0.0
  0
POINT
  5
E78
330
E6F
100
AcDbEntity
  8
DEFPOINTS
 62
     0
100
AcDbPoint
 10
126.458430121
 20
115.4064239160771
 30
0.0
  0
POINT
  5
E79
330
E6F
100
AcDbEntity
  8
DEFPOINTS
 62
     0
100
AcDbPoint
 10
126.458430121
 20
72.40642391607713
 30
0.0
  0
ENDBLK
  5
E7A
330
E6F
100
AcDbEntity
  8
0
 48
6.0
100
AcDbBlockEnd
  0
BLOCK
  5
E7D
330
E7C
100
AcDbEntity
  8
0
 48
6.0
100
AcDbBlockBegin
  2
*D51
 70
     1
 10
0.0
 20
0.0
 30
0.0
  3
*D51
  1

  0
LINE
  5
E7E
330
E7C
100
AcDbEntity
  8
寸法線
 62
     0
 48
6.0
370
    -2
100
AcDbLine
 10
128.458430121
 20
115.4064239160771
 30
0.0
 11
135.4584305680001
 21
115.4064239160771
 31
0.0
  0
LINE
  5
E7F
330
E7C
100
AcDbEntity
  8
寸法線
 62
     0
 48
6.0
370
    -2
100
AcDbLine
 10
128.458430121
 20
117.406423916077
 30
0.0
 11
135.4584305680001
 21
117.406423916077
 31
0.0
  0
LINE
  5
E80
330
E7C
100
AcDbEntity
  8
寸法線
 62
     0
 48
6.0
370
    -2
100
AcDbLine
 10
135.4584305680001
 20
117.406423916077
 30
0.0
 11
135.4584305680001
 21
126.659048916077
 31
0.0
  0
LINE
  5
E81
330
E7C
100
AcDbEntity
  8
寸法線
 62
     0
 48
6.0
370
    -2
100
AcDbLine
 10
135.4584305680001
 20
114.4064239160771
 30
0.0
 11
135.4584305680001
 21
113.4064239160771
 31
0.0
  0
LINE
  5
E82
330
E7C
100
AcDbEntity
  8
寸法線
 62
     0
 48
6.0
370
    -2
100
AcDbLine
 10
135.4584305680001
 20
118.406423916077
 30
0.0
 11
135.4584305680001
 21
119.406423916077
 31
0.0
  0
INSERT
  5
E83
330
E7C
100
AcDbEntity
  8
寸法線
 62
     0
370
    -2
100
AcDbBlockReference
  2
_Dot
 10
135.4584305680001
 20
115.4064239160771
 30
0.0
 50
90.0
  0
INSERT
  5
E84
330
E7C
100
AcDbEntity
  8
寸法線
 62
     0
370
    -2
100
AcDbBlockReference
  2
_Dot
 10
135.4584305680001
 20
117.406423916077
 30
0.0
 50
270.0
  0
MTEXT
  5
E85
330
E7C
100
AcDbEntity
  8
寸法線
 62
     0
 48
6.0
100
AcDbMText
 10
133.0834305680001
 20
123.146923916077
 30
0.0
 40
2.75
 41
0.0
 46
0.0
 71
     5
 72
     1
  1
\A1;t=2
  7
ＭＳ ゴシック
 11
0.0
 21
1.0
 31
0.0
 73
     1
 44
1.0
  0
POINT
  5
E86
330
E7C
100
AcDbEntity
  8
DEFPOINTS
 62
     0
100
AcDbPoint
 10
126.458430121
 20
115.4064239160771
 30
0.0
  0
POINT
  5
E87
330
E7C
100
AcDbEntity
  8
DEFPOINTS
 62
     0
100
AcDbPoint
 10
126.458430121
 20
117.406423916077
 30
0.0
  0
POINT
  5
E88
330
E7C
100
AcDbEntity
  8
DEFPOINTS
 62
     0
100
AcDbPoint
 10
135.4584305680001
 20
117.406423916077
 30
0.0
  0
ENDBLK
  5
E89
330
E7C
100
AcDbEntity
  8
0
 48
6.0
100
AcDbBlockEnd
  0
BLOCK
  5
E8C
330
E8B
100
AcDbEntity
  8
0
 48
6.0
100
AcDbBlockBegin
  2
*D52
 70
     1
 10
0.0
 20
0.0
 30
0.0
  3
*D52
  1

  0
LINE
  5
E8D
330
E8B
100
AcDbEntity
  8
寸法線
 62
     0
 48
6.0
370
    -2
100
AcDbLine
 10
11.77937457050001
 20
29.99147249587716
 30
0.0
 11
3.500000000000013
 21
29.99147249587716
 31
0.0
  0
LINE
  5
E8E
330
E8B
100
AcDbEntity
  8
寸法線
 62
     0
 48
6.0
370
    -2
100
AcDbLine
 10
9.529374525799994
 20
49.99147262997704
 30
0.0
 11
3.500000000000014
 21
49.99147262997704
 31
0.0
  0
LINE
  5
E8F
330
E8B
100
AcDbEntity
  8
寸法線
 62
     0
 48
6.0
370
    -2
100
AcDbLine
 10
3.500000000000013
 20
30.99147249587716
 30
0.0
 11
3.500000000000014
 21
48.99147262997704
 31
0.0
  0
INSERT
  5
E90
330
E8B
100
AcDbEntity
  8
寸法線
 62
     0
370
    -2
100
AcDbBlockReference
  2
_Dot
 10
3.500000000000013
 20
29.99147249587716
 30
0.0
 50
270.0
  0
INSERT
  5
E91
330
E8B
100
AcDbEntity
  8
寸法線
 62
     0
370
    -2
100
AcDbBlockReference
  2
_Dot
 10
3.500000000000014
 20
49.99147262997704
 30
0.0
 50
90.0
  0
MTEXT
  5
E92
330
E8B
100
AcDbEntity
  8
寸法線
 62
     0
 48
6.0
100
AcDbMText
 10
1.125000000000013
 20
39.9914725629271
 30
0.0
 40
2.75
 41
0.0
 46
0.0
 71
     5
 72
     1
  1
\A1;20
  7
ＭＳ ゴシック
 11
6.661338103086708E-17
 21
1.0
 31
0.0
 73
     1
 44
1.0
  0
POINT
  5
E93
330
E8B
100
AcDbEntity
  8
DEFPOINTS
 62
     0
100
AcDbPoint
 10
13.77937457050001
 20
29.99147249587716
 30
0.0
  0
POINT
  5
E94
330
E8B
100
AcDbEntity
  8
DEFPOINTS
 62
     0
100
AcDbPoint
 10
11.52937452579999
 20
49.99147262997704
 30
0.0
  0
POINT
  5
E95
330
E8B
100
AcDbEntity
  8
DEFPOINTS
 62
     0
100
AcDbPoint
 10
3.500000000000014
 20
49.99147262997704
 30
0.0
  0
ENDBLK
  5
E96
330
E8B
100
AcDbEntity
  8
0
 48
6.0
100
AcDbBlockEnd
  0
BLOCK
  5
E99
330
E98
100
AcDbEntity
  8
0
 48
6.0
100
AcDbBlockBegin
  2
*D53
 70
     1
 10
0.0
 20
0.0
 30
0.0
  3
*D53
  1

  0
LINE
  5
E9A
330
E98
100
AcDbEntity
  8
寸法線
 62
     0
 48
6.0
370
    -2
100
AcDbLine
 10
11.77937457050001
 20
29.99147249587716
 30
0.0
 11
3.500000000000015
 21
29.99147249587716
 31
0.0
  0
LINE
  5
E9B
330
E98
100
AcDbEntity
  8
寸法線
 62
     0
 48
6.0
370
    -2
100
AcDbLine
 10
8.52937457050001
 20
23.49147249587705
 30
0.0
 11
3.500000000000014
 21
23.49147249587705
 31
0.0
  0
LINE
  5
E9C
330
E98
100
AcDbEntity
  8
寸法線
 62
     0
 48
6.0
370
    -2
100
AcDbLine
 10
3.500000000000015
 20
30.99147249587716
 30
0.0
 11
3.500000000000015
 21
31.99147249587716
 31
0.0
  0
LINE
  5
E9D
330
E98
100
AcDbEntity
  8
寸法線
 62
     0
 48
6.0
370
    -2
100
AcDbLine
 10
3.500000000000014
 20
22.49147249587705
 30
0.0
 11
3.500000000000014
 21
21.49147249587705
 31
0.0
  0
INSERT
  5
E9E
330
E98
100
AcDbEntity
  8
寸法線
 62
     0
370
    -2
100
AcDbBlockReference
  2
_Dot
 10
3.500000000000015
 20
29.99147249587716
 30
0.0
 50
270.0
  0
INSERT
  5
E9F
330
E98
100
AcDbEntity
  8
寸法線
 62
     0
370
    -2
100
AcDbBlockReference
  2
_Dot
 10
3.500000000000014
 20
23.49147249587705
 30
0.0
 50
90.0
  0
MTEXT
  5
EA0
330
E98
100
AcDbEntity
  8
寸法線
 62
     0
 48
6.0
100
AcDbMText
 10
1.125000000000014
 20
26.7414724958771
 30
0.0
 40
2.75
 41
0.0
 46
0.0
 71
     5
 72
     1
  1
\A1;6.5
  7
ＭＳ ゴシック
 11
6.832141690000844E-17
 21
1.0
 31
0.0
 73
     1
 44
1.0
  0
POINT
  5
EA1
330
E98
100
AcDbEntity
  8
DEFPOINTS
 62
     0
100
AcDbPoint
 10
13.77937457050001
 20
29.99147249587716
 30
0.0
  0
POINT
  5
EA2
330
E98
100
AcDbEntity
  8
DEFPOINTS
 62
     0
100
AcDbPoint
 10
10.52937457050001
 20
23.49147249587705
 30
0.0
  0
POINT
  5
EE4
330
E98
100
AcDbEntity
  8
DEFPOINTS
 62
     0
100
AcDbPoint
 10
3.500000000000014
 20
23.49147249587705
 30
0.0
  0
ENDBLK
  5
EA3
330
E98
100
AcDbEntity
  8
0
 48
6.0
100
AcDbBlockEnd
  0
BLOCK
  5
EA6
330
EA5
100
AcDbEntity
  8
0
 48
6.0
100
AcDbBlockBegin
  2
*D54
 70
     1
 10
0.0
 20
0.0
 30
0.0
  3
*D54
  1

  0
LINE
  5
EA7
330
EA5
100
AcDbEntity
  8
寸法線
 62
     0
 48
6.0
370
    -2
100
AcDbLine
 10
8.529374034100016
 20
23.49147327077716
 30
0.0
 11
8.529374034100016
 21
13.49147249587716
 31
0.0
  0
LINE
  5
EA8
330
EA5
100
AcDbEntity
  8
寸法線
 62
     0
 48
6.0
370
    -2
100
AcDbLine
 10
18.52937457050001
 20
23.17897249587716
 30
0.0
 11
18.52937457050001
 21
13.49147249587716
 31
0.0
  0
LINE
  5
EA9
330
EA5
100
AcDbEntity
  8
寸法線
 62
     0
 48
6.0
370
    -2
100
AcDbLine
 10
9.529374034100016
 20
13.49147249587716
 30
0.0
 11
17.52937457050001
 21
13.49147249587716
 31
0.0
  0
INSERT
  5
EAA
330
EA5
100
AcDbEntity
  8
寸法線
 62
     0
370
    -2
100
AcDbBlockReference
  2
_Dot
 10
8.529374034100016
 20
13.49147249587716
 30
0.0
 50
180.0
  0
INSERT
  5
EAB
330
EA5
100
AcDbEntity
  8
寸法線
 62
     0
370
    -2
100
AcDbBlockReference
  2
_Dot
 10
18.52937457050001
 20
13.49147249587716
 30
0.0
  0
MTEXT
  5
EAC
330
EA5
100
AcDbEntity
  8
寸法線
 62
     0
 48
6.0
100
AcDbMText
 10
13.52937430230001
 20
15.86647249587716
 30
0.0
 40
2.75
 41
0.0
 46
0.0
 71
     5
 72
     1
  1
\A1;10
  7
ＭＳ ゴシック
 73
     1
 44
1.0
  0
POINT
  5
EAD
330
EA5
100
AcDbEntity
  8
DEFPOINTS
 62
     0
100
AcDbPoint
 10
8.529374034100016
 20
25.49147327077716
 30
0.0
  0
POINT
  5
EAE
330
EA5
100
AcDbEntity
  8
DEFPOINTS
 62
     0
100
AcDbPoint
 10
18.52937457050001
 20
25.17897249587716
 30
0.0
  0
POINT
  5
EAF
330
EA5
100
AcDbEntity
  8
DEFPOINTS
 62
     0
100
AcDbPoint
 10
18.52937457050001
 20
13.49147249587716
 30
0.0
  0
ENDBLK
  5
EB0
330
EA5
100
AcDbEntity
  8
0
 48
6.0
100
AcDbBlockEnd
  0
BLOCK
  5
EB3
330
EB2
100
AcDbEntity
  8
0
 48
6.0
100
AcDbBlockBegin
  2
*D55
 70
     1
 10
0.0
 20
0.0
 30
0.0
  3
*D55
  1

  0
LINE
  5
EB4
330
EB2
100
AcDbEntity
  8
寸法線
 62
     0
 48
6.0
370
    -2
100
AcDbLine
 10
18.52937457050001
 20
23.24147249587716
 30
0.0
 11
18.52937457050001
 21
13.49147249587716
 31
0.0
  0
LINE
  5
EB5
330
EB2
100
AcDbEntity
  8
寸法線
 62
     0
 48
6.0
370
    -2
100
AcDbLine
 10
34.52937457050005
 20
23.24147249587716
 30
0.0
 11
34.52937457050005
 21
13.49147249587716
 31
0.0
  0
LINE
  5
EB6
330
EB2
100
AcDbEntity
  8
寸法線
 62
     0
 48
6.0
370
    -2
100
AcDbLine
 10
19.52937457050001
 20
13.49147249587716
 30
0.0
 11
33.52937457050005
 21
13.49147249587716
 31
0.0
  0
INSERT
  5
EB7
330
EB2
100
AcDbEntity
  8
寸法線
 62
     0
370
    -2
100
AcDbBlockReference
  2
_Dot
 10
18.52937457050001
 20
13.49147249587716
 30
0.0
 50
180.0
  0
INSERT
  5
EB8
330
EB2
100
AcDbEntity
  8
寸法線
 62
     0
370
    -2
100
AcDbBlockReference
  2
_Dot
 10
34.52937457050005
 20
13.49147249587716
 30
0.0
  0
MTEXT
  5
EB9
330
EB2
100
AcDbEntity
  8
寸法線
 62
     0
 48
6.0
100
AcDbMText
 10
26.52937457050003
 20
15.86647249587716
 30
0.0
 40
2.75
 41
0.0
 46
0.0
 71
     5
 72
     1
  1
\A1;16
  7
ＭＳ ゴシック
 73
     1
 44
1.0
  0
POINT
  5
EBA
330
EB2
100
AcDbEntity
  8
DEFPOINTS
 62
     0
100
AcDbPoint
 10
18.52937457050001
 20
25.24147249587716
 30
0.0
  0
POINT
  5
EBB
330
EB2
100
AcDbEntity
  8
DEFPOINTS
 62
     0
100
AcDbPoint
 10
34.52937457050005
 20
25.24147249587716
 30
0.0
  0
POINT
  5
EBC
330
EB2
100
AcDbEntity
  8
DEFPOINTS
 62
     0
100
AcDbPoint
 10
34.52937457050005
 20
13.49147249587716
 30
0.0
  0
ENDBLK
  5
EBD
330
EB2
100
AcDbEntity
  8
0
 48
6.0
100
AcDbBlockEnd
  0
BLOCK
  5
EC0
330
EBF
100
AcDbEntity
  8
0
 48
6.0
100
AcDbBlockBegin
  2
*D56
 70
     1
 10
0.0
 20
0.0
 30
0.0
  3
*D56
  1

  0
LINE
  5
EC1
330
EBF
100
AcDbEntity
  8
寸法線
 62
     0
 48
6.0
370
    -2
100
AcDbLine
 10
34.52937457050005
 20
23.17897249587716
 30
0.0
 11
34.52937457050005
 21
13.49147249587716
 31
0.0
  0
LINE
  5
EC2
330
EBF
100
AcDbEntity
  8
寸法線
 62
     0
 48
6.0
370
    -2
100
AcDbLine
 10
50.52937457050007
 20
23.24147249587716
 30
0.0
 11
50.52937457050007
 21
13.49147249587716
 31
0.0
  0
LINE
  5
EC3
330
EBF
100
AcDbEntity
  8
寸法線
 62
     0
 48
6.0
370
    -2
100
AcDbLine
 10
35.52937457050005
 20
13.49147249587716
 30
0.0
 11
49.52937457050007
 21
13.49147249587716
 31
0.0
  0
INSERT
  5
EC4
330
EBF
100
AcDbEntity
  8
寸法線
 62
     0
370
    -2
100
AcDbBlockReference
  2
_Dot
 10
34.52937457050005
 20
13.49147249587716
 30
0.0
 50
180.0
  0
INSERT
  5
EC5
330
EBF
100
AcDbEntity
  8
寸法線
 62
     0
370
    -2
100
AcDbBlockReference
  2
_Dot
 10
50.52937457050007
 20
13.49147249587716
 30
0.0
  0
MTEXT
  5
EC6
330
EBF
100
AcDbEntity
  8
寸法線
 62
     0
 48
6.0
100
AcDbMText
 10
42.52937457050006
 20
15.86647249587716
 30
0.0
 40
2.75
 41
0.0
 46
0.0
 71
     5
 72
     1
  1
\A1;16
  7
ＭＳ ゴシック
 73
     1
 44
1.0
  0
POINT
  5
EC7
330
EBF
100
AcDbEntity
  8
DEFPOINTS
 62
     0
100
AcDbPoint
 10
34.52937457050005
 20
25.17897249587716
 30
0.0
  0
POINT
  5
EC8
330
EBF
100
AcDbEntity
  8
DEFPOINTS
 62
     0
100
AcDbPoint
 10
50.52937457050007
 20
25.24147249587716
 30
0.0
  0
POINT
  5
EC9
330
EBF
100
AcDbEntity
  8
DEFPOINTS
 62
     0
100
AcDbPoint
 10
50.52937457050007
 20
13.49147249587716
 30
0.0
  0
ENDBLK
  5
ECA
330
EBF
100
AcDbEntity
  8
0
 48
6.0
100
AcDbBlockEnd
  0
BLOCK
  5
ECD
330
ECC
100
AcDbEntity
  8
0
 48
6.0
100
AcDbBlockBegin
  2
*D57
 70
     1
 10
0.0
 20
0.0
 30
0.0
  3
*D57
  1

  0
LINE
  5
ECE
330
ECC
100
AcDbEntity
  8
寸法線
 62
     0
 48
6.0
370
    -2
100
AcDbLine
 10
50.52937457050007
 20
23.17897249587716
 30
0.0
 11
50.52937457050007
 21
13.49147249587716
 31
0.0
  0
LINE
  5
ECF
330
ECC
100
AcDbEntity
  8
寸法線
 62
     0
 48
6.0
370
    -2
100
AcDbLine
 10
60.52937510700005
 20
23.49147327077716
 30
0.0
 11
60.52937510700005
 21
13.49147249587716
 31
0.0
  0
LINE
  5
ED0
330
ECC
100
AcDbEntity
  8
寸法線
 62
     0
 48
6.0
370
    -2
100
AcDbLine
 10
51.52937457050007
 20
13.49147249587716
 30
0.0
 11
59.52937510700005
 21
13.49147249587716
 31
0.0
  0
INSERT
  5
ED1
330
ECC
100
AcDbEntity
  8
寸法線
 62
     0
370
    -2
100
AcDbBlockReference
  2
_Dot
 10
50.52937457050007
 20
13.49147249587716
 30
0.0
 50
180.0
  0
INSERT
  5
ED2
330
ECC
100
AcDbEntity
  8
寸法線
 62
     0
370
    -2
100
AcDbBlockReference
  2
_Dot
 10
60.52937510700005
 20
13.49147249587716
 30
0.0
  0
MTEXT
  5
ED3
330
ECC
100
AcDbEntity
  8
寸法線
 62
     0
 48
6.0
100
AcDbMText
 10
55.52937483875006
 20
15.86647249587716
 30
0.0
 40
2.75
 41
0.0
 46
0.0
 71
     5
 72
     1
  1
\A1;10
  7
ＭＳ ゴシック
 73
     1
 44
1.0
  0
POINT
  5
ED4
330
ECC
100
AcDbEntity
  8
DEFPOINTS
 62
     0
100
AcDbPoint
 10
50.52937457050007
 20
25.17897249587716
 30
0.0
  0
POINT
  5
ED5
330
ECC
100
AcDbEntity
  8
DEFPOINTS
 62
     0
100
AcDbPoint
 10
60.52937510700005
 20
25.49147327077716
 30
0.0
  0
POINT
  5
ED6
330
ECC
100
AcDbEntity
  8
DEFPOINTS
 62
     0
100
AcDbPoint
 10
60.52937510700005
 20
13.49147249587716
 30
0.0
  0
ENDBLK
  5
ED7
330
ECC
100
AcDbEntity
  8
0
 48
6.0
100
AcDbBlockEnd
  0
BLOCK
  5
EDA
330
ED9
100
AcDbEntity
  8
0
 48
6.0
100
AcDbBlockBegin
  2
*D58
 70
     1
 10
0.0
 20
0.0
 30
0.0
  3
*D58
  1

  0
LINE
  5
EDB
330
ED9
100
AcDbEntity
  8
寸法線
 62
     0
 48
6.0
370
    -2
100
AcDbLine
 10
52.79608164386376
 20
27.66240851144822
 30
0.0
 11
81.56218895677998
 21
-1.895051868869065
 31
0.0
  0
MTEXT
  5
EDC
330
ED9
100
AcDbEntity
  8
寸法線
 62
     0
 48
6.0
100
AcDbMText
 10
74.91073094295524
 20
8.67389320368083
 30
0.0
 40
2.75
 41
0.0
 46
0.0
 71
     5
 72
     1
  1
\A1;3-4.5(D7皿穴）
  7
ＭＳ ゴシック
 11
0.6974483302657122
 21
-0.7166350721319535
 31
0.0
 73
     1
 44
1.0
  0
INSERT
  5
EDD
330
ED9
100
AcDbEntity
  8
寸法線
 62
     0
370
    -2
100
AcDbBlockReference
  2
_Dot
 10
52.09863331359804
 20
28.37904358358017
 30
0.0
 50
134.2226399972026
  0
POINT
  5
EDE
330
ED9
100
AcDbEntity
  8
DEFPOINTS
 62
     0
100
AcDbPoint
 10
52.09863331359804
 20
28.37904358358017
 30
0.0
  0
POINT
  5
EDF
330
ED9
100
AcDbEntity
  8
DEFPOINTS
 62
     0
100
AcDbPoint
 10
48.96011582740226
 20
31.60390140817404
 30
0.0
  0
ENDBLK
  5
EE0
330
ED9
100
AcDbEntity
  8
0
 48
6.0
100
AcDbBlockEnd
  0
BLOCK
  5
FB1
330
FB0
100
AcDbEntity
  8
0
100
AcDbBlockBegin
  2
*D59
 70
     1
 10
0.0
 20
0.0
 30
0.0
  3
*D59
  1

  0
LINE
  5
FB3
330
FB0
100
AcDbEntity
  8
DIM
 62
     0
 48
6.0
370
    -2
100
AcDbLine
 10
87.66140928246455
 20
145.8166159397107
 30
0.0
 11
80.55385399676459
 21
145.8166159397107
 31
0.0
  0
LINE
  5
FB4
330
FB0
100
AcDbEntity
  8
DIM
 62
     0
 48
6.0
370
    -2
100
AcDbLine
 10
83.52390874606454
 20
161.8166159397107
 30
0.0
 11
80.55385399676459
 21
161.8166159397107
 31
0.0
  0
LINE
  5
FB5
330
FB0
100
AcDbEntity
  8
DIM
 62
     0
 48
6.0
370
    -2
100
AcDbLine
 10
80.55385399676459
 20
146.8166159397107
 30
0.0
 11
80.55385399676459
 21
160.8166159397107
 31
0.0
  0
INSERT
  5
FB6
330
FB0
100
AcDbEntity
  8
DIM
 62
     0
370
    -2
100
AcDbBlockReference
  2
_Dot
 10
80.55385399676459
 20
145.8166159397107
 30
0.0
 50
270.0
  0
INSERT
  5
FB7
330
FB0
100
AcDbEntity
  8
DIM
 62
     0
370
    -2
100
AcDbBlockReference
  2
_Dot
 10
80.55385399676459
 20
161.8166159397107
 30
0.0
 50
90.0
  0
MTEXT
  5
FB8
330
FB0
100
AcDbEntity
  8
DIM
 62
     0
 48
6.0
100
AcDbMText
 10
78.17885399676459
 20
153.8166159397107
 30
0.0
 40
2.75
 41
0.0
 46
0.0
 71
     5
 72
     1
  1
\A1;16
  7
ＭＳ ゴシック
 11
0.0
 21
1.0
 31
0.0
 73
     1
 44
1.0
  0
POINT
  5
FB9
330
FB0
100
AcDbEntity
  8
DEFPOINTS
 62
     0
100
AcDbPoint
 10
89.66140928246455
 20
145.8166159397107
 30
0.0
  0
POINT
  5
FBA
330
FB0
100
AcDbEntity
  8
DEFPOINTS
 62
     0
100
AcDbPoint
 10
85.52390874606454
 20
161.8166159397107
 30
0.0
  0
POINT
  5
FBB
330
FB0
100
AcDbEntity
  8
DEFPOINTS
 62
     0
100
AcDbPoint
 10
80.55385399676459
 20
161.8166159397107
 30
0.0
  0
ENDBLK
  5
FB2
330
FB0
100
AcDbEntity
  8
0
100
AcDbBlockEnd
  0
BLOCK
  5
FBD
330
FBC
100
AcDbEntity
  8
0
100
AcDbBlockBegin
  2
*D60
 70
     1
 10
0.0
 20
0.0
 30
0.0
  3
*D60
  1

  0
LINE
  5
FBF
330
FBC
100
AcDbEntity
  8
DIM
 62
     0
 48
6.0
370
    -2
100
AcDbLine
 10
86.52390928246427
 20
140.3166159397108
 30
0.0
 11
86.52390928246427
 21
126.8166159397107
 31
0.0
  0
LINE
  5
FC0
330
FBC
100
AcDbEntity
  8
DIM
 62
     0
 48
6.0
370
    -2
100
AcDbLine
 10
136.5239096550646
 20
140.3166159397108
 30
0.0
 11
136.5239096550646
 21
126.8166159397107
 31
0.0
  0
LINE
  5
FC1
330
FBC
100
AcDbEntity
  8
DIM
 62
     0
 48
6.0
370
    -2
100
AcDbLine
 10
87.52390928246427
 20
126.8166159397107
 30
0.0
 11
135.5239096550646
 21
126.8166159397107
 31
0.0
  0
INSERT
  5
FC2
330
FBC
100
AcDbEntity
  8
DIM
 62
     0
370
    -2
100
AcDbBlockReference
  2
_Dot
 10
86.52390928246427
 20
126.8166159397107
 30
0.0
 50
180.0
  0
INSERT
  5
FC3
330
FBC
100
AcDbEntity
  8
DIM
 62
     0
370
    -2
100
AcDbBlockReference
  2
_Dot
 10
136.5239096550646
 20
126.8166159397107
 30
0.0
  0
MTEXT
  5
FC4
330
FBC
100
AcDbEntity
  8
DIM
 62
     0
 48
6.0
100
AcDbMText
 10
111.5239094687644
 20
129.1916159397107
 30
0.0
 40
2.75
 41
0.0
 46
0.0
 71
     5
 72
     1
  1
\A1;50
  7
ＭＳ ゴシック
 73
     1
 44
1.0
  0
POINT
  5
FC5
330
FBC
100
AcDbEntity
  8
DEFPOINTS
 62
     0
100
AcDbPoint
 10
86.52390928246427
 20
142.3166159397108
 30
0.0
  0
POINT
  5
FC6
330
FBC
100
AcDbEntity
  8
DEFPOINTS
 62
     0
100
AcDbPoint
 10
136.5239096550646
 20
142.3166159397108
 30
0.0
  0
POINT
  5
FC7
330
FBC
100
AcDbEntity
  8
DEFPOINTS
 62
     0
100
AcDbPoint
 10
136.5239096550646
 20
126.8166159397107
 30
0.0
  0
ENDBLK
  5
FBE
330
FBC
100
AcDbEntity
  8
0
100
AcDbBlockEnd
  0
BLOCK
  5
FC9
330
FC8
100
AcDbEntity
  8
0
100
AcDbBlockBegin
  2
*D61
 70
     1
 10
0.0
 20
0.0
 30
0.0
  3
*D61
  1

  0
LINE
  5
FCB
330
FC8
100
AcDbEntity
  8
DIM
 62
     0
 48
6.0
370
    -2
100
AcDbLine
 10
85.52390874606454
 20
136.8166158950107
 30
0.0
 11
85.52390874606454
 21
119.3465548402954
 31
0.0
  0
LINE
  5
FCC
330
FC8
100
AcDbEntity
  8
DIM
 62
     0
 48
6.0
370
    -2
100
AcDbLine
 10
137.5239098189646
 20
136.8166158950107
 30
0.0
 11
137.5239098189646
 21
119.3465548402954
 31
0.0
  0
LINE
  5
FCD
330
FC8
100
AcDbEntity
  8
DIM
 62
     0
 48
6.0
370
    -2
100
AcDbLine
 10
86.52390874606454
 20
119.3465548402954
 30
0.0
 11
136.5239098189646
 21
119.3465548402954
 31
0.0
  0
INSERT
  5
FCE
330
FC8
100
AcDbEntity
  8
DIM
 62
     0
370
    -2
100
AcDbBlockReference
  2
_Dot
 10
85.52390874606454
 20
119.3465548402954
 30
0.0
 50
180.0
  0
INSERT
  5
FCF
330
FC8
100
AcDbEntity
  8
DIM
 62
     0
370
    -2
100
AcDbBlockReference
  2
_Dot
 10
137.5239098189646
 20
119.3465548402954
 30
0.0
  0
MTEXT
  5
FD0
330
FC8
100
AcDbEntity
  8
DIM
 62
     0
 48
6.0
100
AcDbMText
 10
111.5239092825146
 20
121.7215548402954
 30
0.0
 40
2.75
 41
0.0
 46
0.0
 71
     5
 72
     1
  1
\A1;52
  7
ＭＳ ゴシック
 73
     1
 44
1.0
  0
POINT
  5
FD1
330
FC8
100
AcDbEntity
  8
DEFPOINTS
 62
     0
100
AcDbPoint
 10
85.52390874606454
 20
138.8166158950107
 30
0.0
  0
POINT
  5
FD2
330
FC8
100
AcDbEntity
  8
DEFPOINTS
 62
     0
100
AcDbPoint
 10
137.5239098189646
 20
138.8166158950107
 30
0.0
  0
POINT
  5
FD3
330
FC8
100
AcDbEntity
  8
DEFPOINTS
 62
     0
100
AcDbPoint
 10
137.5239098189646
 20
119.3465548402954
 30
0.0
  0
ENDBLK
  5
FCA
330
FC8
100
AcDbEntity
  8
0
100
AcDbBlockEnd
  0
BLOCK
  5
FD5
330
FD4
100
AcDbEntity
  8
0
100
AcDbBlockBegin
  2
*D62
 70
     1
 10
0.0
 20
0.0
 30
0.0
  3
*D62
  1

  0
LINE
  5
FD7
330
FD4
100
AcDbEntity
  8
DIM
 62
     0
 48
6.0
370
    -2
100
AcDbLine
 10
133.5239088354646
 20
137.3166165805108
 30
0.0
 11
145.4119561169869
 21
137.3166165805108
 31
0.0
  0
LINE
  5
FD8
330
FD4
100
AcDbEntity
  8
DIM
 62
     0
 48
6.0
370
    -2
100
AcDbLine
 10
133.5239088354646
 20
154.3166161074109
 30
0.0
 11
145.4119561169869
 21
154.3166161074109
 31
0.0
  0
LINE
  5
FD9
330
FD4
100
AcDbEntity
  8
DIM
 62
     0
 48
6.0
370
    -2
100
AcDbLine
 10
145.4119561169869
 20
138.3166165805108
 30
0.0
 11
145.4119561169869
 21
153.3166161074109
 31
0.0
  0
INSERT
  5
FDA
330
FD4
100
AcDbEntity
  8
DIM
 62
     0
370
    -2
100
AcDbBlockReference
  2
_Dot
 10
145.4119561169869
 20
137.3166165805108
 30
0.0
 50
270.0
  0
INSERT
  5
FDB
330
FD4
100
AcDbEntity
  8
DIM
 62
     0
370
    -2
100
AcDbBlockReference
  2
_Dot
 10
145.4119561169869
 20
154.3166161074109
 30
0.0
 50
90.0
  0
MTEXT
  5
FDC
330
FD4
100
AcDbEntity
  8
DIM
 62
     0
 48
6.0
100
AcDbMText
 10
143.0369561169869
 20
145.8166163439608
 30
0.0
 40
2.75
 41
0.0
 46
0.0
 71
     5
 72
     1
  1
\A1;17
  7
ＭＳ ゴシック
 11
0.0
 21
1.0
 31
0.0
 73
     1
 44
1.0
  0
POINT
  5
FDD
330
FD4
100
AcDbEntity
  8
DEFPOINTS
 62
     0
100
AcDbPoint
 10
131.5239088354646
 20
137.3166165805108
 30
0.0
  0
POINT
  5
FDE
330
FD4
100
AcDbEntity
  8
DEFPOINTS
 62
     0
100
AcDbPoint
 10
131.5239088354646
 20
154.3166161074109
 30
0.0
  0
POINT
  5
FDF
330
FD4
100
AcDbEntity
  8
DEFPOINTS
 62
     0
100
AcDbPoint
 10
145.4119561169869
 20
154.3166161074109
 30
0.0
  0
ENDBLK
  5
FD6
330
FD4
100
AcDbEntity
  8
0
100
AcDbBlockEnd
  0
BLOCK
  5
FE1
330
FE0
100
AcDbEntity
  8
0
100
AcDbBlockBegin
  2
*D63
 70
     1
 10
0.0
 20
0.0
 30
0.0
  3
*D63
  1

  0
LINE
  5
FE3
330
FE0
100
AcDbEntity
  8
DIM
 62
     0
 48
6.0
370
    -2
100
AcDbLine
 10
137.5239094910646
 20
136.8166155672108
 30
0.0
 11
152.7989136354506
 21
136.8166155672108
 31
0.0
  0
LINE
  5
FE4
330
FE0
100
AcDbEntity
  8
DIM
 62
     0
 48
6.0
370
    -2
100
AcDbLine
 10
139.5239098189646
 20
161.8166159397107
 30
0.0
 11
152.7989136354506
 21
161.8166159397107
 31
0.0
  0
LINE
  5
FE5
330
FE0
100
AcDbEntity
  8
DIM
 62
     0
 48
6.0
370
    -2
100
AcDbLine
 10
152.7989136354506
 20
137.8166155672108
 30
0.0
 11
152.7989136354506
 21
160.8166159397107
 31
0.0
  0
INSERT
  5
FE6
330
FE0
100
AcDbEntity
  8
DIM
 62
     0
370
    -2
100
AcDbBlockReference
  2
_Dot
 10
152.7989136354506
 20
136.8166155672108
 30
0.0
 50
270.0
  0
INSERT
  5
FE7
330
FE0
100
AcDbEntity
  8
DIM
 62
     0
370
    -2
100
AcDbBlockReference
  2
_Dot
 10
152.7989136354506
 20
161.8166159397107
 30
0.0
 50
90.0
  0
MTEXT
  5
FE8
330
FE0
100
AcDbEntity
  8
DIM
 62
     0
 48
6.0
100
AcDbMText
 10
150.4239136354506
 20
149.3166157534607
 30
0.0
 40
2.75
 41
0.0
 46
0.0
 71
     5
 72
     1
  1
\A1;25
  7
ＭＳ ゴシック
 11
0.0
 21
1.0
 31
0.0
 73
     1
 44
1.0
  0
POINT
  5
FE9
330
FE0
100
AcDbEntity
  8
DEFPOINTS
 62
     0
100
AcDbPoint
 10
135.5239094910646
 20
136.8166155672108
 30
0.0
  0
POINT
  5
FEA
330
FE0
100
AcDbEntity
  8
DEFPOINTS
 62
     0
100
AcDbPoint
 10
137.5239098189646
 20
161.8166159397107
 30
0.0
  0
POINT
  5
FEB
330
FE0
100
AcDbEntity
  8
DEFPOINTS
 62
     0
100
AcDbPoint
 10
152.7989136354506
 20
161.8166159397107
 30
0.0
  0
ENDBLK
  5
FE2
330
FE0
100
AcDbEntity
  8
0
100
AcDbBlockEnd
  0
BLOCK
  5
FED
330
FEC
100
AcDbEntity
  8
0
100
AcDbBlockBegin
  2
*D64
 70
     1
 10
0.0
 20
0.0
 30
0.0
  3
*D64
  1

  0
LINE
  5
FEF
330
FEC
100
AcDbEntity
  8
DIM
 62
     0
 48
6.0
370
    -2
100
AcDbLine
 10
183.4529652799646
 20
134.7541159397108
 30
0.0
 11
183.4529652799646
 21
126.8166159397107
 31
0.0
  0
LINE
  5
FF0
330
FEC
100
AcDbEntity
  8
DIM
 62
     0
 48
6.0
370
    -2
100
AcDbLine
 10
176.9529651458646
 20
137.3166150457108
 30
0.0
 11
176.9529651458646
 21
126.8166159397107
 31
0.0
  0
LINE
  5
FF1
330
FEC
100
AcDbEntity
  8
DIM
 62
     0
 48
6.0
370
    -2
100
AcDbLine
 10
176.9529651458646
 20
126.8166159397107
 30
0.0
 11
167.7722151458646
 21
126.8166159397107
 31
0.0
  0
LINE
  5
FF2
330
FEC
100
AcDbEntity
  8
DIM
 62
     0
 48
6.0
370
    -2
100
AcDbLine
 10
183.4529652799646
 20
126.8166159397107
 30
0.0
 11
176.9529651458646
 21
126.8166159397107
 31
0.0
  0
LINE
  5
FF3
330
FEC
100
AcDbEntity
  8
DIM
 62
     0
 48
6.0
370
    -2
100
AcDbLine
 10
184.4529652799646
 20
126.8166159397107
 30
0.0
 11
185.4529652799646
 21
126.8166159397107
 31
0.0
  0
LINE
  5
FF4
330
FEC
100
AcDbEntity
  8
DIM
 62
     0
 48
6.0
370
    -2
100
AcDbLine
 10
175.9529651458646
 20
126.8166159397107
 30
0.0
 11
174.9529651458646
 21
126.8166159397107
 31
0.0
  0
INSERT
  5
FF5
330
FEC
100
AcDbEntity
  8
DIM
 62
     0
370
    -2
100
AcDbBlockReference
  2
_Dot
 10
183.4529652799646
 20
126.8166159397107
 30
0.0
 50
180.0
  0
INSERT
  5
FF6
330
FEC
100
AcDbEntity
  8
DIM
 62
     0
370
    -2
100
AcDbBlockReference
  2
_Dot
 10
176.9529651458646
 20
126.8166159397107
 30
0.0
  0
MTEXT
  5
FF7
330
FEC
100
AcDbEntity
  8
DIM
 62
     0
 48
6.0
100
AcDbMText
 10
171.2499651458646
 20
129.1916159397107
 30
0.0
 40
2.75
 41
0.0
 46
0.0
 71
     5
 72
     1
  1
\A1;6.5
  7
ＭＳ ゴシック
 73
     1
 44
1.0
  0
POINT
  5
10AC
330
FEC
100
AcDbEntity
  8
DEFPOINTS
 62
     0
100
AcDbPoint
 10
183.4529652799646
 20
136.7541159397108
 30
0.0
  0
POINT
  5
10AD
330
FEC
100
AcDbEntity
  8
DEFPOINTS
 62
     0
100
AcDbPoint
 10
176.9529651458646
 20
139.3166150457108
 30
0.0
  0
POINT
  5
10AE
330
FEC
100
AcDbEntity
  8
DEFPOINTS
 62
     0
100
AcDbPoint
 10
176.9529651458646
 20
126.8166159397107
 30
0.0
  0
ENDBLK
  5
FEE
330
FEC
100
AcDbEntity
  8
0
100
AcDbBlockEnd
  0
BLOCK
  5
FFA
330
FF9
100
AcDbEntity
  8
0
100
AcDbBlockBegin
  2
*D65
 70
     1
 10
0.0
 20
0.0
 30
0.0
  3
*D65
  1

  0
LINE
  5
FFC
330
FF9
100
AcDbEntity
  8
DIM
 62
     0
 48
6.0
370
    -2
100
AcDbLine
 10
183.4529652799646
 20
134.7541159397108
 30
0.0
 11
183.4529652799646
 21
126.8166159397107
 31
0.0
  0
LINE
  5
FFD
330
FF9
100
AcDbEntity
  8
DIM
 62
     0
 48
6.0
370
    -2
100
AcDbLine
 10
203.4529652799646
 20
157.7541159397108
 30
0.0
 11
203.4529652799646
 21
126.8166159397107
 31
0.0
  0
LINE
  5
FFE
330
FF9
100
AcDbEntity
  8
DIM
 62
     0
 48
6.0
370
    -2
100
AcDbLine
 10
184.4529652799646
 20
126.8166159397107
 30
0.0
 11
202.4529652799646
 21
126.8166159397107
 31
0.0
  0
INSERT
  5
FFF
330
FF9
100
AcDbEntity
  8
DIM
 62
     0
370
    -2
100
AcDbBlockReference
  2
_Dot
 10
183.4529652799646
 20
126.8166159397107
 30
0.0
 50
180.0
  0
INSERT
  5
1000
330
FF9
100
AcDbEntity
  8
DIM
 62
     0
370
    -2
100
AcDbBlockReference
  2
_Dot
 10
203.4529652799646
 20
126.8166159397107
 30
0.0
  0
MTEXT
  5
1001
330
FF9
100
AcDbEntity
  8
DIM
 62
     0
 48
6.0
100
AcDbMText
 10
193.4529652799646
 20
129.1916159397107
 30
0.0
 40
2.75
 41
0.0
 46
0.0
 71
     5
 72
     1
  1
\A1;20
  7
ＭＳ ゴシック
 73
     1
 44
1.0
  0
POINT
  5
1002
330
FF9
100
AcDbEntity
  8
DEFPOINTS
 62
     0
100
AcDbPoint
 10
183.4529652799646
 20
136.7541159397108
 30
0.0
  0
POINT
  5
1003
330
FF9
100
AcDbEntity
  8
DEFPOINTS
 62
     0
100
AcDbPoint
 10
203.4529652799646
 20
159.7541159397108
 30
0.0
  0
POINT
  5
1004
330
FF9
100
AcDbEntity
  8
DEFPOINTS
 62
     0
100
AcDbPoint
 10
203.4529652799646
 20
126.8166159397107
 30
0.0
  0
ENDBLK
  5
FFB
330
FF9
100
AcDbEntity
  8
0
100
AcDbBlockEnd
  0
BLOCK
  5
1006
330
1005
100
AcDbEntity
  8
0
100
AcDbBlockBegin
  2
*D66
 70
     1
 10
0.0
 20
0.0
 30
0.0
  3
*D66
  1

  0
LINE
  5
1008
330
1005
100
AcDbEntity
  8
DIM
 62
     0
 48
6.0
370
    -2
100
AcDbLine
 10
176.9529651458646
 20
137.3166150457108
 30
0.0
 11
176.9529651458646
 21
119.3465548402954
 31
0.0
  0
LINE
  5
1009
330
1005
100
AcDbEntity
  8
DIM
 62
     0
 48
6.0
370
    -2
100
AcDbLine
 10
203.4529648329646
 20
157.8166159397108
 30
0.0
 11
203.4529648329646
 21
119.3465548402954
 31
0.0
  0
LINE
  5
100A
330
1005
100
AcDbEntity
  8
DIM
 62
     0
 48
6.0
370
    -2
100
AcDbLine
 10
177.9529651458646
 20
119.3465548402954
 30
0.0
 11
202.4529648329646
 21
119.3465548402954
 31
0.0
  0
INSERT
  5
100B
330
1005
100
AcDbEntity
  8
DIM
 62
     0
370
    -2
100
AcDbBlockReference
  2
_Dot
 10
176.9529651458646
 20
119.3465548402954
 30
0.0
 50
180.0
  0
INSERT
  5
100C
330
1005
100
AcDbEntity
  8
DIM
 62
     0
370
    -2
100
AcDbBlockReference
  2
_Dot
 10
203.4529648329646
 20
119.3465548402954
 30
0.0
  0
MTEXT
  5
100D
330
1005
100
AcDbEntity
  8
DIM
 62
     0
 48
6.0
100
AcDbMText
 10
190.2029649894146
 20
121.7215548402954
 30
0.0
 40
2.75
 41
0.0
 46
0.0
 71
     5
 72
     1
  1
\A1;26.5
  7
ＭＳ ゴシック
 73
     1
 44
1.0
  0
POINT
  5
100E
330
1005
100
AcDbEntity
  8
DEFPOINTS
 62
     0
100
AcDbPoint
 10
176.9529651458646
 20
139.3166150457108
 30
0.0
  0
POINT
  5
100F
330
1005
100
AcDbEntity
  8
DEFPOINTS
 62
     0
100
AcDbPoint
 10
203.4529648329646
 20
159.8166159397108
 30
0.0
  0
POINT
  5
1010
330
1005
100
AcDbEntity
  8
DEFPOINTS
 62
     0
100
AcDbPoint
 10
203.4529648329646
 20
119.3465548402954
 30
0.0
  0
ENDBLK
  5
1007
330
1005
100
AcDbEntity
  8
0
100
AcDbBlockEnd
  0
BLOCK
  5
1012
330
1011
100
AcDbEntity
  8
0
100
AcDbBlockBegin
  2
*D67
 70
     1
 10
0.0
 20
0.0
 30
0.0
  3
*D67
  1

  0
LINE
  5
1014
330
1011
100
AcDbEntity
  8
DIM
 62
     0
 48
6.0
370
    -2
100
AcDbLine
 10
205.4529648329646
 20
159.8166159397108
 30
0.0
 11
212.4529652799646
 21
159.8166159397108
 31
0.0
  0
LINE
  5
1015
330
1011
100
AcDbEntity
  8
DIM
 62
     0
 48
6.0
370
    -2
100
AcDbLine
 10
205.4529648329646
 20
161.8166159397107
 30
0.0
 11
212.4529652799646
 21
161.8166159397107
 31
0.0
  0
LINE
  5
1016
330
1011
100
AcDbEntity
  8
DIM
 62
     0
 48
6.0
370
    -2
100
AcDbLine
 10
212.4529652799646
 20
161.8166159397107
 30
0.0
 11
212.4529652799646
 21
171.0692409397107
 31
0.0
  0
LINE
  5
1017
330
1011
100
AcDbEntity
  8
DIM
 62
     0
 48
6.0
370
    -2
100
AcDbLine
 10
212.4529652799646
 20
160.8166159397108
 30
0.0
 11
212.4529652799646
 21
160.8166159397107
 31
0.0
  0
LINE
  5
1018
330
1011
100
AcDbEntity
  8
DIM
 62
     0
 48
6.0
370
    -2
100
AcDbLine
 10
212.4529652799646
 20
160.8166159397107
 30
0.0
 11
212.4529652799646
 21
159.8166159397107
 31
0.0
  0
INSERT
  5
1019
330
1011
100
AcDbEntity
  8
DIM
 62
     0
370
    -2
100
AcDbBlockReference
  2
_Dot
 10
212.4529652799646
 20
159.8166159397108
 30
0.0
 50
270.0
  0
INSERT
  5
101A
330
1011
100
AcDbEntity
  8
DIM
 62
     0
370
    -2
100
AcDbBlockReference
  2
_Dot
 10
212.4529652799646
 20
161.8166159397107
 30
0.0
 50
90.0
  0
MTEXT
  5
101B
330
1011
100
AcDbEntity
  8
DIM
 62
     0
 48
6.0
100
AcDbMText
 10
210.0779652799646
 20
167.5571159397107
 30
0.0
 40
2.75
 41
0.0
 46
0.0
 71
     5
 72
     1
  1
\A1;t=2
  7
ＭＳ ゴシック
 11
0.0
 21
1.0
 31
0.0
 73
     1
 44
1.0
  0
POINT
  5
101C
330
1011
100
AcDbEntity
  8
DEFPOINTS
 62
     0
100
AcDbPoint
 10
203.4529648329646
 20
159.8166159397108
 30
0.0
  0
POINT
  5
101D
330
1011
100
AcDbEntity
  8
DEFPOINTS
 62
     0
100
AcDbPoint
 10
203.4529648329646
 20
161.8166159397107
 30
0.0
  0
POINT
  5
101E
330
1011
100
AcDbEntity
  8
DEFPOINTS
 62
     0
100
AcDbPoint
 10
212.4529652799646
 20
161.8166159397107
 30
0.0
  0
ENDBLK
  5
1013
330
1011
100
AcDbEntity
  8
0
100
AcDbBlockEnd
  0
BLOCK
  5
1020
330
101F
100
AcDbEntity
  8
0
100
AcDbBlockBegin
  2
*D68
 70
     1
 10
0.0
 20
0.0
 30
0.0
  3
*D68
  1

  0
LINE
  5
1022
330
101F
100
AcDbEntity
  8
DIM
 62
     0
 48
6.0
370
    -2
100
AcDbLine
 10
88.77390928246456
 20
74.40166451951083
 30
0.0
 11
80.49453471196455
 21
74.40166451951083
 31
0.0
  0
LINE
  5
1023
330
101F
100
AcDbEntity
  8
DIM
 62
     0
 48
6.0
370
    -2
100
AcDbLine
 10
86.52390923776454
 20
94.40166465361071
 30
0.0
 11
80.49453471196455
 21
94.40166465361071
 31
0.0
  0
LINE
  5
1024
330
101F
100
AcDbEntity
  8
DIM
 62
     0
 48
6.0
370
    -2
100
AcDbLine
 10
80.49453471196455
 20
75.40166451951083
 30
0.0
 11
80.49453471196455
 21
93.40166465361071
 31
0.0
  0
INSERT
  5
1025
330
101F
100
AcDbEntity
  8
DIM
 62
     0
370
    -2
100
AcDbBlockReference
  2
_Dot
 10
80.49453471196455
 20
74.40166451951083
 30
0.0
 50
270.0
  0
INSERT
  5
1026
330
101F
100
AcDbEntity
  8
DIM
 62
     0
370
    -2
100
AcDbBlockReference
  2
_Dot
 10
80.49453471196455
 20
94.40166465361071
 30
0.0
 50
90.0
  0
MTEXT
  5
1027
330
101F
100
AcDbEntity
  8
DIM
 62
     0
 48
6.0
100
AcDbMText
 10
78.11953471196455
 20
84.40166458656077
 30
0.0
 40
2.75
 41
0.0
 46
0.0
 71
     5
 72
     1
  1
\A1;20
  7
ＭＳ ゴシック
 11
0.0
 21
1.0
 31
0.0
 73
     1
 44
1.0
  0
POINT
  5
1028
330
101F
100
AcDbEntity
  8
DEFPOINTS
 62
     0
100
AcDbPoint
 10
90.77390928246456
 20
74.40166451951083
 30
0.0
  0
POINT
  5
1029
330
101F
100
AcDbEntity
  8
DEFPOINTS
 62
     0
100
AcDbPoint
 10
88.52390923776454
 20
94.40166465361071
 30
0.0
  0
POINT
  5
102A
330
101F
100
AcDbEntity
  8
DEFPOINTS
 62
     0
100
AcDbPoint
 10
80.49453471196455
 20
94.40166465361071
 30
0.0
  0
ENDBLK
  5
1021
330
101F
100
AcDbEntity
  8
0
100
AcDbBlockEnd
  0
BLOCK
  5
102C
330
102B
100
AcDbEntity
  8
0
100
AcDbBlockBegin
  2
*D69
 70
     1
 10
0.0
 20
0.0
 30
0.0
  3
*D69
  1

  0
LINE
  5
102E
330
102B
100
AcDbEntity
  8
DIM
 62
     0
 48
6.0
370
    -2
100
AcDbLine
 10
88.77390928246456
 20
74.40166451951083
 30
0.0
 11
80.45671534386719
 21
74.40166451951083
 31
0.0
  0
LINE
  5
102F
330
102B
100
AcDbEntity
  8
DIM
 62
     0
 48
6.0
370
    -2
100
AcDbLine
 10
85.52390928246456
 20
67.90166451951072
 30
0.0
 11
80.45671534386719
 21
67.90166451951072
 31
0.0
  0
LINE
  5
1030
330
102B
100
AcDbEntity
  8
DIM
 62
     0
 48
6.0
370
    -2
100
AcDbLine
 10
80.45671534386719
 20
67.90166451951072
 30
0.0
 11
80.45671534386719
 21
58.72091451951071
 31
0.0
  0
LINE
  5
1031
330
102B
100
AcDbEntity
  8
DIM
 62
     0
 48
6.0
370
    -2
100
AcDbLine
 10
80.45671534386719
 20
74.40166451951083
 30
0.0
 11
80.45671534386719
 21
67.90166451951072
 31
0.0
  0
LINE
  5
1032
330
102B
100
AcDbEntity
  8
DIM
 62
     0
 48
6.0
370
    -2
100
AcDbLine
 10
80.45671534386719
 20
75.40166451951083
 30
0.0
 11
80.45671534386719
 21
76.40166451951083
 31
0.0
  0
LINE
  5
1033
330
102B
100
AcDbEntity
  8
DIM
 62
     0
 48
6.0
370
    -2
100
AcDbLine
 10
80.45671534386719
 20
66.90166451951072
 30
0.0
 11
80.45671534386719
 21
65.90166451951072
 31
0.0
  0
INSERT
  5
1034
330
102B
100
AcDbEntity
  8
DIM
 62
     0
370
    -2
100
AcDbBlockReference
  2
_Dot
 10
80.45671534386719
 20
74.40166451951083
 30
0.0
 50
270.0
  0
INSERT
  5
1035
330
102B
100
AcDbEntity
  8
DIM
 62
     0
370
    -2
100
AcDbBlockReference
  2
_Dot
 10
80.45671534386719
 20
67.90166451951072
 30
0.0
 50
90.0
  0
MTEXT
  5
1036
330
102B
100
AcDbEntity
  8
DIM
 62
     0
 48
6.0
100
AcDbMText
 10
78.08171534386719
 20
62.19866451951071
 30
0.0
 40
2.75
 41
0.0
 46
0.0
 71
     5
 72
     1
  1
\A1;6.5
  7
ＭＳ ゴシック
 11
0.0
 21
1.0
 31
0.0
 73
     1
 44
1.0
  0
POINT
  5
1037
330
102B
100
AcDbEntity
  8
DEFPOINTS
 62
     0
100
AcDbPoint
 10
90.77390928246456
 20
74.40166451951083
 30
0.0
  0
POINT
  5
1078
330
102B
100
AcDbEntity
  8
DEFPOINTS
 62
     0
100
AcDbPoint
 10
87.52390928246456
 20
67.90166451951072
 30
0.0
  0
POINT
  5
1079
330
102B
100
AcDbEntity
  8
DEFPOINTS
 62
     0
100
AcDbPoint
 10
80.45671534386719
 20
67.90166451951072
 30
0.0
  0
ENDBLK
  5
102D
330
102B
100
AcDbEntity
  8
0
100
AcDbBlockEnd
  0
BLOCK
  5
1039
330
1038
100
AcDbEntity
  8
0
100
AcDbBlockBegin
  2
*D70
 70
     1
 10
0.0
 20
0.0
 30
0.0
  3
*D70
  1

  0
LINE
  5
103B
330
1038
100
AcDbEntity
  8
DIM
 62
     0
 48
6.0
370
    -2
100
AcDbLine
 10
85.52390874606454
 20
67.90166529441083
 30
0.0
 11
85.52390874606454
 21
57.90166451951083
 31
0.0
  0
LINE
  5
103C
330
1038
100
AcDbEntity
  8
DIM
 62
     0
 48
6.0
370
    -2
100
AcDbLine
 10
95.52390928246456
 20
67.58916451951083
 30
0.0
 11
95.52390928246456
 21
57.90166451951083
 31
0.0
  0
LINE
  5
103D
330
1038
100
AcDbEntity
  8
DIM
 62
     0
 48
6.0
370
    -2
100
AcDbLine
 10
86.52390874606454
 20
57.90166451951083
 30
0.0
 11
94.52390928246456
 21
57.90166451951083
 31
0.0
  0
INSERT
  5
103E
330
1038
100
AcDbEntity
  8
DIM
 62
     0
370
    -2
100
AcDbBlockReference
  2
_Dot
 10
85.52390874606454
 20
57.90166451951083
 30
0.0
 50
180.0
  0
INSERT
  5
103F
330
1038
100
AcDbEntity
  8
DIM
 62
     0
370
    -2
100
AcDbBlockReference
  2
_Dot
 10
95.52390928246456
 20
57.90166451951083
 30
0.0
  0
MTEXT
  5
1040
330
1038
100
AcDbEntity
  8
DIM
 62
     0
 48
6.0
100
AcDbMText
 10
90.52390901426455
 20
60.27666451951083
 30
0.0
 40
2.75
 41
0.0
 46
0.0
 71
     5
 72
     1
  1
\A1;10
  7
ＭＳ ゴシック
 73
     1
 44
1.0
  0
POINT
  5
1041
330
1038
100
AcDbEntity
  8
DEFPOINTS
 62
     0
100
AcDbPoint
 10
85.52390874606454
 20
69.90166529441083
 30
0.0
  0
POINT
  5
1042
330
1038
100
AcDbEntity
  8
DEFPOINTS
 62
     0
100
AcDbPoint
 10
95.52390928246456
 20
69.58916451951083
 30
0.0
  0
POINT
  5
1043
330
1038
100
AcDbEntity
  8
DEFPOINTS
 62
     0
100
AcDbPoint
 10
95.52390928246456
 20
57.90166451951083
 30
0.0
  0
ENDBLK
  5
103A
330
1038
100
AcDbEntity
  8
0
100
AcDbBlockEnd
  0
BLOCK
  5
1045
330
1044
100
AcDbEntity
  8
0
100
AcDbBlockBegin
  2
*D71
 70
     1
 10
0.0
 20
0.0
 30
0.0
  3
*D71
  1

  0
LINE
  5
1047
330
1044
100
AcDbEntity
  8
DIM
 62
     0
 48
6.0
370
    -2
100
AcDbLine
 10
95.52390928246456
 20
67.65166451951083
 30
0.0
 11
95.52390928246456
 21
57.90166451951083
 31
0.0
  0
LINE
  5
1048
330
1044
100
AcDbEntity
  8
DIM
 62
     0
 48
6.0
370
    -2
100
AcDbLine
 10
111.5239092824646
 20
67.65166451951083
 30
0.0
 11
111.5239092824646
 21
57.90166451951083
 31
0.0
  0
LINE
  5
1049
330
1044
100
AcDbEntity
  8
DIM
 62
     0
 48
6.0
370
    -2
100
AcDbLine
 10
96.52390928246456
 20
57.90166451951083
 30
0.0
 11
110.5239092824646
 21
57.90166451951083
 31
0.0
  0
INSERT
  5
104A
330
1044
100
AcDbEntity
  8
DIM
 62
     0
370
    -2
100
AcDbBlockReference
  2
_Dot
 10
95.52390928246456
 20
57.90166451951083
 30
0.0
 50
180.0
  0
INSERT
  5
104B
330
1044
100
AcDbEntity
  8
DIM
 62
     0
370
    -2
100
AcDbBlockReference
  2
_Dot
 10
111.5239092824646
 20
57.90166451951083
 30
0.0
  0
MTEXT
  5
104C
330
1044
100
AcDbEntity
  8
DIM
 62
     0
 48
6.0
100
AcDbMText
 10
103.5239092824646
 20
60.27666451951083
 30
0.0
 40
2.75
 41
0.0
 46
0.0
 71
     5
 72
     1
  1
\A1;16
  7
ＭＳ ゴシック
 73
     1
 44
1.0
  0
POINT
  5
104D
330
1044
100
AcDbEntity
  8
DEFPOINTS
 62
     0
100
AcDbPoint
 10
95.52390928246456
 20
69.65166451951083
 30
0.0
  0
POINT
  5
104E
330
1044
100
AcDbEntity
  8
DEFPOINTS
 62
     0
100
AcDbPoint
 10
111.5239092824646
 20
69.65166451951083
 30
0.0
  0
POINT
  5
104F
330
1044
100
AcDbEntity
  8
DEFPOINTS
 62
     0
100
AcDbPoint
 10
111.5239092824646
 20
57.90166451951083
 30
0.0
  0
ENDBLK
  5
1046
330
1044
100
AcDbEntity
  8
0
100
AcDbBlockEnd
  0
BLOCK
  5
1051
330
1050
100
AcDbEntity
  8
0
100
AcDbBlockBegin
  2
*D72
 70
     1
 10
0.0
 20
0.0
 30
0.0
  3
*D72
  1

  0
LINE
  5
1053
330
1050
100
AcDbEntity
  8
DIM
 62
     0
 48
6.0
370
    -2
100
AcDbLine
 10
111.5239092824646
 20
67.58916451951083
 30
0.0
 11
111.5239092824646
 21
57.90166451951083
 31
0.0
  0
LINE
  5
1054
330
1050
100
AcDbEntity
  8
DIM
 62
     0
 48
6.0
370
    -2
100
AcDbLine
 10
127.5239092824646
 20
67.65166451951083
 30
0.0
 11
127.5239092824646
 21
57.90166451951083
 31
0.0
  0
LINE
  5
1055
330
1050
100
AcDbEntity
  8
DIM
 62
     0
 48
6.0
370
    -2
100
AcDbLine
 10
112.5239092824646
 20
57.90166451951083
 30
0.0
 11
126.5239092824646
 21
57.90166451951083
 31
0.0
  0
INSERT
  5
1056
330
1050
100
AcDbEntity
  8
DIM
 62
     0
370
    -2
100
AcDbBlockReference
  2
_Dot
 10
111.5239092824646
 20
57.90166451951083
 30
0.0
 50
180.0
  0
INSERT
  5
1057
330
1050
100
AcDbEntity
  8
DIM
 62
     0
370
    -2
100
AcDbBlockReference
  2
_Dot
 10
127.5239092824646
 20
57.90166451951083
 30
0.0
  0
MTEXT
  5
1058
330
1050
100
AcDbEntity
  8
DIM
 62
     0
 48
6.0
100
AcDbMText
 10
119.5239092824646
 20
60.27666451951083
 30
0.0
 40
2.75
 41
0.0
 46
0.0
 71
     5
 72
     1
  1
\A1;16
  7
ＭＳ ゴシック
 73
     1
 44
1.0
  0
POINT
  5
1059
330
1050
100
AcDbEntity
  8
DEFPOINTS
 62
     0
100
AcDbPoint
 10
111.5239092824646
 20
69.58916451951083
 30
0.0
  0
POINT
  5
105A
330
1050
100
AcDbEntity
  8
DEFPOINTS
 62
     0
100
AcDbPoint
 10
127.5239092824646
 20
69.65166451951083
 30
0.0
  0
POINT
  5
105B
330
1050
100
AcDbEntity
  8
DEFPOINTS
 62
     0
100
AcDbPoint
 10
127.5239092824646
 20
57.90166451951083
 30
0.0
  0
ENDBLK
  5
1052
330
1050
100
AcDbEntity
  8
0
100
AcDbBlockEnd
  0
BLOCK
  5
105D
330
105C
100
AcDbEntity
  8
0
100
AcDbBlockBegin
  2
*D73
 70
     1
 10
0.0
 20
0.0
 30
0.0
  3
*D73
  1

  0
LINE
  5
105F
330
105C
100
AcDbEntity
  8
DIM
 62
     0
 48
6.0
370
    -2
100
AcDbLine
 10
127.5239092824646
 20
67.58916451951083
 30
0.0
 11
127.5239092824646
 21
57.90166451951083
 31
0.0
  0
LINE
  5
1060
330
105C
100
AcDbEntity
  8
DIM
 62
     0
 48
6.0
370
    -2
100
AcDbLine
 10
137.5239098189646
 20
67.90166529441083
 30
0.0
 11
137.5239098189646
 21
57.90166451951083
 31
0.0
  0
LINE
  5
1061
330
105C
100
AcDbEntity
  8
DIM
 62
     0
 48
6.0
370
    -2
100
AcDbLine
 10
128.5239092824646
 20
57.90166451951083
 30
0.0
 11
136.5239098189646
 21
57.90166451951083
 31
0.0
  0
INSERT
  5
1062
330
105C
100
AcDbEntity
  8
DIM
 62
     0
370
    -2
100
AcDbBlockReference
  2
_Dot
 10
127.5239092824646
 20
57.90166451951083
 30
0.0
 50
180.0
  0
INSERT
  5
1063
330
105C
100
AcDbEntity
  8
DIM
 62
     0
370
    -2
100
AcDbBlockReference
  2
_Dot
 10
137.5239098189646
 20
57.90166451951083
 30
0.0
  0
MTEXT
  5
1064
330
105C
100
AcDbEntity
  8
DIM
 62
     0
 48
6.0
100
AcDbMText
 10
132.5239095507146
 20
60.27666451951083
 30
0.0
 40
2.75
 41
0.0
 46
0.0
 71
     5
 72
     1
  1
\A1;10
  7
ＭＳ ゴシック
 73
     1
 44
1.0
  0
POINT
  5
1065
330
105C
100
AcDbEntity
  8
DEFPOINTS
 62
     0
100
AcDbPoint
 10
127.5239092824646
 20
69.58916451951083
 30
0.0
  0
POINT
  5
1066
330
105C
100
AcDbEntity
  8
DEFPOINTS
 62
     0
100
AcDbPoint
 10
137.5239098189646
 20
69.90166529441083
 30
0.0
  0
POINT
  5
1067
330
105C
100
AcDbEntity
  8
DEFPOINTS
 62
     0
100
AcDbPoint
 10
137.5239098189646
 20
57.90166451951083
 30
0.0
  0
ENDBLK
  5
105E
330
105C
100
AcDbEntity
  8
0
100
AcDbBlockEnd
  0
BLOCK
  5
1069
330
1068
100
AcDbEntity
  8
0
100
AcDbBlockBegin
  2
*D74
 70
     1
 10
0.0
 20
0.0
 30
0.0
  3
*D74
  1

  0
LINE
  5
106B
330
1068
100
AcDbEntity
  8
DIM
 62
     0
 48
6.0
370
    -2
100
AcDbLine
 10
392.3991835641001
 20
71.4398088068692
 30
0.0
 11
421.876252268681
 21
41.15182854989739
 31
0.0
  0
MTEXT
  5
106C
330
1068
100
AcDbEntity
  8
DIM
 62
     0
 48
6.0
100
AcDbMText
 10
414.6183720043388
 20
52.55303377427931
 30
0.0
 40
3.0
 41
0.0
 46
0.0
 71
     5
 72
     1
  1
\A1;3-4.5(D7皿穴）
  7
ＭＳ ゴシック
 11
0.6974483302657122
 21
-0.7166350721319535
 31
0.0
 73
     1
 44
1.0
  0
INSERT
  5
106D
330
1068
100
AcDbEntity
  8
DIM
 62
     0
370
    -2
100
AcDbBlockReference
  2
_Dot
 10
391.7017352338344
 20
72.15644387900115
 30
0.0
 50
134.2226399972026
  0
POINT
  5
106E
330
1068
100
AcDbEntity
  8
DEFPOINTS
 62
     0
100
AcDbPoint
 10
391.7017352338344
 20
72.15644387900115
 30
0.0
  0
POINT
  5
106F
330
1068
100
AcDbEntity
  8
DEFPOINTS
 62
     0
100
AcDbPoint
 10
388.5632177476386
 20
75.38130170359501
 30
0.0
  0
ENDBLK
  5
106A
330
1068
100
AcDbEntity
  8
0
100
AcDbBlockEnd
  0
ENDSEC
  0
SECTION
  2
ENTITIES
  0
LINE
  5
826
330
19
100
AcDbEntity
  8
PRINT BORDER
100
AcDbLine
 10
148.4999999999999
 20
0.0
 30
0.0
 11
148.4999999999999
 21
7.65476311427949
 31
0.0
  0
LINE
  5
827
330
19
100
AcDbEntity
  8
テンプレート
100
AcDbLine
 10
218.9999999999999
 20
19.13905445211049
 30
0.0
 11
7.65476311427949
 21
19.13905445211049
 31
0.0
  0
LINE
  5
828
330
19
100
AcDbEntity
  8
テンプレート
100
AcDbLine
 10
7.65476311427949
 20
13.11076841960391
 30
0.0
 11
289.3452368857203
 21
13.11076841960391
 31
0.0
  0
TEXT
  5
829
330
19
100
AcDbEntity
  8
テンプレート
100
AcDbText
 10
9.030608497570597
 20
16.08412990806846
 30
0.0
 40
1.75
  1
材質
  7
ＭＳ ゴシック
100
AcDbText
  0
TEXT
  5
82A
330
19
100
AcDbEntity
  8
テンプレート
100
AcDbText
 10
9.030608497570597
 20
28.25479514336541
 30
0.0
 40
1.75
  1
品名
  7
ＭＳ ゴシック
100
AcDbText
  0
TEXT
  5
82B
330
19
100
AcDbEntity
  8
テンプレート
100
AcDbText
 10
9.030608497570597
 20
22.32549669540049
 30
0.0
 40
1.75
  1
仕上げ
  7
ＭＳ ゴシック
100
AcDbText
  0
TEXT
  5
82C
330
19
100
AcDbEntity
  8
テンプレート
100
AcDbText
 10
149.4116742589653
 20
28.29261526154949
 30
0.0
 40
1.75
  1
品番
  7
ＭＳ ゴシック
100
AcDbText
  0
LINE
  5
82D
330
19
100
AcDbEntity
  8
テンプレート
100
AcDbLine
 10
218.9999999999999
 20
25.08248238709803
 30
0.0
 11
7.65476311427949
 21
25.08248238709803
 31
0.0
  0
LINE
  5
82E
330
19
100
AcDbEntity
  8
テンプレート
100
AcDbLine
 10
289.3452368857206
 20
31.11076841960391
 30
0.0
 11
7.65476311427949
 21
31.11076841960391
 31
0.0
  0
LINE
  5
82F
330
19
100
AcDbEntity
  8
PRINT BORDER
100
AcDbLine
 10
296.9999999999999
 20
105.0
 30
0.0
 11
289.3452368857206
 21
105.0
 31
0.0
  0
LINE
  5
830
330
19
100
AcDbEntity
  8
PRINT BORDER
100
AcDbLine
 10
0.0
 20
105.0
 30
0.0
 11
7.65476311427949
 21
105.0
 31
0.0
  0
LINE
  5
831
330
19
100
AcDbEntity
  8
PRINT BORDER
100
AcDbLine
 10
148.4999999999999
 20
210.0
 30
0.0
 11
148.4999999999999
 21
202.3452368857205
 31
0.0
  0
LINE
  5
832
330
19
100
AcDbEntity
  8
テンプレート
100
AcDbLine
 10
289.3452368857206
 20
31.11076841960391
 30
0.0
 11
289.3452368857206
 21
13.11076841960391
 31
0.0
  0
LINE
  5
833
330
19
100
AcDbEntity
  8
テンプレート
100
AcDbLine
 10
7.65476311427949
 20
31.11076841960391
 30
0.0
 11
7.65476311427949
 21
13.11076841960391
 31
0.0
  0
TEXT
  5
834
330
19
100
AcDbEntity
  8
テンプレート
100
AcDbText
 10
247.4866692477609
 20
8.25969195156847
 30
0.0
 40
2.75
  1
大洋金物株式会社  
  7
ＭＳ ゴシック
100
AcDbText
  0
LINE
  5
835
330
19
100
AcDbEntity
  8
テンプレート
100
AcDbLine
 10
218.9999999999999
 20
31.11076841960391
 30
0.0
 11
218.9999999999999
 21
13.11076841960391
 31
0.0
  0
LINE
  5
836
330
19
100
AcDbEntity
  8
テンプレート
100
AcDbLine
 10
148.4999999999999
 20
31.11076841960391
 30
0.0
 11
148.4999999999999
 21
13.11076841960391
 31
0.0
  0
INSERT
  5
837
330
19
100
AcDbEntity
  8
テンプレート
100
AcDbBlockReference
  2
名称未設定-1
 10
274.1972599429902
 20
-3.821172101996581
 30
0.0
 41
0.0904875
 42
0.0904875
 43
0.0904875
  0
LINE
  5
838
330
19
100
AcDbEntity
  8
テンプレート
100
AcDbLine
 10
7.65476311427949
 20
105.0
 30
0.0
 11
7.65476311427949
 21
13.11076841960391
 31
0.0
  0
LINE
  5
839
330
19
100
AcDbEntity
  8
テンプレート
100
AcDbLine
 10
7.65476311427949
 20
105.0
 30
0.0
 11
7.65476311427949
 21
202.3452368857205
 31
0.0
  0
LINE
  5
83A
330
19
100
AcDbEntity
  8
テンプレート
100
AcDbLine
 10
148.4999999999999
 20
202.3452368857205
 30
0.0
 11
7.654763114279433
 21
202.3452368857205
 31
0.0
  0
LINE
  5
83B
330
19
100
AcDbEntity
  8
テンプレート
100
AcDbLine
 10
148.4999999999999
 20
202.3452368857205
 30
0.0
 11
289.3452368857206
 21
202.3452368857205
 31
0.0
  0
LINE
  5
83C
330
19
100
AcDbEntity
  8
テンプレート
100
AcDbLine
 10
289.3452368857206
 20
105.0
 30
0.0
 11
289.3452368857206
 21
202.3452368857205
 31
0.0
  0
LINE
  5
83D
330
19
100
AcDbEntity
  8
テンプレート
100
AcDbLine
 10
289.3452368857206
 20
105.0
 30
0.0
 11
289.3452368857206
 21
13.11076841960391
 31
0.0
  0
LWPOLYLINE
  5
83E
330
19
100
AcDbEntity
  8
PRINT BORDER
  6
HIDDEN
 48
6.0
100
AcDbPolyline
 90
        4
 70
     1
 43
0.0
 10
0.0
 20
0.0
 10
0.0
 20
210.0
 10
296.9999999999999
 20
210.0
 10
296.9999999999999
 20
0.0
  0
TEXT
  5
83F
330
19
100
AcDbEntity
  8
テンプレート
100
AcDbText
 10
149.3994578111111
 20
16.31202671409744
 30
0.0
 40
1.75
  1
縮尺
  7
ＭＳ ゴシック
100
AcDbText
  0
TEXT
  5
840
330
19
100
AcDbEntity
  8
テンプレート
100
AcDbText
 10
156.5085602712232
 20
14.81034057033834
 30
0.0
 40
2.75
  1
1:1
  7
ＭＳ ゴシック
100
AcDbText
  0
TEXT
  5
841
330
19
100
AcDbEntity
  8
テンプレート
100
AcDbText
 10
149.4116742589653
 20
22.26432922904291
 30
0.0
 40
1.75
  1
扉厚
  7
ＭＳ ゴシック
100
AcDbText
  0
TEXT
  5
842
330
19
100
AcDbEntity
  8
テンプレート
100
AcDbText
 10
220.0443762336734
 20
28.29261526154949
 30
0.0
 40
1.75
  1
備考
  7
ＭＳ ゴシック
100
AcDbText
  0
LINE
  5
843
330
19
100
AcDbEntity
  8
テンプレート
  6
Continuous
100
AcDbLine
 10
16.8155007688483
 20
13.11076841960391
 30
0.0
 11
16.81550076884832
 21
31.11076841960391
 31
0.0
  0
MTEXT
  5
995
102
{ACAD_XDICTIONARY
360
996
102
}
330
19
100
AcDbEntity
  8
TEMPLATE
100
AcDbMText
 10
7.851168215966037
 20
11.99466581385097
 30
0.0
 40
2.2
 41
0.0
 46
2.2
 71
     1
 72
     1
  1
{20181227N}
  7
ＭＳ ゴシック
 73
     1
 44
1.0
1001
ACAD
1000
ACAD_MTEXT_DEFINED_HEIGHT_BEGIN
1070
    46
1040
2.2
1000
ACAD_MTEXT_DEFINED_HEIGHT_END
  0
TEXT
  5
99F
330
19
100
AcDbEntity
  8
テンプレート
100
AcDbText
 10
156.5085602712232
 20
26.57470134433102
 30
0.0
 40
2.75
  1
GPT34-090G-X
  7
ＭＳ ゴシック
100
AcDbText
  0
MTEXT
  5
9A6
330
19
100
AcDbEntity
  8
テンプレート
 48
6.0
100
AcDbMText
 10
19.12157802824211
 20
17.86070127740036
 30
0.0
 40
2.75
 41
85.64054009324595
 46
2.94525
 71
     1
 72
     5
  1
{ステンレス、シリコンゴム、ネオジム磁石}
  7
ＭＳ ゴシック
 73
     1
 44
1.0
1001
ACAD
1000
ACAD_MTEXT_DEFINED_HEIGHT_BEGIN
1070
    46
1040
2.94525
1000
ACAD_MTEXT_DEFINED_HEIGHT_END
  0
MTEXT
  5
B4F
330
19
100
AcDbEntity
  8
テンプレート
 48
6.0
100
AcDbMText
 10
19.12157802824211
 20
23.56291409867068
 30
0.0
 40
2.75
 41
52.87506434268833
 46
2.9865
 71
     1
 72
     5
  1
{ポリッシュ}
  7
ＭＳ ゴシック
 73
     1
 44
1.0
1001
ACAD
1000
ACAD_MTEXT_DEFINED_HEIGHT_BEGIN
1070
    46
1040
2.9865
1000
ACAD_MTEXT_DEFINED_HEIGHT_END
  0
TEXT
  5
B50
330
19
100
AcDbEntity
  8
テンプレート
100
AcDbText
 10
227.0085602712232
 20
26.57470134433102
 30
0.0
 40
2.75
  1
付属品:
  7
ＭＳ ゴシック
100
AcDbText
  0
TEXT
  5
B51
330
19
100
AcDbEntity
  8
テンプレート
100
AcDbText
 10
227.0085602712232
 20
21.52046725275053
 30
0.0
 40
2.75
  1
皿ネジ
  7
ＭＳ ゴシック
100
AcDbText
  0
LINE
  5
EE6
330
19
100
AcDbEntity
  8
中心線
 48
6.0
100
AcDbLine
 10
127.5239092824646
 20
85.00305004581085
 30
0.0
 11
127.5239092824646
 21
95.40166465361071
 31
0.0
  0
LINE
  5
EE7
330
19
100
AcDbEntity
  8
中心線
 48
6.0
100
AcDbLine
 10
95.52390928246456
 20
84.94561380481085
 30
0.0
 11
95.52390928246456
 21
95.40166465361082
 31
0.0
  0
CIRCLE
  5
EE8
330
19
100
AcDbEntity
  8
実線
 48
6.0
100
AcDbCircle
 10
111.5239092824646
 20
74.40166451951083
 30
0.0
 40
2.25
  0
CIRCLE
  5
EE9
330
19
100
AcDbEntity
  8
実線
 48
6.0
100
AcDbCircle
 10
95.52390928246456
 20
74.40166451951083
 30
0.0
 40
2.249999999999985
  0
CIRCLE
  5
EEA
330
19
100
AcDbEntity
  8
実線
 48
6.0
100
AcDbCircle
 10
127.5239092824646
 20
74.40166451951083
 30
0.0
 40
2.25
  0
ARC
  5
EEB
330
19
100
AcDbEntity
  8
実線
 48
6.0
100
AcDbCircle
 10
135.5239092824646
 20
69.90166451951072
 30
0.0
 40
2.000000000000014
100
AcDbArc
 50
270.0
 51
0.0
  0
LINE
  5
EEC
330
19
100
AcDbEntity
  8
実線
 48
6.0
100
AcDbLine
 10
87.52390907386456
 20
67.90166496661081
 30
0.0
 11
135.5239094910646
 21
67.90166496661081
 31
0.0
  0
CIRCLE
  5
EED
330
19
100
AcDbEntity
  8
実線
 48
6.0
100
AcDbCircle
 10
111.5239092824646
 20
74.40166451951083
 30
0.0
 40
3.75
  0
CIRCLE
  5
EEE
330
19
100
AcDbEntity
  8
実線
 48
6.0
100
AcDbCircle
 10
95.52390928246456
 20
74.40166451951083
 30
0.0
 40
3.749999999999986
  0
CIRCLE
  5
EEF
330
19
100
AcDbEntity
  8
実線
 48
6.0
100
AcDbCircle
 10
127.5239092824646
 20
74.40166451951083
 30
0.0
 40
3.75
  0
LINE
  5
EF0
330
19
100
AcDbEntity
  8
実線
 48
6.0
100
AcDbLine
 10
85.52390874606454
 20
69.90166529441083
 30
0.0
 11
85.52390874606454
 21
83.90166432951085
 31
0.0
  0
ARC
  5
EF1
330
19
100
AcDbEntity
  8
実線
 48
6.0
100
AcDbCircle
 10
87.52390928246456
 20
69.90166451951072
 30
0.0
 40
2.0
100
AcDbArc
 50
180.0
 51
270.0
  0
LINE
  5
EF2
330
19
100
AcDbEntity
  8
実線
 48
6.0
100
AcDbLine
 10
137.5239098189646
 20
69.90166529441083
 30
0.0
 11
137.5239098189646
 21
83.90166432951085
 31
0.0
  0
LINE
  5
EF3
330
19
100
AcDbEntity
  8
実線
 48
6.0
100
AcDbLine
 10
85.52390874606454
 20
83.90166432951085
 30
0.0
 11
85.52390874606454
 21
85.90166442451081
 31
0.0
  0
LINE
  5
EF4
330
19
100
AcDbEntity
  8
実線
 48
6.0
100
AcDbLine
 10
137.5239098189646
 20
83.90166432951085
 30
0.0
 11
137.5239098189646
 21
85.90166442451081
 31
0.0
  0
LINE
  5
EF5
330
19
100
AcDbEntity
  8
実線
 48
6.0
100
AcDbLine
 10
137.5239098189646
 20
85.90166442451081
 30
0.0
 11
135.5239094910646
 21
85.90166442451081
 31
0.0
  0
LINE
  5
EF6
330
19
100
AcDbEntity
  8
実線
 48
6.0
100
AcDbLine
 10
135.5239094910646
 20
87.90166451951083
 30
0.0
 11
137.5239098189646
 21
87.90166451951083
 31
0.0
  0
LINE
  5
EF7
330
19
100
AcDbEntity
  8
実線
 48
6.0
100
AcDbLine
 10
137.5239098189646
 20
87.90166451951083
 30
0.0
 11
137.5239098189646
 21
85.90166442451081
 31
0.0
  0
LINE
  5
EF8
330
19
100
AcDbEntity
  8
実線
 48
6.0
100
AcDbLine
 10
87.52390907386456
 20
85.90166442451081
 30
0.0
 11
85.52390874606454
 21
85.90166442451081
 31
0.0
  0
LINE
  5
EF9
330
19
100
AcDbEntity
  8
実線
 48
6.0
100
AcDbLine
 10
85.52390874606454
 20
87.90166451951083
 30
0.0
 11
87.52390907386456
 21
87.90166451951083
 31
0.0
  0
LINE
  5
EFA
330
19
100
AcDbEntity
  8
実線
 48
6.0
100
AcDbLine
 10
85.52390874606454
 20
85.90166442451081
 30
0.0
 11
85.52390874606454
 21
87.90166451951083
 31
0.0
  0
LINE
  5
EFB
330
19
100
AcDbEntity
  8
実線
 48
6.0
100
AcDbLine
 10
87.52390907386456
 20
87.90166451951083
 30
0.0
 11
135.5239094910646
 21
87.90166451951083
 31
0.0
  0
LINE
  5
EFC
330
19
100
AcDbEntity
  8
実線
 48
6.0
100
AcDbLine
 10
87.52390907386456
 20
85.90166442451081
 30
0.0
 11
135.5239094910646
 21
85.90166442451081
 31
0.0
  0
LINE
  5
EFD
330
19
100
AcDbEntity
  8
実線
 48
6.0
100
AcDbLine
 10
91.5239097295646
 20
94.40166465361071
 30
0.0
 11
131.5239088354646
 21
94.40166465361071
 31
0.0
  0
LINE
  5
EFE
330
19
100
AcDbEntity
  8
実線
 48
6.0
100
AcDbLine
 10
131.5239088354646
 20
92.4016643258108
 30
0.0
 11
91.5239097295646
 21
92.4016643258108
 31
0.0
  0
LINE
  5
EFF
330
19
100
AcDbEntity
  8
実線
 48
6.0
100
AcDbLine
 10
134.5239093271645
 20
94.40166465361071
 30
0.0
 11
136.5239096550646
 21
92.4016643258108
 31
0.0
  0
LINE
  5
F00
330
19
100
AcDbEntity
  8
実線
 48
6.0
100
AcDbLine
 10
131.5239088354646
 20
94.40166465361071
 30
0.0
 11
134.5239093271645
 21
94.40166465361071
 31
0.0
  0
LINE
  5
F01
330
19
100
AcDbEntity
  8
実線
 48
6.0
100
AcDbLine
 10
88.52390923776454
 20
94.40166465361071
 30
0.0
 11
91.5239097295646
 21
94.40166465361071
 31
0.0
  0
LINE
  5
F02
330
19
100
AcDbEntity
  8
実線
 48
6.0
100
AcDbLine
 10
86.52390890996458
 20
92.4016643258108
 30
0.0
 11
88.52390923776454
 21
94.40166465361071
 31
0.0
  0
LINE
  5
F03
330
19
100
AcDbEntity
  8
実線
 48
6.0
100
AcDbLine
 10
136.5239096550646
 20
92.4016643258108
 30
0.0
 11
136.5239096550646
 21
87.90166451951083
 31
0.0
  0
LINE
  5
F04
330
19
100
AcDbEntity
  8
実線
 48
6.0
100
AcDbLine
 10
136.5239096550646
 20
92.4016643258108
 30
0.0
 11
131.5239088354646
 21
92.4016643258108
 31
0.0
  0
LINE
  5
F05
330
19
100
AcDbEntity
  8
実線
 48
6.0
100
AcDbLine
 10
91.5239097295646
 20
92.4016643258108
 30
0.0
 11
86.52390890996458
 21
92.4016643258108
 31
0.0
  0
LINE
  5
F06
330
19
100
AcDbEntity
  8
実線
 48
6.0
100
AcDbLine
 10
86.52390890996458
 20
92.4016643258108
 30
0.0
 11
86.52390890996458
 21
87.90166451951083
 31
0.0
  0
LINE
  5
F07
330
19
100
AcDbEntity
  8
中心線
 48
6.0
100
AcDbLine
 10
175.9529651458646
 20
145.8166159397107
 30
0.0
 11
186.4529653749645
 21
145.8166159397107
 31
0.0
  0
LINE
  5
F08
330
19
100
AcDbEntity
  8
中心線
 48
6.0
100
AcDbLine
 10
196.9529652799646
 20
158.8166158447108
 30
0.0
 11
196.9529652799646
 21
162.8166159397108
 31
0.0
  0
LINE
  5
F09
330
19
100
AcDbEntity
  8
破線
 48
6.0
100
AcDbLine
 10
194.7029657270646
 20
161.8166159397107
 30
0.0
 11
194.7029657270646
 21
161.3166159160107
 31
0.0
  0
LINE
  5
F0A
330
19
100
AcDbEntity
  8
破線
 48
6.0
100
AcDbLine
 10
199.2029655333646
 20
161.3166159160107
 30
0.0
 11
199.2029655333646
 21
161.8166159397107
 31
0.0
  0
LINE
  5
F0B
330
19
100
AcDbEntity
  8
破線
 48
6.0
100
AcDbLine
 10
194.7029657270646
 20
161.3166159160107
 30
0.0
 11
193.2029654811646
 21
159.8166158447108
 31
0.0
  0
LINE
  5
F0C
330
19
100
AcDbEntity
  8
破線
 48
6.0
100
AcDbLine
 10
200.7029648478646
 20
159.8166158447108
 30
0.0
 11
199.2029655333646
 21
161.3166159160107
 31
0.0
  0
LINE
  5
F0D
330
19
100
AcDbEntity
  8
破線
 48
6.0
100
AcDbLine
 10
194.7029657270646
 20
161.8166159397107
 30
0.0
 11
194.7029657270646
 21
161.3166159160107
 31
0.0
  0
LINE
  5
F0E
330
19
100
AcDbEntity
  8
破線
 48
6.0
100
AcDbLine
 10
199.2029655333646
 20
161.3166159160107
 30
0.0
 11
199.2029655333646
 21
161.8166159397107
 31
0.0
  0
LINE
  5
F0F
330
19
100
AcDbEntity
  8
破線
 48
6.0
100
AcDbLine
 10
194.7029657270646
 20
161.3166159160107
 30
0.0
 11
193.2029654811646
 21
159.8166158447108
 31
0.0
  0
LINE
  5
F10
330
19
100
AcDbEntity
  8
破線
 48
6.0
100
AcDbLine
 10
200.7029648478646
 20
159.8166158447108
 30
0.0
 11
199.2029655333646
 21
161.3166159160107
 31
0.0
  0
LINE
  5
F11
330
19
100
AcDbEntity
  8
破線
 48
6.0
100
AcDbLine
 10
194.7029657270646
 20
161.8166159397107
 30
0.0
 11
194.7029657270646
 21
161.3166159160107
 31
0.0
  0
LINE
  5
F12
330
19
100
AcDbEntity
  8
破線
 48
6.0
100
AcDbLine
 10
199.2029655333646
 20
161.3166159160107
 30
0.0
 11
199.2029655333646
 21
161.8166159397107
 31
0.0
  0
LINE
  5
F13
330
19
100
AcDbEntity
  8
破線
 48
6.0
100
AcDbLine
 10
194.7029657270646
 20
161.3166159160107
 30
0.0
 11
193.2029654811646
 21
159.8166158447108
 31
0.0
  0
LINE
  5
F14
330
19
100
AcDbEntity
  8
破線
 48
6.0
100
AcDbLine
 10
200.7029648478646
 20
159.8166158447108
 30
0.0
 11
199.2029655333646
 21
161.3166159160107
 31
0.0
  0
LINE
  5
F15
330
19
100
AcDbEntity
  8
破線
 48
6.0
100
AcDbLine
 10
194.7029657270646
 20
161.8166159397107
 30
0.0
 11
199.1948593016646
 21
161.8166159397107
 31
0.0
  0
LINE
  5
F16
330
19
100
AcDbEntity
  8
破線
 48
6.0
100
AcDbLine
 10
193.2029654811646
 20
159.8166158447108
 30
0.0
 11
200.7029648478646
 21
159.8166158447108
 31
0.0
  0
LINE
  5
F17
330
19
100
AcDbEntity
  8
破線
 48
6.0
100
AcDbLine
 10
194.7029657270646
 20
161.3166159160107
 30
0.0
 11
199.1948593016646
 21
161.3166159160107
 31
0.0
  0
LINE
  5
F18
330
19
100
AcDbEntity
  8
破線
 48
6.0
100
AcDbLine
 10
194.7029657270646
 20
161.8166159397107
 30
0.0
 11
199.1948593016646
 21
161.8166159397107
 31
0.0
  0
LINE
  5
F19
330
19
100
AcDbEntity
  8
破線
 48
6.0
100
AcDbLine
 10
193.2029654811646
 20
159.8166158447108
 30
0.0
 11
200.7029648478646
 21
159.8166158447108
 31
0.0
  0
LINE
  5
F1A
330
19
100
AcDbEntity
  8
破線
 48
6.0
100
AcDbLine
 10
194.7029657270646
 20
161.3166159160107
 30
0.0
 11
199.1948593016646
 21
161.3166159160107
 31
0.0
  0
LINE
  5
F1B
330
19
100
AcDbEntity
  8
破線
 48
6.0
100
AcDbLine
 10
194.7029657270646
 20
161.8166159397107
 30
0.0
 11
199.1948593016646
 21
161.8166159397107
 31
0.0
  0
LINE
  5
F1C
330
19
100
AcDbEntity
  8
破線
 48
6.0
100
AcDbLine
 10
193.2029654811646
 20
159.8166158447108
 30
0.0
 11
200.7029648478646
 21
159.8166158447108
 31
0.0
  0
LINE
  5
F1D
330
19
100
AcDbEntity
  8
破線
 48
6.0
100
AcDbLine
 10
199.2029655333646
 20
161.3166159160107
 30
0.0
 11
194.7029657270646
 21
161.3166159160107
 31
0.0
  0
LINE
  5
F1E
330
19
100
AcDbEntity
  8
実線
 48
6.0
100
AcDbLine
 10
185.4529653749645
 20
157.8166157497108
 30
0.0
 11
185.4529653749645
 21
138.8166158950107
 31
0.0
  0
LINE
  5
F1F
330
19
100
AcDbEntity
  8
実線
 48
6.0
100
AcDbLine
 10
183.4529652799646
 20
157.8166157497108
 30
0.0
 11
183.4529652799646
 21
138.8166158950107
 31
0.0
  0
LINE
  5
F20
330
19
100
AcDbEntity
  8
実線
 48
6.0
100
AcDbLine
 10
183.4529652799646
 20
136.8166155672108
 30
0.0
 11
183.4529652799646
 21
138.8166158950107
 31
0.0
  0
LINE
  5
F21
330
19
100
AcDbEntity
  8
実線
 48
6.0
100
AcDbLine
 10
185.4529653749645
 20
136.8166155672108
 30
0.0
 11
183.4529652799646
 21
136.8166155672108
 31
0.0
  0
LINE
  5
F22
330
19
100
AcDbEntity
  8
実線
 48
6.0
100
AcDbLine
 10
185.4529653749645
 20
138.8166158950107
 30
0.0
 11
185.4529653749645
 21
136.8166155672108
 31
0.0
  0
ARC
  5
F23
330
19
100
AcDbEntity
  8
実線
 48
6.0
100
AcDbCircle
 10
187.4529652799646
 20
157.8166159397108
 30
0.0
 40
2.0
100
AcDbArc
 50
90.0
 51
180.0
  0
ARC
  5
F24
330
19
100
AcDbEntity
  8
実線
 48
6.0
100
AcDbCircle
 10
187.4529652799646
 20
157.8166159397108
 30
0.0
 40
4.0
100
AcDbArc
 50
90.0
 51
180.0
  0
LINE
  5
F25
330
19
100
AcDbEntity
  8
実線
 48
6.0
100
AcDbLine
 10
201.4529645051645
 20
159.8166158447108
 30
0.0
 11
187.4529654699646
 21
159.8166158447108
 31
0.0
  0
LINE
  5
F26
330
19
100
AcDbEntity
  8
実線
 48
6.0
100
AcDbLine
 10
201.4529645051645
 20
161.8166159397107
 30
0.0
 11
187.4529654699646
 21
161.8166159397107
 31
0.0
  0
LINE
  5
F27
330
19
100
AcDbEntity
  8
実線
 48
6.0
100
AcDbLine
 10
203.4529648329646
 20
159.8166158447108
 30
0.0
 11
201.4529645051645
 21
159.8166158447108
 31
0.0
  0
LINE
  5
F28
330
19
100
AcDbEntity
  8
実線
 48
6.0
100
AcDbLine
 10
201.4529645051645
 20
161.8166159397107
 30
0.0
 11
203.4529648329646
 21
161.8166159397107
 31
0.0
  0
LINE
  5
F29
330
19
100
AcDbEntity
  8
実線
 48
6.0
100
AcDbLine
 10
203.4529648329646
 20
161.8166159397107
 30
0.0
 11
203.4529648329646
 21
159.8166158447108
 31
0.0
  0
LINE
  5
F2A
330
19
100
AcDbEntity
  8
実線
 48
6.0
100
AcDbLine
 10
176.9529651458646
 20
139.3166150457108
 30
0.0
 11
178.9529654736646
 21
137.3166165805108
 31
0.0
  0
LINE
  5
F2B
330
19
100
AcDbEntity
  8
実線
 48
6.0
100
AcDbLine
 10
176.9529651458646
 20
139.3166150457108
 30
0.0
 11
176.9529651458646
 21
152.3166162452108
 31
0.0
  0
LINE
  5
F2C
330
19
100
AcDbEntity
  8
実線
 48
6.0
100
AcDbLine
 10
176.9529651458646
 20
152.3166162452108
 30
0.0
 11
178.9529654736646
 21
154.3166161074109
 31
0.0
  0
LINE
  5
F2D
330
19
100
AcDbEntity
  8
実線
 48
6.0
100
AcDbLine
 10
178.9529654736646
 20
149.3166157535108
 30
0.0
 11
178.9529654736646
 21
142.3166155374109
 31
0.0
  0
LINE
  5
F2E
330
19
100
AcDbEntity
  8
実線
 48
6.0
100
AcDbLine
 10
178.9529654736646
 20
142.3166155374109
 30
0.0
 11
178.9529654736646
 21
137.3166165805108
 31
0.0
  0
LINE
  5
F2F
330
19
100
AcDbEntity
  8
実線
 48
6.0
100
AcDbLine
 10
178.9529654736646
 20
137.3166165805108
 30
0.0
 11
183.4529652799646
 21
137.3166165805108
 31
0.0
  0
LINE
  5
F30
330
19
100
AcDbEntity
  8
実線
 48
6.0
100
AcDbLine
 10
178.9529654736646
 20
154.3166161074109
 30
0.0
 11
183.4529652799646
 21
154.3166161074109
 31
0.0
  0
LINE
  5
F31
330
19
100
AcDbEntity
  8
実線
 48
6.0
100
AcDbLine
 10
178.9529654736646
 20
154.3166161074109
 30
0.0
 11
178.9529654736646
 21
149.3166157535108
 31
0.0
  0
LINE
  5
F32
330
19
100
AcDbEntity
  8
実線
 48
6.0
100
AcDbLine
 10
85.52390874606454
 20
161.8166159397107
 30
0.0
 11
85.52390874606454
 21
157.8166157497108
 31
0.0
  0
LINE
  5
F33
330
19
100
AcDbEntity
  8
実線
 48
6.0
100
AcDbLine
 10
137.5239098189646
 20
161.8166159397107
 30
0.0
 11
137.5239098189646
 21
157.8166157497108
 31
0.0
  0
LINE
  5
F34
330
19
100
AcDbEntity
  8
実線
 48
6.0
100
AcDbLine
 10
85.52390874606454
 20
161.8166159397107
 30
0.0
 11
137.5239098189646
 21
161.8166159397107
 31
0.0
  0
ARC
  5
F35
330
19
100
AcDbEntity
  8
実線
 48
6.0
100
AcDbCircle
 10
87.52390928246456
 20
138.8166159397108
 30
0.0
 40
2.0
100
AcDbArc
 50
180.0
 51
270.0
  0
LINE
  5
F36
330
19
100
AcDbEntity
  8
実線
 48
6.0
100
AcDbLine
 10
85.52390874606454
 20
157.8166157497108
 30
0.0
 11
85.52390874606454
 21
138.8166158950107
 31
0.0
  0
LINE
  5
F37
330
19
100
AcDbEntity
  8
実線
 48
6.0
100
AcDbLine
 10
87.52390907386456
 20
136.8166155672108
 30
0.0
 11
135.5239094910646
 21
136.8166155672108
 31
0.0
  0
ARC
  5
F38
330
19
100
AcDbEntity
  8
実線
 48
6.0
100
AcDbCircle
 10
135.5239092824646
 20
138.8166159397108
 30
0.0
 40
2.000000000000014
100
AcDbArc
 50
270.0
 51
0.0
  0
LINE
  5
F39
330
19
100
AcDbEntity
  8
実線
 48
6.0
100
AcDbLine
 10
137.5239098189646
 20
157.8166157497108
 30
0.0
 11
137.5239098189646
 21
138.8166158950107
 31
0.0
  0
LINE
  5
F3A
330
19
100
AcDbEntity
  8
実線
 48
6.0
100
AcDbLine
 10
131.5239088354646
 20
137.3166165805108
 30
0.0
 11
91.5239097295646
 21
137.3166165805108
 31
0.0
  0
CIRCLE
  5
F3B
330
19
100
AcDbEntity
  8
実線
 48
6.0
100
AcDbCircle
 10
95.52390928246456
 20
145.8166159397107
 30
0.0
 40
4.800000000000061
  0
LINE
  5
F3C
330
19
100
AcDbEntity
  8
実線
 48
6.0
100
AcDbLine
 10
136.5239096550646
 20
149.3166157535108
 30
0.0
 11
136.5239096550646
 21
142.3166155374109
 31
0.0
  0
ARC
  5
F3D
330
19
100
AcDbEntity
  8
実線
 48
6.0
100
AcDbCircle
 10
131.5239092824646
 20
142.3166159397108
 30
0.0
 40
5.000000000000255
100
AcDbArc
 50
270.0
 51
0.0
  0
LINE
  5
F3E
330
19
100
AcDbEntity
  8
実線
 48
6.0
100
AcDbLine
 10
91.5239097295646
 20
154.3166161074109
 30
0.0
 11
131.5239088354646
 21
154.3166161074109
 31
0.0
  0
ARC
  5
F3F
330
19
100
AcDbEntity
  8
実線
 48
6.0
100
AcDbCircle
 10
91.52390928246456
 20
149.3166159397107
 30
0.0
 40
5.000000000000255
100
AcDbArc
 50
90.0
 51
180.0
  0
ARC
  5
F40
330
19
100
AcDbEntity
  8
実線
 48
6.0
100
AcDbCircle
 10
131.5239092824646
 20
149.3166159397107
 30
0.0
 40
5.000000000000255
100
AcDbArc
 50
0.0
 51
90.0
  0
LINE
  5
F41
330
19
100
AcDbEntity
  8
実線
 48
6.0
100
AcDbLine
 10
86.52390890996458
 20
142.3166155374109
 30
0.0
 11
86.52390890996458
 21
149.3166157535108
 31
0.0
  0
ARC
  5
F42
330
19
100
AcDbEntity
  8
実線
 48
6.0
100
AcDbCircle
 10
131.5239092824646
 20
149.3166159397107
 30
0.0
 40
3.0
100
AcDbArc
 50
0.0
 51
90.0
  0
LINE
  5
F43
330
19
100
AcDbEntity
  8
実線
 48
6.0
100
AcDbLine
 10
131.5239088354646
 20
152.3166162452108
 30
0.0
 11
91.5239097295646
 21
152.3166162452108
 31
0.0
  0
ARC
  5
F44
330
19
100
AcDbEntity
  8
実線
 48
6.0
100
AcDbCircle
 10
91.52390928246456
 20
149.3166159397107
 30
0.0
 40
3.000000000000056
100
AcDbArc
 50
90.0
 51
180.0
  0
LINE
  5
F45
330
19
100
AcDbEntity
  8
実線
 48
6.0
100
AcDbLine
 10
88.52390923776454
 20
149.3166157535108
 30
0.0
 11
88.52390923776454
 21
142.3166155374109
 31
0.0
  0
LINE
  5
F46
330
19
100
AcDbEntity
  8
実線
 48
6.0
100
AcDbLine
 10
91.5239097295646
 20
139.3166150457108
 30
0.0
 11
131.5239088354646
 21
139.3166150457108
 31
0.0
  0
ARC
  5
F47
330
19
100
AcDbEntity
  8
実線
 48
6.0
100
AcDbCircle
 10
131.5239092824646
 20
142.3166159397108
 30
0.0
 40
3.0
100
AcDbArc
 50
270.0
 51
0.0
  0
LINE
  5
F48
330
19
100
AcDbEntity
  8
実線
 48
6.0
100
AcDbLine
 10
134.5239093271645
 20
142.3166155374109
 30
0.0
 11
134.5239093271645
 21
149.3166157535108
 31
0.0
  0
ARC
  5
F49
330
19
100
AcDbEntity
  8
実線
 48
6.0
100
AcDbCircle
 10
91.52390928246456
 20
142.3166159397108
 30
0.0
 40
2.999999999999986
100
AcDbArc
 50
180.0
 51
270.0
  0
ARC
  5
F4A
330
19
100
AcDbEntity
  8
実線
 48
6.0
100
AcDbCircle
 10
91.52390928246456
 20
142.3166159397108
 30
0.0
 40
5.000000000000249
100
AcDbArc
 50
180.0
 51
270.0
  0
CIRCLE
  5
F4B
330
19
100
AcDbEntity
  8
実線
 48
6.0
100
AcDbCircle
 10
127.5239092824646
 20
145.8166159397107
 30
0.0
 40
4.800000000000068
  0
ARC
  5
F4C
330
19
100
AcDbEntity
  8
実線
 48
6.0
100
AcDbCircle
 10
127.5239092824646
 20
145.8166159397107
 30
0.0
 40
1.280500000000146
100
AcDbArc
 50
152.0586846564009
 51
207.9413153435991
  0
ARC
  5
F4D
330
19
100
AcDbEntity
  8
実線
 48
6.0
100
AcDbCircle
 10
127.5239092824646
 20
145.8166159397107
 30
0.0
 40
1.280500000000148
100
AcDbArc
 50
242.0586846563987
 51
297.9413153436013
  0
ARC
  5
F4E
330
19
100
AcDbEntity
  8
実線
 48
6.0
100
AcDbCircle
 10
127.5239092824646
 20
145.8166159397107
 30
0.0
 40
1.280499999999959
100
AcDbArc
 50
332.0586846563996
 51
27.94131534360041
  0
ARC
  5
F4F
330
19
100
AcDbEntity
  8
実線
 48
6.0
100
AcDbCircle
 10
127.5239092824646
 20
145.8166159397107
 30
0.0
 40
1.280500000000063
100
AcDbArc
 50
62.05868465640198
 51
117.941315343598
  0
LINE
  5
F50
330
19
100
AcDbEntity
  8
実線
 48
6.0
100
AcDbLine
 10
128.1239090231645
 20
147.5701624086109
 30
0.0
 11
126.9239091990646
 21
147.5701624086109
 31
0.0
  0
LINE
  5
F51
330
19
100
AcDbEntity
  8
実線
 48
6.0
100
AcDbLine
 10
125.7703628135646
 20
146.4166160232108
 30
0.0
 11
125.7703628135646
 21
145.2166161990108
 31
0.0
  0
LINE
  5
F52
330
19
100
AcDbEntity
  8
実線
 48
6.0
100
AcDbLine
 10
129.2774563399645
 20
145.2166161990108
 30
0.0
 11
129.2774563399645
 21
146.4166160232108
 31
0.0
  0
LINE
  5
F53
330
19
100
AcDbEntity
  8
実線
 48
6.0
100
AcDbLine
 10
126.9239091990646
 20
144.0630688822108
 30
0.0
 11
128.1239090231645
 21
144.0630688822108
 31
0.0
  0
LINE
  5
F54
330
19
100
AcDbEntity
  8
実線
 48
6.0
100
AcDbLine
 10
128.1239090231645
 20
143.1460346585108
 30
0.0
 11
128.1239090231645
 21
144.5042680508109
 31
0.0
  0
LINE
  5
F55
330
19
100
AcDbEntity
  8
実線
 48
6.0
100
AcDbLine
 10
126.9239091990646
 20
148.4871975636108
 30
0.0
 11
126.9239091990646
 21
147.1289632401108
 31
0.0
  0
LINE
  5
F56
330
19
100
AcDbEntity
  8
実線
 48
6.0
100
AcDbLine
 10
126.9239091990646
 20
144.5042680508109
 30
0.0
 11
126.9239091990646
 21
143.1460346585108
 31
0.0
  0
LINE
  5
F57
330
19
100
AcDbEntity
  8
実線
 48
6.0
100
AcDbLine
 10
128.1239090231645
 20
147.1289632401108
 30
0.0
 11
128.1239090231645
 21
148.4871975636108
 31
0.0
  0
CIRCLE
  5
F58
330
19
100
AcDbEntity
  8
実線
 48
6.0
100
AcDbCircle
 10
127.5239092824646
 20
145.8166159397107
 30
0.0
 40
4.500000000000056
  0
LINE
  5
F59
330
19
100
AcDbEntity
  8
実線
 48
6.0
100
AcDbLine
 10
124.8533276585646
 20
145.2166161990108
 30
0.0
 11
126.2115619821646
 21
145.2166161990108
 31
0.0
  0
ARC
  5
F5A
330
19
100
AcDbEntity
  8
実線
 48
6.0
100
AcDbCircle
 10
138.2559060378645
 20
145.8166161111108
 30
0.0
 40
13.41600190476873
100
AcDbArc
 50
177.4367227222002
 51
182.5632772777998
  0
LINE
  5
F5B
330
19
100
AcDbEntity
  8
実線
 48
6.0
100
AcDbLine
 10
126.2115619821646
 20
146.4166160232108
 30
0.0
 11
124.8533276585646
 21
146.4166160232108
 31
0.0
  0
ARC
  5
F5C
330
19
100
AcDbEntity
  8
実線
 48
6.0
100
AcDbCircle
 10
127.5239091111646
 20
135.0846191843108
 30
0.0
 40
13.41600190476874
100
AcDbArc
 50
87.43672272220016
 51
92.56327727779984
  0
LINE
  5
F5D
330
19
100
AcDbEntity
  8
実線
 48
6.0
100
AcDbLine
 10
130.1944905636645
 20
146.4166160232108
 30
0.0
 11
128.8362571714646
 21
146.4166160232108
 31
0.0
  0
ARC
  5
F5E
330
19
100
AcDbEntity
  8
実線
 48
6.0
100
AcDbCircle
 10
116.7922226191646
 20
145.8166161111108
 30
0.0
 40
13.41569178060153
100
AcDbArc
 50
357.4366634285993
 51
2.563336571500116
  0
LINE
  5
F5F
330
19
100
AcDbEntity
  8
実線
 48
6.0
100
AcDbLine
 10
128.8362571714646
 20
145.2166161990108
 30
0.0
 11
130.1944905636645
 21
145.2166161990108
 31
0.0
  0
ARC
  5
F60
330
19
100
AcDbEntity
  8
実線
 48
6.0
100
AcDbCircle
 10
127.5239091111646
 20
156.5483026031108
 30
0.0
 40
13.41569178060152
100
AcDbArc
 50
267.4366634286003
 51
272.5633365715001
  0
SPLINE
  5
F61
330
19
100
AcDbEntity
  8
実線
 48
6.0
100
AcDbSpline
210
0.0
220
0.0
230
1.0
 70
    24
 71
     3
 72
     9
 73
     5
 74
     0
 42
0.000000001
 43
0.0000000001
 40
0.0
 40
0.0
 40
0.0
 40
0.0
 40
0.0907272379938167
 40
1.0
 40
1.0
 40
1.0
 40
1.0
 10
128.1239090232087
 20
144.5042680507914
 30
0.0
 10
128.1239090232087
 20
144.5096750673063
 30
0.0
 10
128.1239090232087
 20
144.5692714645351
 30
0.0
 10
128.1239090232087
 20
144.6300876113647
 30
0.0
 10
128.1239090232087
 20
144.6853860771671
 30
0.0
  0
ARC
  5
F62
330
19
100
AcDbEntity
  8
実線
 48
6.0
100
AcDbCircle
 10
127.5239092824646
 20
145.8166159397107
 30
0.0
 40
1.443002513263788
100
AcDbArc
 50
294.5696869711995
 51
335.4303130288013
  0
SPLINE
  5
F63
330
19
100
AcDbEntity
  8
実線
 48
6.0
100
AcDbSpline
210
0.0
220
0.0
230
1.0
 70
    24
 71
     3
 72
     9
 73
     5
 74
     0
 42
0.000000001
 43
0.0000000001
 40
0.0
 40
0.0
 40
0.0
 40
0.0
 40
0.9092727620061832
 40
1.0
 40
1.0
 40
1.0
 40
1.0
 10
128.6551391450596
 20
145.2166161990181
 30
0.0
 10
128.710437610862
 20
145.2166161990181
 30
0.0
 10
128.7712537576917
 20
145.2166161990181
 30
0.0
 10
128.8308501549203
 20
145.2166161990181
 30
0.0
 10
128.8362571714354
 20
145.2166161990181
 30
0.0
  0
ARC
  5
F64
330
19
100
AcDbEntity
  8
実線
 48
6.0
100
AcDbCircle
 10
127.5239092824646
 20
145.8166159397107
 30
0.0
 40
1.280499999999959
100
AcDbArc
 50
297.9413153436004
 51
332.0586846563996
  0
ARC
  5
F65
330
19
100
AcDbEntity
  8
実線
 48
6.0
100
AcDbCircle
 10
127.5239092824646
 20
145.8166159397107
 30
0.0
 40
1.280499999999956
100
AcDbArc
 50
27.94131534360041
 51
62.05868465639961
  0
SPLINE
  5
F66
330
19
100
AcDbEntity
  8
実線
 48
6.0
100
AcDbSpline
210
0.0
220
0.0
230
1.0
 70
    24
 71
     3
 72
     9
 73
     5
 74
     0
 42
0.000000001
 43
0.0000000001
 40
0.0
 40
0.0
 40
0.0
 40
0.0
 40
0.0907272379938167
 40
1.0
 40
1.0
 40
1.0
 40
1.0
 10
128.8362571714354
 20
146.4166160231844
 30
0.0
 10
128.8308501549203
 20
146.4166160231844
 30
0.0
 10
128.7712537576917
 20
146.4166160231844
 30
0.0
 10
128.710437610862
 20
146.4166160231844
 30
0.0
 10
128.6551391450596
 20
146.4166160231844
 30
0.0
  0
ARC
  5
F67
330
19
100
AcDbEntity
  8
実線
 48
6.0
100
AcDbCircle
 10
127.5239092824646
 20
145.8166159397107
 30
0.0
 40
1.44300251326375
100
AcDbArc
 50
24.56968697119957
 51
65.43031302880044
  0
SPLINE
  5
F68
330
19
100
AcDbEntity
  8
実線
 48
6.0
100
AcDbSpline
210
0.0
220
0.0
230
1.0
 70
    24
 71
     3
 72
     9
 73
     5
 74
     0
 42
0.000000001
 43
0.0000000001
 40
0.0
 40
0.0
 40
0.0
 40
0.0
 40
0.9092728234095371
 40
1.0
 40
1.0
 40
1.0
 40
1.0
 10
128.1239090232087
 20
146.9478452137128
 30
0.0
 10
128.1239090232087
 20
147.0031473933263
 30
0.0
 10
128.1239090232087
 20
147.0639676204241
 30
0.0
 10
128.1239090232087
 20
147.1235568752437
 30
0.0
 10
128.1239090232087
 20
147.1289632400886
 30
0.0
  0
ARC
  5
F69
330
19
100
AcDbEntity
  8
実線
 48
6.0
100
AcDbCircle
 10
127.5239092824646
 20
145.8166159397107
 30
0.0
 40
1.443002513263959
100
AcDbArc
 50
114.5696869712009
 51
155.4303130288012
  0
SPLINE
  5
F6A
330
19
100
AcDbEntity
  8
実線
 48
6.0
100
AcDbSpline
210
0.0
220
0.0
230
1.0
 70
    24
 71
     3
 72
     9
 73
     5
 74
     0
 42
0.000000001
 43
0.0000000001
 40
0.0
 40
0.0
 40
0.0
 40
0.0
 40
0.9092728234095371
 40
1.0
 40
1.0
 40
1.0
 40
1.0
 10
126.392680008514
 20
146.4166160231844
 30
0.0
 10
126.3373778289003
 20
146.4166160231844
 30
0.0
 10
126.2765576018025
 20
146.4166160231844
 30
0.0
 10
126.2169683469831
 20
146.4166160231844
 30
0.0
 10
126.2115619821382
 20
146.4166160231844
 30
0.0
  0
ARC
  5
F6B
330
19
100
AcDbEntity
  8
実線
 48
6.0
100
AcDbCircle
 10
127.5239092824646
 20
145.8166159397107
 30
0.0
 40
1.280500000000146
100
AcDbArc
 50
117.9413153436013
 51
152.0586846564009
  0
SPLINE
  5
F6C
330
19
100
AcDbEntity
  8
実線
 48
6.0
100
AcDbSpline
210
0.0
220
0.0
230
1.0
 70
    24
 71
     3
 72
     9
 73
     5
 74
     0
 42
0.000000001
 43
0.0000000001
 40
0.0
 40
0.0
 40
0.0
 40
0.0
 40
0.090727176590463
 40
1.0
 40
1.0
 40
1.0
 40
1.0
 10
126.9239091990424
 20
147.1289632400886
 30
0.0
 10
126.9239091990424
 20
147.1235568752437
 30
0.0
 10
126.9239091990424
 20
147.0639676204241
 30
0.0
 10
126.9239091990424
 20
147.0031473933263
 30
0.0
 10
126.9239091990424
 20
146.9478452137128
 30
0.0
  0
ARC
  5
F6D
330
19
100
AcDbEntity
  8
実線
 48
6.0
100
AcDbCircle
 10
127.5239092824646
 20
145.8166159397107
 30
0.0
 40
1.280500000000148
100
AcDbArc
 50
207.9413153435991
 51
242.0586846563987
  0
SPLINE
  5
F6E
330
19
100
AcDbEntity
  8
実線
 48
6.0
100
AcDbSpline
210
0.0
220
0.0
230
1.0
 70
    24
 71
     3
 72
     9
 73
     5
 74
     0
 42
0.000000001
 43
0.0000000001
 40
0.0
 40
0.0
 40
0.0
 40
0.0
 40
0.090727176590463
 40
1.0
 40
1.0
 40
1.0
 40
1.0
 10
126.2115619821382
 20
145.2166161990181
 30
0.0
 10
126.2169683469831
 20
145.2166161990181
 30
0.0
 10
126.2765576018027
 20
145.2166161990181
 30
0.0
 10
126.3373778289003
 20
145.2166161990181
 30
0.0
 10
126.392680008514
 20
145.2166161990181
 30
0.0
  0
ARC
  5
F6F
330
19
100
AcDbEntity
  8
実線
 48
6.0
100
AcDbCircle
 10
127.5239092824646
 20
145.8166159397107
 30
0.0
 40
1.443002513264005
100
AcDbArc
 50
204.5696869711999
 51
245.4303130288001
  0
SPLINE
  5
F70
330
19
100
AcDbEntity
  8
実線
 48
6.0
100
AcDbSpline
210
0.0
220
0.0
230
1.0
 70
    24
 71
     3
 72
     9
 73
     5
 74
     0
 42
0.000000001
 43
0.0000000001
 40
0.0
 40
0.0
 40
0.0
 40
0.0
 40
0.9092727620061832
 40
1.0
 40
1.0
 40
1.0
 40
1.0
 10
126.9239091990424
 20
144.6853860771671
 30
0.0
 10
126.9239091990424
 20
144.6300876113647
 30
0.0
 10
126.9239091990424
 20
144.5692714645351
 30
0.0
 10
126.9239091990424
 20
144.5096750673063
 30
0.0
 10
126.9239091990424
 20
144.5042680507914
 30
0.0
  0
ARC
  5
F71
330
19
100
AcDbEntity
  8
実線
 48
6.0
100
AcDbCircle
 10
95.52390928246456
 20
145.8166159397107
 30
0.0
 40
1.28050000000012
100
AcDbArc
 50
152.0586846564009
 51
207.9413153435991
  0
ARC
  5
F72
330
19
100
AcDbEntity
  8
実線
 48
6.0
100
AcDbCircle
 10
95.52390928246456
 20
145.8166159397107
 30
0.0
 40
1.280500000000166
100
AcDbArc
 50
242.0586846563987
 51
297.9413153436013
  0
ARC
  5
F73
330
19
100
AcDbEntity
  8
実線
 48
6.0
100
AcDbCircle
 10
95.52390928246456
 20
145.8166159397107
 30
0.0
 40
1.280500000000031
100
AcDbArc
 50
62.05868465639855
 51
117.9413153436015
  0
ARC
  5
F74
330
19
100
AcDbEntity
  8
実線
 48
6.0
100
AcDbCircle
 10
95.52390928246456
 20
145.8166159397107
 30
0.0
 40
1.280499999999971
100
AcDbArc
 50
332.0586846563996
 51
27.94131534360041
  0
LINE
  5
F75
330
19
100
AcDbEntity
  8
実線
 48
6.0
100
AcDbLine
 10
96.12390936596455
 20
147.5701624086109
 30
0.0
 11
94.92390954176454
 21
147.5701624086109
 31
0.0
  0
LINE
  5
F76
330
19
100
AcDbEntity
  8
実線
 48
6.0
100
AcDbLine
 10
93.77036222496452
 20
146.4166160232108
 30
0.0
 11
93.77036222496452
 21
145.2166161990108
 31
0.0
  0
LINE
  5
F77
330
19
100
AcDbEntity
  8
実線
 48
6.0
100
AcDbLine
 10
97.27745575136453
 20
145.2166161990108
 30
0.0
 11
97.27745575136453
 21
146.4166160232108
 31
0.0
  0
LINE
  5
F78
330
19
100
AcDbEntity
  8
実線
 48
6.0
100
AcDbLine
 10
94.92390954176454
 20
144.0630688822108
 30
0.0
 11
96.12390936596455
 21
144.0630688822108
 31
0.0
  0
ARC
  5
F79
330
19
100
AcDbEntity
  8
実線
 48
6.0
100
AcDbCircle
 10
95.52390928246456
 20
145.8166159397107
 30
0.0
 40
1.280500000000166
100
AcDbArc
 50
207.9413153436013
 51
242.0586846563987
  0
SPLINE
  5
F7A
330
19
100
AcDbEntity
  8
実線
 48
6.0
100
AcDbSpline
210
0.0
220
0.0
230
1.0
 70
    24
 71
     3
 72
     9
 73
     5
 74
     0
 42
0.000000001
 43
0.0000000001
 40
0.0
 40
0.0
 40
0.0
 40
0.0
 40
0.0907272379938167
 40
1.0
 40
1.0
 40
1.0
 40
1.0
 10
94.2115613935423
 20
145.2166161990181
 30
0.0
 10
94.21696841005723
 20
145.2166161990181
 30
0.0
 10
94.27656480728604
 20
145.2166161990181
 30
0.0
 10
94.33738095411564
 20
145.2166161990181
 30
0.0
 10
94.39267941991807
 20
145.2166161990181
 30
0.0
  0
SPLINE
  5
F7B
330
19
100
AcDbEntity
  8
実線
 48
6.0
100
AcDbSpline
210
0.0
220
0.0
230
1.0
 70
    24
 71
     3
 72
     9
 73
     5
 74
     0
 42
0.000000001
 43
0.0000000001
 40
0.0
 40
0.0
 40
0.0
 40
0.0
 40
0.9092727620061832
 40
1.0
 40
1.0
 40
1.0
 40
1.0
 10
94.92390954176904
 20
144.6853860771671
 30
0.0
 10
94.92390954176904
 20
144.6300876113647
 30
0.0
 10
94.92390954176904
 20
144.5692714645351
 30
0.0
 10
94.92390954176904
 20
144.5096750673063
 30
0.0
 10
94.92390954176904
 20
144.5042680507914
 30
0.0
  0
SPLINE
  5
F7C
330
19
100
AcDbEntity
  8
実線
 48
6.0
100
AcDbSpline
210
0.0
220
0.0
230
1.0
 70
    24
 71
     3
 72
     9
 73
     5
 74
     0
 42
0.000000001
 43
0.0000000001
 40
0.0
 40
0.0
 40
0.0
 40
0.0
 40
0.9092728234095371
 40
1.0
 40
1.0
 40
1.0
 40
1.0
 10
96.12390936593533
 20
146.9478452137128
 30
0.0
 10
96.12390936593533
 20
147.0031473933263
 30
0.0
 10
96.12390936593533
 20
147.0639676204241
 30
0.0
 10
96.12390936593533
 20
147.1235568752437
 30
0.0
 10
96.12390936593533
 20
147.1289632400886
 30
0.0
  0
ARC
  5
F7D
330
19
100
AcDbEntity
  8
実線
 48
6.0
100
AcDbCircle
 10
95.52390928246456
 20
145.8166159397107
 30
0.0
 40
1.280499999999938
100
AcDbArc
 50
27.94131534360041
 51
62.05868465640184
  0
SPLINE
  5
F7E
330
19
100
AcDbEntity
  8
実線
 48
6.0
100
AcDbSpline
210
0.0
220
0.0
230
1.0
 70
    24
 71
     3
 72
     9
 73
     5
 74
     0
 42
0.000000001
 43
0.0000000001
 40
0.0
 40
0.0
 40
0.0
 40
0.0
 40
0.090727176590463
 40
1.0
 40
1.0
 40
1.0
 40
1.0
 10
96.8362565828395
 20
146.4166160231844
 30
0.0
 10
96.83085021799468
 20
146.4166160231844
 30
0.0
 10
96.77126096317505
 20
146.4166160231844
 30
0.0
 10
96.71044073607732
 20
146.4166160231844
 30
0.0
 10
96.65513855646373
 20
146.4166160231844
 30
0.0
  0
LINE
  5
F7F
330
19
100
AcDbEntity
  8
実線
 48
6.0
100
AcDbLine
 10
94.92390954176454
 20
148.4871975636108
 30
0.0
 11
94.92390954176454
 21
147.1289632401108
 31
0.0
  0
LINE
  5
F80
330
19
100
AcDbEntity
  8
実線
 48
6.0
100
AcDbLine
 10
96.12390936596455
 20
143.1460346585108
 30
0.0
 11
96.12390936596455
 21
144.5042680508109
 31
0.0
  0
LINE
  5
F81
330
19
100
AcDbEntity
  8
実線
 48
6.0
100
AcDbLine
 10
96.12390936596455
 20
147.1289632401108
 30
0.0
 11
96.12390936596455
 21
148.4871975636108
 31
0.0
  0
CIRCLE
  5
F82
330
19
100
AcDbEntity
  8
実線
 48
6.0
100
AcDbCircle
 10
95.52390928246456
 20
145.8166159397107
 30
0.0
 40
4.500000000000071
  0
ARC
  5
F83
330
19
100
AcDbEntity
  8
実線
 48
6.0
100
AcDbCircle
 10
95.52390928246456
 20
145.8166159397107
 30
0.0
 40
1.443002513264
100
AcDbArc
 50
204.5696869711999
 51
245.4303130288001
  0
LINE
  5
F84
330
19
100
AcDbEntity
  8
実線
 48
6.0
100
AcDbLine
 10
92.85332800126457
 20
145.2166161990108
 30
0.0
 11
94.21156139356458
 21
145.2166161990108
 31
0.0
  0
ARC
  5
F85
330
19
100
AcDbEntity
  8
実線
 48
6.0
100
AcDbCircle
 10
106.2555959458645
 20
145.8166161111108
 30
0.0
 40
13.41569178060153
100
AcDbArc
 50
177.4366634284999
 51
182.5633365715001
  0
LINE
  5
F86
330
19
100
AcDbEntity
  8
実線
 48
6.0
100
AcDbLine
 10
94.21156139356458
 20
146.4166160232108
 30
0.0
 11
92.85332800126457
 21
146.4166160232108
 31
0.0
  0
ARC
  5
F87
330
19
100
AcDbEntity
  8
実線
 48
6.0
100
AcDbCircle
 10
95.52390945386458
 20
135.0846191843108
 30
0.0
 40
13.41600190476874
100
AcDbArc
 50
87.43672272220016
 51
92.56327727779984
  0
ARC
  5
F88
330
19
100
AcDbEntity
  8
実線
 48
6.0
100
AcDbCircle
 10
95.52390928246456
 20
145.8166159397107
 30
0.0
 40
1.443002513263756
100
AcDbArc
 50
24.56968697119957
 51
65.43031302880044
  0
LINE
  5
F89
330
19
100
AcDbEntity
  8
実線
 48
6.0
100
AcDbLine
 10
98.19449090636459
 20
146.4166160232108
 30
0.0
 11
96.83625658286456
 21
146.4166160232108
 31
0.0
  0
ARC
  5
F8A
330
19
100
AcDbEntity
  8
実線
 48
6.0
100
AcDbCircle
 10
84.7919125270646
 20
145.8166161111108
 30
0.0
 40
13.41600190476873
100
AcDbArc
 50
357.4367227222002
 51
2.563277277799842
  0
LINE
  5
F8B
330
19
100
AcDbEntity
  8
実線
 48
6.0
100
AcDbLine
 10
96.83625658286456
 20
145.2166161990108
 30
0.0
 11
98.19449090636459
 21
145.2166161990108
 31
0.0
  0
ARC
  5
F8C
330
19
100
AcDbEntity
  8
実線
 48
6.0
100
AcDbCircle
 10
95.52390945386458
 20
156.5483026031108
 30
0.0
 40
13.41569178060152
100
AcDbArc
 50
267.4366634286
 51
272.5633365714999
  0
LINE
  5
F8D
330
19
100
AcDbEntity
  8
実線
 48
6.0
100
AcDbLine
 10
94.92390954176454
 20
144.5042680508109
 30
0.0
 11
94.92390954176454
 21
143.1460346585108
 31
0.0
  0
ARC
  5
F8E
330
19
100
AcDbEntity
  8
実線
 48
6.0
100
AcDbCircle
 10
95.52390928246456
 20
145.8166159397107
 30
0.0
 40
1.443002513263788
100
AcDbArc
 50
294.5696869711995
 51
335.4303130288013
  0
SPLINE
  5
F8F
330
19
100
AcDbEntity
  8
実線
 48
6.0
100
AcDbSpline
210
0.0
220
0.0
230
1.0
 70
    24
 71
     3
 72
     9
 73
     5
 74
     0
 42
0.000000001
 43
0.0000000001
 40
0.0
 40
0.0
 40
0.0
 40
0.0
 40
0.9092728234095371
 40
1.0
 40
1.0
 40
1.0
 40
1.0
 10
96.65513855646373
 20
145.2166161990181
 30
0.0
 10
96.71044073607732
 20
145.2166161990181
 30
0.0
 10
96.77126096317517
 20
145.2166161990181
 30
0.0
 10
96.83085021799468
 20
145.2166161990181
 30
0.0
 10
96.8362565828395
 20
145.2166161990181
 30
0.0
  0
ARC
  5
F90
330
19
100
AcDbEntity
  8
実線
 48
6.0
100
AcDbCircle
 10
95.52390928246456
 20
145.8166159397107
 30
0.0
 40
1.280499999999971
100
AcDbArc
 50
297.9413153436004
 51
332.0586846563996
  0
SPLINE
  5
F91
330
19
100
AcDbEntity
  8
実線
 48
6.0
100
AcDbSpline
210
0.0
220
0.0
230
1.0
 70
    24
 71
     3
 72
     9
 73
     5
 74
     0
 42
0.000000001
 43
0.0000000001
 40
0.0
 40
0.0
 40
0.0
 40
0.0
 40
0.0907272379938167
 40
1.0
 40
1.0
 40
1.0
 40
1.0
 10
96.12390936593533
 20
144.5042680507914
 30
0.0
 10
96.12390936593533
 20
144.5096750673063
 30
0.0
 10
96.12390936593533
 20
144.5692714645351
 30
0.0
 10
96.12390936593533
 20
144.6300876113647
 30
0.0
 10
96.12390936593533
 20
144.6853860771671
 30
0.0
  0
SPLINE
  5
F92
330
19
100
AcDbEntity
  8
実線
 48
6.0
100
AcDbSpline
210
0.0
220
0.0
230
1.0
 70
    24
 71
     3
 72
     9
 73
     5
 74
     0
 42
0.000000001
 43
0.0000000001
 40
0.0
 40
0.0
 40
0.0
 40
0.0
 40
0.090727176590463
 40
1.0
 40
1.0
 40
1.0
 40
1.0
 10
94.92390954176904
 20
147.1289632400886
 30
0.0
 10
94.92390954176904
 20
147.1235568752437
 30
0.0
 10
94.92390954176904
 20
147.0639676204241
 30
0.0
 10
94.92390954176904
 20
147.0031473933263
 30
0.0
 10
94.92390954176904
 20
146.9478452137128
 30
0.0
  0
ARC
  5
F93
330
19
100
AcDbEntity
  8
実線
 48
6.0
100
AcDbCircle
 10
95.52390928246456
 20
145.8166159397107
 30
0.0
 40
1.443002513263943
100
AcDbArc
 50
114.5696869711988
 51
155.4303130288012
  0
SPLINE
  5
F94
330
19
100
AcDbEntity
  8
実線
 48
6.0
100
AcDbSpline
210
0.0
220
0.0
230
1.0
 70
    24
 71
     3
 72
     9
 73
     5
 74
     0
 42
0.000000001
 43
0.0000000001
 40
0.0
 40
0.0
 40
0.0
 40
0.0
 40
0.9092727620061832
 40
1.0
 40
1.0
 40
1.0
 40
1.0
 10
94.39267941991807
 20
146.4166160231844
 30
0.0
 10
94.33738095411564
 20
146.4166160231844
 30
0.0
 10
94.27656480728604
 20
146.4166160231844
 30
0.0
 10
94.21696841005723
 20
146.4166160231844
 30
0.0
 10
94.2115613935423
 20
146.4166160231844
 30
0.0
  0
ARC
  5
F95
330
19
100
AcDbEntity
  8
実線
 48
6.0
100
AcDbCircle
 10
95.52390928246456
 20
145.8166159397107
 30
0.0
 40
1.28050000000012
100
AcDbArc
 50
117.9413153435991
 51
152.0586846564009
  0
LINE
  5
F96
330
19
100
AcDbEntity
  8
中心線
 48
6.0
100
AcDbLine
 10
95.52390928246456
 20
151.6166159397108
 30
0.0
 11
95.52390928246456
 21
140.0166159397107
 31
0.0
  0
LINE
  5
F97
330
19
100
AcDbEntity
  8
中心線
 48
6.0
100
AcDbLine
 10
89.72390928246443
 20
145.8166159397107
 30
0.0
 11
101.3239092824646
 21
145.8166159397107
 31
0.0
  0
LINE
  5
F98
330
19
100
AcDbEntity
  8
中心線
 48
6.0
100
AcDbLine
 10
121.7239092824645
 20
145.8166159397107
 30
0.0
 11
133.3239092824646
 21
145.8166159397107
 31
0.0
  0
LINE
  5
F99
330
19
100
AcDbEntity
  8
中心線
 48
6.0
100
AcDbLine
 10
127.5239092824646
 20
151.6166159397108
 30
0.0
 11
127.5239092824646
 21
140.0166159397107
 31
0.0
  0
LINE
  5
F9A
330
19
100
AcDbEntity
  8
中心線
 48
6.0
100
AcDbLine
 10
95.52390928246456
 20
79.15166451951083
 30
0.0
 11
95.52390928246456
 21
69.65166451951083
 31
0.0
  0
LINE
  5
F9B
330
19
100
AcDbEntity
  8
中心線
 48
6.0
100
AcDbLine
 10
90.77390928246456
 20
74.40166451951083
 30
0.0
 11
100.2739092824646
 21
74.40166451951083
 31
0.0
  0
LINE
  5
F9C
330
19
100
AcDbEntity
  8
中心線
 48
6.0
100
AcDbLine
 10
106.7739092824646
 20
74.40166451951083
 30
0.0
 11
116.2739092824646
 21
74.40166451951083
 31
0.0
  0
LINE
  5
F9D
330
19
100
AcDbEntity
  8
中心線
 48
6.0
100
AcDbLine
 10
122.7739092824646
 20
74.40166451951083
 30
0.0
 11
132.2739092824646
 21
74.40166451951083
 31
0.0
  0
LINE
  5
F9E
330
19
100
AcDbEntity
  8
中心線
 48
6.0
100
AcDbLine
 10
127.5239092824646
 20
79.15166451951083
 30
0.0
 11
127.5239092824646
 21
69.65166451951083
 31
0.0
  0
LINE
  5
F9F
330
19
100
AcDbEntity
  8
中心線
 48
6.0
100
AcDbLine
 10
111.5239092824646
 20
69.65166451951083
 30
0.0
 11
111.5239092824646
 21
79.15166451951083
 31
0.0
  0
DIMENSION
  5
FA0
330
19
100
AcDbEntity
  8
DIM
 48
6.0
100
AcDbDimension
  2
*D59
 10
80.55385399676459
 20
161.8166159397107
 30
0.0
 11
78.17885399676459
 21
153.8166159397107
 31
0.0
 70
    32
 71
     5
 42
16.0
 73
     0
 74
     0
 75
     0
  3
tfrom線あり
100
AcDbAlignedDimension
 13
89.66140928246455
 23
145.8166159397107
 33
0.0
 14
85.52390874606454
 24
161.8166159397107
 34
0.0
 50
90.0
100
AcDbRotatedDimension
  0
DIMENSION
  5
FA1
330
19
100
AcDbEntity
  8
DIM
 48
6.0
100
AcDbDimension
  2
*D60
 10
136.5239096550646
 20
126.8166159397107
 30
0.0
 11
111.5239094687644
 21
129.1916159397107
 31
0.0
 70
    32
 71
     5
 42
50.00000037260031
 73
     0
 74
     0
 75
     0
  3
tfrom線あり
100
AcDbAlignedDimension
 13
86.52390928246427
 23
142.3166159397108
 33
0.0
 14
136.5239096550646
 24
142.3166159397108
 34
0.0
100
AcDbRotatedDimension
  0
DIMENSION
  5
FA2
330
19
100
AcDbEntity
  8
DIM
 48
6.0
100
AcDbDimension
  2
*D61
 10
137.5239098189646
 20
119.3465548402954
 30
0.0
 11
111.5239092825146
 21
121.7215548402954
 31
0.0
 70
    32
 71
     5
 42
52.00000107290009
 73
     0
 74
     0
 75
     0
  3
tfrom線あり
100
AcDbAlignedDimension
 13
85.52390874606454
 23
138.8166158950107
 33
0.0
 14
137.5239098189646
 24
138.8166158950107
 34
0.0
100
AcDbRotatedDimension
  0
DIMENSION
  5
FA3
330
19
100
AcDbEntity
  8
DIM
 48
6.0
100
AcDbDimension
  2
*D62
 10
145.4119561169869
 20
154.3166161074109
 30
0.0
 11
143.0369561169869
 21
145.8166163439608
 31
0.0
 70
    32
 71
     5
 42
16.99999952690007
 73
     0
 74
     0
 75
     0
  3
tfrom線あり
100
AcDbAlignedDimension
 13
131.5239088354646
 23
137.3166165805108
 33
0.0
 14
131.5239088354646
 24
154.3166161074109
 34
0.0
 50
90.0
100
AcDbRotatedDimension
  0
DIMENSION
  5
FA4
330
19
100
AcDbEntity
  8
DIM
 48
6.0
100
AcDbDimension
  2
*D63
 10
152.7989136354506
 20
161.8166159397107
 30
0.0
 11
150.4239136354506
 21
149.3166157534607
 31
0.0
 70
    32
 71
     5
 42
25.00000037249993
 73
     0
 74
     0
 75
     0
  3
tfrom線あり
100
AcDbAlignedDimension
 13
135.5239094910646
 23
136.8166155672108
 33
0.0
 14
137.5239098189646
 24
161.8166159397107
 34
0.0
 50
90.0
100
AcDbRotatedDimension
  0
DIMENSION
  5
FA5
330
19
100
AcDbEntity
  8
DIM
 48
6.0
100
AcDbDimension
  2
*D64
 10
176.9529651458646
 20
126.8166159397107
 30
0.0
 11
171.2499651458646
 21
126.8166159397107
 31
0.0
 70
   160
 71
     5
 42
6.500000134099992
 73
     0
 74
     0
 75
     0
  3
tfrom線あり
100
AcDbAlignedDimension
 13
183.4529652799646
 23
136.7541159397108
 33
0.0
 14
176.9529651458646
 24
139.3166150457108
 34
0.0
100
AcDbRotatedDimension
1001
ACAD
1000
DSTYLE
1002
{
1070
   172
1070
     1
1002
}
  0
DIMENSION
  5
FA6
330
19
100
AcDbEntity
  8
DIM
 48
6.0
100
AcDbDimension
  2
*D65
 10
203.4529652799646
 20
126.8166159397107
 30
0.0
 11
193.4529652799646
 21
129.1916159397107
 31
0.0
 70
    32
 71
     5
 42
20.0
 73
     0
 74
     0
 75
     0
  3
tfrom線あり
100
AcDbAlignedDimension
 13
183.4529652799646
 23
136.7541159397108
 33
0.0
 14
203.4529652799646
 24
159.7541159397108
 34
0.0
100
AcDbRotatedDimension
  0
DIMENSION
  5
FA7
330
19
100
AcDbEntity
  8
DIM
 48
6.0
100
AcDbDimension
  2
*D66
 10
203.4529648329646
 20
119.3465548402954
 30
0.0
 11
190.2029649894146
 21
121.7215548402954
 31
0.0
 70
    32
 71
     5
 42
26.4999996871
 73
     0
 74
     0
 75
     0
  3
tfrom線あり
100
AcDbAlignedDimension
 13
176.9529651458646
 23
139.3166150457108
 33
0.0
 14
203.4529648329646
 24
159.8166159397108
 34
0.0
100
AcDbRotatedDimension
  0
DIMENSION
  5
FA8
330
19
100
AcDbEntity
  8
DIM
 48
6.0
100
AcDbDimension
  2
*D67
 10
212.4529652799646
 20
161.8166159397107
 30
0.0
 11
212.4529652799646
 21
167.5571159397107
 31
0.0
 70
   160
  1
t=<>
 71
     5
 42
1.999999999999886
 73
     0
 74
     1
 75
     1
  3
tfrom線あり
100
AcDbAlignedDimension
 13
203.4529648329646
 23
159.8166159397108
 33
0.0
 14
203.4529648329646
 24
161.8166159397107
 34
0.0
 50
90.0
100
AcDbRotatedDimension
1001
ACAD
1000
DSTYLE
1002
{
1070
   172
1070
     1
1002
}
  0
DIMENSION
  5
FA9
330
19
100
AcDbEntity
  8
DIM
 48
6.0
100
AcDbDimension
  2
*D68
 10
80.49453471196455
 20
94.40166465361071
 30
0.0
 11
78.11953471196455
 21
84.40166458656077
 31
0.0
 70
    32
 71
     5
 42
20.00000013409988
 73
     0
 74
     0
 75
     0
  3
tfrom線あり
100
AcDbAlignedDimension
 13
90.77390928246456
 23
74.40166451951083
 33
0.0
 14
88.52390923776454
 24
94.40166465361071
 34
0.0
 50
90.0
100
AcDbRotatedDimension
  0
DIMENSION
  5
FAA
330
19
100
AcDbEntity
  8
DIM
 48
6.0
100
AcDbDimension
  2
*D69
 10
80.45671534386719
 20
67.90166451951072
 30
0.0
 11
80.45671534386719
 21
62.19866451951071
 31
0.0
 70
   160
 71
     5
 42
6.500000000000114
 73
     0
 74
     0
 75
     0
  3
tfrom線あり
100
AcDbAlignedDimension
 13
90.77390928246456
 23
74.40166451951083
 33
0.0
 14
87.52390928246456
 24
67.90166451951072
 34
0.0
 50
90.0
100
AcDbRotatedDimension
1001
ACAD
1000
DSTYLE
1002
{
1070
   172
1070
     1
1002
}
  0
DIMENSION
  5
FAB
330
19
100
AcDbEntity
  8
DIM
 48
6.0
100
AcDbDimension
  2
*D70
 10
95.52390928246456
 20
57.90166451951083
 30
0.0
 11
90.52390901426455
 21
60.27666451951083
 31
0.0
 70
    32
 71
     5
 42
10.00000053640002
 73
     0
 74
     0
 75
     0
  3
tfrom線あり
100
AcDbAlignedDimension
 13
85.52390874606454
 23
69.90166529441083
 33
0.0
 14
95.52390928246456
 24
69.58916451951083
 34
0.0
100
AcDbRotatedDimension
  0
DIMENSION
  5
FAC
330
19
100
AcDbEntity
  8
DIM
 48
6.0
100
AcDbDimension
  2
*D71
 10
111.5239092824646
 20
57.90166451951083
 30
0.0
 11
103.5239092824646
 21
60.27666451951083
 31
0.0
 70
    32
 71
     5
 42
16.00000000000006
 73
     0
 74
     0
 75
     0
  3
tfrom線あり
100
AcDbAlignedDimension
 13
95.52390928246456
 23
69.65166451951083
 33
0.0
 14
111.5239092824646
 24
69.65166451951083
 34
0.0
100
AcDbRotatedDimension
  0
DIMENSION
  5
FAD
330
19
100
AcDbEntity
  8
DIM
 48
6.0
100
AcDbDimension
  2
*D72
 10
127.5239092824646
 20
57.90166451951083
 30
0.0
 11
119.5239092824646
 21
60.27666451951083
 31
0.0
 70
    32
 71
     5
 42
16.0
 73
     0
 74
     0
 75
     0
  3
tfrom線あり
100
AcDbAlignedDimension
 13
111.5239092824646
 23
69.58916451951083
 33
0.0
 14
127.5239092824646
 24
69.65166451951083
 34
0.0
100
AcDbRotatedDimension
  0
DIMENSION
  5
FAE
330
19
100
AcDbEntity
  8
DIM
 48
6.0
100
AcDbDimension
  2
*D73
 10
137.5239098189646
 20
57.90166451951083
 30
0.0
 11
132.5239095507146
 21
60.27666451951083
 31
0.0
 70
    32
 71
     5
 42
10.00000053650001
 73
     0
 74
     0
 75
     0
  3
tfrom線あり
100
AcDbAlignedDimension
 13
127.5239092824646
 23
69.58916451951083
 33
0.0
 14
137.5239098189646
 24
69.90166529441083
 34
0.0
100
AcDbRotatedDimension
  0
LINE
  5
107A
330
19
100
AcDbEntity
  8
DIM
 48
6.0
100
AcDbLine
 10
129.0931680255626
 20
72.78923560721384
 30
0.0
 11
140.615387920747
 21
60.95004046201947
 31
0.0
  0
LINE
  5
107B
330
19
100
AcDbEntity
  8
DIM
 48
6.0
100
AcDbLine
 10
140.615387920747
 20
60.95004046201947
 30
0.0
 11
168.0051114824225
 21
60.95004046201947
 31
0.0
  0
TEXT
  5
10AB
330
19
100
AcDbEntity
  8
DIM
100
AcDbText
 10
142.6634688313147
 20
62.23148077589357
 30
0.0
 40
2.75
  1
3-%%c4.5(D7皿穴）
  7
ＭＳ ゴシック
100
AcDbText
  0
MTEXT
  5
10BE
330
19
100
AcDbEntity
  8
TEMPLATE
 48
6.0
100
AcDbMText
 10
19.21980279115238
 20
29.41960909896605
 30
0.0
 40
2.75
 41
73.35119220088627
 46
0.0
 71
     1
 72
     1
  1
ステンレス戸当り（マグネットタイプ）
  7
ＭＳ ゴシック
 73
     1
 44
1.0
  0
VIEWPORT
  5
22
330
16
100
AcDbEntity
 67
     1
  8
0
100
AcDbViewport
 10
99.46265693688792
 20
142.2033183869575
 30
0.0
 40
534.2874965009338
 41
288.3336206329402
 68
     1
 69
     1
 12
99.46265693688792
 22
142.2033183869575
 13
0.0
 23
0.0
 14
10.0
 24
10.0
 15
10.0
 25
10.0
 16
0.0
 26
0.0
 36
1.0
 17
0.0
 27
0.0
 37
0.0
 42
50.0
 43
0.0
 44
0.0
 45
288.3336206329402
 50
0.0
 51
0.0
 72
   100
 90
    32768
  1

281
     0
 71
     1
 74
     0
110
0.0
120
0.0
130
0.0
111
1.0
121
0.0
131
0.0
112
0.0
122
1.0
132
0.0
 79
     0
146
0.0
170
     0
 61
     5
348
9DB
292
     1
282
     1
141
0.0
142
0.0
 63
   256
  0
ENDSEC
  0
SECTION
  2
OBJECTS
  0
DICTIONARY
  5
C
330
0
100
AcDbDictionary
281
     1
  3
ACAD_DETAILVIEWSTYLE
350
850
  3
ACAD_GROUP
350
D
  3
ACAD_LAYOUT
350
1CB
  3
ACAD_MATERIAL
350
9EF
  3
ACAD_MLEADERSTYLE
350
9F5
  3
ACAD_MLINESTYLE
350
E
  3
ACAD_PLOTSETTINGS
350
1CC
  3
ACAD_PLOTSTYLENAME
350
1C9
  3
ACAD_SCALELIST
350
6AD
  3
ACAD_SECTIONVIEWSTYLE
350
851
  3
ACAD_TABLESTYLE
350
9F3
  3
ACAD_VISUALSTYLE
350
9D6
  3
AcadDim
350
400
  3
ACDB_RECOMPOSE_DATA
350
10F3
  3
AcDbVariableDictionary
350
84B
  3
APPDATA
350
6F0
  0
SUN
  5
10E9
330
6AC
100
AcDbSun
 90
        1
290
     0
 63
     7
421
 16777215
 40
1.0
291
     1
 91
  2455826
 92
 54000000
292
     0
 70
     2
 71
   256
280
     1
  0
DICTIONARY
  5
775
330
2
100
AcDbDictionary
280
     1
281
     1
  3
ACAD_LAYERSTATES
360
821
  3
ACLYDICTIONARY
360
10B3
  0
DICTIONARY
  5
996
330
995
100
AcDbDictionary
280
     1
281
     1
  0
DICTIONARY
  5
850
102
{ACAD_REACTORS
330
C
102
}
330
C
100
AcDbDictionary
281
     1
  0
DICTIONARY
  5
D
102
{ACAD_REACTORS
330
C
102
}
330
C
100
AcDbDictionary
281
     1
  0
DICTIONARY
  5
1CB
102
{ACAD_REACTORS
330
C
102
}
330
C
100
AcDbDictionary
281
     1
  3
A4承認図
350
1CE
  3
Model
350
1CD
  0
DICTIONARY
  5
9EF
102
{ACAD_REACTORS
330
C
102
}
330
C
100
AcDbDictionary
281
     1
  3
ByBlock
350
9F1
  3
ByLayer
350
9F0
  3
Global
350
9F2
  0
DICTIONARY
  5
9F5
102
{ACAD_REACTORS
330
C
102
}
330
C
100
AcDbDictionary
281
     1
  3
Standard
350
9F6
  0
DICTIONARY
  5
E
102
{ACAD_REACTORS
330
C
102
}
330
C
100
AcDbDictionary
281
     1
  3
STANDARD
350
1C
  0
DICTIONARY
  5
1CC
102
{ACAD_REACTORS
330
C
102
}
330
C
100
AcDbDictionary
281
     1
  0
ACDBDICTIONARYWDFLT
  5
1C9
102
{ACAD_REACTORS
330
C
102
}
330
C
100
AcDbDictionary
281
     1
  3
Normal
350
1CA
100
AcDbDictionaryWithDefault
340
1CA
  0
DICTIONARY
  5
6AD
102
{ACAD_REACTORS
330
C
102
}
330
C
100
AcDbDictionary
281
     1
  3
A0
350
6AE
  3
A1
350
6AF
  3
A2
350
6B0
  3
A3
350
6B1
  3
A4
350
6B2
  3
A5
350
6B3
  3
A6
350
6B4
  3
A7
350
6B5
  3
A8
350
6B6
  3
A9
350
6B7
  3
B0
350
6B8
  3
B1
350
6B9
  3
B2
350
6BA
  3
B3
350
6BB
  3
B4
350
6BC
  3
B5
350
6BD
  3
B6
350
6BE
  3
B7
350
6BF
  3
B8
350
6C0
  3
B9
350
6C1
  3
C0
350
6C2
  3
C1
350
6C3
  3
C2
350
6C4
  3
C3
350
6C5
  3
C4
350
6C6
  3
C5
350
6C7
  3
C6
350
6C8
  3
C7
350
6C9
  3
C8
350
6CA
  3
C9
350
6CB
  3
D0
350
6CC
  3
D1
350
6CD
  3
D2
350
6CE
  0
DICTIONARY
  5
851
102
{ACAD_REACTORS
330
C
102
}
330
C
100
AcDbDictionary
281
     1
  0
DICTIONARY
  5
9F3
102
{ACAD_REACTORS
330
C
102
}
330
C
100
AcDbDictionary
281
     1
  3
Standard
350
9F4
  0
DICTIONARY
  5
9D6
102
{ACAD_REACTORS
330
C
102
}
330
C
100
AcDbDictionary
281
     1
  3
2dWireframe
350
9DB
  3
Basic
350
9DE
  3
Brighten
350
9E2
  3
ColorChange
350
9E6
  3
Conceptual
350
9E0
  3
Dim
350
9E1
  3
EdgeColorOff
350
9E9
  3
Facepattern
350
9E5
  3
Flat
350
9D7
  3
FlatWithEdges
350
9D8
  3
Gouraud
350
9D9
  3
GouraudWithEdges
350
9DA
  3
Hidden
350
9DD
  3
JitterOff
350
9E7
  3
Linepattern
350
9E4
  3
OverhangOff
350
9E8
  3
Realistic
350
9DF
  3
Shaded
350
9EE
  3
Shaded with edges
350
9ED
  3
Shades of Gray
350
9EA
  3
Sketchy
350
9EB
  3
Thicken
350
9E3
  3
Wireframe
350
9DC
  3
X-Ray
350
9EC
  0
XRECORD
  5
400
102
{ACAD_REACTORS
330
C
102
}
330
C
100
AcDbXrecord
280
     1
 90
   990106
  3

 60
     0
 61
     0
 62
     4
 63
     4
 64
     1
 65
     0
 66
     0
 67
     3
 68
     1
 69
     0
 70
     0
 71
     0
 72
     0
 40
0.0
170
     2
340
0
  0
XRECORD
  5
10F3
102
{ACAD_REACTORS
330
C
102
}
330
C
100
AcDbXrecord
280
     1
 90
        1
330
9F4
  0
DICTIONARY
  5
84B
102
{ACAD_REACTORS
330
C
102
}
330
C
100
AcDbDictionary
281
     1
  3
CANNOSCALE
350
9F7
  3
CMLEADERSTYLE
350
9FD
  3
CTABLESTYLE
350
9FC
  3
MSLTSCALE
350
9FE
  3
XCLIPFRAME
350
10ED
  0
DICTIONARY
  5
6F0
102
{ACAD_REACTORS
330
C
102
}
330
C
100
AcDbDictionary
281
     1
  0
DICTIONARY
  5
821
102
{ACAD_REACTORS
330
775
102
}
330
775
100
AcDbDictionary
281
     1
  0
DICTIONARY
  5
10B3
102
{ACAD_REACTORS
330
775
102
}
330
775
100
AcDbDictionary
281
     1
1001
ACAD
1000
<All
  0
LAYOUT
  5
1CE
102
{ACAD_REACTORS
330
1CB
102
}
330
1CB
100
AcDbPlotSettings
  1

  2
Kyocera Mita LS-6820N KX
  4
A4
  6

 40
4.984749794006347
 41
5.154074668884277
 42
5.11175537109375
 43
4.9847412109375
 44
210.0156707763671
 45
297.0106506347656
 46
0.0
 47
0.0
 48
0.0
 49
0.0
140
0.0
141
0.0
142
1.0
143
1.0
 70
   672
 72
     1
 73
     0
 74
     1
  7
ジョー･プリンス.ctb
 75
     0
 76
     0
 77
     2
 78
   300
147
1.0
148
0.0076382641428268
149
0.8420214091704565
100
AcDbLayout
  1
A4承認図
 70
     1
 71
     1
 10
-4.992388058149174
 20
-5.996096078054733
 11
205.023282718218
 21
291.0145545567108
 12
0.0
 22
0.0
 32
0.0
 14
-0.015667337610239
 24
-0.8386533574724808
 34
-0.0000610323622112
 15
198.940981211386
 25
285.2452901313876
 35
1.000061041675721
146
0.0
 13
0.0
 23
0.0
 33
0.0
 16
1.0
 26
0.0
 36
0.0
 17
0.0
 27
1.0
 37
0.0
 76
     0
330
16
331
22
  0
LAYOUT
  5
1CD
102
{ACAD_REACTORS
330
1CB
102
}
330
1CB
100
AcDbPlotSettings
  1

  2
Canon LBP-A304G2 LIPS3
  4

  6

 40
0.0
 41
0.0
 42
0.0
 43
0.0
 44
0.0
 45
0.0
 46
0.0
 47
0.0
 48
0.0
 49
0.0
140
0.0
141
0.0
142
1.0
143
1.0
 70
  1712
 72
     0
 73
     0
 74
     0
  7
ジョー･プリンス.ctb
 75
     0
 76
     0
 77
     2
 78
   300
147
1.0
148
0.0
149
0.0
100
AcDbLayout
  1
Model
 70
     1
 71
     0
 10
0.0
 20
0.0
 11
12.0
 21
9.0
 12
0.0
 22
0.0
 32
0.0
 14
0.0
 24
0.0
 34
0.0
 15
296.9999999999999
 25
210.0
 35
0.0
146
0.0
 13
0.0
 23
0.0
 33
0.0
 16
1.0
 26
0.0
 36
0.0
 17
0.0
 27
1.0
 37
0.0
 76
     0
330
19
331
6AC
  0
MATERIAL
  5
9F1
102
{ACAD_REACTORS
330
9EF
102
}
330
9EF
100
AcDbMaterial
  1
ByBlock
 72
     1
 94
      127
  0
MATERIAL
  5
9F0
102
{ACAD_REACTORS
330
9EF
102
}
330
9EF
100
AcDbMaterial
  1
ByLayer
 72
     1
 94
      127
  0
MATERIAL
  5
9F2
102
{ACAD_REACTORS
330
9EF
102
}
330
9EF
100
AcDbMaterial
  1
Global
 72
     1
 94
      127
  0
MLEADERSTYLE
  5
9F6
102
{ACAD_REACTORS
330
9F5
102
}
330
9F5
100
AcDbMLeaderStyle
170
     2
171
     1
172
     0
 90
        2
 40
0.0
 41
0.0
173
     1
 91
-1056964608
340
13
 92
       -2
290
     1
 42
2.0
291
     1
 43
8.0
  3
Standard
341
0
 44
4.0
300

342
10
174
     1
178
     1
175
     1
176
     0
 93
-1056964608
 45
4.0
292
     0
297
     0
 46
4.0
343
0
 94
-1056964608
 47
1.0
 49
1.0
140
1.0
293
     1
141
0.0
294
     1
177
     0
142
1.0
295
     0
296
     0
143
3.75
1001
ACAD_MLEADERVER
1070
     2
  0
MLINESTYLE
  5
1C
102
{ACAD_REACTORS
330
E
102
}
330
E
100
AcDbMlineStyle
  2
STANDARD
 70
     0
  3

 62
     0
 51
90.0
 52
90.0
 71
     2
 49
0.5
 62
   256
  6
BYLAYER
 49
-0.5
 62
   256
  6
BYLAYER
  0
ACDBPLACEHOLDER
  5
1CA
102
{ACAD_REACTORS
330
1C9
102
}
330
1C9
  0
SCALE
  5
6AE
102
{ACAD_REACTORS
330
6AD
102
}
330
6AD
100
AcDbScale
 70
     0
300
1:1
140
1.0
141
1.0
290
     1
  0
SCALE
  5
6AF
102
{ACAD_REACTORS
330
6AD
102
}
330
6AD
100
AcDbScale
 70
     0
300
1:2
140
1.0
141
2.0
290
     0
  0
SCALE
  5
6B0
102
{ACAD_REACTORS
330
6AD
102
}
330
6AD
100
AcDbScale
 70
     0
300
1:4
140
1.0
141
4.0
290
     0
  0
SCALE
  5
6B1
102
{ACAD_REACTORS
330
6AD
102
}
330
6AD
100
AcDbScale
 70
     0
300
1:5
140
1.0
141
5.0
290
     0
  0
SCALE
  5
6B2
102
{ACAD_REACTORS
330
6AD
102
}
330
6AD
100
AcDbScale
 70
     0
300
1:8
140
1.0
141
8.0
290
     0
  0
SCALE
  5
6B3
102
{ACAD_REACTORS
330
6AD
102
}
330
6AD
100
AcDbScale
 70
     0
300
1:10
140
1.0
141
10.0
290
     0
  0
SCALE
  5
6B4
102
{ACAD_REACTORS
330
6AD
102
}
330
6AD
100
AcDbScale
 70
     0
300
1:16
140
1.0
141
16.0
290
     0
  0
SCALE
  5
6B5
102
{ACAD_REACTORS
330
6AD
102
}
330
6AD
100
AcDbScale
 70
     0
300
1:20
140
1.0
141
20.0
290
     0
  0
SCALE
  5
6B6
102
{ACAD_REACTORS
330
6AD
102
}
330
6AD
100
AcDbScale
 70
     0
300
1:30
140
1.0
141
30.0
290
     0
  0
SCALE
  5
6B7
102
{ACAD_REACTORS
330
6AD
102
}
330
6AD
100
AcDbScale
 70
     0
300
1:40
140
1.0
141
40.0
290
     0
  0
SCALE
  5
6B8
102
{ACAD_REACTORS
330
6AD
102
}
330
6AD
100
AcDbScale
 70
     0
300
1:50
140
1.0
141
50.0
290
     0
  0
SCALE
  5
6B9
102
{ACAD_REACTORS
330
6AD
102
}
330
6AD
100
AcDbScale
 70
     0
300
1:100
140
1.0
141
100.0
290
     0
  0
SCALE
  5
6BA
102
{ACAD_REACTORS
330
6AD
102
}
330
6AD
100
AcDbScale
 70
     0
300
2:1
140
2.0
141
1.0
290
     0
  0
SCALE
  5
6BB
102
{ACAD_REACTORS
330
6AD
102
}
330
6AD
100
AcDbScale
 70
     0
300
4:1
140
4.0
141
1.0
290
     0
  0
SCALE
  5
6BC
102
{ACAD_REACTORS
330
6AD
102
}
330
6AD
100
AcDbScale
 70
     0
300
8:1
140
8.0
141
1.0
290
     0
  0
SCALE
  5
6BD
102
{ACAD_REACTORS
330
6AD
102
}
330
6AD
100
AcDbScale
 70
     0
300
10:1
140
10.0
141
1.0
290
     0
  0
SCALE
  5
6BE
102
{ACAD_REACTORS
330
6AD
102
}
330
6AD
100
AcDbScale
 70
     0
300
100:1
140
100.0
141
1.0
290
     0
  0
SCALE
  5
6BF
102
{ACAD_REACTORS
330
6AD
102
}
330
6AD
100
AcDbScale
 70
     0
300
1/128" = 1'-0"
140
0.0078125
141
12.0
290
     0
  0
SCALE
  5
6C0
102
{ACAD_REACTORS
330
6AD
102
}
330
6AD
100
AcDbScale
 70
     0
300
1/64" = 1'-0"
140
0.015625
141
12.0
290
     0
  0
SCALE
  5
6C1
102
{ACAD_REACTORS
330
6AD
102
}
330
6AD
100
AcDbScale
 70
     0
300
1/32" = 1'-0"
140
0.03125
141
12.0
290
     0
  0
SCALE
  5
6C2
102
{ACAD_REACTORS
330
6AD
102
}
330
6AD
100
AcDbScale
 70
     0
300
1/16" = 1'-0"
140
0.0625
141
12.0
290
     0
  0
SCALE
  5
6C3
102
{ACAD_REACTORS
330
6AD
102
}
330
6AD
100
AcDbScale
 70
     0
300
3/32" = 1'-0"
140
0.09375
141
12.0
290
     0
  0
SCALE
  5
6C4
102
{ACAD_REACTORS
330
6AD
102
}
330
6AD
100
AcDbScale
 70
     0
300
1/8" = 1'-0"
140
0.125
141
12.0
290
     0
  0
SCALE
  5
6C5
102
{ACAD_REACTORS
330
6AD
102
}
330
6AD
100
AcDbScale
 70
     0
300
3/16" = 1'-0"
140
0.1875
141
12.0
290
     0
  0
SCALE
  5
6C6
102
{ACAD_REACTORS
330
6AD
102
}
330
6AD
100
AcDbScale
 70
     0
300
1/4" = 1'-0"
140
0.25
141
12.0
290
     0
  0
SCALE
  5
6C7
102
{ACAD_REACTORS
330
6AD
102
}
330
6AD
100
AcDbScale
 70
     0
300
3/8" = 1'-0"
140
0.375
141
12.0
290
     0
  0
SCALE
  5
6C8
102
{ACAD_REACTORS
330
6AD
102
}
330
6AD
100
AcDbScale
 70
     0
300
1/2" = 1'-0"
140
0.5
141
12.0
290
     0
  0
SCALE
  5
6C9
102
{ACAD_REACTORS
330
6AD
102
}
330
6AD
100
AcDbScale
 70
     0
300
3/4" = 1'-0"
140
0.75
141
12.0
290
     0
  0
SCALE
  5
6CA
102
{ACAD_REACTORS
330
6AD
102
}
330
6AD
100
AcDbScale
 70
     0
300
1" = 1'-0"
140
1.0
141
12.0
290
     0
  0
SCALE
  5
6CB
102
{ACAD_REACTORS
330
6AD
102
}
330
6AD
100
AcDbScale
 70
     0
300
1-1/2" = 1'-0"
140
1.5
141
12.0
290
     0
  0
SCALE
  5
6CC
102
{ACAD_REACTORS
330
6AD
102
}
330
6AD
100
AcDbScale
 70
     0
300
3" = 1'-0"
140
3.0
141
12.0
290
     0
  0
SCALE
  5
6CD
102
{ACAD_REACTORS
330
6AD
102
}
330
6AD
100
AcDbScale
 70
     0
300
6" = 1'-0"
140
6.0
141
12.0
290
     0
  0
SCALE
  5
6CE
102
{ACAD_REACTORS
330
6AD
102
}
330
6AD
100
AcDbScale
 70
     0
300
1'-0" = 1'-0"
140
12.0
141
12.0
290
     0
  0
TABLESTYLE
  5
9F4
102
{ACAD_REACTORS
330
9F3
102
}
102
{ACAD_XDICTIONARY
360
10F1
102
}
330
9F3
100
AcDbTableStyle
  3
Standard
 70
     0
 71
     0
 40
0.06
 41
0.06
280
     0
281
     0
  7
STANDARD
140
4.5
170
     2
 62
     0
 63
   257
283
     0
 90
        4
 91
        0
  1

274
    -2
284
     1
 64
     0
275
    -2
285
     1
 65
     0
276
    -2
286
     1
 66
     0
277
    -2
287
     1
 67
     0
278
    -2
288
     1
 68
     0
279
    -2
289
     1
 69
     0
  7
STANDARD
140
6.0
170
     5
 62
     0
 63
   257
283
     0
 90
        4
 91
        0
  1

274
    -2
284
     1
 64
     0
275
    -2
285
     1
 65
     0
276
    -2
286
     1
 66
     0
277
    -2
287
     1
 67
     0
278
    -2
288
     1
 68
     0
279
    -2
289
     1
 69
     0
  7
STANDARD
140
4.5
170
     5
 62
     0
 63
   257
283
     0
 90
        4
 91
        0
  1

274
    -2
284
     1
 64
     0
275
    -2
285
     1
 65
     0
276
    -2
286
     1
 66
     0
277
    -2
287
     1
 67
     0
278
    -2
288
     1
 68
     0
279
    -2
289
     1
 69
     0
  0
VISUALSTYLE
  5
9DB
102
{ACAD_REACTORS
330
9D6
102
}
330
9D6
100
AcDbVisualStyle
  2
2dWireframe
 70
     4
 71
     0
 72
     2
 73
     0
 90
        0
 40
0.6
 41
30.0
 62
     5
 63
     7
421
 16777215
 74
     1
 91
        4
 64
     7
 65
   257
 75
     1
175
     1
 42
1.0
 92
        0
 66
   257
 43
1.0
 76
     1
 77
     6
 78
     2
 67
     7
 79
     5
170
     0
171
     0
290
     0
174
     0
 93
        1
 44
0.0
173
     0
291
     0
 45
0.0
  0
VISUALSTYLE
  5
9DE
102
{ACAD_REACTORS
330
9D6
102
}
330
9D6
100
AcDbVisualStyle
  2
Basic
 70
     7
 71
     1
 72
     0
 73
     1
 90
        0
 40
0.6
 41
30.0
 62
     5
 63
     7
421
 16777215
 74
     0
 91
        4
 64
     7
 65
   257
 75
     1
175
     1
 42
1.0
 92
        8
 66
     7
 43
1.0
 76
     1
 77
     6
 78
     2
 67
     7
 79
     5
170
     0
171
     0
290
     0
174
     0
 93
        1
 44
0.0
173
     0
291
     1
 45
0.0
  0
VISUALSTYLE
  5
9E2
102
{ACAD_REACTORS
330
9D6
102
}
330
9D6
100
AcDbVisualStyle
  2
Brighten
 70
    12
 71
     2
 72
     2
 73
     0
 90
        0
 40
0.6
 41
30.0
 62
     5
 63
     7
421
 16777215
 74
     1
 91
        4
 64
     7
 65
   257
 75
     1
175
     1
 42
1.0
 92
        8
 66
     7
 43
1.0
 76
     1
 77
     6
 78
     2
 67
     7
 79
     5
170
     0
171
     0
290
     0
174
     0
 93
        1
 44
50.0
173
     0
291
     1
 45
0.0
  0
VISUALSTYLE
  5
9E6
102
{ACAD_REACTORS
330
9D6
102
}
330
9D6
100
AcDbVisualStyle
  2
ColorChange
 70
    16
 71
     2
 72
     2
 73
     3
 90
        0
 40
0.6
 41
30.0
 62
     5
 63
     8
421
  8421504
 74
     1
 91
        4
 64
     7
 65
   257
 75
     1
175
     1
 42
1.0
 92
        8
 66
     8
424
  8421504
 43
1.0
 76
     1
 77
     6
 78
     2
 67
     7
 79
     5
170
     0
171
     0
290
     0
174
     0
 93
        1
 44
0.0
173
     0
291
     1
 45
0.0
  0
VISUALSTYLE
  5
9E0
102
{ACAD_REACTORS
330
9D6
102
}
330
9D6
100
AcDbVisualStyle
  2
Conceptual
 70
     9
 71
     3
 72
     2
 73
     0
 90
        0
 40
0.6
 41
30.0
 62
     5
 63
     7
421
 16777215
 74
     2
 91
        2
 64
     7
 65
   257
 75
     1
175
     1
 42
179.0
 92
        8
 66
     7
 43
1.0
 76
     1
 77
     6
 78
     2
 67
     7
 79
     3
170
     0
171
     0
290
     0
174
     0
 93
        1
 44
0.0
173
     0
291
     0
 45
0.0
  0
VISUALSTYLE
  5
9E1
102
{ACAD_REACTORS
330
9D6
102
}
330
9D6
100
AcDbVisualStyle
  2
Dim
 70
    11
 71
     2
 72
     2
 73
     0
 90
        0
 40
0.6
 41
30.0
 62
     5
 63
     7
421
 16777215
 74
     1
 91
        4
 64
     7
 65
   257
 75
     1
175
     1
 42
1.0
 92
        8
 66
     7
 43
1.0
 76
     1
 77
     6
 78
     2
 67
     7
 79
     5
170
     0
171
     0
290
     0
174
     0
 93
        1
 44
-50.0
173
     0
291
     1
 45
0.0
  0
VISUALSTYLE
  5
9E9
102
{ACAD_REACTORS
330
9D6
102
}
330
9D6
100
AcDbVisualStyle
  2
EdgeColorOff
 70
    22
 71
     2
 72
     2
 73
     0
 90
        0
 40
0.6
 41
30.0
 62
     5
 63
     7
421
 16777215
 74
     1
 91
        4
 64
     7
 65
   257
 75
     1
175
     1
 42
1.0
 92
        8
 66
     7
 43
1.0
 76
     1
 77
     6
 78
     2
 67
     7
 79
     5
170
     0
171
     0
290
     0
174
     0
 93
        1
 44
0.0
173
     0
291
     1
 45
0.0
  0
VISUALSTYLE
  5
9E5
102
{ACAD_REACTORS
330
9D6
102
}
330
9D6
100
AcDbVisualStyle
  2
Facepattern
 70
    15
 71
     2
 72
     2
 73
     0
 90
        0
 40
0.6
 41
30.0
 62
     5
 63
     7
421
 16777215
 74
     1
 91
        4
 64
     7
 65
   257
 75
     1
175
     1
 42
1.0
 92
        8
 66
     7
 43
1.0
 76
     1
 77
     6
 78
     2
 67
     7
 79
     5
170
     0
171
     0
290
     0
174
     0
 93
        1
 44
0.0
173
     0
291
     1
 45
0.0
  0
VISUALSTYLE
  5
9D7
102
{ACAD_REACTORS
330
9D6
102
}
330
9D6
100
AcDbVisualStyle
  2
Flat
 70
     0
 71
     2
 72
     1
 73
     1
 90
        2
 40
0.6
 41
30.0
 62
     5
 63
     7
421
 16777215
 74
     0
 91
        0
 64
     7
 65
   257
 75
     1
175
     1
 42
1.0
 92
        8
 66
     7
 43
1.0
 76
     1
 77
     6
 78
     2
 67
     7
 79
     5
170
     0
171
     0
290
     0
174
     0
 93
       13
 44
0.0
173
     0
291
     1
 45
0.0
  0
VISUALSTYLE
  5
9D8
102
{ACAD_REACTORS
330
9D6
102
}
330
9D6
100
AcDbVisualStyle
  2
FlatWithEdges
 70
     1
 71
     2
 72
     1
 73
     1
 90
        2
 40
0.6
 41
30.0
 62
     5
 63
     7
421
 16777215
 74
     1
 91
        0
 64
     7
 65
   257
 75
     1
175
     1
 42
1.0
 92
        0
 66
   257
 43
1.0
 76
     1
 77
     6
 78
     2
 67
     7
 79
     5
170
     0
171
     0
290
     0
174
     0
 93
       13
 44
0.0
173
     0
291
     1
 45
0.0
  0
VISUALSTYLE
  5
9D9
102
{ACAD_REACTORS
330
9D6
102
}
330
9D6
100
AcDbVisualStyle
  2
Gouraud
 70
     2
 71
     2
 72
     2
 73
     1
 90
        2
 40
0.6
 41
30.0
 62
     5
 63
     7
421
 16777215
 74
     0
 91
        0
 64
     7
 65
   257
 75
     1
175
     1
 42
1.0
 92
        0
 66
     7
 43
1.0
 76
     1
 77
     6
 78
     2
 67
     7
 79
     5
170
     0
171
     0
290
     0
174
     0
 93
       13
 44
0.0
173
     0
291
     1
 45
0.0
  0
VISUALSTYLE
  5
9DA
102
{ACAD_REACTORS
330
9D6
102
}
330
9D6
100
AcDbVisualStyle
  2
GouraudWithEdges
 70
     3
 71
     2
 72
     2
 73
     1
 90
        2
 40
0.6
 41
30.0
 62
     5
 63
     7
421
 16777215
 74
     1
 91
        0
 64
     7
 65
   257
 75
     1
175
     1
 42
1.0
 92
        0
 66
   257
 43
1.0
 76
     1
 77
     6
 78
     2
 67
     7
 79
     5
170
     0
171
     0
290
     0
174
     0
 93
       13
 44
0.0
173
     0
291
     1
 45
0.0
  0
VISUALSTYLE
  5
9DD
102
{ACAD_REACTORS
330
9D6
102
}
330
9D6
100
AcDbVisualStyle
  2
Hidden
 70
     6
 71
     1
 72
     2
 73
     2
 90
        0
 40
0.6
 41
30.0
 62
     5
 63
     7
421
 16777215
 74
     2
 91
        2
 64
     7
 65
   257
 75
     2
175
     1
 42
40.0
 92
        0
 66
   257
 43
1.0
 76
     1
 77
     6
 78
     2
 67
     7
 79
     3
170
     0
171
     0
290
     0
174
     0
 93
        1
 44
0.0
173
     0
291
     0
 45
0.0
  0
VISUALSTYLE
  5
9E7
102
{ACAD_REACTORS
330
9D6
102
}
330
9D6
100
AcDbVisualStyle
  2
JitterOff
 70
    20
 71
     2
 72
     2
 73
     0
 90
        0
 40
0.6
 41
30.0
 62
     5
 63
     7
421
 16777215
 74
     1
 91
        4
 64
     7
 65
   257
 75
     1
175
     1
 42
1.0
 92
       10
 66
     7
 43
1.0
 76
     1
 77
     6
 78
     2
 67
     7
 79
     5
170
     0
171
     0
290
     0
174
     0
 93
        1
 44
0.0
173
     0
291
     1
 45
0.0
  0
VISUALSTYLE
  5
9E4
102
{ACAD_REACTORS
330
9D6
102
}
330
9D6
100
AcDbVisualStyle
  2
Linepattern
 70
    14
 71
     2
 72
     2
 73
     0
 90
        0
 40
0.6
 41
30.0
 62
     5
 63
     7
421
 16777215
 74
     1
 91
        4
 64
     7
 65
   257
 75
     7
175
     7
 42
1.0
 92
        8
 66
     7
 43
1.0
 76
     1
 77
     6
 78
     2
 67
     7
 79
     5
170
     0
171
     0
290
     0
174
     0
 93
        1
 44
0.0
173
     0
291
     1
 45
0.0
  0
VISUALSTYLE
  5
9E8
102
{ACAD_REACTORS
330
9D6
102
}
330
9D6
100
AcDbVisualStyle
  2
OverhangOff
 70
    21
 71
     2
 72
     2
 73
     0
 90
        0
 40
0.6
 41
30.0
 62
     5
 63
     7
421
 16777215
 74
     1
 91
        4
 64
     7
 65
   257
 75
     1
175
     1
 42
1.0
 92
        9
 66
     7
 43
1.0
 76
     1
 77
     6
 78
     2
 67
     7
 79
     5
170
     0
171
     0
290
     0
174
     0
 93
        1
 44
0.0
173
     0
291
     1
 45
0.0
  0
VISUALSTYLE
  5
9DF
102
{ACAD_REACTORS
330
9D6
102
}
330
9D6
100
AcDbVisualStyle
  2
Realistic
 70
     8
 71
     2
 72
     3
 73
     0
 90
        2
 40
0.6
 41
30.0
 62
     5
 63
     7
421
 16777215
 74
     0
 91
        0
 64
     7
 65
   257
 75
     1
175
     1
 42
1.0
 92
        8
 66
   257
 43
1.0
 76
     1
 77
     6
 78
     2
 67
     7
 79
     3
170
     0
171
     0
290
     0
174
     0
 93
       13
 44
0.0
173
     0
291
     0
 45
0.0
  0
VISUALSTYLE
  5
9EE
102
{ACAD_REACTORS
330
9D6
102
}
330
9D6
100
AcDbVisualStyle
  2
Shaded
 70
    27
 71
     2
 72
     2
 73
     1
 90
        2
 40
0.6
 41
30.0
 62
     5
 63
     7
421
 16777215
 74
     0
 91
        4
 64
     7
 65
   257
 75
     1
175
     1
 42
1.0
 92
        8
 66
   257
 43
1.0
 76
     1
 77
     6
 78
     2
 67
     8
425
  7895160
 79
     3
170
     0
171
     0
290
     0
174
     0
 93
        5
 44
0.0
173
     0
291
     0
 45
0.0
  0
VISUALSTYLE
  5
9ED
102
{ACAD_REACTORS
330
9D6
102
}
330
9D6
100
AcDbVisualStyle
  2
Shaded with edges
 70
    26
 71
     2
 72
     2
 73
     1
 90
        2
 40
0.6
 41
30.0
 62
     5
 63
     7
421
 16777215
 74
     1
 91
       10
 64
     7
 65
   257
 75
     2
175
     1
 42
1.0
 92
        8
 66
   257
 43
1.0
 76
     1
 77
     6
 78
     2
 67
     7
 79
     3
170
     0
171
     0
290
     0
174
     0
 93
        5
 44
0.0
173
     0
291
     0
 45
0.0
  0
VISUALSTYLE
  5
9EA
102
{ACAD_REACTORS
330
9D6
102
}
330
9D6
100
AcDbVisualStyle
  2
Shades of Gray
 70
    23
 71
     2
 72
     2
 73
     3
 90
        0
 40
0.6
 41
30.0
 62
     5
 63
     7
421
 16777215
 74
     2
 91
        2
 64
     7
 65
     7
 75
     1
175
     1
 42
40.0
 92
        8
 66
     7
 43
1.0
 76
     1
 77
     6
 78
     2
 67
     7
 79
     3
170
     0
171
     0
290
     0
174
     0
 93
        1
 44
0.0
173
     0
291
     0
 45
0.0
  0
VISUALSTYLE
  5
9EB
102
{ACAD_REACTORS
330
9D6
102
}
330
9D6
100
AcDbVisualStyle
  2
Sketchy
 70
    24
 71
     1
 72
     2
 73
     2
 90
        0
 40
0.6
 41
30.0
 62
     5
 63
     7
421
 16777215
 74
     2
 91
        2
 64
     7
 65
     7
 75
     1
175
     1
 42
40.0
 92
       11
 66
     7
 43
1.0
 76
     1
 77
     6
 78
     2
 67
     7
 79
     6
170
     0
171
     0
290
     0
174
     0
 93
        1
 44
0.0
173
     0
291
     0
 45
0.0
  0
VISUALSTYLE
  5
9E3
102
{ACAD_REACTORS
330
9D6
102
}
330
9D6
100
AcDbVisualStyle
  2
Thicken
 70
    13
 71
     2
 72
     2
 73
     0
 90
        0
 40
0.6
 41
30.0
 62
     5
 63
     7
421
 16777215
 74
     1
 91
        4
 64
     7
 65
   257
 75
     1
175
     1
 42
1.0
 92
       12
 66
     7
 43
1.0
 76
     1
 77
     6
 78
     2
 67
     7
 79
     5
170
     0
171
     0
290
     0
174
     0
 93
        1
 44
0.0
173
     0
291
     1
 45
0.0
  0
VISUALSTYLE
  5
9DC
102
{ACAD_REACTORS
330
9D6
102
}
330
9D6
100
AcDbVisualStyle
  2
Wireframe
 70
     5
 71
     0
 72
     2
 73
     0
 90
        0
 40
0.6
 41
30.0
 62
     5
 63
     7
421
 16777215
 74
     1
 91
        4
 64
     7
 65
   257
 75
     1
175
     1
 42
1.0
 92
        0
 66
   257
 43
1.0
 76
     1
 77
     6
 78
     2
 67
     7
 79
     3
170
     0
171
     0
290
     0
174
     0
 93
        1
 44
0.0
173
     0
291
     0
 45
0.0
  0
VISUALSTYLE
  5
9EC
102
{ACAD_REACTORS
330
9D6
102
}
330
9D6
100
AcDbVisualStyle
  2
X-Ray
 70
    25
 71
     2
 72
     2
 73
     1
 90
        1
 40
0.5
 41
30.0
 62
     5
 63
     7
421
 16777215
 74
     1
 91
        0
 64
     7
 65
   257
 75
     1
175
     1
 42
1.0
 92
        8
 66
     7
 43
1.0
 76
     1
 77
     6
 78
     2
 67
     7
 79
     3
170
     0
171
     0
290
     0
174
     0
 93
       13
 44
0.0
173
     0
291
     0
 45
0.0
  0
DICTIONARYVAR
  5
9F7
102
{ACAD_REACTORS
330
84B
102
}
330
84B
100
DictionaryVariables
280
     0
  1
1:1
  0
DICTIONARYVAR
  5
9FD
102
{ACAD_REACTORS
330
84B
102
}
330
84B
100
DictionaryVariables
280
     0
  1
Standard
  0
DICTIONARYVAR
  5
9FC
102
{ACAD_REACTORS
330
84B
102
}
330
84B
100
DictionaryVariables
280
     0
  1
Standard
  0
DICTIONARYVAR
  5
9FE
102
{ACAD_REACTORS
330
84B
102
}
330
84B
100
DictionaryVariables
280
     0
  1
0
  0
DICTIONARYVAR
  5
10ED
102
{ACAD_REACTORS
330
84B
102
}
330
84B
100
DictionaryVariables
280
     0
  1
0
  0
DICTIONARY
  5
10F1
330
9F4
100
AcDbDictionary
280
     1
281
     1
  3
ACAD_ROUNDTRIP_2008_TABLESTYLE_CELLSTYLEMAP
360
10F2
  0
CELLSTYLEMAP
  5
10F2
102
{ACAD_REACTORS
330
10F1
102
}
330
10F1
100
AcDbCellStyleMap
 90
        3
300
CELLSTYLE
  1
TABLEFORMAT_BEGIN
 90
        5
170
     1
 91
        0
 92
    32768
 62
   257
 93
        1
300
CONTENTFORMAT
  1
CONTENTFORMAT_BEGIN
 90
        0
 91
        0
 92
        4
 93
        0
300

 40
0.0
140
1.0
 94
        5
 62
     0
340
10
144
6.0
309
CONTENTFORMAT_END
171
     1
301
MARGIN
  1
CELLMARGIN_BEGIN
 40
1.5
 40
1.5
 40
1.5
 40
1.5
 40
1.5
 40
1.5
309
CELLMARGIN_END
 94
        6
 95
        1
302
GRIDFORMAT
  1
GRIDFORMAT_BEGIN
 90
        0
 91
        1
 62
     0
 92
       -2
340
13
 93
        0
 40
0.045
309
GRIDFORMAT_END
 95
        2
302
GRIDFORMAT
  1
GRIDFORMAT_BEGIN
 90
        0
 91
        1
 62
     0
 92
       -2
340
13
 93
        0
 40
0.045
309
GRIDFORMAT_END
 95
        4
302
GRIDFORMAT
  1
GRIDFORMAT_BEGIN
 90
        0
 91
        1
 62
     0
 92
       -2
340
13
 93
        0
 40
0.045
309
GRIDFORMAT_END
 95
        8
302
GRIDFORMAT
  1
GRIDFORMAT_BEGIN
 90
        0
 91
        1
 62
     0
 92
       -2
340
13
 93
        0
 40
0.045
309
GRIDFORMAT_END
 95
       16
302
GRIDFORMAT
  1
GRIDFORMAT_BEGIN
 90
        0
 91
        1
 62
     0
 92
       -2
340
13
 93
        0
 40
0.045
309
GRIDFORMAT_END
 95
       32
302
GRIDFORMAT
  1
GRIDFORMAT_BEGIN
 90
        0
 91
        1
 62
     0
 92
       -2
340
13
 93
        0
 40
0.045
309
GRIDFORMAT_END
309
TABLEFORMAT_END
  1
CELLSTYLE_BEGIN
 90
        1
 91
        1
300
_TITLE
309
CELLSTYLE_END
300
CELLSTYLE
  1
TABLEFORMAT_BEGIN
 90
        5
170
     1
 91
        0
 92
        0
 62
   257
 93
        1
300
CONTENTFORMAT
  1
CONTENTFORMAT_BEGIN
 90
        0
 91
        0
 92
        4
 93
        0
300

 40
0.0
140
1.0
 94
        5
 62
     0
340
10
144
4.5
309
CONTENTFORMAT_END
171
     1
301
MARGIN
  1
CELLMARGIN_BEGIN
 40
1.5
 40
1.5
 40
1.5
 40
1.5
 40
1.5
 40
1.5
309
CELLMARGIN_END
 94
        6
 95
        1
302
GRIDFORMAT
  1
GRIDFORMAT_BEGIN
 90
        0
 91
        1
 62
     0
 92
       -2
340
13
 93
        0
 40
0.045
309
GRIDFORMAT_END
 95
        2
302
GRIDFORMAT
  1
GRIDFORMAT_BEGIN
 90
        0
 91
        1
 62
     0
 92
       -2
340
13
 93
        0
 40
0.045
309
GRIDFORMAT_END
 95
        4
302
GRIDFORMAT
  1
GRIDFORMAT_BEGIN
 90
        0
 91
        1
 62
     0
 92
       -2
340
13
 93
        0
 40
0.045
309
GRIDFORMAT_END
 95
        8
302
GRIDFORMAT
  1
GRIDFORMAT_BEGIN
 90
        0
 91
        1
 62
     0
 92
       -2
340
13
 93
        0
 40
0.045
309
GRIDFORMAT_END
 95
       16
302
GRIDFORMAT
  1
GRIDFORMAT_BEGIN
 90
        0
 91
        1
 62
     0
 92
       -2
340
13
 93
        0
 40
0.045
309
GRIDFORMAT_END
 95
       32
302
GRIDFORMAT
  1
GRIDFORMAT_BEGIN
 90
        0
 91
        1
 62
     0
 92
       -2
340
13
 93
        0
 40
0.045
309
GRIDFORMAT_END
309
TABLEFORMAT_END
  1
CELLSTYLE_BEGIN
 90
        2
 91
        1
300
_HEADER
309
CELLSTYLE_END
300
CELLSTYLE
  1
TABLEFORMAT_BEGIN
 90
        5
170
     1
 91
        0
 92
        0
 62
   257
 93
        1
300
CONTENTFORMAT
  1
CONTENTFORMAT_BEGIN
 90
        0
 91
        0
 92
        4
 93
        0
300

 40
0.0
140
1.0
 94
        2
 62
     0
340
10
144
4.5
309
CONTENTFORMAT_END
171
     1
301
MARGIN
  1
CELLMARGIN_BEGIN
 40
1.5
 40
1.5
 40
1.5
 40
1.5
 40
1.5
 40
1.5
309
CELLMARGIN_END
 94
        6
 95
        1
302
GRIDFORMAT
  1
GRIDFORMAT_BEGIN
 90
        0
 91
        1
 62
     0
 92
       -2
340
13
 93
        0
 40
0.045
309
GRIDFORMAT_END
 95
        2
302
GRIDFORMAT
  1
GRIDFORMAT_BEGIN
 90
        0
 91
        1
 62
     0
 92
       -2
340
13
 93
        0
 40
0.045
309
GRIDFORMAT_END
 95
        4
302
GRIDFORMAT
  1
GRIDFORMAT_BEGIN
 90
        0
 91
        1
 62
     0
 92
       -2
340
13
 93
        0
 40
0.045
309
GRIDFORMAT_END
 95
        8
302
GRIDFORMAT
  1
GRIDFORMAT_BEGIN
 90
        0
 91
        1
 62
     0
 92
       -2
340
13
 93
        0
 40
0.045
309
GRIDFORMAT_END
 95
       16
302
GRIDFORMAT
  1
GRIDFORMAT_BEGIN
 90
        0
 91
        1
 62
     0
 92
       -2
340
13
 93
        0
 40
0.045
309
GRIDFORMAT_END
 95
       32
302
GRIDFORMAT
  1
GRIDFORMAT_BEGIN
 90
        0
 91
        1
 62
     0
 92
       -2
340
13
 93
        0
 40
0.045
309
GRIDFORMAT_END
309
TABLEFORMAT_END
  1
CELLSTYLE_BEGIN
 90
        3
 91
        2
300
_DATA
309
CELLSTYLE_END
  0
ENDSEC
  0
EOF
