  0
SECTION
  2
HEADER
  9
$ACADVER
  1
AC1021
  9
$ACADMAINTVER
 70
    25
  9
$DWGCODEPAGE
  3
ANSI_932
  9
$LASTSAVEDBY
  1
howeNelson
  9
$INSBASE
 10
0.0
 20
0.0
 30
0.0
  9
$EXTMIN
 10
0.0
 20
0.0
 30
0.0
  9
$EXTMAX
 10
296.9999999999999
 20
210.0
 30
0.0
  9
$LIMMIN
 10
0.0
 20
0.0
  9
$LIMMAX
 10
297.0
 20
210.0
  9
$ORTHOMODE
 70
     0
  9
$REGENMODE
 70
     1
  9
$FILLMODE
 70
     1
  9
$QTEXTMODE
 70
     0
  9
$MIRRTEXT
 70
     1
  9
$LTSCALE
 40
1.0
  9
$ATTMODE
 70
     1
  9
$TEXTSIZE
 40
2.5
  9
$TRACEWID
 40
0.05
  9
$TEXTSTYLE
  7
STYLE3
  9
$CLAYER
  8
寸法線
  9
$CELTYPE
  6
BYLAYER
  9
$CECOLOR
 62
   256
  9
$CELTSCALE
 40
6.0
  9
$DISPSILH
 70
     0
  9
$DIMSCALE
 40
1.0
  9
$DIMASZ
 40
2.0
  9
$DIMEXO
 40
0.0
  9
$DIMDLI
 40
10.0
  9
$DIMRND
 40
0.0
  9
$DIMDLE
 40
0.0
  9
$DIMEXE
 40
2.0
  9
$DIMTP
 40
0.0
  9
$DIMTM
 40
0.0
  9
$DIMTXT
 40
2.5
  9
$DIMCEN
 40
-5.0
  9
$DIMTSZ
 40
0.0
  9
$DIMTOL
 70
     0
  9
$DIMLIM
 70
     0
  9
$DIMTIH
 70
     0
  9
$DIMTOH
 70
     0
  9
$DIMSE1
 70
     0
  9
$DIMSE2
 70
     0
  9
$DIMTAD
 70
     1
  9
$DIMZIN
 70
     8
  9
$DIMBLK
  1

  9
$DIMASO
 70
     1
  9
$DIMSHO
 70
     1
  9
$DIMPOST
  1

  9
$DIMAPOST
  1

  9
$DIMALT
 70
     0
  9
$DIMALTD
 70
     2
  9
$DIMALTF
 40
0.03937
  9
$DIMLFAC
 40
1.0
  9
$DIMTOFL
 70
     1
  9
$DIMTVP
 40
0.0
  9
$DIMTIX
 70
     0
  9
$DIMSOXD
 70
     0
  9
$DIMSAH
 70
     1
  9
$DIMBLK1
  1
OPEN
  9
$DIMBLK2
  1
OPEN
  9
$DIMSTYLE
  2
ＧＰ寸法（1：1）
  9
$DIMCLRD
 70
   256
  9
$DIMCLRE
 70
   256
  9
$DIMCLRT
 70
   256
  9
$DIMTFAC
 40
1.0
  9
$DIMGAP
 40
0.625
  9
$DIMJUST
 70
     0
  9
$DIMSD1
 70
     0
  9
$DIMSD2
 70
     0
  9
$DIMTOLJ
 70
     1
  9
$DIMTZIN
 70
     8
  9
$DIMALTZ
 70
     0
  9
$DIMALTTZ
 70
     0
  9
$DIMUPT
 70
     0
  9
$DIMDEC
 70
     2
  9
$DIMTDEC
 70
     2
  9
$DIMALTU
 70
     2
  9
$DIMALTTD
 70
     2
  9
$DIMTXSTY
  7
STYLE1
  9
$DIMAUNIT
 70
     0
  9
$DIMADEC
 70
     0
  9
$DIMALTRND
 40
0.0
  9
$DIMAZIN
 70
     0
  9
$DIMDSEP
 70
    46
  9
$DIMATFIT
 70
     3
  9
$DIMFRAC
 70
     0
  9
$DIMLDRBLK
  1
Dot
  9
$DIMLUNIT
 70
     2
  9
$DIMLWD
 70
    -1
  9
$DIMLWE
 70
    -1
  9
$DIMTMOVE
 70
     0
  9
$DIMFXL
 40
1.0
  9
$DIMFXLON
 70
     0
  9
$DIMJOGANG
 40
0.7853981633974483
  9
$DIMTFILL
 70
     0
  9
$DIMTFILLCLR
 70
     0
  9
$DIMARCSYM
 70
     0
  9
$DIMLTYPE
  6

  9
$DIMLTEX1
  6

  9
$DIMLTEX2
  6

  9
$LUNITS
 70
     2
  9
$LUPREC
 70
     4
  9
$SKETCHINC
 40
0.1
  9
$FILLETRAD
 40
0.5
  9
$AUNITS
 70
     0
  9
$AUPREC
 70
     0
  9
$MENU
  1
acad
  9
$ELEVATION
 40
0.0
  9
$PELEVATION
 40
0.0
  9
$THICKNESS
 40
0.0
  9
$LIMCHECK
 70
     0
  9
$CHAMFERA
 40
10.0
  9
$CHAMFERB
 40
10.0
  9
$CHAMFERC
 40
20.0
  9
$CHAMFERD
 40
0.0
  9
$SKPOLY
 70
     0
  9
$TDCREATE
 40
2455126.823462732
  9
$TDUCREATE
 40
2455126.448462732
  9
$TDUPDATE
 40
2458501.572005926
  9
$TDUUPDATE
 40
2458501.197005926
  9
$TDINDWG
 40
0.0003346644
  9
$TDUSRTIMER
 40
0.000218912
  9
$USRTIMER
 70
     1
  9
$ANGBASE
 50
0.0
  9
$ANGDIR
 70
     0
  9
$PDMODE
 70
     0
  9
$PDSIZE
 40
0.0
  9
$PLINEWID
 40
0.0
  9
$SPLFRAME
 70
     0
  9
$SPLINETYPE
 70
     6
  9
$SPLINESEGS
 70
     8
  9
$HANDSEED
  5
F0C
  9
$SURFTAB1
 70
     6
  9
$SURFTAB2
 70
     6
  9
$SURFTYPE
 70
     6
  9
$SURFU
 70
     6
  9
$SURFV
 70
     6
  9
$UCSBASE
  2

  9
$UCSNAME
  2

  9
$UCSORG
 10
0.0
 20
0.0
 30
0.0
  9
$UCSXDIR
 10
1.0
 20
0.0
 30
0.0
  9
$UCSYDIR
 10
0.0
 20
1.0
 30
0.0
  9
$UCSORTHOREF
  2

  9
$UCSORTHOVIEW
 70
     0
  9
$UCSORGTOP
 10
0.0
 20
0.0
 30
0.0
  9
$UCSORGBOTTOM
 10
0.0
 20
0.0
 30
0.0
  9
$UCSORGLEFT
 10
0.0
 20
0.0
 30
0.0
  9
$UCSORGRIGHT
 10
0.0
 20
0.0
 30
0.0
  9
$UCSORGFRONT
 10
0.0
 20
0.0
 30
0.0
  9
$UCSORGBACK
 10
0.0
 20
0.0
 30
0.0
  9
$PUCSBASE
  2

  9
$PUCSNAME
  2

  9
$PUCSORG
 10
0.0
 20
0.0
 30
0.0
  9
$PUCSXDIR
 10
1.0
 20
0.0
 30
0.0
  9
$PUCSYDIR
 10
0.0
 20
1.0
 30
0.0
  9
$PUCSORTHOREF
  2

  9
$PUCSORTHOVIEW
 70
     0
  9
$PUCSORGTOP
 10
0.0
 20
0.0
 30
0.0
  9
$PUCSORGBOTTOM
 10
0.0
 20
0.0
 30
0.0
  9
$PUCSORGLEFT
 10
0.0
 20
0.0
 30
0.0
  9
$PUCSORGRIGHT
 10
0.0
 20
0.0
 30
0.0
  9
$PUCSORGFRONT
 10
0.0
 20
0.0
 30
0.0
  9
$PUCSORGBACK
 10
0.0
 20
0.0
 30
0.0
  9
$USERI1
 70
     0
  9
$USERI2
 70
     0
  9
$USERI3
 70
     0
  9
$USERI4
 70
     0
  9
$USERI5
 70
     0
  9
$USERR1
 40
0.0
  9
$USERR2
 40
0.0
  9
$USERR3
 40
0.0
  9
$USERR4
 40
0.0
  9
$USERR5
 40
0.0
  9
$WORLDVIEW
 70
     1
  9
$SHADEDGE
 70
     3
  9
$SHADEDIF
 70
    70
  9
$TILEMODE
 70
     1
  9
$MAXACTVP
 70
    16
  9
$PINSBASE
 10
0.0
 20
0.0
 30
0.0
  9
$PLIMCHECK
 70
     0
  9
$PEXTMIN
 10
-0.015667337610239
 20
-0.8386533574724808
 30
-0.0000610323622112
  9
$PEXTMAX
 10
198.940981211386
 20
285.2452901313876
 30
1.000061041675721
  9
$PLIMMIN
 10
-4.992388058149174
 20
-5.996096078054734
  9
$PLIMMAX
 10
205.0232827182179
 20
291.0145545567109
  9
$UNITMODE
 70
     0
  9
$VISRETAIN
 70
     0
  9
$PLINEGEN
 70
     0
  9
$PSLTSCALE
 70
     1
  9
$TREEDEPTH
 70
  3020
  9
$CMLSTYLE
  2
STANDARD
  9
$CMLJUST
 70
     0
  9
$CMLSCALE
 40
20.0
  9
$PROXYGRAPHICS
 70
     1
  9
$MEASUREMENT
 70
     1
  9
$CELWEIGHT
370
    -1
  9
$ENDCAPS
280
     0
  9
$JOINSTYLE
280
     0
  9
$LWDISPLAY
290
     0
  9
$INSUNITS
 70
     0
  9
$HYPERLINKBASE
  1

  9
$STYLESHEET
  1

  9
$XEDIT
290
     1
  9
$CEPSNTYPE
380
     0
  9
$PSTYLEMODE
290
     1
  9
$FINGERPRINTGUID
  2
{EE220400-621C-11D4-9DC4-004005369732}
  9
$VERSIONGUID
  2
{844B70D0-0155-409F-A32F-DDB81AE7C42A}
  9
$EXTNAMES
290
     1
  9
$PSVPSCALE
 40
0.0
  9
$OLESTARTUP
290
     0
  9
$SORTENTS
280
   127
  9
$INDEXCTL
280
     0
  9
$HIDETEXT
280
     1
  9
$XCLIPFRAME
290
     0
  9
$HALOGAP
280
     0
  9
$OBSCOLOR
 70
   257
  9
$OBSLTYPE
280
     0
  9
$INTERSECTIONDISPLAY
280
     0
  9
$INTERSECTIONCOLOR
 70
   257
  9
$DIMASSOC
280
     2
  9
$PROJECTNAME
  1

  9
$CAMERADISPLAY
290
     0
  9
$LENSLENGTH
 40
50.0
  9
$CAMERAHEIGHT
 40
0.0
  9
$STEPSPERSEC
 40
2.0
  9
$STEPSIZE
 40
6.0
  9
$3DDWFPREC
 40
2.0
  9
$PSOLWIDTH
 40
0.25
  9
$PSOLHEIGHT
 40
4.0
  9
$LOFTANG1
 40
1.570796326794897
  9
$LOFTANG2
 40
1.570796326794897
  9
$LOFTMAG1
 40
0.0
  9
$LOFTMAG2
 40
0.0
  9
$LOFTPARAM
 70
     7
  9
$LOFTNORMALS
280
     1
  9
$LATITUDE
 40
37.795
  9
$LONGITUDE
 40
-122.394
  9
$NORTHDIRECTION
 40
0.0
  9
$TIMEZONE
 70
 -8000
  9
$LIGHTGLYPHDISPLAY
280
     1
  9
$TILEMODELIGHTSYNCH
280
     1
  9
$SOLIDHIST
280
     0
  9
$SHOWHIST
280
     1
  9
$DWFFRAME
280
     2
  9
$DGNFRAME
280
     2
  9
$REALWORLDSCALE
290
     1
  9
$INTERFERECOLOR
 62
   256
  9
$CSHADOW
280
     0
  9
$SHADOWPLANELOCATION
 40
0.0
  0
ENDSEC
  0
SECTION
  2
CLASSES
  0
CLASS
  1
ACDBDICTIONARYWDFLT
  2
AcDbDictionaryWithDefault
  3
ObjectDBX Classes
 90
        0
 91
        9
280
     0
281
     0
  0
CLASS
  1
ACDBPLACEHOLDER
  2
AcDbPlaceHolder
  3
ObjectDBX Classes
 90
        0
 91
        1
280
     0
281
     0
  0
CLASS
  1
LAYOUT
  2
AcDbLayout
  3
ObjectDBX Classes
 90
        0
 91
        1
280
     0
281
     0
  0
CLASS
  1
SCALE
  2
AcDbScale
  3
ObjectDBX Classes
 90
     1153
 91
        9
280
     0
281
     0
  0
CLASS
  1
VISUALSTYLE
  2
AcDbVisualStyle
  3
ObjectDBX Classes
 90
     4095
 91
        9
280
     0
281
     0
  0
CLASS
  1
MATERIAL
  2
AcDbMaterial
  3
ObjectDBX Classes
 90
     1153
 91
        9
280
     0
281
     0
  0
CLASS
  1
TABLESTYLE
  2
AcDbTableStyle
  3
ObjectDBX Classes
 90
     4095
 91
        9
280
     0
281
     0
  0
CLASS
  1
MLEADERSTYLE
  2
AcDbMLeaderStyle
  3
ACDB_MLEADERSTYLE_CLASS
 90
     4095
 91
        9
280
     0
281
     0
  0
CLASS
  1
FIELD
  2
AcDbField
  3
ObjectDBX Classes
 90
     1152
 91
        9
280
     0
281
     0
  0
CLASS
  1
FIELDLIST
  2
AcDbFieldList
  3
ObjectDBX Classes
 90
     1152
 91
        9
280
     0
281
     0
  0
CLASS
  1
DICTIONARYVAR
  2
AcDbDictionaryVar
  3
ObjectDBX Classes
 90
        0
 91
        9
280
     0
281
     0
  0
CLASS
  1
SORTENTSTABLE
  2
AcDbSortentsTable
  3
ObjectDBX Classes
 90
        0
 91
        9
280
     0
281
     0
  0
CLASS
  1
DIMASSOC
  2
AcDbDimAssoc
  3
"AcDbDimAssoc|Product Desc:     AcDim ARX App For Dimension|Company:          Autodesk, Inc.|WEB Address:      www.autodesk.com"
 90
        0
 91
        9
280
     0
281
     0
  0
CLASS
  1
CELLSTYLEMAP
  2
AcDbCellStyleMap
  3
ObjectDBX Classes
 90
     1152
 91
        8
280
     0
281
     0
  0
CLASS
  1
SUN
  2
AcDbSun
  3
SCENEOE
 90
     1153
 91
        8
280
     0
281
     0
  0
ENDSEC
  0
SECTION
  2
TABLES
  0
TABLE
  2
VPORT
  5
8
330
0
100
AcDbSymbolTable
 70
     1
  0
VPORT
  5
6AC
330
8
100
AcDbSymbolTableRecord
100
AcDbViewportTableRecord
  2
*Active
 70
     0
 10
0.0
 20
0.0
 11
1.0
 21
1.0
 12
148.4999999999999
 22
105.0
 13
0.0
 23
0.0
 14
10.0
 24
10.0
 15
10.0
 25
10.0
 16
0.0
 26
0.0
 36
1.0
 17
0.0
 27
0.0
 37
0.0
 40
214.2
 41
2.351550960118169
 42
50.0
 43
0.0
 44
0.0
 50
0.0
 51
0.0
 71
    16
 72
   100
 73
     1
 74
     0
 75
     0
 76
     0
 77
     0
 78
     0
281
     0
 65
     1
110
0.0
120
0.0
130
0.0
111
1.0
121
0.0
131
0.0
112
0.0
122
1.0
132
0.0
 79
     0
146
0.0
348
85A
 60
     3
 61
     5
292
     1
282
     1
141
0.0
142
0.0
 63
   250
361
EC7
  0
ENDTAB
  0
TABLE
  2
LTYPE
  5
5
330
0
100
AcDbSymbolTable
 70
     6
  0
LTYPE
  5
13
330
5
100
AcDbSymbolTableRecord
100
AcDbLinetypeTableRecord
  2
BYBLOCK
 70
     0
  3

 72
    65
 73
     0
 40
0.0
  0
LTYPE
  5
14
330
5
100
AcDbSymbolTableRecord
100
AcDbLinetypeTableRecord
  2
BYLAYER
 70
     0
  3

 72
    65
 73
     0
 40
0.0
  0
LTYPE
  5
15
330
5
100
AcDbSymbolTableRecord
100
AcDbLinetypeTableRecord
  2
CONTINUOUS
 70
     0
  3
Solid line
 72
    65
 73
     0
 40
0.0
  0
LTYPE
  5
97
330
5
100
AcDbSymbolTableRecord
100
AcDbLinetypeTableRecord
  2
PHANTOM2
 70
     0
  3
___ _ _ ___ _ _ ___ _ _ ___ _ _ ___ _ _ ___ _ _
 72
    65
 73
     6
 40
1.25
 49
0.625
 74
     0
 49
-0.125
 74
     0
 49
0.125
 74
     0
 49
-0.125
 74
     0
 49
0.125
 74
     0
 49
-0.125
 74
     0
  0
LTYPE
  5
98
330
5
100
AcDbSymbolTableRecord
100
AcDbLinetypeTableRecord
  2
CENTER2
 70
     0
  3
___ _ ___ _ ___ _ ___ _ ___ _ ___ _ ___ _ ___ _
 72
    65
 73
     4
 40
1.125
 49
0.75
 74
     0
 49
-0.125
 74
     0
 49
0.125
 74
     0
 49
-0.125
 74
     0
  0
LTYPE
  5
99
330
5
100
AcDbSymbolTableRecord
100
AcDbLinetypeTableRecord
  2
DASHED2
 70
     0
  3
_ _ _ _ _ _ _ _ _ _ _ _ _ _ _ _ _ _ _ _ _ _ _ _
 72
    65
 73
     2
 40
0.375
 49
0.25
 74
     0
 49
-0.125
 74
     0
  0
LTYPE
  5
7A7
330
5
100
AcDbSymbolTableRecord
100
AcDbLinetypeTableRecord
  2
HIDDEN
 70
     0
  3
Hidden __ __ __ __ __ __ __ __ __ __ __ __ __ __
 72
    65
 73
     2
 40
1.905
 49
1.27
 74
     0
 49
-0.635
 74
     0
  0
LTYPE
  5
87F
330
5
100
AcDbSymbolTableRecord
100
AcDbLinetypeTableRecord
  2
BORDER
 70
     0
  3
Border __  __  . __  __  . __  __  . __  __  . 
 72
    65
 73
     6
 40
44.45
 49
12.7
 74
     0
 49
-6.35
 74
     0
 49
12.7
 74
     0
 49
-6.35
 74
     0
 49
0.0
 74
     0
 49
-6.35
 74
     0
  0
ENDTAB
  0
TABLE
  2
LAYER
  5
2
102
{ACAD_XDICTIONARY
360
775
102
}
330
0
100
AcDbSymbolTable
 70
    19
  0
LAYER
  5
F
330
2
100
AcDbSymbolTableRecord
100
AcDbLayerTableRecord
  2
0
 70
     0
 62
     7
  6
CONTINUOUS
370
    -3
390
1CA
347
871
  0
LAYER
  5
9A
330
2
100
AcDbSymbolTableRecord
100
AcDbLayerTableRecord
  2
DEFPOINTS
 70
     0
 62
     7
  6
CONTINUOUS
290
     0
370
    -3
390
1CA
347
871
  0
LAYER
  5
9B
330
2
100
AcDbSymbolTableRecord
100
AcDbLayerTableRecord
  2
実線
 70
     0
 62
     7
  6
CONTINUOUS
370
    -3
390
1CA
347
871
  0
LAYER
  5
9C
330
2
100
AcDbSymbolTableRecord
100
AcDbLayerTableRecord
  2
破線
 70
     0
 62
     7
  6
DASHED2
370
    -3
390
1CA
347
871
  0
LAYER
  5
9D
330
2
100
AcDbSymbolTableRecord
100
AcDbLayerTableRecord
  2
寸法線
 70
     0
 62
     1
  6
CONTINUOUS
370
    -3
390
1CA
347
871
  0
LAYER
  5
9E
330
2
100
AcDbSymbolTableRecord
100
AcDbLayerTableRecord
  2
中心線
 70
     0
 62
     5
  6
CENTER2
370
    -3
390
1CA
347
871
  0
LAYER
  5
9F
330
2
100
AcDbSymbolTableRecord
100
AcDbLayerTableRecord
  2
想像線
 70
     0
 62
     3
  6
PHANTOM2
370
    -3
390
1CA
347
871
  0
LAYER
  5
A0
330
2
100
AcDbSymbolTableRecord
100
AcDbLayerTableRecord
  2
細線
 70
     0
 62
     6
  6
CONTINUOUS
370
    -3
390
1CA
347
871
  0
LAYER
  5
A1
330
2
100
AcDbSymbolTableRecord
100
AcDbLayerTableRecord
  2
枠線
 70
     0
 62
    19
  6
CONTINUOUS
370
    -3
390
1CA
347
871
  0
LAYER
  5
7A1
330
2
100
AcDbSymbolTableRecord
100
AcDbLayerTableRecord
  2
レイヤー 1
 70
     0
 62
     7
  6
CONTINUOUS
370
    -3
390
1CA
347
871
  0
LAYER
  5
7A2
330
2
100
AcDbSymbolTableRecord
100
AcDbLayerTableRecord
  2
寸法
 70
     0
 62
     7
  6
CONTINUOUS
370
    13
390
1CA
347
871
1001
AcAecLayerStandard
1000

1000

  0
LAYER
  5
7A4
330
2
100
AcDbSymbolTableRecord
100
AcDbLayerTableRecord
  2
テンプレート
 70
     0
 62
     7
  6
CONTINUOUS
370
    20
390
1CA
347
871
1001
AcAecLayerStandard
1000

1000

  0
LAYER
  5
7A5
330
2
100
AcDbSymbolTableRecord
100
AcDbLayerTableRecord
  2
TFORMLOGO
 70
     0
 62
     7
  6
CONTINUOUS
370
    20
390
1CA
347
871
  0
LAYER
  5
7A6
330
2
100
AcDbSymbolTableRecord
100
AcDbLayerTableRecord
  2
PRINT BORDER
 70
     0
 62
     4
  6
CONTINUOUS
290
     0
370
    -3
390
1CA
347
871
1001
AcAecLayerStandard
1000

1000

  0
LAYER
  5
877
330
2
100
AcDbSymbolTableRecord
100
AcDbLayerTableRecord
  2
TEMPLATE
 70
     0
 62
     7
  6
CONTINUOUS
370
    20
390
1CA
347
871
  0
LAYER
  5
879
330
2
100
AcDbSymbolTableRecord
100
AcDbLayerTableRecord
  2
DIM
 70
     0
 62
     3
  6
CONTINUOUS
370
    13
390
1CA
347
871
  0
LAYER
  5
87A
330
2
100
AcDbSymbolTableRecord
100
AcDbLayerTableRecord
  2
MODEL
 70
     0
 62
     7
  6
CONTINUOUS
370
    20
390
1CA
347
871
  0
LAYER
  5
87B
330
2
100
AcDbSymbolTableRecord
100
AcDbLayerTableRecord
  2
HIDDEN
 70
     0
 62
     8
  6
HIDDEN
370
    20
390
1CA
347
871
1001
AcAecLayerStandard
1000

1000

  0
LAYER
  5
87E
330
2
100
AcDbSymbolTableRecord
100
AcDbLayerTableRecord
  2
BORDER
 70
     0
 62
     4
  6
BORDER
290
     0
370
    20
390
1CA
347
871
1001
AcAecLayerStandard
1000

1000

  0
ENDTAB
  0
TABLE
  2
STYLE
  5
3
330
0
100
AcDbSymbolTable
 70
     4
  0
STYLE
  5
10
330
3
100
AcDbSymbolTableRecord
100
AcDbTextStyleTableRecord
  2
STANDARD
 70
     0
 40
0.0
 41
1.0
 50
0.0
 71
     0
 42
3.5
  3
txt
  4

  0
STYLE
  5
A2
330
3
100
AcDbSymbolTableRecord
100
AcDbTextStyleTableRecord
  2
STYLE1
 70
     0
 40
2.5
 41
0.9
 50
0.0
 71
     0
 42
2.5
  3
romans.shx
  4
bigfont.shx
  0
STYLE
  5
A3
330
3
100
AcDbSymbolTableRecord
100
AcDbTextStyleTableRecord
  2
STYLE3
 70
     0
 40
2.5
 41
0.9
 50
0.0
 71
     0
 42
2.5
  3
Msgothi1.ttf
  4
bigfont.shx
  0
STYLE
  5
7B7
330
3
100
AcDbSymbolTableRecord
100
AcDbTextStyleTableRecord
  2
ＭＳ ゴシック
 70
     0
 40
0.0
 41
1.0
 50
0.0
 71
     0
 42
2.5
  3
msgothic.ttc
  4
ＭＳ ゴシック
1001
ACAD
1000
ＭＳ ゴシック
1071
        0
  0
ENDTAB
  0
TABLE
  2
VIEW
  5
6
330
0
100
AcDbSymbolTable
 70
     0
  0
ENDTAB
  0
TABLE
  2
UCS
  5
7
330
0
100
AcDbSymbolTable
 70
     0
  0
ENDTAB
  0
TABLE
  2
APPID
  5
9
330
0
100
AcDbSymbolTable
 70
     3
  0
APPID
  5
11
330
9
100
AcDbSymbolTableRecord
100
AcDbRegAppTableRecord
  2
ACAD
 70
     0
  0
APPID
  5
7A3
330
9
100
AcDbSymbolTableRecord
100
AcDbRegAppTableRecord
  2
AcAecLayerStandard
 70
     0
  0
APPID
  5
EC5
330
9
100
AcDbSymbolTableRecord
100
AcDbRegAppTableRecord
  2
ACAD_MLEADERVER
 70
     0
  0
ENDTAB
  0
TABLE
  2
DIMSTYLE
  5
A
330
0
100
AcDbSymbolTable
 70
    11
100
AcDbDimStyleTable
  0
DIMSTYLE
105
3A0
102
{ACAD_REACTORS
102
}
330
A
100
AcDbSymbolTableRecord
100
AcDbDimStyleTableRecord
  2
ＧＰ寸法（1：1）
 70
     0
 41
2.0
 42
0.0
 43
10.0
 44
2.0
 73
     0
 74
     0
 77
     1
 78
     8
140
2.5
141
-5.0
143
0.03937
147
0.625
172
     1
173
     1
176
   256
177
   256
271
     2
178
   256
271
     2
272
     2
284
     8
340
A2
341
393
343
19E
344
19E
371
    -1
372
    -1
  0
DIMSTYLE
105
3A1
330
A
100
AcDbSymbolTableRecord
100
AcDbDimStyleTableRecord
  2
ＧＰ寸法（1：1）$7
 70
     0
 41
1.0
 42
0.0
 43
10.0
 44
2.0
 73
     0
 74
     0
 77
     1
 78
     8
140
2.5
141
-5.0
143
0.03937
147
0.625
172
     1
173
     1
176
   256
177
   256
271
     2
178
   256
271
     2
272
     2
284
     8
340
A3
341
393
343
19E
344
19E
371
    -1
372
    -1
  0
DIMSTYLE
105
3A5
330
A
100
AcDbSymbolTableRecord
100
AcDbDimStyleTableRecord
  2
ＧＰ寸法（1：1）$3
 70
     0
 41
2.0
 42
0.0
 43
10.0
 44
2.0
 77
     1
 78
     8
140
2.5
141
0.0
143
0.03937
147
0.625
173
     1
176
   256
177
   256
271
     2
178
   256
271
     2
272
     2
284
     8
288
     1
289
     2
340
A2
341
393
343
19E
344
19E
371
    -1
372
    -1
  0
DIMSTYLE
105
3A6
330
A
100
AcDbSymbolTableRecord
100
AcDbDimStyleTableRecord
  2
ＧＰ寸法（1：1）$4
 70
     0
 41
2.0
 42
0.0
 43
10.0
 44
2.0
 77
     1
 78
     8
140
2.5
141
0.0
143
0.03937
147
0.625
173
     1
176
   256
177
   256
271
     2
178
   256
271
     2
272
     2
284
     8
340
A2
341
393
343
19E
344
19E
371
    -1
372
    -1
  0
DIMSTYLE
105
3D3
330
A
100
AcDbSymbolTableRecord
100
AcDbDimStyleTableRecord
  2
ＧＰ寸法（1：1）$2
 70
     0
 41
2.0
 42
0.0
 43
10.0
 44
2.0
 73
     0
 74
     0
 77
     1
 78
     8
140
2.5
141
-5.0
143
0.03937
147
0.625
172
     1
173
     1
176
   256
177
   256
271
     2
178
   256
271
     2
272
     2
284
     8
340
A2
341
393
343
19E
344
19E
371
    -1
372
    -1
  0
DIMSTYLE
105
483
330
A
100
AcDbSymbolTableRecord
100
AcDbDimStyleTableRecord
  2
ＧＰ寸法（1：2）
 70
     0
 40
0.5
 41
2.0
 42
0.0
 43
10.0
 44
2.0
 73
     0
 74
     0
 77
     1
 78
     8
140
1.25
141
-5.0
143
0.03937
147
0.625
172
     1
173
     1
176
   256
177
   256
271
     2
178
   256
271
     2
272
     2
284
     8
340
A2
341
393
343
19E
344
19E
371
    -1
372
    -1
  0
DIMSTYLE
105
4CF
330
A
100
AcDbSymbolTableRecord
100
AcDbDimStyleTableRecord
  2
ＧＰ寸法（1：2）$7
 70
     0
 40
0.5
 41
1.0
 42
0.0
 43
10.0
 44
2.0
 73
     0
 74
     0
 77
     1
 78
     8
140
1.25
141
-5.0
143
0.03937
147
0.625
172
     1
173
     1
176
   256
177
   256
271
     2
178
   256
271
     2
272
     2
284
     8
340
A3
341
393
343
19E
344
19E
371
    -1
372
    -1
  0
DIMSTYLE
105
4D0
330
A
100
AcDbSymbolTableRecord
100
AcDbDimStyleTableRecord
  2
ＧＰ寸法（1：2）$2
 70
     0
 40
0.5
 41
2.0
 42
0.0
 43
10.0
 44
2.0
 73
     0
 74
     0
 77
     1
 78
     8
140
1.25
141
-5.0
143
0.03937
147
0.625
172
     1
173
     1
176
   256
177
   256
271
     2
178
   256
271
     2
272
     2
284
     8
340
A2
341
393
343
19E
344
19E
371
    -1
372
    -1
  0
DIMSTYLE
105
4D1
330
A
100
AcDbSymbolTableRecord
100
AcDbDimStyleTableRecord
  2
ＧＰ寸法（1：2）$4
 70
     0
 40
0.5
 41
2.0
 42
0.0
 43
10.0
 44
2.0
 77
     1
 78
     8
140
1.25
141
0.0
143
0.03937
147
0.625
173
     1
176
   256
177
   256
271
     2
178
   256
271
     2
272
     2
284
     8
340
A2
341
393
343
19E
344
19E
371
    -1
372
    -1
  0
DIMSTYLE
105
4D2
330
A
100
AcDbSymbolTableRecord
100
AcDbDimStyleTableRecord
  2
ＧＰ寸法（1：2）$3
 70
     0
 40
0.5
 41
2.0
 42
0.0
 43
10.0
 44
2.0
 77
     1
 78
     8
140
1.25
141
0.0
143
0.03937
147
0.625
173
     1
176
   256
177
   256
271
     2
178
   256
271
     2
272
     2
284
     8
288
     1
289
     2
340
A2
341
393
343
19E
344
19E
371
    -1
372
    -1
  0
DIMSTYLE
105
880
102
{ACAD_REACTORS
330
E4E
330
E4F
330
E87
102
}
330
A
100
AcDbSymbolTableRecord
100
AcDbDimStyleTableRecord
  2
tfrom線あり
 70
     0
  3
<>
  4
[]
 41
1.0
 42
2.0
 43
0.9999999999999999
 44
0.0
 73
     0
 74
     0
 77
     1
 78
    11
140
3.0
141
0.0
143
1.0
147
1.0
171
     1
174
     1
178
     0
179
     2
271
     0
272
     1
276
     2
284
    11
285
    11
286
    11
289
     0
340
7B7
341
393
342
393
  0
ENDTAB
  0
TABLE
  2
BLOCK_RECORD
  5
1
330
0
100
AcDbSymbolTable
 70
    50
  0
BLOCK_RECORD
  5
19
330
1
100
AcDbSymbolTableRecord
100
AcDbBlockTableRecord
  2
*MODEL_SPACE
340
1CD
 70
     0
280
     1
281
     0
  0
BLOCK_RECORD
  5
16
330
1
100
AcDbSymbolTableRecord
100
AcDbBlockTableRecord
  2
*PAPER_SPACE
340
1CE
 70
     0
280
     1
281
     0
  0
BLOCK_RECORD
  5
23
330
1
100
AcDbSymbolTableRecord
100
AcDbBlockTableRecord
  2
A$C9381
340
0
102
{BLKREFS
331
C1
102
}
 70
     0
280
     1
281
     0
  0
BLOCK_RECORD
  5
52
330
1
100
AcDbSymbolTableRecord
100
AcDbBlockTableRecord
  2
A$CA221
340
0
102
{BLKREFS
331
B9
102
}
 70
     0
280
     1
281
     0
  0
BLOCK_RECORD
  5
61
330
1
100
AcDbSymbolTableRecord
100
AcDbBlockTableRecord
  2
A$CB311
340
0
102
{BLKREFS
331
A6
102
}
 70
     0
280
     1
281
     0
  0
BLOCK_RECORD
  5
8A
330
1
100
AcDbSymbolTableRecord
100
AcDbBlockTableRecord
  2
A$CA1A2
340
0
102
{BLKREFS
331
A5
102
}
 70
     0
280
     1
281
     0
  0
BLOCK_RECORD
  5
A4
330
1
100
AcDbSymbolTableRecord
100
AcDbBlockTableRecord
  2
A$CB131
340
0
 70
     0
280
     1
281
     0
  0
BLOCK_RECORD
  5
19E
330
1
100
AcDbSymbolTableRecord
100
AcDbBlockTableRecord
  2
_OPEN
340
0
102
{BLKREFS
331
9EF
331
9F0
331
A23
331
A24
331
A3C
331
A3D
331
AFD
331
AFE
331
B32
331
B33
331
B4B
331
B4C
331
BFD
331
BFE
331
C35
331
C36
331
C4E
331
C4F
331
D06
331
D07
331
D14
331
D15
331
D4D
331
D4E
331
DF3
331
DF4
331
E00
331
E01
331
E44
331
E45
102
}
 70
     0
280
     1
281
     0
  0
BLOCK_RECORD
  5
393
330
1
100
AcDbSymbolTableRecord
100
AcDbBlockTableRecord
  2
_Dot
340
0
102
{BLKREFS
331
69D
331
69E
331
6A6
331
6A7
331
679
331
67A
331
8E6
331
8E7
331
8F5
331
8F6
331
945
331
946
331
951
331
952
331
A85
331
A86
331
A91
331
A92
331
A9D
331
A9E
331
B95
331
B96
331
BA1
331
BA2
331
BAD
331
BAE
331
C98
331
C99
331
CA4
331
CA5
331
CB0
331
CB1
331
D8F
331
D90
331
D9B
331
D9C
331
DA7
331
DA8
331
E8E
331
E8F
331
E9A
331
E9B
331
EA6
331
EA7
102
}
 70
     0
280
     1
281
     0
  0
BLOCK_RECORD
  5
5BB
330
1
100
AcDbSymbolTableRecord
100
AcDbBlockTableRecord
  2
*D7
340
0
 70
     0
280
     1
281
     0
  0
BLOCK_RECORD
  5
5FE
330
1
100
AcDbSymbolTableRecord
100
AcDbBlockTableRecord
  2
*D8
340
0
 70
     0
280
     1
281
     0
  0
BLOCK_RECORD
  5
627
330
1
100
AcDbSymbolTableRecord
100
AcDbBlockTableRecord
  2
*D9
340
0
 70
     0
280
     1
281
     0
  0
BLOCK_RECORD
  5
7E8
330
1
100
AcDbSymbolTableRecord
100
AcDbBlockTableRecord
  2
名称未設定-1
340
0
102
{BLKREFS
331
837
102
}
 70
     0
280
     1
281
     0
  0
BLOCK_RECORD
  5
7EB
330
1
100
AcDbSymbolTableRecord
100
AcDbBlockTableRecord
  2
block 2
340
0
102
{BLKREFS
331
7EA
102
}
 70
     0
280
     1
281
     0
  0
BLOCK_RECORD
  5
7EE
330
1
100
AcDbSymbolTableRecord
100
AcDbBlockTableRecord
  2
block 3
340
0
102
{BLKREFS
331
7ED
102
}
 70
     0
280
     1
281
     0
  0
BLOCK_RECORD
  5
7F1
330
1
100
AcDbSymbolTableRecord
100
AcDbBlockTableRecord
  2
block 4
340
0
102
{BLKREFS
331
7F0
102
}
 70
     0
280
     1
281
     0
  0
BLOCK_RECORD
  5
800
330
1
100
AcDbSymbolTableRecord
100
AcDbBlockTableRecord
  2
block 5
340
0
102
{BLKREFS
331
7FF
102
}
 70
     0
280
     1
281
     0
  0
BLOCK_RECORD
  5
8E1
330
1
100
AcDbSymbolTableRecord
100
AcDbBlockTableRecord
  2
*D15
340
0
 70
     0
280
     1
281
     0
  0
BLOCK_RECORD
  5
8F0
330
1
100
AcDbSymbolTableRecord
100
AcDbBlockTableRecord
  2
*D16
340
0
 70
     0
280
     1
281
     0
  0
BLOCK_RECORD
  5
93F
330
1
100
AcDbSymbolTableRecord
100
AcDbBlockTableRecord
  2
*D17
340
0
 70
     0
280
     1
281
     0
  0
BLOCK_RECORD
  5
94B
330
1
100
AcDbSymbolTableRecord
100
AcDbBlockTableRecord
  2
*D18
340
0
 70
     0
280
     1
281
     0
  0
BLOCK_RECORD
  5
9EA
330
1
100
AcDbSymbolTableRecord
100
AcDbBlockTableRecord
  2
*D19
340
0
 70
     0
280
     1
281
     0
  0
BLOCK_RECORD
  5
A1E
330
1
100
AcDbSymbolTableRecord
100
AcDbBlockTableRecord
  2
*D20
340
0
 70
     0
280
     1
281
     0
  0
BLOCK_RECORD
  5
A37
330
1
100
AcDbSymbolTableRecord
100
AcDbBlockTableRecord
  2
*D21
340
0
 70
     0
280
     1
281
     0
  0
BLOCK_RECORD
  5
A7F
330
1
100
AcDbSymbolTableRecord
100
AcDbBlockTableRecord
  2
*D22
340
0
 70
     0
280
     1
281
     0
  0
BLOCK_RECORD
  5
A8B
330
1
100
AcDbSymbolTableRecord
100
AcDbBlockTableRecord
  2
*D23
340
0
 70
     0
280
     1
281
     0
  0
BLOCK_RECORD
  5
A97
330
1
100
AcDbSymbolTableRecord
100
AcDbBlockTableRecord
  2
*D24
340
0
 70
     0
280
     1
281
     0
  0
BLOCK_RECORD
  5
AF8
330
1
100
AcDbSymbolTableRecord
100
AcDbBlockTableRecord
  2
*D25
340
0
 70
     0
280
     1
281
     0
  0
BLOCK_RECORD
  5
B2D
330
1
100
AcDbSymbolTableRecord
100
AcDbBlockTableRecord
  2
*D26
340
0
 70
     0
280
     1
281
     0
  0
BLOCK_RECORD
  5
B46
330
1
100
AcDbSymbolTableRecord
100
AcDbBlockTableRecord
  2
*D27
340
0
 70
     0
280
     1
281
     0
  0
BLOCK_RECORD
  5
B8F
330
1
100
AcDbSymbolTableRecord
100
AcDbBlockTableRecord
  2
*D28
340
0
 70
     0
280
     1
281
     0
  0
BLOCK_RECORD
  5
B9B
330
1
100
AcDbSymbolTableRecord
100
AcDbBlockTableRecord
  2
*D29
340
0
 70
     0
280
     1
281
     0
  0
BLOCK_RECORD
  5
BA7
330
1
100
AcDbSymbolTableRecord
100
AcDbBlockTableRecord
  2
*D30
340
0
 70
     0
280
     1
281
     0
  0
BLOCK_RECORD
  5
BF8
330
1
100
AcDbSymbolTableRecord
100
AcDbBlockTableRecord
  2
*D31
340
0
 70
     0
280
     1
281
     0
  0
BLOCK_RECORD
  5
C30
330
1
100
AcDbSymbolTableRecord
100
AcDbBlockTableRecord
  2
*D32
340
0
 70
     0
280
     1
281
     0
  0
BLOCK_RECORD
  5
C49
330
1
100
AcDbSymbolTableRecord
100
AcDbBlockTableRecord
  2
*D33
340
0
 70
     0
280
     1
281
     0
  0
BLOCK_RECORD
  5
C92
330
1
100
AcDbSymbolTableRecord
100
AcDbBlockTableRecord
  2
*D34
340
0
 70
     0
280
     1
281
     0
  0
BLOCK_RECORD
  5
C9E
330
1
100
AcDbSymbolTableRecord
100
AcDbBlockTableRecord
  2
*D35
340
0
 70
     0
280
     1
281
     0
  0
BLOCK_RECORD
  5
CAA
330
1
100
AcDbSymbolTableRecord
100
AcDbBlockTableRecord
  2
*D36
340
0
 70
     0
280
     1
281
     0
  0
BLOCK_RECORD
  5
D01
330
1
100
AcDbSymbolTableRecord
100
AcDbBlockTableRecord
  2
*D37
340
0
 70
     0
280
     1
281
     0
  0
BLOCK_RECORD
  5
D0F
330
1
100
AcDbSymbolTableRecord
100
AcDbBlockTableRecord
  2
*D38
340
0
 70
     0
280
     1
281
     0
  0
BLOCK_RECORD
  5
D48
330
1
100
AcDbSymbolTableRecord
100
AcDbBlockTableRecord
  2
*D39
340
0
 70
     0
280
     1
281
     0
  0
BLOCK_RECORD
  5
D89
330
1
100
AcDbSymbolTableRecord
100
AcDbBlockTableRecord
  2
*D40
340
0
 70
     0
280
     1
281
     0
  0
BLOCK_RECORD
  5
D95
330
1
100
AcDbSymbolTableRecord
100
AcDbBlockTableRecord
  2
*D41
340
0
 70
     0
280
     1
281
     0
  0
BLOCK_RECORD
  5
DA1
330
1
100
AcDbSymbolTableRecord
100
AcDbBlockTableRecord
  2
*D42
340
0
 70
     0
280
     1
281
     0
  0
BLOCK_RECORD
  5
DEE
330
1
100
AcDbSymbolTableRecord
100
AcDbBlockTableRecord
  2
*D43
340
0
 70
     0
280
     1
281
     0
  0
BLOCK_RECORD
  5
DFB
330
1
100
AcDbSymbolTableRecord
100
AcDbBlockTableRecord
  2
*D44
340
0
 70
     0
280
     1
281
     0
  0
BLOCK_RECORD
  5
E3F
330
1
100
AcDbSymbolTableRecord
100
AcDbBlockTableRecord
  2
*D45
340
0
 70
     0
280
     1
281
     0
  0
BLOCK_RECORD
  5
E88
330
1
100
AcDbSymbolTableRecord
100
AcDbBlockTableRecord
  2
*D46
340
0
 70
     0
280
     1
281
     0
  0
BLOCK_RECORD
  5
E94
330
1
100
AcDbSymbolTableRecord
100
AcDbBlockTableRecord
  2
*D47
340
0
 70
     0
280
     1
281
     0
  0
BLOCK_RECORD
  5
EA0
330
1
100
AcDbSymbolTableRecord
100
AcDbBlockTableRecord
  2
*D48
340
0
 70
     0
280
     1
281
     0
  0
ENDTAB
  0
ENDSEC
  0
SECTION
  2
BLOCKS
  0
BLOCK
  5
1A
330
19
100
AcDbEntity
  8
0
100
AcDbBlockBegin
  2
*MODEL_SPACE
 70
     0
 10
0.0
 20
0.0
 30
0.0
  3
*MODEL_SPACE
  1

  0
ENDBLK
  5
1B
330
19
100
AcDbEntity
  8
0
100
AcDbBlockEnd
  0
BLOCK
  5
17
330
16
100
AcDbEntity
 67
     1
  8
0
100
AcDbBlockBegin
  2
*PAPER_SPACE
 70
     0
 10
0.0
 20
0.0
 30
0.0
  3
*PAPER_SPACE
  1

  0
ENDBLK
  5
18
330
16
100
AcDbEntity
 67
     1
  8
0
100
AcDbBlockEnd
  0
BLOCK
  5
50
330
23
100
AcDbEntity
  8
0
100
AcDbBlockBegin
  2
A$C9381
 70
     2
 10
0.0
 20
0.0
 30
0.0
  3
A$C9381
  1

  0
ATTDEF
  5
24
330
23
100
AcDbEntity
  8
細線
 48
6.0
100
AcDbText
 10
86.65712811754496
 20
36.81147137126318
 30
0.0
 40
4.0
  1

  7
STYLE1
100
AcDbAttributeDefinition
  3
品番
  2
品番
 70
     0
280
     0
  0
ATTDEF
  5
25
330
23
100
AcDbEntity
  8
細線
 48
6.0
100
AcDbText
 10
86.65712811754496
 20
26.31147137126318
 30
0.0
 40
4.0
  1

  7
STYLE1
100
AcDbAttributeDefinition
  3
品名
  2
品名
 70
     0
280
     0
  0
ATTDEF
  5
26
330
23
100
AcDbEntity
  8
細線
 48
6.0
100
AcDbText
 10
86.65712811754496
 20
16.14480470459649
 30
0.0
 40
3.0
  1

  7
STYLE1
100
AcDbAttributeDefinition
  3
ｺｰﾄﾞﾅﾝﾊﾞｰ
  2
ｺｰﾄﾞﾅﾝﾊﾞｰ
 70
     0
280
     0
  0
ATTDEF
  5
27
330
23
100
AcDbEntity
  8
細線
 48
6.0
100
AcDbText
 10
130.1571281175449
 20
16.14480470459649
 30
0.0
 40
3.0
  1

  7
STYLE1
100
AcDbAttributeDefinition
  3
図番
  2
図番
 70
     0
280
     0
  0
ATTDEF
  5
28
330
23
100
AcDbEntity
  8
細線
 48
6.0
100
AcDbText
 10
72.04643715359286
 20
4.066185073466684
 30
0.0
 40
3.0
  1

  7
STYLE1
100
AcDbAttributeDefinition
  3
尺度
  2
1:1
 70
     0
280
     0
  0
ATTDEF
  5
29
330
23
100
AcDbEntity
  8
細線
 48
6.0
100
AcDbText
 10
149.0752236978236
 20
4.386453421041224
 30
0.0
 40
2.0
  1

  7
STYLE1
100
AcDbAttributeDefinition
  3
作成年月日
  2
1999/12/25
 70
     0
280
     0
  0
LINE
  5
2A
330
23
100
AcDbEntity
  8
実線
 48
6.0
100
AcDbLine
 10
0.1571281175449535
 20
15.64480470459649
 30
0.0
 11
173.1571281175449
 21
15.64480470459649
 31
0.0
  0
LINE
  5
2B
330
23
100
AcDbEntity
  8
実線
 48
6.0
100
AcDbLine
 10
85.65712811754496
 20
25.31147137126318
 30
0.0
 11
173.1571281175449
 21
25.31147137126318
 31
0.0
  0
LINE
  5
2C
330
23
100
AcDbEntity
  8
実線
 48
6.0
100
AcDbLine
 10
85.65712811754496
 20
35.81147137126318
 30
0.0
 11
173.1571281175449
 21
35.81147137126318
 31
0.0
  0
LINE
  5
2D
330
23
100
AcDbEntity
  8
実線
 48
6.0
100
AcDbLine
 39
1.0
 10
0.1571281175449677
 20
46.31147137126321
 30
0.0
 11
173.1571281175449
 21
46.31147137126321
 31
0.0
  0
LINE
  5
2E
330
23
100
AcDbEntity
  8
細線
 48
6.0
100
AcDbLine
 10
65.65712811754497
 20
12.14480470459649
 30
0.0
 11
173.1571281175449
 21
12.14480470459649
 31
0.0
  0
TEXT
  5
2F
330
23
100
AcDbEntity
  8
細線
 48
6.0
100
AcDbText
 10
104.8171281175449
 20
12.64480470459649
 30
0.0
 40
2.5
  1
担当
  7
STYLE1
100
AcDbText
  0
TEXT
  5
30
330
23
100
AcDbEntity
  8
細線
 48
6.0
100
AcDbText
 10
86.65712811754496
 20
22.31147137126318
 30
0.0
 40
2.5
  1
ｺｰﾄﾞﾅﾝﾊﾞｰ CODE No.
  7
STYLE1
100
AcDbText
  0
LINE
  5
31
330
23
100
AcDbEntity
  8
細線
 48
6.0
100
AcDbLine
 10
85.65712811754496
 20
21.81147137126318
 30
0.0
 11
173.1571281175449
 21
21.81147137126318
 31
0.0
  0
LINE
  5
32
330
23
100
AcDbEntity
  8
細線
 48
6.0
100
AcDbLine
 10
85.65712811754496
 20
32.31147137126318
 30
0.0
 11
173.1571281175449
 21
32.31147137126318
 31
0.0
  0
LINE
  5
33
330
23
100
AcDbEntity
  8
細線
 48
6.0
100
AcDbLine
 10
85.65712811754496
 20
42.81147137126318
 30
0.0
 11
173.1571281175449
 21
42.81147137126318
 31
0.0
  0
TEXT
  5
34
330
23
100
AcDbEntity
  8
細線
 48
6.0
100
AcDbText
 10
66.02266700131798
 20
12.64480470459649
 30
0.0
 40
2.5
  1
尺度 SCALE
  7
STYLE1
100
AcDbText
  0
TEXT
  5
35
330
23
100
AcDbEntity
  8
細線
 48
6.0
100
AcDbText
 10
86.65712811754496
 20
32.81147137126318
 30
0.0
 40
2.5
  1
品名 TYPE
  7
STYLE1
100
AcDbText
  0
TEXT
  5
36
330
23
100
AcDbEntity
  8
細線
 48
6.0
100
AcDbText
 10
86.65712811754496
 20
43.31147137126317
 30
0.0
 40
2.5
  1
品番 Lot No.
  7
STYLE1
100
AcDbText
  0
LINE
  5
37
330
23
100
AcDbEntity
  8
実線
 48
6.0
100
AcDbLine
 10
85.65712811754494
 20
0.1448047045964955
 30
0.0
 11
85.65712811754496
 21
46.31147137126318
 31
0.0
  0
LINE
  5
38
330
23
100
AcDbEntity
  8
実線
 48
6.0
100
AcDbLine
 10
85.65712811754496
 20
15.64480470459649
 30
0.0
 11
85.65712811754496
 21
0.1448047045964955
 31
0.0
  0
TEXT
  5
39
330
23
100
AcDbEntity
  8
細線
 48
6.0
100
AcDbText
 10
90.31712811754495
 20
12.64480470459649
 30
0.0
 40
2.5
  1
承認
  7
STYLE1
100
AcDbText
  0
LINE
  5
3A
330
23
100
AcDbEntity
  8
実線
 48
6.0
100
AcDbLine
 10
100.1571281175449
 20
15.64480470459649
 30
0.0
 11
100.1571281175449
 21
0.1448047045964955
 31
0.0
  0
TEXT
  5
3B
330
23
100
AcDbEntity
  8
細線
 48
6.0
100
AcDbText
 10
129.1571281175449
 20
22.37030362417924
 30
0.0
 40
2.5
  1
図番 DWG No.
  7
STYLE1
100
AcDbText
  0
LINE
  5
3C
330
23
100
AcDbEntity
  8
実線
 48
6.0
100
AcDbLine
 10
114.6571281175449
 20
15.64480470459649
 30
0.0
 11
114.6571281175449
 21
0.1448047045964955
 31
0.0
  0
TEXT
  5
3D
330
23
100
AcDbEntity
  8
細線
 48
6.0
100
AcDbText
 10
119.3171281175449
 20
12.64480470459649
 30
0.0
 40
2.5
  1
検図
  7
STYLE1
100
AcDbText
  0
TEXT
  5
3E
330
23
100
AcDbEntity
  8
細線
 48
6.0
100
AcDbText
 10
133.8171281175449
 20
12.64480470459649
 30
0.0
 40
2.5
  1
作図
  7
STYLE1
100
AcDbText
  0
LINE
  5
3F
330
23
100
AcDbEntity
  8
実線
 48
6.0
100
AcDbLine
 10
129.1571281175449
 20
25.31147137126318
 30
0.0
 11
129.1571281175449
 21
0.1448047045964955
 31
0.0
  0
LINE
  5
40
330
23
100
AcDbEntity
  8
実線
 48
6.0
100
AcDbLine
 10
143.6571281175449
 20
15.64480470459649
 30
0.0
 11
143.6571281175449
 21
0.1448047045964955
 31
0.0
  0
TEXT
  5
41
330
23
100
AcDbEntity
  8
細線
 48
6.0
100
AcDbText
 10
151.4071281175449
 20
12.64480470459649
 30
0.0
 40
2.5
  1
作成年月日
  7
STYLE1
100
AcDbText
  0
TEXT
  5
42
330
23
100
AcDbEntity
  8
細線
 48
6.0
100
AcDbText
 10
44.94717437999407
 20
9.758832726970084
 30
0.0
 40
2.5
  1
3rd ANGLE
  7
STYLE1
100
AcDbText
  0
TEXT
  5
43
330
23
100
AcDbEntity
  8
細線
 48
6.0
100
AcDbText
 10
43.58591122894702
 20
6.765063031168736
 30
0.0
 40
2.5
  1
  PROJECT
  7
STYLE1
100
AcDbText
  0
LINE
  5
44
330
23
100
AcDbEntity
  8
実線
 48
6.0
100
AcDbLine
 10
43.65712811754497
 20
15.64480470459649
 30
0.0
 11
43.657128117545
 21
0.1448047045964955
 31
0.0
  0
LINE
  5
45
330
23
100
AcDbEntity
  8
中心線
 48
6.0
100
AcDbLine
 10
62.92042429461213
 20
3.002708955260359
 30
0.0
 11
54.8379243352702
 21
3.002708955260359
 31
0.0
  0
LINE
  5
46
330
23
100
AcDbEntity
  8
実線
 48
6.0
100
AcDbLine
 10
55.8588716985555
 20
4.434388662235122
 30
0.0
 11
61.68677956397573
 21
5.214761575711875
 31
0.0
  0
LINE
  5
47
330
23
100
AcDbEntity
  8
実線
 48
6.0
100
AcDbLine
 10
55.8588716985555
 20
1.571029248285597
 30
0.0
 11
61.68677956397573
 21
0.790656334808844
 31
0.0
  0
TEXT
  5
48
330
23
100
AcDbEntity
  8
細線
 48
6.0
100
AcDbText
 10
44.41108191758243
 20
12.69165273852597
 30
0.0
 40
2.5
  1
    三角法
  7
STYLE1
100
AcDbText
  0
LINE
  5
49
330
23
100
AcDbEntity
  8
中心線
 48
6.0
100
AcDbLine
 10
50.24366120048637
 20
0.5027089552603599
 30
0.0
 11
50.24366120048637
 21
5.502708955260359
 31
0.0
  0
LINE
  5
4A
330
23
100
AcDbEntity
  8
実線
 48
6.0
100
AcDbLine
 10
55.8588716985555
 20
4.434388662235122
 30
0.0
 11
55.8588716985555
 21
1.57102924828554
 31
0.0
  0
CIRCLE
  5
4B
330
23
100
AcDbEntity
  8
実線
 48
6.0
100
AcDbCircle
 10
50.24366120048637
 20
3.002708955260359
 30
0.0
 40
1.431679706974767
  0
CIRCLE
  5
4C
330
23
100
AcDbEntity
  8
実線
 48
6.0
100
AcDbCircle
 10
50.24366120048637
 20
3.002708955260359
 30
0.0
 40
2.212052620451487
  0
LINE
  5
4D
330
23
100
AcDbEntity
  8
中心線
 48
6.0
100
AcDbLine
 10
47.74366120048637
 20
3.002708955260359
 30
0.0
 11
52.74366120048637
 21
3.002708955260359
 31
0.0
  0
LINE
  5
4E
330
23
100
AcDbEntity
  8
実線
 48
6.0
100
AcDbLine
 10
61.68677956397573
 20
5.214761575711875
 30
0.0
 11
61.68677956397573
 21
0.790656334808844
 31
0.0
  0
LINE
  5
4F
330
23
100
AcDbEntity
  8
実線
 48
6.0
100
AcDbLine
 10
65.657128117545
 20
0.1448047045964955
 30
0.0
 11
65.65712811754499
 21
15.64480470459649
 31
0.0
  0
ENDBLK
  5
51
330
23
100
AcDbEntity
  8
0
100
AcDbBlockEnd
  0
BLOCK
  5
5F
330
52
100
AcDbEntity
  8
0
100
AcDbBlockBegin
  2
A$CA221
 70
     2
 10
0.0
 20
0.0
 30
0.0
  3
A$CA221
  1

  0
ATTDEF
  5
53
330
52
100
AcDbEntity
  8
細線
 48
6.0
100
AcDbText
 10
0.5802892393156754
 20
0.5748278204148676
 30
0.0
 40
2.799999999999999
  1
No.
  7
STYLE1
100
AcDbAttributeDefinition
  3
No.
  2
NO.
 70
     0
280
     0
  0
ATTDEF
  5
54
330
52
100
AcDbEntity
  8
細線
 48
6.0
100
AcDbText
 10
8.153635613241818
 20
0.6894523722187103
 30
0.0
 40
2.799999999999999
  1
    図     番
  7
STYLE1
100
AcDbAttributeDefinition
  3
     図     番
  2
図番
 70
     0
280
     0
  0
ATTDEF
  5
55
330
52
100
AcDbEntity
  8
細線
 48
6.0
100
AcDbText
 10
36.15363561324182
 20
0.7467646481206601
 30
0.0
 40
2.799999999999999
  1
          部     品     名
  7
STYLE1
100
AcDbAttributeDefinition
  3
部品名
  2
部品名
 70
     0
280
     0
  0
ATTDEF
  5
56
330
52
100
AcDbEntity
  8
細線
 48
6.0
100
AcDbText
 10
98.15363561324183
 20
0.5890779427889186
 30
0.0
 40
2.799999999999999
  1
      材     質
  7
STYLE1
100
AcDbAttributeDefinition
  3
材質
  2
材質
 70
     0
280
     0
  0
ATTDEF
  5
57
330
52
100
AcDbEntity
  8
細線
 48
6.0
100
AcDbText
 10
129.1536356132418
 20
0.5890779427889186
 30
0.0
 40
2.799999999999999
  1
個数
  7
STYLE1
100
AcDbAttributeDefinition
  3
個数
  2
個数
 70
     0
280
     0
  0
ATTDEF
  5
58
330
52
100
AcDbEntity
  8
細線
 48
6.0
100
AcDbText
 10
137.1536356132418
 20
0.5890779427889186
 30
0.0
 40
2.799999999999999
  1
       摘     要
  7
STYLE1
100
AcDbAttributeDefinition
  3
摘要
  2
摘要
 70
     0
280
     0
  0
LINE
  5
59
330
52
100
AcDbEntity
  8
細線
 48
6.0
100
AcDbLine
 10
0.1536356132418177
 20
0.0528519855554635
 30
0.0
 11
173.1536356132418
 21
0.0528519855554066
 31
0.0
  0
LINE
  5
5A
330
52
100
AcDbEntity
  8
細線
 48
6.0
100
AcDbLine
 10
7.153635613241817
 20
0.0528519855554066
 30
0.0
 11
7.153635613241789
 21
4.05285198555552
 31
0.0
  0
LINE
  5
5B
330
52
100
AcDbEntity
  8
細線
 48
6.0
100
AcDbLine
 10
35.15363561324182
 20
0.0528519855554066
 30
0.0
 11
35.15363561324182
 21
4.05285198555552
 31
0.0
  0
LINE
  5
5C
330
52
100
AcDbEntity
  8
細線
 48
6.0
100
AcDbLine
 10
97.1536356132418
 20
0.0528519855554066
 30
0.0
 11
97.1536356132418
 21
4.05285198555552
 31
0.0
  0
LINE
  5
5D
330
52
100
AcDbEntity
  8
細線
 48
6.0
100
AcDbLine
 10
128.1536356132418
 20
0.0528519855554066
 30
0.0
 11
128.1536356132418
 21
4.05285198555552
 31
0.0
  0
LINE
  5
5E
330
52
100
AcDbEntity
  8
細線
 48
6.0
100
AcDbLine
 10
136.1536356132418
 20
0.0528519855554066
 30
0.0
 11
136.1536356132418
 21
4.05285198555552
 31
0.0
  0
ENDBLK
  5
60
330
52
100
AcDbEntity
  8
0
100
AcDbBlockEnd
  0
BLOCK
  5
88
330
61
100
AcDbEntity
  8
0
100
AcDbBlockBegin
  2
A$CB311
 70
     2
 10
0.0
 20
0.0
 30
0.0
  3
A$CB311
  1

  0
ATTDEF
  5
62
330
61
100
AcDbEntity
  8
細線
 48
6.0
100
AcDbText
 10
2.225043243023016
 20
5.754682291120985
 30
0.0
 40
2.5
  1

 41
0.9
  7
STYLE1
100
AcDbAttributeDefinition
  3
改番１
  2
改番１
 70
     0
280
     0
  0
ATTDEF
  5
63
330
61
100
AcDbEntity
  8
細線
 48
6.0
100
AcDbText
 10
6.163384780119692
 20
6.010846752634719
 30
0.0
 40
2.5
  1

 41
0.9
  7
STYLE1
100
AcDbAttributeDefinition
  3
改訂日１
  2
改訂日１
 70
     0
280
     0
  0
ATTDEF
  5
64
330
61
100
AcDbEntity
  8
細線
 48
6.0
100
AcDbText
 10
21.74466305742597
 20
6.267011214148467
 30
0.0
 40
2.5
  1

 41
0.9
  7
STYLE1
100
AcDbAttributeDefinition
  3
改訂内容１
  2
改訂内容１
 70
     0
280
     0
  0
ATTDEF
  5
65
330
61
100
AcDbEntity
  8
細線
 48
6.0
100
AcDbText
 10
2.225043243023016
 20
10.87237151354865
 30
0.0
 40
2.5
  1

 41
0.9
  7
STYLE1
100
AcDbAttributeDefinition
  3
改番２
  2
改番２
 70
     0
280
     0
  0
ATTDEF
  5
66
330
61
100
AcDbEntity
  8
細線
 48
6.0
100
AcDbText
 10
6.163384780119692
 20
11.12853597506239
 30
0.0
 40
2.5
  1

 41
0.9
  7
STYLE1
100
AcDbAttributeDefinition
  3
改訂日２
  2
改訂日２
 70
     0
280
     0
  0
ATTDEF
  5
67
330
61
100
AcDbEntity
  8
細線
 48
6.0
100
AcDbText
 10
21.74466305742597
 20
11.38470043657614
 30
0.0
 40
2.5
  1

 41
0.9
  7
STYLE1
100
AcDbAttributeDefinition
  3
改訂内容２
  2
改訂内容２
 70
     0
280
     0
  0
ATTDEF
  5
68
330
61
100
AcDbEntity
  8
細線
 48
6.0
100
AcDbText
 10
2.225043243023016
 20
16.07205454990385
 30
0.0
 40
2.5
  1

 41
0.9
  7
STYLE1
100
AcDbAttributeDefinition
  3
改番３
  2
改番３
 70
     0
280
     0
  0
ATTDEF
  5
69
330
61
100
AcDbEntity
  8
細線
 48
6.0
100
AcDbText
 10
6.163384780119692
 20
16.32821901141758
 30
0.0
 40
2.5
  1

 41
0.9
  7
STYLE1
100
AcDbAttributeDefinition
  3
改訂日３
  2
改訂日３
 70
     0
280
     0
  0
ATTDEF
  5
6A
330
61
100
AcDbEntity
  8
細線
 48
6.0
100
AcDbText
 10
21.74466305742597
 20
16.58438347293133
 30
0.0
 40
2.5
  1

 41
0.9
  7
STYLE1
100
AcDbAttributeDefinition
  3
改訂内容３
  2
改訂内容３
 70
     0
280
     0
  0
ATTDEF
  5
6B
330
61
100
AcDbEntity
  8
細線
 48
6.0
100
AcDbText
 10
2.225043243023016
 20
21.01327173017884
 30
0.0
 40
2.5
  1

 41
0.9
  7
STYLE1
100
AcDbAttributeDefinition
  3
改番４
  2
改番４
 70
     0
280
     0
  0
ATTDEF
  5
6C
330
61
100
AcDbEntity
  8
細線
 48
6.0
100
AcDbText
 10
6.163384780119692
 20
21.26943619169257
 30
0.0
 40
2.5
  1

 41
0.9
  7
STYLE1
100
AcDbAttributeDefinition
  3
改訂日４
  2
改訂日４
 70
     0
280
     0
  0
ATTDEF
  5
6D
330
61
100
AcDbEntity
  8
細線
 48
6.0
100
AcDbText
 10
21.74466305742597
 20
21.52560065320632
 30
0.0
 40
2.5
  1

 41
0.9
  7
STYLE1
100
AcDbAttributeDefinition
  3
改訂内容４
  2
改訂内容４
 70
     0
280
     0
  0
ATTDEF
  5
6E
330
61
100
AcDbEntity
  8
細線
 48
6.0
100
AcDbText
 10
2.225043243023016
 20
26.12103103837366
 30
0.0
 40
2.5
  1

 41
0.9
  7
STYLE1
100
AcDbAttributeDefinition
  3
改番５
  2
改番５
 70
     0
280
     0
  0
ATTDEF
  5
6F
330
61
100
AcDbEntity
  8
細線
 48
6.0
100
AcDbText
 10
6.163384780119692
 20
26.37719549988739
 30
0.0
 40
2.5
  1

 41
0.9
  7
STYLE1
100
AcDbAttributeDefinition
  3
改訂日５
  2
改訂日５
 70
     0
280
     0
  0
ATTDEF
  5
70
330
61
100
AcDbEntity
  8
細線
 48
6.0
100
AcDbText
 10
21.74466305742597
 20
26.63335996140114
 30
0.0
 40
2.5
  1

 41
0.9
  7
STYLE1
100
AcDbAttributeDefinition
  3
改訂内容５
  2
改訂内容５
 70
     0
280
     0
  0
LINE
  5
71
330
61
100
AcDbEntity
  8
細線
 48
6.0
100
AcDbLine
 10
85.50498202193812
 20
5.268123968322313
 30
0.0
 11
0.0049820219381402
 21
5.26812396832237
 31
0.0
  0
LINE
  5
72
330
61
100
AcDbEntity
  8
細線
 48
6.0
100
AcDbLine
 10
85.50498202193812
 20
10.36812396832233
 30
0.0
 11
0.0049820219381402
 21
10.36812396832233
 31
0.0
  0
LINE
  5
73
330
61
100
AcDbEntity
  8
細線
 48
6.0
100
AcDbLine
 10
85.50498202193812
 20
15.4681239683223
 30
0.0
 11
0.0049820219381402
 21
15.46812396832236
 31
0.0
  0
LINE
  5
74
330
61
100
AcDbEntity
  8
細線
 48
6.0
100
AcDbLine
 10
85.50498202193812
 20
20.56812396832232
 30
0.0
 11
0.0049820219381402
 21
20.56812396832232
 31
0.0
  0
LINE
  5
75
330
61
100
AcDbEntity
  8
細線
 48
6.0
100
AcDbLine
 10
85.50498202193812
 20
25.66812396832229
 30
0.0
 11
0.0049820219381402
 21
25.66812396832235
 31
0.0
  0
LINE
  5
76
330
61
100
AcDbEntity
  8
細線
 48
6.0
100
AcDbLine
 10
0.0049820219381402
 20
10.36812396832233
 30
0.0
 11
3.00498202193814
 21
15.46812396832236
 31
0.0
  0
LINE
  5
77
330
61
100
AcDbEntity
  8
細線
 48
6.0
100
AcDbLine
 10
3.00498202193814
 20
15.46812396832236
 30
0.0
 11
6.004982021938154
 21
10.36812396832233
 31
0.0
  0
LINE
  5
78
330
61
100
AcDbEntity
  8
細線
 48
6.0
100
AcDbLine
 10
21.00498202193816
 20
0.1014573016556284
 30
0.0
 11
21.00498202193814
 21
30.76812396832231
 31
0.0
  0
LINE
  5
79
330
61
100
AcDbEntity
  8
細線
 48
6.0
100
AcDbLine
 10
6.004982021938154
 20
0.1014573016556284
 30
0.0
 11
6.00498202193814
 21
30.76812396832231
 31
0.0
  0
LINE
  5
7A
330
61
100
AcDbEntity
  8
細線
 48
6.0
100
AcDbLine
 10
0.0049820219381402
 20
5.26812396832237
 30
0.0
 11
3.00498202193814
 21
10.36812396832233
 31
0.0
  0
LINE
  5
7B
330
61
100
AcDbEntity
  8
細線
 48
6.0
100
AcDbLine
 10
3.00498202193814
 20
10.36812396832233
 30
0.0
 11
6.004982021938154
 21
5.26812396832237
 31
0.0
  0
TEXT
  5
7C
330
61
100
AcDbEntity
  8
細線
 48
6.0
100
AcDbText
 10
9.504982021938154
 20
0.6014573016556284
 30
0.0
 40
2.5
  1
年月日
  7
STYLE1
100
AcDbText
  0
LINE
  5
7D
330
61
100
AcDbEntity
  8
細線
 48
6.0
100
AcDbLine
 10
0.0049820219381402
 20
25.66812396832235
 30
0.0
 11
3.00498202193814
 21
30.76812396832234
 31
0.0
  0
LINE
  5
7E
330
61
100
AcDbEntity
  8
細線
 48
6.0
100
AcDbLine
 10
0.0049820219381402
 20
20.56812396832232
 30
0.0
 11
3.00498202193814
 21
25.66812396832235
 31
0.0
  0
LINE
  5
7F
330
61
100
AcDbEntity
  8
細線
 48
6.0
100
AcDbLine
 10
0.0049820219381402
 20
15.46812396832236
 30
0.0
 11
3.00498202193814
 21
20.56812396832232
 31
0.0
  0
LINE
  5
80
330
61
100
AcDbEntity
  8
細線
 48
6.0
100
AcDbLine
 10
3.00498202193814
 20
30.76812396832234
 30
0.0
 11
6.004982021938154
 21
25.66812396832235
 31
0.0
  0
LINE
  5
81
330
61
100
AcDbEntity
  8
細線
 48
6.0
100
AcDbLine
 10
3.00498202193814
 20
25.66812396832235
 30
0.0
 11
6.004982021938154
 21
20.56812396832232
 31
0.0
  0
LINE
  5
82
330
61
100
AcDbEntity
  8
細線
 48
6.0
100
AcDbLine
 10
3.00498202193814
 20
20.56812396832232
 30
0.0
 11
6.004982021938154
 21
15.46812396832236
 31
0.0
  0
LINE
  5
83
330
61
100
AcDbEntity
  8
細線
 48
6.0
100
AcDbLine
 10
65.50498202193816
 20
0.1014573016556284
 30
0.0
 11
65.50498202193813
 21
30.76812396832231
 31
0.0
  0
TEXT
  5
84
330
61
100
AcDbEntity
  8
細線
 48
6.0
100
AcDbText
 10
32.15498202193817
 20
0.6014573016556284
 30
0.0
 40
2.5
  1
改訂 REVISED
  7
STYLE1
100
AcDbText
  0
LINE
  5
85
330
61
100
AcDbEntity
  8
細線
 48
6.0
100
AcDbLine
 10
75.50498202193813
 20
0.1014573016556284
 30
0.0
 11
75.50498202193813
 21
30.76812396832231
 31
0.0
  0
TEXT
  5
86
330
61
100
AcDbEntity
  8
細線
 48
6.0
100
AcDbText
 10
67.7073332716516
 20
0.6014573016556284
 30
0.0
 40
2.5
  1
検図
  7
STYLE1
100
AcDbText
  0
TEXT
  5
87
330
61
100
AcDbEntity
  8
細線
 48
6.0
100
AcDbText
 10
77.7073332716516
 20
0.6014573016556284
 30
0.0
 40
2.5
  1
担当
  7
STYLE1
100
AcDbText
  0
ENDBLK
  5
89
330
61
100
AcDbEntity
  8
0
100
AcDbBlockEnd
  0
BLOCK
  5
95
330
8A
100
AcDbEntity
  8
0
100
AcDbBlockBegin
  2
A$CA1A2
 70
     0
 10
0.0
 20
0.0
 30
0.0
  3
A$CA1A2
  1

  0
LINE
  5
8B
330
8A
100
AcDbEntity
  8
枠線
 48
6.0
100
AcDbLine
 10
0.1715470506888721
 20
192.2292418772573
 30
0.0
 11
0.1715470506888721
 21
0.8574007220191575
 31
0.0
  0
LINE
  5
8C
330
8A
100
AcDbEntity
  8
破線
 48
6.0
100
AcDbLine
 10
8.405805483933788
 20
189.8285198555966
 30
0.0
 11
8.405805483933788
 21
0.171480144401805
 31
0.0
  0
LINE
  5
8D
330
8A
100
AcDbEntity
  8
中心線
 48
6.0
100
AcDbLine
 10
18.35553442410474
 20
187.7707581227446
 30
0.0
 11
18.35553442410474
 21
31.72382671479951
 31
0.0
  0
LINE
  5
8E
330
8A
100
AcDbEntity
  8
寸法線
 48
6.0
100
AcDbLine
 10
28.30526336427567
 20
188.7996389891706
 30
0.0
 11
28.30526336427567
 21
37.21119133573822
 31
0.0
  0
LINE
  5
8F
330
8A
100
AcDbEntity
  8
想像線
 48
6.0
100
AcDbLine
 10
24.5312282490384
 20
187.4277978339359
 30
0.0
 11
24.5312282490384
 21
42.35559566786829
 31
0.0
  0
LINE
  5
90
330
8A
100
AcDbEntity
  8
実線
 48
6.0
100
AcDbLine
 10
43.40140382522469
 20
185.3700361010839
 30
0.0
 11
43.40140382522469
 21
50.58664259927638
 31
0.0
  0
LINE
  5
91
330
8A
100
AcDbEntity
  8
細線
 48
6.0
100
AcDbLine
 10
53.00803866401048
 20
181.9404332129972
 30
0.0
 11
53.00803866401048
 21
57.44584837544979
 31
0.0
  0
LINE
  5
92
330
8A
100
AcDbEntity
  8
DEFPOINTS
 48
6.0
100
AcDbLine
 10
63.3008617055666
 20
184.3411552346578
 30
0.0
 11
63.3008617055666
 21
52.64440433212841
 31
0.0
  0
LINE
  5
93
330
8A
100
AcDbEntity
  8
0
 48
6.0
100
AcDbLine
 10
73.25059064573759
 20
180.5685920577625
 30
0.0
 11
73.25059064573759
 21
68.42057761732724
 31
0.0
  0
MTEXT
  5
94
330
8A
100
AcDbEntity
  8
枠線
 48
6.0
100
AcDbMText
 10
96.58098953993154
 20
90.71299638989083
 30
0.0
 40
2.5
 41
40.82819806483946
 46
0.0
 71
     1
 72
     5
  1
123456789
  7
STYLE3
 73
     1
 44
1.0
  0
ENDBLK
  5
96
330
8A
100
AcDbEntity
  8
0
100
AcDbBlockEnd
  0
BLOCK
  5
10A
330
A4
100
AcDbEntity
  8
0
100
AcDbBlockBegin
  2
A$CB131
 70
     0
 10
0.0
 20
0.0
 30
0.0
  3
A$CB131
  1

  0
INSERT
  5
A5
330
A4
100
AcDbEntity
  8
細線
100
AcDbBlockReference
  2
A$CA1A2
 10
48.24531469408676
 20
65.73220216606363
 30
0.0
  0
INSERT
  5
A6
330
A4
100
AcDbEntity
  8
細線
100
AcDbBlockReference
 66
     1
  2
A$CB311
 10
21.09501797806188
 20
19.39854269834437
 30
0.0
  0
ATTRIB
  5
A7
330
A6
100
AcDbEntity
  8
細線
 48
6.0
100
AcDbText
 10
23.32006122108489
 20
25.15322498946535
 30
0.0
 40
2.5
  1

 41
0.9
  7
STYLE1
100
AcDbAttribute
  2
改番１
 70
     0
280
     0
  0
ATTRIB
  5
A8
330
A6
100
AcDbEntity
  8
細線
 48
6.0
100
AcDbText
 10
27.25840275818157
 20
25.40938945097909
 30
0.0
 40
2.5
  1

 41
0.9
  7
STYLE1
100
AcDbAttribute
  2
改訂日１
 70
     0
280
     0
  0
ATTRIB
  5
A9
330
A6
100
AcDbEntity
  8
細線
 48
6.0
100
AcDbText
 10
42.83968103548786
 20
25.66555391249284
 30
0.0
 40
2.5
  1

 41
0.9
  7
STYLE1
100
AcDbAttribute
  2
改訂内容１
 70
     0
280
     0
  0
ATTRIB
  5
AA
330
A6
100
AcDbEntity
  8
細線
 48
6.0
100
AcDbText
 10
23.32006122108489
 20
30.27091421189302
 30
0.0
 40
2.5
  1

 41
0.9
  7
STYLE1
100
AcDbAttribute
  2
改番２
 70
     0
280
     0
  0
ATTRIB
  5
AB
330
A6
100
AcDbEntity
  8
細線
 48
6.0
100
AcDbText
 10
27.25840275818157
 20
30.52707867340676
 30
0.0
 40
2.5
  1

 41
0.9
  7
STYLE1
100
AcDbAttribute
  2
改訂日２
 70
     0
280
     0
  0
ATTRIB
  5
AC
330
A6
100
AcDbEntity
  8
細線
 48
6.0
100
AcDbText
 10
42.83968103548786
 20
30.78324313492051
 30
0.0
 40
2.5
  1

 41
0.9
  7
STYLE1
100
AcDbAttribute
  2
改訂内容２
 70
     0
280
     0
  0
ATTRIB
  5
AD
330
A6
100
AcDbEntity
  8
細線
 48
6.0
100
AcDbText
 10
23.32006122108489
 20
35.47059724824822
 30
0.0
 40
2.5
  1

 41
0.9
  7
STYLE1
100
AcDbAttribute
  2
改番３
 70
     0
280
     0
  0
ATTRIB
  5
AE
330
A6
100
AcDbEntity
  8
細線
 48
6.0
100
AcDbText
 10
27.25840275818157
 20
35.72676170976196
 30
0.0
 40
2.5
  1

 41
0.9
  7
STYLE1
100
AcDbAttribute
  2
改訂日３
 70
     0
280
     0
  0
ATTRIB
  5
AF
330
A6
100
AcDbEntity
  8
細線
 48
6.0
100
AcDbText
 10
42.83968103548786
 20
35.98292617127571
 30
0.0
 40
2.5
  1

 41
0.9
  7
STYLE1
100
AcDbAttribute
  2
改訂内容３
 70
     0
280
     0
  0
ATTRIB
  5
B0
330
A6
100
AcDbEntity
  8
細線
 48
6.0
100
AcDbText
 10
23.32006122108489
 20
40.41181442852321
 30
0.0
 40
2.5
  1

 41
0.9
  7
STYLE1
100
AcDbAttribute
  2
改番４
 70
     0
280
     0
  0
ATTRIB
  5
B1
330
A6
100
AcDbEntity
  8
細線
 48
6.0
100
AcDbText
 10
27.25840275818157
 20
40.66797889003694
 30
0.0
 40
2.5
  1

 41
0.9
  7
STYLE1
100
AcDbAttribute
  2
改訂日４
 70
     0
280
     0
  0
ATTRIB
  5
B2
330
A6
100
AcDbEntity
  8
細線
 48
6.0
100
AcDbText
 10
42.83968103548786
 20
40.92414335155069
 30
0.0
 40
2.5
  1

 41
0.9
  7
STYLE1
100
AcDbAttribute
  2
改訂内容４
 70
     0
280
     0
  0
ATTRIB
  5
B3
330
A6
100
AcDbEntity
  8
細線
 48
6.0
100
AcDbText
 10
23.32006122108489
 20
45.51957373671803
 30
0.0
 40
2.5
  1

 41
0.9
  7
STYLE1
100
AcDbAttribute
  2
改番５
 70
     0
280
     0
  0
ATTRIB
  5
B4
330
A6
100
AcDbEntity
  8
細線
 48
6.0
100
AcDbText
 10
27.25840275818157
 20
45.77573819823176
 30
0.0
 40
2.5
  1

 41
0.9
  7
STYLE1
100
AcDbAttribute
  2
改訂日５
 70
     0
280
     0
  0
ATTRIB
  5
B5
330
A6
100
AcDbEntity
  8
細線
 48
6.0
100
AcDbText
 10
42.83968103548786
 20
46.03190265974551
 30
0.0
 40
2.5
  1

 41
0.9
  7
STYLE1
100
AcDbAttribute
  2
改訂内容５
 70
     0
280
     0
  0
SEQEND
  5
B6
330
A6
100
AcDbEntity
  8
細線
  0
LINE
  5
B7
330
A4
100
AcDbEntity
  8
細線
100
AcDbLine
 10
21.10000000000002
 20
279.0
 30
0.0
 11
21.10000000000002
 21
283.0
 31
0.0
  0
LINE
  5
B8
330
A4
100
AcDbEntity
  8
細線
100
AcDbLine
 10
194.1
 20
279.0
 30
0.0
 11
194.1
 21
283.0
 31
0.0
  0
INSERT
  5
B9
330
A4
100
AcDbEntity
  8
枠線
100
AcDbBlockReference
 66
     1
  2
A$CA221
 10
20.94636438675816
 20
278.9471480144445
 30
0.0
  0
ATTRIB
  5
BA
330
B9
100
AcDbEntity
  8
細線
 48
6.0
100
AcDbText
 10
21.52665362607384
 20
279.5219758348594
 30
0.0
 40
2.799999999999999
  1
No.
  7
STYLE1
100
AcDbAttribute
  2
NO.
 70
     0
280
     0
  0
ATTRIB
  5
BB
330
B9
100
AcDbEntity
  8
細線
 48
6.0
100
AcDbText
 10
29.09999999999998
 20
279.6366003866633
 30
0.0
 40
2.799999999999999
  1
    図     番
  7
STYLE1
100
AcDbAttribute
  2
図番
 70
     0
280
     0
  0
ATTRIB
  5
BC
330
B9
100
AcDbEntity
  8
細線
 48
6.0
100
AcDbText
 10
57.09999999999999
 20
279.6939126625652
 30
0.0
 40
2.799999999999999
  1
          部     品     名
  7
STYLE1
100
AcDbAttribute
  2
部品名
 70
     0
280
     0
  0
ATTRIB
  5
BD
330
B9
100
AcDbEntity
  8
細線
 48
6.0
100
AcDbText
 10
119.1
 20
279.5362259572335
 30
0.0
 40
2.799999999999999
  1
      材     質
  7
STYLE1
100
AcDbAttribute
  2
材質
 70
     0
280
     0
  0
ATTRIB
  5
BE
330
B9
100
AcDbEntity
  8
細線
 48
6.0
100
AcDbText
 10
150.0999999999999
 20
279.5362259572335
 30
0.0
 40
2.799999999999999
  1
個数
  7
STYLE1
100
AcDbAttribute
  2
個数
 70
     0
280
     0
  0
ATTRIB
  5
BF
330
B9
100
AcDbEntity
  8
細線
 48
6.0
100
AcDbText
 10
158.0999999999999
 20
279.5362259572335
 30
0.0
 40
2.799999999999999
  1
       摘     要
  7
STYLE1
100
AcDbAttribute
  2
摘要
 70
     0
280
     0
  0
SEQEND
  5
C0
330
B9
100
AcDbEntity
  8
枠線
  0
INSERT
  5
C1
330
A4
100
AcDbEntity
  8
枠線
100
AcDbBlockReference
 66
     1
  2
A$C9381
 10
20.94287188245505
 20
3.855195295403518
 30
0.0
  0
ATTRIB
  5
C2
330
C1
100
AcDbEntity
  8
細線
 48
6.0
100
AcDbText
 10
107.6
 20
40.66666666666671
 30
0.0
 40
4.0
  1

  7
STYLE1
100
AcDbAttribute
  2
品番
 70
     0
280
     0
  0
ATTRIB
  5
C3
330
C1
100
AcDbEntity
  8
細線
 48
6.0
100
AcDbText
 10
107.6
 20
30.16666666666671
 30
0.0
 40
4.0
  1

  7
STYLE1
100
AcDbAttribute
  2
品名
 70
     0
280
     0
  0
ATTRIB
  5
C4
330
C1
100
AcDbEntity
  8
細線
 48
6.0
100
AcDbText
 10
107.6
 20
20.00000000000003
 30
0.0
 40
3.0
  1

  7
STYLE1
100
AcDbAttribute
  2
ｺｰﾄﾞﾅﾝﾊﾞｰ
 70
     0
280
     0
  0
ATTRIB
  5
C5
330
C1
100
AcDbEntity
  8
細線
 48
6.0
100
AcDbText
 10
151.1
 20
20.00000000000003
 30
0.0
 40
3.0
  1

  7
STYLE1
100
AcDbAttribute
  2
図番
 70
     0
280
     0
  0
ATTRIB
  5
C6
330
C1
100
AcDbEntity
  8
細線
 48
6.0
100
AcDbText
 10
92.98930903604791
 20
7.921380368870217
 30
0.0
 40
3.0
  1

  7
STYLE1
100
AcDbAttribute
  2
1:1
 70
     0
280
     0
  0
ATTRIB
  5
C7
330
C1
100
AcDbEntity
  8
細線
 48
6.0
100
AcDbText
 10
170.0180955802787
 20
8.241648716444757
 30
0.0
 40
2.0
  1

  7
STYLE1
100
AcDbAttribute
  2
1999/12/25
 70
     0
280
     0
  0
SEQEND
  5
C8
330
C1
100
AcDbEntity
  8
枠線
  0
LINE
  5
C9
330
A4
100
AcDbEntity
  8
細線
 48
6.0
100
AcDbLine
 10
194.1
 20
229.0
 30
0.0
 11
194.1
 21
233.0000000000001
 31
0.0
  0
LINE
  5
CA
330
A4
100
AcDbEntity
  8
細線
 48
6.0
100
AcDbLine
 10
21.09999999999999
 20
229.0
 30
0.0
 11
21.10000000000002
 21
233.0000000000001
 31
0.0
  0
VIEWPORT
  5
CB
330
A4
100
AcDbEntity
  8
0
 48
6.0
100
AcDbViewport
 10
107.6
 20
164.5833333333333
 30
0.0
 40
173.0
 41
228.8333333333333
 69
    -1
 12
190.3439999999999
 22
105.0
 13
0.0
 23
0.0
 14
10.0
 24
10.0
 15
10.0
 25
10.0
 16
0.0
 26
0.0
 36
1.0
 17
0.0
 27
0.0
 37
0.0
 42
50.0
 43
0.0
 44
0.0
 45
228.8333333333332
 50
0.0
 51
0.0
 72
   100
 90
    32768
  1

281
     0
 71
     1
 74
     0
110
0.0
120
0.0
130
0.0
111
1.0
121
0.0
131
0.0
112
0.0
122
1.0
132
0.0
 79
     0
146
0.0
170
     0
 61
     5
348
85A
292
     1
282
     1
141
0.0
142
0.0
 63
   256
  0
MTEXT
  5
CC
330
A4
100
AcDbEntity
  8
細線
 48
6.0
100
AcDbMText
 10
5.495054403670366
 20
136.6115244515472
 30
0.0
 40
2.5
 41
8.577352534630135
 46
0.0
 71
     1
 72
     5
  1
B-01
  7
STYLE1
 11
0.0
 21
1.0
 31
0.0
 73
     1
 44
1.0
  0
LINE
  5
CF
330
A4
100
AcDbEntity
  8
枠線
 62
     8
 48
6.0
100
AcDbLine
 39
1.0
 10
21.10000000000002
 20
4.0
 30
0.0
 11
194.1
 21
4.0
 31
0.0
  0
LINE
  5
D0
330
A4
100
AcDbEntity
  8
枠線
 62
     8
 48
6.0
100
AcDbLine
 39
1.0
 10
21.10000000000002
 20
279.0
 30
0.0
 11
21.10000000000002
 21
4.0
 31
0.0
  0
LINE
  5
D1
330
A4
100
AcDbEntity
  8
枠線
 62
     8
 48
6.0
100
AcDbLine
 39
1.0
 10
194.1
 20
279.0
 30
0.0
 11
21.10000000000002
 21
279.0
 31
0.0
  0
LINE
  5
D2
330
A4
100
AcDbEntity
  8
枠線
 62
     8
 48
6.0
100
AcDbLine
 39
1.0
 10
194.1
 20
4.0
 30
0.0
 11
194.1
 21
279.0
 31
0.0
  0
LWPOLYLINE
  5
D3
330
A4
100
AcDbEntity
  8
細線
 48
6.0
100
AcDbPolyline
 90
        2
 70
     0
 43
0.0
 10
106.6
 20
50.16666666666669
 10
106.6
 20
50.16666666666669
  0
LINE
  5
D6
330
A4
100
AcDbEntity
  8
細線
 48
6.0
100
AcDbLine
 10
108.6
 20
0.0
 30
0.0
 11
108.6
 21
4.0
 31
0.0
  0
ARC
  5
D7
330
A4
100
AcDbEntity
  8
細線
 48
6.0
100
AcDbCircle
 10
21.10000000000002
 20
4.0
 30
0.0
 40
4.0
100
AcDbArc
 50
180.0
 51
270.0
  0
ARC
  5
D8
330
A4
100
AcDbEntity
  8
細線
 48
6.0
100
AcDbCircle
 10
194.1000000000001
 20
4.0
 30
0.0
 40
4.0
100
AcDbArc
 50
270.0
 51
0.0000000000000254
  0
ARC
  5
D9
330
A4
100
AcDbEntity
  8
細線
 48
6.0
100
AcDbCircle
 10
21.10000000000002
 20
279.0
 30
0.0
 40
4.0
100
AcDbArc
 50
90.0
 51
180.0
  0
ARC
  5
DA
330
A4
100
AcDbEntity
  8
細線
 48
6.0
100
AcDbCircle
 10
194.1
 20
279.0
 30
0.0
 40
4.0
100
AcDbArc
 50
0.0
 51
90.0
  0
LINE
  5
DB
330
A4
100
AcDbEntity
  8
細線
 48
6.0
100
AcDbLine
 10
21.10000000000002
 20
0.0
 30
0.0
 11
194.1000000000001
 21
0.0
 31
0.0
  0
LINE
  5
DC
330
A4
100
AcDbEntity
  8
細線
 48
6.0
100
AcDbLine
 10
17.10000000000002
 20
279.0
 30
0.0
 11
17.10000000000002
 21
4.0
 31
0.0
  0
LINE
  5
DD
330
A4
100
AcDbEntity
  8
細線
 48
6.0
100
AcDbLine
 10
194.1
 20
283.0
 30
0.0
 11
21.10000000000002
 21
283.0
 31
0.0
  0
LINE
  5
DE
330
A4
100
AcDbEntity
  8
細線
 48
6.0
100
AcDbLine
 10
198.1000000000001
 20
4.000000000000001
 30
0.0
 11
198.1
 21
279.0
 31
0.0
  0
LINE
  5
DF
330
A4
100
AcDbEntity
  8
細線
 48
6.0
100
AcDbLine
 10
21.10000000000002
 20
141.5
 30
0.0
 11
17.10000000000002
 21
141.5
 31
0.0
  0
LINE
  5
E0
330
A4
100
AcDbEntity
  8
細線
 48
6.0
100
AcDbLine
 10
4.100000000000022
 20
140.5
 30
0.0
 11
0.0000000000000213
 21
141.5
 31
0.0
  0
LINE
  5
E1
330
A4
100
AcDbEntity
  8
細線
 48
6.0
100
AcDbLine
 10
4.100000000000022
 20
142.5
 30
0.0
 11
4.100000000000022
 21
140.5
 31
0.0
  0
LINE
  5
E2
330
A4
100
AcDbEntity
  8
細線
 48
6.0
100
AcDbLine
 10
0.1000000000000227
 20
141.5
 30
0.0
 11
4.100000000000022
 21
142.5
 31
0.0
  0
POINT
  5
E3
330
A4
100
AcDbEntity
  8
細線
 48
6.0
100
AcDbPoint
 10
0.0000000000000142
 20
285.24
 30
0.0
  0
TEXT
  5
E4
330
A4
100
AcDbEntity
  8
細線
 48
6.0
100
AcDbText
 10
172.225
 20
0.75
 30
0.0
 40
2.0
  1
4
  7
STYLE1
100
AcDbText
  0
TEXT
  5
E5
330
A4
100
AcDbEntity
  8
細線
 48
6.0
100
AcDbText
 10
40.97500000000002
 20
0.75
 30
0.0
 40
2.0
  1
1
  7
STYLE1
100
AcDbText
  0
TEXT
  5
E6
330
A4
100
AcDbEntity
  8
細線
 48
6.0
100
AcDbText
 10
195.35
 20
25.10000000000002
 30
0.0
 40
2.0
  1
F
  7
STYLE1
100
AcDbText
  0
TEXT
  5
E7
330
A4
100
AcDbEntity
  8
細線
 48
6.0
100
AcDbText
 10
195.35
 20
71.26666666666671
 30
0.0
 40
2.0
  1
E
  7
STYLE1
100
AcDbText
  0
TEXT
  5
E8
330
A4
100
AcDbEntity
  8
細線
 48
6.0
100
AcDbText
 10
195.35
 20
117.4333333333333
 30
0.0
 40
2.0
  1
D
  7
STYLE1
100
AcDbText
  0
TEXT
  5
E9
330
A4
100
AcDbEntity
  8
細線
 48
6.0
100
AcDbText
 10
195.35
 20
163.5999999999999
 30
0.0
 40
2.0
  1
C
  7
STYLE1
100
AcDbText
  0
TEXT
  5
EA
330
A4
100
AcDbEntity
  8
細線
 48
6.0
100
AcDbText
 10
195.35
 20
209.7666666666667
 30
0.0
 40
2.0
  1
B
  7
STYLE1
100
AcDbText
  0
TEXT
  5
EB
330
A4
100
AcDbEntity
  8
細線
 48
6.0
100
AcDbText
 10
195.35
 20
255.9333333333333
 30
0.0
 40
2.0
  1
A
  7
STYLE1
100
AcDbText
  0
TEXT
  5
EC
330
A4
100
AcDbEntity
  8
細線
 48
6.0
100
AcDbText
 10
17.85000000000002
 20
25.10000000000002
 30
0.0
 40
2.0
  1
F
  7
STYLE1
100
AcDbText
  0
TEXT
  5
ED
330
A4
100
AcDbEntity
  8
細線
 48
6.0
100
AcDbText
 10
17.85000000000002
 20
71.26666666666671
 30
0.0
 40
2.0
  1
E
  7
STYLE1
100
AcDbText
  0
TEXT
  5
EE
330
A4
100
AcDbEntity
  8
細線
 48
6.0
100
AcDbText
 10
17.85000000000002
 20
117.4333333333333
 30
0.0
 40
2.0
  1
D
  7
STYLE1
100
AcDbText
  0
TEXT
  5
EF
330
A4
100
AcDbEntity
  8
細線
 48
6.0
100
AcDbText
 10
17.85000000000002
 20
163.5999999999999
 30
0.0
 40
2.0
  1
C
  7
STYLE1
100
AcDbText
  0
TEXT
  5
F0
330
A4
100
AcDbEntity
  8
細線
 48
6.0
100
AcDbText
 10
17.85000000000002
 20
209.7666666666667
 30
0.0
 40
2.0
  1
B
  7
STYLE1
100
AcDbText
  0
TEXT
  5
F1
330
A4
100
AcDbEntity
  8
細線
 48
6.0
100
AcDbText
 10
17.85000000000002
 20
255.9333333333333
 30
0.0
 40
2.0
  1
A
  7
STYLE1
100
AcDbText
  0
LINE
  5
F2
330
A4
100
AcDbEntity
  8
細線
 48
6.0
100
AcDbLine
 10
57.60000000000002
 20
2.5
 30
0.0
 11
157.6
 21
2.5
 31
0.0
  0
LINE
  5
F3
330
A4
100
AcDbEntity
  8
細線
 48
6.0
100
AcDbLine
 10
57.60000000000002
 20
2.500000000000056
 30
0.0
 11
57.60000000000002
 21
4.0
 31
0.0
  0
LINE
  5
F4
330
A4
100
AcDbEntity
  8
細線
 48
6.0
100
AcDbLine
 10
67.60000000000002
 20
2.500000000000056
 30
0.0
 11
67.60000000000002
 21
4.0
 31
0.0
  0
LINE
  5
F5
330
A4
100
AcDbEntity
  8
細線
 48
6.0
100
AcDbLine
 10
77.60000000000002
 20
2.500000000000056
 30
0.0
 11
77.60000000000002
 21
4.0
 31
0.0
  0
LINE
  5
F6
330
A4
100
AcDbEntity
  8
細線
 48
6.0
100
AcDbLine
 10
87.60000000000004
 20
2.500000000000056
 30
0.0
 11
87.60000000000004
 21
4.0
 31
0.0
  0
LINE
  5
F7
330
A4
100
AcDbEntity
  8
細線
 48
6.0
100
AcDbLine
 10
97.60000000000004
 20
2.500000000000056
 30
0.0
 11
97.60000000000004
 21
4.0
 31
0.0
  0
LINE
  5
F8
330
A4
100
AcDbEntity
  8
細線
 48
6.0
100
AcDbLine
 10
157.6
 20
2.500000000000056
 30
0.0
 11
157.6
 21
4.0
 31
0.0
  0
LINE
  5
F9
330
A4
100
AcDbEntity
  8
細線
 48
6.0
100
AcDbLine
 10
147.6
 20
2.500000000000056
 30
0.0
 11
147.6
 21
4.0
 31
0.0
  0
LINE
  5
FA
330
A4
100
AcDbEntity
  8
細線
 48
6.0
100
AcDbLine
 10
137.6
 20
2.500000000000056
 30
0.0
 11
137.6
 21
4.0
 31
0.0
  0
LINE
  5
FB
330
A4
100
AcDbEntity
  8
細線
 48
6.0
100
AcDbLine
 10
127.6
 20
2.500000000000056
 30
0.0
 11
127.6
 21
4.0
 31
0.0
  0
LINE
  5
FC
330
A4
100
AcDbEntity
  8
細線
 48
6.0
100
AcDbLine
 10
117.6
 20
2.500000000000056
 30
0.0
 11
117.6
 21
4.0
 31
0.0
  0
LINE
  5
FD
330
A4
100
AcDbEntity
  8
細線
 48
6.0
100
AcDbLine
 10
151.35
 20
0.0
 30
0.0
 11
151.35
 21
2.500000000000056
 31
0.0
  0
LINE
  5
FE
330
A4
100
AcDbEntity
  8
細線
 48
6.0
100
AcDbLine
 10
63.85000000000001
 20
0.0
 30
0.0
 11
63.85000000000001
 21
2.5
 31
0.0
  0
LINE
  5
FF
330
A4
100
AcDbEntity
  8
細線
 48
6.0
100
AcDbLine
 10
198.1
 20
49.16666666666665
 30
0.0
 11
194.1
 21
49.16666666666674
 31
0.0
  0
LINE
  5
100
330
A4
100
AcDbEntity
  8
細線
 48
6.0
100
AcDbLine
 10
198.1
 20
95.33333333333336
 30
0.0
 11
194.1
 21
95.33333333333341
 31
0.0
  0
LINE
  5
101
330
A4
100
AcDbEntity
  8
細線
 48
6.0
100
AcDbLine
 10
198.1
 20
141.4999999999999
 30
0.0
 11
194.1
 21
141.5
 31
0.0
  0
LINE
  5
102
330
A4
100
AcDbEntity
  8
細線
 48
6.0
100
AcDbLine
 10
198.1
 20
187.6666666666666
 30
0.0
 11
194.1
 21
187.6666666666667
 31
0.0
  0
LINE
  5
103
330
A4
100
AcDbEntity
  8
細線
 48
6.0
100
AcDbLine
 10
198.1
 20
233.8333333333333
 30
0.0
 11
194.1
 21
233.8333333333333
 31
0.0
  0
LINE
  5
104
330
A4
100
AcDbEntity
  8
細線
 48
6.0
100
AcDbLine
 10
21.10000000000002
 20
49.16666666666671
 30
0.0
 11
17.10000000000002
 21
49.16666666666671
 31
0.0
  0
LINE
  5
105
330
A4
100
AcDbEntity
  8
細線
 48
6.0
100
AcDbLine
 10
21.10000000000002
 20
95.33333333333336
 30
0.0
 11
17.10000000000002
 21
95.33333333333336
 31
0.0
  0
LINE
  5
106
330
A4
100
AcDbEntity
  8
細線
 48
6.0
100
AcDbLine
 10
21.10000000000002
 20
187.6666666666667
 30
0.0
 11
17.10000000000002
 21
187.6666666666667
 31
0.0
  0
LINE
  5
107
330
A4
100
AcDbEntity
  8
細線
 48
6.0
100
AcDbLine
 10
21.10000000000002
 20
233.8333333333334
 30
0.0
 11
17.10000000000002
 21
233.8333333333333
 31
0.0
  0
CIRCLE
  5
108
330
A4
100
AcDbEntity
  8
細線
 48
6.0
100
AcDbCircle
 10
7.600000000000022
 20
101.5
 30
0.0
 40
2.75
  0
CIRCLE
  5
109
330
A4
100
AcDbEntity
  8
細線
 48
6.0
100
AcDbCircle
 10
7.600000000000022
 20
181.4999999999999
 30
0.0
 40
2.75
  0
ENDBLK
  5
10B
330
A4
100
AcDbEntity
  8
0
100
AcDbBlockEnd
  0
BLOCK
  5
19F
330
19E
100
AcDbEntity
  8
0
100
AcDbBlockBegin
  2
_OPEN
 70
     0
 10
0.0
 20
0.0
 30
0.0
  3
_OPEN
  1
waku.dwg
  0
LINE
  5
1A0
330
19E
100
AcDbEntity
  8
0
  6
ByBlock
 62
     0
100
AcDbLine
 10
-1.0
 20
0.1666666666666666
 30
0.0
 11
0.0
 21
0.0
 31
0.0
  0
LINE
  5
1A1
330
19E
100
AcDbEntity
  8
0
  6
ByBlock
 62
     0
100
AcDbLine
 10
0.0
 20
0.0
 30
0.0
 11
-1.0
 21
-0.1666666666666666
 31
0.0
  0
LINE
  5
1A2
330
19E
100
AcDbEntity
  8
0
  6
ByBlock
 62
     0
100
AcDbLine
 10
0.0
 20
0.0
 30
0.0
 11
-1.0
 21
0.0
 31
0.0
  0
ENDBLK
  5
1A3
330
19E
100
AcDbEntity
  8
0
100
AcDbBlockEnd
  0
BLOCK
  5
396
330
393
100
AcDbEntity
  8
0
 48
6.0
100
AcDbBlockBegin
  2
_Dot
 70
     0
 10
0.0
 20
0.0
 30
0.0
  3
_Dot
  1

  0
LWPOLYLINE
  5
394
330
393
100
AcDbEntity
  8
寸法線
 62
     0
100
AcDbPolyline
 90
        2
 70
     1
 43
0.5
 10
-0.25
 20
0.0
 42
1.0
 10
0.25
 20
0.0
 42
1.0
  0
LINE
  5
395
330
393
100
AcDbEntity
  8
寸法線
 62
     0
370
    -2
100
AcDbLine
 10
-0.5
 20
0.0
 30
0.0
 11
-1.0
 21
0.0
 31
0.0
  0
ENDBLK
  5
397
330
393
100
AcDbEntity
  8
0
 48
6.0
100
AcDbBlockEnd
  0
BLOCK
  5
5C5
330
5BB
100
AcDbEntity
  8
0
 48
6.0
100
AcDbBlockBegin
  2
*D7
 70
     1
 10
0.0
 20
0.0
 30
0.0
  3
*D7
  1

  0
LINE
  5
69A
330
5BB
100
AcDbEntity
  8
DIM
 62
     0
370
    -2
100
AcDbLine
 10
-131.9245749427713
 20
118.0402969019438
 30
0.0
 11
-131.9245749427713
 21
99.44029690194395
 31
0.0
  0
LINE
  5
69B
330
5BB
100
AcDbEntity
  8
DIM
 62
     0
370
    -2
100
AcDbLine
 10
-121.9245749427714
 20
118.0402969019437
 30
0.0
 11
-121.9245749427714
 21
99.44029690194395
 31
0.0
  0
LINE
  5
69C
330
5BB
100
AcDbEntity
  8
DIM
 62
     0
370
    -2
100
AcDbLine
 10
-130.9245749427713
 20
99.44029690194395
 30
0.0
 11
-122.9245749427714
 21
99.44029690194395
 31
0.0
  0
INSERT
  5
69D
330
5BB
100
AcDbEntity
  8
DIM
 62
     0
370
    -2
100
AcDbBlockReference
  2
_Dot
 10
-131.9245749427713
 20
99.44029690194395
 30
0.0
 50
180.0
  0
INSERT
  5
69E
330
5BB
100
AcDbEntity
  8
DIM
 62
     0
370
    -2
100
AcDbBlockReference
  2
_Dot
 10
-121.9245749427714
 20
99.44029690194395
 30
0.0
  0
MTEXT
  5
69F
330
5BB
100
AcDbEntity
  8
DIM
 62
     0
 48
6.0
100
AcDbMText
 10
-126.9245749427714
 20
101.940296901944
 30
0.0
 40
3.0
 41
0.0
 46
0.0
 71
     5
 72
     1
  1
\A1;10
  7
ＭＳ ゴシック
 73
     1
 44
1.0
  0
POINT
  5
6A0
330
5BB
100
AcDbEntity
  8
DEFPOINTS
 62
     0
100
AcDbPoint
 10
-131.9245749427713
 20
120.0402969019438
 30
0.0
  0
POINT
  5
6A1
330
5BB
100
AcDbEntity
  8
DEFPOINTS
 62
     0
100
AcDbPoint
 10
-121.9245749427714
 20
120.0402969019437
 30
0.0
  0
POINT
  5
6A2
330
5BB
100
AcDbEntity
  8
DEFPOINTS
 62
     0
100
AcDbPoint
 10
-121.9245749427714
 20
99.44029690194395
 30
0.0
  0
ENDBLK
  5
5C6
330
5BB
100
AcDbEntity
  8
0
 48
6.0
100
AcDbBlockEnd
  0
BLOCK
  5
608
330
5FE
100
AcDbEntity
  8
0
 48
6.0
100
AcDbBlockBegin
  2
*D8
 70
     1
 10
0.0
 20
0.0
 30
0.0
  3
*D8
  1

  0
LINE
  5
6A3
330
5FE
100
AcDbEntity
  8
DIM
 62
     0
 48
6.0
370
    -2
100
AcDbLine
 10
-119.2245749427714
 20
121.4402969019438
 30
0.0
 11
-110.7245749427714
 21
121.4402969019438
 31
0.0
  0
LINE
  5
6A4
330
5FE
100
AcDbEntity
  8
DIM
 62
     0
 48
6.0
370
    -2
100
AcDbLine
 10
-124.9241217903053
 20
132.4402969019438
 30
0.0
 11
-110.7245749427714
 21
132.4402969019438
 31
0.0
  0
LINE
  5
6A5
330
5FE
100
AcDbEntity
  8
DIM
 62
     0
 48
6.0
370
    -2
100
AcDbLine
 10
-110.7245749427714
 20
122.4402969019438
 30
0.0
 11
-110.7245749427714
 21
131.4402969019438
 31
0.0
  0
INSERT
  5
6A6
330
5FE
100
AcDbEntity
  8
DIM
 62
     0
370
    -2
100
AcDbBlockReference
  2
_Dot
 10
-110.7245749427714
 20
121.4402969019438
 30
0.0
 50
270.0
  0
INSERT
  5
6A7
330
5FE
100
AcDbEntity
  8
DIM
 62
     0
370
    -2
100
AcDbBlockReference
  2
_Dot
 10
-110.7245749427714
 20
132.4402969019438
 30
0.0
 50
90.0
  0
MTEXT
  5
6A8
330
5FE
100
AcDbEntity
  8
DIM
 62
     0
 48
6.0
100
AcDbMText
 10
-113.2245749427714
 20
126.9402969019438
 30
0.0
 40
3.0
 41
0.0
 46
0.0
 71
     5
 72
     1
  1
\A1;11
  7
ＭＳ ゴシック
 11
0.0
 21
1.0
 31
0.0
 73
     1
 44
1.0
  0
POINT
  5
6A9
330
5FE
100
AcDbEntity
  8
DEFPOINTS
 62
     0
100
AcDbPoint
 10
-121.2245749427714
 20
121.4402969019438
 30
0.0
  0
POINT
  5
6AA
330
5FE
100
AcDbEntity
  8
DEFPOINTS
 62
     0
100
AcDbPoint
 10
-126.9241217903053
 20
132.4402969019438
 30
0.0
  0
POINT
  5
6AB
330
5FE
100
AcDbEntity
  8
DEFPOINTS
 62
     0
100
AcDbPoint
 10
-110.7245749427714
 20
132.4402969019438
 30
0.0
  0
ENDBLK
  5
609
330
5FE
100
AcDbEntity
  8
0
 48
6.0
100
AcDbBlockEnd
  0
BLOCK
  5
631
330
627
100
AcDbEntity
  8
0
 48
6.0
100
AcDbBlockBegin
  2
*D9
 70
     1
 10
0.0
 20
0.0
 30
0.0
  3
*D9
  1

  0
LINE
  5
676
330
627
100
AcDbEntity
  8
DIM
 62
     0
 48
6.0
370
    -2
100
AcDbLine
 10
-10.84508647737536
 20
107.440296901944
 30
0.0
 11
-10.84508647737536
 21
99.44029690194395
 31
0.0
  0
LINE
  5
677
330
627
100
AcDbEntity
  8
DIM
 62
     0
 48
6.0
370
    -2
100
AcDbLine
 10
-90.84508647737536
 20
107.440296901944
 30
0.0
 11
-90.84508647737536
 21
99.44029690194395
 31
0.0
  0
LINE
  5
678
330
627
100
AcDbEntity
  8
DIM
 62
     0
 48
6.0
370
    -2
100
AcDbLine
 10
-11.84508647737536
 20
99.44029690194395
 30
0.0
 11
-89.84508647737536
 21
99.44029690194395
 31
0.0
  0
INSERT
  5
679
330
627
100
AcDbEntity
  8
DIM
 62
     0
370
    -2
100
AcDbBlockReference
  2
_Dot
 10
-10.84508647737536
 20
99.44029690194395
 30
0.0
  0
INSERT
  5
67A
330
627
100
AcDbEntity
  8
DIM
 62
     0
370
    -2
100
AcDbBlockReference
  2
_Dot
 10
-90.84508647737536
 20
99.44029690194395
 30
0.0
 50
180.0
  0
MTEXT
  5
67B
330
627
100
AcDbEntity
  8
DIM
 62
     0
 48
6.0
100
AcDbMText
 10
-50.84508647737536
 20
101.940296901944
 30
0.0
 40
3.0
 41
0.0
 46
0.0
 71
     5
 72
     1
  1
\A1;2500
  7
ＭＳ ゴシック
 73
     1
 44
1.0
  0
POINT
  5
67C
330
627
100
AcDbEntity
  8
DEFPOINTS
 62
     0
100
AcDbPoint
 10
-10.84508647737536
 20
109.440296901944
 30
0.0
  0
POINT
  5
67D
330
627
100
AcDbEntity
  8
DEFPOINTS
 62
     0
100
AcDbPoint
 10
-90.84508647737536
 20
109.440296901944
 30
0.0
  0
POINT
  5
67E
330
627
100
AcDbEntity
  8
DEFPOINTS
 62
     0
100
AcDbPoint
 10
-90.84508647737536
 20
99.44029690194395
 30
0.0
  0
ENDBLK
  5
632
330
627
100
AcDbEntity
  8
0
 48
6.0
100
AcDbBlockEnd
  0
BLOCK
  5
7E9
330
7E8
100
AcDbEntity
  8
0
100
AcDbBlockBegin
  2
名称未設定-1
 70
     0
 10
0.0
 20
0.0
 30
0.0
  3
名称未設定-1
  1
名称未設定-1
  0
INSERT
  5
7EA
330
7E8
100
AcDbEntity
  8
TFORMLOGO
100
AcDbBlockReference
  2
block 2
 10
0.0
 20
0.0
 30
0.0
  0
ENDBLK
  5
80F
330
7E8
100
AcDbEntity
  8
0
100
AcDbBlockEnd
  0
BLOCK
  5
7EC
330
7EB
100
AcDbEntity
  8
0
100
AcDbBlockBegin
  2
block 2
 70
     0
 10
0.0
 20
0.0
 30
0.0
  3
block 2
  1
block 2
  0
INSERT
  5
7ED
330
7EB
100
AcDbEntity
  8
TFORMLOGO
100
AcDbBlockReference
  2
block 3
 10
0.0
 20
0.0
 30
0.0
  0
ENDBLK
  5
80E
330
7EB
100
AcDbEntity
  8
0
100
AcDbBlockEnd
  0
BLOCK
  5
7EF
330
7EE
100
AcDbEntity
  8
0
100
AcDbBlockBegin
  2
block 3
 70
     0
 10
0.0
 20
0.0
 30
0.0
  3
block 3
  1
block 3
  0
INSERT
  5
7F0
330
7EE
100
AcDbEntity
  8
レイヤー 1
100
AcDbBlockReference
  2
block 4
 10
0.0
 20
0.0
 30
0.0
  0
ENDBLK
  5
80D
330
7EE
100
AcDbEntity
  8
0
100
AcDbBlockEnd
  0
BLOCK
  5
7F2
330
7F1
100
AcDbEntity
  8
0
100
AcDbBlockBegin
  2
block 4
 70
     0
 10
0.0
 20
0.0
 30
0.0
  3
block 4
  1
block 4
  0
POLYLINE
  5
7F3
330
7F1
100
AcDbEntity
  8
レイヤー 1
370
     0
100
AcDb2dPolyline
 66
     1
 10
0.0
 20
0.0
 30
0.0
  0
VERTEX
  5
7F4
330
7F3
100
AcDbEntity
  8
レイヤー 1
370
     0
100
AcDbVertex
100
AcDb2dVertex
 10
83.79545727667795
 20
167.6444858234922
 30
0.0
  0
VERTEX
  5
7F5
330
7F3
100
AcDbEntity
  8
レイヤー 1
370
     0
100
AcDbVertex
100
AcDb2dVertex
 10
83.79545727667795
 20
159.7968976406313
 30
0.0
  0
VERTEX
  5
7F6
330
7F3
100
AcDbEntity
  8
レイヤー 1
370
     0
100
AcDbVertex
100
AcDb2dVertex
 10
71.3631329975216
 20
159.7968976406313
 30
0.0
  0
VERTEX
  5
7F7
330
7F3
100
AcDbEntity
  8
レイヤー 1
370
     0
100
AcDbVertex
100
AcDb2dVertex
 10
71.3631329975216
 20
127.8027915271048
 30
0.0
  0
VERTEX
  5
7F8
330
7F3
100
AcDbEntity
  8
レイヤー 1
370
     0
100
AcDbVertex
100
AcDb2dVertex
 10
60.43011526263018
 20
127.8027915271048
 30
0.0
  0
VERTEX
  5
7F9
330
7F3
100
AcDbEntity
  8
レイヤー 1
370
     0
100
AcDbVertex
100
AcDb2dVertex
 10
60.43011526263018
 20
159.7968976406313
 30
0.0
  0
VERTEX
  5
7FA
330
7F3
100
AcDbEntity
  8
レイヤー 1
370
     0
100
AcDbVertex
100
AcDb2dVertex
 10
48.21793273020759
 20
159.7968976406313
 30
0.0
  0
VERTEX
  5
7FB
330
7F3
100
AcDbEntity
  8
レイヤー 1
370
     0
100
AcDbVertex
100
AcDb2dVertex
 10
48.21793273020759
 20
167.6444858234922
 30
0.0
  0
VERTEX
  5
7FC
330
7F3
100
AcDbEntity
  8
レイヤー 1
370
     0
100
AcDbVertex
100
AcDb2dVertex
 10
83.79545727667795
 20
167.6444858234922
 30
0.0
  0
SEQEND
  5
7FD
330
7F3
100
AcDbEntity
  8
レイヤー 1
370
     0
  0
HATCH
  5
7FE
330
7F1
100
AcDbEntity
  8
レイヤー 1
 62
   250
100
AcDbHatch
 10
0.0
 20
0.0
 30
0.0
210
0.0
220
0.0
230
1.0
  2
SOLID
 70
     1
 71
     0
 91
        1
 92
        1
 93
        8
 72
     1
 10
83.79545727667795
 20
167.6444858234922
 11
83.79545727667795
 21
159.7968976406313
 72
     1
 10
83.79545727667795
 20
159.7968976406313
 11
71.3631329975216
 21
159.7968976406313
 72
     1
 10
71.3631329975216
 20
159.7968976406313
 11
71.3631329975216
 21
127.8027915271048
 72
     1
 10
71.3631329975216
 20
127.8027915271048
 11
60.43011526263018
 21
127.8027915271048
 72
     1
 10
60.43011526263018
 20
127.8027915271048
 11
60.43011526263018
 21
159.7968976406313
 72
     1
 10
60.43011526263018
 20
159.7968976406313
 11
48.21793273020759
 21
159.7968976406313
 72
     1
 10
48.21793273020759
 20
159.7968976406313
 11
48.21793273020759
 21
167.6444858234922
 72
     1
 10
48.21793273020759
 20
167.6444858234922
 11
83.79545727667795
 21
167.6444858234922
 97
        0
 75
     2
 76
     1
 98
        0
  0
INSERT
  5
7FF
330
7F1
100
AcDbEntity
  8
レイヤー 1
100
AcDbBlockReference
  2
block 5
 10
0.0
 20
0.0
 30
0.0
  0
ENDBLK
  5
80C
330
7F1
100
AcDbEntity
  8
0
100
AcDbBlockEnd
  0
BLOCK
  5
801
330
800
100
AcDbEntity
  8
0
100
AcDbBlockBegin
  2
block 5
 70
     0
 10
0.0
 20
0.0
 30
0.0
  3
block 5
  1
block 5
  0
SPLINE
  5
802
330
800
100
AcDbEntity
  8
レイヤー 1
370
     0
100
AcDbSpline
210
0.0
220
0.0
230
1.0
 70
    11
 71
     3
 72
    56
 73
    52
 74
     0
 42
0.000000001
 43
0.0000000001
 40
0.0
 40
0.0
 40
0.0
 40
0.0
 40
1.0
 40
1.0
 40
1.0
 40
2.0
 40
2.0
 40
2.0
 40
3.0
 40
3.0
 40
3.0
 40
4.0
 40
4.0
 40
4.0
 40
5.0
 40
5.0
 40
5.0
 40
6.0
 40
6.0
 40
6.0
 40
7.0
 40
7.0
 40
7.0
 40
8.0
 40
8.0
 40
8.0
 40
9.0
 40
9.0
 40
9.0
 40
10.0
 40
10.0
 40
10.0
 40
11.0
 40
11.0
 40
11.0
 40
12.0
 40
12.0
 40
12.0
 40
13.0
 40
13.0
 40
13.0
 40
14.0
 40
14.0
 40
14.0
 40
15.0
 40
15.0
 40
15.0
 40
16.0
 40
16.0
 40
16.0
 40
17.0
 40
17.0
 40
17.0
 40
17.0
 10
100.4504378777679
 20
166.69157178364
 30
0.0
 10
101.9848844191641
 20
167.1313385124438
 30
0.0
 10
103.9637485713373
 20
166.7649523658846
 30
0.0
 10
103.9637485713373
 20
166.7649523658846
 30
0.0
 10
103.9637485713373
 20
166.7649523658846
 30
0.0
 10
103.0132460999156
 20
163.911205638077
 30
0.0
 10
103.0132460999156
 20
163.911205638077
 30
0.0
 10
103.0132460999156
 20
163.911205638077
 30
0.0
 10
101.0674548862189
 20
164.3601018759394
 30
0.0
 10
99.57090442016032
 20
163.1805004036133
 30
0.0
 10
98.40508333886608
 20
162.258247733807
 30
0.0
 10
97.65301849830304
 20
159.804132345923
 30
0.0
 10
97.3598406791005
 20
158.8699940888517
 30
0.0
 10
97.3598406791005
 20
158.8699940888517
 30
0.0
 10
96.07137411762282
 20
154.9119212747295
 30
0.0
 10
96.07137411762282
 20
154.9119212747295
 30
0.0
 10
96.07137411762282
 20
154.9119212747295
 30
0.0
 10
100.3012651448482
 20
154.9119212747295
 30
0.0
 10
100.3012651448482
 20
154.9119212747295
 30
0.0
 10
100.3012651448482
 20
154.9119212747295
 30
0.0
 10
99.64152892419852
 20
152.4199098115079
 30
0.0
 10
99.64152892419852
 20
152.4199098115079
 30
0.0
 10
99.64152892419852
 20
152.4199098115079
 30
0.0
 10
95.38097652692731
 20
152.4199098115079
 30
0.0
 10
95.38097652692731
 20
152.4199098115079
 30
0.0
 10
95.38097652692731
 20
152.4199098115079
 30
0.0
 10
87.75353009080013
 20
127.8027915271048
 30
0.0
 10
87.75353009080013
 20
127.8027915271048
 30
0.0
 10
87.75353009080013
 20
127.8027915271048
 30
0.0
 10
85.36538832498108
 20
127.8027915271048
 30
0.0
 10
85.36538832498108
 20
127.8027915271048
 30
0.0
 10
85.36538832498108
 20
127.8027915271048
 30
0.0
 10
93.00006946639998
 20
152.4199098115079
 30
0.0
 10
93.00006946639998
 20
152.4199098115079
 30
0.0
 10
93.00006946639998
 20
152.4199098115079
 30
0.0
 10
89.85297266450198
 20
152.4199098115079
 30
0.0
 10
89.85297266450198
 20
152.4199098115079
 30
0.0
 10
89.85297266450198
 20
152.4199098115079
 30
0.0
 10
90.51270888515164
 20
154.9119212747295
 30
0.0
 10
90.51270888515164
 20
154.9119212747295
 30
0.0
 10
90.51270888515164
 20
154.9119212747295
 30
0.0
 10
93.6904670570955
 20
154.9119212747295
 30
0.0
 10
93.6904670570955
 20
154.9119212747295
 30
0.0
 10
93.6904670570955
 20
154.9119212747295
 30
0.0
 10
94.81598049462158
 20
158.3616699146644
 30
0.0
 10
94.81598049462158
 20
158.3616699146644
 30
0.0
 10
95.7237637538445
 20
161.2605474231013
 30
0.0
 10
96.4968436907311
 20
162.8139420021662
 30
0.0
 10
97.15657991138076
 20
163.9844139654337
 30
0.0
 10
97.81183750494507
 20
165.1523021053827
 30
0.0
 10
99.1047826935081
 20
166.3084769129547
 30
0.0
 10
100.4504378777679
 20
166.69157178364
 30
0.0
  0
HATCH
  5
803
330
800
100
AcDbEntity
  8
レイヤー 1
 62
   250
100
AcDbHatch
 10
0.0
 20
0.0
 30
0.0
210
0.0
220
0.0
230
1.0
  2
SOLID
 70
     1
 71
     0
 91
        1
 92
        1
 93
        1
 72
     4
 94
        3
 73
     0
 74
     1
 95
       56
 96
       52
 40
0.0
 40
0.0
 40
0.0
 40
0.0
 40
1.0
 40
1.0
 40
1.0
 40
2.0
 40
2.0
 40
2.0
 40
3.0
 40
3.0
 40
3.0
 40
4.0
 40
4.0
 40
4.0
 40
5.0
 40
5.0
 40
5.0
 40
6.0
 40
6.0
 40
6.0
 40
7.0
 40
7.0
 40
7.0
 40
8.0
 40
8.0
 40
8.0
 40
9.0
 40
9.0
 40
9.0
 40
10.0
 40
10.0
 40
10.0
 40
11.0
 40
11.0
 40
11.0
 40
12.0
 40
12.0
 40
12.0
 40
13.0
 40
13.0
 40
13.0
 40
14.0
 40
14.0
 40
14.0
 40
15.0
 40
15.0
 40
15.0
 40
16.0
 40
16.0
 40
16.0
 40
17.0
 40
17.0
 40
17.0
 40
17.0
 10
100.4504378777679
 20
166.69157178364
 10
101.9848844191641
 20
167.1313385124438
 10
103.9637485713373
 20
166.7649523658846
 10
103.9637485713373
 20
166.7649523658846
 10
103.9637485713373
 20
166.7649523658846
 10
103.0132460999156
 20
163.911205638077
 10
103.0132460999156
 20
163.911205638077
 10
103.0132460999156
 20
163.911205638077
 10
101.0674548862189
 20
164.3601018759394
 10
99.57090442016032
 20
163.1805004036133
 10
98.40508333886608
 20
162.258247733807
 10
97.65301849830304
 20
159.804132345923
 10
97.3598406791005
 20
158.8699940888517
 10
97.3598406791005
 20
158.8699940888517
 10
96.07137411762282
 20
154.9119212747295
 10
96.07137411762282
 20
154.9119212747295
 10
96.07137411762282
 20
154.9119212747295
 10
100.3012651448482
 20
154.9119212747295
 10
100.3012651448482
 20
154.9119212747295
 10
100.3012651448482
 20
154.9119212747295
 10
99.64152892419852
 20
152.4199098115079
 10
99.64152892419852
 20
152.4199098115079
 10
99.64152892419852
 20
152.4199098115079
 10
95.38097652692731
 20
152.4199098115079
 10
95.38097652692731
 20
152.4199098115079
 10
95.38097652692731
 20
152.4199098115079
 10
87.75353009080013
 20
127.8027915271048
 10
87.75353009080013
 20
127.8027915271048
 10
87.75353009080013
 20
127.8027915271048
 10
85.36538832498108
 20
127.8027915271048
 10
85.36538832498108
 20
127.8027915271048
 10
85.36538832498108
 20
127.8027915271048
 10
93.00006946639998
 20
152.4199098115079
 10
93.00006946639998
 20
152.4199098115079
 10
93.00006946639998
 20
152.4199098115079
 10
89.85297266450198
 20
152.4199098115079
 10
89.85297266450198
 20
152.4199098115079
 10
89.85297266450198
 20
152.4199098115079
 10
90.51270888515164
 20
154.9119212747295
 10
90.51270888515164
 20
154.9119212747295
 10
90.51270888515164
 20
154.9119212747295
 10
93.6904670570955
 20
154.9119212747295
 10
93.6904670570955
 20
154.9119212747295
 10
93.6904670570955
 20
154.9119212747295
 10
94.81598049462158
 20
158.3616699146644
 10
94.81598049462158
 20
158.3616699146644
 10
95.7237637538445
 20
161.2605474231013
 10
96.4968436907311
 20
162.8139420021662
 10
97.15657991138076
 20
163.9844139654337
 10
97.81183750494507
 20
165.1523021053827
 10
99.1047826935081
 20
166.3084769129547
 10
100.4504378777679
 20
166.69157178364
 97
        0
 75
     2
 76
     1
 98
        0
  0
SPLINE
  5
804
330
800
100
AcDbEntity
  8
レイヤー 1
370
     0
100
AcDbSpline
210
0.0
220
0.0
230
1.0
 70
    11
 71
     3
 72
    38
 73
    34
 74
     0
 42
0.000000001
 43
0.0000000001
 40
0.0
 40
0.0
 40
0.0
 40
0.0
 40
1.0
 40
1.0
 40
1.0
 40
2.0
 40
2.0
 40
2.0
 40
3.0
 40
3.0
 40
3.0
 40
4.0
 40
4.0
 40
4.0
 40
5.0
 40
5.0
 40
5.0
 40
6.0
 40
6.0
 40
6.0
 40
7.0
 40
7.0
 40
7.0
 40
8.0
 40
8.0
 40
8.0
 40
9.0
 40
9.0
 40
9.0
 40
10.0
 40
10.0
 40
10.0
 40
11.0
 40
11.0
 40
11.0
 40
11.0
 10
126.377554584636
 20
154.8151140277308
 30
0.0
 10
126.377554584636
 20
154.8151140277308
 30
0.0
 10
128.8311532078563
 20
154.8151140277308
 30
0.0
 10
128.8311532078563
 20
154.8151140277308
 30
0.0
 10
128.8311532078563
 20
154.8151140277308
 30
0.0
 10
127.7345785914971
 20
151.3062819612468
 30
0.0
 10
127.7345785914971
 20
151.3062819612468
 30
0.0
 10
128.571392836906
 20
152.2922689395754
 30
0.0
 10
129.8860421413442
 20
153.604506675583
 30
0.0
 10
131.0163787157314
 20
154.2664822097754
 30
0.0
 10
132.7044766171327
 20
155.2500576196734
 30
0.0
 10
133.6642808525008
 20
155.3847609420097
 30
0.0
 10
134.7284715499351
 20
155.3565111403944
 30
0.0
 10
134.7284715499351
 20
155.3565111403944
 30
0.0
 10
133.6877075172549
 20
152.0345756272799
 30
0.0
 10
133.6877075172549
 20
152.0345756272799
 30
0.0
 10
133.011434827367
 20
152.3184516825359
 30
0.0
 10
130.930940291334
 20
151.7768823149844
 30
0.0
 10
129.739280976855
 20
150.9162968950455
 30
0.0
 10
128.66613302525
 20
150.1454562717016
 30
0.0
 10
127.9192358313239
 20
149.4857200510519
 30
0.0
 10
127.0393578639405
 20
147.8282835196966
 30
0.0
 10
126.164647543194
 20
146.1699857139017
 30
0.0
 10
125.4742499524985
 20
143.5262176944419
 30
0.0
 10
124.2822461282437
 20
139.6959580071401
 30
0.0
 10
124.2822461282437
 20
139.6959580071401
 30
0.0
 10
120.5753209406769
 20
127.8027915271048
 30
0.0
 10
120.5753209406769
 20
127.8027915271048
 30
0.0
 10
120.5753209406769
 20
127.8027915271048
 30
0.0
 10
118.1964809388044
 20
127.8027915271048
 30
0.0
 10
118.1964809388044
 20
127.8027915271048
 30
0.0
 10
118.1964809388044
 20
127.8027915271048
 30
0.0
 10
126.377554584636
 20
154.8151140277308
 30
0.0
 10
126.377554584636
 20
154.8151140277308
 30
0.0
  0
HATCH
  5
805
330
800
100
AcDbEntity
  8
レイヤー 1
 62
   250
100
AcDbHatch
 10
0.0
 20
0.0
 30
0.0
210
0.0
220
0.0
230
1.0
  2
SOLID
 70
     1
 71
     0
 91
        1
 92
        1
 93
        1
 72
     4
 94
        3
 73
     0
 74
     1
 95
       38
 96
       34
 40
0.0
 40
0.0
 40
0.0
 40
0.0
 40
1.0
 40
1.0
 40
1.0
 40
2.0
 40
2.0
 40
2.0
 40
3.0
 40
3.0
 40
3.0
 40
4.0
 40
4.0
 40
4.0
 40
5.0
 40
5.0
 40
5.0
 40
6.0
 40
6.0
 40
6.0
 40
7.0
 40
7.0
 40
7.0
 40
8.0
 40
8.0
 40
8.0
 40
9.0
 40
9.0
 40
9.0
 40
10.0
 40
10.0
 40
10.0
 40
11.0
 40
11.0
 40
11.0
 40
11.0
 10
126.377554584636
 20
154.8151140277308
 10
126.377554584636
 20
154.8151140277308
 10
128.8311532078563
 20
154.8151140277308
 10
128.8311532078563
 20
154.8151140277308
 10
128.8311532078563
 20
154.8151140277308
 10
127.7345785914971
 20
151.3062819612468
 10
127.7345785914971
 20
151.3062819612468
 10
128.571392836906
 20
152.2922689395754
 10
129.8860421413442
 20
153.604506675583
 10
131.0163787157314
 20
154.2664822097754
 10
132.7044766171327
 20
155.2500576196734
 10
133.6642808525008
 20
155.3847609420097
 10
134.7284715499351
 20
155.3565111403944
 10
134.7284715499351
 20
155.3565111403944
 10
133.6877075172549
 20
152.0345756272799
 10
133.6877075172549
 20
152.0345756272799
 10
133.011434827367
 20
152.3184516825359
 10
130.930940291334
 20
151.7768823149844
 10
129.739280976855
 20
150.9162968950455
 10
128.66613302525
 20
150.1454562717016
 10
127.9192358313239
 20
149.4857200510519
 10
127.0393578639405
 20
147.8282835196966
 10
126.164647543194
 20
146.1699857139017
 10
125.4742499524985
 20
143.5262176944419
 10
124.2822461282437
 20
139.6959580071401
 10
124.2822461282437
 20
139.6959580071401
 10
120.5753209406769
 20
127.8027915271048
 10
120.5753209406769
 20
127.8027915271048
 10
120.5753209406769
 20
127.8027915271048
 10
118.1964809388044
 20
127.8027915271048
 10
118.1964809388044
 20
127.8027915271048
 10
118.1964809388044
 20
127.8027915271048
 10
126.377554584636
 20
154.8151140277308
 10
126.377554584636
 20
154.8151140277308
 97
        0
 75
     2
 76
     1
 98
        0
  0
SPLINE
  5
806
330
800
100
AcDbEntity
  8
レイヤー 1
370
     0
100
AcDbSpline
210
0.0
220
0.0
230
1.0
 70
    11
 71
     3
 72
   104
 73
   100
 74
     0
 42
0.000000001
 43
0.0000000001
 40
0.0
 40
0.0
 40
0.0
 40
0.0
 40
1.0
 40
1.0
 40
1.0
 40
2.0
 40
2.0
 40
2.0
 40
3.0
 40
3.0
 40
3.0
 40
4.0
 40
4.0
 40
4.0
 40
5.0
 40
5.0
 40
5.0
 40
6.0
 40
6.0
 40
6.0
 40
7.0
 40
7.0
 40
7.0
 40
8.0
 40
8.0
 40
8.0
 40
9.0
 40
9.0
 40
9.0
 40
10.0
 40
10.0
 40
10.0
 40
11.0
 40
11.0
 40
11.0
 40
12.0
 40
12.0
 40
12.0
 40
13.0
 40
13.0
 40
13.0
 40
14.0
 40
14.0
 40
14.0
 40
15.0
 40
15.0
 40
15.0
 40
16.0
 40
16.0
 40
16.0
 40
17.0
 40
17.0
 40
17.0
 40
18.0
 40
18.0
 40
18.0
 40
19.0
 40
19.0
 40
19.0
 40
20.0
 40
20.0
 40
20.0
 40
21.0
 40
21.0
 40
21.0
 40
22.0
 40
22.0
 40
22.0
 40
23.0
 40
23.0
 40
23.0
 40
24.0
 40
24.0
 40
24.0
 40
25.0
 40
25.0
 40
25.0
 40
26.0
 40
26.0
 40
26.0
 40
27.0
 40
27.0
 40
27.0
 40
28.0
 40
28.0
 40
28.0
 40
29.0
 40
29.0
 40
29.0
 40
30.0
 40
30.0
 40
30.0
 40
31.0
 40
31.0
 40
31.0
 40
32.0
 40
32.0
 40
32.0
 40
33.0
 40
33.0
 40
33.0
 40
33.0
 10
139.8926730891197
 20
154.8294111834263
 30
0.0
 10
139.8926730891197
 20
154.8294111834263
 30
0.0
 10
142.0344903652445
 20
154.8294111834263
 30
0.0
 10
142.0344903652445
 20
154.8294111834263
 30
0.0
 10
142.0344903652445
 20
154.8294111834263
 30
0.0
 10
140.9516961399171
 20
151.3157559800812
 30
0.0
 10
140.9516961399171
 20
151.3157559800812
 30
0.0
 10
141.8928968473923
 20
152.7887075264977
 30
0.0
 10
142.7341897198865
 20
153.4484437471474
 30
0.0
 10
143.8552245303272
 20
154.2926649527359
 30
0.0
 10
144.9803934580775
 20
155.1296514530327
 30
0.0
 10
146.3139908001845
 20
155.3044901642492
 30
0.0
 10
147.241066606852
 20
155.3044901642492
 30
0.0
 10
148.3855280820469
 20
155.3044901642492
 30
0.0
 10
149.4969166187653
 20
155.0752189084569
 30
0.0
 10
150.0784491203092
 20
153.8172414621372
 30
0.0
 10
150.5228667310863
 20
152.833838307127
 30
0.0
 10
150.5414702589793
 20
152.7201500811143
 30
0.0
 10
150.4140016419347
 20
150.7765981809602
 30
0.0
 10
151.5818897818837
 20
152.7699317437168
 30
0.0
 10
152.4424752018226
 20
153.6256940267945
 30
0.0
 10
153.9038856707499
 20
154.4507949398263
 30
0.0
 10
155.4455669174378
 20
155.3044901642492
 30
0.0
 10
156.339225275853
 20
155.3659851592288
 30
0.0
 10
157.3748216618963
 20
155.2147453676543
 30
0.0
 10
158.911679771723
 20
154.9877134254046
 30
0.0
 10
159.8859534176746
 20
154.4390816074493
 30
0.0
 10
160.3965169054045
 20
152.7816450760939
 30
0.0
 10
160.9070803931344
 20
151.1219692311958
 30
0.0
 10
160.6328506116007
 20
150.2303779314354
 30
0.0
 10
159.9992971339115
 20
147.597634224801
 30
0.0
 10
159.7105979417943
 20
146.4014962832367
 30
0.0
 10
159.2947746424084
 20
144.9400858143094
 30
0.0
 10
158.7463150793409
 20
143.2092687007094
 30
0.0
 10
158.7463150793409
 20
143.2092687007094
 30
0.0
 10
153.9038856707499
 20
127.8027915271048
 30
0.0
 10
153.9038856707499
 20
127.8027915271048
 30
0.0
 10
153.9038856707499
 20
127.8027915271048
 30
0.0
 10
151.3882752878863
 20
127.8027915271048
 30
0.0
 10
151.3882752878863
 20
127.8027915271048
 30
0.0
 10
151.3882752878863
 20
127.8027915271048
 30
0.0
 10
155.6250565106276
 20
141.2751908193897
 30
0.0
 10
155.6250565106276
 20
141.2751908193897
 30
0.0
 10
156.5094131050963
 20
144.0936252951782
 30
0.0
 10
157.109893644309
 20
146.1506931664571
 30
0.0
 10
157.4220195011804
 20
147.4415712963654
 30
0.0
 10
157.8095929989511
 20
149.0530157726519
 30
0.0
 10
157.9656559273867
 20
149.5826995529385
 30
0.0
 10
157.7816877071116
 20
150.7529992613181
 30
0.0
 10
157.6111553680925
 20
151.8430281919372
 30
0.0
 10
157.0582171779396
 20
152.5547853887321
 30
0.0
 10
156.1170164704645
 20
152.5547853887321
 30
0.0
 10
155.1096698860365
 20
152.5547853887321
 30
0.0
 10
154.2962823053817
 20
152.4412694176073
 30
0.0
 10
153.156643967048
 20
151.2945686288697
 30
0.0
 10
152.0170056287143
 20
150.1476955852443
 30
0.0
 10
151.076149431015
 20
148.7930831468137
 30
0.0
 10
150.3337308641742
 20
147.2290087646991
 30
0.0
 10
149.5957909244188
 20
145.6683794803425
 30
0.0
 10
148.8530278478023
 20
143.6822806228776
 30
0.0
 10
148.0964843801539
 20
141.2751908193897
 30
0.0
 10
148.0964843801539
 20
141.2751908193897
 30
0.0
 10
143.8552245303272
 20
127.8027915271048
 30
0.0
 10
143.8552245303272
 20
127.8027915271048
 30
0.0
 10
143.8552245303272
 20
127.8027915271048
 30
0.0
 10
141.486030802177
 20
127.8027915271048
 30
0.0
 10
141.486030802177
 20
127.8027915271048
 30
0.0
 10
141.486030802177
 20
127.8027915271048
 30
0.0
 10
146.3329388378533
 20
143.2092687007094
 30
0.0
 10
146.3329388378533
 20
143.2092687007094
 30
0.0
 10
146.8483254624444
 20
144.8408669988801
 30
0.0
 10
147.2314203331297
 20
146.1837661049335
 30
0.0
 10
147.4867020769946
 20
147.224185627838
 30
0.0
 10
147.9169947869641
 20
149.0197705792876
 30
0.0
 10
148.0306830129768
 20
150.2400242051577
 30
0.0
 10
147.709255392159
 20
151.3157559800812
 30
0.0
 10
147.3874832615654
 20
152.3916600098926
 30
0.0
 10
146.8245542879144
 20
152.6683013598569
 30
0.0
 10
145.8840425999909
 20
152.6683013598569
 30
0.0
 10
145.0989048209514
 20
152.6683013598569
 30
0.0
 10
144.3282364524954
 20
152.3275811915945
 30
0.0
 10
143.4531816219731
 20
151.6538923250251
 30
0.0
 10
142.34627171234
 20
150.8074318058939
 30
0.0
 10
141.901854101563
 20
150.1097995099067
 30
0.0
 10
141.3578731655808
 20
149.289521733736
 30
0.0
 10
140.6299240093235
 20
148.192602607601
 30
0.0
 10
140.2850697237515
 20
147.455696197173
 30
0.0
 10
139.6652966370942
 20
145.8385673095858
 30
0.0
 10
139.0506911970739
 20
144.2214384219986
 30
0.0
 10
138.463991048893
 20
142.3252566160164
 30
0.0
 10
138.0571250036777
 20
141.0154304484394
 30
0.0
 10
138.0571250036777
 20
141.0154304484394
 30
0.0
 10
133.9009590684727
 20
127.8027915271048
 30
0.0
 10
133.9009590684727
 20
127.8027915271048
 30
0.0
 10
133.9009590684727
 20
127.8027915271048
 30
0.0
 10
131.4180771143097
 20
127.8027915271048
 30
0.0
 10
131.4180771143097
 20
127.8027915271048
 30
0.0
 10
131.4180771143097
 20
127.8027915271048
 30
0.0
 10
139.8926730891197
 20
154.8294111834263
 30
0.0
 10
139.8926730891197
 20
154.8294111834263
 30
0.0
  0
HATCH
  5
807
330
800
100
AcDbEntity
  8
レイヤー 1
 62
   250
100
AcDbHatch
 10
0.0
 20
0.0
 30
0.0
210
0.0
220
0.0
230
1.0
  2
SOLID
 70
     1
 71
     0
 91
        1
 92
        1
 93
        1
 72
     4
 94
        3
 73
     0
 74
     1
 95
      104
 96
      100
 40
0.0
 40
0.0
 40
0.0
 40
0.0
 40
1.0
 40
1.0
 40
1.0
 40
2.0
 40
2.0
 40
2.0
 40
3.0
 40
3.0
 40
3.0
 40
4.0
 40
4.0
 40
4.0
 40
5.0
 40
5.0
 40
5.0
 40
6.0
 40
6.0
 40
6.0
 40
7.0
 40
7.0
 40
7.0
 40
8.0
 40
8.0
 40
8.0
 40
9.0
 40
9.0
 40
9.0
 40
10.0
 40
10.0
 40
10.0
 40
11.0
 40
11.0
 40
11.0
 40
12.0
 40
12.0
 40
12.0
 40
13.0
 40
13.0
 40
13.0
 40
14.0
 40
14.0
 40
14.0
 40
15.0
 40
15.0
 40
15.0
 40
16.0
 40
16.0
 40
16.0
 40
17.0
 40
17.0
 40
17.0
 40
18.0
 40
18.0
 40
18.0
 40
19.0
 40
19.0
 40
19.0
 40
20.0
 40
20.0
 40
20.0
 40
21.0
 40
21.0
 40
21.0
 40
22.0
 40
22.0
 40
22.0
 40
23.0
 40
23.0
 40
23.0
 40
24.0
 40
24.0
 40
24.0
 40
25.0
 40
25.0
 40
25.0
 40
26.0
 40
26.0
 40
26.0
 40
27.0
 40
27.0
 40
27.0
 40
28.0
 40
28.0
 40
28.0
 40
29.0
 40
29.0
 40
29.0
 40
30.0
 40
30.0
 40
30.0
 40
31.0
 40
31.0
 40
31.0
 40
32.0
 40
32.0
 40
32.0
 40
33.0
 40
33.0
 40
33.0
 40
33.0
 10
139.8926730891197
 20
154.8294111834263
 10
139.8926730891197
 20
154.8294111834263
 10
142.0344903652445
 20
154.8294111834263
 10
142.0344903652445
 20
154.8294111834263
 10
142.0344903652445
 20
154.8294111834263
 10
140.9516961399171
 20
151.3157559800812
 10
140.9516961399171
 20
151.3157559800812
 10
141.8928968473923
 20
152.7887075264977
 10
142.7341897198865
 20
153.4484437471474
 10
143.8552245303272
 20
154.2926649527359
 10
144.9803934580775
 20
155.1296514530327
 10
146.3139908001845
 20
155.3044901642492
 10
147.241066606852
 20
155.3044901642492
 10
148.3855280820469
 20
155.3044901642492
 10
149.4969166187653
 20
155.0752189084569
 10
150.0784491203092
 20
153.8172414621372
 10
150.5228667310863
 20
152.833838307127
 10
150.5414702589793
 20
152.7201500811143
 10
150.4140016419347
 20
150.7765981809602
 10
151.5818897818837
 20
152.7699317437168
 10
152.4424752018226
 20
153.6256940267945
 10
153.9038856707499
 20
154.4507949398263
 10
155.4455669174378
 20
155.3044901642492
 10
156.339225275853
 20
155.3659851592288
 10
157.3748216618963
 20
155.2147453676543
 10
158.911679771723
 20
154.9877134254046
 10
159.8859534176746
 20
154.4390816074493
 10
160.3965169054045
 20
152.7816450760939
 10
160.9070803931344
 20
151.1219692311958
 10
160.6328506116007
 20
150.2303779314354
 10
159.9992971339115
 20
147.597634224801
 10
159.7105979417943
 20
146.4014962832367
 10
159.2947746424084
 20
144.9400858143094
 10
158.7463150793409
 20
143.2092687007094
 10
158.7463150793409
 20
143.2092687007094
 10
153.9038856707499
 20
127.8027915271048
 10
153.9038856707499
 20
127.8027915271048
 10
153.9038856707499
 20
127.8027915271048
 10
151.3882752878863
 20
127.8027915271048
 10
151.3882752878863
 20
127.8027915271048
 10
151.3882752878863
 20
127.8027915271048
 10
155.6250565106276
 20
141.2751908193897
 10
155.6250565106276
 20
141.2751908193897
 10
156.5094131050963
 20
144.0936252951782
 10
157.109893644309
 20
146.1506931664571
 10
157.4220195011804
 20
147.4415712963654
 10
157.8095929989511
 20
149.0530157726519
 10
157.9656559273867
 20
149.5826995529385
 10
157.7816877071116
 20
150.7529992613181
 10
157.6111553680925
 20
151.8430281919372
 10
157.0582171779396
 20
152.5547853887321
 10
156.1170164704645
 20
152.5547853887321
 10
155.1096698860365
 20
152.5547853887321
 10
154.2962823053817
 20
152.4412694176073
 10
153.156643967048
 20
151.2945686288697
 10
152.0170056287143
 20
150.1476955852443
 10
151.076149431015
 20
148.7930831468137
 10
150.3337308641742
 20
147.2290087646991
 10
149.5957909244188
 20
145.6683794803425
 10
148.8530278478023
 20
143.6822806228776
 10
148.0964843801539
 20
141.2751908193897
 10
148.0964843801539
 20
141.2751908193897
 10
143.8552245303272
 20
127.8027915271048
 10
143.8552245303272
 20
127.8027915271048
 10
143.8552245303272
 20
127.8027915271048
 10
141.486030802177
 20
127.8027915271048
 10
141.486030802177
 20
127.8027915271048
 10
141.486030802177
 20
127.8027915271048
 10
146.3329388378533
 20
143.2092687007094
 10
146.3329388378533
 20
143.2092687007094
 10
146.8483254624444
 20
144.8408669988801
 10
147.2314203331297
 20
146.1837661049335
 10
147.4867020769946
 20
147.224185627838
 10
147.9169947869641
 20
149.0197705792876
 10
148.0306830129768
 20
150.2400242051577
 10
147.709255392159
 20
151.3157559800812
 10
147.3874832615654
 20
152.3916600098926
 10
146.8245542879144
 20
152.6683013598569
 10
145.8840425999909
 20
152.6683013598569
 10
145.0989048209514
 20
152.6683013598569
 10
144.3282364524954
 20
152.3275811915945
 10
143.4531816219731
 20
151.6538923250251
 10
142.34627171234
 20
150.8074318058939
 10
141.901854101563
 20
150.1097995099067
 10
141.3578731655808
 20
149.289521733736
 10
140.6299240093235
 20
148.192602607601
 10
140.2850697237515
 20
147.455696197173
 10
139.6652966370942
 20
145.8385673095858
 10
139.0506911970739
 20
144.2214384219986
 10
138.463991048893
 20
142.3252566160164
 10
138.0571250036777
 20
141.0154304484394
 10
138.0571250036777
 20
141.0154304484394
 10
133.9009590684727
 20
127.8027915271048
 10
133.9009590684727
 20
127.8027915271048
 10
133.9009590684727
 20
127.8027915271048
 10
131.4180771143097
 20
127.8027915271048
 10
131.4180771143097
 20
127.8027915271048
 10
131.4180771143097
 20
127.8027915271048
 10
139.8926730891197
 20
154.8294111834263
 10
139.8926730891197
 20
154.8294111834263
 97
        0
 75
     2
 76
     1
 98
        0
  0
SPLINE
  5
808
330
800
100
AcDbEntity
  8
レイヤー 1
370
     0
100
AcDbSpline
210
0.0
220
0.0
230
1.0
 70
    11
 71
     3
 72
    29
 73
    25
 74
     0
 42
0.000000001
 43
0.0000000001
 40
0.0
 40
0.0
 40
0.0
 40
0.0
 40
1.0
 40
1.0
 40
1.0
 40
2.0
 40
2.0
 40
2.0
 40
3.0
 40
3.0
 40
3.0
 40
4.0
 40
4.0
 40
4.0
 40
5.0
 40
5.0
 40
5.0
 40
6.0
 40
6.0
 40
6.0
 40
7.0
 40
7.0
 40
7.0
 40
8.0
 40
8.0
 40
8.0
 40
8.0
 10
101.6420971922469
 20
132.8388354296931
 30
0.0
 10
101.630039350094
 20
134.7164137077823
 30
0.0
 10
102.2236296937908
 20
138.0598810818841
 30
0.0
 10
103.7487744712405
 20
142.5378191476827
 30
0.0
 10
105.819967243327
 20
148.5896501242061
 30
0.0
 10
107.0602024361932
 20
150.8074318058939
 30
0.0
 10
108.1522984254671
 20
151.8833358357054
 30
0.0
 10
109.741177511439
 20
153.4532668840085
 30
0.0
 10
111.8740375333931
 20
153.5290590346837
 30
0.0
 10
112.5075910110823
 20
153.4532668840085
 30
0.0
 10
113.4012493694975
 20
153.3490526768302
 30
0.0
 10
114.6683563248758
 20
152.7580461564518
 30
0.0
 10
114.7493161221879
 20
150.7838328862519
 30
0.0
 10
114.8106388622796
 20
149.0909118479895
 30
0.0
 10
114.3186789024427
 20
145.9191825971221
 30
0.0
 10
112.6164561002338
 20
140.9489400617108
 30
0.0
 10
110.6444821435766
 20
135.1746117095912
 30
0.0
 10
109.4669477299053
 20
132.8960240524753
 30
0.0
 10
108.5212683953448
 20
131.9072809959403
 30
0.0
 10
106.7346406980658
 20
130.0538184021569
 30
0.0
 10
104.8222669326213
 20
130.2336525051225
 30
0.0
 10
104.5408024457958
 20
130.2336525051225
 30
0.0
 10
104.1721769856939
 20
130.2336525051225
 30
0.0
 10
101.6465758193322
 20
130.6305277668397
 30
0.0
 10
101.6420971922469
 20
132.8388354296931
 30
0.0
  0
SPLINE
  5
809
330
800
100
AcDbEntity
  8
レイヤー 1
370
     0
100
AcDbSpline
210
0.0
220
0.0
230
1.0
 70
    11
 71
     3
 72
    32
 73
    28
 74
     0
 42
0.000000001
 43
0.0000000001
 40
0.0
 40
0.0
 40
0.0
 40
0.0
 40
1.0
 40
1.0
 40
1.0
 40
2.0
 40
2.0
 40
2.0
 40
3.0
 40
3.0
 40
3.0
 40
4.0
 40
4.0
 40
4.0
 40
5.0
 40
5.0
 40
5.0
 40
6.0
 40
6.0
 40
6.0
 40
7.0
 40
7.0
 40
7.0
 40
8.0
 40
8.0
 40
8.0
 40
9.0
 40
9.0
 40
9.0
 40
9.0
 10
106.2595617172429
 20
153.4105476718098
 30
0.0
 10
104.8222669326213
 20
151.5474388043041
 30
0.0
 10
103.7177685914188
 20
149.8758773721411
 30
0.0
 10
101.9232171692965
 20
144.6141795664062
 30
0.0
 10
100.2754269116635
 20
139.7999999594306
 30
0.0
 10
99.22777268346732
 20
136.3052927937542
 30
0.0
 10
99.06964269637689
 20
132.039572749846
 30
0.0
 10
98.94665270641765
 20
128.8673267343149
 30
0.0
 10
100.8807305877373
 20
127.8027915271048
 30
0.0
 10
103.7129454545577
 20
127.8027915271048
 30
0.0
 10
104.9352661390825
 20
127.8027915271048
 30
0.0
 10
108.0151835347002
 20
127.8827177950895
 30
0.0
 10
110.2045431598849
 20
130.5926316915021
 30
0.0
 10
111.7417457794874
 20
132.4984597712065
 30
0.0
 10
113.155269389579
 20
134.475256864725
 30
0.0
 10
115.0562743324223
 20
140.9489400617108
 30
0.0
 10
116.6361961642235
 20
146.3680788349845
 30
0.0
 10
117.7282921534974
 20
149.8639917848761
 30
0.0
 10
117.6480213757369
 20
151.8595646611754
 30
0.0
 10
117.6480213757369
 20
151.8595646611754
 30
0.0
 10
117.6480213757369
 20
151.8595646611754
 30
0.0
 10
117.6480213757369
 20
151.8595646611754
 30
0.0
 10
117.13229024137
 20
155.18150017429
 30
0.0
 10
114.7162431837115
 20
155.886194920681
 30
0.0
 10
113.3351034925446
 20
155.886194920681
 30
0.0
 10
111.9829026225447
 20
155.886194920681
 30
0.0
 10
108.3414342923792
 20
156.1251124501957
 30
0.0
 10
106.2595617172429
 20
153.4105476718098
 30
0.0
  0
HATCH
  5
80A
330
800
100
AcDbEntity
  8
レイヤー 1
 62
   250
100
AcDbHatch
 10
0.0
 20
0.0
 30
0.0
210
0.0
220
0.0
230
1.0
  2
SOLID
 70
     1
 71
     0
 91
        2
 92
        1
 93
        1
 72
     4
 94
        3
 73
     0
 74
     1
 95
       29
 96
       25
 40
0.0
 40
0.0
 40
0.0
 40
0.0
 40
1.0
 40
1.0
 40
1.0
 40
2.0
 40
2.0
 40
2.0
 40
3.0
 40
3.0
 40
3.0
 40
4.0
 40
4.0
 40
4.0
 40
5.0
 40
5.0
 40
5.0
 40
6.0
 40
6.0
 40
6.0
 40
7.0
 40
7.0
 40
7.0
 40
8.0
 40
8.0
 40
8.0
 40
8.0
 10
101.6420971922469
 20
132.8388354296931
 10
101.630039350094
 20
134.7164137077823
 10
102.2236296937908
 20
138.0598810818841
 10
103.7487744712405
 20
142.5378191476827
 10
105.819967243327
 20
148.5896501242061
 10
107.0602024361932
 20
150.8074318058939
 10
108.1522984254671
 20
151.8833358357054
 10
109.741177511439
 20
153.4532668840085
 10
111.8740375333931
 20
153.5290590346837
 10
112.5075910110823
 20
153.4532668840085
 10
113.4012493694975
 20
153.3490526768302
 10
114.6683563248758
 20
152.7580461564518
 10
114.7493161221879
 20
150.7838328862519
 10
114.8106388622796
 20
149.0909118479895
 10
114.3186789024427
 20
145.9191825971221
 10
112.6164561002338
 20
140.9489400617108
 10
110.6444821435766
 20
135.1746117095912
 10
109.4669477299053
 20
132.8960240524753
 10
108.5212683953448
 20
131.9072809959403
 10
106.7346406980658
 20
130.0538184021569
 10
104.8222669326213
 20
130.2336525051225
 10
104.5408024457958
 20
130.2336525051225
 10
104.1721769856939
 20
130.2336525051225
 10
101.6465758193322
 20
130.6305277668397
 10
101.6420971922469
 20
132.8388354296931
 97
        0
 92
        1
 93
        1
 72
     4
 94
        3
 73
     0
 74
     1
 95
       32
 96
       28
 40
0.0
 40
0.0
 40
0.0
 40
0.0
 40
1.0
 40
1.0
 40
1.0
 40
2.0
 40
2.0
 40
2.0
 40
3.0
 40
3.0
 40
3.0
 40
4.0
 40
4.0
 40
4.0
 40
5.0
 40
5.0
 40
5.0
 40
6.0
 40
6.0
 40
6.0
 40
7.0
 40
7.0
 40
7.0
 40
8.0
 40
8.0
 40
8.0
 40
9.0
 40
9.0
 40
9.0
 40
9.0
 10
106.2595617172429
 20
153.4105476718098
 10
104.8222669326213
 20
151.5474388043041
 10
103.7177685914188
 20
149.8758773721411
 10
101.9232171692965
 20
144.6141795664062
 10
100.2754269116635
 20
139.7999999594306
 10
99.22777268346732
 20
136.3052927937542
 10
99.06964269637689
 20
132.039572749846
 10
98.94665270641765
 20
128.8673267343149
 10
100.8807305877373
 20
127.8027915271048
 10
103.7129454545577
 20
127.8027915271048
 10
104.9352661390825
 20
127.8027915271048
 10
108.0151835347002
 20
127.8827177950895
 10
110.2045431598849
 20
130.5926316915021
 10
111.7417457794874
 20
132.4984597712065
 10
113.155269389579
 20
134.475256864725
 10
115.0562743324223
 20
140.9489400617108
 10
116.6361961642235
 20
146.3680788349845
 10
117.7282921534974
 20
149.8639917848761
 10
117.6480213757369
 20
151.8595646611754
 10
117.6480213757369
 20
151.8595646611754
 10
117.6480213757369
 20
151.8595646611754
 10
117.6480213757369
 20
151.8595646611754
 10
117.13229024137
 20
155.18150017429
 10
114.7162431837115
 20
155.886194920681
 10
113.3351034925446
 20
155.886194920681
 10
111.9829026225447
 20
155.886194920681
 10
108.3414342923792
 20
156.1251124501957
 10
106.2595617172429
 20
153.4105476718098
 97
        0
 75
     2
 76
     1
 98
        0
  0
ENDBLK
  5
80B
330
800
100
AcDbEntity
  8
0
100
AcDbBlockEnd
  0
BLOCK
  5
8E2
330
8E1
100
AcDbEntity
  8
0
100
AcDbBlockBegin
  2
*D15
 70
     1
 10
0.0
 20
0.0
 30
0.0
  3
*D15
  1

  0
LINE
  5
8E3
330
8E1
100
AcDbEntity
  8
DIM
 62
     0
370
    -2
100
AcDbLine
 10
82.38308890577508
 20
160.5423689209726
 30
0.0
 11
82.38308890577508
 21
193.6154914303951
 31
0.0
  0
LINE
  5
8E4
330
8E1
100
AcDbEntity
  8
DIM
 62
     0
370
    -2
100
AcDbLine
 10
139.4720858662612
 20
160.5423689209726
 30
0.0
 11
139.4720858662612
 21
193.6154914303951
 31
0.0
  0
LINE
  5
8E5
330
8E1
100
AcDbEntity
  8
DIM
 62
     0
370
    -2
100
AcDbLine
 10
83.38308890577508
 20
193.6154914303951
 30
0.0
 11
138.4720858662612
 21
193.6154914303951
 31
0.0
  0
INSERT
  5
8E6
330
8E1
100
AcDbEntity
  8
DIM
 62
     0
370
    -2
100
AcDbBlockReference
  2
_Dot
 10
82.38308890577508
 20
193.6154914303951
 30
0.0
 50
180.0
  0
INSERT
  5
8E7
330
8E1
100
AcDbEntity
  8
DIM
 62
     0
370
    -2
100
AcDbBlockReference
  2
_Dot
 10
139.4720858662612
 20
193.6154914303951
 30
0.0
  0
MTEXT
  5
8E8
330
8E1
100
AcDbEntity
  8
DIM
 62
     0
100
AcDbMText
 10
110.9275873860181
 20
196.1154914303951
 30
0.0
 40
3.0
 41
0.0
 46
0.0
 71
     5
 72
     1
  1
\A1;57
  7
ＭＳ ゴシック
 73
     1
 44
1.0
  0
POINT
  5
8E9
330
8E1
100
AcDbEntity
  8
DEFPOINTS
 62
     0
100
AcDbPoint
 10
82.38308890577508
 20
158.5423689209726
 30
0.0
  0
POINT
  5
8EA
330
8E1
100
AcDbEntity
  8
DEFPOINTS
 62
     0
100
AcDbPoint
 10
139.4720858662612
 20
158.5423689209726
 30
0.0
  0
POINT
  5
8EB
330
8E1
100
AcDbEntity
  8
DEFPOINTS
 62
     0
100
AcDbPoint
 10
139.4720858662612
 20
193.6154914303951
 30
0.0
  0
ENDBLK
  5
8EC
330
8E1
100
AcDbEntity
  8
0
100
AcDbBlockEnd
  0
BLOCK
  5
8F1
330
8F0
100
AcDbEntity
  8
0
100
AcDbBlockBegin
  2
*D16
 70
     1
 10
0.0
 20
0.0
 30
0.0
  3
*D16
  1

  0
LINE
  5
8F2
330
8F0
100
AcDbEntity
  8
DIM
 62
     0
370
    -2
100
AcDbLine
 10
91.98413169352595
 20
156.5423689209726
 30
0.0
 11
91.98413169352595
 21
115.193036106383
 31
0.0
  0
LINE
  5
8F3
330
8F0
100
AcDbEntity
  8
DIM
 62
     0
370
    -2
100
AcDbLine
 10
129.8710430785104
 20
156.5423689209726
 30
0.0
 11
129.8710430785104
 21
115.193036106383
 31
0.0
  0
LINE
  5
8F4
330
8F0
100
AcDbEntity
  8
DIM
 62
     0
370
    -2
100
AcDbLine
 10
92.98413169352595
 20
115.193036106383
 30
0.0
 11
128.8710430785104
 21
115.193036106383
 31
0.0
  0
INSERT
  5
8F5
330
8F0
100
AcDbEntity
  8
DIM
 62
     0
370
    -2
100
AcDbBlockReference
  2
_Dot
 10
91.98413169352595
 20
115.193036106383
 30
0.0
 50
180.0
  0
INSERT
  5
8F6
330
8F0
100
AcDbEntity
  8
DIM
 62
     0
370
    -2
100
AcDbBlockReference
  2
_Dot
 10
129.8710430785104
 20
115.193036106383
 30
0.0
  0
MTEXT
  5
8F7
330
8F0
100
AcDbEntity
  8
DIM
 62
     0
100
AcDbMText
 10
110.9275873860182
 20
117.693036106383
 30
0.0
 40
3.0
 41
0.0
 46
0.0
 71
     5
 72
     1
  1
\A1;38
  7
ＭＳ ゴシック
 73
     1
 44
1.0
  0
POINT
  5
8F8
330
8F0
100
AcDbEntity
  8
DEFPOINTS
 62
     0
100
AcDbPoint
 10
91.98413169352595
 20
158.5423689209726
 30
0.0
  0
POINT
  5
8F9
330
8F0
100
AcDbEntity
  8
DEFPOINTS
 62
     0
100
AcDbPoint
 10
129.8710430785104
 20
158.5423689209726
 30
0.0
  0
POINT
  5
8FA
330
8F0
100
AcDbEntity
  8
DEFPOINTS
 62
     0
100
AcDbPoint
 10
129.8710430785104
 20
115.193036106383
 30
0.0
  0
ENDBLK
  5
8FB
330
8F0
100
AcDbEntity
  8
0
100
AcDbBlockEnd
  0
BLOCK
  5
940
330
93F
100
AcDbEntity
  8
0
100
AcDbBlockBegin
  2
*D17
 70
     1
 10
0.0
 20
0.0
 30
0.0
  3
*D17
  1

  0
LINE
  5
942
330
93F
100
AcDbEntity
  8
DIM
 62
     0
370
    -2
100
AcDbLine
 10
411.2277697568388
 20
167.3944965805471
 30
0.0
 11
411.2277697568388
 21
200.4676190899696
 31
0.0
  0
LINE
  5
943
330
93F
100
AcDbEntity
  8
DIM
 62
     0
370
    -2
100
AcDbLine
 10
468.3167667173249
 20
167.3944965805471
 30
0.0
 11
468.3167667173249
 21
200.4676190899696
 31
0.0
  0
LINE
  5
944
330
93F
100
AcDbEntity
  8
DIM
 62
     0
370
    -2
100
AcDbLine
 10
412.2277697568388
 20
200.4676190899696
 30
0.0
 11
467.3167667173249
 21
200.4676190899696
 31
0.0
  0
INSERT
  5
945
330
93F
100
AcDbEntity
  8
DIM
 62
     0
370
    -2
100
AcDbBlockReference
  2
_Dot
 10
411.2277697568388
 20
200.4676190899696
 30
0.0
 50
180.0
  0
INSERT
  5
946
330
93F
100
AcDbEntity
  8
DIM
 62
     0
370
    -2
100
AcDbBlockReference
  2
_Dot
 10
468.3167667173249
 20
200.4676190899696
 30
0.0
  0
MTEXT
  5
947
330
93F
100
AcDbEntity
  8
DIM
 62
     0
 48
6.0
100
AcDbMText
 10
439.7722682370818
 20
202.9676190899696
 30
0.0
 40
3.0
 41
0.0
 46
0.0
 71
     5
 72
     1
  1
\A1;57
  7
ＭＳ ゴシック
 73
     1
 44
1.0
  0
POINT
  5
948
330
93F
100
AcDbEntity
  8
DEFPOINTS
 62
     0
100
AcDbPoint
 10
411.2277697568388
 20
165.3944965805471
 30
0.0
  0
POINT
  5
949
330
93F
100
AcDbEntity
  8
DEFPOINTS
 62
     0
100
AcDbPoint
 10
468.3167667173249
 20
165.3944965805471
 30
0.0
  0
POINT
  5
94A
330
93F
100
AcDbEntity
  8
DEFPOINTS
 62
     0
100
AcDbPoint
 10
468.3167667173249
 20
200.4676190899696
 30
0.0
  0
ENDBLK
  5
941
330
93F
100
AcDbEntity
  8
0
100
AcDbBlockEnd
  0
BLOCK
  5
94C
330
94B
100
AcDbEntity
  8
0
100
AcDbBlockBegin
  2
*D18
 70
     1
 10
0.0
 20
0.0
 30
0.0
  3
*D18
  1

  0
LINE
  5
94E
330
94B
100
AcDbEntity
  8
DIM
 62
     0
370
    -2
100
AcDbLine
 10
420.8288125445897
 20
163.3944965805471
 30
0.0
 11
420.8288125445897
 21
122.0451637659575
 31
0.0
  0
LINE
  5
94F
330
94B
100
AcDbEntity
  8
DIM
 62
     0
370
    -2
100
AcDbLine
 10
458.7157239295741
 20
163.3944965805471
 30
0.0
 11
458.7157239295741
 21
122.0451637659575
 31
0.0
  0
LINE
  5
950
330
94B
100
AcDbEntity
  8
DIM
 62
     0
370
    -2
100
AcDbLine
 10
421.8288125445897
 20
122.0451637659575
 30
0.0
 11
457.7157239295741
 21
122.0451637659575
 31
0.0
  0
INSERT
  5
951
330
94B
100
AcDbEntity
  8
DIM
 62
     0
370
    -2
100
AcDbBlockReference
  2
_Dot
 10
420.8288125445897
 20
122.0451637659575
 30
0.0
 50
180.0
  0
INSERT
  5
952
330
94B
100
AcDbEntity
  8
DIM
 62
     0
370
    -2
100
AcDbBlockReference
  2
_Dot
 10
458.7157239295741
 20
122.0451637659575
 30
0.0
  0
MTEXT
  5
953
330
94B
100
AcDbEntity
  8
DIM
 62
     0
 48
6.0
100
AcDbMText
 10
439.7722682370819
 20
124.5451637659575
 30
0.0
 40
3.0
 41
0.0
 46
0.0
 71
     5
 72
     1
  1
\A1;38
  7
ＭＳ ゴシック
 73
     1
 44
1.0
  0
POINT
  5
954
330
94B
100
AcDbEntity
  8
DEFPOINTS
 62
     0
100
AcDbPoint
 10
420.8288125445897
 20
165.3944965805471
 30
0.0
  0
POINT
  5
955
330
94B
100
AcDbEntity
  8
DEFPOINTS
 62
     0
100
AcDbPoint
 10
458.7157239295741
 20
165.3944965805471
 30
0.0
  0
POINT
  5
956
330
94B
100
AcDbEntity
  8
DEFPOINTS
 62
     0
100
AcDbPoint
 10
458.7157239295741
 20
122.0451637659575
 30
0.0
  0
ENDBLK
  5
94D
330
94B
100
AcDbEntity
  8
0
100
AcDbBlockEnd
  0
BLOCK
  5
9EB
330
9EA
100
AcDbEntity
  8
0
 48
6.0
100
AcDbBlockBegin
  2
*D19
 70
     1
 10
0.0
 20
0.0
 30
0.0
  3
*D19
  1

  0
LINE
  5
9EC
330
9EA
100
AcDbEntity
  8
寸法線
100
AcDbLine
 10
1.499999999999986
 20
20.59999999999988
 30
0.0
 11
1.499999999999986
 21
0.0
 31
0.0
  0
LINE
  5
9ED
330
9EA
100
AcDbEntity
  8
寸法線
100
AcDbLine
 10
9.499999999999972
 20
20.59999999999988
 30
0.0
 11
9.499999999999972
 21
0.0
 31
0.0
  0
LINE
  5
9EE
330
9EA
100
AcDbEntity
  8
寸法線
100
AcDbLine
 10
3.499999999999986
 20
2.0
 30
0.0
 11
7.499999999999972
 21
2.0
 31
0.0
  0
INSERT
  5
9EF
330
9EA
100
AcDbEntity
  8
寸法線
100
AcDbBlockReference
  2
_OPEN
 10
1.499999999999986
 20
2.0
 30
0.0
 41
2.0
 42
2.0
 43
2.0
 50
180.0
  0
INSERT
  5
9F0
330
9EA
100
AcDbEntity
  8
寸法線
100
AcDbBlockReference
  2
_OPEN
 10
9.499999999999972
 20
2.0
 30
0.0
 41
2.0
 42
2.0
 43
2.0
  0
MTEXT
  5
9F1
330
9EA
100
AcDbEntity
  8
寸法線
 48
6.0
100
AcDbMText
 10
5.499999999999972
 20
3.875
 30
0.0
 40
2.5
 41
0.0
 46
0.0
 71
     5
 72
     1
  1
\A1;8
  7
STYLE1
 73
     1
 44
1.0
  0
POINT
  5
9F2
330
9EA
100
AcDbEntity
  8
DEFPOINTS
 62
     0
100
AcDbPoint
 10
1.499999999999986
 20
20.59999999999988
 30
0.0
  0
POINT
  5
9F3
330
9EA
100
AcDbEntity
  8
DEFPOINTS
 62
     0
100
AcDbPoint
 10
9.499999999999972
 20
20.59999999999988
 30
0.0
  0
POINT
  5
9F4
330
9EA
100
AcDbEntity
  8
DEFPOINTS
 62
     0
100
AcDbPoint
 10
9.499999999999972
 20
2.0
 30
0.0
  0
ENDBLK
  5
9F5
330
9EA
100
AcDbEntity
  8
0
 48
6.0
100
AcDbBlockEnd
  0
BLOCK
  5
A1F
330
A1E
100
AcDbEntity
  8
0
 48
6.0
100
AcDbBlockBegin
  2
*D20
 70
     1
 10
0.0
 20
0.0
 30
0.0
  3
*D20
  1

  0
LINE
  5
A20
330
A1E
100
AcDbEntity
  8
寸法線
 48
6.0
100
AcDbLine
 10
10.50000001825006
 20
23.99999999999999
 30
0.0
 11
22.99999999999997
 21
23.99999999999999
 31
0.0
  0
LINE
  5
A21
330
A1E
100
AcDbEntity
  8
寸法線
 48
6.0
100
AcDbLine
 10
5.500002067567664
 20
34.99999999998927
 30
0.0
 11
22.99999999999997
 21
34.99999999998927
 31
0.0
  0
LINE
  5
A22
330
A1E
100
AcDbEntity
  8
寸法線
 48
6.0
100
AcDbLine
 10
20.99999999999997
 20
25.99999999999999
 30
0.0
 11
20.99999999999997
 21
32.99999999998927
 31
0.0
  0
INSERT
  5
A23
330
A1E
100
AcDbEntity
  8
寸法線
100
AcDbBlockReference
  2
_OPEN
 10
20.99999999999997
 20
23.99999999999999
 30
0.0
 41
2.0
 42
2.0
 43
2.0
 50
270.0
  0
INSERT
  5
A24
330
A1E
100
AcDbEntity
  8
寸法線
100
AcDbBlockReference
  2
_OPEN
 10
20.99999999999997
 20
34.99999999998927
 30
0.0
 41
2.0
 42
2.0
 43
2.0
 50
90.0
  0
MTEXT
  5
A25
330
A1E
100
AcDbEntity
  8
寸法線
 48
6.0
100
AcDbMText
 10
19.12499999999997
 20
29.49999999999463
 30
0.0
 40
2.5
 41
0.0
 46
0.0
 71
     5
 72
     1
  1
\A1;11
  7
STYLE1
 11
0.0
 21
1.0
 31
0.0
 73
     1
 44
1.0
  0
POINT
  5
A26
330
A1E
100
AcDbEntity
  8
DEFPOINTS
 62
     0
100
AcDbPoint
 10
10.50000001825006
 20
23.99999999999999
 30
0.0
  0
POINT
  5
A27
330
A1E
100
AcDbEntity
  8
DEFPOINTS
 62
     0
100
AcDbPoint
 10
5.500002067567664
 20
34.99999999998927
 30
0.0
  0
POINT
  5
A28
330
A1E
100
AcDbEntity
  8
DEFPOINTS
 62
     0
100
AcDbPoint
 10
20.99999999999997
 20
34.99999999998927
 30
0.0
  0
ENDBLK
  5
A29
330
A1E
100
AcDbEntity
  8
0
 48
6.0
100
AcDbBlockEnd
  0
BLOCK
  5
A38
330
A37
100
AcDbEntity
  8
0
 48
6.0
100
AcDbBlockBegin
  2
*D21
 70
     1
 10
0.0
 20
0.0
 30
0.0
  3
*D21
  1

  0
LINE
  5
A39
330
A37
100
AcDbEntity
  8
寸法線
 48
6.0
100
AcDbLine
 10
32.44692500353686
 20
11.90952239376209
 30
0.0
 11
32.44692500353686
 21
0.0
 31
0.0
  0
LINE
  5
A3A
330
A37
100
AcDbEntity
  8
寸法線
 48
6.0
100
AcDbLine
 10
112.4469250035368
 20
11.90952239376209
 30
0.0
 11
112.4469250035368
 21
0.0
 31
0.0
  0
LINE
  5
A3B
330
A37
100
AcDbEntity
  8
寸法線
 48
6.0
100
AcDbLine
 10
34.44692500353686
 20
2.0
 30
0.0
 11
110.4469250035368
 21
2.0
 31
0.0
  0
INSERT
  5
A3C
330
A37
100
AcDbEntity
  8
寸法線
100
AcDbBlockReference
  2
_OPEN
 10
32.44692500353686
 20
2.0
 30
0.0
 41
2.0
 42
2.0
 43
2.0
 50
180.0
  0
INSERT
  5
A3D
330
A37
100
AcDbEntity
  8
寸法線
100
AcDbBlockReference
  2
_OPEN
 10
112.4469250035368
 20
2.0
 30
0.0
 41
2.0
 42
2.0
 43
2.0
  0
MTEXT
  5
A3E
330
A37
100
AcDbEntity
  8
寸法線
 48
6.0
100
AcDbMText
 10
72.44692500353682
 20
3.875
 30
0.0
 40
2.5
 41
0.0
 46
0.0
 71
     5
 72
     1
  1
\A1;2500
  7
STYLE1
 73
     1
 44
1.0
  0
POINT
  5
A3F
330
A37
100
AcDbEntity
  8
DEFPOINTS
 62
     0
100
AcDbPoint
 10
32.44692500353686
 20
11.90952239376209
 30
0.0
  0
POINT
  5
A40
330
A37
100
AcDbEntity
  8
DEFPOINTS
 62
     0
100
AcDbPoint
 10
112.4469250035368
 20
11.90952239376209
 30
0.0
  0
POINT
  5
A41
330
A37
100
AcDbEntity
  8
DEFPOINTS
 62
     0
100
AcDbPoint
 10
112.4469250035368
 20
2.0
 30
0.0
  0
ENDBLK
  5
A42
330
A37
100
AcDbEntity
  8
0
 48
6.0
100
AcDbBlockEnd
  0
BLOCK
  5
A80
330
A7F
100
AcDbEntity
  8
0
100
AcDbBlockBegin
  2
*D22
 70
     1
 10
0.0
 20
0.0
 30
0.0
  3
*D22
  1

  0
LINE
  5
A82
330
A7F
100
AcDbEntity
  8
DIM
 62
     0
370
    -2
100
AcDbLine
 10
90.19321747034341
 20
116.0402969019436
 30
0.0
 11
90.19321747034341
 21
99.44029690194374
 31
0.0
  0
LINE
  5
A83
330
A7F
100
AcDbEntity
  8
DIM
 62
     0
370
    -2
100
AcDbLine
 10
98.1932174703434
 20
116.0402969019436
 30
0.0
 11
98.1932174703434
 21
99.44029690194374
 31
0.0
  0
LINE
  5
A84
330
A7F
100
AcDbEntity
  8
DIM
 62
     0
370
    -2
100
AcDbLine
 10
91.19321747034341
 20
99.44029690194374
 30
0.0
 11
97.1932174703434
 21
99.44029690194374
 31
0.0
  0
INSERT
  5
A85
330
A7F
100
AcDbEntity
  8
DIM
 62
     0
370
    -2
100
AcDbBlockReference
  2
_Dot
 10
90.19321747034341
 20
99.44029690194374
 30
0.0
 50
180.0
  0
INSERT
  5
A86
330
A7F
100
AcDbEntity
  8
DIM
 62
     0
370
    -2
100
AcDbBlockReference
  2
_Dot
 10
98.1932174703434
 20
99.44029690194374
 30
0.0
  0
MTEXT
  5
A87
330
A7F
100
AcDbEntity
  8
DIM
 62
     0
 48
6.0
100
AcDbMText
 10
94.1932174703434
 20
101.9402969019437
 30
0.0
 40
3.0
 41
0.0
 46
0.0
 71
     5
 72
     1
  1
\A1;8
  7
ＭＳ ゴシック
 73
     1
 44
1.0
  0
POINT
  5
A88
330
A7F
100
AcDbEntity
  8
DEFPOINTS
 62
     0
100
AcDbPoint
 10
90.19321747034341
 20
118.0402969019436
 30
0.0
  0
POINT
  5
A89
330
A7F
100
AcDbEntity
  8
DEFPOINTS
 62
     0
100
AcDbPoint
 10
98.1932174703434
 20
118.0402969019436
 30
0.0
  0
POINT
  5
A8A
330
A7F
100
AcDbEntity
  8
DEFPOINTS
 62
     0
100
AcDbPoint
 10
98.1932174703434
 20
99.44029690194374
 30
0.0
  0
ENDBLK
  5
A81
330
A7F
100
AcDbEntity
  8
0
100
AcDbBlockEnd
  0
BLOCK
  5
A8C
330
A8B
100
AcDbEntity
  8
0
100
AcDbBlockBegin
  2
*D23
 70
     1
 10
0.0
 20
0.0
 30
0.0
  3
*D23
  1

  0
LINE
  5
A8E
330
A8B
100
AcDbEntity
  8
DIM
 62
     0
 48
6.0
370
    -2
100
AcDbLine
 10
101.1932174885935
 20
121.4402969019437
 30
0.0
 11
109.6932174703434
 21
121.4402969019437
 31
0.0
  0
LINE
  5
A8F
330
A8B
100
AcDbEntity
  8
DIM
 62
     0
 48
6.0
370
    -2
100
AcDbLine
 10
96.19321953791109
 20
132.440296901933
 30
0.0
 11
109.6932174703434
 21
132.440296901933
 31
0.0
  0
LINE
  5
A90
330
A8B
100
AcDbEntity
  8
DIM
 62
     0
 48
6.0
370
    -2
100
AcDbLine
 10
109.6932174703434
 20
122.4402969019437
 30
0.0
 11
109.6932174703434
 21
131.440296901933
 31
0.0
  0
INSERT
  5
A91
330
A8B
100
AcDbEntity
  8
DIM
 62
     0
370
    -2
100
AcDbBlockReference
  2
_Dot
 10
109.6932174703434
 20
121.4402969019437
 30
0.0
 50
270.0
  0
INSERT
  5
A92
330
A8B
100
AcDbEntity
  8
DIM
 62
     0
370
    -2
100
AcDbBlockReference
  2
_Dot
 10
109.6932174703434
 20
132.440296901933
 30
0.0
 50
90.0
  0
MTEXT
  5
A93
330
A8B
100
AcDbEntity
  8
DIM
 62
     0
 48
6.0
100
AcDbMText
 10
107.1932174703434
 20
126.9402969019384
 30
0.0
 40
3.0
 41
0.0
 46
0.0
 71
     5
 72
     1
  1
\A1;11
  7
ＭＳ ゴシック
 11
0.0
 21
1.0
 31
0.0
 73
     1
 44
1.0
  0
POINT
  5
A94
330
A8B
100
AcDbEntity
  8
DEFPOINTS
 62
     0
100
AcDbPoint
 10
99.19321748859349
 20
121.4402969019437
 30
0.0
  0
POINT
  5
A95
330
A8B
100
AcDbEntity
  8
DEFPOINTS
 62
     0
100
AcDbPoint
 10
94.19321953791109
 20
132.440296901933
 30
0.0
  0
POINT
  5
A96
330
A8B
100
AcDbEntity
  8
DEFPOINTS
 62
     0
100
AcDbPoint
 10
109.6932174703434
 20
132.440296901933
 30
0.0
  0
ENDBLK
  5
A8D
330
A8B
100
AcDbEntity
  8
0
100
AcDbBlockEnd
  0
BLOCK
  5
A98
330
A97
100
AcDbEntity
  8
0
100
AcDbBlockBegin
  2
*D24
 70
     1
 10
0.0
 20
0.0
 30
0.0
  3
*D24
  1

  0
LINE
  5
A9A
330
A97
100
AcDbEntity
  8
DIM
 62
     0
 48
6.0
370
    -2
100
AcDbLine
 10
121.1401424738803
 20
107.3498192957058
 30
0.0
 11
121.1401424738803
 21
99.44029690194374
 31
0.0
  0
LINE
  5
A9B
330
A97
100
AcDbEntity
  8
DIM
 62
     0
 48
6.0
370
    -2
100
AcDbLine
 10
201.1401424738802
 20
107.3498192957058
 30
0.0
 11
201.1401424738802
 21
99.44029690194374
 31
0.0
  0
LINE
  5
A9C
330
A97
100
AcDbEntity
  8
DIM
 62
     0
 48
6.0
370
    -2
100
AcDbLine
 10
122.1401424738803
 20
99.44029690194374
 30
0.0
 11
200.1401424738802
 21
99.44029690194374
 31
0.0
  0
INSERT
  5
A9D
330
A97
100
AcDbEntity
  8
DIM
 62
     0
370
    -2
100
AcDbBlockReference
  2
_Dot
 10
121.1401424738803
 20
99.44029690194374
 30
0.0
 50
180.0
  0
INSERT
  5
A9E
330
A97
100
AcDbEntity
  8
DIM
 62
     0
370
    -2
100
AcDbBlockReference
  2
_Dot
 10
201.1401424738802
 20
99.44029690194374
 30
0.0
  0
MTEXT
  5
A9F
330
A97
100
AcDbEntity
  8
DIM
 62
     0
 48
6.0
100
AcDbMText
 10
161.1401424738802
 20
101.9402969019437
 30
0.0
 40
3.0
 41
0.0
 46
0.0
 71
     5
 72
     1
  1
\A1;2500
  7
ＭＳ ゴシック
 73
     1
 44
1.0
  0
POINT
  5
AA0
330
A97
100
AcDbEntity
  8
DEFPOINTS
 62
     0
100
AcDbPoint
 10
121.1401424738803
 20
109.3498192957058
 30
0.0
  0
POINT
  5
AA1
330
A97
100
AcDbEntity
  8
DEFPOINTS
 62
     0
100
AcDbPoint
 10
201.1401424738802
 20
109.3498192957058
 30
0.0
  0
POINT
  5
AA2
330
A97
100
AcDbEntity
  8
DEFPOINTS
 62
     0
100
AcDbPoint
 10
201.1401424738802
 20
99.44029690194374
 30
0.0
  0
ENDBLK
  5
A99
330
A97
100
AcDbEntity
  8
0
100
AcDbBlockEnd
  0
BLOCK
  5
AF9
330
AF8
100
AcDbEntity
  8
0
 48
6.0
100
AcDbBlockBegin
  2
*D25
 70
     1
 10
0.0
 20
0.0
 30
0.0
  3
*D25
  1

  0
LINE
  5
AFA
330
AF8
100
AcDbEntity
  8
寸法線
100
AcDbLine
 10
1.500000000000043
 20
21.35000000000211
 30
0.0
 11
1.500000000000043
 21
0.0
 31
0.0
  0
LINE
  5
AFB
330
AF8
100
AcDbEntity
  8
寸法線
100
AcDbLine
 10
11.50000000000004
 20
21.35000000000211
 30
0.0
 11
11.50000000000004
 21
0.0
 31
0.0
  0
LINE
  5
AFC
330
AF8
100
AcDbEntity
  8
寸法線
100
AcDbLine
 10
3.500000000000043
 20
2.0
 30
0.0
 11
9.500000000000043
 21
2.0
 31
0.0
  0
INSERT
  5
AFD
330
AF8
100
AcDbEntity
  8
寸法線
100
AcDbBlockReference
  2
_OPEN
 10
1.500000000000043
 20
2.0
 30
0.0
 41
2.0
 42
2.0
 43
2.0
 50
180.0
  0
INSERT
  5
AFE
330
AF8
100
AcDbEntity
  8
寸法線
100
AcDbBlockReference
  2
_OPEN
 10
11.50000000000004
 20
2.0
 30
0.0
 41
2.0
 42
2.0
 43
2.0
  0
MTEXT
  5
AFF
330
AF8
100
AcDbEntity
  8
寸法線
 48
6.0
100
AcDbMText
 10
6.500000000000043
 20
3.875
 30
0.0
 40
2.5
 41
0.0
 46
0.0
 71
     5
 72
     1
  1
\A1;10
  7
STYLE1
 73
     1
 44
1.0
  0
POINT
  5
B00
330
AF8
100
AcDbEntity
  8
DEFPOINTS
 62
     0
100
AcDbPoint
 10
1.500000000000043
 20
21.35000000000211
 30
0.0
  0
POINT
  5
B01
330
AF8
100
AcDbEntity
  8
DEFPOINTS
 62
     0
100
AcDbPoint
 10
11.50000000000004
 20
21.35000000000211
 30
0.0
  0
POINT
  5
B02
330
AF8
100
AcDbEntity
  8
DEFPOINTS
 62
     0
100
AcDbPoint
 10
11.50000000000004
 20
2.0
 30
0.0
  0
ENDBLK
  5
B03
330
AF8
100
AcDbEntity
  8
0
 48
6.0
100
AcDbBlockEnd
  0
BLOCK
  5
B2E
330
B2D
100
AcDbEntity
  8
0
 48
6.0
100
AcDbBlockBegin
  2
*D26
 70
     1
 10
0.0
 20
0.0
 30
0.0
  3
*D26
  1

  0
LINE
  5
B2F
330
B2D
100
AcDbEntity
  8
寸法線
 48
6.0
100
AcDbLine
 10
13.19528539826945
 20
39.49999999999753
 30
0.0
 11
25.48310347474812
 21
39.49999999999753
 31
0.0
  0
LINE
  5
B30
330
B2D
100
AcDbEntity
  8
寸法線
 48
6.0
100
AcDbLine
 10
12.50000001825012
 20
24.50000000000001
 30
0.0
 11
25.48310347474812
 21
24.50000000000001
 31
0.0
  0
LINE
  5
B31
330
B2D
100
AcDbEntity
  8
寸法線
 48
6.0
100
AcDbLine
 10
23.48310347474812
 20
37.49999999999753
 30
0.0
 11
23.48310347474812
 21
26.50000000000001
 31
0.0
  0
INSERT
  5
B32
330
B2D
100
AcDbEntity
  8
寸法線
100
AcDbBlockReference
  2
_OPEN
 10
23.48310347474812
 20
39.49999999999753
 30
0.0
 41
2.0
 42
2.0
 43
2.0
 50
90.0
  0
INSERT
  5
B33
330
B2D
100
AcDbEntity
  8
寸法線
100
AcDbBlockReference
  2
_OPEN
 10
23.48310347474812
 20
24.50000000000001
 30
0.0
 41
2.0
 42
2.0
 43
2.0
 50
270.0
  0
MTEXT
  5
B34
330
B2D
100
AcDbEntity
  8
寸法線
 48
6.0
100
AcDbMText
 10
21.60810347474812
 20
31.99999999999877
 30
0.0
 40
2.5
 41
0.0
 46
0.0
 71
     5
 72
     1
  1
\A1;15
  7
STYLE1
 11
0.0
 21
1.0
 31
0.0
 73
     1
 44
1.0
  0
POINT
  5
B35
330
B2D
100
AcDbEntity
  8
DEFPOINTS
 62
     0
100
AcDbPoint
 10
13.19528539826945
 20
39.49999999999753
 30
0.0
  0
POINT
  5
B36
330
B2D
100
AcDbEntity
  8
DEFPOINTS
 62
     0
100
AcDbPoint
 10
12.50000001825012
 20
24.50000000000001
 30
0.0
  0
POINT
  5
B37
330
B2D
100
AcDbEntity
  8
DEFPOINTS
 62
     0
100
AcDbPoint
 10
23.48310347474812
 20
24.50000000000001
 30
0.0
  0
ENDBLK
  5
B38
330
B2D
100
AcDbEntity
  8
0
 48
6.0
100
AcDbBlockEnd
  0
BLOCK
  5
B47
330
B46
100
AcDbEntity
  8
0
 48
6.0
100
AcDbBlockBegin
  2
*D27
 70
     1
 10
0.0
 20
0.0
 30
0.0
  3
*D27
  1

  0
LINE
  5
B48
330
B46
100
AcDbEntity
  8
寸法線
 48
6.0
100
AcDbLine
 10
125.1950536329305
 20
12.00000000000001
 30
0.0
 11
125.1950536329305
 21
0.0
 31
0.0
  0
LINE
  5
B49
330
B46
100
AcDbEntity
  8
寸法線
 48
6.0
100
AcDbLine
 10
45.19505363293042
 20
11.99999999999991
 30
0.0
 11
45.19505363293042
 21
0.0
 31
0.0
  0
LINE
  5
B4A
330
B46
100
AcDbEntity
  8
寸法線
 48
6.0
100
AcDbLine
 10
123.1950536329305
 20
2.0
 30
0.0
 11
47.19505363293042
 21
2.0
 31
0.0
  0
INSERT
  5
B4B
330
B46
100
AcDbEntity
  8
寸法線
100
AcDbBlockReference
  2
_OPEN
 10
125.1950536329305
 20
2.0
 30
0.0
 41
2.0
 42
2.0
 43
2.0
  0
INSERT
  5
B4C
330
B46
100
AcDbEntity
  8
寸法線
100
AcDbBlockReference
  2
_OPEN
 10
45.19505363293042
 20
2.0
 30
0.0
 41
2.0
 42
2.0
 43
2.0
 50
180.0
  0
MTEXT
  5
B4D
330
B46
100
AcDbEntity
  8
寸法線
 48
6.0
100
AcDbMText
 10
85.19505363293047
 20
3.875
 30
0.0
 40
2.5
 41
0.0
 46
0.0
 71
     5
 72
     1
  1
\A1;2500
  7
STYLE1
 73
     1
 44
1.0
  0
POINT
  5
B4E
330
B46
100
AcDbEntity
  8
DEFPOINTS
 62
     0
100
AcDbPoint
 10
125.1950536329305
 20
12.00000000000001
 30
0.0
  0
POINT
  5
B4F
330
B46
100
AcDbEntity
  8
DEFPOINTS
 62
     0
100
AcDbPoint
 10
45.19505363293042
 20
11.99999999999991
 30
0.0
  0
POINT
  5
B50
330
B46
100
AcDbEntity
  8
DEFPOINTS
 62
     0
100
AcDbPoint
 10
45.19505363293042
 20
2.0
 30
0.0
  0
ENDBLK
  5
B51
330
B46
100
AcDbEntity
  8
0
 48
6.0
100
AcDbBlockEnd
  0
BLOCK
  5
B90
330
B8F
100
AcDbEntity
  8
0
100
AcDbBlockBegin
  2
*D28
 70
     1
 10
0.0
 20
0.0
 30
0.0
  3
*D28
  1

  0
LINE
  5
B92
330
B8F
100
AcDbEntity
  8
DIM
 62
     0
370
    -2
100
AcDbLine
 10
80.07651403249632
 20
113.7507385524393
 30
0.0
 11
80.07651403249632
 21
96.4007385524372
 31
0.0
  0
LINE
  5
B93
330
B8F
100
AcDbEntity
  8
DIM
 62
     0
370
    -2
100
AcDbLine
 10
90.07651403249632
 20
113.7507385524393
 30
0.0
 11
90.07651403249632
 21
96.4007385524372
 31
0.0
  0
LINE
  5
B94
330
B8F
100
AcDbEntity
  8
DIM
 62
     0
370
    -2
100
AcDbLine
 10
81.07651403249632
 20
96.4007385524372
 30
0.0
 11
89.07651403249632
 21
96.4007385524372
 31
0.0
  0
INSERT
  5
B95
330
B8F
100
AcDbEntity
  8
DIM
 62
     0
370
    -2
100
AcDbBlockReference
  2
_Dot
 10
80.07651403249632
 20
96.4007385524372
 30
0.0
 50
180.0
  0
INSERT
  5
B96
330
B8F
100
AcDbEntity
  8
DIM
 62
     0
370
    -2
100
AcDbBlockReference
  2
_Dot
 10
90.07651403249632
 20
96.4007385524372
 30
0.0
  0
MTEXT
  5
B97
330
B8F
100
AcDbEntity
  8
DIM
 62
     0
 48
6.0
100
AcDbMText
 10
85.07651403249632
 20
98.9007385524372
 30
0.0
 40
3.0
 41
0.0
 46
0.0
 71
     5
 72
     1
  1
\A1;10
  7
ＭＳ ゴシック
 73
     1
 44
1.0
  0
POINT
  5
B98
330
B8F
100
AcDbEntity
  8
DEFPOINTS
 62
     0
100
AcDbPoint
 10
80.07651403249632
 20
115.7507385524393
 30
0.0
  0
POINT
  5
B99
330
B8F
100
AcDbEntity
  8
DEFPOINTS
 62
     0
100
AcDbPoint
 10
90.07651403249632
 20
115.7507385524393
 30
0.0
  0
POINT
  5
B9A
330
B8F
100
AcDbEntity
  8
DEFPOINTS
 62
     0
100
AcDbPoint
 10
90.07651403249632
 20
96.4007385524372
 30
0.0
  0
ENDBLK
  5
B91
330
B8F
100
AcDbEntity
  8
0
100
AcDbBlockEnd
  0
BLOCK
  5
B9C
330
B9B
100
AcDbEntity
  8
0
100
AcDbBlockBegin
  2
*D29
 70
     1
 10
0.0
 20
0.0
 30
0.0
  3
*D29
  1

  0
LINE
  5
B9E
330
B9B
100
AcDbEntity
  8
DIM
 62
     0
 48
6.0
370
    -2
100
AcDbLine
 10
93.77179943076572
 20
133.9007385524347
 30
0.0
 11
102.0596175072444
 21
133.9007385524347
 31
0.0
  0
LINE
  5
B9F
330
B9B
100
AcDbEntity
  8
DIM
 62
     0
 48
6.0
370
    -2
100
AcDbLine
 10
93.0765140507464
 20
118.9007385524372
 30
0.0
 11
102.0596175072444
 21
118.9007385524372
 31
0.0
  0
LINE
  5
BA0
330
B9B
100
AcDbEntity
  8
DIM
 62
     0
 48
6.0
370
    -2
100
AcDbLine
 10
102.0596175072444
 20
132.9007385524347
 30
0.0
 11
102.0596175072444
 21
119.9007385524372
 31
0.0
  0
INSERT
  5
BA1
330
B9B
100
AcDbEntity
  8
DIM
 62
     0
370
    -2
100
AcDbBlockReference
  2
_Dot
 10
102.0596175072444
 20
133.9007385524347
 30
0.0
 50
90.0
  0
INSERT
  5
BA2
330
B9B
100
AcDbEntity
  8
DIM
 62
     0
370
    -2
100
AcDbBlockReference
  2
_Dot
 10
102.0596175072444
 20
118.9007385524372
 30
0.0
 50
270.0
  0
MTEXT
  5
BA3
330
B9B
100
AcDbEntity
  8
DIM
 62
     0
 48
6.0
100
AcDbMText
 10
99.5596175072444
 20
126.400738552436
 30
0.0
 40
3.0
 41
0.0
 46
0.0
 71
     5
 72
     1
  1
\A1;15
  7
ＭＳ ゴシック
 11
0.0
 21
1.0
 31
0.0
 73
     1
 44
1.0
  0
POINT
  5
BA4
330
B9B
100
AcDbEntity
  8
DEFPOINTS
 62
     0
100
AcDbPoint
 10
91.77179943076572
 20
133.9007385524347
 30
0.0
  0
POINT
  5
BA5
330
B9B
100
AcDbEntity
  8
DEFPOINTS
 62
     0
100
AcDbPoint
 10
91.0765140507464
 20
118.9007385524372
 30
0.0
  0
POINT
  5
BA6
330
B9B
100
AcDbEntity
  8
DEFPOINTS
 62
     0
100
AcDbPoint
 10
102.0596175072444
 20
118.9007385524372
 30
0.0
  0
ENDBLK
  5
B9D
330
B9B
100
AcDbEntity
  8
0
100
AcDbBlockEnd
  0
BLOCK
  5
BA8
330
BA7
100
AcDbEntity
  8
0
100
AcDbBlockBegin
  2
*D30
 70
     1
 10
0.0
 20
0.0
 30
0.0
  3
*D30
  1

  0
LINE
  5
BAA
330
BA7
100
AcDbEntity
  8
DIM
 62
     0
 48
6.0
370
    -2
100
AcDbLine
 10
203.7715676654268
 20
104.4007385524372
 30
0.0
 11
203.7715676654268
 21
96.4007385524372
 31
0.0
  0
LINE
  5
BAB
330
BA7
100
AcDbEntity
  8
DIM
 62
     0
 48
6.0
370
    -2
100
AcDbLine
 10
123.7715676654267
 20
104.4007385524371
 30
0.0
 11
123.7715676654267
 21
96.4007385524372
 31
0.0
  0
LINE
  5
BAC
330
BA7
100
AcDbEntity
  8
DIM
 62
     0
 48
6.0
370
    -2
100
AcDbLine
 10
202.7715676654268
 20
96.4007385524372
 30
0.0
 11
124.7715676654267
 21
96.4007385524372
 31
0.0
  0
INSERT
  5
BAD
330
BA7
100
AcDbEntity
  8
DIM
 62
     0
370
    -2
100
AcDbBlockReference
  2
_Dot
 10
203.7715676654268
 20
96.4007385524372
 30
0.0
  0
INSERT
  5
BAE
330
BA7
100
AcDbEntity
  8
DIM
 62
     0
370
    -2
100
AcDbBlockReference
  2
_Dot
 10
123.7715676654267
 20
96.4007385524372
 30
0.0
 50
180.0
  0
MTEXT
  5
BAF
330
BA7
100
AcDbEntity
  8
DIM
 62
     0
 48
6.0
100
AcDbMText
 10
163.7715676654267
 20
98.9007385524372
 30
0.0
 40
3.0
 41
0.0
 46
0.0
 71
     5
 72
     1
  1
\A1;2500
  7
ＭＳ ゴシック
 73
     1
 44
1.0
  0
POINT
  5
BB0
330
BA7
100
AcDbEntity
  8
DEFPOINTS
 62
     0
100
AcDbPoint
 10
203.7715676654268
 20
106.4007385524372
 30
0.0
  0
POINT
  5
BB1
330
BA7
100
AcDbEntity
  8
DEFPOINTS
 62
     0
100
AcDbPoint
 10
123.7715676654267
 20
106.4007385524371
 30
0.0
  0
POINT
  5
BB2
330
BA7
100
AcDbEntity
  8
DEFPOINTS
 62
     0
100
AcDbPoint
 10
123.7715676654267
 20
96.4007385524372
 30
0.0
  0
ENDBLK
  5
BA9
330
BA7
100
AcDbEntity
  8
0
100
AcDbBlockEnd
  0
BLOCK
  5
BF9
330
BF8
100
AcDbEntity
  8
0
 48
6.0
100
AcDbBlockBegin
  2
*D31
 70
     1
 10
0.0
 20
0.0
 30
0.0
  3
*D31
  1

  0
LINE
  5
BFA
330
BF8
100
AcDbEntity
  8
寸法線
100
AcDbLine
 10
1.499999999999602
 20
20.09999999999765
 30
0.0
 11
1.499999999999602
 21
0.0
 31
0.0
  0
LINE
  5
BFB
330
BF8
100
AcDbEntity
  8
寸法線
100
AcDbLine
 10
9.499999999999602
 20
20.09999999999765
 30
0.0
 11
9.499999999999602
 21
0.0
 31
0.0
  0
LINE
  5
BFC
330
BF8
100
AcDbEntity
  8
寸法線
100
AcDbLine
 10
3.499999999999602
 20
2.0
 30
0.0
 11
7.499999999999602
 21
2.0
 31
0.0
  0
INSERT
  5
BFD
330
BF8
100
AcDbEntity
  8
寸法線
100
AcDbBlockReference
  2
_OPEN
 10
1.499999999999602
 20
2.0
 30
0.0
 41
2.0
 42
2.0
 43
2.0
 50
180.0
  0
INSERT
  5
BFE
330
BF8
100
AcDbEntity
  8
寸法線
100
AcDbBlockReference
  2
_OPEN
 10
9.499999999999602
 20
2.0
 30
0.0
 41
2.0
 42
2.0
 43
2.0
  0
MTEXT
  5
BFF
330
BF8
100
AcDbEntity
  8
寸法線
 48
6.0
100
AcDbMText
 10
5.499999999999602
 20
3.875
 30
0.0
 40
2.5
 41
0.0
 46
0.0
 71
     5
 72
     1
  1
\A1;8
  7
STYLE1
 73
     1
 44
1.0
  0
POINT
  5
C00
330
BF8
100
AcDbEntity
  8
DEFPOINTS
 62
     0
100
AcDbPoint
 10
1.499999999999602
 20
20.09999999999765
 30
0.0
  0
POINT
  5
C01
330
BF8
100
AcDbEntity
  8
DEFPOINTS
 62
     0
100
AcDbPoint
 10
9.499999999999602
 20
20.09999999999765
 30
0.0
  0
POINT
  5
C02
330
BF8
100
AcDbEntity
  8
DEFPOINTS
 62
     0
100
AcDbPoint
 10
9.499999999999602
 20
2.0
 30
0.0
  0
ENDBLK
  5
C03
330
BF8
100
AcDbEntity
  8
0
 48
6.0
100
AcDbBlockEnd
  0
BLOCK
  5
C31
330
C30
100
AcDbEntity
  8
0
 48
6.0
100
AcDbBlockBegin
  2
*D32
 70
     1
 10
0.0
 20
0.0
 30
0.0
  3
*D32
  1

  0
LINE
  5
C32
330
C30
100
AcDbEntity
  8
寸法線
 48
6.0
100
AcDbLine
 10
11.19528539826941
 20
38.49999999999825
 30
0.0
 11
23.48310347474821
 21
38.49999999999825
 31
0.0
  0
LINE
  5
C33
330
C30
100
AcDbEntity
  8
寸法線
 48
6.0
100
AcDbLine
 10
10.50000001825011
 20
23.50000000000055
 30
0.0
 11
23.48310347474821
 21
23.50000000000055
 31
0.0
  0
LINE
  5
C34
330
C30
100
AcDbEntity
  8
寸法線
 48
6.0
100
AcDbLine
 10
21.48310347474821
 20
36.49999999999825
 30
0.0
 11
21.48310347474821
 21
25.50000000000055
 31
0.0
  0
INSERT
  5
C35
330
C30
100
AcDbEntity
  8
寸法線
100
AcDbBlockReference
  2
_OPEN
 10
21.48310347474821
 20
38.49999999999825
 30
0.0
 41
2.0
 42
2.0
 43
2.0
 50
90.0
  0
INSERT
  5
C36
330
C30
100
AcDbEntity
  8
寸法線
100
AcDbBlockReference
  2
_OPEN
 10
21.48310347474821
 20
23.50000000000055
 30
0.0
 41
2.0
 42
2.0
 43
2.0
 50
270.0
  0
MTEXT
  5
C37
330
C30
100
AcDbEntity
  8
寸法線
 48
6.0
100
AcDbMText
 10
19.60810347474821
 20
30.9999999999994
 30
0.0
 40
2.5
 41
0.0
 46
0.0
 71
     5
 72
     1
  1
\A1;15
  7
STYLE1
 11
0.0
 21
1.0
 31
0.0
 73
     1
 44
1.0
  0
POINT
  5
C38
330
C30
100
AcDbEntity
  8
DEFPOINTS
 62
     0
100
AcDbPoint
 10
11.19528539826941
 20
38.49999999999825
 30
0.0
  0
POINT
  5
C39
330
C30
100
AcDbEntity
  8
DEFPOINTS
 62
     0
100
AcDbPoint
 10
10.50000001825011
 20
23.50000000000055
 30
0.0
  0
POINT
  5
C3A
330
C30
100
AcDbEntity
  8
DEFPOINTS
 62
     0
100
AcDbPoint
 10
21.48310347474821
 20
23.50000000000055
 30
0.0
  0
ENDBLK
  5
C3B
330
C30
100
AcDbEntity
  8
0
 48
6.0
100
AcDbBlockEnd
  0
BLOCK
  5
C4A
330
C49
100
AcDbEntity
  8
0
 48
6.0
100
AcDbBlockBegin
  2
*D33
 70
     1
 10
0.0
 20
0.0
 30
0.0
  3
*D33
  1

  0
LINE
  5
C4B
330
C49
100
AcDbEntity
  8
寸法線
 48
6.0
100
AcDbLine
 10
37.26251121000921
 20
11.83944587456436
 30
0.0
 11
37.26251121000921
 21
0.0
 31
0.0
  0
LINE
  5
C4C
330
C49
100
AcDbEntity
  8
寸法線
 48
6.0
100
AcDbLine
 10
117.2625112100092
 20
11.99999999999996
 30
0.0
 11
117.2625112100092
 21
0.0
 31
0.0
  0
LINE
  5
C4D
330
C49
100
AcDbEntity
  8
寸法線
 48
6.0
100
AcDbLine
 10
39.26251121000921
 20
2.0
 30
0.0
 11
115.2625112100092
 21
2.0
 31
0.0
  0
INSERT
  5
C4E
330
C49
100
AcDbEntity
  8
寸法線
100
AcDbBlockReference
  2
_OPEN
 10
37.26251121000921
 20
2.0
 30
0.0
 41
2.0
 42
2.0
 43
2.0
 50
180.0
  0
INSERT
  5
C4F
330
C49
100
AcDbEntity
  8
寸法線
100
AcDbBlockReference
  2
_OPEN
 10
117.2625112100092
 20
2.0
 30
0.0
 41
2.0
 42
2.0
 43
2.0
  0
MTEXT
  5
C50
330
C49
100
AcDbEntity
  8
寸法線
 48
6.0
100
AcDbMText
 10
77.26251121000921
 20
3.875
 30
0.0
 40
2.5
 41
0.0
 46
0.0
 71
     5
 72
     1
  1
\A1;2500
  7
STYLE1
 73
     1
 44
1.0
  0
POINT
  5
C51
330
C49
100
AcDbEntity
  8
DEFPOINTS
 62
     0
100
AcDbPoint
 10
37.26251121000921
 20
11.83944587456436
 30
0.0
  0
POINT
  5
C52
330
C49
100
AcDbEntity
  8
DEFPOINTS
 62
     0
100
AcDbPoint
 10
117.2625112100092
 20
11.99999999999996
 30
0.0
  0
POINT
  5
C53
330
C49
100
AcDbEntity
  8
DEFPOINTS
 62
     0
100
AcDbPoint
 10
117.2625112100092
 20
2.0
 30
0.0
  0
ENDBLK
  5
C54
330
C49
100
AcDbEntity
  8
0
 48
6.0
100
AcDbBlockEnd
  0
BLOCK
  5
C93
330
C92
100
AcDbEntity
  8
0
100
AcDbBlockBegin
  2
*D34
 70
     1
 10
0.0
 20
0.0
 30
0.0
  3
*D34
  1

  0
LINE
  5
C95
330
C92
100
AcDbEntity
  8
DIM
 62
     0
370
    -2
100
AcDbLine
 10
88.42128536011766
 20
111.2438420608543
 30
0.0
 11
88.42128536011766
 21
95.1438420608567
 31
0.0
  0
LINE
  5
C96
330
C92
100
AcDbEntity
  8
DIM
 62
     0
370
    -2
100
AcDbLine
 10
96.42128536011766
 20
111.2438420608543
 30
0.0
 11
96.42128536011766
 21
95.1438420608567
 31
0.0
  0
LINE
  5
C97
330
C92
100
AcDbEntity
  8
DIM
 62
     0
370
    -2
100
AcDbLine
 10
89.42128536011766
 20
95.1438420608567
 30
0.0
 11
95.42128536011766
 21
95.1438420608567
 31
0.0
  0
INSERT
  5
C98
330
C92
100
AcDbEntity
  8
DIM
 62
     0
370
    -2
100
AcDbBlockReference
  2
_Dot
 10
88.42128536011766
 20
95.1438420608567
 30
0.0
 50
180.0
  0
INSERT
  5
C99
330
C92
100
AcDbEntity
  8
DIM
 62
     0
370
    -2
100
AcDbBlockReference
  2
_Dot
 10
96.42128536011766
 20
95.1438420608567
 30
0.0
  0
MTEXT
  5
C9A
330
C92
100
AcDbEntity
  8
DIM
 62
     0
 48
6.0
100
AcDbMText
 10
92.42128536011766
 20
97.6438420608567
 30
0.0
 40
3.0
 41
0.0
 46
0.0
 71
     5
 72
     1
  1
\A1;8
  7
ＭＳ ゴシック
 73
     1
 44
1.0
  0
POINT
  5
C9B
330
C92
100
AcDbEntity
  8
DEFPOINTS
 62
     0
100
AcDbPoint
 10
88.42128536011766
 20
113.2438420608543
 30
0.0
  0
POINT
  5
C9C
330
C92
100
AcDbEntity
  8
DEFPOINTS
 62
     0
100
AcDbPoint
 10
96.42128536011766
 20
113.2438420608543
 30
0.0
  0
POINT
  5
C9D
330
C92
100
AcDbEntity
  8
DEFPOINTS
 62
     0
100
AcDbPoint
 10
96.42128536011766
 20
95.1438420608567
 30
0.0
  0
ENDBLK
  5
C94
330
C92
100
AcDbEntity
  8
0
100
AcDbBlockEnd
  0
BLOCK
  5
C9F
330
C9E
100
AcDbEntity
  8
0
100
AcDbBlockBegin
  2
*D35
 70
     1
 10
0.0
 20
0.0
 30
0.0
  3
*D35
  1

  0
LINE
  5
CA1
330
C9E
100
AcDbEntity
  8
DIM
 62
     0
 48
6.0
370
    -2
100
AcDbLine
 10
100.1165707583875
 20
131.643842060855
 30
0.0
 11
108.4043888348663
 21
131.643842060855
 31
0.0
  0
LINE
  5
CA2
330
C9E
100
AcDbEntity
  8
DIM
 62
     0
 48
6.0
370
    -2
100
AcDbLine
 10
99.42128537836817
 20
116.6438420608573
 30
0.0
 11
108.4043888348663
 21
116.6438420608573
 31
0.0
  0
LINE
  5
CA3
330
C9E
100
AcDbEntity
  8
DIM
 62
     0
 48
6.0
370
    -2
100
AcDbLine
 10
108.4043888348663
 20
130.643842060855
 30
0.0
 11
108.4043888348663
 21
117.6438420608573
 31
0.0
  0
INSERT
  5
CA4
330
C9E
100
AcDbEntity
  8
DIM
 62
     0
370
    -2
100
AcDbBlockReference
  2
_Dot
 10
108.4043888348663
 20
131.643842060855
 30
0.0
 50
90.0
  0
INSERT
  5
CA5
330
C9E
100
AcDbEntity
  8
DIM
 62
     0
370
    -2
100
AcDbBlockReference
  2
_Dot
 10
108.4043888348663
 20
116.6438420608573
 30
0.0
 50
270.0
  0
MTEXT
  5
CA6
330
C9E
100
AcDbEntity
  8
DIM
 62
     0
 48
6.0
100
AcDbMText
 10
105.9043888348663
 20
124.1438420608561
 30
0.0
 40
3.0
 41
0.0
 46
0.0
 71
     5
 72
     1
  1
\A1;15
  7
ＭＳ ゴシック
 11
0.0
 21
1.0
 31
0.0
 73
     1
 44
1.0
  0
POINT
  5
CA7
330
C9E
100
AcDbEntity
  8
DEFPOINTS
 62
     0
100
AcDbPoint
 10
98.11657075838747
 20
131.643842060855
 30
0.0
  0
POINT
  5
CA8
330
C9E
100
AcDbEntity
  8
DEFPOINTS
 62
     0
100
AcDbPoint
 10
97.42128537836817
 20
116.6438420608573
 30
0.0
  0
POINT
  5
CA9
330
C9E
100
AcDbEntity
  8
DEFPOINTS
 62
     0
100
AcDbPoint
 10
108.4043888348663
 20
116.6438420608573
 30
0.0
  0
ENDBLK
  5
CA0
330
C9E
100
AcDbEntity
  8
0
100
AcDbBlockEnd
  0
BLOCK
  5
CAB
330
CAA
100
AcDbEntity
  8
0
100
AcDbBlockBegin
  2
*D36
 70
     1
 10
0.0
 20
0.0
 30
0.0
  3
*D36
  1

  0
LINE
  5
CAD
330
CAA
100
AcDbEntity
  8
DIM
 62
     0
 48
6.0
370
    -2
100
AcDbLine
 10
124.1837965701273
 20
102.9832879354211
 30
0.0
 11
124.1837965701273
 21
95.1438420608567
 31
0.0
  0
LINE
  5
CAE
330
CAA
100
AcDbEntity
  8
DIM
 62
     0
 48
6.0
370
    -2
100
AcDbLine
 10
204.1837965701273
 20
103.1438420608567
 30
0.0
 11
204.1837965701273
 21
95.1438420608567
 31
0.0
  0
LINE
  5
CAF
330
CAA
100
AcDbEntity
  8
DIM
 62
     0
 48
6.0
370
    -2
100
AcDbLine
 10
125.1837965701273
 20
95.1438420608567
 30
0.0
 11
203.1837965701273
 21
95.1438420608567
 31
0.0
  0
INSERT
  5
CB0
330
CAA
100
AcDbEntity
  8
DIM
 62
     0
370
    -2
100
AcDbBlockReference
  2
_Dot
 10
124.1837965701273
 20
95.1438420608567
 30
0.0
 50
180.0
  0
INSERT
  5
CB1
330
CAA
100
AcDbEntity
  8
DIM
 62
     0
370
    -2
100
AcDbBlockReference
  2
_Dot
 10
204.1837965701273
 20
95.1438420608567
 30
0.0
  0
MTEXT
  5
CB2
330
CAA
100
AcDbEntity
  8
DIM
 62
     0
 48
6.0
100
AcDbMText
 10
164.1837965701273
 20
97.6438420608567
 30
0.0
 40
3.0
 41
0.0
 46
0.0
 71
     5
 72
     1
  1
\A1;2500
  7
ＭＳ ゴシック
 73
     1
 44
1.0
  0
POINT
  5
CB3
330
CAA
100
AcDbEntity
  8
DEFPOINTS
 62
     0
100
AcDbPoint
 10
124.1837965701273
 20
104.9832879354211
 30
0.0
  0
POINT
  5
CB4
330
CAA
100
AcDbEntity
  8
DEFPOINTS
 62
     0
100
AcDbPoint
 10
204.1837965701273
 20
105.1438420608567
 30
0.0
  0
POINT
  5
CB5
330
CAA
100
AcDbEntity
  8
DEFPOINTS
 62
     0
100
AcDbPoint
 10
204.1837965701273
 20
95.1438420608567
 30
0.0
  0
ENDBLK
  5
CAC
330
CAA
100
AcDbEntity
  8
0
100
AcDbBlockEnd
  0
BLOCK
  5
D02
330
D01
100
AcDbEntity
  8
0
 48
6.0
100
AcDbBlockBegin
  2
*D37
 70
     1
 10
0.0
 20
0.0
 30
0.0
  3
*D37
  1

  0
LINE
  5
D03
330
D01
100
AcDbEntity
  8
寸法線
100
AcDbLine
 10
13.0
 20
23.5000000000002
 30
0.0
 11
13.0
 21
30.49999999999969
 31
0.0
  0
LINE
  5
D04
330
D01
100
AcDbEntity
  8
寸法線
100
AcDbLine
 10
24.99999999999996
 20
22.2553366635519
 30
0.0
 11
24.99999999999996
 21
30.49999999999969
 31
0.0
  0
LINE
  5
D05
330
D01
100
AcDbEntity
  8
寸法線
100
AcDbLine
 10
15.0
 20
28.49999999999969
 30
0.0
 11
22.99999999999996
 21
28.49999999999969
 31
0.0
  0
INSERT
  5
D06
330
D01
100
AcDbEntity
  8
寸法線
100
AcDbBlockReference
  2
_OPEN
 10
13.0
 20
28.49999999999969
 30
0.0
 41
2.0
 42
2.0
 43
2.0
 50
180.0
  0
INSERT
  5
D07
330
D01
100
AcDbEntity
  8
寸法線
100
AcDbBlockReference
  2
_OPEN
 10
24.99999999999996
 20
28.49999999999969
 30
0.0
 41
2.0
 42
2.0
 43
2.0
  0
MTEXT
  5
D08
330
D01
100
AcDbEntity
  8
寸法線
 48
6.0
100
AcDbMText
 10
18.99999999999998
 20
30.37499999999969
 30
0.0
 40
2.5
 41
0.0
 46
0.0
 71
     5
 72
     1
  1
\A1;12
  7
STYLE1
 73
     1
 44
1.0
  0
POINT
  5
D09
330
D01
100
AcDbEntity
  8
DEFPOINTS
 62
     0
100
AcDbPoint
 10
13.0
 20
23.5000000000002
 30
0.0
  0
POINT
  5
D0A
330
D01
100
AcDbEntity
  8
DEFPOINTS
 62
     0
100
AcDbPoint
 10
24.99999999999996
 20
22.2553366635519
 30
0.0
  0
POINT
  5
D0B
330
D01
100
AcDbEntity
  8
DEFPOINTS
 62
     0
100
AcDbPoint
 10
24.99999999999996
 20
28.49999999999969
 30
0.0
  0
ENDBLK
  5
D0C
330
D01
100
AcDbEntity
  8
0
 48
6.0
100
AcDbBlockEnd
  0
BLOCK
  5
D10
330
D0F
100
AcDbEntity
  8
0
 48
6.0
100
AcDbBlockBegin
  2
*D38
 70
     1
 10
0.0
 20
0.0
 30
0.0
  3
*D38
  1

  0
LINE
  5
D11
330
D0F
100
AcDbEntity
  8
寸法線
100
AcDbLine
 10
1.5
 20
22.10000000000019
 30
0.0
 11
1.5
 21
0.0
 31
0.0
  0
LINE
  5
D12
330
D0F
100
AcDbEntity
  8
寸法線
100
AcDbLine
 10
11.5
 20
22.10000000000019
 30
0.0
 11
11.5
 21
0.0
 31
0.0
  0
LINE
  5
D13
330
D0F
100
AcDbEntity
  8
寸法線
100
AcDbLine
 10
3.5
 20
2.0
 30
0.0
 11
9.5
 21
2.0
 31
0.0
  0
INSERT
  5
D14
330
D0F
100
AcDbEntity
  8
寸法線
100
AcDbBlockReference
  2
_OPEN
 10
1.5
 20
2.0
 30
0.0
 41
2.0
 42
2.0
 43
2.0
 50
180.0
  0
INSERT
  5
D15
330
D0F
100
AcDbEntity
  8
寸法線
100
AcDbBlockReference
  2
_OPEN
 10
11.5
 20
2.0
 30
0.0
 41
2.0
 42
2.0
 43
2.0
  0
MTEXT
  5
D16
330
D0F
100
AcDbEntity
  8
寸法線
 48
6.0
100
AcDbMText
 10
6.5
 20
3.875
 30
0.0
 40
2.5
 41
0.0
 46
0.0
 71
     5
 72
     1
  1
\A1;10
  7
STYLE1
 73
     1
 44
1.0
  0
POINT
  5
D17
330
D0F
100
AcDbEntity
  8
DEFPOINTS
 62
     0
100
AcDbPoint
 10
1.5
 20
22.10000000000019
 30
0.0
  0
POINT
  5
D18
330
D0F
100
AcDbEntity
  8
DEFPOINTS
 62
     0
100
AcDbPoint
 10
11.5
 20
22.10000000000019
 30
0.0
  0
POINT
  5
D19
330
D0F
100
AcDbEntity
  8
DEFPOINTS
 62
     0
100
AcDbPoint
 10
11.5
 20
2.0
 30
0.0
  0
ENDBLK
  5
D1A
330
D0F
100
AcDbEntity
  8
0
 48
6.0
100
AcDbBlockEnd
  0
BLOCK
  5
D49
330
D48
100
AcDbEntity
  8
0
 48
6.0
100
AcDbBlockBegin
  2
*D39
 70
     1
 10
0.0
 20
0.0
 30
0.0
  3
*D39
  1

  0
LINE
  5
D4A
330
D48
100
AcDbEntity
  8
寸法線
 48
6.0
100
AcDbLine
 10
117.2222512212699
 20
12.0703124802576
 30
0.0
 11
117.2222512212699
 21
0.0
 31
0.0
  0
LINE
  5
D4B
330
D48
100
AcDbEntity
  8
寸法線
 48
6.0
100
AcDbLine
 10
37.22225122126986
 20
12.0703124802576
 30
0.0
 11
37.22225122126986
 21
0.0
 31
0.0
  0
LINE
  5
D4C
330
D48
100
AcDbEntity
  8
寸法線
 48
6.0
100
AcDbLine
 10
115.2222512212699
 20
2.0
 30
0.0
 11
39.22225122126986
 21
2.0
 31
0.0
  0
INSERT
  5
D4D
330
D48
100
AcDbEntity
  8
寸法線
100
AcDbBlockReference
  2
_OPEN
 10
117.2222512212699
 20
2.0
 30
0.0
 41
2.0
 42
2.0
 43
2.0
  0
INSERT
  5
D4E
330
D48
100
AcDbEntity
  8
寸法線
100
AcDbBlockReference
  2
_OPEN
 10
37.22225122126986
 20
2.0
 30
0.0
 41
2.0
 42
2.0
 43
2.0
 50
180.0
  0
MTEXT
  5
D4F
330
D48
100
AcDbEntity
  8
寸法線
 48
6.0
100
AcDbMText
 10
77.22225122126986
 20
3.875
 30
0.0
 40
2.5
 41
0.0
 46
0.0
 71
     5
 72
     1
  1
\A1;2500
  7
STYLE1
 73
     1
 44
1.0
  0
POINT
  5
D50
330
D48
100
AcDbEntity
  8
DEFPOINTS
 62
     0
100
AcDbPoint
 10
117.2222512212699
 20
12.0703124802576
 30
0.0
  0
POINT
  5
D51
330
D48
100
AcDbEntity
  8
DEFPOINTS
 62
     0
100
AcDbPoint
 10
37.22225122126986
 20
12.0703124802576
 30
0.0
  0
POINT
  5
D52
330
D48
100
AcDbEntity
  8
DEFPOINTS
 62
     0
100
AcDbPoint
 10
37.22225122126986
 20
2.0
 30
0.0
  0
ENDBLK
  5
D53
330
D48
100
AcDbEntity
  8
0
 48
6.0
100
AcDbBlockEnd
  0
BLOCK
  5
D8A
330
D89
100
AcDbEntity
  8
0
100
AcDbBlockBegin
  2
*D40
 70
     1
 10
0.0
 20
0.0
 30
0.0
  3
*D40
  1

  0
LINE
  5
D8C
330
D89
100
AcDbEntity
  8
DIM
 62
     0
370
    -2
100
AcDbLine
 10
100.8979364298375
 20
123.9943441772528
 30
0.0
 11
100.8979364298375
 21
126.9943441772523
 31
0.0
  0
LINE
  5
D8D
330
D89
100
AcDbEntity
  8
DIM
 62
     0
370
    -2
100
AcDbLine
 10
112.8979364298375
 20
122.7496808408045
 30
0.0
 11
112.8979364298375
 21
126.9943441772523
 31
0.0
  0
LINE
  5
D8E
330
D89
100
AcDbEntity
  8
DIM
 62
     0
370
    -2
100
AcDbLine
 10
101.8979364298375
 20
126.9943441772523
 30
0.0
 11
111.8979364298375
 21
126.9943441772523
 31
0.0
  0
INSERT
  5
D8F
330
D89
100
AcDbEntity
  8
DIM
 62
     0
370
    -2
100
AcDbBlockReference
  2
_Dot
 10
100.8979364298375
 20
126.9943441772523
 30
0.0
 50
180.0
  0
INSERT
  5
D90
330
D89
100
AcDbEntity
  8
DIM
 62
     0
370
    -2
100
AcDbBlockReference
  2
_Dot
 10
112.8979364298375
 20
126.9943441772523
 30
0.0
  0
MTEXT
  5
D91
330
D89
100
AcDbEntity
  8
DIM
 62
     0
 48
6.0
100
AcDbMText
 10
106.8979364298375
 20
129.4943441772523
 30
0.0
 40
3.0
 41
0.0
 46
0.0
 71
     5
 72
     1
  1
\A1;12
  7
ＭＳ ゴシック
 73
     1
 44
1.0
  0
POINT
  5
D92
330
D89
100
AcDbEntity
  8
DEFPOINTS
 62
     0
100
AcDbPoint
 10
100.8979364298375
 20
121.9943441772528
 30
0.0
  0
POINT
  5
D93
330
D89
100
AcDbEntity
  8
DEFPOINTS
 62
     0
100
AcDbPoint
 10
112.8979364298375
 20
120.7496808408045
 30
0.0
  0
POINT
  5
D94
330
D89
100
AcDbEntity
  8
DEFPOINTS
 62
     0
100
AcDbPoint
 10
112.8979364298375
 20
126.9943441772523
 30
0.0
  0
ENDBLK
  5
D8B
330
D89
100
AcDbEntity
  8
0
100
AcDbBlockEnd
  0
BLOCK
  5
D96
330
D95
100
AcDbEntity
  8
0
100
AcDbBlockBegin
  2
*D41
 70
     1
 10
0.0
 20
0.0
 30
0.0
  3
*D41
  1

  0
LINE
  5
D98
330
D95
100
AcDbEntity
  8
DIM
 62
     0
370
    -2
100
AcDbLine
 10
89.39793642983753
 20
118.5943441772528
 30
0.0
 11
89.39793642983753
 21
100.4943441772526
 31
0.0
  0
LINE
  5
D99
330
D95
100
AcDbEntity
  8
DIM
 62
     0
370
    -2
100
AcDbLine
 10
99.39793642983753
 20
118.5943441772528
 30
0.0
 11
99.39793642983753
 21
100.4943441772526
 31
0.0
  0
LINE
  5
D9A
330
D95
100
AcDbEntity
  8
DIM
 62
     0
370
    -2
100
AcDbLine
 10
90.39793642983753
 20
100.4943441772526
 30
0.0
 11
98.39793642983753
 21
100.4943441772526
 31
0.0
  0
INSERT
  5
D9B
330
D95
100
AcDbEntity
  8
DIM
 62
     0
370
    -2
100
AcDbBlockReference
  2
_Dot
 10
89.39793642983753
 20
100.4943441772526
 30
0.0
 50
180.0
  0
INSERT
  5
D9C
330
D95
100
AcDbEntity
  8
DIM
 62
     0
370
    -2
100
AcDbBlockReference
  2
_Dot
 10
99.39793642983753
 20
100.4943441772526
 30
0.0
  0
MTEXT
  5
D9D
330
D95
100
AcDbEntity
  8
DIM
 62
     0
 48
6.0
100
AcDbMText
 10
94.39793642983753
 20
102.9943441772526
 30
0.0
 40
3.0
 41
0.0
 46
0.0
 71
     5
 72
     1
  1
\A1;10
  7
ＭＳ ゴシック
 73
     1
 44
1.0
  0
POINT
  5
D9E
330
D95
100
AcDbEntity
  8
DEFPOINTS
 62
     0
100
AcDbPoint
 10
89.39793642983753
 20
120.5943441772528
 30
0.0
  0
POINT
  5
D9F
330
D95
100
AcDbEntity
  8
DEFPOINTS
 62
     0
100
AcDbPoint
 10
99.39793642983753
 20
120.5943441772528
 30
0.0
  0
POINT
  5
DA0
330
D95
100
AcDbEntity
  8
DEFPOINTS
 62
     0
100
AcDbPoint
 10
99.39793642983753
 20
100.4943441772526
 30
0.0
  0
ENDBLK
  5
D97
330
D95
100
AcDbEntity
  8
0
100
AcDbBlockEnd
  0
BLOCK
  5
DA2
330
DA1
100
AcDbEntity
  8
0
100
AcDbBlockBegin
  2
*D42
 70
     1
 10
0.0
 20
0.0
 30
0.0
  3
*D42
  1

  0
LINE
  5
DA4
330
DA1
100
AcDbEntity
  8
DIM
 62
     0
 48
6.0
370
    -2
100
AcDbLine
 10
205.1201876511074
 20
108.5646566575102
 30
0.0
 11
205.1201876511074
 21
100.4943441772526
 31
0.0
  0
LINE
  5
DA5
330
DA1
100
AcDbEntity
  8
DIM
 62
     0
 48
6.0
370
    -2
100
AcDbLine
 10
125.1201876511074
 20
108.5646566575102
 30
0.0
 11
125.1201876511074
 21
100.4943441772526
 31
0.0
  0
LINE
  5
DA6
330
DA1
100
AcDbEntity
  8
DIM
 62
     0
 48
6.0
370
    -2
100
AcDbLine
 10
204.1201876511074
 20
100.4943441772526
 30
0.0
 11
126.1201876511074
 21
100.4943441772526
 31
0.0
  0
INSERT
  5
DA7
330
DA1
100
AcDbEntity
  8
DIM
 62
     0
370
    -2
100
AcDbBlockReference
  2
_Dot
 10
205.1201876511074
 20
100.4943441772526
 30
0.0
  0
INSERT
  5
DA8
330
DA1
100
AcDbEntity
  8
DIM
 62
     0
370
    -2
100
AcDbBlockReference
  2
_Dot
 10
125.1201876511074
 20
100.4943441772526
 30
0.0
 50
180.0
  0
MTEXT
  5
DA9
330
DA1
100
AcDbEntity
  8
DIM
 62
     0
 48
6.0
100
AcDbMText
 10
165.1201876511074
 20
102.9943441772526
 30
0.0
 40
3.0
 41
0.0
 46
0.0
 71
     5
 72
     1
  1
\A1;2500
  7
ＭＳ ゴシック
 73
     1
 44
1.0
  0
POINT
  5
DAA
330
DA1
100
AcDbEntity
  8
DEFPOINTS
 62
     0
100
AcDbPoint
 10
205.1201876511074
 20
110.5646566575102
 30
0.0
  0
POINT
  5
DAB
330
DA1
100
AcDbEntity
  8
DEFPOINTS
 62
     0
100
AcDbPoint
 10
125.1201876511074
 20
110.5646566575102
 30
0.0
  0
POINT
  5
DAC
330
DA1
100
AcDbEntity
  8
DEFPOINTS
 62
     0
100
AcDbPoint
 10
125.1201876511074
 20
100.4943441772526
 30
0.0
  0
ENDBLK
  5
DA3
330
DA1
100
AcDbEntity
  8
0
100
AcDbBlockEnd
  0
BLOCK
  5
DEF
330
DEE
100
AcDbEntity
  8
0
 48
6.0
100
AcDbBlockBegin
  2
*D43
 70
     1
 10
0.0
 20
0.0
 30
0.0
  3
*D43
  1

  0
LINE
  5
DF0
330
DEE
100
AcDbEntity
  8
寸法線
100
AcDbLine
 10
11.00000000000003
 20
23.00000000000017
 30
0.0
 11
11.00000000000003
 21
29.99999999999987
 31
0.0
  0
LINE
  5
DF1
330
DEE
100
AcDbEntity
  8
寸法線
100
AcDbLine
 10
23.00000000000483
 20
21.75533666355258
 30
0.0
 11
23.00000000000483
 21
29.99999999999987
 31
0.0
  0
LINE
  5
DF2
330
DEE
100
AcDbEntity
  8
寸法線
100
AcDbLine
 10
13.00000000000003
 20
27.99999999999987
 30
0.0
 11
21.00000000000483
 21
27.99999999999987
 31
0.0
  0
INSERT
  5
DF3
330
DEE
100
AcDbEntity
  8
寸法線
100
AcDbBlockReference
  2
_OPEN
 10
11.00000000000003
 20
27.99999999999987
 30
0.0
 41
2.0
 42
2.0
 43
2.0
 50
180.0
  0
INSERT
  5
DF4
330
DEE
100
AcDbEntity
  8
寸法線
100
AcDbBlockReference
  2
_OPEN
 10
23.00000000000483
 20
27.99999999999987
 30
0.0
 41
2.0
 42
2.0
 43
2.0
  0
MTEXT
  5
DF5
330
DEE
100
AcDbEntity
  8
寸法線
 48
6.0
100
AcDbMText
 10
17.00000000000243
 20
29.87499999999987
 30
0.0
 40
2.5
 41
0.0
 46
0.0
 71
     5
 72
     1
  1
\A1;12
  7
STYLE1
 73
     1
 44
1.0
  0
POINT
  5
DF6
330
DEE
100
AcDbEntity
  8
DEFPOINTS
 62
     0
100
AcDbPoint
 10
11.00000000000003
 20
23.00000000000017
 30
0.0
  0
POINT
  5
DF7
330
DEE
100
AcDbEntity
  8
DEFPOINTS
 62
     0
100
AcDbPoint
 10
23.00000000000483
 20
21.75533666355258
 30
0.0
  0
POINT
  5
DF8
330
DEE
100
AcDbEntity
  8
DEFPOINTS
 62
     0
100
AcDbPoint
 10
23.00000000000483
 20
27.99999999999987
 30
0.0
  0
ENDBLK
  5
DF9
330
DEE
100
AcDbEntity
  8
0
 48
6.0
100
AcDbBlockEnd
  0
BLOCK
  5
DFC
330
DFB
100
AcDbEntity
  8
0
 48
6.0
100
AcDbBlockBegin
  2
*D44
 70
     1
 10
0.0
 20
0.0
 30
0.0
  3
*D44
  1

  0
LINE
  5
DFD
330
DFB
100
AcDbEntity
  8
寸法線
100
AcDbLine
 10
1.498297238498495
 20
19.59999999999998
 30
0.0
 11
1.498297238498495
 21
0.0
 31
0.0
  0
LINE
  5
DFE
330
DFB
100
AcDbEntity
  8
寸法線
100
AcDbLine
 10
9.498297238498495
 20
19.59999999999998
 30
0.0
 11
9.498297238498495
 21
0.0
 31
0.0
  0
LINE
  5
DFF
330
DFB
100
AcDbEntity
  8
寸法線
100
AcDbLine
 10
3.498297238498495
 20
2.0
 30
0.0
 11
7.498297238498495
 21
2.0
 31
0.0
  0
INSERT
  5
E00
330
DFB
100
AcDbEntity
  8
寸法線
100
AcDbBlockReference
  2
_OPEN
 10
1.498297238498495
 20
2.0
 30
0.0
 41
2.0
 42
2.0
 43
2.0
 50
180.0
  0
INSERT
  5
E01
330
DFB
100
AcDbEntity
  8
寸法線
100
AcDbBlockReference
  2
_OPEN
 10
9.498297238498495
 20
2.0
 30
0.0
 41
2.0
 42
2.0
 43
2.0
  0
MTEXT
  5
E02
330
DFB
100
AcDbEntity
  8
寸法線
 48
6.0
100
AcDbMText
 10
5.498297238498495
 20
3.875
 30
0.0
 40
2.5
 41
0.0
 46
0.0
 71
     5
 72
     1
  1
\A1;8
  7
STYLE1
 73
     1
 44
1.0
  0
POINT
  5
E03
330
DFB
100
AcDbEntity
  8
DEFPOINTS
 62
     0
100
AcDbPoint
 10
1.498297238498495
 20
19.59999999999998
 30
0.0
  0
POINT
  5
E04
330
DFB
100
AcDbEntity
  8
DEFPOINTS
 62
     0
100
AcDbPoint
 10
9.498297238498495
 20
19.59999999999998
 30
0.0
  0
POINT
  5
E05
330
DFB
100
AcDbEntity
  8
DEFPOINTS
 62
     0
100
AcDbPoint
 10
9.498297238498495
 20
2.0
 30
0.0
  0
ENDBLK
  5
E06
330
DFB
100
AcDbEntity
  8
0
 48
6.0
100
AcDbBlockEnd
  0
BLOCK
  5
E40
330
E3F
100
AcDbEntity
  8
0
 48
6.0
100
AcDbBlockBegin
  2
*D45
 70
     1
 10
0.0
 20
0.0
 30
0.0
  3
*D45
  1

  0
LINE
  5
E41
330
E3F
100
AcDbEntity
  8
寸法線
 48
6.0
100
AcDbLine
 10
35.74345815083733
 20
11.99999999999997
 30
0.0
 11
35.74345815083733
 21
0.0
 31
0.0
  0
LINE
  5
E42
330
E3F
100
AcDbEntity
  8
寸法線
 48
6.0
100
AcDbLine
 10
115.7434581508373
 20
11.99999999999997
 30
0.0
 11
115.7434581508373
 21
0.0
 31
0.0
  0
LINE
  5
E43
330
E3F
100
AcDbEntity
  8
寸法線
 48
6.0
100
AcDbLine
 10
37.74345815083733
 20
2.0
 30
0.0
 11
113.7434581508373
 21
2.0
 31
0.0
  0
INSERT
  5
E44
330
E3F
100
AcDbEntity
  8
寸法線
100
AcDbBlockReference
  2
_OPEN
 10
35.74345815083733
 20
2.0
 30
0.0
 41
2.0
 42
2.0
 43
2.0
 50
180.0
  0
INSERT
  5
E45
330
E3F
100
AcDbEntity
  8
寸法線
100
AcDbBlockReference
  2
_OPEN
 10
115.7434581508373
 20
2.0
 30
0.0
 41
2.0
 42
2.0
 43
2.0
  0
MTEXT
  5
E46
330
E3F
100
AcDbEntity
  8
寸法線
 48
6.0
100
AcDbMText
 10
75.74345815083733
 20
3.875
 30
0.0
 40
2.5
 41
0.0
 46
0.0
 71
     5
 72
     1
  1
\A1;2500
  7
STYLE1
 73
     1
 44
1.0
  0
POINT
  5
E47
330
E3F
100
AcDbEntity
  8
DEFPOINTS
 62
     0
100
AcDbPoint
 10
35.74345815083733
 20
11.99999999999997
 30
0.0
  0
POINT
  5
E48
330
E3F
100
AcDbEntity
  8
DEFPOINTS
 62
     0
100
AcDbPoint
 10
115.7434581508373
 20
11.99999999999997
 30
0.0
  0
POINT
  5
E49
330
E3F
100
AcDbEntity
  8
DEFPOINTS
 62
     0
100
AcDbPoint
 10
115.7434581508373
 20
2.0
 30
0.0
  0
ENDBLK
  5
E4A
330
E3F
100
AcDbEntity
  8
0
 48
6.0
100
AcDbBlockEnd
  0
BLOCK
  5
E89
330
E88
100
AcDbEntity
  8
0
100
AcDbBlockBegin
  2
*D46
 70
     1
 10
0.0
 20
0.0
 30
0.0
  3
*D46
  1

  0
LINE
  5
E8B
330
E88
100
AcDbEntity
  8
DIM
 62
     0
370
    -2
100
AcDbLine
 10
100.6503692762185
 20
117.6289217134418
 30
0.0
 11
100.6503692762185
 21
120.6289217134415
 31
0.0
  0
LINE
  5
E8C
330
E88
100
AcDbEntity
  8
DIM
 62
     0
370
    -2
100
AcDbLine
 10
112.6503692762233
 20
116.3842583769942
 30
0.0
 11
112.6503692762233
 21
120.6289217134415
 31
0.0
  0
LINE
  5
E8D
330
E88
100
AcDbEntity
  8
DIM
 62
     0
370
    -2
100
AcDbLine
 10
101.6503692762185
 20
120.6289217134415
 30
0.0
 11
111.6503692762233
 21
120.6289217134415
 31
0.0
  0
INSERT
  5
E8E
330
E88
100
AcDbEntity
  8
DIM
 62
     0
370
    -2
100
AcDbBlockReference
  2
_Dot
 10
100.6503692762185
 20
120.6289217134415
 30
0.0
 50
180.0
  0
INSERT
  5
E8F
330
E88
100
AcDbEntity
  8
DIM
 62
     0
370
    -2
100
AcDbBlockReference
  2
_Dot
 10
112.6503692762233
 20
120.6289217134415
 30
0.0
  0
MTEXT
  5
E90
330
E88
100
AcDbEntity
  8
DIM
 62
     0
 48
6.0
100
AcDbMText
 10
106.6503692762209
 20
123.0039217134415
 30
0.0
 40
2.75
 41
0.0
 46
0.0
 71
     5
 72
     1
  1
\A1;12
  7
ＭＳ ゴシック
 73
     1
 44
1.0
  0
POINT
  5
E91
330
E88
100
AcDbEntity
  8
DEFPOINTS
 62
     0
100
AcDbPoint
 10
100.6503692762185
 20
115.6289217134418
 30
0.0
  0
POINT
  5
E92
330
E88
100
AcDbEntity
  8
DEFPOINTS
 62
     0
100
AcDbPoint
 10
112.6503692762233
 20
114.3842583769942
 30
0.0
  0
POINT
  5
E93
330
E88
100
AcDbEntity
  8
DEFPOINTS
 62
     0
100
AcDbPoint
 10
112.6503692762233
 20
120.6289217134415
 30
0.0
  0
ENDBLK
  5
E8A
330
E88
100
AcDbEntity
  8
0
100
AcDbBlockEnd
  0
BLOCK
  5
E95
330
E94
100
AcDbEntity
  8
0
100
AcDbBlockBegin
  2
*D47
 70
     1
 10
0.0
 20
0.0
 30
0.0
  3
*D47
  1

  0
LINE
  5
E97
330
E94
100
AcDbEntity
  8
DIM
 62
     0
370
    -2
100
AcDbLine
 10
91.148666514717
 20
110.2289217134416
 30
0.0
 11
91.148666514717
 21
94.62892171344166
 31
0.0
  0
LINE
  5
E98
330
E94
100
AcDbEntity
  8
DIM
 62
     0
370
    -2
100
AcDbLine
 10
99.148666514717
 20
110.2289217134416
 30
0.0
 11
99.148666514717
 21
94.62892171344166
 31
0.0
  0
LINE
  5
E99
330
E94
100
AcDbEntity
  8
DIM
 62
     0
370
    -2
100
AcDbLine
 10
92.148666514717
 20
94.62892171344166
 30
0.0
 11
98.148666514717
 21
94.62892171344166
 31
0.0
  0
INSERT
  5
E9A
330
E94
100
AcDbEntity
  8
DIM
 62
     0
370
    -2
100
AcDbBlockReference
  2
_Dot
 10
91.148666514717
 20
94.62892171344166
 30
0.0
 50
180.0
  0
INSERT
  5
E9B
330
E94
100
AcDbEntity
  8
DIM
 62
     0
370
    -2
100
AcDbBlockReference
  2
_Dot
 10
99.148666514717
 20
94.62892171344166
 30
0.0
  0
MTEXT
  5
E9C
330
E94
100
AcDbEntity
  8
DIM
 62
     0
 48
6.0
100
AcDbMText
 10
95.148666514717
 20
97.00392171344166
 30
0.0
 40
2.75
 41
0.0
 46
0.0
 71
     5
 72
     1
  1
\A1;8
  7
ＭＳ ゴシック
 73
     1
 44
1.0
  0
POINT
  5
E9D
330
E94
100
AcDbEntity
  8
DEFPOINTS
 62
     0
100
AcDbPoint
 10
91.148666514717
 20
112.2289217134416
 30
0.0
  0
POINT
  5
E9E
330
E94
100
AcDbEntity
  8
DEFPOINTS
 62
     0
100
AcDbPoint
 10
99.148666514717
 20
112.2289217134416
 30
0.0
  0
POINT
  5
E9F
330
E94
100
AcDbEntity
  8
DEFPOINTS
 62
     0
100
AcDbPoint
 10
99.148666514717
 20
94.62892171344166
 30
0.0
  0
ENDBLK
  5
E96
330
E94
100
AcDbEntity
  8
0
100
AcDbBlockEnd
  0
BLOCK
  5
EA1
330
EA0
100
AcDbEntity
  8
0
100
AcDbBlockBegin
  2
*D48
 70
     1
 10
0.0
 20
0.0
 30
0.0
  3
*D48
  1

  0
LINE
  5
EA3
330
EA0
100
AcDbEntity
  8
DIM
 62
     0
 48
6.0
370
    -2
100
AcDbLine
 10
125.3938274270558
 20
102.6289217134416
 30
0.0
 11
125.3938274270558
 21
94.62892171344166
 31
0.0
  0
LINE
  5
EA4
330
EA0
100
AcDbEntity
  8
DIM
 62
     0
 48
6.0
370
    -2
100
AcDbLine
 10
205.3938274270558
 20
102.6289217134416
 30
0.0
 11
205.3938274270558
 21
94.62892171344166
 31
0.0
  0
LINE
  5
EA5
330
EA0
100
AcDbEntity
  8
DIM
 62
     0
 48
6.0
370
    -2
100
AcDbLine
 10
126.3938274270558
 20
94.62892171344166
 30
0.0
 11
204.3938274270558
 21
94.62892171344166
 31
0.0
  0
INSERT
  5
EA6
330
EA0
100
AcDbEntity
  8
DIM
 62
     0
370
    -2
100
AcDbBlockReference
  2
_Dot
 10
125.3938274270558
 20
94.62892171344166
 30
0.0
 50
180.0
  0
INSERT
  5
EA7
330
EA0
100
AcDbEntity
  8
DIM
 62
     0
370
    -2
100
AcDbBlockReference
  2
_Dot
 10
205.3938274270558
 20
94.62892171344166
 30
0.0
  0
MTEXT
  5
EA8
330
EA0
100
AcDbEntity
  8
DIM
 62
     0
 48
6.0
100
AcDbMText
 10
165.3938274270558
 20
97.00392171344166
 30
0.0
 40
2.75
 41
0.0
 46
0.0
 71
     5
 72
     1
  1
\A1;2500
  7
ＭＳ ゴシック
 73
     1
 44
1.0
  0
POINT
  5
EA9
330
EA0
100
AcDbEntity
  8
DEFPOINTS
 62
     0
100
AcDbPoint
 10
125.3938274270558
 20
104.6289217134416
 30
0.0
  0
POINT
  5
EAA
330
EA0
100
AcDbEntity
  8
DEFPOINTS
 62
     0
100
AcDbPoint
 10
205.3938274270558
 20
104.6289217134416
 30
0.0
  0
POINT
  5
EAB
330
EA0
100
AcDbEntity
  8
DEFPOINTS
 62
     0
100
AcDbPoint
 10
205.3938274270558
 20
94.62892171344166
 30
0.0
  0
ENDBLK
  5
EA2
330
EA0
100
AcDbEntity
  8
0
100
AcDbBlockEnd
  0
ENDSEC
  0
SECTION
  2
ENTITIES
  0
LINE
  5
826
330
19
100
AcDbEntity
  8
PRINT BORDER
100
AcDbLine
 10
148.4999999999999
 20
0.0
 30
0.0
 11
148.4999999999999
 21
7.65476311427949
 31
0.0
  0
LINE
  5
827
330
19
100
AcDbEntity
  8
テンプレート
100
AcDbLine
 10
218.9999999999999
 20
19.13905445211049
 30
0.0
 11
7.65476311427949
 21
19.13905445211049
 31
0.0
  0
LINE
  5
828
330
19
100
AcDbEntity
  8
テンプレート
100
AcDbLine
 10
7.65476311427949
 20
13.11076841960391
 30
0.0
 11
289.3452368857203
 21
13.11076841960391
 31
0.0
  0
TEXT
  5
829
330
19
100
AcDbEntity
  8
テンプレート
100
AcDbText
 10
9.030608497570597
 20
16.08412990806846
 30
0.0
 40
1.75
  1
材質
  7
ＭＳ ゴシック
100
AcDbText
  0
TEXT
  5
82A
330
19
100
AcDbEntity
  8
テンプレート
100
AcDbText
 10
9.030608497570597
 20
28.25479514336541
 30
0.0
 40
1.75
  1
品名
  7
ＭＳ ゴシック
100
AcDbText
  0
TEXT
  5
82B
330
19
100
AcDbEntity
  8
テンプレート
100
AcDbText
 10
9.030608497570597
 20
22.32549669540049
 30
0.0
 40
1.75
  1
仕上げ
  7
ＭＳ ゴシック
100
AcDbText
  0
TEXT
  5
82C
330
19
100
AcDbEntity
  8
テンプレート
100
AcDbText
 10
149.4116742589653
 20
28.29261526154949
 30
0.0
 40
1.75
  1
品番
  7
ＭＳ ゴシック
100
AcDbText
  0
LINE
  5
82D
330
19
100
AcDbEntity
  8
テンプレート
100
AcDbLine
 10
218.9999999999999
 20
25.08248238709803
 30
0.0
 11
7.65476311427949
 21
25.08248238709803
 31
0.0
  0
LINE
  5
82E
330
19
100
AcDbEntity
  8
テンプレート
100
AcDbLine
 10
289.3452368857206
 20
31.11076841960391
 30
0.0
 11
7.65476311427949
 21
31.11076841960391
 31
0.0
  0
LINE
  5
82F
330
19
100
AcDbEntity
  8
PRINT BORDER
100
AcDbLine
 10
296.9999999999999
 20
105.0
 30
0.0
 11
289.3452368857206
 21
105.0
 31
0.0
  0
LINE
  5
830
330
19
100
AcDbEntity
  8
PRINT BORDER
100
AcDbLine
 10
0.0
 20
105.0
 30
0.0
 11
7.65476311427949
 21
105.0
 31
0.0
  0
LINE
  5
831
330
19
100
AcDbEntity
  8
PRINT BORDER
100
AcDbLine
 10
148.4999999999999
 20
210.0
 30
0.0
 11
148.4999999999999
 21
202.3452368857205
 31
0.0
  0
LINE
  5
832
330
19
100
AcDbEntity
  8
テンプレート
100
AcDbLine
 10
289.3452368857206
 20
31.11076841960391
 30
0.0
 11
289.3452368857206
 21
13.11076841960391
 31
0.0
  0
LINE
  5
833
330
19
100
AcDbEntity
  8
テンプレート
100
AcDbLine
 10
7.65476311427949
 20
31.11076841960391
 30
0.0
 11
7.65476311427949
 21
13.11076841960391
 31
0.0
  0
TEXT
  5
834
330
19
100
AcDbEntity
  8
テンプレート
100
AcDbText
 10
247.4866692477609
 20
8.25969195156847
 30
0.0
 40
2.75
  1
大洋金物株式会社  
  7
ＭＳ ゴシック
100
AcDbText
  0
LINE
  5
835
330
19
100
AcDbEntity
  8
テンプレート
100
AcDbLine
 10
218.9999999999999
 20
31.11076841960391
 30
0.0
 11
218.9999999999999
 21
13.11076841960391
 31
0.0
  0
LINE
  5
836
330
19
100
AcDbEntity
  8
テンプレート
100
AcDbLine
 10
148.4999999999999
 20
31.11076841960391
 30
0.0
 11
148.4999999999999
 21
13.11076841960391
 31
0.0
  0
INSERT
  5
837
330
19
100
AcDbEntity
  8
テンプレート
100
AcDbBlockReference
  2
名称未設定-1
 10
274.1972599429902
 20
-3.821172101996581
 30
0.0
 41
0.0904875
 42
0.0904875
 43
0.0904875
  0
LINE
  5
838
330
19
100
AcDbEntity
  8
テンプレート
100
AcDbLine
 10
7.65476311427949
 20
105.0
 30
0.0
 11
7.65476311427949
 21
13.11076841960391
 31
0.0
  0
LINE
  5
839
330
19
100
AcDbEntity
  8
テンプレート
100
AcDbLine
 10
7.65476311427949
 20
105.0
 30
0.0
 11
7.65476311427949
 21
202.3452368857205
 31
0.0
  0
LINE
  5
83A
330
19
100
AcDbEntity
  8
テンプレート
100
AcDbLine
 10
148.4999999999999
 20
202.3452368857205
 30
0.0
 11
7.654763114279433
 21
202.3452368857205
 31
0.0
  0
LINE
  5
83B
330
19
100
AcDbEntity
  8
テンプレート
100
AcDbLine
 10
148.4999999999999
 20
202.3452368857205
 30
0.0
 11
289.3452368857206
 21
202.3452368857205
 31
0.0
  0
LINE
  5
83C
330
19
100
AcDbEntity
  8
テンプレート
100
AcDbLine
 10
289.3452368857206
 20
105.0
 30
0.0
 11
289.3452368857206
 21
202.3452368857205
 31
0.0
  0
LINE
  5
83D
330
19
100
AcDbEntity
  8
テンプレート
100
AcDbLine
 10
289.3452368857206
 20
105.0
 30
0.0
 11
289.3452368857206
 21
13.11076841960391
 31
0.0
  0
LWPOLYLINE
  5
83E
330
19
100
AcDbEntity
  8
PRINT BORDER
  6
HIDDEN
 48
6.0
100
AcDbPolyline
 90
        4
 70
     1
 43
0.0
 10
0.0
 20
0.0
 10
0.0
 20
210.0
 10
296.9999999999999
 20
210.0
 10
296.9999999999999
 20
0.0
  0
TEXT
  5
83F
330
19
100
AcDbEntity
  8
テンプレート
100
AcDbText
 10
149.3994578111111
 20
16.31202671409744
 30
0.0
 40
1.75
  1
縮尺
  7
ＭＳ ゴシック
100
AcDbText
  0
TEXT
  5
840
330
19
100
AcDbEntity
  8
テンプレート
100
AcDbText
 10
156.5085602712232
 20
14.81034057033834
 30
0.0
 40
2.75
  1
1:1
  7
ＭＳ ゴシック
100
AcDbText
  0
TEXT
  5
841
330
19
100
AcDbEntity
  8
テンプレート
100
AcDbText
 10
149.4116742589653
 20
22.26432922904291
 30
0.0
 40
1.75
  1
扉厚
  7
ＭＳ ゴシック
100
AcDbText
  0
TEXT
  5
842
330
19
100
AcDbEntity
  8
テンプレート
100
AcDbText
 10
220.0443762336734
 20
28.29261526154949
 30
0.0
 40
1.75
  1
備考
  7
ＭＳ ゴシック
100
AcDbText
  0
LINE
  5
843
330
19
100
AcDbEntity
  8
テンプレート
  6
Continuous
100
AcDbLine
 10
16.8155007688483
 20
13.11076841960391
 30
0.0
 11
16.81550076884832
 21
31.11076841960391
 31
0.0
  0
MTEXT
  5
995
102
{ACAD_XDICTIONARY
360
996
102
}
330
19
100
AcDbEntity
  8
TEMPLATE
100
AcDbMText
 10
7.851168215966037
 20
11.99466581385097
 30
0.0
 40
2.2
 41
0.0
 46
2.2
 71
     1
 72
     1
  1
{20181227N}
  7
ＭＳ ゴシック
 73
     1
 44
1.0
1001
ACAD
1000
ACAD_MTEXT_DEFINED_HEIGHT_BEGIN
1070
    46
1040
2.2
1000
ACAD_MTEXT_DEFINED_HEIGHT_END
  0
TEXT
  5
99E
330
19
100
AcDbEntity
  8
テンプレート
100
AcDbText
 10
156.5085602712232
 20
20.75376850532588
 30
0.0
 40
2.75
  1
ガラス厚　8mm
  7
ＭＳ ゴシック
100
AcDbText
  0
TEXT
  5
99F
330
19
100
AcDbEntity
  8
テンプレート
100
AcDbText
 10
156.5085602712232
 20
26.57470134433102
 30
0.0
 40
2.75
  1
GPT91-630N-8
  7
ＭＳ ゴシック
100
AcDbText
  0
TEXT
  5
9A0
330
19
100
AcDbEntity
  8
テンプレート
100
AcDbText
 10
18.83025779044092
 20
26.53323070563086
 30
0.0
 40
2.75
  1
ガラス用エッジシール(8mmガラス用)
  7
ＭＳ ゴシック
100
AcDbText
  0
MTEXT
  5
9A6
330
19
100
AcDbEntity
  8
テンプレート
 48
6.0
100
AcDbMText
 10
19.12157802824211
 20
17.86070127740036
 30
0.0
 40
2.75
 41
52.87506434268834
 46
2.805
 71
     1
 72
     5
  1
{硬質PVC+軟質PVC}
  7
ＭＳ ゴシック
 73
     1
 44
1.0
1001
ACAD
1000
ACAD_MTEXT_DEFINED_HEIGHT_BEGIN
1070
    46
1040
2.805
1000
ACAD_MTEXT_DEFINED_HEIGHT_END
  0
DIMENSION
  5
E4E
330
19
100
AcDbEntity
  8
DIM
100
AcDbDimension
  2
*D46
 10
112.6503692762233
 20
120.6289217134415
 30
0.0
 11
106.6503692762209
 21
123.0039217134415
 31
0.0
 70
    32
 71
     5
 42
12.0000000000048
 73
     0
 74
     0
 75
     0
  3
tfrom線あり
100
AcDbAlignedDimension
 13
100.6503692762185
 23
115.6289217134418
 33
0.0
 14
112.6503692762233
 24
114.3842583769942
 34
0.0
100
AcDbRotatedDimension
1001
ACAD
1000
DSTYLE
1002
{
1070
   140
1040
2.75
1002
}
  0
DIMENSION
  5
E4F
330
19
100
AcDbEntity
  8
DIM
100
AcDbDimension
  2
*D47
 10
99.148666514717
 20
94.62892171344166
 30
0.0
 11
95.148666514717
 21
94.62892171344166
 31
0.0
 70
   160
 71
     5
 42
8.0
 73
     0
 74
     0
 75
     0
  3
tfrom線あり
100
AcDbAlignedDimension
 13
91.148666514717
 23
112.2289217134416
 33
0.0
 14
99.148666514717
 24
112.2289217134416
 34
0.0
100
AcDbRotatedDimension
1001
ACAD
1000
DSTYLE
1002
{
1070
   140
1040
2.75
1002
}
  0
ARC
  5
E50
330
19
100
AcDbEntity
  8
実線
100
AcDbCircle
 10
98.5826092223163
 20
104.8289217134414
 30
0.0
 40
0.1999999999999886
100
AcDbArc
 50
171.0463854838763
 51
270.0000000001629
  0
ARC
  5
E51
330
19
100
AcDbEntity
  8
実線
100
AcDbCircle
 10
-41.13604881276717
 20
126.8422471400555
 30
0.0
 40
141.2421786436514
100
AcDbArc
 50
351.0463854838748
 51
351.450147702617
  0
LINE
  5
E52
330
19
100
AcDbEntity
  8
実線
100
AcDbLine
 10
98.5364888335255
 20
105.8437887335412
 30
0.0
 11
97.5789332796267
 21
106.6472732456494
 31
0.0
  0
LINE
  5
E53
330
19
100
AcDbEntity
  8
実線
100
AcDbLine
 10
98.74943116304989
 20
106.0567310901747
 30
0.0
 11
97.7717695625326
 21
106.877086578585
 31
0.0
  0
HATCH
  5
E54
330
19
100
AcDbEntity
  8
細線
100
AcDbHatch
 10
0.0
 20
0.0
 30
0.0
210
0.0
220
0.0
230
1.0
  2
ANSI31
 70
     0
 71
     0
 91
        1
 92
        7
 72
     1
 73
     1
 93
        4
 10
97.7717695625326
 20
106.877086578585
 42
1.0
 10
97.5789332796267
 20
106.6472732456494
 42
0.0
 10
98.536488818785
 20
105.8437887459099
 42
0.0
 10
98.74943116304989
 20
106.0567310901747
 42
0.0
 97
        0
 75
     0
 76
     1
 52
0.0
 41
0.1
 77
     0
 78
     1
 53
44.99999999999955
 43
-24.32507031288911
 44
-93.66223303416461
 45
-0.2245064030267288
 46
0.2245064030267301
 79
     0
 47
0.0080824255308967
 98
        1
 10
98.07216473338559
 20
106.4809004617192
  0
LINE
  5
E55
330
19
100
AcDbEntity
  8
実線
100
AcDbLine
 10
90.7555333738389
 20
114.2289217134419
 30
0.0
 11
99.54179965559509
 21
114.2289217134417
 31
0.0
  0
LINE
  5
E56
330
19
100
AcDbEntity
  8
実線
100
AcDbLine
 10
90.15036903779999
 20
115.6289217134415
 30
0.0
 11
100.6503692762185
 21
115.6289217134418
 31
0.0
  0
ARC
  5
E57
330
19
100
AcDbEntity
  8
実線
100
AcDbCircle
 10
231.5437774971138
 20
125.8785379093447
 30
0.0
 40
141.3921786436514
100
AcDbArc
 50
187.5321023367645
 51
188.0592029357063
  0
ARC
  5
E58
330
19
100
AcDbEntity
  8
実線
100
AcDbCircle
 10
97.6753514210796
 20
106.7621799121171
 30
0.0
 40
0.1500000000000117
100
AcDbArc
 50
49.99999999999409
 51
230.0000000000135
  0
ARC
  5
E59
330
19
100
AcDbEntity
  8
実線
100
AcDbCircle
 10
92.62198160835429
 20
106.7621799121167
 30
0.0
 40
0.149999999999997
100
AcDbArc
 50
309.9999999999824
 51
129.9999999999976
  0
LINE
  5
E5A
330
19
100
AcDbEntity
  8
実線
100
AcDbLine
 10
91.5479018663842
 20
106.0567310901745
 30
0.0
 11
92.52556346690129
 21
106.8770865785846
 31
0.0
  0
HATCH
  5
E5B
330
19
100
AcDbEntity
  8
細線
100
AcDbHatch
 10
0.0
 20
0.0
 30
0.0
210
0.0
220
0.0
230
1.0
  2
ANSI31
 70
     0
 71
     0
 91
        1
 92
        7
 72
     1
 73
     1
 93
        4
 10
92.52556346690129
 20
106.8770865785846
 42
-1.0
 10
92.71839974980719
 20
106.647273245649
 42
0.0
 10
91.760844210649
 20
105.8437887459095
 42
0.0
 10
91.5479018663841
 20
106.0567310901744
 42
0.0
 97
        0
 75
     0
 76
     1
 52
0.0
 41
0.1
 77
     0
 78
     1
 53
135.0000000000004
 43
214.6224033423231
 44
-93.66223303416498
 45
0.2245064030267288
 46
0.2245064030267301
 79
     0
 47
0.0080824255308967
 98
        1
 10
92.2251682960483
 20
106.4809004617189
  0
ARC
  5
E5C
330
19
100
AcDbEntity
  8
実線
100
AcDbCircle
 10
231.7087618966676
 20
126.8422471400558
 30
0.0
 40
142.5421786436514
100
AcDbArc
 50
184.7301941675088
 51
188.6890764884049
  0
ARC
  5
E5D
330
19
100
AcDbEntity
  8
実線
100
AcDbCircle
 10
91.5933997809355
 20
105.4289217134418
 30
0.0
 40
0.8000000000000242
100
AcDbArc
 50
188.6890764884043
 51
270.0000000000061
  0
ARC
  5
E5E
330
19
100
AcDbEntity
  8
実線
100
AcDbCircle
 10
91.7147238071176
 20
104.8289217134416
 30
0.0
 40
0.1999999999999886
100
AcDbArc
 50
269.999999999837
 51
8.95361451612375
  0
ARC
  5
E5F
330
19
100
AcDbEntity
  8
実線
100
AcDbCircle
 10
231.4333818422011
 20
126.8422471400555
 30
0.0
 40
141.2421786436514
100
AcDbArc
 50
188.5498522973829
 51
188.9536145161252
  0
LINE
  5
E60
330
19
100
AcDbEntity
  8
実線
100
AcDbLine
 10
91.5933997809356
 20
104.6289217134418
 30
0.0
 11
91.7147238071171
 21
104.6289217134416
 31
0.0
  0
LINE
  5
E61
330
19
100
AcDbEntity
  8
実線
100
AcDbLine
 10
91.76084419590859
 20
105.8437887335408
 30
0.0
 11
92.71839974980719
 21
106.647273245649
 31
0.0
  0
LINE
  5
E62
330
19
100
AcDbEntity
  8
実線
100
AcDbLine
 10
91.7608442076788
 20
105.8437887488799
 30
0.0
 11
91.5479018663841
 21
106.0567310901745
 31
0.0
  0
ARC
  5
E63
330
19
100
AcDbEntity
  8
実線
100
AcDbCircle
 10
231.4333818422011
 20
126.8422471400555
 30
0.0
 40
141.2421786436514
100
AcDbArc
 50
185.938614882261
 51
187.8726337171123
  0
LINE
  5
E64
330
19
100
AcDbEntity
  8
実線
100
AcDbLine
 10
90.8980941973977
 20
112.7289217134415
 30
0.0
 11
91.148666514717
 21
112.7289217134416
 31
0.0
  0
LINE
  5
E65
330
19
100
AcDbEntity
  8
実線
100
AcDbLine
 10
90.94920569420559
 20
112.2289217134416
 30
0.0
 11
91.148666514717
 21
112.2289217134416
 31
0.0
  0
ARC
  5
E66
330
19
100
AcDbEntity
  8
実線
100
AcDbCircle
 10
231.4333818422011
 20
126.8422471400555
 30
0.0
 40
141.2421786436514
100
AcDbArc
 50
185.1235003483497
 51
185.7347296485486
  0
ARC
  5
E67
330
19
100
AcDbEntity
  8
実線
100
AcDbCircle
 10
90.1503692762185
 20
115.1289217134416
 30
0.0
 40
0.5
100
AcDbArc
 50
90.0
 51
184.7301941675073
  0
LINE
  5
E68
330
19
100
AcDbEntity
  8
実線
100
AcDbLine
 10
91.5224109963808
 20
107.4961037263115
 30
0.0
 11
91.37151128146719
 21
107.345204011398
 31
0.0
  0
LINE
  5
E69
330
19
100
AcDbEntity
  8
実線
100
AcDbLine
 10
91.148666514717
 20
112.7289217134416
 30
0.0
 11
91.148666514717
 21
112.2289217134416
 31
0.0
  0
ARC
  5
E6A
330
19
100
AcDbEntity
  8
実線
100
AcDbCircle
 10
-41.24644446767948
 20
125.8785379093446
 30
0.0
 40
141.3921786436514
100
AcDbArc
 50
351.9407970642935
 51
352.4678976632352
  0
ARC
  5
E6B
330
19
100
AcDbEntity
  8
実線
100
AcDbCircle
 10
-41.41142886723347
 20
126.8422471400558
 30
0.0
 40
142.5421786436514
100
AcDbArc
 50
351.310923511595
 51
355.4873867424037
  0
ARC
  5
E6C
330
19
100
AcDbEntity
  8
実線
100
AcDbCircle
 10
98.7039332484985
 20
105.4289217134418
 30
0.0
 40
0.8000000000000113
100
AcDbArc
 50
269.9999999999898
 51
351.3109235115955
  0
LINE
  5
E6D
330
19
100
AcDbEntity
  8
実線
100
AcDbLine
 10
98.70393324849839
 20
104.6289217134418
 30
0.0
 11
98.5826092223168
 21
104.6289217134414
 31
0.0
  0
LINE
  5
E6E
330
19
100
AcDbEntity
  8
実線
100
AcDbLine
 10
98.5364888217553
 20
105.8437887488803
 30
0.0
 11
98.74943116305009
 21
106.0567310901749
 31
0.0
  0
HATCH
  5
E6F
330
19
100
AcDbEntity
  8
細線
100
AcDbHatch
 10
0.0
 20
0.0
 30
0.0
210
0.0
220
0.0
230
1.0
  2
ANSI31
 70
     0
 71
     0
 91
        1
 92
        7
 72
     1
 73
     1
 93
        6
 10
100.650369276223
 20
115.6289217134416
 42
-0.0014025268349109
 10
100.5852223547462
 20
114.8307786782769
 42
-0.0262747897963308
 10
112.5390588978861
 20
114.1029825048483
 42
0.4478153246359997
 10
112.6503692762233
 20
114.2023408227783
 42
0.0
 10
112.6503692762233
 20
114.3842583769942
 42
0.3714711583558631
 10
112.5651255023036
 20
114.4831636538598
 42
0.0261234061972433
 97
        0
 75
     0
 76
     1
 52
0.0
 41
0.1
 77
     0
 78
     1
 53
45.00000000000038
 43
-264.7408207939388
 44
108.5973056694831
 45
-0.2245064030267287
 46
0.2245064030267301
 79
     0
 47
0.0724013137572946
 98
        1
 10
101.3375122319004
 20
115.1732370781693
  0
ARC
  5
E70
330
19
100
AcDbEntity
  8
実線
100
AcDbCircle
 10
95.6503692762214
 20
1.11009397128575
 30
0.0
 40
114.6279281302667
100
AcDbArc
 50
81.51431767362426
 51
87.50000000000144
  0
ARC
  5
E71
330
19
100
AcDbEntity
  8
実線
100
AcDbCircle
 10
99.6420688163466
 20
0.8067511442335729
 30
0.0
 40
114.0279281302667
100
AcDbArc
 50
83.50573376708593
 51
89.50673160138992
  0
ARC
  5
E72
330
19
100
AcDbEntity
  8
実線
100
AcDbCircle
 10
-41.13604881276717
 20
126.8422471400555
 30
0.0
 40
141.2421786436514
100
AcDbArc
 50
352.1273662828877
 51
354.0613851177387
  0
LINE
  5
E73
330
19
100
AcDbEntity
  8
実線
100
AcDbLine
 10
98.77492203305319
 20
107.4961037263117
 30
0.0
 11
98.9258217479669
 21
107.345204011398
 31
0.0
  0
ARC
  5
E74
330
19
100
AcDbEntity
  8
実線
100
AcDbCircle
 10
-41.13604881276717
 20
126.8422471400555
 30
0.0
 40
141.2421786436514
100
AcDbArc
 50
354.2652703514512
 51
354.8764996516501
  0
LINE
  5
E75
330
19
100
AcDbEntity
  8
実線
100
AcDbLine
 10
99.148666514717
 20
112.7289217134416
 30
0.0
 11
99.148666514717
 21
112.2289217134416
 31
0.0
  0
LINE
  5
E76
330
19
100
AcDbEntity
  8
実線
100
AcDbLine
 10
99.148666514717
 20
112.2289217134416
 30
0.0
 11
99.34812733522828
 21
112.2289217134416
 31
0.0
  0
LINE
  5
E77
330
19
100
AcDbEntity
  8
実線
100
AcDbLine
 10
99.148666514717
 20
112.7289217134416
 30
0.0
 11
99.39923883203629
 21
112.7289217134416
 31
0.0
  0
ARC
  5
E78
330
19
100
AcDbEntity
  8
実線
100
AcDbCircle
 10
112.5503692762233
 20
114.2023408227782
 30
0.0
 40
0.0999999999999981
100
AcDbArc
 50
263.5057337670792
 51
0.0
  0
ARC
  5
E79
330
19
100
AcDbEntity
  8
実線
100
AcDbCircle
 10
112.5503692762233
 20
114.3842583769942
 30
0.0
 40
0.1000000000000227
100
AcDbArc
 50
0.0
 51
81.51431767363584
  0
LINE
  5
E7A
330
19
100
AcDbEntity
  8
実線
100
AcDbLine
 10
112.6503692762233
 20
114.3842583769942
 30
0.0
 11
112.6503692762233
 21
114.2023408227782
 31
0.0
  0
LINE
  5
E7B
330
19
100
AcDbEntity
  8
実線
 48
6.0
100
AcDbLine
 10
125.3938274270558
 20
115.6289217134418
 30
0.0
 11
163.5296604950846
 21
115.6289217134418
 31
0.0
  0
LINE
  5
E7C
330
19
100
AcDbEntity
  8
実線
 48
6.0
100
AcDbLine
 10
125.3938274270558
 20
104.6289217134416
 30
0.0
 11
166.4692180070484
 21
104.6289217134416
 31
0.0
  0
LINE
  5
E7D
330
19
100
AcDbEntity
  8
HIDDEN
 48
2.0
100
AcDbLine
 10
125.3938274270558
 20
114.2289217134417
 30
0.0
 11
163.1532843991508
 21
114.2289217134417
 31
0.0
  0
LINE
  5
E7E
330
19
100
AcDbEntity
  8
実線
 48
6.0
100
AcDbLine
 10
125.3938274270558
 20
114.1023408227782
 30
0.0
 11
163.1359876428822
 21
114.1023408227782
 31
0.0
  0
LINE
  5
E7F
330
19
100
AcDbEntity
  8
実線
 48
6.0
100
AcDbLine
 10
125.3938274270558
 20
115.6289217134418
 30
0.0
 11
125.3938274270558
 21
104.6289217134416
 31
0.0
  0
LINE
  5
E80
330
19
100
AcDbEntity
  8
実線
 48
6.0
100
AcDbLine
 10
205.3938274270558
 20
115.6289217134418
 30
0.0
 11
205.3938274270558
 21
104.6289217134416
 31
0.0
  0
SPLINE
  5
E81
330
19
100
AcDbEntity
  8
細線
 48
6.0
100
AcDbSpline
210
0.0
220
0.0
230
1.0
 70
     8
 71
     3
 72
    10
 73
     6
 74
     0
 42
0.000000001
 43
0.0000000001
 40
2.997778689148286
 40
2.997778689148286
 40
2.997778689148286
 40
2.997778689148286
 40
8.26346558776048
 40
12.78642849777881
 40
18.21215905417771
 40
18.21215905417771
 40
18.21215905417771
 40
18.21215905417771
 10
163.9536212260354
 20
116.6289217134404
 30
0.0
 10
163.1015464888827
 20
114.8222250693159
 30
0.0
 10
162.3863789270284
 20
111.695044349809
 30
0.0
 10
168.1943897566843
 20
108.6773326656067
 30
0.0
 10
167.0055312387663
 20
105.4785391693661
 30
0.0
 10
165.9295497658951
 20
103.6289217134417
 30
0.0
  0
SPLINE
  5
E82
330
19
100
AcDbEntity
  8
細線
 48
6.0
100
AcDbSpline
210
0.0
220
0.0
230
1.0
 70
     8
 71
     3
 72
    36
 73
    32
 74
     0
 42
0.000000001
 43
0.0000000001
 40
2.561499348205905
 40
2.561499348205905
 40
2.561499348205905
 40
2.561499348205905
 40
2.728110802772993
 40
2.728110802772993
 40
4.577694271172396
 40
4.577694271172396
 40
6.427277739571799
 40
6.427277739571799
 40
7.648798112659109
 40
7.648798112659109
 40
8.309512286751257
 40
8.309512286751257
 40
8.970226460843405
 40
8.970226460843405
 40
10.44740339904492
 40
10.44740339904492
 40
11.92458033724644
 40
11.92458033724644
 40
12.67810725494312
 40
12.67810725494312
 40
13.20779346859933
 40
13.20779346859933
 40
13.73747968225554
 40
13.73747968225554
 40
14.96174338073048
 40
14.96174338073048
 40
16.18600707920543
 40
16.18600707920543
 40
17.41027077768037
 40
17.41027077768037
 40
17.74270310366202
 40
17.74270310366202
 40
17.74270310366202
 40
17.74270310366202
 10
165.0668456127605
 20
116.6289217134418
 30
0.0
 10
165.0390461447449
 20
116.573994206881
 30
0.0
 10
165.0116923669348
 20
116.5192939288491
 30
0.0
 10
164.6863855880684
 20
115.8602413326239
 30
0.0
 10
164.4469541835904
 20
115.2848125261797
 30
0.0
 10
164.1436533671215
 20
114.2413532968904
 30
0.0
 10
164.0815066180406
 20
113.7773156603036
 30
0.0
 10
164.1255376753474
 20
113.1260843744025
 30
0.0
 10
164.1790261317201
 20
112.8976161163419
 30
0.0
 10
164.3235604833596
 20
112.5642293619531
 30
0.0
 10
164.3856689618871
 20
112.4515497717197
 30
0.0
 10
164.5458521670753
 20
112.2208951970012
 30
0.0
 10
164.6493730771494
 20
112.0959260812766
 30
0.0
 10
165.0488045547728
 20
111.6736134414147
 30
0.0
 10
165.4234520476743
 20
111.3579608621005
 30
0.0
 10
166.2276927849569
 20
110.6896502060368
 30
0.0
 10
166.6572440071736
 20
110.3371299675475
 30
0.0
 10
167.2478016217943
 20
109.7143492487563
 30
0.0
 10
167.4377514700763
 20
109.4873807767061
 30
0.0
 10
167.7215292936243
 20
109.0531984378347
 30
0.0
 10
167.8244419345825
 20
108.8615201077868
 30
0.0
 10
167.9902541726289
 20
108.4719589936443
 30
0.0
 10
168.0546131730979
 20
108.2722590332992
 30
0.0
 10
168.2090925932513
 20
107.6051216160588
 30
0.0
 10
168.2218845255157
 20
107.1327567573984
 30
0.0
 10
168.1173497295043
 20
106.2103759245669
 30
0.0
 10
168.0013090252982
 20
105.7583282848161
 30
0.0
 10
167.6878841262778
 20
104.8660214691702
 30
0.0
 10
167.4899786794271
 20
104.4251523190291
 30
0.0
 10
167.2047203660114
 20
103.8670021904143
 30
0.0
 10
167.1418448140447
 20
103.7479053550546
 30
0.0
 10
167.0772529638343
 20
103.6289217134418
 30
0.0
  0
LINE
  5
E83
330
19
100
AcDbEntity
  8
実線
 48
6.0
100
AcDbLine
 10
167.5727361431264
 20
104.6289217134416
 30
0.0
 11
205.3938274270558
 21
104.6289217134416
 31
0.0
  0
LINE
  5
E84
330
19
100
AcDbEntity
  8
HIDDEN
 48
2.0
100
AcDbLine
 10
164.167420294982
 20
114.2289217134417
 30
0.0
 11
205.3938274270558
 21
114.2289217134417
 31
0.0
  0
LINE
  5
E85
330
19
100
AcDbEntity
  8
実線
 48
6.0
100
AcDbLine
 10
164.1459866493551
 20
114.1023408227782
 30
0.0
 11
205.3938274270558
 21
114.1023408227782
 31
0.0
  0
LINE
  5
E86
330
19
100
AcDbEntity
  8
実線
 48
6.0
100
AcDbLine
 10
164.6039190427084
 20
115.6289217134418
 30
0.0
 11
205.3938274270558
 21
115.6289217134418
 31
0.0
  0
DIMENSION
  5
E87
330
19
100
AcDbEntity
  8
DIM
 48
6.0
100
AcDbDimension
  2
*D48
 10
205.3938274270558
 20
94.62892171344166
 30
0.0
 11
165.3938274270558
 21
97.00392171344166
 31
0.0
 70
    32
  1
2500
 71
     5
 42
80.00000000000001
 73
     0
 74
     0
 75
     0
  3
tfrom線あり
100
AcDbAlignedDimension
 13
125.3938274270558
 23
104.6289217134416
 33
0.0
 14
205.3938274270558
 24
104.6289217134416
 34
0.0
100
AcDbRotatedDimension
1001
ACAD
1000
DSTYLE
1002
{
1070
   140
1040
2.75
1002
}
  0
TEXT
  5
F00
330
19
100
AcDbEntity
  8
テンプレート
100
AcDbText
 10
105.470162481536
 20
40.58514139497785
 30
0.0
 40
2.75
  1
※ 生産工程上、記載仕様と異なる場合があります。
  7
ＭＳ ゴシック
100
AcDbText
  0
TEXT
  5
F01
330
19
100
AcDbEntity
  8
テンプレート
100
AcDbText
 10
105.470162481536
 20
36.1892536927622
 30
0.0
 40
2.75
  1
　 現物にてご確認下さい。
  7
ＭＳ ゴシック
100
AcDbText
  0
VIEWPORT
  5
22
330
16
100
AcDbEntity
 67
     1
  8
0
100
AcDbViewport
 10
99.46265693688792
 20
142.2033183869575
 30
0.0
 40
534.2874965009338
 41
288.3336206329402
 68
     1
 69
     1
 12
99.46265693688792
 22
142.2033183869575
 13
0.0
 23
0.0
 14
10.0
 24
10.0
 15
10.0
 25
10.0
 16
0.0
 26
0.0
 36
1.0
 17
0.0
 27
0.0
 37
0.0
 42
50.0
 43
0.0
 44
0.0
 45
288.3336206329402
 50
0.0
 51
0.0
 72
   100
 90
    32768
  1

281
     0
 71
     1
 74
     0
110
0.0
120
0.0
130
0.0
111
1.0
121
0.0
131
0.0
112
0.0
122
1.0
132
0.0
 79
     0
146
0.0
170
     0
 61
     5
348
85A
292
     1
282
     1
141
0.0
142
0.0
 63
   256
  0
ENDSEC
  0
SECTION
  2
OBJECTS
  0
DICTIONARY
  5
C
330
0
100
AcDbDictionary
281
     1
  3
ACAD_COLOR
350
88C
  3
ACAD_DETAILVIEWSTYLE
350
850
  3
ACAD_FIELDLIST
350
903
  3
ACAD_GROUP
350
D
  3
ACAD_LAYOUT
350
1CB
  3
ACAD_MATERIAL
350
86E
  3
ACAD_MLEADERSTYLE
350
874
  3
ACAD_MLINESTYLE
350
E
  3
ACAD_PLOTSETTINGS
350
1CC
  3
ACAD_PLOTSTYLENAME
350
1C9
  3
ACAD_SCALELIST
350
6AD
  3
ACAD_SECTIONVIEWSTYLE
350
851
  3
ACAD_TABLESTYLE
350
872
  3
ACAD_VISUALSTYLE
350
855
  3
AcadDim
350
400
  3
ACDB_RECOMPOSE_DATA
350
F0B
  3
AcDbVariableDictionary
350
84B
  3
APPDATA
350
6F0
  0
SUN
  5
EC7
330
6AC
100
AcDbSun
 90
        1
290
     0
 63
     7
421
 16777215
 40
1.0
291
     1
 91
  2455826
 92
 54000000
292
     0
 70
     2
 71
   256
280
     1
  0
DICTIONARY
  5
775
330
2
100
AcDbDictionary
280
     1
281
     1
  3
ACAD_LAYERSTATES
360
821
  0
DICTIONARY
  5
996
330
995
100
AcDbDictionary
280
     1
281
     1
  3
ACAD_FIELD
360
99A
  0
DICTIONARY
  5
88C
102
{ACAD_REACTORS
330
C
102
}
330
C
100
AcDbDictionary
281
     1
  0
DICTIONARY
  5
850
102
{ACAD_REACTORS
330
C
102
}
330
C
100
AcDbDictionary
281
     1
  0
FIELDLIST
  5
903
102
{ACAD_REACTORS
330
C
102
}
330
C
100
AcDbIdSet
 90
        2
330
999
330
998
100
AcDbFieldList
  0
DICTIONARY
  5
D
102
{ACAD_REACTORS
330
C
102
}
330
C
100
AcDbDictionary
281
     1
  0
DICTIONARY
  5
1CB
102
{ACAD_REACTORS
330
C
102
}
330
C
100
AcDbDictionary
281
     1
  3
A4承認図
350
1CE
  3
Model
350
1CD
  0
DICTIONARY
  5
86E
102
{ACAD_REACTORS
330
C
102
}
330
C
100
AcDbDictionary
281
     1
  3
ByBlock
350
870
  3
ByLayer
350
86F
  3
Global
350
871
  0
DICTIONARY
  5
874
102
{ACAD_REACTORS
330
C
102
}
330
C
100
AcDbDictionary
281
     1
  3
Standard
350
875
  0
DICTIONARY
  5
E
102
{ACAD_REACTORS
330
C
102
}
330
C
100
AcDbDictionary
281
     1
  3
STANDARD
350
1C
  0
DICTIONARY
  5
1CC
102
{ACAD_REACTORS
330
C
102
}
330
C
100
AcDbDictionary
281
     1
  0
ACDBDICTIONARYWDFLT
  5
1C9
102
{ACAD_REACTORS
330
C
102
}
330
C
100
AcDbDictionary
281
     1
  3
Normal
350
1CA
100
AcDbDictionaryWithDefault
340
1CA
  0
DICTIONARY
  5
6AD
102
{ACAD_REACTORS
330
C
102
}
330
C
100
AcDbDictionary
281
     1
  3
A0
350
6AE
  3
A1
350
6AF
  3
A2
350
6B0
  3
A3
350
6B1
  3
A4
350
6B2
  3
A5
350
6B3
  3
A6
350
6B4
  3
A7
350
6B5
  3
A8
350
6B6
  3
A9
350
6B7
  3
B0
350
6B8
  3
B1
350
6B9
  3
B2
350
6BA
  3
B3
350
6BB
  3
B4
350
6BC
  3
B5
350
6BD
  3
B6
350
6BE
  3
B7
350
6BF
  3
B8
350
6C0
  3
B9
350
6C1
  3
C0
350
6C2
  3
C1
350
6C3
  3
C2
350
6C4
  3
C3
350
6C5
  3
C4
350
6C6
  3
C5
350
6C7
  3
C6
350
6C8
  3
C7
350
6C9
  3
C8
350
6CA
  3
C9
350
6CB
  3
D0
350
6CC
  3
D1
350
6CD
  3
D2
350
6CE
  0
DICTIONARY
  5
851
102
{ACAD_REACTORS
330
C
102
}
330
C
100
AcDbDictionary
281
     1
  0
DICTIONARY
  5
872
102
{ACAD_REACTORS
330
C
102
}
330
C
100
AcDbDictionary
281
     1
  3
Standard
350
873
  0
DICTIONARY
  5
855
102
{ACAD_REACTORS
330
C
102
}
330
C
100
AcDbDictionary
281
     1
  3
2dWireframe
350
85A
  3
Basic
350
85D
  3
Brighten
350
861
  3
ColorChange
350
865
  3
Conceptual
350
85F
  3
Dim
350
860
  3
EdgeColorOff
350
868
  3
Facepattern
350
864
  3
Flat
350
856
  3
FlatWithEdges
350
857
  3
Gouraud
350
858
  3
GouraudWithEdges
350
859
  3
Hidden
350
85C
  3
JitterOff
350
866
  3
Linepattern
350
863
  3
OverhangOff
350
867
  3
Realistic
350
85E
  3
Shaded
350
86D
  3
Shaded with edges
350
86C
  3
Shades of Gray
350
869
  3
Sketchy
350
86A
  3
Thicken
350
862
  3
Wireframe
350
85B
  3
X-Ray
350
86B
  0
XRECORD
  5
400
102
{ACAD_REACTORS
330
C
102
}
330
C
100
AcDbXrecord
280
     1
 90
   990106
  3

 60
     0
 61
     0
 62
     4
 63
     4
 64
     1
 65
     0
 66
     0
 67
     3
 68
     1
 69
     0
 70
     0
 71
     0
 72
     0
 40
0.0
170
     2
340
0
  0
XRECORD
  5
F0B
102
{ACAD_REACTORS
330
C
102
}
330
C
100
AcDbXrecord
280
     1
 90
        1
330
873
  0
DICTIONARY
  5
84B
102
{ACAD_REACTORS
330
C
102
}
330
C
100
AcDbDictionary
281
     1
  3
CANNOSCALE
350
957
  3
CMLEADERSTYLE
350
959
  3
CTABLESTYLE
350
958
  3
MSLTSCALE
350
95A
  3
XCLIPFRAME
350
F05
  0
DICTIONARY
  5
6F0
102
{ACAD_REACTORS
330
C
102
}
330
C
100
AcDbDictionary
281
     1
  0
DICTIONARY
  5
821
102
{ACAD_REACTORS
330
775
102
}
330
775
100
AcDbDictionary
281
     1
  0
DICTIONARY
  5
99A
102
{ACAD_REACTORS
330
996
102
}
330
996
100
AcDbDictionary
280
     1
281
     1
  3
TEXT
360
998
  0
LAYOUT
  5
1CE
102
{ACAD_REACTORS
330
1CB
102
}
330
1CB
100
AcDbPlotSettings
  1

  2
Kyocera Mita LS-6820N KX
  4
A4
  6

 40
4.984749794006347
 41
5.154074668884277
 42
5.11175537109375
 43
4.9847412109375
 44
210.0156707763671
 45
297.0106506347656
 46
0.0
 47
0.0
 48
0.0
 49
0.0
140
0.0
141
0.0
142
1.0
143
1.0
 70
   672
 72
     1
 73
     0
 74
     1
  7
ジョー･プリンス.ctb
 75
     0
 76
     0
 77
     2
 78
   300
147
1.0
148
0.0076382641428268
149
0.8420214091704565
100
AcDbLayout
  1
A4承認図
 70
     1
 71
     1
 10
-4.992388058149174
 20
-5.996096078054733
 11
205.023282718218
 21
291.0145545567108
 12
0.0
 22
0.0
 32
0.0
 14
-0.015667337610239
 24
-0.8386533574724808
 34
-0.0000610323622112
 15
198.940981211386
 25
285.2452901313876
 35
1.000061041675721
146
0.0
 13
0.0
 23
0.0
 33
0.0
 16
1.0
 26
0.0
 36
0.0
 17
0.0
 27
1.0
 37
0.0
 76
     0
330
16
331
22
  0
LAYOUT
  5
1CD
102
{ACAD_REACTORS
330
1CB
102
}
330
1CB
100
AcDbPlotSettings
  1

  2
Canon LBP-A304G2 LIPS3
  4

  6

 40
0.0
 41
0.0
 42
0.0
 43
0.0
 44
0.0
 45
0.0
 46
0.0
 47
0.0
 48
0.0
 49
0.0
140
0.0
141
0.0
142
1.0
143
1.0
 70
  1712
 72
     0
 73
     0
 74
     0
  7
ジョー･プリンス.ctb
 75
     0
 76
     0
 77
     2
 78
   300
147
1.0
148
0.0
149
0.0
100
AcDbLayout
  1
Model
 70
     1
 71
     0
 10
0.0
 20
0.0
 11
12.0
 21
9.0
 12
0.0
 22
0.0
 32
0.0
 14
0.0
 24
0.0
 34
0.0
 15
296.9999999999999
 25
210.0
 35
0.0
146
0.0
 13
0.0
 23
0.0
 33
0.0
 16
1.0
 26
0.0
 36
0.0
 17
0.0
 27
1.0
 37
0.0
 76
     0
330
19
331
6AC
  0
MATERIAL
  5
870
102
{ACAD_REACTORS
330
86E
102
}
330
86E
100
AcDbMaterial
  1
ByBlock
 72
     1
 94
      127
  0
MATERIAL
  5
86F
102
{ACAD_REACTORS
330
86E
102
}
330
86E
100
AcDbMaterial
  1
ByLayer
 72
     1
 94
      127
  0
MATERIAL
  5
871
102
{ACAD_REACTORS
330
86E
102
}
330
86E
100
AcDbMaterial
  1
Global
 72
     1
 94
      127
  0
MLEADERSTYLE
  5
875
102
{ACAD_REACTORS
330
874
102
}
330
874
100
AcDbMLeaderStyle
170
     2
171
     1
172
     0
 90
        2
 40
0.0
 41
0.0
173
     1
 91
-1056964608
340
13
 92
       -2
290
     1
 42
2.0
291
     1
 43
8.0
  3
Standard
341
0
 44
4.0
300

342
10
174
     1
178
     1
175
     1
176
     0
 93
-1056964608
 45
4.0
292
     0
297
     0
 46
4.0
343
0
 94
-1056964608
 47
1.0
 49
1.0
140
1.0
293
     1
141
0.0
294
     1
177
     0
142
1.0
295
     0
296
     0
143
3.75
1001
ACAD_MLEADERVER
1070
     2
  0
MLINESTYLE
  5
1C
102
{ACAD_REACTORS
330
E
102
}
330
E
100
AcDbMlineStyle
  2
STANDARD
 70
     0
  3

 62
     0
 51
90.0
 52
90.0
 71
     2
 49
0.5
 62
   256
  6
BYLAYER
 49
-0.5
 62
   256
  6
BYLAYER
  0
ACDBPLACEHOLDER
  5
1CA
102
{ACAD_REACTORS
330
1C9
102
}
330
1C9
  0
SCALE
  5
6AE
102
{ACAD_REACTORS
330
6AD
102
}
330
6AD
100
AcDbScale
 70
     0
300
1:1
140
1.0
141
1.0
290
     1
  0
SCALE
  5
6AF
102
{ACAD_REACTORS
330
6AD
102
}
330
6AD
100
AcDbScale
 70
     0
300
1:2
140
1.0
141
2.0
290
     0
  0
SCALE
  5
6B0
102
{ACAD_REACTORS
330
6AD
102
}
330
6AD
100
AcDbScale
 70
     0
300
1:4
140
1.0
141
4.0
290
     0
  0
SCALE
  5
6B1
102
{ACAD_REACTORS
330
6AD
102
}
330
6AD
100
AcDbScale
 70
     0
300
1:5
140
1.0
141
5.0
290
     0
  0
SCALE
  5
6B2
102
{ACAD_REACTORS
330
6AD
102
}
330
6AD
100
AcDbScale
 70
     0
300
1:8
140
1.0
141
8.0
290
     0
  0
SCALE
  5
6B3
102
{ACAD_REACTORS
330
6AD
102
}
330
6AD
100
AcDbScale
 70
     0
300
1:10
140
1.0
141
10.0
290
     0
  0
SCALE
  5
6B4
102
{ACAD_REACTORS
330
6AD
102
}
330
6AD
100
AcDbScale
 70
     0
300
1:16
140
1.0
141
16.0
290
     0
  0
SCALE
  5
6B5
102
{ACAD_REACTORS
330
6AD
102
}
330
6AD
100
AcDbScale
 70
     0
300
1:20
140
1.0
141
20.0
290
     0
  0
SCALE
  5
6B6
102
{ACAD_REACTORS
330
6AD
102
}
330
6AD
100
AcDbScale
 70
     0
300
1:30
140
1.0
141
30.0
290
     0
  0
SCALE
  5
6B7
102
{ACAD_REACTORS
330
6AD
102
}
330
6AD
100
AcDbScale
 70
     0
300
1:40
140
1.0
141
40.0
290
     0
  0
SCALE
  5
6B8
102
{ACAD_REACTORS
330
6AD
102
}
330
6AD
100
AcDbScale
 70
     0
300
1:50
140
1.0
141
50.0
290
     0
  0
SCALE
  5
6B9
102
{ACAD_REACTORS
330
6AD
102
}
330
6AD
100
AcDbScale
 70
     0
300
1:100
140
1.0
141
100.0
290
     0
  0
SCALE
  5
6BA
102
{ACAD_REACTORS
330
6AD
102
}
330
6AD
100
AcDbScale
 70
     0
300
2:1
140
2.0
141
1.0
290
     0
  0
SCALE
  5
6BB
102
{ACAD_REACTORS
330
6AD
102
}
330
6AD
100
AcDbScale
 70
     0
300
4:1
140
4.0
141
1.0
290
     0
  0
SCALE
  5
6BC
102
{ACAD_REACTORS
330
6AD
102
}
330
6AD
100
AcDbScale
 70
     0
300
8:1
140
8.0
141
1.0
290
     0
  0
SCALE
  5
6BD
102
{ACAD_REACTORS
330
6AD
102
}
330
6AD
100
AcDbScale
 70
     0
300
10:1
140
10.0
141
1.0
290
     0
  0
SCALE
  5
6BE
102
{ACAD_REACTORS
330
6AD
102
}
330
6AD
100
AcDbScale
 70
     0
300
100:1
140
100.0
141
1.0
290
     0
  0
SCALE
  5
6BF
102
{ACAD_REACTORS
330
6AD
102
}
330
6AD
100
AcDbScale
 70
     0
300
1/128" = 1'-0"
140
0.0078125
141
12.0
290
     0
  0
SCALE
  5
6C0
102
{ACAD_REACTORS
330
6AD
102
}
330
6AD
100
AcDbScale
 70
     0
300
1/64" = 1'-0"
140
0.015625
141
12.0
290
     0
  0
SCALE
  5
6C1
102
{ACAD_REACTORS
330
6AD
102
}
330
6AD
100
AcDbScale
 70
     0
300
1/32" = 1'-0"
140
0.03125
141
12.0
290
     0
  0
SCALE
  5
6C2
102
{ACAD_REACTORS
330
6AD
102
}
330
6AD
100
AcDbScale
 70
     0
300
1/16" = 1'-0"
140
0.0625
141
12.0
290
     0
  0
SCALE
  5
6C3
102
{ACAD_REACTORS
330
6AD
102
}
330
6AD
100
AcDbScale
 70
     0
300
3/32" = 1'-0"
140
0.09375
141
12.0
290
     0
  0
SCALE
  5
6C4
102
{ACAD_REACTORS
330
6AD
102
}
330
6AD
100
AcDbScale
 70
     0
300
1/8" = 1'-0"
140
0.125
141
12.0
290
     0
  0
SCALE
  5
6C5
102
{ACAD_REACTORS
330
6AD
102
}
330
6AD
100
AcDbScale
 70
     0
300
3/16" = 1'-0"
140
0.1875
141
12.0
290
     0
  0
SCALE
  5
6C6
102
{ACAD_REACTORS
330
6AD
102
}
330
6AD
100
AcDbScale
 70
     0
300
1/4" = 1'-0"
140
0.25
141
12.0
290
     0
  0
SCALE
  5
6C7
102
{ACAD_REACTORS
330
6AD
102
}
330
6AD
100
AcDbScale
 70
     0
300
3/8" = 1'-0"
140
0.375
141
12.0
290
     0
  0
SCALE
  5
6C8
102
{ACAD_REACTORS
330
6AD
102
}
330
6AD
100
AcDbScale
 70
     0
300
1/2" = 1'-0"
140
0.5
141
12.0
290
     0
  0
SCALE
  5
6C9
102
{ACAD_REACTORS
330
6AD
102
}
330
6AD
100
AcDbScale
 70
     0
300
3/4" = 1'-0"
140
0.75
141
12.0
290
     0
  0
SCALE
  5
6CA
102
{ACAD_REACTORS
330
6AD
102
}
330
6AD
100
AcDbScale
 70
     0
300
1" = 1'-0"
140
1.0
141
12.0
290
     0
  0
SCALE
  5
6CB
102
{ACAD_REACTORS
330
6AD
102
}
330
6AD
100
AcDbScale
 70
     0
300
1-1/2" = 1'-0"
140
1.5
141
12.0
290
     0
  0
SCALE
  5
6CC
102
{ACAD_REACTORS
330
6AD
102
}
330
6AD
100
AcDbScale
 70
     0
300
3" = 1'-0"
140
3.0
141
12.0
290
     0
  0
SCALE
  5
6CD
102
{ACAD_REACTORS
330
6AD
102
}
330
6AD
100
AcDbScale
 70
     0
300
6" = 1'-0"
140
6.0
141
12.0
290
     0
  0
SCALE
  5
6CE
102
{ACAD_REACTORS
330
6AD
102
}
330
6AD
100
AcDbScale
 70
     0
300
1'-0" = 1'-0"
140
12.0
141
12.0
290
     0
  0
TABLESTYLE
  5
873
102
{ACAD_REACTORS
330
872
102
}
102
{ACAD_XDICTIONARY
360
F09
102
}
330
872
100
AcDbTableStyle
  3
Standard
 70
     0
 71
     0
 40
0.06
 41
0.06
280
     0
281
     0
  7
STANDARD
140
4.5
170
     2
 62
     0
 63
   257
283
     0
 90
        4
 91
        0
  1

274
    -2
284
     1
 64
     0
275
    -2
285
     1
 65
     0
276
    -2
286
     1
 66
     0
277
    -2
287
     1
 67
     0
278
    -2
288
     1
 68
     0
279
    -2
289
     1
 69
     0
  7
STANDARD
140
6.0
170
     5
 62
     0
 63
   257
283
     0
 90
        4
 91
        0
  1

274
    -2
284
     1
 64
     0
275
    -2
285
     1
 65
     0
276
    -2
286
     1
 66
     0
277
    -2
287
     1
 67
     0
278
    -2
288
     1
 68
     0
279
    -2
289
     1
 69
     0
  7
STANDARD
140
4.5
170
     5
 62
     0
 63
   257
283
     0
 90
        4
 91
        0
  1

274
    -2
284
     1
 64
     0
275
    -2
285
     1
 65
     0
276
    -2
286
     1
 66
     0
277
    -2
287
     1
 67
     0
278
    -2
288
     1
 68
     0
279
    -2
289
     1
 69
     0
  0
VISUALSTYLE
  5
85A
102
{ACAD_REACTORS
330
855
102
}
330
855
100
AcDbVisualStyle
  2
2dWireframe
 70
     4
 71
     0
 72
     2
 73
     0
 90
        0
 40
0.6
 41
30.0
 62
     5
 63
     7
421
 16777215
 74
     1
 91
        4
 64
     7
 65
   257
 75
     1
175
     1
 42
1.0
 92
        0
 66
   257
 43
1.0
 76
     1
 77
     6
 78
     2
 67
     7
 79
     5
170
     0
171
     0
290
     0
174
     0
 93
        1
 44
0.0
173
     0
291
     0
 45
0.0
  0
VISUALSTYLE
  5
85D
102
{ACAD_REACTORS
330
855
102
}
330
855
100
AcDbVisualStyle
  2
Basic
 70
     7
 71
     1
 72
     0
 73
     1
 90
        0
 40
0.6
 41
30.0
 62
     5
 63
     7
421
 16777215
 74
     0
 91
        4
 64
     7
 65
   257
 75
     1
175
     1
 42
1.0
 92
        8
 66
     7
 43
1.0
 76
     1
 77
     6
 78
     2
 67
     7
 79
     5
170
     0
171
     0
290
     0
174
     0
 93
        1
 44
0.0
173
     0
291
     1
 45
0.0
  0
VISUALSTYLE
  5
861
102
{ACAD_REACTORS
330
855
102
}
330
855
100
AcDbVisualStyle
  2
Brighten
 70
    12
 71
     2
 72
     2
 73
     0
 90
        0
 40
0.6
 41
30.0
 62
     5
 63
     7
421
 16777215
 74
     1
 91
        4
 64
     7
 65
   257
 75
     1
175
     1
 42
1.0
 92
        8
 66
     7
 43
1.0
 76
     1
 77
     6
 78
     2
 67
     7
 79
     5
170
     0
171
     0
290
     0
174
     0
 93
        1
 44
50.0
173
     0
291
     1
 45
0.0
  0
VISUALSTYLE
  5
865
102
{ACAD_REACTORS
330
855
102
}
330
855
100
AcDbVisualStyle
  2
ColorChange
 70
    16
 71
     2
 72
     2
 73
     3
 90
        0
 40
0.6
 41
30.0
 62
     5
 63
     8
421
  8421504
 74
     1
 91
        4
 64
     7
 65
   257
 75
     1
175
     1
 42
1.0
 92
        8
 66
     8
424
  8421504
 43
1.0
 76
     1
 77
     6
 78
     2
 67
     7
 79
     5
170
     0
171
     0
290
     0
174
     0
 93
        1
 44
0.0
173
     0
291
     1
 45
0.0
  0
VISUALSTYLE
  5
85F
102
{ACAD_REACTORS
330
855
102
}
330
855
100
AcDbVisualStyle
  2
Conceptual
 70
     9
 71
     3
 72
     2
 73
     0
 90
        0
 40
0.6
 41
30.0
 62
     5
 63
     7
421
 16777215
 74
     2
 91
        2
 64
     7
 65
   257
 75
     1
175
     1
 42
179.0
 92
        8
 66
     7
 43
1.0
 76
     1
 77
     6
 78
     2
 67
     7
 79
     3
170
     0
171
     0
290
     0
174
     0
 93
        1
 44
0.0
173
     0
291
     0
 45
0.0
  0
VISUALSTYLE
  5
860
102
{ACAD_REACTORS
330
855
102
}
330
855
100
AcDbVisualStyle
  2
Dim
 70
    11
 71
     2
 72
     2
 73
     0
 90
        0
 40
0.6
 41
30.0
 62
     5
 63
     7
421
 16777215
 74
     1
 91
        4
 64
     7
 65
   257
 75
     1
175
     1
 42
1.0
 92
        8
 66
     7
 43
1.0
 76
     1
 77
     6
 78
     2
 67
     7
 79
     5
170
     0
171
     0
290
     0
174
     0
 93
        1
 44
-50.0
173
     0
291
     1
 45
0.0
  0
VISUALSTYLE
  5
868
102
{ACAD_REACTORS
330
855
102
}
330
855
100
AcDbVisualStyle
  2
EdgeColorOff
 70
    22
 71
     2
 72
     2
 73
     0
 90
        0
 40
0.6
 41
30.0
 62
     5
 63
     7
421
 16777215
 74
     1
 91
        4
 64
     7
 65
   257
 75
     1
175
     1
 42
1.0
 92
        8
 66
     7
 43
1.0
 76
     1
 77
     6
 78
     2
 67
     7
 79
     5
170
     0
171
     0
290
     0
174
     0
 93
        1
 44
0.0
173
     0
291
     1
 45
0.0
  0
VISUALSTYLE
  5
864
102
{ACAD_REACTORS
330
855
102
}
330
855
100
AcDbVisualStyle
  2
Facepattern
 70
    15
 71
     2
 72
     2
 73
     0
 90
        0
 40
0.6
 41
30.0
 62
     5
 63
     7
421
 16777215
 74
     1
 91
        4
 64
     7
 65
   257
 75
     1
175
     1
 42
1.0
 92
        8
 66
     7
 43
1.0
 76
     1
 77
     6
 78
     2
 67
     7
 79
     5
170
     0
171
     0
290
     0
174
     0
 93
        1
 44
0.0
173
     0
291
     1
 45
0.0
  0
VISUALSTYLE
  5
856
102
{ACAD_REACTORS
330
855
102
}
330
855
100
AcDbVisualStyle
  2
Flat
 70
     0
 71
     2
 72
     1
 73
     1
 90
        2
 40
0.6
 41
30.0
 62
     5
 63
     7
421
 16777215
 74
     0
 91
        0
 64
     7
 65
   257
 75
     1
175
     1
 42
1.0
 92
        8
 66
     7
 43
1.0
 76
     1
 77
     6
 78
     2
 67
     7
 79
     5
170
     0
171
     0
290
     0
174
     0
 93
       13
 44
0.0
173
     0
291
     1
 45
0.0
  0
VISUALSTYLE
  5
857
102
{ACAD_REACTORS
330
855
102
}
330
855
100
AcDbVisualStyle
  2
FlatWithEdges
 70
     1
 71
     2
 72
     1
 73
     1
 90
        2
 40
0.6
 41
30.0
 62
     5
 63
     7
421
 16777215
 74
     1
 91
        0
 64
     7
 65
   257
 75
     1
175
     1
 42
1.0
 92
        0
 66
   257
 43
1.0
 76
     1
 77
     6
 78
     2
 67
     7
 79
     5
170
     0
171
     0
290
     0
174
     0
 93
       13
 44
0.0
173
     0
291
     1
 45
0.0
  0
VISUALSTYLE
  5
858
102
{ACAD_REACTORS
330
855
102
}
330
855
100
AcDbVisualStyle
  2
Gouraud
 70
     2
 71
     2
 72
     2
 73
     1
 90
        2
 40
0.6
 41
30.0
 62
     5
 63
     7
421
 16777215
 74
     0
 91
        0
 64
     7
 65
   257
 75
     1
175
     1
 42
1.0
 92
        0
 66
     7
 43
1.0
 76
     1
 77
     6
 78
     2
 67
     7
 79
     5
170
     0
171
     0
290
     0
174
     0
 93
       13
 44
0.0
173
     0
291
     1
 45
0.0
  0
VISUALSTYLE
  5
859
102
{ACAD_REACTORS
330
855
102
}
330
855
100
AcDbVisualStyle
  2
GouraudWithEdges
 70
     3
 71
     2
 72
     2
 73
     1
 90
        2
 40
0.6
 41
30.0
 62
     5
 63
     7
421
 16777215
 74
     1
 91
        0
 64
     7
 65
   257
 75
     1
175
     1
 42
1.0
 92
        0
 66
   257
 43
1.0
 76
     1
 77
     6
 78
     2
 67
     7
 79
     5
170
     0
171
     0
290
     0
174
     0
 93
       13
 44
0.0
173
     0
291
     1
 45
0.0
  0
VISUALSTYLE
  5
85C
102
{ACAD_REACTORS
330
855
102
}
330
855
100
AcDbVisualStyle
  2
Hidden
 70
     6
 71
     1
 72
     2
 73
     2
 90
        0
 40
0.6
 41
30.0
 62
     5
 63
     7
421
 16777215
 74
     2
 91
        2
 64
     7
 65
   257
 75
     2
175
     1
 42
40.0
 92
        0
 66
   257
 43
1.0
 76
     1
 77
     6
 78
     2
 67
     7
 79
     3
170
     0
171
     0
290
     0
174
     0
 93
        1
 44
0.0
173
     0
291
     0
 45
0.0
  0
VISUALSTYLE
  5
866
102
{ACAD_REACTORS
330
855
102
}
330
855
100
AcDbVisualStyle
  2
JitterOff
 70
    20
 71
     2
 72
     2
 73
     0
 90
        0
 40
0.6
 41
30.0
 62
     5
 63
     7
421
 16777215
 74
     1
 91
        4
 64
     7
 65
   257
 75
     1
175
     1
 42
1.0
 92
       10
 66
     7
 43
1.0
 76
     1
 77
     6
 78
     2
 67
     7
 79
     5
170
     0
171
     0
290
     0
174
     0
 93
        1
 44
0.0
173
     0
291
     1
 45
0.0
  0
VISUALSTYLE
  5
863
102
{ACAD_REACTORS
330
855
102
}
330
855
100
AcDbVisualStyle
  2
Linepattern
 70
    14
 71
     2
 72
     2
 73
     0
 90
        0
 40
0.6
 41
30.0
 62
     5
 63
     7
421
 16777215
 74
     1
 91
        4
 64
     7
 65
   257
 75
     7
175
     7
 42
1.0
 92
        8
 66
     7
 43
1.0
 76
     1
 77
     6
 78
     2
 67
     7
 79
     5
170
     0
171
     0
290
     0
174
     0
 93
        1
 44
0.0
173
     0
291
     1
 45
0.0
  0
VISUALSTYLE
  5
867
102
{ACAD_REACTORS
330
855
102
}
330
855
100
AcDbVisualStyle
  2
OverhangOff
 70
    21
 71
     2
 72
     2
 73
     0
 90
        0
 40
0.6
 41
30.0
 62
     5
 63
     7
421
 16777215
 74
     1
 91
        4
 64
     7
 65
   257
 75
     1
175
     1
 42
1.0
 92
        9
 66
     7
 43
1.0
 76
     1
 77
     6
 78
     2
 67
     7
 79
     5
170
     0
171
     0
290
     0
174
     0
 93
        1
 44
0.0
173
     0
291
     1
 45
0.0
  0
VISUALSTYLE
  5
85E
102
{ACAD_REACTORS
330
855
102
}
330
855
100
AcDbVisualStyle
  2
Realistic
 70
     8
 71
     2
 72
     3
 73
     0
 90
        2
 40
0.6
 41
30.0
 62
     5
 63
     7
421
 16777215
 74
     0
 91
        0
 64
     7
 65
   257
 75
     1
175
     1
 42
1.0
 92
        8
 66
   257
 43
1.0
 76
     1
 77
     6
 78
     2
 67
     7
 79
     3
170
     0
171
     0
290
     0
174
     0
 93
       13
 44
0.0
173
     0
291
     0
 45
0.0
  0
VISUALSTYLE
  5
86D
102
{ACAD_REACTORS
330
855
102
}
330
855
100
AcDbVisualStyle
  2
Shaded
 70
    27
 71
     2
 72
     2
 73
     1
 90
        2
 40
0.6
 41
30.0
 62
     5
 63
     7
421
 16777215
 74
     0
 91
        4
 64
     7
 65
   257
 75
     1
175
     1
 42
1.0
 92
        8
 66
   257
 43
1.0
 76
     1
 77
     6
 78
     2
 67
     8
425
  7895160
 79
     3
170
     0
171
     0
290
     0
174
     0
 93
        5
 44
0.0
173
     0
291
     0
 45
0.0
  0
VISUALSTYLE
  5
86C
102
{ACAD_REACTORS
330
855
102
}
330
855
100
AcDbVisualStyle
  2
Shaded with edges
 70
    26
 71
     2
 72
     2
 73
     1
 90
        2
 40
0.6
 41
30.0
 62
     5
 63
     7
421
 16777215
 74
     1
 91
       10
 64
     7
 65
   257
 75
     2
175
     1
 42
1.0
 92
        8
 66
   257
 43
1.0
 76
     1
 77
     6
 78
     2
 67
     7
 79
     3
170
     0
171
     0
290
     0
174
     0
 93
        5
 44
0.0
173
     0
291
     0
 45
0.0
  0
VISUALSTYLE
  5
869
102
{ACAD_REACTORS
330
855
102
}
330
855
100
AcDbVisualStyle
  2
Shades of Gray
 70
    23
 71
     2
 72
     2
 73
     3
 90
        0
 40
0.6
 41
30.0
 62
     5
 63
     7
421
 16777215
 74
     2
 91
        2
 64
     7
 65
     7
 75
     1
175
     1
 42
40.0
 92
        8
 66
     7
 43
1.0
 76
     1
 77
     6
 78
     2
 67
     7
 79
     3
170
     0
171
     0
290
     0
174
     0
 93
        1
 44
0.0
173
     0
291
     0
 45
0.0
  0
VISUALSTYLE
  5
86A
102
{ACAD_REACTORS
330
855
102
}
330
855
100
AcDbVisualStyle
  2
Sketchy
 70
    24
 71
     1
 72
     2
 73
     2
 90
        0
 40
0.6
 41
30.0
 62
     5
 63
     7
421
 16777215
 74
     2
 91
        2
 64
     7
 65
     7
 75
     1
175
     1
 42
40.0
 92
       11
 66
     7
 43
1.0
 76
     1
 77
     6
 78
     2
 67
     7
 79
     6
170
     0
171
     0
290
     0
174
     0
 93
        1
 44
0.0
173
     0
291
     0
 45
0.0
  0
VISUALSTYLE
  5
862
102
{ACAD_REACTORS
330
855
102
}
330
855
100
AcDbVisualStyle
  2
Thicken
 70
    13
 71
     2
 72
     2
 73
     0
 90
        0
 40
0.6
 41
30.0
 62
     5
 63
     7
421
 16777215
 74
     1
 91
        4
 64
     7
 65
   257
 75
     1
175
     1
 42
1.0
 92
       12
 66
     7
 43
1.0
 76
     1
 77
     6
 78
     2
 67
     7
 79
     5
170
     0
171
     0
290
     0
174
     0
 93
        1
 44
0.0
173
     0
291
     1
 45
0.0
  0
VISUALSTYLE
  5
85B
102
{ACAD_REACTORS
330
855
102
}
330
855
100
AcDbVisualStyle
  2
Wireframe
 70
     5
 71
     0
 72
     2
 73
     0
 90
        0
 40
0.6
 41
30.0
 62
     5
 63
     7
421
 16777215
 74
     1
 91
        4
 64
     7
 65
   257
 75
     1
175
     1
 42
1.0
 92
        0
 66
   257
 43
1.0
 76
     1
 77
     6
 78
     2
 67
     7
 79
     3
170
     0
171
     0
290
     0
174
     0
 93
        1
 44
0.0
173
     0
291
     0
 45
0.0
  0
VISUALSTYLE
  5
86B
102
{ACAD_REACTORS
330
855
102
}
330
855
100
AcDbVisualStyle
  2
X-Ray
 70
    25
 71
     2
 72
     2
 73
     1
 90
        1
 40
0.5
 41
30.0
 62
     5
 63
     7
421
 16777215
 74
     1
 91
        0
 64
     7
 65
   257
 75
     1
175
     1
 42
1.0
 92
        8
 66
     7
 43
1.0
 76
     1
 77
     6
 78
     2
 67
     7
 79
     3
170
     0
171
     0
290
     0
174
     0
 93
       13
 44
0.0
173
     0
291
     0
 45
0.0
  0
DICTIONARYVAR
  5
957
102
{ACAD_REACTORS
330
84B
102
}
330
84B
100
DictionaryVariables
280
     0
  1
1:1
  0
DICTIONARYVAR
  5
959
102
{ACAD_REACTORS
330
84B
102
}
330
84B
100
DictionaryVariables
280
     0
  1
Standard
  0
DICTIONARYVAR
  5
958
102
{ACAD_REACTORS
330
84B
102
}
330
84B
100
DictionaryVariables
280
     0
  1
Standard
  0
DICTIONARYVAR
  5
95A
102
{ACAD_REACTORS
330
84B
102
}
330
84B
100
DictionaryVariables
280
     0
  1
0
  0
DICTIONARYVAR
  5
F05
102
{ACAD_REACTORS
330
84B
102
}
330
84B
100
DictionaryVariables
280
     0
  1
0
  0
FIELD
  5
998
102
{ACAD_REACTORS
330
99A
102
}
330
99A
100
AcDbField
  1
_text
  2
{%<\_FldIdx 0>%N}
 90
        1
360
999
 97
        0
 91
       63
 92
        0
 94
       11
 95
        2
 96
        0
300

 93
        1
  6
ACFD_FIELDTEXT_CHECKSUM
 93
        2
 90
        2
140
4537.0
 94
        0
300

302

304
ACVALUE_END
  7
ACFD_FIELD_VALUE
 93
        6
 90
        4
  1
{20181227N}
 94
        0
300

302

304
ACVALUE_END
301
{20181227N}
 98
       11
  0
DICTIONARY
  5
F09
330
873
100
AcDbDictionary
280
     1
281
     1
  3
ACAD_ROUNDTRIP_2008_TABLESTYLE_CELLSTYLEMAP
360
F0A
  0
FIELD
  5
999
330
998
100
AcDbField
  1
AcVar
  2
\AcVar Date \f "yyyyMMdd"
 90
        0
 97
        0
 91
       63
 92
        0
 94
        8
 95
       64
 96
        0
300
Variable not supported
 93
        1
  6
Variable
 93
        2
 90
        4
  1
Date
 94
        0
300

302

304
ACVALUE_END
  7
ACFD_FIELD_VALUE
 93
        6
 90
        8
 92
       16
310
E2070C0000001B000A00110036000000
 94
        0
300
yyyyMMdd
302

304
ACVALUE_END
301
20181227
 98
        8
  0
CELLSTYLEMAP
  5
F0A
102
{ACAD_REACTORS
330
F09
102
}
330
F09
100
AcDbCellStyleMap
 90
        3
300
CELLSTYLE
  1
TABLEFORMAT_BEGIN
 90
        5
170
     1
 91
        0
 92
    32768
 62
   257
 93
        1
300
CONTENTFORMAT
  1
CONTENTFORMAT_BEGIN
 90
        0
 91
        0
 92
        4
 93
        0
300

 40
0.0
140
1.0
 94
        5
 62
     0
340
10
144
6.0
309
CONTENTFORMAT_END
171
     1
301
MARGIN
  1
CELLMARGIN_BEGIN
 40
1.5
 40
1.5
 40
1.5
 40
1.5
 40
1.5
 40
1.5
309
CELLMARGIN_END
 94
        6
 95
        1
302
GRIDFORMAT
  1
GRIDFORMAT_BEGIN
 90
        0
 91
        1
 62
     0
 92
       -2
340
13
 93
        0
 40
0.045
309
GRIDFORMAT_END
 95
        2
302
GRIDFORMAT
  1
GRIDFORMAT_BEGIN
 90
        0
 91
        1
 62
     0
 92
       -2
340
13
 93
        0
 40
0.045
309
GRIDFORMAT_END
 95
        4
302
GRIDFORMAT
  1
GRIDFORMAT_BEGIN
 90
        0
 91
        1
 62
     0
 92
       -2
340
13
 93
        0
 40
0.045
309
GRIDFORMAT_END
 95
        8
302
GRIDFORMAT
  1
GRIDFORMAT_BEGIN
 90
        0
 91
        1
 62
     0
 92
       -2
340
13
 93
        0
 40
0.045
309
GRIDFORMAT_END
 95
       16
302
GRIDFORMAT
  1
GRIDFORMAT_BEGIN
 90
        0
 91
        1
 62
     0
 92
       -2
340
13
 93
        0
 40
0.045
309
GRIDFORMAT_END
 95
       32
302
GRIDFORMAT
  1
GRIDFORMAT_BEGIN
 90
        0
 91
        1
 62
     0
 92
       -2
340
13
 93
        0
 40
0.045
309
GRIDFORMAT_END
309
TABLEFORMAT_END
  1
CELLSTYLE_BEGIN
 90
        1
 91
        1
300
_TITLE
309
CELLSTYLE_END
300
CELLSTYLE
  1
TABLEFORMAT_BEGIN
 90
        5
170
     1
 91
        0
 92
        0
 62
   257
 93
        1
300
CONTENTFORMAT
  1
CONTENTFORMAT_BEGIN
 90
        0
 91
        0
 92
        4
 93
        0
300

 40
0.0
140
1.0
 94
        5
 62
     0
340
10
144
4.5
309
CONTENTFORMAT_END
171
     1
301
MARGIN
  1
CELLMARGIN_BEGIN
 40
1.5
 40
1.5
 40
1.5
 40
1.5
 40
1.5
 40
1.5
309
CELLMARGIN_END
 94
        6
 95
        1
302
GRIDFORMAT
  1
GRIDFORMAT_BEGIN
 90
        0
 91
        1
 62
     0
 92
       -2
340
13
 93
        0
 40
0.045
309
GRIDFORMAT_END
 95
        2
302
GRIDFORMAT
  1
GRIDFORMAT_BEGIN
 90
        0
 91
        1
 62
     0
 92
       -2
340
13
 93
        0
 40
0.045
309
GRIDFORMAT_END
 95
        4
302
GRIDFORMAT
  1
GRIDFORMAT_BEGIN
 90
        0
 91
        1
 62
     0
 92
       -2
340
13
 93
        0
 40
0.045
309
GRIDFORMAT_END
 95
        8
302
GRIDFORMAT
  1
GRIDFORMAT_BEGIN
 90
        0
 91
        1
 62
     0
 92
       -2
340
13
 93
        0
 40
0.045
309
GRIDFORMAT_END
 95
       16
302
GRIDFORMAT
  1
GRIDFORMAT_BEGIN
 90
        0
 91
        1
 62
     0
 92
       -2
340
13
 93
        0
 40
0.045
309
GRIDFORMAT_END
 95
       32
302
GRIDFORMAT
  1
GRIDFORMAT_BEGIN
 90
        0
 91
        1
 62
     0
 92
       -2
340
13
 93
        0
 40
0.045
309
GRIDFORMAT_END
309
TABLEFORMAT_END
  1
CELLSTYLE_BEGIN
 90
        2
 91
        1
300
_HEADER
309
CELLSTYLE_END
300
CELLSTYLE
  1
TABLEFORMAT_BEGIN
 90
        5
170
     1
 91
        0
 92
        0
 62
   257
 93
        1
300
CONTENTFORMAT
  1
CONTENTFORMAT_BEGIN
 90
        0
 91
        0
 92
        4
 93
        0
300

 40
0.0
140
1.0
 94
        2
 62
     0
340
10
144
4.5
309
CONTENTFORMAT_END
171
     1
301
MARGIN
  1
CELLMARGIN_BEGIN
 40
1.5
 40
1.5
 40
1.5
 40
1.5
 40
1.5
 40
1.5
309
CELLMARGIN_END
 94
        6
 95
        1
302
GRIDFORMAT
  1
GRIDFORMAT_BEGIN
 90
        0
 91
        1
 62
     0
 92
       -2
340
13
 93
        0
 40
0.045
309
GRIDFORMAT_END
 95
        2
302
GRIDFORMAT
  1
GRIDFORMAT_BEGIN
 90
        0
 91
        1
 62
     0
 92
       -2
340
13
 93
        0
 40
0.045
309
GRIDFORMAT_END
 95
        4
302
GRIDFORMAT
  1
GRIDFORMAT_BEGIN
 90
        0
 91
        1
 62
     0
 92
       -2
340
13
 93
        0
 40
0.045
309
GRIDFORMAT_END
 95
        8
302
GRIDFORMAT
  1
GRIDFORMAT_BEGIN
 90
        0
 91
        1
 62
     0
 92
       -2
340
13
 93
        0
 40
0.045
309
GRIDFORMAT_END
 95
       16
302
GRIDFORMAT
  1
GRIDFORMAT_BEGIN
 90
        0
 91
        1
 62
     0
 92
       -2
340
13
 93
        0
 40
0.045
309
GRIDFORMAT_END
 95
       32
302
GRIDFORMAT
  1
GRIDFORMAT_BEGIN
 90
        0
 91
        1
 62
     0
 92
       -2
340
13
 93
        0
 40
0.045
309
GRIDFORMAT_END
309
TABLEFORMAT_END
  1
CELLSTYLE_BEGIN
 90
        3
 91
        2
300
_DATA
309
CELLSTYLE_END
  0
ENDSEC
  0
EOF
