  0
SECTION
  2
HEADER
  9
$ACADVER
  1
AC1021
  9
$ACADMAINTVER
 70
    25
  9
$DWGCODEPAGE
  3
ANSI_932
  9
$LASTSAVEDBY
  1
howeNelson
  9
$INSBASE
 10
0.0
 20
0.0
 30
0.0
  9
$EXTMIN
 10
0.0
 20
0.0
 30
-0.0000000000000071
  9
$EXTMAX
 10
420.0
 20
594.0
 30
0.0000000000000071
  9
$LIMMIN
 10
0.0
 20
0.0
  9
$LIMMAX
 10
420.0
 20
594.0
  9
$ORTHOMODE
 70
     0
  9
$REGENMODE
 70
     1
  9
$FILLMODE
 70
     1
  9
$QTEXTMODE
 70
     0
  9
$MIRRTEXT
 70
     1
  9
$LTSCALE
 40
1.0
  9
$ATTMODE
 70
     1
  9
$TEXTSIZE
 40
2.5
  9
$TRACEWID
 40
1.0
  9
$TEXTSTYLE
  7
ＭＳ ゴシック
  9
$CLAYER
  8
DIM
  9
$CELTYPE
  6
ByLayer
  9
$CECOLOR
 62
   256
  9
$CELTSCALE
 40
1.0
  9
$DISPSILH
 70
     0
  9
$DIMSCALE
 40
1.0
  9
$DIMASZ
 40
2.0
  9
$DIMEXO
 40
5.0
  9
$DIMDLI
 40
0.9999999999999999
  9
$DIMRND
 40
0.0
  9
$DIMDLE
 40
0.0
  9
$DIMEXE
 40
0.0
  9
$DIMTP
 40
0.0
  9
$DIMTM
 40
0.0
  9
$DIMTXT
 40
5.0
  9
$DIMCEN
 40
0.0
  9
$DIMTSZ
 40
0.0
  9
$DIMTOL
 70
     0
  9
$DIMLIM
 70
     0
  9
$DIMTIH
 70
     0
  9
$DIMTOH
 70
     0
  9
$DIMSE1
 70
     0
  9
$DIMSE2
 70
     0
  9
$DIMTAD
 70
     1
  9
$DIMZIN
 70
    11
  9
$DIMBLK
  1
DOT
  9
$DIMASO
 70
     1
  9
$DIMSHO
 70
     1
  9
$DIMPOST
  1
<>
  9
$DIMAPOST
  1
[]
  9
$DIMALT
 70
     0
  9
$DIMALTD
 70
     1
  9
$DIMALTF
 40
1.0
  9
$DIMLFAC
 40
1.0
  9
$DIMTOFL
 70
     0
  9
$DIMTVP
 40
0.0
  9
$DIMTIX
 70
     1
  9
$DIMSOXD
 70
     0
  9
$DIMSAH
 70
     0
  9
$DIMBLK1
  1

  9
$DIMBLK2
  1

  9
$DIMSTYLE
  2
tfrom線あり
  9
$DIMCLRD
 70
     0
  9
$DIMCLRE
 70
     0
  9
$DIMCLRT
 70
     0
  9
$DIMTFAC
 40
1.0
  9
$DIMGAP
 40
3.0
  9
$DIMJUST
 70
     0
  9
$DIMSD1
 70
     0
  9
$DIMSD2
 70
     0
  9
$DIMTOLJ
 70
     1
  9
$DIMTZIN
 70
    11
  9
$DIMALTZ
 70
    11
  9
$DIMALTTZ
 70
    11
  9
$DIMUPT
 70
     0
  9
$DIMDEC
 70
     0
  9
$DIMTDEC
 70
     1
  9
$DIMALTU
 70
     2
  9
$DIMALTTD
 70
     2
  9
$DIMTXSTY
  7
ＭＳ ゴシック
  9
$DIMAUNIT
 70
     0
  9
$DIMADEC
 70
     2
  9
$DIMALTRND
 40
0.0
  9
$DIMAZIN
 70
     0
  9
$DIMDSEP
 70
    46
  9
$DIMATFIT
 70
     0
  9
$DIMFRAC
 70
     2
  9
$DIMLDRBLK
  1
DOT
  9
$DIMLUNIT
 70
     2
  9
$DIMLWD
 70
    -2
  9
$DIMLWE
 70
    -2
  9
$DIMTMOVE
 70
     0
  9
$DIMFXL
 40
1.0
  9
$DIMFXLON
 70
     0
  9
$DIMJOGANG
 40
0.7853981633974483
  9
$DIMTFILL
 70
     0
  9
$DIMTFILLCLR
 70
     0
  9
$DIMARCSYM
 70
     0
  9
$DIMLTYPE
  6

  9
$DIMLTEX1
  6

  9
$DIMLTEX2
  6

  9
$LUNITS
 70
     2
  9
$LUPREC
 70
     0
  9
$SKETCHINC
 40
0.1
  9
$FILLETRAD
 40
0.0
  9
$AUNITS
 70
     0
  9
$AUPREC
 70
     0
  9
$MENU
  1
acad
  9
$ELEVATION
 40
0.0
  9
$PELEVATION
 40
0.0
  9
$THICKNESS
 40
0.0
  9
$LIMCHECK
 70
     0
  9
$CHAMFERA
 40
0.0
  9
$CHAMFERB
 40
0.0
  9
$CHAMFERC
 40
0.0
  9
$CHAMFERD
 40
0.0
  9
$SKPOLY
 70
     0
  9
$TDCREATE
 40
2447893.375
  9
$TDUCREATE
 40
0.0
  9
$TDUPDATE
 40
2458722.651503241
  9
$TDUUPDATE
 40
2458722.276503241
  9
$TDINDWG
 40
0.161202963
  9
$TDUSRTIMER
 40
0.0004262153
  9
$USRTIMER
 70
     1
  9
$ANGBASE
 50
0.0
  9
$ANGDIR
 70
     0
  9
$PDMODE
 70
     1
  9
$PDSIZE
 40
-2.0
  9
$PLINEWID
 40
0.0
  9
$SPLFRAME
 70
     0
  9
$SPLINETYPE
 70
     6
  9
$SPLINESEGS
 70
     8
  9
$HANDSEED
  5
41C7
  9
$SURFTAB1
 70
     6
  9
$SURFTAB2
 70
     6
  9
$SURFTYPE
 70
     6
  9
$SURFU
 70
     6
  9
$SURFV
 70
     6
  9
$UCSBASE
  2

  9
$UCSNAME
  2

  9
$UCSORG
 10
0.0
 20
0.0
 30
0.0
  9
$UCSXDIR
 10
1.0
 20
0.0
 30
0.0
  9
$UCSYDIR
 10
0.0
 20
1.0
 30
0.0
  9
$UCSORTHOREF
  2

  9
$UCSORTHOVIEW
 70
     0
  9
$UCSORGTOP
 10
0.0
 20
0.0
 30
0.0
  9
$UCSORGBOTTOM
 10
0.0
 20
0.0
 30
0.0
  9
$UCSORGLEFT
 10
0.0
 20
0.0
 30
0.0
  9
$UCSORGRIGHT
 10
0.0
 20
0.0
 30
0.0
  9
$UCSORGFRONT
 10
0.0
 20
0.0
 30
0.0
  9
$UCSORGBACK
 10
0.0
 20
0.0
 30
0.0
  9
$PUCSBASE
  2

  9
$PUCSNAME
  2

  9
$PUCSORG
 10
0.0
 20
0.0
 30
0.0
  9
$PUCSXDIR
 10
1.0
 20
0.0
 30
0.0
  9
$PUCSYDIR
 10
0.0
 20
1.0
 30
0.0
  9
$PUCSORTHOREF
  2

  9
$PUCSORTHOVIEW
 70
     0
  9
$PUCSORGTOP
 10
0.0
 20
0.0
 30
0.0
  9
$PUCSORGBOTTOM
 10
0.0
 20
0.0
 30
0.0
  9
$PUCSORGLEFT
 10
0.0
 20
0.0
 30
0.0
  9
$PUCSORGRIGHT
 10
0.0
 20
0.0
 30
0.0
  9
$PUCSORGFRONT
 10
0.0
 20
0.0
 30
0.0
  9
$PUCSORGBACK
 10
0.0
 20
0.0
 30
0.0
  9
$USERI1
 70
     0
  9
$USERI2
 70
     0
  9
$USERI3
 70
     0
  9
$USERI4
 70
     0
  9
$USERI5
 70
     0
  9
$USERR1
 40
0.0
  9
$USERR2
 40
0.0
  9
$USERR3
 40
0.0
  9
$USERR4
 40
0.0
  9
$USERR5
 40
0.0
  9
$WORLDVIEW
 70
     1
  9
$SHADEDGE
 70
     3
  9
$SHADEDIF
 70
    70
  9
$TILEMODE
 70
     1
  9
$MAXACTVP
 70
    64
  9
$PINSBASE
 10
0.0
 20
0.0
 30
0.0
  9
$PLIMCHECK
 70
     0
  9
$PEXTMIN
 10
0.0
 20
0.0
 30
0.0
  9
$PEXTMAX
 10
0.0
 20
0.0
 30
0.0
  9
$PLIMMIN
 10
-7.5
 20
-20.0
  9
$PLIMMAX
 10
412.5
 20
277.0
  9
$UNITMODE
 70
     0
  9
$VISRETAIN
 70
     0
  9
$PLINEGEN
 70
     1
  9
$PSLTSCALE
 70
     0
  9
$TREEDEPTH
 70
  3020
  9
$CMLSTYLE
  2
Standard
  9
$CMLJUST
 70
     0
  9
$CMLSCALE
 40
1.0
  9
$PROXYGRAPHICS
 70
     0
  9
$MEASUREMENT
 70
     1
  9
$CELWEIGHT
370
    -1
  9
$ENDCAPS
280
     0
  9
$JOINSTYLE
280
     0
  9
$LWDISPLAY
290
     1
  9
$INSUNITS
 70
     4
  9
$HYPERLINKBASE
  1

  9
$STYLESHEET
  1

  9
$XEDIT
290
     1
  9
$CEPSNTYPE
380
     0
  9
$PSTYLEMODE
290
     1
  9
$FINGERPRINTGUID
  2

  9
$VERSIONGUID
  2

  9
$EXTNAMES
290
     1
  9
$PSVPSCALE
 40
0.0
  9
$OLESTARTUP
290
     0
  9
$SORTENTS
280
   127
  9
$INDEXCTL
280
     0
  9
$HIDETEXT
280
     1
  9
$XCLIPFRAME
290
     0
  9
$HALOGAP
280
     0
  9
$OBSCOLOR
 70
   257
  9
$OBSLTYPE
280
     0
  9
$INTERSECTIONDISPLAY
280
     0
  9
$INTERSECTIONCOLOR
 70
   257
  9
$DIMASSOC
280
     2
  9
$PROJECTNAME
  1

  9
$CAMERADISPLAY
290
     0
  9
$LENSLENGTH
 40
50.0
  9
$CAMERAHEIGHT
 40
0.0
  9
$STEPSPERSEC
 40
2.0
  9
$STEPSIZE
 40
6.0
  9
$3DDWFPREC
 40
2.0
  9
$PSOLWIDTH
 40
0.25
  9
$PSOLHEIGHT
 40
4.0
  9
$LOFTANG1
 40
1.570796326794897
  9
$LOFTANG2
 40
1.570796326794897
  9
$LOFTMAG1
 40
0.0
  9
$LOFTMAG2
 40
0.0
  9
$LOFTPARAM
 70
     7
  9
$LOFTNORMALS
280
     1
  9
$LATITUDE
 40
37.795
  9
$LONGITUDE
 40
-122.394
  9
$NORTHDIRECTION
 40
0.0
  9
$TIMEZONE
 70
 -8000
  9
$LIGHTGLYPHDISPLAY
280
     1
  9
$TILEMODELIGHTSYNCH
280
     1
  9
$SOLIDHIST
280
     1
  9
$SHOWHIST
280
     1
  9
$DWFFRAME
280
     2
  9
$DGNFRAME
280
     2
  9
$REALWORLDSCALE
290
     1
  9
$INTERFERECOLOR
 62
   256
  9
$CSHADOW
280
     0
  9
$SHADOWPLANELOCATION
 40
0.0
  0
ENDSEC
  0
SECTION
  2
CLASSES
  0
CLASS
  1
LWPOLYLINE
  2
AcDbPolyline
  3
ObjectDBX Classes
 90
        0
 91
        1
280
     0
281
     1
  0
CLASS
  1
IMAGE
  2
AcDbRasterImage
  3
ISM
 90
      127
 91
        5
280
     0
281
     1
  0
CLASS
  1
OLE2FRAME
  2
AcDbOle2Frame
  3
ObjectDBX Classes
 90
        0
 91
        1
280
     0
281
     1
  0
CLASS
  1
HATCH
  2
AcDbHatch
  3
ObjectDBX Classes
 90
        0
 91
        1
280
     0
281
     1
  0
CLASS
  1
DICTIONARYVAR
  2
AcDbDictionaryVar
  3
ObjectDBX Classes
 90
        0
 91
        4
280
     0
281
     0
  0
CLASS
  1
RASTERVARIABLES
  2
AcDbRasterVariables
  3
ISM
 90
        0
 91
        4
280
     0
281
     0
  0
CLASS
  1
IMAGEDEF
  2
AcDbRasterImageDef
  3
ISM
 90
        0
 91
        4
280
     0
281
     0
  0
CLASS
  1
IMAGEDEF_REACTOR
  2
AcDbRasterImageDefReactor
  3
ISM
 90
        1
 91
        4
280
     0
281
     0
  0
CLASS
  1
IDBUFFER
  2
AcDbIdBuffer
  3
ObjectDBX Classes
 90
        0
 91
        4
280
     0
281
     0
  0
CLASS
  1
SPATIAL_FILTER
  2
AcDbSpatialFilter
  3
ObjectDBX Classes
 90
        0
 91
        4
280
     0
281
     0
  0
CLASS
  1
XRECORD
  2
AcDbXrecord
  3
ObjectDBX Classes
 90
        0
 91
        1
280
     0
281
     0
  0
CLASS
  1
SORTENTSTABLE
  2
AcDbSortentsTable
  3
ObjectDBX Classes
 90
        0
 91
        4
280
     0
281
     0
  0
CLASS
  1
LAYER_INDEX
  2
AcDbLayerIndex
  3
ObjectDBX Classes
 90
        0
 91
        4
280
     0
281
     0
  0
CLASS
  1
SPATIAL_INDEX
  2
AcDbSpatialIndex
  3
AutoCAD 2000
 90
        0
 91
        4
280
     0
281
     0
  0
CLASS
  1
OBJECT_PTR
  2
CAseDLPNTableRecord
  3
ASE-LPNTableRecord
 90
        1
 91
        4
280
     0
281
     0
  0
CLASS
  1
LAYOUT
  2
AcDbLayout
  3
ObjectDBX Classes
 90
        0
 91
        1
280
     0
281
     0
  0
CLASS
  1
PLOTSETTINGS
  2
AcDbPlotSettings
  3
ObjectDBX Classes
 90
        0
 91
        4
280
     0
281
     0
  0
CLASS
  1
ACDBDICTIONARYWDFLT
  2
AcDbDictionaryWithDefault
  3
ObjectDBX Classes
 90
        0
 91
        4
280
     0
281
     0
  0
CLASS
  1
ACDBPLACEHOLDER
  2
AcDbPlaceHolder
  3
ObjectDBX Classes
 90
        0
 91
        1
280
     0
281
     0
  0
CLASS
  1
SCALE
  2
AcDbScale
  3
ObjectDBX Classes
 90
     1153
 91
        4
280
     0
281
     0
  0
CLASS
  1
MATERIAL
  2
AcDbMaterial
  3
ObjectDBX Classes
 90
     1153
 91
        4
280
     0
281
     0
  0
CLASS
  1
VISUALSTYLE
  2
AcDbVisualStyle
  3
ObjectDBX Classes
 90
     4095
 91
        4
280
     0
281
     0
  0
CLASS
  1
TABLESTYLE
  2
AcDbTableStyle
  3
ObjectDBX Classes
 90
     4095
 91
        4
280
     0
281
     0
  0
CLASS
  1
DIMASSOC
  2
AcDbDimAssoc
  3
"AcDbDimAssoc|Product Desc:     AcDim ARX App For Dimension|Company:          Autodesk, Inc.|WEB Address:      www.autodesk.com"
 90
        0
 91
        4
280
     0
281
     0
  0
CLASS
  1
CELLSTYLEMAP
  2
AcDbCellStyleMap
  3
ObjectDBX Classes
 90
     1152
 91
        4
280
     0
281
     0
  0
CLASS
  1
SUN
  2
AcDbSun
  3
SCENEOE
 90
     1153
 91
        4
280
     0
281
     0
  0
CLASS
  1
MLEADERSTYLE
  2
AcDbMLeaderStyle
  3
ACDB_MLEADERSTYLE_CLASS
 90
     4095
 91
        4
280
     0
281
     0
  0
CLASS
  1
FIELD
  2
AcDbField
  3
ObjectDBX Classes
 90
     1152
 91
        4
280
     0
281
     0
  0
CLASS
  1
FIELDLIST
  2
AcDbFieldList
  3
ObjectDBX Classes
 90
     1152
 91
        4
280
     0
281
     0
  0
ENDSEC
  0
SECTION
  2
TABLES
  0
TABLE
  2
VPORT
  5
7
330
0
100
AcDbSymbolTable
 70
     1
  0
VPORT
  5
15
330
7
100
AcDbSymbolTableRecord
100
AcDbViewportTableRecord
  2
*ACTIVE
 70
     0
 10
0.0
 20
0.0
 11
1.0
 21
1.0
 12
301.0201356709002
 22
223.401285469834
 13
0.0
 23
0.0
 14
1.0
 24
1.0
 15
0.0
 25
0.0
 16
0.0
 26
0.0
 36
1.0
 17
-91.02013567090017
 27
73.59871453016603
 37
-46.86809886248109
 40
605.88
 41
2.310294117647059
 42
50.0
 43
0.0
 44
0.0
 50
0.0
 51
0.0
 71
    16
 72
  2000
 73
     1
 74
     1
 75
     0
 76
     0
 77
     0
 78
     0
281
     0
 65
     1
110
0.0
120
0.0
130
0.0
111
1.0
121
0.0
131
0.0
112
0.0
122
1.0
132
0.0
 79
     0
146
0.0
348
26C
 60
     3
 61
     5
292
     1
282
     1
141
0.0
142
0.0
 63
   256
361
904
  0
ENDTAB
  0
TABLE
  2
LTYPE
  5
4
330
0
100
AcDbSymbolTable
 70
     5
  0
LTYPE
  5
11
330
4
100
AcDbSymbolTableRecord
100
AcDbLinetypeTableRecord
  2
ByBlock
 70
     0
  3

 72
    65
 73
     0
 40
0.0
  0
LTYPE
  5
12
330
4
100
AcDbSymbolTableRecord
100
AcDbLinetypeTableRecord
  2
ByLayer
 70
     0
  3

 72
    65
 73
     0
 40
0.0
  0
LTYPE
  5
13
330
4
100
AcDbSymbolTableRecord
100
AcDbLinetypeTableRecord
  2
Continuous
 70
     0
  3
Solid line
 72
    65
 73
     0
 40
0.0
  0
LTYPE
  5
D6C
330
4
100
AcDbSymbolTableRecord
100
AcDbLinetypeTableRecord
  2
BORDER
 70
     0
  3
Border __  __  . __  __  . __  __  . __  __  . 
 72
    65
 73
     6
 40
44.45
 49
12.7
 74
     0
 49
-6.35
 74
     0
 49
12.7
 74
     0
 49
-6.35
 74
     0
 49
0.0
 74
     0
 49
-6.35
 74
     0
  0
LTYPE
  5
D6D
330
4
100
AcDbSymbolTableRecord
100
AcDbLinetypeTableRecord
  2
HIDDEN
 70
     0
  3
Hidden _ _ _ _ _ _ _ _ _ _ _ _ _ _ _ _ _ _ _ _ 
 72
    65
 73
     2
 40
9.524999999999999
 49
6.35
 74
     0
 49
-3.175
 74
     0
  0
LTYPE
  5
3D52
330
4
100
AcDbSymbolTableRecord
100
AcDbLinetypeTableRecord
  2
CENTER
 70
     0
  3
Center ____ _ ____ _ ____ _ ____ _ ____ _ ____
 72
    65
 73
     4
 40
50.8
 49
31.75
 74
     0
 49
-6.35
 74
     0
 49
6.35
 74
     0
 49
-6.35
 74
     0
  0
LTYPE
  5
3D53
330
4
100
AcDbSymbolTableRecord
100
AcDbLinetypeTableRecord
  2
NON_PLOTING
 70
     0
  3
Solid line
 72
    65
 73
     0
 40
0.0
  0
ENDTAB
  0
TABLE
  2
LAYER
  5
2
102
{ACAD_XDICTIONARY
360
2E1
102
}
330
0
100
AcDbSymbolTable
 70
    10
  0
LAYER
  5
14
330
2
100
AcDbSymbolTableRecord
100
AcDbLayerTableRecord
  2
0
 70
     0
 62
     7
  6
Continuous
370
    -3
390
1D
347
266
  0
LAYER
  5
4B
330
2
100
AcDbSymbolTableRecord
100
AcDbLayerTableRecord
  2
TEMPLATE
 70
     0
 62
     7
  6
Continuous
370
    20
390
1D
347
266
  0
LAYER
  5
4C
330
2
100
AcDbSymbolTableRecord
100
AcDbLayerTableRecord
  2
DIM
 70
     0
 62
     3
  6
Continuous
370
    13
390
1D
347
266
  0
LAYER
  5
4D
330
2
100
AcDbSymbolTableRecord
100
AcDbLayerTableRecord
  2
MODEL
 70
     0
 62
     7
  6
Continuous
370
    20
390
1D
347
266
  0
LAYER
  5
88C
330
2
100
AcDbSymbolTableRecord
100
AcDbLayerTableRecord
  2
HIDDEN
 70
     0
 62
     8
  6
HIDDEN
370
    20
390
1D
347
266
1001
AcAecLayerStandard
1000

1000

  0
LAYER
  5
D6B
330
2
100
AcDbSymbolTableRecord
100
AcDbLayerTableRecord
  2
BORDER
 70
     0
 62
     4
  6
BORDER
290
     0
370
    20
390
1D
347
266
1001
AcAecLayerStandard
1000

1000

  0
LAYER
  5
D8C
330
2
100
AcDbSymbolTableRecord
100
AcDbLayerTableRecord
  2
Defpoints
 70
     0
 62
     7
  6
Continuous
290
     0
370
    -3
390
1D
347
266
  0
LAYER
  5
3653
330
2
100
AcDbSymbolTableRecord
100
AcDbLayerTableRecord
  2
Standard
 70
     0
 62
     7
  6
Continuous
370
    -3
390
1D
347
266
  0
LAYER
  5
3D4F
330
2
100
AcDbSymbolTableRecord
100
AcDbLayerTableRecord
  2
PV
 70
     0
 62
     7
  6
Continuous
370
    -3
390
1D
347
266
  0
LAYER
  5
3D51
330
2
100
AcDbSymbolTableRecord
100
AcDbLayerTableRecord
  2
0.5
 70
     0
 62
     7
  6
Continuous
370
    -3
390
1D
347
266
  0
ENDTAB
  0
TABLE
  2
STYLE
  5
3
330
0
100
AcDbSymbolTable
 70
     7
  0
STYLE
  5
17
330
3
100
AcDbSymbolTableRecord
100
AcDbTextStyleTableRecord
  2
Standard
 70
     0
 40
0.0
 41
1.0
 50
0.0
 71
     0
 42
2.5
  3
txt
  4
BIGFONT.SHX
  0
STYLE
  5
39
330
3
100
AcDbSymbolTableRecord
100
AcDbTextStyleTableRecord
  2
ＭＳ ゴシック
 70
     0
 40
0.0
 41
1.0
 50
0.0
 71
     0
 42
2.5
  3
msgothic.ttc
  4
ＭＳ ゴシック
1001
ACAD
1000
ＭＳ ゴシック
1071
        0
  0
STYLE
  5
3D55
330
3
100
AcDbSymbolTableRecord
100
AcDbTextStyleTableRecord
  2
MX_NOTE_STANDARD
 70
     0
 40
0.0
 41
1.0
 50
0.0
 71
     0
 42
2.5
  3
txt.shx
  4
extfont.shx
  0
STYLE
  5
3D5E
330
3
100
AcDbSymbolTableRecord
100
AcDbTextStyleTableRecord
  2
MX_DIMTXSTY_2
 70
     0
 40
0.0
 41
1.15
 50
0.0
 71
     0
 42
2.5
  3
txt.shx
  4
extfont.shx
  0
STYLE
  5
3D5F
330
3
100
AcDbSymbolTableRecord
100
AcDbTextStyleTableRecord
  2
MX_DIMTXSTY_3
 70
     0
 40
0.0
 41
1.3
 50
0.0
 71
     0
 42
2.5
  3
txt.shx
  4
extfont.shx
  0
STYLE
  5
3D60
330
3
100
AcDbSymbolTableRecord
100
AcDbTextStyleTableRecord
  2
MX_DIMTXSTY_4
 70
     0
 40
0.0
 41
1.35
 50
0.0
 71
     0
 42
2.5
  3
txt.shx
  4
extfont.shx
  0
STYLE
  5
3D61
330
3
100
AcDbSymbolTableRecord
100
AcDbTextStyleTableRecord
  2
MX_DIMTXSTY_5
 70
     0
 40
0.0
 41
1.4
 50
0.0
 71
     0
 42
2.5
  3
txt.shx
  4
extfont.shx
  0
ENDTAB
  0
TABLE
  2
VIEW
  5
5
330
0
100
AcDbSymbolTable
 70
     0
  0
ENDTAB
  0
TABLE
  2
UCS
  5
6
330
0
100
AcDbSymbolTable
 70
     0
  0
ENDTAB
  0
TABLE
  2
APPID
  5
8
330
0
100
AcDbSymbolTable
 70
     4
  0
APPID
  5
16
330
8
100
AcDbSymbolTableRecord
100
AcDbRegAppTableRecord
  2
ACAD
 70
     0
  0
APPID
  5
7AC
330
8
100
AcDbSymbolTableRecord
100
AcDbRegAppTableRecord
  2
AcAecLayerStandard
 70
     0
  0
APPID
  5
E29
330
8
100
AcDbSymbolTableRecord
100
AcDbRegAppTableRecord
  2
ACAD_MLEADERVER
 70
     0
  0
APPID
  5
3D5D
330
8
100
AcDbSymbolTableRecord
100
AcDbRegAppTableRecord
  2
CONTENTBLOCKDESCRIPTION
 70
     0
  0
ENDTAB
  0
TABLE
  2
DIMSTYLE
  5
9
330
0
100
AcDbSymbolTable
 70
     4
100
AcDbDimStyleTable
  0
DIMSTYLE
105
18
330
9
100
AcDbSymbolTableRecord
100
AcDbDimStyleTableRecord
  2
Standard
 70
     0
178
     0
340
17
  0
DIMSTYLE
105
57
102
{ACAD_REACTORS
330
4053
330
4054
330
4055
330
4060
330
4083
330
4084
330
408D
330
409F
330
40A0
102
}
330
9
100
AcDbSymbolTableRecord
100
AcDbDimStyleTableRecord
  2
tfrom線あり
 70
     0
  3
<>
  4
[]
 41
2.0
 42
5.0
 43
0.9999999999999999
 44
0.0
 73
     0
 74
     0
 77
     1
 78
    11
140
5.0
141
0.0
143
1.0
147
3.0
171
     1
174
     1
178
     0
179
     2
271
     0
272
     1
276
     2
284
    11
285
    11
286
    11
289
     0
340
39
341
4E
342
4E
  0
DIMSTYLE
105
3D54
330
9
100
AcDbSymbolTableRecord
100
AcDbDimStyleTableRecord
  2
MXDIMSTYLE
 70
     0
 41
2.5
 42
1.5
 43
3.75
 44
1.5
 73
     0
 74
     0
 77
     1
 78
     8
140
2.5
141
2.5
143
0.03937
147
1.0
171
     4
172
     1
173
     1
178
     0
271
     2
272
     2
274
     4
283
     0
340
3D55
341
3D56
343
3D56
344
3D56
  0
DIMSTYLE
105
3D5C
330
9
100
AcDbSymbolTableRecord
100
AcDbDimStyleTableRecord
  2
MX_DIMSTYLE_0.5
 70
     0
 41
2.5
 42
1.5
 43
3.75
 44
1.5
 73
     0
 74
     0
 77
     1
 78
     8
140
2.5
141
2.5
143
0.03937
144
2.0
147
1.0
171
     4
172
     1
173
     1
178
     0
271
     2
272
     2
274
     4
283
     0
340
3D55
341
3D56
343
3D56
344
3D56
  0
ENDTAB
  0
TABLE
  2
BLOCK_RECORD
  5
1
330
0
100
AcDbSymbolTable
 70
    58
  0
BLOCK_RECORD
  5
A
102
{ACAD_XDICTIONARY
360
3D3D
102
}
330
1
100
AcDbSymbolTableRecord
100
AcDbBlockTableRecord
  2
*MODEL_SPACE
340
20
 70
     0
280
     1
281
     0
  0
BLOCK_RECORD
  5
B
330
1
100
AcDbSymbolTableRecord
100
AcDbBlockTableRecord
  2
*PAPER_SPACE
340
21
 70
     0
280
     1
281
     0
  0
BLOCK_RECORD
  5
4E
330
1
100
AcDbSymbolTableRecord
100
AcDbBlockTableRecord
  2
_DOT
340
0
102
{BLKREFS
331
3B8C
331
3B8D
331
3B98
331
3B99
331
3BA4
331
3BA5
331
3BB0
331
3BB1
331
3BBC
331
3BBD
331
3BC8
331
3BC9
331
3BD4
331
3BD5
331
3CFD
331
3CFE
331
3D0C
331
3D0D
331
3D2A
331
3D2B
331
3D36
331
3D37
331
3FCC
331
3FCD
331
3FD7
331
3FD8
331
3FE3
331
3FE4
331
3FEF
331
3FF0
331
3FFA
331
3FFB
331
4006
331
4007
331
4012
331
4013
331
401E
331
401F
331
4029
331
402A
331
4038
331
4039
331
404A
331
404B
331
40AB
331
40AC
331
40B7
331
40B8
331
40C3
331
40C4
331
40CF
331
40D0
331
40DB
331
40DC
331
40E7
331
40E8
331
40F3
331
40F4
331
40FF
331
4100
331
410B
331
410C
331
4160
331
4161
331
4171
331
4172
331
4183
331
4184
331
419E
331
419F
102
}
 70
     0
280
     1
281
     0
  0
BLOCK_RECORD
  5
68D
330
1
100
AcDbSymbolTableRecord
100
AcDbBlockTableRecord
  2
block 2
340
0
102
{BLKREFS
331
68C
331
1343
102
}
 70
     0
280
     1
281
     0
  0
BLOCK_RECORD
  5
3B86
330
1
100
AcDbSymbolTableRecord
100
AcDbBlockTableRecord
  2
*D2
340
0
 70
     0
280
     1
281
     0
  0
BLOCK_RECORD
  5
3B92
330
1
100
AcDbSymbolTableRecord
100
AcDbBlockTableRecord
  2
*D3
340
0
 70
     0
280
     1
281
     0
  0
BLOCK_RECORD
  5
3B9E
330
1
100
AcDbSymbolTableRecord
100
AcDbBlockTableRecord
  2
*D4
340
0
 70
     0
280
     1
281
     0
  0
BLOCK_RECORD
  5
3BAA
330
1
100
AcDbSymbolTableRecord
100
AcDbBlockTableRecord
  2
*D5
340
0
 70
     0
280
     1
281
     0
  0
BLOCK_RECORD
  5
3BB6
330
1
100
AcDbSymbolTableRecord
100
AcDbBlockTableRecord
  2
*D6
340
0
 70
     0
280
     1
281
     0
  0
BLOCK_RECORD
  5
3BC2
330
1
100
AcDbSymbolTableRecord
100
AcDbBlockTableRecord
  2
*D7
340
0
 70
     0
280
     1
281
     0
  0
BLOCK_RECORD
  5
3BCE
330
1
100
AcDbSymbolTableRecord
100
AcDbBlockTableRecord
  2
*D8
340
0
 70
     0
280
     1
281
     0
  0
BLOCK_RECORD
  5
3CF8
330
1
100
AcDbSymbolTableRecord
100
AcDbBlockTableRecord
  2
*D9
340
0
 70
     0
280
     1
281
     0
  0
BLOCK_RECORD
  5
3D07
330
1
100
AcDbSymbolTableRecord
100
AcDbBlockTableRecord
  2
*D10
340
0
 70
     0
280
     1
281
     0
  0
BLOCK_RECORD
  5
3D24
330
1
100
AcDbSymbolTableRecord
100
AcDbBlockTableRecord
  2
*D11
340
0
 70
     0
280
     1
281
     0
  0
BLOCK_RECORD
  5
3D30
330
1
100
AcDbSymbolTableRecord
100
AcDbBlockTableRecord
  2
*D12
340
0
 70
     0
280
     1
281
     0
  0
BLOCK_RECORD
  5
3D56
330
1
100
AcDbSymbolTableRecord
100
AcDbBlockTableRecord
  2
_OPEN30
340
0
102
{BLKREFS
331
3E1B
331
3E1C
331
3E28
331
3E29
331
3E35
331
3E36
331
3E4B
331
3E4C
331
3E7B
331
3E7C
331
3E88
331
3E89
331
3E9D
331
3E9E
331
3EBA
331
3EBB
331
3EC7
331
3EC8
331
3ED8
331
3ED9
331
3EE4
331
3EE5
331
3EF0
331
3EF1
331
3EFB
331
3EFC
331
3F07
331
3F08
331
3F13
331
3F14
331
3F1F
331
3F20
331
3F2A
331
3F2B
331
3F36
331
3F37
102
}
 70
     0
280
     1
281
     0
  0
BLOCK_RECORD
  5
3D82
330
1
100
AcDbSymbolTableRecord
100
AcDbBlockTableRecord
  2
$KAKUDAI-3
340
0
 70
     0
280
     1
281
     0
1001
CONTENTBLOCKDESCRIPTION
1071
        0
1000
ICAD/MX UserSymbol^M^Jtable_name:KAKUDAI^M^Jsymbol_no.:  3
  0
BLOCK_RECORD
  5
3D90
330
1
100
AcDbSymbolTableRecord
100
AcDbBlockTableRecord
  2
$KAKUDAI-2
340
0
 70
     0
280
     1
281
     0
1001
CONTENTBLOCKDESCRIPTION
1071
        0
1000
ICAD/MX UserSymbol^M^Jtable_name:KAKUDAI^M^Jsymbol_no.:  2
  0
BLOCK_RECORD
  5
3E15
330
1
100
AcDbSymbolTableRecord
100
AcDbBlockTableRecord
  2
*D16
340
0
 70
     0
280
     1
281
     0
  0
BLOCK_RECORD
  5
3E23
330
1
100
AcDbSymbolTableRecord
100
AcDbBlockTableRecord
  2
*D17
340
0
 70
     0
280
     1
281
     0
  0
BLOCK_RECORD
  5
3E30
330
1
100
AcDbSymbolTableRecord
100
AcDbBlockTableRecord
  2
*D18
340
0
 70
     0
280
     1
281
     0
  0
BLOCK_RECORD
  5
3E47
330
1
100
AcDbSymbolTableRecord
100
AcDbBlockTableRecord
  2
*D19
340
0
 70
     0
280
     1
281
     0
  0
BLOCK_RECORD
  5
3E76
330
1
100
AcDbSymbolTableRecord
100
AcDbBlockTableRecord
  2
*D20
340
0
 70
     0
280
     1
281
     0
  0
BLOCK_RECORD
  5
3E83
330
1
100
AcDbSymbolTableRecord
100
AcDbBlockTableRecord
  2
*D21
340
0
 70
     0
280
     1
281
     0
  0
BLOCK_RECORD
  5
3E98
330
1
100
AcDbSymbolTableRecord
100
AcDbBlockTableRecord
  2
*D22
340
0
 70
     0
280
     1
281
     0
  0
BLOCK_RECORD
  5
3EB6
330
1
100
AcDbSymbolTableRecord
100
AcDbBlockTableRecord
  2
*D23
340
0
 70
     0
280
     1
281
     0
  0
BLOCK_RECORD
  5
3EC2
330
1
100
AcDbSymbolTableRecord
100
AcDbBlockTableRecord
  2
*D24
340
0
 70
     0
280
     1
281
     0
  0
BLOCK_RECORD
  5
3ED1
330
1
100
AcDbSymbolTableRecord
100
AcDbBlockTableRecord
  2
*D25
340
0
 70
     0
280
     1
281
     0
  0
BLOCK_RECORD
  5
3EDE
330
1
100
AcDbSymbolTableRecord
100
AcDbBlockTableRecord
  2
*D26
340
0
 70
     0
280
     1
281
     0
  0
BLOCK_RECORD
  5
3EEA
330
1
100
AcDbSymbolTableRecord
100
AcDbBlockTableRecord
  2
*D27
340
0
 70
     0
280
     1
281
     0
  0
BLOCK_RECORD
  5
3EF6
330
1
100
AcDbSymbolTableRecord
100
AcDbBlockTableRecord
  2
*D28
340
0
 70
     0
280
     1
281
     0
  0
BLOCK_RECORD
  5
3F01
330
1
100
AcDbSymbolTableRecord
100
AcDbBlockTableRecord
  2
*D29
340
0
 70
     0
280
     1
281
     0
  0
BLOCK_RECORD
  5
3F0D
330
1
100
AcDbSymbolTableRecord
100
AcDbBlockTableRecord
  2
*D30
340
0
 70
     0
280
     1
281
     0
  0
BLOCK_RECORD
  5
3F19
330
1
100
AcDbSymbolTableRecord
100
AcDbBlockTableRecord
  2
*D31
340
0
 70
     0
280
     1
281
     0
  0
BLOCK_RECORD
  5
3F25
330
1
100
AcDbSymbolTableRecord
100
AcDbBlockTableRecord
  2
*D32
340
0
 70
     0
280
     1
281
     0
  0
BLOCK_RECORD
  5
3F30
330
1
100
AcDbSymbolTableRecord
100
AcDbBlockTableRecord
  2
*D33
340
0
 70
     0
280
     1
281
     0
  0
BLOCK_RECORD
  5
3FC4
330
1
100
AcDbSymbolTableRecord
100
AcDbBlockTableRecord
  2
*D34
340
0
 70
     0
280
     1
281
     0
  0
BLOCK_RECORD
  5
3FD1
330
1
100
AcDbSymbolTableRecord
100
AcDbBlockTableRecord
  2
*D35
340
0
 70
     0
280
     1
281
     0
  0
BLOCK_RECORD
  5
3FDD
330
1
100
AcDbSymbolTableRecord
100
AcDbBlockTableRecord
  2
*D36
340
0
 70
     0
280
     1
281
     0
  0
BLOCK_RECORD
  5
3FE9
330
1
100
AcDbSymbolTableRecord
100
AcDbBlockTableRecord
  2
*D37
340
0
 70
     0
280
     1
281
     0
  0
BLOCK_RECORD
  5
3FF4
330
1
100
AcDbSymbolTableRecord
100
AcDbBlockTableRecord
  2
*D38
340
0
 70
     0
280
     1
281
     0
  0
BLOCK_RECORD
  5
4000
330
1
100
AcDbSymbolTableRecord
100
AcDbBlockTableRecord
  2
*D39
340
0
 70
     0
280
     1
281
     0
  0
BLOCK_RECORD
  5
400C
330
1
100
AcDbSymbolTableRecord
100
AcDbBlockTableRecord
  2
*D40
340
0
 70
     0
280
     1
281
     0
  0
BLOCK_RECORD
  5
4018
330
1
100
AcDbSymbolTableRecord
100
AcDbBlockTableRecord
  2
*D41
340
0
 70
     0
280
     1
281
     0
  0
BLOCK_RECORD
  5
4023
330
1
100
AcDbSymbolTableRecord
100
AcDbBlockTableRecord
  2
*D42
340
0
 70
     0
280
     1
281
     0
  0
BLOCK_RECORD
  5
4032
330
1
100
AcDbSymbolTableRecord
100
AcDbBlockTableRecord
  2
*D43
340
0
 70
     0
280
     1
281
     0
  0
BLOCK_RECORD
  5
4044
330
1
100
AcDbSymbolTableRecord
100
AcDbBlockTableRecord
  2
*D44
340
0
 70
     0
280
     1
281
     0
  0
BLOCK_RECORD
  5
40A3
330
1
100
AcDbSymbolTableRecord
100
AcDbBlockTableRecord
  2
*D45
340
0
 70
     0
280
     1
281
     0
  0
BLOCK_RECORD
  5
40B1
330
1
100
AcDbSymbolTableRecord
100
AcDbBlockTableRecord
  2
*D46
340
0
 70
     0
280
     1
281
     0
  0
BLOCK_RECORD
  5
40BD
330
1
100
AcDbSymbolTableRecord
100
AcDbBlockTableRecord
  2
*D47
340
0
 70
     0
280
     1
281
     0
  0
BLOCK_RECORD
  5
40C9
330
1
100
AcDbSymbolTableRecord
100
AcDbBlockTableRecord
  2
*D48
340
0
 70
     0
280
     1
281
     0
  0
BLOCK_RECORD
  5
40D5
330
1
100
AcDbSymbolTableRecord
100
AcDbBlockTableRecord
  2
*D49
340
0
 70
     0
280
     1
281
     0
  0
BLOCK_RECORD
  5
40E1
330
1
100
AcDbSymbolTableRecord
100
AcDbBlockTableRecord
  2
*D50
340
0
 70
     0
280
     1
281
     0
  0
BLOCK_RECORD
  5
40ED
330
1
100
AcDbSymbolTableRecord
100
AcDbBlockTableRecord
  2
*D51
340
0
 70
     0
280
     1
281
     0
  0
BLOCK_RECORD
  5
40F9
330
1
100
AcDbSymbolTableRecord
100
AcDbBlockTableRecord
  2
*D52
340
0
 70
     0
280
     1
281
     0
  0
BLOCK_RECORD
  5
4105
330
1
100
AcDbSymbolTableRecord
100
AcDbBlockTableRecord
  2
*D53
340
0
 70
     0
280
     1
281
     0
  0
BLOCK_RECORD
  5
415A
330
1
100
AcDbSymbolTableRecord
100
AcDbBlockTableRecord
  2
*D54
340
0
 70
     0
280
     1
281
     0
  0
BLOCK_RECORD
  5
416B
330
1
100
AcDbSymbolTableRecord
100
AcDbBlockTableRecord
  2
*D55
340
0
 70
     0
280
     1
281
     0
  0
BLOCK_RECORD
  5
417D
330
1
100
AcDbSymbolTableRecord
100
AcDbBlockTableRecord
  2
*D56
340
0
 70
     0
280
     1
281
     0
  0
BLOCK_RECORD
  5
4198
330
1
100
AcDbSymbolTableRecord
100
AcDbBlockTableRecord
  2
*D57
340
0
 70
     0
280
     1
281
     0
  0
ENDTAB
  0
ENDSEC
  0
SECTION
  2
BLOCKS
  0
BLOCK
  5
D
330
A
100
AcDbEntity
  8
0
390
1D
100
AcDbBlockBegin
  2
*MODEL_SPACE
 70
     0
 10
0.0
 20
0.0
 30
0.0
  3
*MODEL_SPACE
  1
*MODEL_SPACE
  0
ENDBLK
  5
E
330
A
100
AcDbEntity
  8
0
390
1D
100
AcDbBlockEnd
  0
BLOCK
  5
F
330
B
100
AcDbEntity
 67
     1
  8
0
390
1D
100
AcDbBlockBegin
  2
*PAPER_SPACE
 70
     0
 10
0.0
 20
0.0
 30
0.0
  3
*PAPER_SPACE
  1
*PAPER_SPACE
  0
ENDBLK
  5
10
330
B
100
AcDbEntity
 67
     1
  8
0
390
1D
100
AcDbBlockEnd
  0
BLOCK
  5
2462
330
4E
100
AcDbEntity
  8
0
390
1D
100
AcDbBlockBegin
  2
_DOT
 70
     0
 10
0.0
 20
0.0
 30
0.0
  3
_DOT
  1
_DOT
  0
POLYLINE
  5
2464
330
4E
100
AcDbEntity
  8
0
  6
ByBlock
 62
     0
370
    -2
390
1D
100
AcDb2dPolyline
 66
     1
 10
0.0
 20
0.0
 30
0.0
 70
     1
 40
0.5
 41
0.5
  0
VERTEX
  5
2465
330
2464
100
AcDbEntity
  8
0
  6
ByBlock
 62
     0
370
    -2
390
1D
100
AcDbVertex
100
AcDb2dVertex
 10
-0.25
 20
0.0
 30
0.0
 42
1.0
  0
VERTEX
  5
2466
330
2464
100
AcDbEntity
  8
0
  6
ByBlock
 62
     0
370
    -2
390
1D
100
AcDbVertex
100
AcDb2dVertex
 10
0.25
 20
0.0
 30
0.0
 42
1.0
  0
SEQEND
  5
2467
330
2464
100
AcDbEntity
  8
0
390
1D
  0
LINE
  5
2468
330
4E
100
AcDbEntity
  8
0
  6
ByBlock
 62
     0
370
    -2
390
1D
100
AcDbLine
 10
-0.5
 20
0.0
 30
0.0
 11
-1.0
 21
0.0
 31
0.0
  0
ENDBLK
  5
2469
330
4E
100
AcDbEntity
  8
0
390
1D
100
AcDbBlockEnd
  0
BLOCK
  5
68E
330
68D
100
AcDbEntity
  8
0
100
AcDbBlockBegin
  2
block 2
 70
     0
 10
0.0
 20
0.0
 30
0.0
  3
block 2
  1
block 2
  0
ENDBLK
  5
6B0
330
68D
100
AcDbEntity
  8
0
100
AcDbBlockEnd
  0
BLOCK
  5
3B87
330
3B86
100
AcDbEntity
  8
0
100
AcDbBlockBegin
  2
*D2
 70
     1
 10
0.0
 20
0.0
 30
0.0
  3
*D2
  1

  0
LINE
  5
3B89
330
3B86
100
AcDbEntity
  8
DIM
 62
     0
370
    -2
100
AcDbLine
 10
120.4165303244005
 20
319.2077009873063
 30
0.0
 11
80.41653032440028
 21
319.2077009873061
 31
0.0
  0
LINE
  5
3B8A
330
3B86
100
AcDbEntity
  8
DIM
 62
     0
370
    -2
100
AcDbLine
 10
95.2823248987792
 20
182.2077009873063
 30
0.0
 11
80.41653032440077
 21
182.2077009873062
 31
0.0
  0
LINE
  5
3B8B
330
3B86
100
AcDbEntity
  8
DIM
 62
     0
370
    -2
100
AcDbLine
 10
80.41653032440028
 20
317.2077009873061
 30
0.0
 11
80.41653032440077
 21
184.2077009873062
 31
0.0
  0
INSERT
  5
3B8C
330
3B86
100
AcDbEntity
  8
DIM
 62
     0
370
    -2
100
AcDbBlockReference
  2
_DOT
 10
80.41653032440028
 20
319.2077009873061
 30
0.0
 41
2.0
 42
2.0
 43
2.0
 50
90.0000000000002
  0
INSERT
  5
3B8D
330
3B86
100
AcDbEntity
  8
DIM
 62
     0
370
    -2
100
AcDbBlockReference
  2
_DOT
 10
80.41653032440077
 20
182.2077009873062
 30
0.0
 41
2.0
 42
2.0
 43
2.0
 50
270.0000000000002
  0
MTEXT
  5
3B8E
330
3B86
100
AcDbEntity
  8
DIM
 62
     0
 48
0.05
100
AcDbMText
 10
72.41653032440053
 20
250.7077009873063
 30
0.0
 40
5.0
 41
0.0
 46
0.0
 71
     2
 72
     1
  1
\A1;137
  7
ＭＳ ゴシック
 11
-3.526781462166923E-15
 21
1.0
 31
0.0
 73
     1
 44
1.0
  0
POINT
  5
3B8F
330
3B86
100
AcDbEntity
  8
Defpoints
 62
     0
100
AcDbPoint
 10
125.4165303244005
 20
319.2077009873063
 30
0.0
  0
POINT
  5
3B90
330
3B86
100
AcDbEntity
  8
Defpoints
 62
     0
100
AcDbPoint
 10
100.2823248987792
 20
182.2077009873063
 30
0.0
  0
POINT
  5
3B91
330
3B86
100
AcDbEntity
  8
Defpoints
 62
     0
100
AcDbPoint
 10
80.41653032440077
 20
182.2077009873062
 30
0.0
  0
ENDBLK
  5
3B88
330
3B86
100
AcDbEntity
  8
0
100
AcDbBlockEnd
  0
BLOCK
  5
3B93
330
3B92
100
AcDbEntity
  8
0
100
AcDbBlockBegin
  2
*D3
 70
     1
 10
0.0
 20
0.0
 30
0.0
  3
*D3
  1

  0
LINE
  5
3B95
330
3B92
100
AcDbEntity
  8
DIM
 62
     0
370
    -2
100
AcDbLine
 10
100.4165303244005
 20
456.7854077805792
 30
0.0
 11
100.4165303244005
 21
469.9574301222169
 31
0.0
  0
LINE
  5
3B96
330
3B92
100
AcDbEntity
  8
DIM
 62
     0
370
    -2
100
AcDbLine
 10
172.4165303244005
 20
456.7854077805792
 30
0.0
 11
172.4165303244005
 21
469.9574301222169
 31
0.0
  0
LINE
  5
3B97
330
3B92
100
AcDbEntity
  8
DIM
 62
     0
370
    -2
100
AcDbLine
 10
102.4165303244005
 20
469.9574301222169
 30
0.0
 11
170.4165303244005
 21
469.9574301222169
 31
0.0
  0
INSERT
  5
3B98
330
3B92
100
AcDbEntity
  8
DIM
 62
     0
370
    -2
100
AcDbBlockReference
  2
_DOT
 10
100.4165303244005
 20
469.9574301222169
 30
0.0
 41
2.0
 42
2.0
 43
2.0
 50
180.0
  0
INSERT
  5
3B99
330
3B92
100
AcDbEntity
  8
DIM
 62
     0
370
    -2
100
AcDbBlockReference
  2
_DOT
 10
172.4165303244005
 20
469.9574301222169
 30
0.0
 41
2.0
 42
2.0
 43
2.0
  0
MTEXT
  5
3B9A
330
3B92
100
AcDbEntity
  8
DIM
 62
     0
 48
0.05
100
AcDbMText
 10
136.4165303244005
 20
477.9574301222169
 30
0.0
 40
5.0
 41
0.0
 46
0.0
 71
     2
 72
     1
  1
\A1;72
  7
ＭＳ ゴシック
 73
     1
 44
1.0
  0
POINT
  5
3B9B
330
3B92
100
AcDbEntity
  8
Defpoints
 62
     0
100
AcDbPoint
 10
100.4165303244005
 20
451.7854077805792
 30
0.0
  0
POINT
  5
3B9C
330
3B92
100
AcDbEntity
  8
Defpoints
 62
     0
100
AcDbPoint
 10
172.4165303244005
 20
451.7854077805792
 30
0.0
  0
POINT
  5
3B9D
330
3B92
100
AcDbEntity
  8
Defpoints
 62
     0
100
AcDbPoint
 10
172.4165303244005
 20
469.9574301222169
 30
0.0
  0
ENDBLK
  5
3B94
330
3B92
100
AcDbEntity
  8
0
100
AcDbBlockEnd
  0
BLOCK
  5
3B9F
330
3B9E
100
AcDbEntity
  8
0
100
AcDbBlockBegin
  2
*D4
 70
     1
 10
0.0
 20
0.0
 30
0.0
  3
*D4
  1

  0
LINE
  5
3BA1
330
3B9E
100
AcDbEntity
  8
DIM
 62
     0
370
    -2
100
AcDbLine
 10
95.4165303244005
 20
448.3104475998533
 30
0.0
 11
80.41653032440041
 21
448.3104475998533
 31
0.0
  0
LINE
  5
3BA2
330
3B9E
100
AcDbEntity
  8
DIM
 62
     0
370
    -2
100
AcDbLine
 10
120.4165303244005
 20
380.0604475998529
 30
0.0
 11
80.41653032440065
 21
380.0604475998528
 31
0.0
  0
LINE
  5
3BA3
330
3B9E
100
AcDbEntity
  8
DIM
 62
     0
370
    -2
100
AcDbLine
 10
80.41653032440041
 20
446.3104475998533
 30
0.0
 11
80.41653032440065
 21
382.0604475998528
 31
0.0
  0
INSERT
  5
3BA4
330
3B9E
100
AcDbEntity
  8
DIM
 62
     0
370
    -2
100
AcDbBlockReference
  2
_DOT
 10
80.41653032440041
 20
448.3104475998533
 30
0.0
 41
2.0
 42
2.0
 43
2.0
 50
90.0000000000002
  0
INSERT
  5
3BA5
330
3B9E
100
AcDbEntity
  8
DIM
 62
     0
370
    -2
100
AcDbBlockReference
  2
_DOT
 10
80.41653032440065
 20
380.0604475998528
 30
0.0
 41
2.0
 42
2.0
 43
2.0
 50
270.0000000000002
  0
MTEXT
  5
3BA6
330
3B9E
100
AcDbEntity
  8
DIM
 62
     0
 48
0.05
100
AcDbMText
 10
72.41653032440053
 20
414.1854475998531
 30
0.0
 40
5.0
 41
0.0
 46
0.0
 71
     2
 72
     1
  1
\A1;68
  7
ＭＳ ゴシック
 11
-3.539700075581425E-15
 21
1.0
 31
0.0
 73
     1
 44
1.0
  0
POINT
  5
3BA7
330
3B9E
100
AcDbEntity
  8
Defpoints
 62
     0
100
AcDbPoint
 10
100.4165303244005
 20
448.3104475998533
 30
0.0
  0
POINT
  5
3BA8
330
3B9E
100
AcDbEntity
  8
Defpoints
 62
     0
100
AcDbPoint
 10
125.4165303244005
 20
380.0604475998529
 30
0.0
  0
POINT
  5
3BA9
330
3B9E
100
AcDbEntity
  8
Defpoints
 62
     0
100
AcDbPoint
 10
80.41653032440065
 20
380.0604475998528
 30
0.0
  0
ENDBLK
  5
3BA0
330
3B9E
100
AcDbEntity
  8
0
100
AcDbBlockEnd
  0
BLOCK
  5
3BAB
330
3BAA
100
AcDbEntity
  8
0
100
AcDbBlockBegin
  2
*D5
 70
     1
 10
0.0
 20
0.0
 30
0.0
  3
*D5
  1

  0
LINE
  5
3BAD
330
3BAA
100
AcDbEntity
  8
DIM
 62
     0
370
    -2
100
AcDbLine
 10
125.4165303244005
 20
375.0604475998529
 30
0.0
 11
125.4165303244005
 21
361.7949884833052
 31
0.0
  0
LINE
  5
3BAE
330
3BAA
100
AcDbEntity
  8
DIM
 62
     0
370
    -2
100
AcDbLine
 10
147.4165303244005
 20
375.0604475998529
 30
0.0
 11
147.4165303244005
 21
361.7949884833052
 31
0.0
  0
LINE
  5
3BAF
330
3BAA
100
AcDbEntity
  8
DIM
 62
     0
370
    -2
100
AcDbLine
 10
127.4165303244005
 20
361.7949884833052
 30
0.0
 11
145.4165303244005
 21
361.7949884833052
 31
0.0
  0
INSERT
  5
3BB0
330
3BAA
100
AcDbEntity
  8
DIM
 62
     0
370
    -2
100
AcDbBlockReference
  2
_DOT
 10
125.4165303244005
 20
361.7949884833052
 30
0.0
 41
2.0
 42
2.0
 43
2.0
 50
180.0
  0
INSERT
  5
3BB1
330
3BAA
100
AcDbEntity
  8
DIM
 62
     0
370
    -2
100
AcDbBlockReference
  2
_DOT
 10
147.4165303244005
 20
361.7949884833052
 30
0.0
 41
2.0
 42
2.0
 43
2.0
  0
MTEXT
  5
3BB2
330
3BAA
100
AcDbEntity
  8
DIM
 62
     0
 48
0.05
100
AcDbMText
 10
136.4165303244005
 20
369.7949884833052
 30
0.0
 40
5.0
 41
0.0
 46
0.0
 71
     2
 72
     1
  1
\A1;22
  7
ＭＳ ゴシック
 73
     1
 44
1.0
  0
POINT
  5
3BB3
330
3BAA
100
AcDbEntity
  8
Defpoints
 62
     0
100
AcDbPoint
 10
125.4165303244005
 20
380.0604475998529
 30
0.0
  0
POINT
  5
3BB4
330
3BAA
100
AcDbEntity
  8
Defpoints
 62
     0
100
AcDbPoint
 10
147.4165303244005
 20
380.0604475998529
 30
0.0
  0
POINT
  5
3BB5
330
3BAA
100
AcDbEntity
  8
Defpoints
 62
     0
100
AcDbPoint
 10
147.4165303244005
 20
361.7949884833052
 30
0.0
  0
ENDBLK
  5
3BAC
330
3BAA
100
AcDbEntity
  8
0
100
AcDbBlockEnd
  0
BLOCK
  5
3BB7
330
3BB6
100
AcDbEntity
  8
0
100
AcDbBlockBegin
  2
*D6
 70
     1
 10
0.0
 20
0.0
 30
0.0
  3
*D6
  1

  0
LINE
  5
3BB9
330
3BB6
100
AcDbEntity
  8
DIM
 62
     0
370
    -2
100
AcDbLine
 10
176.6454837165862
 20
212.2077009873064
 30
0.0
 11
193.3903881603889
 21
212.2077009873063
 31
0.0
  0
LINE
  5
3BBA
330
3BB6
100
AcDbEntity
  8
DIM
 62
     0
370
    -2
100
AcDbLine
 10
176.6454837165862
 20
182.2077009873063
 30
0.0
 11
193.3903881603889
 21
182.2077009873062
 31
0.0
  0
LINE
  5
3BBB
330
3BB6
100
AcDbEntity
  8
DIM
 62
     0
370
    -2
100
AcDbLine
 10
193.3903881603889
 20
210.2077009873063
 30
0.0
 11
193.3903881603889
 21
184.2077009873062
 31
0.0
  0
INSERT
  5
3BBC
330
3BB6
100
AcDbEntity
  8
DIM
 62
     0
370
    -2
100
AcDbBlockReference
  2
_DOT
 10
193.3903881603889
 20
212.2077009873063
 30
0.0
 41
2.0
 42
2.0
 43
2.0
 50
89.99999999999982
  0
INSERT
  5
3BBD
330
3BB6
100
AcDbEntity
  8
DIM
 62
     0
370
    -2
100
AcDbBlockReference
  2
_DOT
 10
193.3903881603889
 20
182.2077009873062
 30
0.0
 41
2.0
 42
2.0
 43
2.0
 50
269.9999999999998
  0
MTEXT
  5
3BBE
330
3BB6
100
AcDbEntity
  8
DIM
 62
     0
 48
0.05
100
AcDbMText
 10
185.3903881603889
 20
197.2077009873064
 30
0.0
 40
5.0
 41
0.0
 46
0.0
 71
     2
 72
     1
  1
\A1;30
  7
ＭＳ ゴシック
 11
2.842170943040393E-15
 21
1.0
 31
0.0
 73
     1
 44
1.0
  0
POINT
  5
3BBF
330
3BB6
100
AcDbEntity
  8
Defpoints
 62
     0
100
AcDbPoint
 10
171.6454837165862
 20
212.2077009873064
 30
0.0
  0
POINT
  5
3BC0
330
3BB6
100
AcDbEntity
  8
Defpoints
 62
     0
100
AcDbPoint
 10
171.6454837165862
 20
182.2077009873063
 30
0.0
  0
POINT
  5
3BC1
330
3BB6
100
AcDbEntity
  8
Defpoints
 62
     0
100
AcDbPoint
 10
193.3903881603888
 20
182.2077009873062
 30
0.0
  0
ENDBLK
  5
3BB8
330
3BB6
100
AcDbEntity
  8
0
100
AcDbBlockEnd
  0
BLOCK
  5
3BC3
330
3BC2
100
AcDbEntity
  8
0
100
AcDbBlockBegin
  2
*D7
 70
     1
 10
0.0
 20
0.0
 30
0.0
  3
*D7
  1

  0
LINE
  5
3BC5
330
3BC2
100
AcDbEntity
  8
DIM
 62
     0
370
    -2
100
AcDbLine
 10
177.9901558885232
 20
438.06044758632
 30
0.0
 11
190.3107608583836
 21
438.06044758632
 31
0.0
  0
LINE
  5
3BC6
330
3BC2
100
AcDbEntity
  8
DIM
 62
     0
370
    -2
100
AcDbLine
 10
177.4165317216699
 20
448.31044758632
 30
0.0
 11
190.3107608583836
 21
448.31044758632
 31
0.0
  0
LINE
  5
3BC7
330
3BC2
100
AcDbEntity
  8
DIM
 62
     0
370
    -2
100
AcDbLine
 10
190.3107608583836
 20
440.06044758632
 30
0.0
 11
190.3107608583836
 21
446.31044758632
 31
0.0
  0
INSERT
  5
3BC8
330
3BC2
100
AcDbEntity
  8
DIM
 62
     0
370
    -2
100
AcDbBlockReference
  2
_DOT
 10
190.3107608583836
 20
438.06044758632
 30
0.0
 41
2.0
 42
2.0
 43
2.0
 50
270.0
  0
INSERT
  5
3BC9
330
3BC2
100
AcDbEntity
  8
DIM
 62
     0
370
    -2
100
AcDbBlockReference
  2
_DOT
 10
190.3107608583836
 20
448.31044758632
 30
0.0
 41
2.0
 42
2.0
 43
2.0
 50
90.0
  0
MTEXT
  5
3BCA
330
3BC2
100
AcDbEntity
  8
DIM
 62
     0
 48
0.05
100
AcDbMText
 10
182.3107608583836
 20
443.18544758632
 30
0.0
 40
5.0
 41
0.0
 46
0.0
 71
     2
 72
     1
  1
\A1;10
  7
ＭＳ ゴシック
 11
0.0
 21
1.0
 31
0.0
 73
     1
 44
1.0
  0
POINT
  5
3BCB
330
3BC2
100
AcDbEntity
  8
Defpoints
 62
     0
100
AcDbPoint
 10
172.9901558885232
 20
438.06044758632
 30
0.0
  0
POINT
  5
3BCC
330
3BC2
100
AcDbEntity
  8
Defpoints
 62
     0
100
AcDbPoint
 10
172.4165317216699
 20
448.31044758632
 30
0.0
  0
POINT
  5
3BCD
330
3BC2
100
AcDbEntity
  8
Defpoints
 62
     0
100
AcDbPoint
 10
190.3107608583836
 20
448.31044758632
 30
0.0
  0
ENDBLK
  5
3BC4
330
3BC2
100
AcDbEntity
  8
0
100
AcDbBlockEnd
  0
BLOCK
  5
3BCF
330
3BCE
100
AcDbEntity
  8
0
100
AcDbBlockBegin
  2
*D8
 70
     1
 10
0.0
 20
0.0
 30
0.0
  3
*D8
  1

  0
LINE
  5
3BD1
330
3BCE
100
AcDbEntity
  8
DIM
 62
     0
370
    -2
100
AcDbLine
 10
182.9901558885232
 20
438.06044758632
 30
0.0
 11
190.3107608583836
 21
438.06044758632
 31
0.0
  0
LINE
  5
3BD2
330
3BCE
100
AcDbEntity
  8
DIM
 62
     0
370
    -2
100
AcDbLine
 10
150.8011504144714
 20
380.0604500198659
 30
0.0
 11
190.3107608583836
 21
380.0604500198659
 31
0.0
  0
LINE
  5
3BD3
330
3BCE
100
AcDbEntity
  8
DIM
 62
     0
370
    -2
100
AcDbLine
 10
190.3107608583836
 20
436.06044758632
 30
0.0
 11
190.3107608583836
 21
382.0604500198659
 31
0.0
  0
INSERT
  5
3BD4
330
3BCE
100
AcDbEntity
  8
DIM
 62
     0
370
    -2
100
AcDbBlockReference
  2
_DOT
 10
190.3107608583836
 20
438.06044758632
 30
0.0
 41
2.0
 42
2.0
 43
2.0
 50
90.0
  0
INSERT
  5
3BD5
330
3BCE
100
AcDbEntity
  8
DIM
 62
     0
370
    -2
100
AcDbBlockReference
  2
_DOT
 10
190.3107608583836
 20
380.0604500198659
 30
0.0
 41
2.0
 42
2.0
 43
2.0
 50
270.0
  0
MTEXT
  5
3BD6
330
3BCE
100
AcDbEntity
  8
DIM
 62
     0
 48
0.05
100
AcDbMText
 10
184.8107608583836
 20
409.060448803093
 30
0.0
 40
5.0
 41
0.0
 46
0.0
 71
     5
 72
     1
  1
\A1;58
  7
ＭＳ ゴシック
 11
0.0
 21
1.0
 31
0.0
 73
     1
 44
1.0
  0
POINT
  5
3BD7
330
3BCE
100
AcDbEntity
  8
Defpoints
 62
     0
100
AcDbPoint
 10
177.9901558885232
 20
438.06044758632
 30
0.0
  0
POINT
  5
3BD8
330
3BCE
100
AcDbEntity
  8
Defpoints
 62
     0
100
AcDbPoint
 10
145.8011504144714
 20
380.0604500198659
 30
0.0
  0
POINT
  5
3BD9
330
3BCE
100
AcDbEntity
  8
Defpoints
 62
     0
100
AcDbPoint
 10
190.3107608583836
 20
380.0604500198659
 30
0.0
  0
ENDBLK
  5
3BD0
330
3BCE
100
AcDbEntity
  8
0
100
AcDbBlockEnd
  0
BLOCK
  5
3CF9
330
3CF8
100
AcDbEntity
  8
0
100
AcDbBlockBegin
  2
*D9
 70
     1
 10
0.0
 20
0.0
 30
0.0
  3
*D9
  1

  0
LINE
  5
3CFA
330
3CF8
100
AcDbEntity
  8
DIM
 62
     0
370
    -2
100
AcDbLine
 10
0.5
 20
67.50177050455927
 30
0.0
 11
0.5
 21
97.57489301398171
 31
0.0
  0
LINE
  5
3CFB
330
3CF8
100
AcDbEntity
  8
DIM
 62
     0
370
    -2
100
AcDbLine
 10
57.58899696048613
 20
67.50177050455927
 30
0.0
 11
57.58899696048613
 21
97.57489301398171
 31
0.0
  0
LINE
  5
3CFC
330
3CF8
100
AcDbEntity
  8
DIM
 62
     0
370
    -2
100
AcDbLine
 10
2.5
 20
97.57489301398171
 30
0.0
 11
55.58899696048613
 21
97.57489301398171
 31
0.0
  0
INSERT
  5
3CFD
330
3CF8
100
AcDbEntity
  8
DIM
 62
     0
370
    -2
100
AcDbBlockReference
  2
_DOT
 10
0.5
 20
97.57489301398171
 30
0.0
 41
2.0
 42
2.0
 43
2.0
 50
180.0
  0
INSERT
  5
3CFE
330
3CF8
100
AcDbEntity
  8
DIM
 62
     0
370
    -2
100
AcDbBlockReference
  2
_DOT
 10
57.58899696048613
 20
97.57489301398171
 30
0.0
 41
2.0
 42
2.0
 43
2.0
  0
MTEXT
  5
3CFF
330
3CF8
100
AcDbEntity
  8
DIM
 62
     0
100
AcDbMText
 10
29.04449848024305
 20
103.0748930139817
 30
0.0
 40
5.0
 41
0.0
 46
0.0
 71
     5
 72
     1
  1
\A1;57
  7
ＭＳ ゴシック
 73
     1
 44
1.0
  0
POINT
  5
3D00
330
3CF8
100
AcDbEntity
  8
Defpoints
 62
     0
100
AcDbPoint
 10
0.5
 20
62.50177050455927
 30
0.0
  0
POINT
  5
3D01
330
3CF8
100
AcDbEntity
  8
Defpoints
 62
     0
100
AcDbPoint
 10
57.58899696048613
 20
62.50177050455927
 30
0.0
  0
POINT
  5
3D02
330
3CF8
100
AcDbEntity
  8
Defpoints
 62
     0
100
AcDbPoint
 10
57.58899696048613
 20
97.57489301398171
 30
0.0
  0
ENDBLK
  5
3D03
330
3CF8
100
AcDbEntity
  8
0
100
AcDbBlockEnd
  0
BLOCK
  5
3D08
330
3D07
100
AcDbEntity
  8
0
100
AcDbBlockBegin
  2
*D10
 70
     1
 10
0.0
 20
0.0
 30
0.0
  3
*D10
  1

  0
LINE
  5
3D09
330
3D07
100
AcDbEntity
  8
DIM
 62
     0
370
    -2
100
AcDbLine
 10
10.10104278775087
 20
57.50177050455927
 30
0.0
 11
10.10104278775087
 21
19.15243768996962
 31
0.0
  0
LINE
  5
3D0A
330
3D07
100
AcDbEntity
  8
DIM
 62
     0
370
    -2
100
AcDbLine
 10
47.98795417273527
 20
57.50177050455927
 30
0.0
 11
47.98795417273527
 21
19.15243768996962
 31
0.0
  0
LINE
  5
3D0B
330
3D07
100
AcDbEntity
  8
DIM
 62
     0
370
    -2
100
AcDbLine
 10
12.10104278775087
 20
19.15243768996962
 30
0.0
 11
45.98795417273527
 21
19.15243768996962
 31
0.0
  0
INSERT
  5
3D0C
330
3D07
100
AcDbEntity
  8
DIM
 62
     0
370
    -2
100
AcDbBlockReference
  2
_DOT
 10
10.10104278775087
 20
19.15243768996962
 30
0.0
 41
2.0
 42
2.0
 43
2.0
 50
180.0
  0
INSERT
  5
3D0D
330
3D07
100
AcDbEntity
  8
DIM
 62
     0
370
    -2
100
AcDbBlockReference
  2
_DOT
 10
47.98795417273527
 20
19.15243768996962
 30
0.0
 41
2.0
 42
2.0
 43
2.0
  0
MTEXT
  5
3D0E
330
3D07
100
AcDbEntity
  8
DIM
 62
     0
100
AcDbMText
 10
29.04449848024307
 20
24.65243768996962
 30
0.0
 40
5.0
 41
0.0
 46
0.0
 71
     5
 72
     1
  1
\A1;38
  7
ＭＳ ゴシック
 73
     1
 44
1.0
  0
POINT
  5
3D0F
330
3D07
100
AcDbEntity
  8
Defpoints
 62
     0
100
AcDbPoint
 10
10.10104278775087
 20
62.50177050455927
 30
0.0
  0
POINT
  5
3D10
330
3D07
100
AcDbEntity
  8
Defpoints
 62
     0
100
AcDbPoint
 10
47.98795417273527
 20
62.50177050455927
 30
0.0
  0
POINT
  5
3D11
330
3D07
100
AcDbEntity
  8
Defpoints
 62
     0
100
AcDbPoint
 10
47.98795417273527
 20
19.15243768996962
 30
0.0
  0
ENDBLK
  5
3D12
330
3D07
100
AcDbEntity
  8
0
100
AcDbBlockEnd
  0
BLOCK
  5
3D25
330
3D24
100
AcDbEntity
  8
0
100
AcDbBlockBegin
  2
*D11
 70
     1
 10
0.0
 20
0.0
 30
0.0
  3
*D11
  1

  0
LINE
  5
3D27
330
3D24
100
AcDbEntity
  8
DIM
 62
     0
370
    -2
100
AcDbLine
 10
164.9604863221886
 20
338.6076747477204
 30
0.0
 11
164.9604863221886
 21
403.7539197665653
 31
0.0
  0
LINE
  5
3D28
330
3D24
100
AcDbEntity
  8
DIM
 62
     0
370
    -2
100
AcDbLine
 10
279.1384802431609
 20
338.6076747477204
 30
0.0
 11
279.1384802431609
 21
403.7539197665653
 31
0.0
  0
LINE
  5
3D29
330
3D24
100
AcDbEntity
  8
DIM
 62
     0
370
    -2
100
AcDbLine
 10
166.9604863221886
 20
403.7539197665653
 30
0.0
 11
277.1384802431609
 21
403.7539197665653
 31
0.0
  0
INSERT
  5
3D2A
330
3D24
100
AcDbEntity
  8
DIM
 62
     0
370
    -2
100
AcDbBlockReference
  2
_DOT
 10
164.9604863221886
 20
403.7539197665653
 30
0.0
 41
2.0
 42
2.0
 43
2.0
 50
180.0
  0
INSERT
  5
3D2B
330
3D24
100
AcDbEntity
  8
DIM
 62
     0
370
    -2
100
AcDbBlockReference
  2
_DOT
 10
279.1384802431609
 20
403.7539197665653
 30
0.0
 41
2.0
 42
2.0
 43
2.0
  0
MTEXT
  5
3D2C
330
3D24
100
AcDbEntity
  8
DIM
 62
     0
100
AcDbMText
 10
222.0494832826747
 20
409.2539197665653
 30
0.0
 40
5.0
 41
0.0
 46
0.0
 71
     5
 72
     1
  1
\A1;114
  7
ＭＳ ゴシック
 73
     1
 44
1.0
  0
POINT
  5
3D2D
330
3D24
100
AcDbEntity
  8
Defpoints
 62
     0
100
AcDbPoint
 10
164.9604863221886
 20
333.6076747477204
 30
0.0
  0
POINT
  5
3D2E
330
3D24
100
AcDbEntity
  8
Defpoints
 62
     0
100
AcDbPoint
 10
279.1384802431609
 20
333.6076747477204
 30
0.0
  0
POINT
  5
3D2F
330
3D24
100
AcDbEntity
  8
Defpoints
 62
     0
100
AcDbPoint
 10
279.1384802431609
 20
403.7539197665653
 30
0.0
  0
ENDBLK
  5
3D26
330
3D24
100
AcDbEntity
  8
0
100
AcDbBlockEnd
  0
BLOCK
  5
3D31
330
3D30
100
AcDbEntity
  8
0
100
AcDbBlockBegin
  2
*D12
 70
     1
 10
0.0
 20
0.0
 30
0.0
  3
*D12
  1

  0
LINE
  5
3D33
330
3D30
100
AcDbEntity
  8
DIM
 62
     0
370
    -2
100
AcDbLine
 10
184.1625718976903
 20
328.6076747477204
 30
0.0
 11
184.1625718976903
 21
246.9090091185411
 31
0.0
  0
LINE
  5
3D34
330
3D30
100
AcDbEntity
  8
DIM
 62
     0
370
    -2
100
AcDbLine
 10
259.9363946676591
 20
328.6076747477204
 30
0.0
 11
259.9363946676591
 21
246.9090091185411
 31
0.0
  0
LINE
  5
3D35
330
3D30
100
AcDbEntity
  8
DIM
 62
     0
370
    -2
100
AcDbLine
 10
186.1625718976903
 20
246.9090091185411
 30
0.0
 11
257.9363946676591
 21
246.9090091185411
 31
0.0
  0
INSERT
  5
3D36
330
3D30
100
AcDbEntity
  8
DIM
 62
     0
370
    -2
100
AcDbBlockReference
  2
_DOT
 10
184.1625718976903
 20
246.9090091185411
 30
0.0
 41
2.0
 42
2.0
 43
2.0
 50
180.0
  0
INSERT
  5
3D37
330
3D30
100
AcDbEntity
  8
DIM
 62
     0
370
    -2
100
AcDbBlockReference
  2
_DOT
 10
259.9363946676591
 20
246.9090091185411
 30
0.0
 41
2.0
 42
2.0
 43
2.0
  0
MTEXT
  5
3D38
330
3D30
100
AcDbEntity
  8
DIM
 62
     0
100
AcDbMText
 10
222.0494832826747
 20
252.4090091185411
 30
0.0
 40
5.0
 41
0.0
 46
0.0
 71
     5
 72
     1
  1
\A1;76
  7
ＭＳ ゴシック
 73
     1
 44
1.0
  0
POINT
  5
3D39
330
3D30
100
AcDbEntity
  8
Defpoints
 62
     0
100
AcDbPoint
 10
184.1625718976903
 20
333.6076747477204
 30
0.0
  0
POINT
  5
3D3A
330
3D30
100
AcDbEntity
  8
Defpoints
 62
     0
100
AcDbPoint
 10
259.9363946676591
 20
333.6076747477204
 30
0.0
  0
POINT
  5
3D3B
330
3D30
100
AcDbEntity
  8
Defpoints
 62
     0
100
AcDbPoint
 10
259.9363946676591
 20
246.9090091185411
 30
0.0
  0
ENDBLK
  5
3D32
330
3D30
100
AcDbEntity
  8
0
100
AcDbBlockEnd
  0
BLOCK
  5
3D57
330
3D56
100
AcDbEntity
  8
0
  6
ByBlock
 62
     0
370
    -2
390
1D
100
AcDbBlockBegin
  2
_OPEN30
 70
     0
 10
0.0
 20
0.0
 30
0.0
  3
_OPEN30
  1

  0
LINE
  5
3D58
330
3D56
100
AcDbEntity
  8
0
  6
ByBlock
 62
     0
370
    -2
390
1D
100
AcDbLine
 10
-1.0
 20
0.267949
 30
0.0
 11
0.0
 21
0.0
 31
0.0
  0
LINE
  5
3D59
330
3D56
100
AcDbEntity
  8
0
  6
ByBlock
 62
     0
370
    -2
390
1D
100
AcDbLine
 10
0.0
 20
0.0
 30
0.0
 11
-1.0
 21
-0.267949
 31
0.0
  0
LINE
  5
3D5A
330
3D56
100
AcDbEntity
  8
0
  6
ByBlock
 62
     0
370
    -2
390
1D
100
AcDbLine
 10
0.0
 20
0.0
 30
0.0
 11
-1.0
 21
0.0
 31
0.0
  0
ENDBLK
  5
3D5B
330
3D56
100
AcDbEntity
  8
0
  6
ByBlock
 62
     0
370
    -2
390
1D
100
AcDbBlockEnd
  0
BLOCK
  5
3D83
330
3D82
100
AcDbEntity
  8
0
  6
ByBlock
 62
     0
370
    -2
390
1D
100
AcDbBlockBegin
  2
$KAKUDAI-3
 70
     0
 10
0.0
 20
0.0
 30
0.0
  3
$KAKUDAI-3
  1

  0
ARC
  5
3D84
330
3D82
100
AcDbEntity
  8
0
  6
Continuous
 62
     0
390
1D
100
AcDbCircle
 10
0.0
 20
0.0
 30
0.0
 40
4.14
100
AcDbArc
 50
299.461315
 51
60.53868499999999
  0
ARC
  5
3D85
330
3D82
100
AcDbEntity
  8
0
  6
Continuous
 62
     0
390
1D
100
AcDbCircle
 10
0.0
 20
0.0
 30
0.0
 40
4.14
100
AcDbArc
 50
105.408581
 51
254.591422
  0
ARC
  5
3D86
330
3D82
100
AcDbEntity
  8
0
  6
Continuous
 62
     0
390
1D
100
AcDbCircle
 10
0.0
 20
0.0
 30
0.0
 40
5.0
100
AcDbArc
 50
92.751257
 51
267.2487459999999
  0
ARC
  5
3D87
330
3D82
100
AcDbEntity
  8
0
  6
Continuous
 62
     0
390
1D
100
AcDbCircle
 10
0.0
 20
0.0
 30
0.0
 40
5.0
100
AcDbArc
 50
286.992764
 51
73.007236
  0
LINE
  5
3D88
330
3D82
100
AcDbEntity
  8
0
  6
Continuous
 62
     0
390
1D
100
AcDbLine
 10
2.0362
 20
-3.604648
 30
0.0
 11
1.070337
 21
0.0
 31
0.0
  0
LINE
  5
3D89
330
3D82
100
AcDbEntity
  8
0
  6
Continuous
 62
     0
390
1D
100
AcDbLine
 10
1.461255
 20
-4.781708
 30
0.0
 11
0.18
 21
0.0
 31
0.0
  0
LINE
  5
3D8A
330
3D82
100
AcDbEntity
  8
0
  6
Continuous
 62
     0
390
1D
100
AcDbLine
 10
1.070337
 20
0.0
 30
0.0
 11
2.0362
 21
3.604648
 31
0.0
  0
LINE
  5
3D8B
330
3D82
100
AcDbEntity
  8
0
  6
Continuous
 62
     0
390
1D
100
AcDbLine
 10
0.18
 20
0.0
 30
0.0
 11
1.461255
 21
4.781708
 31
0.0
  0
LINE
  5
3D8C
330
3D82
100
AcDbEntity
  8
0
  6
Continuous
 62
     0
390
1D
100
AcDbLine
 10
-1.1
 20
3.99119
 30
0.0
 11
-1.1
 21
-3.99119
 31
0.0
  0
LINE
  5
3D8D
330
3D82
100
AcDbEntity
  8
0
  6
Continuous
 62
     0
390
1D
100
AcDbLine
 10
-0.24
 20
4.994236
 30
0.0
 11
-0.24
 21
-4.994236
 31
0.0
  0
ENDBLK
  5
3D8E
330
3D82
100
AcDbEntity
  8
0
  6
ByBlock
 62
     0
370
    -2
390
1D
100
AcDbBlockEnd
  0
BLOCK
  5
3D91
330
3D90
100
AcDbEntity
  8
0
  6
ByBlock
 62
     0
370
    -2
390
1D
100
AcDbBlockBegin
  2
$KAKUDAI-2
 70
     0
 10
0.0
 20
0.0
 30
0.0
  3
$KAKUDAI-2
  1

  0
ARC
  5
3D92
330
3D90
100
AcDbEntity
  8
0
  6
Continuous
 62
     0
390
1D
100
AcDbCircle
 10
29.31842
 20
1.863708
 30
0.0
 40
0.591628
100
AcDbArc
 50
270.0000250000001
 51
354.40127
  0
ARC
  5
3D93
330
3D90
100
AcDbEntity
  8
0
  6
Continuous
 62
     0
390
1D
100
AcDbCircle
 10
29.318405
 20
2.573524
 30
0.0
 40
0.591628
100
AcDbArc
 50
5.59873
 51
89.999982
  0
ARC
  5
3D94
330
3D90
100
AcDbEntity
  8
0
  6
Continuous
 62
     0
390
1D
100
AcDbCircle
 10
25.69725
 20
2.218666
 30
0.0
 40
4.230142
100
AcDbArc
 50
354.401273
 51
5.598727000000001
  0
ARC
  5
3D95
330
3D90
100
AcDbEntity
  8
0
  6
Continuous
 62
     0
390
1D
100
AcDbCircle
 10
29.621689
 20
1.479218
 30
0.0
 40
1.479071
100
AcDbArc
 50
270.0000250000001
 51
349.3280679999999
  0
ARC
  5
3D96
330
3D90
100
AcDbEntity
  8
0
  6
Continuous
 62
     0
390
1D
100
AcDbCircle
 10
29.621689
 20
2.958115
 30
0.0
 40
1.479071
100
AcDbArc
 50
10.671932
 51
89.999982
  0
ARC
  5
3D97
330
3D90
100
AcDbEntity
  8
0
  6
Continuous
 62
     0
390
1D
100
AcDbCircle
 10
25.69725
 20
2.218666
 30
0.0
 40
5.472562
100
AcDbArc
 50
349.3280679999999
 51
10.671932
  0
ARC
  5
3D98
330
3D90
100
AcDbEntity
  8
0
  6
Continuous
 62
     0
390
1D
100
AcDbCircle
 10
22.88707
 20
1.622192
 30
0.0
 40
0.591628
100
AcDbArc
 50
276.999029
 51
0.0
  0
ARC
  5
3D99
330
3D90
100
AcDbEntity
  8
0
  6
Continuous
 62
     0
390
1D
100
AcDbCircle
 10
21.112137
 20
1.622177
 30
0.0
 40
0.591628
100
AcDbArc
 50
179.999964
 51
263.000915
  0
ARC
  5
3D9A
330
3D90
100
AcDbEntity
  8
0
  6
Continuous
 62
     0
390
1D
100
AcDbCircle
 10
21.999603
 20
8.85083
 30
0.0
 40
7.874568
100
AcDbArc
 50
263.0009659999999
 51
276.999015
  0
ARC
  5
3D9B
330
3D90
100
AcDbEntity
  8
0
  6
Continuous
 62
     0
390
1D
100
AcDbCircle
 10
23.271584
 20
1.28949
 30
0.0
 40
1.479071
100
AcDbArc
 50
279.5492580000001
 51
0.0
  0
ARC
  5
3D9C
330
3D90
100
AcDbEntity
  8
0
  6
Continuous
 62
     0
390
1D
100
AcDbCircle
 10
20.727631
 20
1.28949
 30
0.0
 40
1.479071
100
AcDbArc
 50
179.999964
 51
260.450713
  0
ARC
  5
3D9D
330
3D90
100
AcDbEntity
  8
0
  6
Continuous
 62
     0
390
1D
100
AcDbCircle
 10
21.999603
 20
8.85083
 30
0.0
 40
9.146571
100
AcDbArc
 50
260.4507369999998
 51
279.54923
  0
LINE
  5
3D9E
330
3D90
100
AcDbEntity
  8
0
  6
Continuous
 62
     0
390
1D
100
AcDbLine
 10
39.999893
 20
4.437317
 30
0.0
 11
39.999893
 21
0.000015
 31
0.0
  0
LINE
  5
3D9F
330
3D90
100
AcDbEntity
  8
0
  6
Continuous
 62
     0
390
1D
100
AcDbLine
 10
38.72789
 20
4.437317
 30
0.0
 11
38.72789
 21
0.000015
 31
0.0
  0
LINE
  5
3DA0
330
3D90
100
AcDbEntity
  8
0
  6
Continuous
 62
     0
390
1D
100
AcDbLine
 10
12.752607
 20
-0.000183
 30
0.0
 11
10.238149
 21
4.437112
 31
0.0
  0
LINE
  5
3DA1
330
3D90
100
AcDbEntity
  8
0
  6
Continuous
 62
     0
390
1D
100
AcDbLine
 10
11.290825
 20
0.0
 30
0.0
 11
12.752815
 21
0.0
 31
0.0
  0
LINE
  5
3DA2
330
3D90
100
AcDbEntity
  8
0
  6
Continuous
 62
     0
390
1D
100
AcDbLine
 10
11.290678
 20
-0.000035
 30
0.0
 11
10.871566
 21
0.739584
 31
0.0
  0
LINE
  5
3DA3
330
3D90
100
AcDbEntity
  8
0
  6
Continuous
 62
     0
390
1D
100
AcDbLine
 10
10.368869
 20
1.627127
 30
0.0
 11
9.328812
 21
3.462514
 31
0.0
  0
LINE
  5
3DA4
330
3D90
100
AcDbEntity
  8
0
  6
Continuous
 62
     0
390
1D
100
AcDbLine
 10
8.289557
 20
1.626387
 30
0.0
 11
9.329624
 21
3.46183
 31
0.0
  0
LINE
  5
3DA5
330
3D90
100
AcDbEntity
  8
0
  6
Continuous
 62
     0
390
1D
100
AcDbLine
 10
8.288605
 20
1.627098
 30
0.0
 11
10.368835
 21
1.627098
 31
0.0
  0
LINE
  5
3DA6
330
3D90
100
AcDbEntity
  8
0
  6
Continuous
 62
     0
390
1D
100
AcDbLine
 10
7.785843
 20
0.739464
 30
0.0
 11
10.871651
 21
0.739464
 31
0.0
  0
LINE
  5
3DA7
330
3D90
100
AcDbEntity
  8
0
  6
Continuous
 62
     0
390
1D
100
AcDbLine
 10
5.904288
 20
0.000176
 30
0.0
 11
8.41872
 21
4.437407
 31
0.0
  0
LINE
  5
3DA8
330
3D90
100
AcDbEntity
  8
0
  6
Continuous
 62
     0
390
1D
100
AcDbLine
 10
7.366972
 20
-0.000121
 30
0.0
 11
7.786036
 21
0.739421
 31
0.0
  0
LINE
  5
3DA9
330
3D90
100
AcDbEntity
  8
0
  6
Continuous
 62
     0
390
1D
100
AcDbLine
 10
5.904747
 20
0.0
 30
0.0
 11
7.366676
 21
0.0
 31
0.0
  0
LINE
  5
3DAA
330
3D90
100
AcDbEntity
  8
0
  6
Continuous
 62
     0
390
1D
100
AcDbLine
 10
8.419144
 20
4.437302
 30
0.0
 11
10.238426
 21
4.437302
 31
0.0
  0
LINE
  5
3DAB
330
3D90
100
AcDbEntity
  8
0
  6
Continuous
 62
     0
390
1D
100
AcDbLine
 10
26.821381
 20
3.16539
 30
0.0
 11
26.821381
 21
1.27224
 31
0.0
  0
LINE
  5
3DAC
330
3D90
100
AcDbEntity
  8
0
  6
Continuous
 62
     0
390
1D
100
AcDbLine
 10
25.549355
 20
4.437317
 30
0.0
 11
25.549355
 21
0.000015
 31
0.0
  0
LINE
  5
3DAD
330
3D90
100
AcDbEntity
  8
0
  6
Continuous
 62
     0
390
1D
100
AcDbLine
 10
26.821388
 20
3.1651
 30
0.0
 11
29.318481
 21
3.1651
 31
0.0
  0
LINE
  5
3DAE
330
3D90
100
AcDbEntity
  8
0
  6
Continuous
 62
     0
390
1D
100
AcDbLine
 10
26.821388
 20
1.271919
 30
0.0
 11
29.318481
 21
1.271919
 31
0.0
  0
LINE
  5
3DAF
330
3D90
100
AcDbEntity
  8
0
  6
Continuous
 62
     0
390
1D
100
AcDbLine
 10
38.727936
 20
0.000015
 30
0.0
 11
39.999947
 21
0.000015
 31
0.0
  0
LINE
  5
3DB0
330
3D90
100
AcDbEntity
  8
0
  6
Continuous
 62
     0
390
1D
100
AcDbLine
 10
38.727936
 20
4.437317
 30
0.0
 11
39.999947
 21
4.437317
 31
0.0
  0
LINE
  5
3DB1
330
3D90
100
AcDbEntity
  8
0
  6
Continuous
 62
     0
390
1D
100
AcDbLine
 10
23.478714
 20
4.437302
 30
0.0
 11
24.750725
 21
4.437302
 31
0.0
  0
LINE
  5
3DB2
330
3D90
100
AcDbEntity
  8
0
  6
Continuous
 62
     0
390
1D
100
AcDbLine
 10
25.549408
 20
4.437302
 30
0.0
 11
29.621742
 21
4.437302
 31
0.0
  0
LINE
  5
3DB3
330
3D90
100
AcDbEntity
  8
0
  6
Continuous
 62
     0
390
1D
100
AcDbLine
 10
24.750397
 20
4.437317
 30
0.0
 11
24.750397
 21
1.28949
 31
0.0
  0
LINE
  5
3DB4
330
3D90
100
AcDbEntity
  8
0
  6
Continuous
 62
     0
390
1D
100
AcDbLine
 10
23.478989
 20
4.437309
 30
0.0
 11
23.478989
 21
1.622185
 31
0.0
  0
LINE
  5
3DB5
330
3D90
100
AcDbEntity
  8
0
  6
Continuous
 62
     0
390
1D
100
AcDbLine
 10
19.248566
 20
4.437302
 30
0.0
 11
19.248566
 21
1.28949
 31
0.0
  0
LINE
  5
3DB6
330
3D90
100
AcDbEntity
  8
0
  6
Continuous
 62
     0
390
1D
100
AcDbLine
 10
20.5205
 20
4.437302
 30
0.0
 11
20.5205
 21
1.622192
 31
0.0
  0
LINE
  5
3DB7
330
3D90
100
AcDbEntity
  8
0
  6
Continuous
 62
     0
390
1D
100
AcDbLine
 10
3.786705
 20
4.437302
 30
0.0
 11
5.608849
 21
4.437302
 31
0.0
  0
LINE
  5
3DB8
330
3D90
100
AcDbEntity
  8
0
  6
Continuous
 62
     0
390
1D
100
AcDbLine
 10
3.228285
 20
2.219162
 30
0.0
 11
5.608237
 21
4.437769
 31
0.0
  0
LINE
  5
3DB9
330
3D90
100
AcDbEntity
  8
0
  6
Continuous
 62
     0
390
1D
100
AcDbLine
 10
3.228971
 20
2.218703
 30
0.0
 11
5.608881
 21
0.000134
 31
0.0
  0
LINE
  5
3DBA
330
3D90
100
AcDbEntity
  8
0
  6
Continuous
 62
     0
390
1D
100
AcDbLine
 10
3.786705
 20
0.000015
 30
0.0
 11
5.608849
 21
0.000015
 31
0.0
  0
LINE
  5
3DBB
330
3D90
100
AcDbEntity
  8
0
  6
Continuous
 62
     0
390
1D
100
AcDbLine
 10
2.041563
 20
1.627004
 30
0.0
 11
3.786919
 21
-0.000054
 31
0.0
  0
LINE
  5
3DBC
330
3D90
100
AcDbEntity
  8
0
  6
Continuous
 62
     0
390
1D
100
AcDbLine
 10
1.242905
 20
1.627098
 30
0.0
 11
2.041748
 21
1.627098
 31
0.0
  0
LINE
  5
3DBD
330
3D90
100
AcDbEntity
  8
0
  6
Continuous
 62
     0
390
1D
100
AcDbLine
 10
2.041729
 20
2.809854
 30
0.0
 11
3.78704
 21
4.436829
 31
0.0
  0
LINE
  5
3DBE
330
3D90
100
AcDbEntity
  8
0
  6
Continuous
 62
     0
390
1D
100
AcDbLine
 10
1.242905
 20
2.810196
 30
0.0
 11
2.041748
 21
2.810196
 31
0.0
  0
LINE
  5
3DBF
330
3D90
100
AcDbEntity
  8
0
  6
Continuous
 62
     0
390
1D
100
AcDbLine
 10
1.242874
 20
4.437302
 30
0.0
 11
1.242874
 21
2.810211
 31
0.0
  0
LINE
  5
3DC0
330
3D90
100
AcDbEntity
  8
0
  6
Continuous
 62
     0
390
1D
100
AcDbLine
 10
0.000366
 20
4.437302
 30
0.0
 11
1.242905
 21
4.437302
 31
0.0
  0
LINE
  5
3DC1
330
3D90
100
AcDbEntity
  8
0
  6
Continuous
 62
     0
390
1D
100
AcDbLine
 10
0.0
 20
4.437302
 30
0.0
 11
0.0
 21
0.000015
 31
0.0
  0
LINE
  5
3DC2
330
3D90
100
AcDbEntity
  8
0
  6
Continuous
 62
     0
390
1D
100
AcDbLine
 10
1.243866
 20
1.627106
 30
0.0
 11
1.243866
 21
0.0
 31
0.0
  0
LINE
  5
3DC3
330
3D90
100
AcDbEntity
  8
0
  6
Continuous
 62
     0
390
1D
100
AcDbLine
 10
0.000366
 20
0.0
 30
0.0
 11
1.242905
 21
0.0
 31
0.0
  0
LINE
  5
3DC4
330
3D90
100
AcDbEntity
  8
0
  6
Continuous
 62
     0
390
1D
100
AcDbLine
 10
25.549408
 20
0.000015
 30
0.0
 11
29.621742
 21
0.000015
 31
0.0
  0
LINE
  5
3DC5
330
3D90
100
AcDbEntity
  8
0
  6
Continuous
 62
     0
390
1D
100
AcDbLine
 10
19.248573
 20
4.437302
 30
0.0
 11
20.520576
 21
4.437302
 31
0.0
  0
LINE
  5
3DC6
330
3D90
100
AcDbEntity
  8
0
  6
Continuous
 62
     0
390
1D
100
AcDbLine
 10
36.674271
 20
0.000015
 30
0.0
 11
38.136307
 21
0.000015
 31
0.0
  0
LINE
  5
3DC7
330
3D90
100
AcDbEntity
  8
0
  6
Continuous
 62
     0
390
1D
100
AcDbLine
 10
31.288223
 20
0.0
 30
0.0
 11
32.750244
 21
0.0
 31
0.0
  0
LINE
  5
3DC8
330
3D90
100
AcDbEntity
  8
0
  6
Continuous
 62
     0
390
1D
100
AcDbLine
 10
33.802635
 20
4.437317
 30
0.0
 11
35.621895
 21
4.437317
 31
0.0
  0
LINE
  5
3DC9
330
3D90
100
AcDbEntity
  8
0
  6
Continuous
 62
     0
390
1D
100
AcDbLine
 10
16.834892
 20
4.437302
 30
0.0
 11
18.656952
 21
4.437302
 31
0.0
  0
LINE
  5
3DCA
330
3D90
100
AcDbEntity
  8
0
  6
Continuous
 62
     0
390
1D
100
AcDbLine
 10
16.834892
 20
0.000015
 30
0.0
 11
18.656952
 21
0.000015
 31
0.0
  0
LINE
  5
3DCB
330
3D90
100
AcDbEntity
  8
0
  6
Continuous
 62
     0
390
1D
100
AcDbLine
 10
14.29081
 20
1.627098
 30
0.0
 11
14.29081
 21
0.0
 31
0.0
  0
LINE
  5
3DCC
330
3D90
100
AcDbEntity
  8
0
  6
Continuous
 62
     0
390
1D
100
AcDbLine
 10
38.136126
 20
0.000097
 30
0.0
 11
35.62175
 21
4.437263
 31
0.0
  0
LINE
  5
3DCD
330
3D90
100
AcDbEntity
  8
0
  6
Continuous
 62
     0
390
1D
100
AcDbLine
 10
36.674036
 20
0.000002
 30
0.0
 11
36.254984
 21
0.739515
 31
0.0
  0
LINE
  5
3DCE
330
3D90
100
AcDbEntity
  8
0
  6
Continuous
 62
     0
390
1D
100
AcDbLine
 10
35.752436
 20
1.626965
 30
0.0
 11
34.712341
 21
3.462418
 31
0.0
  0
LINE
  5
3DCF
330
3D90
100
AcDbEntity
  8
0
  6
Continuous
 62
     0
390
1D
100
AcDbLine
 10
33.672051
 20
1.627072
 30
0.0
 11
34.712108
 21
3.462442
 31
0.0
  0
LINE
  5
3DD0
330
3D90
100
AcDbEntity
  8
0
  6
Continuous
 62
     0
390
1D
100
AcDbLine
 10
33.672188
 20
1.627083
 30
0.0
 11
35.752327
 21
1.627083
 31
0.0
  0
LINE
  5
3DD1
330
3D90
100
AcDbEntity
  8
0
  6
Continuous
 62
     0
390
1D
100
AcDbLine
 10
33.169319
 20
0.738998
 30
0.0
 11
36.255188
 21
0.738998
 31
0.0
  0
LINE
  5
3DD2
330
3D90
100
AcDbEntity
  8
0
  6
Continuous
 62
     0
390
1D
100
AcDbLine
 10
32.750442
 20
-0.000219
 30
0.0
 11
33.169532
 21
0.739348
 31
0.0
  0
LINE
  5
3DD3
330
3D90
100
AcDbEntity
  8
0
  6
Continuous
 62
     0
390
1D
100
AcDbLine
 10
31.287743
 20
0.000262
 30
0.0
 11
33.80215
 21
4.437459
 31
0.0
  0
LINE
  5
3DD4
330
3D90
100
AcDbEntity
  8
0
  6
Continuous
 62
     0
390
1D
100
AcDbLine
 10
16.277017
 20
2.218516
 30
0.0
 11
18.656834
 21
0.000049
 31
0.0
  0
LINE
  5
3DD5
330
3D90
100
AcDbEntity
  8
0
  6
Continuous
 62
     0
390
1D
100
AcDbLine
 10
15.089823
 20
1.626855
 30
0.0
 11
16.835171
 21
-0.000145
 31
0.0
  0
LINE
  5
3DD6
330
3D90
100
AcDbEntity
  8
0
  6
Continuous
 62
     0
390
1D
100
AcDbLine
 10
16.277186
 20
2.218402
 30
0.0
 11
18.657143
 21
4.437007
 31
0.0
  0
LINE
  5
3DD7
330
3D90
100
AcDbEntity
  8
0
  6
Continuous
 62
     0
390
1D
100
AcDbLine
 10
15.089013
 20
2.810919
 30
0.0
 11
16.834306
 21
4.437876
 31
0.0
  0
LINE
  5
3DD8
330
3D90
100
AcDbEntity
  8
0
  6
Continuous
 62
     0
390
1D
100
AcDbLine
 10
14.290756
 20
2.810212
 30
0.0
 11
15.089454
 21
2.810197
 31
0.0
  0
LINE
  5
3DD9
330
3D90
100
AcDbEntity
  8
0
  6
Continuous
 62
     0
390
1D
100
AcDbLine
 10
14.290886
 20
1.627098
 30
0.0
 11
15.089615
 21
1.627098
 31
0.0
  0
LINE
  5
3DDA
330
3D90
100
AcDbEntity
  8
0
  6
Continuous
 62
     0
390
1D
100
AcDbLine
 10
14.29081
 20
4.437302
 30
0.0
 11
14.29081
 21
2.810196
 31
0.0
  0
LINE
  5
3DDB
330
3D90
100
AcDbEntity
  8
0
  6
Continuous
 62
     0
390
1D
100
AcDbLine
 10
13.0485
 20
0.000015
 30
0.0
 11
14.290878
 21
0.000015
 31
0.0
  0
LINE
  5
3DDC
330
3D90
100
AcDbEntity
  8
0
  6
Continuous
 62
     0
390
1D
100
AcDbLine
 10
13.048416
 20
4.437317
 30
0.0
 11
13.048416
 21
0.000015
 31
0.0
  0
LINE
  5
3DDD
330
3D90
100
AcDbEntity
  8
0
  6
Continuous
 62
     0
390
1D
100
AcDbLine
 10
13.048546
 20
4.437316
 30
0.0
 11
14.290932
 21
4.437301
 31
0.0
  0
ENDBLK
  5
3DDE
330
3D90
100
AcDbEntity
  8
0
  6
ByBlock
 62
     0
370
    -2
390
1D
100
AcDbBlockEnd
  0
BLOCK
  5
3E16
330
3E15
100
AcDbEntity
  8
0
  6
ByBlock
 62
     0
370
    -2
390
1D
100
AcDbBlockBegin
  2
*D16
 70
     1
 10
0.0
 20
0.0
 30
0.0
  3
*D16
  1

  0
LINE
  5
3E17
330
3E15
100
AcDbEntity
  8
0
  6
Continuous
 62
   143
390
1D
100
AcDbLine
 10
1168.098309
 20
-1433.925192
 30
0.0
 11
1168.098309
 21
-1449.800192
 31
0.0
  0
LINE
  5
3E18
330
3E15
100
AcDbEntity
  8
0
  6
Continuous
 62
   143
390
1D
100
AcDbLine
 10
1168.098309
 20
-1408.261635
 30
0.0
 11
1168.098309
 21
-1433.925192
 31
0.0
  0
LINE
  5
3E19
330
3E15
100
AcDbEntity
  8
0
  6
Continuous
 62
   143
390
1D
100
AcDbLine
 10
1159.615516
 20
-1433.925192
 30
0.0
 11
1169.598309
 21
-1433.925192
 31
0.0
  0
LINE
  5
3E1A
330
3E15
100
AcDbEntity
  8
0
  6
Continuous
 62
   143
390
1D
100
AcDbLine
 10
1159.615516
 20
-1449.800192
 30
0.0
 11
1169.598309
 21
-1449.800192
 31
0.0
  0
INSERT
  5
3E1B
330
3E15
100
AcDbEntity
  8
0
  6
Continuous
 62
   143
390
1D
100
AcDbBlockReference
  2
_OPEN30
 10
1168.098309
 20
-1433.925192
 30
0.0
 41
2.77
 42
2.77
 43
2.77
 50
90.0
  0
INSERT
  5
3E1C
330
3E15
100
AcDbEntity
  8
0
  6
Continuous
 62
   143
390
1D
100
AcDbBlockReference
  2
_OPEN30
 10
1168.098309
 20
-1449.800192
 30
0.0
 41
2.77
 42
2.77
 43
2.77
 50
270.0
  0
MTEXT
  5
3E1D
330
3E15
100
AcDbEntity
  8
0
  6
Continuous
 62
   143
390
1D
100
AcDbMText
 10
1165.848309
 20
-1415.761635
 30
0.0
 40
2.5
 41
0.0
 46
0.0
 71
     5
 72
     1
  1
\A1;∅31.75
  7
MX_DIMTXSTY_2
 11
0.0
 21
1.0
 31
0.0
 73
     1
 44
0.96
  0
POINT
  5
3E1E
330
3E15
100
AcDbEntity
  8
Defpoints
  6
Continuous
 62
     0
390
1D
100
AcDbPoint
 10
1158.115516
 20
-1433.925192
 30
0.0
  0
POINT
  5
3E1F
330
3E15
100
AcDbEntity
  8
Defpoints
  6
Continuous
 62
     0
390
1D
100
AcDbPoint
 10
1158.115516
 20
-1449.800192
 30
0.0
  0
POINT
  5
3E20
330
3E15
100
AcDbEntity
  8
Defpoints
  6
Continuous
 62
     0
390
1D
100
AcDbPoint
 10
1168.098309
 20
-1449.800192
 30
0.0
  0
ENDBLK
  5
3E21
330
3E15
100
AcDbEntity
  8
0
  6
ByBlock
 62
     0
370
    -2
390
1D
100
AcDbBlockEnd
  0
BLOCK
  5
3E24
330
3E23
100
AcDbEntity
  8
0
  6
ByBlock
 62
     0
370
    -2
390
1D
100
AcDbBlockBegin
  2
*D17
 70
     1
 10
0.0
 20
0.0
 30
0.0
  3
*D17
  1

  0
LINE
  5
3E25
330
3E23
100
AcDbEntity
  8
0
  6
Continuous
 62
   143
390
1D
100
AcDbLine
 10
1158.115516
 20
-1512.644788
 30
0.0
 11
1066.821317
 21
-1512.644788
 31
0.0
  0
LINE
  5
3E26
330
3E23
100
AcDbEntity
  8
0
  6
Continuous
 62
   143
390
1D
100
AcDbLine
 10
1158.115516
 20
-1451.300195
 30
0.0
 11
1158.115516
 21
-1514.144788
 31
0.0
  0
LINE
  5
3E27
330
3E23
100
AcDbEntity
  8
0
  6
Continuous
 62
   143
390
1D
100
AcDbLine
 10
1066.821317
 20
-1470.362695
 30
0.0
 11
1066.821317
 21
-1514.144788
 31
0.0
  0
INSERT
  5
3E28
330
3E23
100
AcDbEntity
  8
0
  6
Continuous
 62
   143
390
1D
100
AcDbBlockReference
  2
_OPEN30
 10
1158.115516
 20
-1512.644788
 30
0.0
 41
2.77
 42
2.77
 43
2.77
  0
INSERT
  5
3E29
330
3E23
100
AcDbEntity
  8
0
  6
Continuous
 62
   143
390
1D
100
AcDbBlockReference
  2
_OPEN30
 10
1066.821317
 20
-1512.644788
 30
0.0
 41
2.77
 42
2.77
 43
2.77
 50
180.0
  0
MTEXT
  5
3E2A
330
3E23
100
AcDbEntity
  8
0
  6
Continuous
 62
   143
390
1D
100
AcDbMText
 10
1112.468417
 20
-1510.394788
 30
0.0
 40
2.5
 41
0.0
 46
0.0
 71
     5
 72
     1
  1
\A1;(350.0)
  7
MX_DIMTXSTY_3
 73
     1
 44
0.96
  0
POINT
  5
3E2B
330
3E23
100
AcDbEntity
  8
Defpoints
  6
Continuous
 62
     0
390
1D
100
AcDbPoint
 10
1158.115516
 20
-1449.800195
 30
0.0
  0
POINT
  5
3E2C
330
3E23
100
AcDbEntity
  8
Defpoints
  6
Continuous
 62
     0
390
1D
100
AcDbPoint
 10
1066.821317
 20
-1468.862695
 30
0.0
  0
POINT
  5
3E2D
330
3E23
100
AcDbEntity
  8
Defpoints
  6
Continuous
 62
     0
390
1D
100
AcDbPoint
 10
1066.821317
 20
-1512.644788
 30
0.0
  0
ENDBLK
  5
3E2E
330
3E23
100
AcDbEntity
  8
0
  6
ByBlock
 62
     0
370
    -2
390
1D
100
AcDbBlockEnd
  0
BLOCK
  5
3E31
330
3E30
100
AcDbEntity
  8
0
  6
ByBlock
 62
     0
370
    -2
390
1D
100
AcDbBlockBegin
  2
*D18
 70
     1
 10
0.0
 20
0.0
 30
0.0
  3
*D18
  1

  0
LINE
  5
3E32
330
3E30
100
AcDbEntity
  8
0
  6
Continuous
 62
   143
390
1D
100
AcDbLine
 10
1066.815604
 20
-1512.644788
 30
0.0
 11
1028.815604
 21
-1512.644788
 31
0.0
  0
LINE
  5
3E33
330
3E30
100
AcDbEntity
  8
0
  6
Continuous
 62
   143
390
1D
100
AcDbLine
 10
1066.815604
 20
-1470.362695
 30
0.0
 11
1066.815604
 21
-1514.144788
 31
0.0
  0
LINE
  5
3E34
330
3E30
100
AcDbEntity
  8
0
  6
Continuous
 62
   143
390
1D
100
AcDbLine
 10
1028.815604
 20
-1470.362695
 30
0.0
 11
1028.815604
 21
-1514.144788
 31
0.0
  0
INSERT
  5
3E35
330
3E30
100
AcDbEntity
  8
0
  6
Continuous
 62
   143
390
1D
100
AcDbBlockReference
  2
_OPEN30
 10
1066.815604
 20
-1512.644788
 30
0.0
 41
2.77
 42
2.77
 43
2.77
  0
INSERT
  5
3E36
330
3E30
100
AcDbEntity
  8
0
  6
Continuous
 62
   143
390
1D
100
AcDbBlockReference
  2
_OPEN30
 10
1028.815604
 20
-1512.644788
 30
0.0
 41
2.77
 42
2.77
 43
2.77
 50
180.0
  0
MTEXT
  5
3E37
330
3E30
100
AcDbEntity
  8
0
  6
Continuous
 62
   143
390
1D
100
AcDbMText
 10
1048.517432
 20
-1510.394788
 30
0.0
 40
2.5
 41
0.0
 46
0.0
 71
     5
 72
     1
  1
\A1;(76.0)
  7
MX_DIMTXSTY_4
 73
     1
 44
0.96
  0
POINT
  5
3E38
330
3E30
100
AcDbEntity
  8
Defpoints
  6
Continuous
 62
     0
390
1D
100
AcDbPoint
 10
1066.815604
 20
-1468.862695
 30
0.0
  0
POINT
  5
3E39
330
3E30
100
AcDbEntity
  8
Defpoints
  6
Continuous
 62
     0
390
1D
100
AcDbPoint
 10
1028.815604
 20
-1468.862695
 30
0.0
  0
POINT
  5
3E3A
330
3E30
100
AcDbEntity
  8
Defpoints
  6
Continuous
 62
     0
390
1D
100
AcDbPoint
 10
1028.815604
 20
-1512.644788
 30
0.0
  0
ENDBLK
  5
3E3B
330
3E30
100
AcDbEntity
  8
0
  6
ByBlock
 62
     0
370
    -2
390
1D
100
AcDbBlockEnd
  0
BLOCK
  5
3E48
330
3E47
100
AcDbEntity
  8
0
  6
ByBlock
 62
     0
370
    -2
390
1D
100
AcDbBlockBegin
  2
*D19
 70
     1
 10
0.0
 20
0.0
 30
0.0
  3
*D19
  1

  0
LINE
  5
3E49
330
3E47
100
AcDbEntity
  8
0
  6
Continuous
 62
   143
390
1D
100
AcDbLine
 10
1096.203363
 20
-1487.862692
 30
0.0
 11
1096.203363
 21
-1441.862692
 31
0.0
  0
LINE
  5
3E4A
330
3E47
100
AcDbEntity
  8
0
  6
Continuous
 62
   143
390
1D
100
AcDbLine
 10
1049.321317
 20
-1487.862692
 30
0.0
 11
1096.953363
 21
-1487.862692
 31
0.0
  0
INSERT
  5
3E4B
330
3E47
100
AcDbEntity
  8
0
  6
Continuous
 62
   143
390
1D
100
AcDbBlockReference
  2
_OPEN30
 10
1096.203363
 20
-1487.862692
 30
0.0
 41
2.77
 42
2.77
 43
2.77
 50
270.0
  0
INSERT
  5
3E4C
330
3E47
100
AcDbEntity
  8
0
  6
Continuous
 62
   143
390
1D
100
AcDbBlockReference
  2
_OPEN30
 10
1096.203363
 20
-1441.862692
 30
0.0
 41
2.77
 42
2.77
 43
2.77
 50
90.0
  0
MTEXT
  5
3E4D
330
3E47
100
AcDbEntity
  8
0
  6
Continuous
 62
   143
390
1D
100
AcDbMText
 10
1093.953363
 20
-1466.201021
 30
0.0
 40
2.5
 41
0.0
 46
0.0
 71
     5
 72
     1
  1
\A1;(92.0)
  7
MX_DIMTXSTY_4
 11
0.0
 21
1.0
 31
0.0
 73
     1
 44
0.96
  0
POINT
  5
3E4E
330
3E47
100
AcDbEntity
  8
Defpoints
  6
Continuous
 62
     0
390
1D
100
AcDbPoint
 10
1047.821317
 20
-1487.862692
 30
0.0
  0
POINT
  5
3E4F
330
3E47
100
AcDbEntity
  8
Defpoints
  6
Continuous
 62
     0
390
1D
100
AcDbPoint
 10
1125.900719
 20
-1441.862692
 30
0.0
  0
POINT
  5
3E50
330
3E47
100
AcDbEntity
  8
Defpoints
  6
Continuous
 62
     0
390
1D
100
AcDbPoint
 10
1096.203363
 20
-1441.862692
 30
0.0
  0
ENDBLK
  5
3E51
330
3E47
100
AcDbEntity
  8
0
  6
ByBlock
 62
     0
370
    -2
390
1D
100
AcDbBlockEnd
  0
BLOCK
  5
3E77
330
3E76
100
AcDbEntity
  8
0
  6
ByBlock
 62
     0
370
    -2
390
1D
100
AcDbBlockBegin
  2
*D20
 70
     1
 10
0.0
 20
0.0
 30
0.0
  3
*D20
  1

  0
LINE
  5
3E78
330
3E76
100
AcDbEntity
  8
0
  6
Continuous
 62
   143
390
1D
100
AcDbLine
 10
1016.815604
 20
-1409.218468
 30
0.0
 11
1040.815604
 21
-1409.218468
 31
0.0
  0
LINE
  5
3E79
330
3E76
100
AcDbEntity
  8
0
  6
Continuous
 62
   143
390
1D
100
AcDbLine
 10
1016.815604
 20
-1421.343941
 30
0.0
 11
1016.815604
 21
-1407.718468
 31
0.0
  0
LINE
  5
3E7A
330
3E76
100
AcDbEntity
  8
0
  6
Continuous
 62
   143
390
1D
100
AcDbLine
 10
1040.815604
 20
-1421.343941
 30
0.0
 11
1040.815604
 21
-1407.718468
 31
0.0
  0
INSERT
  5
3E7B
330
3E76
100
AcDbEntity
  8
0
  6
Continuous
 62
   143
390
1D
100
AcDbBlockReference
  2
_OPEN30
 10
1016.815604
 20
-1409.218468
 30
0.0
 41
2.77
 42
2.77
 43
2.77
 50
180.0
  0
INSERT
  5
3E7C
330
3E76
100
AcDbEntity
  8
0
  6
Continuous
 62
   143
390
1D
100
AcDbBlockReference
  2
_OPEN30
 10
1040.815604
 20
-1409.218468
 30
0.0
 41
2.77
 42
2.77
 43
2.77
  0
MTEXT
  5
3E7D
330
3E76
100
AcDbEntity
  8
0
  6
Continuous
 62
   143
390
1D
100
AcDbMText
 10
1028.815604
 20
-1406.968468
 30
0.0
 40
2.5
 41
0.0
 46
0.0
 71
     5
 72
     1
  1
\A1;六角対辺43.0
  7
MX_NOTE_STANDARD
 73
     1
 44
0.96
  0
POINT
  5
3E7E
330
3E76
100
AcDbEntity
  8
Defpoints
  6
Continuous
 62
     0
390
1D
100
AcDbPoint
 10
1016.815604
 20
-1422.843941
 30
0.0
  0
POINT
  5
3E7F
330
3E76
100
AcDbEntity
  8
Defpoints
  6
Continuous
 62
     0
390
1D
100
AcDbPoint
 10
1040.815604
 20
-1422.843941
 30
0.0
  0
POINT
  5
3E80
330
3E76
100
AcDbEntity
  8
Defpoints
  6
Continuous
 62
     0
390
1D
100
AcDbPoint
 10
1040.815604
 20
-1409.218468
 30
0.0
  0
ENDBLK
  5
3E81
330
3E76
100
AcDbEntity
  8
0
  6
ByBlock
 62
     0
370
    -2
390
1D
100
AcDbBlockEnd
  0
BLOCK
  5
3E84
330
3E83
100
AcDbEntity
  8
0
  6
ByBlock
 62
     0
370
    -2
390
1D
100
AcDbBlockBegin
  2
*D21
 70
     1
 10
0.0
 20
0.0
 30
0.0
  3
*D21
  1

  0
LINE
  5
3E85
330
3E83
100
AcDbEntity
  8
0
  6
Continuous
 62
   143
390
1D
100
AcDbLine
 10
1054.815604
 20
-1427.430449
 30
0.0
 11
1078.815604
 21
-1427.430449
 31
0.0
  0
LINE
  5
3E86
330
3E83
100
AcDbEntity
  8
0
  6
Continuous
 62
   143
390
1D
100
AcDbLine
 10
1054.815604
 20
-1463.01269
 30
0.0
 11
1054.815604
 21
-1425.930449
 31
0.0
  0
LINE
  5
3E87
330
3E83
100
AcDbEntity
  8
0
  6
Continuous
 62
   143
390
1D
100
AcDbLine
 10
1078.815604
 20
-1463.01269
 30
0.0
 11
1078.815604
 21
-1425.930449
 31
0.0
  0
INSERT
  5
3E88
330
3E83
100
AcDbEntity
  8
0
  6
Continuous
 62
   143
390
1D
100
AcDbBlockReference
  2
_OPEN30
 10
1054.815604
 20
-1427.430449
 30
0.0
 41
2.77
 42
2.77
 43
2.77
 50
180.0
  0
INSERT
  5
3E89
330
3E83
100
AcDbEntity
  8
0
  6
Continuous
 62
   143
390
1D
100
AcDbBlockReference
  2
_OPEN30
 10
1078.815604
 20
-1427.430449
 30
0.0
 41
2.77
 42
2.77
 43
2.77
  0
MTEXT
  5
3E8A
330
3E83
100
AcDbEntity
  8
0
  6
Continuous
 62
   143
390
1D
100
AcDbMText
 10
1067.595951
 20
-1425.180449
 30
0.0
 40
2.5
 41
0.0
 46
0.0
 71
     5
 72
     1
  1
\A1;六角対辺43.0
  7
MX_NOTE_STANDARD
 73
     1
 44
0.96
  0
POINT
  5
3E8B
330
3E83
100
AcDbEntity
  8
Defpoints
  6
Continuous
 62
     0
390
1D
100
AcDbPoint
 10
1054.815604
 20
-1464.51269
 30
0.0
  0
POINT
  5
3E8C
330
3E83
100
AcDbEntity
  8
Defpoints
  6
Continuous
 62
     0
390
1D
100
AcDbPoint
 10
1078.815604
 20
-1464.51269
 30
0.0
  0
POINT
  5
3E8D
330
3E83
100
AcDbEntity
  8
Defpoints
  6
Continuous
 62
     0
390
1D
100
AcDbPoint
 10
1078.815604
 20
-1427.430449
 30
0.0
  0
ENDBLK
  5
3E8E
330
3E83
100
AcDbEntity
  8
0
  6
ByBlock
 62
     0
370
    -2
390
1D
100
AcDbBlockEnd
  0
BLOCK
  5
3E99
330
3E98
100
AcDbEntity
  8
0
  6
ByBlock
 62
     0
370
    -2
390
1D
100
AcDbBlockBegin
  2
*D22
 70
     1
 10
0.0
 20
0.0
 30
0.0
  3
*D22
  1

  0
LINE
  5
3E9A
330
3E98
100
AcDbEntity
  8
0
  6
Continuous
 62
   143
390
1D
100
AcDbLine
 10
1177.132228
 20
-1425.362692
 30
0.0
 11
1177.132228
 21
-1458.362692
 31
0.0
  0
LINE
  5
3E9B
330
3E98
100
AcDbEntity
  8
0
  6
Continuous
 62
   143
390
1D
100
AcDbLine
 10
1144.615512
 20
-1425.362692
 30
0.0
 11
1178.632228
 21
-1425.362692
 31
0.0
  0
LINE
  5
3E9C
330
3E98
100
AcDbEntity
  8
0
  6
Continuous
 62
   143
390
1D
100
AcDbLine
 10
1144.615512
 20
-1458.362692
 30
0.0
 11
1178.632228
 21
-1458.362692
 31
0.0
  0
INSERT
  5
3E9D
330
3E98
100
AcDbEntity
  8
0
  6
Continuous
 62
   143
390
1D
100
AcDbBlockReference
  2
_OPEN30
 10
1177.132228
 20
-1425.362692
 30
0.0
 41
2.77
 42
2.77
 43
2.77
 50
90.0
  0
INSERT
  5
3E9E
330
3E98
100
AcDbEntity
  8
0
  6
Continuous
 62
   143
390
1D
100
AcDbBlockReference
  2
_OPEN30
 10
1177.132228
 20
-1458.362692
 30
0.0
 41
2.77
 42
2.77
 43
2.77
 50
270.0
  0
MTEXT
  5
3E9F
330
3E98
100
AcDbEntity
  8
0
  6
Continuous
 62
   143
390
1D
100
AcDbMText
 10
1174.882228
 20
-1441.072963
 30
0.0
 40
2.5
 41
0.0
 46
0.0
 71
     5
 72
     1
  1
\A1;∅66.0
  7
MX_DIMTXSTY_2
 11
0.0
 21
1.0
 31
0.0
 73
     1
 44
0.96
  0
POINT
  5
3EA0
330
3E98
100
AcDbEntity
  8
Defpoints
  6
Continuous
 62
     0
390
1D
100
AcDbPoint
 10
1143.115512
 20
-1425.362692
 30
0.0
  0
POINT
  5
3EA1
330
3E98
100
AcDbEntity
  8
Defpoints
  6
Continuous
 62
     0
390
1D
100
AcDbPoint
 10
1143.115512
 20
-1458.362692
 30
0.0
  0
POINT
  5
3EA2
330
3E98
100
AcDbEntity
  8
Defpoints
  6
Continuous
 62
     0
390
1D
100
AcDbPoint
 10
1177.132228
 20
-1458.362692
 30
0.0
  0
ENDBLK
  5
3EA3
330
3E98
100
AcDbEntity
  8
0
  6
ByBlock
 62
     0
370
    -2
390
1D
100
AcDbBlockEnd
  0
BLOCK
  5
3EB7
330
3EB6
100
AcDbEntity
  8
0
  6
ByBlock
 62
     0
370
    -2
390
1D
100
AcDbBlockBegin
  2
*D23
 70
     1
 10
0.0
 20
0.0
 30
0.0
  3
*D23
  1

  0
LINE
  5
3EB8
330
3EB6
100
AcDbEntity
  8
0
  6
Continuous
 62
   143
390
1D
100
AcDbLine
 10
1009.969612
 20
-1448.862692
 30
0.0
 11
1009.969612
 21
-1422.862692
 31
0.0
  0
LINE
  5
3EB9
330
3EB6
100
AcDbEntity
  8
0
  6
Continuous
 62
   143
390
1D
100
AcDbLine
 10
1018.915604
 20
-1448.862692
 30
0.0
 11
1008.469612
 21
-1448.862692
 31
0.0
  0
INSERT
  5
3EBA
330
3EB6
100
AcDbEntity
  8
0
  6
Continuous
 62
   143
390
1D
100
AcDbBlockReference
  2
_OPEN30
 10
1009.969612
 20
-1448.862692
 30
0.0
 41
2.77
 42
2.77
 43
2.77
 50
270.0
  0
INSERT
  5
3EBB
330
3EB6
100
AcDbEntity
  8
0
  6
Continuous
 62
   143
390
1D
100
AcDbBlockReference
  2
_OPEN30
 10
1009.969612
 20
-1422.862692
 30
0.0
 41
2.77
 42
2.77
 43
2.77
 50
90.0
  0
MTEXT
  5
3EBC
330
3EB6
100
AcDbEntity
  8
0
  6
Continuous
 62
   143
390
1D
100
AcDbMText
 10
1007.719612
 20
-1435.862692
 30
0.0
 40
2.5
 41
0.0
 46
0.0
 71
     5
 72
     1
  1
\A1;(52.0)
  7
MX_DIMTXSTY_4
 11
0.0
 21
1.0
 31
0.0
 73
     1
 44
0.96
  0
POINT
  5
3EBD
330
3EB6
100
AcDbEntity
  8
Defpoints
  6
Continuous
 62
     0
390
1D
100
AcDbPoint
 10
1020.415604
 20
-1448.862692
 30
0.0
  0
POINT
  5
3EBE
330
3EB6
100
AcDbEntity
  8
Defpoints
  6
Continuous
 62
     0
390
1D
100
AcDbPoint
 10
1027.315603
 20
-1422.862692
 30
0.0
  0
POINT
  5
3EBF
330
3EB6
100
AcDbEntity
  8
Defpoints
  6
Continuous
 62
     0
390
1D
100
AcDbPoint
 10
1009.969612
 20
-1422.862692
 30
0.0
  0
ENDBLK
  5
3EC0
330
3EB6
100
AcDbEntity
  8
0
  6
ByBlock
 62
     0
370
    -2
390
1D
100
AcDbBlockEnd
  0
BLOCK
  5
3EC3
330
3EC2
100
AcDbEntity
  8
0
  6
ByBlock
 62
     0
370
    -2
390
1D
100
AcDbBlockBegin
  2
*D24
 70
     1
 10
0.0
 20
0.0
 30
0.0
  3
*D24
  1

  0
LINE
  5
3EC4
330
3EC2
100
AcDbEntity
  8
0
  6
Continuous
 62
   143
390
1D
100
AcDbLine
 10
1002.585479
 20
-1487.862692
 30
0.0
 11
1002.585479
 21
-1422.862692
 31
0.0
  0
LINE
  5
3EC5
330
3EC2
100
AcDbEntity
  8
0
  6
Continuous
 62
   143
390
1D
100
AcDbLine
 10
1046.315605
 20
-1487.862692
 30
0.0
 11
1001.085479
 21
-1487.862692
 31
0.0
  0
LINE
  5
3EC6
330
3EC2
100
AcDbEntity
  8
0
  6
Continuous
 62
   143
390
1D
100
AcDbLine
 10
1015.304178
 20
-1422.862692
 30
0.0
 11
1001.085479
 21
-1422.862692
 31
0.0
  0
INSERT
  5
3EC7
330
3EC2
100
AcDbEntity
  8
0
  6
Continuous
 62
   143
390
1D
100
AcDbBlockReference
  2
_OPEN30
 10
1002.585479
 20
-1487.862692
 30
0.0
 41
2.77
 42
2.77
 43
2.77
 50
270.0
  0
INSERT
  5
3EC8
330
3EC2
100
AcDbEntity
  8
0
  6
Continuous
 62
   143
390
1D
100
AcDbBlockReference
  2
_OPEN30
 10
1002.585479
 20
-1422.862692
 30
0.0
 41
2.77
 42
2.77
 43
2.77
 50
90.0
  0
MTEXT
  5
3EC9
330
3EC2
100
AcDbEntity
  8
0
  6
Continuous
 62
   143
390
1D
100
AcDbMText
 10
1000.335479
 20
-1452.696264
 30
0.0
 40
2.5
 41
0.0
 46
0.0
 71
     5
 72
     1
  1
\A1;(130.0)
  7
MX_DIMTXSTY_5
 11
0.0
 21
1.0
 31
0.0
 73
     1
 44
0.96
  0
POINT
  5
3ECA
330
3EC2
100
AcDbEntity
  8
Defpoints
  6
Continuous
 62
     0
390
1D
100
AcDbPoint
 10
1047.815605
 20
-1487.862692
 30
0.0
  0
POINT
  5
3ECB
330
3EC2
100
AcDbEntity
  8
Defpoints
  6
Continuous
 62
     0
390
1D
100
AcDbPoint
 10
1016.804178
 20
-1422.862692
 30
0.0
  0
POINT
  5
3ECC
330
3EC2
100
AcDbEntity
  8
Defpoints
  6
Continuous
 62
     0
390
1D
100
AcDbPoint
 10
1002.585479
 20
-1422.862692
 30
0.0
  0
ENDBLK
  5
3ECD
330
3EC2
100
AcDbEntity
  8
0
  6
ByBlock
 62
     0
370
    -2
390
1D
100
AcDbBlockEnd
  0
BLOCK
  5
3ED2
330
3ED1
100
AcDbEntity
  8
0
100
AcDbBlockBegin
  2
*D25
 70
     1
 10
0.0
 20
0.0
 30
0.0
  3
*D25
  1

  0
LINE
  5
3ED4
330
3ED1
100
AcDbEntity
  8
0.5
  6
Continuous
 62
     0
370
    -2
100
AcDbLine
 10
175.9245900000001
 20
199.98146
 30
0.0
 11
185.907383
 21
199.98146
 31
0.0
  0
LINE
  5
3ED5
330
3ED1
100
AcDbEntity
  8
0.5
  6
Continuous
 62
     0
370
    -2
100
AcDbLine
 10
175.9245900000001
 20
184.10646
 30
0.0
 11
185.907383
 21
184.10646
 31
0.0
  0
LINE
  5
3ED6
330
3ED1
100
AcDbEntity
  8
0.5
  6
Continuous
 62
     0
370
    -2
100
AcDbLine
 10
184.407383
 20
199.98146
 30
0.0
 11
184.407383
 21
225.8533503333332
 31
0.0
  0
LINE
  5
3ED7
330
3ED1
100
AcDbEntity
  8
0.5
  6
Continuous
 62
     0
370
    -2
100
AcDbLine
 10
184.407383
 20
197.21146
 30
0.0
 11
184.407383
 21
186.87646
 31
0.0
  0
INSERT
  5
3ED8
330
3ED1
100
AcDbEntity
  8
0.5
 62
     0
370
    -2
100
AcDbBlockReference
  2
_OPEN30
 10
184.407383
 20
199.98146
 30
0.0
 41
2.77
 42
2.77
 43
2.77
 50
90.0
  0
INSERT
  5
3ED9
330
3ED1
100
AcDbEntity
  8
0.5
 62
     0
370
    -2
100
AcDbBlockReference
  2
_OPEN30
 10
184.407383
 20
184.10646
 30
0.0
 41
2.77
 42
2.77
 43
2.77
 50
270.0
  0
MTEXT
  5
3EDA
330
3ED1
100
AcDbEntity
  8
0.5
 62
     0
100
AcDbMText
 10
182.157383
 20
218.1450169999998
 30
0.0
 40
2.5
 41
0.0
 46
0.0
 71
     5
 72
     1
  1
\A1;∅31.75
  7
MX_DIMTXSTY_2
 11
0.0
 21
1.0
 31
0.0
 73
     1
 44
0.96
  0
POINT
  5
3EDB
330
3ED1
100
AcDbEntity
  8
Defpoints
 62
     0
100
AcDbPoint
 10
174.4245900000001
 20
199.98146
 30
0.0
  0
POINT
  5
3EDC
330
3ED1
100
AcDbEntity
  8
Defpoints
 62
     0
100
AcDbPoint
 10
174.4245900000001
 20
184.10646
 30
0.0
  0
POINT
  5
3EDD
330
3ED1
100
AcDbEntity
  8
Defpoints
 62
     0
100
AcDbPoint
 10
184.407383
 20
184.10646
 30
0.0
  0
ENDBLK
  5
3ED3
330
3ED1
100
AcDbEntity
  8
0
100
AcDbBlockEnd
  0
BLOCK
  5
3EDF
330
3EDE
100
AcDbEntity
  8
0
100
AcDbBlockBegin
  2
*D26
 70
     1
 10
0.0
 20
0.0
 30
0.0
  3
*D26
  1

  0
LINE
  5
3EE1
330
3EDE
100
AcDbEntity
  8
0.5
  6
Continuous
 62
     0
370
    -2
100
AcDbLine
 10
174.4245900000001
 20
182.6064569999999
 30
0.0
 11
174.4245900000001
 21
119.7618639999998
 31
0.0
  0
LINE
  5
3EE2
330
3EDE
100
AcDbEntity
  8
0.5
  6
Continuous
 62
     0
370
    -2
100
AcDbLine
 10
83.13039099999992
 20
163.5439569999999
 30
0.0
 11
83.13039099999992
 21
119.7618639999998
 31
0.0
  0
LINE
  5
3EE3
330
3EDE
100
AcDbEntity
  8
0.5
  6
Continuous
 62
     0
370
    -2
100
AcDbLine
 10
171.6545900000001
 20
121.2618639999998
 30
0.0
 11
85.90039099999991
 21
121.2618639999998
 31
0.0
  0
INSERT
  5
3EE4
330
3EDE
100
AcDbEntity
  8
0.5
 62
     0
370
    -2
100
AcDbBlockReference
  2
_OPEN30
 10
174.4245900000001
 20
121.2618639999998
 30
0.0
 41
2.77
 42
2.77
 43
2.77
  0
INSERT
  5
3EE5
330
3EDE
100
AcDbEntity
  8
0.5
 62
     0
370
    -2
100
AcDbBlockReference
  2
_OPEN30
 10
83.13039099999992
 20
121.2618639999998
 30
0.0
 41
2.77
 42
2.77
 43
2.77
 50
180.0
  0
MTEXT
  5
3EE6
330
3EDE
100
AcDbEntity
  8
0.5
 62
     0
100
AcDbMText
 10
128.7774910000001
 20
123.5118639999998
 30
0.0
 40
2.5
 41
0.0
 46
0.0
 71
     5
 72
     1
  1
\A1;(350.0)
  7
MX_DIMTXSTY_3
 73
     1
 44
0.96
  0
POINT
  5
3EE7
330
3EDE
100
AcDbEntity
  8
Defpoints
 62
     0
100
AcDbPoint
 10
174.4245900000001
 20
184.1064569999999
 30
0.0
  0
POINT
  5
3EE8
330
3EDE
100
AcDbEntity
  8
Defpoints
 62
     0
100
AcDbPoint
 10
83.13039099999992
 20
165.0439569999999
 30
0.0
  0
POINT
  5
3EE9
330
3EDE
100
AcDbEntity
  8
Defpoints
 62
     0
100
AcDbPoint
 10
83.13039099999992
 20
121.2618639999998
 30
0.0
  0
ENDBLK
  5
3EE0
330
3EDE
100
AcDbEntity
  8
0
100
AcDbBlockEnd
  0
BLOCK
  5
3EEB
330
3EEA
100
AcDbEntity
  8
0
100
AcDbBlockBegin
  2
*D27
 70
     1
 10
0.0
 20
0.0
 30
0.0
  3
*D27
  1

  0
LINE
  5
3EED
330
3EEA
100
AcDbEntity
  8
0.5
  6
Continuous
 62
     0
370
    -2
100
AcDbLine
 10
83.1246779999999
 20
163.5439569999999
 30
0.0
 11
83.1246779999999
 21
119.7618639999998
 31
0.0
  0
LINE
  5
3EEE
330
3EEA
100
AcDbEntity
  8
0.5
  6
Continuous
 62
     0
370
    -2
100
AcDbLine
 10
45.1246779999999
 20
163.5439569999999
 30
0.0
 11
45.1246779999999
 21
119.7618639999998
 31
0.0
  0
LINE
  5
3EEF
330
3EEA
100
AcDbEntity
  8
0.5
  6
Continuous
 62
     0
370
    -2
100
AcDbLine
 10
80.35467799999991
 20
121.2618639999998
 30
0.0
 11
47.89467799999991
 21
121.2618639999998
 31
0.0
  0
INSERT
  5
3EF0
330
3EEA
100
AcDbEntity
  8
0.5
 62
     0
370
    -2
100
AcDbBlockReference
  2
_OPEN30
 10
83.1246779999999
 20
121.2618639999998
 30
0.0
 41
2.77
 42
2.77
 43
2.77
  0
INSERT
  5
3EF1
330
3EEA
100
AcDbEntity
  8
0.5
 62
     0
370
    -2
100
AcDbBlockReference
  2
_OPEN30
 10
45.1246779999999
 20
121.2618639999998
 30
0.0
 41
2.77
 42
2.77
 43
2.77
 50
180.0
  0
MTEXT
  5
3EF2
330
3EEA
100
AcDbEntity
  8
0.5
 62
     0
100
AcDbMText
 10
64.82650600000011
 20
123.5118639999998
 30
0.0
 40
2.5
 41
0.0
 46
0.0
 71
     5
 72
     1
  1
\A1;(76.0)
  7
MX_DIMTXSTY_4
 73
     1
 44
0.96
  0
POINT
  5
3EF3
330
3EEA
100
AcDbEntity
  8
Defpoints
 62
     0
100
AcDbPoint
 10
83.1246779999999
 20
165.0439569999999
 30
0.0
  0
POINT
  5
3EF4
330
3EEA
100
AcDbEntity
  8
Defpoints
 62
     0
100
AcDbPoint
 10
45.1246779999999
 20
165.0439569999999
 30
0.0
  0
POINT
  5
3EF5
330
3EEA
100
AcDbEntity
  8
Defpoints
 62
     0
100
AcDbPoint
 10
45.1246779999999
 20
121.2618639999998
 30
0.0
  0
ENDBLK
  5
3EEC
330
3EEA
100
AcDbEntity
  8
0
100
AcDbBlockEnd
  0
BLOCK
  5
3EF7
330
3EF6
100
AcDbEntity
  8
0
100
AcDbBlockBegin
  2
*D28
 70
     1
 10
0.0
 20
0.0
 30
0.0
  3
*D28
  1

  0
LINE
  5
3EF9
330
3EF6
100
AcDbEntity
  8
0.5
  6
Continuous
 62
     0
370
    -2
100
AcDbLine
 10
65.63039099999992
 20
146.04396
 30
0.0
 11
113.2624370000001
 21
146.04396
 31
0.0
  0
LINE
  5
3EFA
330
3EF6
100
AcDbEntity
  8
0.5
  6
Continuous
 62
     0
370
    -2
100
AcDbLine
 10
112.5124370000001
 20
148.81396
 30
0.0
 11
112.5124370000001
 21
189.27396
 31
0.0
  0
INSERT
  5
3EFB
330
3EF6
100
AcDbEntity
  8
0.5
 62
     0
370
    -2
100
AcDbBlockReference
  2
_OPEN30
 10
112.5124370000001
 20
146.04396
 30
0.0
 41
2.77
 42
2.77
 43
2.77
 50
270.0
  0
INSERT
  5
3EFC
330
3EF6
100
AcDbEntity
  8
0.5
 62
     0
370
    -2
100
AcDbBlockReference
  2
_OPEN30
 10
112.5124370000001
 20
192.04396
 30
0.0
 41
2.77
 42
2.77
 43
2.77
 50
90.0
  0
MTEXT
  5
3EFD
330
3EF6
100
AcDbEntity
  8
0.5
 62
     0
100
AcDbMText
 10
110.2624370000001
 20
167.7056309999998
 30
0.0
 40
2.5
 41
0.0
 46
0.0
 71
     5
 72
     1
  1
\A1;(92.0)
  7
MX_DIMTXSTY_4
 11
0.0
 21
1.0
 31
0.0
 73
     1
 44
0.96
  0
POINT
  5
3EFE
330
3EF6
100
AcDbEntity
  8
Defpoints
 62
     0
100
AcDbPoint
 10
64.13039099999992
 20
146.04396
 30
0.0
  0
POINT
  5
3EFF
330
3EF6
100
AcDbEntity
  8
Defpoints
 62
     0
100
AcDbPoint
 10
142.209793
 20
192.04396
 30
0.0
  0
POINT
  5
3F00
330
3EF6
100
AcDbEntity
  8
Defpoints
 62
     0
100
AcDbPoint
 10
112.5124370000001
 20
192.04396
 30
0.0
  0
ENDBLK
  5
3EF8
330
3EF6
100
AcDbEntity
  8
0
100
AcDbBlockEnd
  0
BLOCK
  5
3F02
330
3F01
100
AcDbEntity
  8
0
100
AcDbBlockBegin
  2
*D29
 70
     1
 10
0.0
 20
0.0
 30
0.0
  3
*D29
  1

  0
LINE
  5
3F04
330
3F01
100
AcDbEntity
  8
0.5
  6
Continuous
 62
     0
370
    -2
100
AcDbLine
 10
33.12467800000002
 20
212.5627109999998
 30
0.0
 11
33.12467800000002
 21
226.1881839999999
 31
0.0
  0
LINE
  5
3F05
330
3F01
100
AcDbEntity
  8
0.5
  6
Continuous
 62
     0
370
    -2
100
AcDbLine
 10
57.1246779999999
 20
212.5627109999998
 30
0.0
 11
57.1246779999999
 21
226.1881839999999
 31
0.0
  0
LINE
  5
3F06
330
3F01
100
AcDbEntity
  8
0.5
  6
Continuous
 62
     0
370
    -2
100
AcDbLine
 10
35.89467800000002
 20
224.6881839999999
 30
0.0
 11
54.3546779999999
 21
224.6881839999999
 31
0.0
  0
INSERT
  5
3F07
330
3F01
100
AcDbEntity
  8
0.5
 62
     0
370
    -2
100
AcDbBlockReference
  2
_OPEN30
 10
33.12467800000002
 20
224.6881839999999
 30
0.0
 41
2.77
 42
2.77
 43
2.77
 50
180.0
  0
INSERT
  5
3F08
330
3F01
100
AcDbEntity
  8
0.5
 62
     0
370
    -2
100
AcDbBlockReference
  2
_OPEN30
 10
57.1246779999999
 20
224.6881839999999
 30
0.0
 41
2.77
 42
2.77
 43
2.77
  0
MTEXT
  5
3F09
330
3F01
100
AcDbEntity
  8
0.5
 62
     0
100
AcDbMText
 10
45.1246779999999
 20
226.9381839999999
 30
0.0
 40
2.5
 41
0.0
 46
0.0
 71
     5
 72
     1
  1
\A1;六角対辺43.0
  7
MX_NOTE_STANDARD
 73
     1
 44
0.96
  0
POINT
  5
3F0A
330
3F01
100
AcDbEntity
  8
Defpoints
 62
     0
100
AcDbPoint
 10
33.12467800000002
 20
211.0627109999998
 30
0.0
  0
POINT
  5
3F0B
330
3F01
100
AcDbEntity
  8
Defpoints
 62
     0
100
AcDbPoint
 10
57.1246779999999
 20
211.0627109999998
 30
0.0
  0
POINT
  5
3F0C
330
3F01
100
AcDbEntity
  8
Defpoints
 62
     0
100
AcDbPoint
 10
57.1246779999999
 20
224.6881839999999
 30
0.0
  0
ENDBLK
  5
3F03
330
3F01
100
AcDbEntity
  8
0
100
AcDbBlockEnd
  0
BLOCK
  5
3F0E
330
3F0D
100
AcDbEntity
  8
0
100
AcDbBlockBegin
  2
*D30
 70
     1
 10
0.0
 20
0.0
 30
0.0
  3
*D30
  1

  0
LINE
  5
3F10
330
3F0D
100
AcDbEntity
  8
0.5
  6
Continuous
 62
     0
370
    -2
100
AcDbLine
 10
71.1246779999999
 20
170.8939619999999
 30
0.0
 11
71.1246779999999
 21
207.9762029999999
 31
0.0
  0
LINE
  5
3F11
330
3F0D
100
AcDbEntity
  8
0.5
  6
Continuous
 62
     0
370
    -2
100
AcDbLine
 10
95.1246779999999
 20
170.8939619999999
 30
0.0
 11
95.1246779999999
 21
207.9762029999999
 31
0.0
  0
LINE
  5
3F12
330
3F0D
100
AcDbEntity
  8
0.5
  6
Continuous
 62
     0
370
    -2
100
AcDbLine
 10
73.8946779999999
 20
206.4762029999999
 30
0.0
 11
92.35467799999991
 21
206.4762029999999
 31
0.0
  0
INSERT
  5
3F13
330
3F0D
100
AcDbEntity
  8
0.5
 62
     0
370
    -2
100
AcDbBlockReference
  2
_OPEN30
 10
71.1246779999999
 20
206.4762029999999
 30
0.0
 41
2.77
 42
2.77
 43
2.77
 50
180.0
  0
INSERT
  5
3F14
330
3F0D
100
AcDbEntity
  8
0.5
 62
     0
370
    -2
100
AcDbBlockReference
  2
_OPEN30
 10
95.1246779999999
 20
206.4762029999999
 30
0.0
 41
2.77
 42
2.77
 43
2.77
  0
MTEXT
  5
3F15
330
3F0D
100
AcDbEntity
  8
0.5
 62
     0
100
AcDbMText
 10
83.90502500000002
 20
208.7262029999999
 30
0.0
 40
2.5
 41
0.0
 46
0.0
 71
     5
 72
     1
  1
\A1;六角対辺43.0
  7
MX_NOTE_STANDARD
 73
     1
 44
0.96
  0
POINT
  5
3F16
330
3F0D
100
AcDbEntity
  8
Defpoints
 62
     0
100
AcDbPoint
 10
71.1246779999999
 20
169.3939619999999
 30
0.0
  0
POINT
  5
3F17
330
3F0D
100
AcDbEntity
  8
Defpoints
 62
     0
100
AcDbPoint
 10
95.1246779999999
 20
169.3939619999999
 30
0.0
  0
POINT
  5
3F18
330
3F0D
100
AcDbEntity
  8
Defpoints
 62
     0
100
AcDbPoint
 10
95.1246779999999
 20
206.4762029999999
 30
0.0
  0
ENDBLK
  5
3F0F
330
3F0D
100
AcDbEntity
  8
0
100
AcDbBlockEnd
  0
BLOCK
  5
3F1A
330
3F19
100
AcDbEntity
  8
0
100
AcDbBlockBegin
  2
*D31
 70
     1
 10
0.0
 20
0.0
 30
0.0
  3
*D31
  1

  0
LINE
  5
3F1C
330
3F19
100
AcDbEntity
  8
0.5
  6
Continuous
 62
     0
370
    -2
100
AcDbLine
 10
160.9245860000001
 20
208.54396
 30
0.0
 11
194.941302
 21
208.54396
 31
0.0
  0
LINE
  5
3F1D
330
3F19
100
AcDbEntity
  8
0.5
  6
Continuous
 62
     0
370
    -2
100
AcDbLine
 10
160.9245860000001
 20
175.54396
 30
0.0
 11
194.941302
 21
175.54396
 31
0.0
  0
LINE
  5
3F1E
330
3F19
100
AcDbEntity
  8
0.5
  6
Continuous
 62
     0
370
    -2
100
AcDbLine
 10
193.441302
 20
205.77396
 30
0.0
 11
193.441302
 21
178.31396
 31
0.0
  0
INSERT
  5
3F1F
330
3F19
100
AcDbEntity
  8
0.5
 62
     0
370
    -2
100
AcDbBlockReference
  2
_OPEN30
 10
193.441302
 20
208.54396
 30
0.0
 41
2.77
 42
2.77
 43
2.77
 50
90.0
  0
INSERT
  5
3F20
330
3F19
100
AcDbEntity
  8
0.5
 62
     0
370
    -2
100
AcDbBlockReference
  2
_OPEN30
 10
193.441302
 20
175.54396
 30
0.0
 41
2.77
 42
2.77
 43
2.77
 50
270.0
  0
MTEXT
  5
3F21
330
3F19
100
AcDbEntity
  8
0.5
 62
     0
100
AcDbMText
 10
191.191302
 20
192.8336889999998
 30
0.0
 40
2.5
 41
0.0
 46
0.0
 71
     5
 72
     1
  1
\A1;∅66.0
  7
MX_DIMTXSTY_2
 11
0.0
 21
1.0
 31
0.0
 73
     1
 44
0.96
  0
POINT
  5
3F22
330
3F19
100
AcDbEntity
  8
Defpoints
 62
     0
100
AcDbPoint
 10
159.4245860000001
 20
208.54396
 30
0.0
  0
POINT
  5
3F23
330
3F19
100
AcDbEntity
  8
Defpoints
 62
     0
100
AcDbPoint
 10
159.4245860000001
 20
175.54396
 30
0.0
  0
POINT
  5
3F24
330
3F19
100
AcDbEntity
  8
Defpoints
 62
     0
100
AcDbPoint
 10
193.441302
 20
175.54396
 30
0.0
  0
ENDBLK
  5
3F1B
330
3F19
100
AcDbEntity
  8
0
100
AcDbBlockEnd
  0
BLOCK
  5
3F26
330
3F25
100
AcDbEntity
  8
0
100
AcDbBlockBegin
  2
*D32
 70
     1
 10
0.0
 20
0.0
 30
0.0
  3
*D32
  1

  0
LINE
  5
3F28
330
3F25
100
AcDbEntity
  8
0.5
  6
Continuous
 62
     0
370
    -2
100
AcDbLine
 10
35.22467800000004
 20
185.04396
 30
0.0
 11
24.77868599999999
 21
185.04396
 31
0.0
  0
LINE
  5
3F29
330
3F25
100
AcDbEntity
  8
0.5
  6
Continuous
 62
     0
370
    -2
100
AcDbLine
 10
26.27868599999999
 20
187.81396
 30
0.0
 11
26.27868599999999
 21
208.27396
 31
0.0
  0
INSERT
  5
3F2A
330
3F25
100
AcDbEntity
  8
0.5
 62
     0
370
    -2
100
AcDbBlockReference
  2
_OPEN30
 10
26.27868599999999
 20
185.04396
 30
0.0
 41
2.77
 42
2.77
 43
2.77
 50
270.0
  0
INSERT
  5
3F2B
330
3F25
100
AcDbEntity
  8
0.5
 62
     0
370
    -2
100
AcDbBlockReference
  2
_OPEN30
 10
26.27868599999999
 20
211.04396
 30
0.0
 41
2.77
 42
2.77
 43
2.77
 50
90.0
  0
MTEXT
  5
3F2C
330
3F25
100
AcDbEntity
  8
0.5
 62
     0
100
AcDbMText
 10
24.02868599999999
 20
198.04396
 30
0.0
 40
2.5
 41
0.0
 46
0.0
 71
     5
 72
     1
  1
\A1;(52.0)
  7
MX_DIMTXSTY_4
 11
0.0
 21
1.0
 31
0.0
 73
     1
 44
0.96
  0
POINT
  5
3F2D
330
3F25
100
AcDbEntity
  8
Defpoints
 62
     0
100
AcDbPoint
 10
36.72467800000004
 20
185.04396
 30
0.0
  0
POINT
  5
3F2E
330
3F25
100
AcDbEntity
  8
Defpoints
 62
     0
100
AcDbPoint
 10
43.62467700000002
 20
211.04396
 30
0.0
  0
POINT
  5
3F2F
330
3F25
100
AcDbEntity
  8
Defpoints
 62
     0
100
AcDbPoint
 10
26.27868599999999
 20
211.04396
 30
0.0
  0
ENDBLK
  5
3F27
330
3F25
100
AcDbEntity
  8
0
100
AcDbBlockEnd
  0
BLOCK
  5
3F31
330
3F30
100
AcDbEntity
  8
0
100
AcDbBlockBegin
  2
*D33
 70
     1
 10
0.0
 20
0.0
 30
0.0
  3
*D33
  1

  0
LINE
  5
3F33
330
3F30
100
AcDbEntity
  8
0.5
  6
Continuous
 62
     0
370
    -2
100
AcDbLine
 10
62.62467900000001
 20
146.04396
 30
0.0
 11
17.39455299999997
 21
146.04396
 31
0.0
  0
LINE
  5
3F34
330
3F30
100
AcDbEntity
  8
0.5
  6
Continuous
 62
     0
370
    -2
100
AcDbLine
 10
31.61325199999999
 20
211.04396
 30
0.0
 11
17.39455299999997
 21
211.04396
 31
0.0
  0
LINE
  5
3F35
330
3F30
100
AcDbEntity
  8
0.5
  6
Continuous
 62
     0
370
    -2
100
AcDbLine
 10
18.89455299999997
 20
148.81396
 30
0.0
 11
18.89455299999997
 21
208.27396
 31
0.0
  0
INSERT
  5
3F36
330
3F30
100
AcDbEntity
  8
0.5
 62
     0
370
    -2
100
AcDbBlockReference
  2
_OPEN30
 10
18.89455299999997
 20
146.04396
 30
0.0
 41
2.77
 42
2.77
 43
2.77
 50
270.0
  0
INSERT
  5
3F37
330
3F30
100
AcDbEntity
  8
0.5
 62
     0
370
    -2
100
AcDbBlockReference
  2
_OPEN30
 10
18.89455299999997
 20
211.04396
 30
0.0
 41
2.77
 42
2.77
 43
2.77
 50
90.0
  0
MTEXT
  5
3F38
330
3F30
100
AcDbEntity
  8
0.5
 62
     0
100
AcDbMText
 10
16.64455299999997
 20
181.210388
 30
0.0
 40
2.5
 41
0.0
 46
0.0
 71
     5
 72
     1
  1
\A1;(130.0)
  7
MX_DIMTXSTY_5
 11
5.465713352000771E-17
 21
1.0
 31
0.0
 73
     1
 44
0.96
  0
POINT
  5
3F39
330
3F30
100
AcDbEntity
  8
Defpoints
 62
     0
100
AcDbPoint
 10
64.12467900000001
 20
146.04396
 30
0.0
  0
POINT
  5
3F3A
330
3F30
100
AcDbEntity
  8
Defpoints
 62
     0
100
AcDbPoint
 10
33.11325199999999
 20
211.04396
 30
0.0
  0
POINT
  5
3F3B
330
3F30
100
AcDbEntity
  8
Defpoints
 62
     0
100
AcDbPoint
 10
18.89455299999997
 20
211.04396
 30
0.0
  0
ENDBLK
  5
3F32
330
3F30
100
AcDbEntity
  8
0
100
AcDbBlockEnd
  0
BLOCK
  5
3FC5
330
3FC4
100
AcDbEntity
  8
0
100
AcDbBlockBegin
  2
*D34
 70
     1
 10
0.0
 20
0.0
 30
0.0
  3
*D34
  1

  0
LINE
  5
3FC7
330
3FC4
100
AcDbEntity
  8
0.5
  6
Continuous
 62
     0
370
    -2
100
AcDbLine
 10
926.3580392327665
 20
462.7551370521106
 30
0.0
 11
941.3236252321227
 21
462.7551370521106
 31
0.0
  0
LINE
  5
3FC8
330
3FC4
100
AcDbEntity
  8
0.5
  6
Continuous
 62
     0
370
    -2
100
AcDbLine
 10
926.3580392327665
 20
431.0051370531338
 30
0.0
 11
941.3236252321227
 21
431.0051370531338
 31
0.0
  0
LINE
  5
3FC9
330
3FC4
100
AcDbEntity
  8
0.5
  6
Continuous
 62
     0
370
    -2
100
AcDbLine
 10
941.3236252321227
 20
462.7551370521106
 30
0.0
 11
941.3236252321227
 21
511.5772510509393
 31
0.0
  0
LINE
  5
3FCA
330
3FC4
100
AcDbEntity
  8
0.5
  6
Continuous
 62
     0
370
    -2
100
AcDbLine
 10
941.3236252321227
 20
464.7551370521106
 30
0.0
 11
941.3236252321227
 21
466.7551370521106
 31
0.0
  0
LINE
  5
3FCB
330
3FC4
100
AcDbEntity
  8
0.5
  6
Continuous
 62
     0
370
    -2
100
AcDbLine
 10
941.3236252321227
 20
429.0051370531338
 30
0.0
 11
941.3236252321227
 21
427.0051370531338
 31
0.0
  0
INSERT
  5
3FCC
330
3FC4
100
AcDbEntity
  8
0.5
 62
     0
370
    -2
100
AcDbBlockReference
  2
_DOT
 10
941.3236252321227
 20
462.7551370521106
 30
0.0
 41
2.0
 42
2.0
 43
2.0
 50
270.0
  0
INSERT
  5
3FCD
330
3FC4
100
AcDbEntity
  8
0.5
 62
     0
370
    -2
100
AcDbBlockReference
  2
_DOT
 10
941.3236252321227
 20
431.0051370531338
 30
0.0
 41
2.0
 42
2.0
 43
2.0
 50
90.0
  0
MTEXT
  5
3FCE
330
3FC4
100
AcDbEntity
  8
0.5
 62
     0
100
AcDbMText
 10
935.8236252321227
 20
499.0822510509393
 30
0.0
 40
5.0
 41
0.0
 46
0.0
 71
     5
 72
     1
  1
\A1;\A1;∅31.75
  7
ＭＳ ゴシック
 11
0.0
 21
1.0
 31
0.0
 73
     1
 44
0.96
  0
POINT
  5
3FCF
330
3FC4
100
AcDbEntity
  8
Defpoints
 62
     0
100
AcDbPoint
 10
921.3580392327665
 20
462.7551370521106
 30
0.0
  0
POINT
  5
3FD0
330
3FC4
100
AcDbEntity
  8
Defpoints
 62
     0
100
AcDbPoint
 10
921.3580392327665
 20
431.0051370531338
 30
0.0
  0
POINT
  5
403E
330
3FC4
100
AcDbEntity
  8
Defpoints
 62
     0
100
AcDbPoint
 10
941.3236252321227
 20
431.0051370531338
 30
0.0
  0
ENDBLK
  5
3FC6
330
3FC4
100
AcDbEntity
  8
0
100
AcDbBlockEnd
  0
BLOCK
  5
3FD2
330
3FD1
100
AcDbEntity
  8
0
100
AcDbBlockBegin
  2
*D35
 70
     1
 10
0.0
 20
0.0
 30
0.0
  3
*D35
  1

  0
LINE
  5
3FD4
330
3FD1
100
AcDbEntity
  8
0.5
  6
Continuous
 62
     0
370
    -2
100
AcDbLine
 10
921.3580392327665
 20
426.0051310531337
 30
0.0
 11
921.3580392327665
 21
305.3159450571848
 31
0.0
  0
LINE
  5
3FD5
330
3FD1
100
AcDbEntity
  8
0.5
  6
Continuous
 62
     0
370
    -2
100
AcDbLine
 10
738.7696412386512
 20
387.8801310543625
 30
0.0
 11
738.7696412386512
 21
305.3159450571848
 31
0.0
  0
LINE
  5
3FD6
330
3FD1
100
AcDbEntity
  8
0.5
  6
Continuous
 62
     0
370
    -2
100
AcDbLine
 10
919.3580392327665
 20
305.3159450571848
 30
0.0
 11
740.7696412386512
 21
305.3159450571848
 31
0.0
  0
INSERT
  5
3FD7
330
3FD1
100
AcDbEntity
  8
0.5
 62
     0
370
    -2
100
AcDbBlockReference
  2
_DOT
 10
921.3580392327665
 20
305.3159450571848
 30
0.0
 41
2.0
 42
2.0
 43
2.0
  0
INSERT
  5
3FD8
330
3FD1
100
AcDbEntity
  8
0.5
 62
     0
370
    -2
100
AcDbBlockReference
  2
_DOT
 10
738.7696412386512
 20
305.3159450571848
 30
0.0
 41
2.0
 42
2.0
 43
2.0
 50
180.0
  0
MTEXT
  5
3FD9
330
3FD1
100
AcDbEntity
  8
0.5
 62
     0
100
AcDbMText
 10
830.0638412357089
 20
311.2334450571848
 30
0.0
 40
5.0
 41
0.0
 46
0.0
 71
     5
 72
     1
  1
\A1;\A1;(350.0)
  7
ＭＳ ゴシック
 73
     1
 44
0.96
  0
POINT
  5
3FDA
330
3FD1
100
AcDbEntity
  8
Defpoints
 62
     0
100
AcDbPoint
 10
921.3580392327665
 20
431.0051310531337
 30
0.0
  0
POINT
  5
3FDB
330
3FD1
100
AcDbEntity
  8
Defpoints
 62
     0
100
AcDbPoint
 10
738.7696412386512
 20
392.8801310543625
 30
0.0
  0
POINT
  5
3FDC
330
3FD1
100
AcDbEntity
  8
Defpoints
 62
     0
100
AcDbPoint
 10
738.7696412386512
 20
305.3159450571848
 30
0.0
  0
ENDBLK
  5
3FD3
330
3FD1
100
AcDbEntity
  8
0
100
AcDbBlockEnd
  0
BLOCK
  5
3FDE
330
3FDD
100
AcDbEntity
  8
0
100
AcDbBlockBegin
  2
*D36
 70
     1
 10
0.0
 20
0.0
 30
0.0
  3
*D36
  1

  0
LINE
  5
3FE0
330
3FDD
100
AcDbEntity
  8
0.5
  6
Continuous
 62
     0
370
    -2
100
AcDbLine
 10
738.7582152386516
 20
387.8801310543625
 30
0.0
 11
738.7582152386516
 21
305.3159450571848
 31
0.0
  0
LINE
  5
3FE1
330
3FDD
100
AcDbEntity
  8
0.5
  6
Continuous
 62
     0
370
    -2
100
AcDbLine
 10
662.7582152411012
 20
387.8801310543625
 30
0.0
 11
662.7582152411012
 21
305.3159450571848
 31
0.0
  0
LINE
  5
3FE2
330
3FDD
100
AcDbEntity
  8
0.5
  6
Continuous
 62
     0
370
    -2
100
AcDbLine
 10
736.7582152386516
 20
305.3159450571848
 30
0.0
 11
664.7582152411012
 21
305.3159450571848
 31
0.0
  0
INSERT
  5
3FE3
330
3FDD
100
AcDbEntity
  8
0.5
 62
     0
370
    -2
100
AcDbBlockReference
  2
_DOT
 10
738.7582152386516
 20
305.3159450571848
 30
0.0
 41
2.0
 42
2.0
 43
2.0
  0
INSERT
  5
3FE4
330
3FDD
100
AcDbEntity
  8
0.5
 62
     0
370
    -2
100
AcDbBlockReference
  2
_DOT
 10
662.7582152411012
 20
305.3159450571848
 30
0.0
 41
2.0
 42
2.0
 43
2.0
 50
180.0
  0
MTEXT
  5
3FE5
330
3FDD
100
AcDbEntity
  8
0.5
 62
     0
100
AcDbMText
 10
702.1618712398316
 20
310.8159450571848
 30
0.0
 40
5.0
 41
0.0
 46
0.0
 71
     5
 72
     1
  1
\A1;76
  7
ＭＳ ゴシック
 73
     1
 44
0.96
  0
POINT
  5
3FE6
330
3FDD
100
AcDbEntity
  8
Defpoints
 62
     0
100
AcDbPoint
 10
738.7582152386516
 20
392.8801310543625
 30
0.0
  0
POINT
  5
3FE7
330
3FDD
100
AcDbEntity
  8
Defpoints
 62
     0
100
AcDbPoint
 10
662.7582152411012
 20
392.8801310543625
 30
0.0
  0
POINT
  5
3FE8
330
3FDD
100
AcDbEntity
  8
Defpoints
 62
     0
100
AcDbPoint
 10
662.7582152411012
 20
305.3159450571848
 30
0.0
  0
ENDBLK
  5
3FDF
330
3FDD
100
AcDbEntity
  8
0
100
AcDbBlockEnd
  0
BLOCK
  5
3FEA
330
3FE9
100
AcDbEntity
  8
0
100
AcDbBlockBegin
  2
*D37
 70
     1
 10
0.0
 20
0.0
 30
0.0
  3
*D37
  1

  0
LINE
  5
3FEC
330
3FE9
100
AcDbEntity
  8
0.5
  6
Continuous
 62
     0
370
    -2
100
AcDbLine
 10
705.769641239876
 20
354.8801370555875
 30
0.0
 11
797.5337332367575
 21
354.8801370555875
 31
0.0
  0
LINE
  5
3FED
330
3FE9
100
AcDbEntity
  8
0.5
  6
Continuous
 62
     0
370
    -2
100
AcDbLine
 10
851.928445234843
 20
446.8801370526222
 30
0.0
 11
797.5337332367575
 21
446.8801370526222
 31
0.0
  0
LINE
  5
3FEE
330
3FE9
100
AcDbEntity
  8
0.5
  6
Continuous
 62
     0
370
    -2
100
AcDbLine
 10
797.5337332367575
 20
356.8801370555875
 30
0.0
 11
797.5337332367575
 21
444.8801370526222
 31
0.0
  0
INSERT
  5
3FEF
330
3FE9
100
AcDbEntity
  8
0.5
 62
     0
370
    -2
100
AcDbBlockReference
  2
_DOT
 10
797.5337332367575
 20
354.8801370555875
 30
0.0
 41
2.0
 42
2.0
 43
2.0
 50
270.0
  0
INSERT
  5
3FF0
330
3FE9
100
AcDbEntity
  8
0.5
 62
     0
370
    -2
100
AcDbBlockReference
  2
_DOT
 10
797.5337332367575
 20
446.8801370526222
 30
0.0
 41
2.0
 42
2.0
 43
2.0
 50
90.0
  0
MTEXT
  5
3FF1
330
3FE9
100
AcDbEntity
  8
0.5
 62
     0
100
AcDbMText
 10
791.6162332367575
 20
398.2034790541908
 30
0.0
 40
5.0
 41
0.0
 46
0.0
 71
     5
 72
     1
  1
\A1;\A1;(92)
  7
ＭＳ ゴシック
 11
0.0
 21
1.0
 31
0.0
 73
     1
 44
0.96
  0
POINT
  5
3FF2
330
3FE9
100
AcDbEntity
  8
Defpoints
 62
     0
100
AcDbPoint
 10
700.769641239876
 20
354.8801370555875
 30
0.0
  0
POINT
  5
3FF3
330
3FE9
100
AcDbEntity
  8
Defpoints
 62
     0
100
AcDbPoint
 10
856.928445234843
 20
446.8801370526222
 30
0.0
  0
POINT
  5
403F
330
3FE9
100
AcDbEntity
  8
Defpoints
 62
     0
100
AcDbPoint
 10
797.5337332367575
 20
446.8801370526222
 30
0.0
  0
ENDBLK
  5
3FEB
330
3FE9
100
AcDbEntity
  8
0
100
AcDbBlockEnd
  0
BLOCK
  5
3FF5
330
3FF4
100
AcDbEntity
  8
0
100
AcDbBlockBegin
  2
*D38
 70
     1
 10
0.0
 20
0.0
 30
0.0
  3
*D38
  1

  0
LINE
  5
3FF7
330
3FF4
100
AcDbEntity
  8
0.5
  6
Continuous
 62
     0
370
    -2
100
AcDbLine
 10
638.7582152418751
 20
489.9176390513959
 30
0.0
 11
638.7582152418751
 21
512.1685850505175
 31
0.0
  0
LINE
  5
3FF8
330
3FF4
100
AcDbEntity
  8
0.5
  6
Continuous
 62
     0
370
    -2
100
AcDbLine
 10
686.7582152403276
 20
489.9176390513959
 30
0.0
 11
686.7582152403276
 21
512.1685850505175
 31
0.0
  0
LINE
  5
3FF9
330
3FF4
100
AcDbEntity
  8
0.5
  6
Continuous
 62
     0
370
    -2
100
AcDbLine
 10
640.7582152418751
 20
512.1685850505175
 30
0.0
 11
684.7582152403276
 21
512.1685850505175
 31
0.0
  0
INSERT
  5
3FFA
330
3FF4
100
AcDbEntity
  8
0.5
 62
     0
370
    -2
100
AcDbBlockReference
  2
_DOT
 10
638.7582152418751
 20
512.1685850505175
 30
0.0
 41
2.0
 42
2.0
 43
2.0
 50
180.0
  0
INSERT
  5
3FFB
330
3FF4
100
AcDbEntity
  8
0.5
 62
     0
370
    -2
100
AcDbBlockReference
  2
_DOT
 10
686.7582152403276
 20
512.1685850505175
 30
0.0
 41
2.0
 42
2.0
 43
2.0
  0
MTEXT
  5
3FFC
330
3FF4
100
AcDbEntity
  8
0.5
 62
     0
100
AcDbMText
 10
662.7582152411012
 20
518.1385850505176
 30
0.0
 40
5.0
 41
0.0
 46
0.0
 71
     5
 72
     1
  1
\A1;\A1;六角対辺43.0
  7
ＭＳ ゴシック
 73
     1
 44
0.96
  0
POINT
  5
3FFD
330
3FF4
100
AcDbEntity
  8
Defpoints
 62
     0
100
AcDbPoint
 10
638.7582152418751
 20
484.9176390513959
 30
0.0
  0
POINT
  5
3FFE
330
3FF4
100
AcDbEntity
  8
Defpoints
 62
     0
100
AcDbPoint
 10
686.7582152403276
 20
484.9176390513959
 30
0.0
  0
POINT
  5
3FFF
330
3FF4
100
AcDbEntity
  8
Defpoints
 62
     0
100
AcDbPoint
 10
686.7582152403276
 20
512.1685850505175
 30
0.0
  0
ENDBLK
  5
3FF6
330
3FF4
100
AcDbEntity
  8
0
100
AcDbBlockEnd
  0
BLOCK
  5
4001
330
4000
100
AcDbEntity
  8
0
100
AcDbBlockBegin
  2
*D39
 70
     1
 10
0.0
 20
0.0
 30
0.0
  3
*D39
  1

  0
LINE
  5
4003
330
4000
100
AcDbEntity
  8
0.5
  6
Continuous
 62
     0
370
    -2
100
AcDbLine
 10
714.7582152394252
 20
406.5801410540821
 30
0.0
 11
714.7582152394252
 21
475.7446230516918
 31
0.0
  0
LINE
  5
4004
330
4000
100
AcDbEntity
  8
0.5
  6
Continuous
 62
     0
370
    -2
100
AcDbLine
 10
762.758215237878
 20
406.5801410540821
 30
0.0
 11
762.758215237878
 21
475.7446230516918
 31
0.0
  0
LINE
  5
4005
330
4000
100
AcDbEntity
  8
0.5
  6
Continuous
 62
     0
370
    -2
100
AcDbLine
 10
716.7582152394252
 20
475.7446230516918
 30
0.0
 11
760.758215237878
 21
475.7446230516918
 31
0.0
  0
INSERT
  5
4006
330
4000
100
AcDbEntity
  8
0.5
 62
     0
370
    -2
100
AcDbBlockReference
  2
_DOT
 10
714.7582152394252
 20
475.7446230516918
 30
0.0
 41
2.0
 42
2.0
 43
2.0
 50
180.0
  0
INSERT
  5
4007
330
4000
100
AcDbEntity
  8
0.5
 62
     0
370
    -2
100
AcDbBlockReference
  2
_DOT
 10
762.758215237878
 20
475.7446230516918
 30
0.0
 41
2.0
 42
2.0
 43
2.0
  0
MTEXT
  5
4008
330
4000
100
AcDbEntity
  8
0.5
 62
     0
100
AcDbMText
 10
740.3189092386016
 20
481.7146230516918
 30
0.0
 40
5.0
 41
0.0
 46
0.0
 71
     5
 72
     1
  1
\A1;\A1;六角対辺43.0
  7
ＭＳ ゴシック
 73
     1
 44
0.96
  0
POINT
  5
4009
330
4000
100
AcDbEntity
  8
Defpoints
 62
     0
100
AcDbPoint
 10
714.7582152394252
 20
401.5801410540821
 30
0.0
  0
POINT
  5
400A
330
4000
100
AcDbEntity
  8
Defpoints
 62
     0
100
AcDbPoint
 10
762.758215237878
 20
401.5801410540821
 30
0.0
  0
POINT
  5
400B
330
4000
100
AcDbEntity
  8
Defpoints
 62
     0
100
AcDbPoint
 10
762.758215237878
 20
475.7446230516918
 30
0.0
  0
ENDBLK
  5
4002
330
4000
100
AcDbEntity
  8
0
100
AcDbBlockEnd
  0
BLOCK
  5
400D
330
400C
100
AcDbEntity
  8
0
100
AcDbBlockBegin
  2
*D40
 70
     1
 10
0.0
 20
0.0
 30
0.0
  3
*D40
  1

  0
LINE
  5
400F
330
400C
100
AcDbEntity
  8
0.5
  6
Continuous
 62
     0
370
    -2
100
AcDbLine
 10
896.3580312337333
 20
479.8801370515586
 30
0.0
 11
959.3914632315401
 21
479.8801370515586
 31
0.0
  0
LINE
  5
4010
330
400C
100
AcDbEntity
  8
0.5
  6
Continuous
 62
     0
370
    -2
100
AcDbLine
 10
896.3580312337333
 20
413.8801370536858
 30
0.0
 11
959.3914632315401
 21
413.8801370536858
 31
0.0
  0
LINE
  5
4011
330
400C
100
AcDbEntity
  8
0.5
  6
Continuous
 62
     0
370
    -2
100
AcDbLine
 10
959.3914632315401
 20
477.8801370515586
 30
0.0
 11
959.3914632315401
 21
415.8801370536858
 31
0.0
  0
INSERT
  5
4012
330
400C
100
AcDbEntity
  8
0.5
 62
     0
370
    -2
100
AcDbBlockReference
  2
_DOT
 10
959.3914632315401
 20
479.8801370515586
 30
0.0
 41
2.0
 42
2.0
 43
2.0
 50
90.0
  0
INSERT
  5
4013
330
400C
100
AcDbEntity
  8
0.5
 62
     0
370
    -2
100
AcDbBlockReference
  2
_DOT
 10
959.3914632315401
 20
413.8801370536858
 30
0.0
 41
2.0
 42
2.0
 43
2.0
 50
270.0
  0
MTEXT
  5
4014
330
400C
100
AcDbEntity
  8
0.5
 62
     0
100
AcDbMText
 10
953.8914632315401
 20
448.459595052571
 30
0.0
 40
5.0
 41
0.0
 46
0.0
 71
     5
 72
     1
  1
\A1;\A1;∅66
  7
ＭＳ ゴシック
 11
0.0
 21
1.0
 31
0.0
 73
     1
 44
0.96
  0
POINT
  5
4015
330
400C
100
AcDbEntity
  8
Defpoints
 62
     0
100
AcDbPoint
 10
891.3580312337333
 20
479.8801370515586
 30
0.0
  0
POINT
  5
4016
330
400C
100
AcDbEntity
  8
Defpoints
 62
     0
100
AcDbPoint
 10
891.3580312337333
 20
413.8801370536858
 30
0.0
  0
POINT
  5
4017
330
400C
100
AcDbEntity
  8
Defpoints
 62
     0
100
AcDbPoint
 10
959.3914632315401
 20
413.8801370536858
 30
0.0
  0
ENDBLK
  5
400E
330
400C
100
AcDbEntity
  8
0
100
AcDbBlockEnd
  0
BLOCK
  5
4019
330
4018
100
AcDbEntity
  8
0
100
AcDbBlockBegin
  2
*D41
 70
     1
 10
0.0
 20
0.0
 30
0.0
  3
*D41
  1

  0
LINE
  5
401B
330
4018
100
AcDbEntity
  8
0.5
  6
Continuous
 62
     0
370
    -2
100
AcDbLine
 10
640.958215241643
 20
432.8801370530734
 30
0.0
 11
625.0662312423162
 21
432.8801370530734
 31
0.0
  0
LINE
  5
401C
330
4018
100
AcDbEntity
  8
0.5
  6
Continuous
 62
     0
370
    -2
100
AcDbLine
 10
654.7582132411982
 20
484.8801370513974
 30
0.0
 11
625.0662312423162
 21
484.8801370513974
 31
0.0
  0
LINE
  5
401D
330
4018
100
AcDbEntity
  8
0.5
  6
Continuous
 62
     0
370
    -2
100
AcDbLine
 10
625.0662312423162
 20
434.8801370530734
 30
0.0
 11
625.0662312423162
 21
482.8801370513974
 31
0.0
  0
INSERT
  5
401E
330
4018
100
AcDbEntity
  8
0.5
 62
     0
370
    -2
100
AcDbBlockReference
  2
_DOT
 10
625.0662312423162
 20
432.8801370530734
 30
0.0
 41
2.0
 42
2.0
 43
2.0
 50
270.0
  0
INSERT
  5
401F
330
4018
100
AcDbEntity
  8
0.5
 62
     0
370
    -2
100
AcDbBlockReference
  2
_DOT
 10
625.0662312423162
 20
484.8801370513974
 30
0.0
 41
2.0
 42
2.0
 43
2.0
 50
90.0
  0
MTEXT
  5
4020
330
4018
100
AcDbEntity
  8
0.5
 62
     0
100
AcDbMText
 10
619.1487312423162
 20
458.8801370522354
 30
0.0
 40
5.0
 41
0.0
 46
0.0
 71
     5
 72
     1
  1
\A1;\A1;(52)
  7
ＭＳ ゴシック
 11
0.0
 21
1.0
 31
0.0
 73
     1
 44
0.96
  0
POINT
  5
4021
330
4018
100
AcDbEntity
  8
Defpoints
 62
     0
100
AcDbPoint
 10
645.958215241643
 20
432.8801370530734
 30
0.0
  0
POINT
  5
4022
330
4018
100
AcDbEntity
  8
Defpoints
 62
     0
100
AcDbPoint
 10
659.7582132411982
 20
484.8801370513974
 30
0.0
  0
POINT
  5
4040
330
4018
100
AcDbEntity
  8
Defpoints
 62
     0
100
AcDbPoint
 10
625.0662312423162
 20
484.8801370513974
 30
0.0
  0
ENDBLK
  5
401A
330
4018
100
AcDbEntity
  8
0
100
AcDbBlockEnd
  0
BLOCK
  5
4024
330
4023
100
AcDbEntity
  8
0
100
AcDbBlockBegin
  2
*D42
 70
     1
 10
0.0
 20
0.0
 30
0.0
  3
*D42
  1

  0
LINE
  5
4026
330
4023
100
AcDbEntity
  8
0.5
  6
Continuous
 62
     0
370
    -2
100
AcDbLine
 10
695.7582172398767
 20
354.8801370555875
 30
0.0
 11
610.2979652427923
 21
354.8801370555875
 31
0.0
  0
LINE
  5
4027
330
4023
100
AcDbEntity
  8
0.5
  6
Continuous
 62
     0
370
    -2
100
AcDbLine
 10
633.7353632418757
 20
484.8801370513974
 30
0.0
 11
610.2979652427923
 21
484.8801370513974
 31
0.0
  0
LINE
  5
4028
330
4023
100
AcDbEntity
  8
0.5
  6
Continuous
 62
     0
370
    -2
100
AcDbLine
 10
610.2979652427923
 20
356.8801370555875
 30
0.0
 11
610.2979652427923
 21
482.8801370513974
 31
0.0
  0
INSERT
  5
4029
330
4023
100
AcDbEntity
  8
0.5
 62
     0
370
    -2
100
AcDbBlockReference
  2
_DOT
 10
610.2979652427923
 20
354.8801370555875
 30
0.0
 41
2.0
 42
2.0
 43
2.0
 50
270.0
  0
INSERT
  5
402A
330
4023
100
AcDbEntity
  8
0.5
 62
     0
370
    -2
100
AcDbBlockReference
  2
_DOT
 10
610.2979652427923
 20
484.8801370513974
 30
0.0
 41
2.0
 42
2.0
 43
2.0
 50
90.0
  0
MTEXT
  5
402B
330
4023
100
AcDbEntity
  8
0.5
 62
     0
100
AcDbMText
 10
604.3804652427923
 20
425.2129930533205
 30
0.0
 40
5.0
 41
0.0
 46
0.0
 71
     5
 72
     1
  1
\A1;\A1;(130)
  7
ＭＳ ゴシック
 11
0.0
 21
1.0
 31
0.0
 73
     1
 44
0.96
  0
POINT
  5
402C
330
4023
100
AcDbEntity
  8
Defpoints
 62
     0
100
AcDbPoint
 10
700.7582172398767
 20
354.8801370555875
 30
0.0
  0
POINT
  5
402D
330
4023
100
AcDbEntity
  8
Defpoints
 62
     0
100
AcDbPoint
 10
638.7353632418757
 20
484.8801370513974
 30
0.0
  0
POINT
  5
402E
330
4023
100
AcDbEntity
  8
Defpoints
 62
     0
100
AcDbPoint
 10
610.2979652427923
 20
484.8801370513974
 30
0.0
  0
ENDBLK
  5
4025
330
4023
100
AcDbEntity
  8
0
100
AcDbBlockEnd
  0
BLOCK
  5
4033
330
4032
100
AcDbEntity
  8
0
100
AcDbBlockBegin
  2
*D43
 70
     1
 10
0.0
 20
0.0
 30
0.0
  3
*D43
  1

  0
LINE
  5
4035
330
4032
100
AcDbEntity
  8
DIM
 62
     0
370
    -2
100
AcDbLine
 10
746.9334492440105
 20
188.7713148162203
 30
0.0
 11
746.9334492440105
 21
163.7141006277398
 31
0.0
  0
LINE
  5
4036
330
4032
100
AcDbEntity
  8
DIM
 62
     0
370
    -2
100
AcDbLine
 10
655.6335372440103
 20
192.6850145803454
 30
0.0
 11
655.6335372440103
 21
163.7141006277398
 31
0.0
  0
LINE
  5
4037
330
4032
100
AcDbEntity
  8
DIM
 62
     0
370
    -2
100
AcDbLine
 10
744.9334492440105
 20
163.7141006277398
 30
0.0
 11
657.6335372440103
 21
163.7141006277398
 31
0.0
  0
INSERT
  5
4038
330
4032
100
AcDbEntity
  8
DIM
 62
     0
370
    -2
100
AcDbBlockReference
  2
_DOT
 10
746.9334492440105
 20
163.7141006277398
 30
0.0
 41
2.0
 42
2.0
 43
2.0
  0
INSERT
  5
4039
330
4032
100
AcDbEntity
  8
DIM
 62
     0
370
    -2
100
AcDbBlockReference
  2
_DOT
 10
655.6335372440103
 20
163.7141006277398
 30
0.0
 41
2.0
 42
2.0
 43
2.0
 50
180.0
  0
MTEXT
  5
403A
330
4032
100
AcDbEntity
  8
DIM
 62
     0
100
AcDbMText
 10
701.2834932440104
 20
169.2141006277398
 30
0.0
 40
5.0
 41
0.0
 46
0.0
 71
     5
 72
     1
  1
\A1;91
  7
ＭＳ ゴシック
 73
     1
 44
1.0
  0
POINT
  5
403B
330
4032
100
AcDbEntity
  8
Defpoints
 62
     0
100
AcDbPoint
 10
746.9334492440105
 20
193.7713148162203
 30
0.0
  0
POINT
  5
403C
330
4032
100
AcDbEntity
  8
Defpoints
 62
     0
100
AcDbPoint
 10
655.6335372440103
 20
197.6850145803454
 30
0.0
  0
POINT
  5
403D
330
4032
100
AcDbEntity
  8
Defpoints
 62
     0
100
AcDbPoint
 10
655.6335372440103
 20
163.7141006277398
 30
0.0
  0
ENDBLK
  5
4034
330
4032
100
AcDbEntity
  8
0
100
AcDbBlockEnd
  0
BLOCK
  5
4045
330
4044
100
AcDbEntity
  8
0
100
AcDbBlockBegin
  2
*D44
 70
     1
 10
0.0
 20
0.0
 30
0.0
  3
*D44
  1

  0
LINE
  5
4047
330
4044
100
AcDbEntity
  8
DIM
 62
     0
370
    -2
100
AcDbLine
 10
662.7446490054074
 20
321.0685332484857
 30
0.0
 11
662.7446490054074
 21
288.1113520989963
 31
0.0
  0
LINE
  5
4048
330
4044
100
AcDbEntity
  8
DIM
 62
     0
370
    -2
100
AcDbLine
 10
738.7446490054074
 20
321.0685332484857
 30
0.0
 11
738.7446490054074
 21
288.1113520989963
 31
0.0
  0
LINE
  5
4049
330
4044
100
AcDbEntity
  8
DIM
 62
     0
370
    -2
100
AcDbLine
 10
664.7446490054074
 20
288.1113520989963
 30
0.0
 11
736.7446490054074
 21
288.1113520989963
 31
0.0
  0
INSERT
  5
404A
330
4044
100
AcDbEntity
  8
DIM
 62
     0
370
    -2
100
AcDbBlockReference
  2
_DOT
 10
662.7446490054074
 20
288.1113520989963
 30
0.0
 41
2.0
 42
2.0
 43
2.0
 50
180.0
  0
INSERT
  5
404B
330
4044
100
AcDbEntity
  8
DIM
 62
     0
370
    -2
100
AcDbBlockReference
  2
_DOT
 10
738.7446490054074
 20
288.1113520989963
 30
0.0
 41
2.0
 42
2.0
 43
2.0
  0
MTEXT
  5
404C
330
4044
100
AcDbEntity
  8
DIM
 62
     0
100
AcDbMText
 10
700.7446490054074
 20
293.6113520989963
 30
0.0
 40
5.0
 41
0.0
 46
0.0
 71
     5
 72
     1
  1
\A1;76
  7
ＭＳ ゴシック
 73
     1
 44
1.0
  0
POINT
  5
404D
330
4044
100
AcDbEntity
  8
Defpoints
 62
     0
100
AcDbPoint
 10
662.7446490054074
 20
326.0685332484857
 30
0.0
  0
POINT
  5
404E
330
4044
100
AcDbEntity
  8
Defpoints
 62
     0
100
AcDbPoint
 10
738.7446490054074
 20
326.0685332484857
 30
0.0
  0
POINT
  5
404F
330
4044
100
AcDbEntity
  8
Defpoints
 62
     0
100
AcDbPoint
 10
738.7446490054074
 20
288.1113520989963
 30
0.0
  0
ENDBLK
  5
4046
330
4044
100
AcDbEntity
  8
0
100
AcDbBlockEnd
  0
BLOCK
  5
40A4
330
40A3
100
AcDbEntity
  8
0
100
AcDbBlockBegin
  2
*D45
 70
     1
 10
0.0
 20
0.0
 30
0.0
  3
*D45
  1

  0
LINE
  5
40A6
330
40A3
100
AcDbEntity
  8
DIM
 62
     0
370
    -2
100
AcDbLine
 10
358.1009085259393
 20
345.0797191605776
 30
0.0
 11
373.0664945252955
 21
345.0797191605776
 31
0.0
  0
LINE
  5
40A7
330
40A3
100
AcDbEntity
  8
DIM
 62
     0
370
    -2
100
AcDbLine
 10
358.1009085259393
 20
313.3297191616007
 30
0.0
 11
373.0664945252955
 21
313.3297191616007
 31
0.0
  0
LINE
  5
40A8
330
40A3
100
AcDbEntity
  8
DIM
 62
     0
370
    -2
100
AcDbLine
 10
373.0664945252955
 20
345.0797191605776
 30
0.0
 11
373.0664945252955
 21
393.9018331594062
 31
0.0
  0
LINE
  5
40A9
330
40A3
100
AcDbEntity
  8
DIM
 62
     0
370
    -2
100
AcDbLine
 10
373.0664945252955
 20
343.0797191605776
 30
0.0
 11
373.0664945252955
 21
315.3297191616007
 31
0.0
  0
LINE
  5
40AA
330
40A3
100
AcDbEntity
  8
DIM
 62
     0
370
    -2
100
AcDbLine
 10
373.0664945252955
 20
343.0797191605776
 30
0.0
 11
373.0664945252955
 21
341.0797191605776
 31
0.0
  0
INSERT
  5
40AB
330
40A3
100
AcDbEntity
  8
DIM
 62
     0
370
    -2
100
AcDbBlockReference
  2
_DOT
 10
373.0664945252955
 20
345.0797191605776
 30
0.0
 41
2.0
 42
2.0
 43
2.0
 50
90.0
  0
INSERT
  5
40AC
330
40A3
100
AcDbEntity
  8
DIM
 62
     0
370
    -2
100
AcDbBlockReference
  2
_DOT
 10
373.0664945252955
 20
313.3297191616007
 30
0.0
 41
2.0
 42
2.0
 43
2.0
 50
270.0
  0
MTEXT
  5
40AD
330
40A3
100
AcDbEntity
  8
DIM
 62
     0
100
AcDbMText
 10
367.5664945252955
 20
381.4068331594062
 30
0.0
 40
5.0
 41
0.0
 46
0.0
 71
     5
 72
     1
  1
\A1;\A1;∅31.75
  7
ＭＳ ゴシック
 11
0.0
 21
1.0
 31
0.0
 73
     1
 44
0.96
  0
POINT
  5
40AE
330
40A3
100
AcDbEntity
  8
Defpoints
 62
     0
100
AcDbPoint
 10
353.1009085259393
 20
345.0797191605776
 30
0.0
  0
POINT
  5
40AF
330
40A3
100
AcDbEntity
  8
Defpoints
 62
     0
100
AcDbPoint
 10
353.1009085259393
 20
313.3297191616007
 30
0.0
  0
POINT
  5
40B0
330
40A3
100
AcDbEntity
  8
Defpoints
 62
     0
100
AcDbPoint
 10
373.0664945252955
 20
313.3297191616007
 30
0.0
  0
ENDBLK
  5
40A5
330
40A3
100
AcDbEntity
  8
0
100
AcDbBlockEnd
  0
BLOCK
  5
40B2
330
40B1
100
AcDbEntity
  8
0
100
AcDbBlockBegin
  2
*D46
 70
     1
 10
0.0
 20
0.0
 30
0.0
  3
*D46
  1

  0
LINE
  5
40B4
330
40B1
100
AcDbEntity
  8
DIM
 62
     0
370
    -2
100
AcDbLine
 10
353.1009085259393
 20
308.3297131616005
 30
0.0
 11
353.1009085259393
 21
187.6405271656517
 31
0.0
  0
LINE
  5
40B5
330
40B1
100
AcDbEntity
  8
DIM
 62
     0
370
    -2
100
AcDbLine
 10
170.512510531824
 20
270.2047131628294
 30
0.0
 11
170.512510531824
 21
187.6405271656517
 31
0.0
  0
LINE
  5
40B6
330
40B1
100
AcDbEntity
  8
DIM
 62
     0
370
    -2
100
AcDbLine
 10
351.1009085259393
 20
187.6405271656517
 30
0.0
 11
172.512510531824
 21
187.6405271656517
 31
0.0
  0
INSERT
  5
40B7
330
40B1
100
AcDbEntity
  8
DIM
 62
     0
370
    -2
100
AcDbBlockReference
  2
_DOT
 10
353.1009085259393
 20
187.6405271656517
 30
0.0
 41
2.0
 42
2.0
 43
2.0
  0
INSERT
  5
40B8
330
40B1
100
AcDbEntity
  8
DIM
 62
     0
370
    -2
100
AcDbBlockReference
  2
_DOT
 10
170.512510531824
 20
187.6405271656517
 30
0.0
 41
2.0
 42
2.0
 43
2.0
 50
180.0
  0
MTEXT
  5
40B9
330
40B1
100
AcDbEntity
  8
DIM
 62
     0
100
AcDbMText
 10
261.8067105288817
 20
193.1405271656517
 30
0.0
 40
5.0
 41
0.0
 46
0.0
 71
     5
 72
     1
  1
\A1;350
  7
ＭＳ ゴシック
 73
     1
 44
0.96
  0
POINT
  5
40BA
330
40B1
100
AcDbEntity
  8
Defpoints
 62
     0
100
AcDbPoint
 10
353.1009085259393
 20
313.3297131616005
 30
0.0
  0
POINT
  5
40BB
330
40B1
100
AcDbEntity
  8
Defpoints
 62
     0
100
AcDbPoint
 10
170.512510531824
 20
275.2047131628294
 30
0.0
  0
POINT
  5
40BC
330
40B1
100
AcDbEntity
  8
Defpoints
 62
     0
100
AcDbPoint
 10
170.512510531824
 20
187.6405271656517
 30
0.0
  0
ENDBLK
  5
40B3
330
40B1
100
AcDbEntity
  8
0
100
AcDbBlockEnd
  0
BLOCK
  5
40BE
330
40BD
100
AcDbEntity
  8
0
100
AcDbBlockBegin
  2
*D47
 70
     1
 10
0.0
 20
0.0
 30
0.0
  3
*D47
  1

  0
LINE
  5
40C0
330
40BD
100
AcDbEntity
  8
DIM
 62
     0
370
    -2
100
AcDbLine
 10
170.5010845318244
 20
270.2047131628294
 30
0.0
 11
170.5010845318244
 21
187.6405271656517
 31
0.0
  0
LINE
  5
40C1
330
40BD
100
AcDbEntity
  8
DIM
 62
     0
370
    -2
100
AcDbLine
 10
94.50108453427401
 20
270.2047131628294
 30
0.0
 11
94.50108453427401
 21
187.6405271656517
 31
0.0
  0
LINE
  5
40C2
330
40BD
100
AcDbEntity
  8
DIM
 62
     0
370
    -2
100
AcDbLine
 10
168.5010845318244
 20
187.6405271656517
 30
0.0
 11
96.50108453427401
 21
187.6405271656517
 31
0.0
  0
INSERT
  5
40C3
330
40BD
100
AcDbEntity
  8
DIM
 62
     0
370
    -2
100
AcDbBlockReference
  2
_DOT
 10
170.5010845318244
 20
187.6405271656517
 30
0.0
 41
2.0
 42
2.0
 43
2.0
  0
INSERT
  5
40C4
330
40BD
100
AcDbEntity
  8
DIM
 62
     0
370
    -2
100
AcDbBlockReference
  2
_DOT
 10
94.50108453427401
 20
187.6405271656517
 30
0.0
 41
2.0
 42
2.0
 43
2.0
 50
180.0
  0
MTEXT
  5
40C5
330
40BD
100
AcDbEntity
  8
DIM
 62
     0
100
AcDbMText
 10
133.9047405330044
 20
193.1405271656517
 30
0.0
 40
5.0
 41
0.0
 46
0.0
 71
     5
 72
     1
  1
\A1;76
  7
ＭＳ ゴシック
 73
     1
 44
0.96
  0
POINT
  5
40C6
330
40BD
100
AcDbEntity
  8
Defpoints
 62
     0
100
AcDbPoint
 10
170.5010845318244
 20
275.2047131628294
 30
0.0
  0
POINT
  5
40C7
330
40BD
100
AcDbEntity
  8
Defpoints
 62
     0
100
AcDbPoint
 10
94.50108453427401
 20
275.2047131628294
 30
0.0
  0
POINT
  5
40C8
330
40BD
100
AcDbEntity
  8
Defpoints
 62
     0
100
AcDbPoint
 10
94.50108453427401
 20
187.6405271656517
 30
0.0
  0
ENDBLK
  5
40BF
330
40BD
100
AcDbEntity
  8
0
100
AcDbBlockEnd
  0
BLOCK
  5
40CA
330
40C9
100
AcDbEntity
  8
0
100
AcDbBlockBegin
  2
*D48
 70
     1
 10
0.0
 20
0.0
 30
0.0
  3
*D48
  1

  0
LINE
  5
40CC
330
40C9
100
AcDbEntity
  8
DIM
 62
     0
370
    -2
100
AcDbLine
 10
137.5125105330488
 20
237.2047191640544
 30
0.0
 11
229.2766025299303
 21
237.2047191640544
 31
0.0
  0
LINE
  5
40CD
330
40C9
100
AcDbEntity
  8
DIM
 62
     0
370
    -2
100
AcDbLine
 10
283.6713145280158
 20
329.204719161089
 30
0.0
 11
229.2766025299303
 21
329.204719161089
 31
0.0
  0
LINE
  5
40CE
330
40C9
100
AcDbEntity
  8
DIM
 62
     0
370
    -2
100
AcDbLine
 10
229.2766025299303
 20
239.2047191640544
 30
0.0
 11
229.2766025299303
 21
327.204719161089
 31
0.0
  0
INSERT
  5
40CF
330
40C9
100
AcDbEntity
  8
DIM
 62
     0
370
    -2
100
AcDbBlockReference
  2
_DOT
 10
229.2766025299303
 20
237.2047191640544
 30
0.0
 41
2.0
 42
2.0
 43
2.0
 50
270.0
  0
INSERT
  5
40D0
330
40C9
100
AcDbEntity
  8
DIM
 62
     0
370
    -2
100
AcDbBlockReference
  2
_DOT
 10
229.2766025299303
 20
329.204719161089
 30
0.0
 41
2.0
 42
2.0
 43
2.0
 50
90.0
  0
MTEXT
  5
40D1
330
40C9
100
AcDbEntity
  8
DIM
 62
     0
100
AcDbMText
 10
223.7766025299303
 20
280.5280611626578
 30
0.0
 40
5.0
 41
0.0
 46
0.0
 71
     5
 72
     1
  1
\A1;92
  7
ＭＳ ゴシック
 11
0.0
 21
1.0
 31
0.0
 73
     1
 44
0.96
  0
POINT
  5
40D2
330
40C9
100
AcDbEntity
  8
Defpoints
 62
     0
100
AcDbPoint
 10
132.5125105330488
 20
237.2047191640544
 30
0.0
  0
POINT
  5
40D3
330
40C9
100
AcDbEntity
  8
Defpoints
 62
     0
100
AcDbPoint
 10
288.6713145280158
 20
329.204719161089
 30
0.0
  0
POINT
  5
40D4
330
40C9
100
AcDbEntity
  8
Defpoints
 62
     0
100
AcDbPoint
 10
229.2766025299303
 20
329.204719161089
 30
0.0
  0
ENDBLK
  5
40CB
330
40C9
100
AcDbEntity
  8
0
100
AcDbBlockEnd
  0
BLOCK
  5
40D6
330
40D5
100
AcDbEntity
  8
0
100
AcDbBlockBegin
  2
*D49
 70
     1
 10
0.0
 20
0.0
 30
0.0
  3
*D49
  1

  0
LINE
  5
40D8
330
40D5
100
AcDbEntity
  8
DIM
 62
     0
370
    -2
100
AcDbLine
 10
70.50108453504787
 20
378.9570125829184
 30
0.0
 11
70.50108453504787
 21
393.9677306394013
 31
0.0
  0
LINE
  5
40D9
330
40D5
100
AcDbEntity
  8
DIM
 62
     0
370
    -2
100
AcDbLine
 10
118.5010845335003
 20
378.9570125829184
 30
0.0
 11
118.5010845335003
 21
393.9677306394013
 31
0.0
  0
LINE
  5
40DA
330
40D5
100
AcDbEntity
  8
DIM
 62
     0
370
    -2
100
AcDbLine
 10
72.50108453504787
 20
393.9677306394013
 30
0.0
 11
116.5010845335003
 21
393.9677306394013
 31
0.0
  0
INSERT
  5
40DB
330
40D5
100
AcDbEntity
  8
DIM
 62
     0
370
    -2
100
AcDbBlockReference
  2
_DOT
 10
70.50108453504787
 20
393.9677306394013
 30
0.0
 41
2.0
 42
2.0
 43
2.0
 50
180.0
  0
INSERT
  5
40DC
330
40D5
100
AcDbEntity
  8
DIM
 62
     0
370
    -2
100
AcDbBlockReference
  2
_DOT
 10
118.5010845335003
 20
393.9677306394013
 30
0.0
 41
2.0
 42
2.0
 43
2.0
  0
MTEXT
  5
40DD
330
40D5
100
AcDbEntity
  8
DIM
 62
     0
100
AcDbMText
 10
94.50108453427397
 20
399.9377306394013
 30
0.0
 40
5.0
 41
0.0
 46
0.0
 71
     5
 72
     1
  1
\A1;\A1;六角対辺43
  7
ＭＳ ゴシック
 73
     1
 44
0.96
  0
POINT
  5
40DE
330
40D5
100
AcDbEntity
  8
Defpoints
 62
     0
100
AcDbPoint
 10
70.50108453504787
 20
373.9570125829184
 30
0.0
  0
POINT
  5
40DF
330
40D5
100
AcDbEntity
  8
Defpoints
 62
     0
100
AcDbPoint
 10
118.5010845335003
 20
373.9570125829184
 30
0.0
  0
POINT
  5
40E0
330
40D5
100
AcDbEntity
  8
Defpoints
 62
     0
100
AcDbPoint
 10
118.5010845335003
 20
393.9677306394013
 30
0.0
  0
ENDBLK
  5
40D7
330
40D5
100
AcDbEntity
  8
0
100
AcDbBlockEnd
  0
BLOCK
  5
40E2
330
40E1
100
AcDbEntity
  8
0
100
AcDbBlockBegin
  2
*D50
 70
     1
 10
0.0
 20
0.0
 30
0.0
  3
*D50
  1

  0
LINE
  5
40E4
330
40E1
100
AcDbEntity
  8
DIM
 62
     0
370
    -2
100
AcDbLine
 10
146.501084532598
 20
297.4273430403398
 30
0.0
 11
146.501084532598
 21
359.1024674987942
 31
0.0
  0
LINE
  5
40E5
330
40E1
100
AcDbEntity
  8
DIM
 62
     0
370
    -2
100
AcDbLine
 10
194.5010845310507
 20
297.4273430403398
 30
0.0
 11
194.5010845310507
 21
359.1024674987942
 31
0.0
  0
LINE
  5
40E6
330
40E1
100
AcDbEntity
  8
DIM
 62
     0
370
    -2
100
AcDbLine
 10
148.501084532598
 20
359.1024674987942
 30
0.0
 11
192.5010845310507
 21
359.1024674987942
 31
0.0
  0
INSERT
  5
40E7
330
40E1
100
AcDbEntity
  8
DIM
 62
     0
370
    -2
100
AcDbBlockReference
  2
_DOT
 10
146.501084532598
 20
359.1024674987942
 30
0.0
 41
2.0
 42
2.0
 43
2.0
 50
180.0
  0
INSERT
  5
40E8
330
40E1
100
AcDbEntity
  8
DIM
 62
     0
370
    -2
100
AcDbBlockReference
  2
_DOT
 10
194.5010845310507
 20
359.1024674987942
 30
0.0
 41
2.0
 42
2.0
 43
2.0
  0
MTEXT
  5
40E9
330
40E1
100
AcDbEntity
  8
DIM
 62
     0
100
AcDbMText
 10
172.0617785317743
 20
365.0724674987943
 30
0.0
 40
5.0
 41
0.0
 46
0.0
 71
     5
 72
     1
  1
\A1;\A1;六角対辺43
  7
ＭＳ ゴシック
 73
     1
 44
0.96
  0
POINT
  5
40EA
330
40E1
100
AcDbEntity
  8
Defpoints
 62
     0
100
AcDbPoint
 10
146.501084532598
 20
292.4273430403398
 30
0.0
  0
POINT
  5
40EB
330
40E1
100
AcDbEntity
  8
Defpoints
 62
     0
100
AcDbPoint
 10
194.5010845310507
 20
292.4273430403398
 30
0.0
  0
POINT
  5
40EC
330
40E1
100
AcDbEntity
  8
Defpoints
 62
     0
100
AcDbPoint
 10
194.5010845310507
 20
359.1024674987942
 30
0.0
  0
ENDBLK
  5
40E3
330
40E1
100
AcDbEntity
  8
0
100
AcDbBlockEnd
  0
BLOCK
  5
40EE
330
40ED
100
AcDbEntity
  8
0
100
AcDbBlockBegin
  2
*D51
 70
     1
 10
0.0
 20
0.0
 30
0.0
  3
*D51
  1

  0
LINE
  5
40F0
330
40ED
100
AcDbEntity
  8
DIM
 62
     0
370
    -2
100
AcDbLine
 10
328.1009005269061
 20
362.2047191600254
 30
0.0
 11
391.1343325247129
 21
362.2047191600254
 31
0.0
  0
LINE
  5
40F1
330
40ED
100
AcDbEntity
  8
DIM
 62
     0
370
    -2
100
AcDbLine
 10
328.1009005269061
 20
296.2047191621527
 30
0.0
 11
391.1343325247129
 21
296.2047191621527
 31
0.0
  0
LINE
  5
40F2
330
40ED
100
AcDbEntity
  8
DIM
 62
     0
370
    -2
100
AcDbLine
 10
391.1343325247129
 20
360.2047191600254
 30
0.0
 11
391.1343325247129
 21
298.2047191621527
 31
0.0
  0
INSERT
  5
40F3
330
40ED
100
AcDbEntity
  8
DIM
 62
     0
370
    -2
100
AcDbBlockReference
  2
_DOT
 10
391.1343325247129
 20
362.2047191600254
 30
0.0
 41
2.0
 42
2.0
 43
2.0
 50
90.0
  0
INSERT
  5
40F4
330
40ED
100
AcDbEntity
  8
DIM
 62
     0
370
    -2
100
AcDbBlockReference
  2
_DOT
 10
391.1343325247129
 20
296.2047191621527
 30
0.0
 41
2.0
 42
2.0
 43
2.0
 50
270.0
  0
MTEXT
  5
40F5
330
40ED
100
AcDbEntity
  8
DIM
 62
     0
100
AcDbMText
 10
385.6343325247129
 20
330.7841771610379
 30
0.0
 40
5.0
 41
0.0
 46
0.0
 71
     5
 72
     1
  1
\A1;\A1;∅66
  7
ＭＳ ゴシック
 11
0.0
 21
1.0
 31
0.0
 73
     1
 44
0.96
  0
POINT
  5
40F6
330
40ED
100
AcDbEntity
  8
Defpoints
 62
     0
100
AcDbPoint
 10
323.1009005269061
 20
362.2047191600254
 30
0.0
  0
POINT
  5
40F7
330
40ED
100
AcDbEntity
  8
Defpoints
 62
     0
100
AcDbPoint
 10
323.1009005269061
 20
296.2047191621527
 30
0.0
  0
POINT
  5
40F8
330
40ED
100
AcDbEntity
  8
Defpoints
 62
     0
100
AcDbPoint
 10
391.1343325247129
 20
296.2047191621527
 30
0.0
  0
ENDBLK
  5
40EF
330
40ED
100
AcDbEntity
  8
0
100
AcDbBlockEnd
  0
BLOCK
  5
40FA
330
40F9
100
AcDbEntity
  8
0
100
AcDbBlockBegin
  2
*D52
 70
     1
 10
0.0
 20
0.0
 30
0.0
  3
*D52
  1

  0
LINE
  5
40FC
330
40F9
100
AcDbEntity
  8
DIM
 62
     0
370
    -2
100
AcDbLine
 10
72.70108453481579
 20
315.2047191657305
 30
0.0
 11
56.80910053548907
 21
315.2047191657305
 31
0.0
  0
LINE
  5
40FD
330
40F9
100
AcDbEntity
  8
DIM
 62
     0
370
    -2
100
AcDbLine
 10
86.50108253437101
 20
367.2047191640544
 30
0.0
 11
56.80910053548907
 21
367.2047191640544
 31
0.0
  0
LINE
  5
40FE
330
40F9
100
AcDbEntity
  8
DIM
 62
     0
370
    -2
100
AcDbLine
 10
56.80910053548907
 20
317.2047191657305
 30
0.0
 11
56.80910053548907
 21
365.2047191640544
 31
0.0
  0
INSERT
  5
40FF
330
40F9
100
AcDbEntity
  8
DIM
 62
     0
370
    -2
100
AcDbBlockReference
  2
_DOT
 10
56.80910053548907
 20
315.2047191657305
 30
0.0
 41
2.0
 42
2.0
 43
2.0
 50
270.0
  0
INSERT
  5
4100
330
40F9
100
AcDbEntity
  8
DIM
 62
     0
370
    -2
100
AcDbBlockReference
  2
_DOT
 10
56.80910053548907
 20
367.2047191640544
 30
0.0
 41
2.0
 42
2.0
 43
2.0
 50
90.0
  0
MTEXT
  5
4101
330
40F9
100
AcDbEntity
  8
DIM
 62
     0
100
AcDbMText
 10
51.30910053548907
 20
341.2047191648924
 30
0.0
 40
5.0
 41
0.0
 46
0.0
 71
     5
 72
     1
  1
\A1;52
  7
ＭＳ ゴシック
 11
0.0
 21
1.0
 31
0.0
 73
     1
 44
0.96
  0
POINT
  5
4102
330
40F9
100
AcDbEntity
  8
Defpoints
 62
     0
100
AcDbPoint
 10
77.70108453481579
 20
315.2047191657305
 30
0.0
  0
POINT
  5
4103
330
40F9
100
AcDbEntity
  8
Defpoints
 62
     0
100
AcDbPoint
 10
91.50108253437101
 20
367.2047191640544
 30
0.0
  0
POINT
  5
4104
330
40F9
100
AcDbEntity
  8
Defpoints
 62
     0
100
AcDbPoint
 10
56.80910053548907
 20
367.2047191640544
 30
0.0
  0
ENDBLK
  5
40FB
330
40F9
100
AcDbEntity
  8
0
100
AcDbBlockEnd
  0
BLOCK
  5
4106
330
4105
100
AcDbEntity
  8
0
100
AcDbBlockBegin
  2
*D53
 70
     1
 10
0.0
 20
0.0
 30
0.0
  3
*D53
  1

  0
LINE
  5
4108
330
4105
100
AcDbEntity
  8
DIM
 62
     0
370
    -2
100
AcDbLine
 10
127.5010865330495
 20
237.2047191640544
 30
0.0
 11
42.04083453596513
 21
237.2047191640544
 31
0.0
  0
LINE
  5
4109
330
4105
100
AcDbEntity
  8
DIM
 62
     0
370
    -2
100
AcDbLine
 10
60.16855776179209
 20
367.2047191640544
 30
0.0
 11
42.04083453596514
 21
367.2047191640544
 31
0.0
  0
LINE
  5
410A
330
4105
100
AcDbEntity
  8
DIM
 62
     0
370
    -2
100
AcDbLine
 10
42.04083453596513
 20
239.2047191640544
 30
0.0
 11
42.04083453596514
 21
365.2047191640544
 31
0.0
  0
INSERT
  5
410B
330
4105
100
AcDbEntity
  8
DIM
 62
     0
370
    -2
100
AcDbBlockReference
  2
_DOT
 10
42.04083453596513
 20
237.2047191640544
 30
0.0
 41
2.0
 42
2.0
 43
2.0
 50
270.0
  0
INSERT
  5
410C
330
4105
100
AcDbEntity
  8
DIM
 62
     0
370
    -2
100
AcDbBlockReference
  2
_DOT
 10
42.04083453596514
 20
367.2047191640544
 30
0.0
 41
2.0
 42
2.0
 43
2.0
 50
90.0
  0
MTEXT
  5
410D
330
4105
100
AcDbEntity
  8
DIM
 62
     0
100
AcDbMText
 10
36.54083453596513
 20
302.2047191640544
 30
0.0
 40
5.0
 41
0.0
 46
0.0
 71
     5
 72
     1
  1
\A1;130
  7
ＭＳ ゴシック
 11
5.465713352000772E-17
 21
1.0
 31
0.0
 73
     1
 44
0.96
  0
POINT
  5
410E
330
4105
100
AcDbEntity
  8
Defpoints
 62
     0
100
AcDbPoint
 10
132.5010865330495
 20
237.2047191640544
 30
0.0
  0
POINT
  5
410F
330
4105
100
AcDbEntity
  8
Defpoints
 62
     0
100
AcDbPoint
 10
65.16855776179209
 20
367.2047191640544
 30
0.0
  0
POINT
  5
4110
330
4105
100
AcDbEntity
  8
Defpoints
 62
     0
100
AcDbPoint
 10
42.04083453596514
 20
367.2047191640544
 30
0.0
  0
ENDBLK
  5
4107
330
4105
100
AcDbEntity
  8
0
100
AcDbBlockEnd
  0
BLOCK
  5
415B
330
415A
100
AcDbEntity
  8
0
100
AcDbBlockBegin
  2
*D54
 70
     1
 10
0.0
 20
0.0
 30
0.0
  3
*D54
  1

  0
LINE
  5
415D
330
415A
100
AcDbEntity
  8
DIM
 62
     0
370
    -2
100
AcDbLine
 10
256.53842
 20
350.588719161089
 30
0.0
 11
284.8404360000001
 21
350.588719161089
 31
0.0
  0
LINE
  5
415E
330
415A
100
AcDbEntity
  8
DIM
 62
     0
370
    -2
100
AcDbLine
 10
225.973556
 20
258.5887191640544
 30
0.0
 11
284.8404360000001
 21
258.5887191640544
 31
0.0
  0
LINE
  5
415F
330
415A
100
AcDbEntity
  8
DIM
 62
     0
370
    -2
100
AcDbLine
 10
284.8404360000001
 20
348.588719161089
 30
0.0
 11
284.8404360000001
 21
260.5887191640544
 31
0.0
  0
INSERT
  5
4160
330
415A
100
AcDbEntity
  8
DIM
 62
     0
370
    -2
100
AcDbBlockReference
  2
_DOT
 10
284.8404360000001
 20
350.588719161089
 30
0.0
 41
2.0
 42
2.0
 43
2.0
 50
90.0
  0
INSERT
  5
4161
330
415A
100
AcDbEntity
  8
DIM
 62
     0
370
    -2
100
AcDbBlockReference
  2
_DOT
 10
284.8404360000001
 20
258.5887191640544
 30
0.0
 41
2.0
 42
2.0
 43
2.0
 50
270.0
  0
MTEXT
  5
4162
330
415A
100
AcDbEntity
  8
DIM
 62
     0
100
AcDbMText
 10
279.3404360000001
 20
304.5887191625717
 30
0.0
 40
5.0
 41
0.0
 46
0.0
 71
     5
 72
     1
  1
\A1;92
  7
ＭＳ ゴシック
 11
0.0
 21
1.0
 31
0.0
 73
     1
 44
1.0
  0
POINT
  5
4163
330
415A
100
AcDbEntity
  8
Defpoints
 62
     0
100
AcDbPoint
 10
251.53842
 20
350.588719161089
 30
0.0
  0
POINT
  5
4164
330
415A
100
AcDbEntity
  8
Defpoints
 62
     0
100
AcDbPoint
 10
220.973556
 20
258.5887191640544
 30
0.0
  0
POINT
  5
4165
330
415A
100
AcDbEntity
  8
Defpoints
 62
     0
100
AcDbPoint
 10
284.8404360000001
 20
258.5887191640544
 30
0.0
  0
ENDBLK
  5
415C
330
415A
100
AcDbEntity
  8
0
100
AcDbBlockEnd
  0
BLOCK
  5
416C
330
416B
100
AcDbEntity
  8
0
100
AcDbBlockBegin
  2
*D55
 70
     1
 10
0.0
 20
0.0
 30
0.0
  3
*D55
  1

  0
LINE
  5
416E
330
416B
100
AcDbEntity
  8
DIM
 62
     0
370
    -2
100
AcDbLine
 10
24.4031049617921
 20
450.0887191640544
 30
0.0
 11
25.75356896179209
 21
450.0887191640544
 31
0.0
  0
LINE
  5
416F
330
416B
100
AcDbEntity
  8
DIM
 62
     0
370
    -2
100
AcDbLine
 10
49.94985696179211
 20
258.5887191640544
 30
0.0
 11
25.75356896179208
 21
258.5887191640544
 31
0.0
  0
LINE
  5
4170
330
416B
100
AcDbEntity
  8
DIM
 62
     0
370
    -2
100
AcDbLine
 10
25.75356896179209
 20
448.0887191640544
 30
0.0
 11
25.75356896179208
 21
260.5887191640544
 31
0.0
  0
INSERT
  5
4171
330
416B
100
AcDbEntity
  8
DIM
 62
     0
370
    -2
100
AcDbBlockReference
  2
_DOT
 10
25.75356896179209
 20
450.0887191640544
 30
0.0
 41
2.0
 42
2.0
 43
2.0
 50
90.0
  0
INSERT
  5
4172
330
416B
100
AcDbEntity
  8
DIM
 62
     0
370
    -2
100
AcDbBlockReference
  2
_DOT
 10
25.75356896179208
 20
258.5887191640544
 30
0.0
 41
2.0
 42
2.0
 43
2.0
 50
270.0
  0
MTEXT
  5
4173
330
416B
100
AcDbEntity
  8
DIM
 62
     0
100
AcDbMText
 10
20.25356896179209
 20
354.3387191640544
 30
0.0
 40
5.0
 41
0.0
 46
0.0
 71
     5
 72
     1
  1
\A1;191.5
  7
ＭＳ ゴシック
 11
5.565608896293212E-17
 21
1.0
 31
0.0
 73
     1
 44
1.0
  0
POINT
  5
4174
330
416B
100
AcDbEntity
  8
Defpoints
 62
     0
100
AcDbPoint
 10
29.4031049617921
 20
450.0887191640544
 30
0.0
  0
POINT
  5
4175
330
416B
100
AcDbEntity
  8
Defpoints
 62
     0
100
AcDbPoint
 10
54.94985696179211
 20
258.5887191640544
 30
0.0
  0
POINT
  5
4176
330
416B
100
AcDbEntity
  8
Defpoints
 62
     0
100
AcDbPoint
 10
25.75356896179208
 20
258.5887191640544
 30
0.0
  0
ENDBLK
  5
416D
330
416B
100
AcDbEntity
  8
0
100
AcDbBlockEnd
  0
BLOCK
  5
417E
330
417D
100
AcDbEntity
  8
0
100
AcDbBlockBegin
  2
*D56
 70
     1
 10
0.0
 20
0.0
 30
0.0
  3
*D56
  1

  0
LINE
  5
4180
330
417D
100
AcDbEntity
  8
DIM
 62
     0
370
    -2
100
AcDbLine
 10
64.60192239999986
 20
258.5887191640544
 30
0.0
 11
-22.73133840000018
 21
258.5887191640544
 31
0.0
  0
LINE
  5
4181
330
417D
100
AcDbEntity
  8
DIM
 62
     0
370
    -2
100
AcDbLine
 10
60.16855776179209
 20
450.0887191640544
 30
0.0
 11
-22.73133840000017
 21
450.0887191640544
 31
0.0
  0
LINE
  5
4182
330
417D
100
AcDbEntity
  8
DIM
 62
     0
370
    -2
100
AcDbLine
 10
-22.73133840000018
 20
260.5887191640544
 30
0.0
 11
-22.73133840000017
 21
448.0887191640544
 31
0.0
  0
INSERT
  5
4183
330
417D
100
AcDbEntity
  8
DIM
 62
     0
370
    -2
100
AcDbBlockReference
  2
_DOT
 10
-22.73133840000018
 20
258.5887191640544
 30
0.0
 41
2.0
 42
2.0
 43
2.0
 50
270.0
  0
INSERT
  5
4184
330
417D
100
AcDbEntity
  8
DIM
 62
     0
370
    -2
100
AcDbBlockReference
  2
_DOT
 10
-22.73133840000017
 20
450.0887191640544
 30
0.0
 41
2.0
 42
2.0
 43
2.0
 50
90.0
  0
MTEXT
  5
4185
330
417D
100
AcDbEntity
  8
DIM
 62
     0
100
AcDbMText
 10
-28.23133840000018
 20
354.3387191640544
 30
0.0
 40
5.0
 41
0.0
 46
0.0
 71
     5
 72
     1
  1
\A1;192
  7
ＭＳ ゴシック
 11
5.565608896293212E-17
 21
1.0
 31
0.0
 73
     1
 44
1.0
  0
POINT
  5
4186
330
417D
100
AcDbEntity
  8
Defpoints
 62
     0
100
AcDbPoint
 10
69.60192239999986
 20
258.5887191640544
 30
0.0
  0
POINT
  5
4187
330
417D
100
AcDbEntity
  8
Defpoints
 62
     0
100
AcDbPoint
 10
65.16855776179209
 20
450.0887191640544
 30
0.0
  0
POINT
  5
4188
330
417D
100
AcDbEntity
  8
Defpoints
 62
     0
100
AcDbPoint
 10
-22.73133840000017
 20
450.0887191640544
 30
0.0
  0
ENDBLK
  5
417F
330
417D
100
AcDbEntity
  8
0
100
AcDbBlockEnd
  0
BLOCK
  5
4199
330
4198
100
AcDbEntity
  8
0
100
AcDbBlockBegin
  2
*D57
 70
     1
 10
0.0
 20
0.0
 30
0.0
  3
*D57
  1

  0
LINE
  5
419B
330
4198
100
AcDbEntity
  8
DIM
 62
     0
370
    -2
100
AcDbLine
 10
212.7725
 20
237.2047191640544
 30
0.0
 11
266.5785
 21
237.2047191640544
 31
0.0
  0
LINE
  5
419C
330
4198
100
AcDbEntity
  8
DIM
 62
     0
370
    -2
100
AcDbLine
 10
226.1375
 20
329.204719161089
 30
0.0
 11
266.5785
 21
329.204719161089
 31
0.0
  0
LINE
  5
419D
330
4198
100
AcDbEntity
  8
DIM
 62
     0
370
    -2
100
AcDbLine
 10
266.5785
 20
239.2047191640544
 30
0.0
 11
266.5785
 21
327.204719161089
 31
0.0
  0
INSERT
  5
419E
330
4198
100
AcDbEntity
  8
DIM
 62
     0
370
    -2
100
AcDbBlockReference
  2
_DOT
 10
266.5785
 20
237.2047191640544
 30
0.0
 41
2.0
 42
2.0
 43
2.0
 50
270.0
  0
INSERT
  5
419F
330
4198
100
AcDbEntity
  8
DIM
 62
     0
370
    -2
100
AcDbBlockReference
  2
_DOT
 10
266.5785
 20
329.204719161089
 30
0.0
 41
2.0
 42
2.0
 43
2.0
 50
90.0
  0
MTEXT
  5
41A0
330
4198
100
AcDbEntity
  8
DIM
 62
     0
100
AcDbMText
 10
261.0785
 20
283.2047191625717
 30
0.0
 40
5.0
 41
0.0
 46
0.0
 71
     5
 72
     1
  1
\A1;92
  7
ＭＳ ゴシック
 11
0.0
 21
1.0
 31
0.0
 73
     1
 44
1.0
  0
POINT
  5
41A1
330
4198
100
AcDbEntity
  8
Defpoints
 62
     0
100
AcDbPoint
 10
207.7725
 20
237.2047191640544
 30
0.0
  0
POINT
  5
41A2
330
4198
100
AcDbEntity
  8
Defpoints
 62
     0
100
AcDbPoint
 10
221.1375
 20
329.204719161089
 30
0.0
  0
POINT
  5
41A3
330
4198
100
AcDbEntity
  8
Defpoints
 62
     0
100
AcDbPoint
 10
266.5785
 20
329.204719161089
 30
0.0
  0
ENDBLK
  5
419A
330
4198
100
AcDbEntity
  8
0
100
AcDbBlockEnd
  0
ENDSEC
  0
SECTION
  2
ENTITIES
  0
MTEXT
  5
177
330
A
100
AcDbEntity
  8
TEMPLATE
390
1D
100
AcDbMText
 10
15.84042890954615
 20
68.74635032628565
 30
0.0
 40
3.257682291666665
 41
0.0
 46
0.0
 71
     1
 72
     1
  1
品名
  7
ＭＳ ゴシック
 73
     1
 44
0.7828267384257843
  0
MTEXT
  5
178
330
A
100
AcDbEntity
  8
TEMPLATE
390
1D
100
AcDbMText
 10
15.84042890954615
 20
51.7463503262856
 30
0.0
 40
3.257682291666665
 41
0.0
 46
0.0
 71
     1
 72
     1
  1
仕様
  7
ＭＳ ゴシック
 73
     1
 44
0.7828267384257843
  0
LINE
  5
179
330
A
100
AcDbEntity
  8
TEMPLATE
390
1D
100
AcDbLine
 10
404.4404289094496
 20
53.42933470128568
 30
0.0
 11
14.44042890944975
 21
53.42933470128568
 31
0.0
  0
LWPOLYLINE
  5
17A
330
A
100
AcDbEntity
  8
TEMPLATE
390
1D
100
AcDbPolyline
 90
        5
 70
   128
 43
0.0
 10
404.4404289094496
 20
579.4293347012853
 10
14.44042890944975
 20
579.4293347012853
 10
14.44042890944975
 20
19.42933470128565
 10
404.4404289094496
 20
19.42933470128565
 10
404.4404289094496
 20
579.4293347012853
  0
LINE
  5
17B
330
A
100
AcDbEntity
  8
TEMPLATE
390
1D
100
AcDbLine
 10
404.4404289094496
 20
70.42933470128564
 30
0.0
 11
14.44042890944975
 21
70.42933470128564
 31
0.0
  0
LINE
  5
17C
330
A
100
AcDbEntity
  8
TEMPLATE
390
1D
100
AcDbLine
 10
404.4404289095464
 20
36.42933470128565
 30
0.0
 11
253.840428909546
 21
36.42933470128565
 31
0.0
  0
MTEXT
  5
17E
330
A
100
AcDbEntity
  8
TEMPLATE
390
1D
100
AcDbMText
 10
259.8147101599982
 20
30.44725580662403
 30
0.0
 40
4.8865234375
 41
0.0
 46
0.0
 71
     1
 72
     1
  1
大洋金物株式会社 ティーフォルム事業部
  7
ＭＳ ゴシック
 73
     1
 44
0.7828267384257843
  0
MTEXT
  5
180
330
A
100
AcDbEntity
  8
TEMPLATE
390
1D
100
AcDbMText
 10
366.240428909598
 20
46.02985813878564
 30
0.0
 40
4.8865234375
 41
0.0
 46
4.8865234375
 71
     1
 72
     1
  1
{1:2}
  7
ＭＳ ゴシック
 73
     1
 44
0.7828267384257843
1001
ACAD
1000
ACAD_MTEXT_DEFINED_HEIGHT_BEGIN
1070
    46
1040
4.8865234375
1000
ACAD_MTEXT_DEFINED_HEIGHT_END
  0
MTEXT
  5
181
330
A
100
AcDbEntity
  8
TEMPLATE
390
1D
100
AcDbMText
 10
355.640428909598
 20
51.7463503262856
 30
0.0
 40
3.257682291666665
 41
0.0
 46
0.0
 71
     1
 72
     1
  1
縮尺
  7
ＭＳ ゴシック
 73
     1
 44
0.7828267384257843
  0
LINE
  5
182
330
A
100
AcDbEntity
  8
TEMPLATE
390
1D
100
AcDbLine
 10
354.240428909598
 20
36.42933470128565
 30
0.0
 11
354.240428909598
 21
53.42933470128568
 31
0.0
  0
MTEXT
  5
183
330
A
100
AcDbEntity
  8
TEMPLATE
390
1D
100
AcDbMText
 10
305.440428909598
 20
51.7463503262856
 30
0.0
 40
3.257682291666665
 41
0.0
 46
0.0
 71
     1
 72
     1
  1
容量
  7
ＭＳ ゴシック
 73
     1
 44
0.7828267384257843
  0
LINE
  5
184
330
A
100
AcDbEntity
  8
TEMPLATE
390
1D
100
AcDbLine
 10
304.040428909598
 20
36.42933470128565
 30
0.0
 11
304.040428909598
 21
53.42933470128568
 31
0.0
  0
MTEXT
  5
185
330
A
100
AcDbEntity
  8
TEMPLATE
390
1D
100
AcDbMText
 10
255.240428909598
 20
68.74635032628565
 30
0.0
 40
3.257682291666665
 41
0.0
 46
0.0
 71
     1
 72
     1
  1
品番
  7
ＭＳ ゴシック
 73
     1
 44
0.7828267384257843
  0
MTEXT
  5
186
330
A
100
AcDbEntity
  8
TEMPLATE
390
1D
100
AcDbMText
 10
255.240428909598
 20
51.7463503262856
 30
0.0
 40
3.257682291666665
 41
0.0
 46
0.0
 71
     1
 72
     1
  1
重量
  7
ＭＳ ゴシック
 73
     1
 44
0.7828267384257843
  0
MTEXT
  5
187
330
A
100
AcDbEntity
  8
TEMPLATE
390
1D
100
AcDbMText
 10
265.840428909598
 20
63.02985813878564
 30
0.0
 40
4.8865234375
 41
0.0
 46
4.8865234375
 71
     1
 72
     1
  1
{JKU73-8002}
  7
ＭＳ ゴシック
 73
     1
 44
0.7828267384257843
1001
ACAD
1000
ACAD_MTEXT_DEFINED_HEIGHT_BEGIN
1070
    46
1040
4.8865234375
1000
ACAD_MTEXT_DEFINED_HEIGHT_END
  0
LINE
  5
188
330
A
100
AcDbEntity
  8
TEMPLATE
390
1D
100
AcDbLine
 10
253.840428909598
 20
19.42933470128565
 30
0.0
 11
253.840428909598
 21
70.42933470128564
 31
0.0
  0
MTEXT
  5
189
330
A
100
AcDbEntity
  8
TEMPLATE
390
1D
100
AcDbMText
 10
26.44042890954615
 20
63.02985813878564
 30
0.0
 40
4.8865234375
 41
0.0
 46
5.033119140625
 71
     1
 72
     1
  1
{Pトラップ　-KAKUDAI-}
  7
ＭＳ ゴシック
 73
     1
 44
0.7828267384257843
1001
ACAD
1000
ACAD_MTEXT_DEFINED_HEIGHT_BEGIN
1070
    46
1040
5.033119140625
1000
ACAD_MTEXT_DEFINED_HEIGHT_END
  0
INSERT
  5
68C
330
A
100
AcDbEntity
  8
TEMPLATE
100
AcDbBlockReference
  2
block 2
 10
367.7097207081031
 20
3.349230605734547
 30
0.0
 41
0.1524
 42
0.1524
 43
0.1524
  0
LWPOLYLINE
  5
D69
330
A
100
AcDbEntity
  8
BORDER
100
AcDbPolyline
 90
        4
 70
     1
 43
0.0
 10
0.0
 20
0.0
 10
0.0
 20
594.0
 10
420.0
 20
594.0
 10
420.0
 20
0.0
  0
INSERT
  5
1343
330
A
100
AcDbEntity
  8
TEMPLATE
100
AcDbBlockReference
  2
block 2
 10
838.6973883465873
 20
9.774128564918277
 30
0.0
 41
0.1524
 42
0.1524
 43
0.1524
  0
HATCH
  5
3C64
102
{ACAD_REACTORS
330
3C75
102
}
330
A
100
AcDbEntity
  8
TEMPLATE
100
AcDbHatch
 10
0.0
 20
0.0
 30
0.0
210
0.0
220
0.0
230
1.0
  2
SOLID
 70
     1
 71
     1
 91
        6
 92
        1
 93
        8
 72
     1
 10
386.9584116981973
 20
30.78695932253559
 11
386.9584116981973
 21
29.60507779640349
 72
     1
 10
386.9584116981973
 20
29.60507779640349
 11
385.086293388135
 21
29.60507779640349
 72
     1
 10
385.086293388135
 20
29.60507779640349
 11
385.086293388135
 21
24.78695932282479
 72
     1
 10
385.086293388135
 20
24.78695932282479
 11
383.4397707574798
 21
24.78695932282479
 72
     1
 10
383.4397707574798
 20
24.78695932282479
 11
383.4397707574798
 21
29.60507779640349
 72
     1
 10
383.4397707574798
 20
29.60507779640349
 11
381.6008304705712
 21
29.60507779640349
 72
     1
 10
381.6008304705712
 20
29.60507779640349
 11
381.6008304705712
 21
30.78695932253559
 72
     1
 10
381.6008304705712
 20
30.78695932253559
 11
386.9584116981973
 21
30.78695932253559
 97
        1
330
3C65
 92
        1
 93
        1
 72
     4
 94
        3
 73
     0
 74
     1
 95
       56
 96
       52
 40
0.0
 40
0.0
 40
0.0
 40
0.0
 40
1.0
 40
1.0
 40
1.0
 40
2.0
 40
2.0
 40
2.0
 40
3.0
 40
3.0
 40
3.0
 40
4.0
 40
4.0
 40
4.0
 40
5.0
 40
5.0
 40
5.0
 40
6.0
 40
6.0
 40
6.0
 40
7.0
 40
7.0
 40
7.0
 40
8.0
 40
8.0
 40
8.0
 40
9.0
 40
9.0
 40
9.0
 40
10.0
 40
10.0
 40
10.0
 40
11.0
 40
11.0
 40
11.0
 40
12.0
 40
12.0
 40
12.0
 40
13.0
 40
13.0
 40
13.0
 40
14.0
 40
14.0
 40
14.0
 40
15.0
 40
15.0
 40
15.0
 40
16.0
 40
16.0
 40
16.0
 40
17.0
 40
17.0
 40
17.0
 40
17.0
 10
389.4668487850558
 20
30.64408553045313
 10
389.6976220214394
 20
30.70904304125516
 10
389.9955398401064
 20
30.65470844907718
 10
389.9955398401064
 20
30.65470844907718
 10
389.9955398401064
 20
30.65470844907718
 10
389.85241312139
 20
30.22519439059248
 10
389.85241312139
 20
30.22519439059248
 10
389.85241312139
 20
30.22519439059248
 10
389.5599406643706
 20
30.29287458221835
 10
389.3343598630008
 20
30.1149927683958
 10
389.1590668276665
 20
29.97588311974736
 10
389.0455027690426
 20
29.60625316134929
 10
389.0019398758616
 20
29.46571522112114
 10
389.0019398758616
 20
29.46571522112114
 10
388.8077219770962
 20
28.86958202304137
 10
388.8077219770962
 20
28.86958202304137
 10
388.8077219770962
 20
28.86958202304137
 10
389.4445466071603
 20
28.86958202304137
 10
389.4445466071603
 20
28.86958202304137
 10
389.4445466071603
 20
28.86958202304137
 10
389.34550351293
 20
28.49438767869736
 10
389.34550351293
 20
28.49438767869736
 10
389.34550351293
 20
28.49438767869736
 10
388.7034864478522
 20
28.49438767869736
 10
388.7034864478522
 20
28.49438767869736
 10
388.7034864478522
 20
28.49438767869736
 10
387.5547978229109
 20
24.78695932282479
 10
387.5547978229109
 20
24.78695932282479
 10
387.5547978229109
 20
24.78695932282479
 10
387.1951510275336
 20
24.78695932282479
 10
387.1951510275336
 20
24.78695932282479
 10
387.1951510275336
 20
24.78695932282479
 10
388.3448811150849
 20
28.49438767869736
 10
388.3448811150849
 20
28.49438767869736
 10
388.3448811150849
 20
28.49438767869736
 10
387.8711346517413
 20
28.49438767869736
 10
387.8711346517413
 20
28.49438767869736
 10
387.8711346517413
 20
28.49438767869736
 10
387.9704455506427
 20
28.86958202304137
 10
387.9704455506427
 20
28.86958202304137
 10
387.9704455506427
 20
28.86958202304137
 10
388.4491166443289
 20
28.86958202304137
 10
388.4491166443289
 20
28.86958202304137
 10
388.4491166443289
 20
28.86958202304137
 10
388.6184287086733
 20
29.38948015805433
 10
388.6184287086733
 20
29.38948015805433
 10
388.7553364078029
 20
29.82536201649855
 10
388.8715041229524
 20
30.059378665011
 10
388.971082826525
 20
30.23581730921654
 10
389.0696051894502
 20
30.41240473379499
 10
389.2645967461546
 20
30.58586777054282
 10
389.4668487850558
 20
30.64408553045313
 97
        1
330
3C70
 92
        1
 93
        1
 72
     4
 94
        3
 73
     0
 74
     1
 95
       32
 96
       28
 40
0.0
 40
0.0
 40
0.0
 40
0.0
 40
1.0
 40
1.0
 40
1.0
 40
2.0
 40
2.0
 40
2.0
 40
3.0
 40
3.0
 40
3.0
 40
4.0
 40
4.0
 40
4.0
 40
5.0
 40
5.0
 40
5.0
 40
6.0
 40
6.0
 40
6.0
 40
7.0
 40
7.0
 40
7.0
 40
8.0
 40
8.0
 40
8.0
 40
9.0
 40
9.0
 40
9.0
 40
9.0
 10
390.3419600603343
 20
28.64284073476305
 10
390.1254548617105
 20
28.36279143887966
 10
389.9587315758544
 20
28.11075748721071
 10
389.6888142233646
 20
27.31860614785359
 10
389.4406634394279
 20
26.59401597582401
 10
389.2827479516467
 20
26.06685735861421
 10
389.2588984578731
 20
25.42484029353638
 10
389.240747252381
 20
24.94707676012474
 10
389.5316723935223
 20
24.78695932282479
 10
389.9582257225866
 20
24.78695932282479
 10
390.1420587513246
 20
24.78695932282479
 10
390.6059559539832
 20
24.79865346013363
 10
390.9363078939394
 20
25.20702582763122
 10
391.1675721055534
 20
25.49393389870466
 10
391.38071486775
 20
25.79134586410385
 10
391.6664624519149
 20
26.76695828126675
 10
391.9042432438614
 20
27.58257228542799
 10
392.068883604497
 20
28.10971602460051
 10
392.056713369995
 20
28.40985067082352
 10
392.056713369995
 20
28.40985067082352
 10
392.056713369995
 20
28.40985067082352
 10
392.056713369995
 20
28.40985067082352
 10
391.9791690396468
 20
28.91055613773418
 10
391.615639076537
 20
29.01635386089345
 10
391.4079416759881
 20
29.01635386089345
 10
391.2033686632698
 20
29.01635386089345
 10
390.6552022574085
 20
29.05174871160303
 10
390.3419600603343
 20
28.64284073476305
 97
        1
330
3C73
 92
        1
 93
        1
 72
     4
 94
        3
 73
     0
 74
     1
 95
       38
 96
       34
 40
0.0
 40
0.0
 40
0.0
 40
0.0
 40
1.0
 40
1.0
 40
1.0
 40
2.0
 40
2.0
 40
2.0
 40
3.0
 40
3.0
 40
3.0
 40
4.0
 40
4.0
 40
4.0
 40
5.0
 40
5.0
 40
5.0
 40
6.0
 40
6.0
 40
6.0
 40
7.0
 40
7.0
 40
7.0
 40
8.0
 40
8.0
 40
8.0
 40
9.0
 40
9.0
 40
9.0
 40
10.0
 40
10.0
 40
10.0
 40
11.0
 40
11.0
 40
11.0
 40
11.0
 10
393.3716045494872
 20
28.85519496098328
 10
393.3716045494872
 20
28.85519496098328
 10
393.7413535321836
 20
28.85519496098328
 10
393.7413535321836
 20
28.85519496098328
 10
393.7413535321836
 20
28.85519496098328
 10
393.5761775622055
 20
28.32635512555987
 10
393.5761775622055
 20
28.32635512555987
 10
393.7016886847722
 20
28.47480818162555
 10
393.8997748732327
 20
28.67252241915381
 10
394.0698903515905
 20
28.77222014702475
 10
394.3240072284799
 20
28.92067320309043
 10
394.4692168724166
 20
28.94025270016223
 10
394.6289177246725
 20
28.93635465439262
 10
394.6289177246725
 20
28.93635465439262
 10
394.4728471135151
 20
28.43630382112264
 10
394.4728471135151
 20
28.43630382112264
 10
394.3712003627593
 20
28.47934598299858
 10
394.057958165685
 20
28.39741263165024
 10
393.8782612313133
 20
28.26815224368685
 10
393.7162096491659
 20
28.15159769956793
 10
393.6041780283826
 20
28.0524207030021
 10
393.4714361796937
 20
27.80309455411968
 10
393.3397060375404
 20
27.55339645430504
 10
393.2357383129677
 20
27.15524529842472
 10
393.0568150365349
 20
26.57765013480655
 10
393.0568150365349
 20
26.57765013480655
 10
392.4980257120495
 20
24.78695932282479
 10
392.4980257120495
 20
24.78695932282479
 10
392.4980257120495
 20
24.78695932282479
 10
392.1391674526484
 20
24.78695932282479
 10
392.1391674526484
 20
24.78695932282479
 10
392.1391674526484
 20
24.78695932282479
 10
393.3716045494872
 20
28.85519496098328
 10
393.3716045494872
 20
28.85519496098328
 97
        1
330
3C71
 92
        1
 93
        1
 72
     4
 94
        3
 73
     0
 74
     1
 95
      104
 96
      100
 40
0.0
 40
0.0
 40
0.0
 40
0.0
 40
1.0
 40
1.0
 40
1.0
 40
2.0
 40
2.0
 40
2.0
 40
3.0
 40
3.0
 40
3.0
 40
4.0
 40
4.0
 40
4.0
 40
5.0
 40
5.0
 40
5.0
 40
6.0
 40
6.0
 40
6.0
 40
7.0
 40
7.0
 40
7.0
 40
8.0
 40
8.0
 40
8.0
 40
9.0
 40
9.0
 40
9.0
 40
10.0
 40
10.0
 40
10.0
 40
11.0
 40
11.0
 40
11.0
 40
12.0
 40
12.0
 40
12.0
 40
13.0
 40
13.0
 40
13.0
 40
14.0
 40
14.0
 40
14.0
 40
15.0
 40
15.0
 40
15.0
 40
16.0
 40
16.0
 40
16.0
 40
17.0
 40
17.0
 40
17.0
 40
18.0
 40
18.0
 40
18.0
 40
19.0
 40
19.0
 40
19.0
 40
20.0
 40
20.0
 40
20.0
 40
21.0
 40
21.0
 40
21.0
 40
22.0
 40
22.0
 40
22.0
 40
23.0
 40
23.0
 40
23.0
 40
24.0
 40
24.0
 40
24.0
 40
25.0
 40
25.0
 40
25.0
 40
26.0
 40
26.0
 40
26.0
 40
27.0
 40
27.0
 40
27.0
 40
28.0
 40
28.0
 40
28.0
 40
29.0
 40
29.0
 40
29.0
 40
30.0
 40
30.0
 40
30.0
 40
31.0
 40
31.0
 40
31.0
 40
32.0
 40
32.0
 40
32.0
 40
33.0
 40
33.0
 40
33.0
 40
33.0
 10
395.4068307823444
 20
28.857396910502
 10
395.4068307823444
 20
28.857396910502
 10
395.7296544354325
 20
28.857396910502
 10
395.7296544354325
 20
28.857396910502
 10
395.7296544354325
 20
28.857396910502
 10
395.5665613906749
 20
28.32805122181077
 10
395.5665613906749
 20
28.32805122181077
 10
395.7081110374387
 20
28.55000178208216
 10
395.8351694758834
 20
28.64892585201409
 10
396.0039756869598
 20
28.77675794839777
 10
396.1732877513042
 20
28.90277492423224
 10
396.3742602789986
 20
28.92845441659237
 10
396.5137567566165
 20
28.92845441659237
 10
396.6864610134627
 20
28.92845441659237
 10
396.8531842993187
 20
28.8943539551269
 10
396.9408159389486
 20
28.70506068670399
 10
397.0079753992694
 20
28.55662250867558
 10
397.0110997871
 20
28.5391110587869
 10
396.9919071189977
 20
28.24610299242514
 10
397.1674382029287
 20
28.54650544331934
 10
397.2970854198616
 20
28.67589973361832
 10
397.5174886642549
 20
28.80022061320189
 10
397.7487826319435
 20
28.92845441659237
 10
397.8836074058529
 20
28.93805075064353
 10
398.0402433824273
 20
28.9149600367716
 10
398.2710017407735
 20
28.88087445334342
 10
398.4182943099307
 20
28.79853939498828
 10
398.4953030309365
 20
28.54832056386854
 10
398.5725795566135
 20
28.29887539068781
 10
398.5308317839817
 20
28.16507720135141
 10
398.4354040528126
 20
27.76796750808128
 10
398.3918411596316
 20
27.58711008680102
 10
398.3288177936771
 20
27.36812025595006
 10
398.2463637110236
 20
27.10754631087745
 10
398.2463637110236
 20
27.10754631087745
 10
397.5174886642549
 20
24.78695932282479
 10
397.5174886642549
 20
24.78695932282479
 10
397.5174886642549
 20
24.78695932282479
 10
397.1383962741413
 20
24.78695932282479
 10
397.1383962741413
 20
24.78695932282479
 10
397.1383962741413
 20
24.78695932282479
 10
397.7765450495241
 20
26.81569873142421
 10
397.7765450495241
 20
26.81569873142421
 10
397.9098225075554
 20
27.24016913526807
 10
398.0000429256735
 20
27.55015304217612
 10
398.0467302066851
 20
27.74450484327716
 10
398.1053199175276
 20
27.98694246089495
 10
398.1286486799962
 20
28.06694166739577
 10
398.1009160184902
 20
28.24339518963862
 10
398.0755043308013
 20
28.4076487213048
 10
397.9925146388055
 20
28.51460693137258
 10
397.8504293826993
 20
28.51460693137258
 10
397.6990007191758
 20
28.51460693137258
 10
397.5763461797686
 20
28.49775011512458
 10
397.4047131416073
 20
28.32532854098695
 10
397.2330503473714
 20
28.15159769956793
 10
397.0912031398618
 20
27.94766444245305
 10
396.9799749330922
 20
27.71312706263549
 10
396.8689847749192
 20
27.47716139123824
 10
396.7564473008682
 20
27.17806820762544
 10
396.6423625109393
 20
26.81569873142421
 10
396.6423625109393
 20
26.81569873142421
 10
396.0039756869598
 20
24.78695932282479
 10
396.0039756869598
 20
24.78695932282479
 10
396.0039756869598
 20
24.78695932282479
 10
395.6474384013758
 20
24.78695932282479
 10
395.6474384013758
 20
24.78695932282479
 10
395.6474384013758
 20
24.78695932282479
 10
396.3773549107547
 20
27.10650484826726
 10
396.3773549107547
 20
27.10650484826726
 10
396.4543636317604
 20
27.35336124295977
 10
396.5122094407385
 20
27.55457181925085
 10
396.5503269722719
 20
27.71183267339138
 10
396.6151357027011
 20
27.98253856185753
 10
396.6332869081932
 20
28.1655979326565
 10
396.5842786533645
 20
28.32805122181077
 10
396.5360440564749
 20
28.48998377965993
 10
396.4512690000045
 20
28.53134472332225
 10
396.3096895971661
 20
28.53134472332225
 10
396.1909331035284
 20
28.53134472332225
 10
396.0750331930502
 20
28.48038744560878
 10
395.9427971976291
 20
28.37899362148695
 10
395.7763119603696
 20
28.25142932977446
 10
395.7096881093912
 20
28.1466730692254
 10
395.6280076846768
 20
28.02220340926895
 10
395.5177911844429
 20
27.85754817059597
 10
395.4661941511259
 20
27.74670679279587
 10
395.3731171498484
 20
27.50348063920177
 10
395.2800103924964
 20
27.25882619402798
 10
395.1918728995987
 20
26.97412007247326
 10
395.1303968495222
 20
26.77719437092129
 10
395.1303968495222
 20
26.77719437092129
 10
394.5042100161195
 20
24.78695932282479
 10
394.5042100161195
 20
24.78695932282479
 10
394.5042100161195
 20
24.78695932282479
 10
394.1308307923247
 20
24.78695932282479
 10
394.1308307923247
 20
24.78695932282479
 10
394.1308307923247
 20
24.78695932282479
 10
395.4068307823444
 20
28.857396910502
 10
395.4068307823444
 20
28.857396910502
 97
        1
330
3C72
 92
       16
 93
        1
 72
     4
 94
        3
 73
     0
 74
     1
 95
       29
 96
       25
 40
0.0
 40
0.0
 40
0.0
 40
0.0
 40
1.0
 40
1.0
 40
1.0
 40
2.0
 40
2.0
 40
2.0
 40
3.0
 40
3.0
 40
3.0
 40
4.0
 40
4.0
 40
4.0
 40
5.0
 40
5.0
 40
5.0
 40
6.0
 40
6.0
 40
6.0
 40
7.0
 40
7.0
 40
7.0
 40
8.0
 40
8.0
 40
8.0
 40
8.0
 10
389.6462927927937
 20
25.54487629838084
 10
389.6447157208412
 20
25.82830290872873
 10
389.7341922370948
 20
26.33186495879882
 10
389.9634032795631
 20
27.00563175545052
 10
390.2756040140271
 20
27.91796788002499
 10
390.4628292352669
 20
28.25142932977446
 10
390.6266661818889
 20
28.41374871659313
 10
390.866024045788
 20
28.65010121695988
 10
391.1878062362659
 20
28.66188462249246
 10
391.2827281141673
 20
28.65010121695988
 10
391.4178206927478
 20
28.6338841563153
 10
391.6086463990114
 20
28.54546398070914
 10
391.6200429755745
 20
28.24779908867604
 10
391.629148334395
 20
27.99304245618328
 10
391.5557400984131
 20
27.51593355641234
 10
391.2987963944389
 20
26.76695828126675
 10
391.0026639402465
 20
25.896622855958
 10
390.824782126424
 20
25.55448751046927
 10
390.6821910170501
 20
25.40537982076289
 10
390.413553175767
 20
25.1258512561846
 10
390.1254548617105
 20
25.15269123545324
 10
390.0829334311396
 20
25.15269123545324
 10
390.0277061567243
 20
25.15269123545324
 10
389.6470664507327
 20
25.21261996965174
 10
389.6462927927937
 20
25.54487629838084
 97
        1
330
3C74
 75
     0
 76
     1
 98
        1
 10
371.9300318427923
 20
14.61939790801677
1001
ACAD
1010
0.0
1020
0.0
1030
0.0
  0
POLYLINE
  5
3C65
102
{ACAD_REACTORS
330
3C64
330
3C75
102
}
330
A
100
AcDbEntity
  8
TEMPLATE
100
AcDb2dPolyline
 66
     1
 10
0.0
 20
0.0
 30
0.0
  0
VERTEX
  5
3C66
330
3C65
100
AcDbEntity
  8
TEMPLATE
100
AcDbVertex
100
AcDb2dVertex
 10
386.9584116981973
 20
30.78695932253559
 30
0.0
  0
VERTEX
  5
3C67
330
3C65
100
AcDbEntity
  8
TEMPLATE
100
AcDbVertex
100
AcDb2dVertex
 10
386.9584116981973
 20
29.60507779640349
 30
0.0
  0
VERTEX
  5
3C68
330
3C65
100
AcDbEntity
  8
TEMPLATE
100
AcDbVertex
100
AcDb2dVertex
 10
385.086293388135
 20
29.60507779640349
 30
0.0
  0
VERTEX
  5
3C69
330
3C65
100
AcDbEntity
  8
TEMPLATE
100
AcDbVertex
100
AcDb2dVertex
 10
385.086293388135
 20
24.78695932282479
 30
0.0
  0
VERTEX
  5
3C6A
330
3C65
100
AcDbEntity
  8
TEMPLATE
100
AcDbVertex
100
AcDb2dVertex
 10
383.4397707574798
 20
24.78695932282479
 30
0.0
  0
VERTEX
  5
3C6B
330
3C65
100
AcDbEntity
  8
TEMPLATE
100
AcDbVertex
100
AcDb2dVertex
 10
383.4397707574798
 20
29.60507779640349
 30
0.0
  0
VERTEX
  5
3C6C
330
3C65
100
AcDbEntity
  8
TEMPLATE
100
AcDbVertex
100
AcDb2dVertex
 10
381.6008304705712
 20
29.60507779640349
 30
0.0
  0
VERTEX
  5
3C6D
330
3C65
100
AcDbEntity
  8
TEMPLATE
100
AcDbVertex
100
AcDb2dVertex
 10
381.6008304705712
 20
30.78695932253559
 30
0.0
  0
VERTEX
  5
3C6E
330
3C65
100
AcDbEntity
  8
TEMPLATE
100
AcDbVertex
100
AcDb2dVertex
 10
386.9584116981973
 20
30.78695932253559
 30
0.0
  0
SEQEND
  5
3C6F
330
3C65
100
AcDbEntity
  8
TEMPLATE
  0
SPLINE
  5
3C70
102
{ACAD_REACTORS
330
3C64
330
3C75
102
}
330
A
100
AcDbEntity
  8
TEMPLATE
100
AcDbSpline
210
0.0
220
0.0
230
1.0
 70
    11
 71
     3
 72
    56
 73
    52
 74
     0
 42
0.000000001
 43
0.0000000001
 40
0.0
 40
0.0
 40
0.0
 40
0.0
 40
1.0
 40
1.0
 40
1.0
 40
2.0
 40
2.0
 40
2.0
 40
3.0
 40
3.0
 40
3.0
 40
4.0
 40
4.0
 40
4.0
 40
5.0
 40
5.0
 40
5.0
 40
6.0
 40
6.0
 40
6.0
 40
7.0
 40
7.0
 40
7.0
 40
8.0
 40
8.0
 40
8.0
 40
9.0
 40
9.0
 40
9.0
 40
10.0
 40
10.0
 40
10.0
 40
11.0
 40
11.0
 40
11.0
 40
12.0
 40
12.0
 40
12.0
 40
13.0
 40
13.0
 40
13.0
 40
14.0
 40
14.0
 40
14.0
 40
15.0
 40
15.0
 40
15.0
 40
16.0
 40
16.0
 40
16.0
 40
17.0
 40
17.0
 40
17.0
 40
17.0
 10
389.4668487850558
 20
30.64408553045313
 30
0.0
 10
389.6976220214394
 20
30.70904304125516
 30
0.0
 10
389.9955398401064
 20
30.65470844907718
 30
0.0
 10
389.9955398401064
 20
30.65470844907718
 30
0.0
 10
389.9955398401064
 20
30.65470844907718
 30
0.0
 10
389.85241312139
 20
30.22519439059248
 30
0.0
 10
389.85241312139
 20
30.22519439059248
 30
0.0
 10
389.85241312139
 20
30.22519439059248
 30
0.0
 10
389.5599406643706
 20
30.29287458221835
 30
0.0
 10
389.3343598630008
 20
30.1149927683958
 30
0.0
 10
389.1590668276665
 20
29.97588311974736
 30
0.0
 10
389.0455027690426
 20
29.60625316134929
 30
0.0
 10
389.0019398758616
 20
29.46571522112114
 30
0.0
 10
389.0019398758616
 20
29.46571522112114
 30
0.0
 10
388.8077219770962
 20
28.86958202304137
 30
0.0
 10
388.8077219770962
 20
28.86958202304137
 30
0.0
 10
388.8077219770962
 20
28.86958202304137
 30
0.0
 10
389.4445466071603
 20
28.86958202304137
 30
0.0
 10
389.4445466071603
 20
28.86958202304137
 30
0.0
 10
389.4445466071603
 20
28.86958202304137
 30
0.0
 10
389.34550351293
 20
28.49438767869736
 30
0.0
 10
389.34550351293
 20
28.49438767869736
 30
0.0
 10
389.34550351293
 20
28.49438767869736
 30
0.0
 10
388.7034864478522
 20
28.49438767869736
 30
0.0
 10
388.7034864478522
 20
28.49438767869736
 30
0.0
 10
388.7034864478522
 20
28.49438767869736
 30
0.0
 10
387.5547978229109
 20
24.78695932282479
 30
0.0
 10
387.5547978229109
 20
24.78695932282479
 30
0.0
 10
387.5547978229109
 20
24.78695932282479
 30
0.0
 10
387.1951510275336
 20
24.78695932282479
 30
0.0
 10
387.1951510275336
 20
24.78695932282479
 30
0.0
 10
387.1951510275336
 20
24.78695932282479
 30
0.0
 10
388.3448811150849
 20
28.49438767869736
 30
0.0
 10
388.3448811150849
 20
28.49438767869736
 30
0.0
 10
388.3448811150849
 20
28.49438767869736
 30
0.0
 10
387.8711346517413
 20
28.49438767869736
 30
0.0
 10
387.8711346517413
 20
28.49438767869736
 30
0.0
 10
387.8711346517413
 20
28.49438767869736
 30
0.0
 10
387.9704455506427
 20
28.86958202304137
 30
0.0
 10
387.9704455506427
 20
28.86958202304137
 30
0.0
 10
387.9704455506427
 20
28.86958202304137
 30
0.0
 10
388.4491166443289
 20
28.86958202304137
 30
0.0
 10
388.4491166443289
 20
28.86958202304137
 30
0.0
 10
388.4491166443289
 20
28.86958202304137
 30
0.0
 10
388.6184287086733
 20
29.38948015805433
 30
0.0
 10
388.6184287086733
 20
29.38948015805433
 30
0.0
 10
388.7553364078029
 20
29.82536201649855
 30
0.0
 10
388.8715041229524
 20
30.059378665011
 30
0.0
 10
388.971082826525
 20
30.23581730921654
 30
0.0
 10
389.0696051894502
 20
30.41240473379499
 30
0.0
 10
389.2645967461546
 20
30.58586777054282
 30
0.0
 10
389.4668487850558
 20
30.64408553045313
 30
0.0
  0
SPLINE
  5
3C71
102
{ACAD_REACTORS
330
3C64
330
3C75
102
}
330
A
100
AcDbEntity
  8
TEMPLATE
100
AcDbSpline
210
0.0
220
0.0
230
1.0
 70
    11
 71
     3
 72
    38
 73
    34
 74
     0
 42
0.000000001
 43
0.0000000001
 40
0.0
 40
0.0
 40
0.0
 40
0.0
 40
1.0
 40
1.0
 40
1.0
 40
2.0
 40
2.0
 40
2.0
 40
3.0
 40
3.0
 40
3.0
 40
4.0
 40
4.0
 40
4.0
 40
5.0
 40
5.0
 40
5.0
 40
6.0
 40
6.0
 40
6.0
 40
7.0
 40
7.0
 40
7.0
 40
8.0
 40
8.0
 40
8.0
 40
9.0
 40
9.0
 40
9.0
 40
10.0
 40
10.0
 40
10.0
 40
11.0
 40
11.0
 40
11.0
 40
11.0
 10
393.3716045494872
 20
28.85519496098328
 30
0.0
 10
393.3716045494872
 20
28.85519496098328
 30
0.0
 10
393.7413535321836
 20
28.85519496098328
 30
0.0
 10
393.7413535321836
 20
28.85519496098328
 30
0.0
 10
393.7413535321836
 20
28.85519496098328
 30
0.0
 10
393.5761775622055
 20
28.32635512555987
 30
0.0
 10
393.5761775622055
 20
28.32635512555987
 30
0.0
 10
393.7016886847722
 20
28.47480818162555
 30
0.0
 10
393.8997748732327
 20
28.67252241915381
 30
0.0
 10
394.0698903515905
 20
28.77222014702475
 30
0.0
 10
394.3240072284799
 20
28.92067320309043
 30
0.0
 10
394.4692168724166
 20
28.94025270016223
 30
0.0
 10
394.6289177246725
 20
28.93635465439262
 30
0.0
 10
394.6289177246725
 20
28.93635465439262
 30
0.0
 10
394.4728471135151
 20
28.43630382112264
 30
0.0
 10
394.4728471135151
 20
28.43630382112264
 30
0.0
 10
394.3712003627593
 20
28.47934598299858
 30
0.0
 10
394.057958165685
 20
28.39741263165024
 30
0.0
 10
393.8782612313133
 20
28.26815224368685
 30
0.0
 10
393.7162096491659
 20
28.15159769956793
 30
0.0
 10
393.6041780283826
 20
28.0524207030021
 30
0.0
 10
393.4714361796937
 20
27.80309455411968
 30
0.0
 10
393.3397060375404
 20
27.55339645430504
 30
0.0
 10
393.2357383129677
 20
27.15524529842472
 30
0.0
 10
393.0568150365349
 20
26.57765013480655
 30
0.0
 10
393.0568150365349
 20
26.57765013480655
 30
0.0
 10
392.4980257120495
 20
24.78695932282479
 30
0.0
 10
392.4980257120495
 20
24.78695932282479
 30
0.0
 10
392.4980257120495
 20
24.78695932282479
 30
0.0
 10
392.1391674526484
 20
24.78695932282479
 30
0.0
 10
392.1391674526484
 20
24.78695932282479
 30
0.0
 10
392.1391674526484
 20
24.78695932282479
 30
0.0
 10
393.3716045494872
 20
28.85519496098328
 30
0.0
 10
393.3716045494872
 20
28.85519496098328
 30
0.0
  0
SPLINE
  5
3C72
102
{ACAD_REACTORS
330
3C64
330
3C75
102
}
330
A
100
AcDbEntity
  8
TEMPLATE
100
AcDbSpline
210
0.0
220
0.0
230
1.0
 70
    11
 71
     3
 72
   104
 73
   100
 74
     0
 42
0.000000001
 43
0.0000000001
 40
0.0
 40
0.0
 40
0.0
 40
0.0
 40
1.0
 40
1.0
 40
1.0
 40
2.0
 40
2.0
 40
2.0
 40
3.0
 40
3.0
 40
3.0
 40
4.0
 40
4.0
 40
4.0
 40
5.0
 40
5.0
 40
5.0
 40
6.0
 40
6.0
 40
6.0
 40
7.0
 40
7.0
 40
7.0
 40
8.0
 40
8.0
 40
8.0
 40
9.0
 40
9.0
 40
9.0
 40
10.0
 40
10.0
 40
10.0
 40
11.0
 40
11.0
 40
11.0
 40
12.0
 40
12.0
 40
12.0
 40
13.0
 40
13.0
 40
13.0
 40
14.0
 40
14.0
 40
14.0
 40
15.0
 40
15.0
 40
15.0
 40
16.0
 40
16.0
 40
16.0
 40
17.0
 40
17.0
 40
17.0
 40
18.0
 40
18.0
 40
18.0
 40
19.0
 40
19.0
 40
19.0
 40
20.0
 40
20.0
 40
20.0
 40
21.0
 40
21.0
 40
21.0
 40
22.0
 40
22.0
 40
22.0
 40
23.0
 40
23.0
 40
23.0
 40
24.0
 40
24.0
 40
24.0
 40
25.0
 40
25.0
 40
25.0
 40
26.0
 40
26.0
 40
26.0
 40
27.0
 40
27.0
 40
27.0
 40
28.0
 40
28.0
 40
28.0
 40
29.0
 40
29.0
 40
29.0
 40
30.0
 40
30.0
 40
30.0
 40
31.0
 40
31.0
 40
31.0
 40
32.0
 40
32.0
 40
32.0
 40
33.0
 40
33.0
 40
33.0
 40
33.0
 10
395.4068307823444
 20
28.857396910502
 30
0.0
 10
395.4068307823444
 20
28.857396910502
 30
0.0
 10
395.7296544354325
 20
28.857396910502
 30
0.0
 10
395.7296544354325
 20
28.857396910502
 30
0.0
 10
395.7296544354325
 20
28.857396910502
 30
0.0
 10
395.5665613906749
 20
28.32805122181077
 30
0.0
 10
395.5665613906749
 20
28.32805122181077
 30
0.0
 10
395.7081110374387
 20
28.55000178208216
 30
0.0
 10
395.8351694758834
 20
28.64892585201409
 30
0.0
 10
396.0039756869598
 20
28.77675794839777
 30
0.0
 10
396.1732877513042
 20
28.90277492423224
 30
0.0
 10
396.3742602789986
 20
28.92845441659237
 30
0.0
 10
396.5137567566165
 20
28.92845441659237
 30
0.0
 10
396.6864610134627
 20
28.92845441659237
 30
0.0
 10
396.8531842993187
 20
28.8943539551269
 30
0.0
 10
396.9408159389486
 20
28.70506068670399
 30
0.0
 10
397.0079753992694
 20
28.55662250867558
 30
0.0
 10
397.0110997871
 20
28.5391110587869
 30
0.0
 10
396.9919071189977
 20
28.24610299242514
 30
0.0
 10
397.1674382029287
 20
28.54650544331934
 30
0.0
 10
397.2970854198616
 20
28.67589973361832
 30
0.0
 10
397.5174886642549
 20
28.80022061320189
 30
0.0
 10
397.7487826319435
 20
28.92845441659237
 30
0.0
 10
397.8836074058529
 20
28.93805075064353
 30
0.0
 10
398.0402433824273
 20
28.9149600367716
 30
0.0
 10
398.2710017407735
 20
28.88087445334342
 30
0.0
 10
398.4182943099307
 20
28.79853939498828
 30
0.0
 10
398.4953030309365
 20
28.54832056386854
 30
0.0
 10
398.5725795566135
 20
28.29887539068781
 30
0.0
 10
398.5308317839817
 20
28.16507720135141
 30
0.0
 10
398.4354040528126
 20
27.76796750808128
 30
0.0
 10
398.3918411596316
 20
27.58711008680102
 30
0.0
 10
398.3288177936771
 20
27.36812025595006
 30
0.0
 10
398.2463637110236
 20
27.10754631087745
 30
0.0
 10
398.2463637110236
 20
27.10754631087745
 30
0.0
 10
397.5174886642549
 20
24.78695932282479
 30
0.0
 10
397.5174886642549
 20
24.78695932282479
 30
0.0
 10
397.5174886642549
 20
24.78695932282479
 30
0.0
 10
397.1383962741413
 20
24.78695932282479
 30
0.0
 10
397.1383962741413
 20
24.78695932282479
 30
0.0
 10
397.1383962741413
 20
24.78695932282479
 30
0.0
 10
397.7765450495241
 20
26.81569873142421
 30
0.0
 10
397.7765450495241
 20
26.81569873142421
 30
0.0
 10
397.9098225075554
 20
27.24016913526807
 30
0.0
 10
398.0000429256735
 20
27.55015304217612
 30
0.0
 10
398.0467302066851
 20
27.74450484327716
 30
0.0
 10
398.1053199175276
 20
27.98694246089495
 30
0.0
 10
398.1286486799962
 20
28.06694166739577
 30
0.0
 10
398.1009160184902
 20
28.24339518963862
 30
0.0
 10
398.0755043308013
 20
28.4076487213048
 30
0.0
 10
397.9925146388055
 20
28.51460693137258
 30
0.0
 10
397.8504293826993
 20
28.51460693137258
 30
0.0
 10
397.6990007191758
 20
28.51460693137258
 30
0.0
 10
397.5763461797686
 20
28.49775011512458
 30
0.0
 10
397.4047131416073
 20
28.32532854098695
 30
0.0
 10
397.2330503473714
 20
28.15159769956793
 30
0.0
 10
397.0912031398618
 20
27.94766444245305
 30
0.0
 10
396.9799749330922
 20
27.71312706263549
 30
0.0
 10
396.8689847749192
 20
27.47716139123824
 30
0.0
 10
396.7564473008682
 20
27.17806820762544
 30
0.0
 10
396.6423625109393
 20
26.81569873142421
 30
0.0
 10
396.6423625109393
 20
26.81569873142421
 30
0.0
 10
396.0039756869598
 20
24.78695932282479
 30
0.0
 10
396.0039756869598
 20
24.78695932282479
 30
0.0
 10
396.0039756869598
 20
24.78695932282479
 30
0.0
 10
395.6474384013758
 20
24.78695932282479
 30
0.0
 10
395.6474384013758
 20
24.78695932282479
 30
0.0
 10
395.6474384013758
 20
24.78695932282479
 30
0.0
 10
396.3773549107547
 20
27.10650484826726
 30
0.0
 10
396.3773549107547
 20
27.10650484826726
 30
0.0
 10
396.4543636317604
 20
27.35336124295977
 30
0.0
 10
396.5122094407385
 20
27.55457181925085
 30
0.0
 10
396.5503269722719
 20
27.71183267339138
 30
0.0
 10
396.6151357027011
 20
27.98253856185753
 30
0.0
 10
396.6332869081932
 20
28.1655979326565
 30
0.0
 10
396.5842786533645
 20
28.32805122181077
 30
0.0
 10
396.5360440564749
 20
28.48998377965993
 30
0.0
 10
396.4512690000045
 20
28.53134472332225
 30
0.0
 10
396.3096895971661
 20
28.53134472332225
 30
0.0
 10
396.1909331035284
 20
28.53134472332225
 30
0.0
 10
396.0750331930502
 20
28.48038744560878
 30
0.0
 10
395.9427971976291
 20
28.37899362148695
 30
0.0
 10
395.7763119603696
 20
28.25142932977446
 30
0.0
 10
395.7096881093912
 20
28.1466730692254
 30
0.0
 10
395.6280076846768
 20
28.02220340926895
 30
0.0
 10
395.5177911844429
 20
27.85754817059597
 30
0.0
 10
395.4661941511259
 20
27.74670679279587
 30
0.0
 10
395.3731171498484
 20
27.50348063920177
 30
0.0
 10
395.2800103924964
 20
27.25882619402798
 30
0.0
 10
395.1918728995987
 20
26.97412007247326
 30
0.0
 10
395.1303968495222
 20
26.77719437092129
 30
0.0
 10
395.1303968495222
 20
26.77719437092129
 30
0.0
 10
394.5042100161195
 20
24.78695932282479
 30
0.0
 10
394.5042100161195
 20
24.78695932282479
 30
0.0
 10
394.5042100161195
 20
24.78695932282479
 30
0.0
 10
394.1308307923247
 20
24.78695932282479
 30
0.0
 10
394.1308307923247
 20
24.78695932282479
 30
0.0
 10
394.1308307923247
 20
24.78695932282479
 30
0.0
 10
395.4068307823444
 20
28.857396910502
 30
0.0
 10
395.4068307823444
 20
28.857396910502
 30
0.0
  0
SPLINE
  5
3C73
102
{ACAD_REACTORS
330
3C64
330
3C75
102
}
330
A
100
AcDbEntity
  8
TEMPLATE
100
AcDbSpline
210
0.0
220
0.0
230
1.0
 70
    11
 71
     3
 72
    32
 73
    28
 74
     0
 42
0.000000001
 43
0.0000000001
 40
0.0
 40
0.0
 40
0.0
 40
0.0
 40
1.0
 40
1.0
 40
1.0
 40
2.0
 40
2.0
 40
2.0
 40
3.0
 40
3.0
 40
3.0
 40
4.0
 40
4.0
 40
4.0
 40
5.0
 40
5.0
 40
5.0
 40
6.0
 40
6.0
 40
6.0
 40
7.0
 40
7.0
 40
7.0
 40
8.0
 40
8.0
 40
8.0
 40
9.0
 40
9.0
 40
9.0
 40
9.0
 10
390.3419600603343
 20
28.64284073476305
 30
0.0
 10
390.1254548617105
 20
28.36279143887966
 30
0.0
 10
389.9587315758544
 20
28.11075748721071
 30
0.0
 10
389.6888142233646
 20
27.31860614785359
 30
0.0
 10
389.4406634394279
 20
26.59401597582401
 30
0.0
 10
389.2827479516467
 20
26.06685735861421
 30
0.0
 10
389.2588984578731
 20
25.42484029353638
 30
0.0
 10
389.240747252381
 20
24.94707676012474
 30
0.0
 10
389.5316723935223
 20
24.78695932282479
 30
0.0
 10
389.9582257225866
 20
24.78695932282479
 30
0.0
 10
390.1420587513246
 20
24.78695932282479
 30
0.0
 10
390.6059559539832
 20
24.79865346013363
 30
0.0
 10
390.9363078939394
 20
25.20702582763122
 30
0.0
 10
391.1675721055534
 20
25.49393389870466
 30
0.0
 10
391.38071486775
 20
25.79134586410385
 30
0.0
 10
391.6664624519149
 20
26.76695828126675
 30
0.0
 10
391.9042432438614
 20
27.58257228542799
 30
0.0
 10
392.068883604497
 20
28.10971602460051
 30
0.0
 10
392.056713369995
 20
28.40985067082352
 30
0.0
 10
392.056713369995
 20
28.40985067082352
 30
0.0
 10
392.056713369995
 20
28.40985067082352
 30
0.0
 10
392.056713369995
 20
28.40985067082352
 30
0.0
 10
391.9791690396468
 20
28.91055613773418
 30
0.0
 10
391.615639076537
 20
29.01635386089345
 30
0.0
 10
391.4079416759881
 20
29.01635386089345
 30
0.0
 10
391.2033686632698
 20
29.01635386089345
 30
0.0
 10
390.6552022574085
 20
29.05174871160303
 30
0.0
 10
390.3419600603343
 20
28.64284073476305
 30
0.0
  0
SPLINE
  5
3C74
102
{ACAD_REACTORS
330
3C64
330
3C75
102
}
330
A
100
AcDbEntity
  8
TEMPLATE
100
AcDbSpline
210
0.0
220
0.0
230
1.0
 70
    11
 71
     3
 72
    29
 73
    25
 74
     0
 42
0.000000001
 43
0.0000000001
 40
0.0
 40
0.0
 40
0.0
 40
0.0
 40
1.0
 40
1.0
 40
1.0
 40
2.0
 40
2.0
 40
2.0
 40
3.0
 40
3.0
 40
3.0
 40
4.0
 40
4.0
 40
4.0
 40
5.0
 40
5.0
 40
5.0
 40
6.0
 40
6.0
 40
6.0
 40
7.0
 40
7.0
 40
7.0
 40
8.0
 40
8.0
 40
8.0
 40
8.0
 10
389.6462927927937
 20
25.54487629838084
 30
0.0
 10
389.6447157208412
 20
25.82830290872873
 30
0.0
 10
389.7341922370948
 20
26.33186495879882
 30
0.0
 10
389.9634032795631
 20
27.00563175545052
 30
0.0
 10
390.2756040140271
 20
27.91796788002499
 30
0.0
 10
390.4628292352669
 20
28.25142932977446
 30
0.0
 10
390.6266661818889
 20
28.41374871659313
 30
0.0
 10
390.866024045788
 20
28.65010121695988
 30
0.0
 10
391.1878062362659
 20
28.66188462249246
 30
0.0
 10
391.2827281141673
 20
28.65010121695988
 30
0.0
 10
391.4178206927478
 20
28.6338841563153
 30
0.0
 10
391.6086463990114
 20
28.54546398070914
 30
0.0
 10
391.6200429755745
 20
28.24779908867604
 30
0.0
 10
391.629148334395
 20
27.99304245618328
 30
0.0
 10
391.5557400984131
 20
27.51593355641234
 30
0.0
 10
391.2987963944389
 20
26.76695828126675
 30
0.0
 10
391.0026639402465
 20
25.896622855958
 30
0.0
 10
390.824782126424
 20
25.55448751046927
 30
0.0
 10
390.6821910170501
 20
25.40537982076289
 30
0.0
 10
390.413553175767
 20
25.1258512561846
 30
0.0
 10
390.1254548617105
 20
25.15269123545324
 30
0.0
 10
390.0829334311396
 20
25.15269123545324
 30
0.0
 10
390.0277061567243
 20
25.15269123545324
 30
0.0
 10
389.6470664507327
 20
25.21261996965174
 30
0.0
 10
389.6462927927937
 20
25.54487629838084
 30
0.0
  0
MTEXT
  5
3CB5
102
{ACAD_XDICTIONARY
360
3CB7
102
}
330
A
100
AcDbEntity
  8
TEMPLATE
100
AcDbMText
 10
15.00779663219942
 20
17.57619761830519
 30
0.0
 40
4.0
 41
0.0
 46
4.0
 71
     1
 72
     1
  1
{20190826N}
  7
ＭＳ ゴシック
 73
     1
 44
1.0
1001
ACAD
1000
ACAD_MTEXT_DEFINED_HEIGHT_BEGIN
1070
    46
1040
4.0
1000
ACAD_MTEXT_DEFINED_HEIGHT_END
  0
DIMENSION
  5
4053
330
A
100
AcDbEntity
  8
DIM
390
1D
100
AcDbDimension
  2
*D45
 10
373.0664945252955
 20
313.3297191616007
 30
0.0
 11
373.0664945252955
 21
381.4068331594062
 31
0.0
 70
   160
  1
\A1;∅<>
 71
     5
 41
0.96
 42
31.74999999897682
 73
     0
 74
     1
 75
     1
  3
tfrom線あり
100
AcDbAlignedDimension
 13
353.1009085259393
 23
345.0797191605776
 33
0.0
 14
353.1009085259393
 24
313.3297191616007
 34
0.0
 50
90.0
100
AcDbRotatedDimension
1001
ACAD
1000
DSTYLE
1002
{
1070
   172
1070
     1
1070
   271
1070
     2
1002
}
  0
DIMENSION
  5
4054
330
A
100
AcDbEntity
  8
DIM
390
1D
100
AcDbDimension
  2
*D46
 10
170.512510531824
 20
187.6405271656517
 30
0.0
 11
261.8067105288817
 21
187.6405271656517
 31
0.0
 70
   160
  1
350
 71
     5
 41
0.96
 42
182.5883979941153
 73
     0
 74
     0
 75
     0
  3
tfrom線あり
100
AcDbAlignedDimension
 13
353.1009085259393
 23
313.3297131616005
 33
0.0
 14
170.512510531824
 24
275.2047131628294
 34
0.0
100
AcDbRotatedDimension
1001
ACAD
1000
DSTYLE
1002
{
1070
   271
1070
     2
1002
}
  0
DIMENSION
  5
4055
330
A
100
AcDbEntity
  8
DIM
390
1D
100
AcDbDimension
  2
*D47
 10
94.50108453427401
 20
187.6405271656517
 30
0.0
 11
133.9047405330044
 21
187.6405271656517
 31
0.0
 70
   160
  1
76
 71
     5
 41
0.96
 42
75.99999999755039
 73
     0
 74
     0
 75
     0
  3
tfrom線あり
100
AcDbAlignedDimension
 13
170.5010845318244
 23
275.2047131628294
 33
0.0
 14
94.50108453427401
 24
275.2047131628294
 34
0.0
100
AcDbRotatedDimension
1001
ACAD
1000
DSTYLE
1002
{
1070
   271
1070
     8
1002
}
  0
LINE
  5
4056
330
A
100
AcDbEntity
  8
MODEL
390
1D
100
AcDbLine
 10
154.6489385323356
 20
291.2047191623139
 30
0.0
 11
154.6489385323356
 21
289.9047191623557
 31
0.0
  0
LINE
  5
4057
330
A
100
AcDbEntity
  8
MODEL
390
1D
100
AcDbLine
 10
191.7925885311383
 20
277.9047191627424
 30
0.0
 11
170.5010845318244
 21
277.9047191627424
 31
0.0
  0
LINE
  5
4058
330
A
100
AcDbEntity
  8
MODEL
390
1D
100
AcDbLine
 10
170.5010845318244
 20
289.9047191623557
 30
0.0
 11
191.7925885311383
 21
289.9047191623557
 31
0.0
  0
ELLIPSE
  5
4059
330
A
100
AcDbEntity
  8
MODEL
390
1D
100
AcDbEllipse
 10
189.1902225312222
 20
283.904719162549
 30
0.0
 11
-1.199999999961321E-15
 21
-5.999999999806607
 31
0.0
210
0.0
220
0.0
230
1.0
 40
0.8927610000000001
 41
0.0
 42
6.283185307179586
  0
ELLIPSE
  5
405A
330
A
100
AcDbEntity
  8
MODEL
390
1D
100
AcDbEllipse
 10
170.5010845318244
 20
283.904719162549
 30
0.0
 11
10.66536450350701
 21
1.419999999954230E-14
 31
0.0
210
0.0
220
0.0
230
1.0
 40
0.562569
 41
6.283185307179579
 42
7.853981633974481
  0
ARC
  5
405B
330
A
100
AcDbEntity
  8
MODEL
390
1D
100
AcDbCircle
 10
186.5010845313088
 20
283.904719162549
 30
0.0
 40
7.999999999742142
100
AcDbArc
 50
311.4096219999976
 51
48.59037800000236
  0
ELLIPSE
  5
405C
330
A
100
AcDbEntity
  8
MODEL
390
1D
100
AcDbEllipse
 10
170.5010845318244
 20
283.904719162549
 30
0.0
 11
10.66536450350701
 21
-1.199999999961321E-14
 31
0.0
210
0.0
220
0.0
230
1.0
 40
0.562569
 41
-1.570796326794895
 42
0.0000000000000071
  0
ARC
  5
405D
330
A
100
AcDbEntity
  8
MODEL
390
1D
100
AcDbCircle
 10
132.5010845330493
 20
275.2047191628296
 30
0.0
 40
53.87499999826349
100
AcDbArc
 50
180.0
 51
0.0
  0
ELLIPSE
  5
405E
330
A
100
AcDbEntity
  8
MODEL
390
1D
100
AcDbEllipse
 10
151.8347985324265
 20
283.904719162549
 30
0.0
 11
-1.199999999961321E-15
 21
-5.999999999806607
 31
0.0
210
0.0
220
0.0
230
1.0
 40
0.8927610000000001
 41
0.0
 42
6.283185307179586
  0
ELLIPSE
  5
405F
330
A
100
AcDbEntity
  8
MODEL
390
1D
100
AcDbEllipse
 10
75.83479853487599
 20
367.2422191640532
 30
0.0
 11
-1.199999999961321E-15
 21
-5.999999999806607
 31
0.0
210
0.0
220
0.0
230
1.0
 40
0.8927610000000001
 41
0.0
 42
6.283185307179586
  0
DIMENSION
  5
4060
330
A
100
AcDbEntity
  8
DIM
390
1D
100
AcDbDimension
  2
*D48
 10
229.2766025299303
 20
329.204719161089
 30
0.0
 11
229.2766025299303
 21
280.5280611626578
 31
0.0
 70
   160
 71
     5
 41
0.96
 42
91.9999999970346
 73
     0
 74
     0
 75
     0
  3
tfrom線あり
100
AcDbAlignedDimension
 13
132.5125105330488
 23
237.2047191640544
 33
0.0
 14
288.6713145280158
 24
329.204719161089
 34
0.0
 50
90.0
100
AcDbRotatedDimension
1001
ACAD
1000
DSTYLE
1002
{
1070
   271
1070
     2
1002
}
  0
LINE
  5
4061
330
A
100
AcDbEntity
  8
MODEL
390
1D
100
AcDbLine
 10
94.50108453427403
 20
313.1044591657981
 30
0.0
 11
78.68491453478408
 21
313.1044591657981
 31
0.0
  0
ARC
  5
4062
330
A
100
AcDbEntity
  8
MODEL
390
1D
100
AcDbCircle
 10
73.62608453494717
 20
311.0041991658654
 30
0.0
 40
4.999999999838839
100
AcDbArc
 50
0.0
 51
24.83787600000133
  0
ARC
  5
4063
330
A
100
AcDbEntity
  8
MODEL
390
1D
100
AcDbCircle
 10
82.70108453465481
 20
315.2047191657305
 30
0.0
 40
4.999999999838839
100
AcDbArc
 50
180.0
 51
204.8378759999992
  0
ARC
  5
4064
330
A
100
AcDbEntity
  8
MODEL
390
1D
100
AcDbCircle
 10
115.3760845336011
 20
311.0041991658654
 30
0.0
 40
4.999999999838839
100
AcDbArc
 50
155.1621239999979
 51
180.0
  0
ARC
  5
4065
330
A
100
AcDbEntity
  8
MODEL
390
1D
100
AcDbCircle
 10
106.301084533894
 20
315.2047191657305
 30
0.0
 40
4.999999999838839
100
AcDbArc
 50
335.1621239999993
 51
0.0
  0
LINE
  5
4066
330
A
100
AcDbEntity
  8
MODEL
390
1D
100
AcDbLine
 10
77.70108453481579
 20
315.2047191657305
 30
0.0
 11
77.70108453481579
 21
360.20471916428
 31
0.0
  0
LINE
  5
4067
330
A
100
AcDbEntity
  8
MODEL
390
1D
100
AcDbLine
 10
77.09916053483518
 20
360.20471916428
 30
0.0
 11
94.50108453427403
 21
360.20471916428
 31
0.0
  0
LINE
  5
4068
330
A
100
AcDbEntity
  8
MODEL
390
1D
100
AcDbLine
 10
75.30215853489302
 20
361.2422191642465
 30
0.0
 11
77.09916053483518
 21
360.20471916428
 31
0.0
  0
LINE
  5
4069
330
A
100
AcDbEntity
  8
MODEL
390
1D
100
AcDbLine
 10
78.62608453478595
 20
275.2047191628296
 30
0.0
 11
78.62608453478596
 21
311.0041991658654
 31
0.0
  0
LINE
  5
406A
330
A
100
AcDbEntity
  8
MODEL
390
1D
100
AcDbLine
 10
110.3760845337624
 20
275.2047191628296
 30
0.0
 11
110.3760845337624
 21
311.0041991658654
 31
0.0
  0
ARC
  5
406B
330
A
100
AcDbEntity
  8
MODEL
390
1D
100
AcDbCircle
 10
132.5010845330493
 20
275.2047191628296
 30
0.0
 40
22.12499999928686
100
AcDbArc
 50
180.0
 51
0.0
  0
LINE
  5
406C
330
A
100
AcDbEntity
  8
MODEL
390
1D
100
AcDbLine
 10
154.6260845323361
 20
275.2047191628296
 30
0.0
 11
154.6260845323361
 21
277.9047191627424
 31
0.0
  0
LINE
  5
406D
330
A
100
AcDbEntity
  8
MODEL
390
1D
100
AcDbLine
 10
186.3760845313128
 20
275.2047191628296
 30
0.0
 11
186.3760845313128
 21
277.2047191627651
 31
0.0
  0
LINE
  5
406E
330
A
100
AcDbEntity
  8
HIDDEN
  6
CENTER
390
1D
100
AcDbLine
 10
170.512510531824
 20
275.2047191628296
 30
0.0
 11
170.512510531824
 21
291.2047191623139
 31
0.0
  0
ARC
  5
406F
330
A
100
AcDbEntity
  8
HIDDEN
  6
CENTER
390
1D
100
AcDbCircle
 10
132.5010845330493
 20
275.2047191628296
 30
0.0
 40
37.99999999877518
100
AcDbArc
 50
180.0
 51
0.0
  0
ELLIPSE
  5
4070
330
A
100
AcDbEntity
  8
MODEL
390
1D
100
AcDbEllipse
 10
170.5239385318239
 20
283.904719162549
 30
0.0
 11
-10.66536450350701
 21
1.559999999949718E-14
 31
0.0
210
0.0
220
0.0
230
1.0
 40
0.562569
 41
-1.570796326794895
 42
0.0000000000000071
  0
LINE
  5
4071
330
A
100
AcDbEntity
  8
MODEL
390
1D
100
AcDbLine
 10
149.23243453251
 20
277.9047191627424
 30
0.0
 11
170.5239385318239
 21
277.9047191627424
 31
0.0
  0
LINE
  5
4072
330
A
100
AcDbEntity
  8
MODEL
390
1D
100
AcDbLine
 10
170.5239385318239
 20
289.9047191623557
 30
0.0
 11
149.23243453251
 21
289.9047191623557
 31
0.0
  0
ARC
  5
4073
330
A
100
AcDbEntity
  8
MODEL
390
1D
100
AcDbCircle
 10
154.5239385323398
 20
283.904719162549
 30
0.0
 40
7.999999999742142
100
AcDbArc
 50
131.4096219999995
 51
228.5903779999996
  0
ELLIPSE
  5
4074
330
A
100
AcDbEntity
  8
MODEL
390
1D
100
AcDbEllipse
 10
170.5239385318239
 20
283.904719162549
 30
0.0
 11
-10.66536450350701
 21
-8.199999999735698E-15
 31
0.0
210
0.0
220
0.0
230
1.0
 40
0.562569
 41
6.283185307179579
 42
7.853981633974481
  0
ELLIPSE
  5
4075
330
A
100
AcDbEntity
  8
MODEL
390
1D
100
AcDbEllipse
 10
94.50108453427403
 20
367.2422191640532
 30
0.0
 11
-10.66536450350701
 21
1.399999999954875E-15
 31
0.0
210
0.0
220
0.0
230
1.0
 40
0.562569
 41
4.712388980384691
 42
7.853981633974482
  0
LINE
  5
4076
330
A
100
AcDbEntity
  8
MODEL
390
1D
100
AcDbLine
 10
73.20958253496043
 20
361.2422191642465
 30
0.0
 11
94.50108453427403
 21
361.2422191642465
 31
0.0
  0
LINE
  5
4077
330
A
100
AcDbEntity
  8
MODEL
390
1D
100
AcDbLine
 10
94.50108453427403
 20
373.2422191638597
 30
0.0
 11
73.20958253496043
 21
373.2422191638597
 31
0.0
  0
ARC
  5
4078
330
A
100
AcDbEntity
  8
MODEL
390
1D
100
AcDbCircle
 10
78.50108453479017
 20
367.2422191640532
 30
0.0
 40
7.999999999742142
100
AcDbArc
 50
131.4096219999996
 51
228.5903779999985
  0
LINE
  5
4079
330
A
100
AcDbEntity
  8
MODEL
390
1D
100
AcDbLine
 10
110.3760845337624
 20
279.0043211627072
 30
0.0
 11
110.3760845337624
 21
278.9154951627099
 31
0.0
  0
LINE
  5
407A
330
A
100
AcDbEntity
  8
HIDDEN
  6
CENTER
390
1D
100
AcDbLine
 10
94.50108453427401
 20
275.2047191628296
 30
0.0
 11
94.50108453427404
 21
379.9114704
 31
0.0
  0
ARC
  5
407B
330
A
100
AcDbEntity
  8
HIDDEN
  6
CENTER
390
1D
100
AcDbCircle
 10
208.5239385305991
 20
291.2047191623139
 30
0.0
 40
37.99999999877518
100
AcDbArc
 50
90.0
 51
180.0
  0
LINE
  5
407C
330
A
100
AcDbEntity
  8
MODEL
390
1D
100
AcDbLine
 10
208.5239385305991
 20
313.3297191616007
 30
0.0
 11
263.7041205288207
 21
313.3297191616007
 31
0.0
  0
LINE
  5
407D
330
A
100
AcDbEntity
  8
MODEL
390
1D
100
AcDbLine
 10
208.5239385305991
 20
345.0797191605776
 30
0.0
 11
263.7041205288207
 21
345.0797191605776
 31
0.0
  0
ARC
  5
407E
330
A
100
AcDbEntity
  8
MODEL
390
1D
100
AcDbCircle
 10
208.5239385305991
 20
291.2047191623139
 30
0.0
 40
22.12499999928686
100
AcDbArc
 50
90.0
 51
180.0
  0
ARC
  5
407F
330
A
100
AcDbEntity
  8
MODEL
390
1D
100
AcDbCircle
 10
208.5239385305991
 20
291.2047191623139
 30
0.0
 40
53.87499999826349
100
AcDbArc
 50
90.0
 51
180.0
  0
LINE
  5
4080
330
A
100
AcDbEntity
  8
MODEL
390
1D
100
AcDbLine
 10
186.3989385313123
 20
289.9047191623557
 30
0.0
 11
186.3989385313123
 21
291.2047191623139
 31
0.0
  0
LINE
  5
4081
330
A
100
AcDbEntity
  8
MODEL
390
1D
100
AcDbLine
 10
353.1009085259393
 20
345.0797191605776
 30
0.0
 11
353.1009085259393
 21
313.3297191616007
 31
0.0
  0
LINE
  5
4082
330
A
100
AcDbEntity
  8
MODEL
390
1D
100
AcDbLine
 10
353.1009085259393
 20
345.0797191605776
 30
0.0
 11
353.1009085259393
 21
329.204719161089
 31
0.0
  0
DIMENSION
  5
4083
330
A
100
AcDbEntity
  8
DIM
390
1D
100
AcDbDimension
  2
*D49
 10
118.5010845335003
 20
393.9677306394013
 30
0.0
 11
94.50108453427397
 21
393.9677306394013
 31
0.0
 70
   160
  1
\A1;六角対辺43
 71
     5
 41
0.96
 42
47.99999999845245
 73
     0
 74
     0
 75
     0
  3
tfrom線あり
100
AcDbAlignedDimension
 13
70.50108453504787
 23
373.9570125829184
 33
0.0
 14
118.5010845335003
 24
373.9570125829184
 34
0.0
100
AcDbRotatedDimension
1001
ACAD
1000
DSTYLE
1002
{
1070
   271
1070
     2
1002
}
  0
DIMENSION
  5
4084
330
A
100
AcDbEntity
  8
DIM
390
1D
100
AcDbDimension
  2
*D50
 10
194.5010845310507
 20
359.1024674987942
 30
0.0
 11
172.0617785317743
 21
359.1024674987942
 31
0.0
 70
   160
  1
\A1;六角対辺43
 71
     5
 41
0.96
 42
47.99999999845272
 73
     0
 74
     0
 75
     0
  3
tfrom線あり
100
AcDbAlignedDimension
 13
146.501084532598
 23
292.4273430403398
 33
0.0
 14
194.5010845310507
 24
292.4273430403398
 34
0.0
100
AcDbRotatedDimension
1001
ACAD
1000
DSTYLE
1002
{
1070
   271
1070
     2
1002
}
  0
ARC
  5
4085
330
A
100
AcDbEntity
  8
MODEL
390
1D
100
AcDbCircle
 10
285.0549025281323
 20
337.1422191608333
 30
0.0
 40
13.85078199955356
100
AcDbArc
 50
145.0352499999995
 51
214.9647500000009
  0
ARC
  5
4086
330
A
100
AcDbEntity
  8
MODEL
390
1D
100
AcDbCircle
 10
252.3533405291864
 20
337.1422191608333
 30
0.0
 40
13.85078199955356
100
AcDbArc
 50
325.035249999999
 51
34.96475000000063
  0
ARC
  5
4087
330
A
100
AcDbEntity
  8
MODEL
390
1D
100
AcDbCircle
 10
275.0549025284548
 20
337.1422191608333
 30
0.0
 40
13.85078199955356
100
AcDbArc
 50
145.0352499999996
 51
214.9647500000005
  0
ARC
  5
4088
330
A
100
AcDbEntity
  8
MODEL
390
1D
100
AcDbCircle
 10
285.0549025281323
 20
321.2672191613449
 30
0.0
 40
13.85078199955356
100
AcDbArc
 50
145.0352499999995
 51
214.9647500000005
  0
ARC
  5
4089
330
A
100
AcDbEntity
  8
MODEL
390
1D
100
AcDbCircle
 10
262.3533405288639
 20
321.2672191613449
 30
0.0
 40
13.85078199955356
100
AcDbArc
 50
325.0352499999994
 51
34.96475000000037
  0
ARC
  5
408A
330
A
100
AcDbEntity
  8
MODEL
390
1D
100
AcDbCircle
 10
252.3533405291864
 20
321.2672191613449
 30
0.0
 40
13.85078199955356
100
AcDbArc
 50
325.035249999999
 51
34.96475000000063
  0
LINE
  5
408B
330
A
100
AcDbEntity
  8
MODEL
390
1D
100
AcDbLine
 10
314.1038985271962
 20
362.2047191600254
 30
0.0
 11
323.1009085269063
 21
362.2047191600254
 31
0.0
  0
ARC
  5
408C
330
A
100
AcDbEntity
  8
MODEL
390
1D
100
AcDbCircle
 10
314.1038985271962
 20
351.2017291603802
 30
0.0
 40
11.00299199964535
100
AcDbArc
 50
90.0
 51
180.0
  0
DIMENSION
  5
408D
330
A
100
AcDbEntity
  8
DIM
390
1D
100
AcDbDimension
  2
*D51
 10
391.1343325247129
 20
296.2047191621527
 30
0.0
 11
391.1343325247129
 21
330.7841771610379
 31
0.0
 70
   160
  1
\A1;∅<>
 71
     5
 41
0.96
 42
65.99999999787269
 73
     0
 74
     0
 75
     0
  3
tfrom線あり
100
AcDbAlignedDimension
 13
323.1009005269061
 23
362.2047191600254
 33
0.0
 14
323.1009005269061
 24
296.2047191621527
 34
0.0
 50
90.0
100
AcDbRotatedDimension
1001
ACAD
1000
DSTYLE
1002
{
1070
   271
1070
     2
1002
}
  0
LINE
  5
408E
330
A
100
AcDbEntity
  8
MODEL
390
1D
100
AcDbLine
 10
323.1009085269063
 20
362.2047191600254
 30
0.0
 11
323.1009085269063
 21
296.2047191621527
 31
0.0
  0
ARC
  5
408F
330
A
100
AcDbEntity
  8
MODEL
390
1D
100
AcDbCircle
 10
314.1038985271962
 20
307.2077111617978
 30
0.0
 40
11.00299199964535
100
AcDbArc
 50
180.0
 51
270.0
  0
LINE
  5
4090
330
A
100
AcDbEntity
  8
MODEL
390
1D
100
AcDbLine
 10
314.1038985271962
 20
296.2047191621527
 30
0.0
 11
323.1009085269063
 21
296.2047191621527
 31
0.0
  0
LINE
  5
4091
330
A
100
AcDbEntity
  8
MODEL
390
1D
100
AcDbLine
 10
303.1009085275508
 20
351.2017291603802
 30
0.0
 11
303.1009085275508
 21
307.2077111617978
 31
0.0
  0
LINE
  5
4092
330
A
100
AcDbEntity
  8
MODEL
390
1D
100
AcDbLine
 10
273.7041205284982
 20
345.0797191605776
 30
0.0
 11
303.1009085275508
 21
345.0797191605776
 31
0.0
  0
LINE
  5
4093
330
A
100
AcDbEntity
  8
MODEL
390
1D
100
AcDbLine
 10
273.7041205284982
 20
313.3297191616007
 30
0.0
 11
303.1009085275508
 21
313.3297191616007
 31
0.0
  0
LINE
  5
4094
330
A
100
AcDbEntity
  8
MODEL
390
1D
100
AcDbLine
 10
323.1009085269063
 20
345.0797191605776
 30
0.0
 11
353.1009085259393
 21
345.0797191605776
 31
0.0
  0
LINE
  5
4095
330
A
100
AcDbEntity
  8
MODEL
390
1D
100
AcDbLine
 10
323.1009085269063
 20
313.3297191616007
 30
0.0
 11
353.1009085259393
 21
313.3297191616007
 31
0.0
  0
LINE
  5
4096
330
A
100
AcDbEntity
  8
MODEL
390
1D
100
AcDbLine
 10
111.3010845337328
 20
315.2047191657305
 30
0.0
 11
111.3010845337328
 21
360.20471916428
 31
0.0
  0
LINE
  5
4097
330
A
100
AcDbEntity
  8
MODEL
390
1D
100
AcDbLine
 10
111.9030085337134
 20
360.20471916428
 30
0.0
 11
94.50108453427403
 21
360.20471916428
 31
0.0
  0
ELLIPSE
  5
4098
330
A
100
AcDbEntity
  8
MODEL
390
1D
100
AcDbEllipse
 10
94.50108453427403
 20
367.2422191640532
 30
0.0
 11
10.66536450350701
 21
0.0
 31
0.0
210
0.0
220
0.0
230
1.0
 40
0.562569
 41
-1.570796326794896
 42
1.570796326794896
  0
LINE
  5
4099
330
A
100
AcDbEntity
  8
MODEL
390
1D
100
AcDbLine
 10
115.7925885335882
 20
361.2422191642465
 30
0.0
 11
94.50108453427403
 21
361.2422191642465
 31
0.0
  0
LINE
  5
409A
330
A
100
AcDbEntity
  8
MODEL
390
1D
100
AcDbLine
 10
94.50108453427403
 20
373.2422191638597
 30
0.0
 11
115.7925885335882
 21
373.2422191638597
 31
0.0
  0
ARC
  5
409B
330
A
100
AcDbEntity
  8
MODEL
390
1D
100
AcDbCircle
 10
110.5010845337584
 20
367.2422191640532
 30
0.0
 40
7.999999999742142
100
AcDbArc
 50
311.4096219999972
 51
48.59037800000227
  0
LINE
  5
409C
330
A
100
AcDbEntity
  8
MODEL
390
1D
100
AcDbLine
 10
113.7000105336554
 20
361.2422191642465
 30
0.0
 11
111.9030085337134
 21
360.20471916428
 31
0.0
  0
ELLIPSE
  5
409D
330
A
100
AcDbEntity
  8
MODEL
390
1D
100
AcDbEllipse
 10
113.1673705336726
 20
367.2422191640532
 30
0.0
 11
-1.199999999961321E-15
 21
-5.999999999806607
 31
0.0
210
0.0
220
0.0
230
1.0
 40
0.8927610000000001
 41
0.0
 42
6.283185307179586
  0
LINE
  5
409E
330
A
100
AcDbEntity
  8
MODEL
390
1D
100
AcDbLine
 10
94.50108453427403
 20
313.1044591657981
 30
0.0
 11
110.3172545337642
 21
313.1044591657981
 31
0.0
  0
DIMENSION
  5
409F
330
A
100
AcDbEntity
  8
DIM
390
1D
100
AcDbDimension
  2
*D52
 10
56.80910053548907
 20
367.2047191640544
 30
0.0
 11
56.80910053548907
 21
341.2047191648924
 31
0.0
 70
   160
 71
     5
 41
0.96
 42
51.99999999832386
 73
     0
 74
     0
 75
     0
  3
tfrom線あり
100
AcDbAlignedDimension
 13
77.70108453481579
 23
315.2047191657305
 33
0.0
 14
91.50108253437101
 24
367.2047191640544
 34
0.0
 50
90.0
100
AcDbRotatedDimension
1001
ACAD
1000
DSTYLE
1002
{
1070
   271
1070
     2
1002
}
  0
DIMENSION
  5
40A0
330
A
100
AcDbEntity
  8
DIM
390
1D
100
AcDbDimension
  2
*D53
 10
42.04083453596514
 20
367.2047191640544
 30
0.0
 11
42.04083453596513
 21
302.2047191640544
 31
0.0
 70
   160
 71
     5
 41
0.96
 42
130.0
 73
     0
 74
     0
 75
     0
  3
tfrom線あり
100
AcDbAlignedDimension
 13
132.5010865330495
 23
237.2047191640544
 33
0.0
 14
65.16855776179209
 24
367.2047191640544
 34
0.0
 50
90.0
100
AcDbRotatedDimension
1001
ACAD
1000
DSTYLE
1002
{
1070
   271
1070
     2
1002
}
  0
LINE
  5
40A1
330
A
100
AcDbEntity
  8
HIDDEN
  6
CENTER
390
1D
100
AcDbLine
 10
362.4613785256375
 20
329.204719161089
 30
0.0
 11
208.5239385305991
 21
329.204719161089
 31
0.0
  0
VIEWPORT
  5
349
330
B
100
AcDbEntity
 67
     1
  8
0
100
AcDbViewport
 10
202.5
 20
128.5
 30
0.0
 40
486.0
 41
308.4
 68
     1
 69
     1
 12
202.5
 22
128.5
 13
0.0
 23
0.0
 14
0.5
 24
0.5
 15
0.0
 25
0.0
 16
0.0
 26
0.0
 36
1.0
 17
0.0
 27
0.0
 37
0.0
 42
50.0
 43
0.0
 44
0.0
 45
308.4
 50
0.0
 51
0.0
 72
   100
 90
   557152
  1

281
     0
 71
     1
 74
     0
110
0.0
120
0.0
130
0.0
111
1.0
121
0.0
131
0.0
112
0.0
122
1.0
132
0.0
 79
     0
146
0.0
170
     0
 61
     5
348
26C
292
     1
282
     1
141
0.0
142
0.0
 63
   256
  0
VIEWPORT
  5
34A
330
B
100
AcDbEntity
 67
     1
  8
0
100
AcDbViewport
 10
202.5
 20
128.5
 30
0.0
 40
324.0
 41
205.6
 68
     2
 69
     2
 12
986.6781359294573
 22
1427.077061889956
 13
0.0
 23
0.0
 14
0.5
 24
0.5
 15
0.0
 25
0.0
 16
0.0
 26
0.0
 36
1.0
 17
0.0
 27
0.0
 37
0.0
 42
50.0
 43
0.0
 44
0.0
 45
2890.021615685494
 50
0.0
 51
0.0
 72
   100
 90
   557152
  1

281
     0
 71
     1
 74
     0
110
0.0
120
0.0
130
0.0
111
1.0
121
0.0
131
0.0
112
0.0
122
1.0
132
0.0
 79
     0
146
0.0
170
     0
 61
     5
348
26C
292
     1
282
     1
141
0.0
142
0.0
 63
   256
  0
ENDSEC
  0
SECTION
  2
OBJECTS
  0
DICTIONARY
  5
19
330
0
100
AcDbDictionary
281
     1
  3
ACAD_COLOR
350
674
  3
ACAD_DETAILVIEWSTYLE
350
BBF
  3
ACAD_FIELDLIST
350
3BE4
  3
ACAD_GROUP
350
1A
  3
ACAD_IMAGE_VARS
350
27B
  3
ACAD_LAYOUT
350
1E
  3
ACAD_MATERIAL
350
263
  3
ACAD_MLEADERSTYLE
350
336
  3
ACAD_MLINESTYLE
350
1B
  3
ACAD_PLOTSETTINGS
350
22
  3
ACAD_PLOTSTYLENAME
350
1F
  3
ACAD_SCALELIST
350
241
  3
ACAD_SECTIONVIEWSTYLE
350
BC0
  3
ACAD_TABLESTYLE
350
278
  3
ACAD_VISUALSTYLE
350
267
  3
ACDB_RECOMPOSE_DATA
350
41C6
  3
AcDbVariableDictionary
350
330
  3
APPDATA
350
27A
  3
DimOffsetDictionary
350
E38
  0
SUN
  5
904
330
15
100
AcDbSun
 90
        1
290
     0
 63
     7
421
 16777215
 40
1.0
291
     1
 91
  2455826
 92
 54000000
292
     0
 70
     2
 71
   256
280
     1
  0
DICTIONARY
  5
2E1
330
2
100
AcDbDictionary
280
     1
281
     1
  3
ACAD_LAYERSTATES
360
2E2
  3
ACLYDICTIONARY
360
DDE
  0
DICTIONARY
  5
3D3D
330
A
100
AcDbDictionary
280
     1
281
     1
  3
ACAD_SORTENTS
360
3D3E
  0
DICTIONARY
  5
3CB7
330
3CB5
100
AcDbDictionary
280
     1
281
     1
  3
ACAD_FIELD
360
414A
  0
DICTIONARY
  5
674
102
{ACAD_REACTORS
330
19
102
}
330
19
100
AcDbDictionary
281
     1
  0
DICTIONARY
  5
BBF
102
{ACAD_REACTORS
330
19
102
}
330
19
100
AcDbDictionary
281
     1
  0
FIELDLIST
  5
3BE4
102
{ACAD_REACTORS
330
19
102
}
330
19
100
AcDbIdSet
 90
        2
330
3CB9
330
3CB6
100
AcDbFieldList
  0
DICTIONARY
  5
1A
102
{ACAD_REACTORS
330
19
102
}
330
19
100
AcDbDictionary
281
     1
  3
*A1
350
3C75
  0
RASTERVARIABLES
  5
27B
102
{ACAD_REACTORS
330
19
102
}
330
19
100
AcDbRasterVariables
 90
        0
 70
     1
 71
     1
 72
     1
  0
DICTIONARY
  5
1E
102
{ACAD_REACTORS
330
19
102
}
330
19
100
AcDbDictionary
281
     1
  3
Layout1
350
21
  3
Model
350
20
  0
DICTIONARY
  5
263
102
{ACAD_REACTORS
330
19
102
}
330
19
100
AcDbDictionary
281
     1
  3
ByBlock
350
265
  3
ByLayer
350
264
  3
Global
350
266
  0
DICTIONARY
  5
336
102
{ACAD_REACTORS
330
19
102
}
330
19
100
AcDbDictionary
281
     1
  3
Standard
350
D59
  0
DICTIONARY
  5
1B
102
{ACAD_REACTORS
330
19
102
}
330
19
100
AcDbDictionary
281
     1
  3
Standard
350
1C
  0
DICTIONARY
  5
22
102
{ACAD_REACTORS
330
19
102
}
330
19
100
AcDbDictionary
281
     1
  0
ACDBDICTIONARYWDFLT
  5
1F
102
{ACAD_REACTORS
330
19
102
}
330
19
100
AcDbDictionary
281
     1
  3
Normal
350
1D
100
AcDbDictionaryWithDefault
340
1D
  0
DICTIONARY
  5
241
102
{ACAD_REACTORS
330
19
102
}
330
19
100
AcDbDictionary
281
     1
  3
A0
350
242
  3
A1
350
243
  3
A2
350
244
  3
A3
350
245
  3
A4
350
246
  3
A5
350
247
  3
A6
350
248
  3
A7
350
249
  3
A8
350
24A
  3
A9
350
24B
  3
B0
350
24C
  3
B1
350
24D
  3
B2
350
24E
  3
B3
350
24F
  3
B4
350
250
  3
B5
350
251
  3
B6
350
252
  3
B7
350
253
  3
B8
350
254
  3
B9
350
255
  3
C0
350
256
  3
C1
350
257
  3
C2
350
258
  3
C3
350
259
  3
C4
350
25A
  3
C5
350
25B
  3
C6
350
25C
  3
C7
350
25D
  3
C8
350
25E
  3
C9
350
25F
  3
D0
350
260
  3
D1
350
261
  3
D2
350
262
  0
DICTIONARY
  5
BC0
102
{ACAD_REACTORS
330
19
102
}
330
19
100
AcDbDictionary
281
     1
  0
DICTIONARY
  5
278
102
{ACAD_REACTORS
330
19
102
}
330
19
100
AcDbDictionary
281
     1
  3
Standard
350
279
  0
DICTIONARY
  5
267
102
{ACAD_REACTORS
330
19
102
}
330
19
100
AcDbDictionary
281
     1
  3
2dWireframe
350
26C
  3
3D Hidden
350
26E
  3
3dWireframe
350
26D
  3
Basic
350
26F
  3
Brighten
350
273
  3
ColorChange
350
277
  3
Conceptual
350
271
  3
Dim
350
272
  3
EdgeColorOff
350
8FE
  3
Facepattern
350
276
  3
Flat
350
268
  3
FlatWithEdges
350
269
  3
Gouraud
350
26A
  3
GouraudWithEdges
350
26B
  3
Hidden
350
8FB
  3
JitterOff
350
8FC
  3
Linepattern
350
275
  3
OverhangOff
350
8FD
  3
Realistic
350
270
  3
Shaded
350
903
  3
Shaded with edges
350
902
  3
Shades of Gray
350
8FF
  3
Sketchy
350
900
  3
Thicken
350
274
  3
Wireframe
350
8FA
  3
X-Ray
350
901
  0
XRECORD
  5
41C6
102
{ACAD_REACTORS
330
19
102
}
330
19
100
AcDbXrecord
280
     1
 90
        1
330
279
  0
DICTIONARY
  5
330
102
{ACAD_REACTORS
330
19
102
}
330
19
100
AcDbDictionary
281
     1
  3
CANNOSCALE
350
331
  3
CMLEADERSTYLE
350
D5E
  3
CTABLESTYLE
350
335
  3
HPTRANSPARENCY
350
D52
  3
XCLIPFRAME
350
896
  0
DICTIONARY
  5
27A
102
{ACAD_REACTORS
330
19
102
}
330
19
100
AcDbDictionary
281
     1
  0
DICTIONARY
  5
E38
102
{ACAD_REACTORS
330
19
102
}
330
19
100
AcDbDictionary
281
     1
  3
DIMRAILANGLE
350
246C
  3
DIMRAILFIRSTOFFSET
350
246A
  3
DIMRAILOFFSET
350
246B
  3
DIMRAILSENABLED
350
246D
  0
DICTIONARY
  5
2E2
102
{ACAD_REACTORS
330
2E1
102
}
330
2E1
100
AcDbDictionary
281
     1
  0
DICTIONARY
  5
DDE
102
{ACAD_REACTORS
330
2E1
102
}
330
2E1
100
AcDbDictionary
281
     1
1001
ACAD
1000
<All
  0
SORTENTSTABLE
  5
3D3E
102
{ACAD_REACTORS
330
3D3D
102
}
330
3D3D
100
AcDbSortentsTable
330
A
331
0
  5
3C1E
331
3C64
  5
3C1F
331
3C65
  5
3C63
331
3C70
  5
3C64
331
3C71
  5
3C65
331
3C72
  5
3C70
331
3C73
  5
3C71
331
3C74
  5
3C72
331
3CB5
  5
3C92
  0
DICTIONARY
  5
414A
102
{ACAD_REACTORS
330
3CB7
102
}
330
3CB7
100
AcDbDictionary
280
     1
281
     1
  3
TEXT
360
3CB6
  0
GROUP
  5
3C75
102
{ACAD_REACTORS
330
1A
102
}
330
1A
100
AcDbGroup
300

 70
     1
 71
     1
340
3C64
340
3C65
340
3C70
340
3C71
340
3C72
340
3C73
340
3C74
  0
LAYOUT
  5
21
102
{ACAD_REACTORS
330
1E
102
}
330
1E
100
AcDbPlotSettings
  1

  2
none_device
  4
ISO_A3_(420.00_x_297.00_MM)
  6

 40
7.5
 41
20.0
 42
7.5
 43
20.0
 44
420.0
 45
297.0
 46
0.0
 47
0.0
 48
0.0
 49
0.0
140
0.0
141
0.0
142
1.0
143
1.0
 70
     0
 72
     1
 73
     0
 74
     0
  7

 75
     0
 76
     0
 77
     2
 78
   300
147
1.0
148
0.0
149
0.0
100
AcDbLayout
  1
Layout1
 70
     0
 71
     0
 10
-7.5
 20
-20.0
 11
412.5
 21
277.0
 12
0.0
 22
0.0
 32
0.0
 14
0.0
 24
0.0
 34
0.0
 15
0.0
 25
0.0
 35
0.0
146
0.0
 13
0.0
 23
0.0
 33
0.0
 16
0.0
 26
0.0
 36
0.0
 17
0.0
 27
0.0
 37
0.0
 76
     0
330
B
331
349
  0
LAYOUT
  5
20
102
{ACAD_REACTORS
330
1E
102
}
330
1E
100
AcDbPlotSettings
  1

  2
none_device
  4
ISO_A3_(420.00_x_297.00_MM)
  6

 40
7.5
 41
20.0
 42
7.5
 43
20.0
 44
420.0
 45
297.0
 46
0.0
 47
0.0
 48
0.0
 49
0.0
140
0.0
141
0.0
142
1.0
143
1.0
 70
  1024
 72
     1
 73
     0
 74
     0
  7

 75
     0
 76
     0
 77
     2
 78
   300
147
1.0
148
0.0
149
0.0
100
AcDbLayout
  1
Model
 70
     0
 71
     1
 10
0.0
 20
0.0
 11
420.0
 21
594.0
 12
0.0
 22
0.0
 32
0.0
 14
0.0
 24
0.0
 34
-0.0000000000000071
 15
420.0
 25
594.0
 35
0.0000000000000071
146
0.0
 13
0.0
 23
0.0
 33
0.0
 16
0.0
 26
0.0
 36
0.0
 17
0.0
 27
0.0
 37
0.0
 76
     0
330
A
331
15
  0
MATERIAL
  5
265
102
{ACAD_REACTORS
330
263
102
}
330
263
100
AcDbMaterial
  1
ByBlock
 72
     1
 94
      127
  0
MATERIAL
  5
264
102
{ACAD_REACTORS
330
263
102
}
330
263
100
AcDbMaterial
  1
ByLayer
 72
     1
 94
      127
  0
MATERIAL
  5
266
102
{ACAD_REACTORS
330
263
102
}
330
263
100
AcDbMaterial
  1
Global
 72
     1
 94
      127
  0
MLEADERSTYLE
  5
D59
102
{ACAD_REACTORS
330
336
102
}
330
336
100
AcDbMLeaderStyle
170
     2
171
     1
172
     0
 90
        2
 40
0.0
 41
0.0
173
     1
 91
-1056964608
340
11
 92
       -2
290
     1
 42
2.0
291
     1
 43
8.0
  3
Standard
341
0
 44
4.0
300

342
17
174
     1
178
     6
175
     1
176
     0
 93
-1056964608
 45
4.0
292
     0
297
     0
 46
4.0
343
0
 94
-1056964608
 47
1.0
 49
1.0
140
1.0
293
     1
141
0.0
294
     1
177
     0
142
1.0
295
     0
296
     0
143
3.75
1001
ACAD_MLEADERVER
1070
     2
  0
MLINESTYLE
  5
1C
102
{ACAD_REACTORS
330
1B
102
}
330
1B
100
AcDbMlineStyle
  2
Standard
 70
     0
  3

 62
     0
 51
90.0
 52
90.0
 71
     2
 49
0.5
 62
   256
  6
BYLAYER
 49
-0.5
 62
   256
  6
BYLAYER
  0
ACDBPLACEHOLDER
  5
1D
102
{ACAD_REACTORS
330
1F
102
}
330
1F
  0
SCALE
  5
242
102
{ACAD_REACTORS
330
241
102
}
330
241
100
AcDbScale
 70
     0
300
1:1
140
1.0
141
1.0
290
     1
  0
SCALE
  5
243
102
{ACAD_REACTORS
330
241
102
}
330
241
100
AcDbScale
 70
     0
300
1:2
140
1.0
141
2.0
290
     0
  0
SCALE
  5
244
102
{ACAD_REACTORS
330
241
102
}
330
241
100
AcDbScale
 70
     0
300
1:4
140
1.0
141
4.0
290
     0
  0
SCALE
  5
245
102
{ACAD_REACTORS
330
241
102
}
330
241
100
AcDbScale
 70
     0
300
1:5
140
1.0
141
5.0
290
     0
  0
SCALE
  5
246
102
{ACAD_REACTORS
330
241
102
}
330
241
100
AcDbScale
 70
     0
300
1:8
140
1.0
141
8.0
290
     0
  0
SCALE
  5
247
102
{ACAD_REACTORS
330
241
102
}
330
241
100
AcDbScale
 70
     0
300
1:10
140
1.0
141
10.0
290
     0
  0
SCALE
  5
248
102
{ACAD_REACTORS
330
241
102
}
330
241
100
AcDbScale
 70
     0
300
1:16
140
1.0
141
16.0
290
     0
  0
SCALE
  5
249
102
{ACAD_REACTORS
330
241
102
}
330
241
100
AcDbScale
 70
     0
300
1:20
140
1.0
141
20.0
290
     0
  0
SCALE
  5
24A
102
{ACAD_REACTORS
330
241
102
}
330
241
100
AcDbScale
 70
     0
300
1:30
140
1.0
141
30.0
290
     0
  0
SCALE
  5
24B
102
{ACAD_REACTORS
330
241
102
}
330
241
100
AcDbScale
 70
     0
300
1:40
140
1.0
141
40.0
290
     0
  0
SCALE
  5
24C
102
{ACAD_REACTORS
330
241
102
}
330
241
100
AcDbScale
 70
     0
300
1:50
140
1.0
141
50.0
290
     0
  0
SCALE
  5
24D
102
{ACAD_REACTORS
330
241
102
}
330
241
100
AcDbScale
 70
     0
300
1:100
140
1.0
141
100.0
290
     0
  0
SCALE
  5
24E
102
{ACAD_REACTORS
330
241
102
}
330
241
100
AcDbScale
 70
     0
300
2:1
140
2.0
141
1.0
290
     0
  0
SCALE
  5
24F
102
{ACAD_REACTORS
330
241
102
}
330
241
100
AcDbScale
 70
     0
300
4:1
140
4.0
141
1.0
290
     0
  0
SCALE
  5
250
102
{ACAD_REACTORS
330
241
102
}
330
241
100
AcDbScale
 70
     0
300
8:1
140
8.0
141
1.0
290
     0
  0
SCALE
  5
251
102
{ACAD_REACTORS
330
241
102
}
330
241
100
AcDbScale
 70
     0
300
10:1
140
10.0
141
1.0
290
     0
  0
SCALE
  5
252
102
{ACAD_REACTORS
330
241
102
}
330
241
100
AcDbScale
 70
     0
300
100:1
140
100.0
141
1.0
290
     0
  0
SCALE
  5
253
102
{ACAD_REACTORS
330
241
102
}
330
241
100
AcDbScale
 70
     0
300
1/128" = 1'-0"
140
0.0078125
141
12.0
290
     0
  0
SCALE
  5
254
102
{ACAD_REACTORS
330
241
102
}
330
241
100
AcDbScale
 70
     0
300
1/64" = 1'-0"
140
0.015625
141
12.0
290
     0
  0
SCALE
  5
255
102
{ACAD_REACTORS
330
241
102
}
330
241
100
AcDbScale
 70
     0
300
1/32" = 1'-0"
140
0.03125
141
12.0
290
     0
  0
SCALE
  5
256
102
{ACAD_REACTORS
330
241
102
}
330
241
100
AcDbScale
 70
     0
300
1/16" = 1'-0"
140
0.0625
141
12.0
290
     0
  0
SCALE
  5
257
102
{ACAD_REACTORS
330
241
102
}
330
241
100
AcDbScale
 70
     0
300
3/32" = 1'-0"
140
0.09375
141
12.0
290
     0
  0
SCALE
  5
258
102
{ACAD_REACTORS
330
241
102
}
330
241
100
AcDbScale
 70
     0
300
1/8" = 1'-0"
140
0.125
141
12.0
290
     0
  0
SCALE
  5
259
102
{ACAD_REACTORS
330
241
102
}
330
241
100
AcDbScale
 70
     0
300
3/16" = 1'-0"
140
0.1875
141
12.0
290
     0
  0
SCALE
  5
25A
102
{ACAD_REACTORS
330
241
102
}
330
241
100
AcDbScale
 70
     0
300
1/4" = 1'-0"
140
0.25
141
12.0
290
     0
  0
SCALE
  5
25B
102
{ACAD_REACTORS
330
241
102
}
330
241
100
AcDbScale
 70
     0
300
3/8" = 1'-0"
140
0.375
141
12.0
290
     0
  0
SCALE
  5
25C
102
{ACAD_REACTORS
330
241
102
}
330
241
100
AcDbScale
 70
     0
300
1/2" = 1'-0"
140
0.5
141
12.0
290
     0
  0
SCALE
  5
25D
102
{ACAD_REACTORS
330
241
102
}
330
241
100
AcDbScale
 70
     0
300
3/4" = 1'-0"
140
0.75
141
12.0
290
     0
  0
SCALE
  5
25E
102
{ACAD_REACTORS
330
241
102
}
330
241
100
AcDbScale
 70
     0
300
1" = 1'-0"
140
1.0
141
12.0
290
     0
  0
SCALE
  5
25F
102
{ACAD_REACTORS
330
241
102
}
330
241
100
AcDbScale
 70
     0
300
1-1/2" = 1'-0"
140
1.5
141
12.0
290
     0
  0
SCALE
  5
260
102
{ACAD_REACTORS
330
241
102
}
330
241
100
AcDbScale
 70
     0
300
3" = 1'-0"
140
3.0
141
12.0
290
     0
  0
SCALE
  5
261
102
{ACAD_REACTORS
330
241
102
}
330
241
100
AcDbScale
 70
     0
300
6" = 1'-0"
140
6.0
141
12.0
290
     0
  0
SCALE
  5
262
102
{ACAD_REACTORS
330
241
102
}
330
241
100
AcDbScale
 70
     0
300
1'-0" = 1'-0"
140
12.0
141
12.0
290
     0
  0
TABLESTYLE
  5
279
102
{ACAD_REACTORS
330
278
102
}
102
{ACAD_XDICTIONARY
360
41C4
102
}
330
278
100
AcDbTableStyle
  3
Standard
 70
     0
 71
     0
 40
0.06
 41
0.06
280
     0
281
     0
  7
Standard
140
4.5
170
     2
 62
     0
 63
   257
283
     0
 90
        4
 91
        0
  1

274
    -2
284
     1
 64
     0
275
    -2
285
     1
 65
     0
276
    -2
286
     1
 66
     0
277
    -2
287
     1
 67
     0
278
    -2
288
     1
 68
     0
279
    -2
289
     1
 69
     0
  7
Standard
140
6.0
170
     5
 62
     0
 63
   257
283
     0
 90
        4
 91
        0
  1

274
    -2
284
     1
 64
     0
275
    -2
285
     1
 65
     0
276
    -2
286
     1
 66
     0
277
    -2
287
     1
 67
     0
278
    -2
288
     1
 68
     0
279
    -2
289
     1
 69
     0
  7
Standard
140
4.5
170
     5
 62
     0
 63
   257
283
     0
 90
        4
 91
        0
  1

274
    -2
284
     1
 64
     0
275
    -2
285
     1
 65
     0
276
    -2
286
     1
 66
     0
277
    -2
287
     1
 67
     0
278
    -2
288
     1
 68
     0
279
    -2
289
     1
 69
     0
  0
VISUALSTYLE
  5
26C
102
{ACAD_REACTORS
330
267
102
}
330
267
100
AcDbVisualStyle
  2
2dWireframe
 70
     4
 71
     0
 72
     2
 73
     0
 90
        0
 40
-0.6
 41
-30.0
 62
     5
 63
     7
421
 16777215
 74
     1
 91
        4
 64
     7
 65
   257
 75
     1
175
     1
 42
1.0
 92
        0
 66
   257
 43
1.0
 76
     1
 77
     6
 78
     2
 67
     7
 79
     5
170
     0
171
     0
290
     0
174
     0
 93
        1
 44
0.0
173
     0
291
     0
 45
0.0
  0
VISUALSTYLE
  5
26E
102
{ACAD_REACTORS
330
267
102
}
330
267
100
AcDbVisualStyle
  2
3D Hidden
 70
     6
 71
     1
 72
     2
 73
     2
 90
        0
 40
-0.6
 41
-30.0
 62
     5
 63
     7
421
 16777215
 74
     2
 91
        2
 64
     7
 65
   257
 75
     2
175
     1
 42
40.0
 92
        0
 66
   257
 43
1.0
 76
     1
 77
     6
 78
     2
 67
     7
 79
     3
170
     0
171
     0
290
     0
174
     0
 93
        1
 44
0.0
173
     0
291
     0
 45
0.0
  0
VISUALSTYLE
  5
26D
102
{ACAD_REACTORS
330
267
102
}
330
267
100
AcDbVisualStyle
  2
3dWireframe
 70
     5
 71
     0
 72
     2
 73
     0
 90
        0
 40
-0.6
 41
-30.0
 62
     5
 63
     7
421
 16777215
 74
     1
 91
        4
 64
     7
 65
   257
 75
     1
175
     1
 42
1.0
 92
        0
 66
   257
 43
1.0
 76
     1
 77
     6
 78
     2
 67
     7
 79
     5
170
     0
171
     0
290
     0
174
     0
 93
        1
 44
0.0
173
     0
291
     0
 45
0.0
  0
VISUALSTYLE
  5
26F
102
{ACAD_REACTORS
330
267
102
}
330
267
100
AcDbVisualStyle
  2
Basic
 70
     7
 71
     1
 72
     0
 73
     1
 90
        0
 40
-0.6
 41
-30.0
 62
     5
 63
     7
421
 16777215
 74
     0
 91
        4
 64
     7
 65
   257
 75
     1
175
     1
 42
1.0
 92
        8
 66
     7
 43
1.0
 76
     1
 77
     6
 78
     2
 67
     7
 79
     5
170
     0
171
     0
290
     0
174
     0
 93
        1
 44
0.0
173
     0
291
     1
 45
0.0
  0
VISUALSTYLE
  5
273
102
{ACAD_REACTORS
330
267
102
}
330
267
100
AcDbVisualStyle
  2
Brighten
 70
    12
 71
     2
 72
     2
 73
     0
 90
        0
 40
-0.6
 41
-30.0
 62
     5
 63
     7
421
 16777215
 74
     1
 91
        4
 64
     7
 65
   257
 75
     1
175
     1
 42
1.0
 92
        8
 66
     7
 43
1.0
 76
     1
 77
     6
 78
     2
 67
     7
 79
     5
170
     0
171
     0
290
     0
174
     0
 93
        1
 44
50.0
173
     0
291
     1
 45
0.0
  0
VISUALSTYLE
  5
277
102
{ACAD_REACTORS
330
267
102
}
330
267
100
AcDbVisualStyle
  2
ColorChange
 70
    16
 71
     2
 72
     2
 73
     3
 90
        0
 40
-0.6
 41
-30.0
 62
     5
 63
     8
421
  8421504
 74
     1
 91
        4
 64
     7
 65
   257
 75
     1
175
     1
 42
1.0
 92
        8
 66
     8
424
  8421504
 43
1.0
 76
     1
 77
     6
 78
     2
 67
     7
 79
     5
170
     0
171
     0
290
     0
174
     0
 93
        1
 44
0.0
173
     0
291
     1
 45
0.0
  0
VISUALSTYLE
  5
271
102
{ACAD_REACTORS
330
267
102
}
330
267
100
AcDbVisualStyle
  2
Conceptual
 70
     9
 71
     3
 72
     2
 73
     0
 90
        0
 40
-0.6
 41
-30.0
 62
     5
 63
     7
421
 16777215
 74
     2
 91
        2
 64
     7
 65
   257
 75
     1
175
     1
 42
40.0
 92
        8
 66
     7
 43
1.0
 76
     1
 77
     6
 78
     2
 67
     7
 79
     3
170
     0
171
     0
290
     0
174
     0
 93
        1
 44
0.0
173
     0
291
     0
 45
0.0
  0
VISUALSTYLE
  5
272
102
{ACAD_REACTORS
330
267
102
}
330
267
100
AcDbVisualStyle
  2
Dim
 70
    11
 71
     2
 72
     2
 73
     0
 90
        0
 40
-0.6
 41
-30.0
 62
     5
 63
     7
421
 16777215
 74
     1
 91
        4
 64
     7
 65
   257
 75
     1
175
     1
 42
1.0
 92
        8
 66
     7
 43
1.0
 76
     1
 77
     6
 78
     2
 67
     7
 79
     5
170
     0
171
     0
290
     0
174
     0
 93
        1
 44
-50.0
173
     0
291
     1
 45
0.0
  0
VISUALSTYLE
  5
8FE
102
{ACAD_REACTORS
330
267
102
}
330
267
100
AcDbVisualStyle
  2
EdgeColorOff
 70
    22
 71
     2
 72
     2
 73
     0
 90
        0
 40
0.6
 41
30.0
 62
     5
 63
     7
421
 16777215
 74
     1
 91
        4
 64
     7
 65
   257
 75
     1
175
     1
 42
1.0
 92
        8
 66
     7
 43
1.0
 76
     1
 77
     6
 78
     2
 67
     7
 79
     5
170
     0
171
     0
290
     0
174
     0
 93
        1
 44
0.0
173
     0
291
     1
 45
0.0
  0
VISUALSTYLE
  5
276
102
{ACAD_REACTORS
330
267
102
}
330
267
100
AcDbVisualStyle
  2
Facepattern
 70
    15
 71
     2
 72
     2
 73
     0
 90
        0
 40
-0.6
 41
-30.0
 62
     5
 63
     7
421
 16777215
 74
     1
 91
        4
 64
     7
 65
   257
 75
     1
175
     1
 42
1.0
 92
        8
 66
     7
 43
1.0
 76
     1
 77
     6
 78
     2
 67
     7
 79
     5
170
     0
171
     0
290
     0
174
     0
 93
        1
 44
0.0
173
     0
291
     1
 45
0.0
  0
VISUALSTYLE
  5
268
102
{ACAD_REACTORS
330
267
102
}
330
267
100
AcDbVisualStyle
  2
Flat
 70
     0
 71
     2
 72
     1
 73
     1
 90
        2
 40
-0.6
 41
30.0
 62
     5
 63
     7
421
 16777215
 74
     0
 91
        4
 64
     7
 65
   257
 75
     1
175
     1
 42
1.0
 92
        8
 66
     7
 43
1.0
 76
     1
 77
     6
 78
     2
 67
     7
 79
     5
170
     0
171
     0
290
     0
174
     0
 93
       13
 44
0.0
173
     0
291
     1
 45
0.0
  0
VISUALSTYLE
  5
269
102
{ACAD_REACTORS
330
267
102
}
330
267
100
AcDbVisualStyle
  2
FlatWithEdges
 70
     1
 71
     2
 72
     1
 73
     1
 90
        2
 40
-0.6
 41
30.0
 62
     5
 63
     7
421
 16777215
 74
     1
 91
        4
 64
     7
 65
   257
 75
     1
175
     1
 42
1.0
 92
        0
 66
   257
 43
1.0
 76
     1
 77
     6
 78
     2
 67
     7
 79
     5
170
     0
171
     0
290
     0
174
     0
 93
       13
 44
0.0
173
     0
291
     1
 45
0.0
  0
VISUALSTYLE
  5
26A
102
{ACAD_REACTORS
330
267
102
}
330
267
100
AcDbVisualStyle
  2
Gouraud
 70
     2
 71
     2
 72
     2
 73
     1
 90
        2
 40
-0.6
 41
30.0
 62
     5
 63
     7
421
 16777215
 74
     0
 91
        4
 64
     7
 65
   257
 75
     1
175
     1
 42
1.0
 92
        0
 66
     7
 43
1.0
 76
     1
 77
     6
 78
     2
 67
     7
 79
     5
170
     0
171
     0
290
     0
174
     0
 93
       13
 44
0.0
173
     0
291
     1
 45
0.0
  0
VISUALSTYLE
  5
26B
102
{ACAD_REACTORS
330
267
102
}
330
267
100
AcDbVisualStyle
  2
GouraudWithEdges
 70
     3
 71
     2
 72
     2
 73
     1
 90
        2
 40
-0.6
 41
30.0
 62
     5
 63
     7
421
 16777215
 74
     1
 91
        4
 64
     7
 65
   257
 75
     1
175
     1
 42
1.0
 92
        0
 66
   257
 43
1.0
 76
     1
 77
     6
 78
     2
 67
     7
 79
     5
170
     0
171
     0
290
     0
174
     0
 93
       13
 44
0.0
173
     0
291
     1
 45
0.0
  0
VISUALSTYLE
  5
8FB
102
{ACAD_REACTORS
330
267
102
}
330
267
100
AcDbVisualStyle
  2
Hidden
 70
     6
 71
     1
 72
     2
 73
     2
 90
        0
 40
0.6
 41
30.0
 62
     5
 63
     7
421
 16777215
 74
     2
 91
        2
 64
     7
 65
   257
 75
     2
175
     1
 42
40.0
 92
        0
 66
   257
 43
1.0
 76
     1
 77
     6
 78
     2
 67
     7
 79
     3
170
     0
171
     0
290
     0
174
     0
 93
        1
 44
0.0
173
     0
291
     0
 45
0.0
  0
VISUALSTYLE
  5
8FC
102
{ACAD_REACTORS
330
267
102
}
330
267
100
AcDbVisualStyle
  2
JitterOff
 70
    20
 71
     2
 72
     2
 73
     0
 90
        0
 40
0.6
 41
30.0
 62
     5
 63
     7
421
 16777215
 74
     1
 91
        4
 64
     7
 65
   257
 75
     1
175
     1
 42
1.0
 92
       10
 66
     7
 43
1.0
 76
     1
 77
     6
 78
     2
 67
     7
 79
     5
170
     0
171
     0
290
     0
174
     0
 93
        1
 44
0.0
173
     0
291
     1
 45
0.0
  0
VISUALSTYLE
  5
275
102
{ACAD_REACTORS
330
267
102
}
330
267
100
AcDbVisualStyle
  2
Linepattern
 70
    14
 71
     2
 72
     2
 73
     0
 90
        0
 40
-0.6
 41
-30.0
 62
     5
 63
     7
421
 16777215
 74
     1
 91
        4
 64
     7
 65
   257
 75
     7
175
     7
 42
1.0
 92
        8
 66
     7
 43
1.0
 76
     1
 77
     6
 78
     2
 67
     7
 79
     5
170
     0
171
     0
290
     0
174
     0
 93
        1
 44
0.0
173
     0
291
     1
 45
0.0
  0
VISUALSTYLE
  5
8FD
102
{ACAD_REACTORS
330
267
102
}
330
267
100
AcDbVisualStyle
  2
OverhangOff
 70
    21
 71
     2
 72
     2
 73
     0
 90
        0
 40
0.6
 41
30.0
 62
     5
 63
     7
421
 16777215
 74
     1
 91
        4
 64
     7
 65
   257
 75
     1
175
     1
 42
1.0
 92
        9
 66
     7
 43
1.0
 76
     1
 77
     6
 78
     2
 67
     7
 79
     5
170
     0
171
     0
290
     0
174
     0
 93
        1
 44
0.0
173
     0
291
     1
 45
0.0
  0
VISUALSTYLE
  5
270
102
{ACAD_REACTORS
330
267
102
}
330
267
100
AcDbVisualStyle
  2
Realistic
 70
     8
 71
     2
 72
     2
 73
     0
 90
        0
 40
-0.6
 41
-30.0
 62
     5
 63
     7
421
 16777215
 74
     1
 91
        0
 64
     7
 65
   257
 75
     1
175
     1
 42
1.0
 92
        8
 66
     8
424
  7895160
 43
1.0
 76
     1
 77
     6
 78
     2
 67
     7
 79
     5
170
     0
171
     0
290
     0
174
     0
 93
       13
 44
0.0
173
     0
291
     0
 45
0.0
  0
VISUALSTYLE
  5
903
102
{ACAD_REACTORS
330
267
102
}
330
267
100
AcDbVisualStyle
  2
Shaded
 70
    27
 71
     2
 72
     2
 73
     1
 90
        2
 40
0.6
 41
30.0
 62
     5
 63
     7
421
 16777215
 74
     0
 91
        4
 64
     7
 65
   257
 75
     1
175
     1
 42
1.0
 92
        8
 66
   257
 43
1.0
 76
     1
 77
     6
 78
     2
 67
     8
425
  7895160
 79
     3
170
     0
171
     0
290
     0
174
     0
 93
        5
 44
0.0
173
     0
291
     0
 45
0.0
  0
VISUALSTYLE
  5
902
102
{ACAD_REACTORS
330
267
102
}
330
267
100
AcDbVisualStyle
  2
Shaded with edges
 70
    26
 71
     2
 72
     2
 73
     1
 90
        2
 40
0.6
 41
30.0
 62
     5
 63
     7
421
 16777215
 74
     1
 91
       10
 64
     7
 65
   257
 75
     2
175
     1
 42
1.0
 92
        8
 66
   257
 43
1.0
 76
     1
 77
     6
 78
     2
 67
     7
 79
     3
170
     0
171
     0
290
     0
174
     0
 93
        5
 44
0.0
173
     0
291
     0
 45
0.0
  0
VISUALSTYLE
  5
8FF
102
{ACAD_REACTORS
330
267
102
}
330
267
100
AcDbVisualStyle
  2
Shades of Gray
 70
    23
 71
     2
 72
     2
 73
     3
 90
        0
 40
0.6
 41
30.0
 62
     5
 63
     7
421
 16777215
 74
     2
 91
        2
 64
     7
 65
     7
 75
     1
175
     1
 42
40.0
 92
        8
 66
     7
 43
1.0
 76
     1
 77
     6
 78
     2
 67
     7
 79
     3
170
     0
171
     0
290
     0
174
     0
 93
        1
 44
0.0
173
     0
291
     0
 45
0.0
  0
VISUALSTYLE
  5
900
102
{ACAD_REACTORS
330
267
102
}
330
267
100
AcDbVisualStyle
  2
Sketchy
 70
    24
 71
     1
 72
     2
 73
     2
 90
        0
 40
0.6
 41
30.0
 62
     5
 63
     7
421
 16777215
 74
     2
 91
        2
 64
     7
 65
     7
 75
     1
175
     1
 42
40.0
 92
       11
 66
     7
 43
1.0
 76
     1
 77
     6
 78
     2
 67
     7
 79
     6
170
     0
171
     0
290
     0
174
     0
 93
        1
 44
0.0
173
     0
291
     0
 45
0.0
  0
VISUALSTYLE
  5
274
102
{ACAD_REACTORS
330
267
102
}
330
267
100
AcDbVisualStyle
  2
Thicken
 70
    13
 71
     2
 72
     2
 73
     0
 90
        0
 40
-0.6
 41
-30.0
 62
     5
 63
     7
421
 16777215
 74
     1
 91
        4
 64
     7
 65
   257
 75
     1
175
     1
 42
1.0
 92
       12
 66
     7
 43
1.0
 76
     1
 77
     6
 78
     2
 67
     7
 79
     5
170
     0
171
     0
290
     0
174
     0
 93
        1
 44
0.0
173
     0
291
     1
 45
0.0
  0
VISUALSTYLE
  5
8FA
102
{ACAD_REACTORS
330
267
102
}
330
267
100
AcDbVisualStyle
  2
Wireframe
 70
     5
 71
     0
 72
     2
 73
     0
 90
        0
 40
0.6
 41
30.0
 62
     5
 63
     7
421
 16777215
 74
     1
 91
        4
 64
     7
 65
   257
 75
     1
175
     1
 42
1.0
 92
        0
 66
   257
 43
1.0
 76
     1
 77
     6
 78
     2
 67
     7
 79
     3
170
     0
171
     0
290
     0
174
     0
 93
        1
 44
0.0
173
     0
291
     0
 45
0.0
  0
VISUALSTYLE
  5
901
102
{ACAD_REACTORS
330
267
102
}
330
267
100
AcDbVisualStyle
  2
X-Ray
 70
    25
 71
     2
 72
     2
 73
     1
 90
        1
 40
0.5
 41
30.0
 62
     5
 63
     7
421
 16777215
 74
     1
 91
        0
 64
     7
 65
   257
 75
     1
175
     1
 42
1.0
 92
        8
 66
     7
 43
1.0
 76
     1
 77
     6
 78
     2
 67
     7
 79
     3
170
     0
171
     0
290
     0
174
     0
 93
       13
 44
0.0
173
     0
291
     0
 45
0.0
  0
DICTIONARYVAR
  5
331
102
{ACAD_REACTORS
330
330
102
}
330
330
100
DictionaryVariables
280
     0
  1
1:1
  0
DICTIONARYVAR
  5
D5E
102
{ACAD_REACTORS
330
330
102
}
330
330
100
DictionaryVariables
280
     0
  1
Standard
  0
DICTIONARYVAR
  5
335
102
{ACAD_REACTORS
330
330
102
}
330
330
100
DictionaryVariables
280
     0
  1
Standard
  0
DICTIONARYVAR
  5
D52
102
{ACAD_REACTORS
330
330
102
}
330
330
100
DictionaryVariables
280
     0
  1
ByLayer
  0
DICTIONARYVAR
  5
896
102
{ACAD_REACTORS
330
330
102
}
330
330
100
DictionaryVariables
280
     0
  1
0
  0
DICTIONARYVAR
  5
246C
102
{ACAD_REACTORS
330
E38
102
}
330
E38
100
DictionaryVariables
280
     0
  1
0.261799
  0
DICTIONARYVAR
  5
246A
102
{ACAD_REACTORS
330
E38
102
}
330
E38
100
DictionaryVariables
280
     0
  1
0.400000
  0
DICTIONARYVAR
  5
246B
102
{ACAD_REACTORS
330
E38
102
}
330
E38
100
DictionaryVariables
280
     0
  1
0.250000
  0
DICTIONARYVAR
  5
246D
102
{ACAD_REACTORS
330
E38
102
}
330
E38
100
DictionaryVariables
280
     0
  1
1
  0
FIELD
  5
3CB6
102
{ACAD_REACTORS
330
414A
102
}
330
414A
100
AcDbField
  1
_text
  2
{%<\_FldIdx 0>%N}
 90
        1
360
3CB9
 97
        0
 91
       63
 92
        0
 94
       11
 95
        2
 96
        0
300

 93
        1
  6
ACFD_FIELDTEXT_CHECKSUM
 93
        2
 90
        2
140
4569.0
 94
        0
300

302

304
ACVALUE_END
  7
ACFD_FIELD_VALUE
 93
        6
 90
        4
  1
{20190826N}
 94
        0
300

302

304
ACVALUE_END
301
{20190826N}
 98
       11
  0
DICTIONARY
  5
41C4
330
279
100
AcDbDictionary
280
     1
281
     1
  3
ACAD_ROUNDTRIP_2008_TABLESTYLE_CELLSTYLEMAP
360
41C5
  0
FIELD
  5
3CB9
330
3CB6
100
AcDbField
  1
AcVar
  2
\AcVar CreateDate \f "yyyyMMdd"
 90
        0
 97
        0
 91
       63
 92
        0
 94
       11
 95
        2
 96
        0
300

 93
        1
  6
Variable
 93
        2
 90
        4
  1
CreateDate
 94
        0
300

302

304
ACVALUE_END
  7
ACFD_FIELD_VALUE
 93
        6
 90
        8
 92
       16
310
E307080000001A00060025003B000000
 94
        0
300
yyyyMMdd
302

304
ACVALUE_END
301
20190826
 98
        8
  0
CELLSTYLEMAP
  5
41C5
102
{ACAD_REACTORS
330
41C4
102
}
330
41C4
100
AcDbCellStyleMap
 90
        3
300
CELLSTYLE
  1
TABLEFORMAT_BEGIN
 90
        5
170
     1
 91
        0
 92
    32768
 62
   257
 93
        1
300
CONTENTFORMAT
  1
CONTENTFORMAT_BEGIN
 90
        0
 91
        0
 92
        4
 93
        0
300

 40
0.0
140
1.0
 94
        5
 62
     0
340
17
144
6.0
309
CONTENTFORMAT_END
171
     1
301
MARGIN
  1
CELLMARGIN_BEGIN
 40
0.06
 40
0.06
 40
0.06
 40
0.06
 40
0.18
 40
0.18
309
CELLMARGIN_END
 94
        6
 95
        1
302
GRIDFORMAT
  1
GRIDFORMAT_BEGIN
 90
        0
 91
        1
 62
     0
 92
       -2
340
0
 93
        0
 40
0.045
309
GRIDFORMAT_END
 95
        2
302
GRIDFORMAT
  1
GRIDFORMAT_BEGIN
 90
        0
 91
        1
 62
     0
 92
       -2
340
0
 93
        0
 40
0.045
309
GRIDFORMAT_END
 95
        4
302
GRIDFORMAT
  1
GRIDFORMAT_BEGIN
 90
        0
 91
        1
 62
     0
 92
       -2
340
0
 93
        0
 40
0.045
309
GRIDFORMAT_END
 95
        8
302
GRIDFORMAT
  1
GRIDFORMAT_BEGIN
 90
        0
 91
        1
 62
     0
 92
       -2
340
0
 93
        0
 40
0.045
309
GRIDFORMAT_END
 95
       16
302
GRIDFORMAT
  1
GRIDFORMAT_BEGIN
 90
        0
 91
        1
 62
     0
 92
       -2
340
0
 93
        0
 40
0.045
309
GRIDFORMAT_END
 95
       32
302
GRIDFORMAT
  1
GRIDFORMAT_BEGIN
 90
        0
 91
        1
 62
     0
 92
       -2
340
0
 93
        0
 40
0.045
309
GRIDFORMAT_END
309
TABLEFORMAT_END
  1
CELLSTYLE_BEGIN
 90
        1
 91
        1
300
_TITLE
309
CELLSTYLE_END
300
CELLSTYLE
  1
TABLEFORMAT_BEGIN
 90
        5
170
     1
 91
        0
 92
        0
 62
   257
 93
        1
300
CONTENTFORMAT
  1
CONTENTFORMAT_BEGIN
 90
        0
 91
        0
 92
        4
 93
        0
300

 40
0.0
140
1.0
 94
        5
 62
     0
340
17
144
4.5
309
CONTENTFORMAT_END
171
     1
301
MARGIN
  1
CELLMARGIN_BEGIN
 40
0.06
 40
0.06
 40
0.06
 40
0.06
 40
0.18
 40
0.18
309
CELLMARGIN_END
 94
        6
 95
        1
302
GRIDFORMAT
  1
GRIDFORMAT_BEGIN
 90
        0
 91
        1
 62
     0
 92
       -2
340
0
 93
        0
 40
0.045
309
GRIDFORMAT_END
 95
        2
302
GRIDFORMAT
  1
GRIDFORMAT_BEGIN
 90
        0
 91
        1
 62
     0
 92
       -2
340
0
 93
        0
 40
0.045
309
GRIDFORMAT_END
 95
        4
302
GRIDFORMAT
  1
GRIDFORMAT_BEGIN
 90
        0
 91
        1
 62
     0
 92
       -2
340
0
 93
        0
 40
0.045
309
GRIDFORMAT_END
 95
        8
302
GRIDFORMAT
  1
GRIDFORMAT_BEGIN
 90
        0
 91
        1
 62
     0
 92
       -2
340
0
 93
        0
 40
0.045
309
GRIDFORMAT_END
 95
       16
302
GRIDFORMAT
  1
GRIDFORMAT_BEGIN
 90
        0
 91
        1
 62
     0
 92
       -2
340
0
 93
        0
 40
0.045
309
GRIDFORMAT_END
 95
       32
302
GRIDFORMAT
  1
GRIDFORMAT_BEGIN
 90
        0
 91
        1
 62
     0
 92
       -2
340
0
 93
        0
 40
0.045
309
GRIDFORMAT_END
309
TABLEFORMAT_END
  1
CELLSTYLE_BEGIN
 90
        2
 91
        1
300
_HEADER
309
CELLSTYLE_END
300
CELLSTYLE
  1
TABLEFORMAT_BEGIN
 90
        5
170
     1
 91
        0
 92
        0
 62
   257
 93
        1
300
CONTENTFORMAT
  1
CONTENTFORMAT_BEGIN
 90
        0
 91
        0
 92
        4
 93
        0
300

 40
0.0
140
1.0
 94
        2
 62
     0
340
17
144
4.5
309
CONTENTFORMAT_END
171
     1
301
MARGIN
  1
CELLMARGIN_BEGIN
 40
0.06
 40
0.06
 40
0.06
 40
0.06
 40
0.18
 40
0.18
309
CELLMARGIN_END
 94
        6
 95
        1
302
GRIDFORMAT
  1
GRIDFORMAT_BEGIN
 90
        0
 91
        1
 62
     0
 92
       -2
340
0
 93
        0
 40
0.045
309
GRIDFORMAT_END
 95
        2
302
GRIDFORMAT
  1
GRIDFORMAT_BEGIN
 90
        0
 91
        1
 62
     0
 92
       -2
340
0
 93
        0
 40
0.045
309
GRIDFORMAT_END
 95
        4
302
GRIDFORMAT
  1
GRIDFORMAT_BEGIN
 90
        0
 91
        1
 62
     0
 92
       -2
340
0
 93
        0
 40
0.045
309
GRIDFORMAT_END
 95
        8
302
GRIDFORMAT
  1
GRIDFORMAT_BEGIN
 90
        0
 91
        1
 62
     0
 92
       -2
340
0
 93
        0
 40
0.045
309
GRIDFORMAT_END
 95
       16
302
GRIDFORMAT
  1
GRIDFORMAT_BEGIN
 90
        0
 91
        1
 62
     0
 92
       -2
340
0
 93
        0
 40
0.045
309
GRIDFORMAT_END
 95
       32
302
GRIDFORMAT
  1
GRIDFORMAT_BEGIN
 90
        0
 91
        1
 62
     0
 92
       -2
340
0
 93
        0
 40
0.045
309
GRIDFORMAT_END
309
TABLEFORMAT_END
  1
CELLSTYLE_BEGIN
 90
        3
 91
        2
300
_DATA
309
CELLSTYLE_END
  0
ENDSEC
  0
EOF
