  0
SECTION
  2
HEADER
  9
$ACADVER
  1
AC1021
  9
$ACADMAINTVER
 70
    25
  9
$DWGCODEPAGE
  3
ANSI_932
  9
$LASTSAVEDBY
  1
howeNelson
  9
$INSBASE
 10
0.0
 20
0.0
 30
0.0
  9
$EXTMIN
 10
0.0
 20
0.0
 30
0.0
  9
$EXTMAX
 10
2100.0
 20
2970.0
 30
0.0
  9
$LIMMIN
 10
0.0
 20
0.0
  9
$LIMMAX
 10
2100.0
 20
2970.0
  9
$ORTHOMODE
 70
     0
  9
$REGENMODE
 70
     1
  9
$FILLMODE
 70
     1
  9
$QTEXTMODE
 70
     0
  9
$MIRRTEXT
 70
     1
  9
$LTSCALE
 40
50.8
  9
$ATTMODE
 70
     1
  9
$TEXTSIZE
 40
0.0
  9
$TRACEWID
 40
1.0
  9
$TEXTSTYLE
  7
Standard
  9
$CLAYER
  8
notes
  9
$CELTYPE
  6
Continuous
  9
$CECOLOR
 62
   256
  9
$CELTSCALE
 40
1.0
  9
$DISPSILH
 70
     0
  9
$DIMSCALE
 40
1.0
  9
$DIMASZ
 40
31.75
  9
$DIMEXO
 40
0.0
  9
$DIMDLI
 40
6.99999999999994
  9
$DIMRND
 40
0.0
  9
$DIMDLE
 40
0.0
  9
$DIMEXE
 40
19.9999999999962
  9
$DIMTP
 40
0.0
  9
$DIMTM
 40
0.0
  9
$DIMTXT
 40
24.4326171875
  9
$DIMCEN
 40
0.0
  9
$DIMTSZ
 40
0.0
  9
$DIMTOL
 70
     0
  9
$DIMLIM
 70
     0
  9
$DIMTIH
 70
     0
  9
$DIMTOH
 70
     0
  9
$DIMSE1
 70
     0
  9
$DIMSE2
 70
     0
  9
$DIMTAD
 70
     1
  9
$DIMZIN
 70
    11
  9
$DIMBLK
  1
VW_FILLEDARROW
  9
$DIMASO
 70
     1
  9
$DIMSHO
 70
     1
  9
$DIMPOST
  1
<>
  9
$DIMAPOST
  1
[]
  9
$DIMALT
 70
     0
  9
$DIMALTD
 70
     1
  9
$DIMALTF
 40
1.0
  9
$DIMLFAC
 40
1.0
  9
$DIMTOFL
 70
     0
  9
$DIMTVP
 40
0.0
  9
$DIMTIX
 70
     1
  9
$DIMSOXD
 70
     0
  9
$DIMSAH
 70
     0
  9
$DIMBLK1
  1

  9
$DIMBLK2
  1

  9
$DIMSTYLE
  2
JIS
  9
$DIMCLRD
 70
     0
  9
$DIMCLRE
 70
     0
  9
$DIMCLRT
 70
     0
  9
$DIMTFAC
 40
1.0
  9
$DIMGAP
 40
1.00000000000108
  9
$DIMJUST
 70
     0
  9
$DIMSD1
 70
     0
  9
$DIMSD2
 70
     0
  9
$DIMTOLJ
 70
     1
  9
$DIMTZIN
 70
    11
  9
$DIMALTZ
 70
    11
  9
$DIMALTTZ
 70
    11
  9
$DIMUPT
 70
     0
  9
$DIMDEC
 70
     1
  9
$DIMTDEC
 70
     1
  9
$DIMALTU
 70
     2
  9
$DIMALTTD
 70
     2
  9
$DIMTXSTY
  7
ＭＳ ゴシック
  9
$DIMAUNIT
 70
     0
  9
$DIMADEC
 70
     2
  9
$DIMALTRND
 40
0.0
  9
$DIMAZIN
 70
     0
  9
$DIMDSEP
 70
    46
  9
$DIMATFIT
 70
     0
  9
$DIMFRAC
 70
     2
  9
$DIMLDRBLK
  1

  9
$DIMLUNIT
 70
     2
  9
$DIMLWD
 70
    -2
  9
$DIMLWE
 70
    -2
  9
$DIMTMOVE
 70
     0
  9
$DIMFXL
 40
1.0
  9
$DIMFXLON
 70
     0
  9
$DIMJOGANG
 40
0.7853981633974483
  9
$DIMTFILL
 70
     0
  9
$DIMTFILLCLR
 70
     0
  9
$DIMARCSYM
 70
     0
  9
$DIMLTYPE
  6

  9
$DIMLTEX1
  6

  9
$DIMLTEX2
  6

  9
$LUNITS
 70
     2
  9
$LUPREC
 70
     4
  9
$SKETCHINC
 40
0.1
  9
$FILLETRAD
 40
0.0
  9
$AUNITS
 70
     0
  9
$AUPREC
 70
     0
  9
$MENU
  1
acad
  9
$ELEVATION
 40
0.0
  9
$PELEVATION
 40
0.0
  9
$THICKNESS
 40
0.0
  9
$LIMCHECK
 70
     0
  9
$CHAMFERA
 40
0.0
  9
$CHAMFERB
 40
0.0
  9
$CHAMFERC
 40
0.0
  9
$CHAMFERD
 40
0.0
  9
$SKPOLY
 70
     0
  9
$TDCREATE
 40
2447893.375
  9
$TDUCREATE
 40
0.0
  9
$TDUPDATE
 40
2458164.777113125
  9
$TDUUPDATE
 40
2458164.402113125
  9
$TDINDWG
 40
0.0079838773
  9
$TDUSRTIMER
 40
0.0049233681
  9
$USRTIMER
 70
     1
  9
$ANGBASE
 50
0.0
  9
$ANGDIR
 70
     0
  9
$PDMODE
 70
     1
  9
$PDSIZE
 40
-2.0
  9
$PLINEWID
 40
0.0
  9
$SPLFRAME
 70
     0
  9
$SPLINETYPE
 70
     6
  9
$SPLINESEGS
 70
     8
  9
$HANDSEED
  5
5F4
  9
$SURFTAB1
 70
     6
  9
$SURFTAB2
 70
     6
  9
$SURFTYPE
 70
     6
  9
$SURFU
 70
     6
  9
$SURFV
 70
     6
  9
$UCSBASE
  2

  9
$UCSNAME
  2

  9
$UCSORG
 10
0.0
 20
0.0
 30
0.0
  9
$UCSXDIR
 10
1.0
 20
0.0
 30
0.0
  9
$UCSYDIR
 10
0.0
 20
1.0
 30
0.0
  9
$UCSORTHOREF
  2

  9
$UCSORTHOVIEW
 70
     0
  9
$UCSORGTOP
 10
0.0
 20
0.0
 30
0.0
  9
$UCSORGBOTTOM
 10
0.0
 20
0.0
 30
0.0
  9
$UCSORGLEFT
 10
0.0
 20
0.0
 30
0.0
  9
$UCSORGRIGHT
 10
0.0
 20
0.0
 30
0.0
  9
$UCSORGFRONT
 10
0.0
 20
0.0
 30
0.0
  9
$UCSORGBACK
 10
0.0
 20
0.0
 30
0.0
  9
$PUCSBASE
  2

  9
$PUCSNAME
  2

  9
$PUCSORG
 10
0.0
 20
0.0
 30
0.0
  9
$PUCSXDIR
 10
1.0
 20
0.0
 30
0.0
  9
$PUCSYDIR
 10
0.0
 20
1.0
 30
0.0
  9
$PUCSORTHOREF
  2

  9
$PUCSORTHOVIEW
 70
     0
  9
$PUCSORGTOP
 10
0.0
 20
0.0
 30
0.0
  9
$PUCSORGBOTTOM
 10
0.0
 20
0.0
 30
0.0
  9
$PUCSORGLEFT
 10
0.0
 20
0.0
 30
0.0
  9
$PUCSORGRIGHT
 10
0.0
 20
0.0
 30
0.0
  9
$PUCSORGFRONT
 10
0.0
 20
0.0
 30
0.0
  9
$PUCSORGBACK
 10
0.0
 20
0.0
 30
0.0
  9
$USERI1
 70
     0
  9
$USERI2
 70
     0
  9
$USERI3
 70
     0
  9
$USERI4
 70
     0
  9
$USERI5
 70
     0
  9
$USERR1
 40
0.0
  9
$USERR2
 40
0.0
  9
$USERR3
 40
0.0
  9
$USERR4
 40
0.0
  9
$USERR5
 40
0.0
  9
$WORLDVIEW
 70
     1
  9
$SHADEDGE
 70
     3
  9
$SHADEDIF
 70
    70
  9
$TILEMODE
 70
     1
  9
$MAXACTVP
 70
    64
  9
$PINSBASE
 10
0.0
 20
0.0
 30
0.0
  9
$PLIMCHECK
 70
     0
  9
$PEXTMIN
 10
1.000000000000000E+20
 20
1.000000000000000E+20
 30
1.000000000000000E+20
  9
$PEXTMAX
 10
-1.000000000000000E+20
 20
-1.000000000000000E+20
 30
-1.000000000000000E+20
  9
$PLIMMIN
 10
0.0
 20
0.0
  9
$PLIMMAX
 10
0.0
 20
0.0
  9
$UNITMODE
 70
     0
  9
$VISRETAIN
 70
     0
  9
$PLINEGEN
 70
     1
  9
$PSLTSCALE
 70
     0
  9
$TREEDEPTH
 70
  3020
  9
$CMLSTYLE
  2
Standard
  9
$CMLJUST
 70
     0
  9
$CMLSCALE
 40
1.0
  9
$PROXYGRAPHICS
 70
     0
  9
$MEASUREMENT
 70
     1
  9
$CELWEIGHT
370
     0
  9
$ENDCAPS
280
     0
  9
$JOINSTYLE
280
     0
  9
$LWDISPLAY
290
     1
  9
$INSUNITS
 70
     4
  9
$HYPERLINKBASE
  1

  9
$STYLESHEET
  1

  9
$XEDIT
290
     1
  9
$CEPSNTYPE
380
     0
  9
$PSTYLEMODE
290
     1
  9
$FINGERPRINTGUID
  2

  9
$VERSIONGUID
  2

  9
$EXTNAMES
290
     1
  9
$PSVPSCALE
 40
0.0
  9
$OLESTARTUP
290
     0
  9
$SORTENTS
280
   127
  9
$INDEXCTL
280
     0
  9
$HIDETEXT
280
     1
  9
$XCLIPFRAME
290
     0
  9
$HALOGAP
280
     0
  9
$OBSCOLOR
 70
   257
  9
$OBSLTYPE
280
     0
  9
$INTERSECTIONDISPLAY
280
     0
  9
$INTERSECTIONCOLOR
 70
   257
  9
$DIMASSOC
280
     2
  9
$PROJECTNAME
  1

  9
$CAMERADISPLAY
290
     0
  9
$LENSLENGTH
 40
50.0
  9
$CAMERAHEIGHT
 40
0.0
  9
$STEPSPERSEC
 40
2.0
  9
$STEPSIZE
 40
6.0
  9
$3DDWFPREC
 40
2.0
  9
$PSOLWIDTH
 40
0.25
  9
$PSOLHEIGHT
 40
4.0
  9
$LOFTANG1
 40
1.570796326794897
  9
$LOFTANG2
 40
1.570796326794897
  9
$LOFTMAG1
 40
0.0
  9
$LOFTMAG2
 40
0.0
  9
$LOFTPARAM
 70
     7
  9
$LOFTNORMALS
280
     1
  9
$LATITUDE
 40
37.795
  9
$LONGITUDE
 40
-122.394
  9
$NORTHDIRECTION
 40
0.0
  9
$TIMEZONE
 70
 -8000
  9
$LIGHTGLYPHDISPLAY
280
     1
  9
$TILEMODELIGHTSYNCH
280
     1
  9
$SOLIDHIST
280
     0
  9
$SHOWHIST
280
     1
  9
$DWFFRAME
280
     2
  9
$DGNFRAME
280
     2
  9
$REALWORLDSCALE
290
     1
  9
$INTERFERECOLOR
 62
   256
  9
$CSHADOW
280
     0
  9
$SHADOWPLANELOCATION
 40
0.0
  0
ENDSEC
  0
SECTION
  2
CLASSES
  0
CLASS
  1
LWPOLYLINE
  2
AcDbPolyline
  3
ObjectDBX Classes
 90
        0
 91
        1
280
     0
281
     1
  0
CLASS
  1
IMAGE
  2
AcDbRasterImage
  3
ISM
 90
      127
 91
        7
280
     0
281
     1
  0
CLASS
  1
OLE2FRAME
  2
AcDbOle2Frame
  3
ObjectDBX Classes
 90
        0
 91
        1
280
     0
281
     1
  0
CLASS
  1
HATCH
  2
AcDbHatch
  3
ObjectDBX Classes
 90
        0
 91
        1
280
     0
281
     1
  0
CLASS
  1
DICTIONARYVAR
  2
AcDbDictionaryVar
  3
ObjectDBX Classes
 90
        0
 91
        6
280
     0
281
     0
  0
CLASS
  1
RASTERVARIABLES
  2
AcDbRasterVariables
  3
ISM
 90
        0
 91
        6
280
     0
281
     0
  0
CLASS
  1
IMAGEDEF
  2
AcDbRasterImageDef
  3
ISM
 90
        0
 91
        6
280
     0
281
     0
  0
CLASS
  1
IMAGEDEF_REACTOR
  2
AcDbRasterImageDefReactor
  3
ISM
 90
        1
 91
        6
280
     0
281
     0
  0
CLASS
  1
IDBUFFER
  2
AcDbIdBuffer
  3
ObjectDBX Classes
 90
        0
 91
        6
280
     0
281
     0
  0
CLASS
  1
SPATIAL_FILTER
  2
AcDbSpatialFilter
  3
ObjectDBX Classes
 90
        0
 91
        6
280
     0
281
     0
  0
CLASS
  1
XRECORD
  2
AcDbXrecord
  3
ObjectDBX Classes
 90
        0
 91
        1
280
     0
281
     0
  0
CLASS
  1
SORTENTSTABLE
  2
AcDbSortentsTable
  3
ObjectDBX Classes
 90
        0
 91
        6
280
     0
281
     0
  0
CLASS
  1
LAYER_INDEX
  2
AcDbLayerIndex
  3
ObjectDBX Classes
 90
        0
 91
        6
280
     0
281
     0
  0
CLASS
  1
SPATIAL_INDEX
  2
AcDbSpatialIndex
  3
AutoCAD 2000
 90
        0
 91
        6
280
     0
281
     0
  0
CLASS
  1
OBJECT_PTR
  2
CAseDLPNTableRecord
  3
ASE-LPNTableRecord
 90
        1
 91
        6
280
     0
281
     0
  0
CLASS
  1
LAYOUT
  2
AcDbLayout
  3
ObjectDBX Classes
 90
        0
 91
        1
280
     0
281
     0
  0
CLASS
  1
PLOTSETTINGS
  2
AcDbPlotSettings
  3
ObjectDBX Classes
 90
        0
 91
        6
280
     0
281
     0
  0
CLASS
  1
ACDBDICTIONARYWDFLT
  2
AcDbDictionaryWithDefault
  3
ObjectDBX Classes
 90
        0
 91
        6
280
     0
281
     0
  0
CLASS
  1
ACDBPLACEHOLDER
  2
AcDbPlaceHolder
  3
ObjectDBX Classes
 90
        0
 91
        1
280
     0
281
     0
  0
CLASS
  1
SCALE
  2
AcDbScale
  3
ObjectDBX Classes
 90
     1153
 91
        6
280
     0
281
     0
  0
CLASS
  1
VISUALSTYLE
  2
AcDbVisualStyle
  3
ObjectDBX Classes
 90
     4095
 91
        6
280
     0
281
     0
  0
CLASS
  1
MATERIAL
  2
AcDbMaterial
  3
ObjectDBX Classes
 90
     1153
 91
        6
280
     0
281
     0
  0
CLASS
  1
TABLESTYLE
  2
AcDbTableStyle
  3
ObjectDBX Classes
 90
     4095
 91
        6
280
     0
281
     0
  0
CLASS
  1
MLEADERSTYLE
  2
AcDbMLeaderStyle
  3
ACDB_MLEADERSTYLE_CLASS
 90
     4095
 91
        6
280
     0
281
     0
  0
CLASS
  1
DIMASSOC
  2
AcDbDimAssoc
  3
"AcDbDimAssoc|Product Desc:     AcDim ARX App For Dimension|Company:          Autodesk, Inc.|WEB Address:      www.autodesk.com"
 90
        0
 91
        4
280
     0
281
     0
  0
CLASS
  1
CELLSTYLEMAP
  2
AcDbCellStyleMap
  3
ObjectDBX Classes
 90
     1152
 91
        6
280
     0
281
     0
  0
ENDSEC
  0
SECTION
  2
TABLES
  0
TABLE
  2
VPORT
  5
7
330
0
100
AcDbSymbolTable
 70
     1
  0
VPORT
  5
15
330
7
100
AcDbSymbolTableRecord
100
AcDbViewportTableRecord
  2
*ACTIVE
 70
     0
 10
0.0
 20
0.0
 11
1.0
 21
1.0
 12
1050.0
 22
1485.0
 13
0.0
 23
0.0
 14
1.0
 24
1.0
 15
0.0
 25
0.0
 16
0.0
 26
0.0
 36
1.0
 17
0.0
 27
0.0
 37
0.0
 40
3029.4
 41
2.23943661971831
 42
50.0
 43
0.0
 44
0.0
 50
0.0
 51
0.0
 71
    16
 72
  2000
 73
     1
 74
     1
 75
     0
 76
     0
 77
     0
 78
     0
281
     0
 65
     0
110
0.0
120
0.0
130
0.0
111
1.0
121
0.0
131
0.0
112
0.0
122
1.0
132
0.0
 79
     0
146
0.0
348
1E5
 60
     3
 61
     5
292
     1
282
     1
141
0.0
142
0.0
 63
   250
  0
ENDTAB
  0
TABLE
  2
LTYPE
  5
4
330
0
100
AcDbSymbolTable
 70
    15
  0
LTYPE
  5
11
330
4
100
AcDbSymbolTableRecord
100
AcDbLinetypeTableRecord
  2
ByBlock
 70
     0
  3

 72
    65
 73
     0
 40
0.0
  0
LTYPE
  5
12
330
4
100
AcDbSymbolTableRecord
100
AcDbLinetypeTableRecord
  2
ByLayer
 70
     0
  3

 72
    65
 73
     0
 40
0.0
  0
LTYPE
  5
13
330
4
100
AcDbSymbolTableRecord
100
AcDbLinetypeTableRecord
  2
Continuous
 70
     0
  3
Solid line
 72
    65
 73
     0
 40
0.0
  0
LTYPE
  5
39
330
4
100
AcDbSymbolTableRecord
100
AcDbLinetypeTableRecord
  2
STYLE_01
 70
     0
  3

 72
    65
 73
     2
 40
0.516732283464567
 49
0.344488188976378
 74
     0
 49
-0.172244094488189
 74
     0
  0
LTYPE
  5
3A
330
4
100
AcDbSymbolTableRecord
100
AcDbLinetypeTableRecord
  2
STYLE_02
 70
     0
  3

 72
    65
 73
     2
 40
0.6944250000000001
 49
0.48607
 74
     0
 49
-0.2083550000000001
 74
     0
  0
LTYPE
  5
3B
330
4
100
AcDbSymbolTableRecord
100
AcDbLinetypeTableRecord
  2
STYLE_03
 70
     0
  3

 72
    65
 73
     2
 40
1.25
 49
1.04164
 74
     0
 49
-0.2083599999999999
 74
     0
  0
LTYPE
  5
3C
330
4
100
AcDbSymbolTableRecord
100
AcDbLinetypeTableRecord
  2
STYLE_04
 70
     0
  3

 72
    65
 73
     2
 40
1.52771
 49
1.319425
 74
     0
 49
-0.208285
 74
     0
  0
LTYPE
  5
3D
330
4
100
AcDbSymbolTableRecord
100
AcDbLinetypeTableRecord
  2
STYLE_05
 70
     0
  3

 72
    65
 73
     2
 40
0.20828
 49
0.069425
 74
     0
 49
-0.138855
 74
     0
  0
LTYPE
  5
3E
330
4
100
AcDbSymbolTableRecord
100
AcDbLinetypeTableRecord
  2
STYLE_06
 70
     0
  3

 72
    65
 73
     4
 40
1.04164
 49
0.625
 74
     0
 49
-0.20828
 74
     0
 49
0.06943
 74
     0
 49
-0.13893
 74
     0
  0
LTYPE
  5
3F
330
4
100
AcDbSymbolTableRecord
100
AcDbLinetypeTableRecord
  2
STYLE_07
 70
     0
  3

 72
    65
 73
     6
 40
1.875
 49
0.625
 74
     0
 49
-0.20828
 74
     0
 49
0.6250000000000001
 74
     0
 49
-0.2083599999999999
 74
     0
 49
0.06943
 74
     0
 49
-0.1389299999999999
 74
     0
  0
LTYPE
  5
40
330
4
100
AcDbSymbolTableRecord
100
AcDbLinetypeTableRecord
  2
STYLE_08
 70
     0
  3

 72
    65
 73
     6
 40
1.25
 49
0.625
 74
     0
 49
-0.20828
 74
     0
 49
0.06943
 74
     0
 49
-0.13893
 74
     0
 49
0.0694299999999999
 74
     0
 49
-0.13893
 74
     0
  0
LTYPE
  5
41
330
4
100
AcDbSymbolTableRecord
100
AcDbLinetypeTableRecord
  2
STYLE_09
 70
     0
  3

 72
    65
 73
     4
 40
5.0
 49
3.75
 74
     0
 49
-0.2777849999999998
 74
     0
 49
0.6944300000000003
 74
     0
 49
-0.2777849999999998
 74
     0
  0
LTYPE
  5
42
330
4
100
AcDbSymbolTableRecord
100
AcDbLinetypeTableRecord
  2
STYLE_10
 70
     0
  3

 72
    65
 73
     6
 40
5.9375
 49
3.75
 74
     0
 49
-0.2777849999999998
 74
     0
 49
0.6944300000000003
 74
     0
 49
-0.2777849999999998
 74
     0
 49
0.625
 74
     0
 49
-0.3125
 74
     0
  0
LTYPE
  5
43
330
4
100
AcDbSymbolTableRecord
100
AcDbLinetypeTableRecord
  2
STYLE_11
 70
     0
  3

 72
    65
 73
     2
 40
0.0694444881889764
 49
0.0347222440944882
 74
     0
 49
-0.0347222440944882
 74
     0
  0
LTYPE
  5
44
330
4
100
AcDbSymbolTableRecord
100
AcDbLinetypeTableRecord
  2
STYLE_12
 70
     0
  3

 72
    65
 73
     2
 40
0.3937007874015748
 49
0.1968503937007874
 74
     0
 49
-0.1968503937007874
 74
     0
  0
LTYPE
  5
45
330
4
100
AcDbSymbolTableRecord
100
AcDbLinetypeTableRecord
  2
STYLE_13
 70
     0
  3

 72
    65
 73
     2
 40
0.5905511811023622
 49
0.2952755905511811
 74
     0
 49
-0.2952755905511811
 74
     0
  0
LTYPE
  5
46
330
4
100
AcDbSymbolTableRecord
100
AcDbLinetypeTableRecord
  2
STYLE_14
 70
     0
  3

 72
    65
 73
     2
 40
1.968503937007874
 49
0.9842519685039369
 74
     0
 49
-0.9842519685039369
 74
     0
  0
ENDTAB
  0
TABLE
  2
LAYER
  5
2
102
{ACAD_XDICTIONARY
360
2D9
102
}
330
0
100
AcDbSymbolTable
 70
     9
  0
LAYER
  5
14
330
2
100
AcDbSymbolTableRecord
100
AcDbLayerTableRecord
  2
0
 70
     0
 62
     7
  6
Continuous
370
    -3
390
1D
347
1FC
  0
LAYER
  5
47
330
2
100
AcDbSymbolTableRecord
100
AcDbLayerTableRecord
  2
Defpoints
 70
     0
 62
     7
  6
Continuous
290
     0
370
    -3
390
1D
347
1FC
  0
LAYER
  5
48
330
2
100
AcDbSymbolTableRecord
100
AcDbLayerTableRecord
  2
template
 70
     0
 62
     7
  6
Continuous
370
    -3
390
1D
347
1FC
  0
LAYER
  5
49
330
2
100
AcDbSymbolTableRecord
100
AcDbLayerTableRecord
  2
notes
 70
     0
 62
     7
  6
Continuous
370
    -3
390
1D
347
1FC
  0
LAYER
  5
4A
330
2
100
AcDbSymbolTableRecord
100
AcDbLayerTableRecord
  2
KUF70-0001
 70
     0
 62
     7
  6
Continuous
370
    -3
390
1D
347
1FC
  0
LAYER
  5
205
330
2
100
AcDbSymbolTableRecord
100
AcDbLayerTableRecord
  2
ATB73-1901
 70
     0
 62
     7
  6
Continuous
370
    -3
390
1D
347
1FC
  0
LAYER
  5
206
330
2
100
AcDbSymbolTableRecord
100
AcDbLayerTableRecord
  2
レイヤー 1
 70
     0
 62
     7
  6
Continuous
370
    -3
390
1D
347
1FC
  0
LAYER
  5
565
330
2
100
AcDbSymbolTableRecord
100
AcDbLayerTableRecord
  2
border
 70
     0
 62
     4
  6
Continuous
290
     0
370
    -3
390
1D
347
1FC
1001
AcAecLayerStandard
1000

1000

  0
LAYER
  5
56C
330
2
100
AcDbSymbolTableRecord
100
AcDbLayerTableRecord
  2
壁取付ブラケット [更新済み]
 70
     0
 62
     7
  6
Continuous
370
    -3
390
1D
347
1FC
  0
ENDTAB
  0
TABLE
  2
STYLE
  5
3
330
0
100
AcDbSymbolTable
 70
     2
  0
STYLE
  5
17
330
3
100
AcDbSymbolTableRecord
100
AcDbTextStyleTableRecord
  2
Standard
 70
     0
 40
0.0
 41
1.0
 50
0.0
 71
     0
 42
0.0
  3
txt
  4
BIGFONT.SHX
  0
STYLE
  5
38
330
3
100
AcDbSymbolTableRecord
100
AcDbTextStyleTableRecord
  2
ＭＳ ゴシック
 70
     0
 40
0.0
 41
1.0
 50
0.0
 71
     0
 42
0.0
  3

  4
ＭＳ ゴシック
1001
ACAD
1000
ＭＳ ゴシック
1071
        0
  0
ENDTAB
  0
TABLE
  2
VIEW
  5
5
330
0
100
AcDbSymbolTable
 70
     0
  0
ENDTAB
  0
TABLE
  2
UCS
  5
6
330
0
100
AcDbSymbolTable
 70
     0
  0
ENDTAB
  0
TABLE
  2
APPID
  5
8
330
0
100
AcDbSymbolTable
 70
     3
  0
APPID
  5
16
330
8
100
AcDbSymbolTableRecord
100
AcDbRegAppTableRecord
  2
ACAD
 70
     0
  0
APPID
  5
566
330
8
100
AcDbSymbolTableRecord
100
AcDbRegAppTableRecord
  2
AcAecLayerStandard
 70
     0
  0
APPID
  5
5F2
330
8
100
AcDbSymbolTableRecord
100
AcDbRegAppTableRecord
  2
ACAD_MLEADERVER
 70
     0
  0
ENDTAB
  0
TABLE
  2
DIMSTYLE
  5
9
330
0
100
AcDbSymbolTable
 70
     3
100
AcDbDimStyleTable
  0
DIMSTYLE
105
18
330
9
100
AcDbSymbolTableRecord
100
AcDbDimStyleTableRecord
  2
Standard
 70
     0
178
     0
340
17
  0
DIMSTYLE
105
53
102
{ACAD_REACTORS
330
236
330
243
330
252
330
25F
330
26C
330
279
330
3DC
330
3E9
330
3F8
330
405
330
412
330
41F
330
486
330
487
330
488
330
489
330
48A
330
48B
330
59B
102
}
330
9
100
AcDbSymbolTableRecord
100
AcDbDimStyleTableRecord
  2
tfrom線あり
 70
     0
  3
<>
  4
[]
 41
3.999755859375
 42
25.0
 43
0.9999999999999999
 44
0.0
 73
     0
 74
     0
 77
     1
 78
    11
140
24.4326171875
141
0.0
143
1.0
147
0.4999999999999999
171
     1
174
     1
178
     0
179
     2
271
     1
272
     1
276
     2
284
    11
285
    11
286
    11
289
     0
340
38
341
4B
342
4B
  0
DIMSTYLE
105
58
330
9
100
AcDbSymbolTableRecord
100
AcDbDimStyleTableRecord
  2
JIS
 70
     0
  3
<>
  4
[]
 41
31.75
 42
0.0
 43
6.99999999999994
 44
19.9999999999962
 73
     0
 74
     0
 77
     1
 78
    11
140
24.4326171875
141
0.0
143
1.0
147
1.00000000000108
171
     1
174
     1
178
     0
179
     2
271
     1
272
     1
276
     2
284
    11
285
    11
286
    11
289
     0
340
38
341
54
342
54
  0
ENDTAB
  0
TABLE
  2
BLOCK_RECORD
  5
1
330
0
100
AcDbSymbolTable
 70
    58
  0
BLOCK_RECORD
  5
A
330
1
100
AcDbSymbolTableRecord
100
AcDbBlockTableRecord
  2
*MODEL_SPACE
340
20
 70
     0
280
     1
281
     0
  0
BLOCK_RECORD
  5
B
330
1
100
AcDbSymbolTableRecord
100
AcDbBlockTableRecord
  2
*PAPER_SPACE
340
21
 70
     0
280
     1
281
     0
  0
BLOCK_RECORD
  5
4B
330
1
100
AcDbSymbolTableRecord
100
AcDbBlockTableRecord
  2
_DOT
340
0
102
{BLKREFS
331
24A
331
24B
331
25A
331
267
331
274
331
281
331
341
331
342
331
34E
331
34F
331
35B
331
35C
331
368
331
369
331
375
331
376
331
382
331
383
331
3F0
331
3F1
331
400
331
40D
331
41A
331
427
331
4E5
331
4E6
331
4F2
331
0
331
4FF
331
0
331
50C
331
0
331
519
331
0
331
526
331
0
331
547
331
6E
331
6F
331
7B
331
7C
331
88
331
89
331
95
331
96
331
A2
331
A3
331
AF
331
B0
331
BC
331
BD
331
C9
331
CA
331
D6
331
D7
331
550
331
551
331
F1
331
F2
331
FE
331
FF
331
10B
331
10C
331
55D
331
0
331
125
331
126
331
132
331
133
331
13F
331
140
331
14C
331
14D
331
159
331
15A
331
5AD
102
}
 70
     0
280
     1
281
     0
  0
BLOCK_RECORD
  5
54
330
1
100
AcDbSymbolTableRecord
100
AcDbBlockTableRecord
  2
VW_FILLEDARROW
340
0
102
{BLKREFS
331
395
331
394
331
3A4
331
3A3
102
}
 70
     0
280
     1
281
     0
  0
BLOCK_RECORD
  5
23
330
1
100
AcDbSymbolTableRecord
100
AcDbBlockTableRecord
  2
グループ
340
0
102
{BLKREFS
331
16C
102
}
 70
     0
280
     1
281
     0
  0
BLOCK_RECORD
  5
24
330
1
100
AcDbSymbolTableRecord
100
AcDbBlockTableRecord
  2
*D3
340
0
 70
     0
280
     1
281
     0
  0
BLOCK_RECORD
  5
25
330
1
100
AcDbSymbolTableRecord
100
AcDbBlockTableRecord
  2
*D4
340
0
 70
     0
280
     1
281
     0
  0
BLOCK_RECORD
  5
26
330
1
100
AcDbSymbolTableRecord
100
AcDbBlockTableRecord
  2
*D5
340
0
 70
     0
280
     1
281
     0
  0
BLOCK_RECORD
  5
27
330
1
100
AcDbSymbolTableRecord
100
AcDbBlockTableRecord
  2
*D6
340
0
 70
     0
280
     1
281
     0
  0
BLOCK_RECORD
  5
28
330
1
100
AcDbSymbolTableRecord
100
AcDbBlockTableRecord
  2
*D7
340
0
 70
     0
280
     1
281
     0
  0
BLOCK_RECORD
  5
29
330
1
100
AcDbSymbolTableRecord
100
AcDbBlockTableRecord
  2
*D8
340
0
 70
     0
280
     1
281
     0
  0
BLOCK_RECORD
  5
2A
330
1
100
AcDbSymbolTableRecord
100
AcDbBlockTableRecord
  2
*D9
340
0
 70
     0
280
     1
281
     0
  0
BLOCK_RECORD
  5
2B
330
1
100
AcDbSymbolTableRecord
100
AcDbBlockTableRecord
  2
*D10
340
0
 70
     0
280
     1
281
     0
  0
BLOCK_RECORD
  5
2C
330
1
100
AcDbSymbolTableRecord
100
AcDbBlockTableRecord
  2
*D11
340
0
 70
     0
280
     1
281
     0
  0
BLOCK_RECORD
  5
2D
330
1
100
AcDbSymbolTableRecord
100
AcDbBlockTableRecord
  2
*D12
340
0
 70
     0
280
     1
281
     0
  0
BLOCK_RECORD
  5
2E
330
1
100
AcDbSymbolTableRecord
100
AcDbBlockTableRecord
  2
*D13
340
0
 70
     0
280
     1
281
     0
  0
BLOCK_RECORD
  5
2F
330
1
100
AcDbSymbolTableRecord
100
AcDbBlockTableRecord
  2
*D14
340
0
 70
     0
280
     1
281
     0
  0
BLOCK_RECORD
  5
30
330
1
100
AcDbSymbolTableRecord
100
AcDbBlockTableRecord
  2
*D15
340
0
 70
     0
280
     1
281
     0
  0
BLOCK_RECORD
  5
31
330
1
100
AcDbSymbolTableRecord
100
AcDbBlockTableRecord
  2
*D16
340
0
 70
     0
280
     1
281
     0
  0
BLOCK_RECORD
  5
32
330
1
100
AcDbSymbolTableRecord
100
AcDbBlockTableRecord
  2
*D17
340
0
 70
     0
280
     1
281
     0
  0
BLOCK_RECORD
  5
33
330
1
100
AcDbSymbolTableRecord
100
AcDbBlockTableRecord
  2
*D18
340
0
 70
     0
280
     1
281
     0
  0
BLOCK_RECORD
  5
34
330
1
100
AcDbSymbolTableRecord
100
AcDbBlockTableRecord
  2
*D19
340
0
 70
     0
280
     1
281
     0
  0
BLOCK_RECORD
  5
35
330
1
100
AcDbSymbolTableRecord
100
AcDbBlockTableRecord
  2
*D20
340
0
 70
     0
280
     1
281
     0
  0
BLOCK_RECORD
  5
36
330
1
100
AcDbSymbolTableRecord
100
AcDbBlockTableRecord
  2
*D21
340
0
 70
     0
280
     1
281
     0
  0
BLOCK_RECORD
  5
37
330
1
100
AcDbSymbolTableRecord
100
AcDbBlockTableRecord
  2
*D22
340
0
 70
     0
280
     1
281
     0
  0
BLOCK_RECORD
  5
237
330
1
100
AcDbSymbolTableRecord
100
AcDbBlockTableRecord
  2
*D24
340
0
 70
     0
280
     1
281
     0
  0
BLOCK_RECORD
  5
244
330
1
100
AcDbSymbolTableRecord
100
AcDbBlockTableRecord
  2
*D25
340
0
 70
     0
280
     1
281
     0
  0
BLOCK_RECORD
  5
253
330
1
100
AcDbSymbolTableRecord
100
AcDbBlockTableRecord
  2
*D26
340
0
 70
     0
280
     1
281
     0
  0
BLOCK_RECORD
  5
260
330
1
100
AcDbSymbolTableRecord
100
AcDbBlockTableRecord
  2
*D27
340
0
 70
     0
280
     1
281
     0
  0
BLOCK_RECORD
  5
26D
330
1
100
AcDbSymbolTableRecord
100
AcDbBlockTableRecord
  2
*D28
340
0
 70
     0
280
     1
281
     0
  0
BLOCK_RECORD
  5
27A
330
1
100
AcDbSymbolTableRecord
100
AcDbBlockTableRecord
  2
*D29
340
0
 70
     0
280
     1
281
     0
  0
BLOCK_RECORD
  5
33B
330
1
100
AcDbSymbolTableRecord
100
AcDbBlockTableRecord
  2
*D30
340
0
 70
     0
280
     1
281
     0
  0
BLOCK_RECORD
  5
347
330
1
100
AcDbSymbolTableRecord
100
AcDbBlockTableRecord
  2
*D31
340
0
 70
     0
280
     1
281
     0
  0
BLOCK_RECORD
  5
354
330
1
100
AcDbSymbolTableRecord
100
AcDbBlockTableRecord
  2
*D32
340
0
 70
     0
280
     1
281
     0
  0
BLOCK_RECORD
  5
361
330
1
100
AcDbSymbolTableRecord
100
AcDbBlockTableRecord
  2
*D33
340
0
 70
     0
280
     1
281
     0
  0
BLOCK_RECORD
  5
36E
330
1
100
AcDbSymbolTableRecord
100
AcDbBlockTableRecord
  2
*D34
340
0
 70
     0
280
     1
281
     0
  0
BLOCK_RECORD
  5
37B
330
1
100
AcDbSymbolTableRecord
100
AcDbBlockTableRecord
  2
*D35
340
0
 70
     0
280
     1
281
     0
  0
BLOCK_RECORD
  5
38E
330
1
100
AcDbSymbolTableRecord
100
AcDbBlockTableRecord
  2
*D36
340
0
 70
     0
280
     1
281
     0
  0
BLOCK_RECORD
  5
39D
330
1
100
AcDbSymbolTableRecord
100
AcDbBlockTableRecord
  2
*D37
340
0
 70
     0
280
     1
281
     0
  0
BLOCK_RECORD
  5
3DD
330
1
100
AcDbSymbolTableRecord
100
AcDbBlockTableRecord
  2
*D39
340
0
 70
     0
280
     1
281
     0
  0
BLOCK_RECORD
  5
3EA
330
1
100
AcDbSymbolTableRecord
100
AcDbBlockTableRecord
  2
*D40
340
0
 70
     0
280
     1
281
     0
  0
BLOCK_RECORD
  5
3F9
330
1
100
AcDbSymbolTableRecord
100
AcDbBlockTableRecord
  2
*D41
340
0
 70
     0
280
     1
281
     0
  0
BLOCK_RECORD
  5
406
330
1
100
AcDbSymbolTableRecord
100
AcDbBlockTableRecord
  2
*D42
340
0
 70
     0
280
     1
281
     0
  0
BLOCK_RECORD
  5
413
330
1
100
AcDbSymbolTableRecord
100
AcDbBlockTableRecord
  2
*D43
340
0
 70
     0
280
     1
281
     0
  0
BLOCK_RECORD
  5
420
330
1
100
AcDbSymbolTableRecord
100
AcDbBlockTableRecord
  2
*D44
340
0
 70
     0
280
     1
281
     0
  0
BLOCK_RECORD
  5
4DF
330
1
100
AcDbSymbolTableRecord
100
AcDbBlockTableRecord
  2
*D45
340
0
 70
     0
280
     1
281
     0
  0
BLOCK_RECORD
  5
4EB
330
1
100
AcDbSymbolTableRecord
100
AcDbBlockTableRecord
  2
*D46
340
0
 70
     0
280
     1
281
     0
  0
BLOCK_RECORD
  5
4F8
330
1
100
AcDbSymbolTableRecord
100
AcDbBlockTableRecord
  2
*D47
340
0
 70
     0
280
     1
281
     0
  0
BLOCK_RECORD
  5
505
330
1
100
AcDbSymbolTableRecord
100
AcDbBlockTableRecord
  2
*D48
340
0
 70
     0
280
     1
281
     0
  0
BLOCK_RECORD
  5
512
330
1
100
AcDbSymbolTableRecord
100
AcDbBlockTableRecord
  2
*D49
340
0
 70
     0
280
     1
281
     0
  0
BLOCK_RECORD
  5
51F
330
1
100
AcDbSymbolTableRecord
100
AcDbBlockTableRecord
  2
*D50
340
0
 70
     0
280
     1
281
     0
  0
BLOCK_RECORD
  5
542
330
1
100
AcDbSymbolTableRecord
100
AcDbBlockTableRecord
  2
*D51
340
0
 70
     0
280
     1
281
     0
  0
BLOCK_RECORD
  5
54A
330
1
100
AcDbSymbolTableRecord
100
AcDbBlockTableRecord
  2
*D52
340
0
 70
     0
280
     1
281
     0
  0
BLOCK_RECORD
  5
556
330
1
100
AcDbSymbolTableRecord
100
AcDbBlockTableRecord
  2
*D53
340
0
 70
     0
280
     1
281
     0
  0
BLOCK_RECORD
  5
59C
330
1
100
AcDbSymbolTableRecord
100
AcDbBlockTableRecord
  2
*D55
340
0
 70
     0
280
     1
281
     0
  0
BLOCK_RECORD
  5
5A8
330
1
100
AcDbSymbolTableRecord
100
AcDbBlockTableRecord
  2
*D56
340
0
 70
     0
280
     1
281
     0
  0
ENDTAB
  0
ENDSEC
  0
SECTION
  2
BLOCKS
  0
BLOCK
  5
D
330
A
100
AcDbEntity
  8
0
390
1D
100
AcDbBlockBegin
  2
*MODEL_SPACE
 70
     0
 10
0.0
 20
0.0
 30
0.0
  3
*MODEL_SPACE
  1

  0
ENDBLK
  5
E
330
A
100
AcDbEntity
  8
0
390
1D
100
AcDbBlockEnd
  0
BLOCK
  5
F
330
B
100
AcDbEntity
 67
     1
  8
0
390
1D
100
AcDbBlockBegin
  2
*PAPER_SPACE
 70
     0
 10
0.0
 20
0.0
 30
0.0
  3
*PAPER_SPACE
  1

  0
ENDBLK
  5
10
330
B
100
AcDbEntity
 67
     1
  8
0
390
1D
100
AcDbBlockEnd
  0
BLOCK
  5
4C
330
4B
100
AcDbEntity
  8
0
390
1D
100
AcDbBlockBegin
  2
_DOT
 70
     0
 10
0.0
 20
0.0
 30
0.0
  3
_DOT
  1

  0
POLYLINE
  5
4D
330
4B
100
AcDbEntity
  8
0
  6
ByBlock
 62
     0
370
    -2
390
1D
100
AcDb2dPolyline
 66
     1
 10
0.0
 20
0.0
 30
0.0
 70
     1
 40
0.5
 41
0.5
  0
VERTEX
  5
4E
330
4D
100
AcDbEntity
  8
0
  6
ByBlock
 62
     0
370
    -2
390
1D
100
AcDbVertex
100
AcDb2dVertex
 10
-0.25
 20
0.0
 30
0.0
 42
1.0
  0
VERTEX
  5
4F
330
4D
100
AcDbEntity
  8
0
  6
ByBlock
 62
     0
370
    -2
390
1D
100
AcDbVertex
100
AcDb2dVertex
 10
0.25
 20
0.0
 30
0.0
 42
1.0
  0
SEQEND
  5
50
330
4D
100
AcDbEntity
  8
0
390
1D
  0
LINE
  5
51
330
4B
100
AcDbEntity
  8
0
  6
ByBlock
 62
     0
370
    -2
390
1D
100
AcDbLine
 10
-0.5
 20
0.0
 30
0.0
 11
-1.0
 21
0.0
 31
0.0
  0
ENDBLK
  5
52
330
4B
100
AcDbEntity
  8
0
390
1D
100
AcDbBlockEnd
  0
BLOCK
  5
55
330
54
100
AcDbEntity
  8
0
  6
ByBlock
 62
     0
370
    -2
390
1D
100
AcDbBlockBegin
  2
VW_FILLEDARROW
 70
     0
 10
0.0
 20
0.0
 30
0.0
  3
VW_FILLEDARROW
  1

  0
SOLID
  5
56
330
54
100
AcDbEntity
  8
0
 62
     0
370
    -2
390
1D
100
AcDbTrace
 10
0.0
 20
0.0
 30
0.0
 11
-0.9921874999999999
 21
-0.2658558393652545
 31
0.0
 12
-0.9921874999999999
 22
0.2658558393652548
 32
0.0
 13
-0.9921874999999999
 23
0.2658558393652548
 33
0.0
  0
ENDBLK
  5
57
330
54
100
AcDbEntity
  8
0
390
1D
100
AcDbBlockEnd
  0
BLOCK
  5
59
330
23
100
AcDbEntity
  8
template
390
1D
100
AcDbBlockBegin
  2
グループ
 70
     0
 10
0.0
 20
0.0
 30
0.0
  3
グループ
  1

  0
LWPOLYLINE
  5
5A
330
23
100
AcDbEntity
  8
0
  6
Continuous
 62
     7
370
    15
390
1D
100
AcDbPolyline
 90
        8
 70
   129
 43
0.0
 10
847.6827370670457
 20
-1530.482837995188
 10
847.6827370670457
 20
-1536.480226688764
 10
838.1815401490423
 20
-1536.480226688764
 10
838.1815401490423
 20
-1560.931189952273
 10
829.8261628872596
 20
-1560.931189952273
 10
829.8261628872596
 20
-1536.480226688764
 10
820.4932059409501
 20
-1536.480226688764
 10
820.4932059409501
 20
-1530.482837995188
  0
LWPOLYLINE
  5
5B
330
23
100
AcDbEntity
  8
0
  6
Continuous
 62
     7
370
    15
390
1D
100
AcDbPolyline
 90
      101
 70
   128
 43
0.0
 10
860.4110288976026
 20
-1531.211086488125
 10
860.4263789263907
 20
-1531.206725731439
 42
-0.0222221607812578
 10
860.7163835030588
 20
-1531.138101266195
 10
860.732177267051
 20
-1531.135097843098
 42
-0.0146883565587884
 10
860.9948799722765
 20
-1531.093094656149
 42
-0.0127458844184105
 10
861.2595189394335
 20
-1531.065557688076
 10
861.3219740177423
 20
-1531.060664265488
 42
-0.0198099018565234
 10
861.7128231272169
 20
-1531.045579108091
 10
861.764634596663
 20
-1531.045632883756
 42
-0.0147617382764992
 10
862.2592580576371
 20
-1531.060752909001
 10
862.3319495125088
 20
-1531.065125515888
 42
-0.0162624549002943
 10
862.7221031419766
 20
-1531.101358391161
 10
862.8436355332473
 20
-1531.116644950159
 42
-0.0080020874660742
 10
862.9892145643273
 20
-1531.137327797426
 10
863.0275340349201
 20
-1531.143399075237
 42
-0.0053821929685989
 10
863.0960181402372
 20
-1531.155006599059
 10
862.3696124410386
 20
-1533.335935054773
 42
0.0108667757395953
 10
862.3022953709083
 20
-1533.322747939553
 10
862.2648273477182
 20
-1533.316250196958
 42
0.0170663203309148
 10
862.1216105608042
 20
-1533.296420599667
 10
862.0537352281198
 20
-1533.289373429079
 42
0.0220162375274194
 10
861.7733558202656
 20
-1533.272691068309
 10
861.6955002532137
 20
-1533.271491701042
 42
0.0282606915785871
 10
861.3598639296345
 20
-1533.285294978012
 10
861.3159506558567
 20
-1533.289594968016
 42
0.016967721368741
 10
861.0700261609031
 20
-1533.322132017567
 42
0.0190576269865644
 10
860.8271181983265
 20
-1533.372278889673
 10
860.8208590102123
 20
-1533.373821863783
 42
0.0213685642847671
 10
860.5704745257326
 20
-1533.447022148888
 10
860.5649846308183
 20
-1533.448885144947
 42
0.0237595297593262
 10
860.3114897459187
 20
-1533.548569666843
 10
860.30638767189
 20
-1533.55086144232
 42
0.0261857468816973
 10
860.0542168956615
 20
-1533.680397779694
 10
860.0437907065716
 20
-1533.686463254164
 42
0.0272553062022691
 10
859.8073609313346
 20
-1533.841835460108
 10
859.772597917825
 20
-1533.8674966082
 42
0.032599689317953
 10
859.6224425741736
 20
-1533.994244481171
 10
859.5987331450455
 20
-1534.017062509689
 42
0.0138050960651564
 10
859.5068499888404
 20
-1534.110512171236
 42
0.0125280103797777
 10
859.4200074560077
 20
-1534.208675497835
 10
859.3963270110985
 20
-1534.236833996023
 42
0.0205218024736164
 10
859.2712269355856
 20
-1534.398627310251
 10
859.2487605950977
 20
-1534.430287040079
 42
0.0163110129582177
 10
859.0930502158487
 20
-1534.665617475145
 10
859.0903263197954
 20
-1534.670041237135
 42
0.013189734189802
 10
858.9435257988863
 20
-1534.923173329505
 10
858.941825703523
 20
-1534.926291568635
 42
0.0107895576061969
 10
858.8040490013124
 20
-1535.192506778269
 10
858.8033161117871
 20
-1535.194001010916
 42
0.0091371507219938
 10
858.6748361631368
 20
-1535.468526208678
 10
858.6450905317286
 20
-1535.535232715835
 42
0.0135418326356529
 10
858.4733765926545
 20
-1535.95017050111
 10
858.4397717842243
 20
-1536.03803664338
 42
0.0092834542409077
 10
858.2685427243016
 20
-1536.51193514169
 10
858.2429255965851
 20
-1536.58717621148
 42
0.0054261043581581
 10
858.1352874482911
 20
-1536.914940184549
 10
858.1177614621217
 20
-1536.970328346753
 42
0.0008225090821148
 10
858.0490914102836
 20
-1537.188597104928
 10
857.0644022783501
 20
-1540.213488398184
 10
860.297026118424
 20
-1540.213488398184
 10
859.7928336885706
 20
-1542.117966696537
 10
856.5367774065872
 20
-1542.117966696537
 10
850.7076283742334
 20
-1560.931189762542
 10
848.8825307639231
 20
-1560.931189762542
 10
854.717208799424
 20
-1542.117966696537
 10
852.3120924303837
 20
-1542.117966696537
 10
852.8162848602371
 20
-1540.213488398184
 10
855.2448336711872
 20
-1540.213488398184
 10
856.1049885893758
 20
-1537.577075397486
 42
-0.0005863560628961
 10
856.1417232675615
 20
-1537.46024897725
 10
856.2178111012397
 20
-1537.219256677809
 42
-0.0087522378926772
 10
856.4172792446948
 20
-1536.623980590667
 10
856.5095435201131
 20
-1536.36384042214
 42
-0.0077400953828482
 10
856.7674771792412
 20
-1535.670835744601
 10
856.783242150821
 20
-1535.630404861212
 42
-0.0082369946331723
 10
857.030326621432
 20
-1535.026325795019
 42
-0.0085725238365638
 10
857.2975727174321
 20
-1534.430899755738
 10
857.3992023184429
 20
-1534.214478653746
 42
-0.0168109410593069
 10
857.6861467471722
 20
-1533.653271127642
 10
857.8119901376374
 20
-1533.426307094634
 42
-0.000781772686282
 10
857.8662744876879
 20
-1533.328762849614
 10
857.8664027936981
 20
-1533.32853314089
 42
-0.003662614216061
 10
857.9212906577264
 20
-1533.231935260909
 42
-0.0080221150666191
 10
857.9784149131348
 20
-1533.136656026153
 10
858.0091148644943
 20
-1533.087265077034
 42
-0.0202139325582009
 10
858.1367706042986
 20
-1532.899283476356
 10
858.1908380694887
 20
-1532.826204612112
 42
-0.0249323791800389
 10
858.4500008632087
 20
-1532.510159369956
 10
858.4741406773348
 20
-1532.483545097045
 42
-0.024213212153843
 10
858.8138214188759
 20
-1532.143661610841
 10
858.8617329916253
 20
-1532.100152474657
 42
-0.0251017527861287
 10
859.1457146922683
 20
-1531.86715972889
 10
859.1471601690753
 20
-1531.866090471316
 42
-0.0130868069042322
 10
859.4454208190393
 20
-1531.657310002768
 10
859.4469826381799
 20
-1531.656276562495
 42
-0.0290329526394523
 10
859.7580937795753
 20
-1531.475451060864
 10
859.7879393415699
 20
-1531.46034867802
 42
-0.0160250190040086
 10
860.0538437553259
 20
-1531.336332567811
 42
-0.0267600374782239
 10
860.3291198327946
 20
-1531.235584247263
 10
860.3558557523156
 20
-1531.227391688437
 42
-0.0049981587689033
 10
860.4110288976026
 20
-1531.211086488125
 42
-0.0049981587689033
  0
LWPOLYLINE
  5
5C
330
23
100
AcDbEntity
  8
0
  6
Continuous
 62
     7
370
    15
390
1D
100
AcDbPolyline
 90
      118
 70
   128
 43
0.0
 10
880.2253964620495
 20
-1540.287471726012
 10
882.100518386549
 20
-1540.287471726012
 10
881.2624794809491
 20
-1542.969038252412
 42
-0.0010587229174195
 10
881.2939352965659
 20
-1542.932133719004
 10
881.3521293871529
 20
-1542.864151462881
 42
-0.0071874740413287
 10
881.5025046052389
 20
-1542.693510770865
 10
881.6442273785133
 20
-1542.537274629539
 42
-0.0148118053513507
 10
882.0943566712286
 20
-1542.069660783523
 10
882.1815790061273
 20
-1541.984263462673
 42
-0.0086273358692999
 10
882.5171278071361
 20
-1541.666887828656
 10
882.5609615233566
 20
-1541.626838184328
 42
-0.0103138323118048
 10
882.8189852255956
 20
-1541.400675046984
 10
882.864759631936
 20
-1541.362192999713
 42
-0.006020674855798
 10
883.0376076960349
 20
-1541.22039834897
 10
883.0396388269144
 20
-1541.218772643344
 42
-0.0067069027298922
 10
883.2119316415833
 20
-1541.084622009543
 10
883.2144804075148
 20
-1541.082691839664
 42
-0.0076184352041271
 10
883.3853856733807
 20
-1540.957316964424
 42
-0.008965286167106
 10
883.5603466361144
 20
-1540.837683704092
 10
883.5966983562613
 20
-1540.813772490608
 42
-0.0156916245935287
 10
883.7926578534202
 20
-1540.693510004134
 42
-0.0023299011065047
 10
883.9929198973832
 20
-1540.580332064603
 10
884.00830402978
 20
-1540.571732069529
 42
-0.0107669341491178
 10
884.2425408548768
 20
-1540.447331936182
 10
884.2648056559563
 20
-1540.436115186229
 42
-0.0078058045897588
 10
884.5483957739098
 20
-1540.29875373059
 10
884.5583028616181
 20
-1540.294144602722
 42
-0.0181829330470902
 10
884.8686122662336
 20
-1540.163280861627
 10
884.9226677088008
 20
-1540.142765741683
 42
-0.0208411536031529
 10
885.2717526762507
 20
-1540.02667527919
 10
885.2861087763757
 20
-1540.022556834237
 42
-0.0222799817135663
 10
885.6148285702955
 20
-1539.943915268096
 10
885.6237175335326
 20
-1539.942203257511
 42
-0.0215509523886939
 10
885.9401885018121
 20
-1539.895287568977
 10
885.9826704628646
 20
-1539.890850042186
 42
-0.018254592486677
 10
886.2167792421665
 20
-1539.875006216795
 10
886.2561802585021
 20
-1539.873781671716
 42
-0.0072962856536055
 10
886.4121031382033
 20
-1539.871212343194
 10
886.4412028087721
 20
-1539.87115750779
 42
-0.0059227516310461
 10
886.5389523079203
 20
-1539.872131219581
 10
886.568194525416
 20
-1539.872768986184
 42
-0.0011833111922026
 10
886.6074458091247
 20
-1539.873717990494
 10
885.8120592135175
 20
-1542.412451935593
 42
0.0143932051502214
 10
885.7856578311655
 20
-1542.402252965547
 10
885.7783858587496
 20
-1542.39968174669
 42
0.0234388603499517
 10
885.7365549928193
 20
-1542.387062510975
 10
885.7278733299048
 20
-1542.38488154897
 42
0.0199162742985578
 10
885.6675844958235
 20
-1542.372264813635
 10
885.6467705580186
 20
-1542.368767614206
 42
0.0293643550671551
 10
885.5436956992581
 20
-1542.357617568553
 10
885.5190105185391
 20
-1542.356405951534
 42
0.0214606686869755
 10
885.3658696025882
 20
-1542.355467391117
 10
885.3564976917687
 20
-1542.355812302661
 42
0.0167564054172899
 10
885.1849775006604
 20
-1542.367889345029
 10
885.1765177079012
 20
-1542.368770685457
 42
0.0137677553250369
 10
884.9891643946346
 20
-1542.393519994
 10
884.9818126551288
 20
-1542.394697913968
 42
0.0118497261487322
 10
884.781314891027
 20
-1542.431715264157
 10
884.7751648837802
 20
-1542.433002126877
 42
0.0106421143894904
 10
884.5642839964889
 20
-1542.481834502454
 10
884.5593751881061
 20
-1542.483081845137
 42
0.0099746379706516
 10
884.3409167189375
 20
-1542.543256373454
 10
884.2793686787734
 20
-1542.561538252083
 42
0.0191613675864219
 10
883.9433842162529
 20
-1542.675515632371
 10
883.8553244435126
 20
-1542.709202542693
 42
0.0205274080142401
 10
883.4700176716117
 20
-1542.87503095052
 10
883.4123683896312
 20
-1542.902698915092
 42
0.0181256912195546
 10
883.1540914489626
 20
-1543.03838273407
 10
883.1011360656458
 20
-1543.068700347287
 42
0.0140709242414994
 10
882.9561811310202
 20
-1543.157195020719
 10
882.9299322624043
 20
-1543.174251839433
 42
0.0086667884400432
 10
882.8410061008592
 20
-1543.234254507318
 42
0.0036408192028069
 10
882.7535728628122
 20
-1543.29643536512
 10
882.7183459883572
 20
-1543.321876311023
 42
0.0052260781285906
 10
882.5621172909521
 20
-1543.437208697668
 10
882.5459104347067
 20
-1543.449436808275
 42
0.0050024435889036
 10
882.3599070916521
 20
-1543.592719376534
 10
882.3445889351326
 20
-1543.604765398983
 42
0.013613871028512
 10
882.1341476668092
 20
-1543.779731903895
 10
882.1004797910136
 20
-1543.809310876611
 42
0.0172815186918344
 10
881.8360762493458
 20
-1544.05830754924
 10
881.8335139035087
 20
-1544.060893366381
 42
0.0189403857988711
 10
881.5829321049322
 20
-1544.333698631182
 10
881.5503006113938
 20
-1544.372042562682
 42
0.0185044199506755
 10
881.3583441724135
 20
-1544.615291143806
 42
0.0088565243899398
 10
881.1798840657798
 20
-1544.868807563964
 10
881.1707060861365
 20
-1544.882348943716
 42
0.0157195347227882
 10
880.9874854798044
 20
-1545.171871153028
 10
880.9414025378685
 20
-1545.250023350058
 42
0.0095451879788687
 10
880.7763169877339
 20
-1545.542617992409
 10
880.765169068804
 20
-1545.563288664541
 42
0.0100351706257976
 10
880.6331253196449
 20
-1545.820344225032
 42
0.0086935915420989
 10
880.5107941678535
 20
-1546.08217737043
 10
880.5074734264365
 20
-1546.089619693408
 42
0.0072580174863141
 10
880.3871269744916
 20
-1546.37021168499
 10
880.3838653411851
 20
-1546.378131711009
 42
0.0060005122618947
 10
880.2646646728401
 20
-1546.67774138162
 10
880.2614536945009
 20
-1546.686102909519
 42
0.0049017786981531
 10
880.1425535356441
 20
-1547.005031890121
 10
880.139387729253
 20
-1547.013784827353
 42
0.0039415167600487
 10
880.0199514511951
 20
-1547.35232688977
 10
880.0168203485441
 20
-1547.361430090643
 42
0.0031035838766574
 10
879.8960155628417
 20
-1547.719869952445
 10
879.8929055183207
 20
-1547.729290573791
 42
0.0025070747148473
 10
879.7700041670237
 20
-1548.107937790678
 10
879.7327102705799
 20
-1548.224829455988
 42
0.0029081910280469
 10
879.5406919727759
 20
-1548.838993114257
 10
879.4998888042521
 20
-1548.972216356556
 42
0.0009266453733089
 10
879.2314714299279
 20
-1549.854440816511
 10
879.2105839572886
 20
-1549.923552695742
 42
-0.0005809993665711
 10
878.9332472767056
 20
-1550.837360802354
 10
878.8669654784502
 20
-1551.054845734456
 42
-0.0012018708169822
 10
878.7199811690034
 20
-1551.533008399034
 10
878.667661317374
 20
-1551.701767540106
 42
-0.0002691059594532
 10
878.6240918362694
 20
-1551.842035160242
 10
875.7911359379801
 20
-1560.931189762542
 10
873.9731470460016
 20
-1560.931189762542
 10
880.2253964620495
 20
-1540.287471726012
  0
SPLINE
  5
5D
330
23
100
AcDbEntity
  8
0
  6
Continuous
 62
     7
370
    15
390
1D
100
AcDbSpline
210
0.0
220
0.0
230
1.0
 70
    15
 71
     2
 72
   782
 73
   779
 74
     0
 42
0.000000001
 43
0.000001
 40
0.0
 40
0.0
 40
0.0
 40
1.0
 40
1.0
 40
2.0
 40
2.0
 40
3.0
 40
3.0
 40
4.0
 40
4.0
 40
5.0
 40
5.0
 40
6.0
 40
6.0
 40
7.0
 40
7.0
 40
8.0
 40
8.0
 40
9.0
 40
9.0
 40
10.0
 40
10.0
 40
11.0
 40
11.0
 40
12.0
 40
12.0
 40
13.0
 40
13.0
 40
14.0
 40
14.0
 40
15.0
 40
15.0
 40
16.0
 40
16.0
 40
17.0
 40
17.0
 40
18.0
 40
18.0
 40
19.0
 40
19.0
 40
20.0
 40
20.0
 40
21.0
 40
21.0
 40
22.0
 40
22.0
 40
23.0
 40
23.0
 40
24.0
 40
24.0
 40
25.0
 40
25.0
 40
26.0
 40
26.0
 40
27.0
 40
27.0
 40
28.0
 40
28.0
 40
29.0
 40
29.0
 40
30.0
 40
30.0
 40
31.0
 40
31.0
 40
32.0
 40
32.0
 40
33.0
 40
33.0
 40
34.0
 40
34.0
 40
35.0
 40
35.0
 40
36.0
 40
36.0
 40
37.0
 40
37.0
 40
38.0
 40
38.0
 40
39.0
 40
39.0
 40
40.0
 40
40.0
 40
41.0
 40
41.0
 40
42.0
 40
42.0
 40
43.0
 40
43.0
 40
44.0
 40
44.0
 40
45.0
 40
45.0
 40
46.0
 40
46.0
 40
47.0
 40
47.0
 40
48.0
 40
48.0
 40
49.0
 40
49.0
 40
50.0
 40
50.0
 40
51.0
 40
51.0
 40
52.0
 40
52.0
 40
53.0
 40
53.0
 40
54.0
 40
54.0
 40
55.0
 40
55.0
 40
56.0
 40
56.0
 40
57.0
 40
57.0
 40
58.0
 40
58.0
 40
59.0
 40
59.0
 40
60.0
 40
60.0
 40
61.0
 40
61.0
 40
62.0
 40
62.0
 40
63.0
 40
63.0
 40
64.0
 40
64.0
 40
65.0
 40
65.0
 40
66.0
 40
66.0
 40
67.0
 40
67.0
 40
68.0
 40
68.0
 40
69.0
 40
69.0
 40
70.0
 40
70.0
 40
71.0
 40
71.0
 40
72.0
 40
72.0
 40
73.0
 40
73.0
 40
74.0
 40
74.0
 40
75.0
 40
75.0
 40
76.0
 40
76.0
 40
77.0
 40
77.0
 40
78.0
 40
78.0
 40
79.0
 40
79.0
 40
80.0
 40
80.0
 40
81.0
 40
81.0
 40
82.0
 40
82.0
 40
83.0
 40
83.0
 40
84.0
 40
84.0
 40
85.0
 40
85.0
 40
86.0
 40
86.0
 40
87.0
 40
87.0
 40
88.0
 40
88.0
 40
89.0
 40
89.0
 40
90.0
 40
90.0
 40
91.0
 40
91.0
 40
92.0
 40
92.0
 40
93.0
 40
93.0
 40
94.0
 40
94.0
 40
95.0
 40
95.0
 40
96.0
 40
96.0
 40
97.0
 40
97.0
 40
98.0
 40
98.0
 40
99.0
 40
99.0
 40
100.0
 40
100.0
 40
101.0
 40
101.0
 40
102.0
 40
102.0
 40
103.0
 40
103.0
 40
104.0
 40
104.0
 40
105.0
 40
105.0
 40
106.0
 40
106.0
 40
107.0
 40
107.0
 40
108.0
 40
108.0
 40
109.0
 40
109.0
 40
110.0
 40
110.0
 40
111.0
 40
111.0
 40
112.0
 40
112.0
 40
113.0
 40
113.0
 40
114.0
 40
114.0
 40
115.0
 40
115.0
 40
116.0
 40
116.0
 40
117.0
 40
117.0
 40
118.0
 40
118.0
 40
119.0
 40
119.0
 40
120.0
 40
120.0
 40
121.0
 40
121.0
 40
122.0
 40
122.0
 40
123.0
 40
123.0
 40
124.0
 40
124.0
 40
125.0
 40
125.0
 40
126.0
 40
126.0
 40
127.0
 40
127.0
 40
128.0
 40
128.0
 40
129.0
 40
129.0
 40
130.0
 40
130.0
 40
131.0
 40
131.0
 40
132.0
 40
132.0
 40
133.0
 40
133.0
 40
134.0
 40
134.0
 40
135.0
 40
135.0
 40
136.0
 40
136.0
 40
137.0
 40
137.0
 40
138.0
 40
138.0
 40
139.0
 40
139.0
 40
140.0
 40
140.0
 40
141.0
 40
141.0
 40
142.0
 40
142.0
 40
143.0
 40
143.0
 40
144.0
 40
144.0
 40
145.0
 40
145.0
 40
146.0
 40
146.0
 40
147.0
 40
147.0
 40
148.0
 40
148.0
 40
149.0
 40
149.0
 40
150.0
 40
150.0
 40
151.0
 40
151.0
 40
152.0
 40
152.0
 40
153.0
 40
153.0
 40
154.0
 40
154.0
 40
155.0
 40
155.0
 40
156.0
 40
156.0
 40
157.0
 40
157.0
 40
158.0
 40
158.0
 40
159.0
 40
159.0
 40
160.0
 40
160.0
 40
161.0
 40
161.0
 40
162.0
 40
162.0
 40
163.0
 40
163.0
 40
164.0
 40
164.0
 40
165.0
 40
165.0
 40
166.0
 40
166.0
 40
167.0
 40
167.0
 40
168.0
 40
168.0
 40
169.0
 40
169.0
 40
170.0
 40
170.0
 40
171.0
 40
171.0
 40
172.0
 40
172.0
 40
173.0
 40
173.0
 40
174.0
 40
174.0
 40
175.0
 40
175.0
 40
176.0
 40
176.0
 40
177.0
 40
177.0
 40
178.0
 40
178.0
 40
179.0
 40
179.0
 40
180.0
 40
180.0
 40
181.0
 40
181.0
 40
182.0
 40
182.0
 40
183.0
 40
183.0
 40
184.0
 40
184.0
 40
185.0
 40
185.0
 40
186.0
 40
186.0
 40
187.0
 40
187.0
 40
188.0
 40
188.0
 40
189.0
 40
189.0
 40
190.0
 40
190.0
 40
191.0
 40
191.0
 40
192.0
 40
192.0
 40
193.0
 40
193.0
 40
194.0
 40
194.0
 40
195.0
 40
195.0
 40
196.0
 40
196.0
 40
197.0
 40
197.0
 40
198.0
 40
198.0
 40
199.0
 40
199.0
 40
200.0
 40
200.0
 40
201.0
 40
201.0
 40
202.0
 40
202.0
 40
203.0
 40
203.0
 40
204.0
 40
204.0
 40
205.0
 40
205.0
 40
206.0
 40
206.0
 40
207.0
 40
207.0
 40
208.0
 40
208.0
 40
209.0
 40
209.0
 40
210.0
 40
210.0
 40
211.0
 40
211.0
 40
212.0
 40
212.0
 40
213.0
 40
213.0
 40
214.0
 40
214.0
 40
215.0
 40
215.0
 40
216.0
 40
216.0
 40
217.0
 40
217.0
 40
218.0
 40
218.0
 40
219.0
 40
219.0
 40
220.0
 40
220.0
 40
221.0
 40
221.0
 40
222.0
 40
222.0
 40
223.0
 40
223.0
 40
224.0
 40
224.0
 40
225.0
 40
225.0
 40
226.0
 40
226.0
 40
227.0
 40
227.0
 40
228.0
 40
228.0
 40
229.0
 40
229.0
 40
230.0
 40
230.0
 40
231.0
 40
231.0
 40
232.0
 40
232.0
 40
233.0
 40
233.0
 40
234.0
 40
234.0
 40
235.0
 40
235.0
 40
236.0
 40
236.0
 40
237.0
 40
237.0
 40
238.0
 40
238.0
 40
239.0
 40
239.0
 40
240.0
 40
240.0
 40
241.0
 40
241.0
 40
242.0
 40
242.0
 40
243.0
 40
243.0
 40
244.0
 40
244.0
 40
245.0
 40
245.0
 40
246.0
 40
246.0
 40
247.0
 40
247.0
 40
248.0
 40
248.0
 40
249.0
 40
249.0
 40
250.0
 40
250.0
 40
251.0
 40
251.0
 40
252.0
 40
252.0
 40
253.0
 40
253.0
 40
254.0
 40
254.0
 40
255.0
 40
255.0
 40
256.0
 40
256.0
 40
257.0
 40
257.0
 40
258.0
 40
258.0
 40
259.0
 40
259.0
 40
260.0
 40
260.0
 40
261.0
 40
261.0
 40
262.0
 40
262.0
 40
263.0
 40
263.0
 40
264.0
 40
264.0
 40
265.0
 40
265.0
 40
266.0
 40
266.0
 40
267.0
 40
267.0
 40
268.0
 40
268.0
 40
269.0
 40
269.0
 40
270.0
 40
270.0
 40
271.0
 40
271.0
 40
272.0
 40
272.0
 40
273.0
 40
273.0
 40
274.0
 40
274.0
 40
275.0
 40
275.0
 40
276.0
 40
276.0
 40
277.0
 40
277.0
 40
278.0
 40
278.0
 40
279.0
 40
279.0
 40
280.0
 40
280.0
 40
281.0
 40
281.0
 40
282.0
 40
282.0
 40
283.0
 40
283.0
 40
284.0
 40
284.0
 40
285.0
 40
285.0
 40
286.0
 40
286.0
 40
287.0
 40
287.0
 40
288.0
 40
288.0
 40
289.0
 40
289.0
 40
290.0
 40
290.0
 40
291.0
 40
291.0
 40
292.0
 40
292.0
 40
293.0
 40
293.0
 40
294.0
 40
294.0
 40
295.0
 40
295.0
 40
296.0
 40
296.0
 40
297.0
 40
297.0
 40
298.0
 40
298.0
 40
299.0
 40
299.0
 40
300.0
 40
300.0
 40
301.0
 40
301.0
 40
302.0
 40
302.0
 40
303.0
 40
303.0
 40
304.0
 40
304.0
 40
305.0
 40
305.0
 40
306.0
 40
306.0
 40
307.0
 40
307.0
 40
308.0
 40
308.0
 40
309.0
 40
309.0
 40
310.0
 40
310.0
 40
311.0
 40
311.0
 40
312.0
 40
312.0
 40
313.0
 40
313.0
 40
314.0
 40
314.0
 40
315.0
 40
315.0
 40
316.0
 40
316.0
 40
317.0
 40
317.0
 40
318.0
 40
318.0
 40
319.0
 40
319.0
 40
320.0
 40
320.0
 40
321.0
 40
321.0
 40
322.0
 40
322.0
 40
323.0
 40
323.0
 40
324.0
 40
324.0
 40
325.0
 40
325.0
 40
326.0
 40
326.0
 40
327.0
 40
327.0
 40
328.0
 40
328.0
 40
329.0
 40
329.0
 40
330.0
 40
330.0
 40
331.0
 40
331.0
 40
332.0
 40
332.0
 40
333.0
 40
333.0
 40
334.0
 40
334.0
 40
335.0
 40
335.0
 40
336.0
 40
336.0
 40
337.0
 40
337.0
 40
338.0
 40
338.0
 40
339.0
 40
339.0
 40
340.0
 40
340.0
 40
341.0
 40
341.0
 40
342.0
 40
342.0
 40
343.0
 40
343.0
 40
344.0
 40
344.0
 40
345.0
 40
345.0
 40
346.0
 40
346.0
 40
347.0
 40
347.0
 40
348.0
 40
348.0
 40
349.0
 40
349.0
 40
350.0
 40
350.0
 40
351.0
 40
351.0
 40
352.0
 40
352.0
 40
353.0
 40
353.0
 40
354.0
 40
354.0
 40
355.0
 40
355.0
 40
356.0
 40
356.0
 40
357.0
 40
357.0
 40
358.0
 40
358.0
 40
359.0
 40
359.0
 40
360.0
 40
360.0
 40
361.0
 40
361.0
 40
362.0
 40
362.0
 40
363.0
 40
363.0
 40
364.0
 40
364.0
 40
365.0
 40
365.0
 40
366.0
 40
366.0
 40
367.0
 40
367.0
 40
368.0
 40
368.0
 40
369.0
 40
369.0
 40
370.0
 40
370.0
 40
371.0
 40
371.0
 40
372.0
 40
372.0
 40
373.0
 40
373.0
 40
374.0
 40
374.0
 40
375.0
 40
375.0
 40
376.0
 40
376.0
 40
377.0
 40
377.0
 40
378.0
 40
378.0
 40
379.0
 40
379.0
 40
380.0
 40
380.0
 40
381.0
 40
381.0
 40
382.0
 40
382.0
 40
383.0
 40
383.0
 40
384.0
 40
384.0
 40
385.0
 40
385.0
 40
386.0
 40
386.0
 40
387.0
 40
387.0
 40
388.0
 40
388.0
 40
389.0
 40
389.0
 40
389.0
 10
890.5541009127821
 20
-1540.276545362649
 30
0.0
 41
1.0
 10
891.3725250215026
 20
-1540.276545362649
 30
0.0
 41
1.0
 10
892.1909491302231
 20
-1540.276545362649
 30
0.0
 41
1.0
 10
891.7771953947063
 20
-1541.619171626899
 30
0.0
 41
1.0
 10
891.3634416591896
 20
-1542.961797891149
 30
0.0
 41
1.0
 10
891.3817811543495
 20
-1542.93309711825
 30
0.0
 41
0.9999957264359167
 10
891.400288151191
 20
-1542.904504068082
 30
0.0
 41
1.0
 10
891.4307174753269
 20
-1542.857491189709
 30
0.0
 41
1.0
 10
891.4611467994628
 20
-1542.810478311335
 30
0.0
 41
1.0
 10
891.5405124445688
 20
-1542.687859504432
 30
0.0
 41
0.999539406908088
 10
891.6271708361231
 20
-1542.570281442687
 30
0.0
 41
1.0
 10
891.6629276983818
 20
-1542.521766550095
 30
0.0
 41
1.0
 10
891.6986845606406
 20
-1542.473251657503
 30
0.0
 41
1.0
 10
891.8324112284586
 20
-1542.291811382376
 30
0.0
 41
0.9994460617143132
 10
891.9779117097465
 20
-1542.119668984727
 30
0.0
 41
1.0
 10
891.9822998907214
 20
-1542.114477304344
 30
0.0
 41
1.0
 10
891.9866880716963
 20
-1542.109285623962
 30
0.0
 41
1.0
 10
892.1234121910344
 20
-1541.947526587077
 30
0.0
 41
0.9994359394934369
 10
892.2706864213858
 20
-1541.795310385912
 30
0.0
 41
1.0
 10
892.2730697753416
 20
-1541.792847055537
 30
0.0
 41
1.0
 10
892.2754531292975
 20
-1541.790383725161
 30
0.0
 41
1.0
 10
892.4179606517392
 20
-1541.643094184746
 30
0.0
 41
0.9995293688567525
 10
892.5692323327195
 20
-1541.504820972584
 30
0.0
 41
1.0
 10
892.588526091982
 20
-1541.487185086933
 30
0.0
 41
1.0
 10
892.6078198512445
 20
-1541.469549201283
 30
0.0
 41
1.0
 10
892.7205040137004
 20
-1541.366547760421
 30
0.0
 41
0.9997087614803292
 10
892.8380269026566
 20
-1541.269103479622
 30
0.0
 41
1.0
 10
892.8571929758346
 20
-1541.253211901112
 30
0.0
 41
1.0
 10
892.8763590490124
 20
-1541.237320322602
 30
0.0
 41
1.0
 10
892.9555497916174
 20
-1541.171659198819
 30
0.0
 41
0.9999595338699053
 10
893.0359090624668
 20
-1541.107433468169
 30
0.0
 41
1.0
 10
893.1162683333234
 20
-1541.043207737512
 30
0.0
 41
0.9999749417510871
 10
893.197528867678
 20
-1540.980126183558
 30
0.0
 41
1.0
 10
893.2185150138428
 20
-1540.963834896254
 30
0.0
 41
1.0
 10
893.2395011600076
 20
-1540.947543608951
 30
0.0
 41
1.0
 10
893.3240690453017
 20
-1540.881894599116
 30
0.0
 41
0.9999792037120746
 10
893.4094766450678
 20
-1540.817341817475
 30
0.0
 41
1.0
 10
893.4303014709426
 20
-1540.801601995245
 30
0.0
 41
1.0
 10
893.4511262968173
 20
-1540.785862173015
 30
0.0
 41
1.0
 10
893.4948842447975
 20
-1540.752789035861
 30
0.0
 41
0.9999993374282402
 10
893.5385659309806
 20
-1540.719615240407
 30
0.0
 41
1.0
 10
893.5822476171242
 20
-1540.686441444983
 30
0.0
 41
0.999916095381649
 10
893.6267740280445
 20
-1540.654410379784
 30
0.0
 41
1.0
 10
893.6595959154633
 20
-1540.6307992242
 30
0.0
 41
1.0
 10
893.6924178028823
 20
-1540.607188068615
 30
0.0
 41
1.0
 10
893.8025879886414
 20
-1540.527934692247
 30
0.0
 41
0.9980964527231766
 10
893.9216769821426
 20
-1540.46284721939
 30
0.0
 41
1.0
 10
893.9587095890697
 20
-1540.442607239798
 30
0.0
 41
1.0
 10
893.995742195997
 20
-1540.422367260205
 30
0.0
 41
1.0
 10
894.17506920927
 20
-1540.324357009504
 30
0.0
 41
0.9984572810573024
 10
894.3641577756296
 20
-1540.246834748157
 30
0.0
 41
1.0
 10
894.3678040450254
 20
-1540.245339855819
 30
0.0
 41
1.0
 10
894.3714503144213
 20
-1540.243844963481
 30
0.0
 41
1.0
 10
894.5532463419885
 20
-1540.169312486811
 30
0.0
 41
0.99878385280341
 10
894.7414990005477
 20
-1540.113046846645
 30
0.0
 41
1.0
 10
894.7457369497477
 20
-1540.111780192954
 30
0.0
 41
1.0
 10
894.7499748989475
 20
-1540.110513539264
 30
0.0
 41
1.0
 10
894.9297516591079
 20
-1540.056781206479
 30
0.0
 41
0.999065281620738
 10
895.1134975908228
 20
-1540.018777526937
 30
0.0
 41
1.0
 10
895.118685991855
 20
-1540.01770442383
 30
0.0
 41
1.0
 10
895.1238743928873
 20
-1540.016631320724
 30
0.0
 41
1.0
 10
895.2972435225397
 20
-1539.980773847395
 30
0.0
 41
0.9992909934270414
 10
895.472819288997
 20
-1539.958063414929
 30
0.0
 41
1.0
 10
895.6483950554581
 20
-1539.935352982462
 30
0.0
 41
0.9994553539448309
 10
895.8250864885541
 20
-1539.924273678256
 30
0.0
 41
1.0
 10
895.8605208963459
 20
-1539.922051790208
 30
0.0
 41
1.0
 10
895.8959553041376
 20
-1539.91982990216
 30
0.0
 41
1.0
 10
896.0621810707082
 20
-1539.909406839748
 30
0.0
 41
0.9990928098292619
 10
896.2286908626118
 20
-1539.913166480983
 30
0.0
 41
1.0
 10
896.2672526978881
 20
-1539.914037172516
 30
0.0
 41
1.0
 10
896.3058145331644
 20
-1539.914907864049
 30
0.0
 41
1.0
 10
896.3952006545189
 20
-1539.916926122218
 30
0.0
 41
0.9998382089205845
 10
896.4844563373007
 20
-1539.922158248746
 30
0.0
 41
1.0
 10
896.4848862435184
 20
-1539.922183449648
 30
0.0
 41
1.0
 10
896.4853161497361
 20
-1539.92220865055
 30
0.0
 41
1.0
 10
896.5737120200847
 20
-1539.927390375273
 30
0.0
 41
0.9997558016757594
 10
896.6617925972877
 20
-1539.93647289064
 30
0.0
 41
1.0
 10
896.6622687357153
 20
-1539.936521988123
 30
0.0
 41
1.0
 10
896.6627448741428
 20
-1539.936571085605
 30
0.0
 41
1.0
 10
896.7498731744864
 20
-1539.945555406007
 30
0.0
 41
0.9996565144181769
 10
896.8364110278305
 20
-1539.959092712696
 30
0.0
 41
1.0
 10
896.8368769532083
 20
-1539.959165598427
 30
0.0
 41
1.0
 10
896.837342878586
 20
-1539.959238484159
 30
0.0
 41
1.0
 10
896.9229488811728
 20
-1539.972630019385
 30
0.0
 41
0.9995321806867252
 10
897.0075759615006
 20
-1539.991230507814
 30
0.0
 41
1.0
 10
897.0079651560707
 20
-1539.991316050279
 30
0.0
 41
1.0
 10
897.0083543506407
 20
-1539.991401592745
 30
0.0
 41
1.0
 10
897.0922030418272
 20
-1540.009830996243
 30
0.0
 41
0.9993819199218846
 10
897.1745495760248
 20
-1540.034106379504
 30
0.0
 41
1.0
 10
897.1747880095253
 20
-1540.034176668614
 30
0.0
 41
1.0
 10
897.1750264430258
 20
-1540.034246957724
 30
0.0
 41
1.0
 10
897.256896110224
 20
-1540.058381762766
 30
0.0
 41
0.9992088568506333
 10
897.3365886292092
 20
-1540.088946998559
 30
0.0
 41
1.0
 10
897.4162696200883
 20
-1540.119506599292
 30
0.0
 41
0.9990226101772418
 10
897.4929402899954
 20
-1540.156984030907
 30
0.0
 41
1.0
 10
897.5695994317944
 20
-1540.194455827461
 30
0.0
 41
0.9988424273973019
 10
897.6423030590074
 20
-1540.239120602714
 30
0.0
 41
1.0
 10
897.6425707673859
 20
-1540.239285066786
 30
0.0
 41
1.0
 10
897.6428384757645
 20
-1540.239449530858
 30
0.0
 41
1.0
 10
897.7160775197353
 20
-1540.284443234255
 30
0.0
 41
0.9986928844490734
 10
897.7843403864448
 20
-1540.336678968534
 30
0.0
 41
1.0
 10
897.7849216786678
 20
-1540.337123781762
 30
0.0
 41
1.0
 10
897.7855029708908
 20
-1540.33756859499
 30
0.0
 41
1.0
 10
897.8549284220461
 20
-1540.390693955726
 30
0.0
 41
0.9986007262278379
 10
897.9183545918127
 20
-1540.45085472542
 30
0.0
 41
1.0
 10
897.9192490072699
 20
-1540.451703093255
 30
0.0
 41
1.0
 10
897.9201434227272
 20
-1540.45255146109
 30
0.0
 41
1.0
 10
897.9853584234088
 20
-1540.514408966454
 30
0.0
 41
0.9985581491381227
 10
898.0435660351102
 20
-1540.582901456725
 30
0.0
 41
1.0
 10
898.0528244887059
 20
-1540.593795814427
 30
0.0
 41
1.0
 10
898.0620829423017
 20
-1540.604690172128
 30
0.0
 41
1.0
 10
898.1388074611951
 20
-1540.694971377804
 30
0.0
 41
0.9970460233520314
 10
898.2007993623547
 20
-1540.795938461986
 30
0.0
 41
1.0
 10
898.2152687274342
 20
-1540.819504921067
 30
0.0
 41
1.0
 10
898.2297380925138
 20
-1540.843071380148
 30
0.0
 41
1.0
 10
898.2694747925253
 20
-1540.907791104179
 30
0.0
 41
0.998846881663595
 10
898.3028211632771
 20
-1540.976023556607
 30
0.0
 41
1.0
 10
898.3098571857679
 20
-1540.990420477743
 30
0.0
 41
1.0
 10
898.3168932082586
 20
-1541.004817398879
 30
0.0
 41
1.0
 10
898.3361675340291
 20
-1541.044256009035
 30
0.0
 41
0.9998431189997786
 10
898.3540328615236
 20
-1541.084352563475
 30
0.0
 41
1.0
 10
898.371898189038
 20
-1541.12444911796
 30
0.0
 41
0.9999989989997004
 10
898.3898769124525
 20
-1541.164494955526
 30
0.0
 41
1.0
 10
898.3960492240408
 20
-1541.178243172326
 30
0.0
 41
1.0
 10
898.4022215356291
 20
-1541.191991389125
 30
0.0
 41
1.0
 10
898.4325448822397
 20
-1541.259533660334
 30
0.0
 41
0.999879035632291
 10
898.4607527623779
 20
-1541.327986412272
 30
0.0
 41
1.0
 10
898.4675879436624
 20
-1541.3445735137
 30
0.0
 41
1.0
 10
898.4744231249468
 20
-1541.361160615128
 30
0.0
 41
1.0
 10
898.4979807873266
 20
-1541.418328570013
 30
0.0
 41
0.9998227574561263
 10
898.5193695357158
 20
-1541.476342878289
 30
0.0
 41
1.0
 10
898.5407582841054
 20
-1541.534357186567
 30
0.0
 41
0.9996797971041448
 10
898.5591845690635
 20
-1541.593379305682
 30
0.0
 41
1.0
 10
898.5630883717895
 20
-1541.605883763852
 30
0.0
 41
1.0
 10
898.5669921745155
 20
-1541.618388222023
 30
0.0
 41
1.0
 10
898.5932260649255
 20
-1541.702419257477
 30
0.0
 41
0.997927493873383
 10
898.6084505884047
 20
-1541.789123616138
 30
0.0
 41
1.0
 10
898.6106742756658
 20
-1541.801787616959
 30
0.0
 41
1.0
 10
898.6128979629269
 20
-1541.814451617779
 30
0.0
 41
1.0
 10
898.6238279026251
 20
-1541.876698125069
 30
0.0
 41
0.9994985982138043
 10
898.6307960678025
 20
-1541.939511626214
 30
0.0
 41
1.0
 10
898.6377642329794
 20
-1542.002325127355
 30
0.0
 41
0.9996372611202216
 10
898.6413400987472
 20
-1542.065422706038
 30
0.0
 41
1.0
 10
898.6415086762365
 20
-1542.06839732312
 30
0.0
 41
1.0
 10
898.6416772537258
 20
-1542.071371940202
 30
0.0
 41
1.0
 10
898.645590274472
 20
-1542.14041875305
 30
0.0
 41
0.9997730630737597
 10
898.6465585879604
 20
-1542.209569577085
 30
0.0
 41
1.0
 10
898.6466156943784
 20
-1542.213647756226
 30
0.0
 41
1.0
 10
898.6466728007965
 20
-1542.217725935366
 30
0.0
 41
1.0
 10
898.6477553271206
 20
-1542.295033117687
 30
0.0
 41
0.9998772614069913
 10
898.646415240389
 20
-1542.372336264247
 30
0.0
 41
1.0
 10
898.6463259771904
 20
-1542.377485428083
 30
0.0
 41
1.0
 10
898.6462367139916
 20
-1542.382634591918
 30
0.0
 41
1.0
 10
898.6447181008623
 20
-1542.470236066154
 30
0.0
 41
0.9999415567328863
 10
898.6413057906163
 20
-1542.557784227831
 30
0.0
 41
1.0
 10
898.641064469941
 20
-1542.563975687566
 30
0.0
 41
1.0
 10
898.6408231492658
 20
-1542.570167147302
 30
0.0
 41
1.0
 10
898.6369281976697
 20
-1542.670098228442
 30
0.0
 41
0.9999716810429736
 10
898.6315296145509
 20
-1542.769959366674
 30
0.0
 41
1.0
 10
898.6283168157622
 20
-1542.82938861633
 30
0.0
 41
1.0
 10
898.6251040169735
 20
-1542.888817865987
 30
0.0
 41
1.0
 10
898.6170301078212
 20
-1543.038166267262
 30
0.0
 41
0.9999819129901203
 10
898.6071603162038
 20
-1543.187406744988
 30
0.0
 41
1.0
 10
898.5972905245872
 20
-1543.336647222699
 30
0.0
 41
1.0
 10
898.5948512040233
 20
-1543.373840268549
 30
0.0
 41
1.0
 10
898.6175494378462
 20
-1543.335099271232
 30
0.0
 41
0.9999982128047447
 10
898.6403939966023
 20
-1543.296444377273
 30
0.0
 41
1.0
 10
898.6673035564909
 20
-1543.250911163212
 30
0.0
 41
1.0
 10
898.6942131163794
 20
-1543.20537794915
 30
0.0
 41
1.0
 10
898.7708767949063
 20
-1543.075656627079
 30
0.0
 41
0.9998609190058726
 10
898.8518241077702
 20
-1542.948564245146
 30
0.0
 41
1.0
 10
898.8814724292517
 20
-1542.902014512189
 30
0.0
 41
1.0
 10
898.9111207507334
 20
-1542.855464779232
 30
0.0
 41
1.0
 10
898.9933929709714
 20
-1542.726292209236
 30
0.0
 41
0.9999067609732637
 10
899.0791619804315
 20
-1542.599414519801
 30
0.0
 41
1.0
 10
899.0815666836318
 20
-1542.595857253747
 30
0.0
 41
1.0
 10
899.083971386832
 20
-1542.592299987693
 30
0.0
 41
1.0
 10
899.1649309898943
 20
-1542.472536830361
 30
0.0
 41
0.9998784952150971
 10
899.249584599577
 20
-1542.355355613651
 30
0.0
 41
1.0
 10
899.3342382092579
 20
-1542.238174396943
 30
0.0
 41
0.999853296828353
 10
899.422855830083
 20
-1542.123961488469
 30
0.0
 41
1.0
 10
899.4428176190733
 20
-1542.09823416745
 30
0.0
 41
1.0
 10
899.4627794080635
 20
-1542.072506846431
 30
0.0
 41
1.0
 10
899.5812634578215
 20
-1541.919801235463
 30
0.0
 41
0.9991551975795426
 10
899.7118879074455
 20
-1541.777341673379
 30
0.0
 41
1.0
 10
899.7153975234285
 20
-1541.773514071751
 30
0.0
 41
1.0
 10
899.7189071394115
 20
-1541.769686470123
 30
0.0
 41
1.0
 10
899.8425123570735
 20
-1541.634882111291
 30
0.0
 41
0.9997418144180485
 10
899.9721144967698
 20
-1541.505832700683
 30
0.0
 41
1.0
 10
900.1017166364713
 20
-1541.37678329007
 30
0.0
 41
0.99892382046334
 10
900.2427191847232
 20
-1541.26029832803
 30
0.0
 41
1.0
 10
900.2879668628591
 20
-1541.222918336424
 30
0.0
 41
1.0
 10
900.3332145409951
 20
-1541.185538344819
 30
0.0
 41
1.0
 10
900.473454598219
 20
-1541.069683291525
 30
0.0
 41
0.9990825084095875
 10
900.6230945308258
 20
-1540.96625429369
 30
0.0
 41
1.0
 10
900.6331398948896
 20
-1540.959311080606
 30
0.0
 41
1.0
 10
900.6431852589533
 20
-1540.952367867522
 30
0.0
 41
1.0
 10
900.7727344634369
 20
-1540.862825295853
 30
0.0
 41
0.9998164899826563
 10
900.905618666806
 20
-1540.778311054341
 30
0.0
 41
1.0
 10
900.9174642273293
 20
-1540.770777287817
 30
0.0
 41
1.0
 10
900.9293097878526
 20
-1540.763243521293
 30
0.0
 41
1.0
 10
901.0385028701799
 20
-1540.693796812826
 30
0.0
 41
0.9997473449129807
 10
901.1507068274318
 20
-1540.629327855009
 30
0.0
 41
1.0
 10
901.2629107846831
 20
-1540.564858897192
 30
0.0
 41
0.9999327861148276
 10
901.3765793954501
 20
-1540.503008905509
 30
0.0
 41
1.0
 10
901.377131398008
 20
-1540.502708546831
 30
0.0
 41
1.0
 10
901.3776834005661
 20
-1540.502408188153
 30
0.0
 41
1.0
 10
901.4924560164525
 20
-1540.439957479113
 30
0.0
 41
0.9996956420483114
 10
901.6101693422942
 20
-1540.383244012138
 30
0.0
 41
1.0
 10
901.6406097471839
 20
-1540.368578035409
 30
0.0
 41
1.0
 10
901.6710501520737
 20
-1540.35391205868
 30
0.0
 41
1.0
 10
901.7740272588179
 20
-1540.304298400237
 30
0.0
 41
0.999807057017663
 10
901.8788736477613
 20
-1540.258767813335
 30
0.0
 41
1.0
 10
901.9837200367025
 20
-1540.213237226433
 30
0.0
 41
0.9997827436148244
 10
902.0903729733142
 20
-1540.172116055121
 30
0.0
 41
1.0
 10
902.1095958229446
 20
-1540.164704481489
 30
0.0
 41
1.0
 10
902.1288186725749
 20
-1540.157292907857
 30
0.0
 41
1.0
 10
902.2739173084473
 20
-1540.10134858928
 30
0.0
 41
0.9988031841976297
 10
902.4237876710513
 20
-1540.059848525113
 30
0.0
 41
1.0
 10
902.4487049194158
 20
-1540.052948779306
 30
0.0
 41
1.0
 10
902.4736221677803
 20
-1540.046049033498
 30
0.0
 41
1.0
 10
902.6408921934265
 20
-1539.999730891092
 30
0.0
 41
0.9984748040550147
 10
902.8122491020749
 20
-1539.972136658827
 30
0.0
 41
1.0
 10
902.8169882383226
 20
-1539.971373498314
 30
0.0
 41
1.0
 10
902.8217273745702
 20
-1539.970610337801
 30
0.0
 41
1.0
 10
902.9836060107226
 20
-1539.944542426562
 30
0.0
 41
0.9984436495479577
 10
903.1473807544487
 20
-1539.936664472744
 30
0.0
 41
1.0
 10
903.1690779625796
 20
-1539.935620785544
 30
0.0
 41
1.0
 10
903.1907751707105
 20
-1539.934577098344
 30
0.0
 41
1.0
 10
903.3111554981729
 20
-1539.928786518925
 30
0.0
 41
0.9987954789335225
 10
903.4315237430832
 20
-1539.934823046667
 30
0.0
 41
1.0
 10
903.4514885355768
 20
-1539.935824291006
 30
0.0
 41
1.0
 10
903.4714533280703
 20
-1539.936825535344
 30
0.0
 41
1.0
 10
903.5518919879921
 20
-1539.940859574409
 30
0.0
 41
0.9997941595877294
 10
903.6321007660874
 20
-1539.94815364033
 30
0.0
 41
1.0
 10
903.712309544183
 20
-1539.955447706252
 30
0.0
 41
0.9998589466237371
 10
903.7922280910391
 20
-1539.965431560702
 30
0.0
 41
1.0
 10
903.8246342928462
 20
-1539.969479917621
 30
0.0
 41
1.0
 10
903.8570404946533
 20
-1539.97352827454
 30
0.0
 41
1.0
 10
904.0017714451254
 20
-1539.991608842829
 30
0.0
 41
0.9993495063249616
 10
904.144822688892
 20
-1540.02007455257
 30
0.0
 41
1.0
 10
904.1777563860433
 20
-1540.026628015785
 30
0.0
 41
1.0
 10
904.2106900831944
 20
-1540.033181479
 30
0.0
 41
1.0
 10
904.3199839063996
 20
-1540.054929813135
 30
0.0
 41
0.9996788715560703
 10
904.4280354783555
 20
-1540.082187612498
 30
0.0
 41
1.0
 10
904.4300984808922
 20
-1540.08270803907
 30
0.0
 41
1.0
 10
904.4321614834288
 20
-1540.083228465643
 30
0.0
 41
1.0
 10
904.5360870503098
 20
-1540.10944541186
 30
0.0
 41
0.9995480654492285
 10
904.6382492855413
 20
-1540.141860368486
 30
0.0
 41
1.0
 10
904.6399389276726
 20
-1540.1423964734
 30
0.0
 41
1.0
 10
904.6416285698037
 20
-1540.142932578315
 30
0.0
 41
1.0
 10
904.7404115207728
 20
-1540.174275325111
 30
0.0
 41
0.9993867959456779
 10
904.8367586792133
 20
-1540.2124546944
 30
0.0
 41
1.0
 10
904.8380016282958
 20
-1540.212947236295
 30
0.0
 41
1.0
 10
904.8392445773785
 20
-1540.213439778191
 30
0.0
 41
1.0
 10
904.9331058376533
 20
-1540.250634063688
 30
0.0
 41
0.9992050256521223
 10
905.0237055126892
 20
-1540.295187962928
 30
0.0
 41
1.0
 10
905.0244401954028
 20
-1540.29554925539
 30
0.0
 41
1.0
 10
905.0251748781164
 20
-1540.295910547851
 30
0.0
 41
1.0
 10
905.1143051877226
 20
-1540.339741862167
 30
0.0
 41
0.9990222350742038
 10
905.1992152491162
 20
-1540.391275129865
 30
0.0
 41
1.0
 10
905.1993991343986
 20
-1540.39138673277
 30
0.0
 41
1.0
 10
905.1995830196812
 20
-1540.391498335675
 30
0.0
 41
1.0
 10
905.2841253105103
 20
-1540.442808397564
 30
0.0
 41
0.9988642743805579
 10
905.3633998451289
 20
-1540.501932585089
 30
0.0
 41
1.0
 10
905.4426743797477
 20
-1540.561056772614
 30
0.0
 41
0.9987681233310188
 10
905.5156981640249
 20
-1540.627747464016
 30
0.0
 41
1.0
 10
905.5160270919903
 20
-1540.62804786523
 30
0.0
 41
1.0
 10
905.5163560199555
 20
-1540.628348266443
 30
0.0
 41
1.0
 10
905.5900376601635
 20
-1540.695639760273
 30
0.0
 41
0.9987496570898486
 10
905.6566314654908
 20
-1540.769952574359
 30
0.0
 41
1.0
 10
905.6574036352512
 20
-1540.770814247717
 30
0.0
 41
1.0
 10
905.6581758050115
 20
-1540.771675921075
 30
0.0
 41
1.0
 10
905.7263139498589
 20
-1540.847712081877
 30
0.0
 41
0.9988147669827535
 10
905.7867362040846
 20
-1540.93001308872
 30
0.0
 41
1.0
 10
905.7878555301622
 20
-1540.931537720072
 30
0.0
 41
1.0
 10
905.78897485624
 20
-1540.933062351425
 30
0.0
 41
1.0
 10
905.8516357626205
 20
-1541.018412620973
 30
0.0
 41
0.9989452636216037
 10
905.9062026755821
 20
-1541.109151310131
 30
0.0
 41
1.0
 10
905.9075514016677
 20
-1541.111394091157
 30
0.0
 41
1.0
 10
905.9089001277531
 20
-1541.113636872182
 30
0.0
 41
1.0
 10
905.9661644928856
 20
-1541.208861123392
 30
0.0
 41
0.9991046436069974
 10
906.0151737062068
 20
-1541.308585556417
 30
0.0
 41
1.0
 10
906.0166375677971
 20
-1541.31156423649
 30
0.0
 41
1.0
 10
906.0181014293875
 20
-1541.314542916563
 30
0.0
 41
1.0
 10
906.0700383658892
 20
-1541.420224709734
 30
0.0
 41
0.9992763831100863
 10
906.1137914944442
 20
-1541.52954877169
 30
0.0
 41
1.0
 10
906.1152707641074
 20
-1541.533244959223
 30
0.0
 41
1.0
 10
906.1167500337708
 20
-1541.536941146757
 30
0.0
 41
1.0
 10
906.1634617016523
 20
-1541.653657583779
 30
0.0
 41
0.9994163472882561
 10
906.2020947328415
 20
-1541.773291172241
 30
0.0
 41
1.0
 10
906.2033328850883
 20
-1541.777125316024
 30
0.0
 41
1.0
 10
906.2045710373352
 20
-1541.780959459807
 30
0.0
 41
1.0
 10
906.2444545983523
 20
-1541.904465521284
 30
0.0
 41
0.9997268055890166
 10
906.2785226542652
 20
-1542.029700553239
 30
0.0
 41
1.0
 10
906.2794528345348
 20
-1542.033119919348
 30
0.0
 41
1.0
 10
906.2803830148046
 20
-1542.036539285457
 30
0.0
 41
1.0
 10
906.312590710177
 20
-1542.154935585189
 30
0.0
 41
0.9996701319000829
 10
906.3386763269477
 20
-1542.274829538453
 30
0.0
 41
1.0
 10
906.3647619437186
 20
-1542.39472349172
 30
0.0
 41
0.9995785451109985
 10
906.3838455210586
 20
-1542.515929252751
 30
0.0
 41
1.0
 10
906.388065303232
 20
-1542.542730407515
 30
0.0
 41
1.0
 10
906.3922850854054
 20
-1542.569531562278
 30
0.0
 41
1.0
 10
906.418860061344
 20
-1542.73831753598
 30
0.0
 41
0.9979925101216218
 10
906.4238856472703
 20
-1542.909108864072
 30
0.0
 41
1.0
 10
906.424710459695
 20
-1542.937139587556
 30
0.0
 41
1.0
 10
906.4255352721196
 20
-1542.965170311039
 30
0.0
 41
1.0
 10
906.4289112331966
 20
-1543.079900192168
 30
0.0
 41
0.9995314902263353
 10
906.4252610410581
 20
-1543.194621675916
 30
0.0
 41
1.0
 10
906.42161084892
 20
-1543.309343159664
 30
0.0
 41
0.9996245486943809
 10
906.4116817537889
 20
-1543.423692430789
 30
0.0
 41
1.0
 10
906.4115187057946
 20
-1543.425570186926
 30
0.0
 41
1.0
 10
906.4113556578002
 20
-1543.427447943063
 30
0.0
 41
1.0
 10
906.4011004666814
 20
-1543.545552726453
 30
0.0
 41
0.999728609500105
 10
906.3853551431099
 20
-1543.663051635348
 30
0.0
 41
1.0
 10
906.3849616504593
 20
-1543.665988060052
 30
0.0
 41
1.0
 10
906.3845681578088
 20
-1543.668924484756
 30
0.0
 41
1.0
 10
906.3680358489358
 20
-1543.792296243059
 30
0.0
 41
0.99982655339692
 10
906.3469203902034
 20
-1543.914966717846
 30
0.0
 41
1.0
 10
906.3462438480666
 20
-1543.918897096351
 30
0.0
 41
1.0
 10
906.3455673059298
 20
-1543.922827474857
 30
0.0
 41
1.0
 10
906.3230987629215
 20
-1544.053358706667
 30
0.0
 41
0.9999022530853101
 10
906.2969892983123
 20
-1544.183210675302
 30
0.0
 41
1.0
 10
906.2960106571472
 20
-1544.188077817688
 30
0.0
 41
1.0
 10
906.2950320159821
 20
-1544.192944960074
 30
0.0
 41
1.0
 10
906.2669652690438
 20
-1544.332531213476
 30
0.0
 41
0.9999524761935021
 10
906.2361823002092
 20
-1544.47154370664
 30
0.0
 41
1.0
 10
906.2349061930324
 20
-1544.477306465948
 30
0.0
 41
1.0
 10
906.2336300858557
 20
-1544.483069225256
 30
0.0
 41
1.0
 10
906.200294902669
 20
-1544.63360723703
 30
0.0
 41
0.9999813588726657
 10
906.1651239018719
 20
-1544.783726949691
 30
0.0
 41
1.0
 10
906.1635699764165
 20
-1544.790359540109
 30
0.0
 41
1.0
 10
906.1620160509611
 20
-1544.796992130526
 30
0.0
 41
1.0
 10
906.1237371992504
 20
-1544.960377024035
 30
0.0
 41
0.9999955237626743
 10
906.0844813212672
 20
-1545.123529927652
 30
0.0
 41
1.0
 10
906.072199685635
 20
-1545.174574118166
 30
0.0
 41
1.0
 10
906.0599180500029
 20
-1545.225618308679
 30
0.0
 41
1.0
 10
905.9960989007423
 20
-1545.490859593379
 30
0.0
 41
0.9999993604274285
 10
905.9316799535467
 20
-1545.755955844177
 30
0.0
 41
1.0
 10
905.9269611180191
 20
-1545.775374752137
 30
0.0
 41
1.0
 10
905.9222422824917
 20
-1545.794793660097
 30
0.0
 41
1.0
 10
905.8483856642292
 20
-1546.098727726863
 30
0.0
 41
0.9999659914718062
 10
905.7695260683453
 20
-1546.401402273417
 30
0.0
 41
1.0
 10
905.764573379415
 20
-1546.420411410598
 30
0.0
 41
1.0
 10
905.7596206904846
 20
-1546.43942054778
 30
0.0
 41
1.0
 10
905.6708557167356
 20
-1546.780113368712
 30
0.0
 41
0.9999441976027144
 10
905.5749126837705
 20
-1547.118854794016
 30
0.0
 41
1.0
 10
905.5582121653476
 20
-1547.177818506535
 30
0.0
 41
1.0
 10
905.5415116469246
 20
-1547.236782219053
 30
0.0
 41
1.0
 10
905.4121675771107
 20
-1547.693451069406
 30
0.0
 41
0.999962512073175
 10
905.2749348097842
 20
-1548.147811603412
 30
0.0
 41
1.0
 10
905.2391448667028
 20
-1548.266307630034
 30
0.0
 41
1.0
 10
905.2033549236213
 20
-1548.384803656656
 30
0.0
 41
1.0
 10
905.128834719583
 20
-1548.631530734749
 30
0.0
 41
0.9999793386325192
 10
905.0511486964422
 20
-1548.877279373996
 30
0.0
 41
1.0
 10
904.9734626733045
 20
-1549.123028013232
 30
0.0
 41
1.0
 10
904.9626831144338
 20
-1549.157045917607
 30
0.0
 41
1.0
 10
903.1123100611646
 20
-1555.044117840074
 30
0.0
 41
1.0
 10
901.2619370078955
 20
-1560.931189762542
 30
0.0
 41
1.0
 10
900.300680317872
 20
-1560.931189762542
 30
0.0
 41
1.0
 10
899.3394236278484
 20
-1560.931189762542
 30
0.0
 41
1.0
 10
900.9583684065269
 20
-1555.783161260752
 30
0.0
 41
1.0
 10
902.5773131852053
 20
-1550.635132758963
 30
0.0
 41
1.0
 10
902.6224790083768
 20
-1550.491101536702
 30
0.0
 41
1.0
 10
902.6676448315482
 20
-1550.347070314441
 30
0.0
 41
1.0
 10
902.8379492489144
 20
-1549.803979285268
 30
0.0
 41
0.9999911657932455
 10
903.0036820605969
 20
-1549.259475753897
 30
0.0
 41
1.0
 10
903.0333780040982
 20
-1549.161911813844
 30
0.0
 41
1.0
 10
903.0630739475994
 20
-1549.064347873791
 30
0.0
 41
1.0
 10
903.1694148722767
 20
-1548.714972222534
 30
0.0
 41
0.999995242815323
 10
903.273598461602
 20
-1548.364947198184
 30
0.0
 41
1.0
 10
903.2786579319288
 20
-1548.347948923928
 30
0.0
 41
1.0
 10
903.2837174022557
 20
-1548.330950649671
 30
0.0
 41
1.0
 10
903.3777820509188
 20
-1548.014922173862
 30
0.0
 41
0.9999931687555568
 10
903.4695078888006
 20
-1547.698206960564
 30
0.0
 41
1.0
 10
903.4744431532613
 20
-1547.681166251289
 30
0.0
 41
1.0
 10
903.4793784177219
 20
-1547.664125542014
 30
0.0
 41
1.0
 10
903.5612337266789
 20
-1547.381491747277
 30
0.0
 41
0.9999893840808087
 10
903.6404809531311
 20
-1547.098115618046
 30
0.0
 41
1.0
 10
903.7197281795907
 20
-1546.81473948879
 30
0.0
 41
0.999983398006398
 10
903.7957044203329
 20
-1546.53046890576
 30
0.0
 41
1.0
 10
903.8047083570546
 20
-1546.496780027283
 30
0.0
 41
1.0
 10
903.8137122937762
 20
-1546.463091148807
 30
0.0
 41
1.0
 10
903.882676842642
 20
-1546.205055316513
 30
0.0
 41
0.9999233658067523
 10
903.9452318138615
 20
-1545.945391157793
 30
0.0
 41
1.0
 10
904.0077867850817
 20
-1545.685726999071
 30
0.0
 41
1.0
 10
904.0472702039393
 20
-1545.521920334645
 30
0.0
 41
1.0
 10
904.0522488079166
 20
-1545.501265372774
 30
0.0
 41
1.0
 10
904.057227411894
 20
-1545.480610410903
 30
0.0
 41
1.0
 10
904.0867536227976
 20
-1545.358113670216
 30
0.0
 41
0.9999868670841842
 10
904.1150227067931
 20
-1545.235320724573
 30
0.0
 41
1.0
 10
904.1189201939524
 20
-1545.218391137149
 30
0.0
 41
1.0
 10
904.1228176811117
 20
-1545.201461549726
 30
0.0
 41
1.0
 10
904.1432917907903
 20
-1545.112527778924
 30
0.0
 41
0.9999778173351972
 10
904.1625793889048
 20
-1545.023329161697
 30
0.0
 41
1.0
 10
904.1818669870211
 20
-1544.934130544463
 30
0.0
 41
0.9999602692866056
 10
904.1995613456538
 20
-1544.844602256026
 30
0.0
 41
1.0
 10
904.20276517773
 20
-1544.828391801148
 30
0.0
 41
1.0
 10
904.2059690098062
 20
-1544.812181346269
 30
0.0
 41
1.0
 10
904.2300710325917
 20
-1544.690232148075
 30
0.0
 41
0.9995617985320668
 10
904.2469143798105
 20
-1544.567070400369
 30
0.0
 41
1.0
 10
904.249378869717
 20
-1544.549049583001
 30
0.0
 41
1.0
 10
904.2518433596235
 20
-1544.531028765634
 30
0.0
 41
1.0
 10
904.272126620672
 20
-1544.382713715932
 30
0.0
 41
0.999112141063948
 10
904.2798519742599
 20
-1544.233217617127
 30
0.0
 41
1.0
 10
904.2807707642845
 20
-1544.21543778055
 30
0.0
 41
1.0
 10
904.2816895543091
 20
-1544.197657943973
 30
0.0
 41
1.0
 10
904.2875773278482
 20
-1544.08372151832
 30
0.0
 41
0.9989792494905159
 10
904.2831582357309
 20
-1543.969718682422
 30
0.0
 41
1.0
 10
904.2825102638624
 20
-1543.953002436498
 30
0.0
 41
1.0
 10
904.2818622919938
 20
-1543.936286190573
 30
0.0
 41
1.0
 10
904.2787391436134
 20
-1543.855715846523
 30
0.0
 41
0.9997820295395005
 10
904.2722551462379
 20
-1543.77534612478
 30
0.0
 41
1.0
 10
904.265771148862
 20
-1543.694976403034
 30
0.0
 41
0.9998335105974189
 10
904.2563589533506
 20
-1543.614896786587
 30
0.0
 41
1.0
 10
904.2547640286742
 20
-1543.601327056104
 30
0.0
 41
1.0
 10
904.2531691039978
 20
-1543.58775732562
 30
0.0
 41
1.0
 10
904.2405670591331
 20
-1543.480538248202
 30
0.0
 41
0.9996876457879366
 10
904.2226231463344
 20
-1543.374082820484
 30
0.0
 41
1.0
 10
904.2203914831896
 20
-1543.360843085245
 30
0.0
 41
1.0
 10
904.2181598200447
 20
-1543.347603350005
 30
0.0
 41
1.0
 10
904.2043639986233
 20
-1543.265757206046
 30
0.0
 41
0.9995547496495335
 10
904.1857106767308
 20
-1543.184879708854
 30
0.0
 41
1.0
 10
904.1853367198594
 20
-1543.183258298149
 30
0.0
 41
1.0
 10
904.184962762988
 20
-1543.181636887443
 30
0.0
 41
1.0
 10
904.1670573548384
 20
-1543.104002211665
 30
0.0
 41
0.9994899427175634
 10
904.1442324461589
 20
-1543.027668928829
 30
0.0
 41
1.0
 10
904.1437739194183
 20
-1543.026135479041
 30
0.0
 41
1.0
 10
904.1433153926778
 20
-1543.024602029253
 30
0.0
 41
1.0
 10
904.1214075374801
 20
-1542.951335645997
 30
0.0
 41
0.9993784877592005
 10
904.0943919023729
 20
-1542.879794940836
 30
0.0
 41
1.0
 10
904.0938602113964
 20
-1542.878386958116
 30
0.0
 41
1.0
 10
904.09332852042
 20
-1542.876978975397
 30
0.0
 41
1.0
 10
904.067376267267
 20
-1542.808254235679
 30
0.0
 41
0.9992430832254889
 10
904.0361597321069
 20
-1542.741755083608
 30
0.0
 41
1.0
 10
904.0355776160504
 20
-1542.740515028491
 30
0.0
 41
1.0
 10
904.0349954999939
 20
-1542.739274973374
 30
0.0
 41
1.0
 10
904.0049431969476
 20
-1542.67525593154
 30
0.0
 41
0.9990789632799086
 10
903.9695125701709
 20
-1542.61404931979
 30
0.0
 41
1.0
 10
903.9689168639892
 20
-1542.613020233932
 30
0.0
 41
1.0
 10
903.9683211578075
 20
-1542.611991148073
 30
0.0
 41
1.0
 10
903.9340819433938
 20
-1542.55284270804
 30
0.0
 41
0.9988874801120858
 10
903.894422667362
 20
-1542.497182995623
 30
0.0
 41
1.0
 10
903.8938671412976
 20
-1542.496403343948
 30
0.0
 41
1.0
 10
903.8933116152332
 20
-1542.495623692273
 30
0.0
 41
1.0
 10
903.8547633913298
 20
-1542.441523283205
 30
0.0
 41
0.9986762060693213
 10
903.810860920054
 20
-1542.391669568766
 30
0.0
 41
1.0
 10
903.8104169597216
 20
-1542.391165426949
 30
0.0
 41
1.0
 10
903.8099729993893
 20
-1542.390661285132
 30
0.0
 41
1.0
 10
903.7669584487771
 20
-1542.341815854326
 30
0.0
 41
0.9984621642487699
 10
903.718800892
 20
-1542.298032553856
 30
0.0
 41
1.0
 10
903.7185542574832
 20
-1542.297808321692
 30
0.0
 41
1.0
 10
903.7183076229666
 20
-1542.297584089528
 30
0.0
 41
1.0
 10
903.6706433352216
 20
-1542.254249253384
 30
0.0
 41
0.9982724693851948
 10
903.6182247033807
 20
-1542.216804902867
 30
0.0
 41
1.0
 10
903.5658060715396
 20
-1542.179360552349
 30
0.0
 41
0.9981399180158625
 10
903.5092200081457
 20
-1542.148574032905
 30
0.0
 41
1.0
 10
903.5091743460673
 20
-1542.148549189748
 30
0.0
 41
1.0
 10
903.509128683989
 20
-1542.148524346591
 30
0.0
 41
1.0
 10
903.452451296439
 20
-1542.117688140833
 30
0.0
 41
0.9980927086837508
 10
903.3924059453722
 20
-1542.094071331981
 30
0.0
 41
1.0
 10
903.3919657756605
 20
-1542.093898206106
 30
0.0
 41
1.0
 10
903.391525605949
 20
-1542.093725080231
 30
0.0
 41
1.0
 10
903.3305999154607
 20
-1542.069762019629
 30
0.0
 41
0.998141135656267
 10
903.2672113940625
 20
-1542.053389378123
 30
0.0
 41
1.0
 10
903.2663292773598
 20
-1542.053161535918
 30
0.0
 41
1.0
 10
903.265447160657
 20
-1542.052933693712
 30
0.0
 41
1.0
 10
903.2002944058547
 20
-1542.036105367795
 30
0.0
 41
0.9983031812935066
 10
903.1336269768595
 20
-1542.026966006619
 30
0.0
 41
1.0
 10
903.1247559514558
 20
-1542.025749887948
 30
0.0
 41
1.0
 10
903.115884926052
 20
-1542.024533769276
 30
0.0
 41
1.0
 10
903.0615352835481
 20
-1542.017083039285
 30
0.0
 41
0.9983887708263094
 10
903.0066914342551
 20
-1542.015838365652
 30
0.0
 41
1.0
 10
902.9986280290358
 20
-1542.015655367777
 30
0.0
 41
1.0
 10
902.9905646238165
 20
-1542.015472369902
 30
0.0
 41
1.0
 10
902.9518475849605
 20
-1542.014593692019
 30
0.0
 41
0.9998869563078516
 10
902.9131216317596
 20
-1542.014879561379
 30
0.0
 41
1.0
 10
902.8743956785613
 20
-1542.015165430738
 30
0.0
 41
0.9999972320080944
 10
902.8356714993538
 20
-1542.015633530267
 30
0.0
 41
1.0
 10
902.8163184827699
 20
-1542.015867470357
 30
0.0
 41
1.0
 10
902.7969654661862
 20
-1542.016101410446
 30
0.0
 41
1.0
 10
902.7195352538159
 20
-1542.017037390154
 30
0.0
 41
0.9997304945086473
 10
902.6422319475788
 20
-1542.02156648394
 30
0.0
 41
1.0
 10
902.633182305874
 20
-1542.02209668993
 30
0.0
 41
1.0
 10
902.6241326641693
 20
-1542.02262689592
 30
0.0
 41
1.0
 10
902.5287300745226
 20
-1542.028216401686
 30
0.0
 41
0.9997888306415571
 10
902.4336377386796
 20
-1542.037721366175
 30
0.0
 41
1.0
 10
902.4249166771074
 20
-1542.038593080807
 30
0.0
 41
1.0
 10
902.4161956155351
 20
-1542.039464795439
 30
0.0
 41
1.0
 10
902.3036611565484
 20
-1542.050713189192
 30
0.0
 41
0.998417023819097
 10
902.1931020091982
 20
-1542.074529271127
 30
0.0
 41
1.0
 10
902.1567208782092
 20
-1542.082366306934
 30
0.0
 41
1.0
 10
902.1203397472202
 20
-1542.090203342741
 30
0.0
 41
1.0
 10
902.0051486787997
 20
-1542.11501720925
 30
0.0
 41
0.9976592854198055
 10
901.8944205123963
 20
-1542.155315886397
 30
0.0
 41
1.0
 10
901.7836923459917
 20
-1542.195614563544
 30
0.0
 41
0.999325507435245
 10
901.6762205472023
 20
-1542.243931462036
 30
0.0
 41
1.0
 10
901.6715953682781
 20
-1542.246010838236
 30
0.0
 41
1.0
 10
901.666970189354
 20
-1542.248090214436
 30
0.0
 41
1.0
 10
901.5502480327164
 20
-1542.300565865328
 30
0.0
 41
0.9976475078274925
 10
901.4418006884058
 20
-1542.368513854987
 30
0.0
 41
1.0
 10
901.4234582942693
 20
-1542.380006333802
 30
0.0
 41
1.0
 10
901.4051159001326
 20
-1542.391498812618
 30
0.0
 41
1.0
 10
901.3209137085831
 20
-1542.444255933385
 30
0.0
 41
0.9995131336407286
 10
901.240165993627
 20
-1542.502162145337
 30
0.0
 41
1.0
 10
901.1594182786704
 20
-1542.56006835729
 30
0.0
 41
0.9995810107606549
 10
901.0821566309419
 20
-1542.622550039755
 30
0.0
 41
1.0
 10
901.0791865997312
 20
-1542.62495191122
 30
0.0
 41
1.0
 10
901.0762165685206
 20
-1542.627353782685
 30
0.0
 41
1.0
 10
900.9930148583708
 20
-1542.694639208081
 30
0.0
 41
0.9996617837954948
 10
900.9134241712342
 20
-1542.766159663642
 30
0.0
 41
1.0
 10
900.9012934203606
 20
-1542.77706039663
 30
0.0
 41
1.0
 10
900.889162669487
 20
-1542.787961129617
 30
0.0
 41
1.0
 10
900.8208871420869
 20
-1542.849313745093
 30
0.0
 41
0.999726775005257
 10
900.7555536338011
 20
-1542.91379028162
 30
0.0
 41
1.0
 10
900.6902201255032
 20
-1542.978266818159
 30
0.0
 41
0.9999667288959331
 10
900.6259471823421
 20
-1543.043800625069
 30
0.0
 41
1.0
 10
900.5571197345813
 20
-1543.113978283813
 30
0.0
 41
1.0
 10
900.4882922868205
 20
-1543.184155942556
 30
0.0
 41
1.0
 10
900.2863644481251
 20
-1543.390045066966
 30
0.0
 41
0.9988205335175355
 10
900.1053588311455
 20
-1543.614549299026
 30
0.0
 41
1.0
 10
900.0747188662401
 20
-1543.652552549457
 30
0.0
 41
1.0
 10
900.0440789013348
 20
-1543.690555799888
 30
0.0
 41
1.0
 10
899.8017933545475
 20
-1543.991066532806
 30
0.0
 41
0.9997077826754497
 10
899.5743154034461
 20
-1544.302936327017
 30
0.0
 41
1.0
 10
899.572591988313
 20
-1544.3052991104
 30
0.0
 41
1.0
 10
899.5708685731798
 20
-1544.307661893783
 30
0.0
 41
1.0
 10
899.3399437918138
 20
-1544.624257254759
 30
0.0
 41
0.9989147567078842
 10
899.13948028893
 20
-1544.960966715944
 30
0.0
 41
1.0
 10
899.114739143625
 20
-1545.002523296493
 30
0.0
 41
1.0
 10
899.0899979983199
 20
-1545.044079877043
 30
0.0
 41
1.0
 10
898.9347866996792
 20
-1545.304781261501
 30
0.0
 41
0.9997476598181914
 10
898.7914417121693
 20
-1545.572191010084
 30
0.0
 41
1.0
 10
898.6480967246579
 20
-1545.83960075867
 30
0.0
 41
0.9996258967109584
 10
898.5195884727264
 20
-1546.114448695294
 30
0.0
 41
1.0
 10
898.5063885632765
 20
-1546.14268009539
 30
0.0
 41
1.0
 10
898.4931886538267
 20
-1546.170911495486
 30
0.0
 41
1.0
 10
898.352979932828
 20
-1546.470783893436
 30
0.0
 41
0.9998735413945966
 10
898.2223785861082
 20
-1546.774963492903
 30
0.0
 41
1.0
 10
898.2189357580467
 20
-1546.78298207837
 30
0.0
 41
1.0
 10
898.2154929299852
 20
-1546.791000663837
 30
0.0
 41
1.0
 10
898.0917772393875
 20
-1547.079143092372
 30
0.0
 41
0.9999377418864118
 10
897.9745224372132
 20
-1547.369974560045
 30
0.0
 41
1.0
 10
897.8572676350404
 20
-1547.660806027715
 30
0.0
 41
0.9999508299508645
 10
897.7458036916664
 20
-1547.953905704527
 30
0.0
 41
1.0
 10
897.742722923001
 20
-1547.962006730499
 30
0.0
 41
1.0
 10
897.7396421543356
 20
-1547.97010775647
 30
0.0
 41
1.0
 10
897.6220166736339
 20
-1548.279409485218
 30
0.0
 41
0.9999609228428891
 10
897.5098780707597
 20
-1548.590742501234
 30
0.0
 41
1.0
 10
897.5069220604098
 20
-1548.598949341644
 30
0.0
 41
1.0
 10
897.5039660500601
 20
-1548.607156182054
 30
0.0
 41
1.0
 10
897.3859154264894
 20
-1548.934902878882
 30
0.0
 41
0.9999674607402296
 10
897.273167900418
 20
-1549.264511498885
 30
0.0
 41
1.0
 10
897.2217695098566
 20
-1549.414770694574
 30
0.0
 41
1.0
 10
897.1703711192953
 20
-1549.565029890262
 30
0.0
 41
1.0
 10
897.0543605125349
 20
-1549.904177872773
 30
0.0
 41
0.9999287532306503
 10
896.946479108565
 20
-1550.245998611746
 30
0.0
 41
1.0
 10
896.9000018524146
 20
-1550.393261156153
 30
0.0
 41
1.0
 10
896.853524596264
 20
-1550.54052370056
 30
0.0
 41
1.0
 10
896.8385977045804
 20
-1550.587819350766
 30
0.0
 41
0.9999998223411745
 10
896.8237271958639
 20
-1550.635132758963
 30
0.0
 41
1.0
 10
895.2030710590684
 20
-1555.783161260752
 30
0.0
 41
1.0
 10
893.582414922273
 20
-1560.931189762542
 30
0.0
 41
1.0
 10
892.677106478382
 20
-1560.931189762542
 30
0.0
 41
1.0
 10
891.7717980344911
 20
-1560.931189762542
 30
0.0
 41
1.0
 10
893.6238824458771
 20
-1555.044117840074
 30
0.0
 41
1.0
 10
895.4759668572632
 20
-1549.157045917607
 30
0.0
 41
1.0
 10
895.4860886155659
 20
-1549.125002704157
 30
0.0
 41
1.0
 10
895.5586962844156
 20
-1548.894703162331
 30
0.0
 41
1.0
 10
895.6313039532583
 20
-1548.664403620528
 30
0.0
 41
0.9999825681964735
 10
895.7011869924687
 20
-1548.433262725467
 30
0.0
 41
1.0
 10
895.7494780546372
 20
-1548.273538141946
 30
0.0
 41
1.0
 10
895.7977691168056
 20
-1548.113813558425
 30
0.0
 41
1.0
 10
895.8949214701181
 20
-1547.792478336664
 30
0.0
 41
0.9999672528963194
 10
895.9868602757377
 20
-1547.46961279109
 30
0.0
 41
1.0
 10
895.989649159406
 20
-1547.459818945706
 30
0.0
 41
1.0
 10
895.9924380430742
 20
-1547.450025100321
 30
0.0
 41
1.0
 10
896.0787990813601
 20
-1547.146747245507
 30
0.0
 41
0.9999899749176389
 10
896.1624406908958
 20
-1546.842708157052
 30
0.0
 41
1.0
 10
896.172546609916
 20
-1546.805972919363
 30
0.0
 41
1.0
 10
896.1826525289363
 20
-1546.769237681675
 30
0.0
 41
1.0
 10
896.2460823004313
 20
-1546.538669068596
 30
0.0
 41
0.9999214200506206
 10
896.3037117288081
 20
-1546.30658272639
 30
0.0
 41
1.0
 10
896.316477580991
 20
-1546.255171840985
 30
0.0
 41
1.0
 10
896.3292434331737
 20
-1546.20376095558
 30
0.0
 41
1.0
 10
896.36134115719
 20
-1546.074496384164
 30
0.0
 41
0.9999828681655465
 10
896.3919234091813
 20
-1545.944864909713
 30
0.0
 41
1.0
 10
896.4225056611758
 20
-1545.815233435249
 30
0.0
 41
0.9999389844477449
 10
896.4502166499647
 20
-1545.684957979352
 30
0.0
 41
1.0
 10
896.4573543936856
 20
-1545.651401875512
 30
0.0
 41
1.0
 10
896.4644921374064
 20
-1545.617845771671
 30
0.0
 41
1.0
 10
896.5064786136357
 20
-1545.420458108098
 30
0.0
 41
0.9998933699440382
 10
896.5426828780377
 20
-1545.22192850034
 30
0.0
 41
1.0
 10
896.5440557032543
 20
-1545.214400479642
 30
0.0
 41
1.0
 10
896.545428528471
 20
-1545.206872458944
 30
0.0
 41
1.0
 10
896.5843784433059
 20
-1544.993286809793
 30
0.0
 41
0.999685030519348
 10
896.612562119564
 20
-1544.778015804361
 30
0.0
 41
1.0
 10
896.6145571529337
 20
-1544.762777450235
 30
0.0
 41
1.0
 10
896.6165521863035
 20
-1544.74753909611
 30
0.0
 41
1.0
 10
896.6439600487627
 20
-1544.538193868955
 30
0.0
 41
0.999469793670686
 10
896.657684607982
 20
-1544.327508673626
 30
0.0
 41
1.0
 10
896.6581616772316
 20
-1544.320185201416
 30
0.0
 41
1.0
 10
896.6586387464813
 20
-1544.312861729205
 30
0.0
 41
1.0
 10
896.6714091672015
 20
-1544.116823478297
 30
0.0
 41
0.9991804893137
 10
896.6682808509288
 20
-1543.920394628322
 30
0.0
 41
1.0
 10
896.6681969721067
 20
-1543.91512782691
 30
0.0
 41
1.0
 10
896.6681130932845
 20
-1543.909861025498
 30
0.0
 41
1.0
 10
896.665152534656
 20
-1543.72396577835
 30
0.0
 41
0.9988448329321702
 10
896.6443609890322
 20
-1543.539213188516
 30
0.0
 41
1.0
 10
896.642766915329
 20
-1543.525048332744
 30
0.0
 41
1.0
 10
896.641172841626
 20
-1543.510883476972
 30
0.0
 41
1.0
 10
896.6235694434085
 20
-1543.354460598682
 30
0.0
 41
0.9985503209458048
 10
896.5892531711088
 20
-1543.200836414593
 30
0.0
 41
1.0
 10
896.5816671790374
 20
-1543.166876087192
 30
0.0
 41
1.0
 10
896.5740811869659
 20
-1543.132915759791
 30
0.0
 41
1.0
 10
896.554936898809
 20
-1543.047212230503
 30
0.0
 41
0.9991036781370232
 10
896.5286120371582
 20
-1542.963435143179
 30
0.0
 41
1.0
 10
896.5246298117017
 20
-1542.950761980667
 30
0.0
 41
1.0
 10
896.5206475862452
 20
-1542.938088818154
 30
0.0
 41
1.0
 10
896.5022871755052
 20
-1542.879658055848
 30
0.0
 41
0.9998874504368871
 10
896.4821819678284
 20
-1542.82180445363
 30
0.0
 41
1.0
 10
896.4620767601505
 20
-1542.763950851408
 30
0.0
 41
0.9994041637544304
 10
896.4380281472157
 20
-1542.707622147517
 30
0.0
 41
1.0
 10
896.4338313629919
 20
-1542.697792083035
 30
0.0
 41
1.0
 10
896.4296345787681
 20
-1542.687962018554
 30
0.0
 41
1.0
 10
896.401755747774
 20
-1542.622661852588
 30
0.0
 41
0.9991846840702002
 10
896.3686993910801
 20
-1542.559823821306
 30
0.0
 41
1.0
 10
896.3675627846847
 20
-1542.55766320485
 30
0.0
 41
1.0
 10
896.3664261782892
 20
-1542.555502588395
 30
0.0
 41
1.0
 10
896.3356430343865
 20
-1542.496985790025
 30
0.0
 41
0.9989253167922779
 10
896.2995736103321
 20
-1542.441570861635
 30
0.0
 41
1.0
 10
896.298519485658
 20
-1542.439951366873
 30
0.0
 41
1.0
 10
896.2974653609838
 20
-1542.438331872111
 30
0.0
 41
1.0
 10
896.2635041862774
 20
-1542.386155933246
 30
0.0
 41
0.9986467172836575
 10
896.2243070336397
 20
-1542.337789899616
 30
0.0
 41
1.0
 10
896.223432904939
 20
-1542.336711297337
 30
0.0
 41
1.0
 10
896.2225587762383
 20
-1542.335632695059
 30
0.0
 41
1.0
 10
896.1851098810023
 20
-1542.289423865986
 30
0.0
 41
0.9984001104267816
 10
896.1426831504851
 20
-1542.247738758617
 30
0.0
 41
1.0
 10
896.1420960123758
 20
-1542.247161883736
 30
0.0
 41
1.0
 10
896.1415088742665
 20
-1542.246585008855
 30
0.0
 41
1.0
 10
896.100256419968
 20
-1542.206053651249
 30
0.0
 41
0.9982442159083035
 10
896.0545003186323
 20
-1542.170685089988
 30
0.0
 41
1.0
 10
896.0542855231712
 20
-1542.170519057346
 30
0.0
 41
1.0
 10
896.05407072771
 20
-1542.170353024703
 30
0.0
 41
1.0
 10
896.0087442172971
 20
-1542.135316528728
 30
0.0
 41
0.9982450060835942
 10
895.959593238225
 20
-1542.105884745695
 30
0.0
 41
1.0
 10
895.9104422591525
 20
-1542.07645296266
 30
0.0
 41
0.9983922639633327
 10
895.8582759529875
 20
-1542.052773328006
 30
0.0
 41
1.0
 10
895.8580490756635
 20
-1542.052670342525
 30
0.0
 41
1.0
 10
895.8578221983395
 20
-1542.052567357044
 30
0.0
 41
1.0
 10
895.8052021375253
 20
-1542.028681751427
 30
0.0
 41
0.9986517147149614
 10
895.7503891646567
 20
-1542.010380632305
 30
0.0
 41
1.0
 10
895.7497112432293
 20
-1542.010154285874
 30
0.0
 41
1.0
 10
895.749033321802
 20
-1542.009927939442
 30
0.0
 41
1.0
 10
895.6928645060788
 20
-1541.991174127458
 30
0.0
 41
0.9989435598956622
 10
895.6352111189278
 20
-1541.977656425223
 30
0.0
 41
1.0
 10
895.6341309993458
 20
-1541.97740317497
 30
0.0
 41
1.0
 10
895.6330508797637
 20
-1541.977149924717
 30
0.0
 41
1.0
 10
895.5732372534487
 20
-1541.963125721977
 30
0.0
 41
0.9992249241239922
 10
895.5125057445512
 20
-1541.953850379261
 30
0.0
 41
1.0
 10
895.5110920562603
 20
-1541.953634470854
 30
0.0
 41
1.0
 10
895.5096783679694
 20
-1541.953418562446
 30
0.0
 41
1.0
 10
895.4461194824903
 20
-1541.943711402915
 30
0.0
 41
0.9994396597833798
 10
895.3820535459544
 20
-1541.93827848057
 30
0.0
 41
1.0
 10
895.3629128784759
 20
-1541.936655312851
 30
0.0
 41
1.0
 10
895.3437722109974
 20
-1541.935032145132
 30
0.0
 41
1.0
 10
895.2414249395041
 20
-1541.926352887349
 30
0.0
 41
0.998769340312092
 10
895.1387213159167
 20
-1541.927855950802
 30
0.0
 41
1.0
 10
895.1284669816887
 20
-1541.928006022576
 30
0.0
 41
1.0
 10
895.1182126474607
 20
-1541.92815609435
 30
0.0
 41
1.0
 10
895.0086568812832
 20
-1541.929759438638
 30
0.0
 41
0.9989753644966669
 10
894.8996948812679
 20
-1541.941262445563
 30
0.0
 41
1.0
 10
894.7907328812527
 20
-1541.952765452488
 30
0.0
 41
0.9983190067305886
 10
894.6838340702889
 20
-1541.976800444274
 30
0.0
 41
1.0
 10
894.6749331186809
 20
-1541.978801722837
 30
0.0
 41
1.0
 10
894.666032167073
 20
-1541.9808030014
 30
0.0
 41
1.0
 10
894.5413314528944
 20
-1542.008840550312
 30
0.0
 41
0.9985539388302752
 10
894.4203616992166
 20
-1542.050104226358
 30
0.0
 41
1.0
 10
894.4180162682562
 20
-1542.050904270174
 30
0.0
 41
1.0
 10
894.4156708372959
 20
-1542.051704313989
 30
0.0
 41
1.0
 10
894.2900102216969
 20
-1542.094568077667
 30
0.0
 41
0.9988468746493623
 10
894.1690398793952
 20
-1542.14928616273
 30
0.0
 41
1.0
 10
894.1658570574075
 20
-1542.150725837289
 30
0.0
 41
1.0
 10
894.1626742354198
 20
-1542.152165511849
 30
0.0
 41
1.0
 10
894.0353382491438
 20
-1542.20976294603
 30
0.0
 41
0.9991322885919686
 10
893.9132376650881
 20
-1542.277758278211
 30
0.0
 41
1.0
 10
893.8956356540396
 20
-1542.287560480204
 30
0.0
 41
1.0
 10
893.8780336429909
 20
-1542.297362682196
 30
0.0
 41
1.0
 10
893.7758569619372
 20
-1542.354262797975
 30
0.0
 41
0.9993860037848985
 10
893.6779159578668
 20
-1542.418178813562
 30
0.0
 41
1.0
 10
893.6722976450156
 20
-1542.421845308256
 30
0.0
 41
1.0
 10
893.6666793321644
 20
-1542.42551180295
 30
0.0
 41
1.0
 10
893.5799749537947
 20
-1542.48209482915
 30
0.0
 41
0.9998821494954129
 10
893.4950485779807
 20
-1542.541313059227
 30
0.0
 41
1.0
 10
893.4101222021704
 20
-1542.600531289302
 30
0.0
 41
0.9997976482744861
 10
893.3276465717662
 20
-1542.663117697344
 30
0.0
 41
1.0
 10
893.3130103069602
 20
-1542.674224387125
 30
0.0
 41
1.0
 10
893.2983740421544
 20
-1542.685331076905
 30
0.0
 41
1.0
 10
893.1866258821394
 20
-1542.770130864508
 30
0.0
 41
0.9998091630800804
 10
893.078275604111
 20
-1542.85923121521
 30
0.0
 41
1.0
 10
893.0652698516349
 20
-1542.869926315655
 30
0.0
 41
1.0
 10
893.0522640991586
 20
-1542.8806214161
 30
0.0
 41
1.0
 10
892.9179023161748
 20
-1542.991111967695
 30
0.0
 41
0.9995035112316454
 10
892.790766438412
 20
-1543.109845784709
 30
0.0
 41
1.0
 10
892.7811191280281
 20
-1543.118855530864
 30
0.0
 41
1.0
 10
892.7714718176442
 20
-1543.127865277019
 30
0.0
 41
1.0
 10
892.6480487548762
 20
-1543.243131648777
 30
0.0
 41
0.9994630424299892
 10
892.532440349089
 20
-1543.366234392015
 30
0.0
 41
1.0
 10
892.528757510318
 20
-1543.370155971528
 30
0.0
 41
1.0
 10
892.5250746715468
 20
-1543.374077551041
 30
0.0
 41
1.0
 10
892.4168319433064
 20
-1543.489337135249
 30
0.0
 41
0.9995160693749888
 10
892.3159659137732
 20
-1543.611104553123
 30
0.0
 41
1.0
 10
892.3140321936919
 20
-1543.613438977332
 30
0.0
 41
1.0
 10
892.3120984736105
 20
-1543.615773401541
 30
0.0
 41
1.0
 10
892.2150998842412
 20
-1543.732871970996
 30
0.0
 41
0.9996561470515076
 10
892.1243736655754
 20
-1543.854894733445
 30
0.0
 41
1.0
 10
892.1182159996723
 20
-1543.863176522489
 30
0.0
 41
1.0
 10
892.1120583337693
 20
-1543.871458311532
 30
0.0
 41
1.0
 10
892.033647446908
 20
-1543.976917495896
 30
0.0
 41
0.9998349055171972
 10
891.9591201649773
 20
-1544.085156079557
 30
0.0
 41
1.0
 10
891.8845928830447
 20
-1544.193394663221
 30
0.0
 41
0.9999728109564769
 10
891.8116699871285
 20
-1544.302720588786
 30
0.0
 41
1.0
 10
891.81035477172
 20
-1544.304692358283
 30
0.0
 41
1.0
 10
891.8090395563114
 20
-1544.306664127781
 30
0.0
 41
1.0
 10
891.7334862295924
 20
-1544.419933592319
 30
0.0
 41
0.9999972147365384
 10
891.6584684192119
 20
-1544.533558435165
 30
0.0
 41
1.0
 10
891.6534968765855
 20
-1544.541088523643
 30
0.0
 41
1.0
 10
891.648525333959
 20
-1544.548618612122
 30
0.0
 41
1.0
 10
891.5635644383404
 20
-1544.677303631902
 30
0.0
 41
0.9999371979006207
 10
891.481509088933
 20
-1544.807860545684
 30
0.0
 41
1.0
 10
891.4780002045725
 20
-1544.813443473747
 30
0.0
 41
1.0
 10
891.4744913202119
 20
-1544.81902640181
 30
0.0
 41
1.0
 10
891.3854182020816
 20
-1544.960749171722
 30
0.0
 41
0.9998272025611151
 10
891.3016748111975
 20
-1545.105685048468
 30
0.0
 41
1.0
 10
891.2864596391754
 20
-1545.132018162921
 30
0.0
 41
1.0
 10
891.2712444671533
 20
-1545.158351277375
 30
0.0
 41
1.0
 10
891.1570707322247
 20
-1545.355953383028
 30
0.0
 41
0.999521721483854
 10
891.0553310426691
 20
-1545.56023571089
 30
0.0
 41
1.0
 10
891.0476874800313
 20
-1545.575583160598
 30
0.0
 41
1.0
 10
891.0400439173934
 20
-1545.590930610307
 30
0.0
 41
1.0
 10
890.9531386248046
 20
-1545.765427068386
 30
0.0
 41
0.9998269762607342
 10
890.8727841585356
 20
-1545.943035355104
 30
0.0
 41
1.0
 10
890.7924296922648
 20
-1546.120643641824
 30
0.0
 41
0.9998944747386872
 10
890.717268897701
 20
-1546.300511367451
 30
0.0
 41
1.0
 10
890.7123152281083
 20
-1546.312366022373
 30
0.0
 41
1.0
 10
890.7073615585155
 20
-1546.324220677294
 30
0.0
 41
1.0
 10
890.6267144979652
 20
-1546.517217617306
 30
0.0
 41
0.9999506734406806
 10
890.5499169690598
 20
-1546.711778422166
 30
0.0
 41
1.0
 10
890.5353170037916
 20
-1546.748766343966
 30
0.0
 41
1.0
 10
890.5207170385235
 20
-1546.785754265765
 30
0.0
 41
1.0
 10
890.4731194401518
 20
-1546.906339227034
 30
0.0
 41
0.9999912393917153
 10
890.4265329961338
 20
-1547.027318429718
 30
0.0
 41
1.0
 10
890.379946552116
 20
-1547.148297632401
 30
0.0
 41
0.9999927113978077
 10
890.3342852577273
 20
-1547.269629039889
 30
0.0
 41
1.0
 10
890.3203168263244
 20
-1547.306746021901
 30
0.0
 41
1.0
 10
890.3063483949215
 20
-1547.343863003914
 30
0.0
 41
1.0
 10
890.2327502377301
 20
-1547.539428375419
 30
0.0
 41
0.9999487550944394
 10
890.163126612757
 20
-1547.736443740605
 30
0.0
 41
1.0
 10
890.1395330028223
 20
-1547.803207050892
 30
0.0
 41
1.0
 10
890.1159393928876
 20
-1547.869970361179
 30
0.0
 41
1.0
 10
890.0212537585198
 20
-1548.137904195995
 30
0.0
 41
0.9999808436931413
 10
889.9298921698745
 20
-1548.406989627271
 30
0.0
 41
1.0
 10
889.8385305812299
 20
-1548.676075058545
 30
0.0
 41
0.9999873932907138
 10
889.749875872509
 20
-1548.946064413567
 30
0.0
 41
1.0
 10
889.7297835156426
 20
-1549.007253746311
 30
0.0
 41
1.0
 10
889.7096911587762
 20
-1549.068443079055
 30
0.0
 41
1.0
 10
889.5808517363167
 20
-1549.460811099582
 30
0.0
 41
0.9999794883035621
 10
889.4570489513544
 20
-1549.854797305874
 30
0.0
 41
1.0
 10
889.4458966919156
 20
-1549.890287916116
 30
0.0
 41
1.0
 10
889.4347444324767
 20
-1549.925778526357
 30
0.0
 41
1.0
 10
889.2921862685787
 20
-1550.379451278446
 30
0.0
 41
0.9999982761749924
 10
889.1513138285737
 20
-1550.833650300535
 30
0.0
 41
1.0
 10
887.5631734960011
 20
-1555.882420031538
 30
0.0
 41
1.0
 10
885.9750331634285
 20
-1560.931189762542
 30
0.0
 41
1.0
 10
885.0262825519521
 20
-1560.931189762542
 30
0.0
 41
1.0
 10
884.0775319404758
 20
-1560.931189762542
 30
0.0
 41
1.0
 10
887.315816426629
 20
-1550.603867562595
 30
0.0
 41
1.0
 10
890.5541009127821
 20
-1540.276545362649
 30
0.0
 41
1.0
  0
LWPOLYLINE
  5
5E
330
23
100
AcDbEntity
  8
0
  6
Continuous
 62
     7
370
    15
390
1D
100
AcDbPolyline
 90
      232
 70
   128
 43
0.0
 10
864.8505551389551
 20
-1541.360888194165
 42
0.0004370800687037
 10
864.7976779649657
 20
-1541.429554833313
 10
864.7583937337556
 20
-1541.480661946317
 42
0.0030481992167544
 10
864.6280550166492
 20
-1541.652383638645
 10
864.589543344886
 20
-1541.70377042245
 42
0.0042058245757219
 10
864.3855582942082
 20
-1541.980776167535
 10
864.3331531717155
 20
-1542.053209014304
 42
0.0120948898745563
 10
864.0371092549516
 20
-1542.483958618857
 10
863.9409167558289
 20
-1542.631439354083
 42
0.0141601263951245
 10
863.6372727089101
 20
-1543.127108690814
 10
863.5977354414915
 20
-1543.195952658232
 42
0.0071131081299583
 10
863.3924631182458
 20
-1543.565455457084
 42
0.0068458791006712
 10
863.1975835914049
 20
-1543.940547020555
 10
863.1907717289449
 20
-1543.954108734283
 42
0.0064120880287914
 10
862.9926294789045
 20
-1544.361533209194
 10
862.9850947933836
 20
-1544.377545065923
 42
0.0058857236449226
 10
862.782339401511
 20
-1544.82192117696
 10
862.774164475218
 20
-1544.840411330592
 42
0.0053189741898531
 10
862.5654601625507
 20
-1545.326374804509
 10
862.5567123568691
 20
-1545.347356682706
 42
0.0047503650419778
 10
862.3407386307123
 20
-1545.879556115931
 10
862.3314703823703
 20
-1545.903032492024
 42
0.0042071762174672
 10
862.1069229986367
 20
-1546.486126086109
 10
862.0971735962938
 20
-1546.512092260963
 42
0.0036680086480664
 10
861.8627189529858
 20
-1547.150727645483
 10
861.852511173134
 20
-1547.179176179839
 42
0.0032573142626955
 10
861.6068788871697
 20
-1547.878028839585
 10
861.5382283663262
 20
-1548.077491923646
 42
0.0026133366649191
 10
861.1897831675685
 20
-1549.107355207317
 10
861.1265263800545
 20
-1549.297586042751
 42
0.0020592950741014
 10
860.9126633111008
 20
-1549.949689695324
 10
860.9096115199418
 20
-1549.959126183721
 42
0.0025609928534307
 10
860.7077910184519
 20
-1550.594271406099
 10
860.7051996513228
 20
-1550.602573747047
 42
0.0031362356242619
 10
860.5157088656483
 20
-1551.223336603219
 10
860.5135778227202
 20
-1551.230477909432
 42
0.0037229918028035
 10
860.3367774357945
 20
-1551.839463211404
 10
860.3350988465864
 20
-1551.845410101585
 42
0.0043077623707927
 10
860.171358044523
 20
-1552.445228833348
 42
0.0047654161822467
 10
860.0185293220095
 20
-1553.04791492224
 10
859.984064713168
 20
-1553.1894766994
 42
0.0112969368446652
 10
859.7882003550234
 20
-1554.081168860029
 10
859.7601939659277
 20
-1554.223996906122
 42
0.0130056762570175
 10
859.5593567222811
 20
-1555.410937977767
 10
859.5388169721336
 20
-1555.555016091246
 42
0.0138721532146047
 10
859.4351139675961
 20
-1556.461845577069
 10
859.4158184796877
 20
-1556.685343299001
 42
0.0071254697011563
 10
859.3824718337655
 20
-1557.148530307842
 10
859.3775108596029
 20
-1557.23453430239
 42
0.0028881799195077
 10
859.3623725663124
 20
-1557.526276012245
 42
0.006029729713777
 10
859.3524403665367
 20
-1557.818224948367
 10
859.3513780848698
 20
-1557.866617320294
 42
0.0229523164158175
 10
859.3591091126556
 20
-1558.189372166576
 10
859.363334886176
 20
-1558.249775700592
 42
0.0123673300666063
 10
859.3824135326943
 20
-1558.450896425767
 42
0.0128577674469539
 10
859.4116089231009
 20
-1558.650794275696
 10
859.4187347964876
 20
-1558.692123090291
 42
0.0285717853764365
 10
859.4832287981835
 20
-1558.970239241605
 10
859.4968973218497
 20
-1559.016894011081
 42
0.0316283099163517
 10
859.612707901764
 20
-1559.335908512907
 10
859.6157565935199
 20
-1559.342894885234
 42
0.0338984824240229
 10
859.7651883044866
 20
-1559.630460849422
 10
859.7674970338559
 20
-1559.634251878697
 42
0.0350228718359736
 10
859.9498573245301
 20
-1559.891303863375
 10
859.9507425763056
 20
-1559.892382941139
 42
0.0347476747530412
 10
860.1651672635452
 20
-1560.119567988359
 42
0.0331337701912198
 10
860.4084105892915
 20
-1560.315696650436
 10
860.4095106878077
 20
-1560.316469353609
 42
0.0305233319082721
 10
860.6780553833803
 20
-1560.4815975237
 10
860.6812854278824
 20
-1560.483321535563
 42
0.0273744481156493
 10
860.9738391394578
 20
-1560.619459679453
 10
860.9789436745941
 20
-1560.621503263923
 42
0.024096440619343
 10
861.2944207502402
 20
-1560.730486990204
 10
861.3010040794497
 20
-1560.732411729879
 42
0.0209636179813306
 10
861.6384042321021
 20
-1560.815879877811
 10
861.6460366925511
 20
-1560.817431790813
 42
0.0181388704691897
 10
862.0043590845509
 20
-1560.876847884027
 10
862.0126399329276
 20
-1560.877914067844
 42
0.0156086547586597
 10
862.3908272971167
 20
-1560.914650254421
 10
862.4340225494473
 20
-1560.9174887569
 42
0.0137148329026088
 10
862.7616956947425
 20
-1560.930009012151
 10
862.8076318846781
 20
-1560.930503445266
 42
0.005105782387972
 10
863.0437774712607
 20
-1560.930633699675
 42
0.0052256693312495
 10
863.2798747550435
 20
-1560.925884875211
 10
863.3501015387887
 20
-1560.923737909197
 42
0.0161507179050388
 10
863.7258386168912
 20
-1560.90008753887
 10
863.745851577263
 20
-1560.898177343583
 42
0.0101216737833824
 10
864.1598787987558
 20
-1560.850184413217
 10
864.1939320881805
 20
-1560.845536716408
 42
0.0245291776398399
 10
864.6707217437284
 20
-1560.756461638332
 10
864.7555450592582
 20
-1560.736265717985
 42
0.0143509212555465
 10
865.1121761631953
 20
-1560.640461084207
 42
0.0156557857038853
 10
865.462392227916
 20
-1560.52344986839
 10
865.4698934424172
 20
-1560.520679706634
 42
0.0170137333629807
 10
865.826489438103
 20
-1560.37502209176
 10
865.833593360506
 20
-1560.371834256199
 42
0.0183105364406853
 10
866.1929430286681
 20
-1560.194499214377
 10
866.1998897933111
 20
-1560.190748779502
 42
0.0194899958155315
 10
866.5583705342983
 20
-1559.97876979761
 10
866.5653844136318
 20
-1559.974244455317
 42
0.0204869852946713
 10
866.9193987157224
 20
-1559.724724440233
 10
866.9266643243127
 20
-1559.719144374882
 42
0.0212516938556846
 10
867.2726542554175
 20
-1559.429240377991
 10
867.319170949496
 20
-1559.386773067895
 42
0.0215248918257133
 10
867.579197118384
 20
-1559.1280087889
 10
867.6242268527664
 20
-1559.079164667548
 42
0.0114578554952728
 10
867.779019006442
 20
-1558.903341734092
 10
867.7902135424318
 20
-1558.890022970542
 42
0.0061531305131922
 10
867.916688188423
 20
-1558.73573343724
 42
0.0006325587113608
 10
868.0410666725521
 20
-1558.579730061593
 10
868.0641068076263
 20
-1558.550756540905
 42
0.0041897761551805
 10
868.2325622116026
 20
-1558.335237164839
 10
868.2910243314911
 20
-1558.259135817858
 42
0.0092993880036491
 10
868.5676362587094
 20
-1557.884857053982
 10
868.6500307519112
 20
-1557.76892005041
 42
0.0159321727086863
 10
868.9966372345561
 20
-1557.24674582965
 10
869.0409933699518
 20
-1557.175066265389
 42
0.0085547317024523
 10
869.275505135271
 20
-1556.781191316175
 42
0.0084601156893833
 10
869.4964813127212
 20
-1556.379564467128
 10
869.5045967865434
 20
-1556.36420478487
 42
0.00814296542846
 10
869.7278460569775
 20
-1555.924483272336
 10
869.7367062211649
 20
-1555.90630443031
 42
0.0076574581327998
 10
869.9631137317332
 20
-1555.423121555053
 10
869.9725933724553
 20
-1555.402057076754
 42
0.0070682724206099
 10
870.203038280266
 20
-1554.870019771963
 10
870.2130285642438
 20
-1554.846030582961
 42
0.0064559514446264
 10
870.4483617724225
 20
-1554.25971831645
 10
870.4587711305905
 20
-1554.232783391
 42
0.0058311413906577
 10
870.6998178673571
 20
-1553.586751296606
 10
870.7105729447408
 20
-1553.556866955455
 42
0.0052312425818739
 10
870.9581542227847
 20
-1552.845664541612
 10
870.9691980591615
 20
-1552.812837829551
 42
0.0046680544793854
 10
871.2241264868911
 20
-1552.031011513811
 10
871.2661186369359
 20
-1551.898028276516
 42
0.004166685644534
 10
871.4694046493344
 20
-1551.235059501499
 10
871.5070670899884
 20
-1551.108478393878
 42
0.0015170975153341
 10
871.6282536684113
 20
-1550.696610042351
 42
-0.0004887993109646
 10
871.7485934415639
 20
-1550.284491630209
 10
871.8250706990295
 20
-1550.023534244368
 42
0.0002583378929731
 10
872.098285269144
 20
-1549.089477541017
 10
872.1800581186778
 20
-1548.809378281581
 42
0.000663616967027
 10
872.3739258786817
 20
-1548.142025358019
 10
872.3790225330424
 20
-1548.124393775092
 42
0.0010589131324507
 10
872.5604712339453
 20
-1547.49166243209
 10
872.5654533044116
 20
-1547.474149525121
 42
0.0015655524459887
 10
872.7337235116086
 20
-1546.875532845869
 10
872.7385537120139
 20
-1546.858140686968
 42
0.0021640440475683
 10
872.8928436840097
 20
-1546.293113668915
 10
872.8974779034519
 20
-1546.275848938876
 42
0.0028763871855645
 10
873.0369936214925
 20
-1545.743880988074
 10
873.0413794856596
 20
-1545.72675700992
 42
0.0037310511950606
 10
873.1653361774966
 20
-1545.227309415896
 10
873.1694113977844
 20
-1545.210349144655
 42
0.0047652197773692
 10
873.2770352982941
 20
-1544.742871376346
 10
873.2807258976165
 20
-1544.7261118212
 42
0.0060276699297555
 10
873.3712559967712
 20
-1544.290036026051
 10
873.3744746870594
 20
-1544.273534811747
 42
0.0075824337753649
 10
873.4471639964758
 20
-1543.868267647316
 10
873.4498093738557
 20
-1543.852112699867
 42
0.0095130624606844
 10
873.5039246094873
 20
-1543.477023346794
 10
873.5109108333695
 20
-1543.421089788679
 42
0.0121054653222119
 10
873.5375021639477
 20
-1543.156193960203
 10
873.5383686537069
 20
-1543.144790517278
 42
0.0069050827383434
 10
873.5534574717449
 20
-1542.90184929043
 10
873.5545927714139
 20
-1542.878323033375
 42
0.0169063976710682
 10
873.5574200503938
 20
-1542.682130306084
 10
873.5562493988625
 20
-1542.621794544734
 42
0.0052007732890565
 10
873.5539959502695
 20
-1542.546201154583
 42
0.0054038123306446
 10
873.5340324384288
 20
-1542.426182858563
 10
873.5289465825601
 20
-1542.397524371992
 42
0.0112050460467149
 10
873.4935622205005
 20
-1542.221197933648
 10
873.4757372584611
 20
-1542.141656346932
 42
0.0240764468011746
 10
873.3848398923143
 20
-1541.811419311429
 10
873.3662811295015
 20
-1541.754799146438
 42
0.0256812331835806
 10
873.222918209312
 20
-1541.38307494018
 10
873.2175087834906
 20
-1541.37094360519
 42
0.0268360501210633
 10
873.0480815426406
 20
-1541.039950471169
 10
873.0425451350056
 20
-1541.030430800857
 42
0.0274670231730842
 10
872.8503441585922
 20
-1540.73814342594
 10
872.8449628586299
 20
-1540.730864278398
 42
0.0275035967101222
 10
872.6333899790677
 20
-1540.475348388094
 10
872.6283204781007
 20
-1540.469869300463
 42
0.0269557673527971
 10
872.4009169346616
 20
-1540.249227014501
 10
872.3961738768782
 20
-1540.24509706004
 42
0.0259124802214785
 10
872.1566190454482
 20
-1540.057406532888
 10
872.1520882002666
 20
-1540.054221030558
 42
0.024516215300286
 10
871.9041718471716
 20
-1539.897488021448
 10
871.8996453008465
 20
-1539.894927824246
 42
0.0229282588843482
 10
871.64722574402
 20
-1539.767059631748
 10
871.6424452501825
 20
-1539.764907331985
 42
0.0212984135693552
 10
871.3894072977216
 20
-1539.663708414743
 10
871.3841030127485
 20
-1539.661844851982
 42
0.0197555462352688
 10
871.1343246750291
 20
-1539.585029434019
 42
0.018351189678642
 10
870.8793959495667
 20
-1539.527446527054
 10
870.7930307528447
 20
-1539.511243736669
 42
0.0338057877142024
 10
870.5075234035826
 20
-1539.477435331528
 10
870.416517998535
 20
-1539.472855676266
 42
0.0091990524503628
 10
870.3106708899066
 20
-1539.469479820344
 42
0.0028333980787621
 10
870.2047569739158
 20
-1539.468651712828
 10
870.2038415208644
 20
-1539.468649743004
 42
-0.0023619827816497
 10
870.09609550574
 20
-1539.467908901925
 10
870.0596903355827
 20
-1539.467486595462
 42
0.0008824598481131
 10
869.8791343457275
 20
-1539.465710817224
 10
869.8352729133268
 20
-1539.465356855698
 42
0.0038132665768183
 10
869.566990017451
 20
-1539.465237919632
 10
869.5504563626545
 20
-1539.465356685775
 42
0.0060665569333383
 10
869.2491758710737
 20
-1539.471176985196
 10
869.2349255390378
 20
-1539.471625293164
 42
0.0080356953336834
 10
868.9054668226995
 20
-1539.487293015231
 10
868.8933968076113
 20
-1539.488061598171
 42
0.0098996399106738
 10
868.5406337229589
 20
-1539.517546827369
 10
868.5305880135858
 20
-1539.518587123567
 42
0.0117740981370068
 10
868.1594311552332
 20
-1539.565879371098
 10
868.1512084587545
 20
-1539.567124487668
 42
0.0137435215134772
 10
867.7666196392701
 20
-1539.63622146123
 10
867.7599626001461
 20
-1539.637607357463
 42
0.0158359869386708
 10
867.366965506344
 20
-1539.732499445944
 10
867.3615523194765
 20
-1539.733989386814
 42
0.0180554124029054
 10
866.9652372748618
 20
-1539.858627403054
 10
866.9606804867806
 20
-1539.860243439319
 42
0.0203657431281143
 10
866.5662029689697
 20
-1540.018503780835
 10
866.5620594299619
 20
-1540.020365402277
 42
0.02268196846586
 10
866.1746233737589
 20
-1540.216007980948
 10
866.1704235827401
 20
-1540.218373572868
 42
0.0248634984601602
 10
865.7952416415613
 20
-1540.455000218813
 10
865.7470467127737
 20
-1540.488857260642
 42
0.0267044190890173
 10
865.4727540158584
 20
-1540.704297636509
 42
0.013930300219778
 10
865.2165868499181
 20
-1540.941536477422
 10
865.2117334641987
 20
-1540.946289140281
 42
0.0283460963444501
 10
864.9676608699701
 20
-1541.214019800728
 10
864.9279923648149
 20
-1541.262821378199
 42
0.0070695364826246
 10
864.8505551389551
 20
-1541.360888194165
 42
0.0070695364826246
  0
LWPOLYLINE
  5
5F
330
23
100
AcDbEntity
  8
0
  6
Continuous
 62
     7
370
    15
390
1D
100
AcDbPolyline
 90
      226
 70
   128
 43
0.0
 10
861.3217347017087
 20
-1557.082477000349
 42
-0.0026277636621739
 10
861.3216568179087
 20
-1557.015705074603
 10
861.3218741761407
 20
-1556.962549857162
 42
-0.0088680296726748
 10
861.3256507924339
 20
-1556.789534074756
 10
861.3279971515462
 20
-1556.730254049306
 42
-0.0077381705615397
 10
861.3440432623096
 20
-1556.438993553505
 10
861.3449111734824
 20
-1556.426705319823
 42
-0.0068872530527884
 10
861.3715432532309
 20
-1556.111483567749
 10
861.3727474774166
 20
-1556.099242588735
 42
-0.0062130021490771
 10
861.4103411942441
 20
-1555.7603728975
 10
861.4118450977796
 20
-1555.74819902558
 42
-0.0056726929669289
 10
861.4607669572824
 20
-1555.386003803462
 10
861.4625404029263
 20
-1555.373910003221
 42
-0.0052341884496492
 10
861.523150989187
 20
-1554.988716747699
 10
861.525168977963
 20
-1554.976711817711
 42
-0.0049768450168675
 10
861.5979076593893
 20
-1554.568867250278
 10
861.622156674111
 20
-1554.440319267272
 42
-0.0089029805627192
 10
861.759237525906
 20
-1553.778543819849
 10
861.7919829012243
 20
-1553.633512389326
 42
-0.0080318257098581
 10
862.021531515564
 20
-1552.687802757477
 10
862.0335164420133
 20
-1552.641672122282
 42
-0.0074265721319805
 10
862.3175279808604
 20
-1551.611607543911
 10
862.3374075239775
 20
-1551.54347348332
 42
-0.0069711922702056
 10
862.6647121024865
 20
-1550.477205742985
 10
862.7246640495922
 20
-1550.291184384613
 42
-0.005207042289533
 10
862.9540892748514
 20
-1549.603912307583
 10
862.9713704670221
 20
-1549.55388502697
 42
-0.0009167004450285
 10
863.1744623543129
 20
-1548.969429178811
 42
-0.0025162726943738
 10
863.3815599845799
 20
-1548.386387914637
 10
863.4187845963886
 20
-1548.283238368722
 42
-0.0028212681457385
 10
863.666960515344
 20
-1547.607507736572
 10
863.6767912780921
 20
-1547.581200291903
 42
-0.0031964916823738
 10
863.9130835357571
 20
-1546.960995529769
 10
863.9227179897605
 20
-1546.936185539614
 42
-0.0036281836451793
 10
864.1478239508573
 20
-1546.368744858732
 10
864.1572623610205
 20
-1546.345447427215
 42
-0.0041269166833573
 10
864.3718800576739
 20
-1545.828006531251
 10
864.4045130140934
 20
-1545.751128084893
 42
-0.0047472213057821
 10
864.5615578196483
 20
-1545.390706617007
 10
864.5684519008588
 20
-1545.375286019669
 42
-0.002565165999499
 10
864.7168099347067
 20
-1545.047957963926
 42
-0.005714463499223
 10
864.8705596284756
 20
-1544.723148290569
 10
864.8985903338792
 20
-1544.66563990817
 42
-0.006538806837524
 10
865.082057361619
 20
-1544.301407411504
 10
865.0905158173973
 20
-1544.285147832135
 42
-0.007451084302285
 10
865.2666980632754
 20
-1543.958459551012
 10
865.2748777338024
 20
-1543.943818773751
 42
-0.0084648979859805
 10
865.4445115869064
 20
-1543.651909762782
 10
865.4523677133985
 20
-1543.638902771125
 42
-0.0095638542798024
 10
865.6162031609888
 20
-1543.379013899153
 10
865.6236781046586
 20
-1543.367644537701
 42
-0.0107191626806578
 10
865.7824796850481
 20
-1543.137033303153
 10
865.7894964187801
 20
-1543.127297210787
 42
-0.0118458573905475
 10
865.9440445172917
 20
-1542.923225015478
 42
-0.0129184518188732
 10
866.1084971408916
 20
-1542.72706449931
 10
866.1386419132531
 20
-1542.692938420412
 42
-0.021774257963616
 10
866.3152542355917
 20
-1542.509731650158
 10
866.3259997800458
 20
-1542.499514816961
 42
-0.0097266568659184
 10
866.4920573989077
 20
-1542.347667242518
 42
-0.0187720905723638
 10
866.6664049747919
 20
-1542.205598389133
 10
866.6971109654695
 20
-1542.182439306734
 42
-0.0179428207521142
 10
866.9295316854676
 20
-1542.019887129621
 10
866.9331840123864
 20
-1542.017523194731
 42
-0.0170047877696732
 10
867.1689476499138
 20
-1541.876062680582
 10
867.1727306386604
 20
-1541.873964375545
 42
-0.0160190788363355
 10
867.4096391862956
 20
-1541.752313073557
 42
-0.0151102861494719
 10
867.6536709687423
 20
-1541.645630297503
 10
867.7060574709541
 20
-1541.624590164608
 42
-0.0271945441887118
 10
868.0647200300127
 20
-1541.502725353902
 10
868.1337848305021
 20
-1541.483375812635
 42
-0.0237596594021573
 10
868.5495816775228
 20
-1541.387925100654
 10
868.6176445312542
 20
-1541.375670412527
 42
-0.0213715440552134
 10
868.9035194626986
 20
-1541.336723381017
 10
868.9636666289099
 20
-1541.331133666317
 42
-0.0101465655816508
 10
869.1311591609108
 20
-1541.318990123052
 10
869.1404995471084
 20
-1541.318503208055
 42
-0.0100375910882296
 10
869.2896536476716
 20
-1541.31372739013
 10
869.2999129173513
 20
-1541.313604951115
 42
-0.0103625633382641
 10
869.4286209120069
 20
-1541.314736384642
 10
869.4508865632667
 20
-1541.315393743107
 42
-0.0115689250247964
 10
869.5349373008016
 20
-1541.319823249352
 42
-0.007243803741345
 10
869.6187755802517
 20
-1541.327412449103
 10
869.6355760897136
 20
-1541.329178991826
 42
-0.0217917313133523
 10
869.7521458530274
 20
-1541.346598884547
 10
869.8177459435971
 20
-1541.359345492962
 42
-0.0332943556756996
 10
870.0221381086224
 20
-1541.413385784268
 10
870.0523106771748
 20
-1541.423553861388
 42
-0.0184824084791287
 10
870.1908157336377
 20
-1541.476004876773
 42
-0.0198002050704716
 10
870.3248900741364
 20
-1541.538888936972
 10
870.326776711514
 20
-1541.539866723852
 42
-0.0212242342974598
 10
870.4589156539147
 20
-1541.615629462645
 10
870.4607309494595
 20
-1541.616775264854
 42
-0.022609060579506
 10
870.58923485068
 20
-1541.706254908418
 10
870.5910792924185
 20
-1541.707667161406
 42
-0.0238457052240698
 10
870.7142613737124
 20
-1541.811663057269
 10
870.7162141022706
 20
-1541.813477935034
 42
-0.024816056415464
 10
870.8324156095706
 20
-1541.932752536242
 10
870.8345192429733
 20
-1541.935137869948
 42
-0.0254109591455327
 10
870.9421244608385
 20
-1542.070426255911
 10
870.9443724827534
 20
-1542.073567804312
 42
-0.0255528488282127
 10
871.0418191615503
 20
-1542.225594858547
 10
871.0441502614665
 20
-1542.229676470154
 42
-0.02521467932234
 10
871.1299312874752
 20
-1542.39917871615
 10
871.1322335266333
 20
-1542.404360798064
 42
-0.0244265635952402
 10
871.2048882203945
 20
-1542.59210737011
 10
871.2141346218626
 20
-1542.619972788447
 42
-0.0231319612893884
 10
871.2600574008552
 20
-1542.78327383525
 42
-0.0112130424351522
 10
871.2946934233939
 20
-1542.949477435442
 10
871.2958959485059
 20
-1542.955974022326
 42
-0.0210527881232384
 10
871.3215824238771
 20
-1543.13702966777
 10
871.3250930186987
 20
-1543.172435216315
 42
-0.0190029892415675
 10
871.3405344922433
 20
-1543.425971062588
 10
871.3413444686872
 20
-1543.461446676956
 42
-0.0137974553661921
 10
871.3397956158516
 20
-1543.78647808369
 10
871.3389501608959
 20
-1543.812596828289
 42
-0.0081336634212888
 10
871.3240908256736
 20
-1544.117944295881
 42
-0.0073526923566674
 10
871.2997822922994
 20
-1544.422692540163
 10
871.2985208685162
 20
-1544.436029214833
 42
-0.0066886138692244
 10
871.2627852824702
 20
-1544.766615258327
 10
871.2611281929999
 20
-1544.780236877321
 42
-0.0061359187355664
 10
871.2132775909504
 20
-1545.137000857412
 10
871.2112400898761
 20
-1545.150895660251
 42
-0.005669861006553
 10
871.150589759109
 20
-1545.534174229088
 10
871.1481843257859
 20
-1545.548333348319
 42
-0.0052721077276154
 10
871.0740521249899
 20
-1545.958460687979
 10
871.0712889761446
 20
-1545.972877323383
 42
-0.0049289272176404
 10
870.982994858043
 20
-1546.410185834513
 10
870.9798823633621
 20
-1546.424854687321
 42
-0.0047415956713869
 10
870.8766443718305
 20
-1546.889651444728
 10
870.8418761614699
 20
-1547.039458540115
 42
-0.0084404470903133
 10
870.6518597178978
 20
-1547.799682564647
 10
870.6457330299124
 20
-1547.8225466888
 42
-0.0039635940258763
 10
870.4242793456275
 20
-1548.62353555305
 10
870.4109025504489
 20
-1548.670467169639
 42
-0.0072475040838228
 10
870.1434556625841
 20
-1549.559686886035
 10
870.0732433357598
 20
-1549.781427235997
 42
-0.0051345458828626
 10
869.7864839636995
 20
-1550.655752423812
 10
869.7649576969388
 20
-1550.719178690922
 42
-0.0019150016602721
 10
869.5094242900653
 20
-1551.462727811168
 10
869.5029566856776
 20
-1551.481315276065
 42
-0.0021524362752204
 10
869.2544786346052
 20
-1552.185641097798
 10
869.2452682139118
 20
-1552.211394676091
 42
-0.0024331286823978
 10
869.0090129548728
 20
-1552.861993984218
 10
868.999965002316
 20
-1552.886537290589
 42
-0.0027449721789486
 10
868.7753504314869
 20
-1553.485667169496
 10
868.7664604240912
 20
-1553.508989759358
 42
-0.0031083229767954
 10
868.5529179374847
 20
-1554.058913796928
 10
868.5441818058077
 20
-1554.08100351279
 42
-0.0035311343282345
 10
868.3411406202174
 20
-1554.583986638516
 10
868.3325552810664
 20
-1554.604829362034
 42
-0.004024564094886
 10
868.1394434772752
 20
-1555.063138684619
 10
868.1310073636727
 20
-1555.08271805269
 42
-0.0046015135851176
 10
867.9472510705084
 20
-1555.498623082333
 10
867.9389648926857
 20
-1555.516920221773
 42
-0.0052768638272709
 10
867.7639873737246
 20
-1555.892693106056
 10
867.7558551630992
 20
-1555.909686444596
 42
-0.0060672675642225
 10
867.5890755503317
 20
-1556.247602067713
 10
867.5811060698521
 20
-1556.263267326707
 42
-0.0069904648869489
 10
867.4219376758485
 20
-1556.565603133374
 10
867.4141462762399
 20
-1556.579913682597
 42
-0.0080637022770082
 10
867.2619944158919
 20
-1556.848948985754
 10
867.2544053832611
 20
-1556.861876851354
 42
-0.00930064556712
 10
867.1086647067292
 20
-1557.099891249858
 10
867.101314039982
 20
-1557.111409219037
 42
-0.0107060778046848
 10
866.9613654965472
 20
-1557.320679536411
 10
866.9543037282642
 20
-1557.330765078981
 42
-0.0122723111405361
 10
866.8195100100693
 20
-1557.513558408465
 10
866.8191837865201
 20
-1557.513978796269
 42
-0.0141836319625915
 10
866.6756021835413
 20
-1557.688548554104
 10
866.6686544278961
 20
-1557.696523554362
 42
-0.0175957477218411
 10
866.5287482598546
 20
-1557.846144442774
 42
-0.0080466359673575
 10
866.381284494834
 20
-1557.988466970916
 10
866.3352499503069
 20
-1558.031487409017
 42
-0.0269600260388917
 10
866.0819697043238
 20
-1558.243810667526
 10
866.0154025680248
 20
-1558.293762082151
 42
-0.0178362839752248
 10
865.7754580783711
 20
-1558.460780008402
 10
865.768213107373
 20
-1558.465448520605
 42
-0.0174650732654393
 10
865.5318769099295
 20
-1558.606309485566
 42
-0.0169240130163779
 10
865.2864106640689
 20
-1558.730601745345
 10
865.2404245085138
 20
-1558.751963700911
 42
-0.0318883036844704
 10
864.8900736528949
 20
-1558.88830201042
 10
864.8217081177283
 20
-1558.910002630897
 42
-0.0284435909900922
 10
864.4456579914381
 20
-1559.006220066371
 10
864.4104998309405
 20
-1559.013113662199
 42
-0.0243909341010938
 10
864.0970563700206
 20
-1559.058834693229
 10
864.0467756432529
 20
-1559.063680240131
 42
-0.0196639292932654
 10
863.8311800657223
 20
-1559.075928525644
 10
863.7793559945592
 20
-1559.076831786381
 42
-0.0100501510682191
 10
863.6669327128945
 20
-1559.076531388028
 10
863.63527285159
 20
-1559.075810316144
 42
-0.0019752031139462
 10
863.586180514869
 20
-1559.074498155933
 10
863.5834202116444
 20
-1559.074413464107
 42
0.0065378751973464
 10
863.5398436368921
 20
-1559.073646572892
 42
-0.0167974694652962
 10
863.4963128139592
 20
-1559.071986674366
 10
863.4922334746982
 20
-1559.071693663471
 42
-0.0081283276248997
 10
863.440673676952
 20
-1559.067146669832
 10
863.4289341030812
 20
-1559.065918752255
 42
-0.0126703440179494
 10
863.3542158072867
 20
-1559.056183961183
 10
863.3314279396109
 20
-1559.052625705268
 42
-0.0117852088427286
 10
863.2118889537758
 20
-1559.03106271011
 10
863.1565085020155
 20
-1559.019719169876
 42
-0.0251774592291838
 10
862.9296644630069
 20
-1558.961221160443
 10
862.8849452731567
 20
-1558.947254341108
 42
-0.014652519989087
 10
862.6985522856181
 20
-1558.88298781391
 42
-0.0166929435859499
 10
862.516574629495
 20
-1558.807180680857
 10
862.5119179982182
 20
-1558.805055780241
 42
-0.0191684358437685
 10
862.326734366974
 20
-1558.711819696454
 10
862.3234017812122
 20
-1558.709978448898
 42
-0.0221181781814239
 10
862.1400914773088
 20
-1558.597844950527
 10
862.1377416733014
 20
-1558.596260652536
 42
-0.0254984685387136
 10
861.9614515229163
 20
-1558.463849502567
 10
861.9389693752141
 20
-1558.44509719363
 42
-0.0292492648805148
 10
861.8142004363712
 20
-1558.328004393987
 42
-0.0159048957498281
 10
861.7003604389212
 20
-1558.199984402388
 10
861.6990416483418
 20
-1558.198402789368
 42
-0.0343813379565887
 10
861.5964043867147
 20
-1558.056531463598
 10
861.5649128553549
 20
-1558.006028071505
 42
-0.0369117275706484
 10
861.4790203534574
 20
-1557.842550830556
 42
-0.0191751379906472
 10
861.4118269679002
 20
-1557.67014622455
 10
861.4100636441408
 20
-1557.665052879875
 42
-0.0378178042234289
 10
861.3602689253566
 20
-1557.476112103793
 10
861.3542736296266
 20
-1557.443551485598
 42
-0.0184846046481795
 10
861.333556430332
 20
-1557.301798665052
 42
-0.0179866351324437
 10
861.3232234252582
 20
-1557.15890785197
 10
861.3231669828125
 20
-1557.157350165358
 42
-0.0085497186124142
 10
861.3217347017087
 20
-1557.082477000349
 42
-0.0085497186124142
  0
ENDBLK
  5
60
330
23
100
AcDbEntity
  8
template
390
1D
100
AcDbBlockEnd
  0
BLOCK
  5
61
330
24
100
AcDbEntity
  8
template
390
1D
100
AcDbBlockBegin
  2
*D3
 70
     1
 10
0.0
 20
0.0
 30
0.0
  3
*D3
  1

  0
LINE
  5
62
330
24
100
AcDbEntity
  8
0
  6
Continuous
 62
     0
370
    -2
390
1D
100
AcDbLine
 10
-294.7940137420529
 20
706.5667704669008
 30
0.0
 11
-114.0000000000001
 21
843.320091590029
 31
0.0
  0
CIRCLE
  5
63
102
{ACAD_REACTORS
330
64
102
}
330
24
100
AcDbEntity
  8
0
  6
Continuous
 62
     0
370
    -2
390
1D
100
AcDbCircle
 10
-294.7940137420529
 20
706.5667704669008
 30
0.0
 40
1.9998779296875
  0
HATCH
  5
64
330
24
100
AcDbEntity
  8
0
  6
Continuous
 62
     0
370
    -2
390
1D
100
AcDbHatch
 10
0.0
 20
0.0
 30
0.0
210
0.0
220
0.0
230
1.0
  2
SOLID
 70
     1
 71
     1
 91
        1
 92
        1
 93
        1
 72
     2
 10
-294.7940137420529
 20
706.5667704669008
 40
1.9998779296875
 50
0.0
 51
360.0
 73
     0
 97
        1
330
63
 75
     0
 76
     1
 98
        1
 10
0.0
 20
0.0
  0
LINE
  5
65
330
24
100
AcDbEntity
  8
0
  6
Continuous
 62
     0
370
    -2
390
1D
100
AcDbLine
 10
-114.0000000000001
 20
843.320091590029
 30
0.0
 11
57.12500672870205
 21
843.320091590029
 31
0.0
  0
MTEXT
  5
66
330
24
100
AcDbEntity
  8
0
 62
     0
390
1D
100
AcDbMText
 10
-54.00000000000006
 20
877.1977087775291
 30
0.0
 40
24.4326171875
 41
0.0
 46
0.0
 71
     1
 72
     1
  1
φ35-37
  7
ＭＳ ゴシック
 73
     1
 44
0.7828267384257843
  0
POINT
  5
67
330
24
100
AcDbEntity
  8
Defpoints
 62
     0
370
     0
390
1D
100
AcDbPoint
 10
-324.3030577438647
 20
684.2460105761788
 30
0.0
  0
POINT
  5
68
330
24
100
AcDbEntity
  8
Defpoints
 62
     0
370
     0
390
1D
100
AcDbPoint
 10
-294.7940137420529
 20
706.5667704669008
 30
0.0
  0
ENDBLK
  5
69
330
24
100
AcDbEntity
  8
template
390
1D
100
AcDbBlockEnd
  0
BLOCK
  5
6A
330
25
100
AcDbEntity
  8
notes
390
1D
100
AcDbBlockBegin
  2
*D4
 70
     1
 10
0.0
 20
0.0
 30
0.0
  3
*D4
  1

  0
LINE
  5
6B
330
25
100
AcDbEntity
  8
notes
  6
Continuous
 62
     0
370
    -2
100
AcDbLine
 10
348.4783445548685
 20
2294.396322976142
 30
0.0
 11
348.4783445548685
 21
2419.39845190579
 31
0.0
  0
LINE
  5
6C
330
25
100
AcDbEntity
  8
notes
  6
Continuous
 62
     0
370
    -2
100
AcDbLine
 10
888.5050403407142
 20
2294.416518752964
 30
0.0
 11
888.5050403407142
 21
2419.39845190579
 31
0.0
  0
LINE
  5
6D
330
25
100
AcDbEntity
  8
notes
  6
Continuous
 62
     0
370
    -2
100
AcDbLine
 10
352.4781004142435
 20
2419.39845190579
 30
0.0
 11
884.5052844813392
 21
2419.39845190579
 31
0.0
  0
INSERT
  5
6E
102
{ACAD_REACTORS
330
6F
102
}
330
25
100
AcDbEntity
  8
notes
 62
     0
370
    -2
100
AcDbBlockReference
  2
_DOT
 10
348.4783445548685
 20
2419.39845190579
 30
0.0
 41
3.999755859375
 42
3.999755859375
 43
3.999755859375
 50
180.0
  0
INSERT
  5
6F
330
25
100
AcDbEntity
  8
notes
 62
     0
370
    -2
100
AcDbBlockReference
  2
_DOT
 10
888.5050403407142
 20
2419.39845190579
 30
0.0
 41
3.999755859375
 42
3.999755859375
 43
3.999755859375
  0
MTEXT
  5
70
102
{ACAD_REACTORS
330
71
102
}
330
25
100
AcDbEntity
  8
notes
  6
Continuous
 62
     0
370
     5
100
AcDbMText
 10
618.4916924477914
 20
2436.61476049954
 30
0.0
 40
24.4326171875
 41
0.0
 46
0.0
 71
     5
 72
     1
  1
\A1;540
  7
ＭＳ ゴシック
 73
     1
 44
1.0
  0
POINT
  5
71
330
25
100
AcDbEntity
  8
Defpoints
 62
     0
100
AcDbPoint
 10
348.4783445548685
 20
2269.396322976142
 30
0.0
  0
POINT
  5
72
330
25
100
AcDbEntity
  8
Defpoints
 62
     0
100
AcDbPoint
 10
888.5050403407142
 20
2269.416518752964
 30
0.0
  0
POINT
  5
73
330
25
100
AcDbEntity
  8
Defpoints
 62
     0
100
AcDbPoint
 10
888.5050403407142
 20
2419.39845190579
 30
0.0
  0
ENDBLK
  5
76
330
25
100
AcDbEntity
  8
notes
390
1D
100
AcDbBlockEnd
  0
BLOCK
  5
77
330
26
100
AcDbEntity
  8
notes
390
1D
100
AcDbBlockBegin
  2
*D5
 70
     1
 10
0.0
 20
0.0
 30
0.0
  3
*D5
  1

  0
LINE
  5
78
330
26
100
AcDbEntity
  8
notes
  6
Continuous
 62
     0
370
    -2
100
AcDbLine
 10
888.5050403407142
 20
2294.416518752964
 30
0.0
 11
888.5050403407142
 21
2369.39845190579
 31
0.0
  0
LINE
  5
79
330
26
100
AcDbEntity
  8
notes
  6
Continuous
 62
     0
370
    -2
100
AcDbLine
 10
733.5050403407145
 20
2244.917106518607
 30
0.0
 11
733.5050403407145
 21
2369.39845190579
 31
0.0
  0
LINE
  5
7A
330
26
100
AcDbEntity
  8
notes
  6
Continuous
 62
     0
370
    -2
100
AcDbLine
 10
884.5052844813392
 20
2369.39845190579
 30
0.0
 11
737.5047962000895
 21
2369.39845190579
 31
0.0
  0
INSERT
  5
7B
102
{ACAD_REACTORS
330
7C
102
}
330
26
100
AcDbEntity
  8
notes
 62
     0
370
    -2
100
AcDbBlockReference
  2
_DOT
 10
888.5050403407142
 20
2369.39845190579
 30
0.0
 41
3.999755859375
 42
3.999755859375
 43
3.999755859375
  0
INSERT
  5
7C
330
26
100
AcDbEntity
  8
notes
 62
     0
370
    -2
100
AcDbBlockReference
  2
_DOT
 10
733.5050403407145
 20
2369.39845190579
 30
0.0
 41
3.999755859375
 42
3.999755859375
 43
3.999755859375
 50
180.0
  0
MTEXT
  5
7D
102
{ACAD_REACTORS
330
7E
102
}
330
26
100
AcDbEntity
  8
notes
  6
Continuous
 62
     0
370
     5
100
AcDbMText
 10
811.0050403407143
 20
2386.61476049954
 30
0.0
 40
24.4326171875
 41
0.0
 46
0.0
 71
     5
 72
     1
  1
\A1;155
  7
ＭＳ ゴシック
 73
     1
 44
1.0
  0
POINT
  5
7E
330
26
100
AcDbEntity
  8
Defpoints
 62
     0
100
AcDbPoint
 10
888.5050403407142
 20
2269.416518752964
 30
0.0
  0
POINT
  5
7F
330
26
100
AcDbEntity
  8
Defpoints
 62
     0
100
AcDbPoint
 10
733.5050403407145
 20
2219.917106518607
 30
0.0
  0
POINT
  5
80
330
26
100
AcDbEntity
  8
Defpoints
 62
     0
100
AcDbPoint
 10
733.5050403407145
 20
2369.39845190579
 30
0.0
  0
ENDBLK
  5
83
330
26
100
AcDbEntity
  8
notes
390
1D
100
AcDbBlockEnd
  0
BLOCK
  5
84
330
27
100
AcDbEntity
  8
notes
390
1D
100
AcDbBlockBegin
  2
*D6
 70
     1
 10
0.0
 20
0.0
 30
0.0
  3
*D6
  1

  0
LINE
  5
85
330
27
100
AcDbEntity
  8
notes
  6
Continuous
 62
     0
370
    -2
100
AcDbLine
 10
1705.280141144308
 20
2294.398309698006
 30
0.0
 11
1705.280141144308
 21
2369.398309698006
 31
0.0
  0
LINE
  5
86
330
27
100
AcDbEntity
  8
notes
  6
Continuous
 62
     0
370
    -2
100
AcDbLine
 10
1275.280141144309
 20
2294.398309698006
 30
0.0
 11
1275.280141144309
 21
2369.398309698006
 31
0.0
  0
LINE
  5
87
330
27
100
AcDbEntity
  8
notes
  6
Continuous
 62
     0
370
    -2
100
AcDbLine
 10
1701.280385284933
 20
2369.398309698006
 30
0.0
 11
1279.279897003684
 21
2369.398309698006
 31
0.0
  0
INSERT
  5
88
102
{ACAD_REACTORS
330
89
102
}
330
27
100
AcDbEntity
  8
notes
 62
     0
370
    -2
100
AcDbBlockReference
  2
_DOT
 10
1705.280141144308
 20
2369.398309698006
 30
0.0
 41
3.999755859375
 42
3.999755859375
 43
3.999755859375
  0
INSERT
  5
89
330
27
100
AcDbEntity
  8
notes
 62
     0
370
    -2
100
AcDbBlockReference
  2
_DOT
 10
1275.280141144309
 20
2369.398309698006
 30
0.0
 41
3.999755859375
 42
3.999755859375
 43
3.999755859375
 50
180.0
  0
MTEXT
  5
8A
102
{ACAD_REACTORS
330
8B
102
}
330
27
100
AcDbEntity
  8
notes
  6
Continuous
 62
     0
370
     5
100
AcDbMText
 10
1490.280141144309
 20
2386.614618291756
 30
0.0
 40
24.4326171875
 41
0.0
 46
0.0
 71
     5
 72
     1
  1
\A1;430
  7
ＭＳ ゴシック
 73
     1
 44
1.0
  0
POINT
  5
8B
330
27
100
AcDbEntity
  8
Defpoints
 62
     0
100
AcDbPoint
 10
1705.280141144308
 20
2269.398309698006
 30
0.0
  0
POINT
  5
8C
330
27
100
AcDbEntity
  8
Defpoints
 62
     0
100
AcDbPoint
 10
1275.280141144309
 20
2269.398309698006
 30
0.0
  0
POINT
  5
8D
330
27
100
AcDbEntity
  8
Defpoints
 62
     0
100
AcDbPoint
 10
1275.280141144309
 20
2369.398309698006
 30
0.0
  0
ENDBLK
  5
90
330
27
100
AcDbEntity
  8
notes
390
1D
100
AcDbBlockEnd
  0
BLOCK
  5
91
330
28
100
AcDbEntity
  8
notes
390
1D
100
AcDbBlockBegin
  2
*D7
 70
     1
 10
0.0
 20
0.0
 30
0.0
  3
*D7
  1

  0
LINE
  5
92
330
28
100
AcDbEntity
  8
notes
  6
Continuous
 62
     0
370
    -2
100
AcDbLine
 10
516.0711183670992
 20
1849.396322976144
 30
0.0
 11
198.4783445548684
 21
1849.396322976144
 31
0.0
  0
LINE
  5
93
330
28
100
AcDbEntity
  8
notes
  6
Continuous
 62
     0
370
    -2
100
AcDbLine
 10
323.4783445548685
 20
2269.396322976142
 30
0.0
 11
198.4783445548684
 21
2269.396322976142
 31
0.0
  0
LINE
  5
94
330
28
100
AcDbEntity
  8
notes
  6
Continuous
 62
     0
370
    -2
100
AcDbLine
 10
198.4783445548684
 20
1853.396078835519
 30
0.0
 11
198.4783445548684
 21
2265.396567116767
 31
0.0
  0
INSERT
  5
95
102
{ACAD_REACTORS
330
96
102
}
330
28
100
AcDbEntity
  8
notes
 62
     0
370
    -2
100
AcDbBlockReference
  2
_DOT
 10
198.4783445548684
 20
1849.396322976144
 30
0.0
 41
3.999755859375
 42
3.999755859375
 43
3.999755859375
 50
270.0
  0
INSERT
  5
96
330
28
100
AcDbEntity
  8
notes
 62
     0
370
    -2
100
AcDbBlockReference
  2
_DOT
 10
198.4783445548684
 20
2269.396322976142
 30
0.0
 41
3.999755859375
 42
3.999755859375
 43
3.999755859375
 50
90.0
  0
MTEXT
  5
97
102
{ACAD_REACTORS
330
98
102
}
330
28
100
AcDbEntity
  8
notes
  6
Continuous
 62
     0
370
     5
100
AcDbMText
 10
181.2620359611184
 20
2059.396322976143
 30
0.0
 40
24.4326171875
 41
0.0
 46
0.0
 71
     5
 72
     1
  1
\A1;420
  7
ＭＳ ゴシック
 11
6.767073673905745E-17
 21
1.0
 31
0.0
 73
     1
 44
1.0
  0
POINT
  5
98
330
28
100
AcDbEntity
  8
Defpoints
 62
     0
100
AcDbPoint
 10
541.0711183670992
 20
1849.396322976144
 30
0.0
  0
POINT
  5
99
330
28
100
AcDbEntity
  8
Defpoints
 62
     0
100
AcDbPoint
 10
348.4783445548685
 20
2269.396322976142
 30
0.0
  0
POINT
  5
9A
330
28
100
AcDbEntity
  8
Defpoints
 62
     0
100
AcDbPoint
 10
198.4783445548684
 20
2269.396322976142
 30
0.0
  0
ENDBLK
  5
9D
330
28
100
AcDbEntity
  8
notes
390
1D
100
AcDbBlockEnd
  0
BLOCK
  5
9E
330
29
100
AcDbEntity
  8
notes
390
1D
100
AcDbBlockBegin
  2
*D8
 70
     1
 10
0.0
 20
0.0
 30
0.0
  3
*D8
  1

  0
LINE
  5
9F
330
29
100
AcDbEntity
  8
notes
  6
Continuous
 62
     0
370
    -2
100
AcDbLine
 10
323.4996113317576
 20
1889.397549689135
 30
0.0
 11
248.4783445548684
 21
1889.397549689135
 31
0.0
  0
LINE
  5
A0
330
29
100
AcDbEntity
  8
notes
  6
Continuous
 62
     0
370
    -2
100
AcDbLine
 10
323.4783445548685
 20
2269.396322976142
 30
0.0
 11
248.4783445548684
 21
2269.396322976142
 31
0.0
  0
LINE
  5
A1
330
29
100
AcDbEntity
  8
notes
  6
Continuous
 62
     0
370
    -2
100
AcDbLine
 10
248.4783445548684
 20
1893.39730554851
 30
0.0
 11
248.4783445548684
 21
2265.396567116767
 31
0.0
  0
INSERT
  5
A2
102
{ACAD_REACTORS
330
A3
102
}
330
29
100
AcDbEntity
  8
notes
 62
     0
370
    -2
100
AcDbBlockReference
  2
_DOT
 10
248.4783445548684
 20
1889.397549689135
 30
0.0
 41
3.999755859375
 42
3.999755859375
 43
3.999755859375
 50
270.0
  0
INSERT
  5
A3
330
29
100
AcDbEntity
  8
notes
 62
     0
370
    -2
100
AcDbBlockReference
  2
_DOT
 10
248.4783445548684
 20
2269.396322976142
 30
0.0
 41
3.999755859375
 42
3.999755859375
 43
3.999755859375
 50
90.0
  0
MTEXT
  5
A4
102
{ACAD_REACTORS
330
A5
102
}
330
29
100
AcDbEntity
  8
notes
  6
Continuous
 62
     0
370
     5
100
AcDbMText
 10
231.2620359611184
 20
2079.396936332639
 30
0.0
 40
24.4326171875
 41
0.0
 46
0.0
 71
     5
 72
     1
  1
\A1;380
  7
ＭＳ ゴシック
 11
7.479421363536235E-17
 21
1.0
 31
0.0
 73
     1
 44
1.0
  0
POINT
  5
A5
330
29
100
AcDbEntity
  8
Defpoints
 62
     0
100
AcDbPoint
 10
348.4996113317576
 20
1889.397549689135
 30
0.0
  0
POINT
  5
A6
330
29
100
AcDbEntity
  8
Defpoints
 62
     0
100
AcDbPoint
 10
348.4783445548685
 20
2269.396322976142
 30
0.0
  0
POINT
  5
A7
330
29
100
AcDbEntity
  8
Defpoints
 62
     0
100
AcDbPoint
 10
248.4783445548684
 20
2269.396322976142
 30
0.0
  0
ENDBLK
  5
AA
330
29
100
AcDbEntity
  8
notes
390
1D
100
AcDbBlockEnd
  0
BLOCK
  5
AB
330
2A
100
AcDbEntity
  8
notes
390
1D
100
AcDbBlockBegin
  2
*D9
 70
     1
 10
0.0
 20
0.0
 30
0.0
  3
*D9
  1

  0
LINE
  5
AC
330
2A
100
AcDbEntity
  8
notes
  6
Continuous
 62
     0
370
    -2
100
AcDbLine
 10
343.4783445548685
 20
1126.189328668451
 30
0.0
 11
259.4050403407133
 21
1126.189328668451
 31
0.0
  0
LINE
  5
AD
330
2A
100
AcDbEntity
  8
notes
  6
Continuous
 62
     0
370
    -2
100
AcDbLine
 10
403.4783445548685
 20
1066.189328668451
 30
0.0
 11
259.4050403407133
 21
1066.189328668451
 31
0.0
  0
LINE
  5
AE
330
2A
100
AcDbEntity
  8
notes
  6
Continuous
 62
     0
370
    -2
100
AcDbLine
 10
259.4050403407133
 20
1122.189572809076
 30
0.0
 11
259.4050403407133
 21
1070.189084527826
 31
0.0
  0
INSERT
  5
AF
102
{ACAD_REACTORS
330
B0
102
}
330
2A
100
AcDbEntity
  8
notes
 62
     0
370
    -2
100
AcDbBlockReference
  2
_DOT
 10
259.4050403407133
 20
1126.189328668451
 30
0.0
 41
3.999755859375
 42
3.999755859375
 43
3.999755859375
 50
90.0
  0
INSERT
  5
B0
330
2A
100
AcDbEntity
  8
notes
 62
     0
370
    -2
100
AcDbBlockReference
  2
_DOT
 10
259.4050403407133
 20
1066.189328668451
 30
0.0
 41
3.999755859375
 42
3.999755859375
 43
3.999755859375
 50
270.0
  0
MTEXT
  5
B1
102
{ACAD_REACTORS
330
B2
102
}
330
2A
100
AcDbEntity
  8
notes
  6
Continuous
 62
     0
370
     5
100
AcDbMText
 10
242.1887317469633
 20
1096.189328668451
 30
0.0
 40
24.4326171875
 41
0.0
 46
0.0
 71
     5
 72
     1
  1
\A1;60
  7
ＭＳ ゴシック
 11
0.0
 21
1.0
 31
0.0
 73
     1
 44
1.0
  0
POINT
  5
B2
330
2A
100
AcDbEntity
  8
Defpoints
 62
     0
100
AcDbPoint
 10
368.4783445548685
 20
1126.189328668451
 30
0.0
  0
POINT
  5
B3
330
2A
100
AcDbEntity
  8
Defpoints
 62
     0
100
AcDbPoint
 10
428.4783445548685
 20
1066.189328668451
 30
0.0
  0
POINT
  5
B4
330
2A
100
AcDbEntity
  8
Defpoints
 62
     0
100
AcDbPoint
 10
259.4050403407133
 20
1066.189328668451
 30
0.0
  0
ENDBLK
  5
B7
330
2A
100
AcDbEntity
  8
notes
390
1D
100
AcDbBlockEnd
  0
BLOCK
  5
B8
330
2B
100
AcDbEntity
  8
notes
390
1D
100
AcDbBlockBegin
  2
*D10
 70
     1
 10
0.0
 20
0.0
 30
0.0
  3
*D10
  1

  0
LINE
  5
B9
330
2B
100
AcDbEntity
  8
notes
  6
Continuous
 62
     0
370
    -2
100
AcDbLine
 10
348.4783445548685
 20
1151.189328668451
 30
0.0
 11
348.4783445548685
 21
1276.189328668451
 31
0.0
  0
LINE
  5
BA
330
2B
100
AcDbEntity
  8
notes
  6
Continuous
 62
     0
370
    -2
100
AcDbLine
 10
888.4783445548694
 20
1151.189328668451
 30
0.0
 11
888.4783445548694
 21
1276.189328668451
 31
0.0
  0
LINE
  5
BB
330
2B
100
AcDbEntity
  8
notes
  6
Continuous
 62
     0
370
    -2
100
AcDbLine
 10
352.4781004142435
 20
1276.189328668451
 30
0.0
 11
884.4785886954944
 21
1276.189328668451
 31
0.0
  0
INSERT
  5
BC
102
{ACAD_REACTORS
330
BD
102
}
330
2B
100
AcDbEntity
  8
notes
 62
     0
370
    -2
100
AcDbBlockReference
  2
_DOT
 10
348.4783445548685
 20
1276.189328668451
 30
0.0
 41
3.999755859375
 42
3.999755859375
 43
3.999755859375
 50
180.0
  0
INSERT
  5
BD
330
2B
100
AcDbEntity
  8
notes
 62
     0
370
    -2
100
AcDbBlockReference
  2
_DOT
 10
888.4783445548694
 20
1276.189328668451
 30
0.0
 41
3.999755859375
 42
3.999755859375
 43
3.999755859375
  0
MTEXT
  5
BE
102
{ACAD_REACTORS
330
BF
102
}
330
2B
100
AcDbEntity
  8
notes
  6
Continuous
 62
     0
370
     5
100
AcDbMText
 10
618.478344554869
 20
1293.405637262201
 30
0.0
 40
24.4326171875
 41
0.0
 46
0.0
 71
     5
 72
     1
  1
\A1;540
  7
ＭＳ ゴシック
 73
     1
 44
1.0
  0
POINT
  5
BF
330
2B
100
AcDbEntity
  8
Defpoints
 62
     0
100
AcDbPoint
 10
348.4783445548685
 20
1126.189328668451
 30
0.0
  0
POINT
  5
C0
330
2B
100
AcDbEntity
  8
Defpoints
 62
     0
100
AcDbPoint
 10
888.4783445548694
 20
1126.189328668451
 30
0.0
  0
POINT
  5
C1
330
2B
100
AcDbEntity
  8
Defpoints
 62
     0
100
AcDbPoint
 10
888.4783445548694
 20
1276.189328668451
 30
0.0
  0
ENDBLK
  5
C4
330
2B
100
AcDbEntity
  8
notes
390
1D
100
AcDbBlockEnd
  0
BLOCK
  5
C5
330
2C
100
AcDbEntity
  8
notes
390
1D
100
AcDbBlockBegin
  2
*D11
 70
     1
 10
0.0
 20
0.0
 30
0.0
  3
*D11
  1

  0
LINE
  5
C6
330
2C
100
AcDbEntity
  8
notes
  6
Continuous
 62
     0
370
    -2
100
AcDbLine
 10
448.4783445548685
 20
1151.189328668451
 30
0.0
 11
448.4783445548685
 21
1226.189328668451
 31
0.0
  0
LINE
  5
C7
330
2C
100
AcDbEntity
  8
notes
  6
Continuous
 62
     0
370
    -2
100
AcDbLine
 10
348.4783445548685
 20
1151.189328668451
 30
0.0
 11
348.4783445548685
 21
1226.189328668451
 31
0.0
  0
LINE
  5
C8
330
2C
100
AcDbEntity
  8
notes
  6
Continuous
 62
     0
370
    -2
100
AcDbLine
 10
444.4785886954935
 20
1226.189328668451
 30
0.0
 11
352.4781004142435
 21
1226.189328668451
 31
0.0
  0
INSERT
  5
C9
102
{ACAD_REACTORS
330
CA
102
}
330
2C
100
AcDbEntity
  8
notes
 62
     0
370
    -2
100
AcDbBlockReference
  2
_DOT
 10
448.4783445548685
 20
1226.189328668451
 30
0.0
 41
3.999755859375
 42
3.999755859375
 43
3.999755859375
  0
INSERT
  5
CA
330
2C
100
AcDbEntity
  8
notes
 62
     0
370
    -2
100
AcDbBlockReference
  2
_DOT
 10
348.4783445548685
 20
1226.189328668451
 30
0.0
 41
3.999755859375
 42
3.999755859375
 43
3.999755859375
 50
180.0
  0
MTEXT
  5
CB
102
{ACAD_REACTORS
330
CC
102
}
330
2C
100
AcDbEntity
  8
notes
  6
Continuous
 62
     0
370
     5
100
AcDbMText
 10
398.4783445548685
 20
1243.405637262201
 30
0.0
 40
24.4326171875
 41
0.0
 46
0.0
 71
     5
 72
     1
  1
\A1;100
  7
ＭＳ ゴシック
 73
     1
 44
1.0
  0
POINT
  5
CC
330
2C
100
AcDbEntity
  8
Defpoints
 62
     0
100
AcDbPoint
 10
448.4783445548685
 20
1126.189328668451
 30
0.0
  0
POINT
  5
CD
330
2C
100
AcDbEntity
  8
Defpoints
 62
     0
100
AcDbPoint
 10
348.4783445548685
 20
1126.189328668451
 30
0.0
  0
POINT
  5
CE
330
2C
100
AcDbEntity
  8
Defpoints
 62
     0
100
AcDbPoint
 10
348.4783445548685
 20
1226.189328668451
 30
0.0
  0
ENDBLK
  5
D1
330
2C
100
AcDbEntity
  8
notes
390
1D
100
AcDbBlockEnd
  0
BLOCK
  5
D2
330
2D
100
AcDbEntity
  8
notes
390
1D
100
AcDbBlockBegin
  2
*D12
 70
     1
 10
0.0
 20
0.0
 30
0.0
  3
*D12
  1

  0
LINE
  5
D3
330
2D
100
AcDbEntity
  8
notes
  6
Continuous
 62
     0
370
    -2
100
AcDbLine
 10
788.4783445548695
 20
1151.189328668451
 30
0.0
 11
788.4783445548695
 21
1226.189328668451
 31
0.0
  0
LINE
  5
D4
330
2D
100
AcDbEntity
  8
notes
  6
Continuous
 62
     0
370
    -2
100
AcDbLine
 10
888.4783445548694
 20
1151.189328668451
 30
0.0
 11
888.4783445548694
 21
1226.189328668451
 31
0.0
  0
LINE
  5
D5
330
2D
100
AcDbEntity
  8
notes
  6
Continuous
 62
     0
370
    -2
100
AcDbLine
 10
792.4781004142445
 20
1226.189328668451
 30
0.0
 11
884.4785886954944
 21
1226.189328668451
 31
0.0
  0
INSERT
  5
D6
102
{ACAD_REACTORS
330
D7
102
}
330
2D
100
AcDbEntity
  8
notes
 62
     0
370
    -2
100
AcDbBlockReference
  2
_DOT
 10
788.4783445548695
 20
1226.189328668451
 30
0.0
 41
3.999755859375
 42
3.999755859375
 43
3.999755859375
 50
180.0
  0
INSERT
  5
D7
330
2D
100
AcDbEntity
  8
notes
 62
     0
370
    -2
100
AcDbBlockReference
  2
_DOT
 10
888.4783445548694
 20
1226.189328668451
 30
0.0
 41
3.999755859375
 42
3.999755859375
 43
3.999755859375
  0
MTEXT
  5
D8
102
{ACAD_REACTORS
330
D9
102
}
330
2D
100
AcDbEntity
  8
notes
  6
Continuous
 62
     0
370
     5
100
AcDbMText
 10
838.4783445548694
 20
1243.405637262201
 30
0.0
 40
24.4326171875
 41
0.0
 46
0.0
 71
     5
 72
     1
  1
\A1;100
  7
ＭＳ ゴシック
 73
     1
 44
1.0
  0
POINT
  5
D9
330
2D
100
AcDbEntity
  8
Defpoints
 62
     0
100
AcDbPoint
 10
788.4783445548695
 20
1126.189328668451
 30
0.0
  0
POINT
  5
DA
330
2D
100
AcDbEntity
  8
Defpoints
 62
     0
100
AcDbPoint
 10
888.4783445548694
 20
1126.189328668451
 30
0.0
  0
POINT
  5
DB
330
2D
100
AcDbEntity
  8
Defpoints
 62
     0
100
AcDbPoint
 10
888.4783445548694
 20
1226.189328668451
 30
0.0
  0
ENDBLK
  5
DE
330
2D
100
AcDbEntity
  8
notes
390
1D
100
AcDbBlockEnd
  0
BLOCK
  5
DF
330
2E
100
AcDbEntity
  8
notes
390
1D
100
AcDbBlockBegin
  2
*D13
 70
     1
 10
0.0
 20
0.0
 30
0.0
  3
*D13
  1

  0
LINE
  5
E0
330
2E
100
AcDbEntity
  8
0
  6
Continuous
 62
     0
370
    -2
390
1D
100
AcDbLine
 10
421.4253538928998
 20
-377.8207995629725
 30
0.0
 11
401.4253538928998
 21
-377.8207995629725
 31
0.0
  0
LINE
  5
E1
330
2E
100
AcDbEntity
  8
0
  6
Continuous
 62
     0
370
    -2
390
1D
100
AcDbLine
 10
421.4253538928998
 20
-467.8207995629734
 30
0.0
 11
401.4253538928998
 21
-467.8207995629734
 31
0.0
  0
LINE
  5
E2
330
2E
100
AcDbEntity
  8
0
  6
Continuous
 62
     0
370
    -2
390
1D
100
AcDbLine
 10
401.4253538928998
 20
-377.8207995629725
 30
0.0
 11
401.4253538928998
 21
-243.3152460635077
 31
0.0
  0
LINE
  5
E3
330
2E
100
AcDbEntity
  8
0
  6
Continuous
 62
     0
370
    -2
390
1D
100
AcDbLine
 10
401.4253538928998
 20
-377.8207995629725
 30
0.0
 11
401.4253538928998
 21
-467.8207995629734
 31
0.0
  0
CIRCLE
  5
E4
102
{ACAD_REACTORS
330
E5
102
}
330
2E
100
AcDbEntity
  8
0
  6
Continuous
 62
     0
370
    -2
390
1D
100
AcDbCircle
 10
401.4253538928998
 20
-377.8207995629725
 30
0.0
 40
1.9998779296875
  0
HATCH
  5
E5
330
2E
100
AcDbEntity
  8
0
  6
Continuous
 62
     0
370
    -2
390
1D
100
AcDbHatch
 10
0.0
 20
0.0
 30
0.0
210
0.0
220
0.0
230
1.0
  2
SOLID
 70
     1
 71
     1
 91
        1
 92
        1
 93
        1
 72
     2
 10
401.4253538928998
 20
-377.8207995629725
 40
1.9998779296875
 50
0.0
 51
360.0
 73
     0
 97
        1
330
E4
 75
     0
 76
     1
 98
        1
 10
0.0
 20
0.0
  0
CIRCLE
  5
E6
102
{ACAD_REACTORS
330
E7
102
}
330
2E
100
AcDbEntity
  8
0
  6
Continuous
 62
     0
370
    -2
390
1D
100
AcDbCircle
 10
401.4253538928998
 20
-467.8207995629734
 30
0.0
 40
1.9998779296875
  0
HATCH
  5
E7
330
2E
100
AcDbEntity
  8
0
  6
Continuous
 62
     0
370
    -2
390
1D
100
AcDbHatch
 10
0.0
 20
0.0
 30
0.0
210
0.0
220
0.0
230
1.0
  2
SOLID
 70
     1
 71
     1
 91
        1
 92
        1
 93
        1
 72
     2
 10
401.4253538928998
 20
-467.8207995629734
 40
1.9998779296875
 50
0.0
 51
360.0
 73
     0
 97
        1
330
E6
 75
     0
 76
     1
 98
        1
 10
0.0
 20
0.0
  0
MTEXT
  5
E8
330
2E
100
AcDbEntity
  8
0
 62
     0
390
1D
100
AcDbMText
 10
367.5477367053998
 20
-370.3152460635073
 30
0.0
 40
24.4326171875
 41
0.0
 46
0.0
 71
     1
 72
     1
  1
90(深さ)
  7
ＭＳ ゴシック
 11
0.0
 21
1.0
 31
0.0
 73
     1
 44
0.7828267384257843
  0
POINT
  5
E9
330
2E
100
AcDbEntity
  8
Defpoints
 62
     0
370
     0
390
1D
100
AcDbPoint
 10
396.4253538928998
 20
-467.8207995629734
 30
0.0
  0
POINT
  5
EA
330
2E
100
AcDbEntity
  8
Defpoints
 62
     0
370
     0
390
1D
100
AcDbPoint
 10
396.4253538928998
 20
-377.8207995629725
 30
0.0
  0
POINT
  5
EB
330
2E
100
AcDbEntity
  8
Defpoints
 62
     0
370
     0
390
1D
100
AcDbPoint
 10
401.4253538928998
 20
-377.8207995629725
 30
0.0
  0
ENDBLK
  5
EC
330
2E
100
AcDbEntity
  8
notes
390
1D
100
AcDbBlockEnd
  0
BLOCK
  5
ED
330
2F
100
AcDbEntity
  8
notes
390
1D
100
AcDbBlockBegin
  2
*D14
 70
     1
 10
0.0
 20
0.0
 30
0.0
  3
*D14
  1

  0
LINE
  5
EE
330
2F
100
AcDbEntity
  8
notes
  6
Continuous
 62
     0
370
    -2
100
AcDbLine
 10
915.4050403407141
 20
1914.415733255015
 30
0.0
 11
1038.505040340714
 21
1914.415733255015
 31
0.0
  0
LINE
  5
EF
330
2F
100
AcDbEntity
  8
notes
  6
Continuous
 62
     0
370
    -2
100
AcDbLine
 10
915.4050403407141
 20
2269.415733255013
 30
0.0
 11
1038.505040340714
 21
2269.415733255013
 31
0.0
  0
LINE
  5
F0
330
2F
100
AcDbEntity
  8
notes
  6
Continuous
 62
     0
370
    -2
100
AcDbLine
 10
1038.505040340714
 20
1918.41548911439
 30
0.0
 11
1038.505040340714
 21
2265.415977395638
 31
0.0
  0
INSERT
  5
F1
102
{ACAD_REACTORS
330
F2
102
}
330
2F
100
AcDbEntity
  8
notes
 62
     0
370
    -2
100
AcDbBlockReference
  2
_DOT
 10
1038.505040340714
 20
1914.415733255015
 30
0.0
 41
3.999755859375
 42
3.999755859375
 43
3.999755859375
 50
270.0
  0
INSERT
  5
F2
330
2F
100
AcDbEntity
  8
notes
 62
     0
370
    -2
100
AcDbBlockReference
  2
_DOT
 10
1038.505040340714
 20
2269.415733255013
 30
0.0
 41
3.999755859375
 42
3.999755859375
 43
3.999755859375
 50
90.0
  0
MTEXT
  5
F3
102
{ACAD_REACTORS
330
F4
102
}
330
2F
100
AcDbEntity
  8
notes
  6
Continuous
 62
     0
370
     5
100
AcDbMText
 10
1021.288731746964
 20
2091.915733255014
 30
0.0
 40
24.4326171875
 41
0.0
 46
0.0
 71
     5
 72
     1
  1
\A1;355
  7
ＭＳ ゴシック
 11
0.0
 21
1.0
 31
0.0
 73
     1
 44
1.0
  0
POINT
  5
F4
330
2F
100
AcDbEntity
  8
Defpoints
 62
     0
100
AcDbPoint
 10
890.4050403407141
 20
1914.415733255015
 30
0.0
  0
POINT
  5
F5
330
2F
100
AcDbEntity
  8
Defpoints
 62
     0
100
AcDbPoint
 10
890.4050403407141
 20
2269.415733255013
 30
0.0
  0
POINT
  5
F6
330
2F
100
AcDbEntity
  8
Defpoints
 62
     0
100
AcDbPoint
 10
1038.505040340714
 20
2269.415733255013
 30
0.0
  0
ENDBLK
  5
F9
330
2F
100
AcDbEntity
  8
notes
390
1D
100
AcDbBlockEnd
  0
BLOCK
  5
FA
330
30
100
AcDbEntity
  8
notes
390
1D
100
AcDbBlockBegin
  2
*D15
 70
     1
 10
0.0
 20
0.0
 30
0.0
  3
*D15
  1

  0
LINE
  5
FB
330
30
100
AcDbEntity
  8
notes
  6
Continuous
 62
     0
370
    -2
100
AcDbLine
 10
913.5050403407142
 20
2269.416518752964
 30
0.0
 11
988.5050403407145
 21
2269.416518752964
 31
0.0
  0
LINE
  5
FC
330
30
100
AcDbEntity
  8
notes
  6
Continuous
 62
     0
370
    -2
100
AcDbLine
 10
779.0056281063577
 20
2199.416518752964
 30
0.0
 11
988.5050403407145
 21
2199.416518752964
 31
0.0
  0
LINE
  5
FD
330
30
100
AcDbEntity
  8
notes
  6
Continuous
 62
     0
370
    -2
100
AcDbLine
 10
988.5050403407145
 20
2265.416762893589
 30
0.0
 11
988.5050403407145
 21
2203.416274612339
 31
0.0
  0
INSERT
  5
FE
102
{ACAD_REACTORS
330
FF
102
}
330
30
100
AcDbEntity
  8
notes
 62
     0
370
    -2
100
AcDbBlockReference
  2
_DOT
 10
988.5050403407145
 20
2269.416518752964
 30
0.0
 41
3.999755859375
 42
3.999755859375
 43
3.999755859375
 50
90.0
  0
INSERT
  5
FF
330
30
100
AcDbEntity
  8
notes
 62
     0
370
    -2
100
AcDbBlockReference
  2
_DOT
 10
988.5050403407145
 20
2199.416518752964
 30
0.0
 41
3.999755859375
 42
3.999755859375
 43
3.999755859375
 50
270.0
  0
MTEXT
  5
100
102
{ACAD_REACTORS
330
101
102
}
330
30
100
AcDbEntity
  8
notes
  6
Continuous
 62
     0
370
     5
100
AcDbMText
 10
971.2887317469645
 20
2234.416518752964
 30
0.0
 40
24.4326171875
 41
0.0
 46
0.0
 71
     5
 72
     1
  1
\A1;70
  7
ＭＳ ゴシック
 11
0.0
 21
1.0
 31
0.0
 73
     1
 44
1.0
  0
POINT
  5
101
330
30
100
AcDbEntity
  8
Defpoints
 62
     0
100
AcDbPoint
 10
888.5050403407142
 20
2269.416518752964
 30
0.0
  0
POINT
  5
102
330
30
100
AcDbEntity
  8
Defpoints
 62
     0
100
AcDbPoint
 10
754.0056281063577
 20
2199.416518752964
 30
0.0
  0
POINT
  5
103
330
30
100
AcDbEntity
  8
Defpoints
 62
     0
100
AcDbPoint
 10
988.5050403407145
 20
2199.416518752964
 30
0.0
  0
ENDBLK
  5
106
330
30
100
AcDbEntity
  8
notes
390
1D
100
AcDbBlockEnd
  0
BLOCK
  5
107
330
31
100
AcDbEntity
  8
notes
390
1D
100
AcDbBlockBegin
  2
*D16
 70
     1
 10
0.0
 20
0.0
 30
0.0
  3
*D16
  1

  0
LINE
  5
108
330
31
100
AcDbEntity
  8
notes
  6
Continuous
 62
     0
370
    -2
100
AcDbLine
 10
888.480141144309
 20
1001.181923683237
 30
0.0
 11
995.4050403407142
 21
1001.181923683237
 31
0.0
  0
LINE
  5
109
330
31
100
AcDbEntity
  8
notes
  6
Continuous
 62
     0
370
    -2
100
AcDbLine
 10
913.4783445548694
 20
1126.189328668451
 30
0.0
 11
995.4050403407142
 21
1126.189328668451
 31
0.0
  0
LINE
  5
10A
330
31
100
AcDbEntity
  8
notes
  6
Continuous
 62
     0
370
    -2
100
AcDbLine
 10
995.4050403407142
 20
1005.181679542612
 30
0.0
 11
995.4050403407142
 21
1122.189572809076
 31
0.0
  0
INSERT
  5
10B
102
{ACAD_REACTORS
330
10C
102
}
330
31
100
AcDbEntity
  8
notes
 62
     0
370
    -2
100
AcDbBlockReference
  2
_DOT
 10
995.4050403407142
 20
1001.181923683237
 30
0.0
 41
3.999755859375
 42
3.999755859375
 43
3.999755859375
 50
270.0
  0
INSERT
  5
10C
330
31
100
AcDbEntity
  8
notes
 62
     0
370
    -2
100
AcDbBlockReference
  2
_DOT
 10
995.4050403407142
 20
1126.189328668451
 30
0.0
 41
3.999755859375
 42
3.999755859375
 43
3.999755859375
 50
90.0
  0
MTEXT
  5
10D
102
{ACAD_REACTORS
330
10E
102
}
330
31
100
AcDbEntity
  8
notes
  6
Continuous
 62
     0
370
     5
100
AcDbMText
 10
978.1887317469642
 20
1063.685626175844
 30
0.0
 40
24.4326171875
 41
0.0
 46
0.0
 71
     5
 72
     1
  1
\A1;125
  7
ＭＳ ゴシック
 11
0.0
 21
1.0
 31
0.0
 73
     1
 44
1.0
  0
POINT
  5
10E
330
31
100
AcDbEntity
  8
Defpoints
 62
     0
100
AcDbPoint
 10
863.480141144309
 20
1001.181923683237
 30
0.0
  0
POINT
  5
10F
330
31
100
AcDbEntity
  8
Defpoints
 62
     0
100
AcDbPoint
 10
888.4783445548694
 20
1126.189328668451
 30
0.0
  0
POINT
  5
110
330
31
100
AcDbEntity
  8
Defpoints
 62
     0
100
AcDbPoint
 10
995.4050403407142
 20
1126.189328668451
 30
0.0
  0
ENDBLK
  5
113
330
31
100
AcDbEntity
  8
notes
390
1D
100
AcDbBlockEnd
  0
BLOCK
  5
114
330
32
100
AcDbEntity
  8
notes
390
1D
100
AcDbBlockBegin
  2
*D17
 70
     1
 10
0.0
 20
0.0
 30
0.0
  3
*D17
  1

  0
LINE
  5
115
330
32
100
AcDbEntity
  8
0
  6
Continuous
 62
     0
370
    -2
390
1D
100
AcDbLine
 10
-179.5734349393643
 20
-527.8282045481868
 30
0.0
 11
-179.5734349393643
 21
-652.8282045481868
 31
0.0
  0
LINE
  5
116
330
32
100
AcDbEntity
  8
0
  6
Continuous
 62
     0
370
    -2
390
1D
100
AcDbLine
 10
-669.5734349393651
 20
-527.8282045481868
 30
0.0
 11
-669.5734349393651
 21
-652.8282045481868
 31
0.0
  0
LINE
  5
117
330
32
100
AcDbEntity
  8
0
  6
Continuous
 62
     0
370
    -2
390
1D
100
AcDbLine
 10
-179.5734349393643
 20
-652.8282045481868
 30
0.0
 11
-669.5734349393651
 21
-652.8282045481868
 31
0.0
  0
CIRCLE
  5
118
102
{ACAD_REACTORS
330
119
102
}
330
32
100
AcDbEntity
  8
0
  6
Continuous
 62
     0
370
    -2
390
1D
100
AcDbCircle
 10
-179.5734349393643
 20
-652.8282045481868
 30
0.0
 40
1.9998779296875
  0
HATCH
  5
119
330
32
100
AcDbEntity
  8
0
  6
Continuous
 62
     0
370
    -2
390
1D
100
AcDbHatch
 10
0.0
 20
0.0
 30
0.0
210
0.0
220
0.0
230
1.0
  2
SOLID
 70
     1
 71
     1
 91
        1
 92
        1
 93
        1
 72
     2
 10
-179.5734349393643
 20
-652.8282045481868
 40
1.9998779296875
 50
0.0
 51
360.0
 73
     0
 97
        1
330
118
 75
     0
 76
     1
 98
        1
 10
0.0
 20
0.0
  0
CIRCLE
  5
11A
102
{ACAD_REACTORS
330
11B
102
}
330
32
100
AcDbEntity
  8
0
  6
Continuous
 62
     0
370
    -2
390
1D
100
AcDbCircle
 10
-669.5734349393651
 20
-652.8282045481868
 30
0.0
 40
1.9998779296875
  0
HATCH
  5
11B
330
32
100
AcDbEntity
  8
0
  6
Continuous
 62
     0
370
    -2
390
1D
100
AcDbHatch
 10
0.0
 20
0.0
 30
0.0
210
0.0
220
0.0
230
1.0
  2
SOLID
 70
     1
 71
     1
 91
        1
 92
        1
 93
        1
 72
     2
 10
-669.5734349393651
 20
-652.8282045481868
 40
1.9998779296875
 50
0.0
 51
360.0
 73
     0
 97
        1
330
11A
 75
     0
 76
     1
 98
        1
 10
0.0
 20
0.0
  0
MTEXT
  5
11C
330
32
100
AcDbEntity
  8
0
 62
     0
390
1D
100
AcDbMText
 10
-453.6377297579828
 20
-618.9505873606868
 30
0.0
 40
24.4326171875
 41
0.0
 46
0.0
 71
     1
 72
     1
  1
490
  7
ＭＳ ゴシック
 73
     1
 44
0.7828267384257843
  0
POINT
  5
11D
330
32
100
AcDbEntity
  8
Defpoints
 62
     0
370
     0
390
1D
100
AcDbPoint
 10
-669.5734349393651
 20
-502.8282045481868
 30
0.0
  0
POINT
  5
11E
330
32
100
AcDbEntity
  8
Defpoints
 62
     0
370
     0
390
1D
100
AcDbPoint
 10
-179.5734349393643
 20
-502.8282045481868
 30
0.0
  0
POINT
  5
11F
330
32
100
AcDbEntity
  8
Defpoints
 62
     0
370
     0
390
1D
100
AcDbPoint
 10
-179.5734349393643
 20
-652.8282045481868
 30
0.0
  0
ENDBLK
  5
120
330
32
100
AcDbEntity
  8
notes
390
1D
100
AcDbBlockEnd
  0
BLOCK
  5
121
330
33
100
AcDbEntity
  8
notes
390
1D
100
AcDbBlockBegin
  2
*D18
 70
     1
 10
0.0
 20
0.0
 30
0.0
  3
*D18
  1

  0
LINE
  5
122
330
33
100
AcDbEntity
  8
notes
  6
Continuous
 62
     0
370
    -2
100
AcDbLine
 10
558.4783445548699
 20
981.1893286684506
 30
0.0
 11
558.4783445548699
 21
901.1819236832381
 31
0.0
  0
LINE
  5
123
330
33
100
AcDbEntity
  8
notes
  6
Continuous
 62
     0
370
    -2
100
AcDbLine
 10
348.4783445548685
 20
1101.189328668451
 30
0.0
 11
348.4783445548685
 21
901.1819236832381
 31
0.0
  0
LINE
  5
124
330
33
100
AcDbEntity
  8
notes
  6
Continuous
 62
     0
370
    -2
100
AcDbLine
 10
554.4785886954949
 20
901.1819236832381
 30
0.0
 11
352.4781004142435
 21
901.1819236832381
 31
0.0
  0
INSERT
  5
125
102
{ACAD_REACTORS
330
126
102
}
330
33
100
AcDbEntity
  8
notes
 62
     0
370
    -2
100
AcDbBlockReference
  2
_DOT
 10
558.4783445548699
 20
901.1819236832381
 30
0.0
 41
3.999755859375
 42
3.999755859375
 43
3.999755859375
  0
INSERT
  5
126
330
33
100
AcDbEntity
  8
notes
 62
     0
370
    -2
100
AcDbBlockReference
  2
_DOT
 10
348.4783445548685
 20
901.1819236832381
 30
0.0
 41
3.999755859375
 42
3.999755859375
 43
3.999755859375
 50
180.0
  0
MTEXT
  5
127
102
{ACAD_REACTORS
330
128
102
}
330
33
100
AcDbEntity
  8
notes
  6
Continuous
 62
     0
370
     5
100
AcDbMText
 10
453.4783445548692
 20
918.3982322769881
 30
0.0
 40
24.4326171875
 41
0.0
 46
0.0
 71
     5
 72
     1
  1
\A1;210
  7
ＭＳ ゴシック
 73
     1
 44
1.0
  0
POINT
  5
128
330
33
100
AcDbEntity
  8
Defpoints
 62
     0
100
AcDbPoint
 10
558.4783445548699
 20
1006.189328668451
 30
0.0
  0
POINT
  5
129
330
33
100
AcDbEntity
  8
Defpoints
 62
     0
100
AcDbPoint
 10
348.4783445548685
 20
1126.189328668451
 30
0.0
  0
POINT
  5
12A
330
33
100
AcDbEntity
  8
Defpoints
 62
     0
100
AcDbPoint
 10
348.4783445548685
 20
901.1819236832381
 30
0.0
  0
ENDBLK
  5
12D
330
33
100
AcDbEntity
  8
notes
390
1D
100
AcDbBlockEnd
  0
BLOCK
  5
12E
330
34
100
AcDbEntity
  8
notes
390
1D
100
AcDbBlockBegin
  2
*D19
 70
     1
 10
0.0
 20
0.0
 30
0.0
  3
*D19
  1

  0
LINE
  5
12F
330
34
100
AcDbEntity
  8
notes
  6
Continuous
 62
     0
370
    -2
100
AcDbLine
 10
1443.478929976573
 20
981.1893286684506
 30
0.0
 11
1443.478929976573
 21
901.1819236832372
 31
0.0
  0
LINE
  5
130
330
34
100
AcDbEntity
  8
notes
  6
Continuous
 62
     0
370
    -2
100
AcDbLine
 10
1663.478929976571
 20
981.1893286684506
 30
0.0
 11
1663.478929976571
 21
901.1819236832372
 31
0.0
  0
LINE
  5
131
330
34
100
AcDbEntity
  8
notes
  6
Continuous
 62
     0
370
    -2
100
AcDbLine
 10
1447.478685835948
 20
901.1819236832372
 30
0.0
 11
1659.479174117196
 21
901.1819236832372
 31
0.0
  0
INSERT
  5
132
102
{ACAD_REACTORS
330
133
102
}
330
34
100
AcDbEntity
  8
notes
 62
     0
370
    -2
100
AcDbBlockReference
  2
_DOT
 10
1443.478929976573
 20
901.1819236832372
 30
0.0
 41
3.999755859375
 42
3.999755859375
 43
3.999755859375
 50
180.0
  0
INSERT
  5
133
330
34
100
AcDbEntity
  8
notes
 62
     0
370
    -2
100
AcDbBlockReference
  2
_DOT
 10
1663.478929976571
 20
901.1819236832372
 30
0.0
 41
3.999755859375
 42
3.999755859375
 43
3.999755859375
  0
MTEXT
  5
134
102
{ACAD_REACTORS
330
135
102
}
330
34
100
AcDbEntity
  8
notes
  6
Continuous
 62
     0
370
     5
100
AcDbMText
 10
1553.478929976572
 20
918.3982322769872
 30
0.0
 40
24.4326171875
 41
0.0
 46
0.0
 71
     5
 72
     1
  1
\A1;220
  7
ＭＳ ゴシック
 73
     1
 44
1.0
  0
POINT
  5
135
330
34
100
AcDbEntity
  8
Defpoints
 62
     0
100
AcDbPoint
 10
1443.478929976573
 20
1006.189328668451
 30
0.0
  0
POINT
  5
136
330
34
100
AcDbEntity
  8
Defpoints
 62
     0
100
AcDbPoint
 10
1663.478929976571
 20
1006.189328668451
 30
0.0
  0
POINT
  5
137
330
34
100
AcDbEntity
  8
Defpoints
 62
     0
100
AcDbPoint
 10
1663.478929976571
 20
901.1819236832372
 30
0.0
  0
ENDBLK
  5
13A
330
34
100
AcDbEntity
  8
notes
390
1D
100
AcDbBlockEnd
  0
BLOCK
  5
13B
330
35
100
AcDbEntity
  8
notes
390
1D
100
AcDbBlockBegin
  2
*D20
 70
     1
 10
0.0
 20
0.0
 30
0.0
  3
*D20
  1

  0
LINE
  5
13C
330
35
100
AcDbEntity
  8
notes
  6
Continuous
 62
     0
370
    -2
100
AcDbLine
 10
1730.280141144308
 20
1999.398309698008
 30
0.0
 11
1860.182718304689
 21
1999.398309698008
 31
0.0
  0
LINE
  5
13D
330
35
100
AcDbEntity
  8
notes
  6
Continuous
 62
     0
370
    -2
100
AcDbLine
 10
1730.280141144308
 20
2269.398309698006
 30
0.0
 11
1860.182718304689
 21
2269.398309698006
 31
0.0
  0
LINE
  5
13E
330
35
100
AcDbEntity
  8
notes
  6
Continuous
 62
     0
370
    -2
100
AcDbLine
 10
1860.182718304689
 20
2003.398065557383
 30
0.0
 11
1860.182718304689
 21
2265.398553838631
 31
0.0
  0
INSERT
  5
13F
102
{ACAD_REACTORS
330
140
102
}
330
35
100
AcDbEntity
  8
notes
 62
     0
370
    -2
100
AcDbBlockReference
  2
_DOT
 10
1860.182718304689
 20
1999.398309698008
 30
0.0
 41
3.999755859375
 42
3.999755859375
 43
3.999755859375
 50
270.0
  0
INSERT
  5
140
330
35
100
AcDbEntity
  8
notes
 62
     0
370
    -2
100
AcDbBlockReference
  2
_DOT
 10
1860.182718304689
 20
2269.398309698006
 30
0.0
 41
3.999755859375
 42
3.999755859375
 43
3.999755859375
 50
90.0
  0
MTEXT
  5
141
102
{ACAD_REACTORS
330
142
102
}
330
35
100
AcDbEntity
  8
notes
  6
Continuous
 62
     0
370
     5
100
AcDbMText
 10
1842.966409710939
 20
2134.398309698007
 30
0.0
 40
24.4326171875
 41
0.0
 46
0.0
 71
     5
 72
     1
  1
\A1;270
  7
ＭＳ ゴシック
 11
0.0
 21
1.0
 31
0.0
 73
     1
 44
1.0
  0
POINT
  5
142
330
35
100
AcDbEntity
  8
Defpoints
 62
     0
100
AcDbPoint
 10
1705.280141144308
 20
1999.398309698008
 30
0.0
  0
POINT
  5
143
330
35
100
AcDbEntity
  8
Defpoints
 62
     0
100
AcDbPoint
 10
1705.280141144308
 20
2269.398309698006
 30
0.0
  0
POINT
  5
144
330
35
100
AcDbEntity
  8
Defpoints
 62
     0
100
AcDbPoint
 10
1860.182718304689
 20
2269.398309698006
 30
0.0
  0
ENDBLK
  5
147
330
35
100
AcDbEntity
  8
notes
390
1D
100
AcDbBlockEnd
  0
BLOCK
  5
148
330
36
100
AcDbEntity
  8
notes
390
1D
100
AcDbBlockBegin
  2
*D21
 70
     1
 10
0.0
 20
0.0
 30
0.0
  3
*D21
  1

  0
LINE
  5
149
330
36
100
AcDbEntity
  8
notes
  6
Continuous
 62
     0
370
    -2
100
AcDbLine
 10
1298.478929976573
 20
981.1893286684506
 30
0.0
 11
1298.478929976573
 21
851.1819236832372
 31
0.0
  0
LINE
  5
14A
330
36
100
AcDbEntity
  8
notes
  6
Continuous
 62
     0
370
    -2
100
AcDbLine
 10
1663.478929976571
 20
981.1893286684506
 30
0.0
 11
1663.478929976571
 21
851.1819236832372
 31
0.0
  0
LINE
  5
14B
330
36
100
AcDbEntity
  8
notes
  6
Continuous
 62
     0
370
    -2
100
AcDbLine
 10
1302.478685835948
 20
851.1819236832372
 30
0.0
 11
1659.479174117196
 21
851.1819236832372
 31
0.0
  0
INSERT
  5
14C
102
{ACAD_REACTORS
330
14D
102
}
330
36
100
AcDbEntity
  8
notes
 62
     0
370
    -2
100
AcDbBlockReference
  2
_DOT
 10
1298.478929976573
 20
851.1819236832372
 30
0.0
 41
3.999755859375
 42
3.999755859375
 43
3.999755859375
 50
180.0
  0
INSERT
  5
14D
330
36
100
AcDbEntity
  8
notes
 62
     0
370
    -2
100
AcDbBlockReference
  2
_DOT
 10
1663.478929976571
 20
851.1819236832372
 30
0.0
 41
3.999755859375
 42
3.999755859375
 43
3.999755859375
  0
MTEXT
  5
14E
102
{ACAD_REACTORS
330
14F
102
}
330
36
100
AcDbEntity
  8
notes
  6
Continuous
 62
     0
370
     5
100
AcDbMText
 10
1480.978929976572
 20
868.3982322769872
 30
0.0
 40
24.4326171875
 41
0.0
 46
0.0
 71
     5
 72
     1
  1
\A1;365
  7
ＭＳ ゴシック
 73
     1
 44
1.0
  0
POINT
  5
14F
330
36
100
AcDbEntity
  8
Defpoints
 62
     0
100
AcDbPoint
 10
1298.478929976573
 20
1006.189328668451
 30
0.0
  0
POINT
  5
150
330
36
100
AcDbEntity
  8
Defpoints
 62
     0
100
AcDbPoint
 10
1663.478929976571
 20
1006.189328668451
 30
0.0
  0
POINT
  5
151
330
36
100
AcDbEntity
  8
Defpoints
 62
     0
100
AcDbPoint
 10
1663.478929976571
 20
851.1819236832372
 30
0.0
  0
ENDBLK
  5
154
330
36
100
AcDbEntity
  8
notes
390
1D
100
AcDbBlockEnd
  0
BLOCK
  5
155
330
37
100
AcDbEntity
  8
KUF70-0001
390
1D
100
AcDbBlockBegin
  2
*D22
 70
     1
 10
0.0
 20
0.0
 30
0.0
  3
*D22
  1

  0
LINE
  5
156
330
37
100
AcDbEntity
  8
KUF70-0001
  6
Continuous
 62
     0
370
    -2
100
AcDbLine
 10
1266.876882950815
 20
1016.189328668451
 30
0.0
 11
1167.053576083673
 21
1016.189328668451
 31
0.0
  0
LINE
  5
157
330
37
100
AcDbEntity
  8
KUF70-0001
  6
Continuous
 62
     0
370
    -2
100
AcDbLine
 10
1218.480141144309
 20
1126.181923683238
 30
0.0
 11
1167.053576083673
 21
1126.181923683238
 31
0.0
  0
LINE
  5
158
330
37
100
AcDbEntity
  8
KUF70-0001
  6
Continuous
 62
     0
370
    -2
100
AcDbLine
 10
1167.053576083673
 20
1020.189084527826
 30
0.0
 11
1167.053576083673
 21
1122.182167823863
 31
0.0
  0
INSERT
  5
159
102
{ACAD_REACTORS
330
15A
102
}
330
37
100
AcDbEntity
  8
KUF70-0001
 62
     0
370
    -2
100
AcDbBlockReference
  2
_DOT
 10
1167.053576083673
 20
1016.189328668451
 30
0.0
 41
3.999755859375
 42
3.999755859375
 43
3.999755859375
 50
270.0
  0
INSERT
  5
15A
330
37
100
AcDbEntity
  8
KUF70-0001
 62
     0
370
    -2
100
AcDbBlockReference
  2
_DOT
 10
1167.053576083673
 20
1126.181923683238
 30
0.0
 41
3.999755859375
 42
3.999755859375
 43
3.999755859375
 50
90.0
  0
MTEXT
  5
15B
102
{ACAD_REACTORS
330
15C
102
}
330
37
100
AcDbEntity
  8
KUF70-0001
  6
Continuous
 62
     0
370
     5
100
AcDbMText
 10
1149.837267489923
 20
1071.185626175844
 30
0.0
 40
24.4326171875
 41
0.0
 46
0.0
 71
     5
 72
     1
  1
\A1;110
  7
ＭＳ ゴシック
 11
0.0
 21
1.0
 31
0.0
 73
     1
 44
1.0
  0
POINT
  5
15C
330
37
100
AcDbEntity
  8
Defpoints
 62
     0
100
AcDbPoint
 10
1291.876882950815
 20
1016.189328668451
 30
0.0
  0
POINT
  5
15D
330
37
100
AcDbEntity
  8
Defpoints
 62
     0
100
AcDbPoint
 10
1243.480141144309
 20
1126.181923683238
 30
0.0
  0
POINT
  5
15E
330
37
100
AcDbEntity
  8
Defpoints
 62
     0
100
AcDbPoint
 10
1167.053576083673
 20
1126.181923683238
 30
0.0
  0
ENDBLK
  5
161
330
37
100
AcDbEntity
  8
KUF70-0001
390
1D
100
AcDbBlockEnd
  0
BLOCK
  5
238
330
237
100
AcDbEntity
  8
notes
390
1D
100
AcDbBlockBegin
  2
*D24
 70
     1
 10
0.0
 20
0.0
 30
0.0
  3
*D24
  1
*D3
  0
LINE
  5
239
330
237
100
AcDbEntity
  8
notes
  6
Continuous
 62
     0
370
    -2
100
AcDbLine
 10
95.98829552526968
 20
130.680352547903
 30
0.0
 11
95.98829552526968
 21
130.7390964386485
 31
0.0
  0
LINE
  5
23A
330
237
100
AcDbEntity
  8
notes
  6
Continuous
 62
     0
370
    -2
100
AcDbLine
 10
23.98828530343991
 20
130.7383920973105
 30
0.0
 11
23.98828530343991
 21
130.7390964386485
 31
0.0
  0
LINE
  5
23B
330
237
100
AcDbEntity
  8
notes
  6
Continuous
 62
     0
370
    -2
100
AcDbLine
 10
91.98853966589468
 20
130.7390964386485
 30
0.0
 11
27.98804116281491
 21
130.7390964386485
 31
0.0
  0
INSERT
  5
23C
102
{ACAD_REACTORS
330
23D
102
}
330
237
100
AcDbEntity
  8
notes
 62
     0
370
    -2
100
AcDbBlockReference
  2
_DOT
 10
95.98829552526968
 20
130.7390964386485
 30
0.0
 41
3.999755859375
 42
3.999755859375
 43
3.999755859375
  0
INSERT
  5
23D
330
237
100
AcDbEntity
  8
notes
 62
     0
370
    -2
100
AcDbBlockReference
  2
_DOT
 10
23.98828530343991
 20
130.7390964386485
 30
0.0
 41
3.999755859375
 42
3.999755859375
 43
3.999755859375
 50
180.0
  0
MTEXT
  5
23E
102
{ACAD_REACTORS
330
23F
102
}
330
237
100
AcDbEntity
  8
notes
  6
Continuous
 62
     0
370
     5
100
AcDbMText
 10
59.98829041435479
 20
145.434447024586
 30
0.0
 40
24.4326171875
 41
0.0
 46
0.0
 71
     5
 72
     1
  1
\A1;φ72
  7
ＭＳ ゴシック
 73
     1
 44
1.0
  0
POINT
  5
23F
330
237
100
AcDbEntity
  8
Defpoints
 62
     0
100
AcDbPoint
 10
95.98829552526968
 20
105.680352547903
 30
0.0
  0
POINT
  5
240
330
237
100
AcDbEntity
  8
Defpoints
 62
     0
100
AcDbPoint
 10
23.98828530343991
 20
105.7383920973105
 30
0.0
  0
POINT
  5
241
330
237
100
AcDbEntity
  8
Defpoints
 62
     0
100
AcDbPoint
 10
23.98828530343991
 20
130.7390964386485
 30
0.0
  0
ENDBLK
  5
242
330
237
100
AcDbEntity
  8
notes
390
1D
100
AcDbBlockEnd
  0
BLOCK
  5
245
330
244
100
AcDbEntity
  8
notes
390
1D
100
AcDbBlockBegin
  2
*D25
 70
     1
 10
0.0
 20
0.0
 30
0.0
  3
*D25
  1
*D4
  0
LINE
  5
246
330
244
100
AcDbEntity
  8
notes
  6
Continuous
 62
     0
370
    -2
100
AcDbLine
 10
3.537076237275873
 20
68.70035823109984
 30
0.0
 11
3.387761718749969
 21
68.70035823109984
 31
0.0
  0
LINE
  5
247
330
244
100
AcDbEntity
  8
notes
  6
Continuous
 62
     0
370
    -2
100
AcDbLine
 10
3.387761718749974
 20
99.68100788376606
 30
0.0
 11
3.387761718749971
 21
99.68100788376606
 31
0.0
  0
LINE
  5
248
330
244
100
AcDbEntity
  8
notes
  6
Continuous
 62
     0
370
    -2
100
AcDbLine
 10
3.387761718749969
 20
64.70060237172484
 30
0.0
 11
3.387761718749968
 21
60.70084651234984
 31
0.0
  0
LINE
  5
249
102
{ACAD_REACTORS
330
24A
102
}
330
244
100
AcDbEntity
  8
notes
  6
Continuous
 62
     0
370
    -2
100
AcDbLine
 10
3.387761718749971
 20
103.6807637431411
 30
0.0
 11
3.387761718749972
 21
107.6805196025161
 31
0.0
  0
INSERT
  5
24A
330
244
100
AcDbEntity
  8
notes
 62
     0
370
    -2
100
AcDbBlockReference
  2
_DOT
 10
3.387761718749969
 20
68.70035823109984
 30
0.0
 41
3.999755859375
 42
3.999755859375
 43
3.999755859375
 50
90.0
  0
INSERT
  5
24B
102
{ACAD_REACTORS
330
24C
102
}
330
244
100
AcDbEntity
  8
notes
 62
     0
370
    -2
100
AcDbBlockReference
  2
_DOT
 10
3.387761718749971
 20
99.68100788376606
 30
0.0
 41
3.999755859375
 42
3.999755859375
 43
3.999755859375
 50
270.0
  0
MTEXT
  5
24C
330
244
100
AcDbEntity
  8
notes
  6
Continuous
 62
     0
370
     5
100
AcDbMText
 10
-9.328546875000029
 20
84.19068305743295
 30
0.0
 40
24.4326171875
 41
0.0
 46
0.0
 71
     5
 72
     1
  1
\A1;MAX.50
  7
ＭＳ ゴシック
 11
5.733762394641638E-17
 21
1.0
 31
0.0
 73
     1
 44
1.0
  0
POINT
  5
24D
330
244
100
AcDbEntity
  8
Defpoints
 62
     0
100
AcDbPoint
 10
28.53707623727587
 20
68.70035823109984
 30
0.0
  0
POINT
  5
24E
330
244
100
AcDbEntity
  8
Defpoints
 62
     0
100
AcDbPoint
 10
28.38776171874997
 20
99.68100788376606
 30
0.0
  0
POINT
  5
24F
330
244
100
AcDbEntity
  8
Defpoints
 62
     0
100
AcDbPoint
 10
3.387761718749971
 20
99.68100788376606
 30
0.0
  0
ENDBLK
  5
251
330
244
100
AcDbEntity
  8
notes
390
1D
100
AcDbBlockEnd
  0
BLOCK
  5
254
330
253
100
AcDbEntity
  8
notes
390
1D
100
AcDbBlockBegin
  2
*D26
 70
     1
 10
0.0
 20
0.0
 30
0.0
  3
*D26
  1
*D5
  0
LINE
  5
255
330
253
100
AcDbEntity
  8
notes
  6
Continuous
 62
     0
370
    -2
100
AcDbLine
 10
116.4414516761217
 20
68.70035823109984
 30
0.0
 11
109.989233260043
 21
68.70035823109984
 31
0.0
  0
LINE
  5
256
330
253
100
AcDbEntity
  8
notes
  6
Continuous
 62
     0
370
    -2
100
AcDbLine
 10
109.989233260043
 20
43.69998779296876
 30
0.0
 11
109.989233260043
 21
43.69998779296876
 31
0.0
  0
LINE
  5
257
330
253
100
AcDbEntity
  8
notes
  6
Continuous
 62
     0
370
    -2
100
AcDbLine
 10
109.989233260043
 20
72.70011409047484
 30
0.0
 11
109.989233260043
 21
76.69986994984984
 31
0.0
  0
LINE
  5
258
102
{ACAD_REACTORS
330
259
102
}
330
253
100
AcDbEntity
  8
notes
  6
Continuous
 62
     0
370
    -2
100
AcDbLine
 10
109.989233260043
 20
39.70023193359376
 30
0.0
 11
109.989233260043
 21
35.70047607421876
 31
0.0
  0
INSERT
  5
259
330
253
100
AcDbEntity
  8
notes
 62
     0
370
    -2
100
AcDbBlockReference
  2
_DOT
 10
109.989233260043
 20
68.70035823109984
 30
0.0
 41
3.999755859375
 42
3.999755859375
 43
3.999755859375
 50
270.0
  0
INSERT
  5
25A
102
{ACAD_REACTORS
330
25B
102
}
330
253
100
AcDbEntity
  8
notes
 62
     0
370
    -2
100
AcDbBlockReference
  2
_DOT
 10
109.989233260043
 20
43.69998779296876
 30
0.0
 41
3.999755859375
 42
3.999755859375
 43
3.999755859375
 50
90.0
  0
MTEXT
  5
25B
330
253
100
AcDbEntity
  8
notes
  6
Continuous
 62
     0
370
     5
100
AcDbMText
 10
97.27292466629297
 20
56.2001730120343
 30
0.0
 40
24.4326171875
 41
0.0
 46
0.0
 71
     5
 72
     1
  1
\A1;25
  7
ＭＳ ゴシック
 11
0.0
 21
1.0
 31
0.0
 73
     1
 44
1.0
  0
POINT
  5
25C
330
253
100
AcDbEntity
  8
Defpoints
 62
     0
100
AcDbPoint
 10
91.44145167612169
 20
68.70035823109984
 30
0.0
  0
POINT
  5
25D
330
253
100
AcDbEntity
  8
Defpoints
 62
     0
100
AcDbPoint
 10
84.98923326004297
 20
43.69998779296876
 30
0.0
  0
POINT
  5
2DD
330
253
100
AcDbEntity
  8
Defpoints
 62
     0
100
AcDbPoint
 10
109.989233260043
 20
43.69998779296876
 30
0.0
  0
ENDBLK
  5
25E
330
253
100
AcDbEntity
  8
notes
390
1D
100
AcDbBlockEnd
  0
BLOCK
  5
261
330
260
100
AcDbEntity
  8
notes
390
1D
100
AcDbBlockBegin
  2
*D27
 70
     1
 10
0.0
 20
0.0
 30
0.0
  3
*D27
  1
*D6
  0
LINE
  5
262
330
260
100
AcDbEntity
  8
notes
  6
Continuous
 62
     0
370
    -2
100
AcDbLine
 10
104.2381591986423
 20
33.69978877750137
 30
0.0
 11
109.989233260043
 21
33.69978877750137
 31
0.0
  0
LINE
  5
263
330
260
100
AcDbEntity
  8
notes
  6
Continuous
 62
     0
370
    -2
100
AcDbLine
 10
109.989233260043
 20
43.69998779296876
 30
0.0
 11
109.989233260043
 21
43.69998779296876
 31
0.0
  0
LINE
  5
264
330
260
100
AcDbEntity
  8
notes
  6
Continuous
 62
     0
370
    -2
100
AcDbLine
 10
109.989233260043
 20
29.70003291812637
 30
0.0
 11
109.989233260043
 21
25.70027705875137
 31
0.0
  0
LINE
  5
265
102
{ACAD_REACTORS
330
266
102
}
330
260
100
AcDbEntity
  8
notes
  6
Continuous
 62
     0
370
    -2
100
AcDbLine
 10
109.989233260043
 20
47.69974365234376
 30
0.0
 11
109.989233260043
 21
51.69949951171876
 31
0.0
  0
INSERT
  5
266
330
260
100
AcDbEntity
  8
notes
 62
     0
370
    -2
100
AcDbBlockReference
  2
_DOT
 10
109.989233260043
 20
33.69978877750137
 30
0.0
 41
3.999755859375
 42
3.999755859375
 43
3.999755859375
 50
90.0
  0
INSERT
  5
267
102
{ACAD_REACTORS
330
268
102
}
330
260
100
AcDbEntity
  8
notes
 62
     0
370
    -2
100
AcDbBlockReference
  2
_DOT
 10
109.989233260043
 20
43.69998779296876
 30
0.0
 41
3.999755859375
 42
3.999755859375
 43
3.999755859375
 50
270.0
  0
MTEXT
  5
268
330
260
100
AcDbEntity
  8
notes
  6
Continuous
 62
     0
370
     5
100
AcDbMText
 10
97.27292466629297
 20
38.69988828523506
 30
0.0
 40
24.4326171875
 41
0.0
 46
0.0
 71
     5
 72
     1
  1
\A1;10
  7
ＭＳ ゴシック
 11
0.0
 21
1.0
 31
0.0
 73
     1
 44
1.0
  0
POINT
  5
269
330
260
100
AcDbEntity
  8
Defpoints
 62
     0
100
AcDbPoint
 10
79.23815919864228
 20
33.69978877750137
 30
0.0
  0
POINT
  5
26A
330
260
100
AcDbEntity
  8
Defpoints
 62
     0
100
AcDbPoint
 10
84.98923326004297
 20
43.69998779296876
 30
0.0
  0
POINT
  5
2DE
330
260
100
AcDbEntity
  8
Defpoints
 62
     0
100
AcDbPoint
 10
109.989233260043
 20
43.69998779296876
 30
0.0
  0
ENDBLK
  5
26B
330
260
100
AcDbEntity
  8
notes
390
1D
100
AcDbBlockEnd
  0
BLOCK
  5
26E
330
26D
100
AcDbEntity
  8
notes
390
1D
100
AcDbBlockBegin
  2
*D28
 70
     1
 10
0.0
 20
0.0
 30
0.0
  3
*D28
  1
*D7
  0
LINE
  5
26F
330
26D
100
AcDbEntity
  8
notes
  6
Continuous
 62
     0
370
    -2
100
AcDbLine
 10
84.98923326004297
 20
18.69998779296876
 30
0.0
 11
84.98923326004297
 21
0.1999877929687557
 31
0.0
  0
LINE
  5
270
330
26D
100
AcDbEntity
  8
notes
  6
Continuous
 62
     0
370
    -2
100
AcDbLine
 10
34.98735779049639
 20
18.69998779296876
 30
0.0
 11
34.98735779049639
 21
0.1999877929687557
 31
0.0
  0
LINE
  5
271
330
26D
100
AcDbEntity
  8
notes
  6
Continuous
 62
     0
370
    -2
100
AcDbLine
 10
88.98898911941797
 20
0.1999877929687557
 30
0.0
 11
92.98874497879297
 21
0.1999877929687557
 31
0.0
  0
LINE
  5
272
102
{ACAD_REACTORS
330
273
102
}
330
26D
100
AcDbEntity
  8
notes
  6
Continuous
 62
     0
370
    -2
100
AcDbLine
 10
30.98760193112139
 20
0.1999877929687557
 30
0.0
 11
26.98784607174639
 21
0.1999877929687557
 31
0.0
  0
INSERT
  5
273
330
26D
100
AcDbEntity
  8
notes
 62
     0
370
    -2
100
AcDbBlockReference
  2
_DOT
 10
84.98923326004297
 20
0.1999877929687557
 30
0.0
 41
3.999755859375
 42
3.999755859375
 43
3.999755859375
 50
180.0
  0
INSERT
  5
274
102
{ACAD_REACTORS
330
275
102
}
330
26D
100
AcDbEntity
  8
notes
 62
     0
370
    -2
100
AcDbBlockReference
  2
_DOT
 10
34.98735779049639
 20
0.1999877929687557
 30
0.0
 41
3.999755859375
 42
3.999755859375
 43
3.999755859375
  0
MTEXT
  5
275
330
26D
100
AcDbEntity
  8
notes
  6
Continuous
 62
     0
370
     5
100
AcDbMText
 10
59.98829552526968
 20
14.89533837890626
 30
0.0
 40
24.4326171875
 41
0.0
 46
0.0
 71
     5
 72
     1
  1
\A1;φ50
  7
ＭＳ ゴシック
 73
     1
 44
1.0
  0
POINT
  5
276
330
26D
100
AcDbEntity
  8
Defpoints
 62
     0
100
AcDbPoint
 10
84.98923326004297
 20
43.69998779296876
 30
0.0
  0
POINT
  5
277
330
26D
100
AcDbEntity
  8
Defpoints
 62
     0
100
AcDbPoint
 10
34.98735779049639
 20
43.69998779296876
 30
0.0
  0
POINT
  5
2DF
330
26D
100
AcDbEntity
  8
Defpoints
 62
     0
100
AcDbPoint
 10
34.98735779049639
 20
0.1999877929687557
 30
0.0
  0
ENDBLK
  5
278
330
26D
100
AcDbEntity
  8
notes
390
1D
100
AcDbBlockEnd
  0
BLOCK
  5
27B
330
27A
100
AcDbEntity
  8
notes
390
1D
100
AcDbBlockBegin
  2
*D29
 70
     1
 10
0.0
 20
0.0
 30
0.0
  3
*D29
  1
*D8
  0
LINE
  5
27C
330
27A
100
AcDbEntity
  8
notes
  6
Continuous
 62
     0
370
    -2
100
AcDbLine
 10
80.73905183532588
 20
10.19997710041881
 30
0.0
 11
80.73905183532588
 21
10.19997710041881
 31
0.0
  0
LINE
  5
27D
330
27A
100
AcDbEntity
  8
notes
  6
Continuous
 62
     0
370
    -2
100
AcDbLine
 10
39.23736313677182
 20
10.19997710041881
 30
0.0
 11
39.23736313677182
 21
10.19997710041881
 31
0.0
  0
LINE
  5
27E
330
27A
100
AcDbEntity
  8
notes
  6
Continuous
 62
     0
370
    -2
100
AcDbLine
 10
84.73880769470088
 20
10.19997710041881
 30
0.0
 11
88.73856355407588
 21
10.19997710041881
 31
0.0
  0
LINE
  5
27F
102
{ACAD_REACTORS
330
280
102
}
330
27A
100
AcDbEntity
  8
notes
  6
Continuous
 62
     0
370
    -2
100
AcDbLine
 10
35.23760727739682
 20
10.19997710041881
 30
0.0
 11
31.23785141802182
 21
10.19997710041881
 31
0.0
  0
INSERT
  5
280
330
27A
100
AcDbEntity
  8
notes
 62
     0
370
    -2
100
AcDbBlockReference
  2
_DOT
 10
80.73905183532588
 20
10.19997710041881
 30
0.0
 41
3.999755859375
 42
3.999755859375
 43
3.999755859375
 50
180.0
  0
INSERT
  5
281
102
{ACAD_REACTORS
330
282
102
}
330
27A
100
AcDbEntity
  8
notes
 62
     0
370
    -2
100
AcDbBlockReference
  2
_DOT
 10
39.23736313677182
 20
10.19997710041881
 30
0.0
 41
3.999755859375
 42
3.999755859375
 43
3.999755859375
  0
MTEXT
  5
282
330
27A
100
AcDbEntity
  8
notes
  6
Continuous
 62
     0
370
     5
100
AcDbMText
 10
59.98820748604885
 20
25.51835942463756
 30
0.0
 40
24.4326171875
 41
0.0
 46
0.0
 71
     5
 72
     1
  1
\A1;G1 1/4"
  7
ＭＳ ゴシック
 73
     1
 44
1.0
  0
POINT
  5
283
330
27A
100
AcDbEntity
  8
Defpoints
 62
     0
100
AcDbPoint
 10
80.73905183532588
 20
35.19997710041881
 30
0.0
  0
POINT
  5
284
330
27A
100
AcDbEntity
  8
Defpoints
 62
     0
100
AcDbPoint
 10
39.23736313677182
 20
35.19997710041881
 30
0.0
  0
POINT
  5
2E0
330
27A
100
AcDbEntity
  8
Defpoints
 62
     0
100
AcDbPoint
 10
39.23736313677182
 20
10.19997710041881
 30
0.0
  0
ENDBLK
  5
285
330
27A
100
AcDbEntity
  8
notes
390
1D
100
AcDbBlockEnd
  0
BLOCK
  5
33C
330
33B
100
AcDbEntity
  8
0
100
AcDbBlockBegin
  2
*D30
 70
     1
 10
0.0
 20
0.0
 30
0.0
  3
*D30
  1

  0
LINE
  5
33E
330
33B
100
AcDbEntity
  8
notes
  6
Continuous
 62
     0
370
    -2
100
AcDbLine
 10
27.18135835407566
 20
-855.0522060042127
 30
0.0
 11
27.18135835407566
 21
-854.9934621134672
 31
0.0
  0
LINE
  5
33F
330
33B
100
AcDbEntity
  8
notes
  6
Continuous
 62
     0
370
    -2
100
AcDbLine
 10
-44.81865186775411
 20
-854.9941664548053
 30
0.0
 11
-44.81865186775411
 21
-854.9934621134672
 31
0.0
  0
LINE
  5
340
330
33B
100
AcDbEntity
  8
notes
  6
Continuous
 62
     0
370
    -2
100
AcDbLine
 10
23.18160249470066
 20
-854.9934621134672
 30
0.0
 11
-40.81889600837911
 21
-854.9934621134672
 31
0.0
  0
INSERT
  5
341
330
33B
100
AcDbEntity
  8
notes
 62
     0
370
    -2
100
AcDbBlockReference
  2
_DOT
 10
27.18135835407566
 20
-854.9934621134672
 30
0.0
 41
3.999755859375
 42
3.999755859375
 43
3.999755859375
  0
INSERT
  5
342
330
33B
100
AcDbEntity
  8
notes
 62
     0
370
    -2
100
AcDbBlockReference
  2
_DOT
 10
-44.81865186775411
 20
-854.9934621134672
 30
0.0
 41
3.999755859375
 42
3.999755859375
 43
3.999755859375
 50
180.0
  0
MTEXT
  5
343
330
33B
100
AcDbEntity
  8
notes
  6
Continuous
 62
     0
370
     5
100
AcDbMText
 10
-8.818646756839229
 20
-840.2981115275297
 30
0.0
 40
24.4326171875
 41
0.0
 46
0.0
 71
     5
 72
     1
  1
\A1;φ72
  7
ＭＳ ゴシック
 73
     1
 44
1.0
  0
POINT
  5
344
330
33B
100
AcDbEntity
  8
Defpoints
 62
     0
100
AcDbPoint
 10
27.18135835407566
 20
-880.0522060042127
 30
0.0
  0
POINT
  5
345
330
33B
100
AcDbEntity
  8
Defpoints
 62
     0
100
AcDbPoint
 10
-44.81865186775411
 20
-879.9941664548053
 30
0.0
  0
POINT
  5
346
330
33B
100
AcDbEntity
  8
Defpoints
 62
     0
100
AcDbPoint
 10
-44.81865186775411
 20
-854.9934621134672
 30
0.0
  0
ENDBLK
  5
33D
330
33B
100
AcDbEntity
  8
0
100
AcDbBlockEnd
  0
BLOCK
  5
348
330
347
100
AcDbEntity
  8
0
100
AcDbBlockBegin
  2
*D31
 70
     1
 10
0.0
 20
0.0
 30
0.0
  3
*D31
  1

  0
LINE
  5
34A
330
347
100
AcDbEntity
  8
notes
  6
Continuous
 62
     0
370
    -2
100
AcDbLine
 10
-65.26986093391815
 20
-917.0322003210159
 30
0.0
 11
-65.41917545244405
 21
-917.0322003210159
 31
0.0
  0
LINE
  5
34B
330
347
100
AcDbEntity
  8
notes
  6
Continuous
 62
     0
370
    -2
100
AcDbLine
 10
-65.41917545244405
 20
-886.0515506683497
 30
0.0
 11
-65.41917545244405
 21
-886.0515506683497
 31
0.0
  0
LINE
  5
34C
330
347
100
AcDbEntity
  8
notes
  6
Continuous
 62
     0
370
    -2
100
AcDbLine
 10
-65.41917545244405
 20
-921.0319561803909
 30
0.0
 11
-65.41917545244405
 21
-925.0317120397659
 31
0.0
  0
LINE
  5
34D
330
347
100
AcDbEntity
  8
notes
  6
Continuous
 62
     0
370
    -2
100
AcDbLine
 10
-65.41917545244405
 20
-882.0517948089747
 30
0.0
 11
-65.41917545244405
 21
-878.0520389495997
 31
0.0
  0
INSERT
  5
34E
330
347
100
AcDbEntity
  8
notes
 62
     0
370
    -2
100
AcDbBlockReference
  2
_DOT
 10
-65.41917545244405
 20
-917.0322003210159
 30
0.0
 41
3.999755859375
 42
3.999755859375
 43
3.999755859375
 50
90.0
  0
INSERT
  5
34F
330
347
100
AcDbEntity
  8
notes
 62
     0
370
    -2
100
AcDbBlockReference
  2
_DOT
 10
-65.41917545244405
 20
-886.0515506683497
 30
0.0
 41
3.999755859375
 42
3.999755859375
 43
3.999755859375
 50
270.0
  0
MTEXT
  5
350
330
347
100
AcDbEntity
  8
notes
  6
Continuous
 62
     0
370
     5
100
AcDbMText
 10
-78.13548404619405
 20
-901.5418754946828
 30
0.0
 40
24.4326171875
 41
0.0
 46
0.0
 71
     5
 72
     1
  1
\A1;MAX.50
  7
ＭＳ ゴシック
 11
0.0
 21
1.0
 31
0.0
 73
     1
 44
1.0
  0
POINT
  5
351
330
347
100
AcDbEntity
  8
Defpoints
 62
     0
100
AcDbPoint
 10
-40.26986093391815
 20
-917.0322003210159
 30
0.0
  0
POINT
  5
352
330
347
100
AcDbEntity
  8
Defpoints
 62
     0
100
AcDbPoint
 10
-40.41917545244405
 20
-886.0515506683497
 30
0.0
  0
POINT
  5
353
330
347
100
AcDbEntity
  8
Defpoints
 62
     0
100
AcDbPoint
 10
-65.41917545244405
 20
-886.0515506683497
 30
0.0
  0
ENDBLK
  5
349
330
347
100
AcDbEntity
  8
0
100
AcDbBlockEnd
  0
BLOCK
  5
355
330
354
100
AcDbEntity
  8
0
100
AcDbBlockBegin
  2
*D32
 70
     1
 10
0.0
 20
0.0
 30
0.0
  3
*D32
  1

  0
LINE
  5
357
330
354
100
AcDbEntity
  8
notes
  6
Continuous
 62
     0
370
    -2
100
AcDbLine
 10
47.63451450492767
 20
-917.0322003210159
 30
0.0
 11
41.18229608884894
 21
-917.0322003210159
 31
0.0
  0
LINE
  5
358
330
354
100
AcDbEntity
  8
notes
  6
Continuous
 62
     0
370
    -2
100
AcDbLine
 10
41.18229608884894
 20
-942.032570759147
 30
0.0
 11
41.18229608884894
 21
-942.032570759147
 31
0.0
  0
LINE
  5
359
330
354
100
AcDbEntity
  8
notes
  6
Continuous
 62
     0
370
    -2
100
AcDbLine
 10
41.18229608884894
 20
-913.0324444616409
 30
0.0
 11
41.18229608884894
 21
-909.0326886022659
 31
0.0
  0
LINE
  5
35A
330
354
100
AcDbEntity
  8
notes
  6
Continuous
 62
     0
370
    -2
100
AcDbLine
 10
41.18229608884894
 20
-946.032326618522
 30
0.0
 11
41.18229608884894
 21
-950.032082477897
 31
0.0
  0
INSERT
  5
35B
330
354
100
AcDbEntity
  8
notes
 62
     0
370
    -2
100
AcDbBlockReference
  2
_DOT
 10
41.18229608884894
 20
-917.0322003210159
 30
0.0
 41
3.999755859375
 42
3.999755859375
 43
3.999755859375
 50
270.0
  0
INSERT
  5
35C
330
354
100
AcDbEntity
  8
notes
 62
     0
370
    -2
100
AcDbBlockReference
  2
_DOT
 10
41.18229608884894
 20
-942.032570759147
 30
0.0
 41
3.999755859375
 42
3.999755859375
 43
3.999755859375
 50
90.0
  0
MTEXT
  5
35D
330
354
100
AcDbEntity
  8
notes
  6
Continuous
 62
     0
370
     5
100
AcDbMText
 10
28.46598749509894
 20
-929.5323855400815
 30
0.0
 40
24.4326171875
 41
0.0
 46
0.0
 71
     5
 72
     1
  1
\A1;25
  7
ＭＳ ゴシック
 11
0.0
 21
1.0
 31
0.0
 73
     1
 44
1.0
  0
POINT
  5
35E
330
354
100
AcDbEntity
  8
Defpoints
 62
     0
100
AcDbPoint
 10
22.63451450492767
 20
-917.0322003210159
 30
0.0
  0
POINT
  5
35F
330
354
100
AcDbEntity
  8
Defpoints
 62
     0
100
AcDbPoint
 10
16.18229608884894
 20
-942.032570759147
 30
0.0
  0
POINT
  5
360
330
354
100
AcDbEntity
  8
Defpoints
 62
     0
100
AcDbPoint
 10
41.18229608884894
 20
-942.032570759147
 30
0.0
  0
ENDBLK
  5
356
330
354
100
AcDbEntity
  8
0
100
AcDbBlockEnd
  0
BLOCK
  5
362
330
361
100
AcDbEntity
  8
0
100
AcDbBlockBegin
  2
*D33
 70
     1
 10
0.0
 20
0.0
 30
0.0
  3
*D33
  1

  0
LINE
  5
364
330
361
100
AcDbEntity
  8
notes
  6
Continuous
 62
     0
370
    -2
100
AcDbLine
 10
35.43122202744826
 20
-952.0327697746144
 30
0.0
 11
41.18229608884894
 21
-952.0327697746144
 31
0.0
  0
LINE
  5
365
330
361
100
AcDbEntity
  8
notes
  6
Continuous
 62
     0
370
    -2
100
AcDbLine
 10
41.18229608884894
 20
-942.032570759147
 30
0.0
 11
41.18229608884894
 21
-942.032570759147
 31
0.0
  0
LINE
  5
366
330
361
100
AcDbEntity
  8
notes
  6
Continuous
 62
     0
370
    -2
100
AcDbLine
 10
41.18229608884894
 20
-956.0325256339894
 30
0.0
 11
41.18229608884894
 21
-960.0322814933644
 31
0.0
  0
LINE
  5
367
330
361
100
AcDbEntity
  8
notes
  6
Continuous
 62
     0
370
    -2
100
AcDbLine
 10
41.18229608884894
 20
-938.032814899772
 30
0.0
 11
41.18229608884894
 21
-934.033059040397
 31
0.0
  0
INSERT
  5
368
330
361
100
AcDbEntity
  8
notes
 62
     0
370
    -2
100
AcDbBlockReference
  2
_DOT
 10
41.18229608884894
 20
-952.0327697746144
 30
0.0
 41
3.999755859375
 42
3.999755859375
 43
3.999755859375
 50
90.0
  0
INSERT
  5
369
330
361
100
AcDbEntity
  8
notes
 62
     0
370
    -2
100
AcDbBlockReference
  2
_DOT
 10
41.18229608884894
 20
-942.032570759147
 30
0.0
 41
3.999755859375
 42
3.999755859375
 43
3.999755859375
 50
270.0
  0
MTEXT
  5
36A
330
361
100
AcDbEntity
  8
notes
  6
Continuous
 62
     0
370
     5
100
AcDbMText
 10
28.46598749509894
 20
-947.0326702668807
 30
0.0
 40
24.4326171875
 41
0.0
 46
0.0
 71
     5
 72
     1
  1
\A1;10
  7
ＭＳ ゴシック
 11
0.0
 21
1.0
 31
0.0
 73
     1
 44
1.0
  0
POINT
  5
36B
330
361
100
AcDbEntity
  8
Defpoints
 62
     0
100
AcDbPoint
 10
10.43122202744826
 20
-952.0327697746144
 30
0.0
  0
POINT
  5
36C
330
361
100
AcDbEntity
  8
Defpoints
 62
     0
100
AcDbPoint
 10
16.18229608884894
 20
-942.032570759147
 30
0.0
  0
POINT
  5
36D
330
361
100
AcDbEntity
  8
Defpoints
 62
     0
100
AcDbPoint
 10
41.18229608884894
 20
-942.032570759147
 30
0.0
  0
ENDBLK
  5
363
330
361
100
AcDbEntity
  8
0
100
AcDbBlockEnd
  0
BLOCK
  5
36F
330
36E
100
AcDbEntity
  8
0
100
AcDbBlockBegin
  2
*D34
 70
     1
 10
0.0
 20
0.0
 30
0.0
  3
*D34
  1

  0
LINE
  5
371
330
36E
100
AcDbEntity
  8
notes
  6
Continuous
 62
     0
370
    -2
100
AcDbLine
 10
16.18229608884894
 20
-967.032570759147
 30
0.0
 11
16.18229608884894
 21
-985.532570759147
 31
0.0
  0
LINE
  5
372
330
36E
100
AcDbEntity
  8
notes
  6
Continuous
 62
     0
370
    -2
100
AcDbLine
 10
-33.81957938069763
 20
-967.032570759147
 30
0.0
 11
-33.81957938069763
 21
-985.532570759147
 31
0.0
  0
LINE
  5
373
330
36E
100
AcDbEntity
  8
notes
  6
Continuous
 62
     0
370
    -2
100
AcDbLine
 10
20.18205194822394
 20
-985.532570759147
 30
0.0
 11
24.18180780759894
 21
-985.532570759147
 31
0.0
  0
LINE
  5
374
330
36E
100
AcDbEntity
  8
notes
  6
Continuous
 62
     0
370
    -2
100
AcDbLine
 10
-37.81933524007263
 20
-985.532570759147
 30
0.0
 11
-41.81909109944763
 21
-985.532570759147
 31
0.0
  0
INSERT
  5
375
330
36E
100
AcDbEntity
  8
notes
 62
     0
370
    -2
100
AcDbBlockReference
  2
_DOT
 10
16.18229608884894
 20
-985.532570759147
 30
0.0
 41
3.999755859375
 42
3.999755859375
 43
3.999755859375
 50
180.0
  0
INSERT
  5
376
330
36E
100
AcDbEntity
  8
notes
 62
     0
370
    -2
100
AcDbBlockReference
  2
_DOT
 10
-33.81957938069763
 20
-985.532570759147
 30
0.0
 41
3.999755859375
 42
3.999755859375
 43
3.999755859375
  0
MTEXT
  5
377
330
36E
100
AcDbEntity
  8
notes
  6
Continuous
 62
     0
370
     5
100
AcDbMText
 10
-8.818641645924345
 20
-970.8372201732095
 30
0.0
 40
24.4326171875
 41
0.0
 46
0.0
 71
     5
 72
     1
  1
\A1;φ50
  7
ＭＳ ゴシック
 73
     1
 44
1.0
  0
POINT
  5
378
330
36E
100
AcDbEntity
  8
Defpoints
 62
     0
100
AcDbPoint
 10
16.18229608884894
 20
-942.032570759147
 30
0.0
  0
POINT
  5
379
330
36E
100
AcDbEntity
  8
Defpoints
 62
     0
100
AcDbPoint
 10
-33.81957938069763
 20
-942.032570759147
 30
0.0
  0
POINT
  5
37A
330
36E
100
AcDbEntity
  8
Defpoints
 62
     0
100
AcDbPoint
 10
-33.81957938069763
 20
-985.532570759147
 30
0.0
  0
ENDBLK
  5
370
330
36E
100
AcDbEntity
  8
0
100
AcDbBlockEnd
  0
BLOCK
  5
37C
330
37B
100
AcDbEntity
  8
0
100
AcDbBlockBegin
  2
*D35
 70
     1
 10
0.0
 20
0.0
 30
0.0
  3
*D35
  1

  0
LINE
  5
37E
330
37B
100
AcDbEntity
  8
notes
  6
Continuous
 62
     0
370
    -2
100
AcDbLine
 10
11.93211466413186
 20
-975.532581451697
 30
0.0
 11
11.93211466413186
 21
-975.532581451697
 31
0.0
  0
LINE
  5
37F
330
37B
100
AcDbEntity
  8
notes
  6
Continuous
 62
     0
370
    -2
100
AcDbLine
 10
-29.5695740344222
 20
-975.532581451697
 30
0.0
 11
-29.5695740344222
 21
-975.532581451697
 31
0.0
  0
LINE
  5
380
330
37B
100
AcDbEntity
  8
notes
  6
Continuous
 62
     0
370
    -2
100
AcDbLine
 10
15.93187052350686
 20
-975.532581451697
 30
0.0
 11
19.93162638288186
 21
-975.532581451697
 31
0.0
  0
LINE
  5
381
330
37B
100
AcDbEntity
  8
notes
  6
Continuous
 62
     0
370
    -2
100
AcDbLine
 10
-33.5693298937972
 20
-975.532581451697
 30
0.0
 11
-37.5690857531722
 21
-975.532581451697
 31
0.0
  0
INSERT
  5
382
330
37B
100
AcDbEntity
  8
notes
 62
     0
370
    -2
100
AcDbBlockReference
  2
_DOT
 10
11.93211466413186
 20
-975.532581451697
 30
0.0
 41
3.999755859375
 42
3.999755859375
 43
3.999755859375
 50
180.0
  0
INSERT
  5
383
330
37B
100
AcDbEntity
  8
notes
 62
     0
370
    -2
100
AcDbBlockReference
  2
_DOT
 10
-29.5695740344222
 20
-975.532581451697
 30
0.0
 41
3.999755859375
 42
3.999755859375
 43
3.999755859375
  0
MTEXT
  5
384
330
37B
100
AcDbEntity
  8
notes
  6
Continuous
 62
     0
370
     5
100
AcDbMText
 10
-8.818729685145172
 20
-960.2141991274782
 30
0.0
 40
24.4326171875
 41
0.0
 46
0.0
 71
     5
 72
     1
  1
\A1;G1 1/4"
  7
ＭＳ ゴシック
 73
     1
 44
1.0
  0
POINT
  5
385
330
37B
100
AcDbEntity
  8
Defpoints
 62
     0
100
AcDbPoint
 10
11.93211466413186
 20
-950.532581451697
 30
0.0
  0
POINT
  5
386
330
37B
100
AcDbEntity
  8
Defpoints
 62
     0
100
AcDbPoint
 10
-29.5695740344222
 20
-950.532581451697
 30
0.0
  0
POINT
  5
387
330
37B
100
AcDbEntity
  8
Defpoints
 62
     0
100
AcDbPoint
 10
-29.5695740344222
 20
-975.532581451697
 30
0.0
  0
ENDBLK
  5
37D
330
37B
100
AcDbEntity
  8
0
100
AcDbBlockEnd
  0
BLOCK
  5
38F
330
38E
100
AcDbEntity
  8
0
100
AcDbBlockBegin
  2
*D36
 70
     1
 10
0.0
 20
0.0
 30
0.0
  3
*D36
  1

  0
LINE
  5
391
330
38E
100
AcDbEntity
  8
notes
  6
Continuous
 62
     0
370
    -2
100
AcDbLine
 10
-520.5498665531005
 20
-450.1017709160392
 30
0.0
 11
-520.5498665531005
 21
-387.9818738041321
 31
0.0
  0
LINE
  5
392
330
38E
100
AcDbEntity
  8
notes
  6
Continuous
 62
     0
370
    -2
100
AcDbLine
 10
-448.5498563312706
 20
-450.1598104654467
 30
0.0
 11
-448.5498563312706
 21
-387.9818738041321
 31
0.0
  0
LINE
  5
393
330
38E
100
AcDbEntity
  8
notes
  6
Continuous
 62
     0
370
    -2
100
AcDbLine
 10
-488.7998665531005
 20
-407.9818738041283
 30
0.0
 11
-480.2998563312706
 21
-407.9818738041283
 31
0.0
  0
INSERT
  5
394
330
38E
100
AcDbEntity
  8
notes
 62
     0
370
    -2
100
AcDbBlockReference
  2
VW_FILLEDARROW
 10
-520.5498665531005
 20
-407.9818738041283
 30
0.0
 41
31.75
 42
31.75
 43
31.75
 50
180.0
  0
INSERT
  5
395
330
38E
100
AcDbEntity
  8
notes
 62
     0
370
    -2
100
AcDbBlockReference
  2
VW_FILLEDARROW
 10
-448.5498563312706
 20
-407.9818738041283
 30
0.0
 41
31.75
 42
31.75
 43
31.75
  0
MTEXT
  5
396
330
38E
100
AcDbEntity
  8
notes
  6
Continuous
 62
     0
370
     0
100
AcDbMText
 10
-484.5498614421855
 20
-394.7655652103772
 30
0.0
 40
24.4326171875
 41
0.0
 46
0.0
 71
     5
 72
     1
  1
\A1;72
  7
ＭＳ ゴシック
 73
     1
 44
1.0
  0
POINT
  5
397
330
38E
100
AcDbEntity
  8
Defpoints
 62
     0
100
AcDbPoint
 10
-520.5498665531005
 20
-450.1017709160392
 30
0.0
  0
POINT
  5
398
330
38E
100
AcDbEntity
  8
Defpoints
 62
     0
100
AcDbPoint
 10
-448.5498563312706
 20
-450.1598104654467
 30
0.0
  0
POINT
  5
399
330
38E
100
AcDbEntity
  8
Defpoints
 62
     0
100
AcDbPoint
 10
-448.5498563312706
 20
-407.9818738041283
 30
0.0
  0
ENDBLK
  5
390
330
38E
100
AcDbEntity
  8
0
100
AcDbBlockEnd
  0
BLOCK
  5
39E
330
39D
100
AcDbEntity
  8
0
100
AcDbBlockBegin
  2
*D37
 70
     1
 10
0.0
 20
0.0
 30
0.0
  3
*D37
  1

  0
LINE
  5
3A0
330
39D
100
AcDbEntity
  8
notes
  6
Continuous
 62
     0
370
    -2
100
AcDbLine
 10
-694.5752315288048
 20
-247.5627985619279
 30
0.0
 11
-694.5752315288048
 21
-144.9308472406082
 31
0.0
  0
LINE
  5
3A1
330
39D
100
AcDbEntity
  8
notes
  6
Continuous
 62
     0
370
    -2
100
AcDbLine
 10
-154.5752315288039
 20
-255.0747941365936
 30
0.0
 11
-154.5752315288039
 21
-144.9308472406082
 31
0.0
  0
LINE
  5
3A2
330
39D
100
AcDbEntity
  8
notes
  6
Continuous
 62
     0
370
    -2
100
AcDbLine
 10
-662.8252315288048
 20
-164.9308472406044
 30
0.0
 11
-186.3252315288039
 21
-164.9308472406044
 31
0.0
  0
INSERT
  5
3A3
330
39D
100
AcDbEntity
  8
notes
 62
     0
370
    -2
100
AcDbBlockReference
  2
VW_FILLEDARROW
 10
-694.5752315288048
 20
-164.9308472406044
 30
0.0
 41
31.75
 42
31.75
 43
31.75
 50
180.0
  0
INSERT
  5
3A4
330
39D
100
AcDbEntity
  8
notes
 62
     0
370
    -2
100
AcDbBlockReference
  2
VW_FILLEDARROW
 10
-154.5752315288039
 20
-164.9308472406044
 30
0.0
 41
31.75
 42
31.75
 43
31.75
  0
MTEXT
  5
3A5
330
39D
100
AcDbEntity
  8
notes
  6
Continuous
 62
     0
370
     0
100
AcDbMText
 10
-424.5752315288044
 20
-151.7145386468533
 30
0.0
 40
24.4326171875
 41
0.0
 46
0.0
 71
     5
 72
     1
  1
\A1;540
  7
ＭＳ ゴシック
 73
     1
 44
1.0
  0
POINT
  5
3A6
330
39D
100
AcDbEntity
  8
Defpoints
 62
     0
100
AcDbPoint
 10
-694.5752315288048
 20
-247.5627985619279
 30
0.0
  0
POINT
  5
3A7
330
39D
100
AcDbEntity
  8
Defpoints
 62
     0
100
AcDbPoint
 10
-154.5752315288039
 20
-255.0747941365936
 30
0.0
  0
POINT
  5
3A8
330
39D
100
AcDbEntity
  8
Defpoints
 62
     0
100
AcDbPoint
 10
-154.5752315288039
 20
-164.9308472406044
 30
0.0
  0
ENDBLK
  5
39F
330
39D
100
AcDbEntity
  8
0
100
AcDbBlockEnd
  0
BLOCK
  5
3DE
330
3DD
100
AcDbEntity
  8
notes
390
1D
100
AcDbBlockBegin
  2
*D39
 70
     1
 10
0.0
 20
0.0
 30
0.0
  3
*D39
  1
*D3
  0
LINE
  5
3DF
330
3DD
100
AcDbEntity
  8
notes
  6
Continuous
 62
     0
370
    -2
100
AcDbLine
 10
95.98829552526968
 20
130.680352547903
 30
0.0
 11
95.98829552526968
 21
130.7390964386485
 31
0.0
  0
LINE
  5
3E0
330
3DD
100
AcDbEntity
  8
notes
  6
Continuous
 62
     0
370
    -2
100
AcDbLine
 10
23.98828530343991
 20
130.7383920973105
 30
0.0
 11
23.98828530343991
 21
130.7390964386485
 31
0.0
  0
LINE
  5
3E1
330
3DD
100
AcDbEntity
  8
notes
  6
Continuous
 62
     0
370
    -2
100
AcDbLine
 10
91.98853966589468
 20
130.7390964386485
 30
0.0
 11
27.98804116281491
 21
130.7390964386485
 31
0.0
  0
INSERT
  5
3E2
102
{ACAD_REACTORS
330
3E3
102
}
330
3DD
100
AcDbEntity
  8
notes
 62
     0
370
    -2
100
AcDbBlockReference
  2
_DOT
 10
95.98829552526968
 20
130.7390964386485
 30
0.0
 41
3.999755859375
 42
3.999755859375
 43
3.999755859375
  0
INSERT
  5
3E3
330
3DD
100
AcDbEntity
  8
notes
 62
     0
370
    -2
100
AcDbBlockReference
  2
_DOT
 10
23.98828530343991
 20
130.7390964386485
 30
0.0
 41
3.999755859375
 42
3.999755859375
 43
3.999755859375
 50
180.0
  0
MTEXT
  5
3E4
102
{ACAD_REACTORS
330
3E5
102
}
330
3DD
100
AcDbEntity
  8
notes
  6
Continuous
 62
     0
370
     5
100
AcDbMText
 10
59.98829041435479
 20
145.434447024586
 30
0.0
 40
24.4326171875
 41
0.0
 46
0.0
 71
     5
 72
     1
  1
\A1;φ72
  7
ＭＳ ゴシック
 73
     1
 44
1.0
  0
POINT
  5
3E5
330
3DD
100
AcDbEntity
  8
Defpoints
 62
     0
100
AcDbPoint
 10
95.98829552526968
 20
105.680352547903
 30
0.0
  0
POINT
  5
3E6
330
3DD
100
AcDbEntity
  8
Defpoints
 62
     0
100
AcDbPoint
 10
23.98828530343991
 20
105.7383920973105
 30
0.0
  0
POINT
  5
3E7
330
3DD
100
AcDbEntity
  8
Defpoints
 62
     0
100
AcDbPoint
 10
23.98828530343991
 20
130.7390964386485
 30
0.0
  0
ENDBLK
  5
3E8
330
3DD
100
AcDbEntity
  8
notes
390
1D
100
AcDbBlockEnd
  0
BLOCK
  5
3EB
330
3EA
100
AcDbEntity
  8
notes
390
1D
100
AcDbBlockBegin
  2
*D40
 70
     1
 10
0.0
 20
0.0
 30
0.0
  3
*D40
  1
*D4
  0
LINE
  5
3EC
330
3EA
100
AcDbEntity
  8
notes
  6
Continuous
 62
     0
370
    -2
100
AcDbLine
 10
3.537076237275873
 20
68.70035823109984
 30
0.0
 11
3.387761718749969
 21
68.70035823109984
 31
0.0
  0
LINE
  5
3ED
330
3EA
100
AcDbEntity
  8
notes
  6
Continuous
 62
     0
370
    -2
100
AcDbLine
 10
3.387761718749974
 20
99.68100788376606
 30
0.0
 11
3.387761718749971
 21
99.68100788376606
 31
0.0
  0
LINE
  5
3EE
330
3EA
100
AcDbEntity
  8
notes
  6
Continuous
 62
     0
370
    -2
100
AcDbLine
 10
3.387761718749969
 20
64.70060237172484
 30
0.0
 11
3.387761718749968
 21
60.70084651234984
 31
0.0
  0
LINE
  5
3EF
102
{ACAD_REACTORS
330
3F0
102
}
330
3EA
100
AcDbEntity
  8
notes
  6
Continuous
 62
     0
370
    -2
100
AcDbLine
 10
3.387761718749971
 20
103.6807637431411
 30
0.0
 11
3.387761718749972
 21
107.6805196025161
 31
0.0
  0
INSERT
  5
3F0
330
3EA
100
AcDbEntity
  8
notes
 62
     0
370
    -2
100
AcDbBlockReference
  2
_DOT
 10
3.387761718749969
 20
68.70035823109984
 30
0.0
 41
3.999755859375
 42
3.999755859375
 43
3.999755859375
 50
90.0
  0
INSERT
  5
3F1
102
{ACAD_REACTORS
330
3F2
102
}
330
3EA
100
AcDbEntity
  8
notes
 62
     0
370
    -2
100
AcDbBlockReference
  2
_DOT
 10
3.387761718749971
 20
99.68100788376606
 30
0.0
 41
3.999755859375
 42
3.999755859375
 43
3.999755859375
 50
270.0
  0
MTEXT
  5
3F2
330
3EA
100
AcDbEntity
  8
notes
  6
Continuous
 62
     0
370
     5
100
AcDbMText
 10
-9.328546875000029
 20
84.19068305743295
 30
0.0
 40
24.4326171875
 41
0.0
 46
0.0
 71
     5
 72
     1
  1
\A1;MAX.50
  7
ＭＳ ゴシック
 11
5.733762394641638E-17
 21
1.0
 31
0.0
 73
     1
 44
1.0
  0
POINT
  5
3F3
330
3EA
100
AcDbEntity
  8
Defpoints
 62
     0
100
AcDbPoint
 10
28.53707623727587
 20
68.70035823109984
 30
0.0
  0
POINT
  5
3F4
330
3EA
100
AcDbEntity
  8
Defpoints
 62
     0
100
AcDbPoint
 10
28.38776171874997
 20
99.68100788376606
 30
0.0
  0
POINT
  5
3F5
330
3EA
100
AcDbEntity
  8
Defpoints
 62
     0
100
AcDbPoint
 10
3.387761718749971
 20
99.68100788376606
 30
0.0
  0
ENDBLK
  5
3F7
330
3EA
100
AcDbEntity
  8
notes
390
1D
100
AcDbBlockEnd
  0
BLOCK
  5
3FA
330
3F9
100
AcDbEntity
  8
notes
390
1D
100
AcDbBlockBegin
  2
*D41
 70
     1
 10
0.0
 20
0.0
 30
0.0
  3
*D41
  1
*D5
  0
LINE
  5
3FB
330
3F9
100
AcDbEntity
  8
notes
  6
Continuous
 62
     0
370
    -2
100
AcDbLine
 10
116.4414516761217
 20
68.70035823109984
 30
0.0
 11
109.989233260043
 21
68.70035823109984
 31
0.0
  0
LINE
  5
3FC
330
3F9
100
AcDbEntity
  8
notes
  6
Continuous
 62
     0
370
    -2
100
AcDbLine
 10
109.989233260043
 20
43.69998779296876
 30
0.0
 11
109.989233260043
 21
43.69998779296876
 31
0.0
  0
LINE
  5
3FD
330
3F9
100
AcDbEntity
  8
notes
  6
Continuous
 62
     0
370
    -2
100
AcDbLine
 10
109.989233260043
 20
72.70011409047484
 30
0.0
 11
109.989233260043
 21
76.69986994984984
 31
0.0
  0
LINE
  5
3FE
102
{ACAD_REACTORS
330
3FF
102
}
330
3F9
100
AcDbEntity
  8
notes
  6
Continuous
 62
     0
370
    -2
100
AcDbLine
 10
109.989233260043
 20
39.70023193359376
 30
0.0
 11
109.989233260043
 21
35.70047607421876
 31
0.0
  0
INSERT
  5
3FF
330
3F9
100
AcDbEntity
  8
notes
 62
     0
370
    -2
100
AcDbBlockReference
  2
_DOT
 10
109.989233260043
 20
68.70035823109984
 30
0.0
 41
3.999755859375
 42
3.999755859375
 43
3.999755859375
 50
270.0
  0
INSERT
  5
400
102
{ACAD_REACTORS
330
401
102
}
330
3F9
100
AcDbEntity
  8
notes
 62
     0
370
    -2
100
AcDbBlockReference
  2
_DOT
 10
109.989233260043
 20
43.69998779296876
 30
0.0
 41
3.999755859375
 42
3.999755859375
 43
3.999755859375
 50
90.0
  0
MTEXT
  5
401
330
3F9
100
AcDbEntity
  8
notes
  6
Continuous
 62
     0
370
     5
100
AcDbMText
 10
97.27292466629297
 20
56.2001730120343
 30
0.0
 40
24.4326171875
 41
0.0
 46
0.0
 71
     5
 72
     1
  1
\A1;25
  7
ＭＳ ゴシック
 11
0.0
 21
1.0
 31
0.0
 73
     1
 44
1.0
  0
POINT
  5
402
330
3F9
100
AcDbEntity
  8
Defpoints
 62
     0
100
AcDbPoint
 10
91.44145167612169
 20
68.70035823109984
 30
0.0
  0
POINT
  5
403
330
3F9
100
AcDbEntity
  8
Defpoints
 62
     0
100
AcDbPoint
 10
84.98923326004297
 20
43.69998779296876
 30
0.0
  0
POINT
  5
481
330
3F9
100
AcDbEntity
  8
Defpoints
 62
     0
100
AcDbPoint
 10
109.989233260043
 20
43.69998779296876
 30
0.0
  0
ENDBLK
  5
404
330
3F9
100
AcDbEntity
  8
notes
390
1D
100
AcDbBlockEnd
  0
BLOCK
  5
407
330
406
100
AcDbEntity
  8
notes
390
1D
100
AcDbBlockBegin
  2
*D42
 70
     1
 10
0.0
 20
0.0
 30
0.0
  3
*D42
  1
*D6
  0
LINE
  5
408
330
406
100
AcDbEntity
  8
notes
  6
Continuous
 62
     0
370
    -2
100
AcDbLine
 10
104.2381591986423
 20
33.69978877750137
 30
0.0
 11
109.989233260043
 21
33.69978877750137
 31
0.0
  0
LINE
  5
409
330
406
100
AcDbEntity
  8
notes
  6
Continuous
 62
     0
370
    -2
100
AcDbLine
 10
109.989233260043
 20
43.69998779296876
 30
0.0
 11
109.989233260043
 21
43.69998779296876
 31
0.0
  0
LINE
  5
40A
330
406
100
AcDbEntity
  8
notes
  6
Continuous
 62
     0
370
    -2
100
AcDbLine
 10
109.989233260043
 20
29.70003291812637
 30
0.0
 11
109.989233260043
 21
25.70027705875137
 31
0.0
  0
LINE
  5
40B
102
{ACAD_REACTORS
330
40C
102
}
330
406
100
AcDbEntity
  8
notes
  6
Continuous
 62
     0
370
    -2
100
AcDbLine
 10
109.989233260043
 20
47.69974365234376
 30
0.0
 11
109.989233260043
 21
51.69949951171876
 31
0.0
  0
INSERT
  5
40C
330
406
100
AcDbEntity
  8
notes
 62
     0
370
    -2
100
AcDbBlockReference
  2
_DOT
 10
109.989233260043
 20
33.69978877750137
 30
0.0
 41
3.999755859375
 42
3.999755859375
 43
3.999755859375
 50
90.0
  0
INSERT
  5
40D
102
{ACAD_REACTORS
330
40E
102
}
330
406
100
AcDbEntity
  8
notes
 62
     0
370
    -2
100
AcDbBlockReference
  2
_DOT
 10
109.989233260043
 20
43.69998779296876
 30
0.0
 41
3.999755859375
 42
3.999755859375
 43
3.999755859375
 50
270.0
  0
MTEXT
  5
40E
330
406
100
AcDbEntity
  8
notes
  6
Continuous
 62
     0
370
     5
100
AcDbMText
 10
97.27292466629297
 20
38.69988828523506
 30
0.0
 40
24.4326171875
 41
0.0
 46
0.0
 71
     5
 72
     1
  1
\A1;10
  7
ＭＳ ゴシック
 11
0.0
 21
1.0
 31
0.0
 73
     1
 44
1.0
  0
POINT
  5
40F
330
406
100
AcDbEntity
  8
Defpoints
 62
     0
100
AcDbPoint
 10
79.23815919864228
 20
33.69978877750137
 30
0.0
  0
POINT
  5
410
330
406
100
AcDbEntity
  8
Defpoints
 62
     0
100
AcDbPoint
 10
84.98923326004297
 20
43.69998779296876
 30
0.0
  0
POINT
  5
482
330
406
100
AcDbEntity
  8
Defpoints
 62
     0
100
AcDbPoint
 10
109.989233260043
 20
43.69998779296876
 30
0.0
  0
ENDBLK
  5
411
330
406
100
AcDbEntity
  8
notes
390
1D
100
AcDbBlockEnd
  0
BLOCK
  5
414
330
413
100
AcDbEntity
  8
notes
390
1D
100
AcDbBlockBegin
  2
*D43
 70
     1
 10
0.0
 20
0.0
 30
0.0
  3
*D43
  1
*D7
  0
LINE
  5
415
330
413
100
AcDbEntity
  8
notes
  6
Continuous
 62
     0
370
    -2
100
AcDbLine
 10
84.98923326004297
 20
18.69998779296876
 30
0.0
 11
84.98923326004297
 21
0.1999877929687557
 31
0.0
  0
LINE
  5
416
330
413
100
AcDbEntity
  8
notes
  6
Continuous
 62
     0
370
    -2
100
AcDbLine
 10
34.98735779049639
 20
18.69998779296876
 30
0.0
 11
34.98735779049639
 21
0.1999877929687557
 31
0.0
  0
LINE
  5
417
330
413
100
AcDbEntity
  8
notes
  6
Continuous
 62
     0
370
    -2
100
AcDbLine
 10
88.98898911941797
 20
0.1999877929687557
 30
0.0
 11
92.98874497879297
 21
0.1999877929687557
 31
0.0
  0
LINE
  5
418
102
{ACAD_REACTORS
330
419
102
}
330
413
100
AcDbEntity
  8
notes
  6
Continuous
 62
     0
370
    -2
100
AcDbLine
 10
30.98760193112139
 20
0.1999877929687557
 30
0.0
 11
26.98784607174639
 21
0.1999877929687557
 31
0.0
  0
INSERT
  5
419
330
413
100
AcDbEntity
  8
notes
 62
     0
370
    -2
100
AcDbBlockReference
  2
_DOT
 10
84.98923326004297
 20
0.1999877929687557
 30
0.0
 41
3.999755859375
 42
3.999755859375
 43
3.999755859375
 50
180.0
  0
INSERT
  5
41A
102
{ACAD_REACTORS
330
41B
102
}
330
413
100
AcDbEntity
  8
notes
 62
     0
370
    -2
100
AcDbBlockReference
  2
_DOT
 10
34.98735779049639
 20
0.1999877929687557
 30
0.0
 41
3.999755859375
 42
3.999755859375
 43
3.999755859375
  0
MTEXT
  5
41B
330
413
100
AcDbEntity
  8
notes
  6
Continuous
 62
     0
370
     5
100
AcDbMText
 10
59.98829552526968
 20
14.89533837890626
 30
0.0
 40
24.4326171875
 41
0.0
 46
0.0
 71
     5
 72
     1
  1
\A1;φ50
  7
ＭＳ ゴシック
 73
     1
 44
1.0
  0
POINT
  5
41C
330
413
100
AcDbEntity
  8
Defpoints
 62
     0
100
AcDbPoint
 10
84.98923326004297
 20
43.69998779296876
 30
0.0
  0
POINT
  5
41D
330
413
100
AcDbEntity
  8
Defpoints
 62
     0
100
AcDbPoint
 10
34.98735779049639
 20
43.69998779296876
 30
0.0
  0
POINT
  5
483
330
413
100
AcDbEntity
  8
Defpoints
 62
     0
100
AcDbPoint
 10
34.98735779049639
 20
0.1999877929687557
 30
0.0
  0
ENDBLK
  5
41E
330
413
100
AcDbEntity
  8
notes
390
1D
100
AcDbBlockEnd
  0
BLOCK
  5
421
330
420
100
AcDbEntity
  8
notes
390
1D
100
AcDbBlockBegin
  2
*D44
 70
     1
 10
0.0
 20
0.0
 30
0.0
  3
*D44
  1
*D8
  0
LINE
  5
422
330
420
100
AcDbEntity
  8
notes
  6
Continuous
 62
     0
370
    -2
100
AcDbLine
 10
80.73905183532588
 20
10.19997710041881
 30
0.0
 11
80.73905183532588
 21
10.19997710041881
 31
0.0
  0
LINE
  5
423
330
420
100
AcDbEntity
  8
notes
  6
Continuous
 62
     0
370
    -2
100
AcDbLine
 10
39.23736313677182
 20
10.19997710041881
 30
0.0
 11
39.23736313677182
 21
10.19997710041881
 31
0.0
  0
LINE
  5
424
330
420
100
AcDbEntity
  8
notes
  6
Continuous
 62
     0
370
    -2
100
AcDbLine
 10
84.73880769470088
 20
10.19997710041881
 30
0.0
 11
88.73856355407588
 21
10.19997710041881
 31
0.0
  0
LINE
  5
425
102
{ACAD_REACTORS
330
426
102
}
330
420
100
AcDbEntity
  8
notes
  6
Continuous
 62
     0
370
    -2
100
AcDbLine
 10
35.23760727739682
 20
10.19997710041881
 30
0.0
 11
31.23785141802182
 21
10.19997710041881
 31
0.0
  0
INSERT
  5
426
330
420
100
AcDbEntity
  8
notes
 62
     0
370
    -2
100
AcDbBlockReference
  2
_DOT
 10
80.73905183532588
 20
10.19997710041881
 30
0.0
 41
3.999755859375
 42
3.999755859375
 43
3.999755859375
 50
180.0
  0
INSERT
  5
427
102
{ACAD_REACTORS
330
428
102
}
330
420
100
AcDbEntity
  8
notes
 62
     0
370
    -2
100
AcDbBlockReference
  2
_DOT
 10
39.23736313677182
 20
10.19997710041881
 30
0.0
 41
3.999755859375
 42
3.999755859375
 43
3.999755859375
  0
MTEXT
  5
428
330
420
100
AcDbEntity
  8
notes
  6
Continuous
 62
     0
370
     5
100
AcDbMText
 10
59.98820748604885
 20
25.51835942463756
 30
0.0
 40
24.4326171875
 41
0.0
 46
0.0
 71
     5
 72
     1
  1
\A1;G1 1/4"
  7
ＭＳ ゴシック
 73
     1
 44
1.0
  0
POINT
  5
429
330
420
100
AcDbEntity
  8
Defpoints
 62
     0
100
AcDbPoint
 10
80.73905183532588
 20
35.19997710041881
 30
0.0
  0
POINT
  5
42A
330
420
100
AcDbEntity
  8
Defpoints
 62
     0
100
AcDbPoint
 10
39.23736313677182
 20
35.19997710041881
 30
0.0
  0
POINT
  5
484
330
420
100
AcDbEntity
  8
Defpoints
 62
     0
100
AcDbPoint
 10
39.23736313677182
 20
10.19997710041881
 30
0.0
  0
ENDBLK
  5
42B
330
420
100
AcDbEntity
  8
notes
390
1D
100
AcDbBlockEnd
  0
BLOCK
  5
4E0
330
4DF
100
AcDbEntity
  8
0
100
AcDbBlockBegin
  2
*D45
 70
     1
 10
0.0
 20
0.0
 30
0.0
  3
*D45
  1

  0
LINE
  5
4E2
330
4DF
100
AcDbEntity
  8
notes
  6
Continuous
 62
     0
370
    -2
100
AcDbLine
 10
594.5050454516296
 20
638.6971060741553
 30
0.0
 11
594.5050454516296
 21
664.1823917559807
 31
0.0
  0
LINE
  5
4E3
330
4DF
100
AcDbEntity
  8
notes
  6
Continuous
 62
     0
370
    -2
100
AcDbLine
 10
522.5050352297998
 20
638.7551456235627
 30
0.0
 11
522.5050352297998
 21
664.1823917559807
 31
0.0
  0
LINE
  5
4E4
330
4DF
100
AcDbEntity
  8
notes
  6
Continuous
 62
     0
370
    -2
100
AcDbLine
 10
590.5052895922546
 20
664.1823917559807
 30
0.0
 11
526.5047910891748
 21
664.1823917559807
 31
0.0
  0
INSERT
  5
4E5
330
4DF
100
AcDbEntity
  8
notes
 62
     0
370
    -2
100
AcDbBlockReference
  2
_DOT
 10
594.5050454516296
 20
664.1823917559807
 30
0.0
 41
3.999755859375
 42
3.999755859375
 43
3.999755859375
  0
INSERT
  5
4E6
330
4DF
100
AcDbEntity
  8
notes
 62
     0
370
    -2
100
AcDbBlockReference
  2
_DOT
 10
522.5050352297998
 20
664.1823917559807
 30
0.0
 41
3.999755859375
 42
3.999755859375
 43
3.999755859375
 50
180.0
  0
MTEXT
  5
4E7
330
4DF
100
AcDbEntity
  8
notes
  6
Continuous
 62
     0
370
     5
100
AcDbMText
 10
558.5050403407145
 20
684.6696524141599
 30
0.0
 40
24.4326171875
 41
0.0
 46
0.0
 71
     5
 72
     1
  1
\A1;φ72
  7
ＭＳ ゴシック
 73
     1
 44
1.0
  0
POINT
  5
4E8
330
4DF
100
AcDbEntity
  8
Defpoints
 62
     0
100
AcDbPoint
 10
594.5050454516296
 20
613.6971060741553
 30
0.0
  0
POINT
  5
4E9
330
4DF
100
AcDbEntity
  8
Defpoints
 62
     0
100
AcDbPoint
 10
522.5050352297998
 20
613.7551456235627
 30
0.0
  0
POINT
  5
4EA
330
4DF
100
AcDbEntity
  8
Defpoints
 62
     0
100
AcDbPoint
 10
522.5050352297998
 20
664.1823917559807
 30
0.0
  0
ENDBLK
  5
4E1
330
4DF
100
AcDbEntity
  8
0
100
AcDbBlockEnd
  0
BLOCK
  5
4EC
330
4EB
100
AcDbEntity
  8
0
100
AcDbBlockBegin
  2
*D46
 70
     1
 10
0.0
 20
0.0
 30
0.0
  3
*D46
  1

  0
LINE
  5
4EE
330
4EB
100
AcDbEntity
  8
notes
  6
Continuous
 62
     0
370
    -2
100
AcDbLine
 10
502.0538261636358
 20
576.7171117573521
 30
0.0
 11
457.6827584135788
 21
576.7171117573521
 31
0.0
  0
LINE
  5
4EF
330
4EB
100
AcDbEntity
  8
notes
  6
Continuous
 62
     0
370
    -2
100
AcDbLine
 10
501.9045116451099
 20
607.6977614100183
 30
0.0
 11
457.6827584135788
 21
607.6977614100183
 31
0.0
  0
LINE
  5
4F0
330
4EB
100
AcDbEntity
  8
notes
  6
Continuous
 62
     0
370
    -2
100
AcDbLine
 10
457.6827584135788
 20
580.7168676167271
 30
0.0
 11
457.6827584135788
 21
603.6980055506433
 31
0.0
  0
INSERT
  5
4F1
330
4EB
100
AcDbEntity
  8
notes
 62
     0
370
    -2
100
AcDbBlockReference
  2
_DOT
 10
457.6827584135788
 20
576.7171117573521
 30
0.0
 41
3.999755859375
 42
3.999755859375
 43
3.999755859375
 50
270.0
  0
INSERT
  5
4F2
330
4EB
100
AcDbEntity
  8
notes
 62
     0
370
    -2
100
AcDbBlockReference
  2
_DOT
 10
457.6827584135788
 20
607.6977614100183
 30
0.0
 41
3.999755859375
 42
3.999755859375
 43
3.999755859375
 50
90.0
  0
MTEXT
  5
4F3
330
4EB
100
AcDbEntity
  8
notes
  6
Continuous
 62
     0
370
     5
100
AcDbMText
 10
432.478476802345
 20
592.2074365836853
 30
0.0
 40
24.4326171875
 41
0.0
 46
0.0
 71
     5
 72
     1
  1
\A1;MAX.50
  7
ＭＳ ゴシック
 11
0.0
 21
1.0
 31
0.0
 73
     1
 44
1.0
  0
POINT
  5
4F4
330
4EB
100
AcDbEntity
  8
Defpoints
 62
     0
100
AcDbPoint
 10
527.0538261636358
 20
576.7171117573521
 30
0.0
  0
POINT
  5
4F5
330
4EB
100
AcDbEntity
  8
Defpoints
 62
     0
100
AcDbPoint
 10
526.9045116451099
 20
607.6977614100183
 30
0.0
  0
POINT
  5
4F6
330
4EB
100
AcDbEntity
  8
Defpoints
 62
     0
100
AcDbPoint
 10
457.6827584135788
 20
607.6977614100183
 30
0.0
  0
ENDBLK
  5
4ED
330
4EB
100
AcDbEntity
  8
0
100
AcDbBlockEnd
  0
BLOCK
  5
4F9
330
4F8
100
AcDbEntity
  8
0
100
AcDbBlockBegin
  2
*D47
 70
     1
 10
0.0
 20
0.0
 30
0.0
  3
*D47
  1

  0
LINE
  5
4FB
330
4F8
100
AcDbEntity
  8
notes
  6
Continuous
 62
     0
370
    -2
100
AcDbLine
 10
614.9582016024816
 20
576.7171117573521
 30
0.0
 11
669.5702030447329
 21
576.7171117573521
 31
0.0
  0
LINE
  5
4FC
330
4F8
100
AcDbEntity
  8
notes
  6
Continuous
 62
     0
370
    -2
100
AcDbLine
 10
608.5059831864029
 20
551.716741319221
 30
0.0
 11
669.5702030447329
 21
551.716741319221
 31
0.0
  0
LINE
  5
4FD
330
4F8
100
AcDbEntity
  8
notes
  6
Continuous
 62
     0
370
    -2
100
AcDbLine
 10
669.5702030447329
 20
572.7173558979771
 30
0.0
 11
669.5702030447329
 21
555.716497178596
 31
0.0
  0
INSERT
  5
4FE
330
4F8
100
AcDbEntity
  8
notes
 62
     0
370
    -2
100
AcDbBlockReference
  2
_DOT
 10
669.5702030447329
 20
576.7171117573521
 30
0.0
 41
3.999755859375
 42
3.999755859375
 43
3.999755859375
 50
90.0
  0
INSERT
  5
4FF
330
4F8
100
AcDbEntity
  8
notes
 62
     0
370
    -2
100
AcDbBlockReference
  2
_DOT
 10
669.5702030447329
 20
551.716741319221
 30
0.0
 41
3.999755859375
 42
3.999755859375
 43
3.999755859375
 50
270.0
  0
MTEXT
  5
500
330
4F8
100
AcDbEntity
  8
notes
  6
Continuous
 62
     0
370
     5
100
AcDbMText
 10
653.8359868592511
 20
605.7909672454152
 30
0.0
 40
24.4326171875
 41
0.0
 46
0.0
 71
     5
 72
     1
  1
\A1;25
  7
ＭＳ ゴシック
 11
0.0
 21
1.0
 31
0.0
 73
     1
 44
1.0
  0
POINT
  5
501
330
4F8
100
AcDbEntity
  8
Defpoints
 62
     0
100
AcDbPoint
 10
589.9582016024816
 20
576.7171117573521
 30
0.0
  0
POINT
  5
502
330
4F8
100
AcDbEntity
  8
Defpoints
 62
     0
100
AcDbPoint
 10
583.5059831864029
 20
551.716741319221
 30
0.0
  0
POINT
  5
503
330
4F8
100
AcDbEntity
  8
Defpoints
 62
     0
100
AcDbPoint
 10
669.5702030447329
 20
551.716741319221
 30
0.0
  0
ENDBLK
  5
4FA
330
4F8
100
AcDbEntity
  8
0
100
AcDbBlockEnd
  0
BLOCK
  5
506
330
505
100
AcDbEntity
  8
0
100
AcDbBlockBegin
  2
*D48
 70
     1
 10
0.0
 20
0.0
 30
0.0
  3
*D48
  1

  0
LINE
  5
508
330
505
100
AcDbEntity
  8
notes
  6
Continuous
 62
     0
370
    -2
100
AcDbLine
 10
602.7549091250022
 20
541.7165423037536
 30
0.0
 11
669.5702030447329
 21
541.7165423037536
 31
0.0
  0
LINE
  5
509
330
505
100
AcDbEntity
  8
notes
  6
Continuous
 62
     0
370
    -2
100
AcDbLine
 10
608.5059831864029
 20
551.716741319221
 30
0.0
 11
669.5702030447329
 21
551.716741319221
 31
0.0
  0
LINE
  5
50A
330
505
100
AcDbEntity
  8
notes
  6
Continuous
 62
     0
370
    -2
100
AcDbLine
 10
669.5702030447329
 20
545.7162981631286
 30
0.0
 11
669.5702030447329
 21
547.716985459846
 31
0.0
  0
INSERT
  5
50B
330
505
100
AcDbEntity
  8
notes
 62
     0
370
    -2
100
AcDbBlockReference
  2
_DOT
 10
669.5702030447329
 20
541.7165423037536
 30
0.0
 41
3.999755859375
 42
3.999755859375
 43
3.999755859375
 50
270.0
  0
INSERT
  5
50C
330
505
100
AcDbEntity
  8
notes
 62
     0
370
    -2
100
AcDbBlockReference
  2
_DOT
 10
669.5702030447329
 20
551.716741319221
 30
0.0
 41
3.999755859375
 42
3.999755859375
 43
3.999755859375
 50
90.0
  0
MTEXT
  5
50D
330
505
100
AcDbEntity
  8
notes
  6
Continuous
 62
     0
370
     5
100
AcDbMText
 10
655.8539554861392
 20
505.6749412630934
 30
0.0
 40
24.4326171875
 41
0.0
 46
0.0
 71
     5
 72
     1
  1
\A1;10
  7
ＭＳ ゴシック
 11
0.0
 21
1.0
 31
0.0
 73
     1
 44
1.0
  0
POINT
  5
50E
330
505
100
AcDbEntity
  8
Defpoints
 62
     0
100
AcDbPoint
 10
577.7549091250022
 20
541.7165423037536
 30
0.0
  0
POINT
  5
50F
330
505
100
AcDbEntity
  8
Defpoints
 62
     0
100
AcDbPoint
 10
583.5059831864029
 20
551.716741319221
 30
0.0
  0
POINT
  5
510
330
505
100
AcDbEntity
  8
Defpoints
 62
     0
100
AcDbPoint
 10
669.5702030447329
 20
551.716741319221
 30
0.0
  0
ENDBLK
  5
507
330
505
100
AcDbEntity
  8
0
100
AcDbBlockEnd
  0
BLOCK
  5
513
330
512
100
AcDbEntity
  8
0
100
AcDbBlockBegin
  2
*D49
 70
     1
 10
0.0
 20
0.0
 30
0.0
  3
*D49
  1

  0
LINE
  5
515
330
512
100
AcDbEntity
  8
notes
  6
Continuous
 62
     0
370
    -2
100
AcDbLine
 10
583.5059831864029
 20
526.716741319221
 30
0.0
 11
583.5059831864029
 21
469.8402639006586
 31
0.0
  0
LINE
  5
516
330
512
100
AcDbEntity
  8
notes
  6
Continuous
 62
     0
370
    -2
100
AcDbLine
 10
533.5041077168563
 20
526.716741319221
 30
0.0
 11
533.5041077168563
 21
469.8402639006586
 31
0.0
  0
LINE
  5
517
330
512
100
AcDbEntity
  8
notes
  6
Continuous
 62
     0
370
    -2
100
AcDbLine
 10
579.5062273270279
 20
469.8402639006586
 30
0.0
 11
537.5038635762313
 21
469.8402639006586
 31
0.0
  0
INSERT
  5
518
330
512
100
AcDbEntity
  8
notes
 62
     0
370
    -2
100
AcDbBlockReference
  2
_DOT
 10
583.5059831864029
 20
469.8402639006586
 30
0.0
 41
3.999755859375
 42
3.999755859375
 43
3.999755859375
  0
INSERT
  5
519
330
512
100
AcDbEntity
  8
notes
 62
     0
370
    -2
100
AcDbBlockReference
  2
_DOT
 10
533.5041077168563
 20
469.8402639006586
 30
0.0
 41
3.999755859375
 42
3.999755859375
 43
3.999755859375
 50
180.0
  0
MTEXT
  5
51A
330
512
100
AcDbEntity
  8
notes
  6
Continuous
 62
     0
370
     5
100
AcDbMText
 10
558.5050454516296
 20
443.8897337336316
 30
0.0
 40
24.4326171875
 41
0.0
 46
0.0
 71
     5
 72
     1
  1
\A1;φ50
  7
ＭＳ ゴシック
 73
     1
 44
1.0
  0
POINT
  5
51B
330
512
100
AcDbEntity
  8
Defpoints
 62
     0
100
AcDbPoint
 10
583.5059831864029
 20
551.716741319221
 30
0.0
  0
POINT
  5
51C
330
512
100
AcDbEntity
  8
Defpoints
 62
     0
100
AcDbPoint
 10
533.5041077168563
 20
551.716741319221
 30
0.0
  0
POINT
  5
51D
330
512
100
AcDbEntity
  8
Defpoints
 62
     0
100
AcDbPoint
 10
533.5041077168563
 20
469.8402639006586
 30
0.0
  0
ENDBLK
  5
514
330
512
100
AcDbEntity
  8
0
100
AcDbBlockEnd
  0
BLOCK
  5
520
330
51F
100
AcDbEntity
  8
0
100
AcDbBlockBegin
  2
*D50
 70
     1
 10
0.0
 20
0.0
 30
0.0
  3
*D50
  1

  0
LINE
  5
522
330
51F
100
AcDbEntity
  8
notes
  6
Continuous
 62
     0
370
    -2
100
AcDbLine
 10
579.2558017616858
 20
518.216730626671
 30
0.0
 11
579.2558017616858
 21
499.4511846386139
 31
0.0
  0
LINE
  5
523
330
51F
100
AcDbEntity
  8
notes
  6
Continuous
 62
     0
370
    -2
100
AcDbLine
 10
537.7541130631317
 20
518.216730626671
 30
0.0
 11
537.7541130631317
 21
499.4511846386139
 31
0.0
  0
LINE
  5
524
330
51F
100
AcDbEntity
  8
notes
  6
Continuous
 62
     0
370
    -2
100
AcDbLine
 10
575.2560459023108
 20
499.4511846386139
 30
0.0
 11
541.7538689225067
 21
499.4511846386139
 31
0.0
  0
INSERT
  5
525
330
51F
100
AcDbEntity
  8
notes
 62
     0
370
    -2
100
AcDbBlockReference
  2
_DOT
 10
579.2558017616858
 20
499.4511846386139
 30
0.0
 41
3.999755859375
 42
3.999755859375
 43
3.999755859375
  0
INSERT
  5
526
330
51F
100
AcDbEntity
  8
notes
 62
     0
370
    -2
100
AcDbBlockReference
  2
_DOT
 10
537.7541130631317
 20
499.4511846386139
 30
0.0
 41
3.999755859375
 42
3.999755859375
 43
3.999755859375
 50
180.0
  0
MTEXT
  5
527
330
51F
100
AcDbEntity
  8
notes
  6
Continuous
 62
     0
370
     5
100
AcDbMText
 10
465.4423938377695
 20
513.0875053326981
 30
0.0
 40
24.4326171875
 41
0.0
 46
0.0
 71
     5
 72
     1
  1
\A1;G1 1/4"
  7
ＭＳ ゴシック
 73
     1
 44
1.0
  0
POINT
  5
528
330
51F
100
AcDbEntity
  8
Defpoints
 62
     0
100
AcDbPoint
 10
579.2558017616858
 20
543.216730626671
 30
0.0
  0
POINT
  5
529
330
51F
100
AcDbEntity
  8
Defpoints
 62
     0
100
AcDbPoint
 10
537.7541130631317
 20
543.216730626671
 30
0.0
  0
POINT
  5
52A
330
51F
100
AcDbEntity
  8
Defpoints
 62
     0
100
AcDbPoint
 10
537.7541130631317
 20
499.4511846386139
 30
0.0
  0
ENDBLK
  5
521
330
51F
100
AcDbEntity
  8
0
100
AcDbBlockEnd
  0
BLOCK
  5
543
330
542
100
AcDbEntity
  8
0
100
AcDbBlockBegin
  2
*D51
 70
     1
 10
0.0
 20
0.0
 30
0.0
  3
*D51
  1

  0
LINE
  5
545
330
542
100
AcDbEntity
  8
template
  6
Continuous
 62
     0
370
    -2
100
AcDbLine
 10
751.4495345483987
 20
2212.98980654045
 30
0.0
 11
947.6054092466964
 21
2361.362901244108
 31
0.0
  0
MTEXT
  5
546
330
542
100
AcDbEntity
  8
template
  6
Continuous
 62
     0
370
     5
100
AcDbMText
 10
926.8987648568062
 20
2367.287030144684
 30
0.0
 40
24.4326171875
 41
0.0
 46
0.0
 71
     5
 72
     1
  1
\A1; 
  7
ＭＳ ゴシック
 11
0.797541729778659
 21
0.6032637808302967
 31
0.0
 73
     1
 44
1.0
  0
INSERT
  5
547
330
542
100
AcDbEntity
  8
template
 62
     0
370
    -2
100
AcDbBlockReference
  2
_DOT
 10
748.2595623416204
 20
2210.576898698325
 30
0.0
 41
3.999755859375
 42
3.999755859375
 43
3.999755859375
 50
217.1040080958873
  0
POINT
  5
548
330
542
100
AcDbEntity
  8
Defpoints
 62
     0
100
AcDbPoint
 10
748.2595623416204
 20
2210.576898698325
 30
0.0
  0
POINT
  5
549
330
542
100
AcDbEntity
  8
Defpoints
 62
     0
100
AcDbPoint
 10
718.7505183398087
 20
2188.256138807603
 30
0.0
  0
ENDBLK
  5
544
330
542
100
AcDbEntity
  8
0
100
AcDbBlockEnd
  0
BLOCK
  5
54B
330
54A
100
AcDbEntity
  8
0
100
AcDbBlockBegin
  2
*D52
 70
     1
 10
0.0
 20
0.0
 30
0.0
  3
*D52
  1

  0
LINE
  5
54D
330
54A
100
AcDbEntity
  8
notes
  6
Continuous
 62
     0
370
    -2
100
AcDbLine
 10
1464.478929976573
 20
1036.189328668451
 30
0.0
 11
1444.478929976573
 21
1036.189328668451
 31
0.0
  0
LINE
  5
54E
330
54A
100
AcDbEntity
  8
notes
  6
Continuous
 62
     0
370
    -2
100
AcDbLine
 10
1464.478929976573
 20
1126.189328668451
 30
0.0
 11
1444.478929976573
 21
1126.189328668451
 31
0.0
  0
LINE
  5
54F
330
54A
100
AcDbEntity
  8
notes
  6
Continuous
 62
     0
370
    -2
100
AcDbLine
 10
1444.478929976573
 20
1040.189084527826
 30
0.0
 11
1444.478929976573
 21
1122.189572809076
 31
0.0
  0
INSERT
  5
550
330
54A
100
AcDbEntity
  8
notes
 62
     0
370
    -2
100
AcDbBlockReference
  2
_DOT
 10
1444.478929976573
 20
1036.189328668451
 30
0.0
 41
3.999755859375
 42
3.999755859375
 43
3.999755859375
 50
270.0
  0
INSERT
  5
551
330
54A
100
AcDbEntity
  8
notes
 62
     0
370
    -2
100
AcDbBlockReference
  2
_DOT
 10
1444.478929976573
 20
1126.189328668451
 30
0.0
 41
3.999755859375
 42
3.999755859375
 43
3.999755859375
 50
90.0
  0
MTEXT
  5
552
330
54A
100
AcDbEntity
  8
notes
  6
Continuous
 62
     0
370
     5
100
AcDbMText
 10
1417.113171163944
 20
1220.249759891831
 30
0.0
 40
24.4326171875
 41
0.0
 46
0.0
 71
     5
 72
     1
  1
\A1;90(深さ)
  7
ＭＳ ゴシック
 11
0.0
 21
1.0
 31
0.0
 73
     1
 44
1.0
  0
POINT
  5
553
330
54A
100
AcDbEntity
  8
Defpoints
 62
     0
100
AcDbPoint
 10
1439.478929976573
 20
1036.189328668451
 30
0.0
  0
POINT
  5
554
330
54A
100
AcDbEntity
  8
Defpoints
 62
     0
100
AcDbPoint
 10
1439.478929976573
 20
1126.189328668451
 30
0.0
  0
POINT
  5
555
330
54A
100
AcDbEntity
  8
Defpoints
 62
     0
100
AcDbPoint
 10
1444.478929976573
 20
1126.189328668451
 30
0.0
  0
ENDBLK
  5
54C
330
54A
100
AcDbEntity
  8
0
100
AcDbBlockEnd
  0
BLOCK
  5
557
330
556
100
AcDbEntity
  8
0
100
AcDbBlockBegin
  2
*D53
 70
     1
 10
0.0
 20
0.0
 30
0.0
  3
*D53
  1

  0
LINE
  5
559
330
556
100
AcDbEntity
  8
notes
  6
Continuous
 62
     0
370
    -2
100
AcDbLine
 10
373.4801411443082
 20
976.1819236832372
 30
0.0
 11
373.4801411443082
 21
851.1819236832372
 31
0.0
  0
LINE
  5
55A
330
556
100
AcDbEntity
  8
notes
  6
Continuous
 62
     0
370
    -2
100
AcDbLine
 10
863.480141144309
 20
976.1819236832372
 30
0.0
 11
863.480141144309
 21
851.1819236832372
 31
0.0
  0
LINE
  5
55B
330
556
100
AcDbEntity
  8
notes
  6
Continuous
 62
     0
370
    -2
100
AcDbLine
 10
377.4798970036832
 20
851.1819236832372
 30
0.0
 11
859.480385284934
 21
851.1819236832372
 31
0.0
  0
INSERT
  5
55C
330
556
100
AcDbEntity
  8
notes
 62
     0
370
    -2
100
AcDbBlockReference
  2
_DOT
 10
373.4801411443082
 20
851.1819236832372
 30
0.0
 41
3.999755859375
 42
3.999755859375
 43
3.999755859375
 50
180.0
  0
INSERT
  5
55D
330
556
100
AcDbEntity
  8
notes
 62
     0
370
    -2
100
AcDbBlockReference
  2
_DOT
 10
863.480141144309
 20
851.1819236832372
 30
0.0
 41
3.999755859375
 42
3.999755859375
 43
3.999755859375
  0
MTEXT
  5
55E
330
556
100
AcDbEntity
  8
notes
  6
Continuous
 62
     0
370
     5
100
AcDbMText
 10
613.2283480078661
 20
822.1171711639431
 30
0.0
 40
24.4326171875
 41
0.0
 46
0.0
 71
     5
 72
     1
  1
\A1;490
  7
ＭＳ ゴシック
 73
     1
 44
1.0
  0
POINT
  5
55F
330
556
100
AcDbEntity
  8
Defpoints
 62
     0
100
AcDbPoint
 10
373.4801411443082
 20
1001.181923683237
 30
0.0
  0
POINT
  5
560
330
556
100
AcDbEntity
  8
Defpoints
 62
     0
100
AcDbPoint
 10
863.480141144309
 20
1001.181923683237
 30
0.0
  0
POINT
  5
561
330
556
100
AcDbEntity
  8
Defpoints
 62
     0
100
AcDbPoint
 10
863.480141144309
 20
851.1819236832372
 30
0.0
  0
ENDBLK
  5
558
330
556
100
AcDbEntity
  8
0
100
AcDbBlockEnd
  0
BLOCK
  5
59D
330
59C
100
AcDbEntity
  8
template
390
1D
100
AcDbBlockBegin
  2
*D55
 70
     1
 10
0.0
 20
0.0
 30
0.0
  3
*D55
  1

  0
LINE
  5
59E
330
59C
100
AcDbEntity
  8
0
  6
Continuous
 62
     0
370
    -2
390
1D
100
AcDbLine
 10
4596.94525088768
 20
4940.992533371308
 30
0.0
 11
4781.60035835507
 21
5077.056910123445
 31
0.0
  0
CIRCLE
  5
59F
102
{ACAD_REACTORS
330
5A0
102
}
330
59C
100
AcDbEntity
  8
0
  6
Continuous
 62
     0
370
    -2
390
1D
100
AcDbCircle
 10
4596.94525088768
 20
4940.992533371308
 30
0.0
 40
1.9998779296875
  0
HATCH
  5
5A0
330
59C
100
AcDbEntity
  8
0
  6
Continuous
 62
     0
370
    -2
390
1D
100
AcDbHatch
 10
0.0
 20
0.0
 30
0.0
210
0.0
220
0.0
230
1.0
  2
SOLID
 70
     1
 71
     1
 91
        1
 92
        1
 93
        1
 72
     2
 10
4596.94525088768
 20
4940.992533371308
 40
1.9998779296875
 50
0.0
 51
360.0
 73
     0
 97
        1
330
59F
 75
     0
 76
     1
 98
        1
 10
0.0
 20
0.0
  0
LINE
  5
5A1
330
59C
100
AcDbEntity
  8
0
  6
Continuous
 62
     0
370
    -2
390
1D
100
AcDbLine
 10
4781.60035835507
 20
5077.056910123445
 30
0.0
 11
4952.725365083772
 21
5077.056910123445
 31
0.0
  0
MTEXT
  5
5A2
330
59C
100
AcDbEntity
  8
0
 62
     0
390
1D
100
AcDbMText
 10
4841.60035835507
 20
5110.934527310945
 30
0.0
 40
24.4326171875
 41
0.0
 46
0.0
 71
     1
 72
     1
  1
φ35-37
  7
ＭＳ ゴシック
 73
     1
 44
0.7828267384257843
  0
POINT
  5
5A3
330
59C
100
AcDbEntity
  8
Defpoints
 62
     0
370
     0
390
1D
100
AcDbPoint
 10
4567.158394336542
 20
4919.043884738604
 30
0.0
  0
POINT
  5
5A4
330
59C
100
AcDbEntity
  8
Defpoints
 62
     0
370
     0
390
1D
100
AcDbPoint
 10
4596.94525088768
 20
4940.992533371308
 30
0.0
  0
ENDBLK
  5
5A5
330
59C
100
AcDbEntity
  8
template
390
1D
100
AcDbBlockEnd
  0
BLOCK
  5
5A9
330
5A8
100
AcDbEntity
  8
0
100
AcDbBlockBegin
  2
*D56
 70
     1
 10
0.0
 20
0.0
 30
0.0
  3
*D56
  1

  0
LINE
  5
5AB
330
5A8
100
AcDbEntity
  8
template
  6
Continuous
 62
     0
370
    -2
100
AcDbLine
 10
33.00686071391582
 20
24.32133068605608
 30
0.0
 11
233.2466749459873
 21
171.8694050292606
 31
0.0
  0
MTEXT
  5
5AC
330
5A8
100
AcDbEntity
  8
template
  6
Continuous
 62
     0
370
     5
100
AcDbMText
 10
212.6160122050326
 20
178.0529460850782
 30
0.0
 40
24.4326171875
 41
0.0
 46
0.0
 71
     5
 72
     1
  1
\A1; 
  7
ＭＳ ゴシック
 11
0.8050501770577907
 21
0.5932067198028187
 31
0.0
 73
     1
 44
1.0
  0
INSERT
  5
5AD
330
5A8
100
AcDbEntity
  8
template
 62
     0
370
    -2
100
AcDbBlockReference
  2
_DOT
 10
29.78685655113804
 20
21.94864863270413
 30
0.0
 41
3.999755859375
 42
3.999755859375
 43
3.999755859375
 50
216.3848985276926
  0
POINT
  5
5AE
330
5A8
100
AcDbEntity
  8
Defpoints
 62
     0
100
AcDbPoint
 10
29.78685655113804
 20
21.94864863270413
 30
0.0
  0
POINT
  5
5AF
330
5A8
100
AcDbEntity
  8
Defpoints
 62
     0
100
AcDbPoint
 10
0.0
 20
0.0
 30
0.0
  0
ENDBLK
  5
5AA
330
5A8
100
AcDbEntity
  8
0
100
AcDbBlockEnd
  0
ENDSEC
  0
SECTION
  2
ENTITIES
  0
MTEXT
  5
162
330
A
100
AcDbEntity
  8
template
 62
     7
390
1D
100
AcDbMText
 10
75.0535760839141
 20
356.5924989977239
 30
0.0
 40
16.28841145833333
 41
0.0
 46
0.0
 71
     1
 72
     1
  1
品名
  7
ＭＳ ゴシック
 73
     1
 44
0.7828267384257843
  0
MTEXT
  5
163
330
A
100
AcDbEntity
  8
template
 62
     7
390
1D
100
AcDbMText
 10
75.0535760839141
 20
271.5924989977239
 30
0.0
 40
16.28841145833333
 41
0.0
 46
0.0
 71
     1
 72
     1
  1
仕様
  7
ＭＳ ゴシック
 73
     1
 44
0.7828267384257843
  0
MTEXT
  5
164
330
A
100
AcDbEntity
  8
template
 62
     7
390
1D
100
AcDbMText
 10
128.0535760839141
 20
328.0100380602235
 30
0.0
 40
24.4326171875
 41
0.0
 46
0.0
 71
     1
 72
     1
  1
手洗器 -SANICO,Neo-
  7
ＭＳ ゴシック
 73
     1
 44
0.7828267384257843
  0
LINE
  5
165
330
A
100
AcDbEntity
  8
template
  6
Continuous
 62
     7
370
     5
390
1D
100
AcDbLine
 10
2018.053576083432
 20
280.0074208727237
 30
0.0
 11
68.05357608343206
 21
280.0074208727237
 31
0.0
  0
LWPOLYLINE
  5
166
330
A
100
AcDbEntity
  8
template
  6
Continuous
 62
     7
370
     5
390
1D
100
AcDbPolyline
 90
        5
 70
   128
 43
0.0
 10
2018.053576083915
 20
2910.007420872724
 10
68.0535760839141
 20
2910.007420872724
 10
68.0535760839141
 20
110.0074208727237
 10
2018.053576083915
 20
110.0074208727237
 10
2018.053576083915
 20
2910.007420872724
  0
LINE
  5
167
330
A
100
AcDbEntity
  8
template
  6
Continuous
 62
     7
370
     5
390
1D
100
AcDbLine
 10
2018.053576083432
 20
365.0074208727237
 30
0.0
 11
68.05357608343206
 21
365.0074208727237
 31
0.0
  0
LINE
  5
168
330
A
100
AcDbEntity
  8
template
  6
Continuous
 62
     7
370
     5
390
1D
100
AcDbLine
 10
2018.053576083915
 20
195.0074208727237
 30
0.0
 11
1265.053576083915
 21
195.0074208727237
 31
0.0
  0
MTEXT
  5
169
330
A
100
AcDbEntity
  8
template
 62
     7
390
1D
100
AcDbMText
 10
128.0535760839141
 20
243.0100380602235
 30
0.0
 40
24.4326171875
 41
0.0
 46
0.0
 71
     1
 72
     1
  1
壁掛け,カウンタ ートップ/オーバーフローなし/排水金具,壁取付ボルト付属/\Pホワイトレジン/ホワイト
  7
ＭＳ ゴシック
 73
     1
 44
1.130749733281688
  0
MTEXT
  5
16A
330
A
100
AcDbEntity
  8
template
 62
     7
390
1D
100
AcDbMText
 10
68.05357608411737
 20
98.15359881586664
 30
0.0
 40
21.71788194444445
 41
0.0
 46
0.0
 71
     1
 72
     1
  1
110713SH
  7
ＭＳ ゴシック
 73
     1
 44
0.7828267384257843
  0
MTEXT
  5
16B
330
A
100
AcDbEntity
  8
template
 62
     7
390
1D
100
AcDbMText
 10
1294.924982336174
 20
165.0970263994159
 30
0.0
 40
24.4326171875
 41
0.0
 46
0.0
 71
     1
 72
     1
  1
大洋金物株式会社 ティーフォルム事業部
  7
ＭＳ ゴシック
 73
     1
 44
0.7828267384257843
  0
INSERT
  5
16C
330
A
100
AcDbEntity
  8
template
 62
     7
390
1D
100
AcDbBlockReference
  2
グループ
 10
1082.799346819703
 20
1700.003245202926
 30
0.0
  0
MTEXT
  5
16D
330
A
100
AcDbEntity
  8
template
 62
     7
390
1D
100
AcDbMText
 10
1827.053576084173
 20
243.0100380602235
 30
0.0
 40
24.4326171875
 41
0.0
 46
0.0
 71
     1
 72
     1
  1
1:10
  7
ＭＳ ゴシック
 73
     1
 44
0.7828267384257843
  0
MTEXT
  5
16E
330
A
100
AcDbEntity
  8
template
 62
     7
390
1D
100
AcDbMText
 10
1774.053576084173
 20
271.5924989977239
 30
0.0
 40
16.28841145833333
 41
0.0
 46
0.0
 71
     1
 72
     1
  1
縮尺
  7
ＭＳ ゴシック
 73
     1
 44
0.7828267384257843
  0
LINE
  5
16F
330
A
100
AcDbEntity
  8
template
  6
Continuous
 62
     7
370
     5
390
1D
100
AcDbLine
 10
1767.053576084173
 20
195.0074208727237
 30
0.0
 11
1767.053576084173
 21
280.0074208727237
 31
0.0
  0
MTEXT
  5
170
330
A
100
AcDbEntity
  8
template
 62
     7
390
1D
100
AcDbMText
 10
1523.053576084173
 20
271.5924989977239
 30
0.0
 40
16.28841145833333
 41
0.0
 46
0.0
 71
     1
 72
     1
  1
容量
  7
ＭＳ ゴシック
 73
     1
 44
0.7828267384257843
  0
MTEXT
  5
171
330
A
100
AcDbEntity
  8
template
 62
     7
390
1D
100
AcDbMText
 10
1576.053576084173
 20
243.0100380602235
 30
0.0
 40
24.4326171875
 41
0.0
 46
0.0
 71
     1
 72
     1
  1
4L
  7
ＭＳ ゴシック
 73
     1
 44
0.7828267384257843
  0
LINE
  5
172
330
A
100
AcDbEntity
  8
template
  6
Continuous
 62
     7
370
     5
390
1D
100
AcDbLine
 10
1516.053576084173
 20
195.0074208727237
 30
0.0
 11
1516.053576084173
 21
280.0074208727237
 31
0.0
  0
MTEXT
  5
173
330
A
100
AcDbEntity
  8
template
 62
     7
390
1D
100
AcDbMText
 10
1272.053576084173
 20
356.5924989977239
 30
0.0
 40
16.28841145833333
 41
0.0
 46
0.0
 71
     1
 72
     1
  1
品番
  7
ＭＳ ゴシック
 73
     1
 44
0.7828267384257843
  0
MTEXT
  5
174
330
A
100
AcDbEntity
  8
template
 62
     7
390
1D
100
AcDbMText
 10
1272.053576084173
 20
271.5924989977239
 30
0.0
 40
16.28841145833333
 41
0.0
 46
0.0
 71
     1
 72
     1
  1
重量
  7
ＭＳ ゴシック
 73
     1
 44
0.7828267384257843
  0
MTEXT
  5
175
330
A
100
AcDbEntity
  8
template
 62
     7
390
1D
100
AcDbMText
 10
1325.053576084173
 20
328.0100380602235
 30
0.0
 40
24.4326171875
 41
0.0
 46
0.0
 71
     1
 72
     1
  1
KUF70-0001-001 
  7
ＭＳ ゴシック
 73
     1
 44
0.7828267384257843
  0
MTEXT
  5
176
330
A
100
AcDbEntity
  8
template
 62
     7
390
1D
100
AcDbMText
 10
1325.053576084173
 20
243.0100380602235
 30
0.0
 40
24.4326171875
 41
0.0
 46
0.0
 71
     1
 72
     1
  1
15.5kg
  7
ＭＳ ゴシック
 73
     1
 44
0.7828267384257843
  0
LINE
  5
177
330
A
100
AcDbEntity
  8
template
  6
Continuous
 62
     7
370
     5
390
1D
100
AcDbLine
 10
1265.053576084173
 20
110.0074208727237
 30
0.0
 11
1265.053576084173
 21
365.0074208727237
 31
0.0
  0
MTEXT
  5
179
330
A
100
AcDbEntity
  8
template
 62
     7
390
1D
100
AcDbMText
 10
382.1464421422642
 20
1630.020337008953
 30
0.0
 40
24.4326171875
 41
1301.814267882818
 46
0.0
 71
     1
 72
     1
  1
製品によって多少の寸法公差があります。必ず現物を合わせて取り付けやカウンターの切込を行ってください。
  7
ＭＳ ゴシック
 73
     1
 44
1.174240107638676
  0
MTEXT
  5
17A
330
A
100
AcDbEntity
  8
notes
 62
     7
390
1D
100
AcDbMText
 10
936.048711538296
 20
1217.801779068445
 30
0.0
 40
24.4326171875
 41
0.0
 46
0.0
 71
     1
 72
     1
  1
壁取付ボルト穴(2ヶ所)
  7
ＭＳ ゴシック
 73
     1
 44
0.7828267384257843
  0
MTEXT
  5
17B
330
A
100
AcDbEntity
  8
notes
 62
     7
390
1D
100
AcDbMText
 10
1326.924177888201
 20
2492.173586602295
 30
0.0
 40
24.4326171875
 41
0.0
 46
0.0
 71
     1
 72
     1
  1
カウンター切込寸法
  7
ＭＳ ゴシック
 73
     1
 44
0.7828267384257843
  0
LINE
  5
17C
330
A
100
AcDbEntity
  8
notes
  6
Continuous
 62
     7
370
     5
390
1D
100
AcDbLine
 10
788.4783445548695
 20
1066.189328668451
 30
0.0
 11
928.4265057090424
 21
1181.528288247972
 31
0.0
  0
DIMENSION
  5
17D
330
A
100
AcDbEntity
  8
notes
  6
Continuous
 62
     7
370
     5
390
1D
100
AcDbDimension
  2
*D4
 10
888.5050403407142
 20
2419.39845190579
 30
0.0
 11
618.4916924477914
 21
2436.61476049954
 31
0.0
 70
    32
 71
     5
 42
540.0266957858457
 73
     0
 74
     0
 75
     0
  3
tfrom線あり
100
AcDbAlignedDimension
 13
348.4783445548685
 23
2269.396322976142
 33
0.0
 14
888.5050403407142
 24
2269.416518752964
 34
0.0
100
AcDbRotatedDimension
1001
ACAD
1000
DSTYLE
1002
{
1070
   279
1070
     2
1070
   340
1005
38
1070
   147
1040
5.0
1002
}
  0
DIMENSION
  5
17E
330
A
100
AcDbEntity
  8
notes
  6
Continuous
 62
     7
370
     5
390
1D
100
AcDbDimension
  2
*D5
 10
733.5050403407145
 20
2369.39845190579
 30
0.0
 11
811.0050403407143
 21
2386.61476049954
 31
0.0
 70
    32
 71
     5
 42
154.9999999999998
 73
     0
 74
     0
 75
     0
  3
tfrom線あり
100
AcDbAlignedDimension
 13
888.5050403407142
 23
2269.416518752964
 33
0.0
 14
733.5050403407145
 24
2219.917106518607
 34
0.0
100
AcDbRotatedDimension
1001
ACAD
1000
DSTYLE
1002
{
1070
   279
1070
     2
1070
   340
1005
38
1070
   147
1040
5.0
1002
}
  0
DIMENSION
  5
17F
330
A
100
AcDbEntity
  8
notes
  6
Continuous
 62
     7
370
     5
390
1D
100
AcDbDimension
  2
*D6
 10
1275.280141144309
 20
2369.398309698006
 30
0.0
 11
1490.280141144309
 21
2386.614618291756
 31
0.0
 70
    32
 71
     5
 42
429.9999999999989
 73
     0
 74
     0
 75
     0
  3
tfrom線あり
100
AcDbAlignedDimension
 13
1705.280141144308
 23
2269.398309698006
 33
0.0
 14
1275.280141144309
 24
2269.398309698006
 34
0.0
100
AcDbRotatedDimension
1001
ACAD
1000
DSTYLE
1002
{
1070
   279
1070
     2
1070
   340
1005
38
1070
   147
1040
5.0
1002
}
  0
DIMENSION
  5
180
330
A
100
AcDbEntity
  8
notes
  6
Continuous
 62
     7
370
     5
390
1D
100
AcDbDimension
  2
*D7
 10
198.4783445548684
 20
2269.396322976142
 30
0.0
 11
181.2620359611184
 21
2059.396322976143
 31
0.0
 70
    32
 71
     5
 42
419.9999999999982
 73
     0
 74
     0
 75
     0
  3
tfrom線あり
100
AcDbAlignedDimension
 13
541.0711183670992
 23
1849.396322976144
 33
0.0
 14
348.4783445548685
 24
2269.396322976142
 34
0.0
 50
90.0
100
AcDbRotatedDimension
1001
ACAD
1000
DSTYLE
1002
{
1070
   279
1070
     2
1070
   340
1005
38
1070
   147
1040
5.0
1002
}
  0
DIMENSION
  5
181
330
A
100
AcDbEntity
  8
notes
  6
Continuous
 62
     7
370
     5
390
1D
100
AcDbDimension
  2
*D8
 10
248.4783445548684
 20
2269.396322976142
 30
0.0
 11
231.2620359611184
 21
2079.396936332639
 31
0.0
 70
    32
 71
     5
 42
379.9987732870068
 73
     0
 74
     0
 75
     0
  3
tfrom線あり
100
AcDbAlignedDimension
 13
348.4996113317576
 23
1889.397549689135
 33
0.0
 14
348.4783445548685
 24
2269.396322976142
 34
0.0
 50
90.0
100
AcDbRotatedDimension
1001
ACAD
1000
DSTYLE
1002
{
1070
   279
1070
     2
1070
   340
1005
38
1070
   147
1040
5.0
1002
}
  0
DIMENSION
  5
182
330
A
100
AcDbEntity
  8
notes
  6
Continuous
 62
     7
370
     5
390
1D
100
AcDbDimension
  2
*D9
 10
259.4050403407133
 20
1066.189328668451
 30
0.0
 11
242.1887317469633
 21
1096.189328668451
 31
0.0
 70
    32
 71
     5
 42
60.00000000000068
 73
     0
 74
     0
 75
     0
  3
tfrom線あり
100
AcDbAlignedDimension
 13
368.4783445548685
 23
1126.189328668451
 33
0.0
 14
428.4783445548685
 24
1066.189328668451
 34
0.0
 50
90.0
100
AcDbRotatedDimension
1001
ACAD
1000
DSTYLE
1002
{
1070
   279
1070
     2
1070
   340
1005
38
1070
   147
1040
5.0
1002
}
  0
DIMENSION
  5
183
330
A
100
AcDbEntity
  8
notes
  6
Continuous
 62
     7
370
     5
390
1D
100
AcDbDimension
  2
*D10
 10
888.4783445548694
 20
1276.189328668451
 30
0.0
 11
618.478344554869
 21
1293.405637262201
 31
0.0
 70
    32
 71
     5
 42
540.0000000000009
 73
     0
 74
     0
 75
     0
  3
tfrom線あり
100
AcDbAlignedDimension
 13
348.4783445548685
 23
1126.189328668451
 33
0.0
 14
888.4783445548694
 24
1126.189328668451
 34
0.0
100
AcDbRotatedDimension
1001
ACAD
1000
DSTYLE
1002
{
1070
   279
1070
     2
1070
   340
1005
38
1070
   147
1040
5.0
1002
}
  0
DIMENSION
  5
184
330
A
100
AcDbEntity
  8
notes
  6
Continuous
 62
     7
370
     5
390
1D
100
AcDbDimension
  2
*D11
 10
348.4783445548685
 20
1226.189328668451
 30
0.0
 11
398.4783445548685
 21
1243.405637262201
 31
0.0
 70
    32
 71
     5
 42
100.0
 73
     0
 74
     0
 75
     0
  3
tfrom線あり
100
AcDbAlignedDimension
 13
448.4783445548685
 23
1126.189328668451
 33
0.0
 14
348.4783445548685
 24
1126.189328668451
 34
0.0
100
AcDbRotatedDimension
1001
ACAD
1000
DSTYLE
1002
{
1070
   279
1070
     2
1070
   340
1005
38
1070
   147
1040
5.0
1002
}
  0
DIMENSION
  5
185
330
A
100
AcDbEntity
  8
notes
  6
Continuous
 62
     7
370
     5
390
1D
100
AcDbDimension
  2
*D12
 10
888.4783445548694
 20
1226.189328668451
 30
0.0
 11
838.4783445548694
 21
1243.405637262201
 31
0.0
 70
    32
 71
     5
 42
99.99999999999989
 73
     0
 74
     0
 75
     0
  3
tfrom線あり
100
AcDbAlignedDimension
 13
788.4783445548695
 23
1126.189328668451
 33
0.0
 14
888.4783445548694
 24
1126.189328668451
 34
0.0
100
AcDbRotatedDimension
1001
ACAD
1000
DSTYLE
1002
{
1070
   279
1070
     2
1070
   340
1005
38
1070
   147
1040
5.0
1002
}
  0
DIMENSION
  5
186
330
A
100
AcDbEntity
  8
notes
  6
Continuous
 62
     7
370
     5
390
1D
100
AcDbDimension
  2
*D52
 10
1444.478929976573
 20
1126.189328668451
 30
0.0
 11
1417.113171163944
 21
1220.249759891831
 31
0.0
 70
   160
 71
     5
 42
90.00000000000091
 73
     0
 74
     0
 75
     0
  3
tfrom線あり
100
AcDbAlignedDimension
 13
1439.478929976573
 23
1036.189328668451
 33
0.0
 14
1439.478929976573
 24
1126.189328668451
 34
0.0
 50
90.0
100
AcDbRotatedDimension
1001
ACAD
1000
DSTYLE
1002
{
1070
   279
1070
     2
1070
   340
1005
38
1070
     3
1000
<>(深さ)
1070
   174
1070
     0
1070
   147
1040
5.0
1002
}
  0
DIMENSION
  5
187
330
A
100
AcDbEntity
  8
notes
  6
Continuous
 62
     7
370
     5
390
1D
100
AcDbDimension
  2
*D14
 10
1038.505040340714
 20
2269.415733255013
 30
0.0
 11
1021.288731746964
 21
2091.915733255014
 31
0.0
 70
    32
 71
     5
 42
354.9999999999977
 73
     0
 74
     0
 75
     0
  3
tfrom線あり
100
AcDbAlignedDimension
 13
890.4050403407141
 23
1914.415733255015
 33
0.0
 14
890.4050403407141
 24
2269.415733255013
 34
0.0
 50
90.0
100
AcDbRotatedDimension
1001
ACAD
1000
DSTYLE
1002
{
1070
   279
1070
     2
1070
   340
1005
38
1070
   147
1040
5.0
1002
}
  0
DIMENSION
  5
188
330
A
100
AcDbEntity
  8
notes
  6
Continuous
 62
     7
370
     5
390
1D
100
AcDbDimension
  2
*D15
 10
988.5050403407145
 20
2199.416518752964
 30
0.0
 11
971.2887317469645
 21
2234.416518752964
 31
0.0
 70
    32
 71
     5
 42
70.00000000000001
 73
     0
 74
     0
 75
     0
  3
tfrom線あり
100
AcDbAlignedDimension
 13
888.5050403407142
 23
2269.416518752964
 33
0.0
 14
754.0056281063577
 24
2199.416518752964
 34
0.0
 50
90.0
100
AcDbRotatedDimension
1001
ACAD
1000
DSTYLE
1002
{
1070
   279
1070
     2
1070
   340
1005
38
1070
   147
1040
5.0
1002
}
  0
DIMENSION
  5
189
330
A
100
AcDbEntity
  8
notes
  6
Continuous
 62
     7
370
     5
390
1D
100
AcDbDimension
  2
*D16
 10
995.4050403407142
 20
1126.189328668451
 30
0.0
 11
978.1887317469642
 21
1063.685626175844
 31
0.0
 70
    32
 71
     5
 42
125.0074049852143
 73
     0
 74
     0
 75
     0
  3
tfrom線あり
100
AcDbAlignedDimension
 13
863.480141144309
 23
1001.181923683237
 33
0.0
 14
888.4783445548694
 24
1126.189328668451
 34
0.0
 50
90.0
100
AcDbRotatedDimension
1001
ACAD
1000
DSTYLE
1002
{
1070
   279
1070
     2
1070
   340
1005
38
1070
   147
1040
5.0
1002
}
  0
DIMENSION
  5
18A
330
A
100
AcDbEntity
  8
notes
  6
Continuous
 62
     7
370
     5
390
1D
100
AcDbDimension
  2
*D53
 10
863.480141144309
 20
851.1819236832372
 30
0.0
 11
613.2283480078661
 21
822.1171711639431
 31
0.0
 70
   160
 71
     5
 42
490.0000000000008
 73
     0
 74
     0
 75
     0
  3
tfrom線あり
100
AcDbAlignedDimension
 13
373.4801411443082
 23
1001.181923683237
 33
0.0
 14
863.480141144309
 24
1001.181923683237
 34
0.0
100
AcDbRotatedDimension
1001
ACAD
1000
DSTYLE
1002
{
1070
   279
1070
     2
1070
   340
1005
38
1070
   147
1040
5.0
1002
}
  0
DIMENSION
  5
18B
330
A
100
AcDbEntity
  8
notes
  6
Continuous
 62
     7
370
     5
390
1D
100
AcDbDimension
  2
*D18
 10
348.4783445548685
 20
901.1819236832381
 30
0.0
 11
453.4783445548692
 21
918.3982322769881
 31
0.0
 70
    32
 71
     5
 42
210.0000000000014
 73
     0
 74
     0
 75
     0
  3
tfrom線あり
100
AcDbAlignedDimension
 13
558.4783445548699
 23
1006.189328668451
 33
0.0
 14
348.4783445548685
 24
1126.189328668451
 34
0.0
100
AcDbRotatedDimension
1001
ACAD
1000
DSTYLE
1002
{
1070
   279
1070
     2
1070
   340
1005
38
1070
   147
1040
5.0
1002
}
  0
DIMENSION
  5
18C
330
A
100
AcDbEntity
  8
notes
  6
Continuous
 62
     7
370
     5
390
1D
100
AcDbDimension
  2
*D19
 10
1663.478929976571
 20
901.1819236832372
 30
0.0
 11
1553.478929976572
 21
918.3982322769872
 31
0.0
 70
    32
 71
     5
 42
219.9999999999984
 73
     0
 74
     0
 75
     0
  3
tfrom線あり
100
AcDbAlignedDimension
 13
1443.478929976573
 23
1006.189328668451
 33
0.0
 14
1663.478929976571
 24
1006.189328668451
 34
0.0
100
AcDbRotatedDimension
1001
ACAD
1000
DSTYLE
1002
{
1070
   279
1070
     2
1070
   340
1005
38
1070
   147
1040
5.0
1002
}
  0
DIMENSION
  5
18D
330
A
100
AcDbEntity
  8
notes
  6
Continuous
 62
     7
370
     5
390
1D
100
AcDbDimension
  2
*D20
 10
1860.182718304689
 20
2269.398309698006
 30
0.0
 11
1842.966409710939
 21
2134.398309698007
 31
0.0
 70
    32
 71
     5
 42
269.9999999999975
 73
     0
 74
     0
 75
     0
  3
tfrom線あり
100
AcDbAlignedDimension
 13
1705.280141144308
 23
1999.398309698008
 33
0.0
 14
1705.280141144308
 24
2269.398309698006
 34
0.0
 50
90.0
100
AcDbRotatedDimension
1001
ACAD
1000
DSTYLE
1002
{
1070
   279
1070
     2
1070
   340
1005
38
1070
   147
1040
5.0
1002
}
  0
DIMENSION
  5
18E
330
A
100
AcDbEntity
  8
notes
  6
Continuous
 62
     7
370
     5
390
1D
100
AcDbDimension
  2
*D21
 10
1663.478929976571
 20
851.1819236832372
 30
0.0
 11
1480.978929976572
 21
868.3982322769872
 31
0.0
 70
    32
 71
     5
 42
364.9999999999989
 73
     0
 74
     0
 75
     0
  3
tfrom線あり
100
AcDbAlignedDimension
 13
1298.478929976573
 23
1006.189328668451
 33
0.0
 14
1663.478929976571
 24
1006.189328668451
 34
0.0
100
AcDbRotatedDimension
1001
ACAD
1000
DSTYLE
1002
{
1070
   279
1070
     2
1070
   340
1005
38
1070
   147
1040
5.0
1002
}
  0
CIRCLE
  5
18F
330
A
100
AcDbEntity
  8
KUF70-0001
  6
Continuous
 62
     7
370
    15
390
1D
100
AcDbCircle
 10
548.4783445548696
 20
2049.396322976144
 30
0.0
 40
25.00000000000028
  0
CIRCLE
  5
190
330
A
100
AcDbEntity
  8
KUF70-0001
  6
Continuous
 62
     7
370
    15
390
1D
100
AcDbCircle
 10
733.5050403407145
 20
2199.416518752964
 30
0.0
 40
18.5
  0
POLYLINE
  5
191
330
A
100
AcDbEntity
  8
KUF70-0001
  6
Continuous
 62
     7
370
    15
390
1D
100
AcDb2dPolyline
 66
     1
 10
0.0
 20
0.0
 30
0.0
 70
     1
 75
     5
  0
VERTEX
  5
192
330
191
100
AcDbEntity
  8
KUF70-0001
  6
Continuous
 62
     7
370
    15
390
1D
100
AcDbVertex
100
AcDb2dVertex
 10
348.4783445548685
 20
1126.189328668451
 30
0.0
  0
VERTEX
  5
193
330
191
100
AcDbEntity
  8
KUF70-0001
  6
Continuous
 62
     7
370
    15
390
1D
100
AcDbVertex
100
AcDb2dVertex
 10
888.4783445548694
 20
1126.189328668451
 30
0.0
  0
VERTEX
  5
194
330
191
100
AcDbEntity
  8
KUF70-0001
  6
Continuous
 62
     7
370
    15
390
1D
100
AcDbVertex
100
AcDb2dVertex
 10
863.480141144309
 20
1001.181923683237
 30
0.0
  0
VERTEX
  5
195
330
191
100
AcDbEntity
  8
KUF70-0001
  6
Continuous
 62
     7
370
    15
390
1D
100
AcDbVertex
100
AcDb2dVertex
 10
373.4801411443082
 20
1001.181923683237
 30
0.0
  0
SEQEND
  5
196
330
191
100
AcDbEntity
  8
KUF70-0001
  6
Continuous
 62
     7
370
    15
390
1D
  0
LINE
  5
197
330
A
100
AcDbEntity
  8
KUF70-0001
  6
STYLE_12
 62
     7
370
    15
390
1D
100
AcDbLine
 10
448.4783445548685
 20
1046.189328668451
 30
0.0
 11
448.4783445548685
 21
1086.189328668451
 31
0.0
  0
LINE
  5
198
330
A
100
AcDbEntity
  8
KUF70-0001
  6
STYLE_12
 62
     7
370
    15
390
1D
100
AcDbLine
 10
468.4783445548686
 20
1066.189328668451
 30
0.0
 11
428.4783445548685
 21
1066.189328668451
 31
0.0
  0
CIRCLE
  5
199
330
A
100
AcDbEntity
  8
KUF70-0001
  6
STYLE_12
 62
     7
370
    15
390
1D
100
AcDbCircle
 10
448.4783445548685
 20
1066.189328668451
 30
0.0
 40
10.0
  0
LINE
  5
19A
330
A
100
AcDbEntity
  8
KUF70-0001
  6
STYLE_12
 62
     7
370
    15
390
1D
100
AcDbLine
 10
788.4783445548695
 20
1046.189328668451
 30
0.0
 11
788.4783445548695
 21
1086.189328668451
 31
0.0
  0
LINE
  5
19B
330
A
100
AcDbEntity
  8
KUF70-0001
  6
STYLE_12
 62
     7
370
    15
390
1D
100
AcDbLine
 10
808.4783445548694
 20
1066.189328668451
 30
0.0
 11
768.4783445548696
 21
1066.189328668451
 31
0.0
  0
CIRCLE
  5
19C
330
A
100
AcDbEntity
  8
KUF70-0001
  6
STYLE_12
 62
     7
370
    15
390
1D
100
AcDbCircle
 10
788.4783445548695
 20
1066.189328668451
 30
0.0
 40
9.999999999999943
  0
POLYLINE
  5
19D
330
A
100
AcDbEntity
  8
KUF70-0001
  6
Continuous
 62
     7
370
    15
390
1D
100
AcDb2dPolyline
 66
     1
 10
0.0
 20
0.0
 30
0.0
 70
     1
 75
     5
  0
VERTEX
  5
19E
330
19D
100
AcDbEntity
  8
KUF70-0001
  6
Continuous
 62
     7
370
    15
390
1D
100
AcDbVertex
100
AcDb2dVertex
 10
1663.478929976571
 20
1126.189328668451
 30
0.0
  0
VERTEX
  5
19F
330
19D
100
AcDbEntity
  8
KUF70-0001
  6
Continuous
 62
     7
370
    15
390
1D
100
AcDbVertex
100
AcDb2dVertex
 10
1243.480141144309
 20
1126.181923683238
 30
0.0
  0
VERTEX
  5
1A0
330
19D
100
AcDbEntity
  8
KUF70-0001
  6
Continuous
 62
     7
370
    15
390
1D
100
AcDbVertex
100
AcDb2dVertex
 10
1298.480141144309
 20
1001.181923683237
 30
0.0
  0
VERTEX
  5
1A1
330
19D
100
AcDbEntity
  8
KUF70-0001
  6
Continuous
 62
     7
370
    15
390
1D
100
AcDbVertex
100
AcDb2dVertex
 10
1663.480141144308
 20
1001.181923683237
 30
0.0
  0
SEQEND
  5
1A2
330
19D
100
AcDbEntity
  8
KUF70-0001
  6
Continuous
 62
     7
370
    15
390
1D
  0
LINE
  5
1A3
330
A
100
AcDbEntity
  8
KUF70-0001
  6
STYLE_12
 62
     7
370
    15
390
1D
100
AcDbLine
 10
588.5050403407149
 20
1036.189328668451
 30
0.0
 11
588.5050403407149
 21
1016.189328668451
 31
0.0
  0
LINE
  5
1A4
330
A
100
AcDbEntity
  8
KUF70-0001
  6
STYLE_12
 62
     7
370
    15
390
1D
100
AcDbLine
 10
1473.478929976573
 20
1036.189328668451
 30
0.0
 11
1473.478929976573
 21
1016.189328668451
 31
0.0
  0
CIRCLE
  5
1A5
330
A
100
AcDbEntity
  8
KUF70-0001
  6
STYLE_12
 62
     7
370
     5
390
1D
100
AcDbCircle
 10
1420.156022518846
 20
2049.396322976144
 30
0.0
 40
25.0
  0
CIRCLE
  5
1A6
330
A
100
AcDbEntity
  8
KUF70-0001
  6
STYLE_12
 62
     7
370
     5
390
1D
100
AcDbCircle
 10
1585.182718304689
 20
2194.416518752964
 30
0.0
 40
20.50058776564316
  0
POLYLINE
  5
1A7
330
A
100
AcDbEntity
  8
KUF70-0001
  6
Continuous
 62
     7
370
    15
390
1D
100
AcDb2dPolyline
 66
     1
 10
0.0
 20
0.0
 30
0.0
 70
     1
 75
     5
  0
VERTEX
  5
1A8
330
1A7
100
AcDbEntity
  8
KUF70-0001
  6
Continuous
 62
     7
370
    15
390
1D
100
AcDbVertex
100
AcDb2dVertex
 10
1275.280141144309
 20
2269.398309698006
 30
0.0
  0
VERTEX
  5
1A9
330
1A7
100
AcDbEntity
  8
KUF70-0001
  6
Continuous
 62
     7
370
    15
390
1D
100
AcDbVertex
100
AcDb2dVertex
 10
1705.280141144308
 20
2269.398309698006
 30
0.0
  0
VERTEX
  5
1AA
330
1A7
100
AcDbEntity
  8
KUF70-0001
  6
Continuous
 62
     7
370
    15
390
1D
100
AcDbVertex
100
AcDb2dVertex
 10
1705.280141144308
 20
1999.398309698008
 30
0.0
  0
VERTEX
  5
1AB
330
1A7
100
AcDbEntity
  8
KUF70-0001
  6
Continuous
 62
     7
370
    15
390
1D
100
AcDbVertex
100
AcDb2dVertex
 10
1275.280141144309
 20
1999.398309698008
 30
0.0
  0
SEQEND
  5
1AC
330
1A7
100
AcDbEntity
  8
KUF70-0001
  6
Continuous
 62
     7
370
    15
390
1D
  0
LINE
  5
1AD
330
A
100
AcDbEntity
  8
KUF70-0001
  6
STYLE_12
 62
     7
370
    15
390
1D
100
AcDbLine
 10
1473.478929976573
 20
1016.189328668451
 30
0.0
 11
1413.478929976573
 21
1016.189328668451
 31
0.0
  0
SPLINE
  5
1AE
330
A
100
AcDbEntity
  8
KUF70-0001
  6
Continuous
 62
     7
370
    15
390
1D
100
AcDbSpline
210
0.0
220
0.0
230
1.0
 70
     8
 71
     2
 72
     7
 73
     4
 74
     0
 42
0.000000001
 43
0.000001
 40
0.0
 40
0.0
 40
0.0
 40
1.0
 40
2.0
 40
2.0
 40
2.0
 10
348.4996113317576
 20
1891.169613896644
 30
0.0
 10
557.5849077872363
 20
1821.941464287295
 30
0.0
 10
829.383390874161
 20
1907.470879552242
 30
0.0
 10
888.5050403407142
 20
1914.416518752966
 30
0.0
  0
SPLINE
  5
1AF
330
A
100
AcDbEntity
  8
KUF70-0001
  6
STYLE_12
 62
     7
370
    15
390
1D
100
AcDbSpline
210
0.0
220
0.0
230
1.0
 70
     8
 71
     2
 72
     7
 73
     4
 74
     0
 42
0.000000001
 43
0.000001
 40
0.0
 40
0.0
 40
0.0
 40
1.0
 40
2.0
 40
2.0
 40
2.0
 10
1473.478929976573
 20
1036.189328668451
 30
0.0
 10
1548.846525584211
 20
1045.908221143507
 30
0.0
 10
1615.509413642899
 20
1109.917712134204
 30
0.0
 10
1634.378929976571
 20
1126.189328668451
 30
0.0
  0
LINE
  5
1B0
330
A
100
AcDbEntity
  8
KUF70-0001
  6
Continuous
 62
     7
370
    15
390
1D
100
AcDbLine
 10
348.4783445548685
 20
2269.396322976142
 30
0.0
 11
888.5050403407142
 21
2269.416518752964
 31
0.0
  0
LINE
  5
1B1
330
A
100
AcDbEntity
  8
KUF70-0001
  6
Continuous
 62
     7
370
    15
390
1D
100
AcDbLine
 10
888.5050403407142
 20
2269.416518752964
 30
0.0
 11
888.5050403407142
 21
1914.416518752966
 31
0.0
  0
LINE
  5
1B2
330
A
100
AcDbEntity
  8
KUF70-0001
  6
Continuous
 62
     7
370
    15
390
1D
100
AcDbLine
 10
348.4783445548685
 20
2269.396322976142
 30
0.0
 11
348.4996113317576
 21
1889.397549689135
 31
0.0
  0
SPLINE
  5
1B3
330
A
100
AcDbEntity
  8
KUF70-0001
  6
STYLE_12
 62
     7
370
     5
390
1D
100
AcDbSpline
210
0.0
220
0.0
230
1.0
 70
     8
 71
     2
 72
     7
 73
     4
 74
     0
 42
0.000000001
 43
0.000001
 40
0.0
 40
0.0
 40
0.0
 40
1.0
 40
2.0
 40
2.0
 40
2.0
 10
1220.178107559249
 20
1891.166145606823
 30
0.0
 10
1429.263404014727
 20
1821.937995997475
 30
0.0
 10
1701.06188710165
 20
1907.467411262421
 30
0.0
 10
1760.183536568204
 20
1914.413050463145
 30
0.0
  0
LINE
  5
1B4
330
A
100
AcDbEntity
  8
KUF70-0001
  6
STYLE_12
 62
     7
370
     5
390
1D
100
AcDbLine
 10
1220.15684078236
 20
2269.392854686322
 30
0.0
 11
1760.183536568204
 21
2269.413050463143
 31
0.0
  0
LINE
  5
1B5
330
A
100
AcDbEntity
  8
KUF70-0001
  6
STYLE_12
 62
     7
370
     5
390
1D
100
AcDbLine
 10
1760.183536568204
 20
2269.413050463143
 30
0.0
 11
1760.183536568204
 21
1914.413050463145
 31
0.0
  0
LINE
  5
1B6
330
A
100
AcDbEntity
  8
KUF70-0001
  6
STYLE_12
 62
     7
370
     5
390
1D
100
AcDbLine
 10
1220.15684078236
 20
2269.392854686322
 30
0.0
 11
1220.178107559249
 21
1891.166145606823
 31
0.0
  0
DIMENSION
  5
1B7
330
A
100
AcDbEntity
  8
KUF70-0001
  6
Continuous
 62
     7
370
     5
390
1D
100
AcDbDimension
  2
*D22
 10
1167.053576083673
 20
1126.181923683238
 30
0.0
 11
1149.837267489923
 21
1071.185626175844
 31
0.0
 70
    32
 71
     5
 42
109.9925950147874
 73
     0
 74
     0
 75
     0
  3
tfrom線あり
100
AcDbAlignedDimension
 13
1291.876882950815
 23
1016.189328668451
 33
0.0
 14
1243.480141144309
 24
1126.181923683238
 34
0.0
 50
90.0
100
AcDbRotatedDimension
1001
ACAD
1000
DSTYLE
1002
{
1070
   279
1070
     2
1070
   340
1005
38
1070
   147
1040
5.0
1002
}
  0
LINE
  5
1B8
330
A
100
AcDbEntity
  8
KUF70-0001
  6
STYLE_12
 62
     7
370
    15
390
1D
100
AcDbLine
 10
1413.48014114431
 20
1036.189328668451
 30
0.0
 11
1413.48014114431
 21
1016.189328668451
 31
0.0
  0
SPLINE
  5
1B9
330
A
100
AcDbEntity
  8
KUF70-0001
  6
STYLE_12
 62
     7
370
    15
390
1D
100
AcDbSpline
210
0.0
220
0.0
230
1.0
 70
     8
 71
     2
 72
     7
 73
     4
 74
     0
 42
0.000000001
 43
0.000001
 40
0.0
 40
0.0
 40
0.0
 40
1.0
 40
2.0
 40
2.0
 40
2.0
 10
1413.48014114431
 20
1036.189328668451
 30
0.0
 10
1338.11254553667
 20
1045.908221143507
 30
0.0
 10
1271.449657477981
 20
1109.917712134204
 30
0.0
 10
1252.580141144309
 20
1126.189328668451
 30
0.0
  0
LINE
  5
1BA
330
A
100
AcDbEntity
  8
KUF70-0001
  6
STYLE_12
 62
     7
370
     5
390
1D
100
AcDbLine
 10
588.5050403407149
 20
1016.189328668451
 30
0.0
 11
528.5050403407142
 21
1016.189328668451
 31
0.0
  0
SPLINE
  5
1BB
330
A
100
AcDbEntity
  8
KUF70-0001
  6
STYLE_12
 62
     7
370
     5
390
1D
100
AcDbSpline
210
0.0
220
0.0
230
1.0
 70
     8
 71
     2
 72
     7
 73
     4
 74
     0
 42
0.000000001
 43
0.000001
 40
0.0
 40
0.0
 40
0.0
 40
1.0
 40
2.0
 40
2.0
 40
2.0
 10
588.5050403407149
 20
1036.189328668451
 30
0.0
 10
654.6150408700889
 20
1034.829571511762
 30
0.0
 10
728.1626138224508
 20
1125.564069976366
 30
0.0
 10
749.4050403407145
 20
1126.189328668451
 30
0.0
  0
SPLINE
  5
1BC
330
A
100
AcDbEntity
  8
KUF70-0001
  6
STYLE_12
 62
     7
370
     5
390
1D
100
AcDbSpline
210
0.0
220
0.0
230
1.0
 70
     8
 71
     2
 72
     7
 73
     4
 74
     0
 42
0.000000001
 43
0.000001
 40
0.0
 40
0.0
 40
0.0
 40
1.0
 40
2.0
 40
2.0
 40
2.0
 10
528.5050403407142
 20
1036.189328668451
 30
0.0
 10
462.3950398113391
 20
1034.829571511762
 30
0.0
 10
388.8474668589776
 20
1125.564069976366
 30
0.0
 10
367.6050403407133
 20
1126.189328668451
 30
0.0
  0
LINE
  5
1BD
330
A
100
AcDbEntity
  8
KUF70-0001
  6
STYLE_12
 62
     7
370
    15
390
1D
100
AcDbLine
 10
528.5050403407142
 20
1036.189328668451
 30
0.0
 11
528.5050403407142
 21
1016.189328668451
 31
0.0
  0
DIMENSION
  5
486
330
A
100
AcDbEntity
  8
notes
  6
Continuous
 62
     7
370
     5
390
1D
100
AcDbDimension
  2
*D45
 10
522.5050352297998
 20
664.1823917559807
 30
0.0
 11
558.5050403407145
 21
684.6696524141599
 31
0.0
 70
   160
 71
     5
 42
72.00001022182983
 73
     0
 74
     0
 75
     0
  3
tfrom線あり
100
AcDbAlignedDimension
 13
594.5050454516296
 23
613.6971060741553
 33
0.0
 14
522.5050352297998
 24
613.7551456235627
 34
0.0
100
AcDbRotatedDimension
1001
ACAD
1000
DSTYLE
1002
{
1070
   279
1070
     2
1070
   340
1005
38
1070
     3
1000
φ<>
1002
}
  0
DIMENSION
  5
487
330
A
100
AcDbEntity
  8
notes
  6
Continuous
 62
     7
370
     5
390
1D
100
AcDbDimension
  2
*D46
 10
457.6827584135788
 20
607.6977614100183
 30
0.0
 11
432.478476802345
 21
592.2074365836853
 31
0.0
 70
   160
  1
MAX.50
 71
     5
 42
30.98064965266622
 73
     0
 74
     0
 75
     0
  3
tfrom線あり
100
AcDbAlignedDimension
 13
527.0538261636358
 23
576.7171117573521
 33
0.0
 14
526.9045116451099
 24
607.6977614100183
 34
0.0
 50
90.0
100
AcDbRotatedDimension
1001
ACAD
1000
DSTYLE
1002
{
1070
   279
1070
     2
1070
   340
1005
38
1002
}
  0
DIMENSION
  5
488
330
A
100
AcDbEntity
  8
notes
  6
Continuous
 62
     7
370
     5
390
1D
100
AcDbDimension
  2
*D47
 10
669.5702030447329
 20
551.716741319221
 30
0.0
 11
653.8359868592511
 21
605.7909672454152
 31
0.0
 70
   160
 71
     5
 42
25.00037043813109
 73
     0
 74
     0
 75
     0
  3
tfrom線あり
100
AcDbAlignedDimension
 13
589.9582016024816
 23
576.7171117573521
 33
0.0
 14
583.5059831864029
 24
551.716741319221
 34
0.0
 50
90.0
100
AcDbRotatedDimension
1001
ACAD
1000
DSTYLE
1002
{
1070
   279
1070
     2
1070
   340
1005
38
1002
}
  0
DIMENSION
  5
489
330
A
100
AcDbEntity
  8
notes
  6
Continuous
 62
     7
370
     5
390
1D
100
AcDbDimension
  2
*D48
 10
669.5702030447329
 20
551.716741319221
 30
0.0
 11
655.8539554861392
 21
505.6749412630934
 31
0.0
 70
   160
 71
     5
 42
10.00019901546739
 73
     0
 74
     0
 75
     0
  3
tfrom線あり
100
AcDbAlignedDimension
 13
577.7549091250022
 23
541.7165423037536
 33
0.0
 14
583.5059831864029
 24
551.716741319221
 34
0.0
 50
90.0
100
AcDbRotatedDimension
1001
ACAD
1000
DSTYLE
1002
{
1070
   279
1070
     2
1070
   340
1005
38
1002
}
  0
DIMENSION
  5
48A
330
A
100
AcDbEntity
  8
notes
  6
Continuous
 62
     7
370
     5
390
1D
100
AcDbDimension
  2
*D49
 10
533.5041077168563
 20
469.8402639006586
 30
0.0
 11
558.5050454516296
 21
443.8897337336316
 31
0.0
 70
   160
 71
     5
 42
50.00187546954658
 73
     0
 74
     0
 75
     0
  3
tfrom線あり
100
AcDbAlignedDimension
 13
583.5059831864029
 23
551.716741319221
 33
0.0
 14
533.5041077168563
 24
551.716741319221
 34
0.0
100
AcDbRotatedDimension
1001
ACAD
1000
DSTYLE
1002
{
1070
   279
1070
     2
1070
   340
1005
38
1070
     3
1000
φ<>
1002
}
  0
DIMENSION
  5
48B
330
A
100
AcDbEntity
  8
notes
  6
Continuous
 62
     7
370
     5
390
1D
100
AcDbDimension
  2
*D50
 10
537.7541130631317
 20
499.4511846386139
 30
0.0
 11
465.4423938377695
 21
513.0875053326981
 31
0.0
 70
   160
  1
G1 1/4"
 71
     5
 42
41.50168869855406
 73
     0
 74
     0
 75
     0
  3
tfrom線あり
100
AcDbAlignedDimension
 13
579.2558017616858
 23
543.216730626671
 33
0.0
 14
537.7541130631317
 24
543.216730626671
 34
0.0
100
AcDbRotatedDimension
1001
ACAD
1000
DSTYLE
1002
{
1070
   279
1070
     2
1070
   340
1005
38
1002
}
  0
LWPOLYLINE
  5
48C
330
A
100
AcDbEntity
  8
ATB73-1901
  6
Continuous
370
    20
390
1D
100
AcDbPolyline
 90
        4
 70
   128
 43
0.0
 10
533.5041077168563
 20
570.3198298150701
 10
533.5041077168563
 20
551.716741319221
 10
583.5059831864029
 20
551.716741319221
 10
583.5059831864029
 20
570.3198298150701
  0
LINE
  5
48D
330
A
100
AcDbEntity
  8
ATB73-1901
  6
Continuous
370
    20
390
1D
100
AcDbLine
 10
589.4567302006427
 20
570.3198298150701
 30
0.0
 11
527.5533607026165
 21
570.3198298150701
 31
0.0
  0
LWPOLYLINE
  5
48E
330
A
100
AcDbEntity
  8
ATB73-1901
  6
Continuous
370
    20
390
1D
100
AcDbPolyline
 90
       34
 70
   128
 43
0.0
 10
527.0538261636358
 20
573.2170244940944
 10
527.0538261636358
 20
570.8170753343097
 10
527.0538422863339
 20
570.8141468705694
 42
0.023199158013714
 10
527.0561731544641
 20
570.769272509538
 10
527.0561882035482
 20
570.7691198867965
 42
0.0228453587782126
 10
527.062591319731
 20
570.7249516935781
 10
527.0626091896121
 20
570.7248586008909
 42
0.0225592004716144
 10
527.0729468255068
 20
570.6816359638901
 10
527.0729594193964
 20
570.6815921462962
 42
0.0222922942134623
 10
527.0870981605177
 20
570.6395544829461
 42
0.0220661019322142
 10
527.1049043233371
 20
570.5989367269481
 42
0.0218904848885035
 10
527.1262064413269
 20
570.5600412694507
 10
527.1262242030144
 20
570.5600119605133
 42
0.021808472346344
 10
527.1508777441514
 20
570.5230667834621
 10
527.1533536589014
 20
570.519685593807
 42
0.0216646390673617
 10
527.1760632703564
 20
570.4913353859779
 42
0.0144856709331533
 10
527.2007740922664
 20
570.4646856871836
 10
527.2009085985675
 20
570.4645488025958
 42
0.0187875685871695
 10
527.2276080441399
 20
570.4393449801178
 10
527.2286934797013
 20
570.438394860133
 42
0.0238141549050472
 10
527.2596846128373
 20
570.4137712801294
 10
527.2619482014935
 20
570.4121423273641
 42
0.0234542194862616
 10
527.2994129568989
 20
570.3877632527997
 10
527.2994581288386
 20
570.3877367869122
 42
0.0230606026208613
 10
527.3389340990208
 20
570.3669906726632
 42
0.0226865421371516
 10
527.3801407651837
 20
570.3499372242072
 42
0.0223584837097442
 10
527.4227148177098
 20
570.3366595281741
 10
527.4227553943093
 20
570.3366488379602
 42
0.0220952725074226
 10
527.4664230457248
 20
570.327185136051
 10
527.4677898287711
 20
570.3269515914549
 42
0.0219008930287896
 10
527.5096868278043
 20
570.3216681849794
 10
527.5110399360493
 20
570.3215574606265
 42
0.0190613687038246
 10
527.5505278464426
 20
570.3198374813037
 10
527.5533607026165
 20
570.3198298150701
  0
LWPOLYLINE
  5
48F
330
A
100
AcDbEntity
  8
ATB73-1901
  6
Continuous
370
    20
390
1D
100
AcDbPolyline
 90
       49
 70
   128
 43
0.0
 10
527.5533607026165
 20
573.719904523467
 10
527.5524675996577
 20
573.71990153978
 42
0.0124442569184911
 10
527.5264774303024
 20
573.7191676936613
 42
0.0140765873539204
 10
527.5005649562328
 20
573.7170572276732
 10
527.4997103287552
 20
573.7169633411631
 42
0.0139996459612352
 10
527.4723842045279
 20
573.7131844969713
 10
527.4723611920218
 20
573.7131806553061
 42
0.0139362149333324
 10
527.4453343887309
 20
573.707890783317
 10
527.4453201079378
 20
573.7078875725447
 42
0.0138885481933461
 10
527.41865763618
 20
573.7011099241577
 42
0.0138552348807121
 10
527.3924180465466
 20
573.6928660069989
 42
0.0138472540973784
 10
527.3666798369533
 20
573.6831831378126
 42
0.0138582073893028
 10
527.341507258655
 20
573.6720854110595
 42
0.0138787271650143
 10
527.3169799964927
 20
573.6596053134062
 10
527.3169644444107
 20
573.659596848765
 42
0.0139214895358298
 10
527.293138023858
 20
573.645755349185
 10
527.2931155988164
 20
573.645741472797
 42
0.0139801012180769
 10
527.2700542461499
 20
573.630563767183
 10
527.2700249483715
 20
573.6305432887607
 42
0.0140523261579424
 10
527.247792950876
 20
573.6140547541936
 10
527.2450498155096
 20
573.6118982165085
 42
0.0141350456886951
 10
527.2290007454068
 20
573.5985301516926
 10
527.2277218304026
 20
573.5974021508446
 42
0.0070614722258565
 10
527.2147745171343
 20
573.5856534250843
 42
0.0113561972811683
 10
527.2022706205054
 20
573.5734378059738
 10
527.1985910980367
 20
573.5696760540272
 42
0.0139520208903816
 10
527.1798509090669
 20
573.549415947477
 10
527.1798306302109
 20
573.5493927582484
 42
0.0134270538476567
 10
527.1622660865115
 20
573.5281842361214
 10
527.1622513125932
 20
573.5281653891325
 42
0.0133933836648699
 10
527.1458775473894
 20
573.5060841168556
 10
527.1458676776439
 20
573.5060700334852
 42
0.0133728409295846
 10
527.1307177507671
 20
573.4831729814282
 42
0.0133660767598141
 10
527.1168191436728
 20
573.459508844056
 42
0.0133895121303139
 10
527.104214422162
 20
573.4351500916032
 42
0.013433093692141
 10
527.092935991098
 20
573.4101545744261
 42
0.0134969709076652
 10
527.0830162594694
 20
573.3845801138236
 42
0.0135721521047157
 10
527.0744920867156
 20
573.3584992517754
 10
527.074487756846
 20
573.3584846755998
 42
0.0136676855966053
 10
527.067388495908
 20
573.3319491386092
 10
527.0673830292063
 20
573.3319262129294
 42
0.0137771725287332
 10
527.0617405358154
 20
573.3049952226252
 10
527.0617346499049
 20
573.3049626880611
 42
0.0138958801025731
 10
527.0575805366663
 20
573.2776956514731
 10
527.0572613419937
 20
573.2751220593691
 42
0.017551892692653
 10
527.0546581345199
 20
573.24571617638
 10
527.0545213348706
 20
573.2431470064298
 42
0.0124073239706574
 10
527.0538292808079
 20
573.218770877033
 10
527.0538261636358
 20
573.2170244940944
  0
LINE
  5
490
330
A
100
AcDbEntity
  8
ATB73-1901
  6
Continuous
370
    20
390
1D
100
AcDbLine
 10
589.9582016024816
 20
573.2170244940944
 30
0.0
 11
589.9582016024816
 21
570.8170753343097
 31
0.0
  0
LWPOLYLINE
  5
491
330
A
100
AcDbEntity
  8
ATB73-1901
  6
Continuous
370
    20
390
1D
100
AcDbPolyline
 90
       52
 70
   128
 43
0.0
 10
589.4567302006427
 20
570.3198298150701
 10
589.4576545726414
 20
570.3198326404863
 42
0.0117151390183895
 10
589.483721224242
 20
570.3205231974684
 42
0.0134450653851184
 10
589.5097178883826
 20
570.3225237672691
 10
589.5105737465093
 20
570.3226128323522
 42
0.01355817258414
 10
589.537823931888
 20
570.3261978089809
 10
589.5378846209261
 20
570.326207473553
 42
0.013667467108946
 10
589.564778405461
 20
570.3312474595091
 10
589.5648226962668
 20
570.3312570196504
 42
0.013771529620959
 10
589.5913114314
 20
570.3377428817034
 10
589.5913390826964
 20
570.3377504651207
 42
0.0138688613981445
 10
589.6173740408532
 20
570.3456731689216
 42
0.013951940231079
 10
589.6429172557065
 20
570.3550274146323
 42
0.0140398451363869
 10
589.6678920860787
 20
570.3657947103097
 42
0.0141029795501801
 10
589.6922274893305
 20
570.3779523433682
 10
589.6922495300579
 20
570.3779641427177
 42
0.0141550022217254
 10
589.7159027045865
 20
570.3915016700876
 10
589.7159405739095
 20
570.3915247910008
 42
0.0141904144239167
 10
589.7388630836277
 20
570.4064290067213
 10
589.7389161930088
 20
570.4064657237154
 42
0.0142070614503121
 10
589.7610598019265
 20
570.4227233825277
 10
589.7611273535414
 20
570.4227759959986
 42
0.0142094280154847
 10
589.7824438060098
 20
570.440374111538
 10
589.7838505853243
 20
570.4416043556716
 42
0.017743880266795
 10
589.8067179918627
 20
570.4630806396449
 10
589.8092392408399
 20
570.4656227647624
 10
589.8099024846325
 20
570.4662731205308
 42
0.0122183676466702
 10
589.8281519328585
 20
570.4850643121631
 42
0.0139263173605787
 10
589.8453928259443
 20
570.5047818247681
 10
589.8459434323187
 20
570.5054480905383
 42
0.0139437109176372
 10
589.8629309622767
 20
570.5272124099106
 10
589.8629681604617
 20
570.5272629102483
 42
0.0139587312522098
 10
589.878643869629
 20
570.5498377708041
 10
589.8786702015842
 20
570.5498780467619
 42
0.0139725441846221
 10
589.8930107254592
 20
570.573210892197
 10
589.8930276315651
 20
570.5732402049862
 42
0.013986144762017
 10
589.9060096409686
 20
570.597278457903
 10
589.9060185365335
 20
570.5972960918643
 42
0.0140002566255695
 10
589.9176187201875
 20
570.6219871592134
 42
0.0140122621025176
 10
589.9278160567056
 20
570.6472836893049
 42
0.0140352660493547
 10
589.9365797369329
 20
570.6731147496703
 42
0.0140470549583118
 10
589.9438823642532
 20
570.6994049536424
 10
589.9438878372131
 20
570.6994270454934
 42
0.0140627337879325
 10
589.9497114702473
 20
570.7261304592671
 10
589.949718421307
 20
570.7261672770164
 42
0.0140768100856796
 10
589.9540426995483
 20
570.7532299193181
 10
589.9540495424582
 20
570.7532821397581
 42
0.0140915501074954
 10
589.9568539785679
 20
570.7806500445708
 10
589.9569877026635
 20
570.7824554419553
 42
0.0176114419819963
 10
589.9581923428697
 20
570.8135556390166
 10
589.958198557829
 20
570.8153335850275
 10
589.9582016024816
 20
570.8170753343097
  0
LWPOLYLINE
  5
492
330
A
100
AcDbEntity
  8
ATB73-1901
  6
Continuous
370
    20
390
1D
100
AcDbPolyline
 90
       51
 70
   128
 43
0.0
 10
589.9582016024816
 20
573.2170244940944
 10
589.9581986264039
 20
573.2179301205265
 42
0.0123373122097484
 10
589.9574698449643
 20
573.2439888735794
 42
0.0140066973325145
 10
589.9553699907502
 20
573.2699708059317
 10
589.9552767041461
 20
573.270825973977
 42
0.013974234941058
 10
589.9515182744882
 20
573.298168202145
 10
589.9515126783582
 20
573.2982019034607
 42
0.0139459821396504
 10
589.9462472506931
 20
573.3252247744263
 10
589.9462424252853
 20
573.3252463197318
 42
0.0139236222881211
 10
589.9394906517883
 20
573.3518911536257
 42
0.0139031831890558
 10
589.9312704041623
 20
573.3781093289608
 42
0.0139017955248024
 10
589.9216084174205
 20
573.403821288201
 42
0.0139086551979633
 10
589.9105265867348
 20
573.4289690105584
 42
0.0139113727638281
 10
589.8980584019956
 20
573.4534731420363
 10
589.8980467906705
 20
573.4534944724401
 42
0.0139278199099989
 10
589.8842099873119
 20
573.4773087906701
 10
589.8841908934465
 20
573.4773396415289
 42
0.0139504022939569
 10
589.8690087020469
 20
573.5004064759087
 10
589.8689807501997
 20
573.5004464684557
 42
0.0139774514791146
 10
589.8524765019612
 20
573.5227081453195
 10
589.8524382089046
 20
573.5227568877567
 42
0.0140099719554028
 10
589.8346352201544
 20
573.5441556480059
 10
589.8334192575413
 20
573.5455366087408
 42
0.017583942064725
 10
589.8117790236912
 20
573.5684370771537
 10
589.8092392408399
 20
573.5709421618253
 10
589.8085840239829
 20
573.5716030378212
 42
0.0119348480506322
 10
589.7896683212158
 20
573.5897925494824
 42
0.0136412224271385
 10
589.7698491117291
 20
573.6069896676181
 10
589.7691793960449
 20
573.607539486436
 42
0.0136991230923139
 10
589.7473308657337
 20
573.6244963406275
 10
589.7472791936744
 20
573.6245342221541
 42
0.0137551912727591
 10
589.7246384547499
 20
573.6401936162733
 10
589.7245971574376
 20
573.6402205308923
 42
0.0138095116568848
 10
589.7012120973751
 20
573.6545571268098
 10
589.7011822153019
 20
573.6545743296956
 42
0.0138620333076306
 10
589.6771007198014
 20
573.6675627588293
 10
589.6770832925496
 20
573.667571543639
 42
0.0139124728231827
 10
589.6523532451694
 20
573.6791863924141
 42
0.0139580351054448
 10
589.6270185967998
 20
573.6894038990895
 42
0.0140101810638839
 10
589.6011457005171
 20
573.6981911416196
 42
0.0140437209049391
 10
589.5748100965731
 20
573.7055173710082
 10
589.5747834872101
 20
573.7055239742526
 42
0.0140767707539624
 10
589.548024228614
 20
573.7113700472601
 10
589.5479808953525
 20
573.7113782435922
 42
0.0141018141122861
 10
589.5208478218193
 20
573.7157217887325
 10
589.5207868733661
 20
573.7157297901044
 42
0.014121391795297
 10
589.4933297559475
 20
573.7185483145704
 10
589.4915043778275
 20
573.7186837363174
 42
0.0176421122147279
 10
589.4602741262371
 20
573.7198952058989
 10
589.4584810973112
 20
573.7199014663502
 10
589.4567302006427
 20
573.719904523467
  0
LWPOLYLINE
  5
493
330
A
100
AcDbEntity
  8
ATB73-1901
  6
Continuous
370
    20
390
1D
100
AcDbPolyline
 90
        5
 70
   128
 43
0.0
 10
589.9582016024816
 20
573.719904523467
 10
589.9582016024816
 20
576.7171117573521
 10
527.0538261636358
 20
576.7171117573521
 10
527.0538261636358
 20
573.719904523467
 10
589.9582016024816
 20
573.719904523467
  0
LWPOLYLINE
  5
494
330
A
100
AcDbEntity
  8
ATB73-1901
  6
Continuous
370
    20
390
1D
100
AcDbPolyline
 90
        6
 70
   128
 43
0.0
 10
579.2558017616858
 20
551.716741319221
 10
579.2558017616858
 20
543.216730626671
 10
577.7549091250022
 20
541.7165423037536
 10
539.2539492291654
 20
541.7165423037536
 10
537.7541130631317
 20
543.216730626671
 10
537.7541130631317
 20
551.716741319221
  0
LINE
  5
495
330
A
100
AcDbEntity
  8
ATB73-1901
  6
Continuous
370
    20
390
1D
100
AcDbLine
 10
562.5046992982423
 20
612.6973326824268
 30
0.0
 11
562.5046992982423
 21
607.6977614100183
 31
0.0
  0
LINE
  5
496
330
A
100
AcDbEntity
  8
ATB73-1901
  6
Continuous
370
    20
390
1D
100
AcDbLine
 10
560.855956765413
 20
584.3773779217121
 30
0.0
 11
560.855956765413
 21
576.7171117573521
 31
0.0
  0
LINE
  5
497
330
A
100
AcDbEntity
  8
ATB73-1901
  6
Continuous
370
    20
390
1D
100
AcDbLine
 10
560.3661065407233
 20
584.3773779217121
 30
0.0
 11
560.3661065407233
 21
576.7171117573521
 31
0.0
  0
LINE
  5
498
330
A
100
AcDbEntity
  8
ATB73-1901
  6
Continuous
370
    20
390
1D
100
AcDbLine
 10
556.6445125978609
 20
584.3773779217121
 30
0.0
 11
556.6445125978609
 21
576.7171117573521
 31
0.0
  0
LINE
  5
499
330
A
100
AcDbEntity
  8
ATB73-1901
  6
Continuous
370
    20
390
1D
100
AcDbLine
 10
556.1546623731712
 20
584.3773779217121
 30
0.0
 11
556.1546623731712
 21
576.7171117573521
 31
0.0
  0
LINE
  5
49A
330
A
100
AcDbEntity
  8
ATB73-1901
  6
Continuous
370
    20
390
1D
100
AcDbLine
 10
539.2539492291654
 20
541.7165423037536
 30
0.0
 11
539.2539492291654
 21
551.716741319221
 31
0.0
  0
LINE
  5
49B
330
A
100
AcDbEntity
  8
ATB73-1901
  6
Continuous
370
    20
390
1D
100
AcDbLine
 10
577.7549091250022
 20
541.7165423037536
 30
0.0
 11
577.7549091250022
 21
551.716741319221
 31
0.0
  0
LINE
  5
49C
330
A
100
AcDbEntity
  8
ATB73-1901
  6
Continuous
370
    20
390
1D
100
AcDbLine
 10
537.7541130631317
 20
543.216730626671
 30
0.0
 11
579.2558017616858
 21
543.216730626671
 31
0.0
  0
POLYLINE
  5
49D
330
A
100
AcDbEntity
  8
レイヤー 1
  6
Continuous
370
    20
100
AcDb2dPolyline
 66
     1
 10
0.0
 20
0.0
 30
0.0
  0
VERTEX
  5
49E
330
49D
100
AcDbEntity
  8
レイヤー 1
  6
Continuous
370
    20
100
AcDbVertex
100
AcDb2dVertex
 10
525.8600167933889
 20
598.2077228710492
 30
0.0
  0
VERTEX
  5
49F
330
49D
100
AcDbEntity
  8
レイヤー 1
  6
Continuous
370
    20
100
AcDbVertex
100
AcDb2dVertex
 10
591.1534043060458
 20
598.2077228710492
 30
0.0
  0
SEQEND
  5
4A0
330
49D
100
AcDbEntity
  8
レイヤー 1
  6
Continuous
370
    20
  0
POLYLINE
  5
4A1
330
A
100
AcDbEntity
  8
レイヤー 1
  6
Continuous
370
    20
100
AcDb2dPolyline
 66
     1
 10
0.0
 20
0.0
 30
0.0
  0
VERTEX
  5
4A2
330
4A1
100
AcDbEntity
  8
レイヤー 1
  6
Continuous
370
    20
100
AcDbVertex
100
AcDb2dVertex
 10
591.15305979627
 20
597.0043502241931
 30
0.0
  0
VERTEX
  5
4A3
330
4A1
100
AcDbEntity
  8
レイヤー 1
  6
Continuous
370
    20
100
AcDbVertex
100
AcDb2dVertex
 10
525.8596722836131
 20
597.0043502241931
 30
0.0
  0
SEQEND
  5
4A4
330
4A1
100
AcDbEntity
  8
レイヤー 1
  6
Continuous
370
    20
  0
POLYLINE
  5
4A5
330
A
100
AcDbEntity
  8
レイヤー 1
  6
Continuous
370
    20
100
AcDb2dPolyline
 66
     1
 10
0.0
 20
0.0
 30
0.0
  0
VERTEX
  5
4A6
330
4A5
100
AcDbEntity
  8
レイヤー 1
  6
Continuous
370
    20
100
AcDbVertex
100
AcDb2dVertex
 10
525.8600167933889
 20
597.0043502241931
 30
0.0
  0
VERTEX
  5
4A7
330
4A5
100
AcDbEntity
  8
レイヤー 1
  6
Continuous
370
    20
100
AcDbVertex
100
AcDb2dVertex
 10
525.8600167933889
 20
598.2077228710492
 30
0.0
  0
SEQEND
  5
4A8
330
4A5
100
AcDbEntity
  8
レイヤー 1
  6
Continuous
370
    20
  0
POLYLINE
  5
4A9
330
A
100
AcDbEntity
  8
レイヤー 1
  6
Continuous
370
    20
100
AcDb2dPolyline
 66
     1
 10
0.0
 20
0.0
 30
0.0
  0
VERTEX
  5
4AA
330
4A9
100
AcDbEntity
  8
レイヤー 1
  6
Continuous
370
    20
100
AcDbVertex
100
AcDb2dVertex
 10
591.15305979627
 20
597.0043502241931
 30
0.0
  0
VERTEX
  5
4AB
330
4A9
100
AcDbEntity
  8
レイヤー 1
  6
Continuous
370
    20
100
AcDbVertex
100
AcDb2dVertex
 10
591.15305979627
 20
598.2077228710492
 30
0.0
  0
SEQEND
  5
4AC
330
4A9
100
AcDbEntity
  8
レイヤー 1
  6
Continuous
370
    20
  0
POLYLINE
  5
4AD
330
A
100
AcDbEntity
  8
レイヤー 1
  6
Continuous
370
    20
100
AcDb2dPolyline
 66
     1
 10
0.0
 20
0.0
 30
0.0
  0
VERTEX
  5
4AE
330
4AD
100
AcDbEntity
  8
レイヤー 1
  6
Continuous
370
    20
100
AcDbVertex
100
AcDb2dVertex
 10
574.8270860310653
 20
593.7070471600481
 30
0.0
  0
VERTEX
  5
4AF
330
4AD
100
AcDbEntity
  8
レイヤー 1
  6
Continuous
370
    20
100
AcDbVertex
100
AcDb2dVertex
 10
574.8270860310653
 20
585.1521804074777
 30
0.0
  0
SEQEND
  5
4B0
330
4AD
100
AcDbEntity
  8
レイヤー 1
  6
Continuous
370
    20
  0
POLYLINE
  5
4B1
330
A
100
AcDbEntity
  8
レイヤー 1
  6
Continuous
370
    20
100
AcDb2dPolyline
 66
     1
 10
0.0
 20
0.0
 30
0.0
  0
VERTEX
  5
4B2
330
4B1
100
AcDbEntity
  8
レイヤー 1
  6
Continuous
370
    20
100
AcDbVertex
100
AcDb2dVertex
 10
542.185301539042
 20
593.7070471600481
 30
0.0
  0
VERTEX
  5
4B3
330
4B1
100
AcDbEntity
  8
レイヤー 1
  6
Continuous
370
    20
100
AcDbVertex
100
AcDb2dVertex
 10
542.185301539042
 20
585.1521804074777
 30
0.0
  0
SEQEND
  5
4B4
330
4B1
100
AcDbEntity
  8
レイヤー 1
  6
Continuous
370
    20
  0
SPLINE
  5
4B5
330
A
100
AcDbEntity
  8
レイヤー 1
  6
Continuous
370
    20
100
AcDbSpline
210
0.0
220
0.0
230
1.0
 70
     8
 71
     3
 72
     8
 73
     4
 74
     0
 42
0.000000001
 43
0.0000000001
 40
0.0
 40
0.0
 40
0.0
 40
0.0
 40
1.0
 40
1.0
 40
1.0
 40
1.0
 10
574.0515945257482
 20
584.3773779217121
 30
0.0
 10
574.4794756672869
 20
584.3773779217121
 30
0.0
 10
574.8270860310653
 20
584.7184425997502
 30
0.0
 10
574.8270860310653
 20
585.1521804074777
 30
0.0
  0
SPLINE
  5
4B6
330
A
100
AcDbEntity
  8
レイヤー 1
  6
Continuous
370
    20
100
AcDbSpline
210
0.0
220
0.0
230
1.0
 70
     8
 71
     3
 72
     8
 73
     4
 74
     0
 42
0.000000001
 43
0.0000000001
 40
0.0
 40
0.0
 40
0.0
 40
0.0
 40
1.0
 40
1.0
 40
1.0
 40
1.0
 10
542.185301539042
 20
585.1525249172535
 30
0.0
 10
542.185301539042
 20
584.718959364414
 30
0.0
 10
542.5313616088292
 20
584.3773779217121
 30
0.0
 10
542.9623433383503
 20
584.3773779217121
 30
0.0
  0
POLYLINE
  5
4B7
330
A
100
AcDbEntity
  8
レイヤー 1
  6
Continuous
370
    20
100
AcDb2dPolyline
 66
     1
 10
0.0
 20
0.0
 30
0.0
  0
VERTEX
  5
4B8
330
4B7
100
AcDbEntity
  8
レイヤー 1
  6
Continuous
370
    20
100
AcDbVertex
100
AcDb2dVertex
 10
574.0515945257482
 20
584.3773779217121
 30
0.0
  0
VERTEX
  5
4B9
330
4B7
100
AcDbEntity
  8
レイヤー 1
  6
Continuous
370
    20
100
AcDbVertex
100
AcDb2dVertex
 10
542.962687848126
 20
584.3773779217121
 30
0.0
  0
SEQEND
  5
4BA
330
4B7
100
AcDbEntity
  8
レイヤー 1
  6
Continuous
370
    20
  0
POLYLINE
  5
4BB
330
A
100
AcDbEntity
  8
レイヤー 1
  6
Continuous
370
    20
100
AcDb2dPolyline
 66
     1
 10
0.0
 20
0.0
 30
0.0
  0
VERTEX
  5
4BC
330
4BB
100
AcDbEntity
  8
レイヤー 1
  6
Continuous
370
    20
100
AcDbVertex
100
AcDb2dVertex
 10
591.15305979627
 20
607.6977614100183
 30
0.0
  0
VERTEX
  5
4BD
330
4BB
100
AcDbEntity
  8
レイヤー 1
  6
Continuous
370
    20
100
AcDbVertex
100
AcDb2dVertex
 10
525.8596722836131
 20
607.6977614100183
 30
0.0
  0
SEQEND
  5
4BE
330
4BB
100
AcDbEntity
  8
レイヤー 1
  6
Continuous
370
    20
  0
POLYLINE
  5
4BF
330
A
100
AcDbEntity
  8
レイヤー 1
  6
Continuous
370
    20
100
AcDb2dPolyline
 66
     1
 10
0.0
 20
0.0
 30
0.0
  0
VERTEX
  5
4C0
330
4BF
100
AcDbEntity
  8
レイヤー 1
  6
Continuous
370
    20
100
AcDbVertex
100
AcDb2dVertex
 10
563.1722973745589
 20
538.6038964794352
 30
0.0
  0
VERTEX
  5
4C1
330
4BF
100
AcDbEntity
  8
レイヤー 1
  6
Continuous
370
    20
100
AcDbVertex
100
AcDb2dVertex
 10
563.1722973745589
 20
541.7161977939778
 30
0.0
  0
SEQEND
  5
4C2
330
4BF
100
AcDbEntity
  8
レイヤー 1
  6
Continuous
370
    20
  0
POLYLINE
  5
4C3
330
A
100
AcDbEntity
  8
レイヤー 1
  6
Continuous
370
    20
100
AcDb2dPolyline
 66
     1
 10
0.0
 20
0.0
 30
0.0
  0
VERTEX
  5
4C4
330
4C3
100
AcDbEntity
  8
レイヤー 1
  6
Continuous
370
    20
100
AcDbVertex
100
AcDb2dVertex
 10
553.834015391828
 20
538.6038964794352
 30
0.0
  0
VERTEX
  5
4C5
330
4C3
100
AcDbEntity
  8
レイヤー 1
  6
Continuous
370
    20
100
AcDbVertex
100
AcDb2dVertex
 10
553.834015391828
 20
541.7161977939778
 30
0.0
  0
SEQEND
  5
4C6
330
4C3
100
AcDbEntity
  8
レイヤー 1
  6
Continuous
370
    20
  0
SPLINE
  5
4C7
330
A
100
AcDbEntity
  8
レイヤー 1
  6
Continuous
370
    20
100
AcDbSpline
210
0.0
220
0.0
230
1.0
 70
     8
 71
     3
 72
     8
 73
     4
 74
     0
 42
0.000000001
 43
0.0000000001
 40
0.0
 40
0.0
 40
0.0
 40
0.0
 40
1.0
 40
1.0
 40
1.0
 40
1.0
 10
553.834015391828
 20
538.6038964794352
 30
0.0
 10
553.834015391828
 20
538.1760153378964
 30
0.0
 10
554.1831760495974
 20
537.8321945816518
 30
0.0
 10
554.6157080731094
 20
537.8321945816518
 30
0.0
  0
SPLINE
  5
4C8
330
A
100
AcDbEntity
  8
レイヤー 1
  6
Continuous
370
    20
100
AcDbSpline
210
0.0
220
0.0
230
1.0
 70
     8
 71
     3
 72
     8
 73
     4
 74
     0
 42
0.000000001
 43
0.0000000001
 40
0.0
 40
0.0
 40
0.0
 40
0.0
 40
1.0
 40
1.0
 40
1.0
 40
1.0
 10
560.0630966479985
 20
537.0505019003704
 30
0.0
 10
560.488221711331
 20
537.0505019003704
 30
0.0
 10
560.834454036006
 20
537.4019018716824
 30
0.0
 10
560.834454036006
 20
537.8325390914276
 30
0.0
  0
SPLINE
  5
4C9
330
A
100
AcDbEntity
  8
レイヤー 1
  6
Continuous
370
    20
100
AcDbSpline
210
0.0
220
0.0
230
1.0
 70
     8
 71
     3
 72
     8
 73
     4
 74
     0
 42
0.000000001
 43
0.0000000001
 40
0.0
 40
0.0
 40
0.0
 40
0.0
 40
1.0
 40
1.0
 40
1.0
 40
1.0
 10
556.1728922597082
 20
537.8325390914276
 30
0.0
 10
556.1728922597082
 20
537.4019018716824
 30
0.0
 10
556.5222251723654
 20
537.0501573905946
 30
0.0
 10
556.9475224905857
 20
537.0501573905946
 30
0.0
  0
POLYLINE
  5
4CA
330
A
100
AcDbEntity
  8
レイヤー 1
  6
Continuous
370
    20
100
AcDb2dPolyline
 66
     1
 10
0.0
 20
0.0
 30
0.0
  0
VERTEX
  5
4CB
330
4CA
100
AcDbEntity
  8
レイヤー 1
  6
Continuous
370
    20
100
AcDbVertex
100
AcDb2dVertex
 10
560.0630966479985
 20
537.0505019003704
 30
0.0
  0
VERTEX
  5
4CC
330
4CA
100
AcDbEntity
  8
レイヤー 1
  6
Continuous
370
    20
100
AcDbVertex
100
AcDb2dVertex
 10
556.9475224905857
 20
537.0505019003704
 30
0.0
  0
SEQEND
  5
4CD
330
4CA
100
AcDbEntity
  8
レイヤー 1
  6
Continuous
370
    20
  0
SPLINE
  5
4CE
330
A
100
AcDbEntity
  8
レイヤー 1
  6
Continuous
370
    20
100
AcDbSpline
210
0.0
220
0.0
230
1.0
 70
     8
 71
     3
 72
     8
 73
     4
 74
     0
 42
0.000000001
 43
0.0000000001
 40
0.0
 40
0.0
 40
0.0
 40
0.0
 40
1.0
 40
1.0
 40
1.0
 40
1.0
 10
562.3923272421564
 20
537.8325390914276
 30
0.0
 10
562.8264095596595
 20
537.8325390914276
 30
0.0
 10
563.1729863941105
 20
538.1760153378964
 30
0.0
 10
563.1729863941105
 20
538.604240989211
 30
0.0
  0
POLYLINE
  5
4CF
330
A
100
AcDbEntity
  8
レイヤー 1
  6
Continuous
370
    20
100
AcDb2dPolyline
 66
     1
 10
0.0
 20
0.0
 30
0.0
  0
VERTEX
  5
4D0
330
4CF
100
AcDbEntity
  8
レイヤー 1
  6
Continuous
370
    20
100
AcDbVertex
100
AcDb2dVertex
 10
562.3923272421564
 20
537.8325390914276
 30
0.0
  0
VERTEX
  5
4D1
330
4CF
100
AcDbEntity
  8
レイヤー 1
  6
Continuous
370
    20
100
AcDbVertex
100
AcDb2dVertex
 10
554.6153635633336
 20
537.8325390914276
 30
0.0
  0
SEQEND
  5
4D2
330
4CF
100
AcDbEntity
  8
レイヤー 1
  6
Continuous
370
    20
  0
ARC
  5
4D3
330
A
100
AcDbEntity
  8
ATB73-1901
  6
Continuous
370
     0
100
AcDbCircle
 10
528.0025761868272
 20
592.0205880572254
 30
0.0
 40
14.28264130761
100
AcDbArc
 50
6.781164714818709
 51
20.42239735330488
  0
ARC
  5
4D4
330
A
100
AcDbEntity
  8
ATB73-1901
  6
Continuous
370
     0
100
AcDbCircle
 10
528.0025761868272
 20
592.0205880572254
 30
0.0
 40
14.28264130761
100
AcDbArc
 50
25.67034315253876
 51
98.62758872800865
  0
ARC
  5
4D5
330
A
100
AcDbEntity
  8
ATB73-1901
  6
Continuous
370
     0
100
AcDbCircle
 10
589.011706187047
 20
592.0205880572254
 30
0.0
 40
14.28264130761
100
AcDbArc
 50
159.5776026466951
 51
173.2188352851813
  0
ARC
  5
4D6
330
A
100
AcDbEntity
  8
ATB73-1901
  6
Continuous
370
     0
100
AcDbCircle
 10
589.011706187047
 20
592.0205880572254
 30
0.0
 40
14.28264130761
100
AcDbArc
 50
81.37241127199137
 51
154.3296568474613
  0
ARC
  5
4D7
330
A
100
AcDbEntity
  8
ATB73-1901
  6
Continuous
370
     0
100
AcDbCircle
 10
525.8638027220642
 20
606.9196860813827
 30
0.0
 40
0.7780845392933852
100
AcDbArc
 50
90.27878537563495
 51
269.7212146243734
  0
ARC
  5
4D8
330
A
100
AcDbEntity
  8
ATB73-1901
  6
Continuous
370
     0
100
AcDbCircle
 10
591.1504796518101
 20
606.9196860813827
 30
0.0
 40
0.7780845392933852
100
AcDbArc
 50
270.2787853756266
 51
89.72121462436505
  0
LINE
  5
4D9
330
A
100
AcDbEntity
  8
ATB73-1901
  6
Continuous
370
    20
390
1D
100
AcDbLine
 10
554.5053916050169
 20
612.6973326824268
 30
0.0
 11
554.5053916050169
 21
607.6977614100183
 31
0.0
  0
LINE
  5
4DA
330
A
100
AcDbEntity
  8
ATB73-1901
  6
Continuous
370
     0
100
AcDbLine
 10
594.5052215300713
 20
612.6973326824268
 30
0.0
 11
594.5050454516296
 21
613.6971060741553
 31
0.0
  0
LINE
  5
4DB
330
A
100
AcDbEntity
  8
ATB73-1901
  6
Continuous
370
     0
100
AcDbLine
 10
522.5052215300713
 20
612.6973326824268
 30
0.0
 11
522.5050454516296
 21
613.6971060741553
 31
0.0
  0
LINE
  5
4DC
330
A
100
AcDbEntity
  8
ATB73-1901
  6
Continuous
370
     0
100
AcDbLine
 10
522.5052215300713
 20
612.6973326824268
 30
0.0
 11
594.5052215300713
 21
612.6973326824268
 31
0.0
  0
LINE
  5
4DD
330
A
100
AcDbEntity
  8
ATB73-1901
  6
Continuous
370
     0
100
AcDbLine
 10
522.5050454516296
 20
613.6971060741553
 30
0.0
 11
594.5050454516296
 21
613.6971060741553
 31
0.0
  0
ARC
  5
4DE
330
A
100
AcDbEntity
  8
ATB73-1901
  6
Continuous
370
     0
100
AcDbCircle
 10
558.4486814717144
 20
543.8110561155994
 30
0.0
 40
78.6391846490151
100
AcDbArc
 50
62.70939830928346
 51
117.1982289120085
  0
LINE
  5
52C
330
A
100
AcDbEntity
  8
notes
  6
Continuous
370
     0
100
AcDbLine
 10
541.7538689225067
 20
499.4511846386139
 30
0.0
 11
404.9530738358063
 21
499.4511846386139
 31
0.0
  0
LINE
  5
52D
330
A
100
AcDbEntity
  8
notes
  6
Continuous
370
     0
100
AcDbLine
 10
669.5702030447329
 20
549.7160540225036
 30
0.0
 11
669.5702030447329
 21
486.3181273182421
 31
0.0
  0
LINE
  5
52E
330
A
100
AcDbEntity
  8
notes
  6
Continuous
370
     0
100
AcDbLine
 10
669.5702030447329
 20
576.7171117573521
 30
0.0
 11
669.5702030447329
 21
628.6253714847104
 31
0.0
  0
MTEXT
  5
52F
330
A
100
AcDbEntity
  8
template
 62
     7
390
1D
100
AcDbMText
 10
504.4702659223798
 20
775.5019619416809
 30
0.0
 40
24.4326171875
 41
0.0
 46
27.0469072265625
 71
     1
 72
     1
  1
{排水目皿}
  7
ＭＳ ゴシック
 73
     1
 44
0.7828267384257843
1001
ACAD
1000
ACAD_MTEXT_DEFINED_HEIGHT_BEGIN
1070
    46
1040
27.0469072265625
1000
ACAD_MTEXT_DEFINED_HEIGHT_END
  0
LWPOLYLINE
  5
541
330
A
100
AcDbEntity
  8
border
  6
Continuous
370
     0
100
AcDbPolyline
 90
        4
 70
     1
 43
0.0
 10
0.0
 20
0.0
 10
0.0
 20
2970.0
 10
2100.0
 20
2970.0
 10
2100.0
 20
0.0
  0
LINE
  5
568
330
A
100
AcDbEntity
  8
notes
  6
Continuous
370
     0
100
AcDbLine
 10
1444.478929976573
 20
1110.636203141408
 30
0.0
 11
1444.478929976573
 21
1280.649066672676
 31
0.0
  0
LINE
  5
5B0
330
A
100
AcDbEntity
  8
notes
  6
Continuous
370
     0
100
AcDbLine
 10
746.5851031869835
 20
2212.499406658073
 30
0.0
 11
931.9886048905555
 21
2345.646322939403
 31
0.0
  0
LINE
  5
5B1
330
A
100
AcDbEntity
  8
notes
  6
Continuous
370
     0
100
AcDbLine
 10
931.9886048905555
 20
2345.646322939403
 30
0.0
 11
1066.567208443727
 21
2345.646322939402
 31
0.0
  0
MTEXT
  5
5DF
330
A
100
AcDbEntity
  8
template
 62
     7
390
1D
100
AcDbMText
 10
946.9389952945211
 20
2382.708166824593
 30
0.0
 40
24.4326171875
 41
0.0
 46
24.4326171875
 71
     1
 72
     1
  1
{%%c35-37}
  7
ＭＳ ゴシック
 73
     1
 44
0.7828267384257843
1001
ACAD
1000
ACAD_MTEXT_DEFINED_HEIGHT_BEGIN
1070
    46
1040
24.4326171875
1000
ACAD_MTEXT_DEFINED_HEIGHT_END
  0
ENDSEC
  0
SECTION
  2
OBJECTS
  0
DICTIONARY
  5
19
330
0
100
AcDbDictionary
281
     1
  3
ACAD_COLOR
350
218
  3
ACAD_DETAILVIEWSTYLE
350
53A
  3
ACAD_GROUP
350
1A
  3
ACAD_LAYOUT
350
1E
  3
ACAD_MATERIAL
350
1F9
  3
ACAD_MLEADERSTYLE
350
1FF
  3
ACAD_MLINESTYLE
350
1B
  3
ACAD_PLOTSETTINGS
350
22
  3
ACAD_PLOTSTYLENAME
350
1F
  3
ACAD_SCALELIST
350
1BE
  3
ACAD_SECTIONVIEWSTYLE
350
53B
  3
ACAD_TABLESTYLE
350
1FD
  3
ACAD_VISUALSTYLE
350
1E0
  3
ACDB_RECOMPOSE_DATA
350
5F3
  3
AcDbVariableDictionary
350
531
  3
APPDATA
350
201
  0
DICTIONARY
  5
2D9
330
2
100
AcDbDictionary
280
     1
281
     1
  3
ACAD_LAYERSTATES
360
2DA
  3
ACLYDICTIONARY
360
567
  0
DICTIONARY
  5
218
102
{ACAD_REACTORS
330
19
102
}
330
19
100
AcDbDictionary
281
     1
  0
DICTIONARY
  5
53A
102
{ACAD_REACTORS
330
19
102
}
330
19
100
AcDbDictionary
281
     1
  0
DICTIONARY
  5
1A
102
{ACAD_REACTORS
330
19
102
}
330
19
100
AcDbDictionary
281
     1
  3
*A2
350
389
  3
*A3
350
38A
  0
DICTIONARY
  5
1E
102
{ACAD_REACTORS
330
19
102
}
330
19
100
AcDbDictionary
281
     1
  3
Layout1
350
21
  3
Model
350
20
  0
DICTIONARY
  5
1F9
102
{ACAD_REACTORS
330
19
102
}
330
19
100
AcDbDictionary
281
     1
  3
ByBlock
350
1FB
  3
ByLayer
350
1FA
  3
Global
350
1FC
  0
DICTIONARY
  5
1FF
102
{ACAD_REACTORS
330
19
102
}
330
19
100
AcDbDictionary
281
     1
  3
Standard
350
200
  0
DICTIONARY
  5
1B
102
{ACAD_REACTORS
330
19
102
}
330
19
100
AcDbDictionary
281
     1
  3
Standard
350
1C
  0
DICTIONARY
  5
22
102
{ACAD_REACTORS
330
19
102
}
330
19
100
AcDbDictionary
281
     1
  0
ACDBDICTIONARYWDFLT
  5
1F
102
{ACAD_REACTORS
330
19
102
}
330
19
100
AcDbDictionary
281
     1
  3
Normal
350
1D
100
AcDbDictionaryWithDefault
340
1D
  0
DICTIONARY
  5
1BE
102
{ACAD_REACTORS
330
19
102
}
330
19
100
AcDbDictionary
281
     1
  3
A0
350
1BF
  3
A1
350
1C0
  3
A2
350
1C1
  3
A3
350
1C2
  3
A4
350
1C3
  3
A5
350
1C4
  3
A6
350
1C5
  3
A7
350
1C6
  3
A8
350
1C7
  3
A9
350
1C8
  3
B0
350
1C9
  3
B1
350
1CA
  3
B2
350
1CB
  3
B3
350
1CC
  3
B4
350
1CD
  3
B5
350
1CE
  3
B6
350
1CF
  3
B7
350
1D0
  3
B8
350
1D1
  3
B9
350
1D2
  3
C0
350
1D3
  3
C1
350
1D4
  3
C2
350
1D5
  3
C3
350
1D6
  3
C4
350
1D7
  3
C5
350
1D8
  3
C6
350
1D9
  3
C7
350
1DA
  3
C8
350
1DB
  3
C9
350
1DC
  3
D0
350
1DD
  3
D1
350
1DE
  3
D2
350
1DF
  0
DICTIONARY
  5
53B
102
{ACAD_REACTORS
330
19
102
}
330
19
100
AcDbDictionary
281
     1
  0
DICTIONARY
  5
1FD
102
{ACAD_REACTORS
330
19
102
}
330
19
100
AcDbDictionary
281
     1
  3
Standard
350
1FE
  0
DICTIONARY
  5
1E0
102
{ACAD_REACTORS
330
19
102
}
330
19
100
AcDbDictionary
281
     1
  3
2dWireframe
350
1E5
  3
Basic
350
1E8
  3
Brighten
350
1EC
  3
ColorChange
350
1F0
  3
Conceptual
350
1EA
  3
Dim
350
1EB
  3
EdgeColorOff
350
1F3
  3
Facepattern
350
1EF
  3
Flat
350
1E1
  3
FlatWithEdges
350
1E2
  3
Gouraud
350
1E3
  3
GouraudWithEdges
350
1E4
  3
Hidden
350
1E7
  3
JitterOff
350
1F1
  3
Linepattern
350
1EE
  3
OverhangOff
350
1F2
  3
Realistic
350
1E9
  3
Shaded
350
1F8
  3
Shaded with edges
350
1F7
  3
Shades of Gray
350
1F4
  3
Sketchy
350
1F5
  3
Thicken
350
1ED
  3
Wireframe
350
1E6
  3
X-Ray
350
1F6
  0
XRECORD
  5
5F3
102
{ACAD_REACTORS
330
19
102
}
330
19
100
AcDbXrecord
280
     1
 90
        1
330
1FE
  0
DICTIONARY
  5
531
102
{ACAD_REACTORS
330
19
102
}
330
19
100
AcDbDictionary
281
     1
  3
CANNOSCALE
350
532
  3
CMLEADERSTYLE
350
538
  3
CTABLESTYLE
350
537
  3
MSLTSCALE
350
539
  0
DICTIONARY
  5
201
102
{ACAD_REACTORS
330
19
102
}
330
19
100
AcDbDictionary
281
     1
  0
DICTIONARY
  5
2DA
102
{ACAD_REACTORS
330
2D9
102
}
330
2D9
100
AcDbDictionary
281
     1
  0
DICTIONARY
  5
567
102
{ACAD_REACTORS
330
2D9
102
}
330
2D9
100
AcDbDictionary
281
     1
1001
ACAD
1000
<All
  0
GROUP
  5
389
102
{ACAD_REACTORS
330
1A
102
}
330
1A
100
AcDbGroup
300

 70
     1
 71
     1
  0
GROUP
  5
38A
102
{ACAD_REACTORS
330
1A
102
}
330
1A
100
AcDbGroup
300

 70
     1
 71
     1
  0
LAYOUT
  5
21
102
{ACAD_REACTORS
330
1E
102
}
330
1E
100
AcDbPlotSettings
  1

  2

  4

  6

 40
0.0
 41
0.0
 42
0.0
 43
0.0
 44
0.0
 45
0.0
 46
0.0
 47
0.0
 48
0.0
 49
0.0
140
0.0
141
0.0
142
1.0
143
1.0
 70
     0
 72
     0
 73
     0
 74
     0
  7

 75
     0
 76
     0
 77
     2
 78
   300
147
1.0
148
0.0
149
0.0
100
AcDbLayout
  1
Layout1
 70
     0
 71
     0
 10
0.0
 20
0.0
 11
0.0
 21
0.0
 12
0.0
 22
0.0
 32
0.0
 14
0.0
 24
0.0
 34
0.0
 15
0.0
 25
0.0
 35
0.0
146
0.0
 13
0.0
 23
0.0
 33
0.0
 16
0.0
 26
0.0
 36
0.0
 17
0.0
 27
0.0
 37
0.0
 76
     0
330
B
  0
LAYOUT
  5
20
102
{ACAD_REACTORS
330
1E
102
}
330
1E
100
AcDbPlotSettings
  1

  2

  4

  6

 40
0.0
 41
0.0
 42
0.0
 43
0.0
 44
0.0
 45
0.0
 46
0.0
 47
0.0
 48
0.0
 49
0.0
140
0.0
141
0.0
142
1.0
143
1.0
 70
  1024
 72
     0
 73
     0
 74
     0
  7

 75
     0
 76
     0
 77
     2
 78
   300
147
1.0
148
0.0
149
0.0
100
AcDbLayout
  1
Model
 70
     0
 71
     1
 10
0.0
 20
0.0
 11
2100.0
 21
2970.0
 12
0.0
 22
0.0
 32
0.0
 14
0.0
 24
0.0
 34
0.0
 15
2100.0
 25
2970.0
 35
0.0
146
0.0
 13
0.0
 23
0.0
 33
0.0
 16
0.0
 26
0.0
 36
0.0
 17
0.0
 27
0.0
 37
0.0
 76
     0
330
A
331
15
  0
MATERIAL
  5
1FB
102
{ACAD_REACTORS
330
1F9
102
}
330
1F9
100
AcDbMaterial
  1
ByBlock
 72
     1
 94
      127
  0
MATERIAL
  5
1FA
102
{ACAD_REACTORS
330
1F9
102
}
330
1F9
100
AcDbMaterial
  1
ByLayer
 72
     1
 94
      127
  0
MATERIAL
  5
1FC
102
{ACAD_REACTORS
330
1F9
102
}
330
1F9
100
AcDbMaterial
  1
Global
 72
     1
 94
      127
  0
MLEADERSTYLE
  5
200
102
{ACAD_REACTORS
330
1FF
102
}
330
1FF
100
AcDbMLeaderStyle
170
     2
171
     1
172
     0
 90
        2
 40
0.0
 41
0.0
173
     1
 91
-1056964608
340
11
 92
       -2
290
     1
 42
2.0
291
     1
 43
8.0
  3
Standard
341
0
 44
4.0
300

342
17
174
     1
178
     1
175
     1
176
     0
 93
-1056964608
 45
4.0
292
     0
297
     0
 46
4.0
343
0
 94
-1056964608
 47
1.0
 49
1.0
140
1.0
293
     1
141
0.0
294
     1
177
     0
142
1.0
295
     0
296
     0
143
3.75
1001
ACAD_MLEADERVER
1070
     2
  0
MLINESTYLE
  5
1C
102
{ACAD_REACTORS
330
1B
102
}
330
1B
100
AcDbMlineStyle
  2
Standard
 70
     0
  3

 62
     0
 51
90.0
 52
90.0
 71
     2
 49
0.5
 62
   256
  6
BYLAYER
 49
-0.5
 62
   256
  6
BYLAYER
  0
ACDBPLACEHOLDER
  5
1D
102
{ACAD_REACTORS
330
1F
102
}
330
1F
  0
SCALE
  5
1BF
102
{ACAD_REACTORS
330
1BE
102
}
330
1BE
100
AcDbScale
 70
     0
300
1:1
140
1.0
141
1.0
290
     1
  0
SCALE
  5
1C0
102
{ACAD_REACTORS
330
1BE
102
}
330
1BE
100
AcDbScale
 70
     0
300
1:2
140
1.0
141
2.0
290
     0
  0
SCALE
  5
1C1
102
{ACAD_REACTORS
330
1BE
102
}
330
1BE
100
AcDbScale
 70
     0
300
1:4
140
1.0
141
4.0
290
     0
  0
SCALE
  5
1C2
102
{ACAD_REACTORS
330
1BE
102
}
330
1BE
100
AcDbScale
 70
     0
300
1:5
140
1.0
141
5.0
290
     0
  0
SCALE
  5
1C3
102
{ACAD_REACTORS
330
1BE
102
}
330
1BE
100
AcDbScale
 70
     0
300
1:8
140
1.0
141
8.0
290
     0
  0
SCALE
  5
1C4
102
{ACAD_REACTORS
330
1BE
102
}
330
1BE
100
AcDbScale
 70
     0
300
1:10
140
1.0
141
10.0
290
     0
  0
SCALE
  5
1C5
102
{ACAD_REACTORS
330
1BE
102
}
330
1BE
100
AcDbScale
 70
     0
300
1:16
140
1.0
141
16.0
290
     0
  0
SCALE
  5
1C6
102
{ACAD_REACTORS
330
1BE
102
}
330
1BE
100
AcDbScale
 70
     0
300
1:20
140
1.0
141
20.0
290
     0
  0
SCALE
  5
1C7
102
{ACAD_REACTORS
330
1BE
102
}
330
1BE
100
AcDbScale
 70
     0
300
1:30
140
1.0
141
30.0
290
     0
  0
SCALE
  5
1C8
102
{ACAD_REACTORS
330
1BE
102
}
330
1BE
100
AcDbScale
 70
     0
300
1:40
140
1.0
141
40.0
290
     0
  0
SCALE
  5
1C9
102
{ACAD_REACTORS
330
1BE
102
}
330
1BE
100
AcDbScale
 70
     0
300
1:50
140
1.0
141
50.0
290
     0
  0
SCALE
  5
1CA
102
{ACAD_REACTORS
330
1BE
102
}
330
1BE
100
AcDbScale
 70
     0
300
1:100
140
1.0
141
100.0
290
     0
  0
SCALE
  5
1CB
102
{ACAD_REACTORS
330
1BE
102
}
330
1BE
100
AcDbScale
 70
     0
300
2:1
140
2.0
141
1.0
290
     0
  0
SCALE
  5
1CC
102
{ACAD_REACTORS
330
1BE
102
}
330
1BE
100
AcDbScale
 70
     0
300
4:1
140
4.0
141
1.0
290
     0
  0
SCALE
  5
1CD
102
{ACAD_REACTORS
330
1BE
102
}
330
1BE
100
AcDbScale
 70
     0
300
8:1
140
8.0
141
1.0
290
     0
  0
SCALE
  5
1CE
102
{ACAD_REACTORS
330
1BE
102
}
330
1BE
100
AcDbScale
 70
     0
300
10:1
140
10.0
141
1.0
290
     0
  0
SCALE
  5
1CF
102
{ACAD_REACTORS
330
1BE
102
}
330
1BE
100
AcDbScale
 70
     0
300
100:1
140
100.0
141
1.0
290
     0
  0
SCALE
  5
1D0
102
{ACAD_REACTORS
330
1BE
102
}
330
1BE
100
AcDbScale
 70
     0
300
1/128" = 1'-0"
140
0.0078125
141
12.0
290
     0
  0
SCALE
  5
1D1
102
{ACAD_REACTORS
330
1BE
102
}
330
1BE
100
AcDbScale
 70
     0
300
1/64" = 1'-0"
140
0.015625
141
12.0
290
     0
  0
SCALE
  5
1D2
102
{ACAD_REACTORS
330
1BE
102
}
330
1BE
100
AcDbScale
 70
     0
300
1/32" = 1'-0"
140
0.03125
141
12.0
290
     0
  0
SCALE
  5
1D3
102
{ACAD_REACTORS
330
1BE
102
}
330
1BE
100
AcDbScale
 70
     0
300
1/16" = 1'-0"
140
0.0625
141
12.0
290
     0
  0
SCALE
  5
1D4
102
{ACAD_REACTORS
330
1BE
102
}
330
1BE
100
AcDbScale
 70
     0
300
3/32" = 1'-0"
140
0.09375
141
12.0
290
     0
  0
SCALE
  5
1D5
102
{ACAD_REACTORS
330
1BE
102
}
330
1BE
100
AcDbScale
 70
     0
300
1/8" = 1'-0"
140
0.125
141
12.0
290
     0
  0
SCALE
  5
1D6
102
{ACAD_REACTORS
330
1BE
102
}
330
1BE
100
AcDbScale
 70
     0
300
3/16" = 1'-0"
140
0.1875
141
12.0
290
     0
  0
SCALE
  5
1D7
102
{ACAD_REACTORS
330
1BE
102
}
330
1BE
100
AcDbScale
 70
     0
300
1/4" = 1'-0"
140
0.25
141
12.0
290
     0
  0
SCALE
  5
1D8
102
{ACAD_REACTORS
330
1BE
102
}
330
1BE
100
AcDbScale
 70
     0
300
3/8" = 1'-0"
140
0.375
141
12.0
290
     0
  0
SCALE
  5
1D9
102
{ACAD_REACTORS
330
1BE
102
}
330
1BE
100
AcDbScale
 70
     0
300
1/2" = 1'-0"
140
0.5
141
12.0
290
     0
  0
SCALE
  5
1DA
102
{ACAD_REACTORS
330
1BE
102
}
330
1BE
100
AcDbScale
 70
     0
300
3/4" = 1'-0"
140
0.75
141
12.0
290
     0
  0
SCALE
  5
1DB
102
{ACAD_REACTORS
330
1BE
102
}
330
1BE
100
AcDbScale
 70
     0
300
1" = 1'-0"
140
1.0
141
12.0
290
     0
  0
SCALE
  5
1DC
102
{ACAD_REACTORS
330
1BE
102
}
330
1BE
100
AcDbScale
 70
     0
300
1-1/2" = 1'-0"
140
1.5
141
12.0
290
     0
  0
SCALE
  5
1DD
102
{ACAD_REACTORS
330
1BE
102
}
330
1BE
100
AcDbScale
 70
     0
300
3" = 1'-0"
140
3.0
141
12.0
290
     0
  0
SCALE
  5
1DE
102
{ACAD_REACTORS
330
1BE
102
}
330
1BE
100
AcDbScale
 70
     0
300
6" = 1'-0"
140
6.0
141
12.0
290
     0
  0
SCALE
  5
1DF
102
{ACAD_REACTORS
330
1BE
102
}
330
1BE
100
AcDbScale
 70
     0
300
1'-0" = 1'-0"
140
12.0
141
12.0
290
     0
  0
TABLESTYLE
  5
1FE
102
{ACAD_REACTORS
330
1FD
102
}
102
{ACAD_XDICTIONARY
360
5F0
102
}
330
1FD
100
AcDbTableStyle
  3
Standard
 70
     0
 71
     0
 40
0.06
 41
0.06
280
     0
281
     0
  7
Standard
140
4.5
170
     2
 62
     0
 63
   257
283
     0
 90
        4
 91
        0
  1

274
    -2
284
     1
 64
     0
275
    -2
285
     1
 65
     0
276
    -2
286
     1
 66
     0
277
    -2
287
     1
 67
     0
278
    -2
288
     1
 68
     0
279
    -2
289
     1
 69
     0
  7
Standard
140
6.0
170
     5
 62
     0
 63
   257
283
     0
 90
        4
 91
        0
  1

274
    -2
284
     1
 64
     0
275
    -2
285
     1
 65
     0
276
    -2
286
     1
 66
     0
277
    -2
287
     1
 67
     0
278
    -2
288
     1
 68
     0
279
    -2
289
     1
 69
     0
  7
Standard
140
4.5
170
     5
 62
     0
 63
   257
283
     0
 90
        4
 91
        0
  1

274
    -2
284
     1
 64
     0
275
    -2
285
     1
 65
     0
276
    -2
286
     1
 66
     0
277
    -2
287
     1
 67
     0
278
    -2
288
     1
 68
     0
279
    -2
289
     1
 69
     0
  0
VISUALSTYLE
  5
1E5
102
{ACAD_REACTORS
330
1E0
102
}
330
1E0
100
AcDbVisualStyle
  2
2dWireframe
 70
     4
 71
     0
 72
     2
 73
     0
 90
        0
 40
0.6
 41
30.0
 62
     5
 63
     7
421
 16777215
 74
     1
 91
        4
 64
     7
 65
   257
 75
     1
175
     1
 42
1.0
 92
        0
 66
   257
 43
1.0
 76
     1
 77
     6
 78
     2
 67
     7
 79
     5
170
     0
171
     0
290
     0
174
     0
 93
        1
 44
0.0
173
     0
291
     0
 45
0.0
  0
VISUALSTYLE
  5
1E8
102
{ACAD_REACTORS
330
1E0
102
}
330
1E0
100
AcDbVisualStyle
  2
Basic
 70
     7
 71
     1
 72
     0
 73
     1
 90
        0
 40
0.6
 41
30.0
 62
     5
 63
     7
421
 16777215
 74
     0
 91
        4
 64
     7
 65
   257
 75
     1
175
     1
 42
1.0
 92
        8
 66
     7
 43
1.0
 76
     1
 77
     6
 78
     2
 67
     7
 79
     5
170
     0
171
     0
290
     0
174
     0
 93
        1
 44
0.0
173
     0
291
     1
 45
0.0
  0
VISUALSTYLE
  5
1EC
102
{ACAD_REACTORS
330
1E0
102
}
330
1E0
100
AcDbVisualStyle
  2
Brighten
 70
    12
 71
     2
 72
     2
 73
     0
 90
        0
 40
0.6
 41
30.0
 62
     5
 63
     7
421
 16777215
 74
     1
 91
        4
 64
     7
 65
   257
 75
     1
175
     1
 42
1.0
 92
        8
 66
     7
 43
1.0
 76
     1
 77
     6
 78
     2
 67
     7
 79
     5
170
     0
171
     0
290
     0
174
     0
 93
        1
 44
50.0
173
     0
291
     1
 45
0.0
  0
VISUALSTYLE
  5
1F0
102
{ACAD_REACTORS
330
1E0
102
}
330
1E0
100
AcDbVisualStyle
  2
ColorChange
 70
    16
 71
     2
 72
     2
 73
     3
 90
        0
 40
0.6
 41
30.0
 62
     5
 63
     8
421
  8421504
 74
     1
 91
        4
 64
     7
 65
   257
 75
     1
175
     1
 42
1.0
 92
        8
 66
     8
424
  8421504
 43
1.0
 76
     1
 77
     6
 78
     2
 67
     7
 79
     5
170
     0
171
     0
290
     0
174
     0
 93
        1
 44
0.0
173
     0
291
     1
 45
0.0
  0
VISUALSTYLE
  5
1EA
102
{ACAD_REACTORS
330
1E0
102
}
330
1E0
100
AcDbVisualStyle
  2
Conceptual
 70
     9
 71
     3
 72
     2
 73
     0
 90
        0
 40
0.6
 41
30.0
 62
     5
 63
     7
421
 16777215
 74
     2
 91
        2
 64
     7
 65
   257
 75
     1
175
     1
 42
179.0
 92
        8
 66
     7
 43
1.0
 76
     1
 77
     6
 78
     2
 67
     7
 79
     3
170
     0
171
     0
290
     0
174
     0
 93
        1
 44
0.0
173
     0
291
     0
 45
0.0
  0
VISUALSTYLE
  5
1EB
102
{ACAD_REACTORS
330
1E0
102
}
330
1E0
100
AcDbVisualStyle
  2
Dim
 70
    11
 71
     2
 72
     2
 73
     0
 90
        0
 40
0.6
 41
30.0
 62
     5
 63
     7
421
 16777215
 74
     1
 91
        4
 64
     7
 65
   257
 75
     1
175
     1
 42
1.0
 92
        8
 66
     7
 43
1.0
 76
     1
 77
     6
 78
     2
 67
     7
 79
     5
170
     0
171
     0
290
     0
174
     0
 93
        1
 44
-50.0
173
     0
291
     1
 45
0.0
  0
VISUALSTYLE
  5
1F3
102
{ACAD_REACTORS
330
1E0
102
}
330
1E0
100
AcDbVisualStyle
  2
EdgeColorOff
 70
    22
 71
     2
 72
     2
 73
     0
 90
        0
 40
0.6
 41
30.0
 62
     5
 63
     7
421
 16777215
 74
     1
 91
        4
 64
     7
 65
   257
 75
     1
175
     1
 42
1.0
 92
        8
 66
     7
 43
1.0
 76
     1
 77
     6
 78
     2
 67
     7
 79
     5
170
     0
171
     0
290
     0
174
     0
 93
        1
 44
0.0
173
     0
291
     1
 45
0.0
  0
VISUALSTYLE
  5
1EF
102
{ACAD_REACTORS
330
1E0
102
}
330
1E0
100
AcDbVisualStyle
  2
Facepattern
 70
    15
 71
     2
 72
     2
 73
     0
 90
        0
 40
0.6
 41
30.0
 62
     5
 63
     7
421
 16777215
 74
     1
 91
        4
 64
     7
 65
   257
 75
     1
175
     1
 42
1.0
 92
        8
 66
     7
 43
1.0
 76
     1
 77
     6
 78
     2
 67
     7
 79
     5
170
     0
171
     0
290
     0
174
     0
 93
        1
 44
0.0
173
     0
291
     1
 45
0.0
  0
VISUALSTYLE
  5
1E1
102
{ACAD_REACTORS
330
1E0
102
}
330
1E0
100
AcDbVisualStyle
  2
Flat
 70
     0
 71
     2
 72
     1
 73
     1
 90
        2
 40
0.6
 41
30.0
 62
     5
 63
     7
421
 16777215
 74
     0
 91
        0
 64
     7
 65
   257
 75
     1
175
     1
 42
1.0
 92
        8
 66
     7
 43
1.0
 76
     1
 77
     6
 78
     2
 67
     7
 79
     5
170
     0
171
     0
290
     0
174
     0
 93
       13
 44
0.0
173
     0
291
     1
 45
0.0
  0
VISUALSTYLE
  5
1E2
102
{ACAD_REACTORS
330
1E0
102
}
330
1E0
100
AcDbVisualStyle
  2
FlatWithEdges
 70
     1
 71
     2
 72
     1
 73
     1
 90
        2
 40
0.6
 41
30.0
 62
     5
 63
     7
421
 16777215
 74
     1
 91
        0
 64
     7
 65
   257
 75
     1
175
     1
 42
1.0
 92
        0
 66
   257
 43
1.0
 76
     1
 77
     6
 78
     2
 67
     7
 79
     5
170
     0
171
     0
290
     0
174
     0
 93
       13
 44
0.0
173
     0
291
     1
 45
0.0
  0
VISUALSTYLE
  5
1E3
102
{ACAD_REACTORS
330
1E0
102
}
330
1E0
100
AcDbVisualStyle
  2
Gouraud
 70
     2
 71
     2
 72
     2
 73
     1
 90
        2
 40
0.6
 41
30.0
 62
     5
 63
     7
421
 16777215
 74
     0
 91
        0
 64
     7
 65
   257
 75
     1
175
     1
 42
1.0
 92
        0
 66
     7
 43
1.0
 76
     1
 77
     6
 78
     2
 67
     7
 79
     5
170
     0
171
     0
290
     0
174
     0
 93
       13
 44
0.0
173
     0
291
     1
 45
0.0
  0
VISUALSTYLE
  5
1E4
102
{ACAD_REACTORS
330
1E0
102
}
330
1E0
100
AcDbVisualStyle
  2
GouraudWithEdges
 70
     3
 71
     2
 72
     2
 73
     1
 90
        2
 40
0.6
 41
30.0
 62
     5
 63
     7
421
 16777215
 74
     1
 91
        0
 64
     7
 65
   257
 75
     1
175
     1
 42
1.0
 92
        0
 66
   257
 43
1.0
 76
     1
 77
     6
 78
     2
 67
     7
 79
     5
170
     0
171
     0
290
     0
174
     0
 93
       13
 44
0.0
173
     0
291
     1
 45
0.0
  0
VISUALSTYLE
  5
1E7
102
{ACAD_REACTORS
330
1E0
102
}
330
1E0
100
AcDbVisualStyle
  2
Hidden
 70
     6
 71
     1
 72
     2
 73
     2
 90
        0
 40
0.6
 41
30.0
 62
     5
 63
     7
421
 16777215
 74
     2
 91
        2
 64
     7
 65
   257
 75
     2
175
     1
 42
40.0
 92
        0
 66
   257
 43
1.0
 76
     1
 77
     6
 78
     2
 67
     7
 79
     3
170
     0
171
     0
290
     0
174
     0
 93
        1
 44
0.0
173
     0
291
     0
 45
0.0
  0
VISUALSTYLE
  5
1F1
102
{ACAD_REACTORS
330
1E0
102
}
330
1E0
100
AcDbVisualStyle
  2
JitterOff
 70
    20
 71
     2
 72
     2
 73
     0
 90
        0
 40
0.6
 41
30.0
 62
     5
 63
     7
421
 16777215
 74
     1
 91
        4
 64
     7
 65
   257
 75
     1
175
     1
 42
1.0
 92
       10
 66
     7
 43
1.0
 76
     1
 77
     6
 78
     2
 67
     7
 79
     5
170
     0
171
     0
290
     0
174
     0
 93
        1
 44
0.0
173
     0
291
     1
 45
0.0
  0
VISUALSTYLE
  5
1EE
102
{ACAD_REACTORS
330
1E0
102
}
330
1E0
100
AcDbVisualStyle
  2
Linepattern
 70
    14
 71
     2
 72
     2
 73
     0
 90
        0
 40
0.6
 41
30.0
 62
     5
 63
     7
421
 16777215
 74
     1
 91
        4
 64
     7
 65
   257
 75
     7
175
     7
 42
1.0
 92
        8
 66
     7
 43
1.0
 76
     1
 77
     6
 78
     2
 67
     7
 79
     5
170
     0
171
     0
290
     0
174
     0
 93
        1
 44
0.0
173
     0
291
     1
 45
0.0
  0
VISUALSTYLE
  5
1F2
102
{ACAD_REACTORS
330
1E0
102
}
330
1E0
100
AcDbVisualStyle
  2
OverhangOff
 70
    21
 71
     2
 72
     2
 73
     0
 90
        0
 40
0.6
 41
30.0
 62
     5
 63
     7
421
 16777215
 74
     1
 91
        4
 64
     7
 65
   257
 75
     1
175
     1
 42
1.0
 92
        9
 66
     7
 43
1.0
 76
     1
 77
     6
 78
     2
 67
     7
 79
     5
170
     0
171
     0
290
     0
174
     0
 93
        1
 44
0.0
173
     0
291
     1
 45
0.0
  0
VISUALSTYLE
  5
1E9
102
{ACAD_REACTORS
330
1E0
102
}
330
1E0
100
AcDbVisualStyle
  2
Realistic
 70
     8
 71
     2
 72
     3
 73
     0
 90
        2
 40
0.6
 41
30.0
 62
     5
 63
     7
421
 16777215
 74
     0
 91
        0
 64
     7
 65
   257
 75
     1
175
     1
 42
1.0
 92
        8
 66
   257
 43
1.0
 76
     1
 77
     6
 78
     2
 67
     7
 79
     3
170
     0
171
     0
290
     0
174
     0
 93
       13
 44
0.0
173
     0
291
     0
 45
0.0
  0
VISUALSTYLE
  5
1F8
102
{ACAD_REACTORS
330
1E0
102
}
330
1E0
100
AcDbVisualStyle
  2
Shaded
 70
    27
 71
     2
 72
     2
 73
     1
 90
        2
 40
0.6
 41
30.0
 62
     5
 63
     7
421
 16777215
 74
     0
 91
        4
 64
     7
 65
   257
 75
     1
175
     1
 42
1.0
 92
        8
 66
   257
 43
1.0
 76
     1
 77
     6
 78
     2
 67
     8
425
  7895160
 79
     3
170
     0
171
     0
290
     0
174
     0
 93
        5
 44
0.0
173
     0
291
     0
 45
0.0
  0
VISUALSTYLE
  5
1F7
102
{ACAD_REACTORS
330
1E0
102
}
330
1E0
100
AcDbVisualStyle
  2
Shaded with edges
 70
    26
 71
     2
 72
     2
 73
     1
 90
        2
 40
0.6
 41
30.0
 62
     5
 63
     7
421
 16777215
 74
     1
 91
       10
 64
     7
 65
   257
 75
     2
175
     1
 42
1.0
 92
        8
 66
   257
 43
1.0
 76
     1
 77
     6
 78
     2
 67
     7
 79
     3
170
     0
171
     0
290
     0
174
     0
 93
        5
 44
0.0
173
     0
291
     0
 45
0.0
  0
VISUALSTYLE
  5
1F4
102
{ACAD_REACTORS
330
1E0
102
}
330
1E0
100
AcDbVisualStyle
  2
Shades of Gray
 70
    23
 71
     2
 72
     2
 73
     3
 90
        0
 40
0.6
 41
30.0
 62
     5
 63
     7
421
 16777215
 74
     2
 91
        2
 64
     7
 65
     7
 75
     1
175
     1
 42
40.0
 92
        8
 66
     7
 43
1.0
 76
     1
 77
     6
 78
     2
 67
     7
 79
     3
170
     0
171
     0
290
     0
174
     0
 93
        1
 44
0.0
173
     0
291
     0
 45
0.0
  0
VISUALSTYLE
  5
1F5
102
{ACAD_REACTORS
330
1E0
102
}
330
1E0
100
AcDbVisualStyle
  2
Sketchy
 70
    24
 71
     1
 72
     2
 73
     2
 90
        0
 40
0.6
 41
30.0
 62
     5
 63
     7
421
 16777215
 74
     2
 91
        2
 64
     7
 65
     7
 75
     1
175
     1
 42
40.0
 92
       11
 66
     7
 43
1.0
 76
     1
 77
     6
 78
     2
 67
     7
 79
     6
170
     0
171
     0
290
     0
174
     0
 93
        1
 44
0.0
173
     0
291
     0
 45
0.0
  0
VISUALSTYLE
  5
1ED
102
{ACAD_REACTORS
330
1E0
102
}
330
1E0
100
AcDbVisualStyle
  2
Thicken
 70
    13
 71
     2
 72
     2
 73
     0
 90
        0
 40
0.6
 41
30.0
 62
     5
 63
     7
421
 16777215
 74
     1
 91
        4
 64
     7
 65
   257
 75
     1
175
     1
 42
1.0
 92
       12
 66
     7
 43
1.0
 76
     1
 77
     6
 78
     2
 67
     7
 79
     5
170
     0
171
     0
290
     0
174
     0
 93
        1
 44
0.0
173
     0
291
     1
 45
0.0
  0
VISUALSTYLE
  5
1E6
102
{ACAD_REACTORS
330
1E0
102
}
330
1E0
100
AcDbVisualStyle
  2
Wireframe
 70
     5
 71
     0
 72
     2
 73
     0
 90
        0
 40
0.6
 41
30.0
 62
     5
 63
     7
421
 16777215
 74
     1
 91
        4
 64
     7
 65
   257
 75
     1
175
     1
 42
1.0
 92
        0
 66
   257
 43
1.0
 76
     1
 77
     6
 78
     2
 67
     7
 79
     3
170
     0
171
     0
290
     0
174
     0
 93
        1
 44
0.0
173
     0
291
     0
 45
0.0
  0
VISUALSTYLE
  5
1F6
102
{ACAD_REACTORS
330
1E0
102
}
330
1E0
100
AcDbVisualStyle
  2
X-Ray
 70
    25
 71
     2
 72
     2
 73
     1
 90
        1
 40
0.5
 41
30.0
 62
     5
 63
     7
421
 16777215
 74
     1
 91
        0
 64
     7
 65
   257
 75
     1
175
     1
 42
1.0
 92
        8
 66
     7
 43
1.0
 76
     1
 77
     6
 78
     2
 67
     7
 79
     3
170
     0
171
     0
290
     0
174
     0
 93
       13
 44
0.0
173
     0
291
     0
 45
0.0
  0
DICTIONARYVAR
  5
532
102
{ACAD_REACTORS
330
531
102
}
330
531
100
DictionaryVariables
280
     0
  1
1:1
  0
DICTIONARYVAR
  5
538
102
{ACAD_REACTORS
330
531
102
}
330
531
100
DictionaryVariables
280
     0
  1
Standard
  0
DICTIONARYVAR
  5
537
102
{ACAD_REACTORS
330
531
102
}
330
531
100
DictionaryVariables
280
     0
  1
Standard
  0
DICTIONARYVAR
  5
539
102
{ACAD_REACTORS
330
531
102
}
330
531
100
DictionaryVariables
280
     0
  1
0
  0
DICTIONARY
  5
5F0
330
1FE
100
AcDbDictionary
280
     1
281
     1
  3
ACAD_ROUNDTRIP_2008_TABLESTYLE_CELLSTYLEMAP
360
5F1
  0
CELLSTYLEMAP
  5
5F1
102
{ACAD_REACTORS
330
5F0
102
}
330
5F0
100
AcDbCellStyleMap
 90
        3
300
CELLSTYLE
  1
TABLEFORMAT_BEGIN
 90
        5
170
     1
 91
        0
 92
    32768
 62
   257
 93
        1
300
CONTENTFORMAT
  1
CONTENTFORMAT_BEGIN
 90
        0
 91
        0
 92
        4
 93
        0
300

 40
0.0
140
1.0
 94
        5
 62
     0
340
17
144
6.0
309
CONTENTFORMAT_END
171
     1
301
MARGIN
  1
CELLMARGIN_BEGIN
 40
1.5
 40
1.5
 40
1.5
 40
1.5
 40
1.5
 40
1.5
309
CELLMARGIN_END
 94
        6
 95
        1
302
GRIDFORMAT
  1
GRIDFORMAT_BEGIN
 90
        0
 91
        1
 62
     0
 92
       -2
340
11
 93
        0
 40
0.045
309
GRIDFORMAT_END
 95
        2
302
GRIDFORMAT
  1
GRIDFORMAT_BEGIN
 90
        0
 91
        1
 62
     0
 92
       -2
340
11
 93
        0
 40
0.045
309
GRIDFORMAT_END
 95
        4
302
GRIDFORMAT
  1
GRIDFORMAT_BEGIN
 90
        0
 91
        1
 62
     0
 92
       -2
340
11
 93
        0
 40
0.045
309
GRIDFORMAT_END
 95
        8
302
GRIDFORMAT
  1
GRIDFORMAT_BEGIN
 90
        0
 91
        1
 62
     0
 92
       -2
340
11
 93
        0
 40
0.045
309
GRIDFORMAT_END
 95
       16
302
GRIDFORMAT
  1
GRIDFORMAT_BEGIN
 90
        0
 91
        1
 62
     0
 92
       -2
340
11
 93
        0
 40
0.045
309
GRIDFORMAT_END
 95
       32
302
GRIDFORMAT
  1
GRIDFORMAT_BEGIN
 90
        0
 91
        1
 62
     0
 92
       -2
340
11
 93
        0
 40
0.045
309
GRIDFORMAT_END
309
TABLEFORMAT_END
  1
CELLSTYLE_BEGIN
 90
        1
 91
        1
300
_TITLE
309
CELLSTYLE_END
300
CELLSTYLE
  1
TABLEFORMAT_BEGIN
 90
        5
170
     1
 91
        0
 92
        0
 62
   257
 93
        1
300
CONTENTFORMAT
  1
CONTENTFORMAT_BEGIN
 90
        0
 91
        0
 92
        4
 93
        0
300

 40
0.0
140
1.0
 94
        5
 62
     0
340
17
144
4.5
309
CONTENTFORMAT_END
171
     1
301
MARGIN
  1
CELLMARGIN_BEGIN
 40
1.5
 40
1.5
 40
1.5
 40
1.5
 40
1.5
 40
1.5
309
CELLMARGIN_END
 94
        6
 95
        1
302
GRIDFORMAT
  1
GRIDFORMAT_BEGIN
 90
        0
 91
        1
 62
     0
 92
       -2
340
11
 93
        0
 40
0.045
309
GRIDFORMAT_END
 95
        2
302
GRIDFORMAT
  1
GRIDFORMAT_BEGIN
 90
        0
 91
        1
 62
     0
 92
       -2
340
11
 93
        0
 40
0.045
309
GRIDFORMAT_END
 95
        4
302
GRIDFORMAT
  1
GRIDFORMAT_BEGIN
 90
        0
 91
        1
 62
     0
 92
       -2
340
11
 93
        0
 40
0.045
309
GRIDFORMAT_END
 95
        8
302
GRIDFORMAT
  1
GRIDFORMAT_BEGIN
 90
        0
 91
        1
 62
     0
 92
       -2
340
11
 93
        0
 40
0.045
309
GRIDFORMAT_END
 95
       16
302
GRIDFORMAT
  1
GRIDFORMAT_BEGIN
 90
        0
 91
        1
 62
     0
 92
       -2
340
11
 93
        0
 40
0.045
309
GRIDFORMAT_END
 95
       32
302
GRIDFORMAT
  1
GRIDFORMAT_BEGIN
 90
        0
 91
        1
 62
     0
 92
       -2
340
11
 93
        0
 40
0.045
309
GRIDFORMAT_END
309
TABLEFORMAT_END
  1
CELLSTYLE_BEGIN
 90
        2
 91
        1
300
_HEADER
309
CELLSTYLE_END
300
CELLSTYLE
  1
TABLEFORMAT_BEGIN
 90
        5
170
     1
 91
        0
 92
        0
 62
   257
 93
        1
300
CONTENTFORMAT
  1
CONTENTFORMAT_BEGIN
 90
        0
 91
        0
 92
        4
 93
        0
300

 40
0.0
140
1.0
 94
        2
 62
     0
340
17
144
4.5
309
CONTENTFORMAT_END
171
     1
301
MARGIN
  1
CELLMARGIN_BEGIN
 40
1.5
 40
1.5
 40
1.5
 40
1.5
 40
1.5
 40
1.5
309
CELLMARGIN_END
 94
        6
 95
        1
302
GRIDFORMAT
  1
GRIDFORMAT_BEGIN
 90
        0
 91
        1
 62
     0
 92
       -2
340
11
 93
        0
 40
0.045
309
GRIDFORMAT_END
 95
        2
302
GRIDFORMAT
  1
GRIDFORMAT_BEGIN
 90
        0
 91
        1
 62
     0
 92
       -2
340
11
 93
        0
 40
0.045
309
GRIDFORMAT_END
 95
        4
302
GRIDFORMAT
  1
GRIDFORMAT_BEGIN
 90
        0
 91
        1
 62
     0
 92
       -2
340
11
 93
        0
 40
0.045
309
GRIDFORMAT_END
 95
        8
302
GRIDFORMAT
  1
GRIDFORMAT_BEGIN
 90
        0
 91
        1
 62
     0
 92
       -2
340
11
 93
        0
 40
0.045
309
GRIDFORMAT_END
 95
       16
302
GRIDFORMAT
  1
GRIDFORMAT_BEGIN
 90
        0
 91
        1
 62
     0
 92
       -2
340
11
 93
        0
 40
0.045
309
GRIDFORMAT_END
 95
       32
302
GRIDFORMAT
  1
GRIDFORMAT_BEGIN
 90
        0
 91
        1
 62
     0
 92
       -2
340
11
 93
        0
 40
0.045
309
GRIDFORMAT_END
309
TABLEFORMAT_END
  1
CELLSTYLE_BEGIN
 90
        3
 91
        2
300
_DATA
309
CELLSTYLE_END
  0
ENDSEC
  0
EOF
