  0
SECTION
  2
HEADER
  9
$ACADVER
  1
AC1021
  9
$ACADMAINTVER
 70
    25
  9
$DWGCODEPAGE
  3
ANSI_932
  9
$LASTSAVEDBY
  1
howeNelson
  9
$INSBASE
 10
0.0
 20
0.0
 30
0.0
  9
$EXTMIN
 10
0.0
 20
0.0
 30
0.0
  9
$EXTMAX
 10
2100.0
 20
2970.0
 30
0.0
  9
$LIMMIN
 10
0.0
 20
0.0
  9
$LIMMAX
 10
2100.0
 20
2970.0
  9
$ORTHOMODE
 70
     0
  9
$REGENMODE
 70
     1
  9
$FILLMODE
 70
     1
  9
$QTEXTMODE
 70
     0
  9
$MIRRTEXT
 70
     1
  9
$LTSCALE
 40
50.8
  9
$ATTMODE
 70
     1
  9
$TEXTSIZE
 40
0.0
  9
$TRACEWID
 40
1.0
  9
$TEXTSTYLE
  7
Standard
  9
$CLAYER
  8
壁取付ブラケット [更新済み]
  9
$CELTYPE
  6
Continuous
  9
$CECOLOR
 62
   256
  9
$CELTSCALE
 40
1.0
  9
$DISPSILH
 70
     0
  9
$DIMSCALE
 40
1.0
  9
$DIMASZ
 40
31.75
  9
$DIMEXO
 40
0.0
  9
$DIMDLI
 40
6.99999999999994
  9
$DIMRND
 40
0.0
  9
$DIMDLE
 40
0.0
  9
$DIMEXE
 40
19.9999999999962
  9
$DIMTP
 40
0.0
  9
$DIMTM
 40
0.0
  9
$DIMTXT
 40
24.4326171875
  9
$DIMCEN
 40
0.0
  9
$DIMTSZ
 40
0.0
  9
$DIMTOL
 70
     0
  9
$DIMLIM
 70
     0
  9
$DIMTIH
 70
     0
  9
$DIMTOH
 70
     0
  9
$DIMSE1
 70
     0
  9
$DIMSE2
 70
     0
  9
$DIMTAD
 70
     1
  9
$DIMZIN
 70
    11
  9
$DIMBLK
  1
VW_FILLEDARROW
  9
$DIMASO
 70
     1
  9
$DIMSHO
 70
     1
  9
$DIMPOST
  1
<>
  9
$DIMAPOST
  1
[]
  9
$DIMALT
 70
     0
  9
$DIMALTD
 70
     1
  9
$DIMALTF
 40
1.0
  9
$DIMLFAC
 40
1.0
  9
$DIMTOFL
 70
     0
  9
$DIMTVP
 40
0.0
  9
$DIMTIX
 70
     1
  9
$DIMSOXD
 70
     0
  9
$DIMSAH
 70
     0
  9
$DIMBLK1
  1

  9
$DIMBLK2
  1

  9
$DIMSTYLE
  2
JIS
  9
$DIMCLRD
 70
     0
  9
$DIMCLRE
 70
     0
  9
$DIMCLRT
 70
     0
  9
$DIMTFAC
 40
1.0
  9
$DIMGAP
 40
1.00000000000108
  9
$DIMJUST
 70
     0
  9
$DIMSD1
 70
     0
  9
$DIMSD2
 70
     0
  9
$DIMTOLJ
 70
     1
  9
$DIMTZIN
 70
    11
  9
$DIMALTZ
 70
    11
  9
$DIMALTTZ
 70
    11
  9
$DIMUPT
 70
     0
  9
$DIMDEC
 70
     1
  9
$DIMTDEC
 70
     1
  9
$DIMALTU
 70
     2
  9
$DIMALTTD
 70
     2
  9
$DIMTXSTY
  7
ＭＳ ゴシック
  9
$DIMAUNIT
 70
     0
  9
$DIMADEC
 70
     2
  9
$DIMALTRND
 40
0.0
  9
$DIMAZIN
 70
     0
  9
$DIMDSEP
 70
    46
  9
$DIMATFIT
 70
     0
  9
$DIMFRAC
 70
     2
  9
$DIMLDRBLK
  1

  9
$DIMLUNIT
 70
     2
  9
$DIMLWD
 70
    -2
  9
$DIMLWE
 70
    -2
  9
$DIMTMOVE
 70
     0
  9
$DIMFXL
 40
1.0
  9
$DIMFXLON
 70
     0
  9
$DIMJOGANG
 40
0.7853981633974483
  9
$DIMTFILL
 70
     0
  9
$DIMTFILLCLR
 70
     0
  9
$DIMARCSYM
 70
     0
  9
$DIMLTYPE
  6

  9
$DIMLTEX1
  6

  9
$DIMLTEX2
  6

  9
$LUNITS
 70
     2
  9
$LUPREC
 70
     4
  9
$SKETCHINC
 40
0.1
  9
$FILLETRAD
 40
0.0
  9
$AUNITS
 70
     0
  9
$AUPREC
 70
     0
  9
$MENU
  1
acad
  9
$ELEVATION
 40
0.0
  9
$PELEVATION
 40
0.0
  9
$THICKNESS
 40
0.0
  9
$LIMCHECK
 70
     0
  9
$CHAMFERA
 40
0.0
  9
$CHAMFERB
 40
0.0
  9
$CHAMFERC
 40
0.0
  9
$CHAMFERD
 40
0.0
  9
$SKPOLY
 70
     0
  9
$TDCREATE
 40
2447893.375
  9
$TDUCREATE
 40
0.0
  9
$TDUPDATE
 40
2458164.777167002
  9
$TDUUPDATE
 40
2458164.402167002
  9
$TDINDWG
 40
0.0003967014
  9
$TDUSRTIMER
 40
0.0000197917
  9
$USRTIMER
 70
     1
  9
$ANGBASE
 50
0.0
  9
$ANGDIR
 70
     0
  9
$PDMODE
 70
     1
  9
$PDSIZE
 40
-2.0
  9
$PLINEWID
 40
0.0
  9
$SPLFRAME
 70
     0
  9
$SPLINETYPE
 70
     6
  9
$SPLINESEGS
 70
     8
  9
$HANDSEED
  5
456
  9
$SURFTAB1
 70
     6
  9
$SURFTAB2
 70
     6
  9
$SURFTYPE
 70
     6
  9
$SURFU
 70
     6
  9
$SURFV
 70
     6
  9
$UCSBASE
  2

  9
$UCSNAME
  2

  9
$UCSORG
 10
0.0
 20
0.0
 30
0.0
  9
$UCSXDIR
 10
1.0
 20
0.0
 30
0.0
  9
$UCSYDIR
 10
0.0
 20
1.0
 30
0.0
  9
$UCSORTHOREF
  2

  9
$UCSORTHOVIEW
 70
     0
  9
$UCSORGTOP
 10
0.0
 20
0.0
 30
0.0
  9
$UCSORGBOTTOM
 10
0.0
 20
0.0
 30
0.0
  9
$UCSORGLEFT
 10
0.0
 20
0.0
 30
0.0
  9
$UCSORGRIGHT
 10
0.0
 20
0.0
 30
0.0
  9
$UCSORGFRONT
 10
0.0
 20
0.0
 30
0.0
  9
$UCSORGBACK
 10
0.0
 20
0.0
 30
0.0
  9
$PUCSBASE
  2

  9
$PUCSNAME
  2

  9
$PUCSORG
 10
0.0
 20
0.0
 30
0.0
  9
$PUCSXDIR
 10
1.0
 20
0.0
 30
0.0
  9
$PUCSYDIR
 10
0.0
 20
1.0
 30
0.0
  9
$PUCSORTHOREF
  2

  9
$PUCSORTHOVIEW
 70
     0
  9
$PUCSORGTOP
 10
0.0
 20
0.0
 30
0.0
  9
$PUCSORGBOTTOM
 10
0.0
 20
0.0
 30
0.0
  9
$PUCSORGLEFT
 10
0.0
 20
0.0
 30
0.0
  9
$PUCSORGRIGHT
 10
0.0
 20
0.0
 30
0.0
  9
$PUCSORGFRONT
 10
0.0
 20
0.0
 30
0.0
  9
$PUCSORGBACK
 10
0.0
 20
0.0
 30
0.0
  9
$USERI1
 70
     0
  9
$USERI2
 70
     0
  9
$USERI3
 70
     0
  9
$USERI4
 70
     0
  9
$USERI5
 70
     0
  9
$USERR1
 40
0.0
  9
$USERR2
 40
0.0
  9
$USERR3
 40
0.0
  9
$USERR4
 40
0.0
  9
$USERR5
 40
0.0
  9
$WORLDVIEW
 70
     1
  9
$SHADEDGE
 70
     3
  9
$SHADEDIF
 70
    70
  9
$TILEMODE
 70
     1
  9
$MAXACTVP
 70
    64
  9
$PINSBASE
 10
0.0
 20
0.0
 30
0.0
  9
$PLIMCHECK
 70
     0
  9
$PEXTMIN
 10
1.000000000000000E+20
 20
1.000000000000000E+20
 30
1.000000000000000E+20
  9
$PEXTMAX
 10
-1.000000000000000E+20
 20
-1.000000000000000E+20
 30
-1.000000000000000E+20
  9
$PLIMMIN
 10
0.0
 20
0.0
  9
$PLIMMAX
 10
0.0
 20
0.0
  9
$UNITMODE
 70
     0
  9
$VISRETAIN
 70
     0
  9
$PLINEGEN
 70
     1
  9
$PSLTSCALE
 70
     0
  9
$TREEDEPTH
 70
  3020
  9
$CMLSTYLE
  2
Standard
  9
$CMLJUST
 70
     0
  9
$CMLSCALE
 40
1.0
  9
$PROXYGRAPHICS
 70
     0
  9
$MEASUREMENT
 70
     1
  9
$CELWEIGHT
370
     0
  9
$ENDCAPS
280
     0
  9
$JOINSTYLE
280
     0
  9
$LWDISPLAY
290
     1
  9
$INSUNITS
 70
     4
  9
$HYPERLINKBASE
  1

  9
$STYLESHEET
  1

  9
$XEDIT
290
     1
  9
$CEPSNTYPE
380
     0
  9
$PSTYLEMODE
290
     1
  9
$FINGERPRINTGUID
  2

  9
$VERSIONGUID
  2

  9
$EXTNAMES
290
     1
  9
$PSVPSCALE
 40
0.0
  9
$OLESTARTUP
290
     0
  9
$SORTENTS
280
   127
  9
$INDEXCTL
280
     0
  9
$HIDETEXT
280
     1
  9
$XCLIPFRAME
290
     0
  9
$HALOGAP
280
     0
  9
$OBSCOLOR
 70
   257
  9
$OBSLTYPE
280
     0
  9
$INTERSECTIONDISPLAY
280
     0
  9
$INTERSECTIONCOLOR
 70
   257
  9
$DIMASSOC
280
     2
  9
$PROJECTNAME
  1

  9
$CAMERADISPLAY
290
     0
  9
$LENSLENGTH
 40
50.0
  9
$CAMERAHEIGHT
 40
0.0
  9
$STEPSPERSEC
 40
2.0
  9
$STEPSIZE
 40
6.0
  9
$3DDWFPREC
 40
2.0
  9
$PSOLWIDTH
 40
0.25
  9
$PSOLHEIGHT
 40
4.0
  9
$LOFTANG1
 40
1.570796326794897
  9
$LOFTANG2
 40
1.570796326794897
  9
$LOFTMAG1
 40
0.0
  9
$LOFTMAG2
 40
0.0
  9
$LOFTPARAM
 70
     7
  9
$LOFTNORMALS
280
     1
  9
$LATITUDE
 40
37.795
  9
$LONGITUDE
 40
-122.394
  9
$NORTHDIRECTION
 40
0.0
  9
$TIMEZONE
 70
 -8000
  9
$LIGHTGLYPHDISPLAY
280
     1
  9
$TILEMODELIGHTSYNCH
280
     1
  9
$SOLIDHIST
280
     0
  9
$SHOWHIST
280
     1
  9
$DWFFRAME
280
     2
  9
$DGNFRAME
280
     2
  9
$REALWORLDSCALE
290
     1
  9
$INTERFERECOLOR
 62
   256
  9
$CSHADOW
280
     0
  9
$SHADOWPLANELOCATION
 40
0.0
  0
ENDSEC
  0
SECTION
  2
CLASSES
  0
CLASS
  1
LWPOLYLINE
  2
AcDbPolyline
  3
ObjectDBX Classes
 90
        0
 91
        1
280
     0
281
     1
  0
CLASS
  1
IMAGE
  2
AcDbRasterImage
  3
ISM
 90
      127
 91
        7
280
     0
281
     1
  0
CLASS
  1
OLE2FRAME
  2
AcDbOle2Frame
  3
ObjectDBX Classes
 90
        0
 91
        1
280
     0
281
     1
  0
CLASS
  1
HATCH
  2
AcDbHatch
  3
ObjectDBX Classes
 90
        0
 91
        1
280
     0
281
     1
  0
CLASS
  1
DICTIONARYVAR
  2
AcDbDictionaryVar
  3
ObjectDBX Classes
 90
        0
 91
        6
280
     0
281
     0
  0
CLASS
  1
RASTERVARIABLES
  2
AcDbRasterVariables
  3
ISM
 90
        0
 91
        6
280
     0
281
     0
  0
CLASS
  1
IMAGEDEF
  2
AcDbRasterImageDef
  3
ISM
 90
        0
 91
        6
280
     0
281
     0
  0
CLASS
  1
IMAGEDEF_REACTOR
  2
AcDbRasterImageDefReactor
  3
ISM
 90
        1
 91
        6
280
     0
281
     0
  0
CLASS
  1
IDBUFFER
  2
AcDbIdBuffer
  3
ObjectDBX Classes
 90
        0
 91
        6
280
     0
281
     0
  0
CLASS
  1
SPATIAL_FILTER
  2
AcDbSpatialFilter
  3
ObjectDBX Classes
 90
        0
 91
        6
280
     0
281
     0
  0
CLASS
  1
XRECORD
  2
AcDbXrecord
  3
ObjectDBX Classes
 90
        0
 91
        1
280
     0
281
     0
  0
CLASS
  1
SORTENTSTABLE
  2
AcDbSortentsTable
  3
ObjectDBX Classes
 90
        0
 91
        6
280
     0
281
     0
  0
CLASS
  1
LAYER_INDEX
  2
AcDbLayerIndex
  3
ObjectDBX Classes
 90
        0
 91
        6
280
     0
281
     0
  0
CLASS
  1
SPATIAL_INDEX
  2
AcDbSpatialIndex
  3
AutoCAD 2000
 90
        0
 91
        6
280
     0
281
     0
  0
CLASS
  1
OBJECT_PTR
  2
CAseDLPNTableRecord
  3
ASE-LPNTableRecord
 90
        1
 91
        6
280
     0
281
     0
  0
CLASS
  1
LAYOUT
  2
AcDbLayout
  3
ObjectDBX Classes
 90
        0
 91
        1
280
     0
281
     0
  0
CLASS
  1
PLOTSETTINGS
  2
AcDbPlotSettings
  3
ObjectDBX Classes
 90
        0
 91
        6
280
     0
281
     0
  0
CLASS
  1
ACDBDICTIONARYWDFLT
  2
AcDbDictionaryWithDefault
  3
ObjectDBX Classes
 90
        0
 91
        6
280
     0
281
     0
  0
CLASS
  1
ACDBPLACEHOLDER
  2
AcDbPlaceHolder
  3
ObjectDBX Classes
 90
        0
 91
        1
280
     0
281
     0
  0
CLASS
  1
SCALE
  2
AcDbScale
  3
ObjectDBX Classes
 90
     1153
 91
        6
280
     0
281
     0
  0
CLASS
  1
VISUALSTYLE
  2
AcDbVisualStyle
  3
ObjectDBX Classes
 90
     4095
 91
        6
280
     0
281
     0
  0
CLASS
  1
MATERIAL
  2
AcDbMaterial
  3
ObjectDBX Classes
 90
     1153
 91
        6
280
     0
281
     0
  0
CLASS
  1
TABLESTYLE
  2
AcDbTableStyle
  3
ObjectDBX Classes
 90
     4095
 91
        6
280
     0
281
     0
  0
CLASS
  1
MLEADERSTYLE
  2
AcDbMLeaderStyle
  3
ACDB_MLEADERSTYLE_CLASS
 90
     4095
 91
        6
280
     0
281
     0
  0
CLASS
  1
CELLSTYLEMAP
  2
AcDbCellStyleMap
  3
ObjectDBX Classes
 90
     1152
 91
        6
280
     0
281
     0
  0
ENDSEC
  0
SECTION
  2
TABLES
  0
TABLE
  2
VPORT
  5
7
330
0
100
AcDbSymbolTable
 70
     1
  0
VPORT
  5
15
330
7
100
AcDbSymbolTableRecord
100
AcDbViewportTableRecord
  2
*ACTIVE
 70
     0
 10
0.0
 20
0.0
 11
1.0
 21
1.0
 12
1050.0
 22
1485.0
 13
0.0
 23
0.0
 14
1.0
 24
1.0
 15
0.0
 25
0.0
 16
0.0
 26
0.0
 36
1.0
 17
0.0
 27
0.0
 37
0.0
 40
3029.400000000001
 41
2.23943661971831
 42
50.0
 43
0.0
 44
0.0
 50
0.0
 51
0.0
 71
    16
 72
  2000
 73
     1
 74
     1
 75
     0
 76
     0
 77
     0
 78
     0
281
     0
 65
     0
110
0.0
120
0.0
130
0.0
111
1.0
121
0.0
131
0.0
112
0.0
122
1.0
132
0.0
 79
     0
146
0.0
348
1BD
 60
     3
 61
     5
292
     1
282
     1
141
0.0
142
0.0
 63
   250
  0
ENDTAB
  0
TABLE
  2
LTYPE
  5
4
330
0
100
AcDbSymbolTable
 70
    15
  0
LTYPE
  5
11
330
4
100
AcDbSymbolTableRecord
100
AcDbLinetypeTableRecord
  2
ByBlock
 70
     0
  3

 72
    65
 73
     0
 40
0.0
  0
LTYPE
  5
12
330
4
100
AcDbSymbolTableRecord
100
AcDbLinetypeTableRecord
  2
ByLayer
 70
     0
  3

 72
    65
 73
     0
 40
0.0
  0
LTYPE
  5
13
330
4
100
AcDbSymbolTableRecord
100
AcDbLinetypeTableRecord
  2
Continuous
 70
     0
  3
Solid line
 72
    65
 73
     0
 40
0.0
  0
LTYPE
  5
35
330
4
100
AcDbSymbolTableRecord
100
AcDbLinetypeTableRecord
  2
STYLE_01
 70
     0
  3

 72
    65
 73
     2
 40
0.3527780104152768
 49
0.1763890052076384
 74
     0
 49
-0.1763890052076384
 74
     0
  0
LTYPE
  5
36
330
4
100
AcDbSymbolTableRecord
100
AcDbLinetypeTableRecord
  2
STYLE_02
 70
     0
  3

 72
    65
 73
     2
 40
0.3527780104152768
 49
0.1763890052076384
 74
     0
 49
-0.1763890052076384
 74
     0
  0
LTYPE
  5
37
330
4
100
AcDbSymbolTableRecord
100
AcDbLinetypeTableRecord
  2
STYLE_03
 70
     0
  3

 72
    65
 73
     2
 40
0.3527780104152768
 49
0.1763890052076384
 74
     0
 49
-0.1763890052076384
 74
     0
  0
LTYPE
  5
38
330
4
100
AcDbSymbolTableRecord
100
AcDbLinetypeTableRecord
  2
STYLE_04
 70
     0
  3

 72
    65
 73
     2
 40
0.3527780104152768
 49
0.1763890052076384
 74
     0
 49
-0.1763890052076384
 74
     0
  0
LTYPE
  5
39
330
4
100
AcDbSymbolTableRecord
100
AcDbLinetypeTableRecord
  2
STYLE_05
 70
     0
  3

 72
    65
 73
     2
 40
0.3527780104152768
 49
0.1763890052076384
 74
     0
 49
-0.1763890052076384
 74
     0
  0
LTYPE
  5
3A
330
4
100
AcDbSymbolTableRecord
100
AcDbLinetypeTableRecord
  2
STYLE_06
 70
     0
  3

 72
    65
 73
     2
 40
0.3527780104152768
 49
0.1763890052076384
 74
     0
 49
-0.1763890052076384
 74
     0
  0
LTYPE
  5
3B
330
4
100
AcDbSymbolTableRecord
100
AcDbLinetypeTableRecord
  2
STYLE_07
 70
     0
  3

 72
    65
 73
     2
 40
0.3527780104152768
 49
0.1763890052076384
 74
     0
 49
-0.1763890052076384
 74
     0
  0
LTYPE
  5
3C
330
4
100
AcDbSymbolTableRecord
100
AcDbLinetypeTableRecord
  2
STYLE_08
 70
     0
  3

 72
    65
 73
     6
 40
1.25
 49
0.625
 74
     0
 49
-0.20828
 74
     0
 49
0.06943
 74
     0
 49
-0.13893
 74
     0
 49
0.0694299999999999
 74
     0
 49
-0.13893
 74
     0
  0
LTYPE
  5
3D
330
4
100
AcDbSymbolTableRecord
100
AcDbLinetypeTableRecord
  2
STYLE_09
 70
     0
  3

 72
    65
 73
     4
 40
5.0
 49
3.75
 74
     0
 49
-0.2777849999999998
 74
     0
 49
0.6944300000000003
 74
     0
 49
-0.2777849999999998
 74
     0
  0
LTYPE
  5
3E
330
4
100
AcDbSymbolTableRecord
100
AcDbLinetypeTableRecord
  2
STYLE_10
 70
     0
  3

 72
    65
 73
     6
 40
5.9375
 49
3.75
 74
     0
 49
-0.2777849999999998
 74
     0
 49
0.6944300000000003
 74
     0
 49
-0.2777849999999998
 74
     0
 49
0.625
 74
     0
 49
-0.3125
 74
     0
  0
LTYPE
  5
3F
330
4
100
AcDbSymbolTableRecord
100
AcDbLinetypeTableRecord
  2
STYLE_11
 70
     0
  3

 72
    65
 73
     2
 40
0.0694444881889764
 49
0.0347222440944882
 74
     0
 49
-0.0347222440944882
 74
     0
  0
LTYPE
  5
40
330
4
100
AcDbSymbolTableRecord
100
AcDbLinetypeTableRecord
  2
STYLE_12
 70
     0
  3

 72
    65
 73
     2
 40
0.3937007874015748
 49
0.1968503937007874
 74
     0
 49
-0.1968503937007874
 74
     0
  0
LTYPE
  5
41
330
4
100
AcDbSymbolTableRecord
100
AcDbLinetypeTableRecord
  2
STYLE_13
 70
     0
  3

 72
    65
 73
     2
 40
0.5905511811023622
 49
0.2952755905511811
 74
     0
 49
-0.2952755905511811
 74
     0
  0
LTYPE
  5
42
330
4
100
AcDbSymbolTableRecord
100
AcDbLinetypeTableRecord
  2
STYLE_14
 70
     0
  3

 72
    65
 73
     2
 40
1.968503937007874
 49
0.9842519685039369
 74
     0
 49
-0.9842519685039369
 74
     0
  0
ENDTAB
  0
TABLE
  2
LAYER
  5
2
102
{ACAD_XDICTIONARY
360
2B4
102
}
330
0
100
AcDbSymbolTable
 70
     9
  0
LAYER
  5
14
330
2
100
AcDbSymbolTableRecord
100
AcDbLayerTableRecord
  2
0
 70
     0
 62
     7
  6
Continuous
370
    -3
390
1D
347
1D4
  0
LAYER
  5
43
330
2
100
AcDbSymbolTableRecord
100
AcDbLayerTableRecord
  2
Defpoints
 70
     0
 62
     7
  6
Continuous
290
     0
370
    -3
390
1D
347
1D4
  0
LAYER
  5
44
330
2
100
AcDbSymbolTableRecord
100
AcDbLayerTableRecord
  2
template
 70
     0
 62
     7
  6
Continuous
370
    -3
390
1D
347
1D4
  0
LAYER
  5
45
330
2
100
AcDbSymbolTableRecord
100
AcDbLayerTableRecord
  2
notes
 70
     0
 62
     7
  6
Continuous
370
    -3
390
1D
347
1D4
  0
LAYER
  5
46
330
2
100
AcDbSymbolTableRecord
100
AcDbLayerTableRecord
  2
KUF70-0001
 70
     0
 62
     7
  6
Continuous
370
    -3
390
1D
347
1D4
  0
LAYER
  5
47
330
2
100
AcDbSymbolTableRecord
100
AcDbLayerTableRecord
  2
壁取付ブラケット [更新済み]
 70
     0
 62
     7
  6
Continuous
370
    -3
390
1D
347
1D4
  0
LAYER
  5
1DE
330
2
100
AcDbSymbolTableRecord
100
AcDbLayerTableRecord
  2
ATB73-1901
 70
     0
 62
     7
  6
Continuous
370
    -3
390
1D
347
1D4
  0
LAYER
  5
1DF
330
2
100
AcDbSymbolTableRecord
100
AcDbLayerTableRecord
  2
レイヤー 1
 70
     0
 62
     7
  6
Continuous
370
    -3
390
1D
347
1D4
  0
LAYER
  5
416
330
2
100
AcDbSymbolTableRecord
100
AcDbLayerTableRecord
  2
border
 70
     0
 62
     4
  6
Continuous
290
     0
370
    -3
390
1D
347
1D4
1001
AcAecLayerStandard
1000

1000

  0
ENDTAB
  0
TABLE
  2
STYLE
  5
3
330
0
100
AcDbSymbolTable
 70
     2
  0
STYLE
  5
17
330
3
100
AcDbSymbolTableRecord
100
AcDbTextStyleTableRecord
  2
Standard
 70
     0
 40
0.0
 41
1.0
 50
0.0
 71
     0
 42
0.0
  3
txt
  4
BIGFONT.SHX
  0
STYLE
  5
34
330
3
100
AcDbSymbolTableRecord
100
AcDbTextStyleTableRecord
  2
ＭＳ ゴシック
 70
     0
 40
0.0
 41
1.0
 50
0.0
 71
     0
 42
0.0
  3

  4
ＭＳ ゴシック
1001
ACAD
1000
ＭＳ ゴシック
1071
        0
  0
ENDTAB
  0
TABLE
  2
VIEW
  5
5
330
0
100
AcDbSymbolTable
 70
     0
  0
ENDTAB
  0
TABLE
  2
UCS
  5
6
330
0
100
AcDbSymbolTable
 70
     0
  0
ENDTAB
  0
TABLE
  2
APPID
  5
8
330
0
100
AcDbSymbolTable
 70
     3
  0
APPID
  5
16
330
8
100
AcDbSymbolTableRecord
100
AcDbRegAppTableRecord
  2
ACAD
 70
     0
  0
APPID
  5
417
330
8
100
AcDbSymbolTableRecord
100
AcDbRegAppTableRecord
  2
AcAecLayerStandard
 70
     0
  0
APPID
  5
454
330
8
100
AcDbSymbolTableRecord
100
AcDbRegAppTableRecord
  2
ACAD_MLEADERVER
 70
     0
  0
ENDTAB
  0
TABLE
  2
DIMSTYLE
  5
9
330
0
100
AcDbSymbolTable
 70
     3
100
AcDbDimStyleTable
  0
DIMSTYLE
105
18
330
9
100
AcDbSymbolTableRecord
100
AcDbDimStyleTableRecord
  2
Standard
 70
     0
178
     0
340
17
  0
DIMSTYLE
105
50
102
{ACAD_REACTORS
330
20F
330
21C
330
229
330
236
330
243
330
250
330
2B9
330
2BA
330
2BB
330
2BC
330
2BD
330
2BE
330
3D5
102
}
330
9
100
AcDbSymbolTableRecord
100
AcDbDimStyleTableRecord
  2
tfrom線あり
 70
     0
  3
<>
  4
[]
 41
3.999755859375
 42
25.0
 43
0.9999999999999999
 44
0.0
 73
     0
 74
     0
 77
     1
 78
    11
140
24.4326171875
141
0.0
143
1.0
147
0.4999999999999999
171
     1
174
     1
178
     0
179
     2
271
     1
272
     1
276
     2
284
    11
285
    11
286
    11
289
     0
340
34
341
48
342
48
  0
DIMSTYLE
105
55
330
9
100
AcDbSymbolTableRecord
100
AcDbDimStyleTableRecord
  2
JIS
 70
     0
  3
<>
  4
[]
 41
31.75
 42
0.0
 43
6.99999999999994
 44
19.9999999999962
 73
     0
 74
     0
 77
     1
 78
    11
140
24.4326171875
141
0.0
143
1.0
147
1.00000000000108
171
     1
174
     1
178
     0
179
     2
271
     1
272
     1
276
     2
284
    11
285
    11
286
    11
289
     0
340
34
341
51
342
51
  0
ENDTAB
  0
TABLE
  2
BLOCK_RECORD
  5
1
330
0
100
AcDbSymbolTable
 70
    40
  0
BLOCK_RECORD
  5
A
330
1
100
AcDbSymbolTableRecord
100
AcDbBlockTableRecord
  2
*MODEL_SPACE
340
20
 70
     0
280
     1
281
     0
  0
BLOCK_RECORD
  5
B
330
1
100
AcDbSymbolTableRecord
100
AcDbBlockTableRecord
  2
*PAPER_SPACE
340
21
 70
     0
280
     1
281
     0
  0
BLOCK_RECORD
  5
48
330
1
100
AcDbSymbolTableRecord
100
AcDbBlockTableRecord
  2
_DOT
340
0
102
{BLKREFS
331
31C
331
31D
331
328
331
329
331
334
331
335
331
340
331
341
331
34C
331
34D
331
358
331
359
331
36D
331
36E
331
D4
331
D5
331
37A
331
0
331
EE
331
EF
331
387
331
0
331
394
331
0
331
122
331
123
331
6B
331
6C
331
78
331
79
331
85
331
86
331
92
331
93
331
9F
331
A0
331
BA
331
BB
331
C7
331
C8
331
108
331
109
102
}
 70
     0
280
     1
281
     0
  0
BLOCK_RECORD
  5
51
330
1
100
AcDbSymbolTableRecord
100
AcDbBlockTableRecord
  2
VW_FILLEDARROW
340
0
 70
     0
280
     1
281
     0
  0
BLOCK_RECORD
  5
23
330
1
100
AcDbSymbolTableRecord
100
AcDbBlockTableRecord
  2
グループ
340
0
102
{BLKREFS
331
134
102
}
 70
     0
280
     1
281
     0
  0
BLOCK_RECORD
  5
24
330
1
100
AcDbSymbolTableRecord
100
AcDbBlockTableRecord
  2
*D3
340
0
 70
     0
280
     1
281
     0
  0
BLOCK_RECORD
  5
25
330
1
100
AcDbSymbolTableRecord
100
AcDbBlockTableRecord
  2
*D4
340
0
 70
     0
280
     1
281
     0
  0
BLOCK_RECORD
  5
26
330
1
100
AcDbSymbolTableRecord
100
AcDbBlockTableRecord
  2
*D5
340
0
 70
     0
280
     1
281
     0
  0
BLOCK_RECORD
  5
27
330
1
100
AcDbSymbolTableRecord
100
AcDbBlockTableRecord
  2
*D6
340
0
 70
     0
280
     1
281
     0
  0
BLOCK_RECORD
  5
28
330
1
100
AcDbSymbolTableRecord
100
AcDbBlockTableRecord
  2
*D7
340
0
 70
     0
280
     1
281
     0
  0
BLOCK_RECORD
  5
29
330
1
100
AcDbSymbolTableRecord
100
AcDbBlockTableRecord
  2
*D8
340
0
 70
     0
280
     1
281
     0
  0
BLOCK_RECORD
  5
2A
330
1
100
AcDbSymbolTableRecord
100
AcDbBlockTableRecord
  2
*D9
340
0
 70
     0
280
     1
281
     0
  0
BLOCK_RECORD
  5
2B
330
1
100
AcDbSymbolTableRecord
100
AcDbBlockTableRecord
  2
*D10
340
0
 70
     0
280
     1
281
     0
  0
BLOCK_RECORD
  5
2C
330
1
100
AcDbSymbolTableRecord
100
AcDbBlockTableRecord
  2
*D11
340
0
 70
     0
280
     1
281
     0
  0
BLOCK_RECORD
  5
2D
330
1
100
AcDbSymbolTableRecord
100
AcDbBlockTableRecord
  2
*D12
340
0
 70
     0
280
     1
281
     0
  0
BLOCK_RECORD
  5
2E
330
1
100
AcDbSymbolTableRecord
100
AcDbBlockTableRecord
  2
*D13
340
0
 70
     0
280
     1
281
     0
  0
BLOCK_RECORD
  5
2F
330
1
100
AcDbSymbolTableRecord
100
AcDbBlockTableRecord
  2
*D14
340
0
 70
     0
280
     1
281
     0
  0
BLOCK_RECORD
  5
30
330
1
100
AcDbSymbolTableRecord
100
AcDbBlockTableRecord
  2
*D15
340
0
 70
     0
280
     1
281
     0
  0
BLOCK_RECORD
  5
31
330
1
100
AcDbSymbolTableRecord
100
AcDbBlockTableRecord
  2
*D16
340
0
 70
     0
280
     1
281
     0
  0
BLOCK_RECORD
  5
32
330
1
100
AcDbSymbolTableRecord
100
AcDbBlockTableRecord
  2
*D17
340
0
 70
     0
280
     1
281
     0
  0
BLOCK_RECORD
  5
33
330
1
100
AcDbSymbolTableRecord
100
AcDbBlockTableRecord
  2
*D18
340
0
 70
     0
280
     1
281
     0
  0
BLOCK_RECORD
  5
210
330
1
100
AcDbSymbolTableRecord
100
AcDbBlockTableRecord
  2
*D20
340
0
 70
     0
280
     1
281
     0
  0
BLOCK_RECORD
  5
21D
330
1
100
AcDbSymbolTableRecord
100
AcDbBlockTableRecord
  2
*D21
340
0
 70
     0
280
     1
281
     0
  0
BLOCK_RECORD
  5
22A
330
1
100
AcDbSymbolTableRecord
100
AcDbBlockTableRecord
  2
*D22
340
0
 70
     0
280
     1
281
     0
  0
BLOCK_RECORD
  5
237
330
1
100
AcDbSymbolTableRecord
100
AcDbBlockTableRecord
  2
*D23
340
0
 70
     0
280
     1
281
     0
  0
BLOCK_RECORD
  5
244
330
1
100
AcDbSymbolTableRecord
100
AcDbBlockTableRecord
  2
*D24
340
0
 70
     0
280
     1
281
     0
  0
BLOCK_RECORD
  5
251
330
1
100
AcDbSymbolTableRecord
100
AcDbBlockTableRecord
  2
*D25
340
0
 70
     0
280
     1
281
     0
  0
BLOCK_RECORD
  5
316
330
1
100
AcDbSymbolTableRecord
100
AcDbBlockTableRecord
  2
*D26
340
0
 70
     0
280
     1
281
     0
  0
BLOCK_RECORD
  5
322
330
1
100
AcDbSymbolTableRecord
100
AcDbBlockTableRecord
  2
*D27
340
0
 70
     0
280
     1
281
     0
  0
BLOCK_RECORD
  5
32E
330
1
100
AcDbSymbolTableRecord
100
AcDbBlockTableRecord
  2
*D28
340
0
 70
     0
280
     1
281
     0
  0
BLOCK_RECORD
  5
33A
330
1
100
AcDbSymbolTableRecord
100
AcDbBlockTableRecord
  2
*D29
340
0
 70
     0
280
     1
281
     0
  0
BLOCK_RECORD
  5
346
330
1
100
AcDbSymbolTableRecord
100
AcDbBlockTableRecord
  2
*D30
340
0
 70
     0
280
     1
281
     0
  0
BLOCK_RECORD
  5
352
330
1
100
AcDbSymbolTableRecord
100
AcDbBlockTableRecord
  2
*D31
340
0
 70
     0
280
     1
281
     0
  0
BLOCK_RECORD
  5
367
330
1
100
AcDbSymbolTableRecord
100
AcDbBlockTableRecord
  2
*D32
340
0
 70
     0
280
     1
281
     0
  0
BLOCK_RECORD
  5
373
330
1
100
AcDbSymbolTableRecord
100
AcDbBlockTableRecord
  2
*D33
340
0
 70
     0
280
     1
281
     0
  0
BLOCK_RECORD
  5
380
330
1
100
AcDbSymbolTableRecord
100
AcDbBlockTableRecord
  2
*D34
340
0
 70
     0
280
     1
281
     0
  0
BLOCK_RECORD
  5
38D
330
1
100
AcDbSymbolTableRecord
100
AcDbBlockTableRecord
  2
*D35
340
0
 70
     0
280
     1
281
     0
  0
BLOCK_RECORD
  5
3D6
330
1
100
AcDbSymbolTableRecord
100
AcDbBlockTableRecord
  2
*D37
340
0
 70
     0
280
     1
281
     0
  0
ENDTAB
  0
ENDSEC
  0
SECTION
  2
BLOCKS
  0
BLOCK
  5
D
330
A
100
AcDbEntity
  8
0
390
1D
100
AcDbBlockBegin
  2
*MODEL_SPACE
 70
     0
 10
0.0
 20
0.0
 30
0.0
  3
*MODEL_SPACE
  1

  0
ENDBLK
  5
E
330
A
100
AcDbEntity
  8
0
390
1D
100
AcDbBlockEnd
  0
BLOCK
  5
F
330
B
100
AcDbEntity
 67
     1
  8
0
390
1D
100
AcDbBlockBegin
  2
*PAPER_SPACE
 70
     0
 10
0.0
 20
0.0
 30
0.0
  3
*PAPER_SPACE
  1

  0
ENDBLK
  5
10
330
B
100
AcDbEntity
 67
     1
  8
0
390
1D
100
AcDbBlockEnd
  0
BLOCK
  5
49
330
48
100
AcDbEntity
  8
0
390
1D
100
AcDbBlockBegin
  2
_DOT
 70
     0
 10
0.0
 20
0.0
 30
0.0
  3
_DOT
  1

  0
POLYLINE
  5
4A
330
48
100
AcDbEntity
  8
0
  6
ByBlock
 62
     0
370
    -2
390
1D
100
AcDb2dPolyline
 66
     1
 10
0.0
 20
0.0
 30
0.0
 70
     1
 40
0.5
 41
0.5
  0
VERTEX
  5
4B
330
4A
100
AcDbEntity
  8
0
  6
ByBlock
 62
     0
370
    -2
390
1D
100
AcDbVertex
100
AcDb2dVertex
 10
-0.25
 20
0.0
 30
0.0
 42
1.0
  0
VERTEX
  5
4C
330
4A
100
AcDbEntity
  8
0
  6
ByBlock
 62
     0
370
    -2
390
1D
100
AcDbVertex
100
AcDb2dVertex
 10
0.25
 20
0.0
 30
0.0
 42
1.0
  0
SEQEND
  5
4D
330
4A
100
AcDbEntity
  8
0
390
1D
  0
LINE
  5
4E
330
48
100
AcDbEntity
  8
0
  6
ByBlock
 62
     0
370
    -2
390
1D
100
AcDbLine
 10
-0.5
 20
0.0
 30
0.0
 11
-1.0
 21
0.0
 31
0.0
  0
ENDBLK
  5
4F
330
48
100
AcDbEntity
  8
0
390
1D
100
AcDbBlockEnd
  0
BLOCK
  5
52
330
51
100
AcDbEntity
  8
0
  6
ByBlock
 62
     0
370
    -2
390
1D
100
AcDbBlockBegin
  2
VW_FILLEDARROW
 70
     0
 10
0.0
 20
0.0
 30
0.0
  3
VW_FILLEDARROW
  1

  0
SOLID
  5
53
330
51
100
AcDbEntity
  8
0
 62
     0
370
    -2
390
1D
100
AcDbTrace
 10
0.0
 20
0.0
 30
0.0
 11
-0.9921874999999999
 21
-0.2658558393652545
 31
0.0
 12
-0.9921874999999999
 22
0.2658558393652548
 32
0.0
 13
-0.9921874999999999
 23
0.2658558393652548
 33
0.0
  0
ENDBLK
  5
54
330
51
100
AcDbEntity
  8
0
390
1D
100
AcDbBlockEnd
  0
BLOCK
  5
56
330
23
100
AcDbEntity
  8
template
390
1D
100
AcDbBlockBegin
  2
グループ
 70
     0
 10
0.0
 20
0.0
 30
0.0
  3
グループ
  1

  0
LWPOLYLINE
  5
57
330
23
100
AcDbEntity
  8
0
  6
Continuous
 62
     7
370
    15
390
1D
100
AcDbPolyline
 90
        8
 70
   129
 43
0.0
 10
877.5861324909412
 20
-1322.649397152447
 10
877.5861324909412
 20
-1328.646785846023
 10
868.0849355729379
 20
-1328.646785846023
 10
868.0849355729379
 20
-1353.097749109531
 10
859.7295583111551
 20
-1353.097749109531
 10
859.7295583111551
 20
-1328.646785846023
 10
850.3966013648457
 20
-1328.646785846023
 10
850.3966013648457
 20
-1322.649397152447
  0
LWPOLYLINE
  5
58
330
23
100
AcDbEntity
  8
0
  6
Continuous
 62
     7
370
    15
390
1D
100
AcDbPolyline
 90
      101
 70
   128
 43
0.0
 10
890.3144243214981
 20
-1323.377645645383
 10
890.3297743502842
 20
-1323.373284888698
 42
-0.022222160781218
 10
890.6197789269543
 20
-1323.304660423454
 10
890.6355726909399
 20
-1323.301657000358
 42
-0.0146883565593067
 10
890.898275396172
 20
-1323.259653813407
 42
-0.0127458844185254
 10
891.1629143633264
 20
-1323.232116845335
 10
891.2253694416378
 20
-1323.227223422747
 42
-0.0198099018566925
 10
891.6162185511092
 20
-1323.21213826535
 10
891.6680300205585
 20
-1323.212192041015
 42
-0.014761738276319
 10
892.1626534815317
 20
-1323.22731206626
 10
892.2353449364066
 20
-1323.231684673147
 42
-0.016262454900337
 10
892.6254985658721
 20
-1323.26791754842
 10
892.7470309571335
 20
-1323.283204107417
 42
-0.0080020874666076
 10
892.8926099882228
 20
-1323.303886954685
 10
892.9309294588134
 20
-1323.309958232495
 42
-0.0053821929681476
 10
892.9994135641327
 20
-1323.321565756317
 10
892.2730078649341
 20
-1325.502494212031
 42
0.0108667757393289
 10
892.2056907948077
 20
-1325.489307096812
 10
892.1682227716137
 20
-1325.482809354217
 42
0.0170663203309421
 10
892.0250059847031
 20
-1325.462979756926
 10
891.9571306520153
 20
-1325.455932586338
 42
0.0220162375277917
 10
891.6767512441577
 20
-1325.439250225568
 10
891.5988956771095
 20
-1325.438050858301
 42
0.0282606915785245
 10
891.26325935353
 20
-1325.45185413527
 10
891.2193460797563
 20
-1325.456154125274
 42
0.0169677213683553
 10
890.9734215847986
 20
-1325.488691174826
 42
0.0190576269864011
 10
890.7305136222227
 20
-1325.538838046931
 10
890.7242544341078
 20
-1325.540381021041
 42
0.0213685642848224
 10
890.473869949629
 20
-1325.613581306147
 10
890.4683800547139
 20
-1325.615444302205
 42
0.0237595297592416
 10
890.2148851698138
 20
-1325.715128824102
 10
890.2097830957855
 20
-1325.717420599579
 42
0.0261857468816978
 10
889.9576123195571
 20
-1325.846956936953
 10
889.9471861304672
 20
-1325.853022411423
 42
0.027255306201892
 10
889.7107563552302
 20
-1326.008394617366
 10
889.6759933417168
 20
-1326.034055765462
 42
0.0325996893189406
 10
889.5258379980692
 20
-1326.16080363843
 10
889.5021285689411
 20
-1326.183621666947
 42
0.0138050960638918
 10
889.4102454127359
 20
-1326.277071328494
 42
0.012528010380251
 10
889.3234028799063
 20
-1326.37523465509
 10
889.299722434994
 20
-1326.403393153282
 42
0.0205218024743331
 10
889.1746223594802
 20
-1326.565186467511
 10
889.1521560189932
 20
-1326.596846197338
 42
0.0163110129579971
 10
888.9964456397422
 20
-1326.832176632407
 10
888.9937217436909
 20
-1326.836600394393
 42
0.0131897341893924
 10
888.8469212227844
 20
-1327.089732486759
 10
888.8452211274185
 20
-1327.092850725893
 42
0.0107895576064478
 10
888.7074444252061
 20
-1327.359065935532
 10
888.7067115356826
 20
-1327.360560168175
 42
0.0091371507216003
 10
888.578231587035
 20
-1327.635085365931
 10
888.5484859556241
 20
-1327.701791873093
 42
0.0135418326353083
 10
888.3767720165526
 20
-1328.116729658361
 10
888.3431672081177
 20
-1328.204595800644
 42
0.0092834542412666
 10
888.1719381481971
 20
-1328.678494298949
 10
888.1463210204835
 20
-1328.753735368731
 42
0.0054261043579446
 10
888.0386828721867
 20
-1329.081499341807
 10
888.021156886025
 20
-1329.136887503987
 42
0.0008225090819545
 10
887.9524868341791
 20
-1329.355156262186
 10
886.9677977022457
 20
-1332.380047555443
 10
890.2004215423195
 20
-1332.380047555443
 10
889.6962291124661
 20
-1334.284525853795
 10
886.4401728304828
 20
-1334.284525853795
 10
880.6110237981289
 20
-1353.0977489198
 10
878.7859261878186
 20
-1353.0977489198
 10
884.6206042233196
 20
-1334.284525853795
 10
882.2154878542792
 20
-1334.284525853795
 10
882.7196802841327
 20
-1332.380047555443
 10
885.1482290950827
 20
-1332.380047555443
 10
886.0083840132713
 20
-1329.743634554744
 42
-0.0005863560656416
 10
886.0451186914518
 20
-1329.626808134526
 10
886.1212065251352
 20
-1329.385815835067
 42
-0.0087522378927621
 10
886.3206746685951
 20
-1328.790539747912
 10
886.4129389440074
 20
-1328.530399579403
 42
-0.0077400953829881
 10
886.6708726031367
 20
-1327.837394901859
 10
886.6866375747165
 20
-1327.796964018471
 42
-0.0082369946331714
 10
886.9337220453275
 20
-1327.192884952278
 42
-0.0085725238362643
 10
887.2009681413348
 20
-1326.597458912981
 10
887.3025977423391
 20
-1326.381037811003
 42
-0.0168109410594437
 10
887.5895421710677
 20
-1325.819830284901
 10
887.7153855615386
 20
-1325.592866251882
 42
-0.0007817726857139
 10
887.7696699115834
 20
-1325.495322006873
 10
887.7697982175868
 20
-1325.495092298161
 42
-0.003662614216671
 10
887.824686081622
 20
-1325.398494418168
 42
-0.0080221150679523
 10
887.881810337032
 20
-1325.30321518341
 10
887.9125102883899
 20
-1325.253824234293
 42
-0.0202139325572107
 10
888.0401660281987
 20
-1325.065842633608
 10
888.0942334933842
 20
-1324.99276376937
 42
-0.024932379179626
 10
888.3533962871022
 20
-1324.676718527217
 10
888.3775361012304
 20
-1324.650104254303
 42
-0.0242132121544738
 10
888.7172168427682
 20
-1324.310220768103
 10
888.7651284155268
 20
-1324.26671163191
 42
-0.025101752785736
 10
889.0491101161638
 20
-1324.033718886149
 10
889.0505555929781
 20
-1324.032649628569
 42
-0.0130868069040799
 10
889.3488162429348
 20
-1323.823869160027
 10
889.3503780620763
 20
-1323.822835719753
 42
-0.0290329526395334
 10
889.6614892034709
 20
-1323.642010218123
 10
889.6913347654604
 20
-1323.626907835281
 42
-0.0160250190042704
 10
889.9572391792215
 20
-1323.50289172507
 42
-0.0267600374783744
 10
890.2325152566898
 20
-1323.402143404521
 10
890.2592511762111
 20
-1323.393950845696
 42
-0.0049981587688853
 10
890.3144243214981
 20
-1323.377645645383
 42
-0.0049981587688853
  0
LWPOLYLINE
  5
59
330
23
100
AcDbEntity
  8
0
  6
Continuous
 62
     7
370
    15
390
1D
100
AcDbPolyline
 90
      118
 70
   128
 43
0.0
 10
910.128791885945
 20
-1332.454030883271
 10
912.0039138104445
 20
-1332.454030883271
 10
911.1658749048446
 20
-1335.13559740967
 42
-0.0010587229248125
 10
911.1973307203509
 20
-1335.098692876392
 10
911.2555248110484
 20
-1335.03071062014
 42
-0.0071874740401874
 10
911.4059000291466
 20
-1334.860069928111
 10
911.5476228024088
 20
-1334.703833786797
 42
-0.0148118053513174
 10
911.997752095122
 20
-1334.236219940784
 10
912.0849744300267
 20
-1334.150822619928
 42
-0.0086273358693152
 10
912.4205232310317
 20
-1333.833446985914
 10
912.4643569472563
 20
-1333.793397341582
 42
-0.0103138323115019
 10
912.7223806494911
 20
-1333.567234204243
 10
912.7681550558259
 20
-1333.528752156976
 42
-0.0060206748563132
 10
912.9410031199304
 20
-1333.386957506228
 10
912.9430342508093
 20
-1333.385331800603
 42
-0.0067069027297494
 10
913.1153270654788
 20
-1333.251181166802
 10
913.1178758313927
 20
-1333.249250996936
 42
-0.0076184352047876
 10
913.2887810972762
 20
-1333.123876121683
 42
-0.0089652861673631
 10
913.463742060015
 20
-1333.004242861348
 10
913.5000937801552
 20
-1332.980331647868
 42
-0.0156916245938204
 10
913.6960532773157
 20
-1332.860069161393
 42
-0.002329901106597
 10
913.896315321318
 20
-1332.74689122184
 10
913.9116994536755
 20
-1332.738291226787
 42
-0.0107669341483466
 10
914.145936278777
 20
-1332.613891093438
 10
914.1682010798518
 20
-1332.602674343488
 42
-0.0078058045897571
 10
914.4517911978053
 20
-1332.465312887849
 10
914.4616982855136
 20
-1332.460703759981
 42
-0.0181829330473982
 10
914.7720076901272
 20
-1332.329840018886
 10
914.8260631326972
 20
-1332.309324898941
 42
-0.0208411536032336
 10
915.1751481001462
 20
-1332.193234436449
 10
915.1895042002749
 20
-1332.189115991495
 42
-0.0222799817135176
 10
915.518223994191
 20
-1332.110474425355
 10
915.5271129574302
 20
-1332.108762414769
 42
-0.0215509523884652
 10
915.8435839257077
 20
-1332.061846726236
 10
915.8860658867559
 20
-1332.057409199445
 42
-0.0182545924870606
 10
916.120174666062
 20
-1332.041565374054
 10
916.1595756824056
 20
-1332.040340828975
 42
-0.0072962856533021
 10
916.3154985620988
 20
-1332.037771500453
 10
916.3445982326626
 20
-1332.037716665049
 42
-0.0059227516313063
 10
916.4423477318159
 20
-1332.038690376839
 10
916.4715899493046
 20
-1332.039328143443
 42
-0.0011833111913934
 10
916.5108412330202
 20
-1332.040277147752
 10
915.715454637413
 20
-1334.579011092851
 42
0.0143932051468029
 10
915.6890532550652
 20
-1334.568812122807
 10
915.6817812826451
 20
-1334.566240903949
 42
0.0234388603518031
 10
915.639950416711
 20
-1334.553621668233
 10
915.6312687538003
 20
-1334.551440706229
 42
0.0199162742975186
 10
915.5709799197228
 20
-1334.538823970894
 10
915.5501659819141
 20
-1334.535326771465
 42
0.0293643550670786
 10
915.4470911231537
 20
-1334.524176725812
 10
915.4224059424346
 20
-1334.522965108793
 42
0.0214606686870066
 10
915.2692650264846
 20
-1334.522026548376
 10
915.2598931156642
 20
-1334.52237145992
 42
0.0167564054174777
 10
915.0883729245568
 20
-1334.534448502288
 10
915.0799131317967
 20
-1334.535329842715
 42
0.0137677553248165
 10
914.8925598185294
 20
-1334.560079151259
 10
914.8852080790243
 20
-1334.561257071227
 42
0.0118497261486877
 10
914.6847103149199
 20
-1334.598274421416
 10
914.6785603076758
 20
-1334.599561284136
 42
0.0106421143888054
 10
914.4676794203921
 20
-1334.64839365971
 10
914.4627706120016
 20
-1334.649641002396
 42
0.0099746379707866
 10
914.2443121428357
 20
-1334.709815530712
 10
914.1827641026689
 20
-1334.728097409341
 42
0.019161367586436
 10
913.8467796401505
 20
-1334.842074789629
 10
913.7587198674086
 20
-1334.875761699952
 42
0.0205274080143976
 10
913.3734130955072
 20
-1335.041590107779
 10
913.3157638135248
 20
-1335.069258072352
 42
0.0181256912194128
 10
913.0574868728581
 20
-1335.204941891329
 10
913.0045314895465
 20
-1335.235259504542
 42
0.0140709242411016
 10
912.8595765549157
 20
-1335.323754177978
 10
912.8333276863016
 20
-1335.340810996691
 42
0.0086667884394554
 10
912.7444015247547
 20
-1335.400813664576
 42
0.0036408192033673
 10
912.6569682867024
 20
-1335.462994522382
 10
912.6217414122527
 20
-1335.488435468282
 42
0.0052260781284976
 10
912.4655127148563
 20
-1335.60376785492
 10
912.4493058586022
 20
-1335.615995965534
 42
0.00500244358883
 10
912.2633025155429
 20
-1335.759278533797
 10
912.2479843590281
 20
-1335.771324556242
 42
0.0136138710280621
 10
912.0375430907106
 20
-1335.946291061148
 10
912.0038752149092
 20
-1335.97587003387
 42
0.0172815186912631
 10
911.7394716732472
 20
-1336.224866706493
 10
911.7369093274042
 20
-1336.22745252364
 42
0.018940385799053
 10
911.4863275288271
 20
-1336.500257788442
 10
911.4536960352885
 20
-1336.538601719942
 42
0.0185044199505944
 10
911.261739596309
 20
-1336.781850301064
 42
0.0088565243899656
 10
911.0832794896806
 20
-1337.035366721215
 10
911.074101510032
 20
-1337.048908100975
 42
0.0157195347230887
 10
910.8908809036963
 20
-1337.338430310293
 10
910.8447979617708
 20
-1337.416582507305
 42
0.0095451879778986
 10
910.6797124116295
 20
-1337.709177149668
 10
910.668564492696
 20
-1337.729847821807
 42
0.0100351706259408
 10
910.5365207435404
 20
-1337.98690338229
 42
0.0086935915422099
 10
910.4141895917469
 20
-1338.248736527694
 10
910.410868850332
 20
-1338.256178850667
 42
0.0072580174866143
 10
910.2905223983823
 20
-1338.536770842261
 10
910.2872607650806
 20
-1338.544690868267
 42
0.0060005122617768
 10
910.168060096737
 20
-1338.844300538875
 10
910.1648491183964
 20
-1338.852662066777
 42
0.0049017786980172
 10
910.0459489595426
 20
-1339.171591047372
 10
910.0427831531485
 20
-1339.180343984612
 42
0.0039415167599941
 10
909.9233468750887
 20
-1339.518886047034
 10
909.9202157724396
 20
-1339.527989247901
 42
0.0031035838760582
 10
909.7994109867526
 20
-1339.886429109657
 10
909.7963009422162
 20
-1339.89584973105
 42
0.0025070747149691
 10
909.673399590912
 20
-1340.274496947959
 10
909.6361056944754
 20
-1340.391388613247
 42
0.002908191028097
 10
909.4440873966659
 20
-1341.005552271534
 10
909.4032842281476
 20
-1341.138775513814
 42
0.000926645373234
 10
909.1348668538242
 20
-1342.020999973766
 10
909.1139793811849
 20
-1342.090111852998
 42
-0.0005809993666666
 10
908.8366427006011
 20
-1343.003919959613
 10
908.7703609023432
 20
-1343.221404891723
 42
-0.00120187081719
 10
908.6233765928989
 20
-1343.699567556293
 10
908.5710567412624
 20
-1343.868326697387
 42
-0.0002691059594274
 10
908.5274872601649
 20
-1344.008594317501
 10
905.6945313618756
 20
-1353.0977489198
 10
903.8765424698971
 20
-1353.0977489198
 10
910.128791885945
 20
-1332.454030883271
  0
SPLINE
  5
5A
330
23
100
AcDbEntity
  8
0
  6
Continuous
 62
     7
370
    15
390
1D
100
AcDbSpline
210
0.0
220
0.0
230
1.0
 70
    15
 71
     2
 72
   782
 73
   779
 74
     0
 42
0.000000001
 43
0.000001
 40
0.0
 40
0.0
 40
0.0
 40
1.0
 40
1.0
 40
2.0
 40
2.0
 40
3.0
 40
3.0
 40
4.0
 40
4.0
 40
5.0
 40
5.0
 40
6.0
 40
6.0
 40
7.0
 40
7.0
 40
8.0
 40
8.0
 40
9.0
 40
9.0
 40
10.0
 40
10.0
 40
11.0
 40
11.0
 40
12.0
 40
12.0
 40
13.0
 40
13.0
 40
14.0
 40
14.0
 40
15.0
 40
15.0
 40
16.0
 40
16.0
 40
17.0
 40
17.0
 40
18.0
 40
18.0
 40
19.0
 40
19.0
 40
20.0
 40
20.0
 40
21.0
 40
21.0
 40
22.0
 40
22.0
 40
23.0
 40
23.0
 40
24.0
 40
24.0
 40
25.0
 40
25.0
 40
26.0
 40
26.0
 40
27.0
 40
27.0
 40
28.0
 40
28.0
 40
29.0
 40
29.0
 40
30.0
 40
30.0
 40
31.0
 40
31.0
 40
32.0
 40
32.0
 40
33.0
 40
33.0
 40
34.0
 40
34.0
 40
35.0
 40
35.0
 40
36.0
 40
36.0
 40
37.0
 40
37.0
 40
38.0
 40
38.0
 40
39.0
 40
39.0
 40
40.0
 40
40.0
 40
41.0
 40
41.0
 40
42.0
 40
42.0
 40
43.0
 40
43.0
 40
44.0
 40
44.0
 40
45.0
 40
45.0
 40
46.0
 40
46.0
 40
47.0
 40
47.0
 40
48.0
 40
48.0
 40
49.0
 40
49.0
 40
50.0
 40
50.0
 40
51.0
 40
51.0
 40
52.0
 40
52.0
 40
53.0
 40
53.0
 40
54.0
 40
54.0
 40
55.0
 40
55.0
 40
56.0
 40
56.0
 40
57.0
 40
57.0
 40
58.0
 40
58.0
 40
59.0
 40
59.0
 40
60.0
 40
60.0
 40
61.0
 40
61.0
 40
62.0
 40
62.0
 40
63.0
 40
63.0
 40
64.0
 40
64.0
 40
65.0
 40
65.0
 40
66.0
 40
66.0
 40
67.0
 40
67.0
 40
68.0
 40
68.0
 40
69.0
 40
69.0
 40
70.0
 40
70.0
 40
71.0
 40
71.0
 40
72.0
 40
72.0
 40
73.0
 40
73.0
 40
74.0
 40
74.0
 40
75.0
 40
75.0
 40
76.0
 40
76.0
 40
77.0
 40
77.0
 40
78.0
 40
78.0
 40
79.0
 40
79.0
 40
80.0
 40
80.0
 40
81.0
 40
81.0
 40
82.0
 40
82.0
 40
83.0
 40
83.0
 40
84.0
 40
84.0
 40
85.0
 40
85.0
 40
86.0
 40
86.0
 40
87.0
 40
87.0
 40
88.0
 40
88.0
 40
89.0
 40
89.0
 40
90.0
 40
90.0
 40
91.0
 40
91.0
 40
92.0
 40
92.0
 40
93.0
 40
93.0
 40
94.0
 40
94.0
 40
95.0
 40
95.0
 40
96.0
 40
96.0
 40
97.0
 40
97.0
 40
98.0
 40
98.0
 40
99.0
 40
99.0
 40
100.0
 40
100.0
 40
101.0
 40
101.0
 40
102.0
 40
102.0
 40
103.0
 40
103.0
 40
104.0
 40
104.0
 40
105.0
 40
105.0
 40
106.0
 40
106.0
 40
107.0
 40
107.0
 40
108.0
 40
108.0
 40
109.0
 40
109.0
 40
110.0
 40
110.0
 40
111.0
 40
111.0
 40
112.0
 40
112.0
 40
113.0
 40
113.0
 40
114.0
 40
114.0
 40
115.0
 40
115.0
 40
116.0
 40
116.0
 40
117.0
 40
117.0
 40
118.0
 40
118.0
 40
119.0
 40
119.0
 40
120.0
 40
120.0
 40
121.0
 40
121.0
 40
122.0
 40
122.0
 40
123.0
 40
123.0
 40
124.0
 40
124.0
 40
125.0
 40
125.0
 40
126.0
 40
126.0
 40
127.0
 40
127.0
 40
128.0
 40
128.0
 40
129.0
 40
129.0
 40
130.0
 40
130.0
 40
131.0
 40
131.0
 40
132.0
 40
132.0
 40
133.0
 40
133.0
 40
134.0
 40
134.0
 40
135.0
 40
135.0
 40
136.0
 40
136.0
 40
137.0
 40
137.0
 40
138.0
 40
138.0
 40
139.0
 40
139.0
 40
140.0
 40
140.0
 40
141.0
 40
141.0
 40
142.0
 40
142.0
 40
143.0
 40
143.0
 40
144.0
 40
144.0
 40
145.0
 40
145.0
 40
146.0
 40
146.0
 40
147.0
 40
147.0
 40
148.0
 40
148.0
 40
149.0
 40
149.0
 40
150.0
 40
150.0
 40
151.0
 40
151.0
 40
152.0
 40
152.0
 40
153.0
 40
153.0
 40
154.0
 40
154.0
 40
155.0
 40
155.0
 40
156.0
 40
156.0
 40
157.0
 40
157.0
 40
158.0
 40
158.0
 40
159.0
 40
159.0
 40
160.0
 40
160.0
 40
161.0
 40
161.0
 40
162.0
 40
162.0
 40
163.0
 40
163.0
 40
164.0
 40
164.0
 40
165.0
 40
165.0
 40
166.0
 40
166.0
 40
167.0
 40
167.0
 40
168.0
 40
168.0
 40
169.0
 40
169.0
 40
170.0
 40
170.0
 40
171.0
 40
171.0
 40
172.0
 40
172.0
 40
173.0
 40
173.0
 40
174.0
 40
174.0
 40
175.0
 40
175.0
 40
176.0
 40
176.0
 40
177.0
 40
177.0
 40
178.0
 40
178.0
 40
179.0
 40
179.0
 40
180.0
 40
180.0
 40
181.0
 40
181.0
 40
182.0
 40
182.0
 40
183.0
 40
183.0
 40
184.0
 40
184.0
 40
185.0
 40
185.0
 40
186.0
 40
186.0
 40
187.0
 40
187.0
 40
188.0
 40
188.0
 40
189.0
 40
189.0
 40
190.0
 40
190.0
 40
191.0
 40
191.0
 40
192.0
 40
192.0
 40
193.0
 40
193.0
 40
194.0
 40
194.0
 40
195.0
 40
195.0
 40
196.0
 40
196.0
 40
197.0
 40
197.0
 40
198.0
 40
198.0
 40
199.0
 40
199.0
 40
200.0
 40
200.0
 40
201.0
 40
201.0
 40
202.0
 40
202.0
 40
203.0
 40
203.0
 40
204.0
 40
204.0
 40
205.0
 40
205.0
 40
206.0
 40
206.0
 40
207.0
 40
207.0
 40
208.0
 40
208.0
 40
209.0
 40
209.0
 40
210.0
 40
210.0
 40
211.0
 40
211.0
 40
212.0
 40
212.0
 40
213.0
 40
213.0
 40
214.0
 40
214.0
 40
215.0
 40
215.0
 40
216.0
 40
216.0
 40
217.0
 40
217.0
 40
218.0
 40
218.0
 40
219.0
 40
219.0
 40
220.0
 40
220.0
 40
221.0
 40
221.0
 40
222.0
 40
222.0
 40
223.0
 40
223.0
 40
224.0
 40
224.0
 40
225.0
 40
225.0
 40
226.0
 40
226.0
 40
227.0
 40
227.0
 40
228.0
 40
228.0
 40
229.0
 40
229.0
 40
230.0
 40
230.0
 40
231.0
 40
231.0
 40
232.0
 40
232.0
 40
233.0
 40
233.0
 40
234.0
 40
234.0
 40
235.0
 40
235.0
 40
236.0
 40
236.0
 40
237.0
 40
237.0
 40
238.0
 40
238.0
 40
239.0
 40
239.0
 40
240.0
 40
240.0
 40
241.0
 40
241.0
 40
242.0
 40
242.0
 40
243.0
 40
243.0
 40
244.0
 40
244.0
 40
245.0
 40
245.0
 40
246.0
 40
246.0
 40
247.0
 40
247.0
 40
248.0
 40
248.0
 40
249.0
 40
249.0
 40
250.0
 40
250.0
 40
251.0
 40
251.0
 40
252.0
 40
252.0
 40
253.0
 40
253.0
 40
254.0
 40
254.0
 40
255.0
 40
255.0
 40
256.0
 40
256.0
 40
257.0
 40
257.0
 40
258.0
 40
258.0
 40
259.0
 40
259.0
 40
260.0
 40
260.0
 40
261.0
 40
261.0
 40
262.0
 40
262.0
 40
263.0
 40
263.0
 40
264.0
 40
264.0
 40
265.0
 40
265.0
 40
266.0
 40
266.0
 40
267.0
 40
267.0
 40
268.0
 40
268.0
 40
269.0
 40
269.0
 40
270.0
 40
270.0
 40
271.0
 40
271.0
 40
272.0
 40
272.0
 40
273.0
 40
273.0
 40
274.0
 40
274.0
 40
275.0
 40
275.0
 40
276.0
 40
276.0
 40
277.0
 40
277.0
 40
278.0
 40
278.0
 40
279.0
 40
279.0
 40
280.0
 40
280.0
 40
281.0
 40
281.0
 40
282.0
 40
282.0
 40
283.0
 40
283.0
 40
284.0
 40
284.0
 40
285.0
 40
285.0
 40
286.0
 40
286.0
 40
287.0
 40
287.0
 40
288.0
 40
288.0
 40
289.0
 40
289.0
 40
290.0
 40
290.0
 40
291.0
 40
291.0
 40
292.0
 40
292.0
 40
293.0
 40
293.0
 40
294.0
 40
294.0
 40
295.0
 40
295.0
 40
296.0
 40
296.0
 40
297.0
 40
297.0
 40
298.0
 40
298.0
 40
299.0
 40
299.0
 40
300.0
 40
300.0
 40
301.0
 40
301.0
 40
302.0
 40
302.0
 40
303.0
 40
303.0
 40
304.0
 40
304.0
 40
305.0
 40
305.0
 40
306.0
 40
306.0
 40
307.0
 40
307.0
 40
308.0
 40
308.0
 40
309.0
 40
309.0
 40
310.0
 40
310.0
 40
311.0
 40
311.0
 40
312.0
 40
312.0
 40
313.0
 40
313.0
 40
314.0
 40
314.0
 40
315.0
 40
315.0
 40
316.0
 40
316.0
 40
317.0
 40
317.0
 40
318.0
 40
318.0
 40
319.0
 40
319.0
 40
320.0
 40
320.0
 40
321.0
 40
321.0
 40
322.0
 40
322.0
 40
323.0
 40
323.0
 40
324.0
 40
324.0
 40
325.0
 40
325.0
 40
326.0
 40
326.0
 40
327.0
 40
327.0
 40
328.0
 40
328.0
 40
329.0
 40
329.0
 40
330.0
 40
330.0
 40
331.0
 40
331.0
 40
332.0
 40
332.0
 40
333.0
 40
333.0
 40
334.0
 40
334.0
 40
335.0
 40
335.0
 40
336.0
 40
336.0
 40
337.0
 40
337.0
 40
338.0
 40
338.0
 40
339.0
 40
339.0
 40
340.0
 40
340.0
 40
341.0
 40
341.0
 40
342.0
 40
342.0
 40
343.0
 40
343.0
 40
344.0
 40
344.0
 40
345.0
 40
345.0
 40
346.0
 40
346.0
 40
347.0
 40
347.0
 40
348.0
 40
348.0
 40
349.0
 40
349.0
 40
350.0
 40
350.0
 40
351.0
 40
351.0
 40
352.0
 40
352.0
 40
353.0
 40
353.0
 40
354.0
 40
354.0
 40
355.0
 40
355.0
 40
356.0
 40
356.0
 40
357.0
 40
357.0
 40
358.0
 40
358.0
 40
359.0
 40
359.0
 40
360.0
 40
360.0
 40
361.0
 40
361.0
 40
362.0
 40
362.0
 40
363.0
 40
363.0
 40
364.0
 40
364.0
 40
365.0
 40
365.0
 40
366.0
 40
366.0
 40
367.0
 40
367.0
 40
368.0
 40
368.0
 40
369.0
 40
369.0
 40
370.0
 40
370.0
 40
371.0
 40
371.0
 40
372.0
 40
372.0
 40
373.0
 40
373.0
 40
374.0
 40
374.0
 40
375.0
 40
375.0
 40
376.0
 40
376.0
 40
377.0
 40
377.0
 40
378.0
 40
378.0
 40
379.0
 40
379.0
 40
380.0
 40
380.0
 40
381.0
 40
381.0
 40
382.0
 40
382.0
 40
383.0
 40
383.0
 40
384.0
 40
384.0
 40
385.0
 40
385.0
 40
386.0
 40
386.0
 40
387.0
 40
387.0
 40
388.0
 40
388.0
 40
389.0
 40
389.0
 40
389.0
 10
920.4574963366777
 20
-1332.443104519908
 30
0.0
 41
1.0
 10
921.2759204453981
 20
-1332.443104519908
 30
0.0
 41
1.0
 10
922.0943445541186
 20
-1332.443104519908
 30
0.0
 41
1.0
 10
921.6805908186018
 20
-1333.785730784158
 30
0.0
 41
1.0
 10
921.2668370830851
 20
-1335.128357048407
 30
0.0
 41
1.0
 10
921.285176578267
 20
-1335.099656275474
 30
0.0
 41
0.9999957264336994
 10
921.3036835751124
 20
-1335.071063225301
 30
0.0
 41
1.0
 10
921.3341128992354
 20
-1335.024050346948
 30
0.0
 41
1.0
 10
921.3645422233583
 20
-1334.977037468594
 30
0.0
 41
1.0
 10
921.443907868466
 20
-1334.854418661688
 30
0.0
 41
0.9995394069082203
 10
921.5305662600177
 20
-1334.736840599947
 30
0.0
 41
1.0
 10
921.5663231222761
 20
-1334.688325707355
 30
0.0
 41
1.0
 10
921.6020799845344
 20
-1334.639810814764
 30
0.0
 41
1.0
 10
921.7358066523523
 20
-1334.458370539637
 30
0.0
 41
0.9994460617143263
 10
921.881307133642
 20
-1334.286228141985
 30
0.0
 41
1.0
 10
921.8856953146167
 20
-1334.281036461603
 30
0.0
 41
1.0
 10
921.8900834955912
 20
-1334.275844781221
 30
0.0
 41
1.0
 10
922.0268076149296
 20
-1334.114085744336
 30
0.0
 41
0.9994359394934418
 10
922.1740818452813
 20
-1333.961869543171
 30
0.0
 41
1.0
 10
922.1764651992341
 20
-1333.959406212798
 30
0.0
 41
1.0
 10
922.1788485531871
 20
-1333.956942882425
 30
0.0
 41
1.0
 10
922.3213560756318
 20
-1333.809653342007
 30
0.0
 41
0.999529368856779
 10
922.472627756615
 20
-1333.671380129842
 30
0.0
 41
1.0
 10
922.4919215158811
 20
-1333.653744244189
 30
0.0
 41
1.0
 10
922.5112152751474
 20
-1333.636108358535
 30
0.0
 41
1.0
 10
922.623899437601
 20
-1333.533106917675
 30
0.0
 41
0.999708761480336
 10
922.7414223265521
 20
-1333.43566263688
 30
0.0
 41
1.0
 10
922.7605883997301
 20
-1333.41977105837
 30
0.0
 41
1.0
 10
922.7797544729079
 20
-1333.403879479861
 30
0.0
 41
1.0
 10
922.8589452155129
 20
-1333.338218356078
 30
0.0
 41
0.999959533869367
 10
922.9393044863623
 20
-1333.273992625427
 30
0.0
 41
1.0
 10
923.0196637572234
 20
-1333.209766894768
 30
0.0
 41
0.9999749417502974
 10
923.1009242915745
 20
-1333.146685340815
 30
0.0
 41
1.0
 10
923.1219104377394
 20
-1333.130394053512
 30
0.0
 41
1.0
 10
923.1428965839043
 20
-1333.114102766208
 30
0.0
 41
1.0
 10
923.2274644691978
 20
-1333.048453756374
 30
0.0
 41
0.9999792037126579
 10
923.3128720689633
 20
-1332.983900974733
 30
0.0
 41
1.0
 10
923.3336968948897
 20
-1332.968161152464
 30
0.0
 41
1.0
 10
923.3545217208163
 20
-1332.952421330195
 30
0.0
 41
1.0
 10
923.3982796687447
 20
-1332.919348193081
 30
0.0
 41
0.9999993373994924
 10
923.4419613548761
 20
-1332.886174397666
 30
0.0
 41
1.0
 10
923.4856430410184
 20
-1332.853000602242
 30
0.0
 41
0.999916095381397
 10
923.5301694519372
 20
-1332.820969537045
 30
0.0
 41
1.0
 10
923.5629913393575
 20
-1332.797358381459
 30
0.0
 41
1.0
 10
923.5958132267779
 20
-1332.773747225874
 30
0.0
 41
1.0
 10
923.7059834125363
 20
-1332.694493849506
 30
0.0
 41
0.998096452723144
 10
923.8250724060377
 20
-1332.629406376649
 30
0.0
 41
1.0
 10
923.8621050129645
 20
-1332.609166397057
 30
0.0
 41
1.0
 10
923.8991376198912
 20
-1332.588926417465
 30
0.0
 41
1.0
 10
924.0784646331653
 20
-1332.490916166763
 30
0.0
 41
0.9984572810572987
 10
924.2675531995251
 20
-1332.413393905416
 30
0.0
 41
1.0
 10
924.2711994689223
 20
-1332.411899013077
 30
0.0
 41
1.0
 10
924.2748457383196
 20
-1332.410404120739
 30
0.0
 41
1.0
 10
924.4566417658858
 20
-1332.335871644069
 30
0.0
 41
0.9987838528034179
 10
924.6448944244432
 20
-1332.279606003904
 30
0.0
 41
1.0
 10
924.6491323736411
 20
-1332.278339350214
 30
0.0
 41
1.0
 10
924.6533703228391
 20
-1332.277072696524
 30
0.0
 41
1.0
 10
924.8331470830014
 20
-1332.223340363738
 30
0.0
 41
0.9990652816207254
 10
925.0168930147183
 20
-1332.185336684196
 30
0.0
 41
1.0
 10
925.0220814157509
 20
-1332.184263581089
 30
0.0
 41
1.0
 10
925.0272698167835
 20
-1332.183190477982
 30
0.0
 41
1.0
 10
925.2006389464354
 20
-1332.147333004654
 30
0.0
 41
0.9992909934270369
 10
925.3762147128925
 20
-1332.124622572187
 30
0.0
 41
1.0
 10
925.5517904793519
 20
-1332.101912139721
 30
0.0
 41
0.9994553539448129
 10
925.7284819124458
 20
-1332.090832835514
 30
0.0
 41
1.0
 10
925.7639163202392
 20
-1332.088610947467
 30
0.0
 41
1.0
 10
925.7993507280327
 20
-1332.086389059419
 30
0.0
 41
1.0
 10
925.9655764946037
 20
-1332.075965997007
 30
0.0
 41
0.9990928098292815
 10
926.1320862865073
 20
-1332.079725638242
 30
0.0
 41
1.0
 10
926.1706481217841
 20
-1332.080596329775
 30
0.0
 41
1.0
 10
926.209209957061
 20
-1332.081467021308
 30
0.0
 41
1.0
 10
926.2985960784149
 20
-1332.083485279477
 30
0.0
 41
0.9998382089205722
 10
926.3878517611962
 20
-1332.088717406004
 30
0.0
 41
1.0
 10
926.3882816674135
 20
-1332.088742606907
 30
0.0
 41
1.0
 10
926.3887115736308
 20
-1332.088767807809
 30
0.0
 41
1.0
 10
926.4771074439798
 20
-1332.093949532532
 30
0.0
 41
0.999755801675858
 10
926.5651880211832
 20
-1332.103032047899
 30
0.0
 41
1.0
 10
926.5656641596115
 20
-1332.103081145382
 30
0.0
 41
1.0
 10
926.5661402980397
 20
-1332.103130242864
 30
0.0
 41
1.0
 10
926.6532685983825
 20
-1332.112114563265
 30
0.0
 41
0.9996565144181411
 10
926.739806451726
 20
-1332.125651869954
 30
0.0
 41
1.0
 10
926.7402723771039
 20
-1332.125724755686
 30
0.0
 41
1.0
 10
926.7407383024818
 20
-1332.125797641417
 30
0.0
 41
1.0
 10
926.8263443050686
 20
-1332.139189176643
 30
0.0
 41
0.9995321806867146
 10
926.9109713853961
 20
-1332.157789665073
 30
0.0
 41
1.0
 10
926.911360579966
 20
-1332.157875207538
 30
0.0
 41
1.0
 10
926.9117497745358
 20
-1332.157960750003
 30
0.0
 41
1.0
 10
926.9955984657219
 20
-1332.176390153501
 30
0.0
 41
0.9993819199218994
 10
927.0779449999203
 20
-1332.200665536763
 30
0.0
 41
1.0
 10
927.0781834334196
 20
-1332.200735825872
 30
0.0
 41
1.0
 10
927.0784218669188
 20
-1332.200806114982
 30
0.0
 41
1.0
 10
927.1602915341181
 20
-1332.224940920024
 30
0.0
 41
0.9992088568505904
 10
927.2399840531048
 20
-1332.255506155818
 30
0.0
 41
1.0
 10
927.3196650439837
 20
-1332.286065756551
 30
0.0
 41
0.9990226101772318
 10
927.396335713891
 20
-1332.323543188166
 30
0.0
 41
1.0
 10
927.4729948556898
 20
-1332.36101498472
 30
0.0
 41
0.998842427397344
 10
927.5456984829019
 20
-1332.405679759972
 30
0.0
 41
1.0
 10
927.545966191281
 20
-1332.405844224044
 30
0.0
 41
1.0
 10
927.54623389966
 20
-1332.406008688116
 30
0.0
 41
1.0
 10
927.6194729436307
 20
-1332.451002391514
 30
0.0
 41
0.998692884449106
 10
927.6877358103411
 20
-1332.503238125794
 30
0.0
 41
1.0
 10
927.6883171025637
 20
-1332.503682939021
 30
0.0
 41
1.0
 10
927.6888983947863
 20
-1332.504127752249
 30
0.0
 41
1.0
 10
927.7583238459414
 20
-1332.557253112985
 30
0.0
 41
0.9986007262278926
 10
927.8217500157084
 20
-1332.617413882678
 30
0.0
 41
1.0
 10
927.8226444311656
 20
-1332.618262250513
 30
0.0
 41
1.0
 10
927.8235388466227
 20
-1332.619110618348
 30
0.0
 41
1.0
 10
927.8887538473039
 20
-1332.680968123712
 30
0.0
 41
0.9985581491381198
 10
927.9469614590056
 20
-1332.749460613984
 30
0.0
 41
1.0
 10
927.9562199126015
 20
-1332.760354971686
 30
0.0
 41
1.0
 10
927.9654783661972
 20
-1332.771249329387
 30
0.0
 41
1.0
 10
928.0422028850903
 20
-1332.861530535062
 30
0.0
 41
0.997046023352159
 10
928.10419478625
 20
-1332.962497619244
 30
0.0
 41
1.0
 10
928.1186641513295
 20
-1332.986064078325
 30
0.0
 41
1.0
 10
928.1331335164091
 20
-1333.009630537407
 30
0.0
 41
1.0
 10
928.1728702164218
 20
-1333.074350261439
 30
0.0
 41
0.9988468816636651
 10
928.2062165871727
 20
-1333.142582713866
 30
0.0
 41
1.0
 10
928.2132526096644
 20
-1333.156979635004
 30
0.0
 41
1.0
 10
928.2202886321562
 20
-1333.171376556142
 30
0.0
 41
1.0
 10
928.2395629579256
 20
-1333.210815166296
 30
0.0
 41
0.9998431189996532
 10
928.2574282854191
 20
-1333.250911720734
 30
0.0
 41
1.0
 10
928.275293612918
 20
-1333.291008275183
 30
0.0
 41
0.9999989989969116
 10
928.2932723363485
 20
-1333.331054112786
 30
0.0
 41
1.0
 10
928.2994446479365
 20
-1333.344802329585
 30
0.0
 41
1.0
 10
928.3056169595246
 20
-1333.358550546384
 30
0.0
 41
1.0
 10
928.3359403061346
 20
-1333.426092817592
 30
0.0
 41
0.9998790356322286
 10
928.3641481862749
 20
-1333.494545569535
 30
0.0
 41
1.0
 10
928.3709833675593
 20
-1333.511132670963
 30
0.0
 41
1.0
 10
928.3778185488438
 20
-1333.527719772391
 30
0.0
 41
1.0
 10
928.4013762112219
 20
-1333.584887727271
 30
0.0
 41
0.9998227574561593
 10
928.4227649596113
 20
-1333.642902035548
 30
0.0
 41
1.0
 10
928.4441537080011
 20
-1333.700916343827
 30
0.0
 41
0.9996797971042091
 10
928.4625799929607
 20
-1333.759938462946
 30
0.0
 41
1.0
 10
928.4664837956859
 20
-1333.772442921114
 30
0.0
 41
1.0
 10
928.470387598411
 20
-1333.784947379281
 30
0.0
 41
1.0
 10
928.4966214888212
 20
-1333.868978414738
 30
0.0
 41
0.9979274938735675
 10
928.5118460123006
 20
-1333.955682773399
 30
0.0
 41
1.0
 10
928.5140696995617
 20
-1333.968346774219
 30
0.0
 41
1.0
 10
928.5162933868228
 20
-1333.98101077504
 30
0.0
 41
1.0
 10
928.5272233265209
 20
-1334.04325728233
 30
0.0
 41
0.9994985982138693
 10
928.534191491698
 20
-1334.106070783472
 30
0.0
 41
1.0
 10
928.5411596568748
 20
-1334.168884284615
 30
0.0
 41
0.9996372611202601
 10
928.544735522643
 20
-1334.231981863303
 30
0.0
 41
1.0
 10
928.5449041001322
 20
-1334.234956480382
 30
0.0
 41
1.0
 10
928.5450726776213
 20
-1334.237931097461
 30
0.0
 41
1.0
 10
928.5489856983677
 20
-1334.306977910303
 30
0.0
 41
0.9997730630736368
 10
928.5499540118558
 20
-1334.376128734339
 30
0.0
 41
1.0
 10
928.5500111182739
 20
-1334.380206913482
 30
0.0
 41
1.0
 10
928.550068224692
 20
-1334.384285092625
 30
0.0
 41
1.0
 10
928.5511507510162
 20
-1334.461592274947
 30
0.0
 41
0.9998772614072928
 10
928.5498106642846
 20
-1334.538895421509
 30
0.0
 41
1.0
 10
928.5497214010859
 20
-1334.544044585343
 30
0.0
 41
1.0
 10
928.5496321378871
 20
-1334.549193749177
 30
0.0
 41
1.0
 10
928.5481135247582
 20
-1334.636795223403
 30
0.0
 41
0.999941556732711
 10
928.5447012145125
 20
-1334.72434338507
 30
0.0
 41
1.0
 10
928.5444598938369
 20
-1334.730534844815
 30
0.0
 41
1.0
 10
928.5442185731613
 20
-1334.736726304561
 30
0.0
 41
1.0
 10
928.5403236215648
 20
-1334.836657385709
 30
0.0
 41
0.9999716810429812
 10
928.5349250384455
 20
-1334.93651852395
 30
0.0
 41
1.0
 10
928.5317122396567
 20
-1334.995947773608
 30
0.0
 41
1.0
 10
928.5284994408679
 20
-1335.055377023266
 30
0.0
 41
1.0
 10
928.5204255317147
 20
-1335.20472542455
 30
0.0
 41
0.9999819129902054
 10
928.5105557400993
 20
-1335.353965902246
 30
0.0
 41
1.0
 10
928.5006859484827
 20
-1335.503206379958
 30
0.0
 41
1.0
 10
928.4982466279188
 20
-1335.540399425807
 30
0.0
 41
1.0
 10
928.5209448617502
 20
-1335.501658428477
 30
0.0
 41
0.9999982128271523
 10
928.5437894205139
 20
-1335.463003534505
 30
0.0
 41
1.0
 10
928.5706989803944
 20
-1335.417470320457
 30
0.0
 41
1.0
 10
928.5976085402749
 20
-1335.371937106409
 30
0.0
 41
1.0
 10
928.6742722188
 20
-1335.24221578434
 30
0.0
 41
0.9998609190056132
 10
928.7552195316621
 20
-1335.115123402411
 30
0.0
 41
1.0
 10
928.7848678531445
 20
-1335.068573669452
 30
0.0
 41
1.0
 10
928.8145161746269
 20
-1335.022023936494
 30
0.0
 41
1.0
 10
928.8967883948621
 20
-1334.892851366502
 30
0.0
 41
0.9999067609735166
 10
928.982557404327
 20
-1334.765973677059
 30
0.0
 41
1.0
 10
928.9849621075252
 20
-1334.762416411008
 30
0.0
 41
1.0
 10
928.9873668107234
 20
-1334.758859144958
 30
0.0
 41
1.0
 10
929.0683264137878
 20
-1334.639095987623
 30
0.0
 41
0.9998784952149028
 10
929.1529800234725
 20
-1334.521914770909
 30
0.0
 41
1.0
 10
929.2376336331532
 20
-1334.404733554202
 30
0.0
 41
0.9998532968284198
 10
929.326251253975
 20
-1334.290520645732
 30
0.0
 41
1.0
 10
929.3462130429673
 20
-1334.264793324711
 30
0.0
 41
1.0
 10
929.3661748319596
 20
-1334.239066003689
 30
0.0
 41
1.0
 10
929.4846588817181
 20
-1334.086360392721
 30
0.0
 41
0.9991551975795587
 10
929.6152833313411
 20
-1333.943900830638
 30
0.0
 41
1.0
 10
929.6187929473216
 20
-1333.940073229013
 30
0.0
 41
1.0
 10
929.6223025633021
 20
-1333.936245627388
 30
0.0
 41
1.0
 10
929.7459077809652
 20
-1333.801441268554
 30
0.0
 41
0.9997418144180862
 10
929.8755099206653
 20
-1333.672391857942
 30
0.0
 41
1.0
 10
930.005112060368
 20
-1333.543342447328
 30
0.0
 41
0.9989238204633507
 10
930.1461146086198
 20
-1333.426857485288
 30
0.0
 41
1.0
 10
930.1913622867578
 20
-1333.389477493681
 30
0.0
 41
1.0
 10
930.2366099648957
 20
-1333.352097502073
 30
0.0
 41
1.0
 10
930.3768500221178
 20
-1333.236242448781
 30
0.0
 41
0.9990825084096678
 10
930.5264899547213
 20
-1333.132813450949
 30
0.0
 41
1.0
 10
930.5365353187749
 20
-1333.125870237872
 30
0.0
 41
1.0
 10
930.5465806828284
 20
-1333.118927024795
 30
0.0
 41
1.0
 10
930.6761298873205
 20
-1333.029384453119
 30
0.0
 41
0.9998164899826016
 10
930.8090140907016
 20
-1332.9448702116
 30
0.0
 41
1.0
 10
930.8208596512281
 20
-1332.937336445073
 30
0.0
 41
1.0
 10
930.8327052117548
 20
-1332.929802678548
 30
0.0
 41
1.0
 10
930.9418982940775
 20
-1332.860355970083
 30
0.0
 41
0.9997473449131244
 10
931.0541022513273
 20
-1332.795887012267
 30
0.0
 41
1.0
 10
931.1663062085811
 20
-1332.731418054449
 30
0.0
 41
0.9999327861145888
 10
931.2799748193502
 20
-1332.669568062765
 30
0.0
 41
1.0
 10
931.2805268219058
 20
-1332.669267704088
 30
0.0
 41
1.0
 10
931.2810788244616
 20
-1332.668967345412
 30
0.0
 41
1.0
 10
931.3958514403438
 20
-1332.606516636374
 30
0.0
 41
0.9996956420483507
 10
931.513564766183
 20
-1332.549803169399
 30
0.0
 41
1.0
 10
931.5440051710816
 20
-1332.535137192667
 30
0.0
 41
1.0
 10
931.5744455759803
 20
-1332.520471215934
 30
0.0
 41
1.0
 10
931.6774226827214
 20
-1332.470857557492
 30
0.0
 41
0.9998070570176845
 10
931.7822690716569
 20
-1332.425326970593
 30
0.0
 41
1.0
 10
931.8871154605956
 20
-1332.379796383693
 30
0.0
 41
0.999782743614787
 10
931.9937683972032
 20
-1332.338675212382
 30
0.0
 41
1.0
 10
932.0129912468368
 20
-1332.331263638749
 30
0.0
 41
1.0
 10
932.0322140964704
 20
-1332.323852065115
 30
0.0
 41
1.0
 10
932.1773127323443
 20
-1332.267907746538
 30
0.0
 41
0.9988031841976749
 10
932.3271830949496
 20
-1332.226407682371
 30
0.0
 41
1.0
 10
932.3521003433117
 20
-1332.219507936564
 30
0.0
 41
1.0
 10
932.3770175916737
 20
-1332.212608190758
 30
0.0
 41
1.0
 10
932.5442876173216
 20
-1332.166290048351
 30
0.0
 41
0.9984748040549999
 10
932.7156445259704
 20
-1332.138695816086
 30
0.0
 41
1.0
 10
932.7203836622198
 20
-1332.137932655572
 30
0.0
 41
1.0
 10
932.725122798469
 20
-1332.137169495059
 30
0.0
 41
1.0
 10
932.8870014346202
 20
-1332.111101583821
 30
0.0
 41
0.9984436495480359
 10
933.0507761783442
 20
-1332.103223630002
 30
0.0
 41
1.0
 10
933.0724733864747
 20
-1332.102179942803
 30
0.0
 41
1.0
 10
933.0941705946051
 20
-1332.101136255603
 30
0.0
 41
1.0
 10
933.2145509220679
 20
-1332.095345676184
 30
0.0
 41
0.9987954789335196
 10
933.3349191669787
 20
-1332.101382203926
 30
0.0
 41
1.0
 10
933.3548839594762
 20
-1332.102383448265
 30
0.0
 41
1.0
 10
933.3748487519738
 20
-1332.103384692603
 30
0.0
 41
1.0
 10
933.4552874118916
 20
-1332.107418731668
 30
0.0
 41
0.9997941595876747
 10
933.535496189983
 20
-1332.114712797589
 30
0.0
 41
1.0
 10
933.6157049680738
 20
-1332.12200686351
 30
0.0
 41
0.9998589466236557
 10
933.695623514925
 20
-1332.13199071796
 30
0.0
 41
1.0
 10
933.728029716737
 20
-1332.136039074879
 30
0.0
 41
1.0
 10
933.7604359185489
 20
-1332.140087431799
 30
0.0
 41
1.0
 10
933.90516686902
 20
-1332.158168000087
 30
0.0
 41
0.9993495063249377
 10
934.0482181127854
 20
-1332.186633709829
 30
0.0
 41
1.0
 10
934.0811518099392
 20
-1332.193187173044
 30
0.0
 41
1.0
 10
934.1140855070931
 20
-1332.199740636259
 30
0.0
 41
1.0
 10
934.2233793302958
 20
-1332.221488970394
 30
0.0
 41
0.9996788715560992
 10
934.331430902251
 20
-1332.248746769757
 30
0.0
 41
1.0
 10
934.3334939047902
 20
-1332.24926719633
 30
0.0
 41
1.0
 10
934.3355569073294
 20
-1332.249787622903
 30
0.0
 41
1.0
 10
934.4394824742074
 20
-1332.27600456912
 30
0.0
 41
0.9995480654492488
 10
934.5416447094368
 20
-1332.308419525744
 30
0.0
 41
1.0
 10
934.5433343515658
 20
-1332.308955630658
 30
0.0
 41
1.0
 10
934.5450239936949
 20
-1332.309491735572
 30
0.0
 41
1.0
 10
934.6438069446663
 20
-1332.340834482369
 30
0.0
 41
0.9993867959456085
 10
934.7401541031088
 20
-1332.379013851659
 30
0.0
 41
1.0
 10
934.7413970521947
 20
-1332.379506393555
 30
0.0
 41
1.0
 10
934.7426400012805
 20
-1332.379998935452
 30
0.0
 41
1.0
 10
934.8365012615525
 20
-1332.417193220949
 30
0.0
 41
0.9992050256522026
 10
934.9271009365847
 20
-1332.461747120187
 30
0.0
 41
1.0
 10
934.9278356192964
 20
-1332.462108412647
 30
0.0
 41
1.0
 10
934.9285703020081
 20
-1332.462469705108
 30
0.0
 41
1.0
 10
935.0177006116176
 20
-1332.506301019426
 30
0.0
 41
0.9990222350741655
 10
935.1026106730117
 20
-1332.557834287124
 30
0.0
 41
1.0
 10
935.1027945582937
 20
-1332.557945890028
 30
0.0
 41
1.0
 10
935.1029784435756
 20
-1332.558057492933
 30
0.0
 41
1.0
 10
935.1875207344043
 20
-1332.609367554822
 30
0.0
 41
0.998864274380512
 10
935.2667952690244
 20
-1332.668491742347
 30
0.0
 41
1.0
 10
935.3460698036428
 20
-1332.727615929872
 30
0.0
 41
0.9987681233310053
 10
935.4190935879195
 20
-1332.794306621274
 30
0.0
 41
1.0
 10
935.4194225158853
 20
-1332.794607022488
 30
0.0
 41
1.0
 10
935.419751443851
 20
-1332.794907423702
 30
0.0
 41
1.0
 10
935.4934330840579
 20
-1332.86219891753
 30
0.0
 41
0.9987496570898483
 10
935.5600268893853
 20
-1332.936511731617
 30
0.0
 41
1.0
 10
935.5607990591461
 20
-1332.937373404975
 30
0.0
 41
1.0
 10
935.561571228907
 20
-1332.938235078334
 30
0.0
 41
1.0
 10
935.6297093737554
 20
-1333.014271239136
 30
0.0
 41
0.998814766982691
 10
935.6901316279797
 20
-1333.096572245978
 30
0.0
 41
1.0
 10
935.6912509540575
 20
-1333.098096877331
 30
0.0
 41
1.0
 10
935.6923702801355
 20
-1333.099621508684
 30
0.0
 41
1.0
 10
935.7550311865161
 20
-1333.184971778232
 30
0.0
 41
0.9989452636216152
 10
935.8095980994779
 20
-1333.27571046739
 30
0.0
 41
1.0
 10
935.8109468255632
 20
-1333.277953248416
 30
0.0
 41
1.0
 10
935.8122955516486
 20
-1333.280196029441
 30
0.0
 41
1.0
 10
935.8695599167811
 20
-1333.375420280651
 30
0.0
 41
0.9991046436070904
 10
935.9185691301026
 20
-1333.475144713676
 30
0.0
 41
1.0
 10
935.9200329916928
 20
-1333.478123393749
 30
0.0
 41
1.0
 10
935.921496853283
 20
-1333.481102073822
 30
0.0
 41
1.0
 10
935.9734337897848
 20
-1333.586783866993
 30
0.0
 41
0.9992763831101171
 10
936.0171869183391
 20
-1333.696107928947
 30
0.0
 41
1.0
 10
936.0186661880027
 20
-1333.699804116481
 30
0.0
 41
1.0
 10
936.0201454576663
 20
-1333.703500304016
 30
0.0
 41
1.0
 10
936.0668571255483
 20
-1333.820216741039
 30
0.0
 41
0.9994163472883857
 10
936.1054901567381
 20
-1333.939850329504
 30
0.0
 41
1.0
 10
936.1067283089849
 20
-1333.943684473286
 30
0.0
 41
1.0
 10
936.1079664612316
 20
-1333.947518617069
 30
0.0
 41
1.0
 10
936.1478500222481
 20
-1334.071024678545
 30
0.0
 41
0.9997268055890938
 10
936.1819180781607
 20
-1334.196259710497
 30
0.0
 41
1.0
 10
936.1828482584299
 20
-1334.199679076605
 30
0.0
 41
1.0
 10
936.183778438699
 20
-1334.203098442712
 30
0.0
 41
1.0
 10
936.2159861340726
 20
-1334.321494742448
 30
0.0
 41
0.9996701319001253
 10
936.2420717508433
 20
-1334.441388695711
 30
0.0
 41
1.0
 10
936.2681573676133
 20
-1334.561282648973
 30
0.0
 41
0.9995785451109094
 10
936.2872409449528
 20
-1334.682488410003
 30
0.0
 41
1.0
 10
936.2914607271268
 20
-1334.709289564769
 30
0.0
 41
1.0
 10
936.2956805093008
 20
-1334.736090719535
 30
0.0
 41
1.0
 10
936.3222554852396
 20
-1334.904876693239
 30
0.0
 41
0.9979925101216283
 10
936.3272810711658
 20
-1335.075668021331
 30
0.0
 41
1.0
 10
936.3281058835904
 20
-1335.103698744812
 30
0.0
 41
1.0
 10
936.328930696015
 20
-1335.131729468294
 30
0.0
 41
1.0
 10
936.3323066570922
 20
-1335.246459349422
 30
0.0
 41
0.999531490226298
 10
936.3286564649536
 20
-1335.361180833175
 30
0.0
 41
1.0
 10
936.325006272815
 20
-1335.475902316928
 30
0.0
 41
0.999624548694449
 10
936.3150771776842
 20
-1335.590251588051
 30
0.0
 41
1.0
 10
936.3149141296899
 20
-1335.592129344186
 30
0.0
 41
1.0
 10
936.3147510816957
 20
-1335.594007100321
 30
0.0
 41
1.0
 10
936.3044958905762
 20
-1335.712111883718
 30
0.0
 41
0.9997286095000804
 10
936.2887505670046
 20
-1335.829610792613
 30
0.0
 41
1.0
 10
936.2883570743545
 20
-1335.832547217314
 30
0.0
 41
1.0
 10
936.2879635817043
 20
-1335.835483642014
 30
0.0
 41
1.0
 10
936.2714312728324
 20
-1335.958855400311
 30
0.0
 41
0.9998265533968828
 10
936.2503158140992
 20
-1336.081525875104
 30
0.0
 41
1.0
 10
936.2496392719622
 20
-1336.08545625361
 30
0.0
 41
1.0
 10
936.2489627298253
 20
-1336.089386632116
 30
0.0
 41
1.0
 10
936.2264941868176
 20
-1336.219917863922
 30
0.0
 41
0.9999022530853929
 10
936.2003847222077
 20
-1336.349769832561
 30
0.0
 41
1.0
 10
936.1994060810426
 20
-1336.354636974947
 30
0.0
 41
1.0
 10
936.1984274398776
 20
-1336.359504117332
 30
0.0
 41
1.0
 10
936.1703606929368
 20
-1336.499090370746
 30
0.0
 41
0.9999524761935759
 10
936.1395777241023
 20
-1336.638102863909
 30
0.0
 41
1.0
 10
936.1383016169268
 20
-1336.643865623212
 30
0.0
 41
1.0
 10
936.1370255097512
 20
-1336.649628382515
 30
0.0
 41
1.0
 10
936.1036903265657
 20
-1336.800166394284
 30
0.0
 41
0.9999813588726773
 10
936.0685193257652
 20
-1336.950286106959
 30
0.0
 41
1.0
 10
936.0669654003109
 20
-1336.956918697372
 30
0.0
 41
1.0
 10
936.0654114748567
 20
-1336.963551287785
 30
0.0
 41
1.0
 10
936.0271326231486
 20
-1337.126936181281
 30
0.0
 41
0.9999955237661041
 10
935.9878767451598
 20
-1337.290089084923
 30
0.0
 41
1.0
 10
935.9755951095292
 20
-1337.34113327543
 30
0.0
 41
1.0
 10
935.9633134738984
 20
-1337.392177465938
 30
0.0
 41
1.0
 10
935.8994943246691
 20
-1337.657418750508
 30
0.0
 41
0.9999993604337556
 10
935.8350753775252
 20
-1337.922515001093
 30
0.0
 41
1.0
 10
935.8303565419562
 20
-1337.941933909224
 30
0.0
 41
1.0
 10
935.8256377063872
 20
-1337.961352817355
 30
0.0
 41
1.0
 10
935.7517810881232
 20
-1338.265286884128
 30
0.0
 41
0.9999659914735554
 10
935.6729214922381
 20
-1338.567961430686
 30
0.0
 41
1.0
 10
935.6679688033091
 20
-1338.586970567862
 30
0.0
 41
1.0
 10
935.6630161143801
 20
-1338.605979705038
 30
0.0
 41
1.0
 10
935.574251140637
 20
-1338.94667252595
 30
0.0
 41
0.9999441976029999
 10
935.4783081076718
 20
-1339.285413951255
 30
0.0
 41
1.0
 10
935.4616075892459
 20
-1339.344377663783
 30
0.0
 41
1.0
 10
935.4449070708201
 20
-1339.403341376312
 30
0.0
 41
1.0
 10
935.315563001003
 20
-1339.860010226675
 30
0.0
 41
0.999962512073249
 10
935.1783302336809
 20
-1340.314370760667
 30
0.0
 41
1.0
 10
935.1425402905963
 20
-1340.432866787299
 30
0.0
 41
1.0
 10
935.1067503475117
 20
-1340.551362813932
 30
0.0
 41
1.0
 10
935.032230143473
 20
-1340.798089892025
 30
0.0
 41
0.9999793386308061
 10
934.9545441203377
 20
-1341.043838531255
 30
0.0
 41
1.0
 10
934.8768580972
 20
-1341.289587170491
 30
0.0
 41
1.0
 10
934.8660785383294
 20
-1341.323605074866
 30
0.0
 41
1.0
 10
933.0157054850602
 20
-1347.210676997333
 30
0.0
 41
1.0
 10
931.1653324317911
 20
-1353.0977489198
 30
0.0
 41
1.0
 10
930.2040757417675
 20
-1353.0977489198
 30
0.0
 41
1.0
 10
929.2428190517439
 20
-1353.0977489198
 30
0.0
 41
1.0
 10
930.8617638304224
 20
-1347.949720418011
 30
0.0
 41
1.0
 10
932.4807086091008
 20
-1342.801691916221
 30
0.0
 41
1.0
 10
932.5258744322766
 20
-1342.657660693947
 30
0.0
 41
1.0
 10
932.5710402554523
 20
-1342.513629471672
 30
0.0
 41
1.0
 10
932.7413446728143
 20
-1341.970538442512
 30
0.0
 41
0.9999911657884119
 10
932.9070774844924
 20
-1341.426034911156
 30
0.0
 41
1.0
 10
932.9367734279936
 20
-1341.328470971103
 30
0.0
 41
1.0
 10
932.9664693714948
 20
-1341.23090703105
 30
0.0
 41
1.0
 10
933.0728102961672
 20
-1340.88153137981
 30
0.0
 41
0.9999952428161926
 10
933.1769938854975
 20
-1340.531506355442
 30
0.0
 41
1.0
 10
933.1820533558295
 20
-1340.514508081169
 30
0.0
 41
1.0
 10
933.1871128261614
 20
-1340.497509806896
 30
0.0
 41
1.0
 10
933.2811774748195
 20
-1340.181481331103
 30
0.0
 41
0.999993168753519
 10
933.3729033126962
 20
-1339.864766117822
 30
0.0
 41
1.0
 10
933.3778385771491
 20
-1339.847725408574
 30
0.0
 41
1.0
 10
933.3827738416019
 20
-1339.830684699326
 30
0.0
 41
1.0
 10
933.4646291505635
 20
-1339.548050904574
 30
0.0
 41
0.9999893840813725
 10
933.5438763770267
 20
-1339.264674775305
 30
0.0
 41
1.0
 10
933.6231236034885
 20
-1338.981298646041
 30
0.0
 41
0.9999833980058787
 10
933.6990998442327
 20
-1338.697028063002
 30
0.0
 41
1.0
 10
933.7081037809533
 20
-1338.66333918453
 30
0.0
 41
1.0
 10
933.7171077176737
 20
-1338.629650306059
 30
0.0
 41
1.0
 10
933.7860722665395
 20
-1338.371614473765
 30
0.0
 41
0.9999233658069157
 10
933.848627237757
 20
-1338.111950315052
 30
0.0
 41
1.0
 10
933.9111822089773
 20
-1337.85228615633
 30
0.0
 41
1.0
 10
933.9506656278348
 20
-1337.688479491904
 30
0.0
 41
1.0
 10
933.9556442318135
 20
-1337.667824530027
 30
0.0
 41
1.0
 10
933.9606228357922
 20
-1337.647169568151
 30
0.0
 41
1.0
 10
933.9901490466921
 20
-1337.524672827479
 30
0.0
 41
0.9999868670838757
 10
934.0184181306886
 20
-1337.401879881832
 30
0.0
 41
1.0
 10
934.0223156178477
 20
-1337.384950294409
 30
0.0
 41
1.0
 10
934.0262131050067
 20
-1337.368020706986
 30
0.0
 41
1.0
 10
934.0466872146856
 20
-1337.279086936183
 30
0.0
 41
0.9999778173354784
 10
934.0659748128003
 20
-1337.189888318956
 30
0.0
 41
1.0
 10
934.0852624109172
 20
-1337.100689701719
 30
0.0
 41
0.9999602692863246
 10
934.1029567695476
 20
-1337.011161413293
 30
0.0
 41
1.0
 10
934.1061606016247
 20
-1336.99495095841
 30
0.0
 41
1.0
 10
934.1093644337017
 20
-1336.978740503528
 30
0.0
 41
1.0
 10
934.1334664564878
 20
-1336.85679130533
 30
0.0
 41
0.9995617985320459
 10
934.1503098037069
 20
-1336.733629557621
 30
0.0
 41
1.0
 10
934.152774293613
 20
-1336.715608740256
 30
0.0
 41
1.0
 10
934.1552387835192
 20
-1336.697587922891
 30
0.0
 41
1.0
 10
934.1755220445673
 20
-1336.549272873192
 30
0.0
 41
0.9991121410639959
 10
934.1832473981555
 20
-1336.399776774386
 30
0.0
 41
1.0
 10
934.1841661881799
 20
-1336.38199693781
 30
0.0
 41
1.0
 10
934.1850849782045
 20
-1336.364217101235
 30
0.0
 41
1.0
 10
934.1909727517435
 20
-1336.250280675582
 30
0.0
 41
0.9989792494906347
 10
934.1865536596264
 20
-1336.136277839681
 30
0.0
 41
1.0
 10
934.1859056877577
 20
-1336.119561593754
 30
0.0
 41
1.0
 10
934.1852577158891
 20
-1336.102845347827
 30
0.0
 41
1.0
 10
934.1821345675093
 20
-1336.022275003786
 30
0.0
 41
0.9997820295394921
 10
934.1756505701334
 20
-1335.941905282039
 30
0.0
 41
1.0
 10
934.1691665727578
 20
-1335.861535560296
 30
0.0
 41
0.9998335105972139
 10
934.1597543772463
 20
-1335.781455943847
 30
0.0
 41
1.0
 10
934.1581594525699
 20
-1335.767886213363
 30
0.0
 41
1.0
 10
934.1565645278934
 20
-1335.754316482878
 30
0.0
 41
1.0
 10
934.1439624830289
 20
-1335.647097405462
 30
0.0
 41
0.9996876457879245
 10
934.1260185702298
 20
-1335.540641977742
 30
0.0
 41
1.0
 10
934.1237869070849
 20
-1335.527402242502
 30
0.0
 41
1.0
 10
934.12155524394
 20
-1335.514162507263
 30
0.0
 41
1.0
 10
934.107759422519
 20
-1335.432316363304
 30
0.0
 41
0.9995547496494326
 10
934.0891061006263
 20
-1335.351438866113
 30
0.0
 41
1.0
 10
934.0887321437548
 20
-1335.349817455407
 30
0.0
 41
1.0
 10
934.0883581868833
 20
-1335.348196044701
 30
0.0
 41
1.0
 10
934.0704527787333
 20
-1335.27056136892
 30
0.0
 41
0.9994899427174821
 10
934.0476278700544
 20
-1335.194228086088
 30
0.0
 41
1.0
 10
934.047169343314
 20
-1335.1926946363
 30
0.0
 41
1.0
 10
934.0467108165736
 20
-1335.191161186513
 30
0.0
 41
1.0
 10
934.0248029613755
 20
-1335.117894803255
 30
0.0
 41
0.9993784877591538
 10
933.9977873262684
 20
-1335.046354098094
 30
0.0
 41
1.0
 10
933.9972556352918
 20
-1335.044946115375
 30
0.0
 41
1.0
 10
933.9967239443152
 20
-1335.043538132655
 30
0.0
 41
1.0
 10
933.9707716911624
 20
-1334.974813392937
 30
0.0
 41
0.9992430832254713
 10
933.9395551560024
 20
-1334.908314240867
 30
0.0
 41
1.0
 10
933.9389730399455
 20
-1334.907074185749
 30
0.0
 41
1.0
 10
933.9383909238887
 20
-1334.905834130631
 30
0.0
 41
1.0
 10
933.908338620843
 20
-1334.841815088798
 30
0.0
 41
0.9990789632797691
 10
933.8729079940664
 20
-1334.780608477049
 30
0.0
 41
1.0
 10
933.8723122878848
 20
-1334.779579391191
 30
0.0
 41
1.0
 10
933.8717165817031
 20
-1334.778550305332
 30
0.0
 41
1.0
 10
933.8374773672898
 20
-1334.7194018653
 30
0.0
 41
0.9988874801120988
 10
933.7978180912576
 20
-1334.663742152881
 30
0.0
 41
1.0
 10
933.797262565193
 20
-1334.662962501206
 30
0.0
 41
1.0
 10
933.7967070391285
 20
-1334.662182849531
 30
0.0
 41
1.0
 10
933.7581588152252
 20
-1334.608082440463
 30
0.0
 41
0.9986762060691619
 10
933.7142563439495
 20
-1334.558228726024
 30
0.0
 41
1.0
 10
933.7138123836173
 20
-1334.557724584208
 30
0.0
 41
1.0
 10
933.7133684232851
 20
-1334.557220442391
 30
0.0
 41
1.0
 10
933.6703538726733
 20
-1334.508375011585
 30
0.0
 41
0.9984621642488687
 10
933.6221963158955
 20
-1334.464591711114
 30
0.0
 41
1.0
 10
933.621949681379
 20
-1334.464367478951
 30
0.0
 41
1.0
 10
933.6217030468625
 20
-1334.464143246787
 30
0.0
 41
1.0
 10
933.5740387591172
 20
-1334.420808410643
 30
0.0
 41
0.9982724693851734
 10
933.5216201272763
 20
-1334.383364060125
 30
0.0
 41
1.0
 10
933.4692014954347
 20
-1334.345919709608
 30
0.0
 41
0.9981399180158856
 10
933.4126154320413
 20
-1334.315133190164
 30
0.0
 41
1.0
 10
933.4125697699629
 20
-1334.315108347007
 30
0.0
 41
1.0
 10
933.4125241078846
 20
-1334.31508350385
 30
0.0
 41
1.0
 10
933.3558467203338
 20
-1334.284247298092
 30
0.0
 41
0.9980927086837501
 10
933.2958013692679
 20
-1334.260630489239
 30
0.0
 41
1.0
 10
933.2953611995563
 20
-1334.260457363364
 30
0.0
 41
1.0
 10
933.2949210298445
 20
-1334.260284237489
 30
0.0
 41
1.0
 10
933.2339953393539
 20
-1334.236321176887
 30
0.0
 41
0.9981411356561097
 10
933.1706068179543
 20
-1334.219948535381
 30
0.0
 41
1.0
 10
933.1697247012535
 20
-1334.219720693176
 30
0.0
 41
1.0
 10
933.1688425845525
 20
-1334.21949285097
 30
0.0
 41
1.0
 10
933.1036898297513
 20
-1334.202664525054
 30
0.0
 41
0.9983031812935711
 10
933.0370224007571
 20
-1334.193525163878
 30
0.0
 41
1.0
 10
933.0281513753515
 20
-1334.192309045206
 30
0.0
 41
1.0
 10
933.0192803499459
 20
-1334.191092926535
 30
0.0
 41
1.0
 10
932.9649307074426
 20
-1334.183642196544
 30
0.0
 41
0.9983887708261379
 10
932.9100868581506
 20
-1334.182397522911
 30
0.0
 41
1.0
 10
932.9020234529369
 20
-1334.182214525036
 30
0.0
 41
1.0
 10
932.8939600477231
 20
-1334.182031527161
 30
0.0
 41
1.0
 10
932.8552430088615
 20
-1334.181152849278
 30
0.0
 41
0.9998869563078469
 10
932.8165170556551
 20
-1334.181438718637
 30
0.0
 41
1.0
 10
932.7777911024148
 20
-1334.181724587997
 30
0.0
 41
0.9999972320136442
 10
932.7390669231665
 20
-1334.182192687527
 30
0.0
 41
1.0
 10
932.7197139066241
 20
-1334.182426627616
 30
0.0
 41
1.0
 10
932.7003608900817
 20
-1334.182660567705
 30
0.0
 41
1.0
 10
932.6229306777127
 20
-1334.183596547412
 30
0.0
 41
0.9997304945087235
 10
932.545627371477
 20
-1334.188125641198
 30
0.0
 41
1.0
 10
932.5365777297709
 20
-1334.188655847188
 30
0.0
 41
1.0
 10
932.5275280880649
 20
-1334.189186053178
 30
0.0
 41
1.0
 10
932.4321254984162
 20
-1334.194775558945
 30
0.0
 41
0.9997888306415232
 10
932.3370331625713
 20
-1334.204280523434
 30
0.0
 41
1.0
 10
932.328312101001
 20
-1334.205152238066
 30
0.0
 41
1.0
 10
932.3195910394306
 20
-1334.206023952698
 30
0.0
 41
1.0
 10
932.207056580443
 20
-1334.217272346451
 30
0.0
 41
0.9984170238190595
 10
932.0964974330919
 20
-1334.241088428387
 30
0.0
 41
1.0
 10
932.060116302107
 20
-1334.248925464192
 30
0.0
 41
1.0
 10
932.023735171122
 20
-1334.256762499998
 30
0.0
 41
1.0
 10
931.9085441026986
 20
-1334.281576366508
 30
0.0
 41
0.9976592854199303
 10
931.7978159362918
 20
-1334.321875043656
 30
0.0
 41
1.0
 10
931.6870877698851
 20
-1334.362173720804
 30
0.0
 41
0.999325507435202
 10
931.5796159710932
 20
-1334.410490619297
 30
0.0
 41
1.0
 10
931.5749907921713
 20
-1334.412569995496
 30
0.0
 41
1.0
 10
931.5703656132495
 20
-1334.414649371695
 30
0.0
 41
1.0
 10
931.4536434566111
 20
-1334.467125022587
 30
0.0
 41
0.9976475078274503
 10
931.3451961123003
 20
-1334.535073012246
 30
0.0
 41
1.0
 10
931.3268537181661
 20
-1334.54656549106
 30
0.0
 41
1.0
 10
931.3085113240321
 20
-1334.558057969874
 30
0.0
 41
1.0
 10
931.2243091324797
 20
-1334.610815090643
 30
0.0
 41
0.9995131336406661
 10
931.1435614175225
 20
-1334.668721302596
 30
0.0
 41
1.0
 10
931.0628137025636
 20
-1334.72662751455
 30
0.0
 41
0.9995810107606327
 10
930.9855520548331
 20
-1334.789109197018
 30
0.0
 41
1.0
 10
930.9825820236247
 20
-1334.791511068481
 30
0.0
 41
1.0
 10
930.9796119924162
 20
-1334.793912939944
 30
0.0
 41
1.0
 10
930.8964102822716
 20
-1334.861198365335
 30
0.0
 41
0.9996617837954888
 10
930.816819595138
 20
-1334.932718820893
 30
0.0
 41
1.0
 10
930.8046888442614
 20
-1334.943619553884
 30
0.0
 41
1.0
 10
930.7925580933847
 20
-1334.954520286874
 30
0.0
 41
1.0
 10
930.7242825659836
 20
-1335.015872902351
 30
0.0
 41
0.9997267750052309
 10
930.6589490576966
 20
-1335.080349438879
 30
0.0
 41
1.0
 10
930.5936155494047
 20
-1335.144825975412
 30
0.0
 41
0.9999667288962896
 10
930.5293426062566
 20
-1335.210359782309
 30
0.0
 41
1.0
 10
930.4605151584863
 20
-1335.280537441062
 30
0.0
 41
1.0
 10
930.391687710716
 20
-1335.350715099815
 30
0.0
 41
1.0
 10
930.1897598720186
 20
-1335.556604224226
 30
0.0
 41
0.9988205335175023
 10
930.0087542550382
 20
-1335.781108456288
 30
0.0
 41
1.0
 10
929.9781142901343
 20
-1335.819111706717
 30
0.0
 41
1.0
 10
929.9474743252304
 20
-1335.857114957146
 30
0.0
 41
1.0
 10
929.7051887784419
 20
-1336.157625690066
 30
0.0
 41
0.9997077826755215
 10
929.4777108273353
 20
-1336.469495484284
 30
0.0
 41
1.0
 10
929.4759874122053
 20
-1336.471858267663
 30
0.0
 41
1.0
 10
929.4742639970754
 20
-1336.474221051042
 30
0.0
 41
1.0
 10
929.2433392157105
 20
-1336.790816412016
 30
0.0
 41
0.9989147567078948
 10
929.0428757128278
 20
-1337.127525873199
 30
0.0
 41
1.0
 10
929.0181345675178
 20
-1337.169082453757
 30
0.0
 41
1.0
 10
928.9933934222076
 20
-1337.210639034314
 30
0.0
 41
1.0
 10
928.8381821235708
 20
-1337.471340418766
 30
0.0
 41
0.9997476598180852
 10
928.6948371360648
 20
-1337.738750167342
 30
0.0
 41
1.0
 10
928.5514921485546
 20
-1338.006159915926
 30
0.0
 41
0.9996258967110284
 10
928.4229838966227
 20
-1338.281007852551
 30
0.0
 41
1.0
 10
928.4097839871738
 20
-1338.309239252645
 30
0.0
 41
1.0
 10
928.3965840777249
 20
-1338.337470652739
 30
0.0
 41
1.0
 10
928.2563753567248
 20
-1338.637343050692
 30
0.0
 41
0.9998735413944889
 10
928.1257740100037
 20
-1338.941522650161
 30
0.0
 41
1.0
 10
928.1223311819451
 20
-1338.949541235622
 30
0.0
 41
1.0
 10
928.1188883538865
 20
-1338.957559821082
 30
0.0
 41
1.0
 10
927.9951726632877
 20
-1339.245702249619
 30
0.0
 41
0.9999377418860365
 10
927.8779178611087
 20
-1339.536533717304
 30
0.0
 41
1.0
 10
927.7606630589376
 20
-1339.82736518497
 30
0.0
 41
0.9999508299505684
 10
927.6491991155651
 20
-1340.120464861778
 30
0.0
 41
1.0
 10
927.6461183468981
 20
-1340.128565887753
 30
0.0
 41
1.0
 10
927.6430375782311
 20
-1340.136666913729
 30
0.0
 41
1.0
 10
927.5254120975297
 20
-1340.445968642476
 30
0.0
 41
0.9999609228432518
 10
927.4132734946552
 20
-1340.757301658493
 30
0.0
 41
1.0
 10
927.4103174843053
 20
-1340.765508498903
 30
0.0
 41
1.0
 10
927.4073614739556
 20
-1340.773715339313
 30
0.0
 41
1.0
 10
927.289310850382
 20
-1341.101462036148
 30
0.0
 41
0.9999674607399918
 10
927.1765633243125
 20
-1341.431070656147
 30
0.0
 41
1.0
 10
927.1251649337539
 20
-1341.581329851827
 30
0.0
 41
1.0
 10
927.0737665431955
 20
-1341.731589047508
 30
0.0
 41
1.0
 10
926.9577559364343
 20
-1342.07073703002
 30
0.0
 41
0.9999287532307026
 10
926.8498745324605
 20
-1342.412557769005
 30
0.0
 41
1.0
 10
926.8033972763467
 20
-1342.559820313296
 30
0.0
 41
1.0
 10
926.7569200202328
 20
-1342.707082857587
 30
0.0
 41
1.0
 10
926.741993128508
 20
-1342.754378507923
 30
0.0
 41
0.9999998224848785
 10
926.7271226197594
 20
-1342.801691916221
 30
0.0
 41
1.0
 10
925.1064664829639
 20
-1347.949720418011
 30
0.0
 41
1.0
 10
923.4858103461685
 20
-1353.0977489198
 30
0.0
 41
1.0
 10
922.5805019022775
 20
-1353.0977489198
 30
0.0
 41
1.0
 10
921.6751934583866
 20
-1353.0977489198
 30
0.0
 41
1.0
 10
923.5272778697727
 20
-1347.210676997333
 30
0.0
 41
1.0
 10
925.3793622811587
 20
-1341.323605074866
 30
0.0
 41
1.0
 10
925.3894840394614
 20
-1341.291561861416
 30
0.0
 41
1.0
 10
925.4620917083112
 20
-1341.06126231959
 30
0.0
 41
1.0
 10
925.5346993771577
 20
-1340.830962777774
 30
0.0
 41
0.9999825681975747
 10
925.6045824163664
 20
-1340.599821882719
 30
0.0
 41
1.0
 10
925.652873478527
 20
-1340.440097299223
 30
0.0
 41
1.0
 10
925.7011645406877
 20
-1340.280372715728
 30
0.0
 41
1.0
 10
925.7983168940068
 20
-1339.959037493946
 30
0.0
 41
0.999967252895588
 10
925.8902556996333
 20
-1339.636171948349
 30
0.0
 41
1.0
 10
925.8930445833078
 20
-1339.626378102942
 30
0.0
 41
1.0
 10
925.8958334669823
 20
-1339.616584257536
 30
0.0
 41
1.0
 10
925.9821945052622
 20
-1339.313306402743
 30
0.0
 41
0.9999899749156421
 10
926.0658361147913
 20
-1339.00926731431
 30
0.0
 41
1.0
 10
926.075942033809
 20
-1338.972532076631
 30
0.0
 41
1.0
 10
926.0860479528269
 20
-1338.935796838952
 30
0.0
 41
1.0
 10
926.1494777243256
 20
-1338.705228225859
 30
0.0
 41
0.9999214200503735
 10
926.2071071527037
 20
-1338.473141883649
 30
0.0
 41
1.0
 10
926.2198730048847
 20
-1338.421730998251
 30
0.0
 41
1.0
 10
926.2326388570656
 20
-1338.370320112853
 30
0.0
 41
1.0
 10
926.2647365810838
 20
-1338.24105554143
 30
0.0
 41
0.9999828681667949
 10
926.2953188330769
 20
-1338.111424066972
 30
0.0
 41
1.0
 10
926.3259010850703
 20
-1337.981792592512
 30
0.0
 41
0.9999389844477407
 10
926.3536120738603
 20
-1337.85151713661
 30
0.0
 41
1.0
 10
926.3607498175811
 20
-1337.81796103277
 30
0.0
 41
1.0
 10
926.3678875613019
 20
-1337.784404928929
 30
0.0
 41
1.0
 10
926.4098740375315
 20
-1337.587017265355
 30
0.0
 41
0.9998933699439516
 10
926.4460783019337
 20
-1337.388487657597
 30
0.0
 41
1.0
 10
926.4474511271501
 20
-1337.3809596369
 30
0.0
 41
1.0
 10
926.4488239523665
 20
-1337.373431616203
 30
0.0
 41
1.0
 10
926.4877738672022
 20
-1337.159845967047
 30
0.0
 41
0.9996850305193242
 10
926.5159575434607
 20
-1336.944574961611
 30
0.0
 41
1.0
 10
926.5179525768297
 20
-1336.929336607491
 30
0.0
 41
1.0
 10
926.5199476101986
 20
-1336.914098253372
 30
0.0
 41
1.0
 10
926.547355472658
 20
-1336.704753026216
 30
0.0
 41
0.9994697936706507
 10
926.5610800318775
 20
-1336.494067830885
 30
0.0
 41
1.0
 10
926.5615571011273
 20
-1336.486744358672
 30
0.0
 41
1.0
 10
926.562034170377
 20
-1336.479420886459
 30
0.0
 41
1.0
 10
926.5748045910972
 20
-1336.283382635553
 30
0.0
 41
0.9991804893136537
 10
926.5716762748243
 20
-1336.086953785581
 30
0.0
 41
1.0
 10
926.5715923960022
 20
-1336.081686984168
 30
0.0
 41
1.0
 10
926.5715085171801
 20
-1336.076420182755
 30
0.0
 41
1.0
 10
926.5685479585516
 20
-1335.890524935609
 30
0.0
 41
0.9988448329321542
 10
926.5477564129277
 20
-1335.705772345774
 30
0.0
 41
1.0
 10
926.5461623392248
 20
-1335.691607490004
 30
0.0
 41
1.0
 10
926.5445682655219
 20
-1335.677442634234
 30
0.0
 41
1.0
 10
926.526964867304
 20
-1335.521019755941
 30
0.0
 41
0.9985503209458471
 10
926.4926485950043
 20
-1335.367395571852
 30
0.0
 41
1.0
 10
926.4850626029331
 20
-1335.333435244451
 30
0.0
 41
1.0
 10
926.4774766108619
 20
-1335.299474917051
 30
0.0
 41
1.0
 10
926.4583323227048
 20
-1335.213771387762
 30
0.0
 41
0.9991036781370519
 10
926.4320074610537
 20
-1335.129994300437
 30
0.0
 41
1.0
 10
926.4280252355977
 20
-1335.117321137927
 30
0.0
 41
1.0
 10
926.4240430101416
 20
-1335.104647975416
 30
0.0
 41
1.0
 10
926.4056825994035
 20
-1335.046217213116
 30
0.0
 41
0.9998874504368915
 10
926.3855773917239
 20
-1334.988363610889
 30
0.0
 41
1.0
 10
926.3654721840452
 20
-1334.930510008665
 30
0.0
 41
0.9994041637543708
 10
926.3414235711105
 20
-1334.874181304774
 30
0.0
 41
1.0
 10
926.337226786887
 20
-1334.864351240293
 30
0.0
 41
1.0
 10
926.3330300026633
 20
-1334.854521175812
 30
0.0
 41
1.0
 10
926.3051511716681
 20
-1334.789221009843
 30
0.0
 41
0.9991846840701943
 10
926.2720948149756
 20
-1334.726382978565
 30
0.0
 41
1.0
 10
926.2709582085806
 20
-1334.72422236211
 30
0.0
 41
1.0
 10
926.2698216021857
 20
-1334.722061745656
 30
0.0
 41
1.0
 10
926.2390384582833
 20
-1334.663544947286
 30
0.0
 41
0.9989253167922755
 10
926.2029690342276
 20
-1334.608130018894
 30
0.0
 41
1.0
 10
926.201914909553
 20
-1334.606510524131
 30
0.0
 41
1.0
 10
926.2008607848784
 20
-1334.604891029368
 30
0.0
 41
1.0
 10
926.1668996101723
 20
-1334.552715090503
 30
0.0
 41
0.9986467172835949
 10
926.1277024575352
 20
-1334.504349056874
 30
0.0
 41
1.0
 10
926.1268283288346
 20
-1334.503270454596
 30
0.0
 41
1.0
 10
926.1259542001338
 20
-1334.502191852318
 30
0.0
 41
1.0
 10
926.0885053048978
 20
-1334.455983023245
 30
0.0
 41
0.998400110426787
 10
926.0460785743807
 20
-1334.414297915876
 30
0.0
 41
1.0
 10
926.0454914362717
 20
-1334.413721040995
 30
0.0
 41
1.0
 10
926.0449042981628
 20
-1334.413144166114
 30
0.0
 41
1.0
 10
926.0036518438645
 20
-1334.372612808508
 30
0.0
 41
0.9982442159084353
 10
925.9578957425279
 20
-1334.337244247247
 30
0.0
 41
1.0
 10
925.9576809470661
 20
-1334.337078214604
 30
0.0
 41
1.0
 10
925.9574661516045
 20
-1334.336912181961
 30
0.0
 41
1.0
 10
925.9121396411924
 20
-1334.301875685987
 30
0.0
 41
0.9982450060837031
 10
925.8629886621205
 20
-1334.272443902953
 30
0.0
 41
1.0
 10
925.8138376830491
 20
-1334.24301211992
 30
0.0
 41
0.9983922639634434
 10
925.7616713768837
 20
-1334.219332485265
 30
0.0
 41
1.0
 10
925.7614444995593
 20
-1334.219229499784
 30
0.0
 41
1.0
 10
925.761217622235
 20
-1334.219126514303
 30
0.0
 41
1.0
 10
925.7085975614225
 20
-1334.195240908686
 30
0.0
 41
0.9986517147150414
 10
925.6537845885548
 20
-1334.176939789565
 30
0.0
 41
1.0
 10
925.6531066671262
 20
-1334.176713443133
 30
0.0
 41
1.0
 10
925.6524287456975
 20
-1334.176487096701
 30
0.0
 41
1.0
 10
925.5962599299756
 20
-1334.157733284717
 30
0.0
 41
0.9989435598956624
 10
925.5386065428256
 20
-1334.144215582483
 30
0.0
 41
1.0
 10
925.5375264232424
 20
-1334.143962332229
 30
0.0
 41
1.0
 10
925.5364463036592
 20
-1334.143709081976
 30
0.0
 41
1.0
 10
925.4766326773421
 20
-1334.129684879235
 30
0.0
 41
0.9992249241239305
 10
925.4159011684421
 20
-1334.120409536519
 30
0.0
 41
1.0
 10
925.4144874801535
 20
-1334.120193628112
 30
0.0
 41
1.0
 10
925.4130737918649
 20
-1334.119977719705
 30
0.0
 41
1.0
 10
925.3495149063856
 20
-1334.110270560174
 30
0.0
 41
0.9994396597834563
 10
925.2854489698487
 20
-1334.104837637828
 30
0.0
 41
1.0
 10
925.2663083023708
 20
-1334.103214470109
 30
0.0
 41
1.0
 10
925.2471676348929
 20
-1334.101591302391
 30
0.0
 41
1.0
 10
925.1448203634005
 20
-1334.092912044608
 30
0.0
 41
0.9987693403120996
 10
925.0421167398135
 20
-1334.09441510806
 30
0.0
 41
1.0
 10
925.031862405586
 20
-1334.094565179834
 30
0.0
 41
1.0
 10
925.0216080713586
 20
-1334.094715251609
 30
0.0
 41
1.0
 10
924.9120523051799
 20
-1334.096318595896
 30
0.0
 41
0.9989753644966847
 10
924.8030903051634
 20
-1334.107821602821
 30
0.0
 41
1.0
 10
924.6941283051483
 20
-1334.119324609746
 30
0.0
 41
0.9983190067305833
 10
924.5872294941846
 20
-1334.143359601533
 30
0.0
 41
1.0
 10
924.5783285425766
 20
-1334.145360880096
 30
0.0
 41
1.0
 10
924.5694275909685
 20
-1334.147362158659
 30
0.0
 41
1.0
 10
924.4447268767884
 20
-1334.175399707571
 30
0.0
 41
0.9985539388302728
 10
924.3237571231092
 20
-1334.216663383617
 30
0.0
 41
1.0
 10
924.3214116921504
 20
-1334.217463427433
 30
0.0
 41
1.0
 10
924.3190662611914
 20
-1334.218263471248
 30
0.0
 41
1.0
 10
924.1934056455918
 20
-1334.261127234926
 30
0.0
 41
0.9988468746493439
 10
924.0724353032904
 20
-1334.315845319989
 30
0.0
 41
1.0
 10
924.0692524813028
 20
-1334.317284994548
 30
0.0
 41
1.0
 10
924.0660696593153
 20
-1334.318724669108
 30
0.0
 41
1.0
 10
923.9387336730375
 20
-1334.37632210329
 30
0.0
 41
0.9991322885919215
 10
923.816633088981
 20
-1334.444317435472
 30
0.0
 41
1.0
 10
923.7990310779377
 20
-1334.454119637461
 30
0.0
 41
1.0
 10
923.7814290668944
 20
-1334.46392183945
 30
0.0
 41
1.0
 10
923.6792523858365
 20
-1334.520821955231
 30
0.0
 41
0.9993860037849097
 10
923.5813113817624
 20
-1334.58473797082
 30
0.0
 41
1.0
 10
923.5756930689099
 20
-1334.588404465515
 30
0.0
 41
1.0
 10
923.5700747560574
 20
-1334.592070960211
 30
0.0
 41
1.0
 10
923.4833703776872
 20
-1334.64865398641
 30
0.0
 41
0.9998821494953748
 10
923.3984440018762
 20
-1334.707872216486
 30
0.0
 41
1.0
 10
923.313517626063
 20
-1334.767090446563
 30
0.0
 41
0.9997976482745434
 10
923.2310419956584
 20
-1334.829676854605
 30
0.0
 41
1.0
 10
923.2164057308541
 20
-1334.840783544385
 30
0.0
 41
1.0
 10
923.2017694660499
 20
-1334.851890234164
 30
0.0
 41
1.0
 10
923.0900213060338
 20
-1334.936690021767
 30
0.0
 41
0.9998091630799121
 10
922.9816710280043
 20
-1335.025790372471
 30
0.0
 41
1.0
 10
922.9686652755292
 20
-1335.036485472915
 30
0.0
 41
1.0
 10
922.9556595230541
 20
-1335.047180573359
 30
0.0
 41
1.0
 10
922.821297740073
 20
-1335.157671124951
 30
0.0
 41
0.999503511231711
 10
922.6941618623106
 20
-1335.276404941965
 30
0.0
 41
1.0
 10
922.6845145519242
 20
-1335.285414688122
 30
0.0
 41
1.0
 10
922.6748672415379
 20
-1335.294424434279
 30
0.0
 41
1.0
 10
922.5514441787707
 20
-1335.409690806037
 30
0.0
 41
0.9994630424299694
 10
922.4358357729845
 20
-1335.532793549274
 30
0.0
 41
1.0
 10
922.4321529342135
 20
-1335.536715128787
 30
0.0
 41
1.0
 10
922.4284700954425
 20
-1335.540636708299
 30
0.0
 41
1.0
 10
922.3202273672005
 20
-1335.65589629251
 30
0.0
 41
0.9995160693749726
 10
922.2193613376687
 20
-1335.777663710382
 30
0.0
 41
1.0
 10
922.2174276175851
 20
-1335.779998134593
 30
0.0
 41
1.0
 10
922.2154938975017
 20
-1335.782332558805
 30
0.0
 41
1.0
 10
922.1184953081344
 20
-1335.899431128257
 30
0.0
 41
0.9996561470513826
 10
922.0277690894709
 20
-1336.021453890703
 30
0.0
 41
1.0
 10
922.0216114235693
 20
-1336.029735679745
 30
0.0
 41
1.0
 10
922.0154537576677
 20
-1336.038017468787
 30
0.0
 41
1.0
 10
921.937042870805
 20
-1336.143476653153
 30
0.0
 41
0.999834905517313
 10
921.8625155888728
 20
-1336.251715236816
 30
0.0
 41
1.0
 10
921.7879883069377
 20
-1336.359953820484
 30
0.0
 41
0.9999728109560099
 10
921.7150654110338
 20
-1336.46927974603
 30
0.0
 41
1.0
 10
921.7137501956204
 20
-1336.471251515535
 30
0.0
 41
1.0
 10
921.7124349802069
 20
-1336.47322328504
 30
0.0
 41
1.0
 10
921.6368816534603
 20
-1336.58649274962
 30
0.0
 41
0.9999972147315731
 10
921.5618638430951
 20
-1336.700117592442
 30
0.0
 41
1.0
 10
921.5568923004748
 20
-1336.707647680911
 30
0.0
 41
1.0
 10
921.5519207578545
 20
-1336.71517776938
 30
0.0
 41
1.0
 10
921.4669598622315
 20
-1336.843862789167
 30
0.0
 41
0.999937197900989
 10
921.3849045128243
 20
-1336.974419702949
 30
0.0
 41
1.0
 10
921.3813956284658
 20
-1336.980002631009
 30
0.0
 41
1.0
 10
921.3778867441074
 20
-1336.985585559069
 30
0.0
 41
1.0
 10
921.2888136259769
 20
-1337.127308328981
 30
0.0
 41
0.9998272025612087
 10
921.2050702350928
 20
-1337.272244205727
 30
0.0
 41
1.0
 10
921.1898550630708
 20
-1337.29857732018
 30
0.0
 41
1.0
 10
921.1746398910489
 20
-1337.324910434633
 30
0.0
 41
1.0
 10
921.0604661561198
 20
-1337.522512540287
 30
0.0
 41
0.9995217214838275
 10
920.9587264665637
 20
-1337.72679486815
 30
0.0
 41
1.0
 10
920.951082903927
 20
-1337.742142317856
 30
0.0
 41
1.0
 10
920.9434393412903
 20
-1337.757489767563
 30
0.0
 41
1.0
 10
920.8565340487008
 20
-1337.931986225644
 30
0.0
 41
0.9998269762608492
 10
920.7761795824312
 20
-1338.109594512362
 30
0.0
 41
1.0
 10
920.6958251161595
 20
-1338.287202799085
 30
0.0
 41
0.9998944747386569
 10
920.6206643215924
 20
-1338.46707052472
 30
0.0
 41
1.0
 10
920.6157106520019
 20
-1338.478925179636
 30
0.0
 41
1.0
 10
920.6107569824114
 20
-1338.490779834552
 30
0.0
 41
1.0
 10
920.5301099218608
 20
-1338.683776774564
 30
0.0
 41
0.9999506734408646
 10
920.4533123929554
 20
-1338.878337579425
 30
0.0
 41
1.0
 10
920.4387124276882
 20
-1338.915325501222
 30
0.0
 41
1.0
 10
920.4241124624211
 20
-1338.952313423018
 30
0.0
 41
1.0
 10
920.3765148640532
 20
-1339.072898384278
 30
0.0
 41
0.9999912393921294
 10
920.3299284200293
 20
-1339.193877586977
 30
0.0
 41
1.0
 10
920.2833419760074
 20
-1339.314856789671
 30
0.0
 41
0.999992711396224
 10
920.2376806816245
 20
-1339.436188197143
 30
0.0
 41
1.0
 10
920.2237122502208
 20
-1339.473305179158
 30
0.0
 41
1.0
 10
920.2097438188171
 20
-1339.510422161173
 30
0.0
 41
1.0
 10
920.1361456616329
 20
-1339.705987532658
 30
0.0
 41
0.9999487550944496
 10
920.0665220366628
 20
-1339.903002897835
 30
0.0
 41
1.0
 10
920.0429284267195
 20
-1339.969766208146
 30
0.0
 41
1.0
 10
920.0193348167761
 20
-1340.036529518457
 30
0.0
 41
1.0
 10
919.9246491824063
 20
-1340.30446335328
 30
0.0
 41
0.9999808436935251
 10
919.83328759377
 20
-1340.57354878453
 30
0.0
 41
1.0
 10
919.7419260051324
 20
-1340.842634215783
 30
0.0
 41
0.9999873932918389
 10
919.6532712964182
 20
-1341.112623570785
 30
0.0
 41
1.0
 10
919.6331789395449
 20
-1341.173812903549
 30
0.0
 41
1.0
 10
919.6130865826717
 20
-1341.235002236313
 30
0.0
 41
1.0
 10
919.4842471602168
 20
-1341.627370256827
 30
0.0
 41
0.9999794883028001
 10
919.3604443752588
 20
-1342.021356463104
 30
0.0
 41
1.0
 10
919.3492921158156
 20
-1342.05684707336
 30
0.0
 41
1.0
 10
919.3381398563724
 20
-1342.092337683615
 30
0.0
 41
1.0
 10
919.1955816924958
 20
-1342.546010435635
 30
0.0
 41
0.9999982761829692
 10
919.0547092524693
 20
-1343.000209457794
 30
0.0
 41
1.0
 10
917.4665689198966
 20
-1348.048979188797
 30
0.0
 41
1.0
 10
915.878428587324
 20
-1353.0977489198
 30
0.0
 41
1.0
 10
914.9296779758477
 20
-1353.0977489198
 30
0.0
 41
1.0
 10
913.9809273643713
 20
-1353.0977489198
 30
0.0
 41
1.0
 10
917.2192118505245
 20
-1342.770426719854
 30
0.0
 41
1.0
 10
920.4574963366777
 20
-1332.443104519908
 30
0.0
 41
1.0
  0
LWPOLYLINE
  5
5B
330
23
100
AcDbEntity
  8
0
  6
Continuous
 62
     7
370
    15
390
1D
100
AcDbPolyline
 90
      232
 70
   128
 43
0.0
 10
894.7539505628506
 20
-1333.527447351423
 42
0.0004370800694657
 10
894.7010733888702
 20
-1333.59611399056
 10
894.6617891576511
 20
-1333.647221103576
 42
0.0030481992176604
 10
894.531450440528
 20
-1333.818942795926
 10
894.4929387687815
 20
-1333.870329579709
 42
0.0042058245757285
 10
894.2889537180948
 20
-1334.147335324805
 10
894.236548595611
 20
-1334.219768171563
 42
0.0120948898744553
 10
893.9405046788492
 20
-1334.650517776113
 10
893.8443121797283
 20
-1334.797998511336
 42
0.0141601263944801
 10
893.5406681328056
 20
-1335.293667848072
 10
893.5011308653771
 20
-1335.362511815508
 42
0.0071131081299837
 10
893.2958585421413
 20
-1335.732014614342
 42
0.0068458791006388
 10
893.1009790152953
 20
-1336.107106177824
 10
893.0941671528404
 20
-1336.120667891542
 42
0.0064120880288736
 10
892.8960249028029
 20
-1336.528092366446
 10
892.8884902172791
 20
-1336.544104223182
 42
0.0058857236449132
 10
892.6857348254041
 20
-1336.988480334225
 10
892.6775598991135
 20
-1337.006970487851
 42
0.005318974189647
 10
892.4688555864502
 20
-1337.492933961759
 10
892.4601077807646
 20
-1337.513915839965
 42
0.0047503650418448
 10
892.2441340546158
 20
-1338.04611527317
 10
892.2348658062658
 20
-1338.069591649283
 42
0.0042071762173303
 10
892.010318422538
 20
-1338.652685243352
 10
892.0005690201893
 20
-1338.678651418222
 42
0.0036680086480096
 10
891.766114376883
 20
-1339.317286802737
 10
891.7559065970295
 20
-1339.345735337098
 42
0.0032573142628212
 10
891.5102743110615
 20
-1340.044587996855
 10
891.4416237902198
 20
-1340.244051080911
 42
0.0026133366648634
 10
891.093178591464
 20
-1341.273914364576
 10
891.0299218039712
 20
-1341.464145199946
 42
0.0020592950741957
 10
890.8160587349963
 20
-1342.116248852582
 10
890.8130069438394
 20
-1342.125685340973
 42
0.0025609928533982
 10
890.6111864423474
 20
-1342.760830563358
 10
890.6085950752174
 20
-1342.769132904309
 42
0.0031362356242354
 10
890.4191042895438
 20
-1343.389895760478
 10
890.4169732466253
 20
-1343.39703706666
 42
0.0037229918030458
 10
890.24017285969
 20
-1344.006022368663
 10
890.2384942704809
 20
-1344.011969258847
 42
0.0043077623710875
 10
890.0747534684185
 20
-1344.611787990606
 42
0.0047654161822539
 10
889.9219247459048
 20
-1345.2144740795
 10
889.8874601370635
 20
-1345.356035856659
 42
0.011296936844672
 10
889.6915957789205
 20
-1346.24772801728
 10
889.6635893898232
 20
-1346.39055606338
 42
0.0130056762570138
 10
889.4627521461766
 20
-1347.577497135025
 10
889.4422123960295
 20
-1347.721575248502
 42
0.0138721532144695
 10
889.3385093914916
 20
-1348.628404734328
 10
889.3192139035826
 20
-1348.851902456266
 42
0.0071254697011154
 10
889.285867257661
 20
-1349.315089465101
 10
889.2809062834981
 20
-1349.401093459655
 42
0.0028881799198056
 10
889.2657679902079
 20
-1349.692835169503
 42
0.006029729713899
 10
889.2558357904323
 20
-1349.984784105621
 10
889.2547735087652
 20
-1350.033176477556
 42
0.0229523164157694
 10
889.2625045365511
 20
-1350.355931323835
 10
889.2667303100714
 20
-1350.41633485785
 42
0.0123673300672514
 10
889.2858089565898
 20
-1350.617455583026
 42
0.0128577674471369
 10
889.3150043469958
 20
-1350.817353432951
 10
889.3221302203831
 20
-1350.858682247549
 42
0.0285717853760406
 10
889.3866242220787
 20
-1351.136798398863
 10
889.400292745745
 20
-1351.183453168339
 42
0.0316283099156559
 10
889.5161033256595
 20
-1351.502467670166
 10
889.5191520174153
 20
-1351.509454042492
 42
0.0338984824238781
 10
889.6685837283821
 20
-1351.797020006681
 10
889.6708924577516
 20
-1351.800811035956
 42
0.0350228718354245
 10
889.8532527484256
 20
-1352.057863020633
 10
889.854138000201
 20
-1352.058942098398
 42
0.0347476747532954
 10
890.0685626874407
 20
-1352.286127145617
 42
0.0331337701913094
 10
890.3118060131874
 20
-1352.482255807695
 10
890.3129061117032
 20
-1352.483028510867
 42
0.0305233319083287
 10
890.5814508072767
 20
-1352.648156680959
 10
890.5846808517779
 20
-1352.649880692821
 42
0.0273744481157863
 10
890.8772345633536
 20
-1352.786018836712
 10
890.8823390984896
 20
-1352.788062421181
 42
0.0240964406192951
 10
891.1978161741345
 20
-1352.897046147463
 10
891.2043995033453
 20
-1352.898970887138
 42
0.0209636179814805
 10
891.541799655999
 20
-1352.98243903507
 10
891.5494321164466
 20
-1352.983990948072
 42
0.0181388704692828
 10
891.9077545084455
 20
-1353.043407041285
 10
891.9160353568232
 20
-1353.044473225103
 42
0.0156086547586633
 10
892.2942227210123
 20
-1353.081209411679
 10
892.3374179733421
 20
-1353.084047914158
 42
0.0137148329025577
 10
892.665091118638
 20
-1353.096568169409
 10
892.7110273085757
 20
-1353.097062602525
 42
0.0051057823880481
 10
892.9471728951562
 20
-1353.097192856934
 42
0.0052256693315563
 10
893.1832701789319
 20
-1353.09244403247
 10
893.2534969626843
 20
-1353.090297066456
 42
0.0161507179048465
 10
893.629234040789
 20
-1353.066646696129
 10
893.6492470011585
 20
-1353.064736500841
 42
0.010121673783274
 10
894.06327422265
 20
-1353.016743570476
 10
894.097327512076
 20
-1353.012095873666
 42
0.0245291776401728
 10
894.5741171676307
 20
-1352.923020795589
 10
894.6589404831542
 20
-1352.902824875243
 42
0.0143509212556525
 10
895.0155715870908
 20
-1352.807020241465
 42
0.0156557857040916
 10
895.3657876518146
 20
-1352.690009025648
 10
895.3732888663127
 20
-1352.687238863892
 42
0.0170137333630039
 10
895.7298848619962
 20
-1352.54158124902
 10
895.7369887844015
 20
-1352.538393413457
 42
0.0183105364407164
 10
896.0963384525672
 20
-1352.361058371634
 10
896.1032852172066
 20
-1352.357307936761
 42
0.0194899958153618
 10
896.4617659581907
 20
-1352.14532895487
 10
896.4687798375273
 20
-1352.140803612575
 42
0.0204869852947429
 10
896.8227941396234
 20
-1351.891283597488
 10
896.8300597482082
 20
-1351.885703532141
 42
0.0212516938557945
 10
897.1760496793165
 20
-1351.595799535246
 10
897.2225663733929
 20
-1351.553332225152
 42
0.0215248918250644
 10
897.4825925422795
 20
-1351.294567946158
 10
897.5276222766562
 20
-1351.245723824813
 42
0.0114578554952686
 10
897.6824144303375
 20
-1351.06990089135
 10
897.6936089663245
 20
-1351.056582127804
 42
0.0061531305136626
 10
897.8200836123185
 20
-1350.902292594499
 42
0.0006325587123481
 10
897.9444620965133
 20
-1350.746289218769
 10
897.9675022315218
 20
-1350.717315698164
 42
0.004189776155048
 10
898.1359576355056
 20
-1350.501796322088
 10
898.1944197553867
 20
-1350.425694975117
 42
0.0092993880040634
 10
898.471031682614
 20
-1350.051416211228
 10
898.5534261758094
 20
-1349.935479207665
 42
0.0159321727085563
 10
898.9000326584517
 20
-1349.413304986909
 10
898.9443887938428
 20
-1349.341625422655
 42
0.0085547317020596
 10
899.1789005591666
 20
-1348.947750473434
 42
0.0084601156887991
 10
899.3998767366019
 20
-1348.546123624414
 10
899.4079922104389
 20
-1348.530763942129
 42
0.0081429654287115
 10
899.631241480876
 20
-1348.091042429588
 10
899.6401016450604
 20
-1348.072863587568
 42
0.0076574581327852
 10
899.8665091556322
 20
-1347.589680712304
 10
899.8759887963508
 20
-1347.568616234012
 42
0.0070682724206079
 10
900.1064337041615
 20
-1347.036578929222
 10
900.1164239881393
 20
-1347.012589740219
 42
0.0064559514445254
 10
900.351757196319
 20
-1346.426277473706
 10
900.3621665544861
 20
-1346.399342548258
 42
0.005831141390666
 10
900.6032132912499
 20
-1345.753310453872
 10
900.6139683686363
 20
-1345.723426112714
 42
0.0052312425816908
 10
900.8615496466754
 20
-1345.012223698885
 10
900.872593483057
 20
-1344.97939698681
 42
0.0046680544796247
 10
901.127521910795
 20
-1344.197570671044
 10
901.1695140608338
 20
-1344.064587433767
 42
0.0041666856443275
 10
901.3728000732299
 20
-1343.401618658757
 10
901.4104625138757
 20
-1343.275037551164
 42
0.0015170975153067
 10
901.5316490923068
 20
-1342.86316919961
 42
-0.0004887993114047
 10
901.6519888654811
 20
-1342.451050787394
 10
901.728466122925
 20
-1342.190093401627
 42
0.0002583378928656
 10
902.0016806930411
 20
-1341.25603669827
 10
902.0834535425444
 20
-1340.975937438938
 42
0.0006636169672152
 10
902.2773213025772
 20
-1340.308584515278
 10
902.2824179569403
 20
-1340.290952932342
 42
0.001058913132359
 10
902.4638666578409
 20
-1339.658221589349
 10
902.468848728326
 20
-1339.640708682313
 42
0.0015655524463566
 10
902.6371189355041
 20
-1339.042092003128
 10
902.6419491359172
 20
-1339.024699844199
 42
0.0021640440477575
 10
902.7962391079052
 20
-1338.459672826174
 10
902.8008733273418
 20
-1338.442408096155
 42
0.0028763871851158
 10
902.940389045388
 20
-1337.910440145333
 10
902.9447749095519
 20
-1337.893316167191
 42
0.0037310511948951
 10
903.0687316013921
 20
-1337.393868573155
 10
903.072806821679
 20
-1337.376908301918
 42
0.0047652197773677
 10
903.1804307221896
 20
-1336.909430533604
 10
903.1841213215152
 20
-1336.892670978444
 42
0.0060276699299893
 10
903.2746514206667
 20
-1336.45659518331
 10
903.2778701109534
 20
-1336.440093969014
 42
0.0075824337757429
 10
903.3505594203713
 20
-1336.034826804575
 10
903.3532047977532
 20
-1336.018671857114
 42
0.0095130624613689
 10
903.4073200333828
 20
-1335.643582504052
 10
903.4143062572653
 20
-1335.587648945937
 42
0.0121054653228847
 10
903.4408975878432
 20
-1335.322753117462
 10
903.441764077603
 20
-1335.311349674529
 42
0.0069050827393816
 10
903.4568528956404
 20
-1335.068408447689
 10
903.457988195309
 20
-1335.044882190643
 42
0.016906397670089
 10
903.4608154742893
 20
-1334.848689463343
 10
903.4596448227579
 20
-1334.788353701988
 42
0.0052007732902987
 10
903.457391374165
 20
-1334.712760311842
 42
0.0054038123312585
 10
903.4374278623229
 20
-1334.592742015814
 10
903.4323420064557
 20
-1334.564083529251
 42
0.0112050460464875
 10
903.3969576443972
 20
-1334.387757090911
 10
903.3791326823566
 20
-1334.308215504191
 42
0.0240764468012694
 10
903.2882353162104
 20
-1333.97797846869
 10
903.2696765533968
 20
-1333.921358303695
 42
0.0256812331832729
 10
903.1263136332075
 20
-1333.549634097438
 10
903.1209042073859
 20
-1333.537502762448
 42
0.0268360501219983
 10
902.9514769665361
 20
-1333.206509628428
 10
902.9459405589006
 20
-1333.196989958115
 42
0.0274670231732565
 10
902.7537395824877
 20
-1332.904702583198
 10
902.7483582825239
 20
-1332.897423435655
 42
0.0275035967106835
 10
902.5367854029632
 20
-1332.641907545353
 10
902.5317159019962
 20
-1332.636428457722
 42
0.0269557673527788
 10
902.3043123585571
 20
-1332.41578617176
 10
902.2995693007742
 20
-1332.411656217299
 42
0.0259124802217255
 10
902.0600144693437
 20
-1332.223965690147
 10
902.0554836241616
 20
-1332.220780187816
 42
0.0245162153002066
 10
901.8075672710671
 20
-1332.064047178706
 10
901.8030407247448
 20
-1332.061486981507
 42
0.0229282588843937
 10
901.5506211679156
 20
-1331.933618789006
 10
901.5458406740785
 20
-1331.931466489244
 42
0.0212984135688411
 10
901.2928027216171
 20
-1331.830267572002
 10
901.2874984366462
 20
-1331.828404009242
 42
0.0197555462348593
 10
901.0377200989246
 20
-1331.751588591277
 42
0.0183511896785549
 10
900.7827913734604
 20
-1331.694005684312
 10
900.6964261767382
 20
-1331.677802893927
 42
0.0338057877147368
 10
900.4109188274781
 20
-1331.643994488787
 10
900.3199134224326
 20
-1331.639414833525
 42
0.0091990524497795
 10
900.2140663138022
 20
-1331.636038977603
 42
0.002833398077878
 10
900.1081523978354
 20
-1331.635210870086
 10
900.10723694476
 20
-1331.635208900262
 42
-0.0023619827811943
 10
899.9994909296435
 20
-1331.634468059184
 10
899.9630857594782
 20
-1331.634045752721
 42
0.0008824598487657
 10
899.7825297696223
 20
-1331.632269974483
 10
899.7386683372223
 20
-1331.631916012957
 42
0.0038132665768201
 10
899.4703854413424
 20
-1331.631797076891
 10
899.45385178655
 20
-1331.631915843034
 42
0.0060665569338062
 10
899.1525712949485
 20
-1331.637736142455
 10
899.1383209629333
 20
-1331.638184450422
 42
0.0080356953338
 10
898.8088622465921
 20
-1331.653852172489
 10
898.7967922315069
 20
-1331.65462075543
 42
0.0098996399103281
 10
898.4440291468651
 20
-1331.684105984627
 10
898.4339834374813
 20
-1331.685146280826
 42
0.0117740981367167
 10
898.0628265791324
 20
-1331.732438528356
 10
898.05460388265
 20
-1331.733683644927
 42
0.0137435215136606
 10
897.6700150631588
 20
-1331.80278061849
 10
897.6633580240416
 20
-1331.804166514722
 42
0.0158359869385234
 10
897.2703609302426
 20
-1331.899058603201
 10
897.264947743372
 20
-1331.900548544073
 42
0.0180554124029008
 10
896.8686326987622
 20
-1332.025186560311
 10
896.8640759106761
 20
-1332.026802596578
 42
0.0203657431282064
 10
896.4695983928632
 20
-1332.185062938094
 10
896.4654548538574
 20
-1332.186924559536
 42
0.0226819684657604
 10
896.0780187976551
 20
-1332.382567138206
 10
896.0738190066356
 20
-1332.384932730127
 42
0.0248634984601241
 10
895.6986370654552
 20
-1332.621559376073
 10
895.6504421366676
 20
-1332.655416417902
 42
0.0267044190894238
 10
895.3761494397539
 20
-1332.870856793768
 42
0.0139303002196653
 10
895.1199822738182
 20
-1333.108095634677
 10
895.1151288880942
 20
-1333.11284829754
 42
0.0283460963440724
 10
894.8710562938686
 20
-1333.380578957983
 10
894.8313877887105
 20
-1333.429380535458
 42
0.0070695364826167
 10
894.7539505628506
 20
-1333.527447351423
 42
0.0070695364826167
  0
LWPOLYLINE
  5
5C
330
23
100
AcDbEntity
  8
0
  6
Continuous
 62
     7
370
    15
390
1D
100
AcDbPolyline
 90
      226
 70
   128
 43
0.0
 10
891.2251301256042
 20
-1349.249036157607
 42
-0.0026277636613474
 10
891.2250522418042
 20
-1349.18226423185
 10
891.2252696000362
 20
-1349.129109014421
 42
-0.0088680296717911
 10
891.2290462163293
 20
-1348.956093232017
 10
891.2313925754418
 20
-1348.896813206565
 42
-0.0077381705616948
 10
891.2474386862046
 20
-1348.60555271077
 10
891.2483065973779
 20
-1348.593264477081
 42
-0.0068872530528418
 10
891.2749386771259
 20
-1348.278042725014
 10
891.2761429013121
 20
-1348.265801745993
 42
-0.0062130021486583
 10
891.3137366181414
 20
-1347.926932054743
 10
891.3152405216752
 20
-1347.914758182838
 42
-0.0056726929665338
 10
891.3641623811767
 20
-1347.552562960729
 10
891.3659358268218
 20
-1347.54046916048
 42
-0.0052341884490645
 10
891.4265464130837
 20
-1347.155275904951
 10
891.4285644018585
 20
-1347.143270974969
 42
-0.0049768450165077
 10
891.501303083287
 20
-1346.735426407525
 10
891.5255520980065
 20
-1346.606878424531
 42
-0.0089029805625094
 10
891.662632949799
 20
-1345.945102977118
 10
891.6953783251198
 20
-1345.800071546585
 42
-0.0080318257100966
 10
891.9249269394571
 20
-1344.854361914744
 10
891.9369118659088
 20
-1344.808231279541
 42
-0.0074265721319169
 10
892.2209234047579
 20
-1343.778166701164
 10
892.2408029478743
 20
-1343.710032640575
 42
-0.0069711922702185
 10
892.568107526382
 20
-1342.643764900243
 10
892.6280594734851
 20
-1342.45774354188
 42
-0.0052070422895344
 10
892.8574846987469
 20
-1341.770471464841
 10
892.8747658909082
 20
-1341.720444184256
 42
-0.0009167004451497
 10
893.0778577782085
 20
-1341.13598833607
 42
-0.0025162726943297
 10
893.2849554084727
 20
-1340.552947071903
 10
893.3221800202768
 20
-1340.449797526001
 42
-0.0028212681457828
 10
893.5703559392396
 20
-1339.774066893831
 10
893.5801867019985
 20
-1339.747759449132
 42
-0.0031964916822522
 10
893.8164789596526
 20
-1339.127554687027
 10
893.8261134136458
 20
-1339.102744696899
 42
-0.0036281836451793
 10
894.0512193747528
 20
-1338.535304015991
 10
894.060657784901
 20
-1338.512006584511
 42
-0.0041269166836566
 10
894.2752754815695
 20
-1337.99456568851
 10
894.3079084379937
 20
-1337.917687242141
 42
-0.0047472213055687
 10
894.4649532435438
 20
-1337.557265774265
 10
894.4718473247519
 20
-1337.541845176934
 42
-0.0025651659995964
 10
894.6202053586022
 20
-1337.214517121185
 42
-0.0057144634995024
 10
894.7739550523721
 20
-1336.889707447825
 10
894.801985757777
 20
-1336.832199065424
 42
-0.006538806837385
 10
894.9854527855146
 20
-1336.467966568763
 10
894.9939112412948
 20
-1336.45170698939
 42
-0.0074510843021145
 10
895.1700934871709
 20
-1336.125018708271
 10
895.1782731576977
 20
-1336.11037793101
 42
-0.0084648979860232
 10
895.3479070108019
 20
-1335.818468920041
 10
895.3557631372876
 20
-1335.805461928394
 42
-0.0095638542801334
 10
895.5195985848843
 20
-1335.545573056412
 10
895.5270735285544
 20
-1335.534203694959
 42
-0.0107191626806397
 10
895.6858751089436
 20
-1335.303592460412
 10
895.6928918426764
 20
-1335.293856368045
 42
-0.011845857390265
 10
895.8474399411872
 20
-1335.089784172737
 42
-0.0129184518187125
 10
896.011892564794
 20
-1334.89362365656
 10
896.042037337156
 20
-1334.859497577662
 42
-0.021774257962775
 10
896.2186496594873
 20
-1334.676290807417
 10
896.2293952039522
 20
-1334.666073974209
 42
-0.0097266568651212
 10
896.3954528228032
 20
-1334.514226399776
 42
-0.0187720905723201
 10
896.569800398691
 20
-1334.372157546389
 10
896.600506389365
 20
-1334.348998463993
 42
-0.0179428207521123
 10
896.8329271093631
 20
-1334.186446286879
 10
896.8365794362784
 20
-1334.184082351992
 42
-0.0170047877700462
 10
897.0723430738093
 20
-1334.04262183784
 10
897.0761260625553
 20
-1334.040523532804
 42
-0.0160190788363324
 10
897.3130346101912
 20
-1333.918872230816
 42
-0.0151102861495128
 10
897.55706639264
 20
-1333.81218945476
 10
897.6094528948496
 20
-1333.791149321866
 42
-0.027194544188626
 10
897.9681154539089
 20
-1333.66928451116
 10
898.0371802543939
 20
-1333.649934969895
 42
-0.023759659402527
 10
898.4529771014184
 20
-1333.554484257913
 10
898.5210399551513
 20
-1333.542229569786
 42
-0.0213715440552182
 10
898.8069148865941
 20
-1333.503282538276
 10
898.8670620528183
 20
-1333.497692823575
 42
-0.0101465655810508
 10
899.0345545848063
 20
-1333.485549280311
 10
899.043894971001
 20
-1333.485062365314
 42
-0.0100375910886501
 10
899.1930490715671
 20
-1333.480286547388
 10
899.2033083412505
 20
-1333.480164108374
 42
-0.0103625633381488
 10
899.3320163359024
 20
-1333.481295541901
 10
899.3542819871661
 20
-1333.481952900366
 42
-0.0115689250249177
 10
899.4383327246971
 20
-1333.486382406611
 42
-0.007243803741528
 10
899.5221710041438
 20
-1333.493971606361
 10
899.5389715136091
 20
-1333.495738149084
 42
-0.0217917313134314
 10
899.6555412769231
 20
-1333.513158041806
 10
899.7211413674916
 20
-1333.52590465022
 42
-0.0332943556758039
 10
899.9255335325179
 20
-1333.579944941527
 10
899.9557061010659
 20
-1333.590113018645
 42
-0.0184824084795622
 10
900.0942111575332
 20
-1333.642564034032
 42
-0.0198002050695787
 10
900.2282854980341
 20
-1333.705448094232
 10
900.2301721354095
 20
-1333.706425881111
 42
-0.0212242342987459
 10
900.3623110778095
 20
-1333.782188619903
 10
900.364126373355
 20
-1333.783334422113
 42
-0.0226090605784318
 10
900.4926302745766
 20
-1333.872814065677
 10
900.494474716314
 20
-1333.874226318665
 42
-0.0238457052240637
 10
900.6176567976079
 20
-1333.978222214528
 10
900.6196095261661
 20
-1333.980037092293
 42
-0.0248160564145337
 10
900.7358110334667
 20
-1334.099311693502
 10
900.7379146668688
 20
-1334.101697027206
 42
-0.0254109591454506
 10
900.845519884734
 20
-1334.23698541317
 10
900.8477679066489
 20
-1334.240126961571
 42
-0.0255528488293009
 10
900.9452145854456
 20
-1334.392154015805
 10
900.947545685362
 20
-1334.396235627413
 42
-0.0252146793218409
 10
901.0333267113716
 20
-1334.565737873411
 10
901.0356289505288
 20
-1334.570919955323
 42
-0.0244265635951661
 10
901.1082836442898
 20
-1334.758666527368
 10
901.1175300457581
 20
-1334.786531945706
 42
-0.023131961289484
 10
901.1634528247507
 20
-1334.949832992509
 42
-0.0112130424351275
 10
901.1980888472895
 20
-1335.1160365927
 10
901.1992913724014
 20
-1335.122533179585
 42
-0.0210527881235705
 10
901.224977847772
 20
-1335.303588825023
 10
901.2284884425942
 20
-1335.338994373573
 42
-0.0190029892415733
 10
901.2439299161388
 20
-1335.592530219846
 10
901.2447398925827
 20
-1335.628005834215
 42
-0.0137974553659389
 10
901.2431910397471
 20
-1335.953037240952
 10
901.2423455847917
 20
-1335.97915598554
 42
-0.0081336634215781
 10
901.2274862495691
 20
-1336.28450345314
 42
-0.0073526923575066
 10
901.203177716194
 20
-1336.589251697431
 10
901.2019162924117
 20
-1336.602588372091
 42
-0.0066886138687969
 10
901.1661807063637
 20
-1336.933174415602
 10
901.1645236168954
 20
-1336.94679603458
 42
-0.0061359187353356
 10
901.1166730148448
 20
-1337.303560014678
 10
901.1146355137716
 20
-1337.317454817509
 42
-0.0056698610067109
 10
901.0539851830038
 20
-1337.700733386351
 10
901.0515797496814
 20
-1337.714892505578
 42
-0.0052721077275036
 10
900.9774475488821
 20
-1338.125019845255
 10
900.9746844000401
 20
-1338.139436480642
 42
-0.004928927217746
 10
900.8863902819426
 20
-1338.576744991753
 10
900.8832777872576
 20
-1338.59141384458
 42
-0.0047415956710678
 10
900.7800397957268
 20
-1339.056210601984
 10
900.7452715853655
 20
-1339.206017697374
 42
-0.0084404470902467
 10
900.5552551417926
 20
-1339.966241721909
 10
900.549128453808
 20
-1339.989105846058
 42
-0.0039635940257922
 10
900.3276747695295
 20
-1340.790094710286
 10
900.3142979743444
 20
-1340.837026326898
 42
-0.0072475040836619
 10
900.0468510864844
 20
-1341.726246043278
 10
899.9766387596543
 20
-1341.947986393259
 42
-0.0051345458828289
 10
899.689879387595
 20
-1342.822311581071
 10
899.6683531208308
 20
-1342.885737848191
 42
-0.001915001660254
 10
899.4128197139609
 20
-1343.629286968427
 10
899.40635210957
 20
-1343.647874433333
 42
-0.0021524362752107
 10
899.1578740585007
 20
-1344.352200255057
 10
899.1486636378113
 20
-1344.377953833339
 42
-0.002433128682298
 10
898.9124083787683
 20
-1345.028553141476
 10
898.9033604262158
 20
-1345.053096447836
 42
-0.002744972179032
 10
898.6787458553824
 20
-1345.652226326755
 10
898.6698558480017
 20
-1345.675548916577
 42
-0.0031083229769985
 10
898.4563133613802
 20
-1346.225472954187
 10
898.4475772297043
 20
-1346.247562670046
 42
-0.0035311343284055
 10
898.2445360441129
 20
-1346.750545795775
 10
898.2359507049754
 20
-1346.77138851926
 42
-0.0040245640951464
 10
898.0428389011707
 20
-1347.229697841878
 10
898.0344027875666
 20
-1347.249277209952
 42
-0.0046015135853302
 10
897.8506464944039
 20
-1347.665182239592
 10
897.8423603165794
 20
-1347.683479379036
 42
-0.0052768638271683
 10
897.6673827976201
 20
-1348.059252263314
 10
897.659250586995
 20
-1348.076245601854
 42
-0.0060672675645028
 10
897.4924709742272
 20
-1348.414161224972
 10
897.4845014937482
 20
-1348.429826483964
 42
-0.0069904648872785
 10
897.3253330997441
 20
-1348.732162290633
 10
897.3175417001369
 20
-1348.746472839853
 42
-0.0080637022772698
 10
897.1653898397874
 20
-1349.015508143013
 10
897.1578008071593
 20
-1349.028436008608
 42
-0.0093006455672021
 10
897.0120601306247
 20
-1349.266450407117
 10
897.0047094638774
 20
-1349.277968376296
 42
-0.0107060778050661
 10
896.8647609204427
 20
-1349.487238693669
 10
896.8576991521702
 20
-1349.497324236225
 42
-0.0122723111416065
 10
896.7229054339648
 20
-1349.680117565724
 10
896.7225792104151
 20
-1349.680537953528
 42
-0.014183631962426
 10
896.5789976074368
 20
-1349.855107711363
 10
896.5720498517836
 20
-1349.863082711629
 42
-0.0175957477204362
 10
896.4321436837502
 20
-1350.012703600033
 42
-0.0080466359675369
 10
896.2846799187237
 20
-1350.15502612818
 10
896.2386453742024
 20
-1350.198046566275
 42
-0.0269600260392118
 10
895.9853651282169
 20
-1350.410369824786
 10
895.9187979919203
 20
-1350.46032123941
 42
-0.0178362839752275
 10
895.6788535022666
 20
-1350.627339165661
 10
895.6716085312698
 20
-1350.632007677863
 42
-0.0174650732655853
 10
895.435272333825
 20
-1350.772868642825
 42
-0.0169240130163028
 10
895.1898060879668
 20
-1350.897160902602
 10
895.1438199324093
 20
-1350.918522858169
 42
-0.0318883036840504
 10
894.7934690767894
 20
-1351.05486116768
 10
894.7251035416236
 20
-1351.076561788155
 42
-0.0284435909901409
 10
894.3490534153336
 20
-1351.17277922363
 10
894.3138952548362
 20
-1351.179672819458
 42
-0.024390934101033
 10
894.0004517939161
 20
-1351.225393850488
 10
893.9501710671432
 20
-1351.23023939739
 42
-0.0196639292929018
 10
893.7345754896178
 20
-1351.242487682903
 10
893.682751418454
 20
-1351.24339094364
 42
-0.0100501510681611
 10
893.5703281367901
 20
-1351.243090545287
 10
893.5386682754564
 20
-1351.242369473402
 42
-0.0019752031106685
 10
893.4895759387646
 20
-1351.241057313192
 10
893.4868156355351
 20
-1351.240972621365
 42
0.0065378751995936
 10
893.4432390607876
 20
-1351.240205730151
 42
-0.0167974694689219
 10
893.39970823786
 20
-1351.238545831625
 10
893.3956288985937
 20
-1351.23825282073
 42
-0.0081283276265102
 10
893.3440691008489
 20
-1351.233705827091
 10
893.3323295269768
 20
-1351.232477909513
 42
-0.0126703440178568
 10
893.2576112311834
 20
-1351.222743118442
 10
893.2348233635064
 20
-1351.219184862527
 42
-0.0117852088421778
 10
893.1152843776697
 20
-1351.197621867369
 10
893.059903925911
 20
-1351.186278327135
 42
-0.0251774592295422
 10
892.833059886906
 20
-1351.127780317703
 10
892.7883406970485
 20
-1351.113813498366
 42
-0.0146525199887917
 10
892.6019477095136
 20
-1351.049546971169
 42
-0.0166929435857193
 10
892.419970053387
 20
-1350.973739838114
 10
892.4153134221137
 20
-1350.9716149375
 42
-0.0191684358437275
 10
892.2301297908673
 20
-1350.878378853711
 10
892.2267972051077
 20
-1350.876537606157
 42
-0.0221181781809599
 10
892.043486901204
 20
-1350.764404107785
 10
892.041137097197
 20
-1350.762819809795
 42
-0.0254984685386323
 10
891.8648469468129
 20
-1350.630408659826
 10
891.8423647991096
 20
-1350.611656350889
 42
-0.0292492648806096
 10
891.7175958602667
 20
-1350.494563551246
 42
-0.0159048957500857
 10
891.6037558628163
 20
-1350.366543559647
 10
891.6024370722373
 20
-1350.364961946627
 42
-0.0343813379569562
 10
891.4997998106111
 20
-1350.223090620858
 10
891.4683082792502
 20
-1350.172587228763
 42
-0.0369117275702951
 10
891.3824157773529
 20
-1350.009109987815
 42
-0.0191751379915315
 10
891.3152223917956
 20
-1349.836705381808
 10
891.3134590680363
 20
-1349.831612037134
 42
-0.0378178042219022
 10
891.2636643492519
 20
-1349.642671261051
 10
891.2576690535215
 20
-1349.610110642853
 42
-0.0184846046473521
 10
891.2369518542275
 20
-1349.468357822311
 42
-0.0179866351324043
 10
891.2266188491539
 20
-1349.325467009231
 10
891.226562406708
 20
-1349.323909322617
 42
-0.0085497186124077
 10
891.2251301256042
 20
-1349.249036157607
 42
-0.0085497186124077
  0
ENDBLK
  5
5D
330
23
100
AcDbEntity
  8
template
390
1D
100
AcDbBlockEnd
  0
BLOCK
  5
5E
330
24
100
AcDbEntity
  8
template
390
1D
100
AcDbBlockBegin
  2
*D3
 70
     1
 10
0.0
 20
0.0
 30
0.0
  3
*D3
  1

  0
LINE
  5
5F
330
24
100
AcDbEntity
  8
0
  6
Continuous
 62
     0
370
    -2
390
1D
100
AcDbLine
 10
4596.94525088768
 20
4940.992533371308
 30
0.0
 11
4781.60035835507
 21
5077.056910123445
 31
0.0
  0
CIRCLE
  5
60
102
{ACAD_REACTORS
330
61
102
}
330
24
100
AcDbEntity
  8
0
  6
Continuous
 62
     0
370
    -2
390
1D
100
AcDbCircle
 10
4596.94525088768
 20
4940.992533371308
 30
0.0
 40
1.9998779296875
  0
HATCH
  5
61
330
24
100
AcDbEntity
  8
0
  6
Continuous
 62
     0
370
    -2
390
1D
100
AcDbHatch
 10
0.0
 20
0.0
 30
0.0
210
0.0
220
0.0
230
1.0
  2
SOLID
 70
     1
 71
     1
 91
        1
 92
        1
 93
        1
 72
     2
 10
4596.94525088768
 20
4940.992533371308
 40
1.9998779296875
 50
0.0
 51
360.0
 73
     0
 97
        1
330
60
 75
     0
 76
     1
 98
        1
 10
0.0
 20
0.0
  0
LINE
  5
62
330
24
100
AcDbEntity
  8
0
  6
Continuous
 62
     0
370
    -2
390
1D
100
AcDbLine
 10
4781.60035835507
 20
5077.056910123445
 30
0.0
 11
4952.725365083772
 21
5077.056910123445
 31
0.0
  0
MTEXT
  5
63
330
24
100
AcDbEntity
  8
0
 62
     0
390
1D
100
AcDbMText
 10
4841.60035835507
 20
5110.934527310945
 30
0.0
 40
24.4326171875
 41
0.0
 46
0.0
 71
     1
 72
     1
  1
φ35-37
  7
ＭＳ ゴシック
 73
     1
 44
0.7828267384257843
  0
POINT
  5
64
330
24
100
AcDbEntity
  8
Defpoints
 62
     0
370
     0
390
1D
100
AcDbPoint
 10
4567.158394336542
 20
4919.043884738604
 30
0.0
  0
POINT
  5
65
330
24
100
AcDbEntity
  8
Defpoints
 62
     0
370
     0
390
1D
100
AcDbPoint
 10
4596.94525088768
 20
4940.992533371308
 30
0.0
  0
ENDBLK
  5
66
330
24
100
AcDbEntity
  8
template
390
1D
100
AcDbBlockEnd
  0
BLOCK
  5
67
330
25
100
AcDbEntity
  8
notes
390
1D
100
AcDbBlockBegin
  2
*D4
 70
     1
 10
0.0
 20
0.0
 30
0.0
  3
*D4
  1

  0
LINE
  5
68
330
25
100
AcDbEntity
  8
notes
  6
Continuous
 62
     0
370
    -2
100
AcDbLine
 10
361.1001995368433
 20
2341.838090044601
 30
0.0
 11
361.1001995368433
 21
2466.840218974249
 31
0.0
  0
LINE
  5
69
330
25
100
AcDbEntity
  8
notes
  6
Continuous
 62
     0
370
    -2
100
AcDbLine
 10
901.126895322689
 20
2341.858285821423
 30
0.0
 11
901.126895322689
 21
2466.840218974249
 31
0.0
  0
LINE
  5
6A
330
25
100
AcDbEntity
  8
notes
  6
Continuous
 62
     0
370
    -2
100
AcDbLine
 10
365.0999553962183
 20
2466.840218974249
 30
0.0
 11
897.127139463314
 21
2466.840218974249
 31
0.0
  0
INSERT
  5
6B
102
{ACAD_REACTORS
330
6C
102
}
330
25
100
AcDbEntity
  8
notes
 62
     0
370
    -2
100
AcDbBlockReference
  2
_DOT
 10
361.1001995368433
 20
2466.840218974249
 30
0.0
 41
3.999755859375
 42
3.999755859375
 43
3.999755859375
 50
180.0
  0
INSERT
  5
6C
330
25
100
AcDbEntity
  8
notes
 62
     0
370
    -2
100
AcDbBlockReference
  2
_DOT
 10
901.126895322689
 20
2466.840218974249
 30
0.0
 41
3.999755859375
 42
3.999755859375
 43
3.999755859375
  0
MTEXT
  5
6D
102
{ACAD_REACTORS
330
6E
102
}
330
25
100
AcDbEntity
  8
notes
  6
Continuous
 62
     0
370
     5
100
AcDbMText
 10
631.1135474297662
 20
2484.056527567999
 30
0.0
 40
24.4326171875
 41
0.0
 46
0.0
 71
     5
 72
     1
  1
\A1;540
  7
ＭＳ ゴシック
 73
     1
 44
1.0
  0
POINT
  5
6E
330
25
100
AcDbEntity
  8
Defpoints
 62
     0
100
AcDbPoint
 10
361.1001995368433
 20
2316.838090044601
 30
0.0
  0
POINT
  5
6F
330
25
100
AcDbEntity
  8
Defpoints
 62
     0
100
AcDbPoint
 10
901.126895322689
 20
2316.858285821423
 30
0.0
  0
POINT
  5
70
330
25
100
AcDbEntity
  8
Defpoints
 62
     0
100
AcDbPoint
 10
901.126895322689
 20
2466.840218974249
 30
0.0
  0
ENDBLK
  5
73
330
25
100
AcDbEntity
  8
notes
390
1D
100
AcDbBlockEnd
  0
BLOCK
  5
74
330
26
100
AcDbEntity
  8
notes
390
1D
100
AcDbBlockBegin
  2
*D5
 70
     1
 10
0.0
 20
0.0
 30
0.0
  3
*D5
  1

  0
LINE
  5
75
330
26
100
AcDbEntity
  8
notes
  6
Continuous
 62
     0
370
    -2
100
AcDbLine
 10
901.126895322689
 20
2341.858285821423
 30
0.0
 11
901.126895322689
 21
2416.840218974249
 31
0.0
  0
LINE
  5
76
330
26
100
AcDbEntity
  8
notes
  6
Continuous
 62
     0
370
    -2
100
AcDbLine
 10
746.12689532269
 20
2292.358873587066
 30
0.0
 11
746.12689532269
 21
2416.840218974249
 31
0.0
  0
LINE
  5
77
330
26
100
AcDbEntity
  8
notes
  6
Continuous
 62
     0
370
    -2
100
AcDbLine
 10
897.127139463314
 20
2416.840218974249
 30
0.0
 11
750.126651182065
 21
2416.840218974249
 31
0.0
  0
INSERT
  5
78
102
{ACAD_REACTORS
330
79
102
}
330
26
100
AcDbEntity
  8
notes
 62
     0
370
    -2
100
AcDbBlockReference
  2
_DOT
 10
901.126895322689
 20
2416.840218974249
 30
0.0
 41
3.999755859375
 42
3.999755859375
 43
3.999755859375
  0
INSERT
  5
79
330
26
100
AcDbEntity
  8
notes
 62
     0
370
    -2
100
AcDbBlockReference
  2
_DOT
 10
746.12689532269
 20
2416.840218974249
 30
0.0
 41
3.999755859375
 42
3.999755859375
 43
3.999755859375
 50
180.0
  0
MTEXT
  5
7A
102
{ACAD_REACTORS
330
7B
102
}
330
26
100
AcDbEntity
  8
notes
  6
Continuous
 62
     0
370
     5
100
AcDbMText
 10
823.6268953226895
 20
2434.056527567999
 30
0.0
 40
24.4326171875
 41
0.0
 46
0.0
 71
     5
 72
     1
  1
\A1;155
  7
ＭＳ ゴシック
 73
     1
 44
1.0
  0
POINT
  5
7B
330
26
100
AcDbEntity
  8
Defpoints
 62
     0
100
AcDbPoint
 10
901.126895322689
 20
2316.858285821423
 30
0.0
  0
POINT
  5
7C
330
26
100
AcDbEntity
  8
Defpoints
 62
     0
100
AcDbPoint
 10
746.12689532269
 20
2267.358873587066
 30
0.0
  0
POINT
  5
7D
330
26
100
AcDbEntity
  8
Defpoints
 62
     0
100
AcDbPoint
 10
746.12689532269
 20
2416.840218974249
 30
0.0
  0
ENDBLK
  5
80
330
26
100
AcDbEntity
  8
notes
390
1D
100
AcDbBlockEnd
  0
BLOCK
  5
81
330
27
100
AcDbEntity
  8
notes
390
1D
100
AcDbBlockBegin
  2
*D6
 70
     1
 10
0.0
 20
0.0
 30
0.0
  3
*D6
  1

  0
LINE
  5
82
330
27
100
AcDbEntity
  8
notes
  6
Continuous
 62
     0
370
    -2
100
AcDbLine
 10
1717.901996126283
 20
2341.840076766465
 30
0.0
 11
1717.901996126283
 21
2416.840076766465
 31
0.0
  0
LINE
  5
83
330
27
100
AcDbEntity
  8
notes
  6
Continuous
 62
     0
370
    -2
100
AcDbLine
 10
1287.901996126285
 20
2341.840076766465
 30
0.0
 11
1287.901996126285
 21
2416.840076766465
 31
0.0
  0
LINE
  5
84
330
27
100
AcDbEntity
  8
notes
  6
Continuous
 62
     0
370
    -2
100
AcDbLine
 10
1713.902240266908
 20
2416.840076766465
 30
0.0
 11
1291.90175198566
 21
2416.840076766465
 31
0.0
  0
INSERT
  5
85
102
{ACAD_REACTORS
330
86
102
}
330
27
100
AcDbEntity
  8
notes
 62
     0
370
    -2
100
AcDbBlockReference
  2
_DOT
 10
1717.901996126283
 20
2416.840076766465
 30
0.0
 41
3.999755859375
 42
3.999755859375
 43
3.999755859375
  0
INSERT
  5
86
330
27
100
AcDbEntity
  8
notes
 62
     0
370
    -2
100
AcDbBlockReference
  2
_DOT
 10
1287.901996126285
 20
2416.840076766465
 30
0.0
 41
3.999755859375
 42
3.999755859375
 43
3.999755859375
 50
180.0
  0
MTEXT
  5
87
102
{ACAD_REACTORS
330
88
102
}
330
27
100
AcDbEntity
  8
notes
  6
Continuous
 62
     0
370
     5
100
AcDbMText
 10
1502.901996126284
 20
2434.056385360215
 30
0.0
 40
24.4326171875
 41
0.0
 46
0.0
 71
     5
 72
     1
  1
\A1;430
  7
ＭＳ ゴシック
 73
     1
 44
1.0
  0
POINT
  5
88
330
27
100
AcDbEntity
  8
Defpoints
 62
     0
100
AcDbPoint
 10
1717.901996126283
 20
2316.840076766465
 30
0.0
  0
POINT
  5
89
330
27
100
AcDbEntity
  8
Defpoints
 62
     0
100
AcDbPoint
 10
1287.901996126285
 20
2316.840076766465
 30
0.0
  0
POINT
  5
8A
330
27
100
AcDbEntity
  8
Defpoints
 62
     0
100
AcDbPoint
 10
1287.901996126285
 20
2416.840076766465
 30
0.0
  0
ENDBLK
  5
8D
330
27
100
AcDbEntity
  8
notes
390
1D
100
AcDbBlockEnd
  0
BLOCK
  5
8E
330
28
100
AcDbEntity
  8
notes
390
1D
100
AcDbBlockBegin
  2
*D7
 70
     1
 10
0.0
 20
0.0
 30
0.0
  3
*D7
  1

  0
LINE
  5
8F
330
28
100
AcDbEntity
  8
notes
  6
Continuous
 62
     0
370
    -2
100
AcDbLine
 10
528.6929733490742
 20
1896.838090044603
 30
0.0
 11
211.1001995368433
 21
1896.838090044603
 31
0.0
  0
LINE
  5
90
330
28
100
AcDbEntity
  8
notes
  6
Continuous
 62
     0
370
    -2
100
AcDbLine
 10
336.1001995368433
 20
2316.838090044601
 30
0.0
 11
211.1001995368433
 21
2316.838090044601
 31
0.0
  0
LINE
  5
91
330
28
100
AcDbEntity
  8
notes
  6
Continuous
 62
     0
370
    -2
100
AcDbLine
 10
211.1001995368433
 20
1900.837845903978
 30
0.0
 11
211.1001995368433
 21
2312.838334185226
 31
0.0
  0
INSERT
  5
92
102
{ACAD_REACTORS
330
93
102
}
330
28
100
AcDbEntity
  8
notes
 62
     0
370
    -2
100
AcDbBlockReference
  2
_DOT
 10
211.1001995368433
 20
1896.838090044603
 30
0.0
 41
3.999755859375
 42
3.999755859375
 43
3.999755859375
 50
270.0
  0
INSERT
  5
93
330
28
100
AcDbEntity
  8
notes
 62
     0
370
    -2
100
AcDbBlockReference
  2
_DOT
 10
211.1001995368433
 20
2316.838090044601
 30
0.0
 41
3.999755859375
 42
3.999755859375
 43
3.999755859375
 50
90.0
  0
MTEXT
  5
94
102
{ACAD_REACTORS
330
95
102
}
330
28
100
AcDbEntity
  8
notes
  6
Continuous
 62
     0
370
     5
100
AcDbMText
 10
193.8838909430933
 20
2106.838090044602
 30
0.0
 40
24.4326171875
 41
0.0
 46
0.0
 71
     5
 72
     1
  1
\A1;420
  7
ＭＳ ゴシック
 11
6.767073673905745E-17
 21
1.0
 31
0.0
 73
     1
 44
1.0
  0
POINT
  5
95
330
28
100
AcDbEntity
  8
Defpoints
 62
     0
100
AcDbPoint
 10
553.6929733490742
 20
1896.838090044603
 30
0.0
  0
POINT
  5
96
330
28
100
AcDbEntity
  8
Defpoints
 62
     0
100
AcDbPoint
 10
361.1001995368433
 20
2316.838090044601
 30
0.0
  0
POINT
  5
97
330
28
100
AcDbEntity
  8
Defpoints
 62
     0
100
AcDbPoint
 10
211.1001995368433
 20
2316.838090044601
 30
0.0
  0
ENDBLK
  5
9A
330
28
100
AcDbEntity
  8
notes
390
1D
100
AcDbBlockEnd
  0
BLOCK
  5
9B
330
29
100
AcDbEntity
  8
notes
390
1D
100
AcDbBlockBegin
  2
*D8
 70
     1
 10
0.0
 20
0.0
 30
0.0
  3
*D8
  1

  0
LINE
  5
9C
330
29
100
AcDbEntity
  8
notes
  6
Continuous
 62
     0
370
    -2
100
AcDbLine
 10
336.1214663137325
 20
1936.839316757594
 30
0.0
 11
261.1001995368433
 21
1936.839316757594
 31
0.0
  0
LINE
  5
9D
330
29
100
AcDbEntity
  8
notes
  6
Continuous
 62
     0
370
    -2
100
AcDbLine
 10
336.1001995368433
 20
2316.838090044601
 30
0.0
 11
261.1001995368433
 21
2316.838090044601
 31
0.0
  0
LINE
  5
9E
330
29
100
AcDbEntity
  8
notes
  6
Continuous
 62
     0
370
    -2
100
AcDbLine
 10
261.1001995368433
 20
1940.839072616969
 30
0.0
 11
261.1001995368433
 21
2312.838334185226
 31
0.0
  0
INSERT
  5
9F
102
{ACAD_REACTORS
330
A0
102
}
330
29
100
AcDbEntity
  8
notes
 62
     0
370
    -2
100
AcDbBlockReference
  2
_DOT
 10
261.1001995368433
 20
1936.839316757594
 30
0.0
 41
3.999755859375
 42
3.999755859375
 43
3.999755859375
 50
270.0
  0
INSERT
  5
A0
330
29
100
AcDbEntity
  8
notes
 62
     0
370
    -2
100
AcDbBlockReference
  2
_DOT
 10
261.1001995368433
 20
2316.838090044601
 30
0.0
 41
3.999755859375
 42
3.999755859375
 43
3.999755859375
 50
90.0
  0
MTEXT
  5
A1
102
{ACAD_REACTORS
330
A2
102
}
330
29
100
AcDbEntity
  8
notes
  6
Continuous
 62
     0
370
     5
100
AcDbMText
 10
243.8838909430933
 20
2126.838703401098
 30
0.0
 40
24.4326171875
 41
0.0
 46
0.0
 71
     5
 72
     1
  1
\A1;380
  7
ＭＳ ゴシック
 11
0.0
 21
1.0
 31
0.0
 73
     1
 44
1.0
  0
POINT
  5
A2
330
29
100
AcDbEntity
  8
Defpoints
 62
     0
100
AcDbPoint
 10
361.1214663137325
 20
1936.839316757594
 30
0.0
  0
POINT
  5
A3
330
29
100
AcDbEntity
  8
Defpoints
 62
     0
100
AcDbPoint
 10
361.1001995368433
 20
2316.838090044601
 30
0.0
  0
POINT
  5
A4
330
29
100
AcDbEntity
  8
Defpoints
 62
     0
100
AcDbPoint
 10
261.1001995368433
 20
2316.838090044601
 30
0.0
  0
ENDBLK
  5
A7
330
29
100
AcDbEntity
  8
notes
390
1D
100
AcDbBlockEnd
  0
BLOCK
  5
A8
330
2A
100
AcDbEntity
  8
notes
390
1D
100
AcDbBlockBegin
  2
*D9
 70
     1
 10
0.0
 20
0.0
 30
0.0
  3
*D9
  1

  0
LINE
  5
A9
330
2A
100
AcDbEntity
  8
0
  6
Continuous
 62
     0
370
    -2
390
1D
100
AcDbLine
 10
5313.02571224797
 20
4113.390180592904
 30
0.0
 11
5293.02571224797
 21
4113.390180592904
 31
0.0
  0
LINE
  5
AA
330
2A
100
AcDbEntity
  8
0
  6
Continuous
 62
     0
370
    -2
390
1D
100
AcDbLine
 10
5313.02571224797
 20
4023.390180592903
 30
0.0
 11
5293.02571224797
 21
4023.390180592903
 31
0.0
  0
LINE
  5
AB
330
2A
100
AcDbEntity
  8
0
  6
Continuous
 62
     0
370
    -2
390
1D
100
AcDbLine
 10
5293.02571224797
 20
4113.390180592904
 30
0.0
 11
5293.02571224797
 21
4247.895734092369
 31
0.0
  0
LINE
  5
AC
330
2A
100
AcDbEntity
  8
0
  6
Continuous
 62
     0
370
    -2
390
1D
100
AcDbLine
 10
5293.02571224797
 20
4113.390180592904
 30
0.0
 11
5293.02571224797
 21
4023.390180592903
 31
0.0
  0
CIRCLE
  5
AD
102
{ACAD_REACTORS
330
AE
102
}
330
2A
100
AcDbEntity
  8
0
  6
Continuous
 62
     0
370
    -2
390
1D
100
AcDbCircle
 10
5293.02571224797
 20
4113.390180592904
 30
0.0
 40
1.9998779296875
  0
HATCH
  5
AE
330
2A
100
AcDbEntity
  8
0
  6
Continuous
 62
     0
370
    -2
390
1D
100
AcDbHatch
 10
0.0
 20
0.0
 30
0.0
210
0.0
220
0.0
230
1.0
  2
SOLID
 70
     1
 71
     1
 91
        1
 92
        1
 93
        1
 72
     2
 10
5293.02571224797
 20
4113.390180592904
 40
1.9998779296875
 50
0.0
 51
360.0
 73
     0
 97
        1
330
AD
 75
     0
 76
     1
 98
        1
 10
0.0
 20
0.0
  0
CIRCLE
  5
AF
102
{ACAD_REACTORS
330
B0
102
}
330
2A
100
AcDbEntity
  8
0
  6
Continuous
 62
     0
370
    -2
390
1D
100
AcDbCircle
 10
5293.02571224797
 20
4023.390180592903
 30
0.0
 40
1.9998779296875
  0
HATCH
  5
B0
330
2A
100
AcDbEntity
  8
0
  6
Continuous
 62
     0
370
    -2
390
1D
100
AcDbHatch
 10
0.0
 20
0.0
 30
0.0
210
0.0
220
0.0
230
1.0
  2
SOLID
 70
     1
 71
     1
 91
        1
 92
        1
 93
        1
 72
     2
 10
5293.02571224797
 20
4023.390180592903
 40
1.9998779296875
 50
0.0
 51
360.0
 73
     0
 97
        1
330
AF
 75
     0
 76
     1
 98
        1
 10
0.0
 20
0.0
  0
MTEXT
  5
B1
330
2A
100
AcDbEntity
  8
0
 62
     0
390
1D
100
AcDbMText
 10
5259.148095060469
 20
4120.895734092369
 30
0.0
 40
24.4326171875
 41
0.0
 46
0.0
 71
     1
 72
     1
  1
90(深さ)
  7
ＭＳ ゴシック
 11
0.0
 21
1.0
 31
0.0
 73
     1
 44
0.7828267384257843
  0
POINT
  5
B2
330
2A
100
AcDbEntity
  8
Defpoints
 62
     0
370
     0
390
1D
100
AcDbPoint
 10
5288.02571224797
 20
4023.390180592903
 30
0.0
  0
POINT
  5
B3
330
2A
100
AcDbEntity
  8
Defpoints
 62
     0
370
     0
390
1D
100
AcDbPoint
 10
5288.02571224797
 20
4113.390180592904
 30
0.0
  0
POINT
  5
B4
330
2A
100
AcDbEntity
  8
Defpoints
 62
     0
370
     0
390
1D
100
AcDbPoint
 10
5293.02571224797
 20
4113.390180592904
 30
0.0
  0
ENDBLK
  5
B5
330
2A
100
AcDbEntity
  8
notes
390
1D
100
AcDbBlockEnd
  0
BLOCK
  5
B6
330
2B
100
AcDbEntity
  8
notes
390
1D
100
AcDbBlockBegin
  2
*D10
 70
     1
 10
0.0
 20
0.0
 30
0.0
  3
*D10
  1

  0
LINE
  5
B7
330
2B
100
AcDbEntity
  8
notes
  6
Continuous
 62
     0
370
    -2
100
AcDbLine
 10
928.0268953226896
 20
1961.857500323474
 30
0.0
 11
1051.126895322689
 21
1961.857500323474
 31
0.0
  0
LINE
  5
B8
330
2B
100
AcDbEntity
  8
notes
  6
Continuous
 62
     0
370
    -2
100
AcDbLine
 10
928.0268953226896
 20
2316.857500323472
 30
0.0
 11
1051.126895322689
 21
2316.857500323472
 31
0.0
  0
LINE
  5
B9
330
2B
100
AcDbEntity
  8
notes
  6
Continuous
 62
     0
370
    -2
100
AcDbLine
 10
1051.126895322689
 20
1965.857256182849
 30
0.0
 11
1051.126895322689
 21
2312.857744464097
 31
0.0
  0
INSERT
  5
BA
102
{ACAD_REACTORS
330
BB
102
}
330
2B
100
AcDbEntity
  8
notes
 62
     0
370
    -2
100
AcDbBlockReference
  2
_DOT
 10
1051.126895322689
 20
1961.857500323474
 30
0.0
 41
3.999755859375
 42
3.999755859375
 43
3.999755859375
 50
270.0
  0
INSERT
  5
BB
330
2B
100
AcDbEntity
  8
notes
 62
     0
370
    -2
100
AcDbBlockReference
  2
_DOT
 10
1051.126895322689
 20
2316.857500323472
 30
0.0
 41
3.999755859375
 42
3.999755859375
 43
3.999755859375
 50
90.0
  0
MTEXT
  5
BC
102
{ACAD_REACTORS
330
BD
102
}
330
2B
100
AcDbEntity
  8
notes
  6
Continuous
 62
     0
370
     5
100
AcDbMText
 10
1033.910586728939
 20
2139.357500323473
 30
0.0
 40
24.4326171875
 41
0.0
 46
0.0
 71
     5
 72
     1
  1
\A1;355
  7
ＭＳ ゴシック
 11
0.0
 21
1.0
 31
0.0
 73
     1
 44
1.0
  0
POINT
  5
BD
330
2B
100
AcDbEntity
  8
Defpoints
 62
     0
100
AcDbPoint
 10
903.0268953226896
 20
1961.857500323474
 30
0.0
  0
POINT
  5
BE
330
2B
100
AcDbEntity
  8
Defpoints
 62
     0
100
AcDbPoint
 10
903.0268953226896
 20
2316.857500323472
 30
0.0
  0
POINT
  5
BF
330
2B
100
AcDbEntity
  8
Defpoints
 62
     0
100
AcDbPoint
 10
1051.126895322689
 20
2316.857500323472
 30
0.0
  0
ENDBLK
  5
C2
330
2B
100
AcDbEntity
  8
notes
390
1D
100
AcDbBlockEnd
  0
BLOCK
  5
C3
330
2C
100
AcDbEntity
  8
notes
390
1D
100
AcDbBlockBegin
  2
*D11
 70
     1
 10
0.0
 20
0.0
 30
0.0
  3
*D11
  1

  0
LINE
  5
C4
330
2C
100
AcDbEntity
  8
notes
  6
Continuous
 62
     0
370
    -2
100
AcDbLine
 10
926.126895322689
 20
2316.858285821423
 30
0.0
 11
1001.12689532269
 21
2316.858285821423
 31
0.0
  0
LINE
  5
C5
330
2C
100
AcDbEntity
  8
notes
  6
Continuous
 62
     0
370
    -2
100
AcDbLine
 10
791.6274830883331
 20
2246.858285821423
 30
0.0
 11
1001.12689532269
 21
2246.858285821423
 31
0.0
  0
LINE
  5
C6
330
2C
100
AcDbEntity
  8
notes
  6
Continuous
 62
     0
370
    -2
100
AcDbLine
 10
1001.12689532269
 20
2312.858529962048
 30
0.0
 11
1001.12689532269
 21
2250.858041680798
 31
0.0
  0
INSERT
  5
C7
102
{ACAD_REACTORS
330
C8
102
}
330
2C
100
AcDbEntity
  8
notes
 62
     0
370
    -2
100
AcDbBlockReference
  2
_DOT
 10
1001.12689532269
 20
2316.858285821423
 30
0.0
 41
3.999755859375
 42
3.999755859375
 43
3.999755859375
 50
90.0
  0
INSERT
  5
C8
330
2C
100
AcDbEntity
  8
notes
 62
     0
370
    -2
100
AcDbBlockReference
  2
_DOT
 10
1001.12689532269
 20
2246.858285821423
 30
0.0
 41
3.999755859375
 42
3.999755859375
 43
3.999755859375
 50
270.0
  0
MTEXT
  5
C9
102
{ACAD_REACTORS
330
CA
102
}
330
2C
100
AcDbEntity
  8
notes
  6
Continuous
 62
     0
370
     5
100
AcDbMText
 10
983.91058672894
 20
2281.858285821423
 30
0.0
 40
24.4326171875
 41
0.0
 46
0.0
 71
     5
 72
     1
  1
\A1;70
  7
ＭＳ ゴシック
 11
0.0
 21
1.0
 31
0.0
 73
     1
 44
1.0
  0
POINT
  5
CA
330
2C
100
AcDbEntity
  8
Defpoints
 62
     0
100
AcDbPoint
 10
901.126895322689
 20
2316.858285821423
 30
0.0
  0
POINT
  5
CB
330
2C
100
AcDbEntity
  8
Defpoints
 62
     0
100
AcDbPoint
 10
766.6274830883331
 20
2246.858285821423
 30
0.0
  0
POINT
  5
CC
330
2C
100
AcDbEntity
  8
Defpoints
 62
     0
100
AcDbPoint
 10
1001.12689532269
 20
2246.858285821423
 30
0.0
  0
ENDBLK
  5
CF
330
2C
100
AcDbEntity
  8
notes
390
1D
100
AcDbBlockEnd
  0
BLOCK
  5
D0
330
2D
100
AcDbEntity
  8
notes
390
1D
100
AcDbBlockBegin
  2
*D12
 70
     1
 10
0.0
 20
0.0
 30
0.0
  3
*D12
  1

  0
LINE
  5
D1
330
2D
100
AcDbEntity
  8
notes
  6
Continuous
 62
     0
370
    -2
100
AcDbLine
 10
901.1019961262846
 20
1409.426448658028
 30
0.0
 11
1008.026895322691
 21
1409.426448658028
 31
0.0
  0
LINE
  5
D2
330
2D
100
AcDbEntity
  8
notes
  6
Continuous
 62
     0
370
    -2
100
AcDbLine
 10
926.1001995368451
 20
1534.433853643241
 30
0.0
 11
1008.026895322691
 21
1534.433853643241
 31
0.0
  0
LINE
  5
D3
330
2D
100
AcDbEntity
  8
notes
  6
Continuous
 62
     0
370
    -2
100
AcDbLine
 10
1008.026895322691
 20
1413.426204517403
 30
0.0
 11
1008.026895322691
 21
1530.434097783866
 31
0.0
  0
INSERT
  5
D4
102
{ACAD_REACTORS
330
D5
102
}
330
2D
100
AcDbEntity
  8
notes
 62
     0
370
    -2
100
AcDbBlockReference
  2
_DOT
 10
1008.026895322691
 20
1409.426448658028
 30
0.0
 41
3.999755859375
 42
3.999755859375
 43
3.999755859375
 50
270.0
  0
INSERT
  5
D5
330
2D
100
AcDbEntity
  8
notes
 62
     0
370
    -2
100
AcDbBlockReference
  2
_DOT
 10
1008.026895322691
 20
1534.433853643241
 30
0.0
 41
3.999755859375
 42
3.999755859375
 43
3.999755859375
 50
90.0
  0
MTEXT
  5
D6
102
{ACAD_REACTORS
330
D7
102
}
330
2D
100
AcDbEntity
  8
notes
  6
Continuous
 62
     0
370
     5
100
AcDbMText
 10
990.8105867289405
 20
1471.930151150635
 30
0.0
 40
24.4326171875
 41
0.0
 46
0.0
 71
     5
 72
     1
  1
\A1;125
  7
ＭＳ ゴシック
 11
0.0
 21
1.0
 31
0.0
 73
     1
 44
1.0
  0
POINT
  5
D7
330
2D
100
AcDbEntity
  8
Defpoints
 62
     0
100
AcDbPoint
 10
876.1019961262846
 20
1409.426448658028
 30
0.0
  0
POINT
  5
D8
330
2D
100
AcDbEntity
  8
Defpoints
 62
     0
100
AcDbPoint
 10
901.1001995368451
 20
1534.433853643241
 30
0.0
  0
POINT
  5
D9
330
2D
100
AcDbEntity
  8
Defpoints
 62
     0
100
AcDbPoint
 10
1008.026895322691
 20
1534.433853643241
 30
0.0
  0
ENDBLK
  5
DC
330
2D
100
AcDbEntity
  8
notes
390
1D
100
AcDbBlockEnd
  0
BLOCK
  5
DD
330
2E
100
AcDbEntity
  8
notes
390
1D
100
AcDbBlockBegin
  2
*D13
 70
     1
 10
0.0
 20
0.0
 30
0.0
  3
*D13
  1

  0
LINE
  5
DE
330
2E
100
AcDbEntity
  8
0
  6
Continuous
 62
     0
370
    -2
390
1D
100
AcDbLine
 10
4712.026923415705
 20
3963.38277560769
 30
0.0
 11
4712.026923415705
 21
3838.38277560769
 31
0.0
  0
LINE
  5
DF
330
2E
100
AcDbEntity
  8
0
  6
Continuous
 62
     0
370
    -2
390
1D
100
AcDbLine
 10
4222.026923415705
 20
3963.38277560769
 30
0.0
 11
4222.026923415705
 21
3838.38277560769
 31
0.0
  0
LINE
  5
E0
330
2E
100
AcDbEntity
  8
0
  6
Continuous
 62
     0
370
    -2
390
1D
100
AcDbLine
 10
4712.026923415705
 20
3838.38277560769
 30
0.0
 11
4222.026923415705
 21
3838.38277560769
 31
0.0
  0
CIRCLE
  5
E1
102
{ACAD_REACTORS
330
E2
102
}
330
2E
100
AcDbEntity
  8
0
  6
Continuous
 62
     0
370
    -2
390
1D
100
AcDbCircle
 10
4712.026923415705
 20
3838.38277560769
 30
0.0
 40
1.9998779296875
  0
HATCH
  5
E2
330
2E
100
AcDbEntity
  8
0
  6
Continuous
 62
     0
370
    -2
390
1D
100
AcDbHatch
 10
0.0
 20
0.0
 30
0.0
210
0.0
220
0.0
230
1.0
  2
SOLID
 70
     1
 71
     1
 91
        1
 92
        1
 93
        1
 72
     2
 10
4712.026923415705
 20
3838.38277560769
 40
1.9998779296875
 50
0.0
 51
360.0
 73
     0
 97
        1
330
E1
 75
     0
 76
     1
 98
        1
 10
0.0
 20
0.0
  0
CIRCLE
  5
E3
102
{ACAD_REACTORS
330
E4
102
}
330
2E
100
AcDbEntity
  8
0
  6
Continuous
 62
     0
370
    -2
390
1D
100
AcDbCircle
 10
4222.026923415705
 20
3838.38277560769
 30
0.0
 40
1.9998779296875
  0
HATCH
  5
E4
330
2E
100
AcDbEntity
  8
0
  6
Continuous
 62
     0
370
    -2
390
1D
100
AcDbHatch
 10
0.0
 20
0.0
 30
0.0
210
0.0
220
0.0
230
1.0
  2
SOLID
 70
     1
 71
     1
 91
        1
 92
        1
 93
        1
 72
     2
 10
4222.026923415705
 20
3838.38277560769
 40
1.9998779296875
 50
0.0
 51
360.0
 73
     0
 97
        1
330
E3
 75
     0
 76
     1
 98
        1
 10
0.0
 20
0.0
  0
MTEXT
  5
E5
330
2E
100
AcDbEntity
  8
0
 62
     0
390
1D
100
AcDbMText
 10
4437.962628597087
 20
3872.26039279519
 30
0.0
 40
24.4326171875
 41
0.0
 46
0.0
 71
     1
 72
     1
  1
490
  7
ＭＳ ゴシック
 73
     1
 44
0.7828267384257843
  0
POINT
  5
E6
330
2E
100
AcDbEntity
  8
Defpoints
 62
     0
370
     0
390
1D
100
AcDbPoint
 10
4222.026923415705
 20
3988.38277560769
 30
0.0
  0
POINT
  5
E7
330
2E
100
AcDbEntity
  8
Defpoints
 62
     0
370
     0
390
1D
100
AcDbPoint
 10
4712.026923415705
 20
3988.38277560769
 30
0.0
  0
POINT
  5
E8
330
2E
100
AcDbEntity
  8
Defpoints
 62
     0
370
     0
390
1D
100
AcDbPoint
 10
4712.026923415705
 20
3838.38277560769
 30
0.0
  0
ENDBLK
  5
E9
330
2E
100
AcDbEntity
  8
notes
390
1D
100
AcDbBlockEnd
  0
BLOCK
  5
EA
330
2F
100
AcDbEntity
  8
notes
390
1D
100
AcDbBlockBegin
  2
*D14
 70
     1
 10
0.0
 20
0.0
 30
0.0
  3
*D14
  1

  0
LINE
  5
EB
330
2F
100
AcDbEntity
  8
notes
  6
Continuous
 62
     0
370
    -2
100
AcDbLine
 10
571.100199536846
 20
1389.433853643241
 30
0.0
 11
571.100199536846
 21
1309.426448658029
 31
0.0
  0
LINE
  5
EC
330
2F
100
AcDbEntity
  8
notes
  6
Continuous
 62
     0
370
    -2
100
AcDbLine
 10
361.1001995368442
 20
1509.433853643241
 30
0.0
 11
361.1001995368442
 21
1309.426448658029
 31
0.0
  0
LINE
  5
ED
330
2F
100
AcDbEntity
  8
notes
  6
Continuous
 62
     0
370
    -2
100
AcDbLine
 10
567.100443677471
 20
1309.426448658029
 30
0.0
 11
365.0999553962192
 21
1309.426448658029
 31
0.0
  0
INSERT
  5
EE
102
{ACAD_REACTORS
330
EF
102
}
330
2F
100
AcDbEntity
  8
notes
 62
     0
370
    -2
100
AcDbBlockReference
  2
_DOT
 10
571.100199536846
 20
1309.426448658029
 30
0.0
 41
3.999755859375
 42
3.999755859375
 43
3.999755859375
  0
INSERT
  5
EF
330
2F
100
AcDbEntity
  8
notes
 62
     0
370
    -2
100
AcDbBlockReference
  2
_DOT
 10
361.1001995368442
 20
1309.426448658029
 30
0.0
 41
3.999755859375
 42
3.999755859375
 43
3.999755859375
 50
180.0
  0
MTEXT
  5
F0
102
{ACAD_REACTORS
330
F1
102
}
330
2F
100
AcDbEntity
  8
notes
  6
Continuous
 62
     0
370
     5
100
AcDbMText
 10
466.1001995368451
 20
1326.642757251779
 30
0.0
 40
24.4326171875
 41
0.0
 46
0.0
 71
     5
 72
     1
  1
\A1;210
  7
ＭＳ ゴシック
 73
     1
 44
1.0
  0
POINT
  5
F1
330
2F
100
AcDbEntity
  8
Defpoints
 62
     0
100
AcDbPoint
 10
571.100199536846
 20
1414.433853643241
 30
0.0
  0
POINT
  5
F2
330
2F
100
AcDbEntity
  8
Defpoints
 62
     0
100
AcDbPoint
 10
361.1001995368442
 20
1534.433853643241
 30
0.0
  0
POINT
  5
F3
330
2F
100
AcDbEntity
  8
Defpoints
 62
     0
100
AcDbPoint
 10
361.1001995368442
 20
1309.426448658029
 30
0.0
  0
ENDBLK
  5
F6
330
2F
100
AcDbEntity
  8
notes
390
1D
100
AcDbBlockEnd
  0
BLOCK
  5
F7
330
30
100
AcDbEntity
  8
notes
390
1D
100
AcDbBlockBegin
  2
*D15
 70
     1
 10
0.0
 20
0.0
 30
0.0
  3
*D15
  1

  0
LINE
  5
F8
330
30
100
AcDbEntity
  8
0
  6
Continuous
 62
     0
370
    -2
390
1D
100
AcDbLine
 10
5512.025712247968
 20
3968.390180592903
 30
0.0
 11
5512.025712247968
 21
3781.864591760328
 31
0.0
  0
LINE
  5
F9
330
30
100
AcDbEntity
  8
0
  6
Continuous
 62
     0
370
    -2
390
1D
100
AcDbLine
 10
5292.025712247969
 20
3968.390180592903
 30
0.0
 11
5292.025712247969
 21
3781.864591760328
 31
0.0
  0
LINE
  5
FA
330
30
100
AcDbEntity
  8
0
  6
Continuous
 62
     0
370
    -2
390
1D
100
AcDbLine
 10
5512.025712247968
 20
3781.864591760328
 30
0.0
 11
5292.025712247969
 21
3781.864591760328
 31
0.0
  0
CIRCLE
  5
FB
102
{ACAD_REACTORS
330
FC
102
}
330
30
100
AcDbEntity
  8
0
  6
Continuous
 62
     0
370
    -2
390
1D
100
AcDbCircle
 10
5512.025712247968
 20
3781.864591760328
 30
0.0
 40
1.9998779296875
  0
HATCH
  5
FC
330
30
100
AcDbEntity
  8
0
  6
Continuous
 62
     0
370
    -2
390
1D
100
AcDbHatch
 10
0.0
 20
0.0
 30
0.0
210
0.0
220
0.0
230
1.0
  2
SOLID
 70
     1
 71
     1
 91
        1
 92
        1
 93
        1
 72
     2
 10
5512.025712247968
 20
3781.864591760328
 40
1.9998779296875
 50
0.0
 51
360.0
 73
     0
 97
        1
330
FB
 75
     0
 76
     1
 98
        1
 10
0.0
 20
0.0
  0
CIRCLE
  5
FD
102
{ACAD_REACTORS
330
FE
102
}
330
30
100
AcDbEntity
  8
0
  6
Continuous
 62
     0
370
    -2
390
1D
100
AcDbCircle
 10
5292.025712247969
 20
3781.864591760328
 30
0.0
 40
1.9998779296875
  0
HATCH
  5
FE
330
30
100
AcDbEntity
  8
0
  6
Continuous
 62
     0
370
    -2
390
1D
100
AcDbHatch
 10
0.0
 20
0.0
 30
0.0
210
0.0
220
0.0
230
1.0
  2
SOLID
 70
     1
 71
     1
 91
        1
 92
        1
 93
        1
 72
     2
 10
5292.025712247969
 20
3781.864591760328
 40
1.9998779296875
 50
0.0
 51
360.0
 73
     0
 97
        1
330
FD
 75
     0
 76
     1
 98
        1
 10
0.0
 20
0.0
  0
MTEXT
  5
FF
330
30
100
AcDbEntity
  8
0
 62
     0
390
1D
100
AcDbMText
 10
5378.213210565793
 20
3815.742208947828
 30
0.0
 40
24.4326171875
 41
0.0
 46
0.0
 71
     1
 72
     1
  1
220
  7
ＭＳ ゴシック
 73
     1
 44
0.7828267384257843
  0
POINT
  5
100
330
30
100
AcDbEntity
  8
Defpoints
 62
     0
370
     0
390
1D
100
AcDbPoint
 10
5292.025712247969
 20
3993.390180592903
 30
0.0
  0
POINT
  5
101
330
30
100
AcDbEntity
  8
Defpoints
 62
     0
370
     0
390
1D
100
AcDbPoint
 10
5512.025712247968
 20
3993.390180592903
 30
0.0
  0
POINT
  5
102
330
30
100
AcDbEntity
  8
Defpoints
 62
     0
370
     0
390
1D
100
AcDbPoint
 10
5512.025712247968
 20
3781.864591760328
 30
0.0
  0
ENDBLK
  5
103
330
30
100
AcDbEntity
  8
notes
390
1D
100
AcDbBlockEnd
  0
BLOCK
  5
104
330
31
100
AcDbEntity
  8
notes
390
1D
100
AcDbBlockBegin
  2
*D16
 70
     1
 10
0.0
 20
0.0
 30
0.0
  3
*D16
  1

  0
LINE
  5
105
330
31
100
AcDbEntity
  8
notes
  6
Continuous
 62
     0
370
    -2
100
AcDbLine
 10
1742.901996126283
 20
2046.840076766467
 30
0.0
 11
1872.804573286665
 21
2046.840076766467
 31
0.0
  0
LINE
  5
106
330
31
100
AcDbEntity
  8
notes
  6
Continuous
 62
     0
370
    -2
100
AcDbLine
 10
1742.901996126283
 20
2316.840076766465
 30
0.0
 11
1872.804573286665
 21
2316.840076766465
 31
0.0
  0
LINE
  5
107
330
31
100
AcDbEntity
  8
notes
  6
Continuous
 62
     0
370
    -2
100
AcDbLine
 10
1872.804573286665
 20
2050.839832625842
 30
0.0
 11
1872.804573286665
 21
2312.84032090709
 31
0.0
  0
INSERT
  5
108
102
{ACAD_REACTORS
330
109
102
}
330
31
100
AcDbEntity
  8
notes
 62
     0
370
    -2
100
AcDbBlockReference
  2
_DOT
 10
1872.804573286665
 20
2046.840076766467
 30
0.0
 41
3.999755859375
 42
3.999755859375
 43
3.999755859375
 50
270.0
  0
INSERT
  5
109
330
31
100
AcDbEntity
  8
notes
 62
     0
370
    -2
100
AcDbBlockReference
  2
_DOT
 10
1872.804573286665
 20
2316.840076766465
 30
0.0
 41
3.999755859375
 42
3.999755859375
 43
3.999755859375
 50
90.0
  0
MTEXT
  5
10A
102
{ACAD_REACTORS
330
10B
102
}
330
31
100
AcDbEntity
  8
notes
  6
Continuous
 62
     0
370
     5
100
AcDbMText
 10
1855.588264692915
 20
2181.840076766466
 30
0.0
 40
24.4326171875
 41
0.0
 46
0.0
 71
     5
 72
     1
  1
\A1;270
  7
ＭＳ ゴシック
 11
0.0
 21
1.0
 31
0.0
 73
     1
 44
1.0
  0
POINT
  5
10B
330
31
100
AcDbEntity
  8
Defpoints
 62
     0
100
AcDbPoint
 10
1717.901996126283
 20
2046.840076766467
 30
0.0
  0
POINT
  5
10C
330
31
100
AcDbEntity
  8
Defpoints
 62
     0
100
AcDbPoint
 10
1717.901996126283
 20
2316.840076766465
 30
0.0
  0
POINT
  5
10D
330
31
100
AcDbEntity
  8
Defpoints
 62
     0
100
AcDbPoint
 10
1872.804573286665
 20
2316.840076766465
 30
0.0
  0
ENDBLK
  5
110
330
31
100
AcDbEntity
  8
notes
390
1D
100
AcDbBlockEnd
  0
BLOCK
  5
111
330
32
100
AcDbEntity
  8
notes
390
1D
100
AcDbBlockBegin
  2
*D17
 70
     1
 10
0.0
 20
0.0
 30
0.0
  3
*D17
  1

  0
LINE
  5
112
330
32
100
AcDbEntity
  8
0
  6
Continuous
 62
     0
370
    -2
390
1D
100
AcDbLine
 10
5512.025712247968
 20
3968.390180592903
 30
0.0
 11
5512.025712247968
 21
3697.139952016925
 31
0.0
  0
LINE
  5
113
330
32
100
AcDbEntity
  8
0
  6
Continuous
 62
     0
370
    -2
390
1D
100
AcDbLine
 10
5147.025712247969
 20
3968.390180592903
 30
0.0
 11
5147.025712247969
 21
3697.139952016925
 31
0.0
  0
LINE
  5
114
330
32
100
AcDbEntity
  8
0
  6
Continuous
 62
     0
370
    -2
390
1D
100
AcDbLine
 10
5512.025712247968
 20
3697.139952016925
 30
0.0
 11
5147.025712247969
 21
3697.139952016925
 31
0.0
  0
CIRCLE
  5
115
102
{ACAD_REACTORS
330
116
102
}
330
32
100
AcDbEntity
  8
0
  6
Continuous
 62
     0
370
    -2
390
1D
100
AcDbCircle
 10
5512.025712247968
 20
3697.139952016925
 30
0.0
 40
1.9998779296875
  0
HATCH
  5
116
330
32
100
AcDbEntity
  8
0
  6
Continuous
 62
     0
370
    -2
390
1D
100
AcDbHatch
 10
0.0
 20
0.0
 30
0.0
210
0.0
220
0.0
230
1.0
  2
SOLID
 70
     1
 71
     1
 91
        1
 92
        1
 93
        1
 72
     2
 10
5512.025712247968
 20
3697.139952016925
 40
1.9998779296875
 50
0.0
 51
360.0
 73
     0
 97
        1
330
115
 75
     0
 76
     1
 98
        1
 10
0.0
 20
0.0
  0
CIRCLE
  5
117
102
{ACAD_REACTORS
330
118
102
}
330
32
100
AcDbEntity
  8
0
  6
Continuous
 62
     0
370
    -2
390
1D
100
AcDbCircle
 10
5147.025712247969
 20
3697.139952016925
 30
0.0
 40
1.9998779296875
  0
HATCH
  5
118
330
32
100
AcDbEntity
  8
0
  6
Continuous
 62
     0
370
    -2
390
1D
100
AcDbHatch
 10
0.0
 20
0.0
 30
0.0
210
0.0
220
0.0
230
1.0
  2
SOLID
 70
     1
 71
     1
 91
        1
 92
        1
 93
        1
 72
     2
 10
5147.025712247969
 20
3697.139952016925
 40
1.9998779296875
 50
0.0
 51
360.0
 73
     0
 97
        1
330
117
 75
     0
 76
     1
 98
        1
 10
0.0
 20
0.0
  0
MTEXT
  5
119
330
32
100
AcDbEntity
  8
0
 62
     0
390
1D
100
AcDbMText
 10
5305.713210565793
 20
3731.017569204425
 30
0.0
 40
24.4326171875
 41
0.0
 46
0.0
 71
     1
 72
     1
  1
365
  7
ＭＳ ゴシック
 73
     1
 44
0.7828267384257843
  0
POINT
  5
11A
330
32
100
AcDbEntity
  8
Defpoints
 62
     0
370
     0
390
1D
100
AcDbPoint
 10
5147.025712247969
 20
3993.390180592903
 30
0.0
  0
POINT
  5
11B
330
32
100
AcDbEntity
  8
Defpoints
 62
     0
370
     0
390
1D
100
AcDbPoint
 10
5512.025712247968
 20
3993.390180592903
 30
0.0
  0
POINT
  5
11C
330
32
100
AcDbEntity
  8
Defpoints
 62
     0
370
     0
390
1D
100
AcDbPoint
 10
5512.025712247968
 20
3697.139952016925
 30
0.0
  0
ENDBLK
  5
11D
330
32
100
AcDbEntity
  8
notes
390
1D
100
AcDbBlockEnd
  0
BLOCK
  5
11E
330
33
100
AcDbEntity
  8
KUF70-0001
390
1D
100
AcDbBlockBegin
  2
*D18
 70
     1
 10
0.0
 20
0.0
 30
0.0
  3
*D18
  1

  0
LINE
  5
11F
330
33
100
AcDbEntity
  8
KUF70-0001
  6
Continuous
 62
     0
370
    -2
100
AcDbLine
 10
1279.498737932791
 20
1424.433853643241
 30
0.0
 11
1179.67543106565
 21
1424.433853643241
 31
0.0
  0
LINE
  5
120
330
33
100
AcDbEntity
  8
KUF70-0001
  6
Continuous
 62
     0
370
    -2
100
AcDbLine
 10
1231.101996126285
 20
1534.42644865803
 30
0.0
 11
1179.67543106565
 21
1534.42644865803
 31
0.0
  0
LINE
  5
121
330
33
100
AcDbEntity
  8
KUF70-0001
  6
Continuous
 62
     0
370
    -2
100
AcDbLine
 10
1179.67543106565
 20
1428.433609502616
 30
0.0
 11
1179.67543106565
 21
1530.426692798655
 31
0.0
  0
INSERT
  5
122
102
{ACAD_REACTORS
330
123
102
}
330
33
100
AcDbEntity
  8
KUF70-0001
 62
     0
370
    -2
100
AcDbBlockReference
  2
_DOT
 10
1179.67543106565
 20
1424.433853643241
 30
0.0
 41
3.999755859375
 42
3.999755859375
 43
3.999755859375
 50
270.0
  0
INSERT
  5
123
330
33
100
AcDbEntity
  8
KUF70-0001
 62
     0
370
    -2
100
AcDbBlockReference
  2
_DOT
 10
1179.67543106565
 20
1534.42644865803
 30
0.0
 41
3.999755859375
 42
3.999755859375
 43
3.999755859375
 50
90.0
  0
MTEXT
  5
124
102
{ACAD_REACTORS
330
125
102
}
330
33
100
AcDbEntity
  8
KUF70-0001
  6
Continuous
 62
     0
370
     5
100
AcDbMText
 10
1162.4591224719
 20
1479.430151150636
 30
0.0
 40
24.4326171875
 41
0.0
 46
0.0
 71
     5
 72
     1
  1
\A1;110
  7
ＭＳ ゴシック
 11
0.0
 21
1.0
 31
0.0
 73
     1
 44
1.0
  0
POINT
  5
125
330
33
100
AcDbEntity
  8
Defpoints
 62
     0
100
AcDbPoint
 10
1304.498737932791
 20
1424.433853643241
 30
0.0
  0
POINT
  5
126
330
33
100
AcDbEntity
  8
Defpoints
 62
     0
100
AcDbPoint
 10
1256.101996126285
 20
1534.42644865803
 30
0.0
  0
POINT
  5
127
330
33
100
AcDbEntity
  8
Defpoints
 62
     0
100
AcDbPoint
 10
1179.67543106565
 20
1534.42644865803
 30
0.0
  0
ENDBLK
  5
12A
330
33
100
AcDbEntity
  8
KUF70-0001
390
1D
100
AcDbBlockEnd
  0
BLOCK
  5
211
330
210
100
AcDbEntity
  8
0
100
AcDbBlockBegin
  2
*D20
 70
     1
 10
0.0
 20
0.0
 30
0.0
  3
*D20
  1

  0
LINE
  5
212
330
210
100
AcDbEntity
  8
notes
  6
Continuous
 62
     0
370
    -2
100
AcDbLine
 10
189.5519716158233
 20
209.002722926461
 30
0.0
 11
189.5519716158233
 21
234.4880086082865
 31
0.0
  0
LINE
  5
213
330
210
100
AcDbEntity
  8
notes
  6
Continuous
 62
     0
370
    -2
100
AcDbLine
 10
117.5519613939935
 20
209.0607624758685
 30
0.0
 11
117.5519613939935
 21
234.4880086082865
 31
0.0
  0
LINE
  5
214
330
210
100
AcDbEntity
  8
notes
  6
Continuous
 62
     0
370
    -2
100
AcDbLine
 10
185.5522157564483
 20
234.4880086082865
 30
0.0
 11
121.5517172533685
 21
234.4880086082865
 31
0.0
  0
INSERT
  5
215
330
210
100
AcDbEntity
  8
notes
 62
     0
370
    -2
100
AcDbBlockReference
  2
_DOT
 10
189.5519716158233
 20
234.4880086082865
 30
0.0
 41
3.999755859375
 42
3.999755859375
 43
3.999755859375
  0
INSERT
  5
216
330
210
100
AcDbEntity
  8
notes
 62
     0
370
    -2
100
AcDbBlockReference
  2
_DOT
 10
117.5519613939935
 20
234.4880086082865
 30
0.0
 41
3.999755859375
 42
3.999755859375
 43
3.999755859375
 50
180.0
  0
MTEXT
  5
217
330
210
100
AcDbEntity
  8
notes
  6
Continuous
 62
     0
370
     5
100
AcDbMText
 10
153.5519665049081
 20
254.9752692664657
 30
0.0
 40
24.4326171875
 41
0.0
 46
0.0
 71
     5
 72
     1
  1
\A1;φ72
  7
ＭＳ ゴシック
 73
     1
 44
1.0
  0
POINT
  5
218
330
210
100
AcDbEntity
  8
Defpoints
 62
     0
100
AcDbPoint
 10
189.5519716158233
 20
184.002722926461
 30
0.0
  0
POINT
  5
219
330
210
100
AcDbEntity
  8
Defpoints
 62
     0
100
AcDbPoint
 10
117.5519613939935
 20
184.0607624758685
 30
0.0
  0
POINT
  5
21A
330
210
100
AcDbEntity
  8
Defpoints
 62
     0
100
AcDbPoint
 10
117.5519613939935
 20
234.4880086082865
 30
0.0
  0
ENDBLK
  5
21B
330
210
100
AcDbEntity
  8
0
100
AcDbBlockEnd
  0
BLOCK
  5
21E
330
21D
100
AcDbEntity
  8
0
100
AcDbBlockBegin
  2
*D21
 70
     1
 10
0.0
 20
0.0
 30
0.0
  3
*D21
  1

  0
LINE
  5
21F
330
21D
100
AcDbEntity
  8
notes
  6
Continuous
 62
     0
370
    -2
100
AcDbLine
 10
97.10075232782947
 20
147.0227286096579
 30
0.0
 11
52.72968457777245
 21
147.0227286096579
 31
0.0
  0
LINE
  5
220
330
21D
100
AcDbEntity
  8
notes
  6
Continuous
 62
     0
370
    -2
100
AcDbLine
 10
96.95143780930357
 20
178.0033782623241
 30
0.0
 11
52.72968457777245
 21
178.0033782623241
 31
0.0
  0
LINE
  5
221
330
21D
100
AcDbEntity
  8
notes
  6
Continuous
 62
     0
370
    -2
100
AcDbLine
 10
52.72968457777245
 20
151.0224844690329
 30
0.0
 11
52.72968457777245
 21
174.0036224029491
 31
0.0
  0
INSERT
  5
222
330
21D
100
AcDbEntity
  8
notes
 62
     0
370
    -2
100
AcDbBlockReference
  2
_DOT
 10
52.72968457777245
 20
147.0227286096579
 30
0.0
 41
3.999755859375
 42
3.999755859375
 43
3.999755859375
 50
270.0
  0
INSERT
  5
223
330
21D
100
AcDbEntity
  8
notes
 62
     0
370
    -2
100
AcDbBlockReference
  2
_DOT
 10
52.72968457777245
 20
178.0033782623241
 30
0.0
 41
3.999755859375
 42
3.999755859375
 43
3.999755859375
 50
90.0
  0
MTEXT
  5
224
330
21D
100
AcDbEntity
  8
notes
  6
Continuous
 62
     0
370
     5
100
AcDbMText
 10
27.52540296653865
 20
162.5130534359911
 30
0.0
 40
24.4326171875
 41
0.0
 46
0.0
 71
     5
 72
     1
  1
\A1;MAX.50
  7
ＭＳ ゴシック
 11
0.0
 21
1.0
 31
0.0
 73
     1
 44
1.0
  0
POINT
  5
225
330
21D
100
AcDbEntity
  8
Defpoints
 62
     0
100
AcDbPoint
 10
122.1007523278295
 20
147.0227286096579
 30
0.0
  0
POINT
  5
226
330
21D
100
AcDbEntity
  8
Defpoints
 62
     0
100
AcDbPoint
 10
121.9514378093036
 20
178.0033782623241
 30
0.0
  0
POINT
  5
227
330
21D
100
AcDbEntity
  8
Defpoints
 62
     0
100
AcDbPoint
 10
52.72968457777245
 20
178.0033782623241
 30
0.0
  0
ENDBLK
  5
228
330
21D
100
AcDbEntity
  8
0
100
AcDbBlockEnd
  0
BLOCK
  5
22B
330
22A
100
AcDbEntity
  8
0
100
AcDbBlockBegin
  2
*D22
 70
     1
 10
0.0
 20
0.0
 30
0.0
  3
*D22
  1

  0
LINE
  5
22C
330
22A
100
AcDbEntity
  8
notes
  6
Continuous
 62
     0
370
    -2
100
AcDbLine
 10
210.0051277666753
 20
147.0227286096579
 30
0.0
 11
264.6171292089266
 21
147.0227286096579
 31
0.0
  0
LINE
  5
22D
330
22A
100
AcDbEntity
  8
notes
  6
Continuous
 62
     0
370
    -2
100
AcDbLine
 10
203.5529093505966
 20
122.0223581715268
 30
0.0
 11
264.6171292089266
 21
122.0223581715268
 31
0.0
  0
LINE
  5
22E
330
22A
100
AcDbEntity
  8
notes
  6
Continuous
 62
     0
370
    -2
100
AcDbLine
 10
264.6171292089266
 20
143.0229727502829
 30
0.0
 11
264.6171292089266
 21
126.0221140309018
 31
0.0
  0
INSERT
  5
22F
330
22A
100
AcDbEntity
  8
notes
 62
     0
370
    -2
100
AcDbBlockReference
  2
_DOT
 10
264.6171292089266
 20
147.0227286096579
 30
0.0
 41
3.999755859375
 42
3.999755859375
 43
3.999755859375
 50
90.0
  0
INSERT
  5
230
330
22A
100
AcDbEntity
  8
notes
 62
     0
370
    -2
100
AcDbBlockReference
  2
_DOT
 10
264.6171292089266
 20
122.0223581715268
 30
0.0
 41
3.999755859375
 42
3.999755859375
 43
3.999755859375
 50
270.0
  0
MTEXT
  5
231
330
22A
100
AcDbEntity
  8
notes
  6
Continuous
 62
     0
370
     5
100
AcDbMText
 10
248.8829130234448
 20
176.096584097721
 30
0.0
 40
24.4326171875
 41
0.0
 46
0.0
 71
     5
 72
     1
  1
\A1;25
  7
ＭＳ ゴシック
 11
0.0
 21
1.0
 31
0.0
 73
     1
 44
1.0
  0
POINT
  5
232
330
22A
100
AcDbEntity
  8
Defpoints
 62
     0
100
AcDbPoint
 10
185.0051277666753
 20
147.0227286096579
 30
0.0
  0
POINT
  5
233
330
22A
100
AcDbEntity
  8
Defpoints
 62
     0
100
AcDbPoint
 10
178.5529093505966
 20
122.0223581715268
 30
0.0
  0
POINT
  5
234
330
22A
100
AcDbEntity
  8
Defpoints
 62
     0
100
AcDbPoint
 10
264.6171292089266
 20
122.0223581715268
 30
0.0
  0
ENDBLK
  5
235
330
22A
100
AcDbEntity
  8
0
100
AcDbBlockEnd
  0
BLOCK
  5
238
330
237
100
AcDbEntity
  8
0
100
AcDbBlockBegin
  2
*D23
 70
     1
 10
0.0
 20
0.0
 30
0.0
  3
*D23
  1

  0
LINE
  5
239
330
237
100
AcDbEntity
  8
notes
  6
Continuous
 62
     0
370
    -2
100
AcDbLine
 10
197.8018352891959
 20
112.0221591560594
 30
0.0
 11
264.6171292089266
 21
112.0221591560594
 31
0.0
  0
LINE
  5
23A
330
237
100
AcDbEntity
  8
notes
  6
Continuous
 62
     0
370
    -2
100
AcDbLine
 10
203.5529093505966
 20
122.0223581715268
 30
0.0
 11
264.6171292089266
 21
122.0223581715268
 31
0.0
  0
LINE
  5
23B
330
237
100
AcDbEntity
  8
notes
  6
Continuous
 62
     0
370
    -2
100
AcDbLine
 10
264.6171292089266
 20
116.0219150154344
 30
0.0
 11
264.6171292089266
 21
118.0226023121518
 31
0.0
  0
INSERT
  5
23C
330
237
100
AcDbEntity
  8
notes
 62
     0
370
    -2
100
AcDbBlockReference
  2
_DOT
 10
264.6171292089266
 20
112.0221591560594
 30
0.0
 41
3.999755859375
 42
3.999755859375
 43
3.999755859375
 50
270.0
  0
INSERT
  5
23D
330
237
100
AcDbEntity
  8
notes
 62
     0
370
    -2
100
AcDbBlockReference
  2
_DOT
 10
264.6171292089266
 20
122.0223581715268
 30
0.0
 41
3.999755859375
 42
3.999755859375
 43
3.999755859375
 50
90.0
  0
MTEXT
  5
23E
330
237
100
AcDbEntity
  8
notes
  6
Continuous
 62
     0
370
     5
100
AcDbMText
 10
250.9008816503328
 20
75.98055811539916
 30
0.0
 40
24.4326171875
 41
0.0
 46
0.0
 71
     5
 72
     1
  1
\A1;10
  7
ＭＳ ゴシック
 11
0.0
 21
1.0
 31
0.0
 73
     1
 44
1.0
  0
POINT
  5
23F
330
237
100
AcDbEntity
  8
Defpoints
 62
     0
100
AcDbPoint
 10
172.8018352891959
 20
112.0221591560594
 30
0.0
  0
POINT
  5
240
330
237
100
AcDbEntity
  8
Defpoints
 62
     0
100
AcDbPoint
 10
178.5529093505966
 20
122.0223581715268
 30
0.0
  0
POINT
  5
241
330
237
100
AcDbEntity
  8
Defpoints
 62
     0
100
AcDbPoint
 10
264.6171292089266
 20
122.0223581715268
 30
0.0
  0
ENDBLK
  5
242
330
237
100
AcDbEntity
  8
0
100
AcDbBlockEnd
  0
BLOCK
  5
245
330
244
100
AcDbEntity
  8
0
100
AcDbBlockBegin
  2
*D24
 70
     1
 10
0.0
 20
0.0
 30
0.0
  3
*D24
  1

  0
LINE
  5
246
330
244
100
AcDbEntity
  8
notes
  6
Continuous
 62
     0
370
    -2
100
AcDbLine
 10
178.5529093505966
 20
97.02235817152678
 30
0.0
 11
178.5529093505966
 21
40.14588075296433
 31
0.0
  0
LINE
  5
247
330
244
100
AcDbEntity
  8
notes
  6
Continuous
 62
     0
370
    -2
100
AcDbLine
 10
128.55103388105
 20
97.02235817152678
 30
0.0
 11
128.55103388105
 21
40.14588075296433
 31
0.0
  0
LINE
  5
248
330
244
100
AcDbEntity
  8
notes
  6
Continuous
 62
     0
370
    -2
100
AcDbLine
 10
174.5531534912216
 20
40.14588075296433
 30
0.0
 11
132.550789740425
 21
40.14588075296433
 31
0.0
  0
INSERT
  5
249
330
244
100
AcDbEntity
  8
notes
 62
     0
370
    -2
100
AcDbBlockReference
  2
_DOT
 10
178.5529093505966
 20
40.14588075296433
 30
0.0
 41
3.999755859375
 42
3.999755859375
 43
3.999755859375
  0
INSERT
  5
24A
330
244
100
AcDbEntity
  8
notes
 62
     0
370
    -2
100
AcDbBlockReference
  2
_DOT
 10
128.55103388105
 20
40.14588075296433
 30
0.0
 41
3.999755859375
 42
3.999755859375
 43
3.999755859375
 50
180.0
  0
MTEXT
  5
24B
330
244
100
AcDbEntity
  8
notes
  6
Continuous
 62
     0
370
     5
100
AcDbMText
 10
153.5519716158233
 20
14.19535058593738
 30
0.0
 40
24.4326171875
 41
0.0
 46
0.0
 71
     5
 72
     1
  1
\A1;φ50
  7
ＭＳ ゴシック
 73
     1
 44
1.0
  0
POINT
  5
24C
330
244
100
AcDbEntity
  8
Defpoints
 62
     0
100
AcDbPoint
 10
178.5529093505966
 20
122.0223581715268
 30
0.0
  0
POINT
  5
24D
330
244
100
AcDbEntity
  8
Defpoints
 62
     0
100
AcDbPoint
 10
128.55103388105
 20
122.0223581715268
 30
0.0
  0
POINT
  5
24E
330
244
100
AcDbEntity
  8
Defpoints
 62
     0
100
AcDbPoint
 10
128.55103388105
 20
40.14588075296433
 30
0.0
  0
ENDBLK
  5
24F
330
244
100
AcDbEntity
  8
0
100
AcDbBlockEnd
  0
BLOCK
  5
252
330
251
100
AcDbEntity
  8
0
100
AcDbBlockBegin
  2
*D25
 70
     1
 10
0.0
 20
0.0
 30
0.0
  3
*D25
  1

  0
LINE
  5
253
330
251
100
AcDbEntity
  8
notes
  6
Continuous
 62
     0
370
    -2
100
AcDbLine
 10
174.3027279258795
 20
88.52234747897683
 30
0.0
 11
174.3027279258795
 21
69.75680149091966
 31
0.0
  0
LINE
  5
254
330
251
100
AcDbEntity
  8
notes
  6
Continuous
 62
     0
370
    -2
100
AcDbLine
 10
132.8010392273254
 20
88.52234747897683
 30
0.0
 11
132.8010392273254
 21
69.75680149091966
 31
0.0
  0
LINE
  5
255
330
251
100
AcDbEntity
  8
notes
  6
Continuous
 62
     0
370
    -2
100
AcDbLine
 10
170.3029720665045
 20
69.75680149091966
 30
0.0
 11
136.8007950867004
 21
69.75680149091966
 31
0.0
  0
INSERT
  5
256
330
251
100
AcDbEntity
  8
notes
 62
     0
370
    -2
100
AcDbBlockReference
  2
_DOT
 10
174.3027279258795
 20
69.75680149091966
 30
0.0
 41
3.999755859375
 42
3.999755859375
 43
3.999755859375
  0
INSERT
  5
257
330
251
100
AcDbEntity
  8
notes
 62
     0
370
    -2
100
AcDbBlockReference
  2
_DOT
 10
132.8010392273254
 20
69.75680149091966
 30
0.0
 41
3.999755859375
 42
3.999755859375
 43
3.999755859375
 50
180.0
  0
MTEXT
  5
258
330
251
100
AcDbEntity
  8
notes
  6
Continuous
 62
     0
370
     5
100
AcDbMText
 10
60.48932000196316
 20
83.3931221850039
 30
0.0
 40
24.4326171875
 41
0.0
 46
0.0
 71
     5
 72
     1
  1
\A1;G1 1/4"
  7
ＭＳ ゴシック
 73
     1
 44
1.0
  0
POINT
  5
259
330
251
100
AcDbEntity
  8
Defpoints
 62
     0
100
AcDbPoint
 10
174.3027279258795
 20
113.5223474789768
 30
0.0
  0
POINT
  5
25A
330
251
100
AcDbEntity
  8
Defpoints
 62
     0
100
AcDbPoint
 10
132.8010392273254
 20
113.5223474789768
 30
0.0
  0
POINT
  5
25B
330
251
100
AcDbEntity
  8
Defpoints
 62
     0
100
AcDbPoint
 10
132.8010392273254
 20
69.75680149091966
 30
0.0
  0
ENDBLK
  5
25C
330
251
100
AcDbEntity
  8
0
100
AcDbBlockEnd
  0
BLOCK
  5
317
330
316
100
AcDbEntity
  8
0
100
AcDbBlockBegin
  2
*D26
 70
     1
 10
0.0
 20
0.0
 30
0.0
  3
*D26
  1

  0
LINE
  5
319
330
316
100
AcDbEntity
  8
notes
  6
Continuous
 62
     0
370
    -2
100
AcDbLine
 10
607.1002046477606
 20
967.1933017521346
 30
0.0
 11
607.1002046477606
 21
992.6785874339603
 31
0.0
  0
LINE
  5
31A
330
316
100
AcDbEntity
  8
notes
  6
Continuous
 62
     0
370
    -2
100
AcDbLine
 10
535.1001944259315
 20
967.2513413015422
 30
0.0
 11
535.1001944259315
 21
992.6785874339603
 31
0.0
  0
LINE
  5
31B
330
316
100
AcDbEntity
  8
notes
  6
Continuous
 62
     0
370
    -2
100
AcDbLine
 10
603.1004487883856
 20
992.6785874339603
 30
0.0
 11
539.0999502853065
 21
992.6785874339603
 31
0.0
  0
INSERT
  5
31C
330
316
100
AcDbEntity
  8
notes
 62
     0
370
    -2
100
AcDbBlockReference
  2
_DOT
 10
607.1002046477606
 20
992.6785874339603
 30
0.0
 41
3.999755859375
 42
3.999755859375
 43
3.999755859375
  0
INSERT
  5
31D
330
316
100
AcDbEntity
  8
notes
 62
     0
370
    -2
100
AcDbBlockReference
  2
_DOT
 10
535.1001944259315
 20
992.6785874339603
 30
0.0
 41
3.999755859375
 42
3.999755859375
 43
3.999755859375
 50
180.0
  0
MTEXT
  5
31E
330
316
100
AcDbEntity
  8
notes
  6
Continuous
 62
     0
370
     5
100
AcDbMText
 10
571.100199536846
 20
1013.165848092139
 30
0.0
 40
24.4326171875
 41
0.0
 46
0.0
 71
     5
 72
     1
  1
\A1;φ72
  7
ＭＳ ゴシック
 73
     1
 44
1.0
  0
POINT
  5
31F
330
316
100
AcDbEntity
  8
Defpoints
 62
     0
100
AcDbPoint
 10
607.1002046477606
 20
942.1933017521346
 30
0.0
  0
POINT
  5
320
330
316
100
AcDbEntity
  8
Defpoints
 62
     0
100
AcDbPoint
 10
535.1001944259315
 20
942.2513413015422
 30
0.0
  0
POINT
  5
321
330
316
100
AcDbEntity
  8
Defpoints
 62
     0
100
AcDbPoint
 10
535.1001944259315
 20
992.6785874339603
 30
0.0
  0
ENDBLK
  5
318
330
316
100
AcDbEntity
  8
0
100
AcDbBlockEnd
  0
BLOCK
  5
323
330
322
100
AcDbEntity
  8
0
100
AcDbBlockBegin
  2
*D27
 70
     1
 10
0.0
 20
0.0
 30
0.0
  3
*D27
  1

  0
LINE
  5
325
330
322
100
AcDbEntity
  8
notes
  6
Continuous
 62
     0
370
    -2
100
AcDbLine
 10
514.6489853597668
 20
905.2133074353314
 30
0.0
 11
470.2779176097101
 21
905.2133074353314
 31
0.0
  0
LINE
  5
326
330
322
100
AcDbEntity
  8
notes
  6
Continuous
 62
     0
370
    -2
100
AcDbLine
 10
514.4996708412418
 20
936.1939570879977
 30
0.0
 11
470.2779176097101
 21
936.1939570879977
 31
0.0
  0
LINE
  5
327
330
322
100
AcDbEntity
  8
notes
  6
Continuous
 62
     0
370
    -2
100
AcDbLine
 10
470.2779176097101
 20
909.2130632947064
 30
0.0
 11
470.2779176097101
 21
932.1942012286227
 31
0.0
  0
INSERT
  5
328
330
322
100
AcDbEntity
  8
notes
 62
     0
370
    -2
100
AcDbBlockReference
  2
_DOT
 10
470.2779176097101
 20
905.2133074353314
 30
0.0
 41
3.999755859375
 42
3.999755859375
 43
3.999755859375
 50
270.0
  0
INSERT
  5
329
330
322
100
AcDbEntity
  8
notes
 62
     0
370
    -2
100
AcDbBlockReference
  2
_DOT
 10
470.2779176097101
 20
936.1939570879977
 30
0.0
 41
3.999755859375
 42
3.999755859375
 43
3.999755859375
 50
90.0
  0
MTEXT
  5
32A
330
322
100
AcDbEntity
  8
notes
  6
Continuous
 62
     0
370
     5
100
AcDbMText
 10
445.0736359984767
 20
920.7036322616646
 30
0.0
 40
24.4326171875
 41
0.0
 46
0.0
 71
     5
 72
     1
  1
\A1;MAX.50
  7
ＭＳ ゴシック
 11
0.0
 21
1.0
 31
0.0
 73
     1
 44
1.0
  0
POINT
  5
32B
330
322
100
AcDbEntity
  8
Defpoints
 62
     0
100
AcDbPoint
 10
539.6489853597668
 20
905.2133074353314
 30
0.0
  0
POINT
  5
32C
330
322
100
AcDbEntity
  8
Defpoints
 62
     0
100
AcDbPoint
 10
539.4996708412418
 20
936.1939570879977
 30
0.0
  0
POINT
  5
32D
330
322
100
AcDbEntity
  8
Defpoints
 62
     0
100
AcDbPoint
 10
470.2779176097101
 20
936.1939570879977
 30
0.0
  0
ENDBLK
  5
324
330
322
100
AcDbEntity
  8
0
100
AcDbBlockEnd
  0
BLOCK
  5
32F
330
32E
100
AcDbEntity
  8
0
100
AcDbBlockBegin
  2
*D28
 70
     1
 10
0.0
 20
0.0
 30
0.0
  3
*D28
  1

  0
LINE
  5
331
330
32E
100
AcDbEntity
  8
notes
  6
Continuous
 62
     0
370
    -2
100
AcDbLine
 10
627.5533607986126
 20
905.2133074353314
 30
0.0
 11
682.1653622408649
 21
905.2133074353314
 31
0.0
  0
LINE
  5
332
330
32E
100
AcDbEntity
  8
notes
  6
Continuous
 62
     0
370
    -2
100
AcDbLine
 10
621.1011423825348
 20
880.2129369972004
 30
0.0
 11
682.1653622408649
 21
880.2129369972004
 31
0.0
  0
LINE
  5
333
330
32E
100
AcDbEntity
  8
notes
  6
Continuous
 62
     0
370
    -2
100
AcDbLine
 10
682.1653622408649
 20
901.2135515759564
 30
0.0
 11
682.1653622408649
 21
884.2126928565754
 31
0.0
  0
INSERT
  5
334
330
32E
100
AcDbEntity
  8
notes
 62
     0
370
    -2
100
AcDbBlockReference
  2
_DOT
 10
682.1653622408649
 20
905.2133074353314
 30
0.0
 41
3.999755859375
 42
3.999755859375
 43
3.999755859375
 50
90.0
  0
INSERT
  5
335
330
32E
100
AcDbEntity
  8
notes
 62
     0
370
    -2
100
AcDbBlockReference
  2
_DOT
 10
682.1653622408649
 20
880.2129369972004
 30
0.0
 41
3.999755859375
 42
3.999755859375
 43
3.999755859375
 50
270.0
  0
MTEXT
  5
336
330
32E
100
AcDbEntity
  8
notes
  6
Continuous
 62
     0
370
     5
100
AcDbMText
 10
666.4311460553827
 20
934.2871629233946
 30
0.0
 40
24.4326171875
 41
0.0
 46
0.0
 71
     5
 72
     1
  1
\A1;25
  7
ＭＳ ゴシック
 11
0.0
 21
1.0
 31
0.0
 73
     1
 44
1.0
  0
POINT
  5
337
330
32E
100
AcDbEntity
  8
Defpoints
 62
     0
100
AcDbPoint
 10
602.5533607986126
 20
905.2133074353314
 30
0.0
  0
POINT
  5
338
330
32E
100
AcDbEntity
  8
Defpoints
 62
     0
100
AcDbPoint
 10
596.1011423825348
 20
880.2129369972004
 30
0.0
  0
POINT
  5
339
330
32E
100
AcDbEntity
  8
Defpoints
 62
     0
100
AcDbPoint
 10
682.1653622408649
 20
880.2129369972004
 30
0.0
  0
ENDBLK
  5
330
330
32E
100
AcDbEntity
  8
0
100
AcDbBlockEnd
  0
BLOCK
  5
33B
330
33A
100
AcDbEntity
  8
0
100
AcDbBlockBegin
  2
*D29
 70
     1
 10
0.0
 20
0.0
 30
0.0
  3
*D29
  1

  0
LINE
  5
33D
330
33A
100
AcDbEntity
  8
notes
  6
Continuous
 62
     0
370
    -2
100
AcDbLine
 10
615.3500683211332
 20
870.212737981733
 30
0.0
 11
682.1653622408649
 21
870.212737981733
 31
0.0
  0
LINE
  5
33E
330
33A
100
AcDbEntity
  8
notes
  6
Continuous
 62
     0
370
    -2
100
AcDbLine
 10
621.1011423825348
 20
880.2129369972004
 30
0.0
 11
682.1653622408649
 21
880.2129369972004
 31
0.0
  0
LINE
  5
33F
330
33A
100
AcDbEntity
  8
notes
  6
Continuous
 62
     0
370
    -2
100
AcDbLine
 10
682.1653622408649
 20
874.212493841108
 30
0.0
 11
682.1653622408649
 21
876.2131811378254
 31
0.0
  0
INSERT
  5
340
330
33A
100
AcDbEntity
  8
notes
 62
     0
370
    -2
100
AcDbBlockReference
  2
_DOT
 10
682.1653622408649
 20
870.212737981733
 30
0.0
 41
3.999755859375
 42
3.999755859375
 43
3.999755859375
 50
270.0
  0
INSERT
  5
341
330
33A
100
AcDbEntity
  8
notes
 62
     0
370
    -2
100
AcDbBlockReference
  2
_DOT
 10
682.1653622408649
 20
880.2129369972004
 30
0.0
 41
3.999755859375
 42
3.999755859375
 43
3.999755859375
 50
90.0
  0
MTEXT
  5
342
330
33A
100
AcDbEntity
  8
notes
  6
Continuous
 62
     0
370
     5
100
AcDbMText
 10
668.4491146822711
 20
834.1711369410727
 30
0.0
 40
24.4326171875
 41
0.0
 46
0.0
 71
     5
 72
     1
  1
\A1;10
  7
ＭＳ ゴシック
 11
0.0
 21
1.0
 31
0.0
 73
     1
 44
1.0
  0
POINT
  5
343
330
33A
100
AcDbEntity
  8
Defpoints
 62
     0
100
AcDbPoint
 10
590.3500683211332
 20
870.212737981733
 30
0.0
  0
POINT
  5
344
330
33A
100
AcDbEntity
  8
Defpoints
 62
     0
100
AcDbPoint
 10
596.1011423825348
 20
880.2129369972004
 30
0.0
  0
POINT
  5
345
330
33A
100
AcDbEntity
  8
Defpoints
 62
     0
100
AcDbPoint
 10
682.1653622408649
 20
880.2129369972004
 30
0.0
  0
ENDBLK
  5
33C
330
33A
100
AcDbEntity
  8
0
100
AcDbBlockEnd
  0
BLOCK
  5
347
330
346
100
AcDbEntity
  8
0
100
AcDbBlockBegin
  2
*D30
 70
     1
 10
0.0
 20
0.0
 30
0.0
  3
*D30
  1

  0
LINE
  5
349
330
346
100
AcDbEntity
  8
notes
  6
Continuous
 62
     0
370
    -2
100
AcDbLine
 10
596.1011423825348
 20
855.2129369972004
 30
0.0
 11
596.1011423825348
 21
798.3364595786379
 31
0.0
  0
LINE
  5
34A
330
346
100
AcDbEntity
  8
notes
  6
Continuous
 62
     0
370
    -2
100
AcDbLine
 10
546.0992669129882
 20
855.2129369972004
 30
0.0
 11
546.0992669129882
 21
798.3364595786379
 31
0.0
  0
LINE
  5
34B
330
346
100
AcDbEntity
  8
notes
  6
Continuous
 62
     0
370
    -2
100
AcDbLine
 10
592.1013865231598
 20
798.3364595786379
 30
0.0
 11
550.0990227723632
 21
798.3364595786379
 31
0.0
  0
INSERT
  5
34C
330
346
100
AcDbEntity
  8
notes
 62
     0
370
    -2
100
AcDbBlockReference
  2
_DOT
 10
596.1011423825348
 20
798.3364595786379
 30
0.0
 41
3.999755859375
 42
3.999755859375
 43
3.999755859375
  0
INSERT
  5
34D
330
346
100
AcDbEntity
  8
notes
 62
     0
370
    -2
100
AcDbBlockReference
  2
_DOT
 10
546.0992669129882
 20
798.3364595786379
 30
0.0
 41
3.999755859375
 42
3.999755859375
 43
3.999755859375
 50
180.0
  0
MTEXT
  5
34E
330
346
100
AcDbEntity
  8
notes
  6
Continuous
 62
     0
370
     5
100
AcDbMText
 10
571.1002046477606
 20
772.385929411611
 30
0.0
 40
24.4326171875
 41
0.0
 46
0.0
 71
     5
 72
     1
  1
\A1;φ50
  7
ＭＳ ゴシック
 73
     1
 44
1.0
  0
POINT
  5
34F
330
346
100
AcDbEntity
  8
Defpoints
 62
     0
100
AcDbPoint
 10
596.1011423825348
 20
880.2129369972004
 30
0.0
  0
POINT
  5
350
330
346
100
AcDbEntity
  8
Defpoints
 62
     0
100
AcDbPoint
 10
546.0992669129882
 20
880.2129369972004
 30
0.0
  0
POINT
  5
351
330
346
100
AcDbEntity
  8
Defpoints
 62
     0
100
AcDbPoint
 10
546.0992669129882
 20
798.3364595786379
 30
0.0
  0
ENDBLK
  5
348
330
346
100
AcDbEntity
  8
0
100
AcDbBlockEnd
  0
BLOCK
  5
353
330
352
100
AcDbEntity
  8
0
100
AcDbBlockBegin
  2
*D31
 70
     1
 10
0.0
 20
0.0
 30
0.0
  3
*D31
  1

  0
LINE
  5
355
330
352
100
AcDbEntity
  8
notes
  6
Continuous
 62
     0
370
    -2
100
AcDbLine
 10
591.8509609578177
 20
846.7129263046504
 30
0.0
 11
591.8509609578177
 21
827.9473803165934
 31
0.0
  0
LINE
  5
356
330
352
100
AcDbEntity
  8
notes
  6
Continuous
 62
     0
370
    -2
100
AcDbLine
 10
550.3492722592637
 20
846.7129263046504
 30
0.0
 11
550.3492722592637
 21
827.9473803165934
 31
0.0
  0
LINE
  5
357
330
352
100
AcDbEntity
  8
notes
  6
Continuous
 62
     0
370
    -2
100
AcDbLine
 10
587.8512050984427
 20
827.9473803165934
 30
0.0
 11
554.3490281186387
 21
827.9473803165934
 31
0.0
  0
INSERT
  5
358
330
352
100
AcDbEntity
  8
notes
 62
     0
370
    -2
100
AcDbBlockReference
  2
_DOT
 10
591.8509609578177
 20
827.9473803165934
 30
0.0
 41
3.999755859375
 42
3.999755859375
 43
3.999755859375
  0
INSERT
  5
359
330
352
100
AcDbEntity
  8
notes
 62
     0
370
    -2
100
AcDbBlockReference
  2
_DOT
 10
550.3492722592637
 20
827.9473803165934
 30
0.0
 41
3.999755859375
 42
3.999755859375
 43
3.999755859375
 50
180.0
  0
MTEXT
  5
35A
330
352
100
AcDbEntity
  8
notes
  6
Continuous
 62
     0
370
     5
100
AcDbMText
 10
478.0375530339006
 20
841.5837010106775
 30
0.0
 40
24.4326171875
 41
0.0
 46
0.0
 71
     5
 72
     1
  1
\A1;G1 1/4"
  7
ＭＳ ゴシック
 73
     1
 44
1.0
  0
POINT
  5
35B
330
352
100
AcDbEntity
  8
Defpoints
 62
     0
100
AcDbPoint
 10
591.8509609578177
 20
871.7129263046504
 30
0.0
  0
POINT
  5
35C
330
352
100
AcDbEntity
  8
Defpoints
 62
     0
100
AcDbPoint
 10
550.3492722592637
 20
871.7129263046504
 30
0.0
  0
POINT
  5
35D
330
352
100
AcDbEntity
  8
Defpoints
 62
     0
100
AcDbPoint
 10
550.3492722592637
 20
827.9473803165934
 30
0.0
  0
ENDBLK
  5
354
330
352
100
AcDbEntity
  8
0
100
AcDbBlockEnd
  0
BLOCK
  5
368
330
367
100
AcDbEntity
  8
0
100
AcDbBlockBegin
  2
*D32
 70
     1
 10
0.0
 20
0.0
 30
0.0
  3
*D32
  1

  0
LINE
  5
36A
330
367
100
AcDbEntity
  8
notes
  6
Continuous
 62
     0
370
    -2
100
AcDbLine
 10
1477.100784958549
 20
1444.433853643241
 30
0.0
 11
1457.100784958549
 21
1444.433853643241
 31
0.0
  0
LINE
  5
36B
330
367
100
AcDbEntity
  8
notes
  6
Continuous
 62
     0
370
    -2
100
AcDbLine
 10
1477.100784958549
 20
1534.433853643241
 30
0.0
 11
1457.100784958549
 21
1534.433853643241
 31
0.0
  0
LINE
  5
36C
330
367
100
AcDbEntity
  8
notes
  6
Continuous
 62
     0
370
    -2
100
AcDbLine
 10
1457.100784958549
 20
1448.433609502616
 30
0.0
 11
1457.100784958549
 21
1530.434097783866
 31
0.0
  0
INSERT
  5
36D
330
367
100
AcDbEntity
  8
notes
 62
     0
370
    -2
100
AcDbBlockReference
  2
_DOT
 10
1457.100784958549
 20
1444.433853643241
 30
0.0
 41
3.999755859375
 42
3.999755859375
 43
3.999755859375
 50
270.0
  0
INSERT
  5
36E
330
367
100
AcDbEntity
  8
notes
 62
     0
370
    -2
100
AcDbBlockReference
  2
_DOT
 10
1457.100784958549
 20
1534.433853643241
 30
0.0
 41
3.999755859375
 42
3.999755859375
 43
3.999755859375
 50
90.0
  0
MTEXT
  5
36F
330
367
100
AcDbEntity
  8
notes
  6
Continuous
 62
     0
370
     5
100
AcDbMText
 10
1435.397785417636
 20
1646.994330237626
 30
0.0
 40
24.4326171875
 41
0.0
 46
0.0
 71
     5
 72
     1
  1
\A1;90(深さ)
  7
ＭＳ ゴシック
 11
0.0
 21
1.0
 31
0.0
 73
     1
 44
1.0
  0
POINT
  5
370
330
367
100
AcDbEntity
  8
Defpoints
 62
     0
100
AcDbPoint
 10
1452.100784958549
 20
1444.433853643241
 30
0.0
  0
POINT
  5
371
330
367
100
AcDbEntity
  8
Defpoints
 62
     0
100
AcDbPoint
 10
1452.100784958549
 20
1534.433853643241
 30
0.0
  0
POINT
  5
372
330
367
100
AcDbEntity
  8
Defpoints
 62
     0
100
AcDbPoint
 10
1457.100784958549
 20
1534.433853643241
 30
0.0
  0
ENDBLK
  5
369
330
367
100
AcDbEntity
  8
0
100
AcDbBlockEnd
  0
BLOCK
  5
374
330
373
100
AcDbEntity
  8
0
100
AcDbBlockBegin
  2
*D33
 70
     1
 10
0.0
 20
0.0
 30
0.0
  3
*D33
  1

  0
LINE
  5
376
330
373
100
AcDbEntity
  8
notes
  6
Continuous
 62
     0
370
    -2
100
AcDbLine
 10
386.1019961262846
 20
1384.426448658028
 30
0.0
 11
386.1019961262846
 21
1259.426448658028
 31
0.0
  0
LINE
  5
377
330
373
100
AcDbEntity
  8
notes
  6
Continuous
 62
     0
370
    -2
100
AcDbLine
 10
876.1019961262846
 20
1384.426448658028
 30
0.0
 11
876.1019961262846
 21
1259.426448658028
 31
0.0
  0
LINE
  5
378
330
373
100
AcDbEntity
  8
notes
  6
Continuous
 62
     0
370
    -2
100
AcDbLine
 10
390.1017519856596
 20
1259.426448658028
 30
0.0
 11
872.1022402669096
 21
1259.426448658028
 31
0.0
  0
INSERT
  5
379
330
373
100
AcDbEntity
  8
notes
 62
     0
370
    -2
100
AcDbBlockReference
  2
_DOT
 10
386.1019961262846
 20
1259.426448658028
 30
0.0
 41
3.999755859375
 42
3.999755859375
 43
3.999755859375
 50
180.0
  0
INSERT
  5
37A
330
373
100
AcDbEntity
  8
notes
 62
     0
370
    -2
100
AcDbBlockReference
  2
_DOT
 10
876.1019961262846
 20
1259.426448658028
 30
0.0
 41
3.999755859375
 42
3.999755859375
 43
3.999755859375
  0
MTEXT
  5
37B
330
373
100
AcDbEntity
  8
notes
  6
Continuous
 62
     0
370
     5
100
AcDbMText
 10
625.8502029898418
 20
1230.713467515115
 30
0.0
 40
24.4326171875
 41
0.0
 46
0.0
 71
     5
 72
     1
  1
\A1;490
  7
ＭＳ ゴシック
 73
     1
 44
1.0
  0
POINT
  5
37C
330
373
100
AcDbEntity
  8
Defpoints
 62
     0
100
AcDbPoint
 10
386.1019961262846
 20
1409.426448658028
 30
0.0
  0
POINT
  5
37D
330
373
100
AcDbEntity
  8
Defpoints
 62
     0
100
AcDbPoint
 10
876.1019961262846
 20
1409.426448658028
 30
0.0
  0
POINT
  5
37E
330
373
100
AcDbEntity
  8
Defpoints
 62
     0
100
AcDbPoint
 10
876.1019961262846
 20
1259.426448658028
 30
0.0
  0
ENDBLK
  5
375
330
373
100
AcDbEntity
  8
0
100
AcDbBlockEnd
  0
BLOCK
  5
381
330
380
100
AcDbEntity
  8
0
100
AcDbBlockBegin
  2
*D34
 70
     1
 10
0.0
 20
0.0
 30
0.0
  3
*D34
  1

  0
LINE
  5
383
330
380
100
AcDbEntity
  8
notes
  6
Continuous
 62
     0
370
    -2
100
AcDbLine
 10
1456.100784958549
 20
1389.433853643241
 30
0.0
 11
1456.100784958549
 21
1202.908264810666
 31
0.0
  0
LINE
  5
384
330
380
100
AcDbEntity
  8
notes
  6
Continuous
 62
     0
370
    -2
100
AcDbLine
 10
1676.100784958548
 20
1389.433853643241
 30
0.0
 11
1676.100784958548
 21
1202.908264810666
 31
0.0
  0
LINE
  5
385
330
380
100
AcDbEntity
  8
notes
  6
Continuous
 62
     0
370
    -2
100
AcDbLine
 10
1460.100540817924
 20
1202.908264810666
 30
0.0
 11
1672.101029099173
 21
1202.908264810666
 31
0.0
  0
INSERT
  5
386
330
380
100
AcDbEntity
  8
notes
 62
     0
370
    -2
100
AcDbBlockReference
  2
_DOT
 10
1456.100784958549
 20
1202.908264810666
 30
0.0
 41
3.999755859375
 42
3.999755859375
 43
3.999755859375
 50
180.0
  0
INSERT
  5
387
330
380
100
AcDbEntity
  8
notes
 62
     0
370
    -2
100
AcDbBlockReference
  2
_DOT
 10
1676.100784958548
 20
1202.908264810666
 30
0.0
 41
3.999755859375
 42
3.999755859375
 43
3.999755859375
  0
MTEXT
  5
388
330
380
100
AcDbEntity
  8
notes
  6
Continuous
 62
     0
370
     5
100
AcDbMText
 10
1566.100784958549
 20
1178.428271043719
 30
0.0
 40
24.4326171875
 41
0.0
 46
0.0
 71
     5
 72
     1
  1
\A1;220
  7
ＭＳ ゴシック
 73
     1
 44
1.0
  0
POINT
  5
389
330
380
100
AcDbEntity
  8
Defpoints
 62
     0
100
AcDbPoint
 10
1456.100784958549
 20
1414.433853643241
 30
0.0
  0
POINT
  5
38A
330
380
100
AcDbEntity
  8
Defpoints
 62
     0
100
AcDbPoint
 10
1676.100784958548
 20
1414.433853643241
 30
0.0
  0
POINT
  5
38B
330
380
100
AcDbEntity
  8
Defpoints
 62
     0
100
AcDbPoint
 10
1676.100784958548
 20
1202.908264810666
 30
0.0
  0
ENDBLK
  5
382
330
380
100
AcDbEntity
  8
0
100
AcDbBlockEnd
  0
BLOCK
  5
38E
330
38D
100
AcDbEntity
  8
0
100
AcDbBlockBegin
  2
*D35
 70
     1
 10
0.0
 20
0.0
 30
0.0
  3
*D35
  1

  0
LINE
  5
390
330
38D
100
AcDbEntity
  8
notes
  6
Continuous
 62
     0
370
    -2
100
AcDbLine
 10
1311.100784958549
 20
1389.433853643241
 30
0.0
 11
1311.100784958549
 21
1118.183625067263
 31
0.0
  0
LINE
  5
391
330
38D
100
AcDbEntity
  8
notes
  6
Continuous
 62
     0
370
    -2
100
AcDbLine
 10
1676.100784958548
 20
1389.433853643241
 30
0.0
 11
1676.100784958548
 21
1118.183625067263
 31
0.0
  0
LINE
  5
392
330
38D
100
AcDbEntity
  8
notes
  6
Continuous
 62
     0
370
    -2
100
AcDbLine
 10
1315.100540817924
 20
1118.183625067263
 30
0.0
 11
1672.101029099173
 21
1118.183625067263
 31
0.0
  0
INSERT
  5
393
330
38D
100
AcDbEntity
  8
notes
 62
     0
370
    -2
100
AcDbBlockReference
  2
_DOT
 10
1311.100784958549
 20
1118.183625067263
 30
0.0
 41
3.999755859375
 42
3.999755859375
 43
3.999755859375
 50
180.0
  0
INSERT
  5
394
330
38D
100
AcDbEntity
  8
notes
 62
     0
370
    -2
100
AcDbBlockReference
  2
_DOT
 10
1676.100784958548
 20
1118.183625067263
 30
0.0
 41
3.999755859375
 42
3.999755859375
 43
3.999755859375
  0
MTEXT
  5
395
330
38D
100
AcDbEntity
  8
notes
  6
Continuous
 62
     0
370
     5
100
AcDbMText
 10
1493.600784958549
 20
1086.662416012291
 30
0.0
 40
24.4326171875
 41
0.0
 46
0.0
 71
     5
 72
     1
  1
\A1;365
  7
ＭＳ ゴシック
 73
     1
 44
1.0
  0
POINT
  5
396
330
38D
100
AcDbEntity
  8
Defpoints
 62
     0
100
AcDbPoint
 10
1311.100784958549
 20
1414.433853643241
 30
0.0
  0
POINT
  5
397
330
38D
100
AcDbEntity
  8
Defpoints
 62
     0
100
AcDbPoint
 10
1676.100784958548
 20
1414.433853643241
 30
0.0
  0
POINT
  5
398
330
38D
100
AcDbEntity
  8
Defpoints
 62
     0
100
AcDbPoint
 10
1676.100784958548
 20
1118.183625067263
 30
0.0
  0
ENDBLK
  5
38F
330
38D
100
AcDbEntity
  8
0
100
AcDbBlockEnd
  0
BLOCK
  5
3D7
330
3D6
100
AcDbEntity
  8
0
100
AcDbBlockBegin
  2
*D37
 70
     1
 10
0.0
 20
0.0
 30
0.0
  3
*D37
  1

  0
LINE
  5
3D8
330
3D6
100
AcDbEntity
  8
template
  6
Continuous
 62
     0
370
    -2
100
AcDbLine
 10
33.00686071391582
 20
24.32133068605608
 30
0.0
 11
233.2466749459873
 21
171.8694050292606
 31
0.0
  0
MTEXT
  5
3D9
330
3D6
100
AcDbEntity
  8
template
  6
Continuous
 62
     0
370
     5
100
AcDbMText
 10
212.6160122050326
 20
178.0529460850782
 30
0.0
 40
24.4326171875
 41
0.0
 46
0.0
 71
     5
 72
     1
  1
\A1; 
  7
ＭＳ ゴシック
 11
0.8050501770577907
 21
0.5932067198028187
 31
0.0
 73
     1
 44
1.0
  0
INSERT
  5
3DA
330
3D6
100
AcDbEntity
  8
template
 62
     0
370
    -2
100
AcDbBlockReference
  2
_DOT
 10
29.78685655113804
 20
21.94864863270413
 30
0.0
 41
3.999755859375
 42
3.999755859375
 43
3.999755859375
 50
216.3848985276926
  0
POINT
  5
3DB
330
3D6
100
AcDbEntity
  8
Defpoints
 62
     0
100
AcDbPoint
 10
29.78685655113804
 20
21.94864863270413
 30
0.0
  0
POINT
  5
3DC
330
3D6
100
AcDbEntity
  8
Defpoints
 62
     0
100
AcDbPoint
 10
0.0
 20
0.0
 30
0.0
  0
ENDBLK
  5
3DD
330
3D6
100
AcDbEntity
  8
0
100
AcDbBlockEnd
  0
ENDSEC
  0
SECTION
  2
ENTITIES
  0
MTEXT
  5
12B
330
A
100
AcDbEntity
  8
template
 62
     7
390
1D
100
AcDbMText
 10
87.67543106588937
 20
346.479357656212
 30
0.0
 40
16.28841145833333
 41
0.0
 46
0.0
 71
     1
 72
     1
  1
品名
  7
ＭＳ ゴシック
 73
     1
 44
0.7828267384257843
  0
MTEXT
  5
12C
330
A
100
AcDbEntity
  8
template
 62
     7
390
1D
100
AcDbMText
 10
87.67543106588937
 20
261.479357656212
 30
0.0
 40
16.28841145833333
 41
0.0
 46
0.0
 71
     1
 72
     1
  1
仕様
  7
ＭＳ ゴシック
 73
     1
 44
0.7828267384257843
  0
MTEXT
  5
12D
330
A
100
AcDbEntity
  8
template
 62
     7
390
1D
100
AcDbMText
 10
140.6754310658894
 20
317.896896718712
 30
0.0
 40
24.4326171875
 41
0.0
 46
0.0
 71
     1
 72
     1
  1
手洗器 -SANICO,NEO-
  7
ＭＳ ゴシック
 73
     1
 44
0.7828267384257843
  0
LINE
  5
12E
330
A
100
AcDbEntity
  8
template
  6
Continuous
 62
     7
370
     5
390
1D
100
AcDbLine
 10
2030.675431065407
 20
269.8942795312119
 30
0.0
 11
80.67543106540734
 21
269.8942795312119
 31
0.0
  0
LWPOLYLINE
  5
12F
330
A
100
AcDbEntity
  8
template
  6
Continuous
 62
     7
370
     5
390
1D
100
AcDbPolyline
 90
        5
 70
   128
 43
0.0
 10
2030.67543106589
 20
2899.894279531211
 10
80.67543106588937
 20
2899.894279531211
 10
80.67543106588937
 20
99.89427953121185
 10
2030.67543106589
 20
99.89427953121185
 10
2030.67543106589
 20
2899.894279531211
  0
LINE
  5
130
330
A
100
AcDbEntity
  8
template
  6
Continuous
 62
     7
370
     5
390
1D
100
AcDbLine
 10
2030.675431065407
 20
354.8942795312119
 30
0.0
 11
80.67543106540734
 21
354.8942795312119
 31
0.0
  0
LINE
  5
131
330
A
100
AcDbEntity
  8
template
  6
Continuous
 62
     7
370
     5
390
1D
100
AcDbLine
 10
2030.67543106589
 20
184.8942795312119
 30
0.0
 11
1277.67543106589
 21
184.8942795312119
 31
0.0
  0
MTEXT
  5
132
330
A
100
AcDbEntity
  8
template
 62
     7
390
1D
100
AcDbMText
 10
80.67543106609264
 20
88.04045747435521
 30
0.0
 40
21.71788194444445
 41
0.0
 46
0.0
 71
     1
 72
     1
  1
110713SH
  7
ＭＳ ゴシック
 73
     1
 44
0.7828267384257843
  0
MTEXT
  5
133
330
A
100
AcDbEntity
  8
template
 62
     7
390
1D
100
AcDbMText
 10
1307.546837318149
 20
154.9838850579044
 30
0.0
 40
24.4326171875
 41
0.0
 46
0.0
 71
     1
 72
     1
  1
大洋金物株式会社 ティーフォルム事業部
  7
ＭＳ ゴシック
 73
     1
 44
0.7828267384257843
  0
INSERT
  5
134
330
A
100
AcDbEntity
  8
template
 62
     7
390
1D
100
AcDbBlockReference
  2
グループ
 10
1065.517806377782
 20
1482.056663018673
 30
0.0
  0
MTEXT
  5
135
330
A
100
AcDbEntity
  8
template
 62
     7
390
1D
100
AcDbMText
 10
1839.675431066148
 20
232.896896718712
 30
0.0
 40
24.4326171875
 41
0.0
 46
0.0
 71
     1
 72
     1
  1
1:10
  7
ＭＳ ゴシック
 73
     1
 44
0.7828267384257843
  0
MTEXT
  5
136
330
A
100
AcDbEntity
  8
template
 62
     7
390
1D
100
AcDbMText
 10
1786.675431066148
 20
261.479357656212
 30
0.0
 40
16.28841145833333
 41
0.0
 46
0.0
 71
     1
 72
     1
  1
縮尺
  7
ＭＳ ゴシック
 73
     1
 44
0.7828267384257843
  0
LINE
  5
137
330
A
100
AcDbEntity
  8
template
  6
Continuous
 62
     7
370
     5
390
1D
100
AcDbLine
 10
1779.675431066148
 20
184.8942795312119
 30
0.0
 11
1779.675431066148
 21
269.8942795312119
 31
0.0
  0
MTEXT
  5
138
330
A
100
AcDbEntity
  8
template
 62
     7
390
1D
100
AcDbMText
 10
1535.675431066148
 20
261.479357656212
 30
0.0
 40
16.28841145833333
 41
0.0
 46
0.0
 71
     1
 72
     1
  1
容量
  7
ＭＳ ゴシック
 73
     1
 44
0.7828267384257843
  0
MTEXT
  5
139
330
A
100
AcDbEntity
  8
template
 62
     7
390
1D
100
AcDbMText
 10
1588.675431066148
 20
232.896896718712
 30
0.0
 40
24.4326171875
 41
0.0
 46
0.0
 71
     1
 72
     1
  1
4L
  7
ＭＳ ゴシック
 73
     1
 44
0.7828267384257843
  0
LINE
  5
13A
330
A
100
AcDbEntity
  8
template
  6
Continuous
 62
     7
370
     5
390
1D
100
AcDbLine
 10
1528.675431066148
 20
184.8942795312119
 30
0.0
 11
1528.675431066148
 21
269.8942795312119
 31
0.0
  0
MTEXT
  5
13B
330
A
100
AcDbEntity
  8
template
 62
     7
390
1D
100
AcDbMText
 10
1284.675431066148
 20
346.479357656212
 30
0.0
 40
16.28841145833333
 41
0.0
 46
0.0
 71
     1
 72
     1
  1
品番
  7
ＭＳ ゴシック
 73
     1
 44
0.7828267384257843
  0
MTEXT
  5
13C
330
A
100
AcDbEntity
  8
template
 62
     7
390
1D
100
AcDbMText
 10
1284.675431066148
 20
261.479357656212
 30
0.0
 40
16.28841145833333
 41
0.0
 46
0.0
 71
     1
 72
     1
  1
重量
  7
ＭＳ ゴシック
 73
     1
 44
0.7828267384257843
  0
MTEXT
  5
13D
330
A
100
AcDbEntity
  8
template
 62
     7
390
1D
100
AcDbMText
 10
1337.675431066148
 20
317.896896718712
 30
0.0
 40
24.4326171875
 41
0.0
 46
0.0
 71
     1
 72
     1
  1
KUF70-0001
  7
ＭＳ ゴシック
 73
     1
 44
0.7828267384257843
  0
MTEXT
  5
13E
330
A
100
AcDbEntity
  8
template
 62
     7
390
1D
100
AcDbMText
 10
1337.675431066148
 20
232.896896718712
 30
0.0
 40
24.4326171875
 41
0.0
 46
0.0
 71
     1
 72
     1
  1
49kg
  7
ＭＳ ゴシック
 73
     1
 44
0.7828267384257843
  0
LINE
  5
13F
330
A
100
AcDbEntity
  8
template
  6
Continuous
 62
     7
370
     5
390
1D
100
AcDbLine
 10
1277.675431066148
 20
99.89427953121185
 30
0.0
 11
1277.675431066148
 21
354.8942795312119
 31
0.0
  0
MTEXT
  5
140
330
A
100
AcDbEntity
  8
template
 62
     7
390
1D
100
AcDbMText
 10
140.6754310658894
 20
232.896896718712
 30
0.0
 40
24.4326171875
 41
0.0
 46
0.0
 71
     1
 72
     1
  1
壁掛け,カウンタ ー置き/オーバーフローなし/\P排水金具,壁取付用ブラケット付属/大理石
  7
ＭＳ ゴシック
 73
     1
 44
1.130749733281688
  0
MTEXT
  5
141
330
A
100
AcDbEntity
  8
template
 62
     7
390
1D
100
AcDbMText
 10
1337.675431066148
 20
467.3379954174547
 30
0.0
 40
24.4326171875
 41
0.0
 46
84.03042875669344
 71
     1
 72
     1
  1
{KUF70-0001-002 ビアンコカララ \PKUF70-0001-003 ブラックマーブル}
  7
ＭＳ ゴシック
 73
     1
 44
1.304711230709641
1001
ACAD
1000
ACAD_MTEXT_DEFINED_HEIGHT_BEGIN
1070
    46
1040
84.03042875669344
1000
ACAD_MTEXT_DEFINED_HEIGHT_END
  0
LWPOLYLINE
  5
142
330
A
100
AcDbEntity
  8
template
  6
Continuous
 62
     7
370
     5
390
1D
100
AcDbPolyline
 90
        5
 70
   128
 43
0.0
 10
2030.67543106589
 20
2899.894279531211
 10
80.67543106588937
 20
2899.894279531211
 10
80.67543106588937
 20
99.89427953121185
 10
2030.67543106589
 20
99.89427953121185
 10
2030.67543106589
 20
2899.894279531211
  0
MTEXT
  5
144
330
A
100
AcDbEntity
  8
notes
 62
     7
390
1D
100
AcDbMText
 10
1365.766993029772
 20
2539.388013387541
 30
0.0
 40
24.4326171875
 41
0.0
 46
0.0
 71
     1
 72
     1
  1
カウンター切込寸法
  7
ＭＳ ゴシック
 73
     1
 44
0.7828267384257843
  0
MTEXT
  5
145
330
A
100
AcDbEntity
  8
notes
 62
     7
390
1D
100
AcDbMText
 10
382.2608048277598
 20
654.1817026046992
 30
0.0
 40
24.4326171875
 41
1301.814267882818
 46
0.0
 71
     1
 72
     1
  1
製品によって多少の寸法公差があります。必ず現物を合わせて取り付けやカウンターの切込を行ってください。\P壁取付用ブラケットを使うと、壁掛けとして設置することができます。
  7
ＭＳ ゴシック
 73
     1
 44
1.174240107638676
  0
DIMENSION
  5
146
330
A
100
AcDbEntity
  8
notes
  6
Continuous
 62
     7
370
     5
390
1D
100
AcDbDimension
  2
*D4
 10
901.126895322689
 20
2466.840218974249
 30
0.0
 11
631.1135474297662
 21
2484.056527567999
 31
0.0
 70
    32
 71
     5
 42
540.0266957858457
 73
     0
 74
     0
 75
     0
  3
tfrom線あり
100
AcDbAlignedDimension
 13
361.1001995368433
 23
2316.838090044601
 33
0.0
 14
901.126895322689
 24
2316.858285821423
 34
0.0
100
AcDbRotatedDimension
1001
ACAD
1000
DSTYLE
1002
{
1070
   279
1070
     2
1070
   340
1005
34
1070
   147
1040
5.0
1002
}
  0
DIMENSION
  5
147
330
A
100
AcDbEntity
  8
notes
  6
Continuous
 62
     7
370
     5
390
1D
100
AcDbDimension
  2
*D5
 10
746.12689532269
 20
2416.840218974249
 30
0.0
 11
823.6268953226895
 21
2434.056527567999
 31
0.0
 70
    32
 71
     5
 42
154.9999999999991
 73
     0
 74
     0
 75
     0
  3
tfrom線あり
100
AcDbAlignedDimension
 13
901.126895322689
 23
2316.858285821423
 33
0.0
 14
746.12689532269
 24
2267.358873587066
 34
0.0
100
AcDbRotatedDimension
1001
ACAD
1000
DSTYLE
1002
{
1070
   279
1070
     2
1070
   340
1005
34
1070
   147
1040
5.0
1002
}
  0
DIMENSION
  5
148
330
A
100
AcDbEntity
  8
notes
  6
Continuous
 62
     7
370
     5
390
1D
100
AcDbDimension
  2
*D6
 10
1287.901996126285
 20
2416.840076766465
 30
0.0
 11
1502.901996126284
 21
2434.056385360215
 31
0.0
 70
    32
 71
     5
 42
429.9999999999982
 73
     0
 74
     0
 75
     0
  3
tfrom線あり
100
AcDbAlignedDimension
 13
1717.901996126283
 23
2316.840076766465
 33
0.0
 14
1287.901996126285
 24
2316.840076766465
 34
0.0
100
AcDbRotatedDimension
1001
ACAD
1000
DSTYLE
1002
{
1070
   279
1070
     2
1070
   340
1005
34
1070
   147
1040
5.0
1002
}
  0
DIMENSION
  5
149
330
A
100
AcDbEntity
  8
notes
  6
Continuous
 62
     7
370
     5
390
1D
100
AcDbDimension
  2
*D7
 10
211.1001995368433
 20
2316.838090044601
 30
0.0
 11
193.8838909430933
 21
2106.838090044602
 31
0.0
 70
    32
 71
     5
 42
419.9999999999982
 73
     0
 74
     0
 75
     0
  3
tfrom線あり
100
AcDbAlignedDimension
 13
553.6929733490742
 23
1896.838090044603
 33
0.0
 14
361.1001995368433
 24
2316.838090044601
 34
0.0
 50
90.0
100
AcDbRotatedDimension
1001
ACAD
1000
DSTYLE
1002
{
1070
   279
1070
     2
1070
   340
1005
34
1070
   147
1040
5.0
1002
}
  0
DIMENSION
  5
14A
330
A
100
AcDbEntity
  8
notes
  6
Continuous
 62
     7
370
     5
390
1D
100
AcDbDimension
  2
*D8
 10
261.1001995368433
 20
2316.838090044601
 30
0.0
 11
243.8838909430933
 21
2126.838703401098
 31
0.0
 70
    32
 71
     5
 42
379.9987732870068
 73
     0
 74
     0
 75
     0
  3
tfrom線あり
100
AcDbAlignedDimension
 13
361.1214663137325
 23
1936.839316757594
 33
0.0
 14
361.1001995368433
 24
2316.838090044601
 34
0.0
 50
90.0
100
AcDbRotatedDimension
1001
ACAD
1000
DSTYLE
1002
{
1070
   279
1070
     2
1070
   340
1005
34
1070
   147
1040
5.0
1002
}
  0
DIMENSION
  5
14B
330
A
100
AcDbEntity
  8
notes
  6
Continuous
 62
     7
370
     5
390
1D
100
AcDbDimension
  2
*D32
 10
1457.100784958549
 20
1534.433853643241
 30
0.0
 11
1435.397785417636
 21
1646.994330237626
 31
0.0
 70
   160
 71
     5
 42
90.0
 73
     0
 74
     0
 75
     0
  3
tfrom線あり
100
AcDbAlignedDimension
 13
1452.100784958549
 23
1444.433853643241
 33
0.0
 14
1452.100784958549
 24
1534.433853643241
 34
0.0
 50
90.0
100
AcDbRotatedDimension
1001
ACAD
1000
DSTYLE
1002
{
1070
   279
1070
     2
1070
   340
1005
34
1070
     3
1000
<>(深さ)
1070
   174
1070
     0
1070
   147
1040
5.0
1002
}
  0
DIMENSION
  5
14C
330
A
100
AcDbEntity
  8
notes
  6
Continuous
 62
     7
370
     5
390
1D
100
AcDbDimension
  2
*D10
 10
1051.126895322689
 20
2316.857500323472
 30
0.0
 11
1033.910586728939
 21
2139.357500323473
 31
0.0
 70
    32
 71
     5
 42
354.9999999999982
 73
     0
 74
     0
 75
     0
  3
tfrom線あり
100
AcDbAlignedDimension
 13
903.0268953226896
 23
1961.857500323474
 33
0.0
 14
903.0268953226896
 24
2316.857500323472
 34
0.0
 50
90.0
100
AcDbRotatedDimension
1001
ACAD
1000
DSTYLE
1002
{
1070
   279
1070
     2
1070
   340
1005
34
1070
   147
1040
5.0
1002
}
  0
DIMENSION
  5
14D
330
A
100
AcDbEntity
  8
notes
  6
Continuous
 62
     7
370
     5
390
1D
100
AcDbDimension
  2
*D11
 10
1001.12689532269
 20
2246.858285821423
 30
0.0
 11
983.91058672894
 21
2281.858285821423
 31
0.0
 70
    32
 71
     5
 42
70.00000000000001
 73
     0
 74
     0
 75
     0
  3
tfrom線あり
100
AcDbAlignedDimension
 13
901.126895322689
 23
2316.858285821423
 33
0.0
 14
766.6274830883331
 24
2246.858285821423
 34
0.0
 50
90.0
100
AcDbRotatedDimension
1001
ACAD
1000
DSTYLE
1002
{
1070
   279
1070
     2
1070
   340
1005
34
1070
   147
1040
5.0
1002
}
  0
DIMENSION
  5
14E
330
A
100
AcDbEntity
  8
notes
  6
Continuous
 62
     7
370
     5
390
1D
100
AcDbDimension
  2
*D12
 10
1008.026895322691
 20
1534.433853643241
 30
0.0
 11
990.8105867289405
 21
1471.930151150635
 31
0.0
 70
    32
 71
     5
 42
125.0074049852133
 73
     0
 74
     0
 75
     0
  3
tfrom線あり
100
AcDbAlignedDimension
 13
876.1019961262846
 23
1409.426448658028
 33
0.0
 14
901.1001995368451
 24
1534.433853643241
 34
0.0
 50
90.0
100
AcDbRotatedDimension
1001
ACAD
1000
DSTYLE
1002
{
1070
   279
1070
     2
1070
   340
1005
34
1070
   147
1040
5.0
1002
}
  0
DIMENSION
  5
14F
330
A
100
AcDbEntity
  8
notes
  6
Continuous
 62
     7
370
     5
390
1D
100
AcDbDimension
  2
*D33
 10
876.1019961262846
 20
1259.426448658028
 30
0.0
 11
625.8502029898418
 21
1230.713467515115
 31
0.0
 70
   160
 71
     5
 42
490.0
 73
     0
 74
     0
 75
     0
  3
tfrom線あり
100
AcDbAlignedDimension
 13
386.1019961262846
 23
1409.426448658028
 33
0.0
 14
876.1019961262846
 24
1409.426448658028
 34
0.0
100
AcDbRotatedDimension
1001
ACAD
1000
DSTYLE
1002
{
1070
   279
1070
     2
1070
   340
1005
34
1070
   147
1040
5.0
1002
}
  0
DIMENSION
  5
150
330
A
100
AcDbEntity
  8
notes
  6
Continuous
 62
     7
370
     5
390
1D
100
AcDbDimension
  2
*D14
 10
361.1001995368442
 20
1309.426448658029
 30
0.0
 11
466.1001995368451
 21
1326.642757251779
 31
0.0
 70
   160
 71
     5
 42
210.0000000000018
 73
     0
 74
     0
 75
     0
  3
tfrom線あり
100
AcDbAlignedDimension
 13
571.100199536846
 23
1414.433853643241
 33
0.0
 14
361.1001995368442
 24
1534.433853643241
 34
0.0
100
AcDbRotatedDimension
1001
ACAD
1000
DSTYLE
1002
{
1070
   279
1070
     2
1070
   340
1005
34
1070
   147
1040
5.0
1002
}
  0
DIMENSION
  5
151
330
A
100
AcDbEntity
  8
notes
  6
Continuous
 62
     7
370
     5
390
1D
100
AcDbDimension
  2
*D34
 10
1676.100784958548
 20
1202.908264810666
 30
0.0
 11
1566.100784958549
 21
1178.428271043719
 31
0.0
 70
   160
 71
     5
 42
219.9999999999991
 73
     0
 74
     0
 75
     0
  3
tfrom線あり
100
AcDbAlignedDimension
 13
1456.100784958549
 23
1414.433853643241
 33
0.0
 14
1676.100784958548
 24
1414.433853643241
 34
0.0
100
AcDbRotatedDimension
1001
ACAD
1000
DSTYLE
1002
{
1070
   279
1070
     2
1070
   340
1005
34
1070
   147
1040
5.0
1002
}
  0
DIMENSION
  5
152
330
A
100
AcDbEntity
  8
notes
  6
Continuous
 62
     7
370
     5
390
1D
100
AcDbDimension
  2
*D16
 10
1872.804573286665
 20
2316.840076766465
 30
0.0
 11
1855.588264692915
 21
2181.840076766466
 31
0.0
 70
    32
 71
     5
 42
269.9999999999982
 73
     0
 74
     0
 75
     0
  3
tfrom線あり
100
AcDbAlignedDimension
 13
1717.901996126283
 23
2046.840076766467
 33
0.0
 14
1717.901996126283
 24
2316.840076766465
 34
0.0
 50
90.0
100
AcDbRotatedDimension
1001
ACAD
1000
DSTYLE
1002
{
1070
   279
1070
     2
1070
   340
1005
34
1070
   147
1040
5.0
1002
}
  0
DIMENSION
  5
153
330
A
100
AcDbEntity
  8
notes
  6
Continuous
 62
     7
370
     5
390
1D
100
AcDbDimension
  2
*D35
 10
1676.100784958548
 20
1118.183625067263
 30
0.0
 11
1493.600784958549
 21
1086.662416012291
 31
0.0
 70
   160
 71
     5
 42
364.9999999999991
 73
     0
 74
     0
 75
     0
  3
tfrom線あり
100
AcDbAlignedDimension
 13
1311.100784958549
 23
1414.433853643241
 33
0.0
 14
1676.100784958548
 24
1414.433853643241
 34
0.0
100
AcDbRotatedDimension
1001
ACAD
1000
DSTYLE
1002
{
1070
   279
1070
     2
1070
   340
1005
34
1070
   147
1040
5.0
1002
}
  0
LINE
  5
154
330
A
100
AcDbEntity
  8
notes
  6
STYLE_12
 62
     7
370
     5
390
1D
100
AcDbLine
 10
601.1268953226909
 20
1424.433853643241
 30
0.0
 11
541.12689532269
 21
1424.433853643241
 31
0.0
  0
LINE
  5
155
330
A
100
AcDbEntity
  8
notes
  6
STYLE_12
 62
     7
370
    15
390
1D
100
AcDbLine
 10
1426.101996126285
 20
1444.433853643241
 30
0.0
 11
1426.101996126285
 21
1424.433853643241
 31
0.0
  0
SPLINE
  5
156
330
A
100
AcDbEntity
  8
notes
  6
STYLE_12
 62
     7
370
    15
390
1D
100
AcDbSpline
210
0.0
220
0.0
230
1.0
 70
     8
 71
     2
 72
     7
 73
     4
 74
     0
 42
0.000000001
 43
0.000001
 40
0.0
 40
0.0
 40
0.0
 40
1.0
 40
2.0
 40
2.0
 40
2.0
 10
1426.101996126285
 20
1444.433853643241
 30
0.0
 10
1350.734400518647
 20
1454.152746118298
 30
0.0
 10
1284.071512459957
 20
1518.162237108993
 30
0.0
 10
1265.201996126285
 20
1534.433853643241
 30
0.0
  0
SPLINE
  5
157
330
A
100
AcDbEntity
  8
notes
  6
STYLE_12
 62
     7
370
     5
390
1D
100
AcDbSpline
210
0.0
220
0.0
230
1.0
 70
     8
 71
     2
 72
     7
 73
     4
 74
     0
 42
0.000000001
 43
0.000001
 40
0.0
 40
0.0
 40
0.0
 40
1.0
 40
2.0
 40
2.0
 40
2.0
 10
601.1268953226909
 20
1444.433853643241
 30
0.0
 10
667.2368958520647
 20
1443.074096486554
 30
0.0
 10
740.784468804427
 20
1533.808594951158
 30
0.0
 10
762.0268953226905
 20
1534.433853643241
 30
0.0
  0
SPLINE
  5
158
330
A
100
AcDbEntity
  8
notes
  6
STYLE_12
 62
     7
370
     5
390
1D
100
AcDbSpline
210
0.0
220
0.0
230
1.0
 70
     8
 71
     2
 72
     7
 73
     4
 74
     0
 42
0.000000001
 43
0.000001
 40
0.0
 40
0.0
 40
0.0
 40
1.0
 40
2.0
 40
2.0
 40
2.0
 10
541.12689532269
 20
1444.433853643241
 30
0.0
 10
475.0168947933153
 20
1443.074096486554
 30
0.0
 10
401.4693218409539
 20
1533.808594951158
 30
0.0
 10
380.2268953226894
 20
1534.433853643241
 30
0.0
  0
LINE
  5
159
330
A
100
AcDbEntity
  8
notes
  6
STYLE_12
 62
     7
370
    15
390
1D
100
AcDbLine
 10
541.12689532269
 20
1444.433853643241
 30
0.0
 11
541.12689532269
 21
1424.433853643241
 31
0.0
  0
CIRCLE
  5
15A
330
A
100
AcDbEntity
  8
KUF70-0001
  6
Continuous
 62
     7
370
    15
390
1D
100
AcDbCircle
 10
561.1001995368451
 20
2096.838090044603
 30
0.0
 40
25.00000000000028
  0
CIRCLE
  5
15B
330
A
100
AcDbEntity
  8
KUF70-0001
  6
Continuous
 62
     7
370
    15
390
1D
100
AcDbCircle
 10
746.12689532269
 20
2246.858285821423
 30
0.0
 40
18.5
  0
POLYLINE
  5
15C
330
A
100
AcDbEntity
  8
KUF70-0001
  6
Continuous
 62
     7
370
    15
390
1D
100
AcDb2dPolyline
 66
     1
 10
0.0
 20
0.0
 30
0.0
 70
     1
 75
     5
  0
VERTEX
  5
15D
330
15C
100
AcDbEntity
  8
KUF70-0001
  6
Continuous
 62
     7
370
    15
390
1D
100
AcDbVertex
100
AcDb2dVertex
 10
361.1001995368442
 20
1534.433853643241
 30
0.0
  0
VERTEX
  5
15E
330
15C
100
AcDbEntity
  8
KUF70-0001
  6
Continuous
 62
     7
370
    15
390
1D
100
AcDbVertex
100
AcDb2dVertex
 10
901.1001995368451
 20
1534.433853643241
 30
0.0
  0
VERTEX
  5
15F
330
15C
100
AcDbEntity
  8
KUF70-0001
  6
Continuous
 62
     7
370
    15
390
1D
100
AcDbVertex
100
AcDb2dVertex
 10
876.1019961262846
 20
1409.426448658028
 30
0.0
  0
VERTEX
  5
160
330
15C
100
AcDbEntity
  8
KUF70-0001
  6
Continuous
 62
     7
370
    15
390
1D
100
AcDbVertex
100
AcDb2dVertex
 10
386.1019961262846
 20
1409.426448658028
 30
0.0
  0
SEQEND
  5
161
330
15C
100
AcDbEntity
  8
KUF70-0001
  6
Continuous
 62
     7
370
    15
390
1D
  0
POLYLINE
  5
162
330
A
100
AcDbEntity
  8
KUF70-0001
  6
Continuous
 62
     7
370
    15
390
1D
100
AcDb2dPolyline
 66
     1
 10
0.0
 20
0.0
 30
0.0
 70
     1
 75
     5
  0
VERTEX
  5
163
330
162
100
AcDbEntity
  8
KUF70-0001
  6
Continuous
 62
     7
370
    15
390
1D
100
AcDbVertex
100
AcDb2dVertex
 10
1676.100784958548
 20
1534.433853643241
 30
0.0
  0
VERTEX
  5
164
330
162
100
AcDbEntity
  8
KUF70-0001
  6
Continuous
 62
     7
370
    15
390
1D
100
AcDbVertex
100
AcDb2dVertex
 10
1256.101996126285
 20
1534.42644865803
 30
0.0
  0
VERTEX
  5
165
330
162
100
AcDbEntity
  8
KUF70-0001
  6
Continuous
 62
     7
370
    15
390
1D
100
AcDbVertex
100
AcDb2dVertex
 10
1311.101996126285
 20
1409.426448658028
 30
0.0
  0
VERTEX
  5
166
330
162
100
AcDbEntity
  8
KUF70-0001
  6
Continuous
 62
     7
370
    15
390
1D
100
AcDbVertex
100
AcDb2dVertex
 10
1676.101996126285
 20
1409.426448658028
 30
0.0
  0
SEQEND
  5
167
330
162
100
AcDbEntity
  8
KUF70-0001
  6
Continuous
 62
     7
370
    15
390
1D
  0
LINE
  5
168
330
A
100
AcDbEntity
  8
KUF70-0001
  6
STYLE_12
 62
     7
370
    15
390
1D
100
AcDbLine
 10
601.1268953226909
 20
1444.433853643241
 30
0.0
 11
601.1268953226909
 21
1424.433853643241
 31
0.0
  0
LINE
  5
169
330
A
100
AcDbEntity
  8
KUF70-0001
  6
STYLE_12
 62
     7
370
    15
390
1D
100
AcDbLine
 10
1486.100784958549
 20
1444.433853643241
 30
0.0
 11
1486.100784958549
 21
1424.433853643241
 31
0.0
  0
CIRCLE
  5
16A
330
A
100
AcDbEntity
  8
KUF70-0001
  6
STYLE_12
 62
     7
370
     5
390
1D
100
AcDbCircle
 10
1432.777877500822
 20
2096.838090044603
 30
0.0
 40
25.0
  0
CIRCLE
  5
16B
330
A
100
AcDbEntity
  8
KUF70-0001
  6
STYLE_12
 62
     7
370
     5
390
1D
100
AcDbCircle
 10
1597.804573286665
 20
2241.858285821423
 30
0.0
 40
20.5005877656431
  0
POLYLINE
  5
16C
330
A
100
AcDbEntity
  8
KUF70-0001
  6
Continuous
 62
     7
370
    15
390
1D
100
AcDb2dPolyline
 66
     1
 10
0.0
 20
0.0
 30
0.0
 70
     1
 75
     5
  0
VERTEX
  5
16D
330
16C
100
AcDbEntity
  8
KUF70-0001
  6
Continuous
 62
     7
370
    15
390
1D
100
AcDbVertex
100
AcDb2dVertex
 10
1287.901996126285
 20
2316.840076766465
 30
0.0
  0
VERTEX
  5
16E
330
16C
100
AcDbEntity
  8
KUF70-0001
  6
Continuous
 62
     7
370
    15
390
1D
100
AcDbVertex
100
AcDb2dVertex
 10
1717.901996126283
 20
2316.840076766465
 30
0.0
  0
VERTEX
  5
16F
330
16C
100
AcDbEntity
  8
KUF70-0001
  6
Continuous
 62
     7
370
    15
390
1D
100
AcDbVertex
100
AcDb2dVertex
 10
1717.901996126283
 20
2046.840076766467
 30
0.0
  0
VERTEX
  5
170
330
16C
100
AcDbEntity
  8
KUF70-0001
  6
Continuous
 62
     7
370
    15
390
1D
100
AcDbVertex
100
AcDb2dVertex
 10
1287.901996126285
 20
2046.840076766467
 30
0.0
  0
SEQEND
  5
171
330
16C
100
AcDbEntity
  8
KUF70-0001
  6
Continuous
 62
     7
370
    15
390
1D
  0
LINE
  5
172
330
A
100
AcDbEntity
  8
KUF70-0001
  6
STYLE_12
 62
     7
370
    15
390
1D
100
AcDbLine
 10
1486.100784958549
 20
1424.433853643241
 30
0.0
 11
1426.100784958549
 21
1424.433853643241
 31
0.0
  0
SPLINE
  5
173
330
A
100
AcDbEntity
  8
KUF70-0001
  6
Continuous
 62
     7
370
    15
390
1D
100
AcDbSpline
210
0.0
220
0.0
230
1.0
 70
     8
 71
     2
 72
     7
 73
     4
 74
     0
 42
0.000000001
 43
0.000001
 40
0.0
 40
0.0
 40
0.0
 40
1.0
 40
2.0
 40
2.0
 40
2.0
 10
361.1214663137325
 20
1938.611380965102
 30
0.0
 10
570.2067627692113
 20
1869.383231355754
 30
0.0
 10
842.0052458561358
 20
1954.912646620701
 30
0.0
 10
901.126895322689
 20
1961.858285821425
 30
0.0
  0
SPLINE
  5
174
330
A
100
AcDbEntity
  8
KUF70-0001
  6
STYLE_12
 62
     7
370
    15
390
1D
100
AcDbSpline
210
0.0
220
0.0
230
1.0
 70
     8
 71
     2
 72
     7
 73
     4
 74
     0
 42
0.000000001
 43
0.000001
 40
0.0
 40
0.0
 40
0.0
 40
1.0
 40
2.0
 40
2.0
 40
2.0
 10
1486.100784958549
 20
1444.433853643241
 30
0.0
 10
1561.468380566187
 20
1454.152746118298
 30
0.0
 10
1628.131268624876
 20
1518.162237108993
 30
0.0
 10
1647.000784958547
 20
1534.433853643241
 30
0.0
  0
LINE
  5
175
330
A
100
AcDbEntity
  8
KUF70-0001
  6
Continuous
 62
     7
370
    15
390
1D
100
AcDbLine
 10
361.1001995368433
 20
2316.838090044601
 30
0.0
 11
901.126895322689
 21
2316.858285821423
 31
0.0
  0
LINE
  5
176
330
A
100
AcDbEntity
  8
KUF70-0001
  6
Continuous
 62
     7
370
    15
390
1D
100
AcDbLine
 10
901.126895322689
 20
2316.858285821423
 30
0.0
 11
901.126895322689
 21
1961.858285821425
 31
0.0
  0
LINE
  5
177
330
A
100
AcDbEntity
  8
KUF70-0001
  6
Continuous
 62
     7
370
    15
390
1D
100
AcDbLine
 10
361.1001995368433
 20
2316.838090044601
 30
0.0
 11
361.1214663137325
 21
1936.839316757594
 31
0.0
  0
SPLINE
  5
178
330
A
100
AcDbEntity
  8
KUF70-0001
  6
STYLE_12
 62
     7
370
     5
390
1D
100
AcDbSpline
210
0.0
220
0.0
230
1.0
 70
     8
 71
     2
 72
     7
 73
     4
 74
     0
 42
0.000000001
 43
0.000001
 40
0.0
 40
0.0
 40
0.0
 40
1.0
 40
2.0
 40
2.0
 40
2.0
 10
1232.799962541224
 20
1938.607912675282
 30
0.0
 10
1441.885258996702
 20
1869.379763065934
 30
0.0
 10
1713.683742083625
 20
1954.90917833088
 30
0.0
 10
1772.805391550179
 20
1961.854817531605
 30
0.0
  0
LINE
  5
179
330
A
100
AcDbEntity
  8
KUF70-0001
  6
STYLE_12
 62
     7
370
     5
390
1D
100
AcDbLine
 10
1232.778695764335
 20
2316.834621754781
 30
0.0
 11
1772.805391550179
 21
2316.854817531602
 31
0.0
  0
LINE
  5
17A
330
A
100
AcDbEntity
  8
KUF70-0001
  6
STYLE_12
 62
     7
370
     5
390
1D
100
AcDbLine
 10
1772.805391550179
 20
2316.854817531602
 30
0.0
 11
1772.805391550179
 21
1961.854817531605
 31
0.0
  0
LINE
  5
17B
330
A
100
AcDbEntity
  8
KUF70-0001
  6
STYLE_12
 62
     7
370
     5
390
1D
100
AcDbLine
 10
1232.778695764335
 20
2316.834621754781
 30
0.0
 11
1232.799962541224
 21
1938.607912675282
 31
0.0
  0
DIMENSION
  5
17C
330
A
100
AcDbEntity
  8
KUF70-0001
  6
Continuous
 62
     7
370
     5
390
1D
100
AcDbDimension
  2
*D18
 10
1179.67543106565
 20
1534.42644865803
 30
0.0
 11
1162.4591224719
 21
1479.430151150636
 31
0.0
 70
    32
 71
     5
 42
109.9925950147881
 73
     0
 74
     0
 75
     0
  3
tfrom線あり
100
AcDbAlignedDimension
 13
1304.498737932791
 23
1424.433853643241
 33
0.0
 14
1256.101996126285
 24
1534.42644865803
 34
0.0
 50
90.0
100
AcDbRotatedDimension
1001
ACAD
1000
DSTYLE
1002
{
1070
   279
1070
     2
1070
   340
1005
34
1070
   147
1040
5.0
1002
}
  0
DIMENSION
  5
2B9
102
{ACAD_REACTORS
330
365
102
}
330
A
100
AcDbEntity
  8
notes
  6
Continuous
 62
     7
370
     5
390
1D
100
AcDbDimension
  2
*D26
 10
535.1001944259315
 20
992.6785874339603
 30
0.0
 11
571.100199536846
 21
1013.165848092139
 31
0.0
 70
   160
 71
     5
 42
72.00001022182914
 73
     0
 74
     0
 75
     0
  3
tfrom線あり
100
AcDbAlignedDimension
 13
607.1002046477606
 23
942.1933017521346
 33
0.0
 14
535.1001944259315
 24
942.2513413015422
 34
0.0
100
AcDbRotatedDimension
1001
ACAD
1000
DSTYLE
1002
{
1070
   279
1070
     2
1070
   340
1005
34
1070
     3
1000
φ<>
1002
}
  0
DIMENSION
  5
2BA
102
{ACAD_REACTORS
330
365
102
}
330
A
100
AcDbEntity
  8
notes
  6
Continuous
 62
     7
370
     5
390
1D
100
AcDbDimension
  2
*D27
 10
470.2779176097101
 20
936.1939570879977
 30
0.0
 11
445.0736359984767
 21
920.7036322616646
 31
0.0
 70
   160
  1
MAX.50
 71
     5
 42
30.98064965266622
 73
     0
 74
     0
 75
     0
  3
tfrom線あり
100
AcDbAlignedDimension
 13
539.6489853597668
 23
905.2133074353314
 33
0.0
 14
539.4996708412418
 24
936.1939570879977
 34
0.0
 50
90.0
100
AcDbRotatedDimension
1001
ACAD
1000
DSTYLE
1002
{
1070
   279
1070
     2
1070
   340
1005
34
1002
}
  0
DIMENSION
  5
2BB
102
{ACAD_REACTORS
330
365
102
}
330
A
100
AcDbEntity
  8
notes
  6
Continuous
 62
     7
370
     5
390
1D
100
AcDbDimension
  2
*D28
 10
682.1653622408649
 20
880.2129369972004
 30
0.0
 11
666.4311460553827
 21
934.2871629233946
 31
0.0
 70
   160
 71
     5
 42
25.00037043813109
 73
     0
 74
     0
 75
     0
  3
tfrom線あり
100
AcDbAlignedDimension
 13
602.5533607986126
 23
905.2133074353314
 33
0.0
 14
596.1011423825348
 24
880.2129369972004
 34
0.0
 50
90.0
100
AcDbRotatedDimension
1001
ACAD
1000
DSTYLE
1002
{
1070
   279
1070
     2
1070
   340
1005
34
1002
}
  0
DIMENSION
  5
2BC
102
{ACAD_REACTORS
330
365
102
}
330
A
100
AcDbEntity
  8
notes
  6
Continuous
 62
     7
370
     5
390
1D
100
AcDbDimension
  2
*D29
 10
682.1653622408649
 20
880.2129369972004
 30
0.0
 11
668.4491146822711
 21
834.1711369410727
 31
0.0
 70
   160
 71
     5
 42
10.00019901546739
 73
     0
 74
     0
 75
     0
  3
tfrom線あり
100
AcDbAlignedDimension
 13
590.3500683211332
 23
870.212737981733
 33
0.0
 14
596.1011423825348
 24
880.2129369972004
 34
0.0
 50
90.0
100
AcDbRotatedDimension
1001
ACAD
1000
DSTYLE
1002
{
1070
   279
1070
     2
1070
   340
1005
34
1002
}
  0
DIMENSION
  5
2BD
102
{ACAD_REACTORS
330
365
102
}
330
A
100
AcDbEntity
  8
notes
  6
Continuous
 62
     7
370
     5
390
1D
100
AcDbDimension
  2
*D30
 10
546.0992669129882
 20
798.3364595786379
 30
0.0
 11
571.1002046477606
 21
772.385929411611
 31
0.0
 70
   160
 71
     5
 42
50.00187546954658
 73
     0
 74
     0
 75
     0
  3
tfrom線あり
100
AcDbAlignedDimension
 13
596.1011423825348
 23
880.2129369972004
 33
0.0
 14
546.0992669129882
 24
880.2129369972004
 34
0.0
100
AcDbRotatedDimension
1001
ACAD
1000
DSTYLE
1002
{
1070
   279
1070
     2
1070
   340
1005
34
1070
     3
1000
φ<>
1002
}
  0
DIMENSION
  5
2BE
102
{ACAD_REACTORS
330
365
102
}
330
A
100
AcDbEntity
  8
notes
  6
Continuous
 62
     7
370
     5
390
1D
100
AcDbDimension
  2
*D31
 10
550.3492722592637
 20
827.9473803165934
 30
0.0
 11
478.0375530339006
 21
841.5837010106775
 31
0.0
 70
   160
  1
G1 1/4"
 71
     5
 42
41.50168869855406
 73
     0
 74
     0
 75
     0
  3
tfrom線あり
100
AcDbAlignedDimension
 13
591.8509609578177
 23
871.7129263046504
 33
0.0
 14
550.3492722592637
 24
871.7129263046504
 34
0.0
100
AcDbRotatedDimension
1001
ACAD
1000
DSTYLE
1002
{
1070
   279
1070
     2
1070
   340
1005
34
1002
}
  0
LWPOLYLINE
  5
2BF
102
{ACAD_REACTORS
330
365
102
}
330
A
100
AcDbEntity
  8
ATB73-1901
  6
Continuous
370
    20
390
1D
100
AcDbPolyline
 90
        4
 70
   128
 43
0.0
 10
546.0992669129882
 20
898.8160254930494
 10
546.0992669129882
 20
880.2129369972004
 10
596.1011423825348
 20
880.2129369972004
 10
596.1011423825348
 20
898.8160254930494
  0
LINE
  5
2C0
102
{ACAD_REACTORS
330
365
102
}
330
A
100
AcDbEntity
  8
ATB73-1901
  6
Continuous
370
    20
390
1D
100
AcDbLine
 10
602.0518893967746
 20
898.8160254930494
 30
0.0
 11
540.1485198987484
 21
898.8160254930494
 31
0.0
  0
LWPOLYLINE
  5
2C1
102
{ACAD_REACTORS
330
365
102
}
330
A
100
AcDbEntity
  8
ATB73-1901
  6
Continuous
370
    20
390
1D
100
AcDbPolyline
 90
       34
 70
   128
 43
0.0
 10
539.6489853597668
 20
901.7132201720738
 10
539.6489853597668
 20
899.3132710122891
 10
539.6490014824649
 20
899.3103425485488
 42
0.023199158013714
 10
539.6513323505951
 20
899.2654681875174
 10
539.6513473996802
 20
899.2653155647758
 42
0.0228453587782126
 10
539.6577505158621
 20
899.2211473715574
 10
539.6577683857431
 20
899.2210542788703
 42
0.0225592004716144
 10
539.6681060216379
 20
899.1778316418695
 10
539.6681186155274
 20
899.1777878242756
 42
0.0222922942134623
 10
539.6822573566496
 20
899.1357501609255
 42
0.0220661019322142
 10
539.700063519469
 20
899.0951324049274
 42
0.0218904848885035
 10
539.7213656374588
 20
899.0562369474301
 10
539.7213833991464
 20
899.0562076384927
 42
0.021808472346344
 10
539.7460369402834
 20
899.0192624614415
 10
539.7485128550325
 20
899.0158812717864
 42
0.0216646390673617
 10
539.7712224664883
 20
898.9875310639572
 42
0.0144856709331533
 10
539.7959332883984
 20
898.960881365163
 10
539.7960677946994
 20
898.9607444805752
 42
0.0187875685871695
 10
539.8227672402718
 20
898.9355406580971
 10
539.8238526758323
 20
898.9345905381124
 42
0.0238141549050472
 10
539.8548438089692
 20
898.9099669581087
 10
539.8571073976254
 20
898.9083380053435
 42
0.0234542194862616
 10
539.8945721530308
 20
898.883958930779
 10
539.8946173249697
 20
898.8839324648916
 42
0.0230606026208613
 10
539.9340932951527
 20
898.8631863506425
 42
0.0226865421371516
 10
539.9752999613156
 20
898.8461329021866
 42
0.0223584837097442
 10
540.0178740138417
 20
898.8328552061535
 10
540.0179145904403
 20
898.8328445159395
 42
0.0220952725074226
 10
540.0615822418567
 20
898.8233808140303
 10
540.062949024903
 20
898.8231472694342
 42
0.0219008930287896
 10
540.1048460239363
 20
898.8178638629588
 10
540.1061991321803
 20
898.8177531386059
 42
0.0190613687038246
 10
540.1456870425736
 20
898.816033159283
 10
540.1485198987484
 20
898.8160254930494
  0
LWPOLYLINE
  5
2C2
102
{ACAD_REACTORS
330
365
102
}
330
A
100
AcDbEntity
  8
ATB73-1901
  6
Continuous
370
    20
390
1D
100
AcDbPolyline
 90
       49
 70
   128
 43
0.0
 10
540.1485198987484
 20
902.2161002014464
 10
540.1476267957896
 20
902.2160972177594
 42
0.0124442569184911
 10
540.1216366264343
 20
902.2153633716407
 42
0.0140765873539204
 10
540.0957241523647
 20
902.2132529056526
 10
540.0948695248862
 20
902.2131590191425
 42
0.0139996459612352
 10
540.0675434006589
 20
902.2093801749506
 10
540.0675203881528
 20
902.2093763332855
 42
0.0139362149333324
 10
540.0404935848619
 20
902.2040864612964
 10
540.0404793040689
 20
902.204083250524
 42
0.0138885481933461
 10
540.0138168323119
 20
902.197305602137
 42
0.0138552348807121
 10
539.9875772426785
 20
902.1890616849782
 42
0.0138472540973784
 10
539.9618390330852
 20
902.179378815792
 42
0.0138582073893028
 10
539.936666454787
 20
902.1682810890388
 42
0.0138787271650143
 10
539.9121391926237
 20
902.1558009913856
 10
539.9121236405426
 20
902.1557925267443
 42
0.0139214895358298
 10
539.8882972199899
 20
902.1419510271644
 10
539.8882747949483
 20
902.1419371507764
 42
0.0139801012180769
 10
539.865213442281
 20
902.1267594451624
 10
539.8651841445026
 20
902.12673896674
 42
0.0140523261579424
 10
539.842952147008
 20
902.110250432173
 10
539.8402090116415
 20
902.1080938944879
 42
0.0141350456886951
 10
539.8241599415378
 20
902.0947258296719
 10
539.8228810265337
 20
902.0935978288239
 42
0.0070614722258565
 10
539.8099337132662
 20
902.0818491030636
 42
0.0113561972811683
 10
539.7974298166373
 20
902.0696334839531
 10
539.7937502941677
 20
902.0658717320066
 42
0.0139520208903816
 10
539.7750101051988
 20
902.0456116254563
 10
539.7749898263428
 20
902.0455884362277
 42
0.0134270538476567
 10
539.7574252826435
 20
902.0243799141008
 10
539.7574105087242
 20
902.0243610671118
 42
0.0133933836648699
 10
539.7410367435205
 20
902.002279794835
 10
539.7410268737749
 20
902.0022657114646
 42
0.0133728409295846
 10
539.725876946899
 20
901.9793686594076
 42
0.0133660767598141
 10
539.7119783398048
 20
901.9557045220354
 42
0.0133895121303139
 10
539.699373618294
 20
901.9313457695825
 42
0.013433093692141
 10
539.6880951872299
 20
901.9063502524054
 42
0.0134969709076652
 10
539.6781754556014
 20
901.880775791803
 42
0.0135721521047157
 10
539.6696512828476
 20
901.8546949297547
 10
539.6696469529779
 20
901.8546803535792
 42
0.0136676855966053
 10
539.6625476920399
 20
901.8281448165885
 10
539.6625422253383
 20
901.8281218909087
 42
0.0137771725287332
 10
539.6568997319464
 20
901.8011909006045
 10
539.6568938460368
 20
901.8011583660405
 42
0.0138958801025731
 10
539.6527397327973
 20
901.7738913294525
 10
539.6524205381247
 20
901.7713177373485
 42
0.017551892692653
 10
539.6498173306518
 20
901.7419118543594
 10
539.6496805310016
 20
901.7393426844092
 42
0.0124073239706574
 10
539.6489884769398
 20
901.7149665550123
 10
539.6489853597668
 20
901.7132201720738
  0
LINE
  5
2C3
102
{ACAD_REACTORS
330
365
102
}
330
A
100
AcDbEntity
  8
ATB73-1901
  6
Continuous
370
    20
390
1D
100
AcDbLine
 10
602.5533607986126
 20
901.7132201720738
 30
0.0
 11
602.5533607986126
 21
899.3132710122891
 31
0.0
  0
LWPOLYLINE
  5
2C4
102
{ACAD_REACTORS
330
365
102
}
330
A
100
AcDbEntity
  8
ATB73-1901
  6
Continuous
370
    20
390
1D
100
AcDbPolyline
 90
       52
 70
   128
 43
0.0
 10
602.0518893967746
 20
898.8160254930494
 10
602.0528137687725
 20
898.8160283184657
 42
0.0117151390183895
 10
602.078880420373
 20
898.8167188754478
 42
0.0134450653851184
 10
602.1048770845136
 20
898.8187194452485
 10
602.1057329426403
 20
898.8188085103316
 42
0.01355817258414
 10
602.13298312802
 20
898.8223934869602
 10
602.1330438170571
 20
898.8224031515324
 42
0.013667467108946
 10
602.1599376015929
 20
898.8274431374884
 10
602.1599818923987
 20
898.8274526976297
 42
0.013771529620959
 10
602.1864706275319
 20
898.8339385596828
 10
602.1864982788284
 20
898.8339461431001
 42
0.0138688613981445
 10
602.2125332369851
 20
898.841868846901
 42
0.013951940231079
 10
602.2380764518384
 20
898.8512230926117
 42
0.0140398451363869
 10
602.2630512822107
 20
898.8619903882891
 42
0.0141029795501801
 10
602.2873866854625
 20
898.8741480213475
 10
602.2874087261898
 20
898.8741598206971
 42
0.0141550022217254
 10
602.3110619007184
 20
898.8876973480669
 10
602.3110997700405
 20
898.8877204689802
 42
0.0141904144239167
 10
602.3340222797597
 20
898.9026246847006
 10
602.3340753891407
 20
898.9026614016948
 42
0.0142070614503121
 10
602.3562189980585
 20
898.918919060507
 10
602.3562865496733
 20
898.9189716739779
 42
0.0142094280154847
 10
602.3776030021418
 20
898.9365697895173
 10
602.3790097814563
 20
898.937800033651
 42
0.017743880266795
 10
602.4018771879946
 20
898.9592763176242
 10
602.404398436971
 20
898.9618184427418
 10
602.4050616807635
 20
898.9624687985101
 42
0.0122183676466702
 10
602.4233111289905
 20
898.9812599901425
 42
0.0139263173605787
 10
602.4405520220753
 20
899.0009775027474
 10
602.4411026284506
 20
899.0016437685176
 42
0.0139437109176372
 10
602.4580901584086
 20
899.02340808789
 10
602.4581273565927
 20
899.0234585882276
 42
0.0139587312522098
 10
602.4738030657609
 20
899.0460334487834
 10
602.4738293977152
 20
899.0460737247413
 42
0.0139725441846221
 10
602.4881699215912
 20
899.0694065701764
 10
602.4881868276971
 20
899.0694358829655
 42
0.013986144762017
 10
602.5011688370996
 20
899.0934741358824
 10
602.5011777326654
 20
899.0934917698437
 42
0.0140002566255695
 10
602.5127779163195
 20
899.1181828371928
 42
0.0140122621025176
 10
602.5229752528376
 20
899.1434793672843
 42
0.0140352660493547
 10
602.5317389330648
 20
899.1693104276496
 42
0.0140470549583118
 10
602.5390415603852
 20
899.1956006316218
 10
602.5390470333441
 20
899.1956227234728
 42
0.0140627337879325
 10
602.5448706663792
 20
899.2223261372465
 10
602.544877617438
 20
899.2223629549958
 42
0.0140768100856796
 10
602.5492018956793
 20
899.2494255972974
 10
602.5492087385901
 20
899.2494778177374
 42
0.0140915501074954
 10
602.5520131746998
 20
899.2768457225502
 10
602.5521468987954
 20
899.2786511199347
 42
0.0176114419819963
 10
602.5533515390016
 20
899.309751316996
 10
602.5533577539609
 20
899.3115292630068
 10
602.5533607986126
 20
899.3132710122891
  0
LWPOLYLINE
  5
2C5
102
{ACAD_REACTORS
330
365
102
}
330
A
100
AcDbEntity
  8
ATB73-1901
  6
Continuous
370
    20
390
1D
100
AcDbPolyline
 90
       51
 70
   128
 43
0.0
 10
602.5533607986126
 20
901.7132201720738
 10
602.553357822535
 20
901.7141257985058
 42
0.0123373122097484
 10
602.5526290410962
 20
901.7401845515587
 42
0.0140066973325145
 10
602.5505291868812
 20
901.7661664839111
 10
602.5504359002771
 20
901.7670216519564
 42
0.013974234941058
 10
602.5466774706201
 20
901.7943638801244
 10
602.5466718744901
 20
901.7943975814401
 42
0.0139459821396504
 10
602.5414064468241
 20
901.8214204524056
 10
602.5414016214163
 20
901.8214419977112
 42
0.0139236222881211
 10
602.5346498479194
 20
901.8480868316051
 42
0.0139031831890558
 10
602.5264296002933
 20
901.8743050069402
 42
0.0139017955248024
 10
602.5167676135516
 20
901.9000169661804
 42
0.0139086551979633
 10
602.5056857828658
 20
901.9251646885377
 42
0.0139113727638281
 10
602.4932175981266
 20
901.9496688200156
 10
602.4932059868024
 20
901.9496901504194
 42
0.0139278199099989
 10
602.4793691834439
 20
901.9735044686495
 10
602.4793500895776
 20
901.9735353195083
 42
0.0139504022939569
 10
602.4641678981789
 20
901.996602153888
 10
602.4641399463308
 20
901.9966421464351
 42
0.0139774514791146
 10
602.4476356980922
 20
902.0189038232988
 10
602.4475974050365
 20
902.0189525657361
 42
0.0140099719554028
 10
602.4297944162863
 20
902.0403513259853
 10
602.4285784536733
 20
902.0417322867202
 42
0.017583942064725
 10
602.4069382198231
 20
902.0646327551331
 10
602.404398436971
 20
902.0671378398047
 10
602.4037432201148
 20
902.0677987158006
 42
0.0119348480506322
 10
602.3848275173477
 20
902.0859882274617
 42
0.0136412224271385
 10
602.365008307861
 20
902.1031853455975
 10
602.3643385921769
 20
902.1037351644154
 42
0.0136991230923139
 10
602.3424900618647
 20
902.1206920186069
 10
602.3424383898055
 20
902.1207299001335
 42
0.0137551912727591
 10
602.3197976508818
 20
902.1363892942527
 10
602.3197563535687
 20
902.1364162088717
 42
0.0138095116568848
 10
602.296371293507
 20
902.1507528047891
 10
602.2963414114329
 20
902.150770007675
 42
0.0138620333076306
 10
602.2722599159333
 20
902.1637584368086
 10
602.2722424886815
 20
902.1637672216184
 42
0.0139124728231827
 10
602.2475124413013
 20
902.1753820703934
 42
0.0139580351054448
 10
602.2221777929317
 20
902.1855995770688
 42
0.0140101810638839
 10
602.1963048966481
 20
902.194386819599
 42
0.0140437209049391
 10
602.169969292705
 20
902.2017130489876
 10
602.169942683342
 20
902.201719652232
 42
0.0140767707539624
 10
602.1431834247451
 20
902.2075657252394
 10
602.1431400914844
 20
902.2075739215716
 42
0.0141018141122861
 10
602.1160070179503
 20
902.2119174667118
 10
602.115946069498
 20
902.2119254680838
 42
0.014121391795297
 10
602.0884889520785
 20
902.2147439925498
 10
602.0866635739585
 20
902.2148794142968
 42
0.0176421122147279
 10
602.0554333223681
 20
902.2160908838782
 10
602.0536402934431
 20
902.2160971443295
 10
602.0518893967746
 20
902.2161002014464
  0
LWPOLYLINE
  5
2C6
102
{ACAD_REACTORS
330
365
102
}
330
A
100
AcDbEntity
  8
ATB73-1901
  6
Continuous
370
    20
390
1D
100
AcDbPolyline
 90
        5
 70
   128
 43
0.0
 10
602.5533607986126
 20
902.2161002014464
 10
602.5533607986126
 20
905.2133074353314
 10
539.6489853597668
 20
905.2133074353314
 10
539.6489853597668
 20
902.2161002014464
 10
602.5533607986126
 20
902.2161002014464
  0
LWPOLYLINE
  5
2C7
102
{ACAD_REACTORS
330
365
102
}
330
A
100
AcDbEntity
  8
ATB73-1901
  6
Continuous
370
    20
390
1D
100
AcDbPolyline
 90
        6
 70
   128
 43
0.0
 10
591.8509609578177
 20
880.2129369972004
 10
591.8509609578177
 20
871.7129263046504
 10
590.3500683211332
 20
870.212737981733
 10
551.8491084252964
 20
870.212737981733
 10
550.3492722592637
 20
871.7129263046504
 10
550.3492722592637
 20
880.2129369972004
  0
LINE
  5
2C8
102
{ACAD_REACTORS
330
365
102
}
330
A
100
AcDbEntity
  8
ATB73-1901
  6
Continuous
370
    20
390
1D
100
AcDbLine
 10
575.0998584943736
 20
941.1935283604062
 30
0.0
 11
575.0998584943736
 21
936.1939570879977
 31
0.0
  0
LINE
  5
2C9
102
{ACAD_REACTORS
330
365
102
}
330
A
100
AcDbEntity
  8
ATB73-1901
  6
Continuous
370
    20
390
1D
100
AcDbLine
 10
573.4511159615449
 20
912.8735735996916
 30
0.0
 11
573.4511159615449
 21
905.2133074353314
 31
0.0
  0
LINE
  5
2CA
102
{ACAD_REACTORS
330
365
102
}
330
A
100
AcDbEntity
  8
ATB73-1901
  6
Continuous
370
    20
390
1D
100
AcDbLine
 10
572.9612657368543
 20
912.8735735996916
 30
0.0
 11
572.9612657368543
 21
905.2133074353314
 31
0.0
  0
LINE
  5
2CB
102
{ACAD_REACTORS
330
365
102
}
330
A
100
AcDbEntity
  8
ATB73-1901
  6
Continuous
370
    20
390
1D
100
AcDbLine
 10
569.2396717939919
 20
912.8735735996916
 30
0.0
 11
569.2396717939919
 21
905.2133074353314
 31
0.0
  0
LINE
  5
2CC
102
{ACAD_REACTORS
330
365
102
}
330
A
100
AcDbEntity
  8
ATB73-1901
  6
Continuous
370
    20
390
1D
100
AcDbLine
 10
568.7498215693031
 20
912.8735735996916
 30
0.0
 11
568.7498215693031
 21
905.2133074353314
 31
0.0
  0
LINE
  5
2CD
102
{ACAD_REACTORS
330
365
102
}
330
A
100
AcDbEntity
  8
ATB73-1901
  6
Continuous
370
    20
390
1D
100
AcDbLine
 10
551.8491084252964
 20
870.212737981733
 30
0.0
 11
551.8491084252964
 21
880.2129369972004
 31
0.0
  0
LINE
  5
2CE
102
{ACAD_REACTORS
330
365
102
}
330
A
100
AcDbEntity
  8
ATB73-1901
  6
Continuous
370
    20
390
1D
100
AcDbLine
 10
590.3500683211332
 20
870.212737981733
 30
0.0
 11
590.3500683211332
 21
880.2129369972004
 31
0.0
  0
LINE
  5
2CF
102
{ACAD_REACTORS
330
365
102
}
330
A
100
AcDbEntity
  8
ATB73-1901
  6
Continuous
370
    20
390
1D
100
AcDbLine
 10
550.3492722592637
 20
871.7129263046504
 30
0.0
 11
591.8509609578177
 21
871.7129263046504
 31
0.0
  0
POLYLINE
  5
2D0
102
{ACAD_REACTORS
330
365
102
}
330
A
100
AcDbEntity
  8
レイヤー 1
  6
Continuous
370
    20
100
AcDb2dPolyline
 66
     1
 10
0.0
 20
0.0
 30
0.0
  0
VERTEX
  5
2D1
330
2D0
100
AcDbEntity
  8
レイヤー 1
  6
Continuous
370
    20
100
AcDbVertex
100
AcDb2dVertex
 10
538.4551759895203
 20
926.7039185490285
 30
0.0
  0
VERTEX
  5
2D2
330
2D0
100
AcDbEntity
  8
レイヤー 1
  6
Continuous
370
    20
100
AcDbVertex
100
AcDb2dVertex
 10
603.7485635021767
 20
926.7039185490285
 30
0.0
  0
SEQEND
  5
2D3
330
2D0
100
AcDbEntity
  8
レイヤー 1
  6
Continuous
370
    20
  0
POLYLINE
  5
2D4
102
{ACAD_REACTORS
330
365
102
}
330
A
100
AcDbEntity
  8
レイヤー 1
  6
Continuous
370
    20
100
AcDb2dPolyline
 66
     1
 10
0.0
 20
0.0
 30
0.0
  0
VERTEX
  5
2D5
330
2D4
100
AcDbEntity
  8
レイヤー 1
  6
Continuous
370
    20
100
AcDbVertex
100
AcDb2dVertex
 10
603.7482189924012
 20
925.5005459021722
 30
0.0
  0
VERTEX
  5
2D6
330
2D4
100
AcDbEntity
  8
レイヤー 1
  6
Continuous
370
    20
100
AcDbVertex
100
AcDb2dVertex
 10
538.4548314797448
 20
925.5005459021722
 30
0.0
  0
SEQEND
  5
2D7
330
2D4
100
AcDbEntity
  8
レイヤー 1
  6
Continuous
370
    20
  0
POLYLINE
  5
2D8
102
{ACAD_REACTORS
330
365
102
}
330
A
100
AcDbEntity
  8
レイヤー 1
  6
Continuous
370
    20
100
AcDb2dPolyline
 66
     1
 10
0.0
 20
0.0
 30
0.0
  0
VERTEX
  5
2D9
330
2D8
100
AcDbEntity
  8
レイヤー 1
  6
Continuous
370
    20
100
AcDbVertex
100
AcDb2dVertex
 10
538.4551759895203
 20
925.5005459021722
 30
0.0
  0
VERTEX
  5
2DA
330
2D8
100
AcDbEntity
  8
レイヤー 1
  6
Continuous
370
    20
100
AcDbVertex
100
AcDb2dVertex
 10
538.4551759895203
 20
926.7039185490285
 30
0.0
  0
SEQEND
  5
2DB
330
2D8
100
AcDbEntity
  8
レイヤー 1
  6
Continuous
370
    20
  0
POLYLINE
  5
2DC
102
{ACAD_REACTORS
330
365
102
}
330
A
100
AcDbEntity
  8
レイヤー 1
  6
Continuous
370
    20
100
AcDb2dPolyline
 66
     1
 10
0.0
 20
0.0
 30
0.0
  0
VERTEX
  5
2DD
330
2DC
100
AcDbEntity
  8
レイヤー 1
  6
Continuous
370
    20
100
AcDbVertex
100
AcDb2dVertex
 10
603.7482189924012
 20
925.5005459021722
 30
0.0
  0
VERTEX
  5
2DE
330
2DC
100
AcDbEntity
  8
レイヤー 1
  6
Continuous
370
    20
100
AcDbVertex
100
AcDb2dVertex
 10
603.7482189924012
 20
926.7039185490285
 30
0.0
  0
SEQEND
  5
2DF
330
2DC
100
AcDbEntity
  8
レイヤー 1
  6
Continuous
370
    20
  0
POLYLINE
  5
2E0
102
{ACAD_REACTORS
330
365
102
}
330
A
100
AcDbEntity
  8
レイヤー 1
  6
Continuous
370
    20
100
AcDb2dPolyline
 66
     1
 10
0.0
 20
0.0
 30
0.0
  0
VERTEX
  5
2E1
330
2E0
100
AcDbEntity
  8
レイヤー 1
  6
Continuous
370
    20
100
AcDbVertex
100
AcDb2dVertex
 10
587.422245227197
 20
922.2032428380276
 30
0.0
  0
VERTEX
  5
2E2
330
2E0
100
AcDbEntity
  8
レイヤー 1
  6
Continuous
370
    20
100
AcDbVertex
100
AcDb2dVertex
 10
587.422245227197
 20
913.6483760854571
 30
0.0
  0
SEQEND
  5
2E3
330
2E0
100
AcDbEntity
  8
レイヤー 1
  6
Continuous
370
    20
  0
POLYLINE
  5
2E4
102
{ACAD_REACTORS
330
365
102
}
330
A
100
AcDbEntity
  8
レイヤー 1
  6
Continuous
370
    20
100
AcDb2dPolyline
 66
     1
 10
0.0
 20
0.0
 30
0.0
  0
VERTEX
  5
2E5
330
2E4
100
AcDbEntity
  8
レイヤー 1
  6
Continuous
370
    20
100
AcDbVertex
100
AcDb2dVertex
 10
554.7804607351736
 20
922.2032428380276
 30
0.0
  0
VERTEX
  5
2E6
330
2E4
100
AcDbEntity
  8
レイヤー 1
  6
Continuous
370
    20
100
AcDbVertex
100
AcDb2dVertex
 10
554.7804607351736
 20
913.6483760854571
 30
0.0
  0
SEQEND
  5
2E7
330
2E4
100
AcDbEntity
  8
レイヤー 1
  6
Continuous
370
    20
  0
SPLINE
  5
2E8
102
{ACAD_REACTORS
330
365
102
}
330
A
100
AcDbEntity
  8
レイヤー 1
  6
Continuous
370
    20
100
AcDbSpline
210
0.0
220
0.0
230
1.0
 70
     8
 71
     3
 72
     8
 73
     4
 74
     0
 42
0.000000001
 43
0.0000000001
 40
0.0
 40
0.0
 40
0.0
 40
0.0
 40
1.0
 40
1.0
 40
1.0
 40
1.0
 10
586.6467537218796
 20
912.8735735996916
 30
0.0
 10
587.0746348634184
 20
912.8735735996916
 30
0.0
 10
587.422245227197
 20
913.2146382777296
 30
0.0
 10
587.422245227197
 20
913.6483760854571
 30
0.0
  0
SPLINE
  5
2E9
102
{ACAD_REACTORS
330
365
102
}
330
A
100
AcDbEntity
  8
レイヤー 1
  6
Continuous
370
    20
100
AcDbSpline
210
0.0
220
0.0
230
1.0
 70
     8
 71
     3
 72
     8
 73
     4
 74
     0
 42
0.000000001
 43
0.0000000001
 40
0.0
 40
0.0
 40
0.0
 40
0.0
 40
1.0
 40
1.0
 40
1.0
 40
1.0
 10
554.7804607351736
 20
913.6487205952326
 30
0.0
 10
554.7804607351736
 20
913.2151550423932
 30
0.0
 10
555.1265208049608
 20
912.8735735996916
 30
0.0
 10
555.5575025344824
 20
912.8735735996916
 30
0.0
  0
POLYLINE
  5
2EA
102
{ACAD_REACTORS
330
365
102
}
330
A
100
AcDbEntity
  8
レイヤー 1
  6
Continuous
370
    20
100
AcDb2dPolyline
 66
     1
 10
0.0
 20
0.0
 30
0.0
  0
VERTEX
  5
2EB
330
2EA
100
AcDbEntity
  8
レイヤー 1
  6
Continuous
370
    20
100
AcDbVertex
100
AcDb2dVertex
 10
586.6467537218796
 20
912.8735735996916
 30
0.0
  0
VERTEX
  5
2EC
330
2EA
100
AcDbEntity
  8
レイヤー 1
  6
Continuous
370
    20
100
AcDbVertex
100
AcDb2dVertex
 10
555.5578470442579
 20
912.8735735996916
 30
0.0
  0
SEQEND
  5
2ED
330
2EA
100
AcDbEntity
  8
レイヤー 1
  6
Continuous
370
    20
  0
POLYLINE
  5
2EE
102
{ACAD_REACTORS
330
365
102
}
330
A
100
AcDbEntity
  8
レイヤー 1
  6
Continuous
370
    20
100
AcDb2dPolyline
 66
     1
 10
0.0
 20
0.0
 30
0.0
  0
VERTEX
  5
2EF
330
2EE
100
AcDbEntity
  8
レイヤー 1
  6
Continuous
370
    20
100
AcDbVertex
100
AcDb2dVertex
 10
603.7482189924012
 20
936.1939570879977
 30
0.0
  0
VERTEX
  5
2F0
330
2EE
100
AcDbEntity
  8
レイヤー 1
  6
Continuous
370
    20
100
AcDbVertex
100
AcDb2dVertex
 10
538.4548314797448
 20
936.1939570879977
 30
0.0
  0
SEQEND
  5
2F1
330
2EE
100
AcDbEntity
  8
レイヤー 1
  6
Continuous
370
    20
  0
POLYLINE
  5
2F2
102
{ACAD_REACTORS
330
365
102
}
330
A
100
AcDbEntity
  8
レイヤー 1
  6
Continuous
370
    20
100
AcDb2dPolyline
 66
     1
 10
0.0
 20
0.0
 30
0.0
  0
VERTEX
  5
2F3
330
2F2
100
AcDbEntity
  8
レイヤー 1
  6
Continuous
370
    20
100
AcDbVertex
100
AcDb2dVertex
 10
575.7674565706902
 20
867.1000921574146
 30
0.0
  0
VERTEX
  5
2F4
330
2F2
100
AcDbEntity
  8
レイヤー 1
  6
Continuous
370
    20
100
AcDbVertex
100
AcDb2dVertex
 10
575.7674565706902
 20
870.2123934719571
 30
0.0
  0
SEQEND
  5
2F5
330
2F2
100
AcDbEntity
  8
レイヤー 1
  6
Continuous
370
    20
  0
POLYLINE
  5
2F6
102
{ACAD_REACTORS
330
365
102
}
330
A
100
AcDbEntity
  8
レイヤー 1
  6
Continuous
370
    20
100
AcDb2dPolyline
 66
     1
 10
0.0
 20
0.0
 30
0.0
  0
VERTEX
  5
2F7
330
2F6
100
AcDbEntity
  8
レイヤー 1
  6
Continuous
370
    20
100
AcDbVertex
100
AcDb2dVertex
 10
566.42917458796
 20
867.1000921574146
 30
0.0
  0
VERTEX
  5
2F8
330
2F6
100
AcDbEntity
  8
レイヤー 1
  6
Continuous
370
    20
100
AcDbVertex
100
AcDb2dVertex
 10
566.42917458796
 20
870.2123934719571
 30
0.0
  0
SEQEND
  5
2F9
330
2F6
100
AcDbEntity
  8
レイヤー 1
  6
Continuous
370
    20
  0
SPLINE
  5
2FA
102
{ACAD_REACTORS
330
365
102
}
330
A
100
AcDbEntity
  8
レイヤー 1
  6
Continuous
370
    20
100
AcDbSpline
210
0.0
220
0.0
230
1.0
 70
     8
 71
     3
 72
     8
 73
     4
 74
     0
 42
0.000000001
 43
0.0000000001
 40
0.0
 40
0.0
 40
0.0
 40
0.0
 40
1.0
 40
1.0
 40
1.0
 40
1.0
 10
566.42917458796
 20
867.1000921574146
 30
0.0
 10
566.42917458796
 20
866.6722110158757
 30
0.0
 10
566.7783352457282
 20
866.3283902596313
 30
0.0
 10
567.2108672692411
 20
866.3283902596313
 30
0.0
  0
SPLINE
  5
2FB
102
{ACAD_REACTORS
330
365
102
}
330
A
100
AcDbEntity
  8
レイヤー 1
  6
Continuous
370
    20
100
AcDbSpline
210
0.0
220
0.0
230
1.0
 70
     8
 71
     3
 72
     8
 73
     4
 74
     0
 42
0.000000001
 43
0.0000000001
 40
0.0
 40
0.0
 40
0.0
 40
0.0
 40
1.0
 40
1.0
 40
1.0
 40
1.0
 10
572.6582558441296
 20
865.5466975783497
 30
0.0
 10
573.0833809074629
 20
865.5466975783497
 30
0.0
 10
573.4296132321379
 20
865.8980975496615
 30
0.0
 10
573.4296132321379
 20
866.3287347694068
 30
0.0
  0
SPLINE
  5
2FC
102
{ACAD_REACTORS
330
365
102
}
330
A
100
AcDbEntity
  8
レイヤー 1
  6
Continuous
370
    20
100
AcDbSpline
210
0.0
220
0.0
230
1.0
 70
     8
 71
     3
 72
     8
 73
     4
 74
     0
 42
0.000000001
 43
0.0000000001
 40
0.0
 40
0.0
 40
0.0
 40
0.0
 40
1.0
 40
1.0
 40
1.0
 40
1.0
 10
568.7680514558397
 20
866.3287347694068
 30
0.0
 10
568.7680514558397
 20
865.8980975496615
 30
0.0
 10
569.1173843684974
 20
865.5463530685738
 30
0.0
 10
569.5426816867166
 20
865.5463530685738
 30
0.0
  0
POLYLINE
  5
2FD
102
{ACAD_REACTORS
330
365
102
}
330
A
100
AcDbEntity
  8
レイヤー 1
  6
Continuous
370
    20
100
AcDb2dPolyline
 66
     1
 10
0.0
 20
0.0
 30
0.0
  0
VERTEX
  5
2FE
330
2FD
100
AcDbEntity
  8
レイヤー 1
  6
Continuous
370
    20
100
AcDbVertex
100
AcDb2dVertex
 10
572.6582558441296
 20
865.5466975783497
 30
0.0
  0
VERTEX
  5
2FF
330
2FD
100
AcDbEntity
  8
レイヤー 1
  6
Continuous
370
    20
100
AcDbVertex
100
AcDb2dVertex
 10
569.5426816867166
 20
865.5466975783497
 30
0.0
  0
SEQEND
  5
300
330
2FD
100
AcDbEntity
  8
レイヤー 1
  6
Continuous
370
    20
  0
SPLINE
  5
301
102
{ACAD_REACTORS
330
365
102
}
330
A
100
AcDbEntity
  8
レイヤー 1
  6
Continuous
370
    20
100
AcDbSpline
210
0.0
220
0.0
230
1.0
 70
     8
 71
     3
 72
     8
 73
     4
 74
     0
 42
0.000000001
 43
0.0000000001
 40
0.0
 40
0.0
 40
0.0
 40
0.0
 40
1.0
 40
1.0
 40
1.0
 40
1.0
 10
574.9874864382873
 20
866.3287347694068
 30
0.0
 10
575.4215687557917
 20
866.3287347694068
 30
0.0
 10
575.768145590242
 20
866.6722110158757
 30
0.0
 10
575.768145590242
 20
867.1004366671905
 30
0.0
  0
POLYLINE
  5
302
102
{ACAD_REACTORS
330
365
102
}
330
A
100
AcDbEntity
  8
レイヤー 1
  6
Continuous
370
    20
100
AcDb2dPolyline
 66
     1
 10
0.0
 20
0.0
 30
0.0
  0
VERTEX
  5
303
330
302
100
AcDbEntity
  8
レイヤー 1
  6
Continuous
370
    20
100
AcDbVertex
100
AcDb2dVertex
 10
574.9874864382873
 20
866.3287347694068
 30
0.0
  0
VERTEX
  5
304
330
302
100
AcDbEntity
  8
レイヤー 1
  6
Continuous
370
    20
100
AcDbVertex
100
AcDb2dVertex
 10
567.2105227594657
 20
866.3287347694068
 30
0.0
  0
SEQEND
  5
305
330
302
100
AcDbEntity
  8
レイヤー 1
  6
Continuous
370
    20
  0
ARC
  5
306
102
{ACAD_REACTORS
330
365
102
}
330
A
100
AcDbEntity
  8
ATB73-1901
  6
Continuous
370
     0
100
AcDbCircle
 10
540.5977353829585
 20
920.5167837352046
 30
0.0
 40
14.28264130761
100
AcDbArc
 50
6.781164714819453
 51
20.42239735330429
  0
ARC
  5
307
102
{ACAD_REACTORS
330
365
102
}
330
A
100
AcDbEntity
  8
ATB73-1901
  6
Continuous
370
     0
100
AcDbCircle
 10
540.5977353829585
 20
920.5167837352046
 30
0.0
 40
14.28264130761
100
AcDbArc
 50
25.67034315253778
 51
98.62758872800812
  0
ARC
  5
308
102
{ACAD_REACTORS
330
365
102
}
330
A
100
AcDbEntity
  8
ATB73-1901
  6
Continuous
370
     0
100
AcDbCircle
 10
601.606865383179
 20
920.5167837352046
 30
0.0
 40
14.28264130761
100
AcDbArc
 50
159.5776026466957
 51
173.2188352851805
  0
ARC
  5
309
102
{ACAD_REACTORS
330
365
102
}
330
A
100
AcDbEntity
  8
ATB73-1901
  6
Continuous
370
     0
100
AcDbCircle
 10
601.606865383179
 20
920.5167837352046
 30
0.0
 40
14.28264130761
100
AcDbArc
 50
81.37241127199188
 51
154.3296568474622
  0
ARC
  5
30A
102
{ACAD_REACTORS
330
365
102
}
330
A
100
AcDbEntity
  8
ATB73-1901
  6
Continuous
370
     0
100
AcDbCircle
 10
538.4589619181952
 20
935.415881759362
 30
0.0
 40
0.7780845392933852
100
AcDbArc
 50
90.27878537560984
 51
269.7212146243901
  0
ARC
  5
30B
102
{ACAD_REACTORS
330
365
102
}
330
A
100
AcDbEntity
  8
ATB73-1901
  6
Continuous
370
     0
100
AcDbCircle
 10
603.7456388479422
 20
935.415881759362
 30
0.0
 40
0.7780845392933852
100
AcDbArc
 50
270.2787853756098
 51
89.72121462439017
  0
LINE
  5
30C
102
{ACAD_REACTORS
330
365
102
}
330
A
100
AcDbEntity
  8
ATB73-1901
  6
Continuous
370
    20
390
1D
100
AcDbLine
 10
567.1005508011485
 20
941.1935283604062
 30
0.0
 11
567.1005508011485
 21
936.1939570879977
 31
0.0
  0
LINE
  5
30D
102
{ACAD_REACTORS
330
365
102
}
330
A
100
AcDbEntity
  8
ATB73-1901
  6
Continuous
370
     0
100
AcDbLine
 10
607.1003807262023
 20
941.1935283604062
 30
0.0
 11
607.1002046477606
 21
942.1933017521346
 31
0.0
  0
LINE
  5
30E
102
{ACAD_REACTORS
330
365
102
}
330
A
100
AcDbEntity
  8
ATB73-1901
  6
Continuous
370
     0
100
AcDbLine
 10
535.1003807262023
 20
941.1935283604062
 30
0.0
 11
535.1002046477606
 21
942.1933017521346
 31
0.0
  0
LINE
  5
30F
102
{ACAD_REACTORS
330
365
102
}
330
A
100
AcDbEntity
  8
ATB73-1901
  6
Continuous
370
     0
100
AcDbLine
 10
535.1003807262023
 20
941.1935283604062
 30
0.0
 11
607.1003807262023
 21
941.1935283604062
 31
0.0
  0
LINE
  5
310
102
{ACAD_REACTORS
330
365
102
}
330
A
100
AcDbEntity
  8
ATB73-1901
  6
Continuous
370
     0
100
AcDbLine
 10
535.1002046477606
 20
942.1933017521346
 30
0.0
 11
607.1002046477606
 21
942.1933017521346
 31
0.0
  0
ARC
  5
311
102
{ACAD_REACTORS
330
365
102
}
330
A
100
AcDbEntity
  8
ATB73-1901
  6
Continuous
370
     0
100
AcDbCircle
 10
571.0438406678459
 20
872.3072517935789
 30
0.0
 40
78.6391846490151
100
AcDbArc
 50
62.70939830928388
 51
117.1982289120083
  0
LINE
  5
312
102
{ACAD_REACTORS
330
365
102
}
330
A
100
AcDbEntity
  8
notes
  6
Continuous
370
     0
100
AcDbLine
 10
554.3490281186387
 20
827.9473803165934
 30
0.0
 11
417.5482330319373
 21
827.9473803165934
 31
0.0
  0
LINE
  5
313
102
{ACAD_REACTORS
330
365
102
}
330
A
100
AcDbEntity
  8
notes
  6
Continuous
370
     0
100
AcDbLine
 10
682.1653622408649
 20
878.212249700483
 30
0.0
 11
682.1653622408649
 21
814.8143229962216
 31
0.0
  0
LINE
  5
314
102
{ACAD_REACTORS
330
365
102
}
330
A
100
AcDbEntity
  8
notes
  6
Continuous
370
     0
100
AcDbLine
 10
682.1653622408649
 20
905.2133074353314
 30
0.0
 11
682.1653622408649
 21
957.1215671626896
 31
0.0
  0
MTEXT
  5
315
102
{ACAD_REACTORS
330
365
102
}
330
A
100
AcDbEntity
  8
template
 62
     7
390
1D
100
AcDbMText
 10
517.0654251185115
 20
1103.99815761966
 30
0.0
 40
24.4326171875
 41
0.0
 46
27.0469072265625
 71
     1
 72
     1
  1
{排水目皿}
  7
ＭＳ ゴシック
 73
     1
 44
0.7828267384257843
1001
ACAD
1000
ACAD_MTEXT_DEFINED_HEIGHT_BEGIN
1070
    46
1040
27.0469072265625
1000
ACAD_MTEXT_DEFINED_HEIGHT_END
  0
LINE
  5
39A
330
A
100
AcDbEntity
  8
壁取付ブラケット [更新済み]
  6
Continuous
370
     0
100
AcDbLine
 10
1457.100784958549
 20
1524.441564365567
 30
0.0
 11
1457.100784958549
 21
1738.191983899238
 31
0.0
  0
LINE
  5
410
330
A
100
AcDbEntity
  8
notes
  6
Continuous
370
     0
100
AcDbLine
 10
759.9055514174433
 20
2259.203270075059
 30
0.0
 11
945.3090531210155
 21
2392.350186356388
 31
0.0
  0
LINE
  5
411
330
A
100
AcDbEntity
  8
notes
  6
Continuous
370
     0
100
AcDbLine
 10
945.3090531210155
 20
2392.350186356388
 30
0.0
 11
1079.887656674187
 21
2392.350186356388
 31
0.0
  0
MTEXT
  5
412
330
A
100
AcDbEntity
  8
template
 62
     7
390
1D
100
AcDbMText
 10
960.2594435249812
 20
2429.412030241579
 30
0.0
 40
24.4326171875
 41
0.0
 46
24.4326171875
 71
     1
 72
     1
  1
{%%c35-37}
  7
ＭＳ ゴシック
 73
     1
 44
0.7828267384257843
1001
ACAD
1000
ACAD_MTEXT_DEFINED_HEIGHT_BEGIN
1070
    46
1040
24.4326171875
1000
ACAD_MTEXT_DEFINED_HEIGHT_END
  0
LWPOLYLINE
  5
441
330
A
100
AcDbEntity
  8
border
  6
Continuous
370
     0
100
AcDbPolyline
 90
        4
 70
     1
 43
0.0
 10
0.0
 20
0.0
 10
0.0
 20
2970.0
 10
2100.0
 20
2970.0
 10
2100.0
 20
0.0
  0
ENDSEC
  0
SECTION
  2
OBJECTS
  0
DICTIONARY
  5
19
330
0
100
AcDbDictionary
281
     1
  3
ACAD_COLOR
350
1F1
  3
ACAD_DETAILVIEWSTYLE
350
363
  3
ACAD_GROUP
350
1A
  3
ACAD_LAYOUT
350
1E
  3
ACAD_MATERIAL
350
1D1
  3
ACAD_MLEADERSTYLE
350
1D7
  3
ACAD_MLINESTYLE
350
1B
  3
ACAD_PLOTSETTINGS
350
22
  3
ACAD_PLOTSTYLENAME
350
1F
  3
ACAD_SCALELIST
350
196
  3
ACAD_SECTIONVIEWSTYLE
350
364
  3
ACAD_TABLESTYLE
350
1D5
  3
ACAD_VISUALSTYLE
350
1B8
  3
ACDB_RECOMPOSE_DATA
350
455
  3
AcDbVariableDictionary
350
35E
  3
APPDATA
350
1D9
  0
DICTIONARY
  5
2B4
330
2
100
AcDbDictionary
280
     1
281
     1
  3
ACAD_LAYERSTATES
360
2B5
  0
DICTIONARY
  5
1F1
102
{ACAD_REACTORS
330
19
102
}
330
19
100
AcDbDictionary
281
     1
  0
DICTIONARY
  5
363
102
{ACAD_REACTORS
330
19
102
}
330
19
100
AcDbDictionary
281
     1
  0
DICTIONARY
  5
1A
102
{ACAD_REACTORS
330
19
102
}
330
19
100
AcDbDictionary
281
     1
  3
*A1
350
365
  0
DICTIONARY
  5
1E
102
{ACAD_REACTORS
330
19
102
}
330
19
100
AcDbDictionary
281
     1
  3
Layout1
350
21
  3
Model
350
20
  0
DICTIONARY
  5
1D1
102
{ACAD_REACTORS
330
19
102
}
330
19
100
AcDbDictionary
281
     1
  3
ByBlock
350
1D3
  3
ByLayer
350
1D2
  3
Global
350
1D4
  0
DICTIONARY
  5
1D7
102
{ACAD_REACTORS
330
19
102
}
330
19
100
AcDbDictionary
281
     1
  3
Standard
350
1D8
  0
DICTIONARY
  5
1B
102
{ACAD_REACTORS
330
19
102
}
330
19
100
AcDbDictionary
281
     1
  3
Standard
350
1C
  0
DICTIONARY
  5
22
102
{ACAD_REACTORS
330
19
102
}
330
19
100
AcDbDictionary
281
     1
  0
ACDBDICTIONARYWDFLT
  5
1F
102
{ACAD_REACTORS
330
19
102
}
330
19
100
AcDbDictionary
281
     1
  3
Normal
350
1D
100
AcDbDictionaryWithDefault
340
1D
  0
DICTIONARY
  5
196
102
{ACAD_REACTORS
330
19
102
}
330
19
100
AcDbDictionary
281
     1
  3
A0
350
197
  3
A1
350
198
  3
A2
350
199
  3
A3
350
19A
  3
A4
350
19B
  3
A5
350
19C
  3
A6
350
19D
  3
A7
350
19E
  3
A8
350
19F
  3
A9
350
1A0
  3
B0
350
1A1
  3
B1
350
1A2
  3
B2
350
1A3
  3
B3
350
1A4
  3
B4
350
1A5
  3
B5
350
1A6
  3
B6
350
1A7
  3
B7
350
1A8
  3
B8
350
1A9
  3
B9
350
1AA
  3
C0
350
1AB
  3
C1
350
1AC
  3
C2
350
1AD
  3
C3
350
1AE
  3
C4
350
1AF
  3
C5
350
1B0
  3
C6
350
1B1
  3
C7
350
1B2
  3
C8
350
1B3
  3
C9
350
1B4
  3
D0
350
1B5
  3
D1
350
1B6
  3
D2
350
1B7
  0
DICTIONARY
  5
364
102
{ACAD_REACTORS
330
19
102
}
330
19
100
AcDbDictionary
281
     1
  0
DICTIONARY
  5
1D5
102
{ACAD_REACTORS
330
19
102
}
330
19
100
AcDbDictionary
281
     1
  3
Standard
350
1D6
  0
DICTIONARY
  5
1B8
102
{ACAD_REACTORS
330
19
102
}
330
19
100
AcDbDictionary
281
     1
  3
2dWireframe
350
1BD
  3
Basic
350
1C0
  3
Brighten
350
1C4
  3
ColorChange
350
1C8
  3
Conceptual
350
1C2
  3
Dim
350
1C3
  3
EdgeColorOff
350
1CB
  3
Facepattern
350
1C7
  3
Flat
350
1B9
  3
FlatWithEdges
350
1BA
  3
Gouraud
350
1BB
  3
GouraudWithEdges
350
1BC
  3
Hidden
350
1BF
  3
JitterOff
350
1C9
  3
Linepattern
350
1C6
  3
OverhangOff
350
1CA
  3
Realistic
350
1C1
  3
Shaded
350
1D0
  3
Shaded with edges
350
1CF
  3
Shades of Gray
350
1CC
  3
Sketchy
350
1CD
  3
Thicken
350
1C5
  3
Wireframe
350
1BE
  3
X-Ray
350
1CE
  0
XRECORD
  5
455
102
{ACAD_REACTORS
330
19
102
}
330
19
100
AcDbXrecord
280
     1
 90
        1
330
1D6
  0
DICTIONARY
  5
35E
102
{ACAD_REACTORS
330
19
102
}
330
19
100
AcDbDictionary
281
     1
  3
CANNOSCALE
350
35F
  3
CMLEADERSTYLE
350
361
  3
CTABLESTYLE
350
360
  3
MSLTSCALE
350
362
  0
DICTIONARY
  5
1D9
102
{ACAD_REACTORS
330
19
102
}
330
19
100
AcDbDictionary
281
     1
  0
DICTIONARY
  5
2B5
102
{ACAD_REACTORS
330
2B4
102
}
330
2B4
100
AcDbDictionary
281
     1
  0
GROUP
  5
365
102
{ACAD_REACTORS
330
1A
102
}
330
1A
100
AcDbGroup
300

 70
     1
 71
     1
340
2B9
340
2BA
340
2BB
340
2BC
340
2BD
340
2BE
340
2BF
340
2C0
340
2C1
340
2C2
340
2C3
340
2C4
340
2C5
340
2C6
340
2C7
340
2C8
340
2C9
340
2CA
340
2CB
340
2CC
340
2CD
340
2CE
340
2CF
340
2D0
340
2D4
340
2D8
340
2DC
340
2E0
340
2E4
340
2E8
340
2E9
340
2EA
340
2EE
340
2F2
340
2F6
340
2FA
340
2FB
340
2FC
340
2FD
340
301
340
302
340
306
340
307
340
308
340
309
340
30A
340
30B
340
30C
340
30D
340
30E
340
30F
340
310
340
311
340
312
340
313
340
314
340
315
  0
LAYOUT
  5
21
102
{ACAD_REACTORS
330
1E
102
}
330
1E
100
AcDbPlotSettings
  1

  2

  4

  6

 40
0.0
 41
0.0
 42
0.0
 43
0.0
 44
0.0
 45
0.0
 46
0.0
 47
0.0
 48
0.0
 49
0.0
140
0.0
141
0.0
142
1.0
143
1.0
 70
     0
 72
     0
 73
     0
 74
     0
  7

 75
     0
 76
     0
 77
     2
 78
   300
147
1.0
148
0.0
149
0.0
100
AcDbLayout
  1
Layout1
 70
     0
 71
     0
 10
0.0
 20
0.0
 11
0.0
 21
0.0
 12
0.0
 22
0.0
 32
0.0
 14
0.0
 24
0.0
 34
0.0
 15
0.0
 25
0.0
 35
0.0
146
0.0
 13
0.0
 23
0.0
 33
0.0
 16
0.0
 26
0.0
 36
0.0
 17
0.0
 27
0.0
 37
0.0
 76
     0
330
B
  0
LAYOUT
  5
20
102
{ACAD_REACTORS
330
1E
102
}
330
1E
100
AcDbPlotSettings
  1

  2

  4

  6

 40
0.0
 41
0.0
 42
0.0
 43
0.0
 44
0.0
 45
0.0
 46
0.0
 47
0.0
 48
0.0
 49
0.0
140
0.0
141
0.0
142
1.0
143
1.0
 70
  1024
 72
     0
 73
     0
 74
     0
  7

 75
     0
 76
     0
 77
     2
 78
   300
147
1.0
148
0.0
149
0.0
100
AcDbLayout
  1
Model
 70
     0
 71
     1
 10
0.0
 20
0.0
 11
2100.0
 21
2970.0
 12
0.0
 22
0.0
 32
0.0
 14
0.0
 24
0.0
 34
0.0
 15
2100.0
 25
2970.0
 35
0.0
146
0.0
 13
0.0
 23
0.0
 33
0.0
 16
0.0
 26
0.0
 36
0.0
 17
0.0
 27
0.0
 37
0.0
 76
     0
330
A
331
15
  0
MATERIAL
  5
1D3
102
{ACAD_REACTORS
330
1D1
102
}
330
1D1
100
AcDbMaterial
  1
ByBlock
 72
     1
 94
      127
  0
MATERIAL
  5
1D2
102
{ACAD_REACTORS
330
1D1
102
}
330
1D1
100
AcDbMaterial
  1
ByLayer
 72
     1
 94
      127
  0
MATERIAL
  5
1D4
102
{ACAD_REACTORS
330
1D1
102
}
330
1D1
100
AcDbMaterial
  1
Global
 72
     1
 94
      127
  0
MLEADERSTYLE
  5
1D8
102
{ACAD_REACTORS
330
1D7
102
}
330
1D7
100
AcDbMLeaderStyle
170
     2
171
     1
172
     0
 90
        2
 40
0.0
 41
0.0
173
     1
 91
-1056964608
340
11
 92
       -2
290
     1
 42
2.0
291
     1
 43
8.0
  3
Standard
341
0
 44
4.0
300

342
17
174
     1
178
     1
175
     1
176
     0
 93
-1056964608
 45
4.0
292
     0
297
     0
 46
4.0
343
0
 94
-1056964608
 47
1.0
 49
1.0
140
1.0
293
     1
141
0.0
294
     1
177
     0
142
1.0
295
     0
296
     0
143
3.75
1001
ACAD_MLEADERVER
1070
     2
  0
MLINESTYLE
  5
1C
102
{ACAD_REACTORS
330
1B
102
}
330
1B
100
AcDbMlineStyle
  2
Standard
 70
     0
  3

 62
     0
 51
90.0
 52
90.0
 71
     2
 49
0.5
 62
   256
  6
BYLAYER
 49
-0.5
 62
   256
  6
BYLAYER
  0
ACDBPLACEHOLDER
  5
1D
102
{ACAD_REACTORS
330
1F
102
}
330
1F
  0
SCALE
  5
197
102
{ACAD_REACTORS
330
196
102
}
330
196
100
AcDbScale
 70
     0
300
1:1
140
1.0
141
1.0
290
     1
  0
SCALE
  5
198
102
{ACAD_REACTORS
330
196
102
}
330
196
100
AcDbScale
 70
     0
300
1:2
140
1.0
141
2.0
290
     0
  0
SCALE
  5
199
102
{ACAD_REACTORS
330
196
102
}
330
196
100
AcDbScale
 70
     0
300
1:4
140
1.0
141
4.0
290
     0
  0
SCALE
  5
19A
102
{ACAD_REACTORS
330
196
102
}
330
196
100
AcDbScale
 70
     0
300
1:5
140
1.0
141
5.0
290
     0
  0
SCALE
  5
19B
102
{ACAD_REACTORS
330
196
102
}
330
196
100
AcDbScale
 70
     0
300
1:8
140
1.0
141
8.0
290
     0
  0
SCALE
  5
19C
102
{ACAD_REACTORS
330
196
102
}
330
196
100
AcDbScale
 70
     0
300
1:10
140
1.0
141
10.0
290
     0
  0
SCALE
  5
19D
102
{ACAD_REACTORS
330
196
102
}
330
196
100
AcDbScale
 70
     0
300
1:16
140
1.0
141
16.0
290
     0
  0
SCALE
  5
19E
102
{ACAD_REACTORS
330
196
102
}
330
196
100
AcDbScale
 70
     0
300
1:20
140
1.0
141
20.0
290
     0
  0
SCALE
  5
19F
102
{ACAD_REACTORS
330
196
102
}
330
196
100
AcDbScale
 70
     0
300
1:30
140
1.0
141
30.0
290
     0
  0
SCALE
  5
1A0
102
{ACAD_REACTORS
330
196
102
}
330
196
100
AcDbScale
 70
     0
300
1:40
140
1.0
141
40.0
290
     0
  0
SCALE
  5
1A1
102
{ACAD_REACTORS
330
196
102
}
330
196
100
AcDbScale
 70
     0
300
1:50
140
1.0
141
50.0
290
     0
  0
SCALE
  5
1A2
102
{ACAD_REACTORS
330
196
102
}
330
196
100
AcDbScale
 70
     0
300
1:100
140
1.0
141
100.0
290
     0
  0
SCALE
  5
1A3
102
{ACAD_REACTORS
330
196
102
}
330
196
100
AcDbScale
 70
     0
300
2:1
140
2.0
141
1.0
290
     0
  0
SCALE
  5
1A4
102
{ACAD_REACTORS
330
196
102
}
330
196
100
AcDbScale
 70
     0
300
4:1
140
4.0
141
1.0
290
     0
  0
SCALE
  5
1A5
102
{ACAD_REACTORS
330
196
102
}
330
196
100
AcDbScale
 70
     0
300
8:1
140
8.0
141
1.0
290
     0
  0
SCALE
  5
1A6
102
{ACAD_REACTORS
330
196
102
}
330
196
100
AcDbScale
 70
     0
300
10:1
140
10.0
141
1.0
290
     0
  0
SCALE
  5
1A7
102
{ACAD_REACTORS
330
196
102
}
330
196
100
AcDbScale
 70
     0
300
100:1
140
100.0
141
1.0
290
     0
  0
SCALE
  5
1A8
102
{ACAD_REACTORS
330
196
102
}
330
196
100
AcDbScale
 70
     0
300
1/128" = 1'-0"
140
0.0078125
141
12.0
290
     0
  0
SCALE
  5
1A9
102
{ACAD_REACTORS
330
196
102
}
330
196
100
AcDbScale
 70
     0
300
1/64" = 1'-0"
140
0.015625
141
12.0
290
     0
  0
SCALE
  5
1AA
102
{ACAD_REACTORS
330
196
102
}
330
196
100
AcDbScale
 70
     0
300
1/32" = 1'-0"
140
0.03125
141
12.0
290
     0
  0
SCALE
  5
1AB
102
{ACAD_REACTORS
330
196
102
}
330
196
100
AcDbScale
 70
     0
300
1/16" = 1'-0"
140
0.0625
141
12.0
290
     0
  0
SCALE
  5
1AC
102
{ACAD_REACTORS
330
196
102
}
330
196
100
AcDbScale
 70
     0
300
3/32" = 1'-0"
140
0.09375
141
12.0
290
     0
  0
SCALE
  5
1AD
102
{ACAD_REACTORS
330
196
102
}
330
196
100
AcDbScale
 70
     0
300
1/8" = 1'-0"
140
0.125
141
12.0
290
     0
  0
SCALE
  5
1AE
102
{ACAD_REACTORS
330
196
102
}
330
196
100
AcDbScale
 70
     0
300
3/16" = 1'-0"
140
0.1875
141
12.0
290
     0
  0
SCALE
  5
1AF
102
{ACAD_REACTORS
330
196
102
}
330
196
100
AcDbScale
 70
     0
300
1/4" = 1'-0"
140
0.25
141
12.0
290
     0
  0
SCALE
  5
1B0
102
{ACAD_REACTORS
330
196
102
}
330
196
100
AcDbScale
 70
     0
300
3/8" = 1'-0"
140
0.375
141
12.0
290
     0
  0
SCALE
  5
1B1
102
{ACAD_REACTORS
330
196
102
}
330
196
100
AcDbScale
 70
     0
300
1/2" = 1'-0"
140
0.5
141
12.0
290
     0
  0
SCALE
  5
1B2
102
{ACAD_REACTORS
330
196
102
}
330
196
100
AcDbScale
 70
     0
300
3/4" = 1'-0"
140
0.75
141
12.0
290
     0
  0
SCALE
  5
1B3
102
{ACAD_REACTORS
330
196
102
}
330
196
100
AcDbScale
 70
     0
300
1" = 1'-0"
140
1.0
141
12.0
290
     0
  0
SCALE
  5
1B4
102
{ACAD_REACTORS
330
196
102
}
330
196
100
AcDbScale
 70
     0
300
1-1/2" = 1'-0"
140
1.5
141
12.0
290
     0
  0
SCALE
  5
1B5
102
{ACAD_REACTORS
330
196
102
}
330
196
100
AcDbScale
 70
     0
300
3" = 1'-0"
140
3.0
141
12.0
290
     0
  0
SCALE
  5
1B6
102
{ACAD_REACTORS
330
196
102
}
330
196
100
AcDbScale
 70
     0
300
6" = 1'-0"
140
6.0
141
12.0
290
     0
  0
SCALE
  5
1B7
102
{ACAD_REACTORS
330
196
102
}
330
196
100
AcDbScale
 70
     0
300
1'-0" = 1'-0"
140
12.0
141
12.0
290
     0
  0
TABLESTYLE
  5
1D6
102
{ACAD_REACTORS
330
1D5
102
}
102
{ACAD_XDICTIONARY
360
452
102
}
330
1D5
100
AcDbTableStyle
  3
Standard
 70
     0
 71
     0
 40
0.06
 41
0.06
280
     0
281
     0
  7
Standard
140
4.5
170
     2
 62
     0
 63
   257
283
     0
 90
        4
 91
        0
  1

274
    -2
284
     1
 64
     0
275
    -2
285
     1
 65
     0
276
    -2
286
     1
 66
     0
277
    -2
287
     1
 67
     0
278
    -2
288
     1
 68
     0
279
    -2
289
     1
 69
     0
  7
Standard
140
6.0
170
     5
 62
     0
 63
   257
283
     0
 90
        4
 91
        0
  1

274
    -2
284
     1
 64
     0
275
    -2
285
     1
 65
     0
276
    -2
286
     1
 66
     0
277
    -2
287
     1
 67
     0
278
    -2
288
     1
 68
     0
279
    -2
289
     1
 69
     0
  7
Standard
140
4.5
170
     5
 62
     0
 63
   257
283
     0
 90
        4
 91
        0
  1

274
    -2
284
     1
 64
     0
275
    -2
285
     1
 65
     0
276
    -2
286
     1
 66
     0
277
    -2
287
     1
 67
     0
278
    -2
288
     1
 68
     0
279
    -2
289
     1
 69
     0
  0
VISUALSTYLE
  5
1BD
102
{ACAD_REACTORS
330
1B8
102
}
330
1B8
100
AcDbVisualStyle
  2
2dWireframe
 70
     4
 71
     0
 72
     2
 73
     0
 90
        0
 40
0.6
 41
30.0
 62
     5
 63
     7
421
 16777215
 74
     1
 91
        4
 64
     7
 65
   257
 75
     1
175
     1
 42
1.0
 92
        0
 66
   257
 43
1.0
 76
     1
 77
     6
 78
     2
 67
     7
 79
     5
170
     0
171
     0
290
     0
174
     0
 93
        1
 44
0.0
173
     0
291
     0
 45
0.0
  0
VISUALSTYLE
  5
1C0
102
{ACAD_REACTORS
330
1B8
102
}
330
1B8
100
AcDbVisualStyle
  2
Basic
 70
     7
 71
     1
 72
     0
 73
     1
 90
        0
 40
0.6
 41
30.0
 62
     5
 63
     7
421
 16777215
 74
     0
 91
        4
 64
     7
 65
   257
 75
     1
175
     1
 42
1.0
 92
        8
 66
     7
 43
1.0
 76
     1
 77
     6
 78
     2
 67
     7
 79
     5
170
     0
171
     0
290
     0
174
     0
 93
        1
 44
0.0
173
     0
291
     1
 45
0.0
  0
VISUALSTYLE
  5
1C4
102
{ACAD_REACTORS
330
1B8
102
}
330
1B8
100
AcDbVisualStyle
  2
Brighten
 70
    12
 71
     2
 72
     2
 73
     0
 90
        0
 40
0.6
 41
30.0
 62
     5
 63
     7
421
 16777215
 74
     1
 91
        4
 64
     7
 65
   257
 75
     1
175
     1
 42
1.0
 92
        8
 66
     7
 43
1.0
 76
     1
 77
     6
 78
     2
 67
     7
 79
     5
170
     0
171
     0
290
     0
174
     0
 93
        1
 44
50.0
173
     0
291
     1
 45
0.0
  0
VISUALSTYLE
  5
1C8
102
{ACAD_REACTORS
330
1B8
102
}
330
1B8
100
AcDbVisualStyle
  2
ColorChange
 70
    16
 71
     2
 72
     2
 73
     3
 90
        0
 40
0.6
 41
30.0
 62
     5
 63
     8
421
  8421504
 74
     1
 91
        4
 64
     7
 65
   257
 75
     1
175
     1
 42
1.0
 92
        8
 66
     8
424
  8421504
 43
1.0
 76
     1
 77
     6
 78
     2
 67
     7
 79
     5
170
     0
171
     0
290
     0
174
     0
 93
        1
 44
0.0
173
     0
291
     1
 45
0.0
  0
VISUALSTYLE
  5
1C2
102
{ACAD_REACTORS
330
1B8
102
}
330
1B8
100
AcDbVisualStyle
  2
Conceptual
 70
     9
 71
     3
 72
     2
 73
     0
 90
        0
 40
0.6
 41
30.0
 62
     5
 63
     7
421
 16777215
 74
     2
 91
        2
 64
     7
 65
   257
 75
     1
175
     1
 42
179.0
 92
        8
 66
     7
 43
1.0
 76
     1
 77
     6
 78
     2
 67
     7
 79
     3
170
     0
171
     0
290
     0
174
     0
 93
        1
 44
0.0
173
     0
291
     0
 45
0.0
  0
VISUALSTYLE
  5
1C3
102
{ACAD_REACTORS
330
1B8
102
}
330
1B8
100
AcDbVisualStyle
  2
Dim
 70
    11
 71
     2
 72
     2
 73
     0
 90
        0
 40
0.6
 41
30.0
 62
     5
 63
     7
421
 16777215
 74
     1
 91
        4
 64
     7
 65
   257
 75
     1
175
     1
 42
1.0
 92
        8
 66
     7
 43
1.0
 76
     1
 77
     6
 78
     2
 67
     7
 79
     5
170
     0
171
     0
290
     0
174
     0
 93
        1
 44
-50.0
173
     0
291
     1
 45
0.0
  0
VISUALSTYLE
  5
1CB
102
{ACAD_REACTORS
330
1B8
102
}
330
1B8
100
AcDbVisualStyle
  2
EdgeColorOff
 70
    22
 71
     2
 72
     2
 73
     0
 90
        0
 40
0.6
 41
30.0
 62
     5
 63
     7
421
 16777215
 74
     1
 91
        4
 64
     7
 65
   257
 75
     1
175
     1
 42
1.0
 92
        8
 66
     7
 43
1.0
 76
     1
 77
     6
 78
     2
 67
     7
 79
     5
170
     0
171
     0
290
     0
174
     0
 93
        1
 44
0.0
173
     0
291
     1
 45
0.0
  0
VISUALSTYLE
  5
1C7
102
{ACAD_REACTORS
330
1B8
102
}
330
1B8
100
AcDbVisualStyle
  2
Facepattern
 70
    15
 71
     2
 72
     2
 73
     0
 90
        0
 40
0.6
 41
30.0
 62
     5
 63
     7
421
 16777215
 74
     1
 91
        4
 64
     7
 65
   257
 75
     1
175
     1
 42
1.0
 92
        8
 66
     7
 43
1.0
 76
     1
 77
     6
 78
     2
 67
     7
 79
     5
170
     0
171
     0
290
     0
174
     0
 93
        1
 44
0.0
173
     0
291
     1
 45
0.0
  0
VISUALSTYLE
  5
1B9
102
{ACAD_REACTORS
330
1B8
102
}
330
1B8
100
AcDbVisualStyle
  2
Flat
 70
     0
 71
     2
 72
     1
 73
     1
 90
        2
 40
0.6
 41
30.0
 62
     5
 63
     7
421
 16777215
 74
     0
 91
        0
 64
     7
 65
   257
 75
     1
175
     1
 42
1.0
 92
        8
 66
     7
 43
1.0
 76
     1
 77
     6
 78
     2
 67
     7
 79
     5
170
     0
171
     0
290
     0
174
     0
 93
       13
 44
0.0
173
     0
291
     1
 45
0.0
  0
VISUALSTYLE
  5
1BA
102
{ACAD_REACTORS
330
1B8
102
}
330
1B8
100
AcDbVisualStyle
  2
FlatWithEdges
 70
     1
 71
     2
 72
     1
 73
     1
 90
        2
 40
0.6
 41
30.0
 62
     5
 63
     7
421
 16777215
 74
     1
 91
        0
 64
     7
 65
   257
 75
     1
175
     1
 42
1.0
 92
        0
 66
   257
 43
1.0
 76
     1
 77
     6
 78
     2
 67
     7
 79
     5
170
     0
171
     0
290
     0
174
     0
 93
       13
 44
0.0
173
     0
291
     1
 45
0.0
  0
VISUALSTYLE
  5
1BB
102
{ACAD_REACTORS
330
1B8
102
}
330
1B8
100
AcDbVisualStyle
  2
Gouraud
 70
     2
 71
     2
 72
     2
 73
     1
 90
        2
 40
0.6
 41
30.0
 62
     5
 63
     7
421
 16777215
 74
     0
 91
        0
 64
     7
 65
   257
 75
     1
175
     1
 42
1.0
 92
        0
 66
     7
 43
1.0
 76
     1
 77
     6
 78
     2
 67
     7
 79
     5
170
     0
171
     0
290
     0
174
     0
 93
       13
 44
0.0
173
     0
291
     1
 45
0.0
  0
VISUALSTYLE
  5
1BC
102
{ACAD_REACTORS
330
1B8
102
}
330
1B8
100
AcDbVisualStyle
  2
GouraudWithEdges
 70
     3
 71
     2
 72
     2
 73
     1
 90
        2
 40
0.6
 41
30.0
 62
     5
 63
     7
421
 16777215
 74
     1
 91
        0
 64
     7
 65
   257
 75
     1
175
     1
 42
1.0
 92
        0
 66
   257
 43
1.0
 76
     1
 77
     6
 78
     2
 67
     7
 79
     5
170
     0
171
     0
290
     0
174
     0
 93
       13
 44
0.0
173
     0
291
     1
 45
0.0
  0
VISUALSTYLE
  5
1BF
102
{ACAD_REACTORS
330
1B8
102
}
330
1B8
100
AcDbVisualStyle
  2
Hidden
 70
     6
 71
     1
 72
     2
 73
     2
 90
        0
 40
0.6
 41
30.0
 62
     5
 63
     7
421
 16777215
 74
     2
 91
        2
 64
     7
 65
   257
 75
     2
175
     1
 42
40.0
 92
        0
 66
   257
 43
1.0
 76
     1
 77
     6
 78
     2
 67
     7
 79
     3
170
     0
171
     0
290
     0
174
     0
 93
        1
 44
0.0
173
     0
291
     0
 45
0.0
  0
VISUALSTYLE
  5
1C9
102
{ACAD_REACTORS
330
1B8
102
}
330
1B8
100
AcDbVisualStyle
  2
JitterOff
 70
    20
 71
     2
 72
     2
 73
     0
 90
        0
 40
0.6
 41
30.0
 62
     5
 63
     7
421
 16777215
 74
     1
 91
        4
 64
     7
 65
   257
 75
     1
175
     1
 42
1.0
 92
       10
 66
     7
 43
1.0
 76
     1
 77
     6
 78
     2
 67
     7
 79
     5
170
     0
171
     0
290
     0
174
     0
 93
        1
 44
0.0
173
     0
291
     1
 45
0.0
  0
VISUALSTYLE
  5
1C6
102
{ACAD_REACTORS
330
1B8
102
}
330
1B8
100
AcDbVisualStyle
  2
Linepattern
 70
    14
 71
     2
 72
     2
 73
     0
 90
        0
 40
0.6
 41
30.0
 62
     5
 63
     7
421
 16777215
 74
     1
 91
        4
 64
     7
 65
   257
 75
     7
175
     7
 42
1.0
 92
        8
 66
     7
 43
1.0
 76
     1
 77
     6
 78
     2
 67
     7
 79
     5
170
     0
171
     0
290
     0
174
     0
 93
        1
 44
0.0
173
     0
291
     1
 45
0.0
  0
VISUALSTYLE
  5
1CA
102
{ACAD_REACTORS
330
1B8
102
}
330
1B8
100
AcDbVisualStyle
  2
OverhangOff
 70
    21
 71
     2
 72
     2
 73
     0
 90
        0
 40
0.6
 41
30.0
 62
     5
 63
     7
421
 16777215
 74
     1
 91
        4
 64
     7
 65
   257
 75
     1
175
     1
 42
1.0
 92
        9
 66
     7
 43
1.0
 76
     1
 77
     6
 78
     2
 67
     7
 79
     5
170
     0
171
     0
290
     0
174
     0
 93
        1
 44
0.0
173
     0
291
     1
 45
0.0
  0
VISUALSTYLE
  5
1C1
102
{ACAD_REACTORS
330
1B8
102
}
330
1B8
100
AcDbVisualStyle
  2
Realistic
 70
     8
 71
     2
 72
     3
 73
     0
 90
        2
 40
0.6
 41
30.0
 62
     5
 63
     7
421
 16777215
 74
     0
 91
        0
 64
     7
 65
   257
 75
     1
175
     1
 42
1.0
 92
        8
 66
   257
 43
1.0
 76
     1
 77
     6
 78
     2
 67
     7
 79
     3
170
     0
171
     0
290
     0
174
     0
 93
       13
 44
0.0
173
     0
291
     0
 45
0.0
  0
VISUALSTYLE
  5
1D0
102
{ACAD_REACTORS
330
1B8
102
}
330
1B8
100
AcDbVisualStyle
  2
Shaded
 70
    27
 71
     2
 72
     2
 73
     1
 90
        2
 40
0.6
 41
30.0
 62
     5
 63
     7
421
 16777215
 74
     0
 91
        4
 64
     7
 65
   257
 75
     1
175
     1
 42
1.0
 92
        8
 66
   257
 43
1.0
 76
     1
 77
     6
 78
     2
 67
     8
425
  7895160
 79
     3
170
     0
171
     0
290
     0
174
     0
 93
        5
 44
0.0
173
     0
291
     0
 45
0.0
  0
VISUALSTYLE
  5
1CF
102
{ACAD_REACTORS
330
1B8
102
}
330
1B8
100
AcDbVisualStyle
  2
Shaded with edges
 70
    26
 71
     2
 72
     2
 73
     1
 90
        2
 40
0.6
 41
30.0
 62
     5
 63
     7
421
 16777215
 74
     1
 91
       10
 64
     7
 65
   257
 75
     2
175
     1
 42
1.0
 92
        8
 66
   257
 43
1.0
 76
     1
 77
     6
 78
     2
 67
     7
 79
     3
170
     0
171
     0
290
     0
174
     0
 93
        5
 44
0.0
173
     0
291
     0
 45
0.0
  0
VISUALSTYLE
  5
1CC
102
{ACAD_REACTORS
330
1B8
102
}
330
1B8
100
AcDbVisualStyle
  2
Shades of Gray
 70
    23
 71
     2
 72
     2
 73
     3
 90
        0
 40
0.6
 41
30.0
 62
     5
 63
     7
421
 16777215
 74
     2
 91
        2
 64
     7
 65
     7
 75
     1
175
     1
 42
40.0
 92
        8
 66
     7
 43
1.0
 76
     1
 77
     6
 78
     2
 67
     7
 79
     3
170
     0
171
     0
290
     0
174
     0
 93
        1
 44
0.0
173
     0
291
     0
 45
0.0
  0
VISUALSTYLE
  5
1CD
102
{ACAD_REACTORS
330
1B8
102
}
330
1B8
100
AcDbVisualStyle
  2
Sketchy
 70
    24
 71
     1
 72
     2
 73
     2
 90
        0
 40
0.6
 41
30.0
 62
     5
 63
     7
421
 16777215
 74
     2
 91
        2
 64
     7
 65
     7
 75
     1
175
     1
 42
40.0
 92
       11
 66
     7
 43
1.0
 76
     1
 77
     6
 78
     2
 67
     7
 79
     6
170
     0
171
     0
290
     0
174
     0
 93
        1
 44
0.0
173
     0
291
     0
 45
0.0
  0
VISUALSTYLE
  5
1C5
102
{ACAD_REACTORS
330
1B8
102
}
330
1B8
100
AcDbVisualStyle
  2
Thicken
 70
    13
 71
     2
 72
     2
 73
     0
 90
        0
 40
0.6
 41
30.0
 62
     5
 63
     7
421
 16777215
 74
     1
 91
        4
 64
     7
 65
   257
 75
     1
175
     1
 42
1.0
 92
       12
 66
     7
 43
1.0
 76
     1
 77
     6
 78
     2
 67
     7
 79
     5
170
     0
171
     0
290
     0
174
     0
 93
        1
 44
0.0
173
     0
291
     1
 45
0.0
  0
VISUALSTYLE
  5
1BE
102
{ACAD_REACTORS
330
1B8
102
}
330
1B8
100
AcDbVisualStyle
  2
Wireframe
 70
     5
 71
     0
 72
     2
 73
     0
 90
        0
 40
0.6
 41
30.0
 62
     5
 63
     7
421
 16777215
 74
     1
 91
        4
 64
     7
 65
   257
 75
     1
175
     1
 42
1.0
 92
        0
 66
   257
 43
1.0
 76
     1
 77
     6
 78
     2
 67
     7
 79
     3
170
     0
171
     0
290
     0
174
     0
 93
        1
 44
0.0
173
     0
291
     0
 45
0.0
  0
VISUALSTYLE
  5
1CE
102
{ACAD_REACTORS
330
1B8
102
}
330
1B8
100
AcDbVisualStyle
  2
X-Ray
 70
    25
 71
     2
 72
     2
 73
     1
 90
        1
 40
0.5
 41
30.0
 62
     5
 63
     7
421
 16777215
 74
     1
 91
        0
 64
     7
 65
   257
 75
     1
175
     1
 42
1.0
 92
        8
 66
     7
 43
1.0
 76
     1
 77
     6
 78
     2
 67
     7
 79
     3
170
     0
171
     0
290
     0
174
     0
 93
       13
 44
0.0
173
     0
291
     0
 45
0.0
  0
DICTIONARYVAR
  5
35F
102
{ACAD_REACTORS
330
35E
102
}
330
35E
100
DictionaryVariables
280
     0
  1
1:1
  0
DICTIONARYVAR
  5
361
102
{ACAD_REACTORS
330
35E
102
}
330
35E
100
DictionaryVariables
280
     0
  1
Standard
  0
DICTIONARYVAR
  5
360
102
{ACAD_REACTORS
330
35E
102
}
330
35E
100
DictionaryVariables
280
     0
  1
Standard
  0
DICTIONARYVAR
  5
362
102
{ACAD_REACTORS
330
35E
102
}
330
35E
100
DictionaryVariables
280
     0
  1
0
  0
DICTIONARY
  5
452
330
1D6
100
AcDbDictionary
280
     1
281
     1
  3
ACAD_ROUNDTRIP_2008_TABLESTYLE_CELLSTYLEMAP
360
453
  0
CELLSTYLEMAP
  5
453
102
{ACAD_REACTORS
330
452
102
}
330
452
100
AcDbCellStyleMap
 90
        3
300
CELLSTYLE
  1
TABLEFORMAT_BEGIN
 90
        5
170
     1
 91
        0
 92
    32768
 62
   257
 93
        1
300
CONTENTFORMAT
  1
CONTENTFORMAT_BEGIN
 90
        0
 91
        0
 92
        4
 93
        0
300

 40
0.0
140
1.0
 94
        5
 62
     0
340
17
144
6.0
309
CONTENTFORMAT_END
171
     1
301
MARGIN
  1
CELLMARGIN_BEGIN
 40
1.5
 40
1.5
 40
1.5
 40
1.5
 40
1.5
 40
1.5
309
CELLMARGIN_END
 94
        6
 95
        1
302
GRIDFORMAT
  1
GRIDFORMAT_BEGIN
 90
        0
 91
        1
 62
     0
 92
       -2
340
11
 93
        0
 40
0.045
309
GRIDFORMAT_END
 95
        2
302
GRIDFORMAT
  1
GRIDFORMAT_BEGIN
 90
        0
 91
        1
 62
     0
 92
       -2
340
11
 93
        0
 40
0.045
309
GRIDFORMAT_END
 95
        4
302
GRIDFORMAT
  1
GRIDFORMAT_BEGIN
 90
        0
 91
        1
 62
     0
 92
       -2
340
11
 93
        0
 40
0.045
309
GRIDFORMAT_END
 95
        8
302
GRIDFORMAT
  1
GRIDFORMAT_BEGIN
 90
        0
 91
        1
 62
     0
 92
       -2
340
11
 93
        0
 40
0.045
309
GRIDFORMAT_END
 95
       16
302
GRIDFORMAT
  1
GRIDFORMAT_BEGIN
 90
        0
 91
        1
 62
     0
 92
       -2
340
11
 93
        0
 40
0.045
309
GRIDFORMAT_END
 95
       32
302
GRIDFORMAT
  1
GRIDFORMAT_BEGIN
 90
        0
 91
        1
 62
     0
 92
       -2
340
11
 93
        0
 40
0.045
309
GRIDFORMAT_END
309
TABLEFORMAT_END
  1
CELLSTYLE_BEGIN
 90
        1
 91
        1
300
_TITLE
309
CELLSTYLE_END
300
CELLSTYLE
  1
TABLEFORMAT_BEGIN
 90
        5
170
     1
 91
        0
 92
        0
 62
   257
 93
        1
300
CONTENTFORMAT
  1
CONTENTFORMAT_BEGIN
 90
        0
 91
        0
 92
        4
 93
        0
300

 40
0.0
140
1.0
 94
        5
 62
     0
340
17
144
4.5
309
CONTENTFORMAT_END
171
     1
301
MARGIN
  1
CELLMARGIN_BEGIN
 40
1.5
 40
1.5
 40
1.5
 40
1.5
 40
1.5
 40
1.5
309
CELLMARGIN_END
 94
        6
 95
        1
302
GRIDFORMAT
  1
GRIDFORMAT_BEGIN
 90
        0
 91
        1
 62
     0
 92
       -2
340
11
 93
        0
 40
0.045
309
GRIDFORMAT_END
 95
        2
302
GRIDFORMAT
  1
GRIDFORMAT_BEGIN
 90
        0
 91
        1
 62
     0
 92
       -2
340
11
 93
        0
 40
0.045
309
GRIDFORMAT_END
 95
        4
302
GRIDFORMAT
  1
GRIDFORMAT_BEGIN
 90
        0
 91
        1
 62
     0
 92
       -2
340
11
 93
        0
 40
0.045
309
GRIDFORMAT_END
 95
        8
302
GRIDFORMAT
  1
GRIDFORMAT_BEGIN
 90
        0
 91
        1
 62
     0
 92
       -2
340
11
 93
        0
 40
0.045
309
GRIDFORMAT_END
 95
       16
302
GRIDFORMAT
  1
GRIDFORMAT_BEGIN
 90
        0
 91
        1
 62
     0
 92
       -2
340
11
 93
        0
 40
0.045
309
GRIDFORMAT_END
 95
       32
302
GRIDFORMAT
  1
GRIDFORMAT_BEGIN
 90
        0
 91
        1
 62
     0
 92
       -2
340
11
 93
        0
 40
0.045
309
GRIDFORMAT_END
309
TABLEFORMAT_END
  1
CELLSTYLE_BEGIN
 90
        2
 91
        1
300
_HEADER
309
CELLSTYLE_END
300
CELLSTYLE
  1
TABLEFORMAT_BEGIN
 90
        5
170
     1
 91
        0
 92
        0
 62
   257
 93
        1
300
CONTENTFORMAT
  1
CONTENTFORMAT_BEGIN
 90
        0
 91
        0
 92
        4
 93
        0
300

 40
0.0
140
1.0
 94
        2
 62
     0
340
17
144
4.5
309
CONTENTFORMAT_END
171
     1
301
MARGIN
  1
CELLMARGIN_BEGIN
 40
1.5
 40
1.5
 40
1.5
 40
1.5
 40
1.5
 40
1.5
309
CELLMARGIN_END
 94
        6
 95
        1
302
GRIDFORMAT
  1
GRIDFORMAT_BEGIN
 90
        0
 91
        1
 62
     0
 92
       -2
340
11
 93
        0
 40
0.045
309
GRIDFORMAT_END
 95
        2
302
GRIDFORMAT
  1
GRIDFORMAT_BEGIN
 90
        0
 91
        1
 62
     0
 92
       -2
340
11
 93
        0
 40
0.045
309
GRIDFORMAT_END
 95
        4
302
GRIDFORMAT
  1
GRIDFORMAT_BEGIN
 90
        0
 91
        1
 62
     0
 92
       -2
340
11
 93
        0
 40
0.045
309
GRIDFORMAT_END
 95
        8
302
GRIDFORMAT
  1
GRIDFORMAT_BEGIN
 90
        0
 91
        1
 62
     0
 92
       -2
340
11
 93
        0
 40
0.045
309
GRIDFORMAT_END
 95
       16
302
GRIDFORMAT
  1
GRIDFORMAT_BEGIN
 90
        0
 91
        1
 62
     0
 92
       -2
340
11
 93
        0
 40
0.045
309
GRIDFORMAT_END
 95
       32
302
GRIDFORMAT
  1
GRIDFORMAT_BEGIN
 90
        0
 91
        1
 62
     0
 92
       -2
340
11
 93
        0
 40
0.045
309
GRIDFORMAT_END
309
TABLEFORMAT_END
  1
CELLSTYLE_BEGIN
 90
        3
 91
        2
300
_DATA
309
CELLSTYLE_END
  0
ENDSEC
  0
EOF
