  0
SECTION
  2
HEADER
  9
$ACADVER
  1
AC1021
  9
$ACADMAINTVER
 70
    25
  9
$DWGCODEPAGE
  3
ANSI_932
  9
$LASTSAVEDBY
  1
howeNelson
  9
$INSBASE
 10
0.0
 20
0.0
 30
0.0
  9
$EXTMIN
 10
0.0
 20
0.0
 30
-0.0000000000000071
  9
$EXTMAX
 10
2100.0
 20
2970.0
 30
0.0000000000000071
  9
$LIMMIN
 10
0.0
 20
0.0
  9
$LIMMAX
 10
2100.0
 20
2970.0
  9
$ORTHOMODE
 70
     0
  9
$REGENMODE
 70
     1
  9
$FILLMODE
 70
     1
  9
$QTEXTMODE
 70
     0
  9
$MIRRTEXT
 70
     1
  9
$LTSCALE
 40
5.0
  9
$ATTMODE
 70
     1
  9
$TEXTSIZE
 40
2.5
  9
$TRACEWID
 40
1.0
  9
$TEXTSTYLE
  7
ＭＳ ゴシック
  9
$CLAYER
  8
DIM
  9
$CELTYPE
  6
ByLayer
  9
$CECOLOR
 62
   256
  9
$CELTSCALE
 40
1.0
  9
$DISPSILH
 70
     0
  9
$DIMSCALE
 40
1.0
  9
$DIMASZ
 40
10.0
  9
$DIMEXO
 40
30.0
  9
$DIMDLI
 40
0.9999999999999999
  9
$DIMRND
 40
0.0
  9
$DIMDLE
 40
0.0
  9
$DIMEXE
 40
0.0
  9
$DIMTP
 40
0.0
  9
$DIMTM
 40
0.0
  9
$DIMTXT
 40
24.0
  9
$DIMCEN
 40
0.0
  9
$DIMTSZ
 40
0.0
  9
$DIMTOL
 70
     0
  9
$DIMLIM
 70
     0
  9
$DIMTIH
 70
     0
  9
$DIMTOH
 70
     0
  9
$DIMSE1
 70
     0
  9
$DIMSE2
 70
     0
  9
$DIMTAD
 70
     1
  9
$DIMZIN
 70
    11
  9
$DIMBLK
  1
DOT
  9
$DIMASO
 70
     1
  9
$DIMSHO
 70
     1
  9
$DIMPOST
  1
<>
  9
$DIMAPOST
  1
[]
  9
$DIMALT
 70
     0
  9
$DIMALTD
 70
     1
  9
$DIMALTF
 40
1.0
  9
$DIMLFAC
 40
1.0
  9
$DIMTOFL
 70
     0
  9
$DIMTVP
 40
0.0
  9
$DIMTIX
 70
     1
  9
$DIMSOXD
 70
     0
  9
$DIMSAH
 70
     0
  9
$DIMBLK1
  1

  9
$DIMBLK2
  1

  9
$DIMSTYLE
  2
tfrom線あり
  9
$DIMCLRD
 70
     0
  9
$DIMCLRE
 70
     0
  9
$DIMCLRT
 70
     0
  9
$DIMTFAC
 40
1.0
  9
$DIMGAP
 40
15.0
  9
$DIMJUST
 70
     0
  9
$DIMSD1
 70
     0
  9
$DIMSD2
 70
     0
  9
$DIMTOLJ
 70
     1
  9
$DIMTZIN
 70
    11
  9
$DIMALTZ
 70
    11
  9
$DIMALTTZ
 70
    11
  9
$DIMUPT
 70
     0
  9
$DIMDEC
 70
     0
  9
$DIMTDEC
 70
     1
  9
$DIMALTU
 70
     2
  9
$DIMALTTD
 70
     2
  9
$DIMTXSTY
  7
ＭＳ ゴシック
  9
$DIMAUNIT
 70
     0
  9
$DIMADEC
 70
     2
  9
$DIMALTRND
 40
0.0
  9
$DIMAZIN
 70
     0
  9
$DIMDSEP
 70
    46
  9
$DIMATFIT
 70
     0
  9
$DIMFRAC
 70
     2
  9
$DIMLDRBLK
  1
DOT
  9
$DIMLUNIT
 70
     2
  9
$DIMLWD
 70
    -2
  9
$DIMLWE
 70
    -2
  9
$DIMTMOVE
 70
     0
  9
$DIMFXL
 40
1.0
  9
$DIMFXLON
 70
     0
  9
$DIMJOGANG
 40
0.7853981633974483
  9
$DIMTFILL
 70
     0
  9
$DIMTFILLCLR
 70
     0
  9
$DIMARCSYM
 70
     0
  9
$DIMLTYPE
  6

  9
$DIMLTEX1
  6

  9
$DIMLTEX2
  6

  9
$LUNITS
 70
     2
  9
$LUPREC
 70
     0
  9
$SKETCHINC
 40
0.1
  9
$FILLETRAD
 40
0.0
  9
$AUNITS
 70
     0
  9
$AUPREC
 70
     0
  9
$MENU
  1
acad
  9
$ELEVATION
 40
0.0
  9
$PELEVATION
 40
0.0
  9
$THICKNESS
 40
0.0
  9
$LIMCHECK
 70
     0
  9
$CHAMFERA
 40
0.0
  9
$CHAMFERB
 40
0.0
  9
$CHAMFERC
 40
0.0
  9
$CHAMFERD
 40
0.0
  9
$SKPOLY
 70
     0
  9
$TDCREATE
 40
2447893.375
  9
$TDUCREATE
 40
0.0
  9
$TDUPDATE
 40
2458911.467414653
  9
$TDUUPDATE
 40
2458911.092414653
  9
$TDINDWG
 40
0.1755953356
  9
$TDUSRTIMER
 40
0.0000064815
  9
$USRTIMER
 70
     1
  9
$ANGBASE
 50
0.0
  9
$ANGDIR
 70
     0
  9
$PDMODE
 70
     1
  9
$PDSIZE
 40
-2.0
  9
$PLINEWID
 40
0.0
  9
$SPLFRAME
 70
     0
  9
$SPLINETYPE
 70
     6
  9
$SPLINESEGS
 70
     8
  9
$HANDSEED
  5
3B38
  9
$SURFTAB1
 70
     6
  9
$SURFTAB2
 70
     6
  9
$SURFTYPE
 70
     6
  9
$SURFU
 70
     6
  9
$SURFV
 70
     6
  9
$UCSBASE
  2

  9
$UCSNAME
  2

  9
$UCSORG
 10
0.0
 20
0.0
 30
0.0
  9
$UCSXDIR
 10
1.0
 20
0.0
 30
0.0
  9
$UCSYDIR
 10
0.0
 20
1.0
 30
0.0
  9
$UCSORTHOREF
  2

  9
$UCSORTHOVIEW
 70
     0
  9
$UCSORGTOP
 10
0.0
 20
0.0
 30
0.0
  9
$UCSORGBOTTOM
 10
0.0
 20
0.0
 30
0.0
  9
$UCSORGLEFT
 10
0.0
 20
0.0
 30
0.0
  9
$UCSORGRIGHT
 10
0.0
 20
0.0
 30
0.0
  9
$UCSORGFRONT
 10
0.0
 20
0.0
 30
0.0
  9
$UCSORGBACK
 10
0.0
 20
0.0
 30
0.0
  9
$PUCSBASE
  2

  9
$PUCSNAME
  2

  9
$PUCSORG
 10
0.0
 20
0.0
 30
0.0
  9
$PUCSXDIR
 10
1.0
 20
0.0
 30
0.0
  9
$PUCSYDIR
 10
0.0
 20
1.0
 30
0.0
  9
$PUCSORTHOREF
  2

  9
$PUCSORTHOVIEW
 70
     0
  9
$PUCSORGTOP
 10
0.0
 20
0.0
 30
0.0
  9
$PUCSORGBOTTOM
 10
0.0
 20
0.0
 30
0.0
  9
$PUCSORGLEFT
 10
0.0
 20
0.0
 30
0.0
  9
$PUCSORGRIGHT
 10
0.0
 20
0.0
 30
0.0
  9
$PUCSORGFRONT
 10
0.0
 20
0.0
 30
0.0
  9
$PUCSORGBACK
 10
0.0
 20
0.0
 30
0.0
  9
$USERI1
 70
     0
  9
$USERI2
 70
     0
  9
$USERI3
 70
     0
  9
$USERI4
 70
     0
  9
$USERI5
 70
     0
  9
$USERR1
 40
0.0
  9
$USERR2
 40
0.0
  9
$USERR3
 40
0.0
  9
$USERR4
 40
0.0
  9
$USERR5
 40
0.0
  9
$WORLDVIEW
 70
     1
  9
$SHADEDGE
 70
     3
  9
$SHADEDIF
 70
    70
  9
$TILEMODE
 70
     1
  9
$MAXACTVP
 70
    64
  9
$PINSBASE
 10
0.0
 20
0.0
 30
0.0
  9
$PLIMCHECK
 70
     0
  9
$PEXTMIN
 10
0.0
 20
0.0
 30
0.0
  9
$PEXTMAX
 10
0.0
 20
0.0
 30
0.0
  9
$PLIMMIN
 10
-7.5
 20
-20.0
  9
$PLIMMAX
 10
412.5
 20
277.0
  9
$UNITMODE
 70
     0
  9
$VISRETAIN
 70
     0
  9
$PLINEGEN
 70
     1
  9
$PSLTSCALE
 70
     0
  9
$TREEDEPTH
 70
  3020
  9
$CMLSTYLE
  2
Standard
  9
$CMLJUST
 70
     0
  9
$CMLSCALE
 40
1.0
  9
$PROXYGRAPHICS
 70
     0
  9
$MEASUREMENT
 70
     1
  9
$CELWEIGHT
370
    -1
  9
$ENDCAPS
280
     0
  9
$JOINSTYLE
280
     0
  9
$LWDISPLAY
290
     1
  9
$INSUNITS
 70
     4
  9
$HYPERLINKBASE
  1

  9
$STYLESHEET
  1

  9
$XEDIT
290
     1
  9
$CEPSNTYPE
380
     0
  9
$PSTYLEMODE
290
     1
  9
$FINGERPRINTGUID
  2

  9
$VERSIONGUID
  2

  9
$EXTNAMES
290
     1
  9
$PSVPSCALE
 40
0.0
  9
$OLESTARTUP
290
     0
  9
$SORTENTS
280
   127
  9
$INDEXCTL
280
     0
  9
$HIDETEXT
280
     1
  9
$XCLIPFRAME
290
     0
  9
$HALOGAP
280
     0
  9
$OBSCOLOR
 70
   257
  9
$OBSLTYPE
280
     0
  9
$INTERSECTIONDISPLAY
280
     0
  9
$INTERSECTIONCOLOR
 70
   257
  9
$DIMASSOC
280
     2
  9
$PROJECTNAME
  1

  9
$CAMERADISPLAY
290
     0
  9
$LENSLENGTH
 40
50.0
  9
$CAMERAHEIGHT
 40
0.0
  9
$STEPSPERSEC
 40
2.0
  9
$STEPSIZE
 40
6.0
  9
$3DDWFPREC
 40
2.0
  9
$PSOLWIDTH
 40
0.25
  9
$PSOLHEIGHT
 40
4.0
  9
$LOFTANG1
 40
1.570796326794897
  9
$LOFTANG2
 40
1.570796326794897
  9
$LOFTMAG1
 40
0.0
  9
$LOFTMAG2
 40
0.0
  9
$LOFTPARAM
 70
     7
  9
$LOFTNORMALS
280
     1
  9
$LATITUDE
 40
37.795
  9
$LONGITUDE
 40
-122.394
  9
$NORTHDIRECTION
 40
0.0
  9
$TIMEZONE
 70
 -8000
  9
$LIGHTGLYPHDISPLAY
280
     1
  9
$TILEMODELIGHTSYNCH
280
     1
  9
$SOLIDHIST
280
     1
  9
$SHOWHIST
280
     1
  9
$DWFFRAME
280
     2
  9
$DGNFRAME
280
     2
  9
$REALWORLDSCALE
290
     1
  9
$INTERFERECOLOR
 62
   256
  9
$CSHADOW
280
     0
  9
$SHADOWPLANELOCATION
 40
0.0
  0
ENDSEC
  0
SECTION
  2
CLASSES
  0
CLASS
  1
LWPOLYLINE
  2
AcDbPolyline
  3
ObjectDBX Classes
 90
        0
 91
        1
280
     0
281
     1
  0
CLASS
  1
IMAGE
  2
AcDbRasterImage
  3
ISM
 90
      127
 91
        6
280
     0
281
     1
  0
CLASS
  1
OLE2FRAME
  2
AcDbOle2Frame
  3
ObjectDBX Classes
 90
        0
 91
        1
280
     0
281
     1
  0
CLASS
  1
HATCH
  2
AcDbHatch
  3
ObjectDBX Classes
 90
        0
 91
        1
280
     0
281
     1
  0
CLASS
  1
DICTIONARYVAR
  2
AcDbDictionaryVar
  3
ObjectDBX Classes
 90
        0
 91
        5
280
     0
281
     0
  0
CLASS
  1
RASTERVARIABLES
  2
AcDbRasterVariables
  3
ISM
 90
        0
 91
        5
280
     0
281
     0
  0
CLASS
  1
IMAGEDEF
  2
AcDbRasterImageDef
  3
ISM
 90
        0
 91
        5
280
     0
281
     0
  0
CLASS
  1
IMAGEDEF_REACTOR
  2
AcDbRasterImageDefReactor
  3
ISM
 90
        1
 91
        5
280
     0
281
     0
  0
CLASS
  1
IDBUFFER
  2
AcDbIdBuffer
  3
ObjectDBX Classes
 90
        0
 91
        5
280
     0
281
     0
  0
CLASS
  1
SPATIAL_FILTER
  2
AcDbSpatialFilter
  3
ObjectDBX Classes
 90
        0
 91
        5
280
     0
281
     0
  0
CLASS
  1
XRECORD
  2
AcDbXrecord
  3
ObjectDBX Classes
 90
        0
 91
        1
280
     0
281
     0
  0
CLASS
  1
SORTENTSTABLE
  2
AcDbSortentsTable
  3
ObjectDBX Classes
 90
        0
 91
        5
280
     0
281
     0
  0
CLASS
  1
LAYER_INDEX
  2
AcDbLayerIndex
  3
ObjectDBX Classes
 90
        0
 91
        5
280
     0
281
     0
  0
CLASS
  1
SPATIAL_INDEX
  2
AcDbSpatialIndex
  3
AutoCAD 2000
 90
        0
 91
        5
280
     0
281
     0
  0
CLASS
  1
OBJECT_PTR
  2
CAseDLPNTableRecord
  3
ASE-LPNTableRecord
 90
        1
 91
        5
280
     0
281
     0
  0
CLASS
  1
LAYOUT
  2
AcDbLayout
  3
ObjectDBX Classes
 90
        0
 91
        1
280
     0
281
     0
  0
CLASS
  1
PLOTSETTINGS
  2
AcDbPlotSettings
  3
ObjectDBX Classes
 90
        0
 91
        5
280
     0
281
     0
  0
CLASS
  1
ACDBDICTIONARYWDFLT
  2
AcDbDictionaryWithDefault
  3
ObjectDBX Classes
 90
        0
 91
        5
280
     0
281
     0
  0
CLASS
  1
ACDBPLACEHOLDER
  2
AcDbPlaceHolder
  3
ObjectDBX Classes
 90
        0
 91
        1
280
     0
281
     0
  0
CLASS
  1
SCALE
  2
AcDbScale
  3
ObjectDBX Classes
 90
     1153
 91
        5
280
     0
281
     0
  0
CLASS
  1
MATERIAL
  2
AcDbMaterial
  3
ObjectDBX Classes
 90
     1153
 91
        5
280
     0
281
     0
  0
CLASS
  1
VISUALSTYLE
  2
AcDbVisualStyle
  3
ObjectDBX Classes
 90
     4095
 91
        5
280
     0
281
     0
  0
CLASS
  1
TABLESTYLE
  2
AcDbTableStyle
  3
ObjectDBX Classes
 90
     4095
 91
        5
280
     0
281
     0
  0
CLASS
  1
DIMASSOC
  2
AcDbDimAssoc
  3
"AcDbDimAssoc|Product Desc:     AcDim ARX App For Dimension|Company:          Autodesk, Inc.|WEB Address:      www.autodesk.com"
 90
        0
 91
        5
280
     0
281
     0
  0
CLASS
  1
CELLSTYLEMAP
  2
AcDbCellStyleMap
  3
ObjectDBX Classes
 90
     1152
 91
        5
280
     0
281
     0
  0
CLASS
  1
SUN
  2
AcDbSun
  3
SCENEOE
 90
     1153
 91
        5
280
     0
281
     0
  0
CLASS
  1
MLEADERSTYLE
  2
AcDbMLeaderStyle
  3
ACDB_MLEADERSTYLE_CLASS
 90
     4095
 91
        5
280
     0
281
     0
  0
CLASS
  1
FIELD
  2
AcDbField
  3
ObjectDBX Classes
 90
     1152
 91
        5
280
     0
281
     0
  0
CLASS
  1
FIELDLIST
  2
AcDbFieldList
  3
ObjectDBX Classes
 90
     1152
 91
        5
280
     0
281
     0
  0
CLASS
  1
MULTILEADER
  2
AcDbMLeader
  3
ACDB_MLEADER_CLASS
 90
     1025
 91
        5
280
     0
281
     1
  0
ENDSEC
  0
SECTION
  2
TABLES
  0
TABLE
  2
VPORT
  5
7
330
0
100
AcDbSymbolTable
 70
     1
  0
VPORT
  5
15
330
7
100
AcDbSymbolTableRecord
100
AcDbViewportTableRecord
  2
*ACTIVE
 70
     0
 10
0.0
 20
0.0
 11
1.0
 21
1.0
 12
1141.020135670898
 22
1411.401285469834
 13
0.0
 23
0.0
 14
1.0
 24
1.0
 15
0.0
 25
0.0
 16
0.0
 26
0.0
 36
1.0
 17
-91.02013567089807
 27
73.59871453016603
 37
-46.86809886248109
 40
3029.4
 41
2.346607669616519
 42
50.0
 43
0.0
 44
0.0
 50
0.0
 51
0.0
 71
    16
 72
  2000
 73
     1
 74
     1
 75
     0
 76
     0
 77
     0
 78
     0
281
     0
 65
     1
110
0.0
120
0.0
130
0.0
111
1.0
121
0.0
131
0.0
112
0.0
122
1.0
132
0.0
 79
     0
146
0.0
348
26C
 60
     3
 61
     5
292
     1
282
     1
141
0.0
142
0.0
 63
   256
361
904
  0
ENDTAB
  0
TABLE
  2
LTYPE
  5
4
330
0
100
AcDbSymbolTable
 70
     4
  0
LTYPE
  5
11
330
4
100
AcDbSymbolTableRecord
100
AcDbLinetypeTableRecord
  2
ByBlock
 70
     0
  3

 72
    65
 73
     0
 40
0.0
  0
LTYPE
  5
12
330
4
100
AcDbSymbolTableRecord
100
AcDbLinetypeTableRecord
  2
ByLayer
 70
     0
  3

 72
    65
 73
     0
 40
0.0
  0
LTYPE
  5
13
330
4
100
AcDbSymbolTableRecord
100
AcDbLinetypeTableRecord
  2
Continuous
 70
     0
  3
Solid line
 72
    65
 73
     0
 40
0.0
  0
LTYPE
  5
DAF
330
4
100
AcDbSymbolTableRecord
100
AcDbLinetypeTableRecord
  2
BORDER
 70
     0
  3
Border __  __  . __  __  . __  __  . __  __  . 
 72
    65
 73
     6
 40
44.45
 49
12.7
 74
     0
 49
-6.35
 74
     0
 49
12.7
 74
     0
 49
-6.35
 74
     0
 49
0.0
 74
     0
 49
-6.35
 74
     0
  0
LTYPE
  5
33DD
330
4
100
AcDbSymbolTableRecord
100
AcDbLinetypeTableRecord
  2
HIDDEN
 70
     0
  3
Hidden _ _ _ _ _ _ _ _ _ _ _ _ _ _ _ _ _ _ _ _ 
 72
    65
 73
     2
 40
9.524999999999999
 49
6.35
 74
     0
 49
-3.175
 74
     0
  0
LTYPE
  5
377B
330
4
100
AcDbSymbolTableRecord
100
AcDbLinetypeTableRecord
  2
STYLE_12
 70
     0
  3

 72
    65
 73
     2
 40
0.3937007874015748
 49
0.1968503937007874
 74
     0
 49
-0.1968503937007874
 74
     0
  0
ENDTAB
  0
TABLE
  2
LAYER
  5
2
102
{ACAD_XDICTIONARY
360
2E1
102
}
330
0
100
AcDbSymbolTable
 70
    12
  0
LAYER
  5
14
330
2
100
AcDbSymbolTableRecord
100
AcDbLayerTableRecord
  2
0
 70
     0
 62
     7
  6
Continuous
370
    -3
390
1D
347
266
  0
LAYER
  5
4B
330
2
100
AcDbSymbolTableRecord
100
AcDbLayerTableRecord
  2
TEMPLATE
 70
     0
 62
     7
  6
Continuous
370
    20
390
1D
347
266
  0
LAYER
  5
4C
330
2
100
AcDbSymbolTableRecord
100
AcDbLayerTableRecord
  2
DIM
 70
     0
 62
     3
  6
Continuous
370
    13
390
1D
347
266
  0
LAYER
  5
4D
330
2
100
AcDbSymbolTableRecord
100
AcDbLayerTableRecord
  2
MODEL
 70
     0
 62
     7
  6
Continuous
370
    20
390
1D
347
266
  0
LAYER
  5
D5D
330
2
100
AcDbSymbolTableRecord
100
AcDbLayerTableRecord
  2
Defpoints
 70
     0
 62
     7
  6
Continuous
290
     0
370
    -3
390
1D
347
266
  0
LAYER
  5
DAE
330
2
100
AcDbSymbolTableRecord
100
AcDbLayerTableRecord
  2
BORDER
 70
     0
 62
     4
  6
BORDER
290
     0
370
    20
390
1D
347
266
1001
AcAecLayerStandard
1000

1000

  0
LAYER
  5
157B
330
2
100
AcDbSymbolTableRecord
100
AcDbLayerTableRecord
  2
Layer3
 70
     0
 62
     7
  6
Continuous
370
    -3
390
1D
347
266
  0
LAYER
  5
157F
330
2
100
AcDbSymbolTableRecord
100
AcDbLayerTableRecord
  2
Layer9
 70
     0
 62
     7
  6
Continuous
370
    -3
390
1D
347
266
  0
LAYER
  5
1582
330
2
100
AcDbSymbolTableRecord
100
AcDbLayerTableRecord
  2
Standard
 70
     0
 62
     7
  6
Continuous
370
    -3
390
1D
347
266
  0
LAYER
  5
33DC
330
2
100
AcDbSymbolTableRecord
100
AcDbLayerTableRecord
  2
HIDDEN
 70
     0
 62
     8
  6
HIDDEN
370
    20
390
1D
347
266
1001
AcAecLayerStandard
1000

1000

  0
LAYER
  5
3779
330
2
100
AcDbSymbolTableRecord
100
AcDbLayerTableRecord
  2
notes
 70
     0
 62
     7
  6
Continuous
370
    -3
390
1D
347
266
  0
LAYER
  5
377A
330
2
100
AcDbSymbolTableRecord
100
AcDbLayerTableRecord
  2
KUF70-0201
 70
     0
 62
     7
  6
Continuous
370
    -3
390
1D
347
266
  0
ENDTAB
  0
TABLE
  2
STYLE
  5
3
330
0
100
AcDbSymbolTable
 70
     2
  0
STYLE
  5
17
330
3
100
AcDbSymbolTableRecord
100
AcDbTextStyleTableRecord
  2
Standard
 70
     0
 40
0.0
 41
1.0
 50
0.0
 71
     0
 42
2.5
  3
txt
  4
BIGFONT.SHX
  0
STYLE
  5
39
330
3
100
AcDbSymbolTableRecord
100
AcDbTextStyleTableRecord
  2
ＭＳ ゴシック
 70
     0
 40
0.0
 41
1.0
 50
0.0
 71
     0
 42
2.5
  3
msgothic.ttc
  4
ＭＳ ゴシック
1001
ACAD
1000
ＭＳ ゴシック
1071
        0
  0
ENDTAB
  0
TABLE
  2
VIEW
  5
5
330
0
100
AcDbSymbolTable
 70
     0
  0
ENDTAB
  0
TABLE
  2
UCS
  5
6
330
0
100
AcDbSymbolTable
 70
     0
  0
ENDTAB
  0
TABLE
  2
APPID
  5
8
330
0
100
AcDbSymbolTable
 70
     3
  0
APPID
  5
16
330
8
100
AcDbSymbolTableRecord
100
AcDbRegAppTableRecord
  2
ACAD
 70
     0
  0
APPID
  5
7AC
330
8
100
AcDbSymbolTableRecord
100
AcDbRegAppTableRecord
  2
AcAecLayerStandard
 70
     0
  0
APPID
  5
F3A
330
8
100
AcDbSymbolTableRecord
100
AcDbRegAppTableRecord
  2
ACAD_MLEADERVER
 70
     0
  0
ENDTAB
  0
TABLE
  2
DIMSTYLE
  5
9
330
0
100
AcDbSymbolTable
 70
     3
100
AcDbDimStyleTable
  0
DIMSTYLE
105
18
330
9
100
AcDbSymbolTableRecord
100
AcDbDimStyleTableRecord
  2
Standard
 70
     0
178
     0
340
17
  0
DIMSTYLE
105
57
102
{ACAD_REACTORS
330
37CA
330
37D8
330
37E3
330
37F8
330
3807
330
3816
330
3825
330
3834
330
3843
330
3852
330
3861
330
3870
330
387F
330
388E
330
389D
330
3947
330
3948
330
3949
330
394A
330
394B
330
394C
330
394D
330
394F
330
3950
330
3952
102
}
330
9
100
AcDbSymbolTableRecord
100
AcDbDimStyleTableRecord
  2
tfrom線あり
 70
     0
  3
<>
  4
[]
 41
10.0
 42
30.0
 43
0.9999999999999999
 44
0.0
 73
     0
 74
     0
 77
     1
 78
    11
140
24.0
141
0.0
143
1.0
147
15.0
171
     1
174
     1
178
     0
179
     2
271
     0
272
     1
276
     2
284
    11
285
    11
286
    11
289
     0
340
39
341
4E
342
4E
  0
DIMSTYLE
105
3786
330
9
100
AcDbSymbolTableRecord
100
AcDbDimStyleTableRecord
  2
JIS
 70
     0
  3
<>
  4
[]
 41
31.75
 42
0.0
 43
6.99999999999994
 44
19.9999999999962
 73
     0
 74
     0
 77
     1
 78
    11
140
24.4326171875
141
0.0
143
1.0
147
1.00000000000108
171
     1
174
     1
178
     0
179
     2
271
     1
272
     1
276
     2
284
    11
285
    11
286
    11
289
     0
340
39
341
3787
342
3787
  0
ENDTAB
  0
TABLE
  2
BLOCK_RECORD
  5
1
330
0
100
AcDbSymbolTable
 70
    49
  0
BLOCK_RECORD
  5
A
102
{ACAD_XDICTIONARY
360
374D
102
}
330
1
100
AcDbSymbolTableRecord
100
AcDbBlockTableRecord
  2
*MODEL_SPACE
340
20
 70
     0
280
     1
281
     0
  0
BLOCK_RECORD
  5
B
330
1
100
AcDbSymbolTableRecord
100
AcDbBlockTableRecord
  2
*PAPER_SPACE
340
21
 70
     0
280
     1
281
     0
  0
BLOCK_RECORD
  5
4E
330
1
100
AcDbSymbolTableRecord
100
AcDbBlockTableRecord
  2
_DOT
340
0
 70
     0
280
     1
281
     0
  0
BLOCK_RECORD
  5
68D
330
1
100
AcDbSymbolTableRecord
100
AcDbBlockTableRecord
  2
block 2
340
0
102
{BLKREFS
331
68C
102
}
 70
     0
280
     1
281
     0
  0
BLOCK_RECORD
  5
199A
330
1
100
AcDbSymbolTableRecord
100
AcDbBlockTableRecord
  2
SEANNOT_GROUP
340
0
102
{BLKREFS
331
28CA
102
}
 70
     0
280
     1
281
     0
  0
BLOCK_RECORD
  5
1F2F
330
1
100
AcDbSymbolTableRecord
100
AcDbBlockTableRecord
  2
SEANNOT_GROUP1
340
0
102
{BLKREFS
331
2B9B
102
}
 70
     0
280
     1
281
     0
  0
BLOCK_RECORD
  5
3734
330
1
100
AcDbSymbolTableRecord
100
AcDbBlockTableRecord
  2
*D4
340
0
 70
     0
280
     1
281
     0
  0
BLOCK_RECORD
  5
3740
330
1
100
AcDbSymbolTableRecord
100
AcDbBlockTableRecord
  2
*D5
340
0
 70
     0
280
     1
281
     0
  0
BLOCK_RECORD
  5
3787
330
1
100
AcDbSymbolTableRecord
100
AcDbBlockTableRecord
  2
VW_FILLEDARROW
340
0
102
{BLKREFS
331
39D2
331
39DF
331
3A10
331
3A1F
331
3A20
102
}
 70
     0
280
     1
281
     0
  0
BLOCK_RECORD
  5
37B4
330
1
100
AcDbSymbolTableRecord
100
AcDbBlockTableRecord
  2
グループ
340
0
102
{BLKREFS
331
37B3
331
0
102
}
 70
     0
280
     1
281
     0
  0
BLOCK_RECORD
  5
37CB
330
1
100
AcDbSymbolTableRecord
100
AcDbBlockTableRecord
  2
*D9
340
0
 70
     0
280
     1
281
     0
  0
BLOCK_RECORD
  5
37D9
330
1
100
AcDbSymbolTableRecord
100
AcDbBlockTableRecord
  2
*D10
340
0
 70
     0
280
     1
281
     0
  0
BLOCK_RECORD
  5
37E4
330
1
100
AcDbSymbolTableRecord
100
AcDbBlockTableRecord
  2
*D11
340
0
 70
     0
280
     1
281
     0
  0
BLOCK_RECORD
  5
37F9
330
1
100
AcDbSymbolTableRecord
100
AcDbBlockTableRecord
  2
*D12
340
0
 70
     0
280
     1
281
     0
  0
BLOCK_RECORD
  5
3808
330
1
100
AcDbSymbolTableRecord
100
AcDbBlockTableRecord
  2
*D13
340
0
 70
     0
280
     1
281
     0
  0
BLOCK_RECORD
  5
3817
330
1
100
AcDbSymbolTableRecord
100
AcDbBlockTableRecord
  2
*D14
340
0
 70
     0
280
     1
281
     0
  0
BLOCK_RECORD
  5
3826
330
1
100
AcDbSymbolTableRecord
100
AcDbBlockTableRecord
  2
*D15
340
0
 70
     0
280
     1
281
     0
  0
BLOCK_RECORD
  5
3835
330
1
100
AcDbSymbolTableRecord
100
AcDbBlockTableRecord
  2
*D16
340
0
 70
     0
280
     1
281
     0
  0
BLOCK_RECORD
  5
3844
330
1
100
AcDbSymbolTableRecord
100
AcDbBlockTableRecord
  2
*D17
340
0
 70
     0
280
     1
281
     0
  0
BLOCK_RECORD
  5
3853
330
1
100
AcDbSymbolTableRecord
100
AcDbBlockTableRecord
  2
*D18
340
0
 70
     0
280
     1
281
     0
  0
BLOCK_RECORD
  5
3862
330
1
100
AcDbSymbolTableRecord
100
AcDbBlockTableRecord
  2
*D19
340
0
 70
     0
280
     1
281
     0
  0
BLOCK_RECORD
  5
3871
330
1
100
AcDbSymbolTableRecord
100
AcDbBlockTableRecord
  2
*D20
340
0
 70
     0
280
     1
281
     0
  0
BLOCK_RECORD
  5
3880
330
1
100
AcDbSymbolTableRecord
100
AcDbBlockTableRecord
  2
*D21
340
0
 70
     0
280
     1
281
     0
  0
BLOCK_RECORD
  5
388F
330
1
100
AcDbSymbolTableRecord
100
AcDbBlockTableRecord
  2
*D22
340
0
 70
     0
280
     1
281
     0
  0
BLOCK_RECORD
  5
389E
330
1
100
AcDbSymbolTableRecord
100
AcDbBlockTableRecord
  2
*D23
340
0
 70
     0
280
     1
281
     0
  0
BLOCK_RECORD
  5
38D4
330
1
100
AcDbSymbolTableRecord
100
AcDbBlockTableRecord
  2
*D24
340
0
 70
     0
280
     1
281
     0
  0
BLOCK_RECORD
  5
38DC
330
1
100
AcDbSymbolTableRecord
100
AcDbBlockTableRecord
  2
*D25
340
0
 70
     0
280
     1
281
     0
  0
BLOCK_RECORD
  5
38E4
330
1
100
AcDbSymbolTableRecord
100
AcDbBlockTableRecord
  2
*D26
340
0
 70
     0
280
     1
281
     0
  0
BLOCK_RECORD
  5
38EC
330
1
100
AcDbSymbolTableRecord
100
AcDbBlockTableRecord
  2
*D27
340
0
 70
     0
280
     1
281
     0
  0
BLOCK_RECORD
  5
38F9
330
1
100
AcDbSymbolTableRecord
100
AcDbBlockTableRecord
  2
*D28
340
0
 70
     0
280
     1
281
     0
  0
BLOCK_RECORD
  5
3906
330
1
100
AcDbSymbolTableRecord
100
AcDbBlockTableRecord
  2
*D29
340
0
 70
     0
280
     1
281
     0
  0
BLOCK_RECORD
  5
3913
330
1
100
AcDbSymbolTableRecord
100
AcDbBlockTableRecord
  2
*D30
340
0
 70
     0
280
     1
281
     0
  0
BLOCK_RECORD
  5
3978
330
1
100
AcDbSymbolTableRecord
100
AcDbBlockTableRecord
  2
*D31
340
0
 70
     0
280
     1
281
     0
  0
BLOCK_RECORD
  5
3980
330
1
100
AcDbSymbolTableRecord
100
AcDbBlockTableRecord
  2
*D32
340
0
 70
     0
280
     1
281
     0
  0
BLOCK_RECORD
  5
3988
330
1
100
AcDbSymbolTableRecord
100
AcDbBlockTableRecord
  2
*D33
340
0
 70
     0
280
     1
281
     0
  0
BLOCK_RECORD
  5
3990
330
1
100
AcDbSymbolTableRecord
100
AcDbBlockTableRecord
  2
*D34
340
0
 70
     0
280
     1
281
     0
  0
BLOCK_RECORD
  5
399C
330
1
100
AcDbSymbolTableRecord
100
AcDbBlockTableRecord
  2
*D35
340
0
 70
     0
280
     1
281
     0
  0
BLOCK_RECORD
  5
39A8
330
1
100
AcDbSymbolTableRecord
100
AcDbBlockTableRecord
  2
*D36
340
0
 70
     0
280
     1
281
     0
  0
BLOCK_RECORD
  5
39B4
330
1
100
AcDbSymbolTableRecord
100
AcDbBlockTableRecord
  2
*D37
340
0
 70
     0
280
     1
281
     0
  0
BLOCK_RECORD
  5
39C0
330
1
100
AcDbSymbolTableRecord
100
AcDbBlockTableRecord
  2
*D38
340
0
 70
     0
280
     1
281
     0
  0
BLOCK_RECORD
  5
39CC
330
1
100
AcDbSymbolTableRecord
100
AcDbBlockTableRecord
  2
*D39
340
0
 70
     0
280
     1
281
     0
  0
BLOCK_RECORD
  5
39D9
330
1
100
AcDbSymbolTableRecord
100
AcDbBlockTableRecord
  2
*D40
340
0
 70
     0
280
     1
281
     0
  0
BLOCK_RECORD
  5
39E6
330
1
100
AcDbSymbolTableRecord
100
AcDbBlockTableRecord
  2
*D41
340
0
 70
     0
280
     1
281
     0
  0
BLOCK_RECORD
  5
39F2
330
1
100
AcDbSymbolTableRecord
100
AcDbBlockTableRecord
  2
*D42
340
0
 70
     0
280
     1
281
     0
  0
BLOCK_RECORD
  5
39FE
330
1
100
AcDbSymbolTableRecord
100
AcDbBlockTableRecord
  2
*D43
340
0
 70
     0
280
     1
281
     0
  0
BLOCK_RECORD
  5
3A0A
330
1
100
AcDbSymbolTableRecord
100
AcDbBlockTableRecord
  2
*D44
340
0
 70
     0
280
     1
281
     0
  0
BLOCK_RECORD
  5
3A17
330
1
100
AcDbSymbolTableRecord
100
AcDbBlockTableRecord
  2
*D45
340
0
 70
     0
280
     1
281
     0
  0
ENDTAB
  0
ENDSEC
  0
SECTION
  2
BLOCKS
  0
BLOCK
  5
D
330
A
100
AcDbEntity
  8
0
390
1D
100
AcDbBlockBegin
  2
*MODEL_SPACE
 70
     0
 10
0.0
 20
0.0
 30
0.0
  3
*MODEL_SPACE
  1
*MODEL_SPACE
  0
ENDBLK
  5
E
330
A
100
AcDbEntity
  8
0
390
1D
100
AcDbBlockEnd
  0
BLOCK
  5
F
330
B
100
AcDbEntity
 67
     1
  8
0
390
1D
100
AcDbBlockBegin
  2
*PAPER_SPACE
 70
     0
 10
0.0
 20
0.0
 30
0.0
  3
*PAPER_SPACE
  1
*PAPER_SPACE
  0
ENDBLK
  5
10
330
B
100
AcDbEntity
 67
     1
  8
0
390
1D
100
AcDbBlockEnd
  0
BLOCK
  5
3A43
330
4E
100
AcDbEntity
  8
0
390
1D
100
AcDbBlockBegin
  2
_DOT
 70
     0
 10
0.0
 20
0.0
 30
0.0
  3
_DOT
  1
_DOT
  0
POLYLINE
  5
3A45
330
4E
100
AcDbEntity
  8
0
  6
ByBlock
 62
     0
370
    -2
390
1D
100
AcDb2dPolyline
 66
     1
 10
0.0
 20
0.0
 30
0.0
 70
     1
 40
0.5
 41
0.5
  0
VERTEX
  5
3A46
330
3A45
100
AcDbEntity
  8
0
  6
ByBlock
 62
     0
370
    -2
390
1D
100
AcDbVertex
100
AcDb2dVertex
 10
-0.25
 20
0.0
 30
0.0
 42
1.0
  0
VERTEX
  5
3A47
330
3A45
100
AcDbEntity
  8
0
  6
ByBlock
 62
     0
370
    -2
390
1D
100
AcDbVertex
100
AcDb2dVertex
 10
0.25
 20
0.0
 30
0.0
 42
1.0
  0
SEQEND
  5
3A48
330
3A45
100
AcDbEntity
  8
0
390
1D
  0
LINE
  5
3A49
330
4E
100
AcDbEntity
  8
0
  6
ByBlock
 62
     0
370
    -2
390
1D
100
AcDbLine
 10
-0.5
 20
0.0
 30
0.0
 11
-1.0
 21
0.0
 31
0.0
  0
ENDBLK
  5
3A4A
330
4E
100
AcDbEntity
  8
0
390
1D
100
AcDbBlockEnd
  0
BLOCK
  5
68E
330
68D
100
AcDbEntity
  8
0
100
AcDbBlockBegin
  2
block 2
 70
     0
 10
0.0
 20
0.0
 30
0.0
  3
block 2
  1
block 2
  0
ENDBLK
  5
6B0
330
68D
100
AcDbEntity
  8
0
100
AcDbBlockEnd
  0
BLOCK
  5
199B
330
199A
100
AcDbEntity
  8
0
100
AcDbBlockBegin
  2
SEANNOT_GROUP
 70
     0
 10
0.0
 20
0.0
 30
0.0
  3
SEANNOT_GROUP
  1
SEANNOT_GROUP
  0
ENDBLK
  5
199C
330
199A
100
AcDbEntity
  8
0
100
AcDbBlockEnd
  0
BLOCK
  5
1F30
330
1F2F
100
AcDbEntity
  8
0
100
AcDbBlockBegin
  2
SEANNOT_GROUP1
 70
     0
 10
0.0
 20
0.0
 30
0.0
  3
SEANNOT_GROUP1
  1
SEANNOT_GROUP1
  0
ENDBLK
  5
1F31
330
1F2F
100
AcDbEntity
  8
0
100
AcDbBlockEnd
  0
BLOCK
  5
3735
330
3734
100
AcDbEntity
  8
0
100
AcDbBlockBegin
  2
*D4
 70
     1
 10
0.0
 20
0.0
 30
0.0
  3
*D4
  1

  0
LINE
  5
3737
330
3734
100
AcDbEntity
  8
DIM
 62
     0
370
    -2
100
AcDbLine
 10
-1188.368627289904
 20
1624.375151854103
 30
0.0
 11
-1188.368627289904
 21
1945.106376948328
 31
0.0
  0
LINE
  5
3738
330
3734
100
AcDbEntity
  8
DIM
 62
     0
370
    -2
100
AcDbLine
 10
-617.4786576850504
 20
1624.375151854103
 30
0.0
 11
-617.4786576850504
 21
1945.106376948328
 31
0.0
  0
LINE
  5
3739
330
3734
100
AcDbEntity
  8
DIM
 62
     0
370
    -2
100
AcDbLine
 10
-1178.368627289904
 20
1945.106376948328
 30
0.0
 11
-627.4786576850504
 21
1945.106376948328
 31
0.0
  0
INSERT
  5
373A
330
3734
100
AcDbEntity
  8
DIM
 62
     0
370
    -2
100
AcDbBlockReference
  2
_DOT
 10
-1188.368627289904
 20
1945.106376948328
 30
0.0
 41
10.0
 42
10.0
 43
10.0
 50
180.0
  0
INSERT
  5
373B
330
3734
100
AcDbEntity
  8
DIM
 62
     0
370
    -2
100
AcDbBlockReference
  2
_DOT
 10
-617.4786576850504
 20
1945.106376948328
 30
0.0
 41
10.0
 42
10.0
 43
10.0
  0
MTEXT
  5
373C
330
3734
100
AcDbEntity
  8
DIM
 62
     0
100
AcDbMText
 10
-902.9236424874805
 20
1972.106376948328
 30
0.0
 40
24.0
 41
0.0
 46
0.0
 71
     5
 72
     1
  1
\A1;571
  7
ＭＳ ゴシック
 73
     1
 44
1.0
  0
POINT
  5
373D
330
3734
100
AcDbEntity
  8
Defpoints
 62
     0
100
AcDbPoint
 10
-1188.368627289904
 20
1594.375151854103
 30
0.0
  0
POINT
  5
373E
330
3734
100
AcDbEntity
  8
Defpoints
 62
     0
100
AcDbPoint
 10
-617.4786576850504
 20
1594.375151854103
 30
0.0
  0
POINT
  5
373F
330
3734
100
AcDbEntity
  8
Defpoints
 62
     0
100
AcDbPoint
 10
-617.4786576850504
 20
1945.106376948328
 30
0.0
  0
ENDBLK
  5
3736
330
3734
100
AcDbEntity
  8
0
100
AcDbBlockEnd
  0
BLOCK
  5
3741
330
3740
100
AcDbEntity
  8
0
100
AcDbBlockBegin
  2
*D5
 70
     1
 10
0.0
 20
0.0
 30
0.0
  3
*D5
  1

  0
LINE
  5
3743
330
3740
100
AcDbEntity
  8
DIM
 62
     0
370
    -2
100
AcDbLine
 10
-1092.358199412401
 20
1564.375151854103
 30
0.0
 11
-1092.358199412401
 21
1160.881823708206
 31
0.0
  0
LINE
  5
3744
330
3740
100
AcDbEntity
  8
DIM
 62
     0
370
    -2
100
AcDbLine
 10
-713.4890855625533
 20
1564.375151854103
 30
0.0
 11
-713.4890855625533
 21
1160.881823708206
 31
0.0
  0
LINE
  5
3745
330
3740
100
AcDbEntity
  8
DIM
 62
     0
370
    -2
100
AcDbLine
 10
-1082.358199412401
 20
1160.881823708206
 30
0.0
 11
-723.4890855625533
 21
1160.881823708206
 31
0.0
  0
INSERT
  5
3746
330
3740
100
AcDbEntity
  8
DIM
 62
     0
370
    -2
100
AcDbBlockReference
  2
_DOT
 10
-1092.358199412401
 20
1160.881823708206
 30
0.0
 41
10.0
 42
10.0
 43
10.0
 50
180.0
  0
INSERT
  5
3747
330
3740
100
AcDbEntity
  8
DIM
 62
     0
370
    -2
100
AcDbBlockReference
  2
_DOT
 10
-713.4890855625533
 20
1160.881823708206
 30
0.0
 41
10.0
 42
10.0
 43
10.0
  0
MTEXT
  5
3748
330
3740
100
AcDbEntity
  8
DIM
 62
     0
100
AcDbMText
 10
-902.923642487477
 20
1187.881823708206
 30
0.0
 40
24.0
 41
0.0
 46
0.0
 71
     5
 72
     1
  1
\A1;379
  7
ＭＳ ゴシック
 73
     1
 44
1.0
  0
POINT
  5
3749
330
3740
100
AcDbEntity
  8
Defpoints
 62
     0
100
AcDbPoint
 10
-1092.358199412401
 20
1594.375151854103
 30
0.0
  0
POINT
  5
374A
330
3740
100
AcDbEntity
  8
Defpoints
 62
     0
100
AcDbPoint
 10
-713.4890855625533
 20
1594.375151854103
 30
0.0
  0
POINT
  5
374B
330
3740
100
AcDbEntity
  8
Defpoints
 62
     0
100
AcDbPoint
 10
-713.4890855625533
 20
1160.881823708206
 30
0.0
  0
ENDBLK
  5
3742
330
3740
100
AcDbEntity
  8
0
100
AcDbBlockEnd
  0
BLOCK
  5
3788
330
3787
100
AcDbEntity
  8
0
  6
ByBlock
 62
     0
370
    -2
390
1D
100
AcDbBlockBegin
  2
VW_FILLEDARROW
 70
     0
 10
0.0
 20
0.0
 30
0.0
  3
VW_FILLEDARROW
  1

  0
SOLID
  5
3789
330
3787
100
AcDbEntity
  8
0
 62
     0
370
    -2
390
1D
100
AcDbTrace
 10
0.0
 20
0.0
 30
0.0
 11
-0.9921874999999999
 21
-0.2658558393652545
 31
0.0
 12
-0.9921874999999999
 22
0.2658558393652548
 32
0.0
 13
-0.9921874999999999
 23
0.2658558393652548
 33
0.0
  0
ENDBLK
  5
378A
330
3787
100
AcDbEntity
  8
0
390
1D
100
AcDbBlockEnd
  0
BLOCK
  5
37B5
330
37B4
100
AcDbEntity
  8
TEMPLATE
390
1D
100
AcDbBlockBegin
  2
グループ
 70
     0
 10
0.0
 20
0.0
 30
0.0
  3
グループ
  1

  0
LWPOLYLINE
  5
37B6
330
37B4
100
AcDbEntity
  8
0
  6
Continuous
 62
     7
370
    15
390
1D
100
AcDbPolyline
 90
        8
 70
   129
 43
0.0
 10
784.3166057267956
 20
-1499.408745461079
 10
784.3166057267956
 20
-1505.406134154654
 10
774.8154088087923
 20
-1505.406134154654
 10
774.8154088087923
 20
-1529.857097418163
 10
766.4600315470095
 20
-1529.857097418163
 10
766.4600315470095
 20
-1505.406134154654
 10
757.1270746007001
 20
-1505.406134154654
 10
757.1270746007001
 20
-1499.408745461079
  0
LWPOLYLINE
  5
37B7
330
37B4
100
AcDbEntity
  8
0
  6
Continuous
 62
     7
370
    15
390
1D
100
AcDbPolyline
 90
      101
 70
   128
 43
0.0
 10
797.0448975573526
 20
-1500.136993954015
 10
797.0602475861342
 20
-1500.132633197331
 42
-0.0222221607817777
 10
797.3502521628086
 20
-1500.064008732085
 10
797.3660459267986
 20
-1500.061005308989
 42
-0.0146883565588584
 10
797.6287486320264
 20
-1500.019002122039
 42
-0.0127458844186818
 10
797.8933875991781
 20
-1499.991465153967
 10
797.9558426774922
 20
-1499.986571731378
 42
-0.0198099018565024
 10
798.3466917869671
 20
-1499.971486573982
 10
798.3985032564128
 20
-1499.971540349647
 42
-0.0147617382759398
 10
798.8931267173904
 20
-1499.986660374892
 10
798.9658181722638
 20
-1499.991032981779
 42
-0.0162624549002507
 10
799.3559718017266
 20
-1500.027265857052
 10
799.4775041929885
 20
-1500.042552416048
 42
-0.0080020874663838
 10
799.6230832240774
 20
-1500.063235263317
 10
799.6614026946689
 20
-1500.069306541127
 42
-0.0053821929683784
 10
799.7298867999872
 20
-1500.080914064949
 10
799.0034811007886
 20
-1502.261842520663
 42
0.0108667757391066
 10
798.9361640306546
 20
-1502.248655405443
 10
798.8986960074683
 20
-1502.242157662849
 42
0.0170663203312596
 10
798.75547922055
 20
-1502.222328065557
 10
798.6876038878697
 20
-1502.21528089497
 42
0.0220162375273787
 10
798.4072244800158
 20
-1502.198598534199
 10
798.3293689129623
 20
-1502.197399166933
 42
0.028260691578743
 10
797.9937325893844
 20
-1502.211202443902
 10
797.9498193156063
 20
-1502.215502433906
 42
0.0169677213691226
 10
797.7038948206532
 20
-1502.248039483457
 42
0.0190576269865476
 10
797.4609868580708
 20
-1502.298186355564
 10
797.4547276699623
 20
-1502.299729329673
 42
0.0213685642849454
 10
797.204343185485
 20
-1502.372929614778
 10
797.1988532905683
 20
-1502.374792610837
 42
0.0237595297600202
 10
796.9453584056693
 20
-1502.474477132733
 10
796.94025633164
 20
-1502.476768908211
 42
0.0261857468818867
 10
796.6880855554108
 20
-1502.606305245585
 10
796.6776593663246
 20
-1502.612370720053
 42
0.0272553062019538
 10
796.4412295910845
 20
-1502.767742925998
 10
796.4064665775758
 20
-1502.79340407409
 42
0.0325996893174308
 10
796.2563112339235
 20
-1502.920151947062
 10
796.2326018048059
 20
-1502.942969975569
 42
0.0138050960625417
 10
796.1407186485903
 20
-1503.036419637126
 42
0.01252801037972
 10
796.0538761157593
 20
-1503.134582963723
 10
796.0301956708485
 20
-1503.162741461914
 42
0.020521802473911
 10
795.9050955953354
 20
-1503.324534776142
 10
795.8826292548476
 20
-1503.35619450597
 42
0.016311012958739
 10
795.7269188755944
 20
-1503.591524941043
 10
795.7241949795454
 20
-1503.595948703025
 42
0.0131897341891381
 10
795.5773944586417
 20
-1503.849080795385
 10
795.575694363273
 20
-1503.852199034525
 42
0.0107895576063661
 10
795.4379176610622
 20
-1504.11841424416
 10
795.4371847715372
 20
-1504.119908476807
 42
0.0091371507219764
 10
795.3087048228897
 20
-1504.394433674562
 10
795.2789591914784
 20
-1504.461140181725
 42
0.0135418326352016
 10
795.1072452524066
 20
-1504.876077966994
 10
795.0736404439705
 20
-1504.96394410928
 42
0.0092834542415447
 10
794.9024113840517
 20
-1505.43784260758
 10
794.8767942563353
 20
-1505.51308367737
 42
0.0054261043581441
 10
794.769156108041
 20
-1505.840847650439
 10
794.7516301218637
 20
-1505.896235812669
 42
0.0008225090821317
 10
794.6829600700336
 20
-1506.114504570818
 10
793.6982709381001
 20
-1509.139395864075
 10
796.930894778174
 20
-1509.139395864075
 10
796.4267023483205
 20
-1511.043874162427
 10
793.1706460663372
 20
-1511.043874162427
 10
787.3414970339834
 20
-1529.857097228432
 10
785.5163994236731
 20
-1529.857097228432
 10
791.351077459174
 20
-1511.043874162427
 10
788.9459610901337
 20
-1511.043874162427
 10
789.4501535199871
 20
-1509.139395864075
 10
791.8787023309371
 20
-1509.139395864075
 10
792.7388572491258
 20
-1506.502982863376
 42
-0.0005863560637245
 10
792.7755919273127
 20
-1506.386156443137
 10
792.8516797609897
 20
-1506.145164143699
 42
-0.0087522378928675
 10
793.0511479044465
 20
-1505.549888056553
 10
793.1434121798618
 20
-1505.289747888034
 42
-0.0077400953829935
 10
793.4013458389911
 20
-1504.596743210491
 10
793.41711081057
 20
-1504.556312327105
 42
-0.0082369946331563
 10
793.664195281182
 20
-1503.952233260909
 42
-0.0085725238365509
 10
793.9314413771817
 20
-1503.356807221629
 10
794.0330709781931
 20
-1503.140386119635
 42
-0.016810941059602
 10
794.3200154069223
 20
-1502.579178593533
 10
794.4458587973993
 20
-1502.352214560503
 42
-0.0007817726859979
 10
794.5001431474379
 20
-1502.254670315504
 10
794.5002714534558
 20
-1502.254440606767
 42
-0.0036626142159625
 10
794.5551593174764
 20
-1502.157842726799
 42
-0.0080221150661354
 10
794.6122835728814
 20
-1502.062563492049
 10
794.6429835242443
 20
-1502.013172542924
 42
-0.0202139325564206
 10
794.7706392640548
 20
-1501.825190942238
 10
794.8247067292386
 20
-1501.752112078002
 42
-0.0249323791802294
 10
795.0838695229563
 20
-1501.436066835849
 10
795.1080093370848
 20
-1501.409452562935
 42
-0.0242132121538421
 10
795.4476900786271
 20
-1501.069569076731
 10
795.4956016513738
 20
-1501.026059940549
 42
-0.0251017527862362
 10
795.7795833520181
 20
-1500.79306719478
 10
795.7810288288348
 20
-1500.791997937199
 42
-0.0130868069033939
 10
796.0792894787892
 20
-1500.583217468659
 10
796.0808512979313
 20
-1500.582184028384
 42
-0.0290329526388998
 10
796.3919624393252
 20
-1500.401358526754
 10
796.4218080013136
 20
-1500.386256143914
 42
-0.0160250190046978
 10
796.687712415076
 20
-1500.262240033702
 42
-0.0267600374784093
 10
796.9629884925433
 20
-1500.161491713154
 10
796.9897244120656
 20
-1500.153299154327
 42
-0.0049981587669942
 10
797.0448975573526
 20
-1500.136993954015
 42
-0.0049981587669942
  0
LWPOLYLINE
  5
37B8
330
37B4
100
AcDbEntity
  8
0
  6
Continuous
 62
     7
370
    15
390
1D
100
AcDbPolyline
 90
      118
 70
   128
 43
0.0
 10
816.8592651217995
 20
-1509.213379191902
 10
818.7343870462989
 20
-1509.213379191902
 10
817.896348140699
 20
-1511.894945718302
 42
-0.001058722925599
 10
817.92780395627
 20
-1511.858041184948
 10
817.985998046903
 20
-1511.790058928771
 42
-0.0071874740410313
 10
818.1363732649988
 20
-1511.619418236745
 10
818.2780960382632
 20
-1511.463182095429
 42
-0.0148118053512996
 10
818.7282253309739
 20
-1510.995568249418
 10
818.815447665869
 20
-1510.910170928571
 42
-0.0086273358696612
 10
819.1509964668862
 20
-1510.592795294546
 10
819.194830183113
 20
-1510.552745650212
 42
-0.0103138323114386
 10
819.4528538853456
 20
-1510.326582512875
 10
819.4986282916741
 20
-1510.288100465613
 42
-0.0060206748570533
 10
819.6714763557849
 20
-1510.14630581486
 10
819.6735074866751
 20
-1510.144680109225
 42
-0.0067069027293138
 10
819.8458003013334
 20
-1510.010529475434
 10
819.8483490672708
 20
-1510.00859930555
 42
-0.0076184352049233
 10
820.0192543331307
 20
-1509.883224430315
 42
-0.0089652861672345
 10
820.1942152958645
 20
-1509.763591169982
 10
820.2305670160147
 20
-1509.739679956496
 42
-0.0156916245933787
 10
820.4265265131703
 20
-1509.619417470025
 42
-0.0023299011070676
 10
820.626788557117
 20
-1509.506239530502
 10
820.64217268953
 20
-1509.497639535419
 42
-0.0107669341484524
 10
820.8764095146336
 20
-1509.373239402069
 10
820.8986743157061
 20
-1509.36202265212
 42
-0.0078058045896343
 10
821.1822644336593
 20
-1509.224661196481
 10
821.192171521368
 20
-1509.220052068613
 42
-0.0181829330472748
 10
821.5024809259813
 20
-1509.089188327518
 10
821.5565363685483
 20
-1509.068673207574
 42
-0.0208411536031552
 10
821.9056213360006
 20
-1508.952582745081
 10
821.9199774361277
 20
-1508.948464300127
 42
-0.0222799817142269
 10
822.2486972300453
 20
-1508.869822733987
 10
822.2575861932858
 20
-1508.868110723401
 42
-0.0215509523879371
 10
822.5740571615622
 20
-1508.821195034867
 10
822.616539122608
 20
-1508.816757508077
 42
-0.0182545924872201
 10
822.8506479019163
 20
-1508.800913682686
 10
822.8900489182618
 20
-1508.799689137606
 42
-0.0072962856533868
 10
823.0459717979534
 20
-1508.797119809084
 10
823.0750714685332
 20
-1508.797064973681
 42
-0.0059227516316847
 10
823.1728209676703
 20
-1508.798038685471
 10
823.2020631851423
 20
-1508.798676452074
 42
-0.0011833111906193
 10
823.2413144688746
 20
-1508.799625456384
 10
822.4459278732675
 20
-1511.338359401483
 42
0.0143932051604141
 10
822.4195264909187
 20
-1511.328160431439
 10
822.4122545184996
 20
-1511.325589212581
 42
0.0234388603514764
 10
822.3704236525667
 20
-1511.312969976865
 10
822.3617419896548
 20
-1511.31078901486
 42
0.0199162742987225
 10
822.3014531555782
 20
-1511.298172279526
 10
822.2806392177686
 20
-1511.294675080097
 42
0.0293643550671134
 10
822.1775643590074
 20
-1511.283525034444
 10
822.1528791782891
 20
-1511.282313417425
 42
0.0214606686862781
 10
821.999738262336
 20
-1511.281374857007
 10
821.9903663515187
 20
-1511.281719768552
 42
0.0167564054175813
 10
821.8188461604085
 20
-1511.29379681092
 10
821.8103863676513
 20
-1511.294678151347
 42
0.0137677553241547
 10
821.6230330543838
 20
-1511.319427459891
 10
821.6156813148787
 20
-1511.320605379859
 42
0.0118497261489513
 10
821.415183550769
 20
-1511.357622730049
 10
821.4090335435301
 20
-1511.358909592768
 42
0.0106421143892849
 10
821.1981526562388
 20
-1511.407741968344
 10
821.193243847856
 20
-1511.408989311028
 42
0.0099746379700225
 10
820.9747853786938
 20
-1511.469163839342
 10
820.9132373385232
 20
-1511.487445717973
 42
0.0191613675858793
 10
820.5772528760081
 20
-1511.60142309826
 10
820.4891931032612
 20
-1511.635110008584
 42
0.020527408014296
 10
820.1038863313615
 20
-1511.800938416411
 10
820.0462370493792
 20
-1511.828606380983
 42
0.0181256912193791
 10
819.7879601087126
 20
-1511.964290199961
 10
819.7350047253994
 20
-1511.994607813175
 42
0.0140709242412378
 10
819.5900497907703
 20
-1512.08310248661
 10
819.5638009221609
 20
-1512.100159305319
 42
0.0086667884386945
 10
819.4748747606093
 20
-1512.160161973208
 42
0.0036408192032872
 10
819.3874415225634
 20
-1512.22234283101
 10
819.3522146481073
 20
-1512.247783776913
 42
0.0052260781284857
 10
819.1959859506971
 20
-1512.363116163562
 10
819.1797790944565
 20
-1512.375344274166
 42
0.0050024435894945
 10
818.9937757514132
 20
-1512.518626842416
 10
818.9784575948826
 20
-1512.530672864874
 42
0.0136138710286033
 10
818.7680163265512
 20
-1512.705639369793
 10
818.7343484507637
 20
-1512.735218342501
 42
0.0172815186916378
 10
818.4699449090998
 20
-1512.984215015126
 10
818.4673825632585
 20
-1512.986800832272
 42
0.018940385799064
 10
818.2168007646817
 20
-1513.259606097073
 10
818.1841692711425
 20
-1513.297950028574
 42
0.0185044199505771
 10
817.9922128321634
 20
-1513.541198609696
 42
0.0088565243894719
 10
817.8137527255404
 20
-1513.794715029838
 10
817.8045747458865
 20
-1513.808256409606
 42
0.0157195347235465
 10
817.6213541395481
 20
-1514.097778618929
 10
817.5752711976222
 20
-1514.175930815941
 42
0.0095451879778768
 10
817.4101856474839
 20
-1514.468525458299
 10
817.3990377285538
 20
-1514.489196130432
 42
0.0100351706254462
 10
817.266993979395
 20
-1514.746251690922
 42
0.0086935915423097
 10
817.1446628275976
 20
-1515.008084836334
 10
817.1413420861865
 20
-1515.015527159298
 42
0.007258017486708
 10
817.0209956342412
 20
-1515.296119150882
 10
817.0177340009352
 20
-1515.304039176899
 42
0.00600051226186
 10
816.8985333325869
 20
-1515.603648847519
 10
816.8953223542509
 20
-1515.612010375409
 42
0.0049017786975203
 10
816.7764221953928
 20
-1515.930939356015
 10
816.773256389003
 20
-1515.939692293244
 42
0.0039415167600963
 10
816.6538201109524
 20
-1516.27823435564
 10
816.6506890082942
 20
-1516.287337556533
 42
0.00310358387672
 10
816.5298842226073
 20
-1516.645777418288
 10
816.5267741780707
 20
-1516.655198039682
 42
0.002507074715268
 10
816.4038728267616
 20
-1517.033845256606
 10
816.36657893033
 20
-1517.150736921878
 42
0.0029081910284835
 10
816.1745606325144
 20
-1517.764900580185
 10
816.1337574640021
 20
-1517.898123822446
 42
0.0009266453732116
 10
815.8653400897109
 20
-1518.780348282292
 10
815.8444526170367
 20
-1518.849460161638
 42
-0.0005809993665949
 10
815.5671159364556
 20
-1519.763268268244
 10
815.5008341381687
 20
-1519.980753200449
 42
-0.0012018708167743
 10
815.3538498287535
 20
-1520.458915864925
 10
815.3015299771764
 20
-1520.627675005828
 42
-0.0002691059599947
 10
815.2579604960193
 20
-1520.767942626132
 10
812.4250045977301
 20
-1529.857097228432
 10
810.6070157057516
 20
-1529.857097228432
 10
816.8592651217995
 20
-1509.213379191902
  0
SPLINE
  5
37B9
330
37B4
100
AcDbEntity
  8
0
  6
Continuous
 62
     7
370
    15
390
1D
100
AcDbSpline
210
0.0
220
0.0
230
1.0
 70
    15
 71
     2
 72
   782
 73
   779
 74
     0
 42
0.000000001
 43
0.000001
 40
0.0
 40
0.0
 40
0.0
 40
1.0
 40
1.0
 40
2.0
 40
2.0
 40
3.0
 40
3.0
 40
4.0
 40
4.0
 40
5.0
 40
5.0
 40
6.0
 40
6.0
 40
7.0
 40
7.0
 40
8.0
 40
8.0
 40
9.0
 40
9.0
 40
10.0
 40
10.0
 40
11.0
 40
11.0
 40
12.0
 40
12.0
 40
13.0
 40
13.0
 40
14.0
 40
14.0
 40
15.0
 40
15.0
 40
16.0
 40
16.0
 40
17.0
 40
17.0
 40
18.0
 40
18.0
 40
19.0
 40
19.0
 40
20.0
 40
20.0
 40
21.0
 40
21.0
 40
22.0
 40
22.0
 40
23.0
 40
23.0
 40
24.0
 40
24.0
 40
25.0
 40
25.0
 40
26.0
 40
26.0
 40
27.0
 40
27.0
 40
28.0
 40
28.0
 40
29.0
 40
29.0
 40
30.0
 40
30.0
 40
31.0
 40
31.0
 40
32.0
 40
32.0
 40
33.0
 40
33.0
 40
34.0
 40
34.0
 40
35.0
 40
35.0
 40
36.0
 40
36.0
 40
37.0
 40
37.0
 40
38.0
 40
38.0
 40
39.0
 40
39.0
 40
40.0
 40
40.0
 40
41.0
 40
41.0
 40
42.0
 40
42.0
 40
43.0
 40
43.0
 40
44.0
 40
44.0
 40
45.0
 40
45.0
 40
46.0
 40
46.0
 40
47.0
 40
47.0
 40
48.0
 40
48.0
 40
49.0
 40
49.0
 40
50.0
 40
50.0
 40
51.0
 40
51.0
 40
52.0
 40
52.0
 40
53.0
 40
53.0
 40
54.0
 40
54.0
 40
55.0
 40
55.0
 40
56.0
 40
56.0
 40
57.0
 40
57.0
 40
58.0
 40
58.0
 40
59.0
 40
59.0
 40
60.0
 40
60.0
 40
61.0
 40
61.0
 40
62.0
 40
62.0
 40
63.0
 40
63.0
 40
64.0
 40
64.0
 40
65.0
 40
65.0
 40
66.0
 40
66.0
 40
67.0
 40
67.0
 40
68.0
 40
68.0
 40
69.0
 40
69.0
 40
70.0
 40
70.0
 40
71.0
 40
71.0
 40
72.0
 40
72.0
 40
73.0
 40
73.0
 40
74.0
 40
74.0
 40
75.0
 40
75.0
 40
76.0
 40
76.0
 40
77.0
 40
77.0
 40
78.0
 40
78.0
 40
79.0
 40
79.0
 40
80.0
 40
80.0
 40
81.0
 40
81.0
 40
82.0
 40
82.0
 40
83.0
 40
83.0
 40
84.0
 40
84.0
 40
85.0
 40
85.0
 40
86.0
 40
86.0
 40
87.0
 40
87.0
 40
88.0
 40
88.0
 40
89.0
 40
89.0
 40
90.0
 40
90.0
 40
91.0
 40
91.0
 40
92.0
 40
92.0
 40
93.0
 40
93.0
 40
94.0
 40
94.0
 40
95.0
 40
95.0
 40
96.0
 40
96.0
 40
97.0
 40
97.0
 40
98.0
 40
98.0
 40
99.0
 40
99.0
 40
100.0
 40
100.0
 40
101.0
 40
101.0
 40
102.0
 40
102.0
 40
103.0
 40
103.0
 40
104.0
 40
104.0
 40
105.0
 40
105.0
 40
106.0
 40
106.0
 40
107.0
 40
107.0
 40
108.0
 40
108.0
 40
109.0
 40
109.0
 40
110.0
 40
110.0
 40
111.0
 40
111.0
 40
112.0
 40
112.0
 40
113.0
 40
113.0
 40
114.0
 40
114.0
 40
115.0
 40
115.0
 40
116.0
 40
116.0
 40
117.0
 40
117.0
 40
118.0
 40
118.0
 40
119.0
 40
119.0
 40
120.0
 40
120.0
 40
121.0
 40
121.0
 40
122.0
 40
122.0
 40
123.0
 40
123.0
 40
124.0
 40
124.0
 40
125.0
 40
125.0
 40
126.0
 40
126.0
 40
127.0
 40
127.0
 40
128.0
 40
128.0
 40
129.0
 40
129.0
 40
130.0
 40
130.0
 40
131.0
 40
131.0
 40
132.0
 40
132.0
 40
133.0
 40
133.0
 40
134.0
 40
134.0
 40
135.0
 40
135.0
 40
136.0
 40
136.0
 40
137.0
 40
137.0
 40
138.0
 40
138.0
 40
139.0
 40
139.0
 40
140.0
 40
140.0
 40
141.0
 40
141.0
 40
142.0
 40
142.0
 40
143.0
 40
143.0
 40
144.0
 40
144.0
 40
145.0
 40
145.0
 40
146.0
 40
146.0
 40
147.0
 40
147.0
 40
148.0
 40
148.0
 40
149.0
 40
149.0
 40
150.0
 40
150.0
 40
151.0
 40
151.0
 40
152.0
 40
152.0
 40
153.0
 40
153.0
 40
154.0
 40
154.0
 40
155.0
 40
155.0
 40
156.0
 40
156.0
 40
157.0
 40
157.0
 40
158.0
 40
158.0
 40
159.0
 40
159.0
 40
160.0
 40
160.0
 40
161.0
 40
161.0
 40
162.0
 40
162.0
 40
163.0
 40
163.0
 40
164.0
 40
164.0
 40
165.0
 40
165.0
 40
166.0
 40
166.0
 40
167.0
 40
167.0
 40
168.0
 40
168.0
 40
169.0
 40
169.0
 40
170.0
 40
170.0
 40
171.0
 40
171.0
 40
172.0
 40
172.0
 40
173.0
 40
173.0
 40
174.0
 40
174.0
 40
175.0
 40
175.0
 40
176.0
 40
176.0
 40
177.0
 40
177.0
 40
178.0
 40
178.0
 40
179.0
 40
179.0
 40
180.0
 40
180.0
 40
181.0
 40
181.0
 40
182.0
 40
182.0
 40
183.0
 40
183.0
 40
184.0
 40
184.0
 40
185.0
 40
185.0
 40
186.0
 40
186.0
 40
187.0
 40
187.0
 40
188.0
 40
188.0
 40
189.0
 40
189.0
 40
190.0
 40
190.0
 40
191.0
 40
191.0
 40
192.0
 40
192.0
 40
193.0
 40
193.0
 40
194.0
 40
194.0
 40
195.0
 40
195.0
 40
196.0
 40
196.0
 40
197.0
 40
197.0
 40
198.0
 40
198.0
 40
199.0
 40
199.0
 40
200.0
 40
200.0
 40
201.0
 40
201.0
 40
202.0
 40
202.0
 40
203.0
 40
203.0
 40
204.0
 40
204.0
 40
205.0
 40
205.0
 40
206.0
 40
206.0
 40
207.0
 40
207.0
 40
208.0
 40
208.0
 40
209.0
 40
209.0
 40
210.0
 40
210.0
 40
211.0
 40
211.0
 40
212.0
 40
212.0
 40
213.0
 40
213.0
 40
214.0
 40
214.0
 40
215.0
 40
215.0
 40
216.0
 40
216.0
 40
217.0
 40
217.0
 40
218.0
 40
218.0
 40
219.0
 40
219.0
 40
220.0
 40
220.0
 40
221.0
 40
221.0
 40
222.0
 40
222.0
 40
223.0
 40
223.0
 40
224.0
 40
224.0
 40
225.0
 40
225.0
 40
226.0
 40
226.0
 40
227.0
 40
227.0
 40
228.0
 40
228.0
 40
229.0
 40
229.0
 40
230.0
 40
230.0
 40
231.0
 40
231.0
 40
232.0
 40
232.0
 40
233.0
 40
233.0
 40
234.0
 40
234.0
 40
235.0
 40
235.0
 40
236.0
 40
236.0
 40
237.0
 40
237.0
 40
238.0
 40
238.0
 40
239.0
 40
239.0
 40
240.0
 40
240.0
 40
241.0
 40
241.0
 40
242.0
 40
242.0
 40
243.0
 40
243.0
 40
244.0
 40
244.0
 40
245.0
 40
245.0
 40
246.0
 40
246.0
 40
247.0
 40
247.0
 40
248.0
 40
248.0
 40
249.0
 40
249.0
 40
250.0
 40
250.0
 40
251.0
 40
251.0
 40
252.0
 40
252.0
 40
253.0
 40
253.0
 40
254.0
 40
254.0
 40
255.0
 40
255.0
 40
256.0
 40
256.0
 40
257.0
 40
257.0
 40
258.0
 40
258.0
 40
259.0
 40
259.0
 40
260.0
 40
260.0
 40
261.0
 40
261.0
 40
262.0
 40
262.0
 40
263.0
 40
263.0
 40
264.0
 40
264.0
 40
265.0
 40
265.0
 40
266.0
 40
266.0
 40
267.0
 40
267.0
 40
268.0
 40
268.0
 40
269.0
 40
269.0
 40
270.0
 40
270.0
 40
271.0
 40
271.0
 40
272.0
 40
272.0
 40
273.0
 40
273.0
 40
274.0
 40
274.0
 40
275.0
 40
275.0
 40
276.0
 40
276.0
 40
277.0
 40
277.0
 40
278.0
 40
278.0
 40
279.0
 40
279.0
 40
280.0
 40
280.0
 40
281.0
 40
281.0
 40
282.0
 40
282.0
 40
283.0
 40
283.0
 40
284.0
 40
284.0
 40
285.0
 40
285.0
 40
286.0
 40
286.0
 40
287.0
 40
287.0
 40
288.0
 40
288.0
 40
289.0
 40
289.0
 40
290.0
 40
290.0
 40
291.0
 40
291.0
 40
292.0
 40
292.0
 40
293.0
 40
293.0
 40
294.0
 40
294.0
 40
295.0
 40
295.0
 40
296.0
 40
296.0
 40
297.0
 40
297.0
 40
298.0
 40
298.0
 40
299.0
 40
299.0
 40
300.0
 40
300.0
 40
301.0
 40
301.0
 40
302.0
 40
302.0
 40
303.0
 40
303.0
 40
304.0
 40
304.0
 40
305.0
 40
305.0
 40
306.0
 40
306.0
 40
307.0
 40
307.0
 40
308.0
 40
308.0
 40
309.0
 40
309.0
 40
310.0
 40
310.0
 40
311.0
 40
311.0
 40
312.0
 40
312.0
 40
313.0
 40
313.0
 40
314.0
 40
314.0
 40
315.0
 40
315.0
 40
316.0
 40
316.0
 40
317.0
 40
317.0
 40
318.0
 40
318.0
 40
319.0
 40
319.0
 40
320.0
 40
320.0
 40
321.0
 40
321.0
 40
322.0
 40
322.0
 40
323.0
 40
323.0
 40
324.0
 40
324.0
 40
325.0
 40
325.0
 40
326.0
 40
326.0
 40
327.0
 40
327.0
 40
328.0
 40
328.0
 40
329.0
 40
329.0
 40
330.0
 40
330.0
 40
331.0
 40
331.0
 40
332.0
 40
332.0
 40
333.0
 40
333.0
 40
334.0
 40
334.0
 40
335.0
 40
335.0
 40
336.0
 40
336.0
 40
337.0
 40
337.0
 40
338.0
 40
338.0
 40
339.0
 40
339.0
 40
340.0
 40
340.0
 40
341.0
 40
341.0
 40
342.0
 40
342.0
 40
343.0
 40
343.0
 40
344.0
 40
344.0
 40
345.0
 40
345.0
 40
346.0
 40
346.0
 40
347.0
 40
347.0
 40
348.0
 40
348.0
 40
349.0
 40
349.0
 40
350.0
 40
350.0
 40
351.0
 40
351.0
 40
352.0
 40
352.0
 40
353.0
 40
353.0
 40
354.0
 40
354.0
 40
355.0
 40
355.0
 40
356.0
 40
356.0
 40
357.0
 40
357.0
 40
358.0
 40
358.0
 40
359.0
 40
359.0
 40
360.0
 40
360.0
 40
361.0
 40
361.0
 40
362.0
 40
362.0
 40
363.0
 40
363.0
 40
364.0
 40
364.0
 40
365.0
 40
365.0
 40
366.0
 40
366.0
 40
367.0
 40
367.0
 40
368.0
 40
368.0
 40
369.0
 40
369.0
 40
370.0
 40
370.0
 40
371.0
 40
371.0
 40
372.0
 40
372.0
 40
373.0
 40
373.0
 40
374.0
 40
374.0
 40
375.0
 40
375.0
 40
376.0
 40
376.0
 40
377.0
 40
377.0
 40
378.0
 40
378.0
 40
379.0
 40
379.0
 40
380.0
 40
380.0
 40
381.0
 40
381.0
 40
382.0
 40
382.0
 40
383.0
 40
383.0
 40
384.0
 40
384.0
 40
385.0
 40
385.0
 40
386.0
 40
386.0
 40
387.0
 40
387.0
 40
388.0
 40
388.0
 40
389.0
 40
389.0
 40
389.0
 10
827.1879695725321
 20
-1509.20245282854
 30
0.0
 41
1.0
 10
828.0063936812526
 20
-1509.20245282854
 30
0.0
 41
1.0
 10
828.824817789973
 20
-1509.20245282854
 30
0.0
 41
1.0
 10
828.4110640544563
 20
-1510.54507909279
 30
0.0
 41
1.0
 10
827.9973103189395
 20
-1511.887705357039
 30
0.0
 41
1.0
 10
828.0156498141108
 20
-1511.859004584122
 30
0.0
 41
0.9999957264344336
 10
828.0341568109461
 20
-1511.830411533965
 30
0.0
 41
1.0
 10
828.0645861350795
 20
-1511.783398655595
 30
0.0
 41
1.0
 10
828.0950154592128
 20
-1511.736385777225
 30
0.0
 41
1.0
 10
828.174381104316
 20
-1511.613766970326
 30
0.0
 41
0.9995394069080991
 10
828.261039495866
 20
-1511.496188908587
 30
0.0
 41
1.0
 10
828.2967963581284
 20
-1511.44767401599
 30
0.0
 41
1.0
 10
828.3325532203908
 20
-1511.399159123393
 30
0.0
 41
1.0
 10
828.4662798882086
 20
-1511.217718848266
 30
0.0
 41
0.9994460617143349
 10
828.6117803694965
 20
-1511.045576450617
 30
0.0
 41
1.0
 10
828.6161685504705
 20
-1511.040384770236
 30
0.0
 41
1.0
 10
828.6205567314447
 20
-1511.035193089854
 30
0.0
 41
1.0
 10
828.7572808507844
 20
-1510.873434052967
 30
0.0
 41
0.9994359394934557
 10
828.9045550811359
 20
-1510.721217851803
 30
0.0
 41
1.0
 10
828.9069384350885
 20
-1510.71875452143
 30
0.0
 41
1.0
 10
828.9093217890412
 20
-1510.716291191058
 30
0.0
 41
1.0
 10
829.0518293114869
 20
-1510.569001650638
 30
0.0
 41
0.9995293688567594
 10
829.2031009924694
 20
-1510.430728438474
 30
0.0
 41
1.0
 10
829.2223947517359
 20
-1510.41309255282
 30
0.0
 41
1.0
 10
829.2416885110025
 20
-1510.395456667166
 30
0.0
 41
1.0
 10
829.3543726734569
 20
-1510.292455226305
 30
0.0
 41
0.9997087614803897
 10
829.4718955624066
 20
-1510.195010945512
 30
0.0
 41
1.0
 10
829.4910616355844
 20
-1510.179119367002
 30
0.0
 41
1.0
 10
829.5102277087622
 20
-1510.163227788493
 30
0.0
 41
1.0
 10
829.589418451364
 20
-1510.097566664712
 30
0.0
 41
0.9999595338692897
 10
829.6697777222168
 20
-1510.033340934059
 30
0.0
 41
1.0
 10
829.7501369930754
 20
-1509.969115203401
 30
0.0
 41
0.9999749417507714
 10
829.8313975274162
 20
-1509.906033649457
 30
0.0
 41
1.0
 10
829.8523836735931
 20
-1509.889742362144
 30
0.0
 41
1.0
 10
829.87336981977
 20
-1509.873451074832
 30
0.0
 41
1.0
 10
829.9579377050579
 20
-1509.807802065002
 30
0.0
 41
0.9999792037123231
 10
830.0433453048179
 20
-1509.743249283365
 30
0.0
 41
1.0
 10
830.0641701306279
 20
-1509.727509461184
 30
0.0
 41
1.0
 10
830.0849949564379
 20
-1509.711769639003
 30
0.0
 41
1.0
 10
830.1287529044848
 20
-1509.678696501799
 30
0.0
 41
0.9999993373936072
 10
830.1724345907305
 20
-1509.645522706297
 30
0.0
 41
1.0
 10
830.2161162768787
 20
-1509.61234891087
 30
0.0
 41
0.99991609538179
 10
830.2606426877995
 20
-1509.580317845671
 30
0.0
 41
1.0
 10
830.2934645752159
 20
-1509.556706690088
 30
0.0
 41
1.0
 10
830.3262864626323
 20
-1509.533095534505
 30
0.0
 41
1.0
 10
830.4364566483899
 20
-1509.453842158138
 30
0.0
 41
0.9980964527231789
 10
830.5555456418888
 20
-1509.388754685283
 30
0.0
 41
1.0
 10
830.5925782488191
 20
-1509.368514705689
 30
0.0
 41
1.0
 10
830.6296108557494
 20
-1509.348274726094
 30
0.0
 41
1.0
 10
830.8089378690216
 20
-1509.250264475394
 30
0.0
 41
0.9984572810573171
 10
830.9980264353796
 20
-1509.172742214048
 30
0.0
 41
1.0
 10
831.001672704774
 20
-1509.17124732171
 30
0.0
 41
1.0
 10
831.0053189741684
 20
-1509.169752429373
 30
0.0
 41
1.0
 10
831.187115001737
 20
-1509.095219952702
 30
0.0
 41
0.9987838528034041
 10
831.3753676602978
 20
-1509.038954312535
 30
0.0
 41
1.0
 10
831.3796056094967
 20
-1509.037687658845
 30
0.0
 41
1.0
 10
831.3838435586956
 20
-1509.036421005155
 30
0.0
 41
1.0
 10
831.5636203188573
 20
-1508.98268867237
 30
0.0
 41
0.9990652816207132
 10
831.7473662505729
 20
-1508.944684992828
 30
0.0
 41
1.0
 10
831.752554651604
 20
-1508.943611889721
 30
0.0
 41
1.0
 10
831.7577430526351
 20
-1508.942538786615
 30
0.0
 41
1.0
 10
831.9311121822885
 20
-1508.906681313286
 30
0.0
 41
0.9992909934270392
 10
832.1066879487471
 20
-1508.883970880819
 30
0.0
 41
1.0
 10
832.2822637152035
 20
-1508.861260448353
 30
0.0
 41
0.9994553539447871
 10
832.4589551482944
 20
-1508.850181144147
 30
0.0
 41
1.0
 10
832.4943895560921
 20
-1508.847959256099
 30
0.0
 41
1.0
 10
832.5298239638898
 20
-1508.845737368051
 30
0.0
 41
1.0
 10
832.6960497304591
 20
-1508.835314305639
 30
0.0
 41
0.9990928098292514
 10
832.8625595223618
 20
-1508.839073946874
 30
0.0
 41
1.0
 10
832.9011213576306
 20
-1508.839944638406
 30
0.0
 41
1.0
 10
832.9396831928993
 20
-1508.840815329939
 30
0.0
 41
1.0
 10
833.0290693142613
 20
-1508.842833588108
 30
0.0
 41
0.9998382089206638
 10
833.1183249970506
 20
-1508.848065714636
 30
0.0
 41
1.0
 10
833.1187549032718
 20
-1508.848090915538
 30
0.0
 41
1.0
 10
833.1191848094929
 20
-1508.848116116441
 30
0.0
 41
1.0
 10
833.207580679838
 20
-1508.853297841164
 30
0.0
 41
0.9997558016759416
 10
833.2956612570376
 20
-1508.862380356531
 30
0.0
 41
1.0
 10
833.2961373954661
 20
-1508.862429454013
 30
0.0
 41
1.0
 10
833.2966135338944
 20
-1508.862478551496
 30
0.0
 41
1.0
 10
833.3837418342374
 20
-1508.871462871897
 30
0.0
 41
0.9996565144182096
 10
833.4702796875806
 20
-1508.885000178586
 30
0.0
 41
1.0
 10
833.4707456129568
 20
-1508.885073064318
 30
0.0
 41
1.0
 10
833.4712115383328
 20
-1508.885145950049
 30
0.0
 41
1.0
 10
833.5568175409213
 20
-1508.898537485275
 30
0.0
 41
0.9995321806867379
 10
833.6414446212506
 20
-1508.917137973704
 30
0.0
 41
1.0
 10
833.6418338158226
 20
-1508.91722351617
 30
0.0
 41
1.0
 10
833.6422230103947
 20
-1508.917309058636
 30
0.0
 41
1.0
 10
833.7260717015787
 20
-1508.935738462134
 30
0.0
 41
0.9993819199219799
 10
833.8084182357748
 20
-1508.960013845394
 30
0.0
 41
1.0
 10
833.8086566692732
 20
-1508.960084134504
 30
0.0
 41
1.0
 10
833.8088951027715
 20
-1508.960154423613
 30
0.0
 41
1.0
 10
833.8907647699713
 20
-1508.984289228655
 30
0.0
 41
0.9992088568506077
 10
833.9704572889592
 20
-1509.014854464449
 30
0.0
 41
1.0
 10
834.0501382798383
 20
-1509.045414065183
 30
0.0
 41
0.999022610177337
 10
834.1268089497454
 20
-1509.082891496797
 30
0.0
 41
1.0
 10
834.2034680915428
 20
-1509.12036329335
 30
0.0
 41
0.9988424273971943
 10
834.276171718754
 20
-1509.165028068602
 30
0.0
 41
1.0
 10
834.2764394271342
 20
-1509.165192532675
 30
0.0
 41
1.0
 10
834.2767071355145
 20
-1509.165356996748
 30
0.0
 41
1.0
 10
834.3499461794858
 20
-1509.210350700146
 30
0.0
 41
0.9986928844491962
 10
834.4182090461961
 20
-1509.262586434426
 30
0.0
 41
1.0
 10
834.4187903384184
 20
-1509.263031247653
 30
0.0
 41
1.0
 10
834.4193716306406
 20
-1509.263476060881
 30
0.0
 41
1.0
 10
834.4887970817964
 20
-1509.316601421617
 30
0.0
 41
0.9986007262278906
 10
834.5522232515629
 20
-1509.37676219131
 30
0.0
 41
1.0
 10
834.5531176670199
 20
-1509.377610559145
 30
0.0
 41
1.0
 10
834.5540120824771
 20
-1509.37845892698
 30
0.0
 41
1.0
 10
834.619227083158
 20
-1509.440316432343
 30
0.0
 41
0.9985581491382017
 10
834.6774346948598
 20
-1509.508808922615
 30
0.0
 41
1.0
 10
834.6866931484557
 20
-1509.519703280317
 30
0.0
 41
1.0
 10
834.6959516020515
 20
-1509.530597638019
 30
0.0
 41
1.0
 10
834.7726761209445
 20
-1509.620878843693
 30
0.0
 41
0.9970460233520488
 10
834.8346680221047
 20
-1509.721845927876
 30
0.0
 41
1.0
 10
834.8491373871842
 20
-1509.745412386957
 30
0.0
 41
1.0
 10
834.8636067522638
 20
-1509.768978846039
 30
0.0
 41
1.0
 10
834.9033434522754
 20
-1509.833698570069
 30
0.0
 41
0.9988468816636096
 10
834.9366898230271
 20
-1509.901931022497
 30
0.0
 41
1.0
 10
834.9437258455191
 20
-1509.916327943636
 30
0.0
 41
1.0
 10
834.9507618680111
 20
-1509.930724864774
 30
0.0
 41
1.0
 10
834.9700361937789
 20
-1509.970163474926
 30
0.0
 41
0.999843118999878
 10
834.9879015212737
 20
-1510.010260029366
 30
0.0
 41
1.0
 10
835.0057668487664
 20
-1510.050356583801
 30
0.0
 41
0.9999989990127541
 10
835.0237455721906
 20
-1510.09040242139
 30
0.0
 41
1.0
 10
835.0299178837848
 20
-1510.104150638203
 30
0.0
 41
1.0
 10
835.0360901953791
 20
-1510.117898855015
 30
0.0
 41
1.0
 10
835.0664135419897
 20
-1510.185441126225
 30
0.0
 41
0.9998790356321063
 10
835.0946214221278
 20
-1510.253893878163
 30
0.0
 41
1.0
 10
835.1014566034108
 20
-1510.270480979587
 30
0.0
 41
1.0
 10
835.1082917846938
 20
-1510.287068081011
 30
0.0
 41
1.0
 10
835.1318494470754
 20
-1510.344236035899
 30
0.0
 41
0.999822757456054
 10
835.1532381954657
 20
-1510.40225034418
 30
0.0
 41
1.0
 10
835.1746269438556
 20
-1510.460264652459
 30
0.0
 41
0.9996797971041228
 10
835.1930532288152
 20
-1510.519286771578
 30
0.0
 41
1.0
 10
835.1969570315403
 20
-1510.531791229746
 30
0.0
 41
1.0
 10
835.2008608342653
 20
-1510.544295687913
 30
0.0
 41
1.0
 10
835.2270947246758
 20
-1510.628326723369
 30
0.0
 41
0.9979274938733445
 10
835.2423192481546
 20
-1510.715031082028
 30
0.0
 41
1.0
 10
835.2445429354157
 20
-1510.727695082849
 30
0.0
 41
1.0
 10
835.2467666226769
 20
-1510.74035908367
 30
0.0
 41
1.0
 10
835.2576965623754
 20
-1510.802605590961
 30
0.0
 41
0.9994985982137303
 10
835.2646647275524
 20
-1510.865419092104
 30
0.0
 41
1.0
 10
835.2716328927294
 20
-1510.928232593248
 30
0.0
 41
0.9996372611203194
 10
835.2752087584975
 20
-1510.991330171933
 30
0.0
 41
1.0
 10
835.2753773359866
 20
-1510.994304789013
 30
0.0
 41
1.0
 10
835.2755459134758
 20
-1510.997279406093
 30
0.0
 41
1.0
 10
835.279458934222
 20
-1511.066326218939
 30
0.0
 41
0.999773063073637
 10
835.2804272477101
 20
-1511.135477042973
 30
0.0
 41
1.0
 10
835.2804843541282
 20
-1511.139555222115
 30
0.0
 41
1.0
 10
835.2805414605464
 20
-1511.143633401256
 30
0.0
 41
1.0
 10
835.2816239868707
 20
-1511.220940583579
 30
0.0
 41
0.9998772614068641
 10
835.2802839001389
 20
-1511.298243730139
 30
0.0
 41
1.0
 10
835.2801946369402
 20
-1511.303392893974
 30
0.0
 41
1.0
 10
835.2801053737414
 20
-1511.308542057809
 30
0.0
 41
1.0
 10
835.2785867606119
 20
-1511.39614353205
 30
0.0
 41
0.9999415567326337
 10
835.2751744503661
 20
-1511.483691693722
 30
0.0
 41
1.0
 10
835.2749331296909
 20
-1511.489883153457
 30
0.0
 41
1.0
 10
835.2746918090156
 20
-1511.496074613193
 30
0.0
 41
1.0
 10
835.2707968574194
 20
-1511.596005694333
 30
0.0
 41
0.9999716810425513
 10
835.2653982743008
 20
-1511.695866832566
 30
0.0
 41
1.0
 10
835.2621854755113
 20
-1511.755296082237
 30
0.0
 41
1.0
 10
835.2589726767218
 20
-1511.814725331908
 30
0.0
 41
1.0
 10
835.250898767569
 20
-1511.964073733187
 30
0.0
 41
0.9999819129915339
 10
835.2410289759537
 20
-1512.113314210878
 30
0.0
 41
1.0
 10
835.2311591843371
 20
-1512.262554688589
 30
0.0
 41
1.0
 10
835.2287198637732
 20
-1512.299747734439
 30
0.0
 41
1.0
 10
835.2514180975874
 20
-1512.261006737137
 30
0.0
 41
0.9999982128095892
 10
835.2742626563347
 20
-1512.222351843194
 30
0.0
 41
1.0
 10
835.3011722162321
 20
-1512.176818629117
 30
0.0
 41
1.0
 10
835.3280817761294
 20
-1512.131285415041
 30
0.0
 41
1.0
 10
835.4047454546552
 20
-1512.001564092971
 30
0.0
 41
0.9998609190057277
 10
835.4856927675181
 20
-1511.87447171104
 30
0.0
 41
1.0
 10
835.5153410890011
 20
-1511.827921978081
 30
0.0
 41
1.0
 10
835.5449894104843
 20
-1511.781372245121
 30
0.0
 41
1.0
 10
835.62726163072
 20
-1511.652199675129
 30
0.0
 41
0.999906760973155
 10
835.7130306401816
 20
-1511.525321985691
 30
0.0
 41
1.0
 10
835.7154353433817
 20
-1511.521764719637
 30
0.0
 41
1.0
 10
835.7178400465818
 20
-1511.518207453583
 30
0.0
 41
1.0
 10
835.7987996496425
 20
-1511.398444296254
 30
0.0
 41
0.9998784952151487
 10
835.883453259327
 20
-1511.281263079541
 30
0.0
 41
1.0
 10
835.9681068690084
 20
-1511.164081862832
 30
0.0
 41
0.9998532968283156
 10
836.0567244898341
 20
-1511.049868954358
 30
0.0
 41
1.0
 10
836.0766862788219
 20
-1511.024141633342
 30
0.0
 41
1.0
 10
836.0966480678095
 20
-1510.998414312326
 30
0.0
 41
1.0
 10
836.2151321175706
 20
-1510.845708701354
 30
0.0
 41
0.9991551975795312
 10
836.3457565671956
 20
-1510.703249139269
 30
0.0
 41
1.0
 10
836.349266183176
 20
-1510.699421537644
 30
0.0
 41
1.0
 10
836.3527757991563
 20
-1510.695593936019
 30
0.0
 41
1.0
 10
836.4763810168206
 20
-1510.560789577184
 30
0.0
 41
0.9997418144180815
 10
836.6059831565196
 20
-1510.431740166573
 30
0.0
 41
1.0
 10
836.7355852962218
 20
-1510.30269075596
 30
0.0
 41
0.9989238204633666
 10
836.8765878444738
 20
-1510.18620579392
 30
0.0
 41
1.0
 10
836.9218355226142
 20
-1510.148825802311
 30
0.0
 41
1.0
 10
836.9670832007545
 20
-1510.111445810701
 30
0.0
 41
1.0
 10
837.1073232579733
 20
-1509.995590757413
 30
0.0
 41
0.9990825084096716
 10
837.2569631905758
 20
-1509.892161759581
 30
0.0
 41
1.0
 10
837.2670085546347
 20
-1509.8852185465
 30
0.0
 41
1.0
 10
837.2770539186937
 20
-1509.878275333419
 30
0.0
 41
1.0
 10
837.4066031231819
 20
-1509.788732761746
 30
0.0
 41
0.9998164899825218
 10
837.539487326556
 20
-1509.704218520231
 30
0.0
 41
1.0
 10
837.5513328870791
 20
-1509.696684753707
 30
0.0
 41
1.0
 10
837.5631784476022
 20
-1509.689150987183
 30
0.0
 41
1.0
 10
837.6723715299295
 20
-1509.619704278717
 30
0.0
 41
0.9997473449131481
 10
837.7845754871817
 20
-1509.555235320899
 30
0.0
 41
1.0
 10
837.89677944443
 20
-1509.490766363084
 30
0.0
 41
0.9999327861148497
 10
838.0104480551934
 20
-1509.428916371403
 30
0.0
 41
1.0
 10
838.0110000577547
 20
-1509.428616012724
 30
0.0
 41
1.0
 10
838.011552060316
 20
-1509.428315654044
 30
0.0
 41
1.0
 10
838.1263246762016
 20
-1509.365864945004
 30
0.0
 41
0.999695642048411
 10
838.2440380020408
 20
-1509.309151478029
 30
0.0
 41
1.0
 10
838.2744784069357
 20
-1509.294485501298
 30
0.0
 41
1.0
 10
838.3049188118306
 20
-1509.279819524568
 30
0.0
 41
1.0
 10
838.4078959185724
 20
-1509.230205866125
 30
0.0
 41
0.9998070570176052
 10
838.5127423075113
 20
-1509.184675279225
 30
0.0
 41
1.0
 10
838.6175886964503
 20
-1509.139144692325
 30
0.0
 41
0.9997827436148207
 10
838.7242416330579
 20
-1509.098023521014
 30
0.0
 41
1.0
 10
838.7434644826915
 20
-1509.090611947381
 30
0.0
 41
1.0
 10
838.762687332325
 20
-1509.083200373747
 30
0.0
 41
1.0
 10
838.9077859681983
 20
-1509.02725605517
 30
0.0
 41
0.9988031841976417
 10
839.0576563308032
 20
-1508.985755991003
 30
0.0
 41
1.0
 10
839.082573579166
 20
-1508.978856245196
 30
0.0
 41
1.0
 10
839.1074908275289
 20
-1508.971956499389
 30
0.0
 41
1.0
 10
839.2747608531757
 20
-1508.925638356982
 30
0.0
 41
0.998474804054955
 10
839.4461177618249
 20
-1508.898044124717
 30
0.0
 41
1.0
 10
839.4508568980748
 20
-1508.897280964204
 30
0.0
 41
1.0
 10
839.4555960343247
 20
-1508.89651780369
 30
0.0
 41
1.0
 10
839.6174746704751
 20
-1508.870449892453
 30
0.0
 41
0.9984436495480318
 10
839.7812494141986
 20
-1508.862571938634
 30
0.0
 41
1.0
 10
839.8029466223297
 20
-1508.861528251434
 30
0.0
 41
1.0
 10
839.8246438304609
 20
-1508.860484564235
 30
0.0
 41
1.0
 10
839.9450241579232
 20
-1508.854693984815
 30
0.0
 41
0.9987954789335031
 10
840.0653924028331
 20
-1508.860730512557
 30
0.0
 41
1.0
 10
840.0853571953284
 20
-1508.861731756896
 30
0.0
 41
1.0
 10
840.1053219878236
 20
-1508.862733001235
 30
0.0
 41
1.0
 10
840.185760647744
 20
-1508.8667670403
 30
0.0
 41
0.9997941595875914
 10
840.2659694258374
 20
-1508.874061106221
 30
0.0
 41
1.0
 10
840.3461782039315
 20
-1508.881355172142
 30
0.0
 41
0.9998589466238575
 10
840.4260967507856
 20
-1508.891339026592
 30
0.0
 41
1.0
 10
840.4585029525945
 20
-1508.895387383511
 30
0.0
 41
1.0
 10
840.4909091544033
 20
-1508.89943574043
 30
0.0
 41
1.0
 10
840.6356401048743
 20
-1508.917516308719
 30
0.0
 41
0.99934950632493
 10
840.7786913486394
 20
-1508.94598201846
 30
0.0
 41
1.0
 10
840.811625045792
 20
-1508.952535481675
 30
0.0
 41
1.0
 10
840.8445587429444
 20
-1508.95908894489
 30
0.0
 41
1.0
 10
840.9538525661496
 20
-1508.980837279026
 30
0.0
 41
0.9996788715561135
 10
841.0619041381054
 20
-1509.008095078389
 30
0.0
 41
1.0
 10
841.0639671406434
 20
-1509.008615504961
 30
0.0
 41
1.0
 10
841.0660301431815
 20
-1509.009135931534
 30
0.0
 41
1.0
 10
841.1699557100611
 20
-1509.035352877751
 30
0.0
 41
0.9995480654492507
 10
841.2721179452913
 20
-1509.067767834376
 30
0.0
 41
1.0
 10
841.2738075874211
 20
-1509.06830393929
 30
0.0
 41
1.0
 10
841.2754972295508
 20
-1509.068840044204
 30
0.0
 41
1.0
 10
841.3742801805213
 20
-1509.100182791001
 30
0.0
 41
0.9993867959456055
 10
841.4706273389633
 20
-1509.13836216029
 30
0.0
 41
1.0
 10
841.4718702880506
 20
-1509.138854702187
 30
0.0
 41
1.0
 10
841.4731132371379
 20
-1509.139347244085
 30
0.0
 41
1.0
 10
841.5669744974084
 20
-1509.176541529581
 30
0.0
 41
0.9992050256521947
 10
841.6575741724391
 20
-1509.221095428819
 30
0.0
 41
1.0
 10
841.6583088551502
 20
-1509.221456721279
 30
0.0
 41
1.0
 10
841.6590435378612
 20
-1509.221818013739
 30
0.0
 41
1.0
 10
841.7481738474709
 20
-1509.265649328056
 30
0.0
 41
0.9990222350741146
 10
841.8330839088662
 20
-1509.317182595756
 30
0.0
 41
1.0
 10
841.8332677941496
 20
-1509.317294198661
 30
0.0
 41
1.0
 10
841.8334516794329
 20
-1509.317405801566
 30
0.0
 41
1.0
 10
841.91799397026
 20
-1509.368715863454
 30
0.0
 41
0.9988642743805249
 10
841.9972685048788
 20
-1509.427840050979
 30
0.0
 41
1.0
 10
842.0765430394988
 20
-1509.486964238505
 30
0.0
 41
0.9987681233310954
 10
842.1495668237745
 20
-1509.553654929906
 30
0.0
 41
1.0
 10
842.1498957517401
 20
-1509.55395533112
 30
0.0
 41
1.0
 10
842.1502246797056
 20
-1509.554255732334
 30
0.0
 41
1.0
 10
842.2239063199138
 20
-1509.621547226163
 30
0.0
 41
0.9987496570898283
 10
842.2905001252401
 20
-1509.695860040249
 30
0.0
 41
1.0
 10
842.2912722950007
 20
-1509.696721713607
 30
0.0
 41
1.0
 10
842.2920444647614
 20
-1509.697583386965
 30
0.0
 41
1.0
 10
842.3601826096092
 20
-1509.773619547767
 30
0.0
 41
0.9988147669826902
 10
842.4206048638349
 20
-1509.855920554611
 30
0.0
 41
1.0
 10
842.4217241899124
 20
-1509.857445185963
 30
0.0
 41
1.0
 10
842.4228435159899
 20
-1509.858969817315
 30
0.0
 41
1.0
 10
842.4855044223707
 20
-1509.944320086863
 30
0.0
 41
0.9989452636216655
 10
842.5400713353315
 20
-1510.03505877602
 30
0.0
 41
1.0
 10
842.5414200614173
 20
-1510.037301557047
 30
0.0
 41
1.0
 10
842.5427687875031
 20
-1510.039544338073
 30
0.0
 41
1.0
 10
842.6000331526354
 20
-1510.134768589282
 30
0.0
 41
0.9991046436069926
 10
842.6490423659566
 20
-1510.234493022307
 30
0.0
 41
1.0
 10
842.650506227547
 20
-1510.23747170238
 30
0.0
 41
1.0
 10
842.6519700891374
 20
-1510.240450382454
 30
0.0
 41
1.0
 10
842.7039070256392
 20
-1510.346132175624
 30
0.0
 41
0.9992763831101481
 10
842.7476601541946
 20
-1510.455456237581
 30
0.0
 41
1.0
 10
842.7491394238577
 20
-1510.459152425114
 30
0.0
 41
1.0
 10
842.7506186935209
 20
-1510.462848612647
 30
0.0
 41
1.0
 10
842.7973303614033
 20
-1510.579565049672
 30
0.0
 41
0.9994163472883331
 10
842.8359633925924
 20
-1510.699198638134
 30
0.0
 41
1.0
 10
842.8372015448397
 20
-1510.703032781918
 30
0.0
 41
1.0
 10
842.8384396970869
 20
-1510.706866925703
 30
0.0
 41
1.0
 10
842.8783232581036
 20
-1510.83037298718
 30
0.0
 41
0.9997268055891334
 10
842.9123913140152
 20
-1510.955608019129
 30
0.0
 41
1.0
 10
842.9133214942851
 20
-1510.959027385239
 30
0.0
 41
1.0
 10
842.914251674555
 20
-1510.962446751349
 30
0.0
 41
1.0
 10
842.9464593699269
 20
-1511.080843051078
 30
0.0
 41
0.9996701319000518
 10
842.9725449866976
 20
-1511.200737004343
 30
0.0
 41
1.0
 10
842.9986306034681
 20
-1511.320630957607
 30
0.0
 41
0.9995785451109269
 10
843.0177141808081
 20
-1511.44183671864
 30
0.0
 41
1.0
 10
843.0219339629815
 20
-1511.468637873403
 30
0.0
 41
1.0
 10
843.0261537451549
 20
-1511.495439028166
 30
0.0
 41
1.0
 10
843.0527287210938
 20
-1511.66422500187
 30
0.0
 41
0.9979925101216605
 10
843.0577543070202
 20
-1511.835016329963
 30
0.0
 41
1.0
 10
843.0585791194449
 20
-1511.86304705344
 30
0.0
 41
1.0
 10
843.0594039318694
 20
-1511.891077776917
 30
0.0
 41
1.0
 10
843.0627798929469
 20
-1512.005807658048
 30
0.0
 41
0.9995314902262369
 10
843.0591297008081
 20
-1512.120529141806
 30
0.0
 41
1.0
 10
843.0554795086691
 20
-1512.235250625563
 30
0.0
 41
0.9996245486944565
 10
843.0455504135382
 20
-1512.349599896689
 30
0.0
 41
1.0
 10
843.0453873655442
 20
-1512.351477652821
 30
0.0
 41
1.0
 10
843.0452243175503
 20
-1512.353355408953
 30
0.0
 41
1.0
 10
843.0349691264311
 20
-1512.471460192346
 30
0.0
 41
0.9997286095001159
 10
843.0192238028607
 20
-1512.588959101233
 30
0.0
 41
1.0
 10
843.0188303102098
 20
-1512.591895525939
 30
0.0
 41
1.0
 10
843.0184368175587
 20
-1512.594831950646
 30
0.0
 41
1.0
 10
843.0019045086867
 20
-1512.718203708944
 30
0.0
 41
0.9998265533969634
 10
842.980789049954
 20
-1512.840874183732
 30
0.0
 41
1.0
 10
842.9801125078168
 20
-1512.84480456224
 30
0.0
 41
1.0
 10
842.9794359656796
 20
-1512.848734940748
 30
0.0
 41
1.0
 10
842.9569674226716
 20
-1512.979266172557
 30
0.0
 41
0.9999022530856339
 10
842.9308579580609
 20
-1513.109118141199
 30
0.0
 41
1.0
 10
842.9298793168964
 20
-1513.113985283582
 30
0.0
 41
1.0
 10
842.928900675732
 20
-1513.118852425964
 30
0.0
 41
1.0
 10
842.9008339287901
 20
-1513.258438679384
 30
0.0
 41
0.9999524761938031
 10
842.870050959954
 20
-1513.397451172553
 30
0.0
 41
1.0
 10
842.8687748527798
 20
-1513.40321393185
 30
0.0
 41
1.0
 10
842.8674987456056
 20
-1513.408976691147
 30
0.0
 41
1.0
 10
842.834163562416
 20
-1513.559514702932
 30
0.0
 41
0.9999813588716864
 10
842.7989925616199
 20
-1513.70963441559
 30
0.0
 41
1.0
 10
842.7974386361655
 20
-1513.716267006003
 30
0.0
 41
1.0
 10
842.7958847107111
 20
-1513.722899596416
 30
0.0
 41
1.0
 10
842.7576058590108
 20
-1513.886284489881
 30
0.0
 41
0.9999955237646153
 10
842.71834998103
 20
-1514.049437393489
 30
0.0
 41
1.0
 10
842.7060683453915
 20
-1514.100481584029
 30
0.0
 41
1.0
 10
842.6937867097529
 20
-1514.15152577457
 30
0.0
 41
1.0
 10
842.6299675604848
 20
-1514.4167670593
 30
0.0
 41
0.9999993604203637
 10
842.5655486132971
 20
-1514.681863310065
 30
0.0
 41
1.0
 10
842.5608297777694
 20
-1514.701282218026
 30
0.0
 41
1.0
 10
842.5561109422416
 20
-1514.720701125987
 30
0.0
 41
1.0
 10
842.4822543239802
 20
-1515.024635192749
 30
0.0
 41
0.9999659914731315
 10
842.4033947280944
 20
-1515.327309739311
 30
0.0
 41
1.0
 10
842.3984420391646
 20
-1515.346318876491
 30
0.0
 41
1.0
 10
842.3934893502346
 20
-1515.36532801367
 30
0.0
 41
1.0
 10
842.3047243764906
 20
-1515.706020834585
 30
0.0
 41
0.9999441976028456
 10
842.2087813435273
 20
-1516.044762259883
 30
0.0
 41
1.0
 10
842.192080825101
 20
-1516.103725972413
 30
0.0
 41
1.0
 10
842.1753803066747
 20
-1516.162689684944
 30
0.0
 41
1.0
 10
842.0460362368607
 20
-1516.619358535296
 30
0.0
 41
0.999962512073535
 10
841.908803469538
 20
-1517.073719069289
 30
0.0
 41
1.0
 10
841.8730135264561
 20
-1517.192215095913
 30
0.0
 41
1.0
 10
841.8372235833743
 20
-1517.310711122536
 30
0.0
 41
1.0
 10
841.7627033793344
 20
-1517.557438200635
 30
0.0
 41
0.999979338630548
 10
841.685017356192
 20
-1517.803186839886
 30
0.0
 41
1.0
 10
841.6073313330545
 20
-1518.048935479123
 30
0.0
 41
1.0
 10
841.5965517741838
 20
-1518.082953383497
 30
0.0
 41
1.0
 10
839.7461787209147
 20
-1523.970025305965
 30
0.0
 41
1.0
 10
837.8958056676455
 20
-1529.857097228432
 30
0.0
 41
1.0
 10
836.934548977622
 20
-1529.857097228432
 30
0.0
 41
1.0
 10
835.9732922875984
 20
-1529.857097228432
 30
0.0
 41
1.0
 10
837.5922370662768
 20
-1524.709068726643
 30
0.0
 41
1.0
 10
839.2111818449553
 20
-1519.561040224853
 30
0.0
 41
1.0
 10
839.2563476681273
 20
-1519.417009002591
 30
0.0
 41
1.0
 10
839.3015134912994
 20
-1519.272977780328
 30
0.0
 41
1.0
 10
839.4718179086649
 20
-1518.729886751156
 30
0.0
 41
0.9999911657885733
 10
839.6375507203468
 20
-1518.185383219787
 30
0.0
 41
1.0
 10
839.6672466638504
 20
-1518.087819279726
 30
0.0
 41
1.0
 10
839.6969426073541
 20
-1517.990255339665
 30
0.0
 41
1.0
 10
839.8032835320341
 20
-1517.6408796884
 30
0.0
 41
0.999995242815588
 10
839.907467121352
 20
-1517.290854664074
 30
0.0
 41
1.0
 10
839.9125265916857
 20
-1517.273856389795
 30
0.0
 41
1.0
 10
839.9175860620194
 20
-1517.256858115516
 30
0.0
 41
1.0
 10
840.0116507106798
 20
-1516.940829639715
 30
0.0
 41
0.9999931687506419
 10
840.1033765485506
 20
-1516.624114426454
 30
0.0
 41
1.0
 10
840.1083118130082
 20
-1516.60707371719
 30
0.0
 41
1.0
 10
840.1132470774656
 20
-1516.590033007926
 30
0.0
 41
1.0
 10
840.1951023864228
 20
-1516.307399213188
 30
0.0
 41
0.9999893840776407
 10
840.2743496128811
 20
-1516.024023083937
 30
0.0
 41
1.0
 10
840.3535968393376
 20
-1515.740646954692
 30
0.0
 41
0.9999833980086019
 10
840.4295730800765
 20
-1515.456376371674
 30
0.0
 41
1.0
 10
840.4385770168005
 20
-1515.422687493189
 30
0.0
 41
1.0
 10
840.4475809535247
 20
-1515.388998614704
 30
0.0
 41
1.0
 10
840.5165455023898
 20
-1515.130962782411
 30
0.0
 41
0.9999233658064977
 10
840.5791004736114
 20
-1514.871298623684
 30
0.0
 41
1.0
 10
840.6416554448317
 20
-1514.611634464962
 30
0.0
 41
1.0
 10
840.6811388636893
 20
-1514.447827800535
 30
0.0
 41
1.0
 10
840.6861174676648
 20
-1514.427172838673
 30
0.0
 41
1.0
 10
840.6910960716402
 20
-1514.40651787681
 30
0.0
 41
1.0
 10
840.7206222825432
 20
-1514.284021136124
 30
0.0
 41
0.9999868670875954
 10
840.748891366543
 20
-1514.161228190464
 30
0.0
 41
1.0
 10
840.7527888536986
 20
-1514.144298603056
 30
0.0
 41
1.0
 10
840.7566863408542
 20
-1514.127369015648
 30
0.0
 41
1.0
 10
840.7771604505365
 20
-1514.03843524483
 30
0.0
 41
0.9999778173349093
 10
840.7964480486546
 20
-1513.949236627588
 30
0.0
 41
1.0
 10
840.8157356467711
 20
-1513.860038010352
 30
0.0
 41
0.9999602692859767
 10
840.8334300054015
 20
-1513.770509721928
 30
0.0
 41
1.0
 10
840.8366338374788
 20
-1513.754299267044
 30
0.0
 41
1.0
 10
840.8398376695561
 20
-1513.73808881216
 30
0.0
 41
1.0
 10
840.8639396923426
 20
-1513.61613961396
 30
0.0
 41
0.9995617985320829
 10
840.8807830395615
 20
-1513.492977866252
 30
0.0
 41
1.0
 10
840.8832475294674
 20
-1513.474957048888
 30
0.0
 41
1.0
 10
840.8857120193734
 20
-1513.456936231524
 30
0.0
 41
1.0
 10
840.9059952804216
 20
-1513.308621181824
 30
0.0
 41
0.9991121410639389
 10
840.9137206340099
 20
-1513.159125083017
 30
0.0
 41
1.0
 10
840.9146394240344
 20
-1513.141345246443
 30
0.0
 41
1.0
 10
840.9155582140588
 20
-1513.123565409869
 30
0.0
 41
1.0
 10
840.9214459875981
 20
-1513.009628984213
 30
0.0
 41
0.9989792494905597
 10
840.9170268954808
 20
-1512.895626148313
 30
0.0
 41
1.0
 10
840.916378923612
 20
-1512.878909902382
 30
0.0
 41
1.0
 10
840.9157309517432
 20
-1512.86219365645
 30
0.0
 41
1.0
 10
840.9126078033634
 20
-1512.78162331241
 30
0.0
 41
0.9997820295393979
 10
840.9061238059878
 20
-1512.70125359067
 30
0.0
 41
1.0
 10
840.8996398086119
 20
-1512.620883868924
 30
0.0
 41
0.9998335105974514
 10
840.8902276131006
 20
-1512.540804252478
 30
0.0
 41
1.0
 10
840.8886326884242
 20
-1512.527234521994
 30
0.0
 41
1.0
 10
840.8870377637477
 20
-1512.51366479151
 30
0.0
 41
1.0
 10
840.8744357188839
 20
-1512.406445714098
 30
0.0
 41
0.9996876457878836
 10
840.8564918060855
 20
-1512.299990286381
 30
0.0
 41
1.0
 10
840.8542601429399
 20
-1512.286750551137
 30
0.0
 41
1.0
 10
840.8520284797942
 20
-1512.273510815893
 30
0.0
 41
1.0
 10
840.8382326583734
 20
-1512.191664671936
 30
0.0
 41
0.9995547496493896
 10
840.8195793364807
 20
-1512.110787174745
 30
0.0
 41
1.0
 10
840.8192053796095
 20
-1512.109165764039
 30
0.0
 41
1.0
 10
840.8188314227381
 20
-1512.107544353334
 30
0.0
 41
1.0
 10
840.8009260145884
 20
-1512.029909677555
 30
0.0
 41
0.9994899427175505
 10
840.7781011059087
 20
-1511.953576394719
 30
0.0
 41
1.0
 10
840.7776425791678
 20
-1511.95204294493
 30
0.0
 41
1.0
 10
840.7771840524271
 20
-1511.950509495142
 30
0.0
 41
1.0
 10
840.7552761972291
 20
-1511.877243111883
 30
0.0
 41
0.9993784877589958
 10
840.7282605621228
 20
-1511.805702406726
 30
0.0
 41
1.0
 10
840.7277288711459
 20
-1511.804294424005
 30
0.0
 41
1.0
 10
840.727197180169
 20
-1511.802886441285
 30
0.0
 41
1.0
 10
840.7012449270161
 20
-1511.734161701566
 30
0.0
 41
0.9992430832254219
 10
840.6700283918569
 20
-1511.667662549499
 30
0.0
 41
1.0
 10
840.6694462758003
 20
-1511.666422494381
 30
0.0
 41
1.0
 10
840.6688641597437
 20
-1511.665182439264
 30
0.0
 41
1.0
 10
840.6388118566971
 20
-1511.601163397429
 30
0.0
 41
0.9990789632798587
 10
840.6033812299208
 20
-1511.539956785681
 30
0.0
 41
1.0
 10
840.6027855237387
 20
-1511.538927699821
 30
0.0
 41
1.0
 10
840.6021898175567
 20
-1511.537898613962
 30
0.0
 41
1.0
 10
840.5679506031433
 20
-1511.47875017393
 30
0.0
 41
0.9988874801120382
 10
840.5282913271121
 20
-1511.423090461513
 30
0.0
 41
1.0
 10
840.5277358010482
 20
-1511.422310809839
 30
0.0
 41
1.0
 10
840.5271802749842
 20
-1511.421531158164
 30
0.0
 41
1.0
 10
840.4886320510802
 20
-1511.367430749096
 30
0.0
 41
0.998676206069363
 10
840.4447295798038
 20
-1511.317577034656
 30
0.0
 41
1.0
 10
840.4442856194715
 20
-1511.317072892839
 30
0.0
 41
1.0
 10
840.4438416591393
 20
-1511.316568751023
 30
0.0
 41
1.0
 10
840.4008271085276
 20
-1511.267723320217
 30
0.0
 41
0.9984621642488376
 10
840.3526695517498
 20
-1511.223940019746
 30
0.0
 41
1.0
 10
840.3524229172333
 20
-1511.223715787582
 30
0.0
 41
1.0
 10
840.3521762827166
 20
-1511.223491555419
 30
0.0
 41
1.0
 10
840.3045119949726
 20
-1511.180156719275
 30
0.0
 41
0.9982724693850358
 10
840.2520933631306
 20
-1511.142712368757
 30
0.0
 41
1.0
 10
840.1996747312899
 20
-1511.10526801824
 30
0.0
 41
0.9981399180158509
 10
840.1430886678962
 20
-1511.074481498796
 30
0.0
 41
1.0
 10
840.1430430058176
 20
-1511.074456655639
 30
0.0
 41
1.0
 10
840.1429973437389
 20
-1511.074431812482
 30
0.0
 41
1.0
 10
840.0863199561885
 20
-1511.043595606724
 30
0.0
 41
0.9980927086836721
 10
840.0262746051217
 20
-1511.019978797871
 30
0.0
 41
1.0
 10
840.0258344354103
 20
-1511.019805671996
 30
0.0
 41
1.0
 10
840.0253942656989
 20
-1511.019632546121
 30
0.0
 41
1.0
 10
839.9644685752083
 20
-1510.995669485519
 30
0.0
 41
0.9981411356561383
 10
839.9010800538089
 20
-1510.979296844013
 30
0.0
 41
1.0
 10
839.9001979371078
 20
-1510.979069001808
 30
0.0
 41
1.0
 10
839.8993158204069
 20
-1510.978841159602
 30
0.0
 41
1.0
 10
839.8341630656053
 20
-1510.962012833686
 30
0.0
 41
0.9983031812935214
 10
839.7674956366109
 20
-1510.95287347251
 30
0.0
 41
1.0
 10
839.7586246112063
 20
-1510.951657353838
 30
0.0
 41
1.0
 10
839.7497535858017
 20
-1510.950441235167
 30
0.0
 41
1.0
 10
839.695403943298
 20
-1510.942990505176
 30
0.0
 41
0.9983887708264052
 10
839.6405600940051
 20
-1510.941745831542
 30
0.0
 41
1.0
 10
839.6324966887872
 20
-1510.941562833668
 30
0.0
 41
1.0
 10
839.6244332835694
 20
-1510.941379835793
 30
0.0
 41
1.0
 10
839.5857162447119
 20
-1510.940501157909
 30
0.0
 41
0.9998869563080967
 10
839.5469902915096
 20
-1510.940787027269
 30
0.0
 41
1.0
 10
839.508264338308
 20
-1510.941072896629
 30
0.0
 41
0.9999972320062024
 10
839.4695401590965
 20
-1510.941540996158
 30
0.0
 41
1.0
 10
839.4501871425164
 20
-1510.941774936247
 30
0.0
 41
1.0
 10
839.4308341259361
 20
-1510.942008876336
 30
0.0
 41
1.0
 10
839.3534039135685
 20
-1510.942944856044
 30
0.0
 41
0.9997304945087065
 10
839.2761006073338
 20
-1510.94747394983
 30
0.0
 41
1.0
 10
839.2670509656266
 20
-1510.94800415582
 30
0.0
 41
1.0
 10
839.2580013239193
 20
-1510.94853436181
 30
0.0
 41
1.0
 10
839.1625987342779
 20
-1510.954123867576
 30
0.0
 41
0.9997888306416222
 10
839.0675063984401
 20
-1510.963628832064
 30
0.0
 41
1.0
 10
839.0587853368626
 20
-1510.964500546697
 30
0.0
 41
1.0
 10
839.0500642752851
 20
-1510.965372261329
 30
0.0
 41
1.0
 10
838.9375298162955
 20
-1510.976620655083
 30
0.0
 41
0.9984170238190458
 10
838.8269706689434
 20
-1511.000436737019
 30
0.0
 41
1.0
 10
838.7905895379586
 20
-1511.008273772825
 30
0.0
 41
1.0
 10
838.7542084069737
 20
-1511.01611080863
 30
0.0
 41
1.0
 10
838.6390173385519
 20
-1511.04092467514
 30
0.0
 41
0.9976592854200094
 10
838.5282891721463
 20
-1511.081223352287
 30
0.0
 41
1.0
 10
838.4175610057417
 20
-1511.121522029435
 30
0.0
 41
0.9993255074352234
 10
838.3100892069517
 20
-1511.169838927927
 30
0.0
 41
1.0
 10
838.3054640280278
 20
-1511.171918304126
 30
0.0
 41
1.0
 10
838.3008388491039
 20
-1511.173997680326
 30
0.0
 41
1.0
 10
838.1841166924671
 20
-1511.226473331218
 30
0.0
 41
0.9976475078275464
 10
838.0756693481563
 20
-1511.294421320877
 30
0.0
 41
1.0
 10
838.0573269540209
 20
-1511.305913799692
 30
0.0
 41
1.0
 10
838.0389845598854
 20
-1511.317406278507
 30
0.0
 41
1.0
 10
837.9547823683354
 20
-1511.370163399274
 30
0.0
 41
0.9995131336406812
 10
837.874034653377
 20
-1511.428069611228
 30
0.0
 41
1.0
 10
837.7932869384204
 20
-1511.48597582318
 30
0.0
 41
0.9995810107605979
 10
837.7160252906901
 20
-1511.548457505647
 30
0.0
 41
1.0
 10
837.7130552594804
 20
-1511.550859377111
 30
0.0
 41
1.0
 10
837.7100852282706
 20
-1511.553261248576
 30
0.0
 41
1.0
 10
837.6268835181278
 20
-1511.620546673966
 30
0.0
 41
0.9996617837954996
 10
837.5472928309975
 20
-1511.692067129521
 30
0.0
 41
1.0
 10
837.5351620801138
 20
-1511.702967862517
 30
0.0
 41
1.0
 10
837.52303132923
 20
-1511.713868595514
 30
0.0
 41
1.0
 10
837.4547558018335
 20
-1511.775221210987
 30
0.0
 41
0.9997267750051979
 10
837.3894222935512
 20
-1511.83969774751
 30
0.0
 41
1.0
 10
837.3240887852623
 20
-1511.904174284041
 30
0.0
 41
0.9999667288967576
 10
837.2598158421104
 20
-1511.969708090941
 30
0.0
 41
1.0
 10
837.1909883943405
 20
-1512.039885749694
 30
0.0
 41
1.0
 10
837.1221609465706
 20
-1512.110063408447
 30
0.0
 41
1.0
 10
836.9202331078726
 20
-1512.315952532859
 30
0.0
 41
0.9988205335174655
 10
836.7392274908923
 20
-1512.540456764921
 30
0.0
 41
1.0
 10
836.7085875259886
 20
-1512.578460015349
 30
0.0
 41
1.0
 10
836.6779475610849
 20
-1512.616463265778
 30
0.0
 41
1.0
 10
836.4356620142925
 20
-1512.916973998703
 30
0.0
 41
0.9997077826754498
 10
836.2081840631869
 20
-1513.22884379292
 30
0.0
 41
1.0
 10
836.2064606480583
 20
-1513.231206576297
 30
0.0
 41
1.0
 10
836.2047372329298
 20
-1513.233569359674
 30
0.0
 41
1.0
 10
835.9738124515624
 20
-1513.550164720651
 30
0.0
 41
0.9989147567078898
 10
835.7733489486777
 20
-1513.886874181838
 30
0.0
 41
1.0
 10
835.748607803374
 20
-1513.928430762385
 30
0.0
 41
1.0
 10
835.7238666580702
 20
-1513.969987342932
 30
0.0
 41
1.0
 10
835.5686553594305
 20
-1514.230688727389
 30
0.0
 41
0.999747659818132
 10
835.4253103719193
 20
-1514.498098475974
 30
0.0
 41
1.0
 10
835.2819653844087
 20
-1514.765508224559
 30
0.0
 41
0.9996258967110456
 10
835.1534571324762
 20
-1515.040356161184
 30
0.0
 41
1.0
 10
835.1402572230284
 20
-1515.068587561276
 30
0.0
 41
1.0
 10
835.1270573135804
 20
-1515.096818961368
 30
0.0
 41
1.0
 10
834.9868485925813
 20
-1515.39669135932
 30
0.0
 41
0.9998735413943902
 10
834.8562472458582
 20
-1515.700870958793
 30
0.0
 41
1.0
 10
834.8528044177965
 20
-1515.70888954426
 30
0.0
 41
1.0
 10
834.8493615897349
 20
-1515.716908129727
 30
0.0
 41
1.0
 10
834.7256458991355
 20
-1516.005050558267
 30
0.0
 41
0.9999377418856971
 10
834.608391096963
 20
-1516.295882025936
 30
0.0
 41
1.0
 10
834.4911362947873
 20
-1516.586713493613
 30
0.0
 41
0.9999508299508234
 10
834.379672351411
 20
-1516.879813170432
 30
0.0
 41
1.0
 10
834.3765915827483
 20
-1516.887914196396
 30
0.0
 41
1.0
 10
834.3735108140856
 20
-1516.896015222361
 30
0.0
 41
1.0
 10
834.2558853333835
 20
-1517.205316951109
 30
0.0
 41
0.9999609228434002
 10
834.1437467305126
 20
-1517.516649967116
 30
0.0
 41
1.0
 10
834.1407907201612
 20
-1517.52485680753
 30
0.0
 41
1.0
 10
834.13783470981
 20
-1517.533063647944
 30
0.0
 41
1.0
 10
834.0197840862406
 20
-1517.860810344768
 30
0.0
 41
0.9999674607395507
 10
833.9070365601749
 20
-1518.190418964756
 30
0.0
 41
1.0
 10
833.8556381696089
 20
-1518.340678160458
 30
0.0
 41
1.0
 10
833.804239779043
 20
-1518.49093735616
 30
0.0
 41
1.0
 10
833.6882291722852
 20
-1518.830085338662
 30
0.0
 41
0.9999287532310154
 10
833.580347768315
 20
-1519.171906077637
 30
0.0
 41
1.0
 10
833.5338705122288
 20
-1519.31916862184
 30
0.0
 41
1.0
 10
833.4873932561425
 20
-1519.466431166044
 30
0.0
 41
1.0
 10
833.4724663643944
 20
-1519.513726816453
 30
0.0
 41
0.9999998224582036
 10
833.4575958556138
 20
-1519.561040224853
 30
0.0
 41
1.0
 10
831.8369397188184
 20
-1524.709068726643
 30
0.0
 41
1.0
 10
830.2162835820229
 20
-1529.857097228432
 30
0.0
 41
1.0
 10
829.310975138132
 20
-1529.857097228432
 30
0.0
 41
1.0
 10
828.4056666942411
 20
-1529.857097228432
 30
0.0
 41
1.0
 10
830.2577511056271
 20
-1523.970025305965
 30
0.0
 41
1.0
 10
832.1098355170132
 20
-1518.082953383497
 30
0.0
 41
1.0
 10
832.1199572753159
 20
-1518.050910170047
 30
0.0
 41
1.0
 10
832.1925649441656
 20
-1517.820610628222
 30
0.0
 41
1.0
 10
832.2651726130164
 20
-1517.590311086393
 30
0.0
 41
0.9999825681975505
 10
832.3350556522234
 20
-1517.359170191342
 30
0.0
 41
1.0
 10
832.383346714384
 20
-1517.199445607847
 30
0.0
 41
1.0
 10
832.4316377765444
 20
-1517.039721024352
 30
0.0
 41
1.0
 10
832.5287901298624
 20
-1516.718385802573
 30
0.0
 41
0.999967252896542
 10
832.6207289354877
 20
-1516.395520256981
 30
0.0
 41
1.0
 10
832.6235178191594
 20
-1516.385726411584
 30
0.0
 41
1.0
 10
832.626306702831
 20
-1516.375932566188
 30
0.0
 41
1.0
 10
832.7126677411138
 20
-1516.072654711384
 30
0.0
 41
0.9999899749135848
 10
832.7963093506457
 20
-1515.768615622942
 30
0.0
 41
1.0
 10
832.8064152696622
 20
-1515.731880385267
 30
0.0
 41
1.0
 10
832.8165211886787
 20
-1515.695145147592
 30
0.0
 41
1.0
 10
832.879950960179
 20
-1515.464576534495
 30
0.0
 41
0.9999214200505938
 10
832.9375803885582
 20
-1515.23249019228
 30
0.0
 41
1.0
 10
832.9503462407386
 20
-1515.181079306885
 30
0.0
 41
1.0
 10
832.963112092919
 20
-1515.129668421489
 30
0.0
 41
1.0
 10
832.9952098169354
 20
-1515.000403850073
 30
0.0
 41
0.9999828681670963
 10
833.0257920689313
 20
-1514.870772375604
 30
0.0
 41
1.0
 10
833.056374320927
 20
-1514.741140901136
 30
0.0
 41
0.9999389844476277
 10
833.0840853097162
 20
-1514.610865445235
 30
0.0
 41
1.0
 10
833.0912230534364
 20
-1514.577309341398
 30
0.0
 41
1.0
 10
833.0983607971564
 20
-1514.543753237561
 30
0.0
 41
1.0
 10
833.1403472733847
 20
-1514.346365573992
 30
0.0
 41
0.9998933699441225
 10
833.176551537786
 20
-1514.14783596624
 30
0.0
 41
1.0
 10
833.1779243630035
 20
-1514.140307945537
 30
0.0
 41
1.0
 10
833.179297188221
 20
-1514.132779924834
 30
0.0
 41
1.0
 10
833.218247103056
 20
-1513.919194275682
 30
0.0
 41
0.999685030519344
 10
833.2464307793148
 20
-1513.703923270245
 30
0.0
 41
1.0
 10
833.2484258126841
 20
-1513.688684916123
 30
0.0
 41
1.0
 10
833.2504208460534
 20
-1513.673446562
 30
0.0
 41
1.0
 10
833.2778287085124
 20
-1513.464101334846
 30
0.0
 41
0.9994697936706456
 10
833.2915532677318
 20
-1513.253416139517
 30
0.0
 41
1.0
 10
833.2920303369815
 20
-1513.246092667305
 30
0.0
 41
1.0
 10
833.2925074062313
 20
-1513.238769195094
 30
0.0
 41
1.0
 10
833.3052778269516
 20
-1513.042730944184
 30
0.0
 41
0.9991804893136549
 10
833.3021495106786
 20
-1512.846302094213
 30
0.0
 41
1.0
 10
833.3020656318565
 20
-1512.8410352928
 30
0.0
 41
1.0
 10
833.3019817530344
 20
-1512.835768491388
 30
0.0
 41
1.0
 10
833.2990211944059
 20
-1512.649873244239
 30
0.0
 41
0.9988448329321505
 10
833.2782296487821
 20
-1512.465120654406
 30
0.0
 41
1.0
 10
833.2766355750791
 20
-1512.450955798635
 30
0.0
 41
1.0
 10
833.2750415013761
 20
-1512.436790942863
 30
0.0
 41
1.0
 10
833.2574381031584
 20
-1512.280368064573
 30
0.0
 41
0.9985503209458645
 10
833.2231218308589
 20
-1512.126743880483
 30
0.0
 41
1.0
 10
833.2155358387877
 20
-1512.092783553083
 30
0.0
 41
1.0
 10
833.2079498467166
 20
-1512.058823225684
 30
0.0
 41
1.0
 10
833.1888055585591
 20
-1511.973119696393
 30
0.0
 41
0.9991036781370178
 10
833.162480696908
 20
-1511.889342609069
 30
0.0
 41
1.0
 10
833.1584984714518
 20
-1511.876669446558
 30
0.0
 41
1.0
 10
833.1545162459956
 20
-1511.863996284047
 30
0.0
 41
1.0
 10
833.1361558352567
 20
-1511.805565521743
 30
0.0
 41
0.9998874504369226
 10
833.1160506275785
 20
-1511.747711919521
 30
0.0
 41
1.0
 10
833.0959454199003
 20
-1511.689858317298
 30
0.0
 41
0.9994041637543676
 10
833.0718968069664
 20
-1511.633529613409
 30
0.0
 41
1.0
 10
833.0677000227421
 20
-1511.623699548927
 30
0.0
 41
1.0
 10
833.0635032385178
 20
-1511.613869484444
 30
0.0
 41
1.0
 10
833.0356244075228
 20
-1511.548569318476
 30
0.0
 41
0.9991846840700819
 10
833.0025680508301
 20
-1511.485731287196
 30
0.0
 41
1.0
 10
833.0014314444347
 20
-1511.483570670741
 30
0.0
 41
1.0
 10
833.0002948380393
 20
-1511.481410054286
 30
0.0
 41
1.0
 10
832.9695116941364
 20
-1511.422893255915
 30
0.0
 41
0.9989253167923109
 10
832.933442270082
 20
-1511.367478327526
 30
0.0
 41
1.0
 10
832.9323881454077
 20
-1511.365858832763
 30
0.0
 41
1.0
 10
832.9313340207334
 20
-1511.364239338001
 30
0.0
 41
1.0
 10
832.8973728460271
 20
-1511.312063399136
 30
0.0
 41
0.9986467172835783
 10
832.8581756933897
 20
-1511.263697365506
 30
0.0
 41
1.0
 10
832.8573015646895
 20
-1511.262618763229
 30
0.0
 41
1.0
 10
832.8564274359892
 20
-1511.261540160951
 30
0.0
 41
1.0
 10
832.8189785407527
 20
-1511.215331331877
 30
0.0
 41
0.9984001104267911
 10
832.7765518102351
 20
-1511.173646224508
 30
0.0
 41
1.0
 10
832.7759646721253
 20
-1511.173069349626
 30
0.0
 41
1.0
 10
832.7753775340154
 20
-1511.172492474744
 30
0.0
 41
1.0
 10
832.7341250797175
 20
-1511.131961117139
 30
0.0
 41
0.9982442159083532
 10
832.6883689783824
 20
-1511.096592555879
 30
0.0
 41
1.0
 10
832.6881541829207
 20
-1511.096426523236
 30
0.0
 41
1.0
 10
832.6879393874591
 20
-1511.096260490592
 30
0.0
 41
1.0
 10
832.6426128770464
 20
-1511.061223994618
 30
0.0
 41
0.9982450060835216
 10
832.593461897975
 20
-1511.031792211585
 30
0.0
 41
1.0
 10
832.5443109189043
 20
-1511.002360428552
 30
0.0
 41
0.998392263963485
 10
832.4921446127395
 20
-1510.978680793898
 30
0.0
 41
1.0
 10
832.4919177354145
 20
-1510.978577808416
 30
0.0
 41
1.0
 10
832.4916908580894
 20
-1510.978474822934
 30
0.0
 41
1.0
 10
832.4390707972732
 20
-1510.954589217316
 30
0.0
 41
0.9986517147149299
 10
832.3842578244031
 20
-1510.936288098194
 30
0.0
 41
1.0
 10
832.3835799029775
 20
-1510.936061751764
 30
0.0
 41
1.0
 10
832.3829019815521
 20
-1510.935835405333
 30
0.0
 41
1.0
 10
832.3267331658294
 20
-1510.917081593348
 30
0.0
 41
0.9989435598956927
 10
832.269079778678
 20
-1510.903563891114
 30
0.0
 41
1.0
 10
832.2679996590957
 20
-1510.903310640861
 30
0.0
 41
1.0
 10
832.2669195395135
 20
-1510.903057390608
 30
0.0
 41
1.0
 10
832.2071059132002
 20
-1510.889033187867
 30
0.0
 41
0.9992249241240391
 10
832.1463744043042
 20
-1510.879757845152
 30
0.0
 41
1.0
 10
832.1449607160118
 20
-1510.879541936744
 30
0.0
 41
1.0
 10
832.1435470277194
 20
-1510.879326028336
 30
0.0
 41
1.0
 10
832.0799881422416
 20
-1510.869618868806
 30
0.0
 41
0.9994396597834304
 10
832.0159222057064
 20
-1510.86418594646
 30
0.0
 41
1.0
 10
831.9967815382269
 20
-1510.862562778741
 30
0.0
 41
1.0
 10
831.9776408707473
 20
-1510.860939611022
 30
0.0
 41
1.0
 10
831.8752935992538
 20
-1510.852260353239
 30
0.0
 41
0.9987693403121353
 10
831.7725899756659
 20
-1510.853763416692
 30
0.0
 41
1.0
 10
831.7623356414388
 20
-1510.853913488466
 30
0.0
 41
1.0
 10
831.7520813072116
 20
-1510.854063560241
 30
0.0
 41
1.0
 10
831.6425255410336
 20
-1510.855666904528
 30
0.0
 41
0.9989753644966266
 10
831.5335635410179
 20
-1510.867169911453
 30
0.0
 41
1.0
 10
831.424601541001
 20
-1510.878672918378
 30
0.0
 41
0.9983190067306025
 10
831.3177027300358
 20
-1510.902707910165
 30
0.0
 41
1.0
 10
831.3088017784294
 20
-1510.904709188728
 30
0.0
 41
1.0
 10
831.299900826823
 20
-1510.90671046729
 30
0.0
 41
1.0
 10
831.175200112644
 20
-1510.934748016203
 30
0.0
 41
0.9985539388303102
 10
831.0542303589659
 20
-1510.976011692248
 30
0.0
 41
1.0
 10
831.051884928006
 20
-1510.976811736064
 30
0.0
 41
1.0
 10
831.049539497046
 20
-1510.97761177988
 30
0.0
 41
1.0
 10
830.9238788814469
 20
-1511.020475543557
 30
0.0
 41
0.9988468746493605
 10
830.8029085391456
 20
-1511.07519362862
 30
0.0
 41
1.0
 10
830.7997257171577
 20
-1511.07663330318
 30
0.0
 41
1.0
 10
830.7965428951698
 20
-1511.078072977739
 30
0.0
 41
1.0
 10
830.6692069088922
 20
-1511.135670411922
 30
0.0
 41
0.9991322885919208
 10
830.5471063248364
 20
-1511.203665744103
 30
0.0
 41
1.0
 10
830.5295043137928
 20
-1511.213467946092
 30
0.0
 41
1.0
 10
830.5119023027493
 20
-1511.223270148082
 30
0.0
 41
1.0
 10
830.4097256216913
 20
-1511.280170263863
 30
0.0
 41
0.9993860037849465
 10
830.3117846176168
 20
-1511.344086279452
 30
0.0
 41
1.0
 10
830.3061663047608
 20
-1511.34775277415
 30
0.0
 41
1.0
 10
830.300547991905
 20
-1511.351419268847
 30
0.0
 41
1.0
 10
830.2138436135398
 20
-1511.408002295043
 30
0.0
 41
0.9998821494955082
 10
830.1289172377305
 20
-1511.467220525118
 30
0.0
 41
1.0
 10
830.043990861914
 20
-1511.526438755197
 30
0.0
 41
0.9997976482743993
 10
829.9615152315095
 20
-1511.58902516324
 30
0.0
 41
1.0
 10
829.9468789667069
 20
-1511.600131853018
 30
0.0
 41
1.0
 10
829.9322427019043
 20
-1511.611238542796
 30
0.0
 41
1.0
 10
829.8204945418878
 20
-1511.696038330399
 30
0.0
 41
0.9998091630799012
 10
829.7121442638578
 20
-1511.785138681103
 30
0.0
 41
1.0
 10
829.6991385113831
 20
-1511.795833781547
 30
0.0
 41
1.0
 10
829.6861327589086
 20
-1511.806528881991
 30
0.0
 41
1.0
 10
829.5517709759293
 20
-1511.917019433582
 30
0.0
 41
0.9995035112317286
 10
829.4246350981687
 20
-1512.035753250594
 30
0.0
 41
1.0
 10
829.4149877877768
 20
-1512.044762996756
 30
0.0
 41
1.0
 10
829.4053404773849
 20
-1512.053772742918
 30
0.0
 41
1.0
 10
829.2819174146214
 20
-1512.169039114672
 30
0.0
 41
0.9994630424298333
 10
829.1663090088391
 20
-1512.292141857906
 30
0.0
 41
1.0
 10
829.162626170066
 20
-1512.296063437421
 30
0.0
 41
1.0
 10
829.1589433312928
 20
-1512.299985016936
 30
0.0
 41
1.0
 10
829.0507006030537
 20
-1512.415244601143
 30
0.0
 41
0.9995160693749381
 10
828.9498345735232
 20
-1512.537012019014
 30
0.0
 41
1.0
 10
828.9479008534423
 20
-1512.539346443222
 30
0.0
 41
1.0
 10
828.9459671333615
 20
-1512.54168086743
 30
0.0
 41
1.0
 10
828.8489685439905
 20
-1512.658779436887
 30
0.0
 41
0.9996561470513936
 10
828.7582423253253
 20
-1512.780802199335
 30
0.0
 41
1.0
 10
828.7520846594234
 20
-1512.789083988378
 30
0.0
 41
1.0
 10
828.7459269935215
 20
-1512.79736577742
 30
0.0
 41
1.0
 10
828.6675161066576
 20
-1512.902824961787
 30
0.0
 41
0.9998349055175307
 10
828.5929888247272
 20
-1513.011063545448
 30
0.0
 41
1.0
 10
828.5184615427993
 20
-1513.119302129105
 30
0.0
 41
0.9999728109554865
 10
828.4455386468875
 20
-1513.228628054663
 30
0.0
 41
1.0
 10
828.4442234314745
 20
-1513.230599824167
 30
0.0
 41
1.0
 10
828.4429082160614
 20
-1513.232571593672
 30
0.0
 41
1.0
 10
828.3673548893473
 20
-1513.345841058202
 30
0.0
 41
0.9999972147349391
 10
828.2923370789936
 20
-1513.459465901007
 30
0.0
 41
1.0
 10
828.2873655363512
 20
-1513.46699598951
 30
0.0
 41
1.0
 10
828.282393993709
 20
-1513.474526078012
 30
0.0
 41
1.0
 10
828.1974330980865
 20
-1513.603211097798
 30
0.0
 41
0.9999371979003996
 10
828.1153777486848
 20
-1513.733768011572
 30
0.0
 41
1.0
 10
828.1118688643234
 20
-1513.739350939637
 30
0.0
 41
1.0
 10
828.108359979962
 20
-1513.744933867701
 30
0.0
 41
1.0
 10
828.0192868618316
 20
-1513.886656637612
 30
0.0
 41
0.9998272025610236
 10
827.9355434709502
 20
-1514.031592514354
 30
0.0
 41
1.0
 10
827.9203282989267
 20
-1514.05792562881
 30
0.0
 41
1.0
 10
827.9051131269032
 20
-1514.084258743265
 30
0.0
 41
1.0
 10
827.7909393919701
 20
-1514.281860848926
 30
0.0
 41
0.9995217214838179
 10
827.6891997024137
 20
-1514.486143176791
 30
0.0
 41
1.0
 10
827.6815561397818
 20
-1514.501490626487
 30
0.0
 41
1.0
 10
827.67391257715
 20
-1514.516838076184
 30
0.0
 41
1.0
 10
827.5870072845579
 20
-1514.69133453427
 30
0.0
 41
0.9998269762607175
 10
827.5066528182856
 20
-1514.868942820994
 30
0.0
 41
1.0
 10
827.4262983520159
 20
-1515.046551107712
 30
0.0
 41
0.9998944747387545
 10
827.3511375574504
 20
-1515.226418833343
 30
0.0
 41
1.0
 10
827.3461838878613
 20
-1515.238273488255
 30
0.0
 41
1.0
 10
827.3412302182724
 20
-1515.250128143168
 30
0.0
 41
1.0
 10
827.2605831577166
 20
-1515.443125083193
 30
0.0
 41
0.9999506734410346
 10
827.1837856288098
 20
-1515.637685888057
 30
0.0
 41
1.0
 10
827.169185663545
 20
-1515.674673809847
 30
0.0
 41
1.0
 10
827.1545856982804
 20
-1515.711661731637
 30
0.0
 41
1.0
 10
827.1069880999144
 20
-1515.832246692893
 30
0.0
 41
0.9999912393937238
 10
827.0604016558837
 20
-1515.953225895609
 30
0.0
 41
1.0
 10
827.0138152118514
 20
-1516.07420509833
 30
0.0
 41
0.9999927113930913
 10
826.9681539174586
 20
-1516.195536505829
 30
0.0
 41
1.0
 10
826.9541854860652
 20
-1516.232653487817
 30
0.0
 41
1.0
 10
826.9402170546716
 20
-1516.269770469804
 30
0.0
 41
1.0
 10
826.8666188974821
 20
-1516.465335841304
 30
0.0
 41
0.9999487550945669
 10
826.7969952725109
 20
-1516.662351206485
 30
0.0
 41
1.0
 10
826.7734016625742
 20
-1516.729114516777
 30
0.0
 41
1.0
 10
826.7498080526375
 20
-1516.795877827069
 30
0.0
 41
1.0
 10
826.6551224182672
 20
-1517.063811661893
 30
0.0
 41
0.9999808436932367
 10
826.5637608296245
 20
-1517.332897093162
 30
0.0
 41
1.0
 10
826.4723992409789
 20
-1517.601982524438
 30
0.0
 41
0.9999873932897122
 10
826.3837445322641
 20
-1517.871971879442
 30
0.0
 41
1.0
 10
826.3636521753951
 20
-1517.933161212194
 30
0.0
 41
1.0
 10
826.3435598185263
 20
-1517.994350544945
 30
0.0
 41
1.0
 10
826.2147203960752
 20
-1518.386718565447
 30
0.0
 41
0.9999794883026355
 10
826.0909176111211
 20
-1518.780704771711
 30
0.0
 41
1.0
 10
826.0797653516951
 20
-1518.816195381911
 30
0.0
 41
1.0
 10
826.0686130922691
 20
-1518.851685992112
 30
0.0
 41
1.0
 10
825.9260549283583
 20
-1519.305358744241
 30
0.0
 41
0.9999982761779967
 10
825.7851824883237
 20
-1519.759557766426
 30
0.0
 41
1.0
 10
824.1970421557511
 20
-1524.808327497429
 30
0.0
 41
1.0
 10
822.6089018231785
 20
-1529.857097228432
 30
0.0
 41
1.0
 10
821.6601512117021
 20
-1529.857097228432
 30
0.0
 41
1.0
 10
820.7114006002257
 20
-1529.857097228432
 30
0.0
 41
1.0
 10
823.9496850863788
 20
-1519.529775028486
 30
0.0
 41
1.0
 10
827.1879695725321
 20
-1509.20245282854
 30
0.0
 41
1.0
  0
LWPOLYLINE
  5
37BA
330
37B4
100
AcDbEntity
  8
0
  6
Continuous
 62
     7
370
    15
390
1D
100
AcDbPolyline
 90
      232
 70
   128
 43
0.0
 10
801.484423798705
 20
-1510.286795660055
 42
0.0004370800691006
 10
801.4315466245951
 20
-1510.355462299361
 10
801.3922623935056
 20
-1510.406569412208
 42
0.0030481992175739
 10
801.2619236763766
 20
-1510.578291104565
 10
801.223412004636
 20
-1510.62967788834
 42
0.0042058245755651
 10
801.0194269539691
 20
-1510.90668363341
 10
800.9670218314654
 20
-1510.979116480195
 42
0.0120948898743411
 10
800.6709779147028
 20
-1511.409866084746
 10
800.5747854155804
 20
-1511.557346819971
 42
0.0141601263946518
 10
800.2711413686601
 20
-1512.053016156704
 10
800.2316041012323
 20
-1512.121860124139
 42
0.0071131081305925
 10
800.0263317779957
 20
-1512.491362922974
 42
0.0068458791003529
 10
799.8314522511511
 20
-1512.866454486453
 10
799.8246403886949
 20
-1512.880016200173
 42
0.0064120880288541
 10
799.6264981386569
 20
-1513.287440675079
 10
799.6189634531336
 20
-1513.303452531814
 42
0.0058857236448259
 10
799.416208061261
 20
-1513.747828642851
 10
799.4080331349679
 20
-1513.766318796483
 42
0.0053189741896131
 10
799.199328822295
 20
-1514.252282270414
 10
799.190581016619
 20
-1514.273264148597
 42
0.0047503650419281
 10
798.9746072904726
 20
-1514.805463581795
 10
798.9653390421201
 20
-1514.828939957914
 42
0.0042071762170021
 10
798.7407916584017
 20
-1515.412033551959
 10
798.7310422560438
 20
-1515.437999726854
 42
0.0036680086485526
 10
798.4965876127317
 20
-1516.076635111385
 10
798.4863798328839
 20
-1516.105083645729
 42
0.0032573142628829
 10
798.2407475469081
 20
-1516.803936305509
 10
798.1720970260809
 20
-1517.003399389523
 42
0.0026133366647226
 10
797.8236518273186
 20
-1518.033262673208
 10
797.7603950398144
 20
-1518.223493508611
 42
0.0020592950741755
 10
797.5465319708508
 20
-1518.875597161214
 10
797.5434801796908
 20
-1518.885033649614
 42
0.002560992853428
 10
797.3416596782018
 20
-1519.520178871989
 10
797.339068311062
 20
-1519.528481212972
 42
0.0031362356245142
 10
797.1495775253982
 20
-1520.149244069109
 10
797.1474464824694
 20
-1520.156385375325
 42
0.0037229918029172
 10
796.9706460955445
 20
-1520.765370677295
 10
796.9689675063396
 20
-1520.771317567464
 42
0.0043077623706928
 10
796.805226704273
 20
-1521.371136299238
 42
0.0047654161820224
 10
796.6523979817634
 20
-1521.973822388114
 10
796.6179333729178
 20
-1522.11538416529
 42
0.0112969368444889
 10
796.4220690147733
 20
-1523.007076325919
 10
796.3940626256776
 20
-1523.149904372012
 42
0.0130056762572022
 10
796.193225382031
 20
-1524.336845443657
 10
796.1726856318851
 20
-1524.480923557125
 42
0.0138721532142908
 10
796.068982627346
 20
-1525.38775304296
 10
796.0496871394381
 20
-1525.611250764885
 42
0.0071254697007716
 10
796.0163404935156
 20
-1526.074437773732
 10
796.0113795193519
 20
-1526.160441768301
 42
0.0028881799201203
 10
795.9962412260625
 20
-1526.452183478135
 42
0.006029729713464
 10
795.9863090262867
 20
-1526.744132414259
 10
795.9852467446198
 20
-1526.792524786183
 42
0.0229523164156273
 10
795.9929777724055
 20
-1527.115279632466
 10
795.997203545926
 20
-1527.175683166485
 42
0.0123673300664508
 10
796.0162821924442
 20
-1527.376803891657
 42
0.0128577674470333
 10
796.0454775828506
 20
-1527.576701741584
 10
796.0526034562375
 20
-1527.618030556181
 42
0.0285717853763366
 10
796.1170974579333
 20
-1527.896146707495
 10
796.1307659815996
 20
-1527.942801476971
 42
0.0316283099158376
 10
796.2465765615138
 20
-1528.261815978798
 10
796.2496252532692
 20
-1528.268802351123
 42
0.0338984824230596
 10
796.3990569642366
 20
-1528.556368315312
 10
796.4013656936067
 20
-1528.560159344589
 42
0.0350228718354002
 10
796.58372598428
 20
-1528.817211329265
 10
796.5846112360547
 20
-1528.818290407029
 42
0.0347476747526904
 10
796.7990359232952
 20
-1529.045475454249
 42
0.0331337701909829
 10
797.0422792490415
 20
-1529.241604116326
 10
797.0433793475577
 20
-1529.242376819499
 42
0.0305233319078404
 10
797.3119240431304
 20
-1529.40750498959
 10
797.3151540876322
 20
-1529.409229001453
 42
0.0273744481150104
 10
797.6077077992037
 20
-1529.545367145342
 10
797.6128123343441
 20
-1529.547410729813
 42
0.0240964406197087
 10
797.9282894099912
 20
-1529.656394456095
 10
797.9348727391998
 20
-1529.65831919577
 42
0.0209636179810902
 10
798.2722728918542
 20
-1529.741787343702
 10
798.2799053523011
 20
-1529.743339256703
 42
0.0181388704691085
 10
798.6382277442964
 20
-1529.802755349917
 10
798.6465085926777
 20
-1529.803821533734
 42
0.0156086547588956
 10
799.0246959568734
 20
-1529.840557720311
 10
799.0678912091927
 20
-1529.84339622279
 42
0.0137148329019992
 10
799.3955643544924
 20
-1529.855916478041
 10
799.4415005444222
 20
-1529.856410911156
 42
0.0051057823881772
 10
799.6776461310106
 20
-1529.856541165565
 42
0.0052256693309321
 10
799.9137434147782
 20
-1529.851792341102
 10
799.9839701985387
 20
-1529.849645375087
 42
0.0161507179051024
 10
800.3597072766439
 20
-1529.82599500476
 10
800.3797202370131
 20
-1529.824084809473
 42
0.0101216737834091
 10
800.7937474585073
 20
-1529.776091879107
 10
800.8278007479305
 20
-1529.771444182298
 42
0.0245291776396842
 10
801.3045904034805
 20
-1529.682369104222
 10
801.3894137190036
 20
-1529.662173183876
 42
0.0143509212555117
 10
801.7460448229452
 20
-1529.566368550097
 42
0.0156557857036098
 10
802.0962608876758
 20
-1529.449357334277
 10
802.1037621021671
 20
-1529.446587172524
 42
0.0170137333629999
 10
802.4603580978519
 20
-1529.300929557651
 10
802.467462020256
 20
-1529.297741722089
 42
0.0183105364411775
 10
802.8268116884187
 20
-1529.120406680267
 10
802.833758453061
 20
-1529.116656245393
 42
0.0194899958153454
 10
803.1922391940429
 20
-1528.904677263503
 10
803.1992530733817
 20
-1528.900151921207
 42
0.0204869852951123
 10
803.5532673754718
 20
-1528.650631906124
 10
803.5605329840627
 20
-1528.645051840773
 42
0.0212516938556329
 10
803.9065229151671
 20
-1528.355147843881
 10
803.9530396092458
 20
-1528.312680533785
 42
0.0215248918250276
 10
804.213065778134
 20
-1528.05391625479
 10
804.2580955125221
 20
-1528.005072133432
 42
0.0114578554966979
 10
804.4128876661919
 20
-1527.829249199982
 10
804.4240822021783
 20
-1527.815930436437
 42
0.0061531305138475
 10
804.550556848173
 20
-1527.661640903131
 42
0.0006325587121945
 10
804.6749353322992
 20
-1527.505637527487
 10
804.6979754673762
 20
-1527.476664006796
 42
0.0041897761563631
 10
804.8664308713613
 20
-1527.261144630718
 10
804.9248929912411
 20
-1527.185043283749
 42
0.0092993880037096
 10
805.2015049184583
 20
-1526.810764519874
 10
805.2838994116631
 20
-1526.694827516297
 42
0.0159321727085494
 10
805.6305058943061
 20
-1526.17265329554
 10
805.6748620296925
 20
-1526.100973731295
 42
0.0085547317022316
 10
805.9093737950209
 20
-1525.707098782065
 42
0.0084601156892159
 10
806.1303499724644
 20
-1525.305471933031
 10
806.1384654462934
 20
-1525.29011225076
 42
0.0081429654286339
 10
806.3617147167317
 20
-1524.850390738218
 10
806.3705748809149
 20
-1524.8322118962
 42
0.0076574581326647
 10
806.596982391479
 20
-1524.349029020953
 10
806.6064620322053
 20
-1524.327964542644
 42
0.0070682724202672
 10
806.8369069400187
 20
-1523.795927237847
 10
806.8468972239938
 20
-1523.771938048851
 42
0.006455951444835
 10
807.0822304321755
 20
-1523.185625782332
 10
807.0926397903404
 20
-1523.15869085689
 42
0.0058311413907541
 10
807.3336865271001
 20
-1522.512658762515
 10
807.3444416044907
 20
-1522.482774421346
 42
0.0052312425817439
 10
807.592022882528
 20
-1521.771572007522
 10
807.6030667189114
 20
-1521.738745295442
 42
0.0046680544795756
 10
807.8579951466464
 20
-1520.956918979685
 10
807.8999872966909
 20
-1520.82393574239
 42
0.0041666856443342
 10
808.1032733090844
 20
-1520.160966967389
 10
808.1409357497378
 20
-1520.034385859771
 42
0.0015170975155948
 10
808.2621223281612
 20
-1519.622517508242
 42
-0.0004887993119015
 10
808.3824621012625
 20
-1519.210399096275
 10
808.4589393587794
 20
-1518.949441710259
 42
0.0002583378927582
 10
808.7321539287989
 20
-1518.015385007233
 10
808.813926778437
 20
-1517.735285747439
 42
0.0006636169673721
 10
809.0077945384317
 20
-1517.06793282391
 10
809.0128911927671
 20
-1517.05030124107
 42
0.0010589131321427
 10
809.1943398936953
 20
-1516.417569897981
 10
809.1993219641778
 20
-1516.400056990954
 42
0.001565552446432
 10
809.3675921713586
 20
-1515.80144031176
 10
809.372422371768
 20
-1515.784048152844
 42
0.0021640440476324
 10
809.5267123437595
 20
-1515.219021134806
 10
809.5313465631908
 20
-1515.201756404807
 42
0.0028763871853932
 10
809.6708622812425
 20
-1514.669788453965
 10
809.6752481454149
 20
-1514.65266447579
 42
0.0037310511945807
 10
809.7992048372466
 20
-1514.153216881787
 10
809.8032800575321
 20
-1514.136256610556
 42
0.0047652197771391
 10
809.9109039580441
 20
-1513.668778842236
 10
809.9145945573663
 20
-1513.652019287091
 42
0.0060276699298384
 10
810.005124656521
 20
-1513.215943491942
 10
810.0083433468097
 20
-1513.199442277635
 42
0.0075824337755462
 10
810.0810326562257
 20
-1512.794175113206
 10
810.0836780336057
 20
-1512.778020165757
 42
0.0095130624609924
 10
810.1377932692371
 20
-1512.402930812684
 10
810.1447794931202
 20
-1512.346997254564
 42
0.0121054653225773
 10
810.1713708236977
 20
-1512.082101426094
 10
810.1722373134568
 20
-1512.07069798317
 42
0.0069050827390339
 10
810.187326131495
 20
-1511.82775675632
 10
810.1884614311635
 20
-1511.804230499274
 42
0.0169063976703422
 10
810.1912887101437
 20
-1511.608037771975
 10
810.1901180586124
 20
-1511.547702010626
 42
0.0052007732906203
 10
810.1878646100195
 20
-1511.472108620474
 42
0.0054038123293951
 10
810.1679010981794
 20
-1511.352090324457
 10
810.1628152423102
 20
-1511.323431837882
 42
0.0112050460466046
 10
810.1274308802514
 20
-1511.147105399542
 10
810.109605918211
 20
-1511.067563812823
 42
0.0240764468012402
 10
810.018708552064
 20
-1510.737326777319
 10
810.000149789251
 20
-1510.680706612327
 42
0.0256812331836492
 10
809.8567868690618
 20
-1510.30898240607
 10
809.8513774432407
 20
-1510.296851071081
 42
0.0268360501215513
 10
809.6819502023906
 20
-1509.96585793706
 10
809.676413794755
 20
-1509.956338266747
 42
0.0274670231732357
 10
809.4842128183423
 20
-1509.66405089183
 10
809.4788315183794
 20
-1509.656771744288
 42
0.0275035967099519
 10
809.2672586388178
 20
-1509.401255853985
 10
809.2621891378521
 20
-1509.395776766355
 42
0.0269557673521842
 10
809.0347855944117
 20
-1509.175134480392
 10
809.0300425366291
 20
-1509.171004525931
 42
0.025912480220913
 10
808.7904877051983
 20
-1508.983313998779
 10
808.785956860016
 20
-1508.980128496448
 42
0.0245162153003235
 10
808.5380405069216
 20
-1508.823395487338
 10
808.5335139605942
 20
-1508.820835290135
 42
0.0229282588844504
 10
808.28109440377
 20
-1508.692967097638
 10
808.2763139099364
 20
-1508.690814797878
 42
0.0212984135697073
 10
808.0232759574715
 20
-1508.589615880634
 10
808.0179716725032
 20
-1508.587752317874
 42
0.0197555462345772
 10
807.768193334779
 20
-1508.510936899909
 42
0.0183511896794026
 10
807.5132646093123
 20
-1508.453353992943
 10
807.4268994125956
 20
-1508.437151202559
 42
0.0338057877143257
 10
807.1413920633325
 20
-1508.403342797418
 10
807.0503866582823
 20
-1508.398763142156
 42
0.009199052450147
 10
806.9445395496566
 20
-1508.395387286235
 42
0.0028333980778658
 10
806.8386256336901
 20
-1508.394559178718
 10
806.8377101806143
 20
-1508.394557208894
 42
-0.0023619827803835
 10
806.7299641655014
 20
-1508.393816367815
 10
806.6935589953325
 20
-1508.393394061352
 42
0.0008824598464932
 10
806.513003005606
 20
-1508.391618283115
 10
806.4691415730767
 20
-1508.391264321589
 42
0.0038132665763979
 10
806.2008586772052
 20
-1508.391145385522
 10
806.1843250224044
 20
-1508.391264151666
 42
0.0060665569337524
 10
805.8830445308009
 20
-1508.397084451087
 10
805.8687941987878
 20
-1508.397532759054
 42
0.0080356953335875
 10
805.5393354824531
 20
-1508.413200481121
 10
805.5272654673613
 20
-1508.413969064061
 42
0.0098996399106022
 10
805.1745023827109
 20
-1508.443454293259
 10
805.1644566733357
 20
-1508.444494589458
 42
0.0117740981368925
 10
804.7932998149843
 20
-1508.491786836988
 10
804.7850771185044
 20
-1508.493031953558
 42
0.0137435215136692
 10
804.400488299017
 20
-1508.562128927121
 10
804.3938312598959
 20
-1508.563514823354
 42
0.0158359869388708
 10
804.0008341660888
 20
-1508.658406911836
 10
803.9954209792263
 20
-1508.659896852705
 42
0.0180554124027603
 10
803.5991059346201
 20
-1508.784534868942
 10
803.5945491465305
 20
-1508.78615090521
 42
0.0203657431283054
 10
803.2000716287188
 20
-1508.944411246726
 10
803.1959280897119
 20
-1508.946272868167
 42
0.0226819684655103
 10
802.8084920335092
 20
-1509.141915446838
 10
802.8042922424901
 20
-1509.144281038758
 42
0.024863498460952
 10
802.4291103013061
 20
-1509.380907684707
 10
802.3809153725251
 20
-1509.414764726531
 42
0.0267044190883992
 10
802.1066226756084
 20
-1509.630205102399
 42
0.0139303002204704
 10
801.8504555096624
 20
-1509.867443943318
 10
801.8456021239487
 20
-1509.872196606171
 42
0.0283460963445692
 10
801.6015295297215
 20
-1510.139927266616
 10
801.5618610245649
 20
-1510.18872884409
 42
0.0070695364819138
 10
801.484423798705
 20
-1510.286795660055
 42
0.0070695364819138
  0
LWPOLYLINE
  5
37BB
330
37B4
100
AcDbEntity
  8
0
  6
Continuous
 62
     7
370
    15
390
1D
100
AcDbPolyline
 90
      226
 70
   128
 43
0.0
 10
797.9556033614587
 20
-1526.008384466239
 42
-0.0026277636623007
 10
797.9555254776586
 20
-1525.941612540495
 10
797.9557428358906
 20
-1525.888457323053
 42
-0.0088680296729229
 10
797.9595194521837
 20
-1525.715441540648
 10
797.9618658112961
 20
-1525.656161515196
 42
-0.0077381705617863
 10
797.9779119220586
 20
-1525.364901019407
 10
797.9787798332324
 20
-1525.352612785713
 42
-0.0068872530530333
 10
798.0054119129804
 20
-1525.037391033645
 10
798.0066161371666
 20
-1525.025150054625
 42
-0.0062130021481534
 10
798.0442098539953
 20
-1524.686280363379
 10
798.0457137575295
 20
-1524.67410649147
 42
-0.0056726929669106
 10
798.0946356170322
 20
-1524.311911269354
 10
798.0964090626762
 20
-1524.299817469112
 42
-0.0052341884494755
 10
798.1570196489366
 20
-1523.914624213591
 10
798.1590376377128
 20
-1523.902619283601
 42
-0.0049768450173959
 10
798.2317763191376
 20
-1523.494774716178
 10
798.256025333861
 20
-1523.366226733162
 42
-0.0089029805623286
 10
798.3931061856565
 20
-1522.704451285736
 10
798.4258515609743
 20
-1522.559419855217
 42
-0.0080318257099636
 10
798.6554001753152
 20
-1521.613710223362
 10
798.6673851017632
 20
-1521.567579588173
 42
-0.0074265721319188
 10
798.951396640617
 20
-1520.53751500978
 10
798.9712761837278
 20
-1520.46938094921
 42
-0.0069711922703071
 10
799.2985807622365
 20
-1519.403113208875
 10
799.3585327093393
 20
-1519.217091850513
 42
-0.0052070422893384
 10
799.5879579346013
 20
-1518.529819773473
 10
799.6052391267998
 20
-1518.47979249278
 42
-0.0009167004446803
 10
799.808331014063
 20
-1517.895336644702
 42
-0.0025162726946385
 10
800.0154286443253
 20
-1517.31229538054
 10
800.0526532561258
 20
-1517.209145834648
 42
-0.0028212681458738
 10
800.3008291750941
 20
-1516.533415202463
 10
800.3106599378539
 20
-1516.507107757762
 42
-0.003196491682402
 10
800.5469521955071
 20
-1515.886902995659
 10
800.5565866495084
 20
-1515.86209300551
 42
-0.0036281836450951
 10
800.7816926106073
 20
-1515.294652324623
 10
800.7911310207561
 20
-1515.271354893141
 42
-0.0041269166832194
 10
801.0057487174239
 20
-1514.753913997142
 10
801.038381673848
 20
-1514.677035550773
 42
-0.0047472213057997
 10
801.1954264793983
 20
-1514.316614082897
 10
801.202320560611
 20
-1514.301193485555
 42
-0.0025651659996451
 10
801.3506785944567
 20
-1513.973865429817
 42
-0.0057144634999201
 10
801.504428288228
 20
-1513.649055756454
 10
801.5324589936264
 20
-1513.591547374066
 42
-0.0065388068374211
 10
801.715926021369
 20
-1513.227314877395
 10
801.7243844771492
 20
-1513.211055298022
 42
-0.0074510843021182
 10
801.9005667230253
 20
-1512.884367016903
 10
801.9087463935552
 20
-1512.869726239636
 42
-0.0084648979857403
 10
802.0783802466565
 20
-1512.577817228673
 10
802.0862363731516
 20
-1512.56481023701
 42
-0.009563854279859
 10
802.2500718207388
 20
-1512.304921365043
 10
802.2575467644107
 20
-1512.293552003588
 42
-0.0107191626804603
 10
802.416348344798
 20
-1512.062940769044
 10
802.4233650785281
 20
-1512.053204676681
 42
-0.0118458573905762
 10
802.5779131770416
 20
-1511.849132481369
 42
-0.0129184518191258
 10
802.7423658006434
 20
-1511.652971965198
 10
802.7725105730074
 20
-1511.618845886297
 42
-0.0217742579632581
 10
802.9491228953416
 20
-1511.435639116049
 10
802.9598684398087
 20
-1511.425422282839
 42
-0.0097266568644932
 10
803.1259260586578
 20
-1511.273574708408
 42
-0.0187720905716971
 10
803.30027363455
 20
-1511.131505855017
 10
803.3309796252257
 20
-1511.10834677262
 42
-0.01794282075143
 10
803.5634003452176
 20
-1510.945794595511
 10
803.5670526721299
 20
-1510.943430660626
 42
-0.0170047877697378
 10
803.8028163096637
 20
-1510.801970146472
 10
803.8065992984071
 20
-1510.799871841437
 42
-0.0160190788366477
 10
804.0435078460456
 20
-1510.678220539447
 42
-0.0151102861493574
 10
804.2875396284916
 20
-1510.571537763393
 10
804.339926130704
 20
-1510.550497630498
 42
-0.0271945441883617
 10
804.6985886897638
 20
-1510.428632819792
 10
804.7676534902514
 20
-1510.409283278526
 42
-0.0237596594022489
 10
805.1834503372729
 20
-1510.313832566545
 10
805.2515131910029
 20
-1510.301577878418
 42
-0.02137154405531
 10
805.5373881224486
 20
-1510.262630846908
 10
805.5975352886695
 20
-1510.257041132207
 42
-0.0101465655824567
 10
805.7650278206607
 20
-1510.244897588943
 10
805.774368206855
 20
-1510.244410673946
 42
-0.0100375910885948
 10
805.9235223074215
 20
-1510.23963485602
 10
805.9337815771069
 20
-1510.239512417006
 42
-0.0103625633372331
 10
806.0624895717567
 20
-1510.240643850532
 10
806.0847552230235
 20
-1510.241301208997
 42
-0.0115689250239473
 10
806.1688059605516
 20
-1510.245730715243
 42
-0.0072438037429297
 10
806.2526442399997
 20
-1510.253319914993
 10
806.2694447494636
 20
-1510.255086457716
 42
-0.0217917313139297
 10
806.3860145127753
 20
-1510.272506350437
 10
806.4516146033435
 20
-1510.285252958851
 42
-0.0332943556757076
 10
806.6560067683722
 20
-1510.339293250159
 10
806.6861793369181
 20
-1510.349461327276
 42
-0.0184824084806874
 10
806.8246843933878
 20
-1510.401912342664
 42
-0.0198002050693133
 10
806.9587587338872
 20
-1510.464796402863
 10
806.960645371264
 20
-1510.465774189743
 42
-0.0212242342978364
 10
807.0927843136654
 20
-1510.541536928536
 10
807.0945996092094
 20
-1510.542682730744
 42
-0.0226090605787649
 10
807.2231035104307
 20
-1510.632162374308
 10
807.2249479521686
 20
-1510.633574627296
 42
-0.0238457052230023
 10
807.3481300334614
 20
-1510.737570523158
 10
807.3500827620205
 20
-1510.739385400925
 42
-0.0248160564151002
 10
807.466284269322
 20
-1510.858660002134
 10
807.4683879027232
 20
-1510.861045335838
 42
-0.0254109591447344
 10
807.5759931205894
 20
-1510.996333721802
 10
807.5782411425032
 20
-1510.999475270203
 42
-0.0255528488285339
 10
807.6756878213
 20
-1511.151502324437
 10
807.6780189212166
 20
-1511.155583936045
 42
-0.0252146793224366
 10
807.763799947226
 20
-1511.325086182042
 10
807.7661021863833
 20
-1511.330268263955
 42
-0.0244265635949902
 10
807.8387568801447
 20
-1511.518014836001
 10
807.848003281613
 20
-1511.545880254339
 42
-0.0231319612891641
 10
807.8939260606052
 20
-1511.709181301141
 42
-0.0112130424347139
 10
807.9285620831439
 20
-1511.875384901331
 10
807.9297646082559
 20
-1511.881881488217
 42
-0.0210527881224991
 10
807.9554510836269
 20
-1512.06293713366
 10
807.9589616784485
 20
-1512.098342682205
 42
-0.0190029892425299
 10
807.9744031519931
 20
-1512.351878528476
 10
807.9752131284372
 20
-1512.387354142847
 42
-0.0137974553663803
 10
807.9736642756018
 20
-1512.712385549575
 10
807.9728188206459
 20
-1512.738504294177
 42
-0.0081336634214671
 10
807.9579594854235
 20
-1513.043851761772
 42
-0.0073526923569232
 10
807.9336509520489
 20
-1513.348600006058
 10
807.9323895282662
 20
-1513.361936680723
 42
-0.0066886138692327
 10
807.8966539422195
 20
-1513.692522724222
 10
807.8949968527497
 20
-1513.706144343212
 42
-0.0061359187353323
 10
807.8471462506976
 20
-1514.06290832332
 10
807.845108749626
 20
-1514.076803126141
 42
-0.0056698610065701
 10
807.7844584188588
 20
-1514.46008169498
 10
807.782052985536
 20
-1514.47424081421
 42
-0.0052721077271863
 10
807.7079207847366
 20
-1514.884368153886
 10
807.7051576358946
 20
-1514.898784789274
 42
-0.0049289272178558
 10
807.6168635177957
 20
-1515.336093300391
 10
807.613751023112
 20
-1515.350762153212
 42
-0.0047415956709581
 10
807.5105130315827
 20
-1515.815558910609
 10
807.4757448212199
 20
-1515.965366006006
 42
-0.0084404470901661
 10
807.2857283776469
 20
-1516.725590030541
 10
807.2796016896624
 20
-1516.74845415469
 42
-0.0039635940257712
 10
807.0581480053814
 20
-1517.549443018927
 10
807.0447712101989
 20
-1517.59637463553
 42
-0.0072475040835939
 10
806.777324322335
 20
-1518.485594351922
 10
806.7071119955092
 20
-1518.707334701889
 42
-0.0051345458826315
 10
806.4203526234495
 20
-1519.581659889703
 10
806.3988263566931
 20
-1519.6450861568
 42
-0.0019150016602105
 10
806.1432929498153
 20
-1520.388635277059
 10
806.1368253454056
 20
-1520.407222742019
 42
-0.0021524362750173
 10
805.8883472943553
 20
-1521.111548563688
 10
805.8791368736587
 20
-1521.13730214199
 42
-0.0024331286819501
 10
805.6428816146229
 20
-1521.787901450108
 10
805.6338336620779
 20
-1521.812444756447
 42
-0.002744972178759
 10
805.4092190912369
 20
-1522.411574635387
 10
805.4003290838483
 20
-1522.434897225229
 42
-0.0031083229770119
 10
805.1867865972347
 20
-1522.984821262819
 10
805.1780504655644
 20
-1523.006910978663
 42
-0.0035311343282935
 10
804.9750092799673
 20
-1523.509894104407
 10
804.9664239408132
 20
-1523.530736827932
 42
-0.0040245640949964
 10
804.7733121370252
 20
-1523.989046150509
 10
804.7648760234277
 20
-1524.008625518568
 42
-0.0046015135854388
 10
804.5811197302584
 20
-1524.424530548224
 10
804.5728335524345
 20
-1524.442827687666
 42
-0.0052768638273669
 10
804.3978560334745
 20
-1524.818600571946
 10
804.3897238228517
 20
-1524.83559391048
 42
-0.0060672675645886
 10
804.2229442100816
 20
-1525.173509533603
 10
804.2149747296013
 20
-1525.189174792598
 42
-0.0069904648871742
 10
804.0558063355986
 20
-1525.491510599265
 10
804.0480149359906
 20
-1525.505821148487
 42
-0.0080637022766449
 10
803.895863075642
 20
-1525.774856451645
 10
803.8882740430097
 20
-1525.787784317247
 42
-0.0093006455661744
 10
803.7425333664792
 20
-1526.025798715749
 10
803.7351826997358
 20
-1526.037316684922
 42
-0.0107060778048326
 10
803.595234156297
 20
-1526.246587002301
 10
803.5881723880258
 20
-1526.256672544855
 42
-0.0122723111420693
 10
803.4533786698194
 20
-1526.439465874356
 10
803.4530524462631
 20
-1526.439886262168
 42
-0.0141836319626218
 10
803.3094708432911
 20
-1526.614456019995
 10
803.3025230876445
 20
-1526.622431020254
 42
-0.0175957477211939
 10
803.1626169196045
 20
-1526.772051908664
 42
-0.0080466359684374
 10
803.0151531545812
 20
-1526.914374436809
 10
802.9691186100569
 20
-1526.957394874907
 42
-0.0269600260392252
 10
802.7158383640714
 20
-1527.169718133418
 10
802.6492712277733
 20
-1527.219669548043
 42
-0.0178362839749388
 10
802.4093267381211
 20
-1527.386687474292
 10
802.4020817671244
 20
-1527.391355986495
 42
-0.0174650732653781
 10
802.1657455696793
 20
-1527.532216951456
 42
-0.0169240130165811
 10
801.9202793238221
 20
-1527.656509211234
 10
801.8742931682639
 20
-1527.677871166801
 42
-0.0318883036842149
 10
801.5239423126446
 20
-1527.814209476311
 10
801.4555767774783
 20
-1527.835910096787
 42
-0.0284435909899035
 10
801.0795266511881
 20
-1527.932127532261
 10
801.0443684906911
 20
-1527.93902112809
 42
-0.0243909341012737
 10
800.7309250297706
 20
-1527.98474215912
 10
800.6806443029973
 20
-1527.989587706022
 42
-0.019663929292941
 10
800.4650487254721
 20
-1528.001835991535
 10
800.4132246543036
 20
-1528.002739252272
 42
-0.0100501510681521
 10
800.3008013726444
 20
-1528.002438853919
 10
800.2691415112845
 20
-1528.001717782033
 42
-0.0019752031127588
 10
800.220049174619
 20
-1528.000405621824
 10
800.2172888713999
 20
-1528.000320929997
 42
0.006537875197063
 10
800.1737122966422
 20
-1527.999554038782
 42
-0.0167974694637561
 10
800.1301814737125
 20
-1527.997894140257
 10
800.1261021344483
 20
-1527.997601129362
 42
-0.0081283276270447
 10
800.0745423367091
 20
-1527.993054135723
 10
800.0628027628311
 20
-1527.991826218145
 42
-0.0126703440159914
 10
799.9880844670339
 20
-1527.982091427073
 10
799.965296599361
 20
-1527.978533171158
 42
-0.011785208843257
 10
799.8457576135239
 20
-1527.956970176
 10
799.7903771617655
 20
-1527.945626635767
 42
-0.0251774592297906
 10
799.5635331227595
 20
-1527.887128626334
 10
799.5188139329032
 20
-1527.873161806997
 42
-0.0146525199889832
 10
799.3324209453681
 20
-1527.8088952798
 42
-0.0166929435857481
 10
799.1504432892393
 20
-1527.733088146745
 10
799.1457866579683
 20
-1527.730963246132
 42
-0.0191684358428763
 10
798.9606030267167
 20
-1527.637727162341
 10
798.957270440962
 20
-1527.635885914789
 42
-0.0221181781810743
 10
798.7739601370607
 20
-1527.523752416418
 10
798.7716103330514
 20
-1527.522168118427
 42
-0.0254984685380498
 10
798.5953201826648
 20
-1527.389756968456
 10
798.5728380349636
 20
-1527.37100465952
 42
-0.0292492648805822
 10
798.4480690961211
 20
-1527.253911859878
 42
-0.0159048957492512
 10
798.3342290986712
 20
-1527.125891868279
 10
798.3329103080916
 20
-1527.124310255258
 42
-0.034381337956171
 10
798.2302730464655
 20
-1526.982438929489
 10
798.1987815151049
 20
-1526.931935537395
 42
-0.0369117275700254
 10
798.1128890132073
 20
-1526.768458296447
 42
-0.0191751379911118
 10
798.0456956276506
 20
-1526.596053690441
 10
798.0439323038909
 20
-1526.590960345766
 42
-0.0378178042241274
 10
797.9941375851068
 20
-1526.402019569686
 10
797.9881422893761
 20
-1526.369458951487
 42
-0.0184846046461831
 10
797.9674250900819
 20
-1526.227706130943
 42
-0.0179866351324371
 10
797.9570920850084
 20
-1526.084815317865
 10
797.9570356425625
 20
-1526.083257631249
 42
-0.0085497186139104
 10
797.9556033614587
 20
-1526.008384466239
 42
-0.0085497186139104
  0
ENDBLK
  5
37BC
330
37B4
100
AcDbEntity
  8
TEMPLATE
390
1D
100
AcDbBlockEnd
  0
BLOCK
  5
37CC
330
37CB
100
AcDbEntity
  8
TEMPLATE
390
1D
100
AcDbBlockBegin
  2
*D9
 70
     1
 10
0.0
 20
0.0
 30
0.0
  3
*D9
  1

  0
LINE
  5
37CD
330
37CB
100
AcDbEntity
  8
0
  6
Continuous
 62
     0
370
    -2
390
1D
100
AcDbLine
 10
-310.5525662869364
 20
637.6002587749812
 30
0.0
 11
-265.3930969591344
 21
540.0
 31
0.0
  0
CIRCLE
  5
37CE
102
{ACAD_REACTORS
330
37CF
102
}
330
37CB
100
AcDbEntity
  8
0
  6
Continuous
 62
     0
370
    -2
390
1D
100
AcDbCircle
 10
-310.5525662869364
 20
637.6002587749812
 30
0.0
 40
1.9998779296875
  0
HATCH
  5
37CF
330
37CB
100
AcDbEntity
  8
0
  6
Continuous
 62
     0
370
    -2
390
1D
100
AcDbHatch
 10
0.0
 20
0.0
 30
0.0
210
0.0
220
0.0
230
1.0
  2
SOLID
 70
     1
 71
     1
 91
        1
 92
        1
 93
        1
 72
     2
 10
-310.5525662869364
 20
637.6002587749812
 40
1.9998779296875
 50
0.0
 51
360.0
 73
     0
 97
        1
330
37CE
 75
     0
 76
     1
 98
        1
 10
0.0
 20
0.0
  0
LINE
  5
37D0
330
37CB
100
AcDbEntity
  8
0
  6
Continuous
 62
     0
370
    -2
390
1D
100
AcDbLine
 10
-265.3930969591344
 20
540.0
 30
0.0
 11
-94.2680902304323
 21
540.0
 31
0.0
  0
MTEXT
  5
37D1
330
37CB
100
AcDbEntity
  8
0
 62
     0
390
1D
100
AcDbMText
 10
-205.3930969591344
 20
573.8776171875
 30
0.0
 40
24.4326171875
 41
0.0
 46
0.0
 71
     1
 72
     1
  1
φ35-37
  7
ＭＳ ゴシック
 73
     1
 44
0.7828267384257843
  0
POINT
  5
37D2
330
37CB
100
AcDbEntity
  8
Defpoints
 62
     0
370
     0
390
1D
100
AcDbPoint
 10
-326.0898180142523
 20
671.179922393935
 30
0.0
  0
POINT
  5
37D3
330
37CB
100
AcDbEntity
  8
Defpoints
 62
     0
370
     0
390
1D
100
AcDbPoint
 10
-310.5525662869364
 20
637.6002587749812
 30
0.0
  0
ENDBLK
  5
37D4
330
37CB
100
AcDbEntity
  8
TEMPLATE
390
1D
100
AcDbBlockEnd
  0
BLOCK
  5
37DA
330
37D9
100
AcDbEntity
  8
TEMPLATE
390
1D
100
AcDbBlockBegin
  2
*D10
 70
     1
 10
0.0
 20
0.0
 30
0.0
  3
*D10
  1

  0
LINE
  5
37DB
330
37D9
100
AcDbEntity
  8
0
  6
Continuous
 62
     0
370
    -2
390
1D
100
AcDbLine
 10
405.7591764140411
 20
467.7416280711296
 30
0.0
 11
427.1433533974793
 21
406.4756858124562
 31
0.0
  0
CIRCLE
  5
37DC
102
{ACAD_REACTORS
330
37DD
102
}
330
37D9
100
AcDbEntity
  8
0
  6
Continuous
 62
     0
370
    -2
390
1D
100
AcDbCircle
 10
405.7591764140411
 20
467.7416280711296
 30
0.0
 40
1.9998779296875
  0
HATCH
  5
37DD
330
37D9
100
AcDbEntity
  8
0
  6
Continuous
 62
     0
370
    -2
390
1D
100
AcDbHatch
 10
0.0
 20
0.0
 30
0.0
210
0.0
220
0.0
230
1.0
  2
SOLID
 70
     1
 71
     1
 91
        1
 92
        1
 93
        1
 72
     2
 10
405.7591764140411
 20
467.7416280711296
 40
1.9998779296875
 50
0.0
 51
360.0
 73
     0
 97
        1
330
37DC
 75
     0
 76
     1
 98
        1
 10
0.0
 20
0.0
  0
LINE
  5
37DE
330
37D9
100
AcDbEntity
  8
0
  6
Continuous
 62
     0
370
    -2
390
1D
100
AcDbLine
 10
427.1433533974793
 20
406.4756858124562
 30
0.0
 11
566.5183533974794
 21
406.4756858124562
 31
0.0
  0
MTEXT
  5
37DF
330
37D9
100
AcDbEntity
  8
0
 62
     0
390
1D
100
AcDbMText
 10
487.1433533974793
 20
440.3533029999561
 30
0.0
 40
24.4326171875
 41
0.0
 46
0.0
 71
     1
 72
     1
  1
φ120
  7
ＭＳ ゴシック
 73
     1
 44
0.7828267384257843
  0
POINT
  5
37E0
330
37D9
100
AcDbEntity
  8
Defpoints
 62
     0
370
     0
390
1D
100
AcDbPoint
 10
366.2141795180478
 20
581.0385530977863
 30
0.0
  0
POINT
  5
37E1
330
37D9
100
AcDbEntity
  8
Defpoints
 62
     0
370
     0
390
1D
100
AcDbPoint
 10
405.7591764140411
 20
467.7416280711296
 30
0.0
  0
ENDBLK
  5
37E2
330
37D9
100
AcDbEntity
  8
TEMPLATE
390
1D
100
AcDbBlockEnd
  0
BLOCK
  5
37E5
330
37E4
100
AcDbEntity
  8
TEMPLATE
390
1D
100
AcDbBlockBegin
  2
*D11
 70
     1
 10
0.0
 20
0.0
 30
0.0
  3
*D11
  1

  0
LINE
  5
37E6
330
37E4
100
AcDbEntity
  8
0
  6
Continuous
 62
     0
370
    -2
390
1D
100
AcDbLine
 10
683.083554107194
 20
618.6882479855522
 30
0.0
 11
707.8884721936956
 21
565.0
 31
0.0
  0
CIRCLE
  5
37E7
102
{ACAD_REACTORS
330
37E8
102
}
330
37E4
100
AcDbEntity
  8
0
  6
Continuous
 62
     0
370
    -2
390
1D
100
AcDbCircle
 10
683.083554107194
 20
618.6882479855522
 30
0.0
 40
1.9998779296875
  0
HATCH
  5
37E8
330
37E4
100
AcDbEntity
  8
0
  6
Continuous
 62
     0
370
    -2
390
1D
100
AcDbHatch
 10
0.0
 20
0.0
 30
0.0
210
0.0
220
0.0
230
1.0
  2
SOLID
 70
     1
 71
     1
 91
        1
 92
        1
 93
        1
 72
     2
 10
683.083554107194
 20
618.6882479855522
 40
1.9998779296875
 50
0.0
 51
360.0
 73
     0
 97
        1
330
37E7
 75
     0
 76
     1
 98
        1
 10
0.0
 20
0.0
  0
LINE
  5
37E9
330
37E4
100
AcDbEntity
  8
0
  6
Continuous
 62
     0
370
    -2
390
1D
100
AcDbLine
 10
707.8884721936956
 20
565.0
 30
0.0
 11
831.3884721936956
 21
565.0
 31
0.0
  0
MTEXT
  5
37EA
330
37E4
100
AcDbEntity
  8
0
 62
     0
390
1D
100
AcDbMText
 10
767.8884721936956
 20
598.8776171875
 30
0.0
 40
24.4326171875
 41
0.0
 46
0.0
 71
     1
 72
     1
  1
φ80
  7
ＭＳ ゴシック
 73
     1
 44
0.7828267384257843
  0
POINT
  5
37EB
330
37E4
100
AcDbEntity
  8
Defpoints
 62
     0
370
     0
390
1D
100
AcDbPoint
 10
649.5302135497548
 20
691.3117520144481
 30
0.0
  0
POINT
  5
37EC
330
37E4
100
AcDbEntity
  8
Defpoints
 62
     0
370
     0
390
1D
100
AcDbPoint
 10
683.083554107194
 20
618.6882479855522
 30
0.0
  0
ENDBLK
  5
37ED
330
37E4
100
AcDbEntity
  8
TEMPLATE
390
1D
100
AcDbBlockEnd
  0
BLOCK
  5
37FA
330
37F9
100
AcDbEntity
  8
notes
390
1D
100
AcDbBlockBegin
  2
*D12
 70
     1
 10
0.0
 20
0.0
 30
0.0
  3
*D12
  1

  0
LINE
  5
37FB
330
37F9
100
AcDbEntity
  8
notes
  6
Continuous
 62
     0
370
    -2
100
AcDbLine
 10
946.6788078496469
 20
1337.311145525284
 30
0.0
 11
1016.678807849647
 21
1337.311145525284
 31
0.0
  0
LINE
  5
37FC
330
37F9
100
AcDbEntity
  8
notes
  6
Continuous
 62
     0
370
    -2
100
AcDbLine
 10
946.6788078496469
 20
1257.311145525284
 30
0.0
 11
1016.678807849647
 21
1257.311145525284
 31
0.0
  0
LINE
  5
37FD
330
37F9
100
AcDbEntity
  8
notes
  6
Continuous
 62
     0
370
    -2
100
AcDbLine
 10
1016.678807849647
 20
1327.311145525284
 30
0.0
 11
1016.678807849647
 21
1267.311145525284
 31
0.0
  0
INSERT
  5
37FE
102
{ACAD_REACTORS
330
37FF
102
}
330
37F9
100
AcDbEntity
  8
notes
 62
     0
370
    -2
100
AcDbBlockReference
  2
_DOT
 10
1016.678807849647
 20
1337.311145525284
 30
0.0
 41
10.0
 42
10.0
 43
10.0
 50
90.0
  0
INSERT
  5
37FF
330
37F9
100
AcDbEntity
  8
notes
 62
     0
370
    -2
100
AcDbBlockReference
  2
_DOT
 10
1016.678807849647
 20
1257.311145525284
 30
0.0
 41
10.0
 42
10.0
 43
10.0
 50
270.0
  0
MTEXT
  5
3800
102
{ACAD_REACTORS
330
3801
102
}
330
37F9
100
AcDbEntity
  8
notes
 62
     0
370
     5
100
AcDbMText
 10
999.6788078496469
 20
1297.311145525284
 30
0.0
 40
24.0
 41
0.0
 46
0.0
 71
     5
 72
     1
  1
\A1;80
  7
ＭＳ ゴシック
 11
0.0
 21
1.0
 31
0.0
 73
     1
 44
1.0
  0
POINT
  5
3801
330
37F9
100
AcDbEntity
  8
Defpoints
 62
     0
100
AcDbPoint
 10
916.6788078496469
 20
1337.311145525284
 30
0.0
  0
POINT
  5
3802
330
37F9
100
AcDbEntity
  8
Defpoints
 62
     0
100
AcDbPoint
 10
916.6788078496469
 20
1257.311145525284
 30
0.0
  0
POINT
  5
3803
330
37F9
100
AcDbEntity
  8
Defpoints
 62
     0
100
AcDbPoint
 10
1016.678807849647
 20
1257.311145525284
 30
0.0
  0
ENDBLK
  5
3806
330
37F9
100
AcDbEntity
  8
notes
390
1D
100
AcDbBlockEnd
  0
BLOCK
  5
3809
330
3808
100
AcDbEntity
  8
notes
390
1D
100
AcDbBlockBegin
  2
*D13
 70
     1
 10
0.0
 20
0.0
 30
0.0
  3
*D13
  1

  0
LINE
  5
380A
330
3808
100
AcDbEntity
  8
notes
  6
Continuous
 62
     0
370
    -2
100
AcDbLine
 10
1302.000000000243
 20
1337.311145525284
 30
0.0
 11
1232.000000000241
 21
1337.311145525284
 31
0.0
  0
LINE
  5
380B
330
3808
100
AcDbEntity
  8
notes
  6
Continuous
 62
     0
370
    -2
100
AcDbLine
 10
1472.000000000241
 20
1262.311145525284
 30
0.0
 11
1232.000000000241
 21
1262.311145525284
 31
0.0
  0
LINE
  5
380C
330
3808
100
AcDbEntity
  8
notes
  6
Continuous
 62
     0
370
    -2
100
AcDbLine
 10
1232.000000000241
 20
1327.311145525284
 30
0.0
 11
1232.000000000241
 21
1272.311145525284
 31
0.0
  0
INSERT
  5
380D
102
{ACAD_REACTORS
330
380E
102
}
330
3808
100
AcDbEntity
  8
notes
 62
     0
370
    -2
100
AcDbBlockReference
  2
_DOT
 10
1232.000000000241
 20
1337.311145525284
 30
0.0
 41
10.0
 42
10.0
 43
10.0
 50
90.0
  0
INSERT
  5
380E
330
3808
100
AcDbEntity
  8
notes
 62
     0
370
    -2
100
AcDbBlockReference
  2
_DOT
 10
1232.000000000241
 20
1262.311145525284
 30
0.0
 41
10.0
 42
10.0
 43
10.0
 50
270.0
  0
MTEXT
  5
380F
102
{ACAD_REACTORS
330
3810
102
}
330
3808
100
AcDbEntity
  8
notes
 62
     0
370
     5
100
AcDbMText
 10
1215.000000000241
 20
1299.811145525284
 30
0.0
 40
24.0
 41
0.0
 46
0.0
 71
     5
 72
     1
  1
\A1;75
  7
ＭＳ ゴシック
 11
0.0
 21
1.0
 31
0.0
 73
     1
 44
1.0
  0
POINT
  5
3810
330
3808
100
AcDbEntity
  8
Defpoints
 62
     0
100
AcDbPoint
 10
1332.000000000243
 20
1337.311145525284
 30
0.0
  0
POINT
  5
3811
330
3808
100
AcDbEntity
  8
Defpoints
 62
     0
100
AcDbPoint
 10
1502.000000000241
 20
1262.311145525284
 30
0.0
  0
POINT
  5
3812
330
3808
100
AcDbEntity
  8
Defpoints
 62
     0
100
AcDbPoint
 10
1232.000000000241
 20
1262.311145525284
 30
0.0
  0
ENDBLK
  5
3815
330
3808
100
AcDbEntity
  8
notes
390
1D
100
AcDbBlockEnd
  0
BLOCK
  5
3818
330
3817
100
AcDbEntity
  8
notes
390
1D
100
AcDbBlockBegin
  2
*D14
 70
     1
 10
0.0
 20
0.0
 30
0.0
  3
*D14
  1

  0
LINE
  5
3819
330
3817
100
AcDbEntity
  8
notes
  6
Continuous
 62
     0
370
    -2
100
AcDbLine
 10
616.6788078496472
 20
1721.747323125016
 30
0.0
 11
616.6788078496472
 21
1652.966909695588
 31
0.0
  0
LINE
  5
381A
330
3817
100
AcDbEntity
  8
notes
  6
Continuous
 62
     0
370
    -2
100
AcDbLine
 10
916.6788078496469
 20
1721.747323125016
 30
0.0
 11
916.6788078496469
 21
1652.966909695588
 31
0.0
  0
LINE
  5
381B
330
3817
100
AcDbEntity
  8
notes
  6
Continuous
 62
     0
370
    -2
100
AcDbLine
 10
626.6788078496472
 20
1652.966909695588
 30
0.0
 11
906.6788078496469
 21
1652.966909695588
 31
0.0
  0
INSERT
  5
381C
102
{ACAD_REACTORS
330
381D
102
}
330
3817
100
AcDbEntity
  8
notes
 62
     0
370
    -2
100
AcDbBlockReference
  2
_DOT
 10
616.6788078496472
 20
1652.966909695588
 30
0.0
 41
10.0
 42
10.0
 43
10.0
 50
180.0
  0
INSERT
  5
381D
330
3817
100
AcDbEntity
  8
notes
 62
     0
370
    -2
100
AcDbBlockReference
  2
_DOT
 10
916.6788078496469
 20
1652.966909695588
 30
0.0
 41
10.0
 42
10.0
 43
10.0
  0
MTEXT
  5
381E
102
{ACAD_REACTORS
330
381F
102
}
330
3817
100
AcDbEntity
  8
notes
 62
     0
370
     5
100
AcDbMText
 10
766.678807849647
 20
1669.966909695588
 30
0.0
 40
24.0
 41
0.0
 46
0.0
 71
     5
 72
     1
  1
\A1;300
  7
ＭＳ ゴシック
 73
     1
 44
1.0
  0
POINT
  5
381F
330
3817
100
AcDbEntity
  8
Defpoints
 62
     0
100
AcDbPoint
 10
616.6788078496472
 20
1751.747323125016
 30
0.0
  0
POINT
  5
3820
330
3817
100
AcDbEntity
  8
Defpoints
 62
     0
100
AcDbPoint
 10
916.6788078496469
 20
1751.747323125016
 30
0.0
  0
POINT
  5
3821
330
3817
100
AcDbEntity
  8
Defpoints
 62
     0
100
AcDbPoint
 10
916.6788078496469
 20
1652.966909695588
 30
0.0
  0
ENDBLK
  5
3824
330
3817
100
AcDbEntity
  8
notes
390
1D
100
AcDbBlockEnd
  0
BLOCK
  5
3827
330
3826
100
AcDbEntity
  8
notes
390
1D
100
AcDbBlockBegin
  2
*D15
 70
     1
 10
0.0
 20
0.0
 30
0.0
  3
*D15
  1

  0
LINE
  5
3828
330
3826
100
AcDbEntity
  8
notes
  6
Continuous
 62
     0
370
    -2
100
AcDbLine
 10
136.678807849646
 20
1721.747323125016
 30
0.0
 11
136.678807849646
 21
1652.966909695588
 31
0.0
  0
LINE
  5
3829
330
3826
100
AcDbEntity
  8
notes
  6
Continuous
 62
     0
370
    -2
100
AcDbLine
 10
616.6788078496472
 20
1721.747323125016
 30
0.0
 11
616.6788078496472
 21
1652.966909695588
 31
0.0
  0
LINE
  5
382A
330
3826
100
AcDbEntity
  8
notes
  6
Continuous
 62
     0
370
    -2
100
AcDbLine
 10
146.678807849646
 20
1652.966909695588
 30
0.0
 11
606.6788078496472
 21
1652.966909695588
 31
0.0
  0
INSERT
  5
382B
102
{ACAD_REACTORS
330
382C
102
}
330
3826
100
AcDbEntity
  8
notes
 62
     0
370
    -2
100
AcDbBlockReference
  2
_DOT
 10
136.678807849646
 20
1652.966909695588
 30
0.0
 41
10.0
 42
10.0
 43
10.0
 50
180.0
  0
INSERT
  5
382C
330
3826
100
AcDbEntity
  8
notes
 62
     0
370
    -2
100
AcDbBlockReference
  2
_DOT
 10
616.6788078496472
 20
1652.966909695588
 30
0.0
 41
10.0
 42
10.0
 43
10.0
  0
MTEXT
  5
382D
102
{ACAD_REACTORS
330
382E
102
}
330
3826
100
AcDbEntity
  8
notes
 62
     0
370
     5
100
AcDbMText
 10
376.6788078496466
 20
1669.966909695588
 30
0.0
 40
24.0
 41
0.0
 46
0.0
 71
     5
 72
     1
  1
\A1;480
  7
ＭＳ ゴシック
 73
     1
 44
1.0
  0
POINT
  5
382E
330
3826
100
AcDbEntity
  8
Defpoints
 62
     0
100
AcDbPoint
 10
136.678807849646
 20
1751.747323125016
 30
0.0
  0
POINT
  5
382F
330
3826
100
AcDbEntity
  8
Defpoints
 62
     0
100
AcDbPoint
 10
616.6788078496472
 20
1751.747323125016
 30
0.0
  0
POINT
  5
3830
330
3826
100
AcDbEntity
  8
Defpoints
 62
     0
100
AcDbPoint
 10
616.6788078496472
 20
1652.966909695588
 30
0.0
  0
ENDBLK
  5
3833
330
3826
100
AcDbEntity
  8
notes
390
1D
100
AcDbBlockEnd
  0
BLOCK
  5
3836
330
3835
100
AcDbEntity
  8
notes
390
1D
100
AcDbBlockBegin
  2
*D16
 70
     1
 10
0.0
 20
0.0
 30
0.0
  3
*D16
  1

  0
LINE
  5
3837
330
3835
100
AcDbEntity
  8
notes
  6
Continuous
 62
     0
370
    -2
100
AcDbLine
 10
916.6788078496469
 20
2181.747323125015
 30
0.0
 11
916.6788078496469
 21
2301.747323125015
 31
0.0
  0
LINE
  5
3838
330
3835
100
AcDbEntity
  8
notes
  6
Continuous
 62
     0
370
    -2
100
AcDbLine
 10
116.6788078496458
 20
2181.747323125015
 30
0.0
 11
116.6788078496458
 21
2301.747323125015
 31
0.0
  0
LINE
  5
3839
330
3835
100
AcDbEntity
  8
notes
  6
Continuous
 62
     0
370
    -2
100
AcDbLine
 10
906.6788078496469
 20
2301.747323125015
 30
0.0
 11
126.6788078496458
 21
2301.747323125015
 31
0.0
  0
INSERT
  5
383A
102
{ACAD_REACTORS
330
383B
102
}
330
3835
100
AcDbEntity
  8
notes
 62
     0
370
    -2
100
AcDbBlockReference
  2
_DOT
 10
916.6788078496469
 20
2301.747323125015
 30
0.0
 41
10.0
 42
10.0
 43
10.0
  0
INSERT
  5
383B
330
3835
100
AcDbEntity
  8
notes
 62
     0
370
    -2
100
AcDbBlockReference
  2
_DOT
 10
116.6788078496458
 20
2301.747323125015
 30
0.0
 41
10.0
 42
10.0
 43
10.0
 50
180.0
  0
MTEXT
  5
383C
102
{ACAD_REACTORS
330
383D
102
}
330
3835
100
AcDbEntity
  8
notes
 62
     0
370
     5
100
AcDbMText
 10
516.6788078496463
 20
2318.747323125015
 30
0.0
 40
24.0
 41
0.0
 46
0.0
 71
     5
 72
     1
  1
\A1;800
  7
ＭＳ ゴシック
 73
     1
 44
1.0
  0
POINT
  5
383D
330
3835
100
AcDbEntity
  8
Defpoints
 62
     0
100
AcDbPoint
 10
916.6788078496469
 20
2151.747323125015
 30
0.0
  0
POINT
  5
383E
330
3835
100
AcDbEntity
  8
Defpoints
 62
     0
100
AcDbPoint
 10
116.6788078496458
 20
2151.747323125015
 30
0.0
  0
POINT
  5
383F
330
3835
100
AcDbEntity
  8
Defpoints
 62
     0
100
AcDbPoint
 10
116.6788078496458
 20
2301.747323125015
 30
0.0
  0
ENDBLK
  5
3842
330
3835
100
AcDbEntity
  8
notes
390
1D
100
AcDbBlockEnd
  0
BLOCK
  5
3845
330
3844
100
AcDbEntity
  8
notes
390
1D
100
AcDbBlockBegin
  2
*D17
 70
     1
 10
0.0
 20
0.0
 30
0.0
  3
*D17
  1

  0
LINE
  5
3846
330
3844
100
AcDbEntity
  8
0
  6
Continuous
 62
     0
370
    -2
390
1D
100
AcDbLine
 10
-33.32119215059438
 20
724.3900905844579
 30
0.0
 11
50.44587736100033
 21
724.3900905844579
 31
0.0
  0
LINE
  5
3847
330
3844
100
AcDbEntity
  8
0
  6
Continuous
 62
     0
370
    -2
390
1D
100
AcDbLine
 10
-33.32119215059438
 20
324.3900905844582
 30
0.0
 11
50.44587736100033
 21
324.3900905844582
 31
0.0
  0
LINE
  5
3848
330
3844
100
AcDbEntity
  8
0
  6
Continuous
 62
     0
370
    -2
390
1D
100
AcDbLine
 10
50.44587736100033
 20
724.3900905844579
 30
0.0
 11
50.44587736100033
 21
324.3900905844582
 31
0.0
  0
CIRCLE
  5
3849
102
{ACAD_REACTORS
330
384A
102
}
330
3844
100
AcDbEntity
  8
0
  6
Continuous
 62
     0
370
    -2
390
1D
100
AcDbCircle
 10
50.44587736100033
 20
724.3900905844579
 30
0.0
 40
1.9998779296875
  0
HATCH
  5
384A
330
3844
100
AcDbEntity
  8
0
  6
Continuous
 62
     0
370
    -2
390
1D
100
AcDbHatch
 10
0.0
 20
0.0
 30
0.0
210
0.0
220
0.0
230
1.0
  2
SOLID
 70
     1
 71
     1
 91
        1
 92
        1
 93
        1
 72
     2
 10
50.44587736100033
 20
724.3900905844579
 40
1.9998779296875
 50
0.0
 51
360.0
 73
     0
 97
        1
330
3849
 75
     0
 76
     1
 98
        1
 10
0.0
 20
0.0
  0
CIRCLE
  5
384B
102
{ACAD_REACTORS
330
384C
102
}
330
3844
100
AcDbEntity
  8
0
  6
Continuous
 62
     0
370
    -2
390
1D
100
AcDbCircle
 10
50.44587736100033
 20
324.3900905844582
 30
0.0
 40
1.9998779296875
  0
HATCH
  5
384C
330
3844
100
AcDbEntity
  8
0
  6
Continuous
 62
     0
370
    -2
390
1D
100
AcDbHatch
 10
0.0
 20
0.0
 30
0.0
210
0.0
220
0.0
230
1.0
  2
SOLID
 70
     1
 71
     1
 91
        1
 92
        1
 93
        1
 72
     2
 10
50.44587736100033
 20
324.3900905844582
 40
1.9998779296875
 50
0.0
 51
360.0
 73
     0
 97
        1
330
384B
 75
     0
 76
     1
 98
        1
 10
0.0
 20
0.0
  0
MTEXT
  5
384D
330
3844
100
AcDbEntity
  8
0
 62
     0
390
1D
100
AcDbMText
 10
16.56826017350032
 20
512.1874983178245
 30
0.0
 40
24.4326171875
 41
0.0
 46
0.0
 71
     1
 72
     1
  1
400
  7
ＭＳ ゴシック
 11
0.0
 21
1.0
 31
0.0
 73
     1
 44
0.7828267384257843
  0
POINT
  5
384E
330
3844
100
AcDbEntity
  8
Defpoints
 62
     0
370
     0
390
1D
100
AcDbPoint
 10
-58.32119215059438
 20
324.3900905844582
 30
0.0
  0
POINT
  5
384F
330
3844
100
AcDbEntity
  8
Defpoints
 62
     0
370
     0
390
1D
100
AcDbPoint
 10
-58.32119215059438
 20
724.3900905844579
 30
0.0
  0
POINT
  5
3850
330
3844
100
AcDbEntity
  8
Defpoints
 62
     0
370
     0
390
1D
100
AcDbPoint
 10
50.44587736100033
 20
724.3900905844579
 30
0.0
  0
ENDBLK
  5
3851
330
3844
100
AcDbEntity
  8
notes
390
1D
100
AcDbBlockEnd
  0
BLOCK
  5
3854
330
3853
100
AcDbEntity
  8
notes
390
1D
100
AcDbBlockBegin
  2
*D18
 70
     1
 10
0.0
 20
0.0
 30
0.0
  3
*D18
  1

  0
LINE
  5
3855
330
3853
100
AcDbEntity
  8
0
  6
Continuous
 62
     0
370
    -2
390
1D
100
AcDbLine
 10
-883.3211921505955
 20
699.3900905844577
 30
0.0
 11
-929.843758515819
 21
699.3900905844577
 31
0.0
  0
LINE
  5
3856
330
3853
100
AcDbEntity
  8
0
  6
Continuous
 62
     0
370
    -2
390
1D
100
AcDbLine
 10
-883.3211921505955
 20
349.3900905844582
 30
0.0
 11
-929.843758515819
 21
349.3900905844582
 31
0.0
  0
LINE
  5
3857
330
3853
100
AcDbEntity
  8
0
  6
Continuous
 62
     0
370
    -2
390
1D
100
AcDbLine
 10
-929.843758515819
 20
699.3900905844577
 30
0.0
 11
-929.843758515819
 21
349.3900905844582
 31
0.0
  0
CIRCLE
  5
3858
102
{ACAD_REACTORS
330
3859
102
}
330
3853
100
AcDbEntity
  8
0
  6
Continuous
 62
     0
370
    -2
390
1D
100
AcDbCircle
 10
-929.843758515819
 20
699.3900905844577
 30
0.0
 40
1.9998779296875
  0
HATCH
  5
3859
330
3853
100
AcDbEntity
  8
0
  6
Continuous
 62
     0
370
    -2
390
1D
100
AcDbHatch
 10
0.0
 20
0.0
 30
0.0
210
0.0
220
0.0
230
1.0
  2
SOLID
 70
     1
 71
     1
 91
        1
 92
        1
 93
        1
 72
     2
 10
-929.843758515819
 20
699.3900905844577
 40
1.9998779296875
 50
0.0
 51
360.0
 73
     0
 97
        1
330
3858
 75
     0
 76
     1
 98
        1
 10
0.0
 20
0.0
  0
CIRCLE
  5
385A
102
{ACAD_REACTORS
330
385B
102
}
330
3853
100
AcDbEntity
  8
0
  6
Continuous
 62
     0
370
    -2
390
1D
100
AcDbCircle
 10
-929.843758515819
 20
349.3900905844582
 30
0.0
 40
1.9998779296875
  0
HATCH
  5
385B
330
3853
100
AcDbEntity
  8
0
  6
Continuous
 62
     0
370
    -2
390
1D
100
AcDbHatch
 10
0.0
 20
0.0
 30
0.0
210
0.0
220
0.0
230
1.0
  2
SOLID
 70
     1
 71
     1
 91
        1
 92
        1
 93
        1
 72
     2
 10
-929.843758515819
 20
349.3900905844582
 40
1.9998779296875
 50
0.0
 51
360.0
 73
     0
 97
        1
330
385A
 75
     0
 76
     1
 98
        1
 10
0.0
 20
0.0
  0
MTEXT
  5
385C
330
3853
100
AcDbEntity
  8
0
 62
     0
390
1D
100
AcDbMText
 10
-963.7213757033189
 20
504.9314982656384
 30
0.0
 40
24.4326171875
 41
0.0
 46
0.0
 71
     1
 72
     1
  1
350
  7
ＭＳ ゴシック
 11
0.0
 21
1.0
 31
0.0
 73
     1
 44
0.7828267384257843
  0
POINT
  5
385D
330
3853
100
AcDbEntity
  8
Defpoints
 62
     0
370
     0
390
1D
100
AcDbPoint
 10
-858.3211921505955
 20
349.3900905844582
 30
0.0
  0
POINT
  5
385E
330
3853
100
AcDbEntity
  8
Defpoints
 62
     0
370
     0
390
1D
100
AcDbPoint
 10
-858.3211921505955
 20
699.3900905844577
 30
0.0
  0
POINT
  5
385F
330
3853
100
AcDbEntity
  8
Defpoints
 62
     0
370
     0
390
1D
100
AcDbPoint
 10
-929.843758515819
 20
699.3900905844577
 30
0.0
  0
ENDBLK
  5
3860
330
3853
100
AcDbEntity
  8
notes
390
1D
100
AcDbBlockEnd
  0
BLOCK
  5
3863
330
3862
100
AcDbEntity
  8
notes
390
1D
100
AcDbBlockBegin
  2
*D19
 70
     1
 10
0.0
 20
0.0
 30
0.0
  3
*D19
  1

  0
LINE
  5
3864
330
3862
100
AcDbEntity
  8
notes
  6
Continuous
 62
     0
370
    -2
100
AcDbLine
 10
656.6788078496469
 20
2129.247323125015
 30
0.0
 11
656.6788078496469
 21
2251.747323125015
 31
0.0
  0
LINE
  5
3865
330
3862
100
AcDbEntity
  8
notes
  6
Continuous
 62
     0
370
    -2
100
AcDbLine
 10
916.6788078496469
 20
2181.747323125015
 30
0.0
 11
916.6788078496469
 21
2251.747323125015
 31
0.0
  0
LINE
  5
3866
330
3862
100
AcDbEntity
  8
notes
  6
Continuous
 62
     0
370
    -2
100
AcDbLine
 10
666.6788078496469
 20
2251.747323125015
 30
0.0
 11
906.6788078496469
 21
2251.747323125015
 31
0.0
  0
INSERT
  5
3867
102
{ACAD_REACTORS
330
3868
102
}
330
3862
100
AcDbEntity
  8
notes
 62
     0
370
    -2
100
AcDbBlockReference
  2
_DOT
 10
656.6788078496469
 20
2251.747323125015
 30
0.0
 41
10.0
 42
10.0
 43
10.0
 50
180.0
  0
INSERT
  5
3868
330
3862
100
AcDbEntity
  8
notes
 62
     0
370
    -2
100
AcDbBlockReference
  2
_DOT
 10
916.6788078496469
 20
2251.747323125015
 30
0.0
 41
10.0
 42
10.0
 43
10.0
  0
MTEXT
  5
3869
102
{ACAD_REACTORS
330
386A
102
}
330
3862
100
AcDbEntity
  8
notes
 62
     0
370
     5
100
AcDbMText
 10
786.6788078496469
 20
2268.747323125015
 30
0.0
 40
24.0
 41
0.0
 46
0.0
 71
     5
 72
     1
  1
\A1;260
  7
ＭＳ ゴシック
 73
     1
 44
1.0
  0
POINT
  5
386A
330
3862
100
AcDbEntity
  8
Defpoints
 62
     0
100
AcDbPoint
 10
656.6788078496469
 20
2099.247323125015
 30
0.0
  0
POINT
  5
386B
330
3862
100
AcDbEntity
  8
Defpoints
 62
     0
100
AcDbPoint
 10
916.6788078496469
 20
2151.747323125015
 30
0.0
  0
POINT
  5
386C
330
3862
100
AcDbEntity
  8
Defpoints
 62
     0
100
AcDbPoint
 10
916.6788078496469
 20
2251.747323125015
 30
0.0
  0
ENDBLK
  5
386F
330
3862
100
AcDbEntity
  8
notes
390
1D
100
AcDbBlockEnd
  0
BLOCK
  5
3872
330
3871
100
AcDbEntity
  8
notes
390
1D
100
AcDbBlockBegin
  2
*D20
 70
     1
 10
0.0
 20
0.0
 30
0.0
  3
*D20
  1

  0
LINE
  5
3873
330
3871
100
AcDbEntity
  8
notes
  6
Continuous
 62
     0
370
    -2
100
AcDbLine
 10
376.6788078496461
 20
1227.311145525284
 30
0.0
 11
376.6788078496461
 21
1157.311145525284
 31
0.0
  0
LINE
  5
3874
330
3871
100
AcDbEntity
  8
notes
  6
Continuous
 62
     0
370
    -2
100
AcDbLine
 10
116.6788078496458
 20
1227.311145525284
 30
0.0
 11
116.6788078496458
 21
1157.311145525284
 31
0.0
  0
LINE
  5
3875
330
3871
100
AcDbEntity
  8
notes
  6
Continuous
 62
     0
370
    -2
100
AcDbLine
 10
366.6788078496461
 20
1157.311145525284
 30
0.0
 11
126.6788078496458
 21
1157.311145525284
 31
0.0
  0
INSERT
  5
3876
102
{ACAD_REACTORS
330
3877
102
}
330
3871
100
AcDbEntity
  8
notes
 62
     0
370
    -2
100
AcDbBlockReference
  2
_DOT
 10
376.6788078496461
 20
1157.311145525284
 30
0.0
 41
10.0
 42
10.0
 43
10.0
  0
INSERT
  5
3877
330
3871
100
AcDbEntity
  8
notes
 62
     0
370
    -2
100
AcDbBlockReference
  2
_DOT
 10
116.6788078496458
 20
1157.311145525284
 30
0.0
 41
10.0
 42
10.0
 43
10.0
 50
180.0
  0
MTEXT
  5
3878
102
{ACAD_REACTORS
330
3879
102
}
330
3871
100
AcDbEntity
  8
notes
 62
     0
370
     5
100
AcDbMText
 10
246.6788078496459
 20
1174.311145525284
 30
0.0
 40
24.0
 41
0.0
 46
0.0
 71
     5
 72
     1
  1
\A1;260
  7
ＭＳ ゴシック
 73
     1
 44
1.0
  0
POINT
  5
3879
330
3871
100
AcDbEntity
  8
Defpoints
 62
     0
100
AcDbPoint
 10
376.6788078496461
 20
1257.311145525284
 30
0.0
  0
POINT
  5
387A
330
3871
100
AcDbEntity
  8
Defpoints
 62
     0
100
AcDbPoint
 10
116.6788078496458
 20
1257.311145525284
 30
0.0
  0
POINT
  5
387B
330
3871
100
AcDbEntity
  8
Defpoints
 62
     0
100
AcDbPoint
 10
116.6788078496458
 20
1157.311145525284
 30
0.0
  0
ENDBLK
  5
387E
330
3871
100
AcDbEntity
  8
notes
390
1D
100
AcDbBlockEnd
  0
BLOCK
  5
3881
330
3880
100
AcDbEntity
  8
notes
390
1D
100
AcDbBlockBegin
  2
*D21
 70
     1
 10
0.0
 20
0.0
 30
0.0
  3
*D21
  1

  0
LINE
  5
3882
330
3880
100
AcDbEntity
  8
notes
  6
Continuous
 62
     0
370
    -2
100
AcDbLine
 10
1532.000000000241
 20
1227.311145525284
 30
0.0
 11
1532.000000000241
 21
1157.311145525284
 31
0.0
  0
LINE
  5
3883
330
3880
100
AcDbEntity
  8
notes
  6
Continuous
 62
     0
370
    -2
100
AcDbLine
 10
1332.000000000243
 20
1227.311145525284
 30
0.0
 11
1332.000000000243
 21
1157.311145525284
 31
0.0
  0
LINE
  5
3884
330
3880
100
AcDbEntity
  8
notes
  6
Continuous
 62
     0
370
    -2
100
AcDbLine
 10
1522.000000000241
 20
1157.311145525284
 30
0.0
 11
1342.000000000243
 21
1157.311145525284
 31
0.0
  0
INSERT
  5
3885
102
{ACAD_REACTORS
330
3886
102
}
330
3880
100
AcDbEntity
  8
notes
 62
     0
370
    -2
100
AcDbBlockReference
  2
_DOT
 10
1532.000000000241
 20
1157.311145525284
 30
0.0
 41
10.0
 42
10.0
 43
10.0
  0
INSERT
  5
3886
330
3880
100
AcDbEntity
  8
notes
 62
     0
370
    -2
100
AcDbBlockReference
  2
_DOT
 10
1332.000000000243
 20
1157.311145525284
 30
0.0
 41
10.0
 42
10.0
 43
10.0
 50
180.0
  0
MTEXT
  5
3887
102
{ACAD_REACTORS
330
3888
102
}
330
3880
100
AcDbEntity
  8
notes
 62
     0
370
     5
100
AcDbMText
 10
1432.000000000242
 20
1174.311145525284
 30
0.0
 40
24.0
 41
0.0
 46
0.0
 71
     5
 72
     1
  1
\A1;200
  7
ＭＳ ゴシック
 73
     1
 44
1.0
  0
POINT
  5
3888
330
3880
100
AcDbEntity
  8
Defpoints
 62
     0
100
AcDbPoint
 10
1532.000000000241
 20
1257.311145525284
 30
0.0
  0
POINT
  5
3889
330
3880
100
AcDbEntity
  8
Defpoints
 62
     0
100
AcDbPoint
 10
1332.000000000243
 20
1257.311145525284
 30
0.0
  0
POINT
  5
388A
330
3880
100
AcDbEntity
  8
Defpoints
 62
     0
100
AcDbPoint
 10
1332.000000000243
 20
1157.311145525284
 30
0.0
  0
ENDBLK
  5
388D
330
3880
100
AcDbEntity
  8
notes
390
1D
100
AcDbBlockEnd
  0
BLOCK
  5
3890
330
388F
100
AcDbEntity
  8
notes
390
1D
100
AcDbBlockBegin
  2
*D22
 70
     1
 10
0.0
 20
0.0
 30
0.0
  3
*D22
  1

  0
LINE
  5
3891
330
388F
100
AcDbEntity
  8
0
  6
Continuous
 62
     0
370
    -2
390
1D
100
AcDbLine
 10
-33.32119215059438
 20
724.3900905844579
 30
0.0
 11
9.92880784940563
 21
724.3900905844579
 31
0.0
  0
LINE
  5
3892
330
388F
100
AcDbEntity
  8
0
  6
Continuous
 62
     0
370
    -2
390
1D
100
AcDbLine
 10
-275.8211921505945
 20
654.390090584458
 30
0.0
 11
9.928807849405644
 21
654.390090584458
 31
0.0
  0
LINE
  5
3893
330
388F
100
AcDbEntity
  8
0
  6
Continuous
 62
     0
370
    -2
390
1D
100
AcDbLine
 10
9.92880784940563
 20
724.3900905844579
 30
0.0
 11
9.928807849405644
 21
654.390090584458
 31
0.0
  0
CIRCLE
  5
3894
102
{ACAD_REACTORS
330
3895
102
}
330
388F
100
AcDbEntity
  8
0
  6
Continuous
 62
     0
370
    -2
390
1D
100
AcDbCircle
 10
9.92880784940563
 20
724.3900905844579
 30
0.0
 40
1.9998779296875
  0
HATCH
  5
3895
330
388F
100
AcDbEntity
  8
0
  6
Continuous
 62
     0
370
    -2
390
1D
100
AcDbHatch
 10
0.0
 20
0.0
 30
0.0
210
0.0
220
0.0
230
1.0
  2
SOLID
 70
     1
 71
     1
 91
        1
 92
        1
 93
        1
 72
     2
 10
9.92880784940563
 20
724.3900905844579
 40
1.9998779296875
 50
0.0
 51
360.0
 73
     0
 97
        1
330
3894
 75
     0
 76
     1
 98
        1
 10
0.0
 20
0.0
  0
CIRCLE
  5
3896
102
{ACAD_REACTORS
330
3897
102
}
330
388F
100
AcDbEntity
  8
0
  6
Continuous
 62
     0
370
    -2
390
1D
100
AcDbCircle
 10
9.928807849405644
 20
654.390090584458
 30
0.0
 40
1.9998779296875
  0
HATCH
  5
3897
330
388F
100
AcDbEntity
  8
0
  6
Continuous
 62
     0
370
    -2
390
1D
100
AcDbHatch
 10
0.0
 20
0.0
 30
0.0
210
0.0
220
0.0
230
1.0
  2
SOLID
 70
     1
 71
     1
 91
        1
 92
        1
 93
        1
 72
     2
 10
9.928807849405644
 20
654.390090584458
 40
1.9998779296875
 50
0.0
 51
360.0
 73
     0
 97
        1
330
3896
 75
     0
 76
     1
 98
        1
 10
0.0
 20
0.0
  0
MTEXT
  5
3898
330
388F
100
AcDbEntity
  8
0
 62
     0
390
1D
100
AcDbMText
 10
-23.94880933809436
 20
673.515090584458
 30
0.0
 40
24.4326171875
 41
0.0
 46
0.0
 71
     1
 72
     1
  1
70
  7
ＭＳ ゴシック
 11
0.0
 21
1.0
 31
0.0
 73
     1
 44
0.7828267384257843
  0
POINT
  5
3899
330
388F
100
AcDbEntity
  8
Defpoints
 62
     0
370
     0
390
1D
100
AcDbPoint
 10
-300.8211921505945
 20
654.390090584458
 30
0.0
  0
POINT
  5
389A
330
388F
100
AcDbEntity
  8
Defpoints
 62
     0
370
     0
390
1D
100
AcDbPoint
 10
-58.32119215059438
 20
724.3900905844579
 30
0.0
  0
POINT
  5
389B
330
388F
100
AcDbEntity
  8
Defpoints
 62
     0
370
     0
390
1D
100
AcDbPoint
 10
9.92880784940563
 20
724.3900905844579
 30
0.0
  0
ENDBLK
  5
389C
330
388F
100
AcDbEntity
  8
notes
390
1D
100
AcDbBlockEnd
  0
BLOCK
  5
389F
330
389E
100
AcDbEntity
  8
notes
390
1D
100
AcDbBlockBegin
  2
*D23
 70
     1
 10
0.0
 20
0.0
 30
0.0
  3
*D23
  1

  0
LINE
  5
38A0
330
389E
100
AcDbEntity
  8
0
  6
Continuous
 62
     0
370
    -2
390
1D
100
AcDbLine
 10
551.0
 20
-90.04608701527289
 30
0.0
 11
570.0
 21
-90.04608701527289
 31
0.0
  0
LINE
  5
38A1
330
389E
100
AcDbEntity
  8
0
  6
Continuous
 62
     0
370
    -2
390
1D
100
AcDbLine
 10
551.0
 20
-160.0460870152729
 30
0.0
 11
570.0
 21
-160.0460870152729
 31
0.0
  0
LINE
  5
38A2
330
389E
100
AcDbEntity
  8
0
  6
Continuous
 62
     0
370
    -2
390
1D
100
AcDbLine
 10
570.0
 20
-90.04608701527289
 30
0.0
 11
570.0
 21
43.55670567506402
 31
0.0
  0
LINE
  5
38A3
330
389E
100
AcDbEntity
  8
0
  6
Continuous
 62
     0
370
    -2
390
1D
100
AcDbLine
 10
570.0
 20
-90.04608701527289
 30
0.0
 11
570.0
 21
-160.0460870152729
 31
0.0
  0
CIRCLE
  5
38A4
102
{ACAD_REACTORS
330
38A5
102
}
330
389E
100
AcDbEntity
  8
0
  6
Continuous
 62
     0
370
    -2
390
1D
100
AcDbCircle
 10
570.0
 20
-90.04608701527289
 30
0.0
 40
1.9998779296875
  0
HATCH
  5
38A5
330
389E
100
AcDbEntity
  8
0
  6
Continuous
 62
     0
370
    -2
390
1D
100
AcDbHatch
 10
0.0
 20
0.0
 30
0.0
210
0.0
220
0.0
230
1.0
  2
SOLID
 70
     1
 71
     1
 91
        1
 92
        1
 93
        1
 72
     2
 10
570.0
 20
-90.04608701527289
 40
1.9998779296875
 50
0.0
 51
360.0
 73
     0
 97
        1
330
38A4
 75
     0
 76
     1
 98
        1
 10
0.0
 20
0.0
  0
CIRCLE
  5
38A6
102
{ACAD_REACTORS
330
38A7
102
}
330
389E
100
AcDbEntity
  8
0
  6
Continuous
 62
     0
370
    -2
390
1D
100
AcDbCircle
 10
570.0
 20
-160.0460870152729
 30
0.0
 40
1.9998779296875
  0
HATCH
  5
38A7
330
389E
100
AcDbEntity
  8
0
  6
Continuous
 62
     0
370
    -2
390
1D
100
AcDbHatch
 10
0.0
 20
0.0
 30
0.0
210
0.0
220
0.0
230
1.0
  2
SOLID
 70
     1
 71
     1
 91
        1
 92
        1
 93
        1
 72
     2
 10
570.0
 20
-160.0460870152729
 40
1.9998779296875
 50
0.0
 51
360.0
 73
     0
 97
        1
330
38A6
 75
     0
 76
     1
 98
        1
 10
0.0
 20
0.0
  0
MTEXT
  5
38A8
330
389E
100
AcDbEntity
  8
0
 62
     0
390
1D
100
AcDbMText
 10
536.1223828125001
 20
-83.44329432493598
 30
0.0
 40
24.4326171875
 41
0.0
 46
0.0
 71
     1
 72
     1
  1
70(深さ)
  7
ＭＳ ゴシック
 11
0.0
 21
1.0
 31
0.0
 73
     1
 44
0.7828267384257843
  0
POINT
  5
38A9
330
389E
100
AcDbEntity
  8
Defpoints
 62
     0
370
     0
390
1D
100
AcDbPoint
 10
576.0
 20
-160.0460870152729
 30
0.0
  0
POINT
  5
38AA
330
389E
100
AcDbEntity
  8
Defpoints
 62
     0
370
     0
390
1D
100
AcDbPoint
 10
576.0
 20
-90.04608701527289
 30
0.0
  0
POINT
  5
38AB
330
389E
100
AcDbEntity
  8
Defpoints
 62
     0
370
     0
390
1D
100
AcDbPoint
 10
570.0
 20
-90.04608701527289
 30
0.0
  0
ENDBLK
  5
38AC
330
389E
100
AcDbEntity
  8
notes
390
1D
100
AcDbBlockEnd
  0
BLOCK
  5
38D5
330
38D4
100
AcDbEntity
  8
0
100
AcDbBlockBegin
  2
*D24
 70
     1
 10
0.0
 20
0.0
 30
0.0
  3
*D24
  1

  0
LINE
  5
38D7
330
38D4
100
AcDbEntity
  8
TEMPLATE
  6
Continuous
 62
     0
370
    -2
100
AcDbLine
 10
668.6466909369037
 20
2055.881906553659
 30
0.0
 11
717.2390737247467
 21
1950.86231254203
 31
0.0
  0
MTEXT
  5
38D8
330
38D4
100
AcDbEntity
  8
TEMPLATE
 62
     0
370
     5
100
AcDbMText
 10
727.2925185737348
 20
1969.617798317353
 30
0.0
 40
24.0
 41
0.0
 46
0.0
 71
     5
 72
     1
  1
\A1; 
  7
ＭＳ ゴシック
 11
0.4199257223598787
 21
-0.9075584761879171
 31
0.0
 73
     1
 44
1.0
  0
INSERT
  5
38D9
330
38D4
100
AcDbEntity
  8
TEMPLATE
 62
     0
370
    -2
100
AcDbBlockReference
  2
_DOT
 10
664.4474337133049
 20
2064.957491315538
 30
0.0
 41
10.0
 42
10.0
 43
10.0
 50
114.8298981214774
  0
POINT
  5
38DA
330
38D4
100
AcDbEntity
  8
Defpoints
 62
     0
100
AcDbPoint
 10
664.4474337133049
 20
2064.957491315538
 30
0.0
  0
POINT
  5
38DB
330
38D4
100
AcDbEntity
  8
Defpoints
 62
     0
100
AcDbPoint
 10
648.910181985989
 20
2098.537154934492
 30
0.0
  0
ENDBLK
  5
38D6
330
38D4
100
AcDbEntity
  8
0
100
AcDbBlockEnd
  0
BLOCK
  5
38DD
330
38DC
100
AcDbEntity
  8
0
100
AcDbBlockBegin
  2
*D25
 70
     1
 10
0.0
 20
0.0
 30
0.0
  3
*D25
  1

  0
LINE
  5
38DF
330
38DC
100
AcDbEntity
  8
TEMPLATE
  6
Continuous
 62
     0
370
    -2
100
AcDbLine
 10
1384.054592822282
 20
1885.657450192799
 30
0.0
 11
1417.604414209598
 21
1789.5367801527
 31
0.0
  0
MTEXT
  5
38E0
330
38DC
100
AcDbEntity
  8
TEMPLATE
 62
     0
370
     5
100
AcDbMText
 10
1422.02594650116
 20
1828.455837132471
 30
0.0
 40
24.0
 41
0.0
 46
0.0
 71
     5
 72
     1
  1
\A1;%%c120
  7
ＭＳ ゴシック
 11
0.3295416407999451
 21
-0.9441410418888059
 31
0.0
 73
     1
 44
1.0
  0
INSERT
  5
38E1
330
38DC
100
AcDbEntity
  8
TEMPLATE
 62
     0
370
    -2
100
AcDbBlockReference
  2
_DOT
 10
1380.759176414282
 20
1895.098860611687
 30
0.0
 41
10.0
 42
10.0
 43
10.0
 50
109.2409573234721
  0
POINT
  5
38E2
330
38DC
100
AcDbEntity
  8
Defpoints
 62
     0
100
AcDbPoint
 10
1380.759176414282
 20
1895.098860611687
 30
0.0
  0
POINT
  5
38E3
330
38DC
100
AcDbEntity
  8
Defpoints
 62
     0
100
AcDbPoint
 10
1341.214179518289
 20
2008.395785638344
 30
0.0
  0
ENDBLK
  5
38DE
330
38DC
100
AcDbEntity
  8
0
100
AcDbBlockEnd
  0
BLOCK
  5
38E5
330
38E4
100
AcDbEntity
  8
0
100
AcDbBlockBegin
  2
*D26
 70
     1
 10
0.0
 20
0.0
 30
0.0
  3
*D26
  1

  0
LINE
  5
38E7
330
38E4
100
AcDbEntity
  8
TEMPLATE
  6
Continuous
 62
     0
370
    -2
100
AcDbLine
 10
1662.277721677116
 20
2036.967542522496
 30
0.0
 11
1699.252825525186
 21
1956.937907360468
 31
0.0
  0
MTEXT
  5
38E8
330
38E4
100
AcDbEntity
  8
TEMPLATE
 62
     0
370
     5
100
AcDbMText
 10
1703.156392315791
 20
1989.021428213256
 30
0.0
 40
24.0
 41
0.0
 46
0.0
 71
     5
 72
     1
  1
\A1;%%c80
  7
ＭＳ ゴシック
 11
0.4194167569680377
 21
-0.9077938003613012
 31
0.0
 73
     1
 44
1.0
  0
INSERT
  5
38E9
330
38E4
100
AcDbEntity
  8
TEMPLATE
 62
     0
370
    -2
100
AcDbBlockReference
  2
_DOT
 10
1658.083554107435
 20
2046.045480526109
 30
0.0
 41
10.0
 42
10.0
 43
10.0
 50
114.7977703978577
  0
POINT
  5
38EA
330
38E4
100
AcDbEntity
  8
Defpoints
 62
     0
100
AcDbPoint
 10
1658.083554107435
 20
2046.045480526109
 30
0.0
  0
POINT
  5
38EB
330
38E4
100
AcDbEntity
  8
Defpoints
 62
     0
100
AcDbPoint
 10
1624.530213549996
 20
2118.668984555005
 30
0.0
  0
ENDBLK
  5
38E6
330
38E4
100
AcDbEntity
  8
0
100
AcDbBlockEnd
  0
BLOCK
  5
38ED
330
38EC
100
AcDbEntity
  8
0
100
AcDbBlockBegin
  2
*D27
 70
     1
 10
0.0
 20
0.0
 30
0.0
  3
*D27
  1

  0
LINE
  5
38EF
330
38EC
100
AcDbEntity
  8
notes
  6
Continuous
 62
     0
370
    -2
100
AcDbLine
 10
946.6788078496469
 20
1751.747323125016
 30
0.0
 11
1025.445877361242
 21
1751.747323125016
 31
0.0
  0
LINE
  5
38F0
330
38EC
100
AcDbEntity
  8
notes
  6
Continuous
 62
     0
370
    -2
100
AcDbLine
 10
946.6788078496469
 20
2151.747323125015
 30
0.0
 11
1025.445877361242
 21
2151.747323125015
 31
0.0
  0
LINE
  5
38F1
330
38EC
100
AcDbEntity
  8
notes
  6
Continuous
 62
     0
370
    -2
100
AcDbLine
 10
1025.445877361242
 20
1761.747323125016
 30
0.0
 11
1025.445877361242
 21
1936.061232540557
 31
0.0
  0
LINE
  5
38F2
330
38EC
100
AcDbEntity
  8
notes
  6
Continuous
 62
     0
370
    -2
100
AcDbLine
 10
1025.445877361242
 20
2141.747323125015
 30
0.0
 11
1025.445877361242
 21
1990.653232540557
 31
0.0
  0
INSERT
  5
38F3
330
38EC
100
AcDbEntity
  8
notes
 62
     0
370
    -2
100
AcDbBlockReference
  2
_DOT
 10
1025.445877361242
 20
1751.747323125016
 30
0.0
 41
10.0
 42
10.0
 43
10.0
 50
270.0
  0
INSERT
  5
38F4
330
38EC
100
AcDbEntity
  8
notes
 62
     0
370
    -2
100
AcDbBlockReference
  2
_DOT
 10
1025.445877361242
 20
2151.747323125015
 30
0.0
 41
10.0
 42
10.0
 43
10.0
 50
90.0
  0
MTEXT
  5
38F5
330
38EC
100
AcDbEntity
  8
notes
 62
     0
370
     5
100
AcDbMText
 10
1030.445877361242
 20
1963.357232540557
 30
0.0
 40
24.0
 41
0.0
 46
0.0
 71
     5
 72
     1
  1
\A1;400
  7
ＭＳ ゴシック
 11
0.0
 21
1.0
 31
0.0
 73
     1
 44
1.0
  0
POINT
  5
38F6
330
38EC
100
AcDbEntity
  8
Defpoints
 62
     0
100
AcDbPoint
 10
916.6788078496469
 20
1751.747323125016
 30
0.0
  0
POINT
  5
38F7
330
38EC
100
AcDbEntity
  8
Defpoints
 62
     0
100
AcDbPoint
 10
916.6788078496469
 20
2151.747323125015
 30
0.0
  0
POINT
  5
38F8
330
38EC
100
AcDbEntity
  8
Defpoints
 62
     0
100
AcDbPoint
 10
1025.445877361242
 20
2151.747323125015
 30
0.0
  0
ENDBLK
  5
38EE
330
38EC
100
AcDbEntity
  8
0
100
AcDbBlockEnd
  0
BLOCK
  5
38FA
330
38F9
100
AcDbEntity
  8
0
100
AcDbBlockBegin
  2
*D28
 70
     1
 10
0.0
 20
0.0
 30
0.0
  3
*D28
  1

  0
LINE
  5
38FC
330
38F9
100
AcDbEntity
  8
notes
  6
Continuous
 62
     0
370
    -2
100
AcDbLine
 10
86.67880784964575
 20
1776.747323125016
 30
0.0
 11
45.15624148442223
 21
1776.747323125016
 31
0.0
  0
LINE
  5
38FD
330
38F9
100
AcDbEntity
  8
notes
  6
Continuous
 62
     0
370
    -2
100
AcDbLine
 10
86.67880784964575
 20
2126.747323125015
 30
0.0
 11
45.15624148442225
 21
2126.747323125015
 31
0.0
  0
LINE
  5
38FE
330
38F9
100
AcDbEntity
  8
notes
  6
Continuous
 62
     0
370
    -2
100
AcDbLine
 10
45.15624148442223
 20
1786.747323125016
 30
0.0
 11
45.15624148442224
 21
1928.985232488371
 31
0.0
  0
LINE
  5
38FF
330
38F9
100
AcDbEntity
  8
notes
  6
Continuous
 62
     0
370
    -2
100
AcDbLine
 10
45.15624148442225
 20
2116.747323125015
 30
0.0
 11
45.15624148442225
 21
1983.217232488371
 31
0.0
  0
INSERT
  5
3900
330
38F9
100
AcDbEntity
  8
notes
 62
     0
370
    -2
100
AcDbBlockReference
  2
_DOT
 10
45.15624148442223
 20
1776.747323125016
 30
0.0
 41
10.0
 42
10.0
 43
10.0
 50
270.0
  0
INSERT
  5
3901
330
38F9
100
AcDbEntity
  8
notes
 62
     0
370
    -2
100
AcDbBlockReference
  2
_DOT
 10
45.15624148442225
 20
2126.747323125015
 30
0.0
 41
10.0
 42
10.0
 43
10.0
 50
90.0
  0
MTEXT
  5
3902
330
38F9
100
AcDbEntity
  8
notes
 62
     0
370
     5
100
AcDbMText
 10
40.15624148442225
 20
1956.101232488371
 30
0.0
 40
24.0
 41
0.0
 46
0.0
 71
     5
 72
     1
  1
\A1;350
  7
ＭＳ ゴシック
 11
6.090366306515152E-17
 21
1.0
 31
0.0
 73
     1
 44
1.0
  0
POINT
  5
3903
330
38F9
100
AcDbEntity
  8
Defpoints
 62
     0
100
AcDbPoint
 10
116.6788078496458
 20
1776.747323125016
 30
0.0
  0
POINT
  5
3904
330
38F9
100
AcDbEntity
  8
Defpoints
 62
     0
100
AcDbPoint
 10
116.6788078496458
 20
2126.747323125015
 30
0.0
  0
POINT
  5
3905
330
38F9
100
AcDbEntity
  8
Defpoints
 62
     0
100
AcDbPoint
 10
45.15624148442225
 20
2126.747323125015
 30
0.0
  0
ENDBLK
  5
38FB
330
38F9
100
AcDbEntity
  8
0
100
AcDbBlockEnd
  0
BLOCK
  5
3907
330
3906
100
AcDbEntity
  8
0
100
AcDbBlockBegin
  2
*D29
 70
     1
 10
0.0
 20
0.0
 30
0.0
  3
*D29
  1

  0
LINE
  5
3909
330
3906
100
AcDbEntity
  8
notes
  6
Continuous
 62
     0
370
    -2
100
AcDbLine
 10
704.1788078496468
 20
2081.747323125015
 30
0.0
 11
984.9288078496469
 21
2081.747323125015
 31
0.0
  0
LINE
  5
390A
330
3906
100
AcDbEntity
  8
notes
  6
Continuous
 62
     0
370
    -2
100
AcDbLine
 10
946.6788078496469
 20
2151.747323125015
 30
0.0
 11
984.9288078496469
 21
2151.747323125015
 31
0.0
  0
LINE
  5
390B
330
3906
100
AcDbEntity
  8
notes
  6
Continuous
 62
     0
370
    -2
100
AcDbLine
 10
984.9288078496469
 20
2091.747323125015
 30
0.0
 11
984.9288078496469
 21
2097.731323125015
 31
0.0
  0
LINE
  5
390C
330
3906
100
AcDbEntity
  8
notes
  6
Continuous
 62
     0
370
    -2
100
AcDbLine
 10
984.9288078496469
 20
2141.747323125015
 30
0.0
 11
984.9288078496469
 21
2135.763323125015
 31
0.0
  0
INSERT
  5
390D
330
3906
100
AcDbEntity
  8
notes
 62
     0
370
    -2
100
AcDbBlockReference
  2
_DOT
 10
984.9288078496469
 20
2081.747323125015
 30
0.0
 41
10.0
 42
10.0
 43
10.0
 50
270.0
  0
INSERT
  5
390E
330
3906
100
AcDbEntity
  8
notes
 62
     0
370
    -2
100
AcDbBlockReference
  2
_DOT
 10
984.9288078496469
 20
2151.747323125015
 30
0.0
 41
10.0
 42
10.0
 43
10.0
 50
90.0
  0
MTEXT
  5
390F
330
3906
100
AcDbEntity
  8
notes
 62
     0
370
     5
100
AcDbMText
 10
989.9288078496469
 20
2116.747323125015
 30
0.0
 40
24.0
 41
0.0
 46
0.0
 71
     5
 72
     1
  1
\A1;70
  7
ＭＳ ゴシック
 11
0.0
 21
1.0
 31
0.0
 73
     1
 44
1.0
  0
POINT
  5
3910
330
3906
100
AcDbEntity
  8
Defpoints
 62
     0
100
AcDbPoint
 10
674.1788078496468
 20
2081.747323125015
 30
0.0
  0
POINT
  5
3911
330
3906
100
AcDbEntity
  8
Defpoints
 62
     0
100
AcDbPoint
 10
916.6788078496469
 20
2151.747323125015
 30
0.0
  0
POINT
  5
3912
330
3906
100
AcDbEntity
  8
Defpoints
 62
     0
100
AcDbPoint
 10
984.9288078496469
 20
2151.747323125015
 30
0.0
  0
ENDBLK
  5
3908
330
3906
100
AcDbEntity
  8
0
100
AcDbBlockEnd
  0
BLOCK
  5
3914
330
3913
100
AcDbEntity
  8
0
100
AcDbBlockBegin
  2
*D30
 70
     1
 10
0.0
 20
0.0
 30
0.0
  3
*D30
  1

  0
LINE
  5
3916
330
3913
100
AcDbEntity
  8
notes
  6
Continuous
 62
     0
370
    -2
100
AcDbLine
 10
1521.000000000241
 20
1267.311145525284
 30
0.0
 11
1545.000000000241
 21
1267.311145525284
 31
0.0
  0
LINE
  5
3917
330
3913
100
AcDbEntity
  8
notes
  6
Continuous
 62
     0
370
    -2
100
AcDbLine
 10
1521.000000000241
 20
1337.311145525284
 30
0.0
 11
1545.000000000241
 21
1337.311145525284
 31
0.0
  0
LINE
  5
3918
330
3913
100
AcDbEntity
  8
notes
  6
Continuous
 62
     0
370
    -2
100
AcDbLine
 10
1545.000000000241
 20
1277.311145525284
 30
0.0
 11
1545.000000000241
 21
1327.311145525284
 31
0.0
  0
INSERT
  5
3919
330
3913
100
AcDbEntity
  8
notes
 62
     0
370
    -2
100
AcDbBlockReference
  2
_DOT
 10
1545.000000000241
 20
1267.311145525284
 30
0.0
 41
10.0
 42
10.0
 43
10.0
 50
270.0
  0
INSERT
  5
391A
330
3913
100
AcDbEntity
  8
notes
 62
     0
370
    -2
100
AcDbBlockReference
  2
_DOT
 10
1545.000000000241
 20
1337.311145525284
 30
0.0
 41
10.0
 42
10.0
 43
10.0
 50
90.0
  0
MTEXT
  5
391B
330
3913
100
AcDbEntity
  8
notes
 62
     0
370
     5
100
AcDbMText
 10
1540.000000000241
 20
1343.913938215621
 30
0.0
 40
24.0
 41
0.0
 46
0.0
 71
     5
 72
     1
  1
\A1;70(深さ)
  7
ＭＳ ゴシック
 11
0.0
 21
1.0
 31
0.0
 73
     1
 44
1.0
  0
POINT
  5
391C
330
3913
100
AcDbEntity
  8
Defpoints
 62
     0
100
AcDbPoint
 10
1551.000000000241
 20
1267.311145525284
 30
0.0
  0
POINT
  5
391D
330
3913
100
AcDbEntity
  8
Defpoints
 62
     0
100
AcDbPoint
 10
1551.000000000241
 20
1337.311145525284
 30
0.0
  0
POINT
  5
391E
330
3913
100
AcDbEntity
  8
Defpoints
 62
     0
100
AcDbPoint
 10
1545.000000000241
 20
1337.311145525284
 30
0.0
  0
ENDBLK
  5
3915
330
3913
100
AcDbEntity
  8
0
100
AcDbBlockEnd
  0
BLOCK
  5
3979
330
3978
100
AcDbEntity
  8
0
100
AcDbBlockBegin
  2
*D31
 70
     1
 10
0.0
 20
0.0
 30
0.0
  3
*D31
  1

  0
LINE
  5
397B
330
3978
100
AcDbEntity
  8
DIM
 62
     0
370
    -2
100
AcDbLine
 10
715.736509463992
 20
2112.759920992782
 30
0.0
 11
768.5281494754347
 21
1998.664742219274
 31
0.0
  0
MTEXT
  5
397C
330
3978
100
AcDbEntity
  8
DIM
 62
     0
100
AcDbMText
 10
783.457921862703
 20
2030.695069980075
 30
0.0
 40
24.0
 41
0.0
 46
0.0
 71
     5
 72
     1
  1
\A1; 
  7
ＭＳ ゴシック
 11
0.4199257223598863
 21
-0.9075584761879136
 31
0.0
 73
     1
 44
1.0
  0
INSERT
  5
397D
330
3978
100
AcDbEntity
  8
DIM
 62
     0
370
    -2
100
AcDbBlockReference
  2
_DOT
 10
711.5372522403932
 20
2121.835505754661
 30
0.0
 41
10.0
 42
10.0
 43
10.0
 50
114.8298981214779
  0
POINT
  5
397E
330
3978
100
AcDbEntity
  8
Defpoints
 62
     0
100
AcDbPoint
 10
711.5372522403932
 20
2121.835505754661
 30
0.0
  0
POINT
  5
397F
330
3978
100
AcDbEntity
  8
Defpoints
 62
     0
100
AcDbPoint
 10
696.0000005130769
 20
2155.415169373615
 30
0.0
  0
ENDBLK
  5
397A
330
3978
100
AcDbEntity
  8
0
100
AcDbBlockEnd
  0
BLOCK
  5
3981
330
3980
100
AcDbEntity
  8
0
100
AcDbBlockBegin
  2
*D32
 70
     1
 10
0.0
 20
0.0
 30
0.0
  3
*D32
  1

  0
LINE
  5
3983
330
3980
100
AcDbEntity
  8
DIM
 62
     0
370
    -2
100
AcDbLine
 10
1431.14441134937
 20
1942.535464631922
 30
0.0
 11
1468.188615209644
 21
1836.403343836261
 31
0.0
  0
MTEXT
  5
3984
330
3980
100
AcDbEntity
  8
DIM
 62
     0
100
AcDbMText
 10
1481.729925278672
 20
1879.539298880915
 30
0.0
 40
24.0
 41
0.0
 46
0.0
 71
     5
 72
     1
  1
\A1;120
  7
ＭＳ ゴシック
 11
0.3295416407999485
 21
-0.9441410418888047
 31
0.0
 73
     1
 44
1.0
  0
INSERT
  5
3985
330
3980
100
AcDbEntity
  8
DIM
 62
     0
370
    -2
100
AcDbBlockReference
  2
_DOT
 10
1427.848994941371
 20
1951.97687505081
 30
0.0
 41
10.0
 42
10.0
 43
10.0
 50
109.2409573234723
  0
POINT
  5
3986
330
3980
100
AcDbEntity
  8
Defpoints
 62
     0
100
AcDbPoint
 10
1427.848994941371
 20
1951.97687505081
 30
0.0
  0
POINT
  5
3987
330
3980
100
AcDbEntity
  8
Defpoints
 62
     0
100
AcDbPoint
 10
1388.303998045377
 20
2065.273800077466
 30
0.0
  0
ENDBLK
  5
3982
330
3980
100
AcDbEntity
  8
0
100
AcDbBlockEnd
  0
BLOCK
  5
3989
330
3988
100
AcDbEntity
  8
0
100
AcDbBlockBegin
  2
*D33
 70
     1
 10
0.0
 20
0.0
 30
0.0
  3
*D33
  1

  0
LINE
  5
398B
330
3988
100
AcDbEntity
  8
DIM
 62
     0
370
    -2
100
AcDbLine
 10
1709.367540204204
 20
2093.845556961619
 30
0.0
 11
1750.633978473524
 21
2004.52767396932
 31
0.0
  0
MTEXT
  5
398C
330
3988
100
AcDbEntity
  8
DIM
 62
     0
100
AcDbMText
 10
1762.848789436004
 20
2042.464809458849
 30
0.0
 40
24.0
 41
0.0
 46
0.0
 71
     5
 72
     1
  1
\A1;80
  7
ＭＳ ゴシック
 11
0.4194167569680414
 21
-0.9077938003612996
 31
0.0
 73
     1
 44
1.0
  0
INSERT
  5
398D
330
3988
100
AcDbEntity
  8
DIM
 62
     0
370
    -2
100
AcDbBlockReference
  2
_DOT
 10
1705.173372634524
 20
2102.923494965232
 30
0.0
 41
10.0
 42
10.0
 43
10.0
 50
114.797770397858
  0
POINT
  5
398E
330
3988
100
AcDbEntity
  8
Defpoints
 62
     0
100
AcDbPoint
 10
1705.173372634524
 20
2102.923494965232
 30
0.0
  0
POINT
  5
398F
330
3988
100
AcDbEntity
  8
Defpoints
 62
     0
100
AcDbPoint
 10
1671.620032077084
 20
2175.546998994128
 30
0.0
  0
ENDBLK
  5
398A
330
3988
100
AcDbEntity
  8
0
100
AcDbBlockEnd
  0
BLOCK
  5
3991
330
3990
100
AcDbEntity
  8
0
100
AcDbBlockBegin
  2
*D34
 70
     1
 10
0.0
 20
0.0
 30
0.0
  3
*D34
  1

  0
LINE
  5
3993
330
3990
100
AcDbEntity
  8
DIM
 62
     0
370
    -2
100
AcDbLine
 10
993.768626376735
 20
1024.227036070602
 30
0.0
 11
1063.768626376735
 21
1024.227036070602
 31
0.0
  0
LINE
  5
3994
330
3990
100
AcDbEntity
  8
DIM
 62
     0
370
    -2
100
AcDbLine
 10
993.768626376735
 20
944.2270360706016
 30
0.0
 11
1063.768626376735
 21
944.2270360706016
 31
0.0
  0
LINE
  5
3995
330
3990
100
AcDbEntity
  8
DIM
 62
     0
370
    -2
100
AcDbLine
 10
1063.768626376735
 20
1014.227036070602
 30
0.0
 11
1063.768626376735
 21
954.2270360706016
 31
0.0
  0
INSERT
  5
3996
330
3990
100
AcDbEntity
  8
DIM
 62
     0
370
    -2
100
AcDbBlockReference
  2
_DOT
 10
1063.768626376735
 20
1024.227036070602
 30
0.0
 41
10.0
 42
10.0
 43
10.0
 50
90.0
  0
INSERT
  5
3997
330
3990
100
AcDbEntity
  8
DIM
 62
     0
370
    -2
100
AcDbBlockReference
  2
_DOT
 10
1063.768626376735
 20
944.2270360706016
 30
0.0
 41
10.0
 42
10.0
 43
10.0
 50
270.0
  0
MTEXT
  5
3998
330
3990
100
AcDbEntity
  8
DIM
 62
     0
100
AcDbMText
 10
1036.768626376735
 20
984.2270360706016
 30
0.0
 40
24.0
 41
0.0
 46
0.0
 71
     5
 72
     1
  1
\A1;80
  7
ＭＳ ゴシック
 11
0.0
 21
1.0
 31
0.0
 73
     1
 44
1.0
  0
POINT
  5
3999
330
3990
100
AcDbEntity
  8
Defpoints
 62
     0
100
AcDbPoint
 10
963.768626376735
 20
1024.227036070602
 30
0.0
  0
POINT
  5
399A
330
3990
100
AcDbEntity
  8
Defpoints
 62
     0
100
AcDbPoint
 10
963.768626376735
 20
944.2270360706016
 30
0.0
  0
POINT
  5
399B
330
3990
100
AcDbEntity
  8
Defpoints
 62
     0
100
AcDbPoint
 10
1063.768626376735
 20
944.2270360706016
 30
0.0
  0
ENDBLK
  5
3992
330
3990
100
AcDbEntity
  8
0
100
AcDbBlockEnd
  0
BLOCK
  5
399D
330
399C
100
AcDbEntity
  8
0
100
AcDbBlockBegin
  2
*D35
 70
     1
 10
0.0
 20
0.0
 30
0.0
  3
*D35
  1

  0
LINE
  5
399F
330
399C
100
AcDbEntity
  8
DIM
 62
     0
370
    -2
100
AcDbLine
 10
1399.133004368038
 20
1024.227036070602
 30
0.0
 11
1329.133004368037
 21
1024.227036070602
 31
0.0
  0
LINE
  5
39A0
330
399C
100
AcDbEntity
  8
DIM
 62
     0
370
    -2
100
AcDbLine
 10
1569.133004368036
 20
949.2270360706016
 30
0.0
 11
1329.133004368037
 21
949.2270360706016
 31
0.0
  0
LINE
  5
39A1
330
399C
100
AcDbEntity
  8
DIM
 62
     0
370
    -2
100
AcDbLine
 10
1329.133004368037
 20
1014.227036070602
 30
0.0
 11
1329.133004368037
 21
959.2270360706016
 31
0.0
  0
INSERT
  5
39A2
330
399C
100
AcDbEntity
  8
DIM
 62
     0
370
    -2
100
AcDbBlockReference
  2
_DOT
 10
1329.133004368037
 20
1024.227036070602
 30
0.0
 41
10.0
 42
10.0
 43
10.0
 50
90.0
  0
INSERT
  5
39A3
330
399C
100
AcDbEntity
  8
DIM
 62
     0
370
    -2
100
AcDbBlockReference
  2
_DOT
 10
1329.133004368037
 20
949.2270360706016
 30
0.0
 41
10.0
 42
10.0
 43
10.0
 50
270.0
  0
MTEXT
  5
39A4
330
399C
100
AcDbEntity
  8
DIM
 62
     0
100
AcDbMText
 10
1302.133004368037
 20
986.7270360706016
 30
0.0
 40
24.0
 41
0.0
 46
0.0
 71
     5
 72
     1
  1
\A1;75
  7
ＭＳ ゴシック
 11
0.0
 21
1.0
 31
0.0
 73
     1
 44
1.0
  0
POINT
  5
39A5
330
399C
100
AcDbEntity
  8
Defpoints
 62
     0
100
AcDbPoint
 10
1429.133004368038
 20
1024.227036070602
 30
0.0
  0
POINT
  5
39A6
330
399C
100
AcDbEntity
  8
Defpoints
 62
     0
100
AcDbPoint
 10
1599.133004368036
 20
949.2270360706016
 30
0.0
  0
POINT
  5
39A7
330
399C
100
AcDbEntity
  8
Defpoints
 62
     0
100
AcDbPoint
 10
1329.133004368037
 20
949.2270360706016
 30
0.0
  0
ENDBLK
  5
399E
330
399C
100
AcDbEntity
  8
0
100
AcDbBlockEnd
  0
BLOCK
  5
39A9
330
39A8
100
AcDbEntity
  8
0
100
AcDbBlockBegin
  2
*D36
 70
     1
 10
0.0
 20
0.0
 30
0.0
  3
*D36
  1

  0
LINE
  5
39AB
330
39A8
100
AcDbEntity
  8
DIM
 62
     0
370
    -2
100
AcDbLine
 10
663.7686263767354
 20
1901.622090138811
 30
0.0
 11
663.7686263767354
 21
1676.333862187808
 31
0.0
  0
LINE
  5
39AC
330
39A8
100
AcDbEntity
  8
DIM
 62
     0
370
    -2
100
AcDbLine
 10
963.768626376735
 20
1745.114275617236
 30
0.0
 11
963.768626376735
 21
1676.333862187808
 31
0.0
  0
LINE
  5
39AD
330
39A8
100
AcDbEntity
  8
DIM
 62
     0
370
    -2
100
AcDbLine
 10
673.7686263767354
 20
1676.333862187808
 30
0.0
 11
953.768626376735
 21
1676.333862187808
 31
0.0
  0
INSERT
  5
39AE
330
39A8
100
AcDbEntity
  8
DIM
 62
     0
370
    -2
100
AcDbBlockReference
  2
_DOT
 10
663.7686263767354
 20
1676.333862187808
 30
0.0
 41
10.0
 42
10.0
 43
10.0
 50
180.0
  0
INSERT
  5
39AF
330
39A8
100
AcDbEntity
  8
DIM
 62
     0
370
    -2
100
AcDbBlockReference
  2
_DOT
 10
963.768626376735
 20
1676.333862187808
 30
0.0
 41
10.0
 42
10.0
 43
10.0
  0
MTEXT
  5
39B0
330
39A8
100
AcDbEntity
  8
DIM
 62
     0
100
AcDbMText
 10
813.7686263767353
 20
1703.333862187808
 30
0.0
 40
24.0
 41
0.0
 46
0.0
 71
     5
 72
     1
  1
\A1;300
  7
ＭＳ ゴシック
 73
     1
 44
1.0
  0
POINT
  5
39B1
330
39A8
100
AcDbEntity
  8
Defpoints
 62
     0
100
AcDbPoint
 10
663.7686263767354
 20
1931.622090138811
 30
0.0
  0
POINT
  5
39B2
330
39A8
100
AcDbEntity
  8
Defpoints
 62
     0
100
AcDbPoint
 10
963.768626376735
 20
1775.114275617236
 30
0.0
  0
POINT
  5
39B3
330
39A8
100
AcDbEntity
  8
Defpoints
 62
     0
100
AcDbPoint
 10
963.768626376735
 20
1676.333862187808
 30
0.0
  0
ENDBLK
  5
39AA
330
39A8
100
AcDbEntity
  8
0
100
AcDbBlockEnd
  0
BLOCK
  5
39B5
330
39B4
100
AcDbEntity
  8
0
100
AcDbBlockBegin
  2
*D37
 70
     1
 10
0.0
 20
0.0
 30
0.0
  3
*D37
  1

  0
LINE
  5
39B7
330
39B4
100
AcDbEntity
  8
DIM
 62
     0
370
    -2
100
AcDbLine
 10
183.7686263767341
 20
1900.65596469421
 30
0.0
 11
183.7686263767341
 21
1676.333862187808
 31
0.0
  0
LINE
  5
39B8
330
39B4
100
AcDbEntity
  8
DIM
 62
     0
370
    -2
100
AcDbLine
 10
663.7686263767354
 20
1901.622090138811
 30
0.0
 11
663.7686263767354
 21
1676.333862187808
 31
0.0
  0
LINE
  5
39B9
330
39B4
100
AcDbEntity
  8
DIM
 62
     0
370
    -2
100
AcDbLine
 10
193.7686263767341
 20
1676.333862187808
 30
0.0
 11
653.7686263767354
 21
1676.333862187808
 31
0.0
  0
INSERT
  5
39BA
330
39B4
100
AcDbEntity
  8
DIM
 62
     0
370
    -2
100
AcDbBlockReference
  2
_DOT
 10
183.7686263767341
 20
1676.333862187808
 30
0.0
 41
10.0
 42
10.0
 43
10.0
 50
180.0
  0
INSERT
  5
39BB
330
39B4
100
AcDbEntity
  8
DIM
 62
     0
370
    -2
100
AcDbBlockReference
  2
_DOT
 10
663.7686263767354
 20
1676.333862187808
 30
0.0
 41
10.0
 42
10.0
 43
10.0
  0
MTEXT
  5
39BC
330
39B4
100
AcDbEntity
  8
DIM
 62
     0
100
AcDbMText
 10
423.7686263767347
 20
1703.333862187808
 30
0.0
 40
24.0
 41
0.0
 46
0.0
 71
     5
 72
     1
  1
\A1;480
  7
ＭＳ ゴシック
 73
     1
 44
1.0
  0
POINT
  5
39BD
330
39B4
100
AcDbEntity
  8
Defpoints
 62
     0
100
AcDbPoint
 10
183.7686263767341
 20
1930.65596469421
 30
0.0
  0
POINT
  5
39BE
330
39B4
100
AcDbEntity
  8
Defpoints
 62
     0
100
AcDbPoint
 10
663.7686263767354
 20
1931.622090138811
 30
0.0
  0
POINT
  5
39BF
330
39B4
100
AcDbEntity
  8
Defpoints
 62
     0
100
AcDbPoint
 10
663.7686263767354
 20
1676.333862187808
 30
0.0
  0
ENDBLK
  5
39B6
330
39B4
100
AcDbEntity
  8
0
100
AcDbBlockEnd
  0
BLOCK
  5
39C1
330
39C0
100
AcDbEntity
  8
0
100
AcDbBlockBegin
  2
*D38
 70
     1
 10
0.0
 20
0.0
 30
0.0
  3
*D38
  1

  0
LINE
  5
39C3
330
39C0
100
AcDbEntity
  8
DIM
 62
     0
370
    -2
100
AcDbLine
 10
963.768626376735
 20
2205.114275617235
 30
0.0
 11
963.768626376735
 21
2277.577686201769
 31
0.0
  0
LINE
  5
39C4
330
39C0
100
AcDbEntity
  8
DIM
 62
     0
370
    -2
100
AcDbLine
 10
163.7686263767337
 20
2205.114275617235
 30
0.0
 11
163.7686263767337
 21
2277.577686201769
 31
0.0
  0
LINE
  5
39C5
330
39C0
100
AcDbEntity
  8
DIM
 62
     0
370
    -2
100
AcDbLine
 10
953.768626376735
 20
2277.577686201769
 30
0.0
 11
173.7686263767337
 21
2277.577686201769
 31
0.0
  0
INSERT
  5
39C6
330
39C0
100
AcDbEntity
  8
DIM
 62
     0
370
    -2
100
AcDbBlockReference
  2
_DOT
 10
963.768626376735
 20
2277.577686201769
 30
0.0
 41
10.0
 42
10.0
 43
10.0
  0
INSERT
  5
39C7
330
39C0
100
AcDbEntity
  8
DIM
 62
     0
370
    -2
100
AcDbBlockReference
  2
_DOT
 10
163.7686263767337
 20
2277.577686201769
 30
0.0
 41
10.0
 42
10.0
 43
10.0
 50
180.0
  0
MTEXT
  5
39C8
330
39C0
100
AcDbEntity
  8
DIM
 62
     0
100
AcDbMText
 10
563.7686263767343
 20
2304.577686201769
 30
0.0
 40
24.0
 41
0.0
 46
0.0
 71
     5
 72
     1
  1
\A1;800
  7
ＭＳ ゴシック
 73
     1
 44
1.0
  0
POINT
  5
39C9
330
39C0
100
AcDbEntity
  8
Defpoints
 62
     0
100
AcDbPoint
 10
963.768626376735
 20
2175.114275617235
 30
0.0
  0
POINT
  5
39CA
330
39C0
100
AcDbEntity
  8
Defpoints
 62
     0
100
AcDbPoint
 10
163.7686263767337
 20
2175.114275617235
 30
0.0
  0
POINT
  5
39CB
330
39C0
100
AcDbEntity
  8
Defpoints
 62
     0
100
AcDbPoint
 10
163.7686263767337
 20
2277.577686201769
 30
0.0
  0
ENDBLK
  5
39C2
330
39C0
100
AcDbEntity
  8
0
100
AcDbBlockEnd
  0
BLOCK
  5
39CD
330
39CC
100
AcDbEntity
  8
0
100
AcDbBlockBegin
  2
*D39
 70
     1
 10
0.0
 20
0.0
 30
0.0
  3
*D39
  1

  0
LINE
  5
39CF
330
39CC
100
AcDbEntity
  8
DIM
 62
     0
370
    -2
100
AcDbLine
 10
993.768626376735
 20
1775.114275617236
 30
0.0
 11
1055.380500361062
 21
1775.114275617236
 31
0.0
  0
LINE
  5
39D0
330
39CC
100
AcDbEntity
  8
DIM
 62
     0
370
    -2
100
AcDbLine
 10
993.768626376735
 20
2175.114275617235
 30
0.0
 11
1055.380500361062
 21
2175.114275617235
 31
0.0
  0
LINE
  5
39D1
330
39CC
100
AcDbEntity
  8
DIM
 62
     0
370
    -2
100
AcDbLine
 10
1055.380500361062
 20
1785.114275617236
 30
0.0
 11
1055.380500361062
 21
2165.114275617235
 31
0.0
  0
INSERT
  5
39D2
330
39CC
100
AcDbEntity
  8
DIM
 62
     0
370
    -2
100
AcDbBlockReference
  2
_DOT
 10
1055.380500361062
 20
1775.114275617236
 30
0.0
 41
10.0
 42
10.0
 43
10.0
 50
270.0
  0
INSERT
  5
39D3
330
39CC
100
AcDbEntity
  8
DIM
 62
     0
370
    -2
100
AcDbBlockReference
  2
_DOT
 10
1055.380500361062
 20
2175.114275617235
 30
0.0
 41
10.0
 42
10.0
 43
10.0
 50
90.0
  0
MTEXT
  5
39D4
330
39CC
100
AcDbEntity
  8
DIM
 62
     0
100
AcDbMText
 10
1028.380500361062
 20
1986.724185032778
 30
0.0
 40
24.0
 41
0.0
 46
0.0
 71
     5
 72
     1
  1
\A1;400
  7
ＭＳ ゴシック
 11
0.0
 21
1.0
 31
0.0
 73
     1
 44
1.0
  0
POINT
  5
39D5
330
39CC
100
AcDbEntity
  8
Defpoints
 62
     0
100
AcDbPoint
 10
963.768626376735
 20
1775.114275617236
 30
0.0
  0
POINT
  5
39D6
330
39CC
100
AcDbEntity
  8
Defpoints
 62
     0
100
AcDbPoint
 10
963.768626376735
 20
2175.114275617235
 30
0.0
  0
POINT
  5
39D7
330
39CC
100
AcDbEntity
  8
Defpoints
 62
     0
100
AcDbPoint
 10
1055.380500361062
 20
2175.114275617235
 30
0.0
  0
ENDBLK
  5
39CE
330
39CC
100
AcDbEntity
  8
0
100
AcDbBlockEnd
  0
BLOCK
  5
39DA
330
39D9
100
AcDbEntity
  8
0
100
AcDbBlockBegin
  2
*D40
 70
     1
 10
0.0
 20
0.0
 30
0.0
  3
*D40
  1

  0
LINE
  5
39DC
330
39D9
100
AcDbEntity
  8
DIM
 62
     0
370
    -2
100
AcDbLine
 10
344.2938817707756
 20
1800.114275617236
 30
0.0
 11
135.2718217079947
 21
1800.114275617236
 31
0.0
  0
LINE
  5
39DD
330
39D9
100
AcDbEntity
  8
DIM
 62
     0
370
    -2
100
AcDbLine
 10
344.2938817707756
 20
2150.114275617236
 30
0.0
 11
135.2718217079948
 21
2150.114275617236
 31
0.0
  0
LINE
  5
39DE
330
39D9
100
AcDbEntity
  8
DIM
 62
     0
370
    -2
100
AcDbLine
 10
135.2718217079947
 20
1810.114275617236
 30
0.0
 11
135.2718217079948
 21
2140.114275617236
 31
0.0
  0
INSERT
  5
39DF
330
39D9
100
AcDbEntity
  8
DIM
 62
     0
370
    -2
100
AcDbBlockReference
  2
_DOT
 10
135.2718217079947
 20
1800.114275617236
 30
0.0
 41
10.0
 42
10.0
 43
10.0
 50
270.0
  0
INSERT
  5
39E0
330
39D9
100
AcDbEntity
  8
DIM
 62
     0
370
    -2
100
AcDbBlockReference
  2
_DOT
 10
135.2718217079948
 20
2150.114275617236
 30
0.0
 41
10.0
 42
10.0
 43
10.0
 50
90.0
  0
MTEXT
  5
39E1
330
39D9
100
AcDbEntity
  8
DIM
 62
     0
100
AcDbMText
 10
108.2718217079948
 20
1979.468184980592
 30
0.0
 40
24.0
 41
0.0
 46
0.0
 71
     5
 72
     1
  1
\A1;350
  7
ＭＳ ゴシック
 11
8.120488408686870E-17
 21
1.0
 31
0.0
 73
     1
 44
1.0
  0
POINT
  5
39E2
330
39D9
100
AcDbEntity
  8
Defpoints
 62
     0
100
AcDbPoint
 10
374.2938817707756
 20
1800.114275617236
 30
0.0
  0
POINT
  5
39E3
330
39D9
100
AcDbEntity
  8
Defpoints
 62
     0
100
AcDbPoint
 10
374.2938817707756
 20
2150.114275617236
 30
0.0
  0
POINT
  5
39E4
330
39D9
100
AcDbEntity
  8
Defpoints
 62
     0
100
AcDbPoint
 10
135.2718217079948
 20
2150.114275617236
 30
0.0
  0
ENDBLK
  5
39DB
330
39D9
100
AcDbEntity
  8
0
100
AcDbBlockEnd
  0
BLOCK
  5
39E7
330
39E6
100
AcDbEntity
  8
0
100
AcDbBlockBegin
  2
*D41
 70
     1
 10
0.0
 20
0.0
 30
0.0
  3
*D41
  1

  0
LINE
  5
39E9
330
39E6
100
AcDbEntity
  8
DIM
 62
     0
370
    -2
100
AcDbLine
 10
703.768626376735
 20
2152.614275617235
 30
0.0
 11
703.768626376735
 21
2275.114275617235
 31
0.0
  0
LINE
  5
39EA
330
39E6
100
AcDbEntity
  8
DIM
 62
     0
370
    -2
100
AcDbLine
 10
963.768626376735
 20
2205.114275617235
 30
0.0
 11
963.768626376735
 21
2275.114275617235
 31
0.0
  0
LINE
  5
39EB
330
39E6
100
AcDbEntity
  8
DIM
 62
     0
370
    -2
100
AcDbLine
 10
713.768626376735
 20
2275.114275617235
 30
0.0
 11
953.768626376735
 21
2275.114275617235
 31
0.0
  0
INSERT
  5
39EC
330
39E6
100
AcDbEntity
  8
DIM
 62
     0
370
    -2
100
AcDbBlockReference
  2
_DOT
 10
703.768626376735
 20
2275.114275617235
 30
0.0
 41
10.0
 42
10.0
 43
10.0
 50
180.0
  0
INSERT
  5
39ED
330
39E6
100
AcDbEntity
  8
DIM
 62
     0
370
    -2
100
AcDbBlockReference
  2
_DOT
 10
963.768626376735
 20
2275.114275617235
 30
0.0
 41
10.0
 42
10.0
 43
10.0
  0
MTEXT
  5
39EE
330
39E6
100
AcDbEntity
  8
DIM
 62
     0
100
AcDbMText
 10
833.768626376735
 20
2302.114275617235
 30
0.0
 40
24.0
 41
0.0
 46
0.0
 71
     5
 72
     1
  1
\A1;260
  7
ＭＳ ゴシック
 73
     1
 44
1.0
  0
POINT
  5
39EF
330
39E6
100
AcDbEntity
  8
Defpoints
 62
     0
100
AcDbPoint
 10
703.768626376735
 20
2122.614275617235
 30
0.0
  0
POINT
  5
39F0
330
39E6
100
AcDbEntity
  8
Defpoints
 62
     0
100
AcDbPoint
 10
963.768626376735
 20
2175.114275617235
 30
0.0
  0
POINT
  5
39F1
330
39E6
100
AcDbEntity
  8
Defpoints
 62
     0
100
AcDbPoint
 10
963.768626376735
 20
2275.114275617235
 30
0.0
  0
ENDBLK
  5
39E8
330
39E6
100
AcDbEntity
  8
0
100
AcDbBlockEnd
  0
BLOCK
  5
39F3
330
39F2
100
AcDbEntity
  8
0
100
AcDbBlockBegin
  2
*D42
 70
     1
 10
0.0
 20
0.0
 30
0.0
  3
*D42
  1

  0
LINE
  5
39F5
330
39F2
100
AcDbEntity
  8
DIM
 62
     0
370
    -2
100
AcDbLine
 10
423.7686263767341
 20
914.2270360706016
 30
0.0
 11
423.7686263767341
 21
844.2270360706016
 31
0.0
  0
LINE
  5
39F6
330
39F2
100
AcDbEntity
  8
DIM
 62
     0
370
    -2
100
AcDbLine
 10
163.7686263767337
 20
914.2270360706016
 30
0.0
 11
163.7686263767337
 21
844.2270360706016
 31
0.0
  0
LINE
  5
39F7
330
39F2
100
AcDbEntity
  8
DIM
 62
     0
370
    -2
100
AcDbLine
 10
413.7686263767341
 20
844.2270360706016
 30
0.0
 11
173.7686263767337
 21
844.2270360706016
 31
0.0
  0
INSERT
  5
39F8
330
39F2
100
AcDbEntity
  8
DIM
 62
     0
370
    -2
100
AcDbBlockReference
  2
_DOT
 10
423.7686263767341
 20
844.2270360706016
 30
0.0
 41
10.0
 42
10.0
 43
10.0
  0
INSERT
  5
39F9
330
39F2
100
AcDbEntity
  8
DIM
 62
     0
370
    -2
100
AcDbBlockReference
  2
_DOT
 10
163.7686263767337
 20
844.2270360706016
 30
0.0
 41
10.0
 42
10.0
 43
10.0
 50
180.0
  0
MTEXT
  5
39FA
330
39F2
100
AcDbEntity
  8
DIM
 62
     0
100
AcDbMText
 10
293.7686263767339
 20
871.2270360706016
 30
0.0
 40
24.0
 41
0.0
 46
0.0
 71
     5
 72
     1
  1
\A1;260
  7
ＭＳ ゴシック
 73
     1
 44
1.0
  0
POINT
  5
39FB
330
39F2
100
AcDbEntity
  8
Defpoints
 62
     0
100
AcDbPoint
 10
423.7686263767341
 20
944.2270360706016
 30
0.0
  0
POINT
  5
39FC
330
39F2
100
AcDbEntity
  8
Defpoints
 62
     0
100
AcDbPoint
 10
163.7686263767337
 20
944.2270360706016
 30
0.0
  0
POINT
  5
39FD
330
39F2
100
AcDbEntity
  8
Defpoints
 62
     0
100
AcDbPoint
 10
163.7686263767337
 20
844.2270360706016
 30
0.0
  0
ENDBLK
  5
39F4
330
39F2
100
AcDbEntity
  8
0
100
AcDbBlockEnd
  0
BLOCK
  5
39FF
330
39FE
100
AcDbEntity
  8
0
100
AcDbBlockBegin
  2
*D43
 70
     1
 10
0.0
 20
0.0
 30
0.0
  3
*D43
  1

  0
LINE
  5
3A01
330
39FE
100
AcDbEntity
  8
DIM
 62
     0
370
    -2
100
AcDbLine
 10
1629.133004368036
 20
914.2270360706016
 30
0.0
 11
1629.133004368036
 21
844.2270360706016
 31
0.0
  0
LINE
  5
3A02
330
39FE
100
AcDbEntity
  8
DIM
 62
     0
370
    -2
100
AcDbLine
 10
1429.133004368038
 20
914.2270360706016
 30
0.0
 11
1429.133004368038
 21
844.2270360706016
 31
0.0
  0
LINE
  5
3A03
330
39FE
100
AcDbEntity
  8
DIM
 62
     0
370
    -2
100
AcDbLine
 10
1619.133004368036
 20
844.2270360706016
 30
0.0
 11
1439.133004368038
 21
844.2270360706016
 31
0.0
  0
INSERT
  5
3A04
330
39FE
100
AcDbEntity
  8
DIM
 62
     0
370
    -2
100
AcDbBlockReference
  2
_DOT
 10
1629.133004368036
 20
844.2270360706016
 30
0.0
 41
10.0
 42
10.0
 43
10.0
  0
INSERT
  5
3A05
330
39FE
100
AcDbEntity
  8
DIM
 62
     0
370
    -2
100
AcDbBlockReference
  2
_DOT
 10
1429.133004368038
 20
844.2270360706016
 30
0.0
 41
10.0
 42
10.0
 43
10.0
 50
180.0
  0
MTEXT
  5
3A06
330
39FE
100
AcDbEntity
  8
DIM
 62
     0
100
AcDbMText
 10
1529.133004368037
 20
871.2270360706016
 30
0.0
 40
24.0
 41
0.0
 46
0.0
 71
     5
 72
     1
  1
\A1;200
  7
ＭＳ ゴシック
 73
     1
 44
1.0
  0
POINT
  5
3A07
330
39FE
100
AcDbEntity
  8
Defpoints
 62
     0
100
AcDbPoint
 10
1629.133004368036
 20
944.2270360706016
 30
0.0
  0
POINT
  5
3A08
330
39FE
100
AcDbEntity
  8
Defpoints
 62
     0
100
AcDbPoint
 10
1429.133004368038
 20
944.2270360706016
 30
0.0
  0
POINT
  5
3A09
330
39FE
100
AcDbEntity
  8
Defpoints
 62
     0
100
AcDbPoint
 10
1429.133004368038
 20
844.2270360706016
 30
0.0
  0
ENDBLK
  5
3A00
330
39FE
100
AcDbEntity
  8
0
100
AcDbBlockEnd
  0
BLOCK
  5
3A0B
330
3A0A
100
AcDbEntity
  8
0
100
AcDbBlockBegin
  2
*D44
 70
     1
 10
0.0
 20
0.0
 30
0.0
  3
*D44
  1

  0
LINE
  5
3A0D
330
3A0A
100
AcDbEntity
  8
DIM
 62
     0
370
    -2
100
AcDbLine
 10
751.2686263767346
 20
2105.114275617235
 30
0.0
 11
1037.018626376735
 21
2105.114275617235
 31
0.0
  0
LINE
  5
3A0E
330
3A0A
100
AcDbEntity
  8
DIM
 62
     0
370
    -2
100
AcDbLine
 10
993.768626376735
 20
2175.114275617235
 30
0.0
 11
1037.018626376735
 21
2175.114275617235
 31
0.0
  0
LINE
  5
3A0F
330
3A0A
100
AcDbEntity
  8
DIM
 62
     0
370
    -2
100
AcDbLine
 10
1037.018626376735
 20
2115.114275617235
 30
0.0
 11
1037.018626376735
 21
2165.114275617235
 31
0.0
  0
INSERT
  5
3A10
330
3A0A
100
AcDbEntity
  8
DIM
 62
     0
370
    -2
100
AcDbBlockReference
  2
_DOT
 10
1037.018626376735
 20
2105.114275617235
 30
0.0
 41
10.0
 42
10.0
 43
10.0
 50
270.0
  0
INSERT
  5
3A11
330
3A0A
100
AcDbEntity
  8
DIM
 62
     0
370
    -2
100
AcDbBlockReference
  2
_DOT
 10
1037.018626376735
 20
2175.114275617235
 30
0.0
 41
10.0
 42
10.0
 43
10.0
 50
90.0
  0
MTEXT
  5
3A12
330
3A0A
100
AcDbEntity
  8
DIM
 62
     0
100
AcDbMText
 10
1010.018626376735
 20
2140.114275617235
 30
0.0
 40
24.0
 41
0.0
 46
0.0
 71
     5
 72
     1
  1
\A1;70
  7
ＭＳ ゴシック
 11
0.0
 21
1.0
 31
0.0
 73
     1
 44
1.0
  0
POINT
  5
3A13
330
3A0A
100
AcDbEntity
  8
Defpoints
 62
     0
100
AcDbPoint
 10
721.2686263767346
 20
2105.114275617235
 30
0.0
  0
POINT
  5
3A14
330
3A0A
100
AcDbEntity
  8
Defpoints
 62
     0
100
AcDbPoint
 10
963.768626376735
 20
2175.114275617235
 30
0.0
  0
POINT
  5
3A15
330
3A0A
100
AcDbEntity
  8
Defpoints
 62
     0
100
AcDbPoint
 10
1037.018626376735
 20
2175.114275617235
 30
0.0
  0
ENDBLK
  5
3A0C
330
3A0A
100
AcDbEntity
  8
0
100
AcDbBlockEnd
  0
BLOCK
  5
3A18
330
3A17
100
AcDbEntity
  8
0
100
AcDbBlockBegin
  2
*D45
 70
     1
 10
0.0
 20
0.0
 30
0.0
  3
*D45
  1

  0
LINE
  5
3A1A
330
3A17
100
AcDbEntity
  8
DIM
 62
     0
370
    -2
100
AcDbLine
 10
1618.133004368036
 20
954.2270360706016
 30
0.0
 11
1637.133004368036
 21
954.2270360706016
 31
0.0
  0
LINE
  5
3A1B
330
3A17
100
AcDbEntity
  8
DIM
 62
     0
370
    -2
100
AcDbLine
 10
1618.133004368036
 20
1024.227036070602
 30
0.0
 11
1637.133004368036
 21
1024.227036070602
 31
0.0
  0
LINE
  5
3A1C
330
3A17
100
AcDbEntity
  8
DIM
 62
     0
370
    -2
100
AcDbLine
 10
1637.133004368036
 20
1024.227036070602
 30
0.0
 11
1637.133004368036
 21
1190.195036070602
 31
0.0
  0
LINE
  5
3A1D
330
3A17
100
AcDbEntity
  8
DIM
 62
     0
370
    -2
100
AcDbLine
 10
1637.133004368036
 20
964.2270360706016
 30
0.0
 11
1637.133004368036
 21
1014.227036070602
 31
0.0
  0
LINE
  5
3A1E
330
3A17
100
AcDbEntity
  8
DIM
 62
     0
370
    -2
100
AcDbLine
 10
1637.133004368036
 20
1014.227036070602
 30
0.0
 11
1637.133004368036
 21
1004.227036070602
 31
0.0
  0
INSERT
  5
3A1F
330
3A17
100
AcDbEntity
  8
DIM
 62
     0
370
    -2
100
AcDbBlockReference
  2
_DOT
 10
1637.133004368036
 20
954.2270360706016
 30
0.0
 41
10.0
 42
10.0
 43
10.0
 50
270.0
  0
INSERT
  5
3A20
330
3A17
100
AcDbEntity
  8
DIM
 62
     0
370
    -2
100
AcDbBlockReference
  2
_DOT
 10
1637.133004368036
 20
1024.227036070602
 30
0.0
 41
10.0
 42
10.0
 43
10.0
 50
90.0
  0
MTEXT
  5
3A21
330
3A17
100
AcDbEntity
  8
DIM
 62
     0
100
AcDbMText
 10
1608.009004368036
 20
1117.427036070602
 30
0.0
 40
24.0
 41
0.0
 46
0.0
 71
     5
 72
     1
  1
\A1;70(深さ)
  7
ＭＳ ゴシック
 11
0.0
 21
1.0
 31
0.0
 73
     1
 44
1.0
  0
POINT
  5
3A22
330
3A17
100
AcDbEntity
  8
Defpoints
 62
     0
100
AcDbPoint
 10
1648.133004368036
 20
954.2270360706016
 30
0.0
  0
POINT
  5
3A32
330
3A17
100
AcDbEntity
  8
Defpoints
 62
     0
100
AcDbPoint
 10
1648.133004368036
 20
1024.227036070602
 30
0.0
  0
POINT
  5
3A33
330
3A17
100
AcDbEntity
  8
Defpoints
 62
     0
100
AcDbPoint
 10
1637.133004368036
 20
1024.227036070602
 30
0.0
  0
ENDBLK
  5
3A19
330
3A17
100
AcDbEntity
  8
0
100
AcDbBlockEnd
  0
ENDSEC
  0
SECTION
  2
ENTITIES
  0
MTEXT
  5
177
330
A
100
AcDbEntity
  8
TEMPLATE
390
1D
100
AcDbMText
 10
79.20214454773075
 20
343.7317516314282
 30
0.0
 40
16.28841145833333
 41
0.0
 46
0.0
 71
     1
 72
     1
  1
品名
  7
ＭＳ ゴシック
 73
     1
 44
0.7828267384257843
  0
MTEXT
  5
178
330
A
100
AcDbEntity
  8
TEMPLATE
390
1D
100
AcDbMText
 10
79.20214454773075
 20
258.731751631428
 30
0.0
 40
16.28841145833333
 41
0.0
 46
0.0
 71
     1
 72
     1
  1
仕様
  7
ＭＳ ゴシック
 73
     1
 44
0.7828267384257843
  0
LINE
  5
179
330
A
100
AcDbEntity
  8
TEMPLATE
390
1D
100
AcDbLine
 10
2022.202144547248
 20
267.1466735064284
 30
0.0
 11
72.20214454724874
 21
267.1466735064284
 31
0.0
  0
LWPOLYLINE
  5
17A
330
A
100
AcDbEntity
  8
TEMPLATE
390
1D
100
AcDbPolyline
 90
        5
 70
   128
 43
0.0
 10
2022.202144547248
 20
2897.146673506426
 10
72.20214454724874
 20
2897.146673506426
 10
72.20214454724874
 20
97.14667350642826
 10
2022.202144547248
 20
97.14667350642826
 10
2022.202144547248
 20
2897.146673506426
  0
LINE
  5
17B
330
A
100
AcDbEntity
  8
TEMPLATE
390
1D
100
AcDbLine
 10
2022.202144547248
 20
352.1466735064282
 30
0.0
 11
72.20214454724874
 21
352.1466735064282
 31
0.0
  0
LINE
  5
17C
330
A
100
AcDbEntity
  8
TEMPLATE
390
1D
100
AcDbLine
 10
2022.202144547732
 20
182.1466735064282
 30
0.0
 11
1269.20214454773
 21
182.1466735064282
 31
0.0
  0
MTEXT
  5
17E
330
A
100
AcDbEntity
  8
TEMPLATE
390
1D
100
AcDbMText
 10
1299.073550799991
 20
152.2362790331201
 30
0.0
 40
24.4326171875
 41
0.0
 46
0.0
 71
     1
 72
     1
  1
大洋金物株式会社 ティーフォルム事業部
  7
ＭＳ ゴシック
 73
     1
 44
0.7828267384257843
  0
MTEXT
  5
180
330
A
100
AcDbEntity
  8
TEMPLATE
390
1D
100
AcDbMText
 10
1831.20214454799
 20
230.1492906939282
 30
0.0
 40
24.4326171875
 41
0.0
 46
24.4326171875
 71
     1
 72
     1
  1
{1:10}
  7
ＭＳ ゴシック
 73
     1
 44
0.7828267384257843
1001
ACAD
1000
ACAD_MTEXT_DEFINED_HEIGHT_BEGIN
1070
    46
1040
24.4326171875
1000
ACAD_MTEXT_DEFINED_HEIGHT_END
  0
MTEXT
  5
181
330
A
100
AcDbEntity
  8
TEMPLATE
390
1D
100
AcDbMText
 10
1778.20214454799
 20
258.731751631428
 30
0.0
 40
16.28841145833333
 41
0.0
 46
0.0
 71
     1
 72
     1
  1
縮尺
  7
ＭＳ ゴシック
 73
     1
 44
0.7828267384257843
  0
LINE
  5
182
330
A
100
AcDbEntity
  8
TEMPLATE
390
1D
100
AcDbLine
 10
1771.20214454799
 20
182.1466735064282
 30
0.0
 11
1771.20214454799
 21
267.1466735064284
 31
0.0
  0
MTEXT
  5
183
330
A
100
AcDbEntity
  8
TEMPLATE
390
1D
100
AcDbMText
 10
1527.20214454799
 20
258.731751631428
 30
0.0
 40
16.28841145833333
 41
0.0
 46
0.0
 71
     1
 72
     1
  1
容量
  7
ＭＳ ゴシック
 73
     1
 44
0.7828267384257843
  0
LINE
  5
184
330
A
100
AcDbEntity
  8
TEMPLATE
390
1D
100
AcDbLine
 10
1520.20214454799
 20
182.1466735064282
 30
0.0
 11
1520.20214454799
 21
267.1466735064284
 31
0.0
  0
MTEXT
  5
185
330
A
100
AcDbEntity
  8
TEMPLATE
390
1D
100
AcDbMText
 10
1276.20214454799
 20
343.7317516314282
 30
0.0
 40
16.28841145833333
 41
0.0
 46
0.0
 71
     1
 72
     1
  1
品番
  7
ＭＳ ゴシック
 73
     1
 44
0.7828267384257843
  0
MTEXT
  5
186
330
A
100
AcDbEntity
  8
TEMPLATE
390
1D
100
AcDbMText
 10
1276.20214454799
 20
258.731751631428
 30
0.0
 40
16.28841145833333
 41
0.0
 46
0.0
 71
     1
 72
     1
  1
重量
  7
ＭＳ ゴシック
 73
     1
 44
0.7828267384257843
  0
MTEXT
  5
187
330
A
100
AcDbEntity
  8
TEMPLATE
390
1D
100
AcDbMText
 10
1329.20214454799
 20
315.1492906939282
 30
0.0
 40
24.4326171875
 41
0.0
 46
24.4326171875
 71
     1
 72
     1
  1
{{\C7;KUF70-0202}}
  7
ＭＳ ゴシック
 73
     1
 44
0.7828267384257843
1001
ACAD
1000
ACAD_MTEXT_DEFINED_HEIGHT_BEGIN
1070
    46
1040
24.4326171875
1000
ACAD_MTEXT_DEFINED_HEIGHT_END
  0
LINE
  5
188
330
A
100
AcDbEntity
  8
TEMPLATE
390
1D
100
AcDbLine
 10
1269.20214454799
 20
97.14667350642826
 30
0.0
 11
1269.20214454799
 21
352.1466735064282
 31
0.0
  0
MTEXT
  5
189
330
A
100
AcDbEntity
  8
TEMPLATE
390
1D
100
AcDbMText
 10
132.2021445477307
 20
315.1492906939282
 30
0.0
 40
24.4326171875
 41
0.0
 46
28.5128642578125
 71
     1
 72
     1
  1
{{\C7;手洗器 -SANICO,City-}}
  7
ＭＳ ゴシック
 73
     1
 44
0.7828267384257843
1001
ACAD
1000
ACAD_MTEXT_DEFINED_HEIGHT_BEGIN
1070
    46
1040
28.5128642578125
1000
ACAD_MTEXT_DEFINED_HEIGHT_END
  0
MTEXT
  5
7D9
330
A
100
AcDbEntity
  8
TEMPLATE
390
1D
100
AcDbMText
 10
125.2543452760364
 20
226.8119760293952
 30
0.0
 40
24.4326171875
 41
0.0
 46
108.7033330078125
 71
     1
 72
     1
  1
{{\C7;壁掛け,カウンタ ー置き/オーバーフローなし/\P排水金具,壁取付用ブラケット付属/\P大理石}}
  7
ＭＳ ゴシック
 73
     1
 44
0.9331787841240657
1001
ACAD
1000
ACAD_MTEXT_DEFINED_HEIGHT_BEGIN
1070
    46
1040
108.7033330078125
1000
ACAD_MTEXT_DEFINED_HEIGHT_END
  0
INSERT
  5
68C
330
A
100
AcDbEntity
  8
TEMPLATE
100
AcDbBlockReference
  2
block 2
 10
919.2743017702577
 20
8.373076514336368
 30
0.0
 41
0.3809999999999999
 42
0.3809999999999999
 43
0.3809999999999999
  0
LWPOLYLINE
  5
DAC
330
A
100
AcDbEntity
  8
BORDER
100
AcDbPolyline
 90
        4
 70
     1
 43
0.0
 10
0.0
 20
0.0
 10
0.0
 20
2970.0
 10
2100.0
 20
2970.0
 10
2100.0
 20
0.0
  0
MTEXT
  5
121B
330
A
100
AcDbEntity
  8
TEMPLATE
390
1D
100
AcDbMText
 10
1329.20214454799
 20
227.1688729773101
 30
0.0
 40
24.4326171875
 41
0.0
 46
28.390701171875
 71
     1
 72
     1
  1
{59kg}
  7
ＭＳ ゴシック
 73
     1
 44
0.7828267384257843
1001
ACAD
1000
ACAD_MTEXT_DEFINED_HEIGHT_BEGIN
1070
    46
1040
28.390701171875
1000
ACAD_MTEXT_DEFINED_HEIGHT_END
  0
MTEXT
  5
1466
102
{ACAD_XDICTIONARY
360
1468
102
}
330
A
100
AcDbEntity
  8
TEMPLATE
 48
0.05
100
AcDbMText
 10
74.728656548571
 20
83.86172105142839
 30
0.0
 40
22.0
 41
0.0
 46
22.0
 71
     1
 72
     1
  1
{20200302N}
  7
ＭＳ ゴシック
 73
     1
 44
1.0
1001
ACAD
1000
ACAD_MTEXT_DEFINED_HEIGHT_BEGIN
1070
    46
1040
22.0
1000
ACAD_MTEXT_DEFINED_HEIGHT_END
  0
MTEXT
  5
146D
330
A
100
AcDbEntity
  8
TEMPLATE
390
1D
100
AcDbMText
 10
1583.904999862276
 20
227.1688729773101
 30
0.0
 40
24.4326171875
 41
0.0
 46
24.4326171875
 71
     1
 72
     1
  1
{4L}
  7
ＭＳ ゴシック
 73
     1
 44
0.7828267384257843
1001
ACAD
1000
ACAD_MTEXT_DEFINED_HEIGHT_BEGIN
1070
    46
1040
24.4326171875
1000
ACAD_MTEXT_DEFINED_HEIGHT_END
  0
POINT
  5
262A
330
A
100
AcDbEntity
  8
Layer9
  6
Continuous
 62
     7
100
AcDbPoint
 10
1037.460145007193
 20
1010.220672371878
 30
0.0
  0
POINT
  5
262B
330
A
100
AcDbEntity
  8
Layer9
  6
Continuous
 62
     7
100
AcDbPoint
 10
1037.460146257193
 20
1010.220672788578
 30
0.0
  0
POINT
  5
262C
330
A
100
AcDbEntity
  8
Layer9
  6
Continuous
 62
     7
100
AcDbPoint
 10
1037.853693340493
 20
1015.267975288578
 30
0.0
  0
POINT
  5
2812
330
A
100
AcDbEntity
  8
Layer9
  6
Continuous
 62
     7
100
AcDbPoint
 10
925.7934783404928
 20
1010.220672371878
 30
0.0
  0
POINT
  5
2813
330
A
100
AcDbEntity
  8
Layer9
  6
Continuous
 62
     7
100
AcDbPoint
 10
925.7934795904928
 20
1010.220672788578
 30
0.0
  0
POINT
  5
2814
330
A
100
AcDbEntity
  8
Layer9
  6
Continuous
 62
     7
100
AcDbPoint
 10
926.1870266737928
 20
1015.267975288578
 30
0.0
  0
INSERT
  5
28CA
330
A
100
AcDbEntity
  8
Layer3
100
AcDbBlockReference
  2
SEANNOT_GROUP
 10
859.7083018867928
 20
826.1905269541776
 30
0.0
  0
POINT
  5
2A52
330
A
100
AcDbEntity
  8
Standard
  6
Continuous
 62
     7
100
AcDbPoint
 10
1036.111241014893
 20
1018.794321538578
 30
0.0
  0
INSERT
  5
2B9B
330
A
100
AcDbEntity
  8
Layer3
100
AcDbBlockReference
  2
SEANNOT_GROUP1
 10
859.7083018867928
 20
826.1905269541776
 30
0.0
  0
HATCH
  5
369B
102
{ACAD_REACTORS
330
36AC
102
}
330
A
100
AcDbEntity
  8
TEMPLATE
100
AcDbHatch
 10
0.0
 20
0.0
 30
0.0
210
0.0
220
0.0
230
1.0
  2
SOLID
 70
     1
 71
     1
 91
        6
 92
        1
 93
        8
 72
     1
 10
1934.476782902687
 20
153.1053194253001
 11
1934.476782902687
 21
147.1959117946397
 72
     1
 10
1934.476782902687
 20
147.1959117946397
 11
1925.116191352377
 21
147.1959117946397
 72
     1
 10
1925.116191352377
 20
147.1959117946397
 11
1925.116191352377
 21
123.105319426746
 72
     1
 10
1925.116191352377
 20
123.105319426746
 11
1916.883578199102
 21
123.105319426746
 72
     1
 10
1916.883578199102
 20
123.105319426746
 11
1916.883578199102
 21
147.1959117946397
 72
     1
 10
1916.883578199102
 20
147.1959117946397
 11
1907.688876764557
 21
147.1959117946397
 72
     1
 10
1907.688876764557
 20
147.1959117946397
 11
1907.688876764557
 21
153.1053194253001
 72
     1
 10
1907.688876764557
 20
153.1053194253001
 11
1934.476782902687
 21
153.1053194253001
 97
        1
330
369C
 92
        1
 93
        1
 72
     4
 94
        3
 73
     0
 74
     1
 95
       56
 96
       52
 40
0.0
 40
0.0
 40
0.0
 40
0.0
 40
1.0
 40
1.0
 40
1.0
 40
2.0
 40
2.0
 40
2.0
 40
3.0
 40
3.0
 40
3.0
 40
4.0
 40
4.0
 40
4.0
 40
5.0
 40
5.0
 40
5.0
 40
6.0
 40
6.0
 40
6.0
 40
7.0
 40
7.0
 40
7.0
 40
8.0
 40
8.0
 40
8.0
 40
9.0
 40
9.0
 40
9.0
 40
10.0
 40
10.0
 40
10.0
 40
11.0
 40
11.0
 40
11.0
 40
12.0
 40
12.0
 40
12.0
 40
13.0
 40
13.0
 40
13.0
 40
14.0
 40
14.0
 40
14.0
 40
15.0
 40
15.0
 40
15.0
 40
16.0
 40
16.0
 40
16.0
 40
17.0
 40
17.0
 40
17.0
 40
17.0
 10
1947.01896833698
 20
152.3909504648878
 10
1948.1728345189
 20
152.715738018898
 10
1949.662423612235
 20
152.4440650580081
 10
1949.662423612235
 20
152.4440650580081
 10
1949.662423612235
 20
152.4440650580081
 10
1948.946790018651
 20
150.2964947655846
 10
1948.946790018651
 20
150.2964947655846
 10
1948.946790018651
 20
150.2964947655846
 10
1947.484427733556
 20
150.6348957237139
 10
1946.356523726704
 20
149.7454866546012
 10
1945.480058550036
 20
149.0499384113589
 10
1944.912238256914
 20
147.2017886193686
 10
1944.69442379101
 20
146.4990989182278
 10
1944.69442379101
 20
146.4990989182278
 10
1943.723334297183
 20
143.518432927829
 10
1943.723334297183
 20
143.518432927829
 10
1943.723334297183
 20
143.518432927829
 10
1946.907457447503
 20
143.518432927829
 10
1946.907457447503
 20
143.518432927829
 10
1946.907457447503
 20
143.518432927829
 10
1946.412241976351
 20
141.642461206109
 10
1946.412241976351
 20
141.642461206109
 10
1946.412241976351
 20
141.642461206109
 10
1943.202156650962
 20
141.642461206109
 10
1943.202156650962
 20
141.642461206109
 10
1943.202156650962
 20
141.642461206109
 10
1937.458713526257
 20
123.105319426746
 10
1937.458713526257
 20
123.105319426746
 10
1937.458713526257
 20
123.105319426746
 10
1935.660479549369
 20
123.105319426746
 10
1935.660479549369
 20
123.105319426746
 10
1935.660479549369
 20
123.105319426746
 10
1941.409129987127
 20
141.642461206109
 10
1941.409129987127
 20
141.642461206109
 10
1941.409129987127
 20
141.642461206109
 10
1939.040397670409
 20
141.642461206109
 10
1939.040397670409
 20
141.642461206109
 10
1939.040397670409
 20
141.642461206109
 10
1939.536952164915
 20
143.518432927829
 10
1939.536952164915
 20
143.518432927829
 10
1939.536952164915
 20
143.518432927829
 10
1941.930307633347
 20
143.518432927829
 10
1941.930307633347
 20
143.518432927829
 10
1941.930307633347
 20
143.518432927829
 10
1942.77686795507
 20
146.1179236028939
 10
1942.77686795507
 20
146.1179236028939
 10
1943.461406450716
 20
148.2973328951149
 10
1944.042245026465
 20
149.4674161376772
 10
1944.540138544327
 20
150.3496093587049
 10
1945.032750358952
 20
151.232546481597
 10
1946.007708142475
 20
152.0998616653363
 10
1947.01896833698
 20
152.3909504648878
 97
        1
330
36A7
 92
        1
 93
        1
 72
     4
 94
        3
 73
     0
 74
     1
 95
       32
 96
       28
 40
0.0
 40
0.0
 40
0.0
 40
0.0
 40
1.0
 40
1.0
 40
1.0
 40
2.0
 40
2.0
 40
2.0
 40
3.0
 40
3.0
 40
3.0
 40
4.0
 40
4.0
 40
4.0
 40
5.0
 40
5.0
 40
5.0
 40
6.0
 40
6.0
 40
6.0
 40
7.0
 40
7.0
 40
7.0
 40
8.0
 40
8.0
 40
8.0
 40
9.0
 40
9.0
 40
9.0
 40
9.0
 10
1951.394524713372
 20
142.3847264864374
 10
1950.311998720255
 20
140.9844800070205
 10
1949.478382290974
 20
139.7243102486757
 10
1948.128795528524
 20
135.7635535518901
 10
1946.888041608841
 20
132.1406026917421
 10
1946.098464169936
 20
129.5048096056932
 10
1945.979216701069
 20
126.2947242803041
 10
1945.888460673606
 20
123.9059066132458
 10
1947.343086379314
 20
123.105319426746
 10
1949.475853024634
 20
123.105319426746
 10
1950.395018168326
 20
123.105319426746
 10
1952.714504181618
 20
123.1637901132903
 10
1954.3662638814
 20
125.2056519507783
 10
1955.522584939468
 20
126.6401923061455
 10
1956.588298750451
 20
128.1272521331414
 10
1958.017036671275
 20
133.0053142189559
 10
1959.205940631009
 20
137.0833842397621
 10
1960.029142434186
 20
139.7191029356247
 10
1959.968291261677
 20
141.2197761667398
 10
1959.968291261677
 20
141.2197761667398
 10
1959.968291261677
 20
141.2197761667398
 10
1959.968291261677
 20
141.2197761667398
 10
1959.580569609936
 20
143.7233035012931
 10
1957.762919794387
 20
144.2522921170894
 10
1956.724432791643
 20
144.2522921170894
 10
1955.70156772805
 20
144.2522921170894
 10
1952.960735698745
 20
144.4292663706373
 10
1951.394524713372
 20
142.3847264864374
 97
        1
330
36AA
 92
        1
 93
        1
 72
     4
 94
        3
 73
     0
 74
     1
 95
       38
 96
       34
 40
0.0
 40
0.0
 40
0.0
 40
0.0
 40
1.0
 40
1.0
 40
1.0
 40
2.0
 40
2.0
 40
2.0
 40
3.0
 40
3.0
 40
3.0
 40
4.0
 40
4.0
 40
4.0
 40
5.0
 40
5.0
 40
5.0
 40
6.0
 40
6.0
 40
6.0
 40
7.0
 40
7.0
 40
7.0
 40
8.0
 40
8.0
 40
8.0
 40
9.0
 40
9.0
 40
9.0
 40
10.0
 40
10.0
 40
10.0
 40
11.0
 40
11.0
 40
11.0
 40
11.0
 10
1966.542747159137
 20
143.4464976175386
 10
1966.542747159137
 20
143.4464976175386
 10
1968.39149207262
 20
143.4464976175386
 10
1968.39149207262
 20
143.4464976175386
 10
1968.39149207262
 20
143.4464976175386
 10
1967.56561222273
 20
140.8022984404216
 10
1967.56561222273
 20
140.8022984404216
 10
1968.193167835563
 20
141.54456372075
 10
1969.183598777865
 20
142.5331349083912
 10
1970.034176169654
 20
143.0316235477459
 10
1971.304760554101
 20
143.7738888280742
 10
1972.030808773784
 20
143.8717863134333
 10
1972.829313035064
 20
143.8522960845852
 10
1972.829313035064
 20
143.8522960845852
 10
1972.048959979278
 20
141.3520419182353
 10
1972.048959979278
 20
141.3520419182353
 10
1971.540726225497
 20
141.5672527276151
 10
1969.974515240128
 20
141.1575859708734
 10
1969.076030568268
 20
140.5112840310564
 10
1968.265772657532
 20
139.9285113104618
 10
1967.705614553615
 20
139.4326263276327
 10
1967.04190531017
 20
138.1859955832205
 10
1966.383254599404
 20
136.9375050841474
 10
1965.86341597654
 20
134.9467493047458
 10
1964.968799594376
 20
132.058773486655
 10
1964.968799594376
 20
132.058773486655
 10
1962.174852971949
 20
123.105319426746
 10
1962.174852971949
 20
123.105319426746
 10
1962.174852971949
 20
123.105319426746
 10
1960.380561674943
 20
123.105319426746
 10
1960.380561674943
 20
123.105319426746
 10
1960.380561674943
 20
123.105319426746
 10
1966.542747159137
 20
143.4464976175386
 10
1966.542747159137
 20
143.4464976175386
 97
        1
330
36A8
 92
        1
 93
        1
 72
     4
 94
        3
 73
     0
 74
     1
 95
      104
 96
      100
 40
0.0
 40
0.0
 40
0.0
 40
0.0
 40
1.0
 40
1.0
 40
1.0
 40
2.0
 40
2.0
 40
2.0
 40
3.0
 40
3.0
 40
3.0
 40
4.0
 40
4.0
 40
4.0
 40
5.0
 40
5.0
 40
5.0
 40
6.0
 40
6.0
 40
6.0
 40
7.0
 40
7.0
 40
7.0
 40
8.0
 40
8.0
 40
8.0
 40
9.0
 40
9.0
 40
9.0
 40
10.0
 40
10.0
 40
10.0
 40
11.0
 40
11.0
 40
11.0
 40
12.0
 40
12.0
 40
12.0
 40
13.0
 40
13.0
 40
13.0
 40
14.0
 40
14.0
 40
14.0
 40
15.0
 40
15.0
 40
15.0
 40
16.0
 40
16.0
 40
16.0
 40
17.0
 40
17.0
 40
17.0
 40
18.0
 40
18.0
 40
18.0
 40
19.0
 40
19.0
 40
19.0
 40
20.0
 40
20.0
 40
20.0
 40
21.0
 40
21.0
 40
21.0
 40
22.0
 40
22.0
 40
22.0
 40
23.0
 40
23.0
 40
23.0
 40
24.0
 40
24.0
 40
24.0
 40
25.0
 40
25.0
 40
25.0
 40
26.0
 40
26.0
 40
26.0
 40
27.0
 40
27.0
 40
27.0
 40
28.0
 40
28.0
 40
28.0
 40
29.0
 40
29.0
 40
29.0
 40
30.0
 40
30.0
 40
30.0
 40
31.0
 40
31.0
 40
31.0
 40
32.0
 40
32.0
 40
32.0
 40
33.0
 40
33.0
 40
33.0
 40
33.0
 10
1976.718878323425
 20
143.4575073651321
 10
1976.718878323425
 20
143.4575073651321
 10
1978.332996588864
 20
143.4575073651321
 10
1978.332996588864
 20
143.4575073651321
 10
1978.332996588864
 20
143.4575073651321
 10
1977.517531365076
 20
140.810778921676
 10
1977.517531365076
 20
140.810778921676
 10
1978.225279598895
 20
141.920531723033
 10
1978.860571791119
 20
142.4151520726926
 10
1979.704602846502
 20
143.054312554611
 10
1980.551163168223
 20
143.6843974337833
 10
1981.556025806694
 20
143.812794895584
 10
1982.253508194784
 20
143.812794895584
 10
1983.117029479015
 20
143.812794895584
 10
1983.950645908296
 20
143.6422925882567
 10
1984.388804106443
 20
142.6958262461422
 10
1984.72460140805
 20
141.9536353560001
 10
1984.740223347202
 20
141.8660781065566
 10
1984.644260006691
 20
140.4010377747479
 10
1985.521915426345
 20
141.9030500292188
 10
1986.170151511008
 20
142.5500214807137
 10
1987.272167732975
 20
143.1716258786317
 10
1988.42863757142
 20
143.812794895584
 10
1989.102761440966
 20
143.8607765658398
 10
1989.885941323838
 20
143.7453229964802
 10
1991.039733115569
 20
143.5748950793392
 10
1991.776195961356
 20
143.1632197875635
 10
1992.161239566385
 20
141.9121256319649
 10
1992.54762219477
 20
140.6648997660613
 10
1992.338883331611
 20
139.9959088193793
 10
1991.861744675765
 20
138.0103603530286
 10
1991.64393020986
 20
137.1060732466272
 10
1991.328813380087
 20
136.0111240923725
 10
1990.916542966819
 20
134.7082543670094
 10
1990.916542966819
 20
134.7082543670094
 10
1987.272167732975
 20
123.105319426746
 10
1987.272167732975
 20
123.105319426746
 10
1987.272167732975
 20
123.105319426746
 10
1985.376705782409
 20
123.105319426746
 10
1985.376705782409
 20
123.105319426746
 10
1985.376705782409
 20
123.105319426746
 10
1988.567449659321
 20
133.2490164697431
 10
1988.567449659321
 20
133.2490164697431
 10
1989.233836949479
 20
135.3713684889626
 10
1989.684939040069
 20
136.9212880235028
 10
1989.918375445127
 20
137.893047029008
 10
1990.211323999339
 20
139.1052351170969
 10
1990.327967811683
 20
139.505231149601
 10
1990.189304504152
 20
140.3874987608153
 10
1990.062246065708
 20
141.2087664191461
 10
1989.647297605728
 20
141.7435574694851
 10
1988.936871325198
 20
141.7435574694851
 10
1988.17972800758
 20
141.7435574694851
 10
1987.566455310545
 20
141.659273388245
 10
1986.708290119737
 20
140.7971655175569
 10
1985.84997614856
 20
139.9285113104618
 10
1985.140740111011
 20
138.9088450248874
 10
1984.584599077163
 20
137.7361581257997
 10
1984.029648286297
 20
136.5563297688134
 10
1983.466960916042
 20
135.0608638507494
 10
1982.896536966398
 20
133.2490164697431
 10
1982.896536966398
 20
133.2490164697431
 10
1979.704602846502
 20
123.105319426746
 10
1979.704602846502
 20
123.105319426746
 10
1979.704602846502
 20
123.105319426746
 10
1977.921916418581
 20
123.105319426746
 10
1977.921916418581
 20
123.105319426746
 10
1977.921916418581
 20
123.105319426746
 10
1981.571498965475
 20
134.7030470539584
 10
1981.571498965475
 20
134.7030470539584
 10
1981.956542570504
 20
135.9373290274211
 10
1982.245771615394
 20
136.9433819088763
 10
1982.436359273062
 20
137.729686179579
 10
1982.760402925207
 20
139.0832156219098
 10
1982.851158952669
 20
139.9985124759046
 10
1982.606117678524
 20
140.810778921676
 10
1982.364944694076
 20
141.6204417109219
 10
1981.941069411725
 20
141.8272464292334
 10
1981.233172397533
 20
141.8272464292334
 10
1980.639389929345
 20
141.8272464292334
 10
1980.059890376953
 20
141.5724600406662
 10
1979.398710399847
 20
141.0654909200569
 10
1978.566284213549
 20
140.4276694614944
 10
1978.233164958657
 20
139.9038881587491
 10
1977.824762835085
 20
139.2815398589669
 10
1977.273680333915
 20
138.458263665602
 10
1977.015695167332
 20
137.9040567766015
 10
1976.550310160944
 20
136.687926008631
 10
1976.084776374184
 20
135.4646537827621
 10
1975.644088909695
 20
134.0411231749885
 10
1975.336708659311
 20
133.0564946672286
 10
1975.336708659311
 20
133.0564946672286
 10
1972.205774492298
 20
123.105319426746
 10
1972.205774492298
 20
123.105319426746
 10
1972.205774492298
 20
123.105319426746
 10
1970.338878373326
 20
123.105319426746
 10
1970.338878373326
 20
123.105319426746
 10
1970.338878373326
 20
123.105319426746
 10
1976.718878323425
 20
143.4575073651321
 10
1976.718878323425
 20
143.4575073651321
 97
        1
330
36A9
 92
       16
 93
        1
 72
     4
 94
        3
 73
     0
 74
     1
 95
       29
 96
       25
 40
0.0
 40
0.0
 40
0.0
 40
0.0
 40
1.0
 40
1.0
 40
1.0
 40
2.0
 40
2.0
 40
2.0
 40
3.0
 40
3.0
 40
3.0
 40
4.0
 40
4.0
 40
4.0
 40
5.0
 40
5.0
 40
5.0
 40
6.0
 40
6.0
 40
6.0
 40
7.0
 40
7.0
 40
7.0
 40
8.0
 40
8.0
 40
8.0
 40
8.0
 10
1947.916188375669
 20
126.8949043045264
 10
1947.908303015907
 20
128.3120373562658
 10
1948.355685597176
 20
130.8298476066162
 10
1949.501740809517
 20
134.1986815898748
 10
1951.062744481836
 20
138.7603622127471
 10
1951.998870588036
 20
140.4276694614944
 10
1952.818055321147
 20
141.2392663955878
 10
1954.014844640642
 20
142.4210288974216
 10
1955.623755593032
 20
142.4799459250845
 10
1956.098364982539
 20
142.4210288974216
 10
1956.77382787544
 20
142.3399435941987
 10
1957.727956406759
 20
141.8978427161679
 10
1957.784939289575
 20
140.4095182560024
 10
1957.830466083678
 20
139.1357350935386
 10
1957.463424903768
 20
136.7501905946838
 10
1956.178706383896
 20
133.0053142189559
 10
1954.698044112936
 20
128.6536370924121
 10
1953.808635043822
 20
126.9429603649685
 10
1953.095679496951
 20
126.1974219164366
 10
1951.752490290537
 20
124.7997790935452
 10
1950.311998720255
 20
124.9339789898883
 10
1950.0993915674
 20
124.9339789898883
 10
1949.823255195324
 20
124.9339789898883
 10
1947.920056665365
 20
125.2336226608809
 10
1947.916188375669
 20
126.8949043045264
 97
        1
330
36AB
 75
     0
 76
     1
 98
        1
 10
1859.334883625664
 20
72.26751235270598
1001
ACAD
1010
0.0
1020
0.0
1030
0.0
  0
POLYLINE
  5
369C
102
{ACAD_REACTORS
330
369B
330
36AC
102
}
330
A
100
AcDbEntity
  8
TEMPLATE
100
AcDb2dPolyline
 66
     1
 10
0.0
 20
0.0
 30
0.0
  0
VERTEX
  5
369D
330
369C
100
AcDbEntity
  8
TEMPLATE
100
AcDbVertex
100
AcDb2dVertex
 10
1934.476782902687
 20
153.1053194253001
 30
0.0
  0
VERTEX
  5
369E
330
369C
100
AcDbEntity
  8
TEMPLATE
100
AcDbVertex
100
AcDb2dVertex
 10
1934.476782902687
 20
147.1959117946397
 30
0.0
  0
VERTEX
  5
369F
330
369C
100
AcDbEntity
  8
TEMPLATE
100
AcDbVertex
100
AcDb2dVertex
 10
1925.116191352377
 20
147.1959117946397
 30
0.0
  0
VERTEX
  5
36A0
330
369C
100
AcDbEntity
  8
TEMPLATE
100
AcDbVertex
100
AcDb2dVertex
 10
1925.116191352377
 20
123.105319426746
 30
0.0
  0
VERTEX
  5
36A1
330
369C
100
AcDbEntity
  8
TEMPLATE
100
AcDbVertex
100
AcDb2dVertex
 10
1916.883578199102
 20
123.105319426746
 30
0.0
  0
VERTEX
  5
36A2
330
369C
100
AcDbEntity
  8
TEMPLATE
100
AcDbVertex
100
AcDb2dVertex
 10
1916.883578199102
 20
147.1959117946397
 30
0.0
  0
VERTEX
  5
36A3
330
369C
100
AcDbEntity
  8
TEMPLATE
100
AcDbVertex
100
AcDb2dVertex
 10
1907.688876764557
 20
147.1959117946397
 30
0.0
  0
VERTEX
  5
36A4
330
369C
100
AcDbEntity
  8
TEMPLATE
100
AcDbVertex
100
AcDb2dVertex
 10
1907.688876764557
 20
153.1053194253001
 30
0.0
  0
VERTEX
  5
36A5
330
369C
100
AcDbEntity
  8
TEMPLATE
100
AcDbVertex
100
AcDb2dVertex
 10
1934.476782902687
 20
153.1053194253001
 30
0.0
  0
SEQEND
  5
36A6
330
369C
100
AcDbEntity
  8
TEMPLATE
  0
SPLINE
  5
36A7
102
{ACAD_REACTORS
330
369B
330
36AC
102
}
330
A
100
AcDbEntity
  8
TEMPLATE
100
AcDbSpline
210
0.0
220
0.0
230
1.0
 70
    11
 71
     3
 72
    56
 73
    52
 74
     0
 42
0.000000001
 43
0.0000000001
 40
0.0
 40
0.0
 40
0.0
 40
0.0
 40
1.0
 40
1.0
 40
1.0
 40
2.0
 40
2.0
 40
2.0
 40
3.0
 40
3.0
 40
3.0
 40
4.0
 40
4.0
 40
4.0
 40
5.0
 40
5.0
 40
5.0
 40
6.0
 40
6.0
 40
6.0
 40
7.0
 40
7.0
 40
7.0
 40
8.0
 40
8.0
 40
8.0
 40
9.0
 40
9.0
 40
9.0
 40
10.0
 40
10.0
 40
10.0
 40
11.0
 40
11.0
 40
11.0
 40
12.0
 40
12.0
 40
12.0
 40
13.0
 40
13.0
 40
13.0
 40
14.0
 40
14.0
 40
14.0
 40
15.0
 40
15.0
 40
15.0
 40
16.0
 40
16.0
 40
16.0
 40
17.0
 40
17.0
 40
17.0
 40
17.0
 10
1947.01896833698
 20
152.3909504648878
 30
0.0
 10
1948.1728345189
 20
152.715738018898
 30
0.0
 10
1949.662423612235
 20
152.4440650580081
 30
0.0
 10
1949.662423612235
 20
152.4440650580081
 30
0.0
 10
1949.662423612235
 20
152.4440650580081
 30
0.0
 10
1948.946790018651
 20
150.2964947655846
 30
0.0
 10
1948.946790018651
 20
150.2964947655846
 30
0.0
 10
1948.946790018651
 20
150.2964947655846
 30
0.0
 10
1947.484427733556
 20
150.6348957237139
 30
0.0
 10
1946.356523726704
 20
149.7454866546012
 30
0.0
 10
1945.480058550036
 20
149.0499384113589
 30
0.0
 10
1944.912238256914
 20
147.2017886193686
 30
0.0
 10
1944.69442379101
 20
146.4990989182278
 30
0.0
 10
1944.69442379101
 20
146.4990989182278
 30
0.0
 10
1943.723334297183
 20
143.518432927829
 30
0.0
 10
1943.723334297183
 20
143.518432927829
 30
0.0
 10
1943.723334297183
 20
143.518432927829
 30
0.0
 10
1946.907457447503
 20
143.518432927829
 30
0.0
 10
1946.907457447503
 20
143.518432927829
 30
0.0
 10
1946.907457447503
 20
143.518432927829
 30
0.0
 10
1946.412241976351
 20
141.642461206109
 30
0.0
 10
1946.412241976351
 20
141.642461206109
 30
0.0
 10
1946.412241976351
 20
141.642461206109
 30
0.0
 10
1943.202156650962
 20
141.642461206109
 30
0.0
 10
1943.202156650962
 20
141.642461206109
 30
0.0
 10
1943.202156650962
 20
141.642461206109
 30
0.0
 10
1937.458713526257
 20
123.105319426746
 30
0.0
 10
1937.458713526257
 20
123.105319426746
 30
0.0
 10
1937.458713526257
 20
123.105319426746
 30
0.0
 10
1935.660479549369
 20
123.105319426746
 30
0.0
 10
1935.660479549369
 20
123.105319426746
 30
0.0
 10
1935.660479549369
 20
123.105319426746
 30
0.0
 10
1941.409129987127
 20
141.642461206109
 30
0.0
 10
1941.409129987127
 20
141.642461206109
 30
0.0
 10
1941.409129987127
 20
141.642461206109
 30
0.0
 10
1939.040397670409
 20
141.642461206109
 30
0.0
 10
1939.040397670409
 20
141.642461206109
 30
0.0
 10
1939.040397670409
 20
141.642461206109
 30
0.0
 10
1939.536952164915
 20
143.518432927829
 30
0.0
 10
1939.536952164915
 20
143.518432927829
 30
0.0
 10
1939.536952164915
 20
143.518432927829
 30
0.0
 10
1941.930307633347
 20
143.518432927829
 30
0.0
 10
1941.930307633347
 20
143.518432927829
 30
0.0
 10
1941.930307633347
 20
143.518432927829
 30
0.0
 10
1942.77686795507
 20
146.1179236028939
 30
0.0
 10
1942.77686795507
 20
146.1179236028939
 30
0.0
 10
1943.461406450716
 20
148.2973328951149
 30
0.0
 10
1944.042245026465
 20
149.4674161376772
 30
0.0
 10
1944.540138544327
 20
150.3496093587049
 30
0.0
 10
1945.032750358952
 20
151.232546481597
 30
0.0
 10
1946.007708142475
 20
152.0998616653363
 30
0.0
 10
1947.01896833698
 20
152.3909504648878
 30
0.0
  0
SPLINE
  5
36A8
102
{ACAD_REACTORS
330
369B
330
36AC
102
}
330
A
100
AcDbEntity
  8
TEMPLATE
100
AcDbSpline
210
0.0
220
0.0
230
1.0
 70
    11
 71
     3
 72
    38
 73
    34
 74
     0
 42
0.000000001
 43
0.0000000001
 40
0.0
 40
0.0
 40
0.0
 40
0.0
 40
1.0
 40
1.0
 40
1.0
 40
2.0
 40
2.0
 40
2.0
 40
3.0
 40
3.0
 40
3.0
 40
4.0
 40
4.0
 40
4.0
 40
5.0
 40
5.0
 40
5.0
 40
6.0
 40
6.0
 40
6.0
 40
7.0
 40
7.0
 40
7.0
 40
8.0
 40
8.0
 40
8.0
 40
9.0
 40
9.0
 40
9.0
 40
10.0
 40
10.0
 40
10.0
 40
11.0
 40
11.0
 40
11.0
 40
11.0
 10
1966.542747159137
 20
143.4464976175386
 30
0.0
 10
1966.542747159137
 20
143.4464976175386
 30
0.0
 10
1968.39149207262
 20
143.4464976175386
 30
0.0
 10
1968.39149207262
 20
143.4464976175386
 30
0.0
 10
1968.39149207262
 20
143.4464976175386
 30
0.0
 10
1967.56561222273
 20
140.8022984404216
 30
0.0
 10
1967.56561222273
 20
140.8022984404216
 30
0.0
 10
1968.193167835563
 20
141.54456372075
 30
0.0
 10
1969.183598777865
 20
142.5331349083912
 30
0.0
 10
1970.034176169654
 20
143.0316235477459
 30
0.0
 10
1971.304760554101
 20
143.7738888280742
 30
0.0
 10
1972.030808773784
 20
143.8717863134333
 30
0.0
 10
1972.829313035064
 20
143.8522960845852
 30
0.0
 10
1972.829313035064
 20
143.8522960845852
 30
0.0
 10
1972.048959979278
 20
141.3520419182353
 30
0.0
 10
1972.048959979278
 20
141.3520419182353
 30
0.0
 10
1971.540726225497
 20
141.5672527276151
 30
0.0
 10
1969.974515240128
 20
141.1575859708734
 30
0.0
 10
1969.076030568268
 20
140.5112840310564
 30
0.0
 10
1968.265772657532
 20
139.9285113104618
 30
0.0
 10
1967.705614553615
 20
139.4326263276327
 30
0.0
 10
1967.04190531017
 20
138.1859955832205
 30
0.0
 10
1966.383254599404
 20
136.9375050841474
 30
0.0
 10
1965.86341597654
 20
134.9467493047458
 30
0.0
 10
1964.968799594376
 20
132.058773486655
 30
0.0
 10
1964.968799594376
 20
132.058773486655
 30
0.0
 10
1962.174852971949
 20
123.105319426746
 30
0.0
 10
1962.174852971949
 20
123.105319426746
 30
0.0
 10
1962.174852971949
 20
123.105319426746
 30
0.0
 10
1960.380561674943
 20
123.105319426746
 30
0.0
 10
1960.380561674943
 20
123.105319426746
 30
0.0
 10
1960.380561674943
 20
123.105319426746
 30
0.0
 10
1966.542747159137
 20
143.4464976175386
 30
0.0
 10
1966.542747159137
 20
143.4464976175386
 30
0.0
  0
SPLINE
  5
36A9
102
{ACAD_REACTORS
330
369B
330
36AC
102
}
330
A
100
AcDbEntity
  8
TEMPLATE
100
AcDbSpline
210
0.0
220
0.0
230
1.0
 70
    11
 71
     3
 72
   104
 73
   100
 74
     0
 42
0.000000001
 43
0.0000000001
 40
0.0
 40
0.0
 40
0.0
 40
0.0
 40
1.0
 40
1.0
 40
1.0
 40
2.0
 40
2.0
 40
2.0
 40
3.0
 40
3.0
 40
3.0
 40
4.0
 40
4.0
 40
4.0
 40
5.0
 40
5.0
 40
5.0
 40
6.0
 40
6.0
 40
6.0
 40
7.0
 40
7.0
 40
7.0
 40
8.0
 40
8.0
 40
8.0
 40
9.0
 40
9.0
 40
9.0
 40
10.0
 40
10.0
 40
10.0
 40
11.0
 40
11.0
 40
11.0
 40
12.0
 40
12.0
 40
12.0
 40
13.0
 40
13.0
 40
13.0
 40
14.0
 40
14.0
 40
14.0
 40
15.0
 40
15.0
 40
15.0
 40
16.0
 40
16.0
 40
16.0
 40
17.0
 40
17.0
 40
17.0
 40
18.0
 40
18.0
 40
18.0
 40
19.0
 40
19.0
 40
19.0
 40
20.0
 40
20.0
 40
20.0
 40
21.0
 40
21.0
 40
21.0
 40
22.0
 40
22.0
 40
22.0
 40
23.0
 40
23.0
 40
23.0
 40
24.0
 40
24.0
 40
24.0
 40
25.0
 40
25.0
 40
25.0
 40
26.0
 40
26.0
 40
26.0
 40
27.0
 40
27.0
 40
27.0
 40
28.0
 40
28.0
 40
28.0
 40
29.0
 40
29.0
 40
29.0
 40
30.0
 40
30.0
 40
30.0
 40
31.0
 40
31.0
 40
31.0
 40
32.0
 40
32.0
 40
32.0
 40
33.0
 40
33.0
 40
33.0
 40
33.0
 10
1976.718878323425
 20
143.4575073651321
 30
0.0
 10
1976.718878323425
 20
143.4575073651321
 30
0.0
 10
1978.332996588864
 20
143.4575073651321
 30
0.0
 10
1978.332996588864
 20
143.4575073651321
 30
0.0
 10
1978.332996588864
 20
143.4575073651321
 30
0.0
 10
1977.517531365076
 20
140.810778921676
 30
0.0
 10
1977.517531365076
 20
140.810778921676
 30
0.0
 10
1978.225279598895
 20
141.920531723033
 30
0.0
 10
1978.860571791119
 20
142.4151520726926
 30
0.0
 10
1979.704602846502
 20
143.054312554611
 30
0.0
 10
1980.551163168223
 20
143.6843974337833
 30
0.0
 10
1981.556025806694
 20
143.812794895584
 30
0.0
 10
1982.253508194784
 20
143.812794895584
 30
0.0
 10
1983.117029479015
 20
143.812794895584
 30
0.0
 10
1983.950645908296
 20
143.6422925882567
 30
0.0
 10
1984.388804106443
 20
142.6958262461422
 30
0.0
 10
1984.72460140805
 20
141.9536353560001
 30
0.0
 10
1984.740223347202
 20
141.8660781065566
 30
0.0
 10
1984.644260006691
 20
140.4010377747479
 30
0.0
 10
1985.521915426345
 20
141.9030500292188
 30
0.0
 10
1986.170151511008
 20
142.5500214807137
 30
0.0
 10
1987.272167732975
 20
143.1716258786317
 30
0.0
 10
1988.42863757142
 20
143.812794895584
 30
0.0
 10
1989.102761440966
 20
143.8607765658398
 30
0.0
 10
1989.885941323838
 20
143.7453229964802
 30
0.0
 10
1991.039733115569
 20
143.5748950793392
 30
0.0
 10
1991.776195961356
 20
143.1632197875635
 30
0.0
 10
1992.161239566385
 20
141.9121256319649
 30
0.0
 10
1992.54762219477
 20
140.6648997660613
 30
0.0
 10
1992.338883331611
 20
139.9959088193793
 30
0.0
 10
1991.861744675765
 20
138.0103603530286
 30
0.0
 10
1991.64393020986
 20
137.1060732466272
 30
0.0
 10
1991.328813380087
 20
136.0111240923725
 30
0.0
 10
1990.916542966819
 20
134.7082543670094
 30
0.0
 10
1990.916542966819
 20
134.7082543670094
 30
0.0
 10
1987.272167732975
 20
123.105319426746
 30
0.0
 10
1987.272167732975
 20
123.105319426746
 30
0.0
 10
1987.272167732975
 20
123.105319426746
 30
0.0
 10
1985.376705782409
 20
123.105319426746
 30
0.0
 10
1985.376705782409
 20
123.105319426746
 30
0.0
 10
1985.376705782409
 20
123.105319426746
 30
0.0
 10
1988.567449659321
 20
133.2490164697431
 30
0.0
 10
1988.567449659321
 20
133.2490164697431
 30
0.0
 10
1989.233836949479
 20
135.3713684889626
 30
0.0
 10
1989.684939040069
 20
136.9212880235028
 30
0.0
 10
1989.918375445127
 20
137.893047029008
 30
0.0
 10
1990.211323999339
 20
139.1052351170969
 30
0.0
 10
1990.327967811683
 20
139.505231149601
 30
0.0
 10
1990.189304504152
 20
140.3874987608153
 30
0.0
 10
1990.062246065708
 20
141.2087664191461
 30
0.0
 10
1989.647297605728
 20
141.7435574694851
 30
0.0
 10
1988.936871325198
 20
141.7435574694851
 30
0.0
 10
1988.17972800758
 20
141.7435574694851
 30
0.0
 10
1987.566455310545
 20
141.659273388245
 30
0.0
 10
1986.708290119737
 20
140.7971655175569
 30
0.0
 10
1985.84997614856
 20
139.9285113104618
 30
0.0
 10
1985.140740111011
 20
138.9088450248874
 30
0.0
 10
1984.584599077163
 20
137.7361581257997
 30
0.0
 10
1984.029648286297
 20
136.5563297688134
 30
0.0
 10
1983.466960916042
 20
135.0608638507494
 30
0.0
 10
1982.896536966398
 20
133.2490164697431
 30
0.0
 10
1982.896536966398
 20
133.2490164697431
 30
0.0
 10
1979.704602846502
 20
123.105319426746
 30
0.0
 10
1979.704602846502
 20
123.105319426746
 30
0.0
 10
1979.704602846502
 20
123.105319426746
 30
0.0
 10
1977.921916418581
 20
123.105319426746
 30
0.0
 10
1977.921916418581
 20
123.105319426746
 30
0.0
 10
1977.921916418581
 20
123.105319426746
 30
0.0
 10
1981.571498965475
 20
134.7030470539584
 30
0.0
 10
1981.571498965475
 20
134.7030470539584
 30
0.0
 10
1981.956542570504
 20
135.9373290274211
 30
0.0
 10
1982.245771615394
 20
136.9433819088763
 30
0.0
 10
1982.436359273062
 20
137.729686179579
 30
0.0
 10
1982.760402925207
 20
139.0832156219098
 30
0.0
 10
1982.851158952669
 20
139.9985124759046
 30
0.0
 10
1982.606117678524
 20
140.810778921676
 30
0.0
 10
1982.364944694076
 20
141.6204417109219
 30
0.0
 10
1981.941069411725
 20
141.8272464292334
 30
0.0
 10
1981.233172397533
 20
141.8272464292334
 30
0.0
 10
1980.639389929345
 20
141.8272464292334
 30
0.0
 10
1980.059890376953
 20
141.5724600406662
 30
0.0
 10
1979.398710399847
 20
141.0654909200569
 30
0.0
 10
1978.566284213549
 20
140.4276694614944
 30
0.0
 10
1978.233164958657
 20
139.9038881587491
 30
0.0
 10
1977.824762835085
 20
139.2815398589669
 30
0.0
 10
1977.273680333915
 20
138.458263665602
 30
0.0
 10
1977.015695167332
 20
137.9040567766015
 30
0.0
 10
1976.550310160944
 20
136.687926008631
 30
0.0
 10
1976.084776374184
 20
135.4646537827621
 30
0.0
 10
1975.644088909695
 20
134.0411231749885
 30
0.0
 10
1975.336708659311
 20
133.0564946672286
 30
0.0
 10
1975.336708659311
 20
133.0564946672286
 30
0.0
 10
1972.205774492298
 20
123.105319426746
 30
0.0
 10
1972.205774492298
 20
123.105319426746
 30
0.0
 10
1972.205774492298
 20
123.105319426746
 30
0.0
 10
1970.338878373326
 20
123.105319426746
 30
0.0
 10
1970.338878373326
 20
123.105319426746
 30
0.0
 10
1970.338878373326
 20
123.105319426746
 30
0.0
 10
1976.718878323425
 20
143.4575073651321
 30
0.0
 10
1976.718878323425
 20
143.4575073651321
 30
0.0
  0
SPLINE
  5
36AA
102
{ACAD_REACTORS
330
369B
330
36AC
102
}
330
A
100
AcDbEntity
  8
TEMPLATE
100
AcDbSpline
210
0.0
220
0.0
230
1.0
 70
    11
 71
     3
 72
    32
 73
    28
 74
     0
 42
0.000000001
 43
0.0000000001
 40
0.0
 40
0.0
 40
0.0
 40
0.0
 40
1.0
 40
1.0
 40
1.0
 40
2.0
 40
2.0
 40
2.0
 40
3.0
 40
3.0
 40
3.0
 40
4.0
 40
4.0
 40
4.0
 40
5.0
 40
5.0
 40
5.0
 40
6.0
 40
6.0
 40
6.0
 40
7.0
 40
7.0
 40
7.0
 40
8.0
 40
8.0
 40
8.0
 40
9.0
 40
9.0
 40
9.0
 40
9.0
 10
1951.394524713372
 20
142.3847264864374
 30
0.0
 10
1950.311998720255
 20
140.9844800070205
 30
0.0
 10
1949.478382290974
 20
139.7243102486757
 30
0.0
 10
1948.128795528524
 20
135.7635535518901
 30
0.0
 10
1946.888041608841
 20
132.1406026917421
 30
0.0
 10
1946.098464169936
 20
129.5048096056932
 30
0.0
 10
1945.979216701069
 20
126.2947242803041
 30
0.0
 10
1945.888460673606
 20
123.9059066132458
 30
0.0
 10
1947.343086379314
 20
123.105319426746
 30
0.0
 10
1949.475853024634
 20
123.105319426746
 30
0.0
 10
1950.395018168326
 20
123.105319426746
 30
0.0
 10
1952.714504181618
 20
123.1637901132903
 30
0.0
 10
1954.3662638814
 20
125.2056519507783
 30
0.0
 10
1955.522584939468
 20
126.6401923061455
 30
0.0
 10
1956.588298750451
 20
128.1272521331414
 30
0.0
 10
1958.017036671275
 20
133.0053142189559
 30
0.0
 10
1959.205940631009
 20
137.0833842397621
 30
0.0
 10
1960.029142434186
 20
139.7191029356247
 30
0.0
 10
1959.968291261677
 20
141.2197761667398
 30
0.0
 10
1959.968291261677
 20
141.2197761667398
 30
0.0
 10
1959.968291261677
 20
141.2197761667398
 30
0.0
 10
1959.968291261677
 20
141.2197761667398
 30
0.0
 10
1959.580569609936
 20
143.7233035012931
 30
0.0
 10
1957.762919794387
 20
144.2522921170894
 30
0.0
 10
1956.724432791643
 20
144.2522921170894
 30
0.0
 10
1955.70156772805
 20
144.2522921170894
 30
0.0
 10
1952.960735698745
 20
144.4292663706373
 30
0.0
 10
1951.394524713372
 20
142.3847264864374
 30
0.0
  0
SPLINE
  5
36AB
102
{ACAD_REACTORS
330
369B
330
36AC
102
}
330
A
100
AcDbEntity
  8
TEMPLATE
100
AcDbSpline
210
0.0
220
0.0
230
1.0
 70
    11
 71
     3
 72
    29
 73
    25
 74
     0
 42
0.000000001
 43
0.0000000001
 40
0.0
 40
0.0
 40
0.0
 40
0.0
 40
1.0
 40
1.0
 40
1.0
 40
2.0
 40
2.0
 40
2.0
 40
3.0
 40
3.0
 40
3.0
 40
4.0
 40
4.0
 40
4.0
 40
5.0
 40
5.0
 40
5.0
 40
6.0
 40
6.0
 40
6.0
 40
7.0
 40
7.0
 40
7.0
 40
8.0
 40
8.0
 40
8.0
 40
8.0
 10
1947.916188375669
 20
126.8949043045264
 30
0.0
 10
1947.908303015907
 20
128.3120373562658
 30
0.0
 10
1948.355685597176
 20
130.8298476066162
 30
0.0
 10
1949.501740809517
 20
134.1986815898748
 30
0.0
 10
1951.062744481836
 20
138.7603622127471
 30
0.0
 10
1951.998870588036
 20
140.4276694614944
 30
0.0
 10
1952.818055321147
 20
141.2392663955878
 30
0.0
 10
1954.014844640642
 20
142.4210288974216
 30
0.0
 10
1955.623755593032
 20
142.4799459250845
 30
0.0
 10
1956.098364982539
 20
142.4210288974216
 30
0.0
 10
1956.77382787544
 20
142.3399435941987
 30
0.0
 10
1957.727956406759
 20
141.8978427161679
 30
0.0
 10
1957.784939289575
 20
140.4095182560024
 30
0.0
 10
1957.830466083678
 20
139.1357350935386
 30
0.0
 10
1957.463424903768
 20
136.7501905946838
 30
0.0
 10
1956.178706383896
 20
133.0053142189559
 30
0.0
 10
1954.698044112936
 20
128.6536370924121
 30
0.0
 10
1953.808635043822
 20
126.9429603649685
 30
0.0
 10
1953.095679496951
 20
126.1974219164366
 30
0.0
 10
1951.752490290537
 20
124.7997790935452
 30
0.0
 10
1950.311998720255
 20
124.9339789898883
 30
0.0
 10
1950.0993915674
 20
124.9339789898883
 30
0.0
 10
1949.823255195324
 20
124.9339789898883
 30
0.0
 10
1947.920056665365
 20
125.2336226608809
 30
0.0
 10
1947.916188375669
 20
126.8949043045264
 30
0.0
  0
MTEXT
  5
3938
330
A
100
AcDbEntity
  8
DIM
390
1D
100
AcDbMText
 10
1445.294316515096
 20
2329.038442483894
 30
0.0
 40
24.4326171875
 41
0.0
 46
0.0
 71
     1
 72
     1
  1
カウンター切込寸法
  7
ＭＳ ゴシック
 73
     1
 44
0.7828267384257843
  0
CIRCLE
  5
3939
102
{ACAD_REACTORS
330
3B24
102
}
330
A
100
AcDbEntity
  8
MODEL
390
1D
100
AcDbCircle
 10
1426.378004457976
 20
1975.114275617236
 30
0.0
 40
60.0
  0
POLYLINE
  5
393D
330
A
100
AcDbEntity
  8
HIDDEN
 48
0.75
390
1D
100
AcDb2dPolyline
 66
     1
 10
0.0
 20
0.0
 30
0.0
 70
     1
 75
     5
  0
VERTEX
  5
393E
330
393D
100
AcDbEntity
  8
HIDDEN
 48
0.75
390
1D
100
AcDbVertex
100
AcDb2dVertex
 10
1166.39132649193
 20
2175.114275617236
 30
0.0
  0
VERTEX
  5
393F
330
393D
100
AcDbEntity
  8
HIDDEN
 48
0.75
390
1D
100
AcDbVertex
100
AcDb2dVertex
 10
1966.391326491931
 20
2175.114275617236
 30
0.0
  0
VERTEX
  5
3940
330
393D
100
AcDbEntity
  8
HIDDEN
 48
0.75
390
1D
100
AcDbVertex
100
AcDb2dVertex
 10
1966.391326491931
 20
1775.114275617236
 30
0.0
  0
VERTEX
  5
3941
330
393D
100
AcDbEntity
  8
HIDDEN
 48
0.75
390
1D
100
AcDbVertex
100
AcDb2dVertex
 10
1166.39132649193
 20
1775.114275617236
 30
0.0
  0
SEQEND
  5
3942
330
393D
100
AcDbEntity
  8
HIDDEN
 48
0.75
390
1D
  0
SPLINE
  5
3943
330
A
100
AcDbEntity
  8
HIDDEN
 48
0.75
390
1D
100
AcDbSpline
210
0.0
220
0.0
230
1.0
 70
    11
 71
     2
 72
    17
 73
    14
 74
     0
 42
0.000000001
 43
0.000001
 40
0.0
 40
0.0
 40
0.0
 40
1.0
 40
2.0
 40
3.0
 40
4.0
 40
5.0
 40
6.0
 40
7.0
 40
8.0
 40
9.0
 40
10.0
 40
11.0
 40
12.0
 40
12.0
 40
12.0
 10
1306.378004457975
 20
2126.668721279512
 30
0.0
 10
1362.070198274506
 20
2150.114275617236
 30
0.0
 10
1490.685810641445
 20
2150.114275617236
 30
0.0
 10
1602.070198274507
 20
2103.223166941789
 30
0.0
 10
1666.378004457976
 20
2022.005384292682
 30
0.0
 10
1666.378004457976
 20
1928.223166941789
 30
0.0
 10
1602.070198274507
 20
1847.005384292682
 30
0.0
 10
1490.685810641445
 20
1800.114275617236
 30
0.0
 10
1362.070198274506
 20
1800.114275617236
 30
0.0
 10
1250.685810641445
 20
1847.005384292682
 30
0.0
 10
1186.378004457975
 20
1928.223166941789
 30
0.0
 10
1186.378004457975
 20
2022.005384292682
 30
0.0
 10
1250.685810641445
 20
2103.223166941789
 30
0.0
 10
1306.378004457975
 20
2126.668721279512
 30
0.0
  0
CIRCLE
  5
3945
330
A
100
AcDbEntity
  8
HIDDEN
 48
0.75
390
1D
100
AcDbCircle
 10
1426.378004457975
 20
1975.114275617236
 30
0.0
 40
30.00000000000045
  0
DIMENSION
  5
3947
330
A
100
AcDbEntity
  8
DIM
390
1D
100
AcDbDimension
  2
*D34
 10
1063.768626376735
 20
944.2270360706016
 30
0.0
 11
1036.768626376735
 21
984.2270360706016
 31
0.0
 70
    32
 71
     5
 42
80.0
 73
     0
 74
     0
 75
     0
  3
tfrom線あり
100
AcDbAlignedDimension
 13
963.768626376735
 23
1024.227036070602
 33
0.0
 14
963.768626376735
 24
944.2270360706016
 34
0.0
 50
90.0
100
AcDbRotatedDimension
  0
DIMENSION
  5
3948
330
A
100
AcDbEntity
  8
DIM
390
1D
100
AcDbDimension
  2
*D35
 10
1329.133004368037
 20
949.2270360706016
 30
0.0
 11
1302.133004368037
 21
986.7270360706016
 31
0.0
 70
    32
 71
     5
 42
74.99999999999999
 73
     0
 74
     0
 75
     0
  3
tfrom線あり
100
AcDbAlignedDimension
 13
1429.133004368038
 23
1024.227036070602
 33
0.0
 14
1599.133004368036
 24
949.2270360706016
 34
0.0
 50
90.0
100
AcDbRotatedDimension
  0
DIMENSION
  5
3949
330
A
100
AcDbEntity
  8
DIM
390
1D
100
AcDbDimension
  2
*D36
 10
963.768626376735
 20
1676.333862187808
 30
0.0
 11
813.7686263767353
 21
1703.333862187808
 31
0.0
 70
    32
 71
     5
 42
299.9999999999997
 73
     0
 74
     0
 75
     0
  3
tfrom線あり
100
AcDbAlignedDimension
 13
663.7686263767354
 23
1931.622090138811
 33
0.0
 14
963.768626376735
 24
1775.114275617236
 34
0.0
100
AcDbRotatedDimension
  0
DIMENSION
  5
394A
330
A
100
AcDbEntity
  8
DIM
390
1D
100
AcDbDimension
  2
*D37
 10
663.7686263767354
 20
1676.333862187808
 30
0.0
 11
423.7686263767347
 21
1703.333862187808
 31
0.0
 70
    32
 71
     5
 42
480.0000000000013
 73
     0
 74
     0
 75
     0
  3
tfrom線あり
100
AcDbAlignedDimension
 13
183.7686263767341
 23
1930.65596469421
 33
0.0
 14
663.7686263767354
 24
1931.622090138811
 34
0.0
100
AcDbRotatedDimension
  0
DIMENSION
  5
394B
330
A
100
AcDbEntity
  8
DIM
390
1D
100
AcDbDimension
  2
*D38
 10
163.7686263767337
 20
2277.577686201769
 30
0.0
 11
563.7686263767343
 21
2304.577686201769
 31
0.0
 70
    32
 71
     5
 42
800.0000000000014
 73
     0
 74
     0
 75
     0
  3
tfrom線あり
100
AcDbAlignedDimension
 13
963.768626376735
 23
2175.114275617235
 33
0.0
 14
163.7686263767337
 24
2175.114275617235
 34
0.0
100
AcDbRotatedDimension
  0
DIMENSION
  5
394C
330
A
100
AcDbEntity
  8
DIM
390
1D
100
AcDbDimension
  2
*D39
 10
1055.380500361062
 20
2175.114275617235
 30
0.0
 11
1055.380500361062
 21
1986.724185032778
 31
0.0
 70
   160
 71
     5
 42
399.9999999999993
 73
     0
 74
     0
 75
     0
  3
tfrom線あり
100
AcDbAlignedDimension
 13
963.768626376735
 23
1775.114275617236
 33
0.0
 14
963.768626376735
 24
2175.114275617235
 34
0.0
 50
90.0
100
AcDbRotatedDimension
  0
DIMENSION
  5
394D
330
A
100
AcDbEntity
  8
DIM
390
1D
100
AcDbDimension
  2
*D40
 10
135.2718217079948
 20
2150.114275617236
 30
0.0
 11
135.2718217079948
 21
1979.468184980592
 31
0.0
 70
   160
 71
     5
 42
349.9999999999995
 73
     0
 74
     0
 75
     0
  3
tfrom線あり
100
AcDbAlignedDimension
 13
374.2938817707756
 23
1800.114275617236
 33
0.0
 14
374.2938817707756
 24
2150.114275617236
 34
0.0
 50
90.0
100
AcDbRotatedDimension
  0
DIMENSION
  5
394F
330
A
100
AcDbEntity
  8
DIM
390
1D
100
AcDbDimension
  2
*D42
 10
163.7686263767337
 20
844.2270360706016
 30
0.0
 11
293.7686263767339
 21
871.2270360706016
 31
0.0
 70
    32
 71
     5
 42
260.0000000000005
 73
     0
 74
     0
 75
     0
  3
tfrom線あり
100
AcDbAlignedDimension
 13
423.7686263767341
 23
944.2270360706016
 33
0.0
 14
163.7686263767337
 24
944.2270360706016
 34
0.0
100
AcDbRotatedDimension
  0
DIMENSION
  5
3950
330
A
100
AcDbEntity
  8
DIM
390
1D
100
AcDbDimension
  2
*D43
 10
1429.133004368038
 20
844.2270360706016
 30
0.0
 11
1529.133004368037
 21
871.2270360706016
 31
0.0
 70
    32
 71
     5
 42
199.9999999999982
 73
     0
 74
     0
 75
     0
  3
tfrom線あり
100
AcDbAlignedDimension
 13
1629.133004368036
 23
944.2270360706016
 33
0.0
 14
1429.133004368038
 24
944.2270360706016
 34
0.0
100
AcDbRotatedDimension
  0
DIMENSION
  5
3952
330
A
100
AcDbEntity
  8
DIM
390
1D
100
AcDbDimension
  2
*D45
 10
1637.133004368036
 20
1024.227036070602
 30
0.0
 11
1637.133004368036
 21
1117.427036070602
 31
0.0
 70
   160
 71
     5
 42
70.0
 73
     0
 74
     1
 75
     1
  3
tfrom線あり
100
AcDbAlignedDimension
 13
1648.133004368036
 23
954.2270360706016
 33
0.0
 14
1648.133004368036
 24
1024.227036070602
 34
0.0
 50
90.0
100
AcDbRotatedDimension
1001
ACAD
1000
DSTYLE
1002
{
1070
     3
1000
<>(深さ)
1070
   172
1070
     1
1002
}
  0
POLYLINE
  5
3953
330
A
100
AcDbEntity
  8
MODEL
390
1D
100
AcDb2dPolyline
 66
     1
 10
0.0
 20
0.0
 30
0.0
 70
     1
 75
     5
  0
VERTEX
  5
3954
330
3953
100
AcDbEntity
  8
MODEL
390
1D
100
AcDbVertex
100
AcDb2dVertex
 10
163.7686263767337
 20
2175.114275617235
 30
0.0
  0
VERTEX
  5
3955
330
3953
100
AcDbEntity
  8
MODEL
390
1D
100
AcDbVertex
100
AcDb2dVertex
 10
963.768626376735
 20
2175.114275617235
 30
0.0
  0
VERTEX
  5
3956
330
3953
100
AcDbEntity
  8
MODEL
390
1D
100
AcDbVertex
100
AcDb2dVertex
 10
963.768626376735
 20
1775.114275617236
 30
0.0
  0
VERTEX
  5
3957
330
3953
100
AcDbEntity
  8
MODEL
390
1D
100
AcDbVertex
100
AcDb2dVertex
 10
163.7686263767337
 20
1775.114275617236
 30
0.0
  0
SEQEND
  5
3958
330
3953
100
AcDbEntity
  8
MODEL
390
1D
  0
SPLINE
  5
3959
330
A
100
AcDbEntity
  8
MODEL
390
1D
100
AcDbSpline
210
0.0
220
0.0
230
1.0
 70
    11
 71
     2
 72
    17
 73
    14
 74
     0
 42
0.000000001
 43
0.000001
 40
0.0
 40
0.0
 40
0.0
 40
1.0
 40
2.0
 40
3.0
 40
4.0
 40
5.0
 40
6.0
 40
7.0
 40
8.0
 40
9.0
 40
10.0
 40
11.0
 40
12.0
 40
12.0
 40
12.0
 10
303.7553043427788
 20
2126.668721279511
 30
0.0
 10
359.4474981593098
 20
2150.114275617235
 30
0.0
 10
488.0631105262491
 20
2150.114275617235
 30
0.0
 10
599.4474981593103
 20
2103.223166941789
 30
0.0
 10
663.7553043427797
 20
2022.005384292682
 30
0.0
 10
663.7553043427797
 20
1928.223166941789
 30
0.0
 10
599.4474981593103
 20
1847.005384292682
 30
0.0
 10
488.0631105262491
 20
1800.114275617236
 30
0.0
 10
359.4474981593098
 20
1800.114275617236
 30
0.0
 10
248.0631105262482
 20
1847.005384292682
 30
0.0
 10
183.7553043427788
 20
1928.223166941789
 30
0.0
 10
183.7553043427788
 20
2022.005384292682
 30
0.0
 10
248.0631105262482
 20
2103.223166941789
 30
0.0
 10
303.7553043427788
 20
2126.668721279511
 30
0.0
  0
CIRCLE
  5
395B
330
A
100
AcDbEntity
  8
MODEL
390
1D
100
AcDbCircle
 10
423.7553043427788
 20
1975.114275617236
 30
0.0
 40
30.00000000000045
  0
POLYLINE
  5
395C
330
A
100
AcDbEntity
  8
MODEL
390
1D
100
AcDb2dPolyline
 66
     1
 10
0.0
 20
0.0
 30
0.0
 70
     1
 75
     5
  0
VERTEX
  5
395D
330
395C
100
AcDbEntity
  8
MODEL
390
1D
100
AcDbVertex
100
AcDb2dVertex
 10
163.7686263767337
 20
1024.227036070602
 30
0.0
  0
VERTEX
  5
395E
330
395C
100
AcDbEntity
  8
MODEL
390
1D
100
AcDbVertex
100
AcDb2dVertex
 10
963.768626376735
 20
1024.227036070602
 30
0.0
  0
VERTEX
  5
395F
330
395C
100
AcDbEntity
  8
MODEL
390
1D
100
AcDbVertex
100
AcDb2dVertex
 10
963.768626376735
 20
944.2270360706016
 30
0.0
  0
VERTEX
  5
3960
330
395C
100
AcDbEntity
  8
MODEL
390
1D
100
AcDbVertex
100
AcDb2dVertex
 10
163.7686263767337
 20
944.2270360706016
 30
0.0
  0
SEQEND
  5
3961
330
395C
100
AcDbEntity
  8
MODEL
390
1D
  0
POLYLINE
  5
3962
330
A
100
AcDbEntity
  8
MODEL
390
1D
100
AcDb2dPolyline
 66
     1
 10
0.0
 20
0.0
 30
0.0
 70
     1
 75
     5
  0
VERTEX
  5
3963
330
3962
100
AcDbEntity
  8
MODEL
390
1D
100
AcDbVertex
100
AcDb2dVertex
 10
1429.133004368038
 20
1024.227036070602
 30
0.0
  0
VERTEX
  5
3964
330
3962
100
AcDbEntity
  8
MODEL
390
1D
100
AcDbVertex
100
AcDb2dVertex
 10
1829.133004368036
 20
1024.227036070602
 30
0.0
  0
VERTEX
  5
3965
330
3962
100
AcDbEntity
  8
MODEL
390
1D
100
AcDbVertex
100
AcDb2dVertex
 10
1829.133004368036
 20
944.2270360706016
 30
0.0
  0
VERTEX
  5
3966
330
3962
100
AcDbEntity
  8
MODEL
390
1D
100
AcDbVertex
100
AcDb2dVertex
 10
1429.133004368038
 20
944.2270360706016
 30
0.0
  0
SEQEND
  5
3967
330
3962
100
AcDbEntity
  8
MODEL
390
1D
  0
LINE
  5
3968
330
A
100
AcDbEntity
  8
HIDDEN
 48
0.75
390
1D
100
AcDbLine
 10
453.7686263767346
 20
954.2270360706016
 30
0.0
 11
453.7686263767346
 21
949.2270360706016
 31
0.0
  0
LINE
  5
3969
330
A
100
AcDbEntity
  8
HIDDEN
 48
0.75
390
1D
100
AcDbLine
 10
1659.133004368036
 20
954.2270360706016
 30
0.0
 11
1659.133004368036
 21
949.2270360706016
 31
0.0
  0
ARC
  5
396A
330
A
100
AcDbEntity
  8
HIDDEN
 48
0.75
390
1D
100
AcDbCircle
 10
1624.216674732283
 20
1211.732290316091
 30
0.0
 40
259.861705603705
100
AcDbArc
 50
277.7219051015741
 51
313.8167501471035
  0
ARC
  5
396B
330
A
100
AcDbEntity
  8
HIDDEN
 48
0.75
390
1D
100
AcDbCircle
 10
1634.04933400379
 20
1211.732290316091
 30
0.0
 40
259.8617056037045
100
AcDbArc
 50
226.1832498528968
 51
262.2780948984259
  0
LINE
  5
396C
330
A
100
AcDbEntity
  8
HIDDEN
 48
0.75
390
1D
100
AcDbLine
 10
1599.133004368036
 20
954.2270360706016
 30
0.0
 11
1599.133004368036
 21
949.2270360706016
 31
0.0
  0
LINE
  5
396D
330
A
100
AcDbEntity
  8
HIDDEN
 48
0.75
390
1D
100
AcDbLine
 10
1659.133004368036
 20
949.2270360706016
 30
0.0
 11
1599.133004368036
 21
949.2270360706016
 31
0.0
  0
LINE
  5
396E
330
A
100
AcDbEntity
  8
HIDDEN
 48
0.75
390
1D
100
AcDbLine
 10
453.7686263767346
 20
949.2270360706016
 30
0.0
 11
393.7686263767341
 21
949.2270360706016
 31
0.0
  0
ARC
  5
396F
330
A
100
AcDbEntity
  8
HIDDEN
 48
0.75
390
1D
100
AcDbCircle
 10
453.7686263767346
 20
1319.405607499172
 30
0.0
 40
365.1785714285705
100
AcDbArc
 50
270.0
 51
306.0685711342599
  0
ARC
  5
3970
330
A
100
AcDbEntity
  8
HIDDEN
 48
0.75
390
1D
100
AcDbCircle
 10
393.7686263767341
 20
1319.405607499172
 30
0.0
 40
365.1785714285705
100
AcDbArc
 50
233.9314288657401
 51
270.0
  0
LINE
  5
3971
330
A
100
AcDbEntity
  8
HIDDEN
 48
0.75
390
1D
100
AcDbLine
 10
393.7686263767341
 20
954.2270360706016
 30
0.0
 11
393.7686263767341
 21
949.2270360706016
 31
0.0
  0
POLYLINE
  5
3972
330
A
100
AcDbEntity
  8
MODEL
390
1D
100
AcDb2dPolyline
 66
     1
 10
0.0
 20
0.0
 30
0.0
 70
     1
 75
     5
  0
VERTEX
  5
3973
330
3972
100
AcDbEntity
  8
MODEL
390
1D
100
AcDbVertex
100
AcDb2dVertex
 10
163.7686263767337
 20
2175.114275617235
 30
0.0
  0
VERTEX
  5
3974
330
3972
100
AcDbEntity
  8
MODEL
390
1D
100
AcDbVertex
100
AcDb2dVertex
 10
963.768626376735
 20
2175.114275617235
 30
0.0
  0
VERTEX
  5
3975
330
3972
100
AcDbEntity
  8
MODEL
390
1D
100
AcDbVertex
100
AcDb2dVertex
 10
963.768626376735
 20
1775.114275617236
 30
0.0
  0
VERTEX
  5
3976
330
3972
100
AcDbEntity
  8
MODEL
390
1D
100
AcDbVertex
100
AcDb2dVertex
 10
163.7686263767337
 20
1775.114275617236
 30
0.0
  0
SEQEND
  5
3977
330
3972
100
AcDbEntity
  8
MODEL
390
1D
  0
MTEXT
  5
3A24
330
A
100
AcDbEntity
  8
TEMPLATE
 62
     7
390
1D
100
AcDbMText
 10
1330.625246388573
 20
445.6161195894809
 30
0.0
 40
23.5469713560537
 41
0.0
 46
51.82607914765337
 71
     1
 72
     1
  1
{\pxsm1;\H1x;KUF70-0202\H1.038x;-003 ブラックマーブル \P\H0.963391x;KUF70-0202\H1.038x;-005 クリームマーブル}
  7
ＭＳ ゴシック
 73
     1
 44
1.304711230709641
1001
ACAD
1000
ACAD_MTEXT_DEFINED_HEIGHT_BEGIN
1070
    46
1040
51.82607914765337
1000
ACAD_MTEXT_DEFINED_HEIGHT_END
  0
MTEXT
  5
3A26
330
A
100
AcDbEntity
  8
DIM
 62
     7
390
1D
100
AcDbMText
 10
1234.833376163477
 20
1602.468750007888
 30
0.0
 40
24.4326171875
 41
1301.814267882819
 46
130.7869166980422
 71
     1
 72
     1
  1
{{\C256;※ 製品によって多少の寸法公差があります。\P   必ず現物を合わせて取り付けや\P   カウンターの切込を行ってください。}}
  7
ＭＳ ゴシック
 73
     1
 44
1.174240107638676
1001
ACAD
1000
ACAD_MTEXT_DEFINED_HEIGHT_BEGIN
1070
    46
1040
130.7869166980422
1000
ACAD_MTEXT_DEFINED_HEIGHT_END
  0
LINE
  5
3ABF
330
A
100
AcDbEntity
  8
DIM
100
AcDbLine
 10
1475.233182685336
 20
1940.283663214166
 30
0.0
 11
1513.230161018799
 21
1891.12119580425
 31
0.0
  0
LINE
  5
3AC0
330
A
100
AcDbEntity
  8
DIM
100
AcDbLine
 10
1513.230161018799
 20
1891.12119580425
 30
0.0
 11
1616.025908324341
 21
1891.12119580425
 31
0.0
  0
MTEXT
  5
3AC1
330
A
100
AcDbEntity
  8
DIM
390
1D
100
AcDbMText
 10
1528.20220703378
 20
1930.378444697079
 30
0.0
 40
24.4326171875
 41
0.0
 46
24.4326171875
 71
     1
 72
     1
  1
{Ø120}
  7
ＭＳ ゴシック
 73
     1
 44
0.7828267384257843
1001
ACAD
1000
ACAD_MTEXT_DEFINED_HEIGHT_BEGIN
1070
    46
1040
24.4326171875
1000
ACAD_MTEXT_DEFINED_HEIGHT_END
  0
HATCH
  5
3B24
330
A
100
AcDbEntity
  8
DIM
100
AcDbHatch
 10
0.0
 20
0.0
 30
0.0
210
0.0
220
0.0
230
1.0
  2
ANSI31
 70
     0
 71
     1
 91
        1
 92
        1
 93
        1
 72
     2
 10
1426.378004457976
 20
1975.114275617236
 40
60.0
 50
0.0
 51
360.0
 73
     1
 97
        1
330
3939
 75
     0
 76
     1
 52
0.0
 41
6.0
 77
     0
 78
     1
 53
45.0
 43
0.0
 44
0.0
 45
-13.47038418160373
 46
13.47038418160373
 79
     0
 98
        1
 10
0.0
 20
0.0
1001
ACAD
1010
0.0
1020
0.0
1030
0.0
  0
VIEWPORT
  5
349
330
B
100
AcDbEntity
 67
     1
  8
0
100
AcDbViewport
 10
202.5
 20
128.5
 30
0.0
 40
486.0
 41
308.4
 68
     1
 69
     1
 12
202.5
 22
128.5
 13
0.0
 23
0.0
 14
0.5
 24
0.5
 15
0.0
 25
0.0
 16
0.0
 26
0.0
 36
1.0
 17
0.0
 27
0.0
 37
0.0
 42
50.0
 43
0.0
 44
0.0
 45
308.4
 50
0.0
 51
0.0
 72
   100
 90
   557152
  1

281
     0
 71
     1
 74
     0
110
0.0
120
0.0
130
0.0
111
1.0
121
0.0
131
0.0
112
0.0
122
1.0
132
0.0
 79
     0
146
0.0
170
     0
 61
     5
348
26C
292
     1
282
     1
141
0.0
142
0.0
 63
   256
  0
VIEWPORT
  5
34A
330
B
100
AcDbEntity
 67
     1
  8
0
100
AcDbViewport
 10
202.5
 20
128.5
 30
0.0
 40
324.0
 41
205.6
 68
     2
 69
     2
 12
986.6781359294573
 22
1427.077061889956
 13
0.0
 23
0.0
 14
0.5
 24
0.5
 15
0.0
 25
0.0
 16
0.0
 26
0.0
 36
1.0
 17
0.0
 27
0.0
 37
0.0
 42
50.0
 43
0.0
 44
0.0
 45
2890.021615685494
 50
0.0
 51
0.0
 72
   100
 90
   557152
  1

281
     0
 71
     1
 74
     0
110
0.0
120
0.0
130
0.0
111
1.0
121
0.0
131
0.0
112
0.0
122
1.0
132
0.0
 79
     0
146
0.0
170
     0
 61
     5
348
26C
292
     1
282
     1
141
0.0
142
0.0
 63
   256
  0
ENDSEC
  0
SECTION
  2
OBJECTS
  0
DICTIONARY
  5
19
330
0
100
AcDbDictionary
281
     1
  3
ACAD_COLOR
350
674
  3
ACAD_DETAILVIEWSTYLE
350
BBF
  3
ACAD_FIELDLIST
350
146A
  3
ACAD_GROUP
350
1A
  3
ACAD_IMAGE_VARS
350
27B
  3
ACAD_LAYOUT
350
1E
  3
ACAD_MATERIAL
350
263
  3
ACAD_MLEADERSTYLE
350
336
  3
ACAD_MLINESTYLE
350
1B
  3
ACAD_PLOTSETTINGS
350
22
  3
ACAD_PLOTSTYLENAME
350
1F
  3
ACAD_SCALELIST
350
241
  3
ACAD_SECTIONVIEWSTYLE
350
BC0
  3
ACAD_TABLESTYLE
350
278
  3
ACAD_VISUALSTYLE
350
267
  3
ACDB_RECOMPOSE_DATA
350
3B37
  3
AcDbVariableDictionary
350
330
  3
APPDATA
350
27A
  3
DimOffsetDictionary
350
E3E
  0
SUN
  5
904
330
15
100
AcDbSun
 90
        1
290
     0
 63
     7
421
 16777215
 40
1.0
291
     1
 91
  2455826
 92
 54000000
292
     0
 70
     2
 71
   256
280
     1
  0
DICTIONARY
  5
2E1
330
2
100
AcDbDictionary
280
     1
281
     1
  3
ACAD_LAYERSTATES
360
2E2
  3
ACLYDICTIONARY
360
DF9
  0
DICTIONARY
  5
374D
330
A
100
AcDbDictionary
280
     1
281
     1
  3
ACAD_SORTENTS
360
374E
  0
DICTIONARY
  5
1468
330
1466
100
AcDbDictionary
280
     1
281
     1
  3
ACAD_FIELD
360
3B25
  0
DICTIONARY
  5
674
102
{ACAD_REACTORS
330
19
102
}
330
19
100
AcDbDictionary
281
     1
  0
DICTIONARY
  5
BBF
102
{ACAD_REACTORS
330
19
102
}
330
19
100
AcDbDictionary
281
     1
  0
FIELDLIST
  5
146A
102
{ACAD_REACTORS
330
19
102
}
330
19
100
AcDbIdSet
 90
        2
330
146B
330
1467
100
AcDbFieldList
  0
DICTIONARY
  5
1A
102
{ACAD_REACTORS
330
19
102
}
330
19
100
AcDbDictionary
281
     1
  3
*A1
350
36AC
  3
*A2
350
36BC
  0
RASTERVARIABLES
  5
27B
102
{ACAD_REACTORS
330
19
102
}
330
19
100
AcDbRasterVariables
 90
        0
 70
     1
 71
     1
 72
     1
  0
DICTIONARY
  5
1E
102
{ACAD_REACTORS
330
19
102
}
330
19
100
AcDbDictionary
281
     1
  3
Layout1
350
21
  3
Model
350
20
  0
DICTIONARY
  5
263
102
{ACAD_REACTORS
330
19
102
}
330
19
100
AcDbDictionary
281
     1
  3
ByBlock
350
265
  3
ByLayer
350
264
  3
Global
350
266
  0
DICTIONARY
  5
336
102
{ACAD_REACTORS
330
19
102
}
330
19
100
AcDbDictionary
281
     1
  3
Standard
350
DAB
  0
DICTIONARY
  5
1B
102
{ACAD_REACTORS
330
19
102
}
330
19
100
AcDbDictionary
281
     1
  3
Standard
350
1C
  0
DICTIONARY
  5
22
102
{ACAD_REACTORS
330
19
102
}
330
19
100
AcDbDictionary
281
     1
  0
ACDBDICTIONARYWDFLT
  5
1F
102
{ACAD_REACTORS
330
19
102
}
330
19
100
AcDbDictionary
281
     1
  3
Normal
350
1D
100
AcDbDictionaryWithDefault
340
1D
  0
DICTIONARY
  5
241
102
{ACAD_REACTORS
330
19
102
}
330
19
100
AcDbDictionary
281
     1
  3
A0
350
242
  3
A1
350
243
  3
A2
350
244
  3
A3
350
245
  3
A4
350
246
  3
A5
350
247
  3
A6
350
248
  3
A7
350
249
  3
A8
350
24A
  3
A9
350
24B
  3
B0
350
24C
  3
B1
350
24D
  3
B2
350
24E
  3
B3
350
24F
  3
B4
350
250
  3
B5
350
251
  3
B6
350
252
  3
B7
350
253
  3
B8
350
254
  3
B9
350
255
  3
C0
350
256
  3
C1
350
257
  3
C2
350
258
  3
C3
350
259
  3
C4
350
25A
  3
C5
350
25B
  3
C6
350
25C
  3
C7
350
25D
  3
C8
350
25E
  3
C9
350
25F
  3
D0
350
260
  3
D1
350
261
  3
D2
350
262
  0
DICTIONARY
  5
BC0
102
{ACAD_REACTORS
330
19
102
}
330
19
100
AcDbDictionary
281
     1
  0
DICTIONARY
  5
278
102
{ACAD_REACTORS
330
19
102
}
330
19
100
AcDbDictionary
281
     1
  3
Standard
350
279
  0
DICTIONARY
  5
267
102
{ACAD_REACTORS
330
19
102
}
330
19
100
AcDbDictionary
281
     1
  3
2dWireframe
350
26C
  3
3D Hidden
350
26E
  3
3dWireframe
350
26D
  3
Basic
350
26F
  3
Brighten
350
273
  3
ColorChange
350
277
  3
Conceptual
350
271
  3
Dim
350
272
  3
EdgeColorOff
350
8FE
  3
Facepattern
350
276
  3
Flat
350
268
  3
FlatWithEdges
350
269
  3
Gouraud
350
26A
  3
GouraudWithEdges
350
26B
  3
Hidden
350
8FB
  3
JitterOff
350
8FC
  3
Linepattern
350
275
  3
OverhangOff
350
8FD
  3
Realistic
350
270
  3
Shaded
350
903
  3
Shaded with edges
350
902
  3
Shades of Gray
350
8FF
  3
Sketchy
350
900
  3
Thicken
350
274
  3
Wireframe
350
8FA
  3
X-Ray
350
901
  0
XRECORD
  5
3B37
102
{ACAD_REACTORS
330
19
102
}
330
19
100
AcDbXrecord
280
     1
 90
        1
330
279
  0
DICTIONARY
  5
330
102
{ACAD_REACTORS
330
19
102
}
330
19
100
AcDbDictionary
281
     1
  3
CANNOSCALE
350
331
  3
CMLEADERSTYLE
350
DB1
  3
CTABLESTYLE
350
335
  3
HPTRANSPARENCY
350
D52
  3
XCLIPFRAME
350
896
  0
DICTIONARY
  5
27A
102
{ACAD_REACTORS
330
19
102
}
330
19
100
AcDbDictionary
281
     1
  0
DICTIONARY
  5
E3E
102
{ACAD_REACTORS
330
19
102
}
330
19
100
AcDbDictionary
281
     1
  3
DIMRAILANGLE
350
ECE
  3
DIMRAILFIRSTOFFSET
350
ECC
  3
DIMRAILOFFSET
350
ECD
  3
DIMRAILSENABLED
350
ECF
  0
DICTIONARY
  5
2E2
102
{ACAD_REACTORS
330
2E1
102
}
330
2E1
100
AcDbDictionary
281
     1
  0
DICTIONARY
  5
DF9
102
{ACAD_REACTORS
330
2E1
102
}
330
2E1
100
AcDbDictionary
281
     1
1001
ACAD
1000
<All
  0
SORTENTSTABLE
  5
374E
102
{ACAD_REACTORS
330
374D
102
}
330
374D
100
AcDbSortentsTable
330
A
331
0
  5
3733
331
0
  5
3732
331
369B
  5
35AE
331
369C
  5
369A
331
36A7
  5
369B
331
36A8
  5
369C
331
36A9
  5
36A7
331
36AA
  5
36A8
331
36AB
  5
36A9
331
0
  5
36AB
331
0
  5
3728
331
0
  5
3729
331
0
  5
372A
331
0
  5
372B
331
0
  5
372E
331
0
  5
3731
331
3939
  5
3943
331
0
  5
3944
331
0
  5
3945
331
0
  5
3946
331
393D
  5
3947
331
3943
  5
3948
331
0
  5
3949
331
3945
  5
394A
331
0
  5
394B
331
3947
  5
394C
331
3948
  5
394D
331
3949
  5
394E
331
394A
  5
394F
331
394B
  5
3950
331
394C
  5
3951
331
394D
  5
3952
331
0
  5
3953
331
394F
  5
3959
331
3950
  5
395A
331
0
  5
395B
331
3952
  5
395C
331
3953
  5
3962
331
3959
  5
3968
331
0
  5
3969
331
395B
  5
396A
331
395C
  5
396B
331
3962
  5
396C
331
3968
  5
396D
331
3969
  5
396E
331
396A
  5
396F
331
396B
  5
3970
331
396C
  5
3971
331
396D
  5
3972
331
396E
  5
3A24
331
396F
  5
3A26
331
3970
  5
3A4B
331
3971
  5
3A4C
331
3972
  5
3A4D
331
3A24
  5
3A88
331
3A26
  5
3A89
331
0
  5
3A8A
331
0
  5
3A8B
331
0
  5
3ABD
331
0
  5
3ABE
331
0
  5
3ABF
331
0
  5
3AC0
331
0
  5
3AC1
331
0
  5
3AC5
331
0
  5
3AC6
331
3ABF
  5
3AC7
331
3AC0
  5
3B08
331
3AC1
  5
3B09
331
0
  5
3939
331
0
  5
393A
331
0
  5
393B
331
0
  5
3B13
331
0
  5
3B23
331
0
  5
3B24
331
0
  5
393C
331
3B24
  5
393D
  0
DICTIONARY
  5
3B25
102
{ACAD_REACTORS
330
1468
102
}
330
1468
100
AcDbDictionary
280
     1
281
     1
  3
TEXT
360
1467
  0
GROUP
  5
36AC
102
{ACAD_REACTORS
330
1A
102
}
330
1A
100
AcDbGroup
300

 70
     1
 71
     1
340
369B
340
369C
340
36A7
340
36A8
340
36A9
340
36AA
340
36AB
  0
GROUP
  5
36BC
102
{ACAD_REACTORS
330
1A
102
}
330
1A
100
AcDbGroup
300

 70
     1
 71
     1
  0
LAYOUT
  5
21
102
{ACAD_REACTORS
330
1E
102
}
330
1E
100
AcDbPlotSettings
  1

  2
none_device
  4
ISO_A3_(420.00_x_297.00_MM)
  6

 40
7.5
 41
20.0
 42
7.5
 43
20.0
 44
420.0
 45
297.0
 46
0.0
 47
0.0
 48
0.0
 49
0.0
140
0.0
141
0.0
142
1.0
143
1.0
 70
     0
 72
     1
 73
     0
 74
     0
  7

 75
     0
 76
     0
 77
     2
 78
   300
147
1.0
148
0.0
149
0.0
100
AcDbLayout
  1
Layout1
 70
     0
 71
     0
 10
-7.5
 20
-20.0
 11
412.5
 21
277.0
 12
0.0
 22
0.0
 32
0.0
 14
0.0
 24
0.0
 34
0.0
 15
0.0
 25
0.0
 35
0.0
146
0.0
 13
0.0
 23
0.0
 33
0.0
 16
0.0
 26
0.0
 36
0.0
 17
0.0
 27
0.0
 37
0.0
 76
     0
330
B
331
349
  0
LAYOUT
  5
20
102
{ACAD_REACTORS
330
1E
102
}
330
1E
100
AcDbPlotSettings
  1

  2
none_device
  4
ISO_A3_(420.00_x_297.00_MM)
  6

 40
7.5
 41
20.0
 42
7.5
 43
20.0
 44
420.0
 45
297.0
 46
0.0
 47
0.0
 48
0.0
 49
0.0
140
0.0
141
0.0
142
1.0
143
1.0
 70
  1024
 72
     1
 73
     0
 74
     0
  7

 75
     0
 76
     0
 77
     2
 78
   300
147
1.0
148
0.0
149
0.0
100
AcDbLayout
  1
Model
 70
     0
 71
     1
 10
0.0
 20
0.0
 11
2100.0
 21
2970.0
 12
0.0
 22
0.0
 32
0.0
 14
0.0
 24
0.0
 34
-0.0000000000000071
 15
2100.0
 25
2970.0
 35
0.0000000000000071
146
0.0
 13
0.0
 23
0.0
 33
0.0
 16
0.0
 26
0.0
 36
0.0
 17
0.0
 27
0.0
 37
0.0
 76
     0
330
A
331
15
  0
MATERIAL
  5
265
102
{ACAD_REACTORS
330
263
102
}
330
263
100
AcDbMaterial
  1
ByBlock
 72
     1
 94
      127
  0
MATERIAL
  5
264
102
{ACAD_REACTORS
330
263
102
}
330
263
100
AcDbMaterial
  1
ByLayer
 72
     1
 94
      127
  0
MATERIAL
  5
266
102
{ACAD_REACTORS
330
263
102
}
330
263
100
AcDbMaterial
  1
Global
 72
     1
 94
      127
  0
MLEADERSTYLE
  5
DAB
102
{ACAD_REACTORS
330
336
102
}
330
336
100
AcDbMLeaderStyle
170
     2
171
     1
172
     0
 90
        2
 40
0.0
 41
0.0
173
     1
 91
-1056964608
340
11
 92
       -2
290
     1
 42
2.0
291
     1
 43
8.0
  3
Standard
341
0
 44
4.0
300

342
17
174
     1
178
     6
175
     1
176
     0
 93
-1056964608
 45
4.0
292
     0
297
     0
 46
4.0
343
0
 94
-1056964608
 47
1.0
 49
1.0
140
1.0
293
     1
141
0.0
294
     1
177
     0
142
1.0
295
     0
296
     0
143
3.75
1001
ACAD_MLEADERVER
1070
     2
  0
MLINESTYLE
  5
1C
102
{ACAD_REACTORS
330
1B
102
}
330
1B
100
AcDbMlineStyle
  2
Standard
 70
     0
  3

 62
     0
 51
90.0
 52
90.0
 71
     2
 49
0.5
 62
   256
  6
BYLAYER
 49
-0.5
 62
   256
  6
BYLAYER
  0
ACDBPLACEHOLDER
  5
1D
102
{ACAD_REACTORS
330
1F
102
}
330
1F
  0
SCALE
  5
242
102
{ACAD_REACTORS
330
241
102
}
330
241
100
AcDbScale
 70
     0
300
1:1
140
1.0
141
1.0
290
     1
  0
SCALE
  5
243
102
{ACAD_REACTORS
330
241
102
}
330
241
100
AcDbScale
 70
     0
300
1:2
140
1.0
141
2.0
290
     0
  0
SCALE
  5
244
102
{ACAD_REACTORS
330
241
102
}
330
241
100
AcDbScale
 70
     0
300
1:4
140
1.0
141
4.0
290
     0
  0
SCALE
  5
245
102
{ACAD_REACTORS
330
241
102
}
330
241
100
AcDbScale
 70
     0
300
1:5
140
1.0
141
5.0
290
     0
  0
SCALE
  5
246
102
{ACAD_REACTORS
330
241
102
}
330
241
100
AcDbScale
 70
     0
300
1:8
140
1.0
141
8.0
290
     0
  0
SCALE
  5
247
102
{ACAD_REACTORS
330
241
102
}
330
241
100
AcDbScale
 70
     0
300
1:10
140
1.0
141
10.0
290
     0
  0
SCALE
  5
248
102
{ACAD_REACTORS
330
241
102
}
330
241
100
AcDbScale
 70
     0
300
1:16
140
1.0
141
16.0
290
     0
  0
SCALE
  5
249
102
{ACAD_REACTORS
330
241
102
}
330
241
100
AcDbScale
 70
     0
300
1:20
140
1.0
141
20.0
290
     0
  0
SCALE
  5
24A
102
{ACAD_REACTORS
330
241
102
}
330
241
100
AcDbScale
 70
     0
300
1:30
140
1.0
141
30.0
290
     0
  0
SCALE
  5
24B
102
{ACAD_REACTORS
330
241
102
}
330
241
100
AcDbScale
 70
     0
300
1:40
140
1.0
141
40.0
290
     0
  0
SCALE
  5
24C
102
{ACAD_REACTORS
330
241
102
}
330
241
100
AcDbScale
 70
     0
300
1:50
140
1.0
141
50.0
290
     0
  0
SCALE
  5
24D
102
{ACAD_REACTORS
330
241
102
}
330
241
100
AcDbScale
 70
     0
300
1:100
140
1.0
141
100.0
290
     0
  0
SCALE
  5
24E
102
{ACAD_REACTORS
330
241
102
}
330
241
100
AcDbScale
 70
     0
300
2:1
140
2.0
141
1.0
290
     0
  0
SCALE
  5
24F
102
{ACAD_REACTORS
330
241
102
}
330
241
100
AcDbScale
 70
     0
300
4:1
140
4.0
141
1.0
290
     0
  0
SCALE
  5
250
102
{ACAD_REACTORS
330
241
102
}
330
241
100
AcDbScale
 70
     0
300
8:1
140
8.0
141
1.0
290
     0
  0
SCALE
  5
251
102
{ACAD_REACTORS
330
241
102
}
330
241
100
AcDbScale
 70
     0
300
10:1
140
10.0
141
1.0
290
     0
  0
SCALE
  5
252
102
{ACAD_REACTORS
330
241
102
}
330
241
100
AcDbScale
 70
     0
300
100:1
140
100.0
141
1.0
290
     0
  0
SCALE
  5
253
102
{ACAD_REACTORS
330
241
102
}
330
241
100
AcDbScale
 70
     0
300
1/128" = 1'-0"
140
0.0078125
141
12.0
290
     0
  0
SCALE
  5
254
102
{ACAD_REACTORS
330
241
102
}
330
241
100
AcDbScale
 70
     0
300
1/64" = 1'-0"
140
0.015625
141
12.0
290
     0
  0
SCALE
  5
255
102
{ACAD_REACTORS
330
241
102
}
330
241
100
AcDbScale
 70
     0
300
1/32" = 1'-0"
140
0.03125
141
12.0
290
     0
  0
SCALE
  5
256
102
{ACAD_REACTORS
330
241
102
}
330
241
100
AcDbScale
 70
     0
300
1/16" = 1'-0"
140
0.0625
141
12.0
290
     0
  0
SCALE
  5
257
102
{ACAD_REACTORS
330
241
102
}
330
241
100
AcDbScale
 70
     0
300
3/32" = 1'-0"
140
0.09375
141
12.0
290
     0
  0
SCALE
  5
258
102
{ACAD_REACTORS
330
241
102
}
330
241
100
AcDbScale
 70
     0
300
1/8" = 1'-0"
140
0.125
141
12.0
290
     0
  0
SCALE
  5
259
102
{ACAD_REACTORS
330
241
102
}
330
241
100
AcDbScale
 70
     0
300
3/16" = 1'-0"
140
0.1875
141
12.0
290
     0
  0
SCALE
  5
25A
102
{ACAD_REACTORS
330
241
102
}
330
241
100
AcDbScale
 70
     0
300
1/4" = 1'-0"
140
0.25
141
12.0
290
     0
  0
SCALE
  5
25B
102
{ACAD_REACTORS
330
241
102
}
330
241
100
AcDbScale
 70
     0
300
3/8" = 1'-0"
140
0.375
141
12.0
290
     0
  0
SCALE
  5
25C
102
{ACAD_REACTORS
330
241
102
}
330
241
100
AcDbScale
 70
     0
300
1/2" = 1'-0"
140
0.5
141
12.0
290
     0
  0
SCALE
  5
25D
102
{ACAD_REACTORS
330
241
102
}
330
241
100
AcDbScale
 70
     0
300
3/4" = 1'-0"
140
0.75
141
12.0
290
     0
  0
SCALE
  5
25E
102
{ACAD_REACTORS
330
241
102
}
330
241
100
AcDbScale
 70
     0
300
1" = 1'-0"
140
1.0
141
12.0
290
     0
  0
SCALE
  5
25F
102
{ACAD_REACTORS
330
241
102
}
330
241
100
AcDbScale
 70
     0
300
1-1/2" = 1'-0"
140
1.5
141
12.0
290
     0
  0
SCALE
  5
260
102
{ACAD_REACTORS
330
241
102
}
330
241
100
AcDbScale
 70
     0
300
3" = 1'-0"
140
3.0
141
12.0
290
     0
  0
SCALE
  5
261
102
{ACAD_REACTORS
330
241
102
}
330
241
100
AcDbScale
 70
     0
300
6" = 1'-0"
140
6.0
141
12.0
290
     0
  0
SCALE
  5
262
102
{ACAD_REACTORS
330
241
102
}
330
241
100
AcDbScale
 70
     0
300
1'-0" = 1'-0"
140
12.0
141
12.0
290
     0
  0
TABLESTYLE
  5
279
102
{ACAD_REACTORS
330
278
102
}
102
{ACAD_XDICTIONARY
360
3B35
102
}
330
278
100
AcDbTableStyle
  3
Standard
 70
     0
 71
     0
 40
0.06
 41
0.06
280
     0
281
     0
  7
Standard
140
4.5
170
     2
 62
     0
 63
   257
283
     0
 90
        4
 91
        0
  1

274
    -2
284
     1
 64
     0
275
    -2
285
     1
 65
     0
276
    -2
286
     1
 66
     0
277
    -2
287
     1
 67
     0
278
    -2
288
     1
 68
     0
279
    -2
289
     1
 69
     0
  7
Standard
140
6.0
170
     5
 62
     0
 63
   257
283
     0
 90
        4
 91
        0
  1

274
    -2
284
     1
 64
     0
275
    -2
285
     1
 65
     0
276
    -2
286
     1
 66
     0
277
    -2
287
     1
 67
     0
278
    -2
288
     1
 68
     0
279
    -2
289
     1
 69
     0
  7
Standard
140
4.5
170
     5
 62
     0
 63
   257
283
     0
 90
        4
 91
        0
  1

274
    -2
284
     1
 64
     0
275
    -2
285
     1
 65
     0
276
    -2
286
     1
 66
     0
277
    -2
287
     1
 67
     0
278
    -2
288
     1
 68
     0
279
    -2
289
     1
 69
     0
  0
VISUALSTYLE
  5
26C
102
{ACAD_REACTORS
330
267
102
}
330
267
100
AcDbVisualStyle
  2
2dWireframe
 70
     4
 71
     0
 72
     2
 73
     0
 90
        0
 40
-0.6
 41
-30.0
 62
     5
 63
     7
421
 16777215
 74
     1
 91
        4
 64
     7
 65
   257
 75
     1
175
     1
 42
1.0
 92
        0
 66
   257
 43
1.0
 76
     1
 77
     6
 78
     2
 67
     7
 79
     5
170
     0
171
     0
290
     0
174
     0
 93
        1
 44
0.0
173
     0
291
     0
 45
0.0
  0
VISUALSTYLE
  5
26E
102
{ACAD_REACTORS
330
267
102
}
330
267
100
AcDbVisualStyle
  2
3D Hidden
 70
     6
 71
     1
 72
     2
 73
     2
 90
        0
 40
-0.6
 41
-30.0
 62
     5
 63
     7
421
 16777215
 74
     2
 91
        2
 64
     7
 65
   257
 75
     2
175
     1
 42
40.0
 92
        0
 66
   257
 43
1.0
 76
     1
 77
     6
 78
     2
 67
     7
 79
     3
170
     0
171
     0
290
     0
174
     0
 93
        1
 44
0.0
173
     0
291
     0
 45
0.0
  0
VISUALSTYLE
  5
26D
102
{ACAD_REACTORS
330
267
102
}
330
267
100
AcDbVisualStyle
  2
3dWireframe
 70
     5
 71
     0
 72
     2
 73
     0
 90
        0
 40
-0.6
 41
-30.0
 62
     5
 63
     7
421
 16777215
 74
     1
 91
        4
 64
     7
 65
   257
 75
     1
175
     1
 42
1.0
 92
        0
 66
   257
 43
1.0
 76
     1
 77
     6
 78
     2
 67
     7
 79
     5
170
     0
171
     0
290
     0
174
     0
 93
        1
 44
0.0
173
     0
291
     0
 45
0.0
  0
VISUALSTYLE
  5
26F
102
{ACAD_REACTORS
330
267
102
}
330
267
100
AcDbVisualStyle
  2
Basic
 70
     7
 71
     1
 72
     0
 73
     1
 90
        0
 40
-0.6
 41
-30.0
 62
     5
 63
     7
421
 16777215
 74
     0
 91
        4
 64
     7
 65
   257
 75
     1
175
     1
 42
1.0
 92
        8
 66
     7
 43
1.0
 76
     1
 77
     6
 78
     2
 67
     7
 79
     5
170
     0
171
     0
290
     0
174
     0
 93
        1
 44
0.0
173
     0
291
     1
 45
0.0
  0
VISUALSTYLE
  5
273
102
{ACAD_REACTORS
330
267
102
}
330
267
100
AcDbVisualStyle
  2
Brighten
 70
    12
 71
     2
 72
     2
 73
     0
 90
        0
 40
-0.6
 41
-30.0
 62
     5
 63
     7
421
 16777215
 74
     1
 91
        4
 64
     7
 65
   257
 75
     1
175
     1
 42
1.0
 92
        8
 66
     7
 43
1.0
 76
     1
 77
     6
 78
     2
 67
     7
 79
     5
170
     0
171
     0
290
     0
174
     0
 93
        1
 44
50.0
173
     0
291
     1
 45
0.0
  0
VISUALSTYLE
  5
277
102
{ACAD_REACTORS
330
267
102
}
330
267
100
AcDbVisualStyle
  2
ColorChange
 70
    16
 71
     2
 72
     2
 73
     3
 90
        0
 40
-0.6
 41
-30.0
 62
     5
 63
     8
421
  8421504
 74
     1
 91
        4
 64
     7
 65
   257
 75
     1
175
     1
 42
1.0
 92
        8
 66
     8
424
  8421504
 43
1.0
 76
     1
 77
     6
 78
     2
 67
     7
 79
     5
170
     0
171
     0
290
     0
174
     0
 93
        1
 44
0.0
173
     0
291
     1
 45
0.0
  0
VISUALSTYLE
  5
271
102
{ACAD_REACTORS
330
267
102
}
330
267
100
AcDbVisualStyle
  2
Conceptual
 70
     9
 71
     3
 72
     2
 73
     0
 90
        0
 40
-0.6
 41
-30.0
 62
     5
 63
     7
421
 16777215
 74
     2
 91
        2
 64
     7
 65
   257
 75
     1
175
     1
 42
40.0
 92
        8
 66
     7
 43
1.0
 76
     1
 77
     6
 78
     2
 67
     7
 79
     3
170
     0
171
     0
290
     0
174
     0
 93
        1
 44
0.0
173
     0
291
     0
 45
0.0
  0
VISUALSTYLE
  5
272
102
{ACAD_REACTORS
330
267
102
}
330
267
100
AcDbVisualStyle
  2
Dim
 70
    11
 71
     2
 72
     2
 73
     0
 90
        0
 40
-0.6
 41
-30.0
 62
     5
 63
     7
421
 16777215
 74
     1
 91
        4
 64
     7
 65
   257
 75
     1
175
     1
 42
1.0
 92
        8
 66
     7
 43
1.0
 76
     1
 77
     6
 78
     2
 67
     7
 79
     5
170
     0
171
     0
290
     0
174
     0
 93
        1
 44
-50.0
173
     0
291
     1
 45
0.0
  0
VISUALSTYLE
  5
8FE
102
{ACAD_REACTORS
330
267
102
}
330
267
100
AcDbVisualStyle
  2
EdgeColorOff
 70
    22
 71
     2
 72
     2
 73
     0
 90
        0
 40
0.6
 41
30.0
 62
     5
 63
     7
421
 16777215
 74
     1
 91
        4
 64
     7
 65
   257
 75
     1
175
     1
 42
1.0
 92
        8
 66
     7
 43
1.0
 76
     1
 77
     6
 78
     2
 67
     7
 79
     5
170
     0
171
     0
290
     0
174
     0
 93
        1
 44
0.0
173
     0
291
     1
 45
0.0
  0
VISUALSTYLE
  5
276
102
{ACAD_REACTORS
330
267
102
}
330
267
100
AcDbVisualStyle
  2
Facepattern
 70
    15
 71
     2
 72
     2
 73
     0
 90
        0
 40
-0.6
 41
-30.0
 62
     5
 63
     7
421
 16777215
 74
     1
 91
        4
 64
     7
 65
   257
 75
     1
175
     1
 42
1.0
 92
        8
 66
     7
 43
1.0
 76
     1
 77
     6
 78
     2
 67
     7
 79
     5
170
     0
171
     0
290
     0
174
     0
 93
        1
 44
0.0
173
     0
291
     1
 45
0.0
  0
VISUALSTYLE
  5
268
102
{ACAD_REACTORS
330
267
102
}
330
267
100
AcDbVisualStyle
  2
Flat
 70
     0
 71
     2
 72
     1
 73
     1
 90
        2
 40
-0.6
 41
30.0
 62
     5
 63
     7
421
 16777215
 74
     0
 91
        4
 64
     7
 65
   257
 75
     1
175
     1
 42
1.0
 92
        8
 66
     7
 43
1.0
 76
     1
 77
     6
 78
     2
 67
     7
 79
     5
170
     0
171
     0
290
     0
174
     0
 93
       13
 44
0.0
173
     0
291
     1
 45
0.0
  0
VISUALSTYLE
  5
269
102
{ACAD_REACTORS
330
267
102
}
330
267
100
AcDbVisualStyle
  2
FlatWithEdges
 70
     1
 71
     2
 72
     1
 73
     1
 90
        2
 40
-0.6
 41
30.0
 62
     5
 63
     7
421
 16777215
 74
     1
 91
        4
 64
     7
 65
   257
 75
     1
175
     1
 42
1.0
 92
        0
 66
   257
 43
1.0
 76
     1
 77
     6
 78
     2
 67
     7
 79
     5
170
     0
171
     0
290
     0
174
     0
 93
       13
 44
0.0
173
     0
291
     1
 45
0.0
  0
VISUALSTYLE
  5
26A
102
{ACAD_REACTORS
330
267
102
}
330
267
100
AcDbVisualStyle
  2
Gouraud
 70
     2
 71
     2
 72
     2
 73
     1
 90
        2
 40
-0.6
 41
30.0
 62
     5
 63
     7
421
 16777215
 74
     0
 91
        4
 64
     7
 65
   257
 75
     1
175
     1
 42
1.0
 92
        0
 66
     7
 43
1.0
 76
     1
 77
     6
 78
     2
 67
     7
 79
     5
170
     0
171
     0
290
     0
174
     0
 93
       13
 44
0.0
173
     0
291
     1
 45
0.0
  0
VISUALSTYLE
  5
26B
102
{ACAD_REACTORS
330
267
102
}
330
267
100
AcDbVisualStyle
  2
GouraudWithEdges
 70
     3
 71
     2
 72
     2
 73
     1
 90
        2
 40
-0.6
 41
30.0
 62
     5
 63
     7
421
 16777215
 74
     1
 91
        4
 64
     7
 65
   257
 75
     1
175
     1
 42
1.0
 92
        0
 66
   257
 43
1.0
 76
     1
 77
     6
 78
     2
 67
     7
 79
     5
170
     0
171
     0
290
     0
174
     0
 93
       13
 44
0.0
173
     0
291
     1
 45
0.0
  0
VISUALSTYLE
  5
8FB
102
{ACAD_REACTORS
330
267
102
}
330
267
100
AcDbVisualStyle
  2
Hidden
 70
     6
 71
     1
 72
     2
 73
     2
 90
        0
 40
0.6
 41
30.0
 62
     5
 63
     7
421
 16777215
 74
     2
 91
        2
 64
     7
 65
   257
 75
     2
175
     1
 42
40.0
 92
        0
 66
   257
 43
1.0
 76
     1
 77
     6
 78
     2
 67
     7
 79
     3
170
     0
171
     0
290
     0
174
     0
 93
        1
 44
0.0
173
     0
291
     0
 45
0.0
  0
VISUALSTYLE
  5
8FC
102
{ACAD_REACTORS
330
267
102
}
330
267
100
AcDbVisualStyle
  2
JitterOff
 70
    20
 71
     2
 72
     2
 73
     0
 90
        0
 40
0.6
 41
30.0
 62
     5
 63
     7
421
 16777215
 74
     1
 91
        4
 64
     7
 65
   257
 75
     1
175
     1
 42
1.0
 92
       10
 66
     7
 43
1.0
 76
     1
 77
     6
 78
     2
 67
     7
 79
     5
170
     0
171
     0
290
     0
174
     0
 93
        1
 44
0.0
173
     0
291
     1
 45
0.0
  0
VISUALSTYLE
  5
275
102
{ACAD_REACTORS
330
267
102
}
330
267
100
AcDbVisualStyle
  2
Linepattern
 70
    14
 71
     2
 72
     2
 73
     0
 90
        0
 40
-0.6
 41
-30.0
 62
     5
 63
     7
421
 16777215
 74
     1
 91
        4
 64
     7
 65
   257
 75
     7
175
     7
 42
1.0
 92
        8
 66
     7
 43
1.0
 76
     1
 77
     6
 78
     2
 67
     7
 79
     5
170
     0
171
     0
290
     0
174
     0
 93
        1
 44
0.0
173
     0
291
     1
 45
0.0
  0
VISUALSTYLE
  5
8FD
102
{ACAD_REACTORS
330
267
102
}
330
267
100
AcDbVisualStyle
  2
OverhangOff
 70
    21
 71
     2
 72
     2
 73
     0
 90
        0
 40
0.6
 41
30.0
 62
     5
 63
     7
421
 16777215
 74
     1
 91
        4
 64
     7
 65
   257
 75
     1
175
     1
 42
1.0
 92
        9
 66
     7
 43
1.0
 76
     1
 77
     6
 78
     2
 67
     7
 79
     5
170
     0
171
     0
290
     0
174
     0
 93
        1
 44
0.0
173
     0
291
     1
 45
0.0
  0
VISUALSTYLE
  5
270
102
{ACAD_REACTORS
330
267
102
}
330
267
100
AcDbVisualStyle
  2
Realistic
 70
     8
 71
     2
 72
     2
 73
     0
 90
        0
 40
-0.6
 41
-30.0
 62
     5
 63
     7
421
 16777215
 74
     1
 91
        0
 64
     7
 65
   257
 75
     1
175
     1
 42
1.0
 92
        8
 66
     8
424
  7895160
 43
1.0
 76
     1
 77
     6
 78
     2
 67
     7
 79
     5
170
     0
171
     0
290
     0
174
     0
 93
       13
 44
0.0
173
     0
291
     0
 45
0.0
  0
VISUALSTYLE
  5
903
102
{ACAD_REACTORS
330
267
102
}
330
267
100
AcDbVisualStyle
  2
Shaded
 70
    27
 71
     2
 72
     2
 73
     1
 90
        2
 40
0.6
 41
30.0
 62
     5
 63
     7
421
 16777215
 74
     0
 91
        4
 64
     7
 65
   257
 75
     1
175
     1
 42
1.0
 92
        8
 66
   257
 43
1.0
 76
     1
 77
     6
 78
     2
 67
     8
425
  7895160
 79
     3
170
     0
171
     0
290
     0
174
     0
 93
        5
 44
0.0
173
     0
291
     0
 45
0.0
  0
VISUALSTYLE
  5
902
102
{ACAD_REACTORS
330
267
102
}
330
267
100
AcDbVisualStyle
  2
Shaded with edges
 70
    26
 71
     2
 72
     2
 73
     1
 90
        2
 40
0.6
 41
30.0
 62
     5
 63
     7
421
 16777215
 74
     1
 91
       10
 64
     7
 65
   257
 75
     2
175
     1
 42
1.0
 92
        8
 66
   257
 43
1.0
 76
     1
 77
     6
 78
     2
 67
     7
 79
     3
170
     0
171
     0
290
     0
174
     0
 93
        5
 44
0.0
173
     0
291
     0
 45
0.0
  0
VISUALSTYLE
  5
8FF
102
{ACAD_REACTORS
330
267
102
}
330
267
100
AcDbVisualStyle
  2
Shades of Gray
 70
    23
 71
     2
 72
     2
 73
     3
 90
        0
 40
0.6
 41
30.0
 62
     5
 63
     7
421
 16777215
 74
     2
 91
        2
 64
     7
 65
     7
 75
     1
175
     1
 42
40.0
 92
        8
 66
     7
 43
1.0
 76
     1
 77
     6
 78
     2
 67
     7
 79
     3
170
     0
171
     0
290
     0
174
     0
 93
        1
 44
0.0
173
     0
291
     0
 45
0.0
  0
VISUALSTYLE
  5
900
102
{ACAD_REACTORS
330
267
102
}
330
267
100
AcDbVisualStyle
  2
Sketchy
 70
    24
 71
     1
 72
     2
 73
     2
 90
        0
 40
0.6
 41
30.0
 62
     5
 63
     7
421
 16777215
 74
     2
 91
        2
 64
     7
 65
     7
 75
     1
175
     1
 42
40.0
 92
       11
 66
     7
 43
1.0
 76
     1
 77
     6
 78
     2
 67
     7
 79
     6
170
     0
171
     0
290
     0
174
     0
 93
        1
 44
0.0
173
     0
291
     0
 45
0.0
  0
VISUALSTYLE
  5
274
102
{ACAD_REACTORS
330
267
102
}
330
267
100
AcDbVisualStyle
  2
Thicken
 70
    13
 71
     2
 72
     2
 73
     0
 90
        0
 40
-0.6
 41
-30.0
 62
     5
 63
     7
421
 16777215
 74
     1
 91
        4
 64
     7
 65
   257
 75
     1
175
     1
 42
1.0
 92
       12
 66
     7
 43
1.0
 76
     1
 77
     6
 78
     2
 67
     7
 79
     5
170
     0
171
     0
290
     0
174
     0
 93
        1
 44
0.0
173
     0
291
     1
 45
0.0
  0
VISUALSTYLE
  5
8FA
102
{ACAD_REACTORS
330
267
102
}
330
267
100
AcDbVisualStyle
  2
Wireframe
 70
     5
 71
     0
 72
     2
 73
     0
 90
        0
 40
0.6
 41
30.0
 62
     5
 63
     7
421
 16777215
 74
     1
 91
        4
 64
     7
 65
   257
 75
     1
175
     1
 42
1.0
 92
        0
 66
   257
 43
1.0
 76
     1
 77
     6
 78
     2
 67
     7
 79
     3
170
     0
171
     0
290
     0
174
     0
 93
        1
 44
0.0
173
     0
291
     0
 45
0.0
  0
VISUALSTYLE
  5
901
102
{ACAD_REACTORS
330
267
102
}
330
267
100
AcDbVisualStyle
  2
X-Ray
 70
    25
 71
     2
 72
     2
 73
     1
 90
        1
 40
0.5
 41
30.0
 62
     5
 63
     7
421
 16777215
 74
     1
 91
        0
 64
     7
 65
   257
 75
     1
175
     1
 42
1.0
 92
        8
 66
     7
 43
1.0
 76
     1
 77
     6
 78
     2
 67
     7
 79
     3
170
     0
171
     0
290
     0
174
     0
 93
       13
 44
0.0
173
     0
291
     0
 45
0.0
  0
DICTIONARYVAR
  5
331
102
{ACAD_REACTORS
330
330
102
}
330
330
100
DictionaryVariables
280
     0
  1
1:1
  0
DICTIONARYVAR
  5
DB1
102
{ACAD_REACTORS
330
330
102
}
330
330
100
DictionaryVariables
280
     0
  1
Standard
  0
DICTIONARYVAR
  5
335
102
{ACAD_REACTORS
330
330
102
}
330
330
100
DictionaryVariables
280
     0
  1
Standard
  0
DICTIONARYVAR
  5
D52
102
{ACAD_REACTORS
330
330
102
}
330
330
100
DictionaryVariables
280
     0
  1
ByLayer
  0
DICTIONARYVAR
  5
896
102
{ACAD_REACTORS
330
330
102
}
330
330
100
DictionaryVariables
280
     0
  1
0
  0
DICTIONARYVAR
  5
ECE
102
{ACAD_REACTORS
330
E3E
102
}
330
E3E
100
DictionaryVariables
280
     0
  1
0.261799
  0
DICTIONARYVAR
  5
ECC
102
{ACAD_REACTORS
330
E3E
102
}
330
E3E
100
DictionaryVariables
280
     0
  1
0.400000
  0
DICTIONARYVAR
  5
ECD
102
{ACAD_REACTORS
330
E3E
102
}
330
E3E
100
DictionaryVariables
280
     0
  1
0.250000
  0
DICTIONARYVAR
  5
ECF
102
{ACAD_REACTORS
330
E3E
102
}
330
E3E
100
DictionaryVariables
280
     0
  1
1
  0
FIELD
  5
1467
102
{ACAD_REACTORS
330
36C0
330
3A23
330
3A25
330
3B25
102
}
330
3B25
100
AcDbField
  1
_text
  2
{%<\_FldIdx 0>%N}
 90
        1
360
146B
 97
        0
 91
       63
 92
        0
 94
       11
 95
        2
 96
        0
300

 93
        1
  6
ACFD_FIELDTEXT_CHECKSUM
 93
        2
 90
        2
140
4441.0
 94
        0
300

302

304
ACVALUE_END
  7
ACFD_FIELD_VALUE
 93
        6
 90
        4
  1
{20200302N}
 94
        0
300

302

304
ACVALUE_END
301
{20200302N}
 98
       11
  0
DICTIONARY
  5
3B35
330
279
100
AcDbDictionary
280
     1
281
     1
  3
ACAD_ROUNDTRIP_2008_TABLESTYLE_CELLSTYLEMAP
360
3B36
  0
FIELD
  5
146B
330
1467
100
AcDbField
  1
AcVar
  2
\AcVar Date \f "yyyyMMdd"
 90
        0
 97
        0
 91
       63
 92
        0
 94
        8
 95
       64
 96
        0
300
Variable not supported
 93
        1
  6
Variable
 93
        2
 90
        4
  1
Date
 94
        0
300

302

304
ACVALUE_END
  7
ACFD_FIELD_VALUE
 93
        6
 90
        8
 92
       16
310
E4070300000002000B00040006000000
 94
        0
300
yyyyMMdd
302

304
ACVALUE_END
301
20200302
 98
        8
  0
CELLSTYLEMAP
  5
3B36
102
{ACAD_REACTORS
330
3B35
102
}
330
3B35
100
AcDbCellStyleMap
 90
        3
300
CELLSTYLE
  1
TABLEFORMAT_BEGIN
 90
        5
170
     1
 91
        0
 92
    32768
 62
   257
 93
        1
300
CONTENTFORMAT
  1
CONTENTFORMAT_BEGIN
 90
        0
 91
        0
 92
        4
 93
        0
300

 40
0.0
140
1.0
 94
        5
 62
     0
340
17
144
6.0
309
CONTENTFORMAT_END
171
     1
301
MARGIN
  1
CELLMARGIN_BEGIN
 40
0.06
 40
0.06
 40
0.06
 40
0.06
 40
0.18
 40
0.18
309
CELLMARGIN_END
 94
        6
 95
        1
302
GRIDFORMAT
  1
GRIDFORMAT_BEGIN
 90
        0
 91
        1
 62
     0
 92
       -2
340
0
 93
        0
 40
0.045
309
GRIDFORMAT_END
 95
        2
302
GRIDFORMAT
  1
GRIDFORMAT_BEGIN
 90
        0
 91
        1
 62
     0
 92
       -2
340
0
 93
        0
 40
0.045
309
GRIDFORMAT_END
 95
        4
302
GRIDFORMAT
  1
GRIDFORMAT_BEGIN
 90
        0
 91
        1
 62
     0
 92
       -2
340
0
 93
        0
 40
0.045
309
GRIDFORMAT_END
 95
        8
302
GRIDFORMAT
  1
GRIDFORMAT_BEGIN
 90
        0
 91
        1
 62
     0
 92
       -2
340
0
 93
        0
 40
0.045
309
GRIDFORMAT_END
 95
       16
302
GRIDFORMAT
  1
GRIDFORMAT_BEGIN
 90
        0
 91
        1
 62
     0
 92
       -2
340
0
 93
        0
 40
0.045
309
GRIDFORMAT_END
 95
       32
302
GRIDFORMAT
  1
GRIDFORMAT_BEGIN
 90
        0
 91
        1
 62
     0
 92
       -2
340
0
 93
        0
 40
0.045
309
GRIDFORMAT_END
309
TABLEFORMAT_END
  1
CELLSTYLE_BEGIN
 90
        1
 91
        1
300
_TITLE
309
CELLSTYLE_END
300
CELLSTYLE
  1
TABLEFORMAT_BEGIN
 90
        5
170
     1
 91
        0
 92
        0
 62
   257
 93
        1
300
CONTENTFORMAT
  1
CONTENTFORMAT_BEGIN
 90
        0
 91
        0
 92
        4
 93
        0
300

 40
0.0
140
1.0
 94
        5
 62
     0
340
17
144
4.5
309
CONTENTFORMAT_END
171
     1
301
MARGIN
  1
CELLMARGIN_BEGIN
 40
0.06
 40
0.06
 40
0.06
 40
0.06
 40
0.18
 40
0.18
309
CELLMARGIN_END
 94
        6
 95
        1
302
GRIDFORMAT
  1
GRIDFORMAT_BEGIN
 90
        0
 91
        1
 62
     0
 92
       -2
340
0
 93
        0
 40
0.045
309
GRIDFORMAT_END
 95
        2
302
GRIDFORMAT
  1
GRIDFORMAT_BEGIN
 90
        0
 91
        1
 62
     0
 92
       -2
340
0
 93
        0
 40
0.045
309
GRIDFORMAT_END
 95
        4
302
GRIDFORMAT
  1
GRIDFORMAT_BEGIN
 90
        0
 91
        1
 62
     0
 92
       -2
340
0
 93
        0
 40
0.045
309
GRIDFORMAT_END
 95
        8
302
GRIDFORMAT
  1
GRIDFORMAT_BEGIN
 90
        0
 91
        1
 62
     0
 92
       -2
340
0
 93
        0
 40
0.045
309
GRIDFORMAT_END
 95
       16
302
GRIDFORMAT
  1
GRIDFORMAT_BEGIN
 90
        0
 91
        1
 62
     0
 92
       -2
340
0
 93
        0
 40
0.045
309
GRIDFORMAT_END
 95
       32
302
GRIDFORMAT
  1
GRIDFORMAT_BEGIN
 90
        0
 91
        1
 62
     0
 92
       -2
340
0
 93
        0
 40
0.045
309
GRIDFORMAT_END
309
TABLEFORMAT_END
  1
CELLSTYLE_BEGIN
 90
        2
 91
        1
300
_HEADER
309
CELLSTYLE_END
300
CELLSTYLE
  1
TABLEFORMAT_BEGIN
 90
        5
170
     1
 91
        0
 92
        0
 62
   257
 93
        1
300
CONTENTFORMAT
  1
CONTENTFORMAT_BEGIN
 90
        0
 91
        0
 92
        4
 93
        0
300

 40
0.0
140
1.0
 94
        2
 62
     0
340
17
144
4.5
309
CONTENTFORMAT_END
171
     1
301
MARGIN
  1
CELLMARGIN_BEGIN
 40
0.06
 40
0.06
 40
0.06
 40
0.06
 40
0.18
 40
0.18
309
CELLMARGIN_END
 94
        6
 95
        1
302
GRIDFORMAT
  1
GRIDFORMAT_BEGIN
 90
        0
 91
        1
 62
     0
 92
       -2
340
0
 93
        0
 40
0.045
309
GRIDFORMAT_END
 95
        2
302
GRIDFORMAT
  1
GRIDFORMAT_BEGIN
 90
        0
 91
        1
 62
     0
 92
       -2
340
0
 93
        0
 40
0.045
309
GRIDFORMAT_END
 95
        4
302
GRIDFORMAT
  1
GRIDFORMAT_BEGIN
 90
        0
 91
        1
 62
     0
 92
       -2
340
0
 93
        0
 40
0.045
309
GRIDFORMAT_END
 95
        8
302
GRIDFORMAT
  1
GRIDFORMAT_BEGIN
 90
        0
 91
        1
 62
     0
 92
       -2
340
0
 93
        0
 40
0.045
309
GRIDFORMAT_END
 95
       16
302
GRIDFORMAT
  1
GRIDFORMAT_BEGIN
 90
        0
 91
        1
 62
     0
 92
       -2
340
0
 93
        0
 40
0.045
309
GRIDFORMAT_END
 95
       32
302
GRIDFORMAT
  1
GRIDFORMAT_BEGIN
 90
        0
 91
        1
 62
     0
 92
       -2
340
0
 93
        0
 40
0.045
309
GRIDFORMAT_END
309
TABLEFORMAT_END
  1
CELLSTYLE_BEGIN
 90
        3
 91
        2
300
_DATA
309
CELLSTYLE_END
  0
ENDSEC
  0
EOF
