  0
SECTION
  2
HEADER
  9
$ACADVER
  1
AC1021
  9
$ACADMAINTVER
 70
    25
  9
$DWGCODEPAGE
  3
ANSI_932
  9
$LASTSAVEDBY
  1
howeNelson
  9
$INSBASE
 10
0.0
 20
0.0
 30
0.0
  9
$EXTMIN
 10
0.0
 20
0.0000000000001137
 30
0.0
  9
$EXTMAX
 10
419.9999999999997
 20
594.0
 30
0.0
  9
$LIMMIN
 10
0.0
 20
0.0
  9
$LIMMAX
 10
419.9999999999997
 20
594.0
  9
$ORTHOMODE
 70
     0
  9
$REGENMODE
 70
     1
  9
$FILLMODE
 70
     1
  9
$QTEXTMODE
 70
     0
  9
$MIRRTEXT
 70
     1
  9
$LTSCALE
 40
1.0
  9
$ATTMODE
 70
     1
  9
$TEXTSIZE
 40
2.5
  9
$TRACEWID
 40
1.0
  9
$TEXTSTYLE
  7
ＭＳ ゴシック
  9
$CLAYER
  8
DIM
  9
$CELTYPE
  6
Continuous
  9
$CECOLOR
 62
   256
  9
$CELTSCALE
 40
1.0
  9
$DISPSILH
 70
     0
  9
$DIMSCALE
 40
1.0
  9
$DIMASZ
 40
1.0
  9
$DIMEXO
 40
4.0
  9
$DIMDLI
 40
0.9999999999999999
  9
$DIMRND
 40
0.0
  9
$DIMDLE
 40
0.0
  9
$DIMEXE
 40
0.0
  9
$DIMTP
 40
0.0
  9
$DIMTM
 40
0.0
  9
$DIMTXT
 40
5.0
  9
$DIMCEN
 40
0.0
  9
$DIMTSZ
 40
0.0
  9
$DIMTOL
 70
     0
  9
$DIMLIM
 70
     0
  9
$DIMTIH
 70
     0
  9
$DIMTOH
 70
     0
  9
$DIMSE1
 70
     0
  9
$DIMSE2
 70
     0
  9
$DIMTAD
 70
     1
  9
$DIMZIN
 70
    11
  9
$DIMBLK
  1
DOT
  9
$DIMASO
 70
     1
  9
$DIMSHO
 70
     1
  9
$DIMPOST
  1
<>
  9
$DIMAPOST
  1
[]
  9
$DIMALT
 70
     0
  9
$DIMALTD
 70
     1
  9
$DIMALTF
 40
1.0
  9
$DIMLFAC
 40
1.0
  9
$DIMTOFL
 70
     0
  9
$DIMTVP
 40
0.0
  9
$DIMTIX
 70
     1
  9
$DIMSOXD
 70
     0
  9
$DIMSAH
 70
     0
  9
$DIMBLK1
  1

  9
$DIMBLK2
  1

  9
$DIMSTYLE
  2
tfrom線あり
  9
$DIMCLRD
 70
     0
  9
$DIMCLRE
 70
     0
  9
$DIMCLRT
 70
     0
  9
$DIMTFAC
 40
1.0
  9
$DIMGAP
 40
3.0
  9
$DIMJUST
 70
     0
  9
$DIMSD1
 70
     0
  9
$DIMSD2
 70
     0
  9
$DIMTOLJ
 70
     1
  9
$DIMTZIN
 70
    11
  9
$DIMALTZ
 70
    11
  9
$DIMALTTZ
 70
    11
  9
$DIMUPT
 70
     0
  9
$DIMDEC
 70
     0
  9
$DIMTDEC
 70
     1
  9
$DIMALTU
 70
     2
  9
$DIMALTTD
 70
     2
  9
$DIMTXSTY
  7
ＭＳ ゴシック
  9
$DIMAUNIT
 70
     0
  9
$DIMADEC
 70
     2
  9
$DIMALTRND
 40
0.0
  9
$DIMAZIN
 70
     0
  9
$DIMDSEP
 70
    46
  9
$DIMATFIT
 70
     0
  9
$DIMFRAC
 70
     2
  9
$DIMLDRBLK
  1
DOT
  9
$DIMLUNIT
 70
     2
  9
$DIMLWD
 70
    -2
  9
$DIMLWE
 70
    -2
  9
$DIMTMOVE
 70
     0
  9
$DIMFXL
 40
1.0
  9
$DIMFXLON
 70
     0
  9
$DIMJOGANG
 40
0.7853981633974483
  9
$DIMTFILL
 70
     0
  9
$DIMTFILLCLR
 70
     0
  9
$DIMARCSYM
 70
     0
  9
$DIMLTYPE
  6

  9
$DIMLTEX1
  6

  9
$DIMLTEX2
  6

  9
$LUNITS
 70
     2
  9
$LUPREC
 70
     0
  9
$SKETCHINC
 40
0.1
  9
$FILLETRAD
 40
0.0
  9
$AUNITS
 70
     0
  9
$AUPREC
 70
     0
  9
$MENU
  1
acad
  9
$ELEVATION
 40
0.0
  9
$PELEVATION
 40
0.0
  9
$THICKNESS
 40
0.0
  9
$LIMCHECK
 70
     0
  9
$CHAMFERA
 40
0.0
  9
$CHAMFERB
 40
0.0
  9
$CHAMFERC
 40
0.0
  9
$CHAMFERD
 40
0.0
  9
$SKPOLY
 70
     0
  9
$TDCREATE
 40
2447893.375
  9
$TDUCREATE
 40
0.0
  9
$TDUPDATE
 40
2457947.442913148
  9
$TDUUPDATE
 40
2457947.067913148
  9
$TDINDWG
 40
0.0735459144
  9
$TDUSRTIMER
 40
2457947.050676308
  9
$USRTIMER
 70
     1
  9
$ANGBASE
 50
0.0
  9
$ANGDIR
 70
     0
  9
$PDMODE
 70
     1
  9
$PDSIZE
 40
-2.0
  9
$PLINEWID
 40
0.0
  9
$SPLFRAME
 70
     0
  9
$SPLINETYPE
 70
     6
  9
$SPLINESEGS
 70
     8
  9
$HANDSEED
  5
26F0
  9
$SURFTAB1
 70
     6
  9
$SURFTAB2
 70
     6
  9
$SURFTYPE
 70
     6
  9
$SURFU
 70
     6
  9
$SURFV
 70
     6
  9
$UCSBASE
  2

  9
$UCSNAME
  2

  9
$UCSORG
 10
0.0
 20
0.0
 30
0.0
  9
$UCSXDIR
 10
1.0
 20
0.0
 30
0.0
  9
$UCSYDIR
 10
0.0
 20
1.0
 30
0.0
  9
$UCSORTHOREF
  2

  9
$UCSORTHOVIEW
 70
     0
  9
$UCSORGTOP
 10
0.0
 20
0.0
 30
0.0
  9
$UCSORGBOTTOM
 10
0.0
 20
0.0
 30
0.0
  9
$UCSORGLEFT
 10
0.0
 20
0.0
 30
0.0
  9
$UCSORGRIGHT
 10
0.0
 20
0.0
 30
0.0
  9
$UCSORGFRONT
 10
0.0
 20
0.0
 30
0.0
  9
$UCSORGBACK
 10
0.0
 20
0.0
 30
0.0
  9
$PUCSBASE
  2

  9
$PUCSNAME
  2

  9
$PUCSORG
 10
0.0
 20
0.0
 30
0.0
  9
$PUCSXDIR
 10
1.0
 20
0.0
 30
0.0
  9
$PUCSYDIR
 10
0.0
 20
1.0
 30
0.0
  9
$PUCSORTHOREF
  2

  9
$PUCSORTHOVIEW
 70
     0
  9
$PUCSORGTOP
 10
0.0
 20
0.0
 30
0.0
  9
$PUCSORGBOTTOM
 10
0.0
 20
0.0
 30
0.0
  9
$PUCSORGLEFT
 10
0.0
 20
0.0
 30
0.0
  9
$PUCSORGRIGHT
 10
0.0
 20
0.0
 30
0.0
  9
$PUCSORGFRONT
 10
0.0
 20
0.0
 30
0.0
  9
$PUCSORGBACK
 10
0.0
 20
0.0
 30
0.0
  9
$USERI1
 70
     0
  9
$USERI2
 70
     0
  9
$USERI3
 70
     0
  9
$USERI4
 70
     0
  9
$USERI5
 70
     0
  9
$USERR1
 40
0.0
  9
$USERR2
 40
0.0
  9
$USERR3
 40
0.0
  9
$USERR4
 40
0.0
  9
$USERR5
 40
0.0
  9
$WORLDVIEW
 70
     1
  9
$SHADEDGE
 70
     3
  9
$SHADEDIF
 70
    70
  9
$TILEMODE
 70
     1
  9
$MAXACTVP
 70
    64
  9
$PINSBASE
 10
0.0
 20
0.0
 30
0.0
  9
$PLIMCHECK
 70
     0
  9
$PEXTMIN
 10
0.0
 20
0.0
 30
0.0
  9
$PEXTMAX
 10
0.0
 20
0.0
 30
0.0
  9
$PLIMMIN
 10
-95.87226993865028
 20
-25.69999999999999
  9
$PLIMMAX
 10
201.1277300613497
 20
184.3
  9
$UNITMODE
 70
     0
  9
$VISRETAIN
 70
     0
  9
$PLINEGEN
 70
     1
  9
$PSLTSCALE
 70
     0
  9
$TREEDEPTH
 70
  3020
  9
$CMLSTYLE
  2
Standard
  9
$CMLJUST
 70
     0
  9
$CMLSCALE
 40
1.0
  9
$PROXYGRAPHICS
 70
     0
  9
$MEASUREMENT
 70
     1
  9
$CELWEIGHT
370
    -1
  9
$ENDCAPS
280
     0
  9
$JOINSTYLE
280
     0
  9
$LWDISPLAY
290
     1
  9
$INSUNITS
 70
     4
  9
$HYPERLINKBASE
  1

  9
$STYLESHEET
  1

  9
$XEDIT
290
     1
  9
$CEPSNTYPE
380
     0
  9
$PSTYLEMODE
290
     1
  9
$FINGERPRINTGUID
  2

  9
$VERSIONGUID
  2

  9
$EXTNAMES
290
     1
  9
$PSVPSCALE
 40
0.0
  9
$OLESTARTUP
290
     0
  9
$SORTENTS
280
   127
  9
$INDEXCTL
280
     0
  9
$HIDETEXT
280
     1
  9
$XCLIPFRAME
290
     0
  9
$HALOGAP
280
     0
  9
$OBSCOLOR
 70
   257
  9
$OBSLTYPE
280
     0
  9
$INTERSECTIONDISPLAY
280
     0
  9
$INTERSECTIONCOLOR
 70
   257
  9
$DIMASSOC
280
     2
  9
$PROJECTNAME
  1

  9
$CAMERADISPLAY
290
     0
  9
$LENSLENGTH
 40
50.0
  9
$CAMERAHEIGHT
 40
0.0
  9
$STEPSPERSEC
 40
2.0
  9
$STEPSIZE
 40
6.0
  9
$3DDWFPREC
 40
2.0
  9
$PSOLWIDTH
 40
0.25
  9
$PSOLHEIGHT
 40
4.0
  9
$LOFTANG1
 40
1.570796326794897
  9
$LOFTANG2
 40
1.570796326794897
  9
$LOFTMAG1
 40
0.0
  9
$LOFTMAG2
 40
0.0
  9
$LOFTPARAM
 70
     7
  9
$LOFTNORMALS
280
     1
  9
$LATITUDE
 40
37.795
  9
$LONGITUDE
 40
-122.394
  9
$NORTHDIRECTION
 40
0.0
  9
$TIMEZONE
 70
 -8000
  9
$LIGHTGLYPHDISPLAY
280
     1
  9
$TILEMODELIGHTSYNCH
280
     1
  9
$SOLIDHIST
280
     1
  9
$SHOWHIST
280
     1
  9
$DWFFRAME
280
     2
  9
$DGNFRAME
280
     2
  9
$REALWORLDSCALE
290
     1
  9
$INTERFERECOLOR
 62
   256
  9
$CSHADOW
280
     0
  9
$SHADOWPLANELOCATION
 40
0.0
  0
ENDSEC
  0
SECTION
  2
CLASSES
  0
CLASS
  1
LWPOLYLINE
  2
AcDbPolyline
  3
ObjectDBX Classes
 90
        0
 91
        1
280
     0
281
     1
  0
CLASS
  1
IMAGE
  2
AcDbRasterImage
  3
ISM
 90
      127
 91
        5
280
     0
281
     1
  0
CLASS
  1
OLE2FRAME
  2
AcDbOle2Frame
  3
ObjectDBX Classes
 90
        0
 91
        1
280
     0
281
     1
  0
CLASS
  1
HATCH
  2
AcDbHatch
  3
ObjectDBX Classes
 90
        0
 91
        1
280
     0
281
     1
  0
CLASS
  1
DICTIONARYVAR
  2
AcDbDictionaryVar
  3
ObjectDBX Classes
 90
        0
 91
        4
280
     0
281
     0
  0
CLASS
  1
RASTERVARIABLES
  2
AcDbRasterVariables
  3
ISM
 90
        0
 91
        5
280
     0
281
     0
  0
CLASS
  1
IMAGEDEF
  2
AcDbRasterImageDef
  3
ISM
 90
        0
 91
        4
280
     0
281
     0
  0
CLASS
  1
IMAGEDEF_REACTOR
  2
AcDbRasterImageDefReactor
  3
ISM
 90
        1
 91
        4
280
     0
281
     0
  0
CLASS
  1
IDBUFFER
  2
AcDbIdBuffer
  3
ObjectDBX Classes
 90
        0
 91
        4
280
     0
281
     0
  0
CLASS
  1
SPATIAL_FILTER
  2
AcDbSpatialFilter
  3
ObjectDBX Classes
 90
        0
 91
        4
280
     0
281
     0
  0
CLASS
  1
XRECORD
  2
AcDbXrecord
  3
ObjectDBX Classes
 90
        0
 91
        1
280
     0
281
     0
  0
CLASS
  1
SORTENTSTABLE
  2
AcDbSortentsTable
  3
ObjectDBX Classes
 90
        0
 91
        4
280
     0
281
     0
  0
CLASS
  1
LAYER_INDEX
  2
AcDbLayerIndex
  3
ObjectDBX Classes
 90
        0
 91
        4
280
     0
281
     0
  0
CLASS
  1
SPATIAL_INDEX
  2
AcDbSpatialIndex
  3
AutoCAD 2000
 90
        0
 91
        4
280
     0
281
     0
  0
CLASS
  1
OBJECT_PTR
  2
CAseDLPNTableRecord
  3
ASE-LPNTableRecord
 90
        1
 91
        4
280
     0
281
     0
  0
CLASS
  1
LAYOUT
  2
AcDbLayout
  3
ObjectDBX Classes
 90
        0
 91
        1
280
     0
281
     0
  0
CLASS
  1
PLOTSETTINGS
  2
AcDbPlotSettings
  3
ObjectDBX Classes
 90
        0
 91
        4
280
     0
281
     0
  0
CLASS
  1
ACDBDICTIONARYWDFLT
  2
AcDbDictionaryWithDefault
  3
ObjectDBX Classes
 90
        0
 91
        5
280
     0
281
     0
  0
CLASS
  1
ACDBPLACEHOLDER
  2
AcDbPlaceHolder
  3
ObjectDBX Classes
 90
        0
 91
        1
280
     0
281
     0
  0
CLASS
  1
SCALE
  2
AcDbScale
  3
ObjectDBX Classes
 90
     1153
 91
        5
280
     0
281
     0
  0
CLASS
  1
MATERIAL
  2
AcDbMaterial
  3
ObjectDBX Classes
 90
     1153
 91
        5
280
     0
281
     0
  0
CLASS
  1
VISUALSTYLE
  2
AcDbVisualStyle
  3
ObjectDBX Classes
 90
     4095
 91
        5
280
     0
281
     0
  0
CLASS
  1
TABLESTYLE
  2
AcDbTableStyle
  3
ObjectDBX Classes
 90
     4095
 91
        5
280
     0
281
     0
  0
CLASS
  1
DIMASSOC
  2
AcDbDimAssoc
  3
"AcDbDimAssoc|Product Desc:     AcDim ARX App For Dimension|Company:          Autodesk, Inc.|WEB Address:      www.autodesk.com"
 90
        0
 91
        4
280
     0
281
     0
  0
CLASS
  1
CELLSTYLEMAP
  2
AcDbCellStyleMap
  3
ObjectDBX Classes
 90
     1152
 91
        4
280
     0
281
     0
  0
CLASS
  1
MLEADERSTYLE
  2
AcDbMLeaderStyle
  3
ACDB_MLEADERSTYLE_CLASS
 90
     4095
 91
        5
280
     0
281
     0
  0
CLASS
  1
SUN
  2
AcDbSun
  3
SCENEOE
 90
     1153
 91
        5
280
     0
281
     0
  0
CLASS
  1
FIELD
  2
AcDbField
  3
ObjectDBX Classes
 90
     1152
 91
        4
280
     0
281
     0
  0
CLASS
  1
FIELDLIST
  2
AcDbFieldList
  3
ObjectDBX Classes
 90
     1152
 91
        4
280
     0
281
     0
  0
ENDSEC
  0
SECTION
  2
TABLES
  0
TABLE
  2
VPORT
  5
7
330
0
100
AcDbSymbolTable
 70
     1
  0
VPORT
  5
15
330
7
100
AcDbSymbolTableRecord
100
AcDbViewportTableRecord
  2
*ACTIVE
 70
     0
 10
0.0
 20
0.0
 11
1.0
 21
1.0
 12
209.9999999999998
 22
297.0
 13
0.0
 23
0.0
 14
1.0
 24
1.0
 15
0.0
 25
0.0
 16
0.0
 26
0.0
 36
1.0
 17
0.0
 27
0.0
 37
0.0
 40
605.88
 41
1.967459324155194
 42
50.0
 43
0.0
 44
0.0
 50
0.0
 51
0.0
 71
    16
 72
  2000
 73
     1
 74
     1
 75
     0
 76
     0
 77
     0
 78
     0
281
     0
 65
     1
110
0.0
120
0.0
130
0.0
111
1.0
121
0.0
131
0.0
112
0.0
122
1.0
132
0.0
 79
     0
146
0.0
348
25BC
 60
     3
 61
     5
292
     1
282
     1
141
0.0
142
0.0
 63
   256
361
1878
  0
ENDTAB
  0
TABLE
  2
LTYPE
  5
4
330
0
100
AcDbSymbolTable
 70
    21
  0
LTYPE
  5
11
330
4
100
AcDbSymbolTableRecord
100
AcDbLinetypeTableRecord
  2
ByBlock
 70
     0
  3

 72
    65
 73
     0
 40
0.0
  0
LTYPE
  5
12
330
4
100
AcDbSymbolTableRecord
100
AcDbLinetypeTableRecord
  2
ByLayer
 70
     0
  3

 72
    65
 73
     0
 40
0.0
  0
LTYPE
  5
13
330
4
100
AcDbSymbolTableRecord
100
AcDbLinetypeTableRecord
  2
Continuous
 70
     0
  3
Solid line
 72
    65
 73
     0
 40
0.0
  0
LTYPE
  5
3F
330
4
100
AcDbSymbolTableRecord
100
AcDbLinetypeTableRecord
  2
STYLE_06
 70
     0
  3

 72
    65
 73
     4
 40
1.04164
 49
0.625
 74
     0
 49
-0.20828
 74
     0
 49
0.06943
 74
     0
 49
-0.13893
 74
     0
  0
LTYPE
  5
2574
330
4
100
AcDbSymbolTableRecord
100
AcDbLinetypeTableRecord
  2
CENTER
 70
     0
  3
 Center _____  _  _____  _  _____  _  _____  _ 
 72
    65
 73
     4
 40
50.8
 49
31.75
 74
     0
 49
-6.35
 74
     0
 49
6.35
 74
     0
 49
-6.35
 74
     0
  0
ENDTAB
  0
TABLE
  2
LAYER
  5
2
102
{ACAD_XDICTIONARY
360
2E1
102
}
330
0
100
AcDbSymbolTable
 70
    13
  0
LAYER
  5
14
330
2
100
AcDbSymbolTableRecord
100
AcDbLayerTableRecord
  2
0
 70
     0
 62
     7
  6
Continuous
370
    -3
390
1D
347
266
  0
LAYER
  5
4B
330
2
100
AcDbSymbolTableRecord
100
AcDbLayerTableRecord
  2
template
 70
     0
 62
     7
  6
Continuous
370
    20
390
1D
347
266
  0
LAYER
  5
4D
330
2
100
AcDbSymbolTableRecord
100
AcDbLayerTableRecord
  2
MODEL
 70
     0
 62
     7
  6
Continuous
370
    20
390
1D
347
266
  0
LAYER
  5
667
330
2
100
AcDbSymbolTableRecord
100
AcDbLayerTableRecord
  2
レイヤー 1
 70
     0
 62
     7
  6
Continuous
370
    -3
390
1D
347
266
  0
LAYER
  5
255D
330
2
100
AcDbSymbolTableRecord
100
AcDbLayerTableRecord
  2
printBorder
 70
     0
 62
     4
  6
STYLE_06
290
     0
370
    20
390
1D
347
266
1001
AcAecLayerStandard
1000

1000

  0
LAYER
  5
2575
330
2
100
AcDbSymbolTableRecord
100
AcDbLayerTableRecord
  2
Defpoints
 70
     0
 62
     7
  6
Continuous
290
     0
370
    -3
390
1D
347
266
  0
LAYER
  5
2610
330
2
100
AcDbSymbolTableRecord
100
AcDbLayerTableRecord
  2
DIM
 70
     0
 62
     3
  6
Continuous
370
    13
390
1D
347
266
1001
AcAecLayerStandard
1000

1000

  0
ENDTAB
  0
TABLE
  2
STYLE
  5
3
330
0
100
AcDbSymbolTable
 70
     4
  0
STYLE
  5
17
330
3
100
AcDbSymbolTableRecord
100
AcDbTextStyleTableRecord
  2
Standard
 70
     0
 40
0.0
 41
1.0
 50
0.0
 71
     0
 42
2.5
  3
txt
  4
BIGFONT.SHX
  0
STYLE
  5
39
330
3
100
AcDbSymbolTableRecord
100
AcDbTextStyleTableRecord
  2
ＭＳ ゴシック
 70
     0
 40
0.0
 41
1.0
 50
0.0
 71
     0
 42
2.5
  3
msgothic.ttc
  4
ＭＳ ゴシック
1001
ACAD
1000
ＭＳ ゴシック
1071
        0
  0
STYLE
  5
384
330
3
100
AcDbSymbolTableRecord
100
AcDbTextStyleTableRecord
  2
ARIAL
 70
     0
 40
0.0
 41
1.0
 50
0.0
 71
     0
 42
12.0
  3
ARIAL.TTF
  4

1001
ACAD
1000
Arial
1071
       34
  0
STYLE
  5
385
330
3
100
AcDbSymbolTableRecord
100
AcDbTextStyleTableRecord
  2
ROMANS
 70
     0
 40
0.0
 41
1.0
 50
0.0
 71
     0
 42
5.0
  3
romans.shx
  4

  0
ENDTAB
  0
TABLE
  2
VIEW
  5
5
330
0
100
AcDbSymbolTable
 70
     0
  0
ENDTAB
  0
TABLE
  2
UCS
  5
6
330
0
100
AcDbSymbolTable
 70
     0
  0
ENDTAB
  0
TABLE
  2
APPID
  5
8
330
0
100
AcDbSymbolTable
 70
     3
  0
APPID
  5
16
330
8
100
AcDbSymbolTableRecord
100
AcDbRegAppTableRecord
  2
ACAD
 70
     0
  0
APPID
  5
7AC
330
8
100
AcDbSymbolTableRecord
100
AcDbRegAppTableRecord
  2
AcAecLayerStandard
 70
     0
  0
APPID
  5
26EC
330
8
100
AcDbSymbolTableRecord
100
AcDbRegAppTableRecord
  2
ACAD_MLEADERVER
 70
     0
  0
ENDTAB
  0
TABLE
  2
DIMSTYLE
  5
9
330
0
100
AcDbSymbolTable
 70
     5
100
AcDbDimStyleTable
  0
DIMSTYLE
105
18
330
9
100
AcDbSymbolTableRecord
100
AcDbDimStyleTableRecord
  2
Standard
 70
     0
178
     0
340
17
  0
DIMSTYLE
105
57
102
{ACAD_REACTORS
330
25F0
330
25FF
330
261F
330
262E
330
2642
330
26C4
102
}
330
9
100
AcDbSymbolTableRecord
100
AcDbDimStyleTableRecord
  2
tfrom線あり
 70
     0
  3
<>
  4
[]
 41
1.0
 42
4.0
 43
0.9999999999999999
 44
0.0
 73
     0
 74
     0
 77
     1
 78
    11
140
5.0
141
0.0
143
1.0
147
3.0
171
     1
174
     1
178
     0
179
     2
271
     0
272
     1
276
     2
284
    11
285
    11
286
    11
289
     0
340
39
341
4E
342
4E
  0
ENDTAB
  0
TABLE
  2
BLOCK_RECORD
  5
1
330
0
100
AcDbSymbolTable
 70
    73
  0
BLOCK_RECORD
  5
A
330
1
100
AcDbSymbolTableRecord
100
AcDbBlockTableRecord
  2
*MODEL_SPACE
340
20
 70
     0
280
     1
281
     0
  0
BLOCK_RECORD
  5
B
330
1
100
AcDbSymbolTableRecord
100
AcDbBlockTableRecord
  2
*PAPER_SPACE
340
21
 70
     0
280
     1
281
     0
  0
BLOCK_RECORD
  5
4E
330
1
100
AcDbSymbolTableRecord
100
AcDbBlockTableRecord
  2
_DOT
340
0
102
{BLKREFS
331
25FA
331
25F9
331
2609
331
2608
331
2629
331
2628
331
2638
331
0
331
0
331
264C
331
264B
331
26CE
331
26CD
102
}
 70
     0
280
     1
281
     0
  0
BLOCK_RECORD
  5
68A
330
1
100
AcDbSymbolTableRecord
100
AcDbBlockTableRecord
  2
名称未設定-1
340
0
102
{BLKREFS
331
6B5
102
}
 70
     1
280
     1
281
     0
  0
BLOCK_RECORD
  5
68D
330
1
100
AcDbSymbolTableRecord
100
AcDbBlockTableRecord
  2
block 2
340
0
102
{BLKREFS
331
68C
331
1E89
331
0
102
}
 70
     0
280
     1
281
     0
  0
BLOCK_RECORD
  5
690
330
1
100
AcDbSymbolTableRecord
100
AcDbBlockTableRecord
  2
block 3
340
0
102
{BLKREFS
331
68F
102
}
 70
     0
280
     1
281
     0
  0
BLOCK_RECORD
  5
693
330
1
100
AcDbSymbolTableRecord
100
AcDbBlockTableRecord
  2
block 4
340
0
102
{BLKREFS
331
692
102
}
 70
     0
280
     1
281
     0
  0
BLOCK_RECORD
  5
6A2
330
1
100
AcDbSymbolTableRecord
100
AcDbBlockTableRecord
  2
block 5
340
0
102
{BLKREFS
331
6A1
102
}
 70
     0
280
     1
281
     0
  0
BLOCK_RECORD
  5
2579
330
1
100
AcDbSymbolTableRecord
100
AcDbBlockTableRecord
  2
*D62
340
0
 70
     0
280
     1
281
     0
  0
BLOCK_RECORD
  5
258A
330
1
100
AcDbSymbolTableRecord
100
AcDbBlockTableRecord
  2
*D63
340
0
 70
     0
280
     1
281
     0
  0
BLOCK_RECORD
  5
25A2
330
1
100
AcDbSymbolTableRecord
100
AcDbBlockTableRecord
  2
*D64
340
0
 70
     0
280
     1
281
     0
  0
BLOCK_RECORD
  5
25F3
330
1
100
AcDbSymbolTableRecord
100
AcDbBlockTableRecord
  2
*D65
340
0
 70
     0
280
     1
281
     0
  0
BLOCK_RECORD
  5
2602
330
1
100
AcDbSymbolTableRecord
100
AcDbBlockTableRecord
  2
*D66
340
0
 70
     0
280
     1
281
     0
  0
BLOCK_RECORD
  5
2622
330
1
100
AcDbSymbolTableRecord
100
AcDbBlockTableRecord
  2
*D67
340
0
 70
     0
280
     1
281
     0
  0
BLOCK_RECORD
  5
2631
330
1
100
AcDbSymbolTableRecord
100
AcDbBlockTableRecord
  2
*D68
340
0
 70
     0
280
     1
281
     0
  0
BLOCK_RECORD
  5
2645
330
1
100
AcDbSymbolTableRecord
100
AcDbBlockTableRecord
  2
*D69
340
0
 70
     0
280
     1
281
     0
  0
BLOCK_RECORD
  5
26C7
330
1
100
AcDbSymbolTableRecord
100
AcDbBlockTableRecord
  2
*D72
340
0
 70
     0
280
     1
281
     0
  0
ENDTAB
  0
ENDSEC
  0
SECTION
  2
BLOCKS
  0
BLOCK
  5
D
330
A
100
AcDbEntity
  8
0
390
1D
100
AcDbBlockBegin
  2
*MODEL_SPACE
 70
     0
 10
0.0
 20
0.0
 30
0.0
  3
*MODEL_SPACE
  1

  0
ENDBLK
  5
E
330
A
100
AcDbEntity
  8
0
390
1D
100
AcDbBlockEnd
  0
BLOCK
  5
F
330
B
100
AcDbEntity
 67
     1
  8
0
390
1D
100
AcDbBlockBegin
  2
*PAPER_SPACE
 70
     0
 10
0.0
 20
0.0
 30
0.0
  3
*PAPER_SPACE
  1

  0
ENDBLK
  5
10
330
B
100
AcDbEntity
 67
     1
  8
0
390
1D
100
AcDbBlockEnd
  0
BLOCK
  5
25D7
330
4E
100
AcDbEntity
  8
0
390
1D
100
AcDbBlockBegin
  2
_DOT
 70
     0
 10
0.0
 20
0.0
 30
0.0
  3
_DOT
  1

  0
POLYLINE
  5
25D9
330
4E
100
AcDbEntity
  8
0
  6
ByBlock
 62
     0
370
    -2
390
1D
100
AcDb2dPolyline
 66
     1
 10
0.0
 20
0.0
 30
0.0
 70
     1
 40
0.5
 41
0.5
  0
VERTEX
  5
25DA
330
25D9
100
AcDbEntity
  8
0
  6
ByBlock
 62
     0
370
    -2
390
1D
100
AcDbVertex
100
AcDb2dVertex
 10
-0.25
 20
0.0
 30
0.0
 42
1.0
  0
VERTEX
  5
25DB
330
25D9
100
AcDbEntity
  8
0
  6
ByBlock
 62
     0
370
    -2
390
1D
100
AcDbVertex
100
AcDb2dVertex
 10
0.25
 20
0.0
 30
0.0
 42
1.0
  0
SEQEND
  5
25DC
330
25D9
100
AcDbEntity
  8
0
390
1D
  0
LINE
  5
25DD
330
4E
100
AcDbEntity
  8
0
  6
ByBlock
 62
     0
370
    -2
390
1D
100
AcDbLine
 10
-0.5
 20
0.0
 30
0.0
 11
-1.0
 21
0.0
 31
0.0
  0
ENDBLK
  5
25DE
330
4E
100
AcDbEntity
  8
0
390
1D
100
AcDbBlockEnd
  0
BLOCK
  5
68B
330
68A
100
AcDbEntity
  8
0
100
AcDbBlockBegin
  2
名称未設定-1
 70
     0
 10
0.0
 20
0.0
 30
0.0
  3
名称未設定-1
  1

  0
INSERT
  5
68C
330
68A
100
AcDbEntity
  8
レイヤー 1
100
AcDbBlockReference
  2
block 2
 10
0.0
 20
0.0
 30
0.0
  0
ENDBLK
  5
6B1
330
68A
100
AcDbEntity
  8
0
100
AcDbBlockEnd
  0
BLOCK
  5
68E
330
68D
100
AcDbEntity
  8
0
100
AcDbBlockBegin
  2
block 2
 70
     0
 10
0.0
 20
0.0
 30
0.0
  3
block 2
  1

  0
INSERT
  5
68F
330
68D
100
AcDbEntity
  8
レイヤー 1
100
AcDbBlockReference
  2
block 3
 10
0.0
 20
0.0
 30
0.0
  0
ENDBLK
  5
6B0
330
68D
100
AcDbEntity
  8
0
100
AcDbBlockEnd
  0
BLOCK
  5
691
330
690
100
AcDbEntity
  8
0
100
AcDbBlockBegin
  2
block 3
 70
     0
 10
0.0
 20
0.0
 30
0.0
  3
block 3
  1

  0
INSERT
  5
692
330
690
100
AcDbEntity
  8
レイヤー 1
100
AcDbBlockReference
  2
block 4
 10
0.0
 20
0.0
 30
0.0
  0
ENDBLK
  5
6AF
330
690
100
AcDbEntity
  8
0
100
AcDbBlockEnd
  0
BLOCK
  5
694
330
693
100
AcDbEntity
  8
0
100
AcDbBlockBegin
  2
block 4
 70
     0
 10
0.0
 20
0.0
 30
0.0
  3
block 4
  1

  0
POLYLINE
  5
695
330
693
100
AcDbEntity
  8
レイヤー 1
370
     0
100
AcDb2dPolyline
 66
     1
 10
0.0
 20
0.0
 30
0.0
  0
VERTEX
  5
696
330
695
100
AcDbEntity
  8
レイヤー 1
370
     0
100
AcDbVertex
100
AcDb2dVertex
 10
83.79545727667795
 20
167.6444858234922
 30
0.0
  0
VERTEX
  5
697
330
695
100
AcDbEntity
  8
レイヤー 1
370
     0
100
AcDbVertex
100
AcDb2dVertex
 10
83.79545727667795
 20
159.7968976406313
 30
0.0
  0
VERTEX
  5
698
330
695
100
AcDbEntity
  8
レイヤー 1
370
     0
100
AcDbVertex
100
AcDb2dVertex
 10
71.3631329975216
 20
159.7968976406313
 30
0.0
  0
VERTEX
  5
699
330
695
100
AcDbEntity
  8
レイヤー 1
370
     0
100
AcDbVertex
100
AcDb2dVertex
 10
71.3631329975216
 20
127.8027915271048
 30
0.0
  0
VERTEX
  5
69A
330
695
100
AcDbEntity
  8
レイヤー 1
370
     0
100
AcDbVertex
100
AcDb2dVertex
 10
60.43011526263018
 20
127.8027915271048
 30
0.0
  0
VERTEX
  5
69B
330
695
100
AcDbEntity
  8
レイヤー 1
370
     0
100
AcDbVertex
100
AcDb2dVertex
 10
60.43011526263018
 20
159.7968976406313
 30
0.0
  0
VERTEX
  5
69C
330
695
100
AcDbEntity
  8
レイヤー 1
370
     0
100
AcDbVertex
100
AcDb2dVertex
 10
48.21793273020759
 20
159.7968976406313
 30
0.0
  0
VERTEX
  5
69D
330
695
100
AcDbEntity
  8
レイヤー 1
370
     0
100
AcDbVertex
100
AcDb2dVertex
 10
48.21793273020759
 20
167.6444858234922
 30
0.0
  0
VERTEX
  5
69E
330
695
100
AcDbEntity
  8
レイヤー 1
370
     0
100
AcDbVertex
100
AcDb2dVertex
 10
83.79545727667795
 20
167.6444858234922
 30
0.0
  0
SEQEND
  5
69F
330
695
100
AcDbEntity
  8
レイヤー 1
370
     0
  0
HATCH
  5
6A0
330
693
100
AcDbEntity
  8
レイヤー 1
 62
   250
420
  2234388
100
AcDbHatch
 10
0.0
 20
0.0
 30
0.0
210
0.0
220
0.0
230
1.0
  2
SOLID
 70
     1
 71
     0
 91
        1
 92
        1
 93
        8
 72
     1
 10
83.79545727667795
 20
167.6444858234922
 11
83.79545727667795
 21
159.7968976406313
 72
     1
 10
83.79545727667795
 20
159.7968976406313
 11
71.3631329975216
 21
159.7968976406313
 72
     1
 10
71.3631329975216
 20
159.7968976406313
 11
71.3631329975216
 21
127.8027915271048
 72
     1
 10
71.3631329975216
 20
127.8027915271048
 11
60.43011526263018
 21
127.8027915271048
 72
     1
 10
60.43011526263018
 20
127.8027915271048
 11
60.43011526263018
 21
159.7968976406313
 72
     1
 10
60.43011526263018
 20
159.7968976406313
 11
48.21793273020759
 21
159.7968976406313
 72
     1
 10
48.21793273020759
 20
159.7968976406313
 11
48.21793273020759
 21
167.6444858234922
 72
     1
 10
48.21793273020759
 20
167.6444858234922
 11
83.79545727667795
 21
167.6444858234922
 97
        0
 75
     2
 76
     1
 98
        0
  0
INSERT
  5
6A1
330
693
100
AcDbEntity
  8
レイヤー 1
100
AcDbBlockReference
  2
block 5
 10
0.0
 20
0.0
 30
0.0
  0
ENDBLK
  5
6AE
330
693
100
AcDbEntity
  8
0
100
AcDbBlockEnd
  0
BLOCK
  5
6A3
330
6A2
100
AcDbEntity
  8
0
100
AcDbBlockBegin
  2
block 5
 70
     0
 10
0.0
 20
0.0
 30
0.0
  3
block 5
  1

  0
SPLINE
  5
6A4
330
6A2
100
AcDbEntity
  8
レイヤー 1
370
     0
100
AcDbSpline
210
0.0
220
0.0
230
1.0
 70
    11
 71
     3
 72
    56
 73
    52
 74
     0
 42
0.000000001
 43
0.0000000001
 40
0.0
 40
0.0
 40
0.0
 40
0.0
 40
1.0
 40
1.0
 40
1.0
 40
2.0
 40
2.0
 40
2.0
 40
3.0
 40
3.0
 40
3.0
 40
4.0
 40
4.0
 40
4.0
 40
5.0
 40
5.0
 40
5.0
 40
6.0
 40
6.0
 40
6.0
 40
7.0
 40
7.0
 40
7.0
 40
8.0
 40
8.0
 40
8.0
 40
9.0
 40
9.0
 40
9.0
 40
10.0
 40
10.0
 40
10.0
 40
11.0
 40
11.0
 40
11.0
 40
12.0
 40
12.0
 40
12.0
 40
13.0
 40
13.0
 40
13.0
 40
14.0
 40
14.0
 40
14.0
 40
15.0
 40
15.0
 40
15.0
 40
16.0
 40
16.0
 40
16.0
 40
17.0
 40
17.0
 40
17.0
 40
17.0
 10
100.4504378777679
 20
166.69157178364
 30
0.0
 10
101.9848844191641
 20
167.1313385124438
 30
0.0
 10
103.9637485713373
 20
166.7649523658846
 30
0.0
 10
103.9637485713373
 20
166.7649523658846
 30
0.0
 10
103.9637485713373
 20
166.7649523658846
 30
0.0
 10
103.0132460999156
 20
163.911205638077
 30
0.0
 10
103.0132460999156
 20
163.911205638077
 30
0.0
 10
103.0132460999156
 20
163.911205638077
 30
0.0
 10
101.0674548862189
 20
164.3601018759394
 30
0.0
 10
99.57090442016032
 20
163.1805004036133
 30
0.0
 10
98.40508333886608
 20
162.258247733807
 30
0.0
 10
97.65301849830304
 20
159.804132345923
 30
0.0
 10
97.3598406791005
 20
158.8699940888517
 30
0.0
 10
97.3598406791005
 20
158.8699940888517
 30
0.0
 10
96.07137411762282
 20
154.9119212747295
 30
0.0
 10
96.07137411762282
 20
154.9119212747295
 30
0.0
 10
96.07137411762282
 20
154.9119212747295
 30
0.0
 10
100.3012651448482
 20
154.9119212747295
 30
0.0
 10
100.3012651448482
 20
154.9119212747295
 30
0.0
 10
100.3012651448482
 20
154.9119212747295
 30
0.0
 10
99.64152892419852
 20
152.4199098115079
 30
0.0
 10
99.64152892419852
 20
152.4199098115079
 30
0.0
 10
99.64152892419852
 20
152.4199098115079
 30
0.0
 10
95.38097652692731
 20
152.4199098115079
 30
0.0
 10
95.38097652692731
 20
152.4199098115079
 30
0.0
 10
95.38097652692731
 20
152.4199098115079
 30
0.0
 10
87.75353009080013
 20
127.8027915271048
 30
0.0
 10
87.75353009080013
 20
127.8027915271048
 30
0.0
 10
87.75353009080013
 20
127.8027915271048
 30
0.0
 10
85.36538832498108
 20
127.8027915271048
 30
0.0
 10
85.36538832498108
 20
127.8027915271048
 30
0.0
 10
85.36538832498108
 20
127.8027915271048
 30
0.0
 10
93.00006946639998
 20
152.4199098115079
 30
0.0
 10
93.00006946639998
 20
152.4199098115079
 30
0.0
 10
93.00006946639998
 20
152.4199098115079
 30
0.0
 10
89.85297266450198
 20
152.4199098115079
 30
0.0
 10
89.85297266450198
 20
152.4199098115079
 30
0.0
 10
89.85297266450198
 20
152.4199098115079
 30
0.0
 10
90.51270888515164
 20
154.9119212747295
 30
0.0
 10
90.51270888515164
 20
154.9119212747295
 30
0.0
 10
90.51270888515164
 20
154.9119212747295
 30
0.0
 10
93.6904670570955
 20
154.9119212747295
 30
0.0
 10
93.6904670570955
 20
154.9119212747295
 30
0.0
 10
93.6904670570955
 20
154.9119212747295
 30
0.0
 10
94.81598049462158
 20
158.3616699146644
 30
0.0
 10
94.81598049462158
 20
158.3616699146644
 30
0.0
 10
95.7237637538445
 20
161.2605474231013
 30
0.0
 10
96.4968436907311
 20
162.8139420021662
 30
0.0
 10
97.15657991138076
 20
163.9844139654337
 30
0.0
 10
97.81183750494507
 20
165.1523021053827
 30
0.0
 10
99.1047826935081
 20
166.3084769129547
 30
0.0
 10
100.4504378777679
 20
166.69157178364
 30
0.0
  0
HATCH
  5
6A5
330
6A2
100
AcDbEntity
  8
レイヤー 1
 62
   250
420
  2234388
100
AcDbHatch
 10
0.0
 20
0.0
 30
0.0
210
0.0
220
0.0
230
1.0
  2
SOLID
 70
     1
 71
     0
 91
        1
 92
        1
 93
        1
 72
     4
 94
        3
 73
     0
 74
     1
 95
       56
 96
       52
 40
0.0
 40
0.0
 40
0.0
 40
0.0
 40
1.0
 40
1.0
 40
1.0
 40
2.0
 40
2.0
 40
2.0
 40
3.0
 40
3.0
 40
3.0
 40
4.0
 40
4.0
 40
4.0
 40
5.0
 40
5.0
 40
5.0
 40
6.0
 40
6.0
 40
6.0
 40
7.0
 40
7.0
 40
7.0
 40
8.0
 40
8.0
 40
8.0
 40
9.0
 40
9.0
 40
9.0
 40
10.0
 40
10.0
 40
10.0
 40
11.0
 40
11.0
 40
11.0
 40
12.0
 40
12.0
 40
12.0
 40
13.0
 40
13.0
 40
13.0
 40
14.0
 40
14.0
 40
14.0
 40
15.0
 40
15.0
 40
15.0
 40
16.0
 40
16.0
 40
16.0
 40
17.0
 40
17.0
 40
17.0
 40
17.0
 10
100.4504378777679
 20
166.69157178364
 10
101.9848844191641
 20
167.1313385124438
 10
103.9637485713373
 20
166.7649523658846
 10
103.9637485713373
 20
166.7649523658846
 10
103.9637485713373
 20
166.7649523658846
 10
103.0132460999156
 20
163.911205638077
 10
103.0132460999156
 20
163.911205638077
 10
103.0132460999156
 20
163.911205638077
 10
101.0674548862189
 20
164.3601018759394
 10
99.57090442016032
 20
163.1805004036133
 10
98.40508333886608
 20
162.258247733807
 10
97.65301849830304
 20
159.804132345923
 10
97.3598406791005
 20
158.8699940888517
 10
97.3598406791005
 20
158.8699940888517
 10
96.07137411762282
 20
154.9119212747295
 10
96.07137411762282
 20
154.9119212747295
 10
96.07137411762282
 20
154.9119212747295
 10
100.3012651448482
 20
154.9119212747295
 10
100.3012651448482
 20
154.9119212747295
 10
100.3012651448482
 20
154.9119212747295
 10
99.64152892419852
 20
152.4199098115079
 10
99.64152892419852
 20
152.4199098115079
 10
99.64152892419852
 20
152.4199098115079
 10
95.38097652692731
 20
152.4199098115079
 10
95.38097652692731
 20
152.4199098115079
 10
95.38097652692731
 20
152.4199098115079
 10
87.75353009080013
 20
127.8027915271048
 10
87.75353009080013
 20
127.8027915271048
 10
87.75353009080013
 20
127.8027915271048
 10
85.36538832498108
 20
127.8027915271048
 10
85.36538832498108
 20
127.8027915271048
 10
85.36538832498108
 20
127.8027915271048
 10
93.00006946639998
 20
152.4199098115079
 10
93.00006946639998
 20
152.4199098115079
 10
93.00006946639998
 20
152.4199098115079
 10
89.85297266450198
 20
152.4199098115079
 10
89.85297266450198
 20
152.4199098115079
 10
89.85297266450198
 20
152.4199098115079
 10
90.51270888515164
 20
154.9119212747295
 10
90.51270888515164
 20
154.9119212747295
 10
90.51270888515164
 20
154.9119212747295
 10
93.6904670570955
 20
154.9119212747295
 10
93.6904670570955
 20
154.9119212747295
 10
93.6904670570955
 20
154.9119212747295
 10
94.81598049462158
 20
158.3616699146644
 10
94.81598049462158
 20
158.3616699146644
 10
95.7237637538445
 20
161.2605474231013
 10
96.4968436907311
 20
162.8139420021662
 10
97.15657991138076
 20
163.9844139654337
 10
97.81183750494507
 20
165.1523021053827
 10
99.1047826935081
 20
166.3084769129547
 10
100.4504378777679
 20
166.69157178364
 97
        0
 75
     2
 76
     1
 98
        0
  0
SPLINE
  5
6A6
330
6A2
100
AcDbEntity
  8
レイヤー 1
370
     0
100
AcDbSpline
210
0.0
220
0.0
230
1.0
 70
    11
 71
     3
 72
    38
 73
    34
 74
     0
 42
0.000000001
 43
0.0000000001
 40
0.0
 40
0.0
 40
0.0
 40
0.0
 40
1.0
 40
1.0
 40
1.0
 40
2.0
 40
2.0
 40
2.0
 40
3.0
 40
3.0
 40
3.0
 40
4.0
 40
4.0
 40
4.0
 40
5.0
 40
5.0
 40
5.0
 40
6.0
 40
6.0
 40
6.0
 40
7.0
 40
7.0
 40
7.0
 40
8.0
 40
8.0
 40
8.0
 40
9.0
 40
9.0
 40
9.0
 40
10.0
 40
10.0
 40
10.0
 40
11.0
 40
11.0
 40
11.0
 40
11.0
 10
126.377554584636
 20
154.8151140277308
 30
0.0
 10
126.377554584636
 20
154.8151140277308
 30
0.0
 10
128.8311532078563
 20
154.8151140277308
 30
0.0
 10
128.8311532078563
 20
154.8151140277308
 30
0.0
 10
128.8311532078563
 20
154.8151140277308
 30
0.0
 10
127.7345785914971
 20
151.3062819612468
 30
0.0
 10
127.7345785914971
 20
151.3062819612468
 30
0.0
 10
128.571392836906
 20
152.2922689395754
 30
0.0
 10
129.8860421413442
 20
153.604506675583
 30
0.0
 10
131.0163787157314
 20
154.2664822097754
 30
0.0
 10
132.7044766171327
 20
155.2500576196734
 30
0.0
 10
133.6642808525008
 20
155.3847609420097
 30
0.0
 10
134.7284715499351
 20
155.3565111403944
 30
0.0
 10
134.7284715499351
 20
155.3565111403944
 30
0.0
 10
133.6877075172549
 20
152.0345756272799
 30
0.0
 10
133.6877075172549
 20
152.0345756272799
 30
0.0
 10
133.011434827367
 20
152.3184516825359
 30
0.0
 10
130.930940291334
 20
151.7768823149844
 30
0.0
 10
129.739280976855
 20
150.9162968950455
 30
0.0
 10
128.66613302525
 20
150.1454562717016
 30
0.0
 10
127.9192358313239
 20
149.4857200510519
 30
0.0
 10
127.0393578639405
 20
147.8282835196966
 30
0.0
 10
126.164647543194
 20
146.1699857139017
 30
0.0
 10
125.4742499524985
 20
143.5262176944419
 30
0.0
 10
124.2822461282437
 20
139.6959580071401
 30
0.0
 10
124.2822461282437
 20
139.6959580071401
 30
0.0
 10
120.5753209406769
 20
127.8027915271048
 30
0.0
 10
120.5753209406769
 20
127.8027915271048
 30
0.0
 10
120.5753209406769
 20
127.8027915271048
 30
0.0
 10
118.1964809388044
 20
127.8027915271048
 30
0.0
 10
118.1964809388044
 20
127.8027915271048
 30
0.0
 10
118.1964809388044
 20
127.8027915271048
 30
0.0
 10
126.377554584636
 20
154.8151140277308
 30
0.0
 10
126.377554584636
 20
154.8151140277308
 30
0.0
  0
HATCH
  5
6A7
330
6A2
100
AcDbEntity
  8
レイヤー 1
 62
   250
420
  2234388
100
AcDbHatch
 10
0.0
 20
0.0
 30
0.0
210
0.0
220
0.0
230
1.0
  2
SOLID
 70
     1
 71
     0
 91
        1
 92
        1
 93
        1
 72
     4
 94
        3
 73
     0
 74
     1
 95
       38
 96
       34
 40
0.0
 40
0.0
 40
0.0
 40
0.0
 40
1.0
 40
1.0
 40
1.0
 40
2.0
 40
2.0
 40
2.0
 40
3.0
 40
3.0
 40
3.0
 40
4.0
 40
4.0
 40
4.0
 40
5.0
 40
5.0
 40
5.0
 40
6.0
 40
6.0
 40
6.0
 40
7.0
 40
7.0
 40
7.0
 40
8.0
 40
8.0
 40
8.0
 40
9.0
 40
9.0
 40
9.0
 40
10.0
 40
10.0
 40
10.0
 40
11.0
 40
11.0
 40
11.0
 40
11.0
 10
126.377554584636
 20
154.8151140277308
 10
126.377554584636
 20
154.8151140277308
 10
128.8311532078563
 20
154.8151140277308
 10
128.8311532078563
 20
154.8151140277308
 10
128.8311532078563
 20
154.8151140277308
 10
127.7345785914971
 20
151.3062819612468
 10
127.7345785914971
 20
151.3062819612468
 10
128.571392836906
 20
152.2922689395754
 10
129.8860421413442
 20
153.604506675583
 10
131.0163787157314
 20
154.2664822097754
 10
132.7044766171327
 20
155.2500576196734
 10
133.6642808525008
 20
155.3847609420097
 10
134.7284715499351
 20
155.3565111403944
 10
134.7284715499351
 20
155.3565111403944
 10
133.6877075172549
 20
152.0345756272799
 10
133.6877075172549
 20
152.0345756272799
 10
133.011434827367
 20
152.3184516825359
 10
130.930940291334
 20
151.7768823149844
 10
129.739280976855
 20
150.9162968950455
 10
128.66613302525
 20
150.1454562717016
 10
127.9192358313239
 20
149.4857200510519
 10
127.0393578639405
 20
147.8282835196966
 10
126.164647543194
 20
146.1699857139017
 10
125.4742499524985
 20
143.5262176944419
 10
124.2822461282437
 20
139.6959580071401
 10
124.2822461282437
 20
139.6959580071401
 10
120.5753209406769
 20
127.8027915271048
 10
120.5753209406769
 20
127.8027915271048
 10
120.5753209406769
 20
127.8027915271048
 10
118.1964809388044
 20
127.8027915271048
 10
118.1964809388044
 20
127.8027915271048
 10
118.1964809388044
 20
127.8027915271048
 10
126.377554584636
 20
154.8151140277308
 10
126.377554584636
 20
154.8151140277308
 97
        0
 75
     2
 76
     1
 98
        0
  0
SPLINE
  5
6A8
330
6A2
100
AcDbEntity
  8
レイヤー 1
370
     0
100
AcDbSpline
210
0.0
220
0.0
230
1.0
 70
    11
 71
     3
 72
   104
 73
   100
 74
     0
 42
0.000000001
 43
0.0000000001
 40
0.0
 40
0.0
 40
0.0
 40
0.0
 40
1.0
 40
1.0
 40
1.0
 40
2.0
 40
2.0
 40
2.0
 40
3.0
 40
3.0
 40
3.0
 40
4.0
 40
4.0
 40
4.0
 40
5.0
 40
5.0
 40
5.0
 40
6.0
 40
6.0
 40
6.0
 40
7.0
 40
7.0
 40
7.0
 40
8.0
 40
8.0
 40
8.0
 40
9.0
 40
9.0
 40
9.0
 40
10.0
 40
10.0
 40
10.0
 40
11.0
 40
11.0
 40
11.0
 40
12.0
 40
12.0
 40
12.0
 40
13.0
 40
13.0
 40
13.0
 40
14.0
 40
14.0
 40
14.0
 40
15.0
 40
15.0
 40
15.0
 40
16.0
 40
16.0
 40
16.0
 40
17.0
 40
17.0
 40
17.0
 40
18.0
 40
18.0
 40
18.0
 40
19.0
 40
19.0
 40
19.0
 40
20.0
 40
20.0
 40
20.0
 40
21.0
 40
21.0
 40
21.0
 40
22.0
 40
22.0
 40
22.0
 40
23.0
 40
23.0
 40
23.0
 40
24.0
 40
24.0
 40
24.0
 40
25.0
 40
25.0
 40
25.0
 40
26.0
 40
26.0
 40
26.0
 40
27.0
 40
27.0
 40
27.0
 40
28.0
 40
28.0
 40
28.0
 40
29.0
 40
29.0
 40
29.0
 40
30.0
 40
30.0
 40
30.0
 40
31.0
 40
31.0
 40
31.0
 40
32.0
 40
32.0
 40
32.0
 40
33.0
 40
33.0
 40
33.0
 40
33.0
 10
139.8926730891197
 20
154.8294111834263
 30
0.0
 10
139.8926730891197
 20
154.8294111834263
 30
0.0
 10
142.0344903652445
 20
154.8294111834263
 30
0.0
 10
142.0344903652445
 20
154.8294111834263
 30
0.0
 10
142.0344903652445
 20
154.8294111834263
 30
0.0
 10
140.9516961399171
 20
151.3157559800812
 30
0.0
 10
140.9516961399171
 20
151.3157559800812
 30
0.0
 10
141.8928968473923
 20
152.7887075264977
 30
0.0
 10
142.7341897198865
 20
153.4484437471474
 30
0.0
 10
143.8552245303272
 20
154.2926649527359
 30
0.0
 10
144.9803934580775
 20
155.1296514530327
 30
0.0
 10
146.3139908001845
 20
155.3044901642492
 30
0.0
 10
147.241066606852
 20
155.3044901642492
 30
0.0
 10
148.3855280820469
 20
155.3044901642492
 30
0.0
 10
149.4969166187653
 20
155.0752189084569
 30
0.0
 10
150.0784491203092
 20
153.8172414621372
 30
0.0
 10
150.5228667310863
 20
152.833838307127
 30
0.0
 10
150.5414702589793
 20
152.7201500811143
 30
0.0
 10
150.4140016419347
 20
150.7765981809602
 30
0.0
 10
151.5818897818837
 20
152.7699317437168
 30
0.0
 10
152.4424752018226
 20
153.6256940267945
 30
0.0
 10
153.9038856707499
 20
154.4507949398263
 30
0.0
 10
155.4455669174378
 20
155.3044901642492
 30
0.0
 10
156.339225275853
 20
155.3659851592288
 30
0.0
 10
157.3748216618963
 20
155.2147453676543
 30
0.0
 10
158.911679771723
 20
154.9877134254046
 30
0.0
 10
159.8859534176746
 20
154.4390816074493
 30
0.0
 10
160.3965169054045
 20
152.7816450760939
 30
0.0
 10
160.9070803931344
 20
151.1219692311958
 30
0.0
 10
160.6328506116007
 20
150.2303779314354
 30
0.0
 10
159.9992971339115
 20
147.597634224801
 30
0.0
 10
159.7105979417943
 20
146.4014962832367
 30
0.0
 10
159.2947746424084
 20
144.9400858143094
 30
0.0
 10
158.7463150793409
 20
143.2092687007094
 30
0.0
 10
158.7463150793409
 20
143.2092687007094
 30
0.0
 10
153.9038856707499
 20
127.8027915271048
 30
0.0
 10
153.9038856707499
 20
127.8027915271048
 30
0.0
 10
153.9038856707499
 20
127.8027915271048
 30
0.0
 10
151.3882752878863
 20
127.8027915271048
 30
0.0
 10
151.3882752878863
 20
127.8027915271048
 30
0.0
 10
151.3882752878863
 20
127.8027915271048
 30
0.0
 10
155.6250565106276
 20
141.2751908193897
 30
0.0
 10
155.6250565106276
 20
141.2751908193897
 30
0.0
 10
156.5094131050963
 20
144.0936252951782
 30
0.0
 10
157.109893644309
 20
146.1506931664571
 30
0.0
 10
157.4220195011804
 20
147.4415712963654
 30
0.0
 10
157.8095929989511
 20
149.0530157726519
 30
0.0
 10
157.9656559273867
 20
149.5826995529385
 30
0.0
 10
157.7816877071116
 20
150.7529992613181
 30
0.0
 10
157.6111553680925
 20
151.8430281919372
 30
0.0
 10
157.0582171779396
 20
152.5547853887321
 30
0.0
 10
156.1170164704645
 20
152.5547853887321
 30
0.0
 10
155.1096698860365
 20
152.5547853887321
 30
0.0
 10
154.2962823053817
 20
152.4412694176073
 30
0.0
 10
153.156643967048
 20
151.2945686288697
 30
0.0
 10
152.0170056287143
 20
150.1476955852443
 30
0.0
 10
151.076149431015
 20
148.7930831468137
 30
0.0
 10
150.3337308641742
 20
147.2290087646991
 30
0.0
 10
149.5957909244188
 20
145.6683794803425
 30
0.0
 10
148.8530278478023
 20
143.6822806228776
 30
0.0
 10
148.0964843801539
 20
141.2751908193897
 30
0.0
 10
148.0964843801539
 20
141.2751908193897
 30
0.0
 10
143.8552245303272
 20
127.8027915271048
 30
0.0
 10
143.8552245303272
 20
127.8027915271048
 30
0.0
 10
143.8552245303272
 20
127.8027915271048
 30
0.0
 10
141.486030802177
 20
127.8027915271048
 30
0.0
 10
141.486030802177
 20
127.8027915271048
 30
0.0
 10
141.486030802177
 20
127.8027915271048
 30
0.0
 10
146.3329388378533
 20
143.2092687007094
 30
0.0
 10
146.3329388378533
 20
143.2092687007094
 30
0.0
 10
146.8483254624444
 20
144.8408669988801
 30
0.0
 10
147.2314203331297
 20
146.1837661049335
 30
0.0
 10
147.4867020769946
 20
147.224185627838
 30
0.0
 10
147.9169947869641
 20
149.0197705792876
 30
0.0
 10
148.0306830129768
 20
150.2400242051577
 30
0.0
 10
147.709255392159
 20
151.3157559800812
 30
0.0
 10
147.3874832615654
 20
152.3916600098926
 30
0.0
 10
146.8245542879144
 20
152.6683013598569
 30
0.0
 10
145.8840425999909
 20
152.6683013598569
 30
0.0
 10
145.0989048209514
 20
152.6683013598569
 30
0.0
 10
144.3282364524954
 20
152.3275811915945
 30
0.0
 10
143.4531816219731
 20
151.6538923250251
 30
0.0
 10
142.34627171234
 20
150.8074318058939
 30
0.0
 10
141.901854101563
 20
150.1097995099067
 30
0.0
 10
141.3578731655808
 20
149.289521733736
 30
0.0
 10
140.6299240093235
 20
148.192602607601
 30
0.0
 10
140.2850697237515
 20
147.455696197173
 30
0.0
 10
139.6652966370942
 20
145.8385673095858
 30
0.0
 10
139.0506911970739
 20
144.2214384219986
 30
0.0
 10
138.463991048893
 20
142.3252566160164
 30
0.0
 10
138.0571250036777
 20
141.0154304484394
 30
0.0
 10
138.0571250036777
 20
141.0154304484394
 30
0.0
 10
133.9009590684727
 20
127.8027915271048
 30
0.0
 10
133.9009590684727
 20
127.8027915271048
 30
0.0
 10
133.9009590684727
 20
127.8027915271048
 30
0.0
 10
131.4180771143097
 20
127.8027915271048
 30
0.0
 10
131.4180771143097
 20
127.8027915271048
 30
0.0
 10
131.4180771143097
 20
127.8027915271048
 30
0.0
 10
139.8926730891197
 20
154.8294111834263
 30
0.0
 10
139.8926730891197
 20
154.8294111834263
 30
0.0
  0
HATCH
  5
6A9
330
6A2
100
AcDbEntity
  8
レイヤー 1
 62
   250
420
  2234388
100
AcDbHatch
 10
0.0
 20
0.0
 30
0.0
210
0.0
220
0.0
230
1.0
  2
SOLID
 70
     1
 71
     0
 91
        1
 92
        1
 93
        1
 72
     4
 94
        3
 73
     0
 74
     1
 95
      104
 96
      100
 40
0.0
 40
0.0
 40
0.0
 40
0.0
 40
1.0
 40
1.0
 40
1.0
 40
2.0
 40
2.0
 40
2.0
 40
3.0
 40
3.0
 40
3.0
 40
4.0
 40
4.0
 40
4.0
 40
5.0
 40
5.0
 40
5.0
 40
6.0
 40
6.0
 40
6.0
 40
7.0
 40
7.0
 40
7.0
 40
8.0
 40
8.0
 40
8.0
 40
9.0
 40
9.0
 40
9.0
 40
10.0
 40
10.0
 40
10.0
 40
11.0
 40
11.0
 40
11.0
 40
12.0
 40
12.0
 40
12.0
 40
13.0
 40
13.0
 40
13.0
 40
14.0
 40
14.0
 40
14.0
 40
15.0
 40
15.0
 40
15.0
 40
16.0
 40
16.0
 40
16.0
 40
17.0
 40
17.0
 40
17.0
 40
18.0
 40
18.0
 40
18.0
 40
19.0
 40
19.0
 40
19.0
 40
20.0
 40
20.0
 40
20.0
 40
21.0
 40
21.0
 40
21.0
 40
22.0
 40
22.0
 40
22.0
 40
23.0
 40
23.0
 40
23.0
 40
24.0
 40
24.0
 40
24.0
 40
25.0
 40
25.0
 40
25.0
 40
26.0
 40
26.0
 40
26.0
 40
27.0
 40
27.0
 40
27.0
 40
28.0
 40
28.0
 40
28.0
 40
29.0
 40
29.0
 40
29.0
 40
30.0
 40
30.0
 40
30.0
 40
31.0
 40
31.0
 40
31.0
 40
32.0
 40
32.0
 40
32.0
 40
33.0
 40
33.0
 40
33.0
 40
33.0
 10
139.8926730891197
 20
154.8294111834263
 10
139.8926730891197
 20
154.8294111834263
 10
142.0344903652445
 20
154.8294111834263
 10
142.0344903652445
 20
154.8294111834263
 10
142.0344903652445
 20
154.8294111834263
 10
140.9516961399171
 20
151.3157559800812
 10
140.9516961399171
 20
151.3157559800812
 10
141.8928968473923
 20
152.7887075264977
 10
142.7341897198865
 20
153.4484437471474
 10
143.8552245303272
 20
154.2926649527359
 10
144.9803934580775
 20
155.1296514530327
 10
146.3139908001845
 20
155.3044901642492
 10
147.241066606852
 20
155.3044901642492
 10
148.3855280820469
 20
155.3044901642492
 10
149.4969166187653
 20
155.0752189084569
 10
150.0784491203092
 20
153.8172414621372
 10
150.5228667310863
 20
152.833838307127
 10
150.5414702589793
 20
152.7201500811143
 10
150.4140016419347
 20
150.7765981809602
 10
151.5818897818837
 20
152.7699317437168
 10
152.4424752018226
 20
153.6256940267945
 10
153.9038856707499
 20
154.4507949398263
 10
155.4455669174378
 20
155.3044901642492
 10
156.339225275853
 20
155.3659851592288
 10
157.3748216618963
 20
155.2147453676543
 10
158.911679771723
 20
154.9877134254046
 10
159.8859534176746
 20
154.4390816074493
 10
160.3965169054045
 20
152.7816450760939
 10
160.9070803931344
 20
151.1219692311958
 10
160.6328506116007
 20
150.2303779314354
 10
159.9992971339115
 20
147.597634224801
 10
159.7105979417943
 20
146.4014962832367
 10
159.2947746424084
 20
144.9400858143094
 10
158.7463150793409
 20
143.2092687007094
 10
158.7463150793409
 20
143.2092687007094
 10
153.9038856707499
 20
127.8027915271048
 10
153.9038856707499
 20
127.8027915271048
 10
153.9038856707499
 20
127.8027915271048
 10
151.3882752878863
 20
127.8027915271048
 10
151.3882752878863
 20
127.8027915271048
 10
151.3882752878863
 20
127.8027915271048
 10
155.6250565106276
 20
141.2751908193897
 10
155.6250565106276
 20
141.2751908193897
 10
156.5094131050963
 20
144.0936252951782
 10
157.109893644309
 20
146.1506931664571
 10
157.4220195011804
 20
147.4415712963654
 10
157.8095929989511
 20
149.0530157726519
 10
157.9656559273867
 20
149.5826995529385
 10
157.7816877071116
 20
150.7529992613181
 10
157.6111553680925
 20
151.8430281919372
 10
157.0582171779396
 20
152.5547853887321
 10
156.1170164704645
 20
152.5547853887321
 10
155.1096698860365
 20
152.5547853887321
 10
154.2962823053817
 20
152.4412694176073
 10
153.156643967048
 20
151.2945686288697
 10
152.0170056287143
 20
150.1476955852443
 10
151.076149431015
 20
148.7930831468137
 10
150.3337308641742
 20
147.2290087646991
 10
149.5957909244188
 20
145.6683794803425
 10
148.8530278478023
 20
143.6822806228776
 10
148.0964843801539
 20
141.2751908193897
 10
148.0964843801539
 20
141.2751908193897
 10
143.8552245303272
 20
127.8027915271048
 10
143.8552245303272
 20
127.8027915271048
 10
143.8552245303272
 20
127.8027915271048
 10
141.486030802177
 20
127.8027915271048
 10
141.486030802177
 20
127.8027915271048
 10
141.486030802177
 20
127.8027915271048
 10
146.3329388378533
 20
143.2092687007094
 10
146.3329388378533
 20
143.2092687007094
 10
146.8483254624444
 20
144.8408669988801
 10
147.2314203331297
 20
146.1837661049335
 10
147.4867020769946
 20
147.224185627838
 10
147.9169947869641
 20
149.0197705792876
 10
148.0306830129768
 20
150.2400242051577
 10
147.709255392159
 20
151.3157559800812
 10
147.3874832615654
 20
152.3916600098926
 10
146.8245542879144
 20
152.6683013598569
 10
145.8840425999909
 20
152.6683013598569
 10
145.0989048209514
 20
152.6683013598569
 10
144.3282364524954
 20
152.3275811915945
 10
143.4531816219731
 20
151.6538923250251
 10
142.34627171234
 20
150.8074318058939
 10
141.901854101563
 20
150.1097995099067
 10
141.3578731655808
 20
149.289521733736
 10
140.6299240093235
 20
148.192602607601
 10
140.2850697237515
 20
147.455696197173
 10
139.6652966370942
 20
145.8385673095858
 10
139.0506911970739
 20
144.2214384219986
 10
138.463991048893
 20
142.3252566160164
 10
138.0571250036777
 20
141.0154304484394
 10
138.0571250036777
 20
141.0154304484394
 10
133.9009590684727
 20
127.8027915271048
 10
133.9009590684727
 20
127.8027915271048
 10
133.9009590684727
 20
127.8027915271048
 10
131.4180771143097
 20
127.8027915271048
 10
131.4180771143097
 20
127.8027915271048
 10
131.4180771143097
 20
127.8027915271048
 10
139.8926730891197
 20
154.8294111834263
 10
139.8926730891197
 20
154.8294111834263
 97
        0
 75
     2
 76
     1
 98
        0
  0
SPLINE
  5
6AA
330
6A2
100
AcDbEntity
  8
レイヤー 1
370
     0
100
AcDbSpline
210
0.0
220
0.0
230
1.0
 70
    11
 71
     3
 72
    29
 73
    25
 74
     0
 42
0.000000001
 43
0.0000000001
 40
0.0
 40
0.0
 40
0.0
 40
0.0
 40
1.0
 40
1.0
 40
1.0
 40
2.0
 40
2.0
 40
2.0
 40
3.0
 40
3.0
 40
3.0
 40
4.0
 40
4.0
 40
4.0
 40
5.0
 40
5.0
 40
5.0
 40
6.0
 40
6.0
 40
6.0
 40
7.0
 40
7.0
 40
7.0
 40
8.0
 40
8.0
 40
8.0
 40
8.0
 10
101.6420971922469
 20
132.8388354296931
 30
0.0
 10
101.630039350094
 20
134.7164137077823
 30
0.0
 10
102.2236296937908
 20
138.0598810818841
 30
0.0
 10
103.7487744712405
 20
142.5378191476827
 30
0.0
 10
105.819967243327
 20
148.5896501242061
 30
0.0
 10
107.0602024361932
 20
150.8074318058939
 30
0.0
 10
108.1522984254671
 20
151.8833358357054
 30
0.0
 10
109.741177511439
 20
153.4532668840085
 30
0.0
 10
111.8740375333931
 20
153.5290590346837
 30
0.0
 10
112.5075910110823
 20
153.4532668840085
 30
0.0
 10
113.4012493694975
 20
153.3490526768302
 30
0.0
 10
114.6683563248758
 20
152.7580461564518
 30
0.0
 10
114.7493161221879
 20
150.7838328862519
 30
0.0
 10
114.8106388622796
 20
149.0909118479895
 30
0.0
 10
114.3186789024427
 20
145.9191825971221
 30
0.0
 10
112.6164561002338
 20
140.9489400617108
 30
0.0
 10
110.6444821435766
 20
135.1746117095912
 30
0.0
 10
109.4669477299053
 20
132.8960240524753
 30
0.0
 10
108.5212683953448
 20
131.9072809959403
 30
0.0
 10
106.7346406980658
 20
130.0538184021569
 30
0.0
 10
104.8222669326213
 20
130.2336525051225
 30
0.0
 10
104.5408024457958
 20
130.2336525051225
 30
0.0
 10
104.1721769856939
 20
130.2336525051225
 30
0.0
 10
101.6465758193322
 20
130.6305277668397
 30
0.0
 10
101.6420971922469
 20
132.8388354296931
 30
0.0
  0
SPLINE
  5
6AB
330
6A2
100
AcDbEntity
  8
レイヤー 1
370
     0
100
AcDbSpline
210
0.0
220
0.0
230
1.0
 70
    11
 71
     3
 72
    32
 73
    28
 74
     0
 42
0.000000001
 43
0.0000000001
 40
0.0
 40
0.0
 40
0.0
 40
0.0
 40
1.0
 40
1.0
 40
1.0
 40
2.0
 40
2.0
 40
2.0
 40
3.0
 40
3.0
 40
3.0
 40
4.0
 40
4.0
 40
4.0
 40
5.0
 40
5.0
 40
5.0
 40
6.0
 40
6.0
 40
6.0
 40
7.0
 40
7.0
 40
7.0
 40
8.0
 40
8.0
 40
8.0
 40
9.0
 40
9.0
 40
9.0
 40
9.0
 10
106.2595617172429
 20
153.4105476718098
 30
0.0
 10
104.8222669326213
 20
151.5474388043041
 30
0.0
 10
103.7177685914188
 20
149.8758773721411
 30
0.0
 10
101.9232171692965
 20
144.6141795664062
 30
0.0
 10
100.2754269116635
 20
139.7999999594306
 30
0.0
 10
99.22777268346732
 20
136.3052927937542
 30
0.0
 10
99.06964269637689
 20
132.039572749846
 30
0.0
 10
98.94665270641765
 20
128.8673267343149
 30
0.0
 10
100.8807305877373
 20
127.8027915271048
 30
0.0
 10
103.7129454545577
 20
127.8027915271048
 30
0.0
 10
104.9352661390825
 20
127.8027915271048
 30
0.0
 10
108.0151835347002
 20
127.8827177950895
 30
0.0
 10
110.2045431598849
 20
130.5926316915021
 30
0.0
 10
111.7417457794874
 20
132.4984597712065
 30
0.0
 10
113.155269389579
 20
134.475256864725
 30
0.0
 10
115.0562743324223
 20
140.9489400617108
 30
0.0
 10
116.6361961642235
 20
146.3680788349845
 30
0.0
 10
117.7282921534974
 20
149.8639917848761
 30
0.0
 10
117.6480213757369
 20
151.8595646611754
 30
0.0
 10
117.6480213757369
 20
151.8595646611754
 30
0.0
 10
117.6480213757369
 20
151.8595646611754
 30
0.0
 10
117.6480213757369
 20
151.8595646611754
 30
0.0
 10
117.13229024137
 20
155.18150017429
 30
0.0
 10
114.7162431837115
 20
155.886194920681
 30
0.0
 10
113.3351034925446
 20
155.886194920681
 30
0.0
 10
111.9829026225447
 20
155.886194920681
 30
0.0
 10
108.3414342923792
 20
156.1251124501957
 30
0.0
 10
106.2595617172429
 20
153.4105476718098
 30
0.0
  0
HATCH
  5
6AC
330
6A2
100
AcDbEntity
  8
レイヤー 1
 62
   250
420
  2234388
100
AcDbHatch
 10
0.0
 20
0.0
 30
0.0
210
0.0
220
0.0
230
1.0
  2
SOLID
 70
     1
 71
     0
 91
        2
 92
        1
 93
        1
 72
     4
 94
        3
 73
     0
 74
     1
 95
       29
 96
       25
 40
0.0
 40
0.0
 40
0.0
 40
0.0
 40
1.0
 40
1.0
 40
1.0
 40
2.0
 40
2.0
 40
2.0
 40
3.0
 40
3.0
 40
3.0
 40
4.0
 40
4.0
 40
4.0
 40
5.0
 40
5.0
 40
5.0
 40
6.0
 40
6.0
 40
6.0
 40
7.0
 40
7.0
 40
7.0
 40
8.0
 40
8.0
 40
8.0
 40
8.0
 10
101.6420971922469
 20
132.8388354296931
 10
101.630039350094
 20
134.7164137077823
 10
102.2236296937908
 20
138.0598810818841
 10
103.7487744712405
 20
142.5378191476827
 10
105.819967243327
 20
148.5896501242061
 10
107.0602024361932
 20
150.8074318058939
 10
108.1522984254671
 20
151.8833358357054
 10
109.741177511439
 20
153.4532668840085
 10
111.8740375333931
 20
153.5290590346837
 10
112.5075910110823
 20
153.4532668840085
 10
113.4012493694975
 20
153.3490526768302
 10
114.6683563248758
 20
152.7580461564518
 10
114.7493161221879
 20
150.7838328862519
 10
114.8106388622796
 20
149.0909118479895
 10
114.3186789024427
 20
145.9191825971221
 10
112.6164561002338
 20
140.9489400617108
 10
110.6444821435766
 20
135.1746117095912
 10
109.4669477299053
 20
132.8960240524753
 10
108.5212683953448
 20
131.9072809959403
 10
106.7346406980658
 20
130.0538184021569
 10
104.8222669326213
 20
130.2336525051225
 10
104.5408024457958
 20
130.2336525051225
 10
104.1721769856939
 20
130.2336525051225
 10
101.6465758193322
 20
130.6305277668397
 10
101.6420971922469
 20
132.8388354296931
 97
        0
 92
        1
 93
        1
 72
     4
 94
        3
 73
     0
 74
     1
 95
       32
 96
       28
 40
0.0
 40
0.0
 40
0.0
 40
0.0
 40
1.0
 40
1.0
 40
1.0
 40
2.0
 40
2.0
 40
2.0
 40
3.0
 40
3.0
 40
3.0
 40
4.0
 40
4.0
 40
4.0
 40
5.0
 40
5.0
 40
5.0
 40
6.0
 40
6.0
 40
6.0
 40
7.0
 40
7.0
 40
7.0
 40
8.0
 40
8.0
 40
8.0
 40
9.0
 40
9.0
 40
9.0
 40
9.0
 10
106.2595617172429
 20
153.4105476718098
 10
104.8222669326213
 20
151.5474388043041
 10
103.7177685914188
 20
149.8758773721411
 10
101.9232171692965
 20
144.6141795664062
 10
100.2754269116635
 20
139.7999999594306
 10
99.22777268346732
 20
136.3052927937542
 10
99.06964269637689
 20
132.039572749846
 10
98.94665270641765
 20
128.8673267343149
 10
100.8807305877373
 20
127.8027915271048
 10
103.7129454545577
 20
127.8027915271048
 10
104.9352661390825
 20
127.8027915271048
 10
108.0151835347002
 20
127.8827177950895
 10
110.2045431598849
 20
130.5926316915021
 10
111.7417457794874
 20
132.4984597712065
 10
113.155269389579
 20
134.475256864725
 10
115.0562743324223
 20
140.9489400617108
 10
116.6361961642235
 20
146.3680788349845
 10
117.7282921534974
 20
149.8639917848761
 10
117.6480213757369
 20
151.8595646611754
 10
117.6480213757369
 20
151.8595646611754
 10
117.6480213757369
 20
151.8595646611754
 10
117.6480213757369
 20
151.8595646611754
 10
117.13229024137
 20
155.18150017429
 10
114.7162431837115
 20
155.886194920681
 10
113.3351034925446
 20
155.886194920681
 10
111.9829026225447
 20
155.886194920681
 10
108.3414342923792
 20
156.1251124501957
 10
106.2595617172429
 20
153.4105476718098
 97
        0
 75
     2
 76
     1
 98
        0
  0
ENDBLK
  5
6AD
330
6A2
100
AcDbEntity
  8
0
100
AcDbBlockEnd
  0
BLOCK
  5
257A
330
2579
100
AcDbEntity
  8
0
100
AcDbBlockBegin
  2
*D62
 70
     1
 10
0.0
 20
0.0
 30
0.0
  3
*D62
  1

  0
LINE
  5
257C
330
2579
100
AcDbEntity
  8
MODEL
  6
Continuous
 62
     0
370
    -2
100
AcDbLine
 10
283.5995744909134
 20
325.4289502116497
 30
0.0
 11
283.5995744909134
 21
271.9254905309935
 31
0.0
  0
LINE
  5
257D
330
2579
100
AcDbEntity
  8
MODEL
  6
Continuous
 62
     0
370
    -2
100
AcDbLine
 10
308.3996161227603
 20
341.3631041535539
 30
0.0
 11
343.728375334609
 21
290.8731964186398
 31
0.0
  0
ARC
  5
257E
330
2579
100
AcDbEntity
  8
MODEL
  6
Continuous
 62
     0
370
    -2
100
AcDbCircle
 10
283.5995744909134
 20
376.8059513338201
 30
0.0
 40
104.8804608028266
100
AcDbArc
 50
273.2782233264346
 51
301.7029987313999
  0
INSERT
  5
257F
330
2579
100
AcDbEntity
  8
MODEL
 62
     0
370
    -2
100
AcDbBlockReference
  2
_DOT
 10
283.5995744909134
 20
271.9254905309935
 30
0.0
 41
6.0
 42
6.0
 43
6.0
 50
181.6391116632173
  0
INSERT
  5
2580
330
2579
100
AcDbEntity
  8
MODEL
 62
     0
370
    -2
100
AcDbBlockReference
  2
_DOT
 10
343.728375334609
 20
290.8731964186398
 30
0.0
 41
6.0
 42
6.0
 43
6.0
 50
33.34211039461717
  0
MTEXT
  5
2581
330
2579
100
AcDbEntity
  8
MODEL
  6
Continuous
 62
     0
370
     0
100
AcDbMText
 10
310.2494381555616
 20
292.235061627957
 30
0.0
 40
12.0
 41
0.0
 46
0.0
 71
     5
 72
     1
  1
\A1;34.98%%d
  7
ＭＳ ゴシック
 11
0.9537662141388945
 21
0.3005495113407448
 31
0.0
 73
     1
 44
1.0
  0
POINT
  5
2582
330
2579
100
AcDbEntity
  8
Defpoints
 62
     0
100
AcDbPoint
 10
304.7970255096516
 20
274.0899392981037
 30
0.0
  0
POINT
  5
2583
330
2579
100
AcDbEntity
  8
Defpoints
 62
     0
100
AcDbPoint
 10
283.5995744909134
 20
409.5174575352702
 30
0.0
  0
POINT
  5
2584
330
2579
100
AcDbEntity
  8
Defpoints
 62
     0
100
AcDbPoint
 10
262.3798140964269
 20
407.1320586859085
 30
0.0
  0
POINT
  5
2585
330
2579
100
AcDbEntity
  8
Defpoints
 62
     0
100
AcDbPoint
 10
294.0669176431224
 20
361.8466037151959
 30
0.0
  0
POINT
  5
2586
330
2579
100
AcDbEntity
  8
Defpoints
 62
     0
100
AcDbPoint
 10
283.5995744909134
 20
350.4289502116497
 30
0.0
  0
ENDBLK
  5
257B
330
2579
100
AcDbEntity
  8
0
100
AcDbBlockEnd
  0
BLOCK
  5
258B
330
258A
100
AcDbEntity
  8
0
100
AcDbBlockBegin
  2
*D63
 70
     1
 10
0.0
 20
0.0
 30
0.0
  3
*D63
  1

  0
LINE
  5
258D
330
258A
100
AcDbEntity
  8
MODEL
  6
Continuous
 62
     0
370
    -2
100
AcDbLine
 10
297.4361336505055
 20
387.9542421580371
 30
0.0
 11
312.5003637528176
 21
399.5577707503591
 31
0.0
  0
ARC
  5
258E
330
258A
100
AcDbEntity
  8
MODEL
  6
Continuous
 62
     0
370
    -2
100
AcDbCircle
 10
263.5420065492745
 20
361.8466037151959
 30
0.0
 40
61.79848589750158
100
AcDbArc
 50
5.565020550395628
 51
32.0409708070073
  0
INSERT
  5
258F
330
258A
100
AcDbEntity
  8
MODEL
 62
     0
370
    -2
100
AcDbBlockReference
  2
_DOT
 10
325.3404924467761
 20
361.8466037151959
 30
0.0
 41
6.0
 42
6.0
 43
6.0
 50
272.7825102751978
  0
INSERT
  5
2590
330
258A
100
AcDbEntity
  8
MODEL
 62
     0
370
    -2
100
AcDbBlockReference
  2
_DOT
 10
312.5003637528176
 20
399.5577707503591
 30
0.0
 41
6.0
 42
6.0
 43
6.0
 50
124.8234810822051
  0
MTEXT
  5
2591
330
258A
100
AcDbEntity
  8
MODEL
  6
Continuous
 62
     0
370
     0
100
AcDbMText
 10
337.1885746970426
 20
386.9222374659091
 30
0.0
 40
12.0
 41
0.0
 46
0.0
 71
     5
 72
     1
  1
40
  7
ＭＳ ゴシック
 11
0.3223151898322293
 21
-0.9466324093350142
 31
0.0
 73
     1
 44
1.0
  0
POINT
  5
2592
330
258A
100
AcDbEntity
  8
Defpoints
 62
     0
100
AcDbPoint
 10
323.8673622495186
 20
375.2594452807528
 30
0.0
  0
POINT
  5
2593
330
258A
100
AcDbEntity
  8
Defpoints
 62
     0
100
AcDbPoint
 10
253.268942733612
 20
361.8466037151959
 30
0.0
  0
POINT
  5
2594
330
258A
100
AcDbEntity
  8
Defpoints
 62
     0
100
AcDbPoint
 10
277.0801162561484
 20
372.2746071380586
 30
0.0
  0
POINT
  5
2595
330
258A
100
AcDbEntity
  8
Defpoints
 62
     0
100
AcDbPoint
 10
277.6304877303348
 20
372.6985419222293
 30
0.0
  0
POINT
  5
2596
330
258A
100
AcDbEntity
  8
Defpoints
 62
     0
100
AcDbPoint
 10
350.2751626076546
 20
361.8466037151959
 30
0.0
  0
ENDBLK
  5
258C
330
258A
100
AcDbEntity
  8
0
100
AcDbBlockEnd
  0
BLOCK
  5
25A3
330
25A2
100
AcDbEntity
  8
0
100
AcDbBlockBegin
  2
*D64
 70
     1
 10
0.0
 20
0.0
 30
0.0
  3
*D64
  1

  0
LINE
  5
25A5
330
25A2
100
AcDbEntity
  8
DIM
  6
Continuous
 62
     0
370
    -2
100
AcDbLine
 10
322.8253702268441
 20
371.0893959808095
 30
0.0
 11
330.320935518893
 21
371.0893959808095
 31
0.0
  0
LINE
  5
25A6
330
25A2
100
AcDbEntity
  8
DIM
  6
Continuous
 62
     0
370
    -2
100
AcDbLine
 10
295.0969697922247
 20
384.8052705431739
 30
0.0
 11
320.477610069243
 21
402.467310165461
 31
0.0
  0
ARC
  5
25A7
330
25A2
100
AcDbEntity
  8
DIM
  6
Continuous
 62
     0
370
    -2
100
AcDbCircle
 10
275.3870333524492
 20
371.0893959808095
 30
0.0
 40
54.93390216644379
100
AcDbArc
 50
1.043009296287383
 51
33.79051830844983
  0
INSERT
  5
25A8
330
25A2
100
AcDbEntity
  8
DIM
 62
     0
370
    -2
100
AcDbBlockReference
  2
_DOT
 10
330.320935518893
 20
371.0893959808095
 30
0.0
 50
270.5215046481437
  0
INSERT
  5
25A9
330
25A2
100
AcDbEntity
  8
DIM
 62
     0
370
    -2
100
AcDbBlockReference
  2
_DOT
 10
320.477610069243
 20
402.467310165461
 30
0.0
 50
124.3120229565935
  0
MTEXT
  5
25AA
330
25A2
100
AcDbEntity
  8
DIM
  6
Continuous
 62
     0
100
AcDbMText
 10
333.1336982814552
 20
389.2046605322735
 30
0.0
 40
5.0
 41
0.0
 46
0.0
 71
     5
 72
     1
  1
40%%d
  7
ＭＳ ゴシック
 11
0.2993199744719072
 21
-0.9541527932580489
 31
0.0
 73
     1
 44
1.0
  0
POINT
  5
25AB
330
25A2
100
AcDbEntity
  8
Defpoints
 62
     0
100
AcDbPoint
 10
329.1967686707084
 20
382.1458869346022
 30
0.0
  0
POINT
  5
25AC
330
25A2
100
AcDbEntity
  8
Defpoints
 62
     0
100
AcDbPoint
 10
255.031629837896
 20
371.0893959808095
 30
0.0
  0
POINT
  5
25AD
330
25A2
100
AcDbEntity
  8
Defpoints
 62
     0
100
AcDbPoint
 10
275.3870333524492
 20
371.0893959808095
 30
0.0
  0
POINT
  5
25AE
330
25A2
100
AcDbEntity
  8
Defpoints
 62
     0
100
AcDbPoint
 10
291.8137093691677
 20
382.5204946254115
 30
0.0
  0
POINT
  5
25AF
330
25A2
100
AcDbEntity
  8
Defpoints
 62
     0
100
AcDbPoint
 10
318.8253702268441
 20
371.0893959808095
 30
0.0
  0
ENDBLK
  5
25A4
330
25A2
100
AcDbEntity
  8
0
100
AcDbBlockEnd
  0
BLOCK
  5
25F4
330
25F3
100
AcDbEntity
  8
0
100
AcDbBlockBegin
  2
*D65
 70
     1
 10
0.0
 20
0.0
 30
0.0
  3
*D65
  1

  0
LINE
  5
25F6
330
25F3
100
AcDbEntity
  8
DIM
  6
Continuous
 62
     0
370
    -2
100
AcDbLine
 10
224.3907919217469
 20
317.8295340514379
 30
0.0
 11
321.0024975824947
 21
317.8295340514379
 31
0.0
  0
LINE
  5
25F7
330
25F3
100
AcDbEntity
  8
DIM
  6
Continuous
 62
     0
370
    -2
100
AcDbLine
 10
290.5644617471245
 20
376.8483747123912
 30
0.0
 11
321.0024975824947
 21
376.8483747123912
 31
0.0
  0
LINE
  5
25F8
330
25F3
100
AcDbEntity
  8
DIM
  6
Continuous
 62
     0
370
    -2
100
AcDbLine
 10
321.0024975824947
 20
318.8295340514379
 30
0.0
 11
321.0024975824947
 21
375.8483747123912
 31
0.0
  0
INSERT
  5
25F9
330
25F3
100
AcDbEntity
  8
DIM
 62
     0
370
    -2
100
AcDbBlockReference
  2
_DOT
 10
321.0024975824947
 20
317.8295340514379
 30
0.0
 50
270.0
  0
INSERT
  5
25FA
330
25F3
100
AcDbEntity
  8
DIM
 62
     0
370
    -2
100
AcDbBlockReference
  2
_DOT
 10
321.0024975824947
 20
376.8483747123912
 30
0.0
 50
90.0
  0
MTEXT
  5
25FB
330
25F3
100
AcDbEntity
  8
DIM
  6
Continuous
 62
     0
100
AcDbMText
 10
315.5024975824947
 20
347.3389543819146
 30
0.0
 40
5.0
 41
0.0
 46
0.0
 71
     5
 72
     1
  1
\A1;59
  7
ＭＳ ゴシック
 11
0.0
 21
1.0
 31
0.0
 73
     1
 44
1.0
  0
POINT
  5
25FC
330
25F3
100
AcDbEntity
  8
Defpoints
 62
     0
100
AcDbPoint
 10
220.3907919217469
 20
317.8295340514379
 30
0.0
  0
POINT
  5
25FD
330
25F3
100
AcDbEntity
  8
Defpoints
 62
     0
100
AcDbPoint
 10
286.5644617471245
 20
376.8483747123912
 30
0.0
  0
POINT
  5
25FE
330
25F3
100
AcDbEntity
  8
Defpoints
 62
     0
100
AcDbPoint
 10
321.0024975824947
 20
376.8483747123912
 30
0.0
  0
ENDBLK
  5
25F5
330
25F3
100
AcDbEntity
  8
0
100
AcDbBlockEnd
  0
BLOCK
  5
2603
330
2602
100
AcDbEntity
  8
0
100
AcDbBlockBegin
  2
*D66
 70
     1
 10
0.0
 20
0.0
 30
0.0
  3
*D66
  1

  0
LINE
  5
2605
330
2602
100
AcDbEntity
  8
DIM
  6
Continuous
 62
     0
370
    -2
100
AcDbLine
 10
200.1115155857229
 20
451.8048576479049
 30
0.0
 11
200.1115155857229
 21
460.5242014131898
 31
0.0
  0
LINE
  5
2606
330
2602
100
AcDbEntity
  8
DIM
  6
Continuous
 62
     0
370
    -2
100
AcDbLine
 10
167.0881646413404
 20
451.8048576479049
 30
0.0
 11
167.0881646413404
 21
460.5242014131898
 31
0.0
  0
LINE
  5
2607
330
2602
100
AcDbEntity
  8
DIM
  6
Continuous
 62
     0
370
    -2
100
AcDbLine
 10
199.1115155857229
 20
460.5242014131898
 30
0.0
 11
168.0881646413404
 21
460.5242014131898
 31
0.0
  0
INSERT
  5
2608
330
2602
100
AcDbEntity
  8
DIM
 62
     0
370
    -2
100
AcDbBlockReference
  2
_DOT
 10
200.1115155857229
 20
460.5242014131898
 30
0.0
  0
INSERT
  5
2609
330
2602
100
AcDbEntity
  8
DIM
 62
     0
370
    -2
100
AcDbBlockReference
  2
_DOT
 10
167.0881646413404
 20
460.5242014131898
 30
0.0
 50
180.0
  0
MTEXT
  5
260A
330
2602
100
AcDbEntity
  8
DIM
  6
Continuous
 62
     0
100
AcDbMText
 10
183.5998401135317
 20
466.0242014131898
 30
0.0
 40
5.0
 41
0.0
 46
0.0
 71
     5
 72
     1
  1
\A1;%%c33
  7
ＭＳ ゴシック
 73
     1
 44
1.0
  0
POINT
  5
260B
330
2602
100
AcDbEntity
  8
Defpoints
 62
     0
100
AcDbPoint
 10
200.1115155857229
 20
447.8048576479049
 30
0.0
  0
POINT
  5
260C
330
2602
100
AcDbEntity
  8
Defpoints
 62
     0
100
AcDbPoint
 10
167.0881646413404
 20
447.8048576479049
 30
0.0
  0
POINT
  5
260D
330
2602
100
AcDbEntity
  8
Defpoints
 62
     0
100
AcDbPoint
 10
167.0881646413404
 20
460.5242014131898
 30
0.0
  0
ENDBLK
  5
2604
330
2602
100
AcDbEntity
  8
0
100
AcDbBlockEnd
  0
BLOCK
  5
2623
330
2622
100
AcDbEntity
  8
0
100
AcDbBlockBegin
  2
*D67
 70
     1
 10
0.0
 20
0.0
 30
0.0
  3
*D67
  1

  0
LINE
  5
2625
330
2622
100
AcDbEntity
  8
DIM
  6
Continuous
 62
     0
370
    -2
100
AcDbLine
 10
158.916281159027
 20
447.8048576479048
 30
0.0
 11
135.2058978589419
 21
447.8048576479048
 31
0.0
  0
LINE
  5
2626
330
2622
100
AcDbEntity
  8
DIM
  6
Continuous
 62
     0
370
    -2
100
AcDbLine
 10
140.8148389258355
 20
317.8295340514379
 30
0.0
 11
135.2058978589419
 21
317.8295340514379
 31
0.0
  0
LINE
  5
2627
330
2622
100
AcDbEntity
  8
DIM
  6
Continuous
 62
     0
370
    -2
100
AcDbLine
 10
135.2058978589419
 20
446.8048576479048
 30
0.0
 11
135.2058978589419
 21
318.8295340514379
 31
0.0
  0
INSERT
  5
2628
330
2622
100
AcDbEntity
  8
DIM
 62
     0
370
    -2
100
AcDbBlockReference
  2
_DOT
 10
135.2058978589419
 20
447.8048576479048
 30
0.0
 50
90.0
  0
INSERT
  5
2629
330
2622
100
AcDbEntity
  8
DIM
 62
     0
370
    -2
100
AcDbBlockReference
  2
_DOT
 10
135.2058978589419
 20
317.8295340514379
 30
0.0
 50
270.0
  0
MTEXT
  5
262A
330
2622
100
AcDbEntity
  8
DIM
  6
Continuous
 62
     0
100
AcDbMText
 10
129.7058978589419
 20
382.8171958496714
 30
0.0
 40
5.0
 41
0.0
 46
0.0
 71
     5
 72
     1
  1
\A1;130
  7
ＭＳ ゴシック
 11
0.0
 21
1.0
 31
0.0
 73
     1
 44
1.0
  0
POINT
  5
262B
330
2622
100
AcDbEntity
  8
Defpoints
 62
     0
100
AcDbPoint
 10
162.916281159027
 20
447.8048576479048
 30
0.0
  0
POINT
  5
262C
330
2622
100
AcDbEntity
  8
Defpoints
 62
     0
100
AcDbPoint
 10
144.8148389258355
 20
317.8295340514379
 30
0.0
  0
POINT
  5
262D
330
2622
100
AcDbEntity
  8
Defpoints
 62
     0
100
AcDbPoint
 10
135.2058978589419
 20
317.8295340514379
 30
0.0
  0
ENDBLK
  5
2624
330
2622
100
AcDbEntity
  8
0
100
AcDbBlockEnd
  0
BLOCK
  5
2632
330
2631
100
AcDbEntity
  8
0
100
AcDbBlockBegin
  2
*D68
 70
     1
 10
0.0
 20
0.0
 30
0.0
  3
*D68
  1

  0
LINE
  5
2634
330
2631
100
AcDbEntity
  8
DIM
  6
Continuous
 62
     0
370
    -2
100
AcDbLine
 10
140.8148389258355
 20
317.8295340514379
 30
0.0
 11
135.2058978589419
 21
317.8295340514379
 31
0.0
  0
LINE
  5
2635
330
2631
100
AcDbEntity
  8
DIM
  6
Continuous
 62
     0
370
    -2
100
AcDbLine
 10
141.4215316790975
 20
297.2538221144525
 30
0.0
 11
135.2058978589419
 21
297.2538221144525
 31
0.0
  0
LINE
  5
2636
330
2631
100
AcDbEntity
  8
DIM
  6
Continuous
 62
     0
370
    -2
100
AcDbLine
 10
135.2058978589419
 20
316.8295340514379
 30
0.0
 11
135.2058978589419
 21
298.2538221144525
 31
0.0
  0
INSERT
  5
2637
330
2631
100
AcDbEntity
  8
DIM
 62
     0
370
    -2
100
AcDbBlockReference
  2
_DOT
 10
135.2058978589419
 20
317.8295340514379
 30
0.0
 50
90.0
  0
INSERT
  5
2638
330
2631
100
AcDbEntity
  8
DIM
 62
     0
370
    -2
100
AcDbBlockReference
  2
_DOT
 10
135.2058978589419
 20
297.2538221144525
 30
0.0
 50
270.0
  0
MTEXT
  5
2639
330
2631
100
AcDbEntity
  8
DIM
  6
Continuous
 62
     0
100
AcDbMText
 10
129.7058978589419
 20
307.7916780829452
 30
0.0
 40
5.0
 41
0.0
 46
0.0
 71
     5
 72
     1
  1
\A1;max 20
  7
ＭＳ ゴシック
 11
0.0
 21
1.0
 31
0.0
 73
     1
 44
1.0
  0
POINT
  5
263A
330
2631
100
AcDbEntity
  8
Defpoints
 62
     0
100
AcDbPoint
 10
144.8148389258355
 20
317.8295340514379
 30
0.0
  0
POINT
  5
263B
330
2631
100
AcDbEntity
  8
Defpoints
 62
     0
100
AcDbPoint
 10
145.4215316790975
 20
297.2538221144525
 30
0.0
  0
POINT
  5
263C
330
2631
100
AcDbEntity
  8
Defpoints
 62
     0
100
AcDbPoint
 10
135.2058978589419
 20
297.2538221144525
 30
0.0
  0
ENDBLK
  5
2633
330
2631
100
AcDbEntity
  8
0
100
AcDbBlockEnd
  0
BLOCK
  5
2646
330
2645
100
AcDbEntity
  8
0
100
AcDbBlockBegin
  2
*D69
 70
     1
 10
0.0
 20
0.0
 30
0.0
  3
*D69
  1

  0
LINE
  5
2648
330
2645
100
AcDbEntity
  8
DIM
  6
Continuous
 62
     0
370
    -2
100
AcDbLine
 10
183.5995744902334
 20
354.3894148399773
 30
0.0
 11
183.5995744902334
 21
350.4327755169598
 31
0.0
  0
LINE
  5
2649
330
2645
100
AcDbEntity
  8
DIM
  6
Continuous
 62
     0
370
    -2
100
AcDbLine
 10
283.6003713608084
 20
363.0893959808095
 30
0.0
 11
283.6003713608084
 21
350.4327755169598
 31
0.0
  0
LINE
  5
264A
330
2645
100
AcDbEntity
  8
DIM
  6
Continuous
 62
     0
370
    -2
100
AcDbLine
 10
184.5995744902334
 20
350.4327755169598
 30
0.0
 11
282.6003713608084
 21
350.4327755169598
 31
0.0
  0
INSERT
  5
264B
330
2645
100
AcDbEntity
  8
DIM
 62
     0
370
    -2
100
AcDbBlockReference
  2
_DOT
 10
183.5995744902334
 20
350.4327755169598
 30
0.0
 50
180.0
  0
INSERT
  5
264C
330
2645
100
AcDbEntity
  8
DIM
 62
     0
370
    -2
100
AcDbBlockReference
  2
_DOT
 10
283.6003713608084
 20
350.4327755169598
 30
0.0
  0
MTEXT
  5
264D
330
2645
100
AcDbEntity
  8
DIM
  6
Continuous
 62
     0
100
AcDbMText
 10
233.5999729255209
 20
355.9327755169598
 30
0.0
 40
5.0
 41
0.0
 46
0.0
 71
     5
 72
     1
  1
\A1;100
  7
ＭＳ ゴシック
 73
     1
 44
1.0
  0
POINT
  5
264E
330
2645
100
AcDbEntity
  8
Defpoints
 62
     0
100
AcDbPoint
 10
183.5995744902334
 20
358.3894148399773
 30
0.0
  0
POINT
  5
264F
330
2645
100
AcDbEntity
  8
Defpoints
 62
     0
100
AcDbPoint
 10
283.6003713608084
 20
367.0893959808095
 30
0.0
  0
POINT
  5
2650
330
2645
100
AcDbEntity
  8
Defpoints
 62
     0
100
AcDbPoint
 10
283.6003713608084
 20
350.4327755169598
 30
0.0
  0
ENDBLK
  5
2647
330
2645
100
AcDbEntity
  8
0
100
AcDbBlockEnd
  0
BLOCK
  5
26C8
330
26C7
100
AcDbEntity
  8
0
100
AcDbBlockBegin
  2
*D72
 70
     1
 10
0.0
 20
0.0
 30
0.0
  3
*D72
  1

  0
LINE
  5
26CA
330
26C7
100
AcDbEntity
  8
DIM
  6
Continuous
 62
     0
370
    -2
100
AcDbLine
 10
283.5995744909134
 20
363.8203695006208
 30
0.0
 11
283.5995744909134
 21
328.9152624757457
 31
0.0
  0
LINE
  5
26CB
330
26C7
100
AcDbEntity
  8
DIM
  6
Continuous
 62
     0
370
    -2
100
AcDbLine
 10
296.3601493998644
 20
358.5692437853332
 30
0.0
 11
311.0556866263107
 21
337.5671951645762
 31
0.0
  0
ARC
  5
26CC
330
26C7
100
AcDbEntity
  8
DIM
  6
Continuous
 62
     0
370
    -2
100
AcDbCircle
 10
283.5995744909134
 20
376.8059513338201
 30
0.0
 40
47.89068885807436
100
AcDbArc
 50
271.1964083589287
 51
303.7848136989058
  0
INSERT
  5
26CD
330
26C7
100
AcDbEntity
  8
DIM
 62
     0
370
    -2
100
AcDbBlockReference
  2
_DOT
 10
283.5995744909134
 20
328.9152624757457
 30
0.0
 50
180.5982041794644
  0
INSERT
  5
26CE
330
26C7
100
AcDbEntity
  8
DIM
 62
     0
370
    -2
100
AcDbBlockReference
  2
_DOT
 10
311.0556866263107
 20
337.5671951645762
 30
0.0
 50
34.38301787837013
  0
MTEXT
  5
26CF
330
26C7
100
AcDbEntity
  8
DIM
  6
Continuous
 62
     0
100
AcDbMText
 10
296.3137772303629
 20
336.4585990506519
 30
0.0
 40
5.0
 41
0.0
 46
0.0
 71
     5
 72
     1
  1
40%%d
  7
ＭＳ ゴシック
 11
0.9537662141388945
 21
0.3005495113407448
 31
0.0
 73
     1
 44
1.0
  0
POINT
  5
26D0
330
26C7
100
AcDbEntity
  8
Defpoints
 62
     0
100
AcDbPoint
 10
293.2787895091535
 20
329.9035966388631
 30
0.0
  0
POINT
  5
26D1
330
26C7
100
AcDbEntity
  8
Defpoints
 62
     0
100
AcDbPoint
 10
283.5995744909134
 20
385.4198422112115
 30
0.0
  0
POINT
  5
26D2
330
26C7
100
AcDbEntity
  8
Defpoints
 62
     0
100
AcDbPoint
 10
278.2233658697746
 20
384.4893312005522
 30
0.0
  0
POINT
  5
26D3
330
26C7
100
AcDbEntity
  8
Defpoints
 62
     0
100
AcDbPoint
 10
294.0669176431224
 20
361.8466037151959
 30
0.0
  0
POINT
  5
26D4
330
26C7
100
AcDbEntity
  8
Defpoints
 62
     0
100
AcDbPoint
 10
283.5995744909134
 20
367.8203695006208
 30
0.0
  0
ENDBLK
  5
26C9
330
26C7
100
AcDbEntity
  8
0
100
AcDbBlockEnd
  0
ENDSEC
  0
SECTION
  2
ENTITIES
  0
MTEXT
  5
177
330
A
100
AcDbEntity
  8
template
390
1D
100
AcDbMText
 10
16.48684783714735
 20
72.3481096198216
 30
0.0
 40
3.257682291666666
 41
0.0
 46
0.0
 71
     1
 72
     1
  1
品名
  7
ＭＳ ゴシック
 73
     1
 44
0.7828267384257843
  0
MTEXT
  5
178
330
A
100
AcDbEntity
  8
template
390
1D
100
AcDbMText
 10
16.48684783714735
 20
55.34810961982155
 30
0.0
 40
3.257682291666666
 41
0.0
 46
0.0
 71
     1
 72
     1
  1
仕様
  7
ＭＳ ゴシック
 73
     1
 44
0.7828267384257843
  0
LINE
  5
179
330
A
100
AcDbEntity
  8
template
390
1D
100
AcDbLine
 10
405.0868478370509
 20
57.03109399482164
 30
0.0
 11
15.08684783705095
 21
57.03109399482164
 31
0.0
  0
LWPOLYLINE
  5
17A
330
A
100
AcDbEntity
  8
template
390
1D
100
AcDbPolyline
 90
        5
 70
   128
 43
0.0
 10
405.0868478370509
 20
583.0310939948214
 10
15.08684783705095
 20
583.0310939948214
 10
15.08684783705095
 20
23.03109399482159
 10
405.0868478370509
 20
23.03109399482159
 10
405.0868478370509
 20
583.0310939948214
  0
LINE
  5
17B
330
A
100
AcDbEntity
  8
template
390
1D
100
AcDbLine
 10
405.0868478370509
 20
74.03109399482157
 30
0.0
 11
15.08684783705095
 21
74.03109399482157
 31
0.0
  0
LINE
  5
17C
330
A
100
AcDbEntity
  8
template
390
1D
100
AcDbLine
 10
405.0868478371473
 20
40.0310939948216
 30
0.0
 11
254.4868478371473
 21
40.0310939948216
 31
0.0
  0
MTEXT
  5
17E
330
A
100
AcDbEntity
  8
template
390
1D
100
AcDbMText
 10
260.4611290875995
 20
34.04901510015997
 30
0.0
 40
4.8865234375
 41
0.0
 46
0.0
 71
     1
 72
     1
  1
大洋金物株式会社 ティーフォルム事業部
  7
ＭＳ ゴシック
 73
     1
 44
0.7828267384257843
  0
MTEXT
  5
180
330
A
100
AcDbEntity
  8
template
390
1D
100
AcDbMText
 10
366.8868478371993
 20
49.63161743232155
 30
0.0
 40
4.8865234375
 41
0.0
 46
4.8865234375
 71
     1
 72
     1
  1
{1:2}
  7
ＭＳ ゴシック
 73
     1
 44
0.7828267384257843
1001
ACAD
1000
ACAD_MTEXT_DEFINED_HEIGHT_BEGIN
1070
    46
1040
4.8865234375
1000
ACAD_MTEXT_DEFINED_HEIGHT_END
  0
MTEXT
  5
181
330
A
100
AcDbEntity
  8
template
390
1D
100
AcDbMText
 10
356.2868478371993
 20
55.34810961982155
 30
0.0
 40
3.257682291666666
 41
0.0
 46
0.0
 71
     1
 72
     1
  1
縮尺
  7
ＭＳ ゴシック
 73
     1
 44
0.7828267384257843
  0
LINE
  5
182
330
A
100
AcDbEntity
  8
template
390
1D
100
AcDbLine
 10
354.8868478371993
 20
40.0310939948216
 30
0.0
 11
354.8868478371993
 21
57.03109399482164
 31
0.0
  0
MTEXT
  5
183
330
A
100
AcDbEntity
  8
template
390
1D
100
AcDbMText
 10
306.0868478371993
 20
55.34810961982155
 30
0.0
 40
3.257682291666666
 41
0.0
 46
0.0
 71
     1
 72
     1
  1
容量
  7
ＭＳ ゴシック
 73
     1
 44
0.7828267384257843
  0
LINE
  5
184
330
A
100
AcDbEntity
  8
template
390
1D
100
AcDbLine
 10
304.6868478371993
 20
40.0310939948216
 30
0.0
 11
304.6868478371993
 21
57.03109399482164
 31
0.0
  0
MTEXT
  5
185
330
A
100
AcDbEntity
  8
template
390
1D
100
AcDbMText
 10
255.8868478371993
 20
72.3481096198216
 30
0.0
 40
3.257682291666666
 41
0.0
 46
0.0
 71
     1
 72
     1
  1
品番
  7
ＭＳ ゴシック
 73
     1
 44
0.7828267384257843
  0
MTEXT
  5
186
330
A
100
AcDbEntity
  8
template
390
1D
100
AcDbMText
 10
255.8868478371993
 20
55.34810961982155
 30
0.0
 40
3.257682291666666
 41
0.0
 46
0.0
 71
     1
 72
     1
  1
重量
  7
ＭＳ ゴシック
 73
     1
 44
0.7828267384257843
  0
MTEXT
  5
187
330
A
100
AcDbEntity
  8
template
390
1D
100
AcDbMText
 10
266.4868478371993
 20
66.6316174323216
 30
0.0
 40
4.8865234375
 41
0.0
 46
15.93875502008032
 71
     1
 72
     1
  1
{QDH73-0404}
  7
ＭＳ ゴシック
 73
     1
 44
0.7828267384257843
1001
ACAD
1000
ACAD_MTEXT_DEFINED_HEIGHT_BEGIN
1070
    46
1040
15.93875502008032
1000
ACAD_MTEXT_DEFINED_HEIGHT_END
  0
LINE
  5
188
330
A
100
AcDbEntity
  8
template
390
1D
100
AcDbLine
 10
254.4868478371993
 20
23.03109399482159
 30
0.0
 11
254.4868478371993
 21
74.03109399482157
 31
0.0
  0
MTEXT
  5
189
330
A
100
AcDbEntity
  8
template
390
1D
100
AcDbMText
 10
27.08684783714736
 20
66.6316174323216
 30
0.0
 40
4.8865234375
 41
0.0
 46
16.61065199273657
 71
     1
 72
     1
  1
{単水栓 -T-plus-}
  7
ＭＳ ゴシック
 73
     1
 44
0.7828267384257843
1001
ACAD
1000
ACAD_MTEXT_DEFINED_HEIGHT_BEGIN
1070
    46
1040
16.61065199273657
1000
ACAD_MTEXT_DEFINED_HEIGHT_END
  0
INSERT
  5
6B5
330
A
100
AcDbEntity
  8
template
100
AcDbBlockReference
  2
名称未設定-1
 10
374.7965685452912
 20
8.791112444866704
 30
0.0
 41
0.1524
 42
0.1524
 43
0.1524
  0
MTEXT
  5
7D9
330
A
100
AcDbEntity
  8
template
390
1D
100
AcDbMText
 10
25.69728798280848
 20
48.964154499415
 30
0.0
 40
4.8865234375
 41
0.0
 46
16.12199964898657
 71
     1
 72
     1
  1
{クローム}
  7
ＭＳ ゴシック
 73
     1
 44
0.7828267384257843
1001
ACAD
1000
ACAD_MTEXT_DEFINED_HEIGHT_BEGIN
1070
    46
1040
16.12199964898657
1000
ACAD_MTEXT_DEFINED_HEIGHT_END
  0
POLYLINE
  5
1EF2
330
A
100
AcDbEntity
  8
MODEL
100
AcDb2dPolyline
 66
     1
 10
0.0
 20
0.0
 30
0.0
  0
VERTEX
  5
1EF3
330
1EF2
100
AcDbEntity
  8
MODEL
100
AcDbVertex
100
AcDb2dVertex
 10
187.367972223961
 20
274.813965869629
 30
0.0
  0
VERTEX
  5
1EF4
330
1EF2
100
AcDbEntity
  8
MODEL
100
AcDbVertex
100
AcDb2dVertex
 10
188.3412159891247
 20
274.813965869629
 30
0.0
  0
SEQEND
  5
1EF5
330
1EF2
100
AcDbEntity
  8
MODEL
  0
SPLINE
  5
1EF6
330
A
100
AcDbEntity
  8
MODEL
100
AcDbSpline
210
0.0
220
0.0
230
1.0
 70
    24
 71
     3
 72
    14
 73
    10
 74
     0
 42
0.000000001
 43
0.0000000001
 40
0.0
 40
0.0
 40
0.0
 40
0.0
 40
1.0
 40
1.0
 40
1.0
 40
2.0
 40
2.0
 40
2.0
 40
3.0
 40
3.0
 40
3.0
 40
3.0
 10
173.4811861860896
 20
274.813965869629
 30
0.0
 10
173.4811861860896
 20
274.813965869629
 30
0.0
 10
173.5231546672293
 20
274.813965869629
 30
0.0
 10
173.5231546672293
 20
274.813965869629
 30
0.0
 10
177.7853461125944
 20
274.813965869629
 30
0.0
 10
182.0470063113627
 20
274.813965869629
 30
0.0
 10
186.3091977567277
 20
274.813965869629
 30
0.0
 10
186.3091977567277
 20
274.813965869629
 30
0.0
 10
187.367972223961
 20
274.813965869629
 30
0.0
 10
187.367972223961
 20
274.813965869629
 30
0.0
  0
POLYLINE
  5
1EF7
330
A
100
AcDbEntity
  8
MODEL
100
AcDb2dPolyline
 66
     1
 10
0.0
 20
0.0
 30
0.0
  0
VERTEX
  5
1EF8
330
1EF7
100
AcDbEntity
  8
MODEL
100
AcDbVertex
100
AcDb2dVertex
 10
200.1115155857229
 20
414.7823035734174
 30
0.0
  0
VERTEX
  5
1EF9
330
1EF7
100
AcDbEntity
  8
MODEL
100
AcDbVertex
100
AcDb2dVertex
 10
200.1115155857229
 20
422.8261739174276
 30
0.0
  0
SEQEND
  5
1EFA
330
1EF7
100
AcDbEntity
  8
MODEL
  0
POLYLINE
  5
1EFB
330
A
100
AcDbEntity
  8
MODEL
100
AcDb2dPolyline
 66
     1
 10
0.0
 20
0.0
 30
0.0
  0
VERTEX
  5
1EFC
330
1EFB
100
AcDbEntity
  8
MODEL
100
AcDbVertex
100
AcDb2dVertex
 10
200.1115155857229
 20
322.8256426701511
 30
0.0
  0
VERTEX
  5
1EFD
330
1EFB
100
AcDbEntity
  8
MODEL
100
AcDbVertex
100
AcDb2dVertex
 10
200.1115155857229
 20
394.8414313194947
 30
0.0
  0
SEQEND
  5
1EFE
330
1EFB
100
AcDbEntity
  8
MODEL
  0
POLYLINE
  5
1EFF
330
A
100
AcDbEntity
  8
MODEL
100
AcDb2dPolyline
 66
     1
 10
0.0
 20
0.0
 30
0.0
  0
VERTEX
  5
1F00
330
1EFF
100
AcDbEntity
  8
MODEL
100
AcDbVertex
100
AcDb2dVertex
 10
167.0881646413404
 20
328.3715915164539
 30
0.0
  0
VERTEX
  5
1F01
330
1EFF
100
AcDbEntity
  8
MODEL
100
AcDbVertex
100
AcDb2dVertex
 10
167.0881646413404
 20
422.8261739174276
 30
0.0
  0
SEQEND
  5
1F02
330
1EFF
100
AcDbEntity
  8
MODEL
  0
POLYLINE
  5
1F03
330
A
100
AcDbEntity
  8
MODEL
100
AcDb2dPolyline
 66
     1
 10
0.0
 20
0.0
 30
0.0
  0
VERTEX
  5
1F04
330
1F03
100
AcDbEntity
  8
MODEL
100
AcDbVertex
100
AcDb2dVertex
 10
167.0881646413404
 20
322.8256426701511
 30
0.0
  0
VERTEX
  5
1F05
330
1F03
100
AcDbEntity
  8
MODEL
100
AcDbVertex
100
AcDb2dVertex
 10
167.0881646413404
 20
328.0756871620891
 30
0.0
  0
SEQEND
  5
1F06
330
1F03
100
AcDbEntity
  8
MODEL
  0
SPLINE
  5
1F07
330
A
100
AcDbEntity
  8
MODEL
100
AcDbSpline
210
0.0
220
0.0
230
1.0
 70
    24
 71
     3
 72
    14
 73
    10
 74
     0
 42
0.000000001
 43
0.0000000001
 40
0.0
 40
0.0
 40
0.0
 40
0.0
 40
1.0
 40
1.0
 40
1.0
 40
2.0
 40
2.0
 40
2.0
 40
3.0
 40
3.0
 40
3.0
 40
3.0
 10
200.1115155857229
 20
422.8261739174276
 30
0.0
 10
200.1115155857229
 20
422.8261739174276
 30
0.0
 10
200.0690158579865
 20
422.8261739174276
 30
0.0
 10
200.0690158579865
 20
422.8261739174276
 30
0.0
 10
189.0897424438822
 20
422.8261739174276
 30
0.0
 10
178.1102034064795
 20
422.8261739174276
 30
0.0
 10
167.1306643690768
 20
422.8261739174276
 30
0.0
 10
167.1306643690768
 20
422.8261739174276
 30
0.0
 10
167.0881646413404
 20
422.8261739174276
 30
0.0
 10
167.0881646413404
 20
422.8261739174276
 30
0.0
  0
POLYLINE
  5
1F08
330
A
100
AcDbEntity
  8
MODEL
100
AcDb2dPolyline
 66
     1
 10
0.0
 20
0.0
 30
0.0
  0
VERTEX
  5
1F09
330
1F08
100
AcDbEntity
  8
MODEL
100
AcDbVertex
100
AcDb2dVertex
 10
249.8579781477855
 20
394.7984003451614
 30
0.0
  0
VERTEX
  5
1F0A
330
1F08
100
AcDbEntity
  8
MODEL
100
AcDbVertex
100
AcDb2dVertex
 10
248.3752688963815
 20
394.8414313194947
 30
0.0
  0
SEQEND
  5
1F0B
330
1F08
100
AcDbEntity
  8
MODEL
  0
POLYLINE
  5
1F0C
330
A
100
AcDbEntity
  8
MODEL
100
AcDb2dPolyline
 66
     1
 10
0.0
 20
0.0
 30
0.0
  0
VERTEX
  5
1F0D
330
1F0C
100
AcDbEntity
  8
MODEL
100
AcDbVertex
100
AcDb2dVertex
 10
251.3396249059961
 20
394.6297295507076
 30
0.0
  0
VERTEX
  5
1F0E
330
1F0C
100
AcDbEntity
  8
MODEL
100
AcDbVertex
100
AcDb2dVertex
 10
249.8579781477855
 20
394.7984003451614
 30
0.0
  0
SEQEND
  5
1F0F
330
1F0C
100
AcDbEntity
  8
MODEL
  0
POLYLINE
  5
1F10
330
A
100
AcDbEntity
  8
MODEL
100
AcDb2dPolyline
 66
     1
 10
0.0
 20
0.0
 30
0.0
  0
VERTEX
  5
1F11
330
1F10
100
AcDbEntity
  8
MODEL
100
AcDbVertex
100
AcDb2dVertex
 10
252.7787719364701
 20
394.3332939497462
 30
0.0
  0
VERTEX
  5
1F12
330
1F10
100
AcDbEntity
  8
MODEL
100
AcDbVertex
100
AcDb2dVertex
 10
251.3396249059961
 20
394.6297295507076
 30
0.0
  0
SEQEND
  5
1F13
330
1F10
100
AcDbEntity
  8
MODEL
  0
POLYLINE
  5
1F14
330
A
100
AcDbEntity
  8
MODEL
100
AcDb2dPolyline
 66
     1
 10
0.0
 20
0.0
 30
0.0
  0
VERTEX
  5
1F15
330
1F14
100
AcDbEntity
  8
MODEL
100
AcDbVertex
100
AcDb2dVertex
 10
254.2184502135409
 20
393.952655763207
 30
0.0
  0
VERTEX
  5
1F16
330
1F14
100
AcDbEntity
  8
MODEL
100
AcDbVertex
100
AcDb2dVertex
 10
252.7787719364701
 20
394.3332939497462
 30
0.0
  0
SEQEND
  5
1F17
330
1F14
100
AcDbEntity
  8
MODEL
  0
POLYLINE
  5
1F18
330
A
100
AcDbEntity
  8
MODEL
100
AcDb2dPolyline
 66
     1
 10
0.0
 20
0.0
 30
0.0
  0
VERTEX
  5
1F19
330
1F18
100
AcDbEntity
  8
MODEL
100
AcDbVertex
100
AcDb2dVertex
 10
255.573129035139
 20
393.4439871468618
 30
0.0
  0
VERTEX
  5
1F1A
330
1F18
100
AcDbEntity
  8
MODEL
100
AcDbVertex
100
AcDb2dVertex
 10
254.2184502135409
 20
393.952655763207
 30
0.0
  0
SEQEND
  5
1F1B
330
1F18
100
AcDbEntity
  8
MODEL
  0
POLYLINE
  5
1F1C
330
A
100
AcDbEntity
  8
MODEL
100
AcDb2dPolyline
 66
     1
 10
0.0
 20
0.0
 30
0.0
  0
VERTEX
  5
1F1D
330
1F1C
100
AcDbEntity
  8
MODEL
100
AcDbVertex
100
AcDb2dVertex
 10
256.9697763378766
 20
392.8938812959738
 30
0.0
  0
VERTEX
  5
1F1E
330
1F1C
100
AcDbEntity
  8
MODEL
100
AcDbVertex
100
AcDb2dVertex
 10
255.573129035139
 20
393.4439871468618
 30
0.0
  0
SEQEND
  5
1F1F
330
1F1C
100
AcDbEntity
  8
MODEL
  0
POLYLINE
  5
1F20
330
A
100
AcDbEntity
  8
MODEL
100
AcDb2dPolyline
 66
     1
 10
0.0
 20
0.0
 30
0.0
  0
VERTEX
  5
1F21
330
1F20
100
AcDbEntity
  8
MODEL
100
AcDbVertex
100
AcDb2dVertex
 10
258.2819554317383
 20
392.1737765341401
 30
0.0
  0
VERTEX
  5
1F22
330
1F20
100
AcDbEntity
  8
MODEL
100
AcDbVertex
100
AcDb2dVertex
 10
256.96924509128
 20
392.8938812959738
 30
0.0
  0
SEQEND
  5
1F23
330
1F20
100
AcDbEntity
  8
MODEL
  0
POLYLINE
  5
1F24
330
A
100
AcDbEntity
  8
MODEL
100
AcDb2dPolyline
 66
     1
 10
0.0
 20
0.0
 30
0.0
  0
VERTEX
  5
1F25
330
1F24
100
AcDbEntity
  8
MODEL
100
AcDbVertex
100
AcDb2dVertex
 10
259.5107288099172
 20
391.4117032911664
 30
0.0
  0
VERTEX
  5
1F26
330
1F24
100
AcDbEntity
  8
MODEL
100
AcDbVertex
100
AcDb2dVertex
 10
258.2819554317383
 20
392.1737765341401
 30
0.0
  0
SEQEND
  5
1F27
330
1F24
100
AcDbEntity
  8
MODEL
  0
POLYLINE
  5
1F28
330
A
100
AcDbEntity
  8
MODEL
100
AcDb2dPolyline
 66
     1
 10
0.0
 20
0.0
 30
0.0
  0
VERTEX
  5
1F29
330
1F28
100
AcDbEntity
  8
MODEL
100
AcDbVertex
100
AcDb2dVertex
 10
260.7384396949027
 20
390.5651618393168
 30
0.0
  0
VERTEX
  5
1F2A
330
1F28
100
AcDbEntity
  8
MODEL
100
AcDbVertex
100
AcDb2dVertex
 10
259.5107288099172
 20
391.4114376678682
 30
0.0
  0
SEQEND
  5
1F2B
330
1F28
100
AcDbEntity
  8
MODEL
  0
POLYLINE
  5
1F2C
330
A
100
AcDbEntity
  8
MODEL
100
AcDb2dPolyline
 66
     1
 10
0.0
 20
0.0
 30
0.0
  0
VERTEX
  5
1F2D
330
1F2C
100
AcDbEntity
  8
MODEL
100
AcDbVertex
100
AcDb2dVertex
 10
261.8381201500822
 20
389.5913868275564
 30
0.0
  0
VERTEX
  5
1F2E
330
1F2C
100
AcDbEntity
  8
MODEL
100
AcDbVertex
100
AcDb2dVertex
 10
260.7384396949027
 20
390.5651618393168
 30
0.0
  0
SEQEND
  5
1F2F
330
1F2C
100
AcDbEntity
  8
MODEL
  0
POLYLINE
  5
1F30
330
A
100
AcDbEntity
  8
MODEL
100
AcDb2dPolyline
 66
     1
 10
0.0
 20
0.0
 30
0.0
  0
VERTEX
  5
1F31
330
1F30
100
AcDbEntity
  8
MODEL
100
AcDbVertex
100
AcDb2dVertex
 10
262.8974258639122
 20
388.5756433346563
 30
0.0
  0
VERTEX
  5
1F32
330
1F30
100
AcDbEntity
  8
MODEL
100
AcDbVertex
100
AcDb2dVertex
 10
261.8381201500822
 20
389.5913868275564
 30
0.0
  0
SEQEND
  5
1F33
330
1F30
100
AcDbEntity
  8
MODEL
  0
POLYLINE
  5
1F34
330
A
100
AcDbEntity
  8
MODEL
100
AcDb2dPolyline
 66
     1
 10
0.0
 20
0.0
 30
0.0
  0
VERTEX
  5
1F35
330
1F34
100
AcDbEntity
  8
MODEL
100
AcDbVertex
100
AcDb2dVertex
 10
263.8712008756727
 20
387.4741035163883
 30
0.0
  0
VERTEX
  5
1F36
330
1F34
100
AcDbEntity
  8
MODEL
100
AcDbVertex
100
AcDb2dVertex
 10
262.8974258639122
 20
388.5756433346563
 30
0.0
  0
SEQEND
  5
1F37
330
1F34
100
AcDbEntity
  8
MODEL
  0
POLYLINE
  5
1F38
330
A
100
AcDbEntity
  8
MODEL
100
AcDb2dPolyline
 66
     1
 10
0.0
 20
0.0
 30
0.0
  0
VERTEX
  5
1F39
330
1F38
100
AcDbEntity
  8
MODEL
100
AcDbVertex
100
AcDb2dVertex
 10
264.8024761596967
 20
386.289423605736
 30
0.0
  0
VERTEX
  5
1F3A
330
1F38
100
AcDbEntity
  8
MODEL
100
AcDbVertex
100
AcDb2dVertex
 10
263.8712008756727
 20
387.4741035163883
 30
0.0
  0
SEQEND
  5
1F3B
330
1F38
100
AcDbEntity
  8
MODEL
  0
POLYLINE
  5
1F3C
330
A
100
AcDbEntity
  8
MODEL
100
AcDb2dPolyline
 66
     1
 10
0.0
 20
0.0
 30
0.0
  0
VERTEX
  5
1F3D
330
1F3C
100
AcDbEntity
  8
MODEL
100
AcDbVertex
100
AcDb2dVertex
 10
279.8739421082205
 20
399.4561048817735
 30
0.0
  0
VERTEX
  5
1F3E
330
1F3C
100
AcDbEntity
  8
MODEL
100
AcDbVertex
100
AcDb2dVertex
 10
281.1446839675391
 20
397.7627563547761
 30
0.0
  0
SEQEND
  5
1F3F
330
1F3C
100
AcDbEntity
  8
MODEL
  0
POLYLINE
  5
1F40
330
A
100
AcDbEntity
  8
MODEL
100
AcDb2dPolyline
 66
     1
 10
0.0
 20
0.0
 30
0.0
  0
VERTEX
  5
1F41
330
1F40
100
AcDbEntity
  8
MODEL
100
AcDbVertex
100
AcDb2dVertex
 10
278.5187320400257
 20
401.1491877854727
 30
0.0
  0
VERTEX
  5
1F42
330
1F40
100
AcDbEntity
  8
MODEL
100
AcDbVertex
100
AcDb2dVertex
 10
279.8739421082205
 20
399.4561048817735
 30
0.0
  0
SEQEND
  5
1F43
330
1F40
100
AcDbEntity
  8
MODEL
  0
POLYLINE
  5
1F44
330
A
100
AcDbEntity
  8
MODEL
100
AcDb2dPolyline
 66
     1
 10
0.0
 20
0.0
 30
0.0
  0
VERTEX
  5
1F45
330
1F44
100
AcDbEntity
  8
MODEL
100
AcDbVertex
100
AcDb2dVertex
 10
277.0801162561484
 20
402.7163652457529
 30
0.0
  0
VERTEX
  5
1F46
330
1F44
100
AcDbEntity
  8
MODEL
100
AcDbVertex
100
AcDb2dVertex
 10
278.5187320400257
 20
401.1491877854727
 30
0.0
  0
SEQEND
  5
1F47
330
1F44
100
AcDbEntity
  8
MODEL
  0
POLYLINE
  5
1F48
330
A
100
AcDbEntity
  8
MODEL
100
AcDb2dPolyline
 66
     1
 10
0.0
 20
0.0
 30
0.0
  0
VERTEX
  5
1F49
330
1F48
100
AcDbEntity
  8
MODEL
100
AcDbVertex
100
AcDb2dVertex
 10
275.5565010167981
 20
404.1977463806649
 30
0.0
  0
VERTEX
  5
1F4A
330
1F48
100
AcDbEntity
  8
MODEL
100
AcDbVertex
100
AcDb2dVertex
 10
277.0801162561484
 20
402.7163652457529
 30
0.0
  0
SEQEND
  5
1F4B
330
1F48
100
AcDbEntity
  8
MODEL
  0
POLYLINE
  5
1F4C
330
A
100
AcDbEntity
  8
MODEL
100
AcDb2dPolyline
 66
     1
 10
0.0
 20
0.0
 30
0.0
  0
VERTEX
  5
1F4D
330
1F4C
100
AcDbEntity
  8
MODEL
100
AcDbVertex
100
AcDb2dVertex
 10
273.9473550753784
 20
405.5951905532976
 30
0.0
  0
VERTEX
  5
1F4E
330
1F4C
100
AcDbEntity
  8
MODEL
100
AcDbVertex
100
AcDb2dVertex
 10
275.5565010167981
 20
404.1977463806649
 30
0.0
  0
SEQEND
  5
1F4F
330
1F4C
100
AcDbEntity
  8
MODEL
  0
POLYLINE
  5
1F50
330
A
100
AcDbEntity
  8
MODEL
100
AcDb2dPolyline
 66
     1
 10
0.0
 20
0.0
 30
0.0
  0
VERTEX
  5
1F51
330
1F50
100
AcDbEntity
  8
MODEL
100
AcDbVertex
100
AcDb2dVertex
 10
272.2537409250825
 20
406.9073696471593
 30
0.0
  0
VERTEX
  5
1F52
330
1F50
100
AcDbEntity
  8
MODEL
100
AcDbVertex
100
AcDb2dVertex
 10
273.9468238287816
 20
405.5951905532976
 30
0.0
  0
SEQEND
  5
1F53
330
1F50
100
AcDbEntity
  8
MODEL
  0
POLYLINE
  5
1F54
330
A
100
AcDbEntity
  8
MODEL
100
AcDb2dPolyline
 66
     1
 10
0.0
 20
0.0
 30
0.0
  0
VERTEX
  5
1F55
330
1F54
100
AcDbEntity
  8
MODEL
100
AcDbVertex
100
AcDb2dVertex
 10
270.5170958004535
 20
408.1350805321448
 30
0.0
  0
VERTEX
  5
1F56
330
1F54
100
AcDbEntity
  8
MODEL
100
AcDbVertex
100
AcDb2dVertex
 10
272.2537409250825
 20
406.9073696471593
 30
0.0
  0
SEQEND
  5
1F57
330
1F54
100
AcDbEntity
  8
MODEL
  0
POLYLINE
  5
1F58
330
A
100
AcDbEntity
  8
MODEL
100
AcDb2dPolyline
 66
     1
 10
0.0
 20
0.0
 30
0.0
  0
VERTEX
  5
1F59
330
1F58
100
AcDbEntity
  8
MODEL
100
AcDbVertex
100
AcDb2dVertex
 10
268.6975762067385
 20
409.2785888315526
 30
0.0
  0
VERTEX
  5
1F5A
330
1F58
100
AcDbEntity
  8
MODEL
100
AcDbVertex
100
AcDb2dVertex
 10
270.5170958004535
 20
408.1350805321448
 30
0.0
  0
SEQEND
  5
1F5B
330
1F58
100
AcDbEntity
  8
MODEL
  0
POLYLINE
  5
1F5C
330
A
100
AcDbEntity
  8
MODEL
100
AcDb2dPolyline
 66
     1
 10
0.0
 20
0.0
 30
0.0
  0
VERTEX
  5
1F5D
330
1F5C
100
AcDbEntity
  8
MODEL
100
AcDbVertex
100
AcDb2dVertex
 10
266.8769941198301
 20
410.3365664288907
 30
0.0
  0
VERTEX
  5
1F5E
330
1F5C
100
AcDbEntity
  8
MODEL
100
AcDbVertex
100
AcDb2dVertex
 10
268.6975762067385
 20
409.2785888315526
 30
0.0
  0
SEQEND
  5
1F5F
330
1F5C
100
AcDbEntity
  8
MODEL
  0
POLYLINE
  5
1F60
330
A
100
AcDbEntity
  8
MODEL
100
AcDb2dPolyline
 66
     1
 10
0.0
 20
0.0
 30
0.0
  0
VERTEX
  5
1F61
330
1F60
100
AcDbEntity
  8
MODEL
100
AcDbVertex
100
AcDb2dVertex
 10
264.9294440963092
 20
411.2256076084767
 30
0.0
  0
VERTEX
  5
1F62
330
1F60
100
AcDbEntity
  8
MODEL
100
AcDbVertex
100
AcDb2dVertex
 10
266.8769941198301
 20
410.3365664288907
 30
0.0
  0
SEQEND
  5
1F63
330
1F60
100
AcDbEntity
  8
MODEL
  0
POLYLINE
  5
1F64
330
A
100
AcDbEntity
  8
MODEL
100
AcDb2dPolyline
 66
     1
 10
0.0
 20
0.0
 30
0.0
  0
VERTEX
  5
1F65
330
1F64
100
AcDbEntity
  8
MODEL
100
AcDbVertex
100
AcDb2dVertex
 10
262.9393943450519
 20
412.072680306923
 30
0.0
  0
VERTEX
  5
1F66
330
1F64
100
AcDbEntity
  8
MODEL
100
AcDbVertex
100
AcDb2dVertex
 10
264.9294440963092
 20
411.2256076084767
 30
0.0
  0
SEQEND
  5
1F67
330
1F64
100
AcDbEntity
  8
MODEL
  0
POLYLINE
  5
1F68
330
A
100
AcDbEntity
  8
MODEL
100
AcDb2dPolyline
 66
     1
 10
0.0
 20
0.0
 30
0.0
  0
VERTEX
  5
1F69
330
1F68
100
AcDbEntity
  8
MODEL
100
AcDbVertex
100
AcDb2dVertex
 10
260.9918443215311
 20
412.8347535498964
 30
0.0
  0
VERTEX
  5
1F6A
330
1F68
100
AcDbEntity
  8
MODEL
100
AcDbVertex
100
AcDb2dVertex
 10
262.9393943450519
 20
412.072680306923
 30
0.0
  0
SEQEND
  5
1F6B
330
1F68
100
AcDbEntity
  8
MODEL
  0
POLYLINE
  5
1F6C
330
A
100
AcDbEntity
  8
MODEL
100
AcDb2dPolyline
 66
     1
 10
0.0
 20
0.0
 30
0.0
  0
VERTEX
  5
1F6D
330
1F6C
100
AcDbEntity
  8
MODEL
100
AcDbVertex
100
AcDb2dVertex
 10
258.9592948425372
 20
413.4270935052226
 30
0.0
  0
VERTEX
  5
1F6E
330
1F6C
100
AcDbEntity
  8
MODEL
100
AcDbVertex
100
AcDb2dVertex
 10
260.9918443215311
 20
412.8347535498964
 30
0.0
  0
SEQEND
  5
1F6F
330
1F6C
100
AcDbEntity
  8
MODEL
  0
POLYLINE
  5
1F70
330
A
100
AcDbEntity
  8
MODEL
100
AcDb2dPolyline
 66
     1
 10
0.0
 20
0.0
 30
0.0
  0
VERTEX
  5
1F71
330
1F70
100
AcDbEntity
  8
MODEL
100
AcDbVertex
100
AcDb2dVertex
 10
256.8428084012642
 20
413.9352308749711
 30
0.0
  0
VERTEX
  5
1F72
330
1F70
100
AcDbEntity
  8
MODEL
100
AcDbVertex
100
AcDb2dVertex
 10
258.9592948425372
 20
413.4270935052226
 30
0.0
  0
SEQEND
  5
1F73
330
1F70
100
AcDbEntity
  8
MODEL
  0
POLYLINE
  5
1F74
330
A
100
AcDbEntity
  8
MODEL
100
AcDb2dPolyline
 66
     1
 10
0.0
 20
0.0
 30
0.0
  0
VERTEX
  5
1F75
330
1F74
100
AcDbEntity
  8
MODEL
100
AcDbVertex
100
AcDb2dVertex
 10
254.7688216877275
 20
414.2741662036689
 30
0.0
  0
VERTEX
  5
1F76
330
1F74
100
AcDbEntity
  8
MODEL
100
AcDbVertex
100
AcDb2dVertex
 10
256.8428084012642
 20
413.9352308749711
 30
0.0
  0
SEQEND
  5
1F77
330
1F74
100
AcDbEntity
  8
MODEL
  0
POLYLINE
  5
1F78
330
A
100
AcDbEntity
  8
MODEL
100
AcDb2dPolyline
 66
     1
 10
0.0
 20
0.0
 30
0.0
  0
VERTEX
  5
1F79
330
1F78
100
AcDbEntity
  8
MODEL
100
AcDbVertex
100
AcDb2dVertex
 10
252.6518039998576
 20
414.6125702857702
 30
0.0
  0
VERTEX
  5
1F7A
330
1F78
100
AcDbEntity
  8
MODEL
100
AcDbVertex
100
AcDb2dVertex
 10
254.7688216877275
 20
414.2741662036689
 30
0.0
  0
SEQEND
  5
1F7B
330
1F78
100
AcDbEntity
  8
MODEL
  0
POLYLINE
  5
1F7C
330
A
100
AcDbEntity
  8
MODEL
100
AcDb2dPolyline
 66
     1
 10
0.0
 20
0.0
 30
0.0
  0
VERTEX
  5
1F7D
330
1F7C
100
AcDbEntity
  8
MODEL
100
AcDbVertex
100
AcDb2dVertex
 10
250.4922865842514
 20
414.7403350922776
 30
0.0
  0
VERTEX
  5
1F7E
330
1F7C
100
AcDbEntity
  8
MODEL
100
AcDbVertex
100
AcDb2dVertex
 10
252.6518039998576
 20
414.6125702857702
 30
0.0
  0
SEQEND
  5
1F7F
330
1F7C
100
AcDbEntity
  8
MODEL
  0
POLYLINE
  5
1F80
330
A
100
AcDbEntity
  8
MODEL
100
AcDb2dPolyline
 66
     1
 10
0.0
 20
0.0
 30
0.0
  0
VERTEX
  5
1F81
330
1F80
100
AcDbEntity
  8
MODEL
100
AcDbVertex
100
AcDb2dVertex
 10
248.3752688963815
 20
414.7823035734174
 30
0.0
  0
VERTEX
  5
1F82
330
1F80
100
AcDbEntity
  8
MODEL
100
AcDbVertex
100
AcDb2dVertex
 10
250.4922865842514
 20
414.7403350922776
 30
0.0
  0
SEQEND
  5
1F83
330
1F80
100
AcDbEntity
  8
MODEL
  0
POLYLINE
  5
1F84
330
A
100
AcDbEntity
  8
MODEL
100
AcDb2dPolyline
 66
     1
 10
0.0
 20
0.0
 30
0.0
  0
VERTEX
  5
1F85
330
1F84
100
AcDbEntity
  8
MODEL
100
AcDbVertex
100
AcDb2dVertex
 10
264.8024761596967
 20
386.2891579824376
 30
0.0
  0
VERTEX
  5
1F86
330
1F84
100
AcDbEntity
  8
MODEL
100
AcDbVertex
100
AcDb2dVertex
 10
265.2258796972707
 20
385.5690532206039
 30
0.0
  0
SEQEND
  5
1F87
330
1F84
100
AcDbEntity
  8
MODEL
  0
POLYLINE
  5
1F88
330
A
100
AcDbEntity
  8
MODEL
100
AcDb2dPolyline
 66
     1
 10
0.0
 20
0.0
 30
0.0
  0
VERTEX
  5
1F89
330
1F88
100
AcDbEntity
  8
MODEL
100
AcDbVertex
100
AcDb2dVertex
 10
281.1446839675391
 20
397.7627563547761
 30
0.0
  0
VERTEX
  5
1F8A
330
1F88
100
AcDbEntity
  8
MODEL
100
AcDbVertex
100
AcDb2dVertex
 10
281.6525557139892
 20
397.0848856973804
 30
0.0
  0
SEQEND
  5
1F8B
330
1F88
100
AcDbEntity
  8
MODEL
  0
POLYLINE
  5
1F8C
330
A
100
AcDbEntity
  8
MODEL
100
AcDb2dPolyline
 66
     1
 10
0.0
 20
0.0
 30
0.0
  0
VERTEX
  5
1F8D
330
1F8C
100
AcDbEntity
  8
MODEL
100
AcDbVertex
100
AcDb2dVertex
 10
200.1115155857229
 20
394.8414313194947
 30
0.0
  0
VERTEX
  5
1F8E
330
1F8C
100
AcDbEntity
  8
MODEL
100
AcDbVertex
100
AcDb2dVertex
 10
248.3752688963815
 20
394.8414313194947
 30
0.0
  0
SEQEND
  5
1F8F
330
1F8C
100
AcDbEntity
  8
MODEL
  0
POLYLINE
  5
1F90
330
A
100
AcDbEntity
  8
MODEL
100
AcDb2dPolyline
 66
     1
 10
0.0
 20
0.0
 30
0.0
  0
VERTEX
  5
1F91
330
1F90
100
AcDbEntity
  8
MODEL
100
AcDbVertex
100
AcDb2dVertex
 10
200.1115155857229
 20
414.7823035734174
 30
0.0
  0
VERTEX
  5
1F92
330
1F90
100
AcDbEntity
  8
MODEL
100
AcDbVertex
100
AcDb2dVertex
 10
248.3752688963815
 20
414.7823035734174
 30
0.0
  0
SEQEND
  5
1F93
330
1F90
100
AcDbEntity
  8
MODEL
  0
POLYLINE
  5
1FFE
330
A
100
AcDbEntity
  8
MODEL
100
AcDb2dPolyline
 66
     1
 10
0.0
 20
0.0
 30
0.0
  0
VERTEX
  5
1FFF
330
1FFE
100
AcDbEntity
  8
MODEL
100
AcDbVertex
100
AcDb2dVertex
 10
200.069281481285
 20
414.7820379501189
 30
0.0
  0
VERTEX
  5
2000
330
1FFE
100
AcDbEntity
  8
MODEL
100
AcDbVertex
100
AcDb2dVertex
 10
200.1115155857229
 20
414.7820379501189
 30
0.0
  0
SEQEND
  5
2001
330
1FFE
100
AcDbEntity
  8
MODEL
  0
POLYLINE
  5
2002
330
A
100
AcDbEntity
  8
MODEL
100
AcDb2dPolyline
 66
     1
 10
0.0
 20
0.0
 30
0.0
  0
VERTEX
  5
2003
330
2002
100
AcDbEntity
  8
MODEL
100
AcDbVertex
100
AcDb2dVertex
 10
199.9423135446724
 20
414.6548043902081
 30
0.0
  0
VERTEX
  5
2004
330
2002
100
AcDbEntity
  8
MODEL
100
AcDbVertex
100
AcDb2dVertex
 10
200.069281481285
 20
414.7820379501189
 30
0.0
  0
SEQEND
  5
2005
330
2002
100
AcDbEntity
  8
MODEL
  0
POLYLINE
  5
2006
330
A
100
AcDbEntity
  8
MODEL
100
AcDb2dPolyline
 66
     1
 10
0.0
 20
0.0
 30
0.0
  0
VERTEX
  5
2007
330
2006
100
AcDbEntity
  8
MODEL
100
AcDbVertex
100
AcDb2dVertex
 10
199.8575797124979
 20
414.4008685169832
 30
0.0
  0
VERTEX
  5
2008
330
2006
100
AcDbEntity
  8
MODEL
100
AcDbVertex
100
AcDb2dVertex
 10
199.9423135446724
 20
414.6548043902081
 30
0.0
  0
SEQEND
  5
2009
330
2006
100
AcDbEntity
  8
MODEL
  0
POLYLINE
  5
200A
330
A
100
AcDbEntity
  8
MODEL
100
AcDb2dPolyline
 66
     1
 10
0.0
 20
0.0
 30
0.0
  0
VERTEX
  5
200B
330
200A
100
AcDbEntity
  8
MODEL
100
AcDbVertex
100
AcDb2dVertex
 10
199.645877943711
 20
414.0199647071455
 30
0.0
  0
VERTEX
  5
200C
330
200A
100
AcDbEntity
  8
MODEL
100
AcDbVertex
100
AcDb2dVertex
 10
199.8575797124979
 20
414.4008685169832
 30
0.0
  0
SEQEND
  5
200D
330
200A
100
AcDbEntity
  8
MODEL
  0
POLYLINE
  5
200E
330
A
100
AcDbEntity
  8
MODEL
100
AcDb2dPolyline
 66
     1
 10
0.0
 20
0.0
 30
0.0
  0
VERTEX
  5
200F
330
200E
100
AcDbEntity
  8
MODEL
100
AcDbVertex
100
AcDb2dVertex
 10
199.3914108238893
 20
413.59682679287
 30
0.0
  0
VERTEX
  5
2010
330
200E
100
AcDbEntity
  8
MODEL
100
AcDbVertex
100
AcDb2dVertex
 10
199.645877943711
 20
414.0199647071455
 30
0.0
  0
SEQEND
  5
2011
330
200E
100
AcDbEntity
  8
MODEL
  0
POLYLINE
  5
2012
330
A
100
AcDbEntity
  8
MODEL
100
AcDb2dPolyline
 66
     1
 10
0.0
 20
0.0
 30
0.0
  0
VERTEX
  5
2013
330
2012
100
AcDbEntity
  8
MODEL
100
AcDbVertex
100
AcDb2dVertex
 10
199.0949752229278
 20
413.0881581765249
 30
0.0
  0
VERTEX
  5
2014
330
2012
100
AcDbEntity
  8
MODEL
100
AcDbVertex
100
AcDb2dVertex
 10
199.3914108238893
 20
413.59682679287
 30
0.0
  0
SEQEND
  5
2015
330
2012
100
AcDbEntity
  8
MODEL
  0
POLYLINE
  5
2016
330
A
100
AcDbEntity
  8
MODEL
100
AcDb2dPolyline
 66
     1
 10
0.0
 20
0.0
 30
0.0
  0
VERTEX
  5
2017
330
2016
100
AcDbEntity
  8
MODEL
100
AcDbVertex
100
AcDb2dVertex
 10
198.7988052452647
 20
412.4958182211986
 30
0.0
  0
VERTEX
  5
2018
330
2016
100
AcDbEntity
  8
MODEL
100
AcDbVertex
100
AcDb2dVertex
 10
199.0949752229278
 20
413.0881581765249
 30
0.0
  0
SEQEND
  5
2019
330
2016
100
AcDbEntity
  8
MODEL
  0
POLYLINE
  5
201A
330
A
100
AcDbEntity
  8
MODEL
100
AcDb2dPolyline
 66
     1
 10
0.0
 20
0.0
 30
0.0
  0
VERTEX
  5
201B
330
201A
100
AcDbEntity
  8
MODEL
100
AcDbVertex
100
AcDb2dVertex
 10
198.5023696443033
 20
411.860978538136
 30
0.0
  0
VERTEX
  5
201C
330
201A
100
AcDbEntity
  8
MODEL
100
AcDbVertex
100
AcDb2dVertex
 10
198.7988052452647
 20
412.4958182211986
 30
0.0
  0
SEQEND
  5
201D
330
201A
100
AcDbEntity
  8
MODEL
  0
POLYLINE
  5
201E
330
A
100
AcDbEntity
  8
MODEL
100
AcDb2dPolyline
 66
     1
 10
0.0
 20
0.0
 30
0.0
  0
VERTEX
  5
201F
330
201E
100
AcDbEntity
  8
MODEL
100
AcDbVertex
100
AcDb2dVertex
 10
198.1634343156054
 20
411.183639127337
 30
0.0
  0
VERTEX
  5
2020
330
201E
100
AcDbEntity
  8
MODEL
100
AcDbVertex
100
AcDb2dVertex
 10
198.5023696443033
 20
411.860978538136
 30
0.0
  0
SEQEND
  5
2021
330
201E
100
AcDbEntity
  8
MODEL
  0
POLYLINE
  5
2022
330
A
100
AcDbEntity
  8
MODEL
100
AcDb2dPolyline
 66
     1
 10
0.0
 20
0.0
 30
0.0
  0
VERTEX
  5
2023
330
2022
100
AcDbEntity
  8
MODEL
100
AcDbVertex
100
AcDb2dVertex
 10
197.866998714644
 20
410.4215658843635
 30
0.0
  0
VERTEX
  5
2024
330
2022
100
AcDbEntity
  8
MODEL
100
AcDbVertex
100
AcDb2dVertex
 10
198.1634343156054
 20
411.183639127337
 30
0.0
  0
SEQEND
  5
2025
330
2022
100
AcDbEntity
  8
MODEL
  0
POLYLINE
  5
2026
330
A
100
AcDbEntity
  8
MODEL
100
AcDb2dPolyline
 66
     1
 10
0.0
 20
0.0
 30
0.0
  0
VERTEX
  5
2027
330
2026
100
AcDbEntity
  8
MODEL
100
AcDbVertex
100
AcDb2dVertex
 10
197.5710943602792
 20
409.5744931859173
 30
0.0
  0
VERTEX
  5
2028
330
2026
100
AcDbEntity
  8
MODEL
100
AcDbVertex
100
AcDb2dVertex
 10
197.866998714644
 20
410.4215658843635
 30
0.0
  0
SEQEND
  5
2029
330
2026
100
AcDbEntity
  8
MODEL
  0
POLYLINE
  5
202A
330
A
100
AcDbEntity
  8
MODEL
100
AcDb2dPolyline
 66
     1
 10
0.0
 20
0.0
 30
0.0
  0
VERTEX
  5
202B
330
202A
100
AcDbEntity
  8
MODEL
100
AcDbVertex
100
AcDb2dVertex
 10
197.2746587593177
 20
408.6857176296297
 30
0.0
  0
VERTEX
  5
202C
330
202A
100
AcDbEntity
  8
MODEL
100
AcDbVertex
100
AcDb2dVertex
 10
197.5710943602792
 20
409.5744931859173
 30
0.0
  0
SEQEND
  5
202D
330
202A
100
AcDbEntity
  8
MODEL
  0
POLYLINE
  5
202E
330
A
100
AcDbEntity
  8
MODEL
100
AcDb2dPolyline
 66
     1
 10
0.0
 20
0.0
 30
0.0
  0
VERTEX
  5
202F
330
202E
100
AcDbEntity
  8
MODEL
100
AcDbVertex
100
AcDb2dVertex
 10
197.0629569905308
 20
407.7536454757104
 30
0.0
  0
VERTEX
  5
2030
330
202E
100
AcDbEntity
  8
MODEL
100
AcDbVertex
100
AcDb2dVertex
 10
197.2746587593177
 20
408.6854520063313
 30
0.0
  0
SEQEND
  5
2031
330
202E
100
AcDbEntity
  8
MODEL
  0
POLYLINE
  5
2032
330
A
100
AcDbEntity
  8
MODEL
100
AcDb2dPolyline
 66
     1
 10
0.0
 20
0.0
 30
0.0
  0
VERTEX
  5
2033
330
2032
100
AcDbEntity
  8
MODEL
100
AcDbVertex
100
AcDb2dVertex
 10
196.8515208450422
 20
406.7804017105467
 30
0.0
  0
VERTEX
  5
2034
330
2032
100
AcDbEntity
  8
MODEL
100
AcDbVertex
100
AcDb2dVertex
 10
197.0629569905308
 20
407.7536454757104
 30
0.0
  0
SEQEND
  5
2035
330
2032
100
AcDbEntity
  8
MODEL
  0
POLYLINE
  5
2036
330
A
100
AcDbEntity
  8
MODEL
100
AcDb2dPolyline
 66
     1
 10
0.0
 20
0.0
 30
0.0
  0
VERTEX
  5
2037
330
2036
100
AcDbEntity
  8
MODEL
100
AcDbVertex
100
AcDb2dVertex
 10
196.7665213895693
 20
405.8068923220848
 30
0.0
  0
VERTEX
  5
2038
330
2036
100
AcDbEntity
  8
MODEL
100
AcDbVertex
100
AcDb2dVertex
 10
196.8512552217438
 20
406.7804017105467
 30
0.0
  0
SEQEND
  5
2039
330
2036
100
AcDbEntity
  8
MODEL
  0
POLYLINE
  5
203A
330
A
100
AcDbEntity
  8
MODEL
100
AcDb2dPolyline
 66
     1
 10
0.0
 20
0.0
 30
0.0
  0
VERTEX
  5
203B
330
203A
100
AcDbEntity
  8
MODEL
100
AcDbVertex
100
AcDb2dVertex
 10
196.7240216618329
 20
404.8331173103242
 30
0.0
  0
VERTEX
  5
203C
330
203A
100
AcDbEntity
  8
MODEL
100
AcDbVertex
100
AcDb2dVertex
 10
196.7665213895693
 20
405.8068923220848
 30
0.0
  0
SEQEND
  5
203D
330
203A
100
AcDbEntity
  8
MODEL
  0
POLYLINE
  5
203E
330
A
100
AcDbEntity
  8
MODEL
100
AcDb2dPolyline
 66
     1
 10
0.0
 20
0.0
 30
0.0
  0
VERTEX
  5
203F
330
203E
100
AcDbEntity
  8
MODEL
100
AcDbVertex
100
AcDb2dVertex
 10
196.7665213895693
 20
403.8163113242307
 30
0.0
  0
VERTEX
  5
2040
330
203E
100
AcDbEntity
  8
MODEL
100
AcDbVertex
100
AcDb2dVertex
 10
196.7240216618329
 20
404.8331173103242
 30
0.0
  0
SEQEND
  5
2041
330
203E
100
AcDbEntity
  8
MODEL
  0
POLYLINE
  5
2042
330
A
100
AcDbEntity
  8
MODEL
100
AcDb2dPolyline
 66
     1
 10
0.0
 20
0.0
 30
0.0
  0
VERTEX
  5
2043
330
2042
100
AcDbEntity
  8
MODEL
100
AcDbVertex
100
AcDb2dVertex
 10
196.8515208450422
 20
402.843067559067
 30
0.0
  0
VERTEX
  5
2044
330
2042
100
AcDbEntity
  8
MODEL
100
AcDbVertex
100
AcDb2dVertex
 10
196.7665213895693
 20
403.8163113242307
 30
0.0
  0
SEQEND
  5
2045
330
2042
100
AcDbEntity
  8
MODEL
  0
POLYLINE
  5
2046
330
A
100
AcDbEntity
  8
MODEL
100
AcDb2dPolyline
 66
     1
 10
0.0
 20
0.0
 30
0.0
  0
VERTEX
  5
2047
330
2046
100
AcDbEntity
  8
MODEL
100
AcDbVertex
100
AcDb2dVertex
 10
197.2746587593177
 20
400.9805169910188
 30
0.0
  0
VERTEX
  5
2048
330
2046
100
AcDbEntity
  8
MODEL
100
AcDbVertex
100
AcDb2dVertex
 10
197.0629569905308
 20
401.9112610284461
 30
0.0
  0
VERTEX
  5
2049
330
2046
100
AcDbEntity
  8
MODEL
100
AcDbVertex
100
AcDb2dVertex
 10
196.8515208450422
 20
402.843067559067
 30
0.0
  0
SEQEND
  5
204A
330
2046
100
AcDbEntity
  8
MODEL
  0
POLYLINE
  5
204B
330
A
100
AcDbEntity
  8
MODEL
100
AcDb2dPolyline
 66
     1
 10
0.0
 20
0.0
 30
0.0
  0
VERTEX
  5
204C
330
204B
100
AcDbEntity
  8
MODEL
100
AcDbVertex
100
AcDb2dVertex
 10
197.5710943602792
 20
400.0484448370997
 30
0.0
  0
VERTEX
  5
204D
330
204B
100
AcDbEntity
  8
MODEL
100
AcDbVertex
100
AcDb2dVertex
 10
197.2746587593177
 20
400.9805169910188
 30
0.0
  0
SEQEND
  5
204E
330
204B
100
AcDbEntity
  8
MODEL
  0
POLYLINE
  5
204F
330
A
100
AcDbEntity
  8
MODEL
100
AcDb2dPolyline
 66
     1
 10
0.0
 20
0.0
 30
0.0
  0
VERTEX
  5
2050
330
204F
100
AcDbEntity
  8
MODEL
100
AcDbVertex
100
AcDb2dVertex
 10
198.1634343156054
 20
398.4400957655749
 30
0.0
  0
VERTEX
  5
2051
330
204F
100
AcDbEntity
  8
MODEL
100
AcDbVertex
100
AcDb2dVertex
 10
197.866998714644
 20
399.244668736285
 30
0.0
  0
VERTEX
  5
2052
330
204F
100
AcDbEntity
  8
MODEL
100
AcDbVertex
100
AcDb2dVertex
 10
197.5710943602792
 20
400.0484448370997
 30
0.0
  0
SEQEND
  5
2053
330
204F
100
AcDbEntity
  8
MODEL
  0
POLYLINE
  5
2054
330
A
100
AcDbEntity
  8
MODEL
100
AcDb2dPolyline
 66
     1
 10
0.0
 20
0.0
 30
0.0
  0
VERTEX
  5
2055
330
2054
100
AcDbEntity
  8
MODEL
100
AcDbVertex
100
AcDb2dVertex
 10
198.5023696443033
 20
397.7627563547761
 30
0.0
  0
VERTEX
  5
2056
330
2054
100
AcDbEntity
  8
MODEL
100
AcDbVertex
100
AcDb2dVertex
 10
198.1634343156054
 20
398.4400957655749
 30
0.0
  0
SEQEND
  5
2057
330
2054
100
AcDbEntity
  8
MODEL
  0
POLYLINE
  5
2058
330
A
100
AcDbEntity
  8
MODEL
100
AcDb2dPolyline
 66
     1
 10
0.0
 20
0.0
 30
0.0
  0
VERTEX
  5
2059
330
2058
100
AcDbEntity
  8
MODEL
100
AcDbVertex
100
AcDb2dVertex
 10
198.7988052452647
 20
397.1279166717135
 30
0.0
  0
VERTEX
  5
205A
330
2058
100
AcDbEntity
  8
MODEL
100
AcDbVertex
100
AcDb2dVertex
 10
198.5023696443033
 20
397.7627563547761
 30
0.0
  0
SEQEND
  5
205B
330
2058
100
AcDbEntity
  8
MODEL
  0
POLYLINE
  5
205C
330
A
100
AcDbEntity
  8
MODEL
100
AcDb2dPolyline
 66
     1
 10
0.0
 20
0.0
 30
0.0
  0
VERTEX
  5
205D
330
205C
100
AcDbEntity
  8
MODEL
100
AcDbVertex
100
AcDb2dVertex
 10
199.0949752229278
 20
396.5772795742286
 30
0.0
  0
VERTEX
  5
205E
330
205C
100
AcDbEntity
  8
MODEL
100
AcDbVertex
100
AcDb2dVertex
 10
198.7988052452647
 20
397.1279166717135
 30
0.0
  0
SEQEND
  5
205F
330
205C
100
AcDbEntity
  8
MODEL
  0
POLYLINE
  5
2060
330
A
100
AcDbEntity
  8
MODEL
100
AcDb2dPolyline
 66
     1
 10
0.0
 20
0.0
 30
0.0
  0
VERTEX
  5
2061
330
2060
100
AcDbEntity
  8
MODEL
100
AcDbVertex
100
AcDb2dVertex
 10
199.3914108238893
 20
396.06914220448
 30
0.0
  0
VERTEX
  5
2062
330
2060
100
AcDbEntity
  8
MODEL
100
AcDbVertex
100
AcDb2dVertex
 10
199.0949752229278
 20
396.5772795742286
 30
0.0
  0
SEQEND
  5
2063
330
2060
100
AcDbEntity
  8
MODEL
  0
POLYLINE
  5
2064
330
A
100
AcDbEntity
  8
MODEL
100
AcDb2dPolyline
 66
     1
 10
0.0
 20
0.0
 30
0.0
  0
VERTEX
  5
2065
330
2064
100
AcDbEntity
  8
MODEL
100
AcDbVertex
100
AcDb2dVertex
 10
199.645877943711
 20
395.6035045624682
 30
0.0
  0
VERTEX
  5
2066
330
2064
100
AcDbEntity
  8
MODEL
100
AcDbVertex
100
AcDb2dVertex
 10
199.3914108238893
 20
396.06914220448
 30
0.0
  0
SEQEND
  5
2067
330
2064
100
AcDbEntity
  8
MODEL
  0
POLYLINE
  5
2068
330
A
100
AcDbEntity
  8
MODEL
100
AcDb2dPolyline
 66
     1
 10
0.0
 20
0.0
 30
0.0
  0
VERTEX
  5
2069
330
2068
100
AcDbEntity
  8
MODEL
100
AcDbVertex
100
AcDb2dVertex
 10
199.8575797124979
 20
395.3070689615066
 30
0.0
  0
VERTEX
  5
206A
330
2068
100
AcDbEntity
  8
MODEL
100
AcDbVertex
100
AcDb2dVertex
 10
199.645877943711
 20
395.6035045624682
 30
0.0
  0
SEQEND
  5
206B
330
2068
100
AcDbEntity
  8
MODEL
  0
POLYLINE
  5
206C
330
A
100
AcDbEntity
  8
MODEL
100
AcDb2dPolyline
 66
     1
 10
0.0
 20
0.0
 30
0.0
  0
VERTEX
  5
206D
330
206C
100
AcDbEntity
  8
MODEL
100
AcDbVertex
100
AcDb2dVertex
 10
199.9423135446724
 20
395.0531330882817
 30
0.0
  0
VERTEX
  5
206E
330
206C
100
AcDbEntity
  8
MODEL
100
AcDbVertex
100
AcDb2dVertex
 10
199.8575797124979
 20
395.3070689615066
 30
0.0
  0
SEQEND
  5
206F
330
206C
100
AcDbEntity
  8
MODEL
  0
POLYLINE
  5
2070
330
A
100
AcDbEntity
  8
MODEL
100
AcDb2dPolyline
 66
     1
 10
0.0
 20
0.0
 30
0.0
  0
VERTEX
  5
2071
330
2070
100
AcDbEntity
  8
MODEL
100
AcDbVertex
100
AcDb2dVertex
 10
200.069281481285
 20
394.8833998006343
 30
0.0
  0
VERTEX
  5
2072
330
2070
100
AcDbEntity
  8
MODEL
100
AcDbVertex
100
AcDb2dVertex
 10
199.9423135446724
 20
395.0531330882817
 30
0.0
  0
SEQEND
  5
2073
330
2070
100
AcDbEntity
  8
MODEL
  0
POLYLINE
  5
2074
330
A
100
AcDbEntity
  8
MODEL
100
AcDb2dPolyline
 66
     1
 10
0.0
 20
0.0
 30
0.0
  0
VERTEX
  5
2075
330
2074
100
AcDbEntity
  8
MODEL
100
AcDbVertex
100
AcDb2dVertex
 10
200.1115155857229
 20
394.8414313194947
 30
0.0
  0
VERTEX
  5
2076
330
2074
100
AcDbEntity
  8
MODEL
100
AcDbVertex
100
AcDb2dVertex
 10
200.069281481285
 20
394.8833998006343
 30
0.0
  0
SEQEND
  5
2077
330
2074
100
AcDbEntity
  8
MODEL
  0
POLYLINE
  5
2078
330
A
100
AcDbEntity
  8
MODEL
100
AcDb2dPolyline
 66
     1
 10
0.0
 20
0.0
 30
0.0
  0
VERTEX
  5
2079
330
2078
100
AcDbEntity
  8
MODEL
100
AcDbVertex
100
AcDb2dVertex
 10
167.0881646413404
 20
328.0756871620891
 30
0.0
  0
VERTEX
  5
207A
330
2078
100
AcDbEntity
  8
MODEL
100
AcDbVertex
100
AcDb2dVertex
 10
167.0881646413404
 20
328.3715915164539
 30
0.0
  0
SEQEND
  5
207B
330
2078
100
AcDbEntity
  8
MODEL
  0
POLYLINE
  5
207C
330
A
100
AcDbEntity
  8
MODEL
100
AcDb2dPolyline
 66
     1
 10
0.0
 20
0.0
 30
0.0
  0
VERTEX
  5
207D
330
207C
100
AcDbEntity
  8
MODEL
100
AcDbVertex
100
AcDb2dVertex
 10
189.3997248330596
 20
322.8256426701511
 30
0.0
  0
VERTEX
  5
207E
330
207C
100
AcDbEntity
  8
MODEL
100
AcDbVertex
100
AcDb2dVertex
 10
187.7486104105002
 20
322.8256426701511
 30
0.0
  0
SEQEND
  5
207F
330
207C
100
AcDbEntity
  8
MODEL
  0
SPLINE
  5
2080
330
A
100
AcDbEntity
  8
MODEL
100
AcDbSpline
210
0.0
220
0.0
230
1.0
 70
    24
 71
     3
 72
    14
 73
    10
 74
     0
 42
0.000000001
 43
0.0000000001
 40
0.0
 40
0.0
 40
0.0
 40
0.0
 40
1.0
 40
1.0
 40
1.0
 40
2.0
 40
2.0
 40
2.0
 40
3.0
 40
3.0
 40
3.0
 40
3.0
 10
207.5627803511087
 20
322.8256426701511
 30
0.0
 10
207.5627803511087
 20
322.8256426701511
 30
0.0
 10
207.5208118699691
 20
322.8256426701511
 30
0.0
 10
207.5208118699691
 20
322.8256426701511
 30
0.0
 10
202.0165658815075
 20
322.8256426701511
 30
0.0
 10
196.513116762941
 20
322.8256426701511
 30
0.0
 10
191.0088707744794
 20
322.8256426701511
 30
0.0
 10
191.0088707744794
 20
322.8256426701511
 30
0.0
 10
189.3997248330596
 20
322.8256426701511
 30
0.0
 10
189.3997248330596
 20
322.8256426701511
 30
0.0
  0
SPLINE
  5
2081
330
A
100
AcDbEntity
  8
MODEL
100
AcDbSpline
210
0.0
220
0.0
230
1.0
 70
    24
 71
     3
 72
    14
 73
    10
 74
     0
 42
0.000000001
 43
0.0000000001
 40
0.0
 40
0.0
 40
0.0
 40
0.0
 40
1.0
 40
1.0
 40
1.0
 40
2.0
 40
2.0
 40
2.0
 40
3.0
 40
3.0
 40
3.0
 40
3.0
 10
207.5627803511087
 20
317.8300652980346
 30
0.0
 10
207.5627803511087
 20
317.8300652980346
 30
0.0
 10
207.5208118699691
 20
317.8300652980346
 30
0.0
 10
207.5208118699691
 20
317.8300652980346
 30
0.0
 10
191.5735859067769
 20
317.8300652980346
 30
0.0
 10
175.6263599435848
 20
317.8300652980346
 30
0.0
 10
159.6791339803927
 20
317.8300652980346
 30
0.0
 10
159.6791339803927
 20
317.8300652980346
 30
0.0
 10
159.637165499253
 20
317.8300652980346
 30
0.0
 10
159.637165499253
 20
317.8300652980346
 30
0.0
  0
POLYLINE
  5
2082
102
{ACAD_REACTORS
330
2601
102
}
330
A
100
AcDbEntity
  8
MODEL
100
AcDb2dPolyline
 66
     1
 10
0.0
 20
0.0
 30
0.0
  0
VERTEX
  5
2083
330
2082
100
AcDbEntity
  8
MODEL
100
AcDbVertex
100
AcDb2dVertex
 10
200.1115155857229
 20
441.5815693908029
 30
0.0
  0
VERTEX
  5
2084
330
2082
100
AcDbEntity
  8
MODEL
100
AcDbVertex
100
AcDb2dVertex
 10
200.1115155857229
 20
447.8048576479049
 30
0.0
  0
SEQEND
  5
2085
330
2082
100
AcDbEntity
  8
MODEL
  0
POLYLINE
  5
2086
330
A
100
AcDbEntity
  8
MODEL
100
AcDb2dPolyline
 66
     1
 10
0.0
 20
0.0
 30
0.0
  0
VERTEX
  5
2087
330
2086
100
AcDbEntity
  8
MODEL
100
AcDbVertex
100
AcDb2dVertex
 10
200.1115155857229
 20
422.8261739174276
 30
0.0
  0
VERTEX
  5
2088
330
2086
100
AcDbEntity
  8
MODEL
100
AcDbVertex
100
AcDb2dVertex
 10
200.1115155857229
 20
433.4951993190563
 30
0.0
  0
SEQEND
  5
2089
330
2086
100
AcDbEntity
  8
MODEL
  0
POLYLINE
  5
208A
102
{ACAD_REACTORS
330
2601
102
}
330
A
100
AcDbEntity
  8
MODEL
100
AcDb2dPolyline
 66
     1
 10
0.0
 20
0.0
 30
0.0
  0
VERTEX
  5
208B
330
208A
100
AcDbEntity
  8
MODEL
100
AcDbVertex
100
AcDb2dVertex
 10
167.0881646413404
 20
422.8261739174276
 30
0.0
  0
VERTEX
  5
208C
330
208A
100
AcDbEntity
  8
MODEL
100
AcDbVertex
100
AcDb2dVertex
 10
167.0881646413404
 20
447.8048576479049
 30
0.0
  0
SEQEND
  5
208D
330
208A
100
AcDbEntity
  8
MODEL
  0
SPLINE
  5
208E
330
A
100
AcDbEntity
  8
MODEL
100
AcDbSpline
210
0.0
220
0.0
230
1.0
 70
    24
 71
     3
 72
    14
 73
    10
 74
     0
 42
0.000000001
 43
0.0000000001
 40
0.0
 40
0.0
 40
0.0
 40
0.0
 40
1.0
 40
1.0
 40
1.0
 40
2.0
 40
2.0
 40
2.0
 40
3.0
 40
3.0
 40
3.0
 40
3.0
 10
167.0881646413404
 20
422.8261739174276
 30
0.0
 10
167.0881646413404
 20
422.8261739174276
 30
0.0
 10
167.1306643690768
 20
422.8261739174276
 30
0.0
 10
167.1306643690768
 20
422.8261739174276
 30
0.0
 10
178.1102034064795
 20
422.8261739174276
 30
0.0
 10
189.0897424438822
 20
422.8261739174276
 30
0.0
 10
200.069281481285
 20
422.8261739174276
 30
0.0
 10
200.069281481285
 20
422.8261739174276
 30
0.0
 10
200.1115155857229
 20
422.8261739174276
 30
0.0
 10
200.1115155857229
 20
422.8261739174276
 30
0.0
  0
SPLINE
  5
208F
330
A
100
AcDbEntity
  8
MODEL
100
AcDbSpline
210
0.0
220
0.0
230
1.0
 70
    24
 71
     3
 72
    14
 73
    10
 74
     0
 42
0.000000001
 43
0.0000000001
 40
0.0
 40
0.0
 40
0.0
 40
0.0
 40
1.0
 40
1.0
 40
1.0
 40
2.0
 40
2.0
 40
2.0
 40
3.0
 40
3.0
 40
3.0
 40
3.0
 10
167.0881646413404
 20
447.8048576479049
 30
0.0
 10
167.0881646413404
 20
447.8048576479049
 30
0.0
 10
167.1306643690768
 20
447.8048576479049
 30
0.0
 10
167.1306643690768
 20
447.8048576479049
 30
0.0
 10
178.1102034064795
 20
447.8048576479049
 30
0.0
 10
189.0897424438822
 20
447.8048576479049
 30
0.0
 10
200.069281481285
 20
447.8048576479049
 30
0.0
 10
200.069281481285
 20
447.8048576479049
 30
0.0
 10
200.1115155857229
 20
447.8048576479049
 30
0.0
 10
200.1115155857229
 20
447.8048576479049
 30
0.0
  0
POLYLINE
  5
2090
330
A
100
AcDbEntity
  8
MODEL
100
AcDb2dPolyline
 66
     1
 10
0.0
 20
0.0
 30
0.0
  0
VERTEX
  5
2091
330
2090
100
AcDbEntity
  8
MODEL
100
AcDbVertex
100
AcDb2dVertex
 10
200.1115155857229
 20
441.5390696630665
 30
0.0
  0
VERTEX
  5
2092
330
2090
100
AcDbEntity
  8
MODEL
100
AcDbVertex
100
AcDb2dVertex
 10
200.1115155857229
 20
441.5815693908029
 30
0.0
  0
SEQEND
  5
2093
330
2090
100
AcDbEntity
  8
MODEL
  0
POLYLINE
  5
2094
330
A
100
AcDbEntity
  8
MODEL
100
AcDb2dPolyline
 66
     1
 10
0.0
 20
0.0
 30
0.0
  0
VERTEX
  5
2095
330
2094
100
AcDbEntity
  8
MODEL
100
AcDbVertex
100
AcDb2dVertex
 10
200.069281481285
 20
441.4118361031557
 30
0.0
  0
VERTEX
  5
2096
330
2094
100
AcDbEntity
  8
MODEL
100
AcDbVertex
100
AcDb2dVertex
 10
200.1115155857229
 20
441.5390696630665
 30
0.0
  0
SEQEND
  5
2097
330
2094
100
AcDbEntity
  8
MODEL
  0
POLYLINE
  5
2098
330
A
100
AcDbEntity
  8
MODEL
100
AcDb2dPolyline
 66
     1
 10
0.0
 20
0.0
 30
0.0
  0
VERTEX
  5
2099
330
2098
100
AcDbEntity
  8
MODEL
100
AcDbVertex
100
AcDb2dVertex
 10
199.9423135446724
 20
441.0309322933182
 30
0.0
  0
VERTEX
  5
209A
330
2098
100
AcDbEntity
  8
MODEL
100
AcDbVertex
100
AcDb2dVertex
 10
200.0267817535486
 20
441.2851337898416
 30
0.0
  0
VERTEX
  5
209B
330
2098
100
AcDbEntity
  8
MODEL
100
AcDbVertex
100
AcDb2dVertex
 10
200.0690158579865
 20
441.4118361031557
 30
0.0
  0
SEQEND
  5
209C
330
2098
100
AcDbEntity
  8
MODEL
  0
POLYLINE
  5
209D
330
A
100
AcDbEntity
  8
MODEL
100
AcDb2dPolyline
 66
     1
 10
0.0
 20
0.0
 30
0.0
  0
VERTEX
  5
209E
330
209D
100
AcDbEntity
  8
MODEL
100
AcDbVertex
100
AcDb2dVertex
 10
199.8995481936377
 20
440.6922625879187
 30
0.0
  0
VERTEX
  5
209F
330
209D
100
AcDbEntity
  8
MODEL
100
AcDbVertex
100
AcDb2dVertex
 10
199.9423135446724
 20
441.0309322933182
 30
0.0
  0
SEQEND
  5
20A0
330
209D
100
AcDbEntity
  8
MODEL
  0
POLYLINE
  5
20A1
330
A
100
AcDbEntity
  8
MODEL
100
AcDb2dPolyline
 66
     1
 10
0.0
 20
0.0
 30
0.0
  0
VERTEX
  5
20A2
330
20A1
100
AcDbEntity
  8
MODEL
100
AcDbVertex
100
AcDb2dVertex
 10
199.8575797124979
 20
440.3955613636589
 30
0.0
  0
VERTEX
  5
20A3
330
20A1
100
AcDbEntity
  8
MODEL
100
AcDbVertex
100
AcDb2dVertex
 10
199.8995481936377
 20
440.6922625879187
 30
0.0
  0
SEQEND
  5
20A4
330
20A1
100
AcDbEntity
  8
MODEL
  0
POLYLINE
  5
20A5
330
A
100
AcDbEntity
  8
MODEL
100
AcDb2dPolyline
 66
     1
 10
0.0
 20
0.0
 30
0.0
  0
VERTEX
  5
20A6
330
20A5
100
AcDbEntity
  8
MODEL
100
AcDbVertex
100
AcDb2dVertex
 10
199.8145487381648
 20
440.0143919305229
 30
0.0
  0
VERTEX
  5
20A7
330
20A5
100
AcDbEntity
  8
MODEL
100
AcDbVertex
100
AcDb2dVertex
 10
199.8575797124979
 20
440.3955613636589
 30
0.0
  0
SEQEND
  5
20A8
330
20A5
100
AcDbEntity
  8
MODEL
  0
POLYLINE
  5
20A9
330
A
100
AcDbEntity
  8
MODEL
100
AcDb2dPolyline
 66
     1
 10
0.0
 20
0.0
 30
0.0
  0
VERTEX
  5
20AA
330
20A9
100
AcDbEntity
  8
MODEL
100
AcDbVertex
100
AcDb2dVertex
 10
199.6878464248507
 20
439.5492855351075
 30
0.0
  0
VERTEX
  5
20AB
330
20A9
100
AcDbEntity
  8
MODEL
100
AcDbVertex
100
AcDb2dVertex
 10
199.8145487381648
 20
440.0143919305229
 30
0.0
  0
SEQEND
  5
20AC
330
20A9
100
AcDbEntity
  8
MODEL
  0
POLYLINE
  5
20AD
330
A
100
AcDbEntity
  8
MODEL
100
AcDb2dPolyline
 66
     1
 10
0.0
 20
0.0
 30
0.0
  0
VERTEX
  5
20AE
330
20AD
100
AcDbEntity
  8
MODEL
100
AcDbVertex
100
AcDb2dVertex
 10
199.645877943711
 20
439.0841791396923
 30
0.0
  0
VERTEX
  5
20AF
330
20AD
100
AcDbEntity
  8
MODEL
100
AcDbVertex
100
AcDb2dVertex
 10
199.6878464248507
 20
439.5492855351075
 30
0.0
  0
SEQEND
  5
20B0
330
20AD
100
AcDbEntity
  8
MODEL
  0
POLYLINE
  5
20B1
330
A
100
AcDbEntity
  8
MODEL
100
AcDb2dPolyline
 66
     1
 10
0.0
 20
0.0
 30
0.0
  0
VERTEX
  5
20B2
330
20B1
100
AcDbEntity
  8
MODEL
100
AcDbVertex
100
AcDb2dVertex
 10
199.6028469693779
 20
438.5755105233471
 30
0.0
  0
VERTEX
  5
20B3
330
20B1
100
AcDbEntity
  8
MODEL
100
AcDbVertex
100
AcDb2dVertex
 10
199.645877943711
 20
439.0841791396923
 30
0.0
  0
SEQEND
  5
20B4
330
20B1
100
AcDbEntity
  8
MODEL
  0
POLYLINE
  5
20B5
330
A
100
AcDbEntity
  8
MODEL
100
AcDb2dPolyline
 66
     1
 10
0.0
 20
0.0
 30
0.0
  0
VERTEX
  5
20B6
330
20B5
100
AcDbEntity
  8
MODEL
100
AcDbVertex
100
AcDb2dVertex
 10
199.6028469693779
 20
436.501258186512
 30
0.0
  0
VERTEX
  5
20B7
330
20B5
100
AcDbEntity
  8
MODEL
100
AcDbVertex
100
AcDb2dVertex
 10
199.6028469693779
 20
438.5755105233471
 30
0.0
  0
SEQEND
  5
20B8
330
20B5
100
AcDbEntity
  8
MODEL
  0
POLYLINE
  5
20B9
330
A
100
AcDbEntity
  8
MODEL
100
AcDb2dPolyline
 66
     1
 10
0.0
 20
0.0
 30
0.0
  0
VERTEX
  5
20BA
330
20B9
100
AcDbEntity
  8
MODEL
100
AcDbVertex
100
AcDb2dVertex
 10
199.6878464248507
 20
435.4844522004186
 30
0.0
  0
VERTEX
  5
20BB
330
20B9
100
AcDbEntity
  8
MODEL
100
AcDbVertex
100
AcDb2dVertex
 10
199.645877943711
 20
435.9931208167637
 30
0.0
  0
VERTEX
  5
20BC
330
20B9
100
AcDbEntity
  8
MODEL
100
AcDbVertex
100
AcDb2dVertex
 10
199.6028469693779
 20
436.501258186512
 30
0.0
  0
SEQEND
  5
20BD
330
20B9
100
AcDbEntity
  8
MODEL
  0
POLYLINE
  5
20BE
330
A
100
AcDbEntity
  8
MODEL
100
AcDb2dPolyline
 66
     1
 10
0.0
 20
0.0
 30
0.0
  0
VERTEX
  5
20BF
330
20BE
100
AcDbEntity
  8
MODEL
100
AcDbVertex
100
AcDb2dVertex
 10
199.8145487381648
 20
435.0618455327395
 30
0.0
  0
VERTEX
  5
20C0
330
20BE
100
AcDbEntity
  8
MODEL
100
AcDbVertex
100
AcDb2dVertex
 10
199.6878464248507
 20
435.4844522004186
 30
0.0
  0
SEQEND
  5
20C1
330
20BE
100
AcDbEntity
  8
MODEL
  0
POLYLINE
  5
20C2
330
A
100
AcDbEntity
  8
MODEL
100
AcDb2dPolyline
 66
     1
 10
0.0
 20
0.0
 30
0.0
  0
VERTEX
  5
20C3
330
20C2
100
AcDbEntity
  8
MODEL
100
AcDbVertex
100
AcDb2dVertex
 10
199.8575797124979
 20
434.6804104763054
 30
0.0
  0
VERTEX
  5
20C4
330
20C2
100
AcDbEntity
  8
MODEL
100
AcDbVertex
100
AcDb2dVertex
 10
199.8145487381648
 20
435.0618455327395
 30
0.0
  0
SEQEND
  5
20C5
330
20C2
100
AcDbEntity
  8
MODEL
  0
POLYLINE
  5
20C6
330
A
100
AcDbEntity
  8
MODEL
100
AcDb2dPolyline
 66
     1
 10
0.0
 20
0.0
 30
0.0
  0
VERTEX
  5
20C7
330
20C6
100
AcDbEntity
  8
MODEL
100
AcDbVertex
100
AcDb2dVertex
 10
199.8995481936377
 20
434.2997722897661
 30
0.0
  0
VERTEX
  5
20C8
330
20C6
100
AcDbEntity
  8
MODEL
100
AcDbVertex
100
AcDb2dVertex
 10
199.8575797124979
 20
434.6804104763054
 30
0.0
  0
SEQEND
  5
20C9
330
20C6
100
AcDbEntity
  8
MODEL
  0
POLYLINE
  5
20CA
330
A
100
AcDbEntity
  8
MODEL
100
AcDb2dPolyline
 66
     1
 10
0.0
 20
0.0
 30
0.0
  0
VERTEX
  5
20CB
330
20CA
100
AcDbEntity
  8
MODEL
100
AcDbVertex
100
AcDb2dVertex
 10
199.9423135446724
 20
434.0033366888048
 30
0.0
  0
VERTEX
  5
20CC
330
20CA
100
AcDbEntity
  8
MODEL
100
AcDbVertex
100
AcDb2dVertex
 10
199.8995481936377
 20
434.2997722897661
 30
0.0
  0
SEQEND
  5
20CD
330
20CA
100
AcDbEntity
  8
MODEL
  0
POLYLINE
  5
20CE
330
A
100
AcDbEntity
  8
MODEL
100
AcDb2dPolyline
 66
     1
 10
0.0
 20
0.0
 30
0.0
  0
VERTEX
  5
20CF
330
20CE
100
AcDbEntity
  8
MODEL
100
AcDbVertex
100
AcDb2dVertex
 10
200.0267817535486
 20
433.7916349200176
 30
0.0
  0
VERTEX
  5
20D0
330
20CE
100
AcDbEntity
  8
MODEL
100
AcDbVertex
100
AcDb2dVertex
 10
199.9423135446724
 20
434.0033366888048
 30
0.0
  0
SEQEND
  5
20D1
330
20CE
100
AcDbEntity
  8
MODEL
  0
POLYLINE
  5
20D2
330
A
100
AcDbEntity
  8
MODEL
100
AcDb2dPolyline
 66
     1
 10
0.0
 20
0.0
 30
0.0
  0
VERTEX
  5
20D3
330
20D2
100
AcDbEntity
  8
MODEL
100
AcDbVertex
100
AcDb2dVertex
 10
200.069281481285
 20
433.579401904634
 30
0.0
  0
VERTEX
  5
20D4
330
20D2
100
AcDbEntity
  8
MODEL
100
AcDbVertex
100
AcDb2dVertex
 10
200.0267817535486
 20
433.7916349200176
 30
0.0
  0
SEQEND
  5
20D5
330
20D2
100
AcDbEntity
  8
MODEL
  0
POLYLINE
  5
20D6
330
A
100
AcDbEntity
  8
MODEL
100
AcDb2dPolyline
 66
     1
 10
0.0
 20
0.0
 30
0.0
  0
VERTEX
  5
20D7
330
20D6
100
AcDbEntity
  8
MODEL
100
AcDbVertex
100
AcDb2dVertex
 10
200.1115155857229
 20
433.4951993190563
 30
0.0
  0
VERTEX
  5
20D8
330
20D6
100
AcDbEntity
  8
MODEL
100
AcDbVertex
100
AcDb2dVertex
 10
200.069281481285
 20
433.579401904634
 30
0.0
  0
SEQEND
  5
20D9
330
20D6
100
AcDbEntity
  8
MODEL
  0
POLYLINE
  5
20DA
330
A
100
AcDbEntity
  8
MODEL
100
AcDb2dPolyline
 66
     1
 10
0.0
 20
0.0
 30
0.0
  0
VERTEX
  5
20DB
330
20DA
100
AcDbEntity
  8
MODEL
100
AcDbVertex
100
AcDb2dVertex
 10
200.1115155857229
 20
433.4951993190563
 30
0.0
  0
VERTEX
  5
20DC
330
20DA
100
AcDbEntity
  8
MODEL
100
AcDbVertex
100
AcDb2dVertex
 10
200.1115155857229
 20
433.4951993190563
 30
0.0
  0
SEQEND
  5
20DD
330
20DA
100
AcDbEntity
  8
MODEL
  0
POLYLINE
  5
20DE
330
A
100
AcDbEntity
  8
MODEL
100
AcDb2dPolyline
 66
     1
 10
0.0
 20
0.0
 30
0.0
  0
VERTEX
  5
20DF
330
20DE
100
AcDbEntity
  8
MODEL
100
AcDbVertex
100
AcDb2dVertex
 10
200.1115155857229
 20
433.5376990467927
 30
0.0
  0
VERTEX
  5
20E0
330
20DE
100
AcDbEntity
  8
MODEL
100
AcDbVertex
100
AcDb2dVertex
 10
250.1113827744138
 20
433.5376990467927
 30
0.0
  0
SEQEND
  5
20E1
330
20DE
100
AcDbEntity
  8
MODEL
  0
POLYLINE
  5
20E2
330
A
100
AcDbEntity
  8
MODEL
100
AcDb2dPolyline
 66
     1
 10
0.0
 20
0.0
 30
0.0
  0
VERTEX
  5
20E3
330
20E2
100
AcDbEntity
  8
MODEL
100
AcDbVertex
100
AcDb2dVertex
 10
200.1115155857229
 20
441.5393352863649
 30
0.0
  0
VERTEX
  5
20E4
330
20E2
100
AcDbEntity
  8
MODEL
100
AcDbVertex
100
AcDb2dVertex
 10
250.1113827744138
 20
441.5393352863649
 30
0.0
  0
SEQEND
  5
20E5
330
20E2
100
AcDbEntity
  8
MODEL
  0
SPLINE
  5
20E6
330
A
100
AcDbEntity
  8
MODEL
100
AcDbSpline
210
0.0
220
0.0
230
1.0
 70
    24
 71
     3
 72
    14
 73
    10
 74
     0
 42
0.000000001
 43
0.0000000001
 40
0.0
 40
0.0
 40
0.0
 40
0.0
 40
1.0
 40
1.0
 40
1.0
 40
2.0
 40
2.0
 40
2.0
 40
3.0
 40
3.0
 40
3.0
 40
3.0
 10
250.1113827744138
 20
433.5376990467927
 30
0.0
 10
250.1113827744138
 20
433.5376990467927
 30
0.0
 10
250.1113827744138
 20
433.579401904634
 30
0.0
 10
250.1113827744138
 20
433.579401904634
 30
0.0
 10
250.1113827744138
 20
436.204291338954
 30
0.0
 10
250.1113827744138
 20
438.8294463965723
 30
0.0
 10
250.1113827744138
 20
441.4543358308921
 30
0.0
 10
250.1113827744138
 20
441.4543358308921
 30
0.0
 10
250.1113827744138
 20
441.5393352863649
 30
0.0
 10
250.1113827744138
 20
441.5393352863649
 30
0.0
  0
POLYLINE
  5
20E7
330
A
100
AcDbEntity
  8
MODEL
100
AcDb2dPolyline
 66
     1
 10
0.0
 20
0.0
 30
0.0
  0
VERTEX
  5
20E8
330
20E7
100
AcDbEntity
  8
MODEL
100
AcDbVertex
100
AcDb2dVertex
 10
193.7184940409738
 20
297.2538221144525
 30
0.0
  0
VERTEX
  5
20E9
330
20E7
100
AcDbEntity
  8
MODEL
100
AcDbVertex
100
AcDb2dVertex
 10
193.7184940409738
 20
317.8295340514379
 30
0.0
  0
SEQEND
  5
20EA
330
20E7
100
AcDbEntity
  8
MODEL
  0
POLYLINE
  5
20EB
330
A
100
AcDbEntity
  8
MODEL
100
AcDb2dPolyline
 66
     1
 10
0.0
 20
0.0
 30
0.0
  0
VERTEX
  5
20EC
330
20EB
100
AcDbEntity
  8
MODEL
100
AcDbVertex
100
AcDb2dVertex
 10
193.7184940409738
 20
274.813965869629
 30
0.0
  0
VERTEX
  5
20ED
330
20EB
100
AcDbEntity
  8
MODEL
100
AcDbVertex
100
AcDb2dVertex
 10
193.7184940409738
 20
284.2143743983257
 30
0.0
  0
SEQEND
  5
20EE
330
20EB
100
AcDbEntity
  8
MODEL
  0
POLYLINE
  5
20EF
330
A
100
AcDbEntity
  8
MODEL
100
AcDb2dPolyline
 66
     1
 10
0.0
 20
0.0
 30
0.0
  0
VERTEX
  5
20F0
330
20EF
100
AcDbEntity
  8
MODEL
100
AcDbVertex
100
AcDb2dVertex
 10
173.481451809388
 20
297.2538221144525
 30
0.0
  0
VERTEX
  5
20F1
330
20EF
100
AcDbEntity
  8
MODEL
100
AcDbVertex
100
AcDb2dVertex
 10
173.481451809388
 20
317.8295340514379
 30
0.0
  0
SEQEND
  5
20F2
330
20EF
100
AcDbEntity
  8
MODEL
  0
POLYLINE
  5
20F3
330
A
100
AcDbEntity
  8
MODEL
100
AcDb2dPolyline
 66
     1
 10
0.0
 20
0.0
 30
0.0
  0
VERTEX
  5
20F4
330
20F3
100
AcDbEntity
  8
MODEL
100
AcDbVertex
100
AcDb2dVertex
 10
173.481451809388
 20
274.813965869629
 30
0.0
  0
VERTEX
  5
20F5
330
20F3
100
AcDbEntity
  8
MODEL
100
AcDbVertex
100
AcDb2dVertex
 10
173.481451809388
 20
284.2143743983257
 30
0.0
  0
SEQEND
  5
20F6
330
20F3
100
AcDbEntity
  8
MODEL
  0
SPLINE
  5
20F7
330
A
100
AcDbEntity
  8
MODEL
100
AcDbSpline
210
0.0
220
0.0
230
1.0
 70
    24
 71
     3
 72
    14
 73
    10
 74
     0
 42
0.000000001
 43
0.0000000001
 40
0.0
 40
0.0
 40
0.0
 40
0.0
 40
1.0
 40
1.0
 40
1.0
 40
2.0
 40
2.0
 40
2.0
 40
3.0
 40
3.0
 40
3.0
 40
3.0
 10
188.3412159891247
 20
274.813965869629
 30
0.0
 10
188.3412159891247
 20
274.813965869629
 30
0.0
 10
189.2730225197455
 20
274.813965869629
 30
0.0
 10
189.2730225197455
 20
274.813965869629
 30
0.0
 10
190.7405912431433
 20
274.813965869629
 30
0.0
 10
192.2089568364362
 20
274.813965869629
 30
0.0
 10
193.6765255598341
 20
274.813965869629
 30
0.0
 10
193.6765255598341
 20
274.813965869629
 30
0.0
 10
193.7184940409738
 20
274.813965869629
 30
0.0
 10
193.7184940409738
 20
274.813965869629
 30
0.0
  0
POLYLINE
  5
20F8
330
A
100
AcDbEntity
  8
MODEL
100
AcDb2dPolyline
 66
     1
 10
0.0
 20
0.0
 30
0.0
  0
VERTEX
  5
20F9
330
20F8
100
AcDbEntity
  8
MODEL
100
AcDbVertex
100
AcDb2dVertex
 10
169.2899161613847
 20
281.6739531728821
 30
0.0
  0
VERTEX
  5
20FA
330
20F8
100
AcDbEntity
  8
MODEL
100
AcDbVertex
100
AcDb2dVertex
 10
169.1632138480705
 20
281.5884224708125
 30
0.0
  0
SEQEND
  5
20FB
330
20F8
100
AcDbEntity
  8
MODEL
  0
POLYLINE
  5
20FC
330
A
100
AcDbEntity
  8
MODEL
100
AcDb2dPolyline
 66
     1
 10
0.0
 20
0.0
 30
0.0
  0
VERTEX
  5
20FD
330
20FC
100
AcDbEntity
  8
MODEL
100
AcDbVertex
100
AcDb2dVertex
 10
169.3321502658227
 20
281.8423583440375
 30
0.0
  0
VERTEX
  5
20FE
330
20FC
100
AcDbEntity
  8
MODEL
100
AcDbVertex
100
AcDb2dVertex
 10
169.2899161613847
 20
281.6739531728821
 30
0.0
  0
SEQEND
  5
20FF
330
20FC
100
AcDbEntity
  8
MODEL
  0
POLYLINE
  5
2100
330
A
100
AcDbEntity
  8
MODEL
100
AcDb2dPolyline
 66
     1
 10
0.0
 20
0.0
 30
0.0
  0
VERTEX
  5
2101
330
2100
100
AcDbEntity
  8
MODEL
100
AcDbVertex
100
AcDb2dVertex
 10
169.4171497212956
 20
281.9273577995103
 30
0.0
  0
VERTEX
  5
2102
330
2100
100
AcDbEntity
  8
MODEL
100
AcDbVertex
100
AcDb2dVertex
 10
169.3321502658227
 20
281.8423583440375
 30
0.0
  0
SEQEND
  5
2103
330
2100
100
AcDbEntity
  8
MODEL
  0
POLYLINE
  5
2104
330
A
100
AcDbEntity
  8
MODEL
100
AcDb2dPolyline
 66
     1
 10
0.0
 20
0.0
 30
0.0
  0
VERTEX
  5
2105
330
2104
100
AcDbEntity
  8
MODEL
100
AcDbVertex
100
AcDb2dVertex
 10
169.4591182024353
 20
282.0553882293162
 30
0.0
  0
VERTEX
  5
2106
330
2104
100
AcDbEntity
  8
MODEL
100
AcDbVertex
100
AcDb2dVertex
 10
169.4171497212956
 20
281.9273577995103
 30
0.0
  0
SEQEND
  5
2107
330
2104
100
AcDbEntity
  8
MODEL
  0
POLYLINE
  5
2108
330
A
100
AcDbEntity
  8
MODEL
100
AcDb2dPolyline
 66
     1
 10
0.0
 20
0.0
 30
0.0
  0
VERTEX
  5
2109
330
2108
100
AcDbEntity
  8
MODEL
100
AcDbVertex
100
AcDb2dVertex
 10
169.5438520346098
 20
282.1812936727354
 30
0.0
  0
VERTEX
  5
210A
330
2108
100
AcDbEntity
  8
MODEL
100
AcDbVertex
100
AcDb2dVertex
 10
169.4591182024353
 20
282.0553882293162
 30
0.0
  0
SEQEND
  5
210B
330
2108
100
AcDbEntity
  8
MODEL
  0
POLYLINE
  5
210C
330
A
100
AcDbEntity
  8
MODEL
100
AcDb2dPolyline
 66
     1
 10
0.0
 20
0.0
 30
0.0
  0
VERTEX
  5
210D
330
210C
100
AcDbEntity
  8
MODEL
100
AcDbVertex
100
AcDb2dVertex
 10
169.5858205157494
 20
282.3518238302778
 30
0.0
  0
VERTEX
  5
210E
330
210C
100
AcDbEntity
  8
MODEL
100
AcDbVertex
100
AcDb2dVertex
 10
169.5438520346098
 20
282.1812936727354
 30
0.0
  0
SEQEND
  5
210F
330
210C
100
AcDbEntity
  8
MODEL
  0
POLYLINE
  5
2110
330
A
100
AcDbEntity
  8
MODEL
100
AcDb2dPolyline
 66
     1
 10
0.0
 20
0.0
 30
0.0
  0
VERTEX
  5
2111
330
2110
100
AcDbEntity
  8
MODEL
100
AcDbVertex
100
AcDb2dVertex
 10
164.2938075426716
 20
280.7846463699976
 30
0.0
  0
VERTEX
  5
2112
330
2110
100
AcDbEntity
  8
MODEL
100
AcDbVertex
100
AcDb2dVertex
 10
164.8024761590167
 20
280.7421466422612
 30
0.0
  0
SEQEND
  5
2113
330
2110
100
AcDbEntity
  8
MODEL
  0
POLYLINE
  5
2114
330
A
100
AcDbEntity
  8
MODEL
100
AcDb2dPolyline
 66
     1
 10
0.0
 20
0.0
 30
0.0
  0
VERTEX
  5
2115
330
2114
100
AcDbEntity
  8
MODEL
100
AcDbVertex
100
AcDb2dVertex
 10
163.8281699006595
 20
280.9116143066102
 30
0.0
  0
VERTEX
  5
2116
330
2114
100
AcDbEntity
  8
MODEL
100
AcDbVertex
100
AcDb2dVertex
 10
164.2938075426716
 20
280.7846463699976
 30
0.0
  0
SEQEND
  5
2117
330
2114
100
AcDbEntity
  8
MODEL
  0
POLYLINE
  5
2118
330
A
100
AcDbEntity
  8
MODEL
100
AcDb2dPolyline
 66
     1
 10
0.0
 20
0.0
 30
0.0
  0
VERTEX
  5
2119
330
2118
100
AcDbEntity
  8
MODEL
100
AcDbVertex
100
AcDb2dVertex
 10
163.4467348442253
 20
281.2494871421146
 30
0.0
  0
VERTEX
  5
211A
330
2118
100
AcDbEntity
  8
MODEL
100
AcDbVertex
100
AcDb2dVertex
 10
163.8281699006595
 20
280.9116143066102
 30
0.0
  0
SEQEND
  5
211B
330
2118
100
AcDbEntity
  8
MODEL
  0
POLYLINE
  5
211C
330
A
100
AcDbEntity
  8
MODEL
100
AcDb2dPolyline
 66
     1
 10
0.0
 20
0.0
 30
0.0
  0
VERTEX
  5
211D
330
211C
100
AcDbEntity
  8
MODEL
100
AcDbVertex
100
AcDb2dVertex
 10
163.0666279042828
 20
281.5459227430761
 30
0.0
  0
VERTEX
  5
211E
330
211C
100
AcDbEntity
  8
MODEL
100
AcDbVertex
100
AcDb2dVertex
 10
163.4467348442253
 20
281.2494871421146
 30
0.0
  0
SEQEND
  5
211F
330
211C
100
AcDbEntity
  8
MODEL
  0
POLYLINE
  5
2120
330
A
100
AcDbEntity
  8
MODEL
100
AcDb2dPolyline
 66
     1
 10
0.0
 20
0.0
 30
0.0
  0
VERTEX
  5
2121
330
2120
100
AcDbEntity
  8
MODEL
100
AcDbVertex
100
AcDb2dVertex
 10
162.8124264077594
 20
282.0128885015798
 30
0.0
  0
VERTEX
  5
2122
330
2120
100
AcDbEntity
  8
MODEL
100
AcDbVertex
100
AcDb2dVertex
 10
163.0666279042828
 20
281.5459227430761
 30
0.0
  0
SEQEND
  5
2123
330
2120
100
AcDbEntity
  8
MODEL
  0
POLYLINE
  5
2124
330
A
100
AcDbEntity
  8
MODEL
100
AcDb2dPolyline
 66
     1
 10
0.0
 20
0.0
 30
0.0
  0
VERTEX
  5
2125
330
2124
100
AcDbEntity
  8
MODEL
100
AcDbVertex
100
AcDb2dVertex
 10
162.6857240944453
 20
282.4352295459604
 30
0.0
  0
VERTEX
  5
2126
330
2124
100
AcDbEntity
  8
MODEL
100
AcDbVertex
100
AcDb2dVertex
 10
162.8124264077594
 20
282.0128885015798
 30
0.0
  0
SEQEND
  5
2127
330
2124
100
AcDbEntity
  8
MODEL
  0
POLYLINE
  5
2128
330
A
100
AcDbEntity
  8
MODEL
100
AcDb2dPolyline
 66
     1
 10
0.0
 20
0.0
 30
0.0
  0
VERTEX
  5
2129
330
2128
100
AcDbEntity
  8
MODEL
100
AcDbVertex
100
AcDb2dVertex
 10
162.6009902622708
 20
282.9011328112707
 30
0.0
  0
VERTEX
  5
212A
330
2128
100
AcDbEntity
  8
MODEL
100
AcDbVertex
100
AcDb2dVertex
 10
162.6857240944453
 20
282.4352295459604
 30
0.0
  0
SEQEND
  5
212B
330
2128
100
AcDbEntity
  8
MODEL
  0
POLYLINE
  5
212C
330
A
100
AcDbEntity
  8
MODEL
100
AcDb2dPolyline
 66
     1
 10
0.0
 20
0.0
 30
0.0
  0
VERTEX
  5
212D
330
212C
100
AcDbEntity
  8
MODEL
100
AcDbVertex
100
AcDb2dVertex
 10
169.5858205157494
 20
282.3518238302778
 30
0.0
  0
VERTEX
  5
212E
330
212C
100
AcDbEntity
  8
MODEL
100
AcDbVertex
100
AcDb2dVertex
 10
169.6288514900826
 20
282.5627287291696
 30
0.0
  0
SEQEND
  5
212F
330
212C
100
AcDbEntity
  8
MODEL
  0
POLYLINE
  5
2130
330
A
100
AcDbEntity
  8
MODEL
100
AcDb2dPolyline
 66
     1
 10
0.0
 20
0.0
 30
0.0
  0
VERTEX
  5
2131
330
2130
100
AcDbEntity
  8
MODEL
100
AcDbVertex
100
AcDb2dVertex
 10
170.0944891320946
 20
289.2096861471439
 30
0.0
  0
VERTEX
  5
2132
330
2130
100
AcDbEntity
  8
MODEL
100
AcDbVertex
100
AcDb2dVertex
 10
170.0944891320946
 20
284.2143743983257
 30
0.0
  0
VERTEX
  5
2133
330
2130
100
AcDbEntity
  8
MODEL
100
AcDbVertex
100
AcDb2dVertex
 10
169.6288514900826
 20
282.5627287291696
 30
0.0
  0
SEQEND
  5
2134
330
2130
100
AcDbEntity
  8
MODEL
  0
POLYLINE
  5
2135
330
A
100
AcDbEntity
  8
MODEL
100
AcDb2dPolyline
 66
     1
 10
0.0
 20
0.0
 30
0.0
  0
VERTEX
  5
2136
330
2135
100
AcDbEntity
  8
MODEL
100
AcDbVertex
100
AcDb2dVertex
 10
169.4171497212956
 20
289.3791538114928
 30
0.0
  0
VERTEX
  5
2137
330
2135
100
AcDbEntity
  8
MODEL
100
AcDbVertex
100
AcDb2dVertex
 10
170.0944891320946
 20
289.2096861471439
 30
0.0
  0
SEQEND
  5
2138
330
2135
100
AcDbEntity
  8
MODEL
  0
POLYLINE
  5
2139
330
A
100
AcDbEntity
  8
MODEL
100
AcDb2dPolyline
 66
     1
 10
0.0
 20
0.0
 30
0.0
  0
VERTEX
  5
213A
330
2139
100
AcDbEntity
  8
MODEL
100
AcDbVertex
100
AcDb2dVertex
 10
168.7817787916363
 20
289.5486214758417
 30
0.0
  0
VERTEX
  5
213B
330
2139
100
AcDbEntity
  8
MODEL
100
AcDbVertex
100
AcDb2dVertex
 10
169.4171497212956
 20
289.3791538114928
 30
0.0
  0
SEQEND
  5
213C
330
2139
100
AcDbEntity
  8
MODEL
  0
POLYLINE
  5
213D
330
A
100
AcDbEntity
  8
MODEL
100
AcDb2dPolyline
 66
     1
 10
0.0
 20
0.0
 30
0.0
  0
VERTEX
  5
213E
330
213D
100
AcDbEntity
  8
MODEL
100
AcDbVertex
100
AcDb2dVertex
 10
168.1894388363101
 20
289.9289940390826
 30
0.0
  0
VERTEX
  5
213F
330
213D
100
AcDbEntity
  8
MODEL
100
AcDbVertex
100
AcDb2dVertex
 10
168.7817787916363
 20
289.5486214758417
 30
0.0
  0
SEQEND
  5
2140
330
213D
100
AcDbEntity
  8
MODEL
  0
POLYLINE
  5
2141
330
A
100
AcDbEntity
  8
MODEL
100
AcDb2dPolyline
 66
     1
 10
0.0
 20
0.0
 30
0.0
  0
VERTEX
  5
2142
330
2141
100
AcDbEntity
  8
MODEL
100
AcDbVertex
100
AcDb2dVertex
 10
167.6388017388252
 20
290.3098978489202
 30
0.0
  0
VERTEX
  5
2143
330
2141
100
AcDbEntity
  8
MODEL
100
AcDbVertex
100
AcDb2dVertex
 10
168.1894388363101
 20
289.9289940390826
 30
0.0
  0
SEQEND
  5
2144
330
2141
100
AcDbEntity
  8
MODEL
  0
POLYLINE
  5
2145
330
A
100
AcDbEntity
  8
MODEL
100
AcDb2dPolyline
 66
     1
 10
0.0
 20
0.0
 30
0.0
  0
VERTEX
  5
2146
330
2145
100
AcDbEntity
  8
MODEL
100
AcDbVertex
100
AcDb2dVertex
 10
167.257366682391
 20
290.818300841967
 30
0.0
  0
VERTEX
  5
2147
330
2145
100
AcDbEntity
  8
MODEL
100
AcDbVertex
100
AcDb2dVertex
 10
167.6388017388252
 20
290.3098978489202
 30
0.0
  0
SEQEND
  5
2148
330
2145
100
AcDbEntity
  8
MODEL
  0
POLYLINE
  5
2149
330
A
100
AcDbEntity
  8
MODEL
100
AcDb2dPolyline
 66
     1
 10
0.0
 20
0.0
 30
0.0
  0
VERTEX
  5
214A
330
2149
100
AcDbEntity
  8
MODEL
100
AcDbVertex
100
AcDb2dVertex
 10
166.8347600147121
 20
291.4111720438899
 30
0.0
  0
VERTEX
  5
214B
330
2149
100
AcDbEntity
  8
MODEL
100
AcDbVertex
100
AcDb2dVertex
 10
167.257366682391
 20
290.818300841967
 30
0.0
  0
SEQEND
  5
214C
330
2149
100
AcDbEntity
  8
MODEL
  0
POLYLINE
  5
214D
330
A
100
AcDbEntity
  8
MODEL
100
AcDb2dPolyline
 66
     1
 10
0.0
 20
0.0
 30
0.0
  0
VERTEX
  5
214E
330
214D
100
AcDbEntity
  8
MODEL
100
AcDbVertex
100
AcDb2dVertex
 10
166.5802928948904
 20
292.0465429735492
 30
0.0
  0
VERTEX
  5
214F
330
214D
100
AcDbEntity
  8
MODEL
100
AcDbVertex
100
AcDb2dVertex
 10
166.8347600147121
 20
291.4111720438899
 30
0.0
  0
SEQEND
  5
2150
330
214D
100
AcDbEntity
  8
MODEL
  0
POLYLINE
  5
2151
330
A
100
AcDbEntity
  8
MODEL
100
AcDb2dPolyline
 66
     1
 10
0.0
 20
0.0
 30
0.0
  0
VERTEX
  5
2152
330
2151
100
AcDbEntity
  8
MODEL
100
AcDbVertex
100
AcDb2dVertex
 10
204.598955588091
 20
292.0465429735492
 30
0.0
  0
VERTEX
  5
2153
330
2151
100
AcDbEntity
  8
MODEL
100
AcDbVertex
100
AcDb2dVertex
 10
204.598955588091
 20
297.2538221144525
 30
0.0
  0
SEQEND
  5
2154
330
2151
100
AcDbEntity
  8
MODEL
  0
POLYLINE
  5
2155
330
A
100
AcDbEntity
  8
MODEL
100
AcDb2dPolyline
 66
     1
 10
0.0
 20
0.0
 30
0.0
  0
VERTEX
  5
2156
330
2155
100
AcDbEntity
  8
MODEL
100
AcDbVertex
100
AcDb2dVertex
 10
162.6007246389725
 20
292.0465429735492
 30
0.0
  0
VERTEX
  5
2157
330
2155
100
AcDbEntity
  8
MODEL
100
AcDbVertex
100
AcDb2dVertex
 10
162.6007246389725
 20
297.2538221144525
 30
0.0
  0
SEQEND
  5
2158
330
2155
100
AcDbEntity
  8
MODEL
  0
SPLINE
  5
2159
330
A
100
AcDbEntity
  8
MODEL
100
AcDbSpline
210
0.0
220
0.0
230
1.0
 70
    24
 71
     3
 72
    14
 73
    10
 74
     0
 42
0.000000001
 43
0.0000000001
 40
0.0
 40
0.0
 40
0.0
 40
0.0
 40
1.0
 40
1.0
 40
1.0
 40
2.0
 40
2.0
 40
2.0
 40
3.0
 40
3.0
 40
3.0
 40
3.0
 10
183.5573403857953
 20
292.0465429735492
 30
0.0
 10
183.5573403857953
 20
292.0465429735492
 30
0.0
 10
181.9909597954103
 20
292.0465429735492
 30
0.0
 10
181.9909597954103
 20
292.0465429735492
 30
0.0
 10
175.5562353928198
 20
292.0465429735492
 30
0.0
 10
169.1207141203341
 20
292.0465429735492
 30
0.0
 10
162.6857240944453
 20
292.0465429735492
 30
0.0
 10
162.6857240944453
 20
292.0465429735492
 30
0.0
 10
162.6007246389725
 20
292.0465429735492
 30
0.0
 10
162.6007246389725
 20
292.0465429735492
 30
0.0
  0
SPLINE
  5
215A
330
A
100
AcDbEntity
  8
MODEL
100
AcDbSpline
210
0.0
220
0.0
230
1.0
 70
    24
 71
     3
 72
    14
 73
    10
 74
     0
 42
0.000000001
 43
0.0000000001
 40
0.0
 40
0.0
 40
0.0
 40
0.0
 40
1.0
 40
1.0
 40
1.0
 40
2.0
 40
2.0
 40
2.0
 40
3.0
 40
3.0
 40
3.0
 40
3.0
 10
204.598955588091
 20
292.0465429735492
 30
0.0
 10
204.598955588091
 20
292.0465429735492
 30
0.0
 10
204.5142217559165
 20
292.0465429735492
 30
0.0
 10
204.5142217559165
 20
292.0465429735492
 30
0.0
 10
198.0792317300276
 20
292.0465429735492
 30
0.0
 10
191.643710457542
 20
292.0465429735492
 30
0.0
 10
185.2087204316531
 20
292.0465429735492
 30
0.0
 10
185.2087204316531
 20
292.0465429735492
 30
0.0
 10
183.6420742179698
 20
292.0465429735492
 30
0.0
 10
183.6420742179698
 20
292.0465429735492
 30
0.0
  0
SPLINE
  5
215B
330
A
100
AcDbEntity
  8
MODEL
100
AcDbSpline
210
0.0
220
0.0
230
1.0
 70
    24
 71
     3
 72
    14
 73
    10
 74
     0
 42
0.000000001
 43
0.0000000001
 40
0.0
 40
0.0
 40
0.0
 40
0.0
 40
1.0
 40
1.0
 40
1.0
 40
2.0
 40
2.0
 40
2.0
 40
3.0
 40
3.0
 40
3.0
 40
3.0
 10
204.598955588091
 20
297.2538221144525
 30
0.0
 10
204.598955588091
 20
297.2538221144525
 30
0.0
 10
204.5142217559165
 20
297.2538221144525
 30
0.0
 10
204.5142217559165
 20
297.2538221144525
 30
0.0
 10
190.5713892020927
 20
297.2538221144525
 30
0.0
 10
176.6282910249706
 20
297.2538221144525
 30
0.0
 10
162.6857240944453
 20
297.2538221144525
 30
0.0
 10
162.6857240944453
 20
297.2538221144525
 30
0.0
 10
162.6007246389725
 20
297.2538221144525
 30
0.0
 10
162.6007246389725
 20
297.2538221144525
 30
0.0
  0
SPLINE
  5
215C
330
A
100
AcDbEntity
  8
MODEL
100
AcDbSpline
210
0.0
220
0.0
230
1.0
 70
    24
 71
     3
 72
    14
 73
    10
 74
     0
 42
0.000000001
 43
0.0000000001
 40
0.0
 40
0.0
 40
0.0
 40
0.0
 40
1.0
 40
1.0
 40
1.0
 40
2.0
 40
2.0
 40
2.0
 40
3.0
 40
3.0
 40
3.0
 40
3.0
 10
170.0944891320946
 20
289.2096861471439
 30
0.0
 10
170.0944891320946
 20
289.2096861471439
 30
0.0
 10
170.1367232365326
 20
289.2096861471439
 30
0.0
 10
170.1367232365326
 20
289.2096861471439
 30
0.0
 10
173.6086853692989
 20
289.2096861471439
 30
0.0
 10
177.07985063217
 20
289.2096861471439
 30
0.0
 10
180.5515471416378
 20
289.2096861471439
 30
0.0
 10
180.5515471416378
 20
289.2096861471439
 30
0.0
 10
181.7795236499217
 20
289.2096861471439
 30
0.0
 10
181.7795236499217
 20
289.2096861471439
 30
0.0
  0
SPLINE
  5
215D
330
A
100
AcDbEntity
  8
MODEL
100
AcDbSpline
210
0.0
220
0.0
230
1.0
 70
    24
 71
     3
 72
    14
 73
    10
 74
     0
 42
0.000000001
 43
0.0000000001
 40
0.0
 40
0.0
 40
0.0
 40
0.0
 40
1.0
 40
1.0
 40
1.0
 40
2.0
 40
2.0
 40
2.0
 40
3.0
 40
3.0
 40
3.0
 40
3.0
 10
185.4204222004401
 20
289.2096861471439
 30
0.0
 10
185.4204222004401
 20
289.2096861471439
 30
0.0
 10
186.6481330854256
 20
289.2096861471439
 30
0.0
 10
186.6481330854256
 20
289.2096861471439
 30
0.0
 10
190.1200952181918
 20
289.2096861471439
 30
0.0
 10
193.5912604810629
 20
289.2096861471439
 30
0.0
 10
197.0629569905308
 20
289.2096861471439
 30
0.0
 10
197.0629569905308
 20
289.2096861471439
 30
0.0
 10
197.1049254716704
 20
289.2096861471439
 30
0.0
 10
197.1049254716704
 20
289.2096861471439
 30
0.0
  0
SPLINE
  5
215E
330
A
100
AcDbEntity
  8
MODEL
100
AcDbSpline
210
0.0
220
0.0
230
1.0
 70
    24
 71
     3
 72
    14
 73
    10
 74
     0
 42
0.000000001
 43
0.0000000001
 40
0.0
 40
0.0
 40
0.0
 40
0.0
 40
1.0
 40
1.0
 40
1.0
 40
2.0
 40
2.0
 40
2.0
 40
3.0
 40
3.0
 40
3.0
 40
3.0
 10
170.0944891320946
 20
284.2143743983257
 30
0.0
 10
170.0944891320946
 20
284.2143743983257
 30
0.0
 10
170.1367232365326
 20
284.2143743983257
 30
0.0
 10
170.1367232365326
 20
284.2143743983257
 30
0.0
 10
173.6086853692989
 20
284.2143743983257
 30
0.0
 10
177.07985063217
 20
284.2143743983257
 30
0.0
 10
180.5515471416378
 20
284.2143743983257
 30
0.0
 10
180.5515471416378
 20
284.2143743983257
 30
0.0
 10
181.7795236499217
 20
284.2143743983257
 30
0.0
 10
181.7795236499217
 20
284.2143743983257
 30
0.0
  0
SPLINE
  5
215F
330
A
100
AcDbEntity
  8
MODEL
100
AcDbSpline
210
0.0
220
0.0
230
1.0
 70
    24
 71
     3
 72
    14
 73
    10
 74
     0
 42
0.000000001
 43
0.0000000001
 40
0.0
 40
0.0
 40
0.0
 40
0.0
 40
1.0
 40
1.0
 40
1.0
 40
2.0
 40
2.0
 40
2.0
 40
3.0
 40
3.0
 40
3.0
 40
3.0
 10
185.4204222004401
 20
284.2143743983257
 30
0.0
 10
185.4204222004401
 20
284.2143743983257
 30
0.0
 10
186.6481330854256
 20
284.2143743983257
 30
0.0
 10
186.6481330854256
 20
284.2143743983257
 30
0.0
 10
190.1200952181918
 20
284.2143743983257
 30
0.0
 10
193.5912604810629
 20
284.2143743983257
 30
0.0
 10
197.0629569905308
 20
284.2143743983257
 30
0.0
 10
197.0629569905308
 20
284.2143743983257
 30
0.0
 10
197.1049254716704
 20
284.2143743983257
 30
0.0
 10
197.1049254716704
 20
284.2143743983257
 30
0.0
  0
POLYLINE
  5
2160
330
A
100
AcDbEntity
  8
MODEL
100
AcDb2dPolyline
 66
     1
 10
0.0
 20
0.0
 30
0.0
  0
VERTEX
  5
2161
330
2160
100
AcDbEntity
  8
MODEL
100
AcDbVertex
100
AcDb2dVertex
 10
207.5627803511087
 20
317.8295340514379
 30
0.0
  0
VERTEX
  5
2162
330
2160
100
AcDbEntity
  8
MODEL
100
AcDbVertex
100
AcDb2dVertex
 10
207.5627803511087
 20
322.8251114235543
 30
0.0
  0
SEQEND
  5
2163
330
2160
100
AcDbEntity
  8
MODEL
  0
POLYLINE
  5
2164
330
A
100
AcDbEntity
  8
MODEL
100
AcDb2dPolyline
 66
     1
 10
0.0
 20
0.0
 30
0.0
  0
VERTEX
  5
2165
330
2164
100
AcDbEntity
  8
MODEL
100
AcDbVertex
100
AcDb2dVertex
 10
159.637165499253
 20
317.8295340514379
 30
0.0
  0
VERTEX
  5
2166
330
2164
100
AcDbEntity
  8
MODEL
100
AcDbVertex
100
AcDb2dVertex
 10
159.637165499253
 20
322.8251114235543
 30
0.0
  0
SEQEND
  5
2167
330
2164
100
AcDbEntity
  8
MODEL
  0
SPLINE
  5
2168
330
A
100
AcDbEntity
  8
MODEL
100
AcDbSpline
210
0.0
220
0.0
230
1.0
 70
    24
 71
     3
 72
    14
 73
    10
 74
     0
 42
0.000000001
 43
0.0000000001
 40
0.0
 40
0.0
 40
0.0
 40
0.0
 40
1.0
 40
1.0
 40
1.0
 40
2.0
 40
2.0
 40
2.0
 40
3.0
 40
3.0
 40
3.0
 40
3.0
 10
187.7486104105002
 20
322.8251114235543
 30
0.0
 10
187.7486104105002
 20
322.8251114235543
 30
0.0
 10
186.0977616112391
 20
322.8251114235543
 30
0.0
 10
186.0977616112391
 20
322.8251114235543
 30
0.0
 10
177.291552400957
 20
322.8251114235543
 30
0.0
 10
168.4853431906748
 20
322.8251114235543
 30
0.0
 10
159.6791339803927
 20
322.8251114235543
 30
0.0
 10
159.6791339803927
 20
322.8251114235543
 30
0.0
 10
159.637165499253
 20
322.8251114235543
 30
0.0
 10
159.637165499253
 20
322.8251114235543
 30
0.0
  0
POLYLINE
  5
2169
330
A
100
AcDbEntity
  8
MODEL
100
AcDb2dPolyline
 66
     1
 10
0.0
 20
0.0
 30
0.0
  0
VERTEX
  5
216A
330
2169
100
AcDbEntity
  8
MODEL
100
AcDbVertex
100
AcDb2dVertex
 10
291.8137093691677
 20
382.5204946254115
 30
0.0
  0
VERTEX
  5
216B
330
2169
100
AcDbEntity
  8
MODEL
100
AcDbVertex
100
AcDb2dVertex
 10
281.6525557139892
 20
397.0843544507835
 30
0.0
  0
SEQEND
  5
216C
330
2169
100
AcDbEntity
  8
MODEL
  0
POLYLINE
  5
216D
330
A
100
AcDbEntity
  8
MODEL
100
AcDb2dPolyline
 66
     1
 10
0.0
 20
0.0
 30
0.0
  0
VERTEX
  5
216E
330
216D
100
AcDbEntity
  8
MODEL
100
AcDbVertex
100
AcDb2dVertex
 10
275.3870333524492
 20
371.0893959808095
 30
0.0
  0
VERTEX
  5
216F
330
216D
100
AcDbEntity
  8
MODEL
100
AcDbVertex
100
AcDb2dVertex
 10
265.2258796972707
 20
385.568521974007
 30
0.0
  0
SEQEND
  5
2170
330
216D
100
AcDbEntity
  8
MODEL
  0
POLYLINE
  5
224F
330
A
100
AcDbEntity
  8
MODEL
100
AcDb2dPolyline
 66
     1
 10
0.0
 20
0.0
 30
0.0
  0
VERTEX
  5
2250
330
224F
100
AcDbEntity
  8
MODEL
100
AcDbVertex
100
AcDb2dVertex
 10
183.5995744902334
 20
292.0465429735492
 30
0.0
  0
VERTEX
  5
2251
330
224F
100
AcDbEntity
  8
MODEL
100
AcDbVertex
100
AcDb2dVertex
 10
183.6420742179698
 20
292.0465429735492
 30
0.0
  0
SEQEND
  5
2252
330
224F
100
AcDbEntity
  8
MODEL
  0
POLYLINE
  5
2253
330
A
100
AcDbEntity
  8
MODEL
100
AcDb2dPolyline
 66
     1
 10
0.0
 20
0.0
 30
0.0
  0
VERTEX
  5
2254
330
2253
100
AcDbEntity
  8
MODEL
100
AcDbVertex
100
AcDb2dVertex
 10
185.4204222004401
 20
282.9011328112707
 30
0.0
  0
VERTEX
  5
2255
330
2253
100
AcDbEntity
  8
MODEL
100
AcDbVertex
100
AcDb2dVertex
 10
185.4204222004401
 20
292.0465429735492
 30
0.0
  0
SEQEND
  5
2256
330
2253
100
AcDbEntity
  8
MODEL
  0
POLYLINE
  5
2257
330
A
100
AcDbEntity
  8
MODEL
100
AcDb2dPolyline
 66
     1
 10
0.0
 20
0.0
 30
0.0
  0
VERTEX
  5
2258
330
2257
100
AcDbEntity
  8
MODEL
100
AcDbVertex
100
AcDb2dVertex
 10
183.6420742179698
 20
292.0465429735492
 30
0.0
  0
VERTEX
  5
2259
330
2257
100
AcDbEntity
  8
MODEL
100
AcDbVertex
100
AcDb2dVertex
 10
183.6420742179698
 20
292.0465429735492
 30
0.0
  0
SEQEND
  5
225A
330
2257
100
AcDbEntity
  8
MODEL
  0
POLYLINE
  5
225B
330
A
100
AcDbEntity
  8
MODEL
100
AcDb2dPolyline
 66
     1
 10
0.0
 20
0.0
 30
0.0
  0
VERTEX
  5
225C
330
225B
100
AcDbEntity
  8
MODEL
100
AcDbVertex
100
AcDb2dVertex
 10
181.7795236499217
 20
292.0465429735492
 30
0.0
  0
VERTEX
  5
225D
330
225B
100
AcDbEntity
  8
MODEL
100
AcDbVertex
100
AcDb2dVertex
 10
181.7795236499217
 20
282.9011328112707
 30
0.0
  0
SEQEND
  5
225E
330
225B
100
AcDbEntity
  8
MODEL
  0
POLYLINE
  5
225F
330
A
100
AcDbEntity
  8
MODEL
100
AcDb2dPolyline
 66
     1
 10
0.0
 20
0.0
 30
0.0
  0
VERTEX
  5
2260
330
225F
100
AcDbEntity
  8
MODEL
100
AcDbVertex
100
AcDb2dVertex
 10
183.5573403857953
 20
280.7416153956646
 30
0.0
  0
VERTEX
  5
2261
330
225F
100
AcDbEntity
  8
MODEL
100
AcDbVertex
100
AcDb2dVertex
 10
183.6420742179698
 20
280.7416153956646
 30
0.0
  0
SEQEND
  5
2262
330
225F
100
AcDbEntity
  8
MODEL
  0
POLYLINE
  5
2263
330
A
100
AcDbEntity
  8
MODEL
100
AcDb2dPolyline
 66
     1
 10
0.0
 20
0.0
 30
0.0
  0
VERTEX
  5
2264
330
2263
100
AcDbEntity
  8
MODEL
100
AcDbVertex
100
AcDb2dVertex
 10
181.7795236499217
 20
282.9011328112707
 30
0.0
  0
VERTEX
  5
2265
330
2263
100
AcDbEntity
  8
MODEL
100
AcDbVertex
100
AcDb2dVertex
 10
181.7795236499217
 20
282.5627287291696
 30
0.0
  0
SEQEND
  5
2266
330
2263
100
AcDbEntity
  8
MODEL
  0
POLYLINE
  5
2267
330
A
100
AcDbEntity
  8
MODEL
100
AcDb2dPolyline
 66
     1
 10
0.0
 20
0.0
 30
0.0
  0
VERTEX
  5
2268
330
2267
100
AcDbEntity
  8
MODEL
100
AcDbVertex
100
AcDb2dVertex
 10
181.7795236499217
 20
282.138793944999
 30
0.0
  0
VERTEX
  5
2269
330
2267
100
AcDbEntity
  8
MODEL
100
AcDbVertex
100
AcDb2dVertex
 10
181.7795236499217
 20
282.5627287291696
 30
0.0
  0
SEQEND
  5
226A
330
2267
100
AcDbEntity
  8
MODEL
  0
POLYLINE
  5
226B
330
A
100
AcDbEntity
  8
MODEL
100
AcDb2dPolyline
 66
     1
 10
0.0
 20
0.0
 30
0.0
  0
VERTEX
  5
226C
330
226B
100
AcDbEntity
  8
MODEL
100
AcDbVertex
100
AcDb2dVertex
 10
181.9062259632358
 20
281.7584213817581
 30
0.0
  0
VERTEX
  5
226D
330
226B
100
AcDbEntity
  8
MODEL
100
AcDbVertex
100
AcDb2dVertex
 10
181.7795236499217
 20
282.138793944999
 30
0.0
  0
SEQEND
  5
226E
330
226B
100
AcDbEntity
  8
MODEL
  0
POLYLINE
  5
226F
330
A
100
AcDbEntity
  8
MODEL
100
AcDb2dPolyline
 66
     1
 10
0.0
 20
0.0
 30
0.0
  0
VERTEX
  5
2270
330
226F
100
AcDbEntity
  8
MODEL
100
AcDbVertex
100
AcDb2dVertex
 10
182.1184589786195
 20
281.3769863253239
 30
0.0
  0
VERTEX
  5
2271
330
226F
100
AcDbEntity
  8
MODEL
100
AcDbVertex
100
AcDb2dVertex
 10
181.9062259632358
 20
281.7584213817581
 30
0.0
  0
SEQEND
  5
2272
330
226F
100
AcDbEntity
  8
MODEL
  0
POLYLINE
  5
2273
330
A
100
AcDbEntity
  8
MODEL
100
AcDb2dPolyline
 66
     1
 10
0.0
 20
0.0
 30
0.0
  0
VERTEX
  5
2274
330
2273
100
AcDbEntity
  8
MODEL
100
AcDbVertex
100
AcDb2dVertex
 10
182.4143633329843
 20
281.1230504520988
 30
0.0
  0
VERTEX
  5
2275
330
2273
100
AcDbEntity
  8
MODEL
100
AcDbVertex
100
AcDb2dVertex
 10
182.1184589786195
 20
281.3769863253239
 30
0.0
  0
SEQEND
  5
2276
330
2273
100
AcDbEntity
  8
MODEL
  0
POLYLINE
  5
2277
330
A
100
AcDbEntity
  8
MODEL
100
AcDb2dPolyline
 66
     1
 10
0.0
 20
0.0
 30
0.0
  0
VERTEX
  5
2278
330
2277
100
AcDbEntity
  8
MODEL
100
AcDbVertex
100
AcDb2dVertex
 10
182.7955327661202
 20
280.9116143066102
 30
0.0
  0
VERTEX
  5
2279
330
2277
100
AcDbEntity
  8
MODEL
100
AcDbVertex
100
AcDb2dVertex
 10
182.4143633329843
 20
281.1230504520988
 30
0.0
  0
SEQEND
  5
227A
330
2277
100
AcDbEntity
  8
MODEL
  0
POLYLINE
  5
227B
330
A
100
AcDbEntity
  8
MODEL
100
AcDb2dPolyline
 66
     1
 10
0.0
 20
0.0
 30
0.0
  0
VERTEX
  5
227C
330
227B
100
AcDbEntity
  8
MODEL
100
AcDbVertex
100
AcDb2dVertex
 10
183.1339368482213
 20
280.784115123401
 30
0.0
  0
VERTEX
  5
227D
330
227B
100
AcDbEntity
  8
MODEL
100
AcDbVertex
100
AcDb2dVertex
 10
182.7955327661202
 20
280.9116143066102
 30
0.0
  0
SEQEND
  5
227E
330
227B
100
AcDbEntity
  8
MODEL
  0
POLYLINE
  5
227F
330
A
100
AcDbEntity
  8
MODEL
100
AcDb2dPolyline
 66
     1
 10
0.0
 20
0.0
 30
0.0
  0
VERTEX
  5
2280
330
227F
100
AcDbEntity
  8
MODEL
100
AcDbVertex
100
AcDb2dVertex
 10
183.5573403857953
 20
280.7416153956646
 30
0.0
  0
VERTEX
  5
2281
330
227F
100
AcDbEntity
  8
MODEL
100
AcDbVertex
100
AcDb2dVertex
 10
183.1339368482213
 20
280.784115123401
 30
0.0
  0
SEQEND
  5
2282
330
227F
100
AcDbEntity
  8
MODEL
  0
POLYLINE
  5
2283
330
A
100
AcDbEntity
  8
MODEL
100
AcDb2dPolyline
 66
     1
 10
0.0
 20
0.0
 30
0.0
  0
VERTEX
  5
2284
330
2283
100
AcDbEntity
  8
MODEL
100
AcDbVertex
100
AcDb2dVertex
 10
185.4204222004401
 20
282.5627287291696
 30
0.0
  0
VERTEX
  5
2285
330
2283
100
AcDbEntity
  8
MODEL
100
AcDbVertex
100
AcDb2dVertex
 10
185.4204222004401
 20
282.9011328112707
 30
0.0
  0
SEQEND
  5
2286
330
2283
100
AcDbEntity
  8
MODEL
  0
POLYLINE
  5
2287
330
A
100
AcDbEntity
  8
MODEL
100
AcDb2dPolyline
 66
     1
 10
0.0
 20
0.0
 30
0.0
  0
VERTEX
  5
2288
330
2287
100
AcDbEntity
  8
MODEL
100
AcDbVertex
100
AcDb2dVertex
 10
184.0657433788421
 20
280.784115123401
 30
0.0
  0
VERTEX
  5
2289
330
2287
100
AcDbEntity
  8
MODEL
100
AcDbVertex
100
AcDb2dVertex
 10
183.6420742179698
 20
280.7416153956646
 30
0.0
  0
SEQEND
  5
228A
330
2287
100
AcDbEntity
  8
MODEL
  0
POLYLINE
  5
228B
330
A
100
AcDbEntity
  8
MODEL
100
AcDb2dPolyline
 66
     1
 10
0.0
 20
0.0
 30
0.0
  0
VERTEX
  5
228C
330
228B
100
AcDbEntity
  8
MODEL
100
AcDbVertex
100
AcDb2dVertex
 10
184.4041474609432
 20
280.9116143066102
 30
0.0
  0
VERTEX
  5
228D
330
228B
100
AcDbEntity
  8
MODEL
100
AcDbVertex
100
AcDb2dVertex
 10
184.0657433788421
 20
280.784115123401
 30
0.0
  0
SEQEND
  5
228E
330
228B
100
AcDbEntity
  8
MODEL
  0
POLYLINE
  5
228F
330
A
100
AcDbEntity
  8
MODEL
100
AcDb2dPolyline
 66
     1
 10
0.0
 20
0.0
 30
0.0
  0
VERTEX
  5
2290
330
228F
100
AcDbEntity
  8
MODEL
100
AcDbVertex
100
AcDb2dVertex
 10
184.7850512707808
 20
281.1230504520988
 30
0.0
  0
VERTEX
  5
2291
330
228F
100
AcDbEntity
  8
MODEL
100
AcDbVertex
100
AcDb2dVertex
 10
184.4041474609432
 20
280.9116143066102
 30
0.0
  0
SEQEND
  5
2292
330
228F
100
AcDbEntity
  8
MODEL
  0
POLYLINE
  5
2293
330
A
100
AcDbEntity
  8
MODEL
100
AcDb2dPolyline
 66
     1
 10
0.0
 20
0.0
 30
0.0
  0
VERTEX
  5
2294
330
2293
100
AcDbEntity
  8
MODEL
100
AcDbVertex
100
AcDb2dVertex
 10
185.0814868717422
 20
281.3769863253239
 30
0.0
  0
VERTEX
  5
2295
330
2293
100
AcDbEntity
  8
MODEL
100
AcDbVertex
100
AcDb2dVertex
 10
184.7850512707808
 20
281.1230504520988
 30
0.0
  0
SEQEND
  5
2296
330
2293
100
AcDbEntity
  8
MODEL
  0
POLYLINE
  5
2297
330
A
100
AcDbEntity
  8
MODEL
100
AcDb2dPolyline
 66
     1
 10
0.0
 20
0.0
 30
0.0
  0
VERTEX
  5
2298
330
2297
100
AcDbEntity
  8
MODEL
100
AcDbVertex
100
AcDb2dVertex
 10
185.2937198871259
 20
281.7584213817581
 30
0.0
  0
VERTEX
  5
2299
330
2297
100
AcDbEntity
  8
MODEL
100
AcDbVertex
100
AcDb2dVertex
 10
185.0814868717422
 20
281.3769863253239
 30
0.0
  0
SEQEND
  5
229A
330
2297
100
AcDbEntity
  8
MODEL
  0
POLYLINE
  5
229B
330
A
100
AcDbEntity
  8
MODEL
100
AcDb2dPolyline
 66
     1
 10
0.0
 20
0.0
 30
0.0
  0
VERTEX
  5
229C
330
229B
100
AcDbEntity
  8
MODEL
100
AcDbVertex
100
AcDb2dVertex
 10
185.3779224727037
 20
282.138793944999
 30
0.0
  0
VERTEX
  5
229D
330
229B
100
AcDbEntity
  8
MODEL
100
AcDbVertex
100
AcDb2dVertex
 10
185.2937198871259
 20
281.7584213817581
 30
0.0
  0
SEQEND
  5
229E
330
229B
100
AcDbEntity
  8
MODEL
  0
POLYLINE
  5
229F
330
A
100
AcDbEntity
  8
MODEL
100
AcDb2dPolyline
 66
     1
 10
0.0
 20
0.0
 30
0.0
  0
VERTEX
  5
22A0
330
229F
100
AcDbEntity
  8
MODEL
100
AcDbVertex
100
AcDb2dVertex
 10
185.4204222004401
 20
282.5627287291696
 30
0.0
  0
VERTEX
  5
22A1
330
229F
100
AcDbEntity
  8
MODEL
100
AcDbVertex
100
AcDb2dVertex
 10
185.3779224727037
 20
282.138793944999
 30
0.0
  0
SEQEND
  5
22A2
330
229F
100
AcDbEntity
  8
MODEL
  0
POLYLINE
  5
22A3
330
A
100
AcDbEntity
  8
MODEL
100
AcDb2dPolyline
 66
     1
 10
0.0
 20
0.0
 30
0.0
  0
VERTEX
  5
22A4
330
22A3
100
AcDbEntity
  8
MODEL
100
AcDbVertex
100
AcDb2dVertex
 10
183.5573403857953
 20
292.0465429735492
 30
0.0
  0
VERTEX
  5
22A5
330
22A3
100
AcDbEntity
  8
MODEL
100
AcDbVertex
100
AcDb2dVertex
 10
183.5995744902334
 20
292.0465429735492
 30
0.0
  0
SEQEND
  5
22A6
330
22A3
100
AcDbEntity
  8
MODEL
  0
POLYLINE
  5
22A7
330
A
100
AcDbEntity
  8
MODEL
100
AcDb2dPolyline
 66
     1
 10
0.0
 20
0.0
 30
0.0
  0
VERTEX
  5
22A8
330
22A7
100
AcDbEntity
  8
MODEL
100
AcDbVertex
100
AcDb2dVertex
 10
197.5710943602792
 20
282.5627287291696
 30
0.0
  0
VERTEX
  5
22A9
330
22A7
100
AcDbEntity
  8
MODEL
100
AcDbVertex
100
AcDb2dVertex
 10
197.1049254716704
 20
284.2138431517291
 30
0.0
  0
SEQEND
  5
22AA
330
22A7
100
AcDbEntity
  8
MODEL
  0
POLYLINE
  5
22AB
330
A
100
AcDbEntity
  8
MODEL
100
AcDb2dPolyline
 66
     1
 10
0.0
 20
0.0
 30
0.0
  0
VERTEX
  5
22AC
330
22AB
100
AcDbEntity
  8
MODEL
100
AcDbVertex
100
AcDb2dVertex
 10
200.3651858356496
 20
291.4111720438899
 30
0.0
  0
VERTEX
  5
22AD
330
22AB
100
AcDbEntity
  8
MODEL
100
AcDbVertex
100
AcDb2dVertex
 10
200.6196529554715
 20
292.0465429735492
 30
0.0
  0
SEQEND
  5
22AE
330
22AB
100
AcDbEntity
  8
MODEL
  0
POLYLINE
  5
22AF
330
A
100
AcDbEntity
  8
MODEL
100
AcDb2dPolyline
 66
     1
 10
0.0
 20
0.0
 30
0.0
  0
VERTEX
  5
22B0
330
22AF
100
AcDbEntity
  8
MODEL
100
AcDbVertex
100
AcDb2dVertex
 10
199.9423135446724
 20
290.818300841967
 30
0.0
  0
VERTEX
  5
22B1
330
22AF
100
AcDbEntity
  8
MODEL
100
AcDbVertex
100
AcDb2dVertex
 10
200.3649202123513
 20
291.4111720438899
 30
0.0
  0
SEQEND
  5
22B2
330
22AF
100
AcDbEntity
  8
MODEL
  0
POLYLINE
  5
22B3
330
A
100
AcDbEntity
  8
MODEL
100
AcDb2dPolyline
 66
     1
 10
0.0
 20
0.0
 30
0.0
  0
VERTEX
  5
22B4
330
22B3
100
AcDbEntity
  8
MODEL
100
AcDbVertex
100
AcDb2dVertex
 10
199.5611441115365
 20
290.3093666023234
 30
0.0
  0
VERTEX
  5
22B5
330
22B3
100
AcDbEntity
  8
MODEL
100
AcDbVertex
100
AcDb2dVertex
 10
199.9423135446724
 20
290.818300841967
 30
0.0
  0
SEQEND
  5
22B6
330
22B3
100
AcDbEntity
  8
MODEL
  0
POLYLINE
  5
22B7
330
A
100
AcDbEntity
  8
MODEL
100
AcDb2dPolyline
 66
     1
 10
0.0
 20
0.0
 30
0.0
  0
VERTEX
  5
22B8
330
22B7
100
AcDbEntity
  8
MODEL
100
AcDbVertex
100
AcDb2dVertex
 10
199.0105070140517
 20
289.9289940390826
 30
0.0
  0
VERTEX
  5
22B9
330
22B7
100
AcDbEntity
  8
MODEL
100
AcDbVertex
100
AcDb2dVertex
 10
199.5611441115365
 20
290.3093666023234
 30
0.0
  0
SEQEND
  5
22BA
330
22B7
100
AcDbEntity
  8
MODEL
  0
POLYLINE
  5
22BB
330
A
100
AcDbEntity
  8
MODEL
100
AcDb2dPolyline
 66
     1
 10
0.0
 20
0.0
 30
0.0
  0
VERTEX
  5
22BC
330
22BB
100
AcDbEntity
  8
MODEL
100
AcDbVertex
100
AcDb2dVertex
 10
198.3751360843924
 20
289.5486214758417
 30
0.0
  0
VERTEX
  5
22BD
330
22BB
100
AcDbEntity
  8
MODEL
100
AcDbVertex
100
AcDb2dVertex
 10
199.0105070140517
 20
289.9289940390826
 30
0.0
  0
SEQEND
  5
22BE
330
22BB
100
AcDbEntity
  8
MODEL
  0
POLYLINE
  5
22BF
330
A
100
AcDbEntity
  8
MODEL
100
AcDb2dPolyline
 66
     1
 10
0.0
 20
0.0
 30
0.0
  0
VERTEX
  5
22C0
330
22BF
100
AcDbEntity
  8
MODEL
100
AcDbVertex
100
AcDb2dVertex
 10
197.7822648824695
 20
289.3786225648961
 30
0.0
  0
VERTEX
  5
22C1
330
22BF
100
AcDbEntity
  8
MODEL
100
AcDbVertex
100
AcDb2dVertex
 10
198.3751360843924
 20
289.5486214758417
 30
0.0
  0
SEQEND
  5
22C2
330
22BF
100
AcDbEntity
  8
MODEL
  0
POLYLINE
  5
22C3
330
A
100
AcDbEntity
  8
MODEL
100
AcDb2dPolyline
 66
     1
 10
0.0
 20
0.0
 30
0.0
  0
VERTEX
  5
22C4
330
22C3
100
AcDbEntity
  8
MODEL
100
AcDbVertex
100
AcDb2dVertex
 10
197.1049254716704
 20
289.2096861471439
 30
0.0
  0
VERTEX
  5
22C5
330
22C3
100
AcDbEntity
  8
MODEL
100
AcDbVertex
100
AcDb2dVertex
 10
197.7822648824695
 20
289.3786225648961
 30
0.0
  0
SEQEND
  5
22C6
330
22C3
100
AcDbEntity
  8
MODEL
  0
POLYLINE
  5
22C7
330
A
100
AcDbEntity
  8
MODEL
100
AcDb2dPolyline
 66
     1
 10
0.0
 20
0.0
 30
0.0
  0
VERTEX
  5
22C8
330
22C7
100
AcDbEntity
  8
MODEL
100
AcDbVertex
100
AcDb2dVertex
 10
197.1049254716704
 20
284.2138431517291
 30
0.0
  0
VERTEX
  5
22C9
330
22C7
100
AcDbEntity
  8
MODEL
100
AcDbVertex
100
AcDb2dVertex
 10
197.1049254716704
 20
289.2096861471439
 30
0.0
  0
SEQEND
  5
22CA
330
22C7
100
AcDbEntity
  8
MODEL
  0
POLYLINE
  5
22CB
330
A
100
AcDbEntity
  8
MODEL
100
AcDb2dPolyline
 66
     1
 10
0.0
 20
0.0
 30
0.0
  0
VERTEX
  5
22CC
330
22CB
100
AcDbEntity
  8
MODEL
100
AcDbVertex
100
AcDb2dVertex
 10
197.5710943602792
 20
282.5627287291696
 30
0.0
  0
VERTEX
  5
22CD
330
22CB
100
AcDbEntity
  8
MODEL
100
AcDbVertex
100
AcDb2dVertex
 10
197.6135940880156
 20
282.351292583681
 30
0.0
  0
SEQEND
  5
22CE
330
22CB
100
AcDbEntity
  8
MODEL
  0
POLYLINE
  5
22CF
330
A
100
AcDbEntity
  8
MODEL
100
AcDb2dPolyline
 66
     1
 10
0.0
 20
0.0
 30
0.0
  0
VERTEX
  5
22D0
330
22CF
100
AcDbEntity
  8
MODEL
100
AcDbVertex
100
AcDb2dVertex
 10
199.7725802570251
 20
280.7416153956646
 30
0.0
  0
VERTEX
  5
22D1
330
22CF
100
AcDbEntity
  8
MODEL
100
AcDbVertex
100
AcDb2dVertex
 10
202.397469691345
 20
280.7416153956646
 30
0.0
  0
SEQEND
  5
22D2
330
22CF
100
AcDbEntity
  8
MODEL
  0
POLYLINE
  5
22D3
330
A
100
AcDbEntity
  8
MODEL
100
AcDb2dPolyline
 66
     1
 10
0.0
 20
0.0
 30
0.0
  0
VERTEX
  5
22D4
330
22D3
100
AcDbEntity
  8
MODEL
100
AcDbVertex
100
AcDb2dVertex
 10
197.6555625691553
 20
282.1812936727354
 30
0.0
  0
VERTEX
  5
22D5
330
22D3
100
AcDbEntity
  8
MODEL
100
AcDbVertex
100
AcDb2dVertex
 10
197.6135940880156
 20
282.351292583681
 30
0.0
  0
SEQEND
  5
22D6
330
22D3
100
AcDbEntity
  8
MODEL
  0
POLYLINE
  5
22D7
330
A
100
AcDbEntity
  8
MODEL
100
AcDb2dPolyline
 66
     1
 10
0.0
 20
0.0
 30
0.0
  0
VERTEX
  5
22D8
330
22D7
100
AcDbEntity
  8
MODEL
100
AcDbVertex
100
AcDb2dVertex
 10
197.7402964013297
 20
282.0548569827196
 30
0.0
  0
VERTEX
  5
22D9
330
22D7
100
AcDbEntity
  8
MODEL
100
AcDbVertex
100
AcDb2dVertex
 10
197.6555625691553
 20
282.1812936727354
 30
0.0
  0
SEQEND
  5
22DA
330
22D7
100
AcDbEntity
  8
MODEL
  0
POLYLINE
  5
22DB
330
A
100
AcDbEntity
  8
MODEL
100
AcDb2dPolyline
 66
     1
 10
0.0
 20
0.0
 30
0.0
  0
VERTEX
  5
22DC
330
22DB
100
AcDbEntity
  8
MODEL
100
AcDbVertex
100
AcDb2dVertex
 10
197.7822648824695
 20
281.9273577995103
 30
0.0
  0
VERTEX
  5
22DD
330
22DB
100
AcDbEntity
  8
MODEL
100
AcDbVertex
100
AcDb2dVertex
 10
197.7402964013297
 20
282.0548569827196
 30
0.0
  0
SEQEND
  5
22DE
330
22DB
100
AcDbEntity
  8
MODEL
  0
POLYLINE
  5
22DF
330
A
100
AcDbEntity
  8
MODEL
100
AcDb2dPolyline
 66
     1
 10
0.0
 20
0.0
 30
0.0
  0
VERTEX
  5
22E0
330
22DF
100
AcDbEntity
  8
MODEL
100
AcDbVertex
100
AcDb2dVertex
 10
197.866998714644
 20
281.8423583440375
 30
0.0
  0
VERTEX
  5
22E1
330
22DF
100
AcDbEntity
  8
MODEL
100
AcDbVertex
100
AcDb2dVertex
 10
197.7822648824695
 20
281.9273577995103
 30
0.0
  0
SEQEND
  5
22E2
330
22DF
100
AcDbEntity
  8
MODEL
  0
POLYLINE
  5
22E3
330
A
100
AcDbEntity
  8
MODEL
100
AcDb2dPolyline
 66
     1
 10
0.0
 20
0.0
 30
0.0
  0
VERTEX
  5
22E4
330
22E3
100
AcDbEntity
  8
MODEL
100
AcDbVertex
100
AcDb2dVertex
 10
197.910029688977
 20
281.6734219262853
 30
0.0
  0
VERTEX
  5
22E5
330
22E3
100
AcDbEntity
  8
MODEL
100
AcDbVertex
100
AcDb2dVertex
 10
197.866998714644
 20
281.8423583440375
 30
0.0
  0
SEQEND
  5
22E6
330
22E3
100
AcDbEntity
  8
MODEL
  0
POLYLINE
  5
22E7
330
A
100
AcDbEntity
  8
MODEL
100
AcDb2dPolyline
 66
     1
 10
0.0
 20
0.0
 30
0.0
  0
VERTEX
  5
22E8
330
22E7
100
AcDbEntity
  8
MODEL
100
AcDbVertex
100
AcDb2dVertex
 10
198.4176358121288
 20
281.1644876866418
 30
0.0
  0
VERTEX
  5
22E9
330
22E7
100
AcDbEntity
  8
MODEL
100
AcDbVertex
100
AcDb2dVertex
 10
198.2484337710782
 20
281.3344865975874
 30
0.0
  0
VERTEX
  5
22EA
330
22E7
100
AcDbEntity
  8
MODEL
100
AcDbVertex
100
AcDb2dVertex
 10
197.9950291444499
 20
281.5884224708125
 30
0.0
  0
VERTEX
  5
22EB
330
22E7
100
AcDbEntity
  8
MODEL
100
AcDbVertex
100
AcDb2dVertex
 10
197.910029688977
 20
281.6734219262853
 30
0.0
  0
SEQEND
  5
22EC
330
22E7
100
AcDbEntity
  8
MODEL
  0
POLYLINE
  5
22ED
330
A
100
AcDbEntity
  8
MODEL
100
AcDb2dPolyline
 66
     1
 10
0.0
 20
0.0
 30
0.0
  0
VERTEX
  5
22EE
330
22ED
100
AcDbEntity
  8
MODEL
100
AcDbVertex
100
AcDb2dVertex
 10
198.5448693720397
 20
281.1230504520988
 30
0.0
  0
VERTEX
  5
22EF
330
22ED
100
AcDbEntity
  8
MODEL
100
AcDbVertex
100
AcDb2dVertex
 10
198.4176358121288
 20
281.1644876866418
 30
0.0
  0
SEQEND
  5
22F0
330
22ED
100
AcDbEntity
  8
MODEL
  0
POLYLINE
  5
22F1
330
A
100
AcDbEntity
  8
MODEL
100
AcDb2dPolyline
 66
     1
 10
0.0
 20
0.0
 30
0.0
  0
VERTEX
  5
22F2
330
22F1
100
AcDbEntity
  8
MODEL
100
AcDbVertex
100
AcDb2dVertex
 10
198.6298688275125
 20
281.038050996626
 30
0.0
  0
VERTEX
  5
22F3
330
22F1
100
AcDbEntity
  8
MODEL
100
AcDbVertex
100
AcDb2dVertex
 10
198.5448693720397
 20
281.1230504520988
 30
0.0
  0
SEQEND
  5
22F4
330
22F1
100
AcDbEntity
  8
MODEL
  0
POLYLINE
  5
22F5
330
A
100
AcDbEntity
  8
MODEL
100
AcDb2dPolyline
 66
     1
 10
0.0
 20
0.0
 30
0.0
  0
VERTEX
  5
22F6
330
22F5
100
AcDbEntity
  8
MODEL
100
AcDbVertex
100
AcDb2dVertex
 10
198.75603989423
 20
280.9971450086797
 30
0.0
  0
VERTEX
  5
22F7
330
22F5
100
AcDbEntity
  8
MODEL
100
AcDbVertex
100
AcDb2dVertex
 10
198.6298688275125
 20
281.038050996626
 30
0.0
  0
SEQEND
  5
22F8
330
22F5
100
AcDbEntity
  8
MODEL
  0
POLYLINE
  5
22F9
330
A
100
AcDbEntity
  8
MODEL
100
AcDb2dPolyline
 66
     1
 10
0.0
 20
0.0
 30
0.0
  0
VERTEX
  5
22FA
330
22F9
100
AcDbEntity
  8
MODEL
100
AcDbVertex
100
AcDb2dVertex
 10
198.8407737264043
 20
280.9116143066102
 30
0.0
  0
VERTEX
  5
22FB
330
22F9
100
AcDbEntity
  8
MODEL
100
AcDbVertex
100
AcDb2dVertex
 10
198.75603989423
 20
280.9971450086797
 30
0.0
  0
SEQEND
  5
22FC
330
22F9
100
AcDbEntity
  8
MODEL
  0
POLYLINE
  5
22FD
330
A
100
AcDbEntity
  8
MODEL
100
AcDb2dPolyline
 66
     1
 10
0.0
 20
0.0
 30
0.0
  0
VERTEX
  5
22FE
330
22FD
100
AcDbEntity
  8
MODEL
100
AcDbVertex
100
AcDb2dVertex
 10
198.9257731818772
 20
280.8691145788738
 30
0.0
  0
VERTEX
  5
22FF
330
22FD
100
AcDbEntity
  8
MODEL
100
AcDbVertex
100
AcDb2dVertex
 10
198.8407737264043
 20
280.9116143066102
 30
0.0
  0
SEQEND
  5
2300
330
22FD
100
AcDbEntity
  8
MODEL
  0
POLYLINE
  5
2301
330
A
100
AcDbEntity
  8
MODEL
100
AcDb2dPolyline
 66
     1
 10
0.0
 20
0.0
 30
0.0
  0
VERTEX
  5
2302
330
2301
100
AcDbEntity
  8
MODEL
100
AcDbVertex
100
AcDb2dVertex
 10
199.0530067417881
 20
280.8691145788738
 30
0.0
  0
VERTEX
  5
2303
330
2301
100
AcDbEntity
  8
MODEL
100
AcDbVertex
100
AcDb2dVertex
 10
198.9257731818772
 20
280.8691145788738
 30
0.0
  0
SEQEND
  5
2304
330
2301
100
AcDbEntity
  8
MODEL
  0
POLYLINE
  5
2305
330
A
100
AcDbEntity
  8
MODEL
100
AcDb2dPolyline
 66
     1
 10
0.0
 20
0.0
 30
0.0
  0
VERTEX
  5
2306
330
2305
100
AcDbEntity
  8
MODEL
100
AcDbVertex
100
AcDb2dVertex
 10
199.1372093273658
 20
280.8266148511374
 30
0.0
  0
VERTEX
  5
2307
330
2305
100
AcDbEntity
  8
MODEL
100
AcDbVertex
100
AcDb2dVertex
 10
199.0530067417881
 20
280.8691145788738
 30
0.0
  0
SEQEND
  5
2308
330
2305
100
AcDbEntity
  8
MODEL
  0
POLYLINE
  5
2309
330
A
100
AcDbEntity
  8
MODEL
100
AcDb2dPolyline
 66
     1
 10
0.0
 20
0.0
 30
0.0
  0
VERTEX
  5
230A
330
2309
100
AcDbEntity
  8
MODEL
100
AcDbVertex
100
AcDb2dVertex
 10
199.264708510575
 20
280.784115123401
 30
0.0
  0
VERTEX
  5
230B
330
2309
100
AcDbEntity
  8
MODEL
100
AcDbVertex
100
AcDb2dVertex
 10
199.1372093273658
 20
280.8266148511374
 30
0.0
  0
SEQEND
  5
230C
330
2309
100
AcDbEntity
  8
MODEL
  0
POLYLINE
  5
230D
330
A
100
AcDbEntity
  8
MODEL
100
AcDb2dPolyline
 66
     1
 10
0.0
 20
0.0
 30
0.0
  0
VERTEX
  5
230E
330
230D
100
AcDbEntity
  8
MODEL
100
AcDbVertex
100
AcDb2dVertex
 10
199.4339105516257
 20
280.784115123401
 30
0.0
  0
VERTEX
  5
230F
330
230D
100
AcDbEntity
  8
MODEL
100
AcDbVertex
100
AcDb2dVertex
 10
199.264708510575
 20
280.784115123401
 30
0.0
  0
SEQEND
  5
2310
330
230D
100
AcDbEntity
  8
MODEL
  0
POLYLINE
  5
2311
330
A
100
AcDbEntity
  8
MODEL
100
AcDb2dPolyline
 66
     1
 10
0.0
 20
0.0
 30
0.0
  0
VERTEX
  5
2312
330
2311
100
AcDbEntity
  8
MODEL
100
AcDbVertex
100
AcDb2dVertex
 10
199.5611441115365
 20
280.7416153956646
 30
0.0
  0
VERTEX
  5
2313
330
2311
100
AcDbEntity
  8
MODEL
100
AcDbVertex
100
AcDb2dVertex
 10
199.4339105516257
 20
280.784115123401
 30
0.0
  0
SEQEND
  5
2314
330
2311
100
AcDbEntity
  8
MODEL
  0
POLYLINE
  5
2315
330
A
100
AcDbEntity
  8
MODEL
100
AcDb2dPolyline
 66
     1
 10
0.0
 20
0.0
 30
0.0
  0
VERTEX
  5
2316
330
2315
100
AcDbEntity
  8
MODEL
100
AcDbVertex
100
AcDb2dVertex
 10
199.7725802570251
 20
280.7416153956646
 30
0.0
  0
VERTEX
  5
2317
330
2315
100
AcDbEntity
  8
MODEL
100
AcDbVertex
100
AcDb2dVertex
 10
199.5611441115365
 20
280.7416153956646
 30
0.0
  0
SEQEND
  5
2318
330
2315
100
AcDbEntity
  8
MODEL
  0
POLYLINE
  5
2319
330
A
100
AcDbEntity
  8
MODEL
100
AcDb2dPolyline
 66
     1
 10
0.0
 20
0.0
 30
0.0
  0
VERTEX
  5
231A
330
2319
100
AcDbEntity
  8
MODEL
100
AcDbVertex
100
AcDb2dVertex
 10
204.5142217559165
 20
282.4352295459604
 30
0.0
  0
VERTEX
  5
231B
330
2319
100
AcDbEntity
  8
MODEL
100
AcDbVertex
100
AcDb2dVertex
 10
204.598955588091
 20
282.9011328112707
 30
0.0
  0
SEQEND
  5
231C
330
2319
100
AcDbEntity
  8
MODEL
  0
POLYLINE
  5
231D
330
A
100
AcDbEntity
  8
MODEL
100
AcDb2dPolyline
 66
     1
 10
0.0
 20
0.0
 30
0.0
  0
VERTEX
  5
231E
330
231D
100
AcDbEntity
  8
MODEL
100
AcDbVertex
100
AcDb2dVertex
 10
204.3875194426024
 20
282.0123572549832
 30
0.0
  0
VERTEX
  5
231F
330
231D
100
AcDbEntity
  8
MODEL
100
AcDbVertex
100
AcDb2dVertex
 10
204.5142217559165
 20
282.4352295459604
 30
0.0
  0
SEQEND
  5
2320
330
231D
100
AcDbEntity
  8
MODEL
  0
POLYLINE
  5
2321
330
A
100
AcDbEntity
  8
MODEL
100
AcDb2dPolyline
 66
     1
 10
0.0
 20
0.0
 30
0.0
  0
VERTEX
  5
2322
330
2321
100
AcDbEntity
  8
MODEL
100
AcDbVertex
100
AcDb2dVertex
 10
204.1327866994823
 20
281.5459227430761
 30
0.0
  0
VERTEX
  5
2323
330
2321
100
AcDbEntity
  8
MODEL
100
AcDbVertex
100
AcDb2dVertex
 10
204.3875194426024
 20
282.0123572549832
 30
0.0
  0
SEQEND
  5
2324
330
2321
100
AcDbEntity
  8
MODEL
  0
POLYLINE
  5
2325
330
A
100
AcDbEntity
  8
MODEL
100
AcDb2dPolyline
 66
     1
 10
0.0
 20
0.0
 30
0.0
  0
VERTEX
  5
2326
330
2325
100
AcDbEntity
  8
MODEL
100
AcDbVertex
100
AcDb2dVertex
 10
203.7521485129431
 20
281.2494871421146
 30
0.0
  0
VERTEX
  5
2327
330
2325
100
AcDbEntity
  8
MODEL
100
AcDbVertex
100
AcDb2dVertex
 10
204.1327866994823
 20
281.5459227430761
 30
0.0
  0
SEQEND
  5
2328
330
2325
100
AcDbEntity
  8
MODEL
  0
POLYLINE
  5
2329
330
A
100
AcDbEntity
  8
MODEL
100
AcDb2dPolyline
 66
     1
 10
0.0
 20
0.0
 30
0.0
  0
VERTEX
  5
232A
330
2329
100
AcDbEntity
  8
MODEL
100
AcDbVertex
100
AcDb2dVertex
 10
203.3707134565088
 20
280.9116143066102
 30
0.0
  0
VERTEX
  5
232B
330
2329
100
AcDbEntity
  8
MODEL
100
AcDbVertex
100
AcDb2dVertex
 10
203.7521485129431
 20
281.2494871421146
 30
0.0
  0
SEQEND
  5
232C
330
2329
100
AcDbEntity
  8
MODEL
  0
POLYLINE
  5
232D
330
A
100
AcDbEntity
  8
MODEL
100
AcDb2dPolyline
 66
     1
 10
0.0
 20
0.0
 30
0.0
  0
VERTEX
  5
232E
330
232D
100
AcDbEntity
  8
MODEL
100
AcDbVertex
100
AcDb2dVertex
 10
202.9056070610935
 20
280.784115123401
 30
0.0
  0
VERTEX
  5
232F
330
232D
100
AcDbEntity
  8
MODEL
100
AcDbVertex
100
AcDb2dVertex
 10
203.3707134565088
 20
280.9116143066102
 30
0.0
  0
SEQEND
  5
2330
330
232D
100
AcDbEntity
  8
MODEL
  0
POLYLINE
  5
2331
330
A
100
AcDbEntity
  8
MODEL
100
AcDb2dPolyline
 66
     1
 10
0.0
 20
0.0
 30
0.0
  0
VERTEX
  5
2332
330
2331
100
AcDbEntity
  8
MODEL
100
AcDbVertex
100
AcDb2dVertex
 10
202.397469691345
 20
280.7416153956646
 30
0.0
  0
VERTEX
  5
2333
330
2331
100
AcDbEntity
  8
MODEL
100
AcDbVertex
100
AcDb2dVertex
 10
202.9056070610935
 20
280.784115123401
 30
0.0
  0
SEQEND
  5
2334
330
2331
100
AcDbEntity
  8
MODEL
  0
POLYLINE
  5
2335
330
A
100
AcDbEntity
  8
MODEL
100
AcDb2dPolyline
 66
     1
 10
0.0
 20
0.0
 30
0.0
  0
VERTEX
  5
2336
330
2335
100
AcDbEntity
  8
MODEL
100
AcDbVertex
100
AcDb2dVertex
 10
204.598955588091
 20
282.900601564674
 30
0.0
  0
VERTEX
  5
2337
330
2335
100
AcDbEntity
  8
MODEL
100
AcDbVertex
100
AcDb2dVertex
 10
204.598955588091
 20
292.0465429735492
 30
0.0
  0
SEQEND
  5
2338
330
2335
100
AcDbEntity
  8
MODEL
  0
POLYLINE
  5
2339
330
A
100
AcDbEntity
  8
MODEL
100
AcDb2dPolyline
 66
     1
 10
0.0
 20
0.0
 30
0.0
  0
VERTEX
  5
233A
330
2339
100
AcDbEntity
  8
MODEL
100
AcDbVertex
100
AcDb2dVertex
 10
162.6009902622708
 20
292.0465429735492
 30
0.0
  0
VERTEX
  5
233B
330
2339
100
AcDbEntity
  8
MODEL
100
AcDbVertex
100
AcDb2dVertex
 10
162.6009902622708
 20
282.900601564674
 30
0.0
  0
SEQEND
  5
233C
330
2339
100
AcDbEntity
  8
MODEL
  0
POLYLINE
  5
233D
330
A
100
AcDbEntity
  8
MODEL
100
AcDb2dPolyline
 66
     1
 10
0.0
 20
0.0
 30
0.0
  0
VERTEX
  5
233E
330
233D
100
AcDbEntity
  8
MODEL
100
AcDbVertex
100
AcDb2dVertex
 10
164.8024761590167
 20
280.7416153956646
 30
0.0
  0
VERTEX
  5
233F
330
233D
100
AcDbEntity
  8
MODEL
100
AcDbVertex
100
AcDb2dVertex
 10
167.4270999700383
 20
280.7416153956646
 30
0.0
  0
SEQEND
  5
2340
330
233D
100
AcDbEntity
  8
MODEL
  0
POLYLINE
  5
2341
330
A
100
AcDbEntity
  8
MODEL
100
AcDb2dPolyline
 66
     1
 10
0.0
 20
0.0
 30
0.0
  0
VERTEX
  5
2342
330
2341
100
AcDbEntity
  8
MODEL
100
AcDbVertex
100
AcDb2dVertex
 10
167.6388017388252
 20
280.7416153956646
 30
0.0
  0
VERTEX
  5
2343
330
2341
100
AcDbEntity
  8
MODEL
100
AcDbVertex
100
AcDb2dVertex
 10
167.4270999700383
 20
280.7416153956646
 30
0.0
  0
SEQEND
  5
2344
330
2341
100
AcDbEntity
  8
MODEL
  0
POLYLINE
  5
2345
330
A
100
AcDbEntity
  8
MODEL
100
AcDb2dPolyline
 66
     1
 10
0.0
 20
0.0
 30
0.0
  0
VERTEX
  5
2346
330
2345
100
AcDbEntity
  8
MODEL
100
AcDbVertex
100
AcDb2dVertex
 10
167.7655040521394
 20
280.784115123401
 30
0.0
  0
VERTEX
  5
2347
330
2345
100
AcDbEntity
  8
MODEL
100
AcDbVertex
100
AcDb2dVertex
 10
167.6388017388252
 20
280.7416153956646
 30
0.0
  0
SEQEND
  5
2348
330
2345
100
AcDbEntity
  8
MODEL
  0
POLYLINE
  5
2349
330
A
100
AcDbEntity
  8
MODEL
100
AcDb2dPolyline
 66
     1
 10
0.0
 20
0.0
 30
0.0
  0
VERTEX
  5
234A
330
2349
100
AcDbEntity
  8
MODEL
100
AcDbVertex
100
AcDb2dVertex
 10
167.93470609319
 20
280.784115123401
 30
0.0
  0
VERTEX
  5
234B
330
2349
100
AcDbEntity
  8
MODEL
100
AcDbVertex
100
AcDb2dVertex
 10
167.7655040521394
 20
280.784115123401
 30
0.0
  0
SEQEND
  5
234C
330
2349
100
AcDbEntity
  8
MODEL
  0
POLYLINE
  5
234D
330
A
100
AcDbEntity
  8
MODEL
100
AcDb2dPolyline
 66
     1
 10
0.0
 20
0.0
 30
0.0
  0
VERTEX
  5
234E
330
234D
100
AcDbEntity
  8
MODEL
100
AcDbVertex
100
AcDb2dVertex
 10
168.0619396531009
 20
280.8266148511374
 30
0.0
  0
VERTEX
  5
234F
330
234D
100
AcDbEntity
  8
MODEL
100
AcDbVertex
100
AcDb2dVertex
 10
167.93470609319
 20
280.784115123401
 30
0.0
  0
SEQEND
  5
2350
330
234D
100
AcDbEntity
  8
MODEL
  0
POLYLINE
  5
2351
330
A
100
AcDbEntity
  8
MODEL
100
AcDb2dPolyline
 66
     1
 10
0.0
 20
0.0
 30
0.0
  0
VERTEX
  5
2352
330
2351
100
AcDbEntity
  8
MODEL
100
AcDbVertex
100
AcDb2dVertex
 10
168.146407861977
 20
280.8691145788738
 30
0.0
  0
VERTEX
  5
2353
330
2351
100
AcDbEntity
  8
MODEL
100
AcDbVertex
100
AcDb2dVertex
 10
168.0619396531009
 20
280.8266148511374
 30
0.0
  0
SEQEND
  5
2354
330
2351
100
AcDbEntity
  8
MODEL
  0
POLYLINE
  5
2355
330
A
100
AcDbEntity
  8
MODEL
100
AcDb2dPolyline
 66
     1
 10
0.0
 20
0.0
 30
0.0
  0
VERTEX
  5
2356
330
2355
100
AcDbEntity
  8
MODEL
100
AcDbVertex
100
AcDb2dVertex
 10
168.2741726684845
 20
280.8691145788738
 30
0.0
  0
VERTEX
  5
2357
330
2355
100
AcDbEntity
  8
MODEL
100
AcDbVertex
100
AcDb2dVertex
 10
168.146407861977
 20
280.8691145788738
 30
0.0
  0
SEQEND
  5
2358
330
2355
100
AcDbEntity
  8
MODEL
  0
POLYLINE
  5
2359
330
A
100
AcDbEntity
  8
MODEL
100
AcDb2dPolyline
 66
     1
 10
0.0
 20
0.0
 30
0.0
  0
VERTEX
  5
235A
330
2359
100
AcDbEntity
  8
MODEL
100
AcDbVertex
100
AcDb2dVertex
 10
168.3591721239574
 20
280.9116143066102
 30
0.0
  0
VERTEX
  5
235B
330
2359
100
AcDbEntity
  8
MODEL
100
AcDbVertex
100
AcDb2dVertex
 10
168.2741726684845
 20
280.8691145788738
 30
0.0
  0
SEQEND
  5
235C
330
2359
100
AcDbEntity
  8
MODEL
  0
POLYLINE
  5
235D
330
A
100
AcDbEntity
  8
MODEL
100
AcDb2dPolyline
 66
     1
 10
0.0
 20
0.0
 30
0.0
  0
VERTEX
  5
235E
330
235D
100
AcDbEntity
  8
MODEL
100
AcDbVertex
100
AcDb2dVertex
 10
168.4428434629384
 20
280.9971450086797
 30
0.0
  0
VERTEX
  5
235F
330
235D
100
AcDbEntity
  8
MODEL
100
AcDbVertex
100
AcDb2dVertex
 10
168.3591721239574
 20
280.9116143066102
 30
0.0
  0
SEQEND
  5
2360
330
235D
100
AcDbEntity
  8
MODEL
  0
POLYLINE
  5
2361
330
A
100
AcDbEntity
  8
MODEL
100
AcDb2dPolyline
 66
     1
 10
0.0
 20
0.0
 30
0.0
  0
VERTEX
  5
2362
330
2361
100
AcDbEntity
  8
MODEL
100
AcDbVertex
100
AcDb2dVertex
 10
168.5700770228493
 20
281.038050996626
 30
0.0
  0
VERTEX
  5
2363
330
2361
100
AcDbEntity
  8
MODEL
100
AcDbVertex
100
AcDb2dVertex
 10
168.4428434629384
 20
280.996613762083
 30
0.0
  0
SEQEND
  5
2364
330
2361
100
AcDbEntity
  8
MODEL
  0
POLYLINE
  5
2365
330
A
100
AcDbEntity
  8
MODEL
100
AcDb2dPolyline
 66
     1
 10
0.0
 20
0.0
 30
0.0
  0
VERTEX
  5
2366
330
2365
100
AcDbEntity
  8
MODEL
100
AcDbVertex
100
AcDb2dVertex
 10
168.6550764783221
 20
281.1230504520988
 30
0.0
  0
VERTEX
  5
2367
330
2365
100
AcDbEntity
  8
MODEL
100
AcDbVertex
100
AcDb2dVertex
 10
168.5700770228493
 20
281.038050996626
 30
0.0
  0
SEQEND
  5
2368
330
2365
100
AcDbEntity
  8
MODEL
  0
POLYLINE
  5
2369
330
A
100
AcDbEntity
  8
MODEL
100
AcDb2dPolyline
 66
     1
 10
0.0
 20
0.0
 30
0.0
  0
VERTEX
  5
236A
330
2369
100
AcDbEntity
  8
MODEL
100
AcDbVertex
100
AcDb2dVertex
 10
168.7817787916363
 20
281.1644876866418
 30
0.0
  0
VERTEX
  5
236B
330
2369
100
AcDbEntity
  8
MODEL
100
AcDbVertex
100
AcDb2dVertex
 10
168.6550764783221
 20
281.1230504520988
 30
0.0
  0
SEQEND
  5
236C
330
2369
100
AcDbEntity
  8
MODEL
  0
POLYLINE
  5
236D
330
A
100
AcDbEntity
  8
MODEL
100
AcDb2dPolyline
 66
     1
 10
0.0
 20
0.0
 30
0.0
  0
VERTEX
  5
236E
330
236D
100
AcDbEntity
  8
MODEL
100
AcDbVertex
100
AcDb2dVertex
 10
169.1201828737375
 20
281.5044855085331
 30
0.0
  0
VERTEX
  5
236F
330
236D
100
AcDbEntity
  8
MODEL
100
AcDbVertex
100
AcDb2dVertex
 10
169.036245911458
 20
281.4194860530603
 30
0.0
  0
VERTEX
  5
2370
330
236D
100
AcDbEntity
  8
MODEL
100
AcDbVertex
100
AcDb2dVertex
 10
168.9515120792836
 20
281.3344865975874
 30
0.0
  0
VERTEX
  5
2371
330
236D
100
AcDbEntity
  8
MODEL
100
AcDbVertex
100
AcDb2dVertex
 10
168.8667782471091
 20
281.2494871421146
 30
0.0
  0
VERTEX
  5
2372
330
236D
100
AcDbEntity
  8
MODEL
100
AcDbVertex
100
AcDb2dVertex
 10
168.7817787916363
 20
281.1644876866418
 30
0.0
  0
SEQEND
  5
2373
330
236D
100
AcDbEntity
  8
MODEL
  0
POLYLINE
  5
2374
330
A
100
AcDbEntity
  8
MODEL
100
AcDb2dPolyline
 66
     1
 10
0.0
 20
0.0
 30
0.0
  0
VERTEX
  5
2375
330
2374
100
AcDbEntity
  8
MODEL
100
AcDbVertex
100
AcDb2dVertex
 10
169.1632138480705
 20
281.5884224708125
 30
0.0
  0
VERTEX
  5
2376
330
2374
100
AcDbEntity
  8
MODEL
100
AcDbVertex
100
AcDb2dVertex
 10
169.1201828737375
 20
281.5044855085331
 30
0.0
  0
SEQEND
  5
2377
330
2374
100
AcDbEntity
  8
MODEL
  0
POLYLINE
  5
2378
330
A
100
AcDbEntity
  8
MODEL
100
AcDb2dPolyline
 66
     1
 10
0.0
 20
0.0
 30
0.0
  0
VERTEX
  5
2379
330
2378
100
AcDbEntity
  8
MODEL
100
AcDbVertex
100
AcDb2dVertex
 10
194.522535765087
 20
312.2405542308019
 30
0.0
  0
VERTEX
  5
237A
330
2378
100
AcDbEntity
  8
MODEL
100
AcDbVertex
100
AcDb2dVertex
 10
199.4336449283272
 20
317.1511321474454
 30
0.0
  0
SEQEND
  5
237B
330
2378
100
AcDbEntity
  8
MODEL
  0
POLYLINE
  5
237C
330
A
100
AcDbEntity
  8
MODEL
100
AcDb2dPolyline
 66
     1
 10
0.0
 20
0.0
 30
0.0
  0
VERTEX
  5
237D
330
237C
100
AcDbEntity
  8
MODEL
100
AcDbVertex
100
AcDb2dVertex
 10
194.522535765087
 20
303.2234401216277
 30
0.0
  0
VERTEX
  5
237E
330
237C
100
AcDbEntity
  8
MODEL
100
AcDbVertex
100
AcDb2dVertex
 10
208.4515559073964
 20
317.1511321474454
 30
0.0
  0
SEQEND
  5
237F
330
237C
100
AcDbEntity
  8
MODEL
  0
POLYLINE
  5
2380
330
A
100
AcDbEntity
  8
MODEL
100
AcDb2dPolyline
 66
     1
 10
0.0
 20
0.0
 30
0.0
  0
VERTEX
  5
2381
330
2380
100
AcDbEntity
  8
MODEL
100
AcDbVertex
100
AcDb2dVertex
 10
198.121731457764
 20
297.8031310954456
 30
0.0
  0
VERTEX
  5
2382
330
2380
100
AcDbEntity
  8
MODEL
100
AcDbVertex
100
AcDb2dVertex
 10
217.4269671587291
 20
317.1511321474454
 30
0.0
  0
SEQEND
  5
2383
330
2380
100
AcDbEntity
  8
MODEL
  0
POLYLINE
  5
2384
330
A
100
AcDbEntity
  8
MODEL
100
AcDb2dPolyline
 66
     1
 10
0.0
 20
0.0
 30
0.0
  0
VERTEX
  5
2385
330
2384
100
AcDbEntity
  8
MODEL
100
AcDbVertex
100
AcDb2dVertex
 10
207.1399080601315
 20
297.8031310954456
 30
0.0
  0
VERTEX
  5
2386
330
2384
100
AcDbEntity
  8
MODEL
100
AcDbVertex
100
AcDb2dVertex
 10
219.7134525109478
 20
310.463268741525
 30
0.0
  0
SEQEND
  5
2387
330
2384
100
AcDbEntity
  8
MODEL
  0
POLYLINE
  5
2388
330
A
100
AcDbEntity
  8
MODEL
100
AcDb2dPolyline
 66
     1
 10
0.0
 20
0.0
 30
0.0
  0
VERTEX
  5
2389
330
2388
100
AcDbEntity
  8
MODEL
100
AcDbVertex
100
AcDb2dVertex
 10
216.0717570905343
 20
297.8031310954456
 30
0.0
  0
VERTEX
  5
238A
330
2388
100
AcDbEntity
  8
MODEL
100
AcDbVertex
100
AcDb2dVertex
 10
219.7134525109478
 20
301.4442952692624
 30
0.0
  0
SEQEND
  5
238B
330
2388
100
AcDbEntity
  8
MODEL
  0
POLYLINE
  5
238C
330
A
100
AcDbEntity
  8
MODEL
100
AcDb2dPolyline
 66
     1
 10
0.0
 20
0.0
 30
0.0
  0
VERTEX
  5
238D
330
238C
100
AcDbEntity
  8
MODEL
100
AcDbVertex
100
AcDb2dVertex
 10
147.4864933394139
 20
310.039865203951
 30
0.0
  0
VERTEX
  5
238E
330
238C
100
AcDbEntity
  8
MODEL
100
AcDbVertex
100
AcDb2dVertex
 10
154.5990883994002
 20
317.1511321474454
 30
0.0
  0
SEQEND
  5
238F
330
238C
100
AcDbEntity
  8
MODEL
  0
POLYLINE
  5
2390
330
A
100
AcDbEntity
  8
MODEL
100
AcDb2dPolyline
 66
     1
 10
0.0
 20
0.0
 30
0.0
  0
VERTEX
  5
2391
330
2390
100
AcDbEntity
  8
MODEL
100
AcDbVertex
100
AcDb2dVertex
 10
147.4864933394139
 20
301.0639227060216
 30
0.0
  0
VERTEX
  5
2392
330
2390
100
AcDbEntity
  8
MODEL
100
AcDbVertex
100
AcDb2dVertex
 10
163.5317342996981
 20
317.1511321474454
 30
0.0
  0
SEQEND
  5
2393
330
2390
100
AcDbEntity
  8
MODEL
  0
POLYLINE
  5
2394
330
A
100
AcDbEntity
  8
MODEL
100
AcDb2dPolyline
 66
     1
 10
0.0
 20
0.0
 30
0.0
  0
VERTEX
  5
2395
330
2394
100
AcDbEntity
  8
MODEL
100
AcDbVertex
100
AcDb2dVertex
 10
153.2016442267674
 20
297.8031310954456
 30
0.0
  0
VERTEX
  5
2396
330
2394
100
AcDbEntity
  8
MODEL
100
AcDbVertex
100
AcDb2dVertex
 10
172.5076767976275
 20
317.1511321474454
 30
0.0
  0
SEQEND
  5
2397
330
2394
100
AcDbEntity
  8
MODEL
  0
POLYLINE
  5
2398
330
A
100
AcDbEntity
  8
MODEL
100
AcDb2dPolyline
 66
     1
 10
0.0
 20
0.0
 30
0.0
  0
VERTEX
  5
2399
330
2398
100
AcDbEntity
  8
MODEL
100
AcDbVertex
100
AcDb2dVertex
 10
162.2195552058365
 20
297.8031310954456
 30
0.0
  0
VERTEX
  5
239A
330
2398
100
AcDbEntity
  8
MODEL
100
AcDbVertex
100
AcDb2dVertex
 10
172.6766132153797
 20
308.261782844779
 30
0.0
  0
SEQEND
  5
239B
330
2398
100
AcDbEntity
  8
MODEL
  0
POLYLINE
  5
239C
330
A
100
AcDbEntity
  8
MODEL
100
AcDb2dPolyline
 66
     1
 10
0.0
 20
0.0
 30
0.0
  0
VERTEX
  5
239D
330
239C
100
AcDbEntity
  8
MODEL
100
AcDbVertex
100
AcDb2dVertex
 10
171.1529979760295
 20
297.8031310954456
 30
0.0
  0
VERTEX
  5
239E
330
239C
100
AcDbEntity
  8
MODEL
100
AcDbVertex
100
AcDb2dVertex
 10
172.6766132153797
 20
299.328340074586
 30
0.0
  0
SEQEND
  5
239F
330
239C
100
AcDbEntity
  8
MODEL
  0
POLYLINE
  5
23A0
330
A
100
AcDbEntity
  8
MODEL
100
AcDb2dPolyline
 66
     1
 10
0.0
 20
0.0
 30
0.0
  0
VERTEX
  5
23A1
330
23A0
100
AcDbEntity
  8
MODEL
100
AcDbVertex
100
AcDb2dVertex
 10
192.4057837005155
 20
284.2143743983257
 30
0.0
  0
VERTEX
  5
23A2
330
23A0
100
AcDbEntity
  8
MODEL
100
AcDbVertex
100
AcDb2dVertex
 10
192.4057837005155
 20
274.813965869629
 30
0.0
  0
SEQEND
  5
23A3
330
23A0
100
AcDbEntity
  8
MODEL
  0
POLYLINE
  5
23A4
330
A
100
AcDbEntity
  8
MODEL
100
AcDb2dPolyline
 66
     1
 10
0.0
 20
0.0
 30
0.0
  0
VERTEX
  5
23A5
330
23A4
100
AcDbEntity
  8
MODEL
100
AcDbVertex
100
AcDb2dVertex
 10
192.4057837005155
 20
317.8295340514379
 30
0.0
  0
VERTEX
  5
23A6
330
23A4
100
AcDbEntity
  8
MODEL
100
AcDbVertex
100
AcDb2dVertex
 10
192.4057837005155
 20
297.2538221144525
 30
0.0
  0
SEQEND
  5
23A7
330
23A4
100
AcDbEntity
  8
MODEL
  0
POLYLINE
  5
23A8
330
A
100
AcDbEntity
  8
MODEL
100
AcDb2dPolyline
 66
     1
 10
0.0
 20
0.0
 30
0.0
  0
VERTEX
  5
23A9
330
23A8
100
AcDbEntity
  8
MODEL
100
AcDbVertex
100
AcDb2dVertex
 10
174.7933652799512
 20
284.2143743983257
 30
0.0
  0
VERTEX
  5
23AA
330
23A8
100
AcDbEntity
  8
MODEL
100
AcDbVertex
100
AcDb2dVertex
 10
174.7933652799512
 20
274.813965869629
 30
0.0
  0
SEQEND
  5
23AB
330
23A8
100
AcDbEntity
  8
MODEL
  0
POLYLINE
  5
23AC
330
A
100
AcDbEntity
  8
MODEL
100
AcDb2dPolyline
 66
     1
 10
0.0
 20
0.0
 30
0.0
  0
VERTEX
  5
23AD
330
23AC
100
AcDbEntity
  8
MODEL
100
AcDbVertex
100
AcDb2dVertex
 10
174.7933652799512
 20
317.8295340514379
 30
0.0
  0
VERTEX
  5
23AE
330
23AC
100
AcDbEntity
  8
MODEL
100
AcDbVertex
100
AcDb2dVertex
 10
174.7933652799512
 20
297.2538221144525
 30
0.0
  0
SEQEND
  5
23AF
330
23AC
100
AcDbEntity
  8
MODEL
  0
POLYLINE
  5
23B0
330
A
100
AcDbEntity
  8
MODEL
100
AcDb2dPolyline
 66
     1
 10
0.0
 20
0.0
 30
0.0
  0
VERTEX
  5
23B1
330
23B0
100
AcDbEntity
  8
MODEL
100
AcDbVertex
100
AcDb2dVertex
 10
207.5627803511087
 20
317.8295340514379
 30
0.0
  0
VERTEX
  5
23B2
330
23B0
100
AcDbEntity
  8
MODEL
100
AcDbVertex
100
AcDb2dVertex
 10
220.3907919217469
 20
317.8295340514379
 30
0.0
  0
SEQEND
  5
23B3
330
23B0
100
AcDbEntity
  8
MODEL
  0
POLYLINE
  5
23B4
330
A
100
AcDbEntity
  8
MODEL
100
AcDb2dPolyline
 66
     1
 10
0.0
 20
0.0
 30
0.0
  0
VERTEX
  5
23B5
330
23B4
100
AcDbEntity
  8
MODEL
100
AcDbVertex
100
AcDb2dVertex
 10
159.637165499253
 20
317.8295340514379
 30
0.0
  0
VERTEX
  5
23B6
330
23B4
100
AcDbEntity
  8
MODEL
100
AcDbVertex
100
AcDb2dVertex
 10
148.7986724332755
 20
317.8295340514379
 30
0.0
  0
SEQEND
  5
23B7
330
23B4
100
AcDbEntity
  8
MODEL
  0
POLYLINE
  5
23E8
102
{ACAD_REACTORS
330
2644
102
}
330
A
100
AcDbEntity
  8
MODEL
100
AcDb2dPolyline
 66
     1
 10
0.0
 20
0.0
 30
0.0
  0
VERTEX
  5
23E9
330
23E8
100
AcDbEntity
  8
MODEL
100
AcDbVertex
100
AcDb2dVertex
 10
183.5995744902334
 20
325.8322327842035
 30
0.0
  0
VERTEX
  5
23EA
330
23E8
100
AcDbEntity
  8
MODEL
100
AcDbVertex
100
AcDb2dVertex
 10
183.5995744902334
 20
358.3894148399773
 30
0.0
  0
SEQEND
  5
23EB
330
23E8
100
AcDbEntity
  8
MODEL
  0
POLYLINE
  5
23EC
102
{ACAD_REACTORS
330
26C6
102
}
330
A
100
AcDbEntity
  8
MODEL
  6
CENTER
 62
     1
 48
0.5
100
AcDb2dPolyline
 66
     1
 10
0.0
 20
0.0
 30
0.0
  0
VERTEX
  5
23ED
330
23EC
100
AcDbEntity
  8
MODEL
  6
CENTER
 62
     1
 48
0.5
100
AcDbVertex
100
AcDb2dVertex
 10
283.5995744909134
 20
385.4198422112115
 30
0.0
  0
VERTEX
  5
23EE
330
23EC
100
AcDbEntity
  8
MODEL
  6
CENTER
 62
     1
 48
0.5
100
AcDbVertex
100
AcDb2dVertex
 10
283.5995744909134
 20
367.8203695006208
 30
0.0
  0
SEQEND
  5
23EF
330
23EC
100
AcDbEntity
  8
MODEL
  6
CENTER
 62
     1
 48
0.5
  0
POLYLINE
  5
250B
330
A
100
AcDbEntity
  8
MODEL
100
AcDb2dPolyline
 66
     1
 10
0.0
 20
0.0
 30
0.0
  0
VERTEX
  5
250C
330
250B
100
AcDbEntity
  8
MODEL
100
AcDbVertex
100
AcDb2dVertex
 10
159.637165499253
 20
297.2538221144525
 30
0.0
  0
VERTEX
  5
250D
330
250B
100
AcDbEntity
  8
MODEL
100
AcDbVertex
100
AcDb2dVertex
 10
144.9665523840552
 20
297.2538221144525
 30
0.0
  0
SEQEND
  5
250E
330
250B
100
AcDbEntity
  8
MODEL
  0
SPLINE
  5
2523
330
A
100
AcDbEntity
  8
MODEL
100
AcDbSpline
210
0.0
220
0.0
230
1.0
 70
    11
 71
     3
 72
    17
 73
    13
 74
     0
 42
0.000000001
 43
0.0000000001
 40
0.0
 40
0.0
 40
0.0
 40
0.0
 40
1.0
 40
1.0
 40
1.0
 40
2.0
 40
2.0
 40
2.0
 40
3.0
 40
3.0
 40
3.0
 40
4.0
 40
4.0
 40
4.0
 40
4.0
 10
198.4349013265216
 20
196.8466215973981
 30
0.0
 10
198.4349013265216
 20
188.653736583012
 30
0.0
 10
191.7932563745145
 20
182.0126228776015
 30
0.0
 10
183.6001057368301
 20
182.0126228776015
 30
0.0
 10
175.4069550991456
 20
182.0126228776015
 30
0.0
 10
168.7653101471384
 20
188.653736583012
 30
0.0
 10
168.7653101471384
 20
196.8466215973981
 30
0.0
 10
168.7653101471384
 20
205.0400378583809
 30
0.0
 10
175.4069550991456
 20
211.6822140569848
 30
0.0
 10
183.6001057368301
 20
211.6822140569848
 30
0.0
 10
191.7932563745145
 20
211.6822140569848
 30
0.0
 10
198.4349013265216
 20
205.0400378583809
 30
0.0
 10
198.4349013265216
 20
196.8466215973981
 30
0.0
  0
SPLINE
  5
2524
330
A
100
AcDbEntity
  8
MODEL
100
AcDbSpline
210
0.0
220
0.0
230
1.0
 70
    11
 71
     3
 72
    17
 73
    13
 74
     0
 42
0.000000001
 43
0.0000000001
 40
0.0
 40
0.0
 40
0.0
 40
0.0
 40
1.0
 40
1.0
 40
1.0
 40
2.0
 40
2.0
 40
2.0
 40
3.0
 40
3.0
 40
3.0
 40
4.0
 40
4.0
 40
4.0
 40
4.0
 10
198.4349013265216
 20
196.8466215973981
 30
0.0
 10
198.4349013265216
 20
188.653736583012
 30
0.0
 10
191.7932563745145
 20
182.0126228776015
 30
0.0
 10
183.6001057368301
 20
182.0126228776015
 30
0.0
 10
175.4069550991456
 20
182.0126228776015
 30
0.0
 10
168.7653101471384
 20
188.653736583012
 30
0.0
 10
168.7653101471384
 20
196.8466215973981
 30
0.0
 10
168.7653101471384
 20
205.0400378583809
 30
0.0
 10
175.4069550991456
 20
211.6822140569848
 30
0.0
 10
183.6001057368301
 20
211.6822140569848
 30
0.0
 10
191.7932563745145
 20
211.6822140569848
 30
0.0
 10
198.4349013265216
 20
205.0400378583809
 30
0.0
 10
198.4349013265216
 20
196.8466215973981
 30
0.0
  0
MTEXT
  5
2525
330
A
100
AcDbEntity
  8
MODEL
100
AcDbMText
 10
164.6359101407721
 20
228.9440097237238
 30
0.0
 40
6.525161914046171
 41
0.0
 46
0.0
 71
     7
 72
     1
  1
\fMS Gothic|b0|i0|c0|p34;\W1;水栓穴径
 73
     1
 44
1.0
  0
POLYLINE
  5
2526
330
A
100
AcDbEntity
  8
MODEL
  6
CENTER
 48
0.5
100
AcDb2dPolyline
 66
     1
 10
0.0
 20
0.0
 30
0.0
  0
VERTEX
  5
2527
330
2526
100
AcDbEntity
  8
MODEL
  6
CENTER
 48
0.5
100
AcDbVertex
100
AcDb2dVertex
 10
206.4476937446247
 20
197.1191511015078
 30
0.0
  0
VERTEX
  5
2528
330
2526
100
AcDbEntity
  8
MODEL
  6
CENTER
 48
0.5
100
AcDbVertex
100
AcDb2dVertex
 10
160.751455235842
 20
197.1191511015078
 30
0.0
  0
SEQEND
  5
2529
330
2526
100
AcDbEntity
  8
MODEL
  6
CENTER
 48
0.5
  0
POLYLINE
  5
252A
102
{ACAD_REACTORS
102
}
330
A
100
AcDbEntity
  8
MODEL
  6
CENTER
 48
0.5
100
AcDb2dPolyline
 66
     1
 10
0.0
 20
0.0
 30
0.0
  0
VERTEX
  5
252B
330
252A
100
AcDbEntity
  8
MODEL
  6
CENTER
 48
0.5
100
AcDbVertex
100
AcDb2dVertex
 10
183.5995744902334
 20
443.822367535705
 30
0.0
  0
VERTEX
  5
252C
330
252A
100
AcDbEntity
  8
MODEL
  6
CENTER
 48
0.5
100
AcDbVertex
100
AcDb2dVertex
 10
183.5995744902334
 20
274.0946579776903
 30
0.0
  0
SEQEND
  5
252D
330
252A
100
AcDbEntity
  8
MODEL
  6
CENTER
 48
0.5
  0
POLYLINE
  5
252E
330
A
100
AcDbEntity
  8
MODEL
  6
CENTER
 48
0.5
100
AcDb2dPolyline
 66
     1
 10
0.0
 20
0.0
 30
0.0
  0
VERTEX
  5
252F
330
252E
100
AcDbEntity
  8
MODEL
  6
CENTER
 48
0.5
100
AcDbVertex
100
AcDb2dVertex
 10
183.5995744902334
 20
222.414989050218
 30
0.0
  0
VERTEX
  5
2530
330
252E
100
AcDbEntity
  8
MODEL
  6
CENTER
 48
0.5
100
AcDbVertex
100
AcDb2dVertex
 10
183.5995744902334
 20
171.8233131527977
 30
0.0
  0
SEQEND
  5
2531
330
252E
100
AcDbEntity
  8
MODEL
  6
CENTER
 48
0.5
  0
MTEXT
  5
2532
330
A
100
AcDbEntity
  8
MODEL
100
AcDbMText
 10
174.7933652799512
 20
155.3526042990857
 30
0.0
 40
6.525161914046171
 41
0.0
 46
0.0
 71
     7
 72
     1
  1
\fMS Gothic|b0|i0|c0|p34;\W1;φ30
 73
     1
 44
1.0
  0
MTEXT
  5
2533
330
A
100
AcDbEntity
  8
MODEL
100
AcDbMText
 10
116.3137399146535
 20
142.8406844534871
 30
0.0
 40
6.525161914046171
 41
0.0
 46
0.0
 71
     7
 72
     1
  1
\fMS Gothic|b0|i0|c0|p34;\W1;※φ35の水栓取付穴にも適合します。
 73
     1
 44
1.0
  0
POLYLINE
  5
2535
330
A
100
AcDbEntity
  8
MODEL
100
AcDb2dPolyline
 66
     1
 10
0.0
 20
0.0
 30
0.0
  0
VERTEX
  5
2536
330
2535
100
AcDbEntity
  8
MODEL
100
AcDbVertex
100
AcDb2dVertex
 10
207.5789833723082
 20
320.3274555491453
 30
0.0
  0
VERTEX
  5
2537
330
2535
100
AcDbEntity
  8
MODEL
100
AcDbVertex
100
AcDb2dVertex
 10
225.7255702458594
 20
335.2950627880131
 30
0.0
  0
SEQEND
  5
2538
330
2535
100
AcDbEntity
  8
MODEL
  0
POLYLINE
  5
2539
330
A
100
AcDbEntity
  8
MODEL
100
AcDb2dPolyline
 66
     1
 10
0.0
 20
0.0
 30
0.0
  0
VERTEX
  5
253A
330
2539
100
AcDbEntity
  8
MODEL
100
AcDbVertex
100
AcDb2dVertex
 10
207.5789833723082
 20
320.3274555491453
 30
0.0
  0
VERTEX
  5
253B
330
2539
100
AcDbEntity
  8
MODEL
100
AcDbVertex
100
AcDb2dVertex
 10
225.7255702458594
 20
335.2950627880131
 30
0.0
  0
SEQEND
  5
253C
330
2539
100
AcDbEntity
  8
MODEL
  0
LWPOLYLINE
  5
255A
330
A
100
AcDbEntity
  8
printBorder
  6
Continuous
370
     0
100
AcDbPolyline
 90
        4
 70
     1
 43
0.0
 10
419.9999999999996
 20
-0.0000000000000257
 10
0.0
 20
0.0
 10
0.0000000000000568
 20
594.0
 10
419.9999999999997
 20
594.0
  0
LINE
  5
2570
330
A
100
AcDbEntity
  8
MODEL
100
AcDbLine
 10
265.2258796972707
 20
385.5682563507088
 30
0.0
 11
281.6525557139892
 21
397.0848856973804
 31
0.0
  0
LINE
  5
2571
102
{ACAD_REACTORS
330
26C6
102
}
330
A
100
AcDbEntity
  8
MODEL
  6
CENTER
 62
     1
 48
0.5
100
AcDbLine
 10
278.2233658697746
 20
384.4893312005522
 30
0.0
 11
294.0669176431224
 21
361.8466037151959
 31
0.0
  0
LINE
  5
2598
102
{ACAD_REACTORS
102
}
330
A
100
AcDbEntity
  8
MODEL
  6
Continuous
370
     0
100
AcDbLine
 10
275.3870333524492
 20
371.0893959808095
 30
0.0
 11
291.8137093691677
 21
382.5204946254115
 31
0.0
  0
DIMENSION
  5
25F0
102
{ACAD_XDICTIONARY
360
25F1
102
}
330
A
100
AcDbEntity
  8
DIM
  6
Continuous
100
AcDbDimension
  2
*D65
 10
321.0024975824947
 20
376.8483747123912
 30
0.0
 11
321.0024975824947
 21
347.3389543819146
 31
0.0
 70
   160
 71
     5
 42
59.01884066095329
 73
     0
 74
     0
 75
     0
  3
tfrom線あり
100
AcDbAlignedDimension
 13
220.3907919217469
 23
317.8295340514379
 33
0.0
 14
286.5644617471245
 24
376.8483747123912
 34
0.0
 50
90.0
100
AcDbRotatedDimension
1001
ACAD
1000
DSTYLE
1002
{
1070
   144
1040
1.0
1002
}
  0
DIMENSION
  5
25FF
102
{ACAD_REACTORS
330
2601
102
}
102
{ACAD_XDICTIONARY
360
2600
102
}
330
A
100
AcDbEntity
  8
DIM
  6
Continuous
100
AcDbDimension
  2
*D66
 10
167.0881646413404
 20
460.5242014131898
 30
0.0
 11
183.5998401135317
 21
466.0242014131898
 31
0.0
 70
    32
  1
%%c33
 71
     5
 42
33.02335094438251
 73
     0
 74
     0
 75
     0
  3
tfrom線あり
100
AcDbAlignedDimension
 13
200.1115155857229
 23
447.8048576479049
 33
0.0
 14
167.0881646413404
 24
447.8048576479049
 34
0.0
100
AcDbRotatedDimension
1001
ACAD
1000
DSTYLE
1002
{
1070
   144
1040
1.0
1002
}
  0
DIMENSION
  5
261F
102
{ACAD_XDICTIONARY
360
2620
102
}
330
A
100
AcDbEntity
  8
DIM
  6
Continuous
100
AcDbDimension
  2
*D67
 10
135.2058978589419
 20
317.8295340514379
 30
0.0
 11
129.7058978589419
 21
382.8171958496714
 31
0.0
 70
    32
 71
     5
 42
129.9753235964669
 73
     0
 74
     0
 75
     0
  3
tfrom線あり
100
AcDbAlignedDimension
 13
162.916281159027
 23
447.8048576479048
 33
0.0
 14
144.8148389258355
 24
317.8295340514379
 34
0.0
 50
90.0
100
AcDbRotatedDimension
1001
ACAD
1000
DSTYLE
1002
{
1070
   144
1040
1.0
1002
}
  0
DIMENSION
  5
262E
102
{ACAD_XDICTIONARY
360
262F
102
}
330
A
100
AcDbEntity
  8
DIM
  6
Continuous
100
AcDbDimension
  2
*D68
 10
135.2058978589419
 20
297.2538221144525
 30
0.0
 11
135.2058978589419
 21
307.7916780829452
 31
0.0
 70
   160
  1
max 20
 71
     5
 42
20.57571193698539
 73
     0
 74
     0
 75
     0
  3
tfrom線あり
100
AcDbAlignedDimension
 13
144.8148389258355
 23
317.8295340514379
 33
0.0
 14
145.4215316790975
 24
297.2538221144525
 34
0.0
 50
90.0
100
AcDbRotatedDimension
1001
ACAD
1000
DSTYLE
1002
{
1070
   144
1040
1.0
1002
}
  0
DIMENSION
  5
2642
102
{ACAD_REACTORS
330
2644
102
}
102
{ACAD_XDICTIONARY
360
2643
102
}
330
A
100
AcDbEntity
  8
DIM
  6
Continuous
100
AcDbDimension
  2
*D69
 10
283.6003713608084
 20
350.4327755169598
 30
0.0
 11
233.5999729255209
 21
355.9327755169598
 31
0.0
 70
    32
 71
     5
 42
100.0007968705751
 73
     0
 74
     0
 75
     0
  3
tfrom線あり
100
AcDbAlignedDimension
 13
183.5995744902334
 23
358.3894148399773
 33
0.0
 14
283.6003713608084
 24
367.0893959808095
 34
0.0
100
AcDbRotatedDimension
1001
ACAD
1000
DSTYLE
1002
{
1070
   144
1040
1.0
1002
}
  0
MTEXT
  5
2684
330
A
100
AcDbEntity
  8
DIM
390
1D
100
AcDbMText
 10
227.7095833710253
 20
341.6334502702996
 30
0.0
 40
4.8865234375
 41
0.0
 46
4.8865234375
 71
     1
 72
     1
  1
{%%c48}
  7
ＭＳ ゴシック
 73
     1
 44
0.7828267384257843
1001
ACAD
1000
ACAD_MTEXT_DEFINED_HEIGHT_BEGIN
1070
    46
1040
4.8865234375
1000
ACAD_MTEXT_DEFINED_HEIGHT_END
  0
MTEXT
  5
26BB
330
A
100
AcDbEntity
  8
DIM
390
1D
100
AcDbMText
 10
150.7725191496125
 20
273.5972904377018
 30
0.0
 40
4.8865234375
 41
0.0
 46
5.580409765625
 71
     1
 72
     1
  1
{G1/2"}
  7
ＭＳ ゴシック
 73
     1
 44
0.7828267384257843
1001
ACAD
1000
ACAD_MTEXT_DEFINED_HEIGHT_BEGIN
1070
    46
1040
5.580409765625
1000
ACAD_MTEXT_DEFINED_HEIGHT_END
  0
DIMENSION
  5
26C4
102
{ACAD_REACTORS
330
26C6
102
}
102
{ACAD_XDICTIONARY
360
26C5
102
}
330
A
100
AcDbEntity
  8
DIM
  6
Continuous
100
AcDbDimension
  2
*D72
 10
283.5995744909134
 20
367.8203695006208
 30
0.0
 11
296.3137772303629
 21
336.4585990506519
 31
0.0
 70
    34
  1
40%%d
 71
     5
 42
0.6105375012804787
 73
     0
 74
     0
 75
     0
  3
tfrom線あり
100
AcDb2LineAngularDimension
 13
278.2233658697746
 23
384.4893312005522
 33
0.0
 14
294.0669176431224
 24
361.8466037151959
 34
0.0
 15
283.5995744909134
 25
385.4198422112115
 35
0.0
 16
293.2787895091535
 26
329.9035966388631
 36
0.0
  0
MTEXT
  5
26D5
102
{ACAD_XDICTIONARY
360
26D7
102
}
330
A
100
AcDbEntity
  8
template
  6
Continuous
100
AcDbMText
 10
15.31271013566063
 20
20.71335369146592
 30
0.0
 40
4.0
 41
0.0
 46
2.5
 71
     1
 72
     1
  1
{20170712N}
  7
ＭＳ ゴシック
 73
     1
 44
1.0
1001
ACAD
1000
ACAD_MTEXT_DEFINED_HEIGHT_BEGIN
1070
    46
1040
2.5
1000
ACAD_MTEXT_DEFINED_HEIGHT_END
  0
VIEWPORT
  5
349
330
B
100
AcDbEntity
 67
     1
  8
0
100
AcDbViewport
 10
202.5
 20
128.5
 30
0.0
 40
486.0
 41
308.4
 68
     1
 69
     1
 12
202.5
 22
128.5
 13
0.0
 23
0.0
 14
0.5
 24
0.5
 15
0.0
 25
0.0
 16
0.0
 26
0.0
 36
1.0
 17
0.0
 27
0.0
 37
0.0
 42
50.0
 43
0.0
 44
0.0
 45
308.4
 50
0.0
 51
0.0
 72
   100
 90
   557152
  1

281
     0
 71
     1
 74
     0
110
0.0
120
0.0
130
0.0
111
1.0
121
0.0
131
0.0
112
0.0
122
1.0
132
0.0
 79
     0
146
0.0
170
     0
 61
     5
348
26C
292
     1
282
     1
141
0.0
142
0.0
 63
   256
  0
VIEWPORT
  5
34A
330
B
100
AcDbEntity
 67
     1
  8
0
100
AcDbViewport
 10
202.5
 20
128.5
 30
0.0
 40
324.0
 41
205.6
 68
     2
 69
     2
 12
986.6781359294573
 22
1427.077061889956
 13
0.0
 23
0.0
 14
0.5
 24
0.5
 15
0.0
 25
0.0
 16
0.0
 26
0.0
 36
1.0
 17
0.0
 27
0.0
 37
0.0
 42
50.0
 43
0.0
 44
0.0
 45
2890.021615685494
 50
0.0
 51
0.0
 72
   100
 90
   557152
  1

281
     0
 71
     1
 74
     0
110
0.0
120
0.0
130
0.0
111
1.0
121
0.0
131
0.0
112
0.0
122
1.0
132
0.0
 79
     0
146
0.0
170
     0
 61
     5
348
26C
292
     1
282
     1
141
0.0
142
0.0
 63
   256
  0
ENDSEC
  0
SECTION
  2
OBJECTS
  0
DICTIONARY
  5
19
330
0
100
AcDbDictionary
281
     1
  3
ACAD_COLOR
350
674
  3
ACAD_DETAILVIEWSTYLE
350
2558
  3
ACAD_FIELDLIST
350
26D9
  3
ACAD_GROUP
350
1A
  3
ACAD_IMAGE_VARS
350
27B
  3
ACAD_LAYOUT
350
1E
  3
ACAD_MATERIAL
350
263
  3
ACAD_MLEADERSTYLE
350
336
  3
ACAD_MLINESTYLE
350
1B
  3
ACAD_PLOTSETTINGS
350
22
  3
ACAD_PLOTSTYLENAME
350
1F
  3
ACAD_SCALELIST
350
241
  3
ACAD_SECTIONVIEWSTYLE
350
2559
  3
ACAD_TABLESTYLE
350
278
  3
ACAD_VISUALSTYLE
350
267
  3
ACDB_RECOMPOSE_DATA
350
26EF
  3
AcDbVariableDictionary
350
330
  3
APPDATA
350
27A
  3
CENTERLINE
350
25C2
  3
DimOffsetDictionary
350
25BD
  0
SUN
  5
1878
330
15
100
AcDbSun
 90
        1
290
     0
 63
     7
421
 16777215
 40
1.0
291
     1
 91
  2455826
 92
 54000000
292
     0
 70
     2
 71
   256
280
     1
  0
DICTIONARY
  5
2E1
330
2
100
AcDbDictionary
280
     1
281
     1
  3
ACAD_LAYERSTATES
360
2E2
  3
ACLYDICTIONARY
360
2611
  0
DICTIONARY
  5
25F1
330
25F0
100
AcDbDictionary
280
     1
281
     1
  0
DICTIONARY
  5
2600
330
25FF
100
AcDbDictionary
280
     1
281
     1
  3
ACAD_DIMASSOC
360
2601
  0
DICTIONARY
  5
2620
330
261F
100
AcDbDictionary
280
     1
281
     1
  0
DICTIONARY
  5
262F
330
262E
100
AcDbDictionary
280
     1
281
     1
  0
DICTIONARY
  5
2643
330
2642
100
AcDbDictionary
280
     1
281
     1
  3
ACAD_DIMASSOC
360
2644
  0
DICTIONARY
  5
26C5
330
26C4
100
AcDbDictionary
280
     1
281
     1
  3
ACAD_DIMASSOC
360
26C6
  0
DICTIONARY
  5
26D7
330
26D5
100
AcDbDictionary
280
     1
281
     1
  3
ACAD_FIELD
360
26DB
  0
DICTIONARY
  5
674
102
{ACAD_REACTORS
330
19
102
}
330
19
100
AcDbDictionary
281
     1
  0
DICTIONARY
  5
2558
102
{ACAD_REACTORS
330
19
102
}
330
19
100
AcDbDictionary
281
     1
  0
FIELDLIST
  5
26D9
102
{ACAD_REACTORS
330
19
102
}
330
19
100
AcDbIdSet
 90
        2
330
26DA
330
26D6
100
AcDbFieldList
  0
DICTIONARY
  5
1A
102
{ACAD_REACTORS
330
19
102
}
330
19
100
AcDbDictionary
281
     1
  0
RASTERVARIABLES
  5
27B
102
{ACAD_REACTORS
330
19
102
}
330
19
100
AcDbRasterVariables
 90
        0
 70
     1
 71
     1
 72
     1
  0
DICTIONARY
  5
1E
102
{ACAD_REACTORS
330
19
102
}
330
19
100
AcDbDictionary
281
     1
  3
Layout1
350
21
  3
Model
350
20
  0
DICTIONARY
  5
263
102
{ACAD_REACTORS
330
19
102
}
330
19
100
AcDbDictionary
281
     1
  3
ByBlock
350
265
  3
ByLayer
350
264
  3
Global
350
266
  0
DICTIONARY
  5
336
102
{ACAD_REACTORS
330
19
102
}
330
19
100
AcDbDictionary
281
     1
  3
Standard
350
1877
  0
DICTIONARY
  5
1B
102
{ACAD_REACTORS
330
19
102
}
330
19
100
AcDbDictionary
281
     1
  3
Standard
350
1C
  0
DICTIONARY
  5
22
102
{ACAD_REACTORS
330
19
102
}
330
19
100
AcDbDictionary
281
     1
  0
ACDBDICTIONARYWDFLT
  5
1F
102
{ACAD_REACTORS
330
19
102
}
330
19
100
AcDbDictionary
281
     1
  3
Normal
350
1D
100
AcDbDictionaryWithDefault
340
1D
  0
DICTIONARY
  5
241
102
{ACAD_REACTORS
330
19
102
}
330
19
100
AcDbDictionary
281
     1
  3
A0
350
242
  3
A1
350
243
  3
A2
350
244
  3
A3
350
245
  3
A4
350
246
  3
A5
350
247
  3
A6
350
248
  3
A7
350
249
  3
A8
350
24A
  3
A9
350
24B
  3
B0
350
24C
  3
B1
350
24D
  3
B2
350
24E
  3
B3
350
24F
  3
B4
350
250
  3
B5
350
251
  3
B6
350
252
  3
B7
350
253
  3
B8
350
254
  3
B9
350
255
  3
C0
350
256
  3
C1
350
257
  3
C2
350
258
  3
C3
350
259
  3
C4
350
25A
  3
C5
350
25B
  3
C6
350
25C
  3
C7
350
25D
  3
C8
350
25E
  3
C9
350
25F
  3
D0
350
260
  3
D1
350
261
  3
D2
350
262
  0
DICTIONARY
  5
2559
102
{ACAD_REACTORS
330
19
102
}
330
19
100
AcDbDictionary
281
     1
  0
DICTIONARY
  5
278
102
{ACAD_REACTORS
330
19
102
}
330
19
100
AcDbDictionary
281
     1
  3
Standard
350
279
  0
DICTIONARY
  5
267
102
{ACAD_REACTORS
330
19
102
}
330
19
100
AcDbDictionary
281
     1
  3
*A1
350
25BC
  3
2dWireframe
350
26C
  3
3D Hidden
350
26E
  3
3dWireframe
350
26D
  3
Basic
350
26F
  3
Brighten
350
273
  3
ColorChange
350
277
  3
Conceptual
350
271
  3
Dim
350
272
  3
EdgeColorOff
350
1871
  3
Facepattern
350
276
  3
Flat
350
268
  3
FlatWithEdges
350
269
  3
Gouraud
350
26A
  3
GouraudWithEdges
350
26B
  3
Hidden
350
186E
  3
JitterOff
350
186F
  3
Linepattern
350
275
  3
OverhangOff
350
1870
  3
Realistic
350
270
  3
Shaded
350
1876
  3
Shaded with edges
350
1875
  3
Shades of Gray
350
1872
  3
Sketchy
350
1873
  3
Thicken
350
274
  3
Wireframe
350
186D
  3
X-Ray
350
1874
  0
XRECORD
  5
26EF
102
{ACAD_REACTORS
330
19
102
}
330
19
100
AcDbXrecord
280
     1
 90
        1
330
279
  0
DICTIONARY
  5
330
102
{ACAD_REACTORS
330
19
102
}
330
19
100
AcDbDictionary
281
     1
  3
CANNOSCALE
350
331
  3
CMLEADERSTYLE
350
2557
  3
CTABLESTYLE
350
335
  3
HPTRANSPARENCY
350
25BB
  0
DICTIONARY
  5
27A
102
{ACAD_REACTORS
330
19
102
}
330
19
100
AcDbDictionary
281
     1
  0
DICTIONARY
  5
25C2
102
{ACAD_REACTORS
330
19
102
}
330
19
100
AcDbDictionary
281
     1
  3
CLEXTENSION
350
25E3
  0
DICTIONARY
  5
25BD
102
{ACAD_REACTORS
330
19
102
}
330
19
100
AcDbDictionary
281
     1
  3
DIMRAILANGLE
350
25E1
  3
DIMRAILFIRSTOFFSET
350
25DF
  3
DIMRAILOFFSET
350
25E0
  3
DIMRAILSENABLED
350
25E2
  0
DICTIONARY
  5
2E2
102
{ACAD_REACTORS
330
2E1
102
}
330
2E1
100
AcDbDictionary
281
     1
  3
ARGON_LAYERP_9
350
7AA
  0
DICTIONARY
  5
2611
102
{ACAD_REACTORS
330
2E1
102
}
330
2E1
100
AcDbDictionary
281
     1
1001
ACAD
1000
<All
  0
DIMASSOC
  5
2601
102
{ACAD_REACTORS
330
2600
102
}
330
2600
100
AcDbDimAssoc
330
25FF
 90
        3
 70
     0
 71
     1
  1
AcDbOsnapPointRef
 72
     1
331
2082
 73
     2
 91
        1
 40
1.0
 10
0.0
 20
0.0
 30
0.0
 75
     0
  1
AcDbOsnapPointRef
 72
     1
331
208A
 73
     2
 91
        1
 40
1.0
 10
0.0
 20
0.0
 30
0.0
 75
     0
  0
DIMASSOC
  5
2644
102
{ACAD_REACTORS
330
2643
102
}
330
2643
100
AcDbDimAssoc
330
2642
 90
        1
 70
     0
 71
     1
  1
AcDbOsnapPointRef
 72
     1
331
23E8
 73
     2
 91
        1
 40
1.0
 10
0.0
 20
0.0
 30
0.0
 75
     0
  0
DIMASSOC
  5
26C6
102
{ACAD_REACTORS
330
26C5
102
}
330
26C5
100
AcDbDimAssoc
330
26C4
 90
       15
 70
     0
 71
     1
  1
AcDbOsnapPointRef
 72
    13
331
2571
 73
     0
 91
        0
 40
0.0
 10
0.0
 20
0.0
 30
0.0
 75
     0
  1
AcDbOsnapPointRef
 72
     1
331
2571
 73
     0
 91
        0
 40
0.0
 10
0.0
 20
0.0
 30
0.0
 75
     0
  1
AcDbOsnapPointRef
 72
    13
331
23EC
 73
     2
 91
        1
 40
0.0
 10
0.0
 20
0.0
 30
0.0
 75
     0
  1
AcDbOsnapPointRef
 72
     1
331
23EC
 73
     2
 91
        1
 40
1.0
 10
0.0
 20
0.0
 30
0.0
 75
     0
  0
DICTIONARY
  5
26DB
102
{ACAD_REACTORS
330
26D7
102
}
330
26D7
100
AcDbDictionary
280
     1
281
     1
  3
TEXT
360
26D6
  0
LAYOUT
  5
21
102
{ACAD_REACTORS
330
1E
102
}
330
1E
100
AcDbPlotSettings
  1

  2
none_device
  4
ISO_A3_(420.00_x_297.00_MM)
  6

 40
7.5
 41
20.0
 42
7.5
 43
20.0
 44
420.0
 45
297.0
 46
0.0
 47
0.0
 48
0.0
 49
0.0
140
0.0
141
0.0
142
1.0
143
1.0
 70
     0
 72
     1
 73
     0
 74
     0
  7

 75
     0
 76
     0
 77
     2
 78
   300
147
1.0
148
0.0
149
0.0
100
AcDbLayout
  1
Layout1
 70
     0
 71
     0
 10
-7.5
 20
-20.0
 11
412.5
 21
277.0
 12
0.0
 22
0.0
 32
0.0
 14
0.0
 24
0.0
 34
0.0
 15
0.0
 25
0.0
 35
0.0
146
0.0
 13
0.0
 23
0.0
 33
0.0
 16
0.0
 26
0.0
 36
0.0
 17
0.0
 27
0.0
 37
0.0
 76
     0
330
B
331
349
  0
LAYOUT
  5
20
102
{ACAD_REACTORS
330
1E
102
}
330
1E
100
AcDbPlotSettings
  1

  2
none_device
  4
ISO_A3_(420.00_x_297.00_MM)
  6

 40
7.5
 41
20.0
 42
7.5
 43
20.0
 44
420.0
 45
297.0
 46
0.0
 47
0.0
 48
0.0
 49
0.0
140
0.0
141
0.0
142
1.0
143
1.0
 70
  1024
 72
     1
 73
     0
 74
     0
  7

 75
     0
 76
     0
 77
     2
 78
   300
147
1.0
148
0.0
149
0.0
100
AcDbLayout
  1
Model
 70
     0
 71
     1
 10
0.0
 20
0.0
 11
419.9999999999997
 21
594.0
 12
0.0
 22
0.0
 32
0.0
 14
0.0
 24
0.0000000000001137
 34
0.0
 15
419.9999999999997
 25
594.0
 35
0.0
146
0.0
 13
0.0
 23
0.0
 33
0.0
 16
0.0
 26
0.0
 36
0.0
 17
0.0
 27
0.0
 37
0.0
 76
     0
330
A
331
15
  0
MATERIAL
  5
265
102
{ACAD_REACTORS
330
263
102
}
330
263
100
AcDbMaterial
  1
ByBlock
 72
     1
 94
      127
  0
MATERIAL
  5
264
102
{ACAD_REACTORS
330
263
102
}
330
263
100
AcDbMaterial
  1
ByLayer
 72
     1
 94
      127
  0
MATERIAL
  5
266
102
{ACAD_REACTORS
330
263
102
}
330
263
100
AcDbMaterial
  1
Global
 72
     1
 94
      127
  0
MLEADERSTYLE
  5
1877
102
{ACAD_REACTORS
330
336
102
}
330
336
100
AcDbMLeaderStyle
170
     2
171
     1
172
     0
 90
        2
 40
0.0
 41
0.0
173
     1
 91
-1056964608
340
11
 92
       -2
290
     1
 42
2.0
291
     1
 43
8.0
  3
Standard
341
0
 44
4.0
300

342
17
174
     1
178
     1
175
     1
176
     0
 93
-1056964608
 45
4.0
292
     0
297
     0
 46
4.0
343
0
 94
-1056964608
 47
1.0
 49
1.0
140
1.0
293
     1
141
0.0
294
     1
177
     0
142
1.0
295
     0
296
     0
143
3.75
1001
ACAD_MLEADERVER
1070
     2
  0
MLINESTYLE
  5
1C
102
{ACAD_REACTORS
330
1B
102
}
330
1B
100
AcDbMlineStyle
  2
Standard
 70
     0
  3

 62
     0
 51
90.0
 52
90.0
 71
     2
 49
0.5
 62
   256
  6
BYLAYER
 49
-0.5
 62
   256
  6
BYLAYER
  0
ACDBPLACEHOLDER
  5
1D
102
{ACAD_REACTORS
330
1F
102
}
330
1F
  0
SCALE
  5
242
102
{ACAD_REACTORS
330
241
102
}
330
241
100
AcDbScale
 70
     0
300
1:1
140
1.0
141
1.0
290
     1
  0
SCALE
  5
243
102
{ACAD_REACTORS
330
241
102
}
330
241
100
AcDbScale
 70
     0
300
1:2
140
1.0
141
2.0
290
     0
  0
SCALE
  5
244
102
{ACAD_REACTORS
330
241
102
}
330
241
100
AcDbScale
 70
     0
300
1:4
140
1.0
141
4.0
290
     0
  0
SCALE
  5
245
102
{ACAD_REACTORS
330
241
102
}
330
241
100
AcDbScale
 70
     0
300
1:5
140
1.0
141
5.0
290
     0
  0
SCALE
  5
246
102
{ACAD_REACTORS
330
241
102
}
330
241
100
AcDbScale
 70
     0
300
1:8
140
1.0
141
8.0
290
     0
  0
SCALE
  5
247
102
{ACAD_REACTORS
330
241
102
}
330
241
100
AcDbScale
 70
     0
300
1:10
140
1.0
141
10.0
290
     0
  0
SCALE
  5
248
102
{ACAD_REACTORS
330
241
102
}
330
241
100
AcDbScale
 70
     0
300
1:16
140
1.0
141
16.0
290
     0
  0
SCALE
  5
249
102
{ACAD_REACTORS
330
241
102
}
330
241
100
AcDbScale
 70
     0
300
1:20
140
1.0
141
20.0
290
     0
  0
SCALE
  5
24A
102
{ACAD_REACTORS
330
241
102
}
330
241
100
AcDbScale
 70
     0
300
1:30
140
1.0
141
30.0
290
     0
  0
SCALE
  5
24B
102
{ACAD_REACTORS
330
241
102
}
330
241
100
AcDbScale
 70
     0
300
1:40
140
1.0
141
40.0
290
     0
  0
SCALE
  5
24C
102
{ACAD_REACTORS
330
241
102
}
330
241
100
AcDbScale
 70
     0
300
1:50
140
1.0
141
50.0
290
     0
  0
SCALE
  5
24D
102
{ACAD_REACTORS
330
241
102
}
330
241
100
AcDbScale
 70
     0
300
1:100
140
1.0
141
100.0
290
     0
  0
SCALE
  5
24E
102
{ACAD_REACTORS
330
241
102
}
330
241
100
AcDbScale
 70
     0
300
2:1
140
2.0
141
1.0
290
     0
  0
SCALE
  5
24F
102
{ACAD_REACTORS
330
241
102
}
330
241
100
AcDbScale
 70
     0
300
4:1
140
4.0
141
1.0
290
     0
  0
SCALE
  5
250
102
{ACAD_REACTORS
330
241
102
}
330
241
100
AcDbScale
 70
     0
300
8:1
140
8.0
141
1.0
290
     0
  0
SCALE
  5
251
102
{ACAD_REACTORS
330
241
102
}
330
241
100
AcDbScale
 70
     0
300
10:1
140
10.0
141
1.0
290
     0
  0
SCALE
  5
252
102
{ACAD_REACTORS
330
241
102
}
330
241
100
AcDbScale
 70
     0
300
100:1
140
100.0
141
1.0
290
     0
  0
SCALE
  5
253
102
{ACAD_REACTORS
330
241
102
}
330
241
100
AcDbScale
 70
     0
300
1/128" = 1'-0"
140
0.0078125
141
12.0
290
     0
  0
SCALE
  5
254
102
{ACAD_REACTORS
330
241
102
}
330
241
100
AcDbScale
 70
     0
300
1/64" = 1'-0"
140
0.015625
141
12.0
290
     0
  0
SCALE
  5
255
102
{ACAD_REACTORS
330
241
102
}
330
241
100
AcDbScale
 70
     0
300
1/32" = 1'-0"
140
0.03125
141
12.0
290
     0
  0
SCALE
  5
256
102
{ACAD_REACTORS
330
241
102
}
330
241
100
AcDbScale
 70
     0
300
1/16" = 1'-0"
140
0.0625
141
12.0
290
     0
  0
SCALE
  5
257
102
{ACAD_REACTORS
330
241
102
}
330
241
100
AcDbScale
 70
     0
300
3/32" = 1'-0"
140
0.09375
141
12.0
290
     0
  0
SCALE
  5
258
102
{ACAD_REACTORS
330
241
102
}
330
241
100
AcDbScale
 70
     0
300
1/8" = 1'-0"
140
0.125
141
12.0
290
     0
  0
SCALE
  5
259
102
{ACAD_REACTORS
330
241
102
}
330
241
100
AcDbScale
 70
     0
300
3/16" = 1'-0"
140
0.1875
141
12.0
290
     0
  0
SCALE
  5
25A
102
{ACAD_REACTORS
330
241
102
}
330
241
100
AcDbScale
 70
     0
300
1/4" = 1'-0"
140
0.25
141
12.0
290
     0
  0
SCALE
  5
25B
102
{ACAD_REACTORS
330
241
102
}
330
241
100
AcDbScale
 70
     0
300
3/8" = 1'-0"
140
0.375
141
12.0
290
     0
  0
SCALE
  5
25C
102
{ACAD_REACTORS
330
241
102
}
330
241
100
AcDbScale
 70
     0
300
1/2" = 1'-0"
140
0.5
141
12.0
290
     0
  0
SCALE
  5
25D
102
{ACAD_REACTORS
330
241
102
}
330
241
100
AcDbScale
 70
     0
300
3/4" = 1'-0"
140
0.75
141
12.0
290
     0
  0
SCALE
  5
25E
102
{ACAD_REACTORS
330
241
102
}
330
241
100
AcDbScale
 70
     0
300
1" = 1'-0"
140
1.0
141
12.0
290
     0
  0
SCALE
  5
25F
102
{ACAD_REACTORS
330
241
102
}
330
241
100
AcDbScale
 70
     0
300
1-1/2" = 1'-0"
140
1.5
141
12.0
290
     0
  0
SCALE
  5
260
102
{ACAD_REACTORS
330
241
102
}
330
241
100
AcDbScale
 70
     0
300
3" = 1'-0"
140
3.0
141
12.0
290
     0
  0
SCALE
  5
261
102
{ACAD_REACTORS
330
241
102
}
330
241
100
AcDbScale
 70
     0
300
6" = 1'-0"
140
6.0
141
12.0
290
     0
  0
SCALE
  5
262
102
{ACAD_REACTORS
330
241
102
}
330
241
100
AcDbScale
 70
     0
300
1'-0" = 1'-0"
140
12.0
141
12.0
290
     0
  0
TABLESTYLE
  5
279
102
{ACAD_REACTORS
330
278
102
}
102
{ACAD_XDICTIONARY
360
26ED
102
}
330
278
100
AcDbTableStyle
  3
Standard
 70
     0
 71
     0
 40
0.06
 41
0.06
280
     0
281
     0
  7
Standard
140
4.5
170
     2
 62
     0
 63
   257
283
     0
 90
        4
 91
        0
  1

274
    -2
284
     1
 64
     0
275
    -2
285
     1
 65
     0
276
    -2
286
     1
 66
     0
277
    -2
287
     1
 67
     0
278
    -2
288
     1
 68
     0
279
    -2
289
     1
 69
     0
  7
Standard
140
6.0
170
     5
 62
     0
 63
   257
283
     0
 90
        4
 91
        0
  1

274
    -2
284
     1
 64
     0
275
    -2
285
     1
 65
     0
276
    -2
286
     1
 66
     0
277
    -2
287
     1
 67
     0
278
    -2
288
     1
 68
     0
279
    -2
289
     1
 69
     0
  7
Standard
140
4.5
170
     5
 62
     0
 63
   257
283
     0
 90
        4
 91
        0
  1

274
    -2
284
     1
 64
     0
275
    -2
285
     1
 65
     0
276
    -2
286
     1
 66
     0
277
    -2
287
     1
 67
     0
278
    -2
288
     1
 68
     0
279
    -2
289
     1
 69
     0
  0
VISUALSTYLE
  5
25BC
102
{ACAD_REACTORS
330
267
102
}
330
267
100
AcDbVisualStyle
  2
*
 70
    10
 71
     0
 72
     2
 73
     0
 90
        0
 40
-0.6
 41
-30.0
 62
     5
 63
     7
421
 16777215
 74
     1
 91
        4
 64
     7
 65
   257
 75
     1
175
     1
 42
1.0
 92
        8
 66
     7
 43
1.0
 76
     1
 77
     6
 78
     2
 67
     7
 79
     5
170
     0
171
     0
290
     0
174
     0
 93
        1
 44
0.0
173
     0
291
     0
 45
0.0
  0
VISUALSTYLE
  5
26C
102
{ACAD_REACTORS
330
267
102
}
330
267
100
AcDbVisualStyle
  2
2dWireframe
 70
     4
 71
     0
 72
     2
 73
     0
 90
        0
 40
-0.6
 41
-30.0
 62
     5
 63
     7
421
 16777215
 74
     1
 91
        4
 64
     7
 65
   257
 75
     1
175
     1
 42
1.0
 92
        0
 66
   257
 43
1.0
 76
     1
 77
     6
 78
     2
 67
     7
 79
     5
170
     0
171
     0
290
     0
174
     0
 93
        1
 44
0.0
173
     0
291
     0
 45
0.0
  0
VISUALSTYLE
  5
26E
102
{ACAD_REACTORS
330
267
102
}
330
267
100
AcDbVisualStyle
  2
3D Hidden
 70
     6
 71
     1
 72
     2
 73
     2
 90
        0
 40
-0.6
 41
-30.0
 62
     5
 63
     7
421
 16777215
 74
     2
 91
        2
 64
     7
 65
   257
 75
     2
175
     1
 42
40.0
 92
        0
 66
   257
 43
1.0
 76
     1
 77
     6
 78
     2
 67
     7
 79
     3
170
     0
171
     0
290
     0
174
     0
 93
        1
 44
0.0
173
     0
291
     0
 45
0.0
  0
VISUALSTYLE
  5
26D
102
{ACAD_REACTORS
330
267
102
}
330
267
100
AcDbVisualStyle
  2
3dWireframe
 70
     5
 71
     0
 72
     2
 73
     0
 90
        0
 40
-0.6
 41
-30.0
 62
     5
 63
     7
421
 16777215
 74
     1
 91
        4
 64
     7
 65
   257
 75
     1
175
     1
 42
1.0
 92
        0
 66
   257
 43
1.0
 76
     1
 77
     6
 78
     2
 67
     7
 79
     5
170
     0
171
     0
290
     0
174
     0
 93
        1
 44
0.0
173
     0
291
     0
 45
0.0
  0
VISUALSTYLE
  5
26F
102
{ACAD_REACTORS
330
267
102
}
330
267
100
AcDbVisualStyle
  2
Basic
 70
     7
 71
     1
 72
     0
 73
     1
 90
        0
 40
-0.6
 41
-30.0
 62
     5
 63
     7
421
 16777215
 74
     0
 91
        4
 64
     7
 65
   257
 75
     1
175
     1
 42
1.0
 92
        8
 66
     7
 43
1.0
 76
     1
 77
     6
 78
     2
 67
     7
 79
     5
170
     0
171
     0
290
     0
174
     0
 93
        1
 44
0.0
173
     0
291
     1
 45
0.0
  0
VISUALSTYLE
  5
273
102
{ACAD_REACTORS
330
267
102
}
330
267
100
AcDbVisualStyle
  2
Brighten
 70
    12
 71
     2
 72
     2
 73
     0
 90
        0
 40
-0.6
 41
-30.0
 62
     5
 63
     7
421
 16777215
 74
     1
 91
        4
 64
     7
 65
   257
 75
     1
175
     1
 42
1.0
 92
        8
 66
     7
 43
1.0
 76
     1
 77
     6
 78
     2
 67
     7
 79
     5
170
     0
171
     0
290
     0
174
     0
 93
        1
 44
50.0
173
     0
291
     1
 45
0.0
  0
VISUALSTYLE
  5
277
102
{ACAD_REACTORS
330
267
102
}
330
267
100
AcDbVisualStyle
  2
ColorChange
 70
    16
 71
     2
 72
     2
 73
     3
 90
        0
 40
-0.6
 41
-30.0
 62
     5
 63
     8
421
  8421504
 74
     1
 91
        4
 64
     7
 65
   257
 75
     1
175
     1
 42
1.0
 92
        8
 66
     8
424
  8421504
 43
1.0
 76
     1
 77
     6
 78
     2
 67
     7
 79
     5
170
     0
171
     0
290
     0
174
     0
 93
        1
 44
0.0
173
     0
291
     1
 45
0.0
  0
VISUALSTYLE
  5
271
102
{ACAD_REACTORS
330
267
102
}
330
267
100
AcDbVisualStyle
  2
Conceptual
 70
     9
 71
     3
 72
     2
 73
     0
 90
        0
 40
-0.6
 41
-30.0
 62
     5
 63
     7
421
 16777215
 74
     2
 91
        2
 64
     7
 65
   257
 75
     1
175
     1
 42
40.0
 92
        8
 66
     7
 43
1.0
 76
     1
 77
     6
 78
     2
 67
     7
 79
     3
170
     0
171
     0
290
     0
174
     0
 93
        1
 44
0.0
173
     0
291
     0
 45
0.0
  0
VISUALSTYLE
  5
272
102
{ACAD_REACTORS
330
267
102
}
330
267
100
AcDbVisualStyle
  2
Dim
 70
    11
 71
     2
 72
     2
 73
     0
 90
        0
 40
-0.6
 41
-30.0
 62
     5
 63
     7
421
 16777215
 74
     1
 91
        4
 64
     7
 65
   257
 75
     1
175
     1
 42
1.0
 92
        8
 66
     7
 43
1.0
 76
     1
 77
     6
 78
     2
 67
     7
 79
     5
170
     0
171
     0
290
     0
174
     0
 93
        1
 44
-50.0
173
     0
291
     1
 45
0.0
  0
VISUALSTYLE
  5
1871
102
{ACAD_REACTORS
330
267
102
}
330
267
100
AcDbVisualStyle
  2
EdgeColorOff
 70
    22
 71
     2
 72
     2
 73
     0
 90
        0
 40
0.6
 41
30.0
 62
     5
 63
     7
421
 16777215
 74
     1
 91
        4
 64
     7
 65
   257
 75
     1
175
     1
 42
1.0
 92
        8
 66
     7
 43
1.0
 76
     1
 77
     6
 78
     2
 67
     7
 79
     5
170
     0
171
     0
290
     0
174
     0
 93
        1
 44
0.0
173
     0
291
     1
 45
0.0
  0
VISUALSTYLE
  5
276
102
{ACAD_REACTORS
330
267
102
}
330
267
100
AcDbVisualStyle
  2
Facepattern
 70
    15
 71
     2
 72
     2
 73
     0
 90
        0
 40
-0.6
 41
-30.0
 62
     5
 63
     7
421
 16777215
 74
     1
 91
        4
 64
     7
 65
   257
 75
     1
175
     1
 42
1.0
 92
        8
 66
     7
 43
1.0
 76
     1
 77
     6
 78
     2
 67
     7
 79
     5
170
     0
171
     0
290
     0
174
     0
 93
        1
 44
0.0
173
     0
291
     1
 45
0.0
  0
VISUALSTYLE
  5
268
102
{ACAD_REACTORS
330
267
102
}
330
267
100
AcDbVisualStyle
  2
Flat
 70
     0
 71
     2
 72
     1
 73
     1
 90
        2
 40
-0.6
 41
30.0
 62
     5
 63
     7
421
 16777215
 74
     0
 91
        4
 64
     7
 65
   257
 75
     1
175
     1
 42
1.0
 92
        8
 66
     7
 43
1.0
 76
     1
 77
     6
 78
     2
 67
     7
 79
     5
170
     0
171
     0
290
     0
174
     0
 93
       13
 44
0.0
173
     0
291
     1
 45
0.0
  0
VISUALSTYLE
  5
269
102
{ACAD_REACTORS
330
267
102
}
330
267
100
AcDbVisualStyle
  2
FlatWithEdges
 70
     1
 71
     2
 72
     1
 73
     1
 90
        2
 40
-0.6
 41
30.0
 62
     5
 63
     7
421
 16777215
 74
     1
 91
        4
 64
     7
 65
   257
 75
     1
175
     1
 42
1.0
 92
        0
 66
   257
 43
1.0
 76
     1
 77
     6
 78
     2
 67
     7
 79
     5
170
     0
171
     0
290
     0
174
     0
 93
       13
 44
0.0
173
     0
291
     1
 45
0.0
  0
VISUALSTYLE
  5
26A
102
{ACAD_REACTORS
330
267
102
}
330
267
100
AcDbVisualStyle
  2
Gouraud
 70
     2
 71
     2
 72
     2
 73
     1
 90
        2
 40
-0.6
 41
30.0
 62
     5
 63
     7
421
 16777215
 74
     0
 91
        4
 64
     7
 65
   257
 75
     1
175
     1
 42
1.0
 92
        0
 66
     7
 43
1.0
 76
     1
 77
     6
 78
     2
 67
     7
 79
     5
170
     0
171
     0
290
     0
174
     0
 93
       13
 44
0.0
173
     0
291
     1
 45
0.0
  0
VISUALSTYLE
  5
26B
102
{ACAD_REACTORS
330
267
102
}
330
267
100
AcDbVisualStyle
  2
GouraudWithEdges
 70
     3
 71
     2
 72
     2
 73
     1
 90
        2
 40
-0.6
 41
30.0
 62
     5
 63
     7
421
 16777215
 74
     1
 91
        4
 64
     7
 65
   257
 75
     1
175
     1
 42
1.0
 92
        0
 66
   257
 43
1.0
 76
     1
 77
     6
 78
     2
 67
     7
 79
     5
170
     0
171
     0
290
     0
174
     0
 93
       13
 44
0.0
173
     0
291
     1
 45
0.0
  0
VISUALSTYLE
  5
186E
102
{ACAD_REACTORS
330
267
102
}
330
267
100
AcDbVisualStyle
  2
Hidden
 70
     6
 71
     1
 72
     2
 73
     2
 90
        0
 40
0.6
 41
30.0
 62
     5
 63
     7
421
 16777215
 74
     2
 91
        2
 64
     7
 65
   257
 75
     2
175
     1
 42
40.0
 92
        0
 66
   257
 43
1.0
 76
     1
 77
     6
 78
     2
 67
     7
 79
     3
170
     0
171
     0
290
     0
174
     0
 93
        1
 44
0.0
173
     0
291
     0
 45
0.0
  0
VISUALSTYLE
  5
186F
102
{ACAD_REACTORS
330
267
102
}
330
267
100
AcDbVisualStyle
  2
JitterOff
 70
    20
 71
     2
 72
     2
 73
     0
 90
        0
 40
0.6
 41
30.0
 62
     5
 63
     7
421
 16777215
 74
     1
 91
        4
 64
     7
 65
   257
 75
     1
175
     1
 42
1.0
 92
       10
 66
     7
 43
1.0
 76
     1
 77
     6
 78
     2
 67
     7
 79
     5
170
     0
171
     0
290
     0
174
     0
 93
        1
 44
0.0
173
     0
291
     1
 45
0.0
  0
VISUALSTYLE
  5
275
102
{ACAD_REACTORS
330
267
102
}
330
267
100
AcDbVisualStyle
  2
Linepattern
 70
    14
 71
     2
 72
     2
 73
     0
 90
        0
 40
-0.6
 41
-30.0
 62
     5
 63
     7
421
 16777215
 74
     1
 91
        4
 64
     7
 65
   257
 75
     7
175
     7
 42
1.0
 92
        8
 66
     7
 43
1.0
 76
     1
 77
     6
 78
     2
 67
     7
 79
     5
170
     0
171
     0
290
     0
174
     0
 93
        1
 44
0.0
173
     0
291
     1
 45
0.0
  0
VISUALSTYLE
  5
1870
102
{ACAD_REACTORS
330
267
102
}
330
267
100
AcDbVisualStyle
  2
OverhangOff
 70
    21
 71
     2
 72
     2
 73
     0
 90
        0
 40
0.6
 41
30.0
 62
     5
 63
     7
421
 16777215
 74
     1
 91
        4
 64
     7
 65
   257
 75
     1
175
     1
 42
1.0
 92
        9
 66
     7
 43
1.0
 76
     1
 77
     6
 78
     2
 67
     7
 79
     5
170
     0
171
     0
290
     0
174
     0
 93
        1
 44
0.0
173
     0
291
     1
 45
0.0
  0
VISUALSTYLE
  5
270
102
{ACAD_REACTORS
330
267
102
}
330
267
100
AcDbVisualStyle
  2
Realistic
 70
     8
 71
     2
 72
     2
 73
     0
 90
        0
 40
-0.6
 41
-30.0
 62
     5
 63
     7
421
 16777215
 74
     1
 91
        0
 64
     7
 65
   257
 75
     1
175
     1
 42
1.0
 92
        8
 66
     8
424
  7895160
 43
1.0
 76
     1
 77
     6
 78
     2
 67
     7
 79
     5
170
     0
171
     0
290
     0
174
     0
 93
       13
 44
0.0
173
     0
291
     0
 45
0.0
  0
VISUALSTYLE
  5
1876
102
{ACAD_REACTORS
330
267
102
}
330
267
100
AcDbVisualStyle
  2
Shaded
 70
    27
 71
     2
 72
     2
 73
     1
 90
        2
 40
0.6
 41
30.0
 62
     5
 63
     7
421
 16777215
 74
     0
 91
        4
 64
     7
 65
   257
 75
     1
175
     1
 42
1.0
 92
        8
 66
   257
 43
1.0
 76
     1
 77
     6
 78
     2
 67
     8
425
  7895160
 79
     3
170
     0
171
     0
290
     0
174
     0
 93
        5
 44
0.0
173
     0
291
     0
 45
0.0
  0
VISUALSTYLE
  5
1875
102
{ACAD_REACTORS
330
267
102
}
330
267
100
AcDbVisualStyle
  2
Shaded with edges
 70
    26
 71
     2
 72
     2
 73
     1
 90
        2
 40
0.6
 41
30.0
 62
     5
 63
     7
421
 16777215
 74
     1
 91
       10
 64
     7
 65
   257
 75
     2
175
     1
 42
1.0
 92
        8
 66
   257
 43
1.0
 76
     1
 77
     6
 78
     2
 67
     7
 79
     3
170
     0
171
     0
290
     0
174
     0
 93
        5
 44
0.0
173
     0
291
     0
 45
0.0
  0
VISUALSTYLE
  5
1872
102
{ACAD_REACTORS
330
267
102
}
330
267
100
AcDbVisualStyle
  2
Shades of Gray
 70
    23
 71
     2
 72
     2
 73
     3
 90
        0
 40
0.6
 41
30.0
 62
     5
 63
     7
421
 16777215
 74
     2
 91
        2
 64
     7
 65
     7
 75
     1
175
     1
 42
40.0
 92
        8
 66
     7
 43
1.0
 76
     1
 77
     6
 78
     2
 67
     7
 79
     3
170
     0
171
     0
290
     0
174
     0
 93
        1
 44
0.0
173
     0
291
     0
 45
0.0
  0
VISUALSTYLE
  5
1873
102
{ACAD_REACTORS
330
267
102
}
330
267
100
AcDbVisualStyle
  2
Sketchy
 70
    24
 71
     1
 72
     2
 73
     2
 90
        0
 40
0.6
 41
30.0
 62
     5
 63
     7
421
 16777215
 74
     2
 91
        2
 64
     7
 65
     7
 75
     1
175
     1
 42
40.0
 92
       11
 66
     7
 43
1.0
 76
     1
 77
     6
 78
     2
 67
     7
 79
     6
170
     0
171
     0
290
     0
174
     0
 93
        1
 44
0.0
173
     0
291
     0
 45
0.0
  0
VISUALSTYLE
  5
274
102
{ACAD_REACTORS
330
267
102
}
330
267
100
AcDbVisualStyle
  2
Thicken
 70
    13
 71
     2
 72
     2
 73
     0
 90
        0
 40
-0.6
 41
-30.0
 62
     5
 63
     7
421
 16777215
 74
     1
 91
        4
 64
     7
 65
   257
 75
     1
175
     1
 42
1.0
 92
       12
 66
     7
 43
1.0
 76
     1
 77
     6
 78
     2
 67
     7
 79
     5
170
     0
171
     0
290
     0
174
     0
 93
        1
 44
0.0
173
     0
291
     1
 45
0.0
  0
VISUALSTYLE
  5
186D
102
{ACAD_REACTORS
330
267
102
}
330
267
100
AcDbVisualStyle
  2
Wireframe
 70
     5
 71
     0
 72
     2
 73
     0
 90
        0
 40
0.6
 41
30.0
 62
     5
 63
     7
421
 16777215
 74
     1
 91
        4
 64
     7
 65
   257
 75
     1
175
     1
 42
1.0
 92
        0
 66
   257
 43
1.0
 76
     1
 77
     6
 78
     2
 67
     7
 79
     3
170
     0
171
     0
290
     0
174
     0
 93
        1
 44
0.0
173
     0
291
     0
 45
0.0
  0
VISUALSTYLE
  5
1874
102
{ACAD_REACTORS
330
267
102
}
330
267
100
AcDbVisualStyle
  2
X-Ray
 70
    25
 71
     2
 72
     2
 73
     1
 90
        1
 40
0.5
 41
30.0
 62
     5
 63
     7
421
 16777215
 74
     1
 91
        0
 64
     7
 65
   257
 75
     1
175
     1
 42
1.0
 92
        8
 66
     7
 43
1.0
 76
     1
 77
     6
 78
     2
 67
     7
 79
     3
170
     0
171
     0
290
     0
174
     0
 93
       13
 44
0.0
173
     0
291
     0
 45
0.0
  0
DICTIONARYVAR
  5
331
102
{ACAD_REACTORS
330
330
102
}
330
330
100
DictionaryVariables
280
     0
  1
1:1
  0
DICTIONARYVAR
  5
2557
102
{ACAD_REACTORS
330
330
102
}
330
330
100
DictionaryVariables
280
     0
  1
Standard
  0
DICTIONARYVAR
  5
335
102
{ACAD_REACTORS
330
330
102
}
330
330
100
DictionaryVariables
280
     0
  1
Standard
  0
DICTIONARYVAR
  5
25BB
102
{ACAD_REACTORS
330
330
102
}
330
330
100
DictionaryVariables
280
     0
  1
.
  0
DICTIONARYVAR
  5
25E3
102
{ACAD_REACTORS
330
25C2
102
}
330
25C2
100
DictionaryVariables
280
     0
  1
0.250000
  0
DICTIONARYVAR
  5
25E1
102
{ACAD_REACTORS
330
25BD
102
}
330
25BD
100
DictionaryVariables
280
     0
  1
0.261799
  0
DICTIONARYVAR
  5
25DF
102
{ACAD_REACTORS
330
25BD
102
}
330
25BD
100
DictionaryVariables
280
     0
  1
0.400000
  0
DICTIONARYVAR
  5
25E0
102
{ACAD_REACTORS
330
25BD
102
}
330
25BD
100
DictionaryVariables
280
     0
  1
0.250000
  0
DICTIONARYVAR
  5
25E2
102
{ACAD_REACTORS
330
25BD
102
}
330
25BD
100
DictionaryVariables
280
     0
  1
0
  0
XRECORD
  5
7AA
102
{ACAD_REACTORS
330
2E2
102
}
330
2E2
100
AcDbXrecord
280
     1
 91
     1023
301

290
     0
302
MODEL
330
14
 90
        8
 62
     7
370
    -3
331
13
  1
Color_7
330
0
 90
        0
 62
     7
370
    -3
331
13
  1
Color_7
330
4B
 90
        8
 62
     7
370
    -3
331
13
  1
Color_7
330
0
 90
        8
 62
     7
370
    -3
331
13
  1
Color_7
330
4D
 90
        8
 62
     7
370
    -3
331
13
  1
Color_7
330
0
 90
        9
 62
     1
370
    -3
331
13
  1
Color_1
330
0
 90
        8
 62
     4
370
    -3
331
13
  1
Color_4
330
667
 90
        8
 62
     7
370
    -3
331
13
  1
Color_7
  0
FIELD
  5
26D6
102
{ACAD_REACTORS
330
26D8
330
26DB
102
}
330
26DB
100
AcDbField
  1
_text
  2
{%<\_FldIdx 0>%N}
 90
        1
360
26DA
 97
        0
 91
       63
 92
        0
 94
        8
 95
        2
 96
        0
300

 93
        1
  6
ACFD_FIELDTEXT_CHECKSUM
 93
        2
 90
        2
140
4508.0
 94
        0
300

302

304
ACVALUE_END
  7
ACFD_FIELD_VALUE
 93
        6
 90
        4
  1
{20170712N}
 94
        0
300

302

304
ACVALUE_END
301
{20170712N}
 98
       11
  0
DICTIONARY
  5
26ED
330
279
100
AcDbDictionary
280
     1
281
     1
  3
ACAD_ROUNDTRIP_2008_TABLESTYLE_CELLSTYLEMAP
360
26EE
  0
FIELD
  5
26DA
330
26D6
100
AcDbField
  1
AcVar
  2
\AcVar Date \f "yyyyMMdd"
 90
        0
 97
        0
 91
       63
 92
        0
 94
        8
 95
        2
 96
        0
300

 93
        1
  6
Variable
 93
        2
 90
        4
  1
Date
 94
        0
300

302

304
ACVALUE_END
  7
ACFD_FIELD_VALUE
 93
        6
 90
        8
 92
       16
310
E107070000000C000A0025002F000000
 94
        0
300
yyyyMMdd
302

304
ACVALUE_END
301
20170712
 98
        8
  0
CELLSTYLEMAP
  5
26EE
102
{ACAD_REACTORS
330
26ED
102
}
330
26ED
100
AcDbCellStyleMap
 90
        3
300
CELLSTYLE
  1
TABLEFORMAT_BEGIN
 90
        5
170
     1
 91
        0
 92
    32768
 62
   257
 93
        1
300
CONTENTFORMAT
  1
CONTENTFORMAT_BEGIN
 90
        0
 91
        0
 92
        4
 93
        0
300

 40
0.0
140
1.0
 94
        5
 62
     0
340
17
144
6.0
309
CONTENTFORMAT_END
171
     1
301
MARGIN
  1
CELLMARGIN_BEGIN
 40
0.06
 40
0.06
 40
0.06
 40
0.06
 40
0.18
 40
0.18
309
CELLMARGIN_END
 94
        6
 95
        1
302
GRIDFORMAT
  1
GRIDFORMAT_BEGIN
 90
        0
 91
        1
 62
     0
 92
       -2
340
0
 93
        0
 40
0.045
309
GRIDFORMAT_END
 95
        2
302
GRIDFORMAT
  1
GRIDFORMAT_BEGIN
 90
        0
 91
        1
 62
     0
 92
       -2
340
0
 93
        0
 40
0.045
309
GRIDFORMAT_END
 95
        4
302
GRIDFORMAT
  1
GRIDFORMAT_BEGIN
 90
        0
 91
        1
 62
     0
 92
       -2
340
0
 93
        0
 40
0.045
309
GRIDFORMAT_END
 95
        8
302
GRIDFORMAT
  1
GRIDFORMAT_BEGIN
 90
        0
 91
        1
 62
     0
 92
       -2
340
0
 93
        0
 40
0.045
309
GRIDFORMAT_END
 95
       16
302
GRIDFORMAT
  1
GRIDFORMAT_BEGIN
 90
        0
 91
        1
 62
     0
 92
       -2
340
0
 93
        0
 40
0.045
309
GRIDFORMAT_END
 95
       32
302
GRIDFORMAT
  1
GRIDFORMAT_BEGIN
 90
        0
 91
        1
 62
     0
 92
       -2
340
0
 93
        0
 40
0.045
309
GRIDFORMAT_END
309
TABLEFORMAT_END
  1
CELLSTYLE_BEGIN
 90
        1
 91
        1
300
_TITLE
309
CELLSTYLE_END
300
CELLSTYLE
  1
TABLEFORMAT_BEGIN
 90
        5
170
     1
 91
        0
 92
        0
 62
   257
 93
        1
300
CONTENTFORMAT
  1
CONTENTFORMAT_BEGIN
 90
        0
 91
        0
 92
        4
 93
        0
300

 40
0.0
140
1.0
 94
        5
 62
     0
340
17
144
4.5
309
CONTENTFORMAT_END
171
     1
301
MARGIN
  1
CELLMARGIN_BEGIN
 40
0.06
 40
0.06
 40
0.06
 40
0.06
 40
0.18
 40
0.18
309
CELLMARGIN_END
 94
        6
 95
        1
302
GRIDFORMAT
  1
GRIDFORMAT_BEGIN
 90
        0
 91
        1
 62
     0
 92
       -2
340
0
 93
        0
 40
0.045
309
GRIDFORMAT_END
 95
        2
302
GRIDFORMAT
  1
GRIDFORMAT_BEGIN
 90
        0
 91
        1
 62
     0
 92
       -2
340
0
 93
        0
 40
0.045
309
GRIDFORMAT_END
 95
        4
302
GRIDFORMAT
  1
GRIDFORMAT_BEGIN
 90
        0
 91
        1
 62
     0
 92
       -2
340
0
 93
        0
 40
0.045
309
GRIDFORMAT_END
 95
        8
302
GRIDFORMAT
  1
GRIDFORMAT_BEGIN
 90
        0
 91
        1
 62
     0
 92
       -2
340
0
 93
        0
 40
0.045
309
GRIDFORMAT_END
 95
       16
302
GRIDFORMAT
  1
GRIDFORMAT_BEGIN
 90
        0
 91
        1
 62
     0
 92
       -2
340
0
 93
        0
 40
0.045
309
GRIDFORMAT_END
 95
       32
302
GRIDFORMAT
  1
GRIDFORMAT_BEGIN
 90
        0
 91
        1
 62
     0
 92
       -2
340
0
 93
        0
 40
0.045
309
GRIDFORMAT_END
309
TABLEFORMAT_END
  1
CELLSTYLE_BEGIN
 90
        2
 91
        1
300
_HEADER
309
CELLSTYLE_END
300
CELLSTYLE
  1
TABLEFORMAT_BEGIN
 90
        5
170
     1
 91
        0
 92
        0
 62
   257
 93
        1
300
CONTENTFORMAT
  1
CONTENTFORMAT_BEGIN
 90
        0
 91
        0
 92
        4
 93
        0
300

 40
0.0
140
1.0
 94
        2
 62
     0
340
17
144
4.5
309
CONTENTFORMAT_END
171
     1
301
MARGIN
  1
CELLMARGIN_BEGIN
 40
0.06
 40
0.06
 40
0.06
 40
0.06
 40
0.18
 40
0.18
309
CELLMARGIN_END
 94
        6
 95
        1
302
GRIDFORMAT
  1
GRIDFORMAT_BEGIN
 90
        0
 91
        1
 62
     0
 92
       -2
340
0
 93
        0
 40
0.045
309
GRIDFORMAT_END
 95
        2
302
GRIDFORMAT
  1
GRIDFORMAT_BEGIN
 90
        0
 91
        1
 62
     0
 92
       -2
340
0
 93
        0
 40
0.045
309
GRIDFORMAT_END
 95
        4
302
GRIDFORMAT
  1
GRIDFORMAT_BEGIN
 90
        0
 91
        1
 62
     0
 92
       -2
340
0
 93
        0
 40
0.045
309
GRIDFORMAT_END
 95
        8
302
GRIDFORMAT
  1
GRIDFORMAT_BEGIN
 90
        0
 91
        1
 62
     0
 92
       -2
340
0
 93
        0
 40
0.045
309
GRIDFORMAT_END
 95
       16
302
GRIDFORMAT
  1
GRIDFORMAT_BEGIN
 90
        0
 91
        1
 62
     0
 92
       -2
340
0
 93
        0
 40
0.045
309
GRIDFORMAT_END
 95
       32
302
GRIDFORMAT
  1
GRIDFORMAT_BEGIN
 90
        0
 91
        1
 62
     0
 92
       -2
340
0
 93
        0
 40
0.045
309
GRIDFORMAT_END
309
TABLEFORMAT_END
  1
CELLSTYLE_BEGIN
 90
        3
 91
        2
300
_DATA
309
CELLSTYLE_END
  0
ENDSEC
  0
EOF
