  0
SECTION
  2
HEADER
  9
$ACADVER
  1
AC1021
  9
$ACADMAINTVER
 70
    25
  9
$DWGCODEPAGE
  3
ANSI_932
  9
$LASTSAVEDBY
  1
howeNelson
  9
$INSBASE
 10
0.0
 20
0.0
 30
0.0
  9
$EXTMIN
 10
0.0
 20
0.0
 30
0.0
  9
$EXTMAX
 10
593.9999999999999
 20
420.0
 30
0.0
  9
$LIMMIN
 10
0.0
 20
0.0
  9
$LIMMAX
 10
593.9999999999999
 20
420.0
  9
$ORTHOMODE
 70
     0
  9
$REGENMODE
 70
     1
  9
$FILLMODE
 70
     1
  9
$QTEXTMODE
 70
     0
  9
$MIRRTEXT
 70
     1
  9
$LTSCALE
 40
0.5
  9
$ATTMODE
 70
     1
  9
$TEXTSIZE
 40
2.5
  9
$TRACEWID
 40
1.0
  9
$TEXTSTYLE
  7
ＭＳ ゴシック
  9
$CLAYER
  8
HIDDEN
  9
$CELTYPE
  6
ByLayer
  9
$CECOLOR
 62
   256
  9
$CELTSCALE
 40
1.0
  9
$DISPSILH
 70
     0
  9
$DIMSCALE
 40
1.0
  9
$DIMASZ
 40
2.0
  9
$DIMEXO
 40
5.0
  9
$DIMDLI
 40
0.9999999999999999
  9
$DIMRND
 40
0.0
  9
$DIMDLE
 40
0.0
  9
$DIMEXE
 40
0.0
  9
$DIMTP
 40
0.0
  9
$DIMTM
 40
0.0
  9
$DIMTXT
 40
5.0
  9
$DIMCEN
 40
0.0
  9
$DIMTSZ
 40
0.0
  9
$DIMTOL
 70
     0
  9
$DIMLIM
 70
     0
  9
$DIMTIH
 70
     0
  9
$DIMTOH
 70
     0
  9
$DIMSE1
 70
     0
  9
$DIMSE2
 70
     0
  9
$DIMTAD
 70
     1
  9
$DIMZIN
 70
    11
  9
$DIMBLK
  1
DOT
  9
$DIMASO
 70
     1
  9
$DIMSHO
 70
     1
  9
$DIMPOST
  1
<>
  9
$DIMAPOST
  1
[]
  9
$DIMALT
 70
     0
  9
$DIMALTD
 70
     1
  9
$DIMALTF
 40
1.0
  9
$DIMLFAC
 40
1.0
  9
$DIMTOFL
 70
     0
  9
$DIMTVP
 40
0.0
  9
$DIMTIX
 70
     1
  9
$DIMSOXD
 70
     0
  9
$DIMSAH
 70
     0
  9
$DIMBLK1
  1

  9
$DIMBLK2
  1

  9
$DIMSTYLE
  2
tfrom線あり
  9
$DIMCLRD
 70
     0
  9
$DIMCLRE
 70
     0
  9
$DIMCLRT
 70
     0
  9
$DIMTFAC
 40
1.0
  9
$DIMGAP
 40
2.0
  9
$DIMJUST
 70
     0
  9
$DIMSD1
 70
     0
  9
$DIMSD2
 70
     0
  9
$DIMTOLJ
 70
     1
  9
$DIMTZIN
 70
    11
  9
$DIMALTZ
 70
    11
  9
$DIMALTTZ
 70
    11
  9
$DIMUPT
 70
     0
  9
$DIMDEC
 70
     0
  9
$DIMTDEC
 70
     1
  9
$DIMALTU
 70
     2
  9
$DIMALTTD
 70
     2
  9
$DIMTXSTY
  7
ＭＳ ゴシック
  9
$DIMAUNIT
 70
     0
  9
$DIMADEC
 70
     2
  9
$DIMALTRND
 40
0.0
  9
$DIMAZIN
 70
     0
  9
$DIMDSEP
 70
    46
  9
$DIMATFIT
 70
     0
  9
$DIMFRAC
 70
     2
  9
$DIMLDRBLK
  1
DOT
  9
$DIMLUNIT
 70
     2
  9
$DIMLWD
 70
    -2
  9
$DIMLWE
 70
    -2
  9
$DIMTMOVE
 70
     0
  9
$DIMFXL
 40
1.0
  9
$DIMFXLON
 70
     0
  9
$DIMJOGANG
 40
0.7853981633974483
  9
$DIMTFILL
 70
     0
  9
$DIMTFILLCLR
 70
     0
  9
$DIMARCSYM
 70
     0
  9
$DIMLTYPE
  6

  9
$DIMLTEX1
  6

  9
$DIMLTEX2
  6

  9
$LUNITS
 70
     2
  9
$LUPREC
 70
     0
  9
$SKETCHINC
 40
0.1
  9
$FILLETRAD
 40
2.0
  9
$AUNITS
 70
     0
  9
$AUPREC
 70
     0
  9
$MENU
  1
acad
  9
$ELEVATION
 40
0.0
  9
$PELEVATION
 40
0.0
  9
$THICKNESS
 40
0.0
  9
$LIMCHECK
 70
     0
  9
$CHAMFERA
 40
0.0
  9
$CHAMFERB
 40
0.0
  9
$CHAMFERC
 40
0.0
  9
$CHAMFERD
 40
0.0
  9
$SKPOLY
 70
     0
  9
$TDCREATE
 40
2447893.375
  9
$TDUCREATE
 40
0.0
  9
$TDUPDATE
 40
2458431.709088576
  9
$TDUUPDATE
 40
2458431.334088576
  9
$TDINDWG
 40
0.0
  9
$TDUSRTIMER
 40
0.0
  9
$USRTIMER
 70
     1
  9
$ANGBASE
 50
0.0
  9
$ANGDIR
 70
     0
  9
$PDMODE
 70
     1
  9
$PDSIZE
 40
-2.0
  9
$PLINEWID
 40
0.0
  9
$SPLFRAME
 70
     0
  9
$SPLINETYPE
 70
     6
  9
$SPLINESEGS
 70
     8
  9
$HANDSEED
  5
70CB
  9
$SURFTAB1
 70
     6
  9
$SURFTAB2
 70
     6
  9
$SURFTYPE
 70
     6
  9
$SURFU
 70
     6
  9
$SURFV
 70
     6
  9
$UCSBASE
  2

  9
$UCSNAME
  2

  9
$UCSORG
 10
0.0
 20
0.0
 30
0.0
  9
$UCSXDIR
 10
1.0
 20
0.0
 30
0.0
  9
$UCSYDIR
 10
0.0
 20
1.0
 30
0.0
  9
$UCSORTHOREF
  2

  9
$UCSORTHOVIEW
 70
     0
  9
$UCSORGTOP
 10
0.0
 20
0.0
 30
0.0
  9
$UCSORGBOTTOM
 10
0.0
 20
0.0
 30
0.0
  9
$UCSORGLEFT
 10
0.0
 20
0.0
 30
0.0
  9
$UCSORGRIGHT
 10
0.0
 20
0.0
 30
0.0
  9
$UCSORGFRONT
 10
0.0
 20
0.0
 30
0.0
  9
$UCSORGBACK
 10
0.0
 20
0.0
 30
0.0
  9
$PUCSBASE
  2

  9
$PUCSNAME
  2

  9
$PUCSORG
 10
0.0
 20
0.0
 30
0.0
  9
$PUCSXDIR
 10
1.0
 20
0.0
 30
0.0
  9
$PUCSYDIR
 10
0.0
 20
1.0
 30
0.0
  9
$PUCSORTHOREF
  2

  9
$PUCSORTHOVIEW
 70
     0
  9
$PUCSORGTOP
 10
0.0
 20
0.0
 30
0.0
  9
$PUCSORGBOTTOM
 10
0.0
 20
0.0
 30
0.0
  9
$PUCSORGLEFT
 10
0.0
 20
0.0
 30
0.0
  9
$PUCSORGRIGHT
 10
0.0
 20
0.0
 30
0.0
  9
$PUCSORGFRONT
 10
0.0
 20
0.0
 30
0.0
  9
$PUCSORGBACK
 10
0.0
 20
0.0
 30
0.0
  9
$USERI1
 70
     0
  9
$USERI2
 70
     0
  9
$USERI3
 70
     0
  9
$USERI4
 70
     0
  9
$USERI5
 70
     0
  9
$USERR1
 40
0.0
  9
$USERR2
 40
0.0
  9
$USERR3
 40
0.0
  9
$USERR4
 40
0.0
  9
$USERR5
 40
0.0
  9
$WORLDVIEW
 70
     1
  9
$SHADEDGE
 70
     3
  9
$SHADEDIF
 70
    70
  9
$TILEMODE
 70
     1
  9
$MAXACTVP
 70
    64
  9
$PINSBASE
 10
0.0
 20
0.0
 30
0.0
  9
$PLIMCHECK
 70
     0
  9
$PEXTMIN
 10
0.0
 20
0.0
 30
0.0
  9
$PEXTMAX
 10
0.0
 20
0.0
 30
0.0
  9
$PLIMMIN
 10
-7.5
 20
-20.0
  9
$PLIMMAX
 10
412.5
 20
277.0
  9
$UNITMODE
 70
     0
  9
$VISRETAIN
 70
     0
  9
$PLINEGEN
 70
     1
  9
$PSLTSCALE
 70
     0
  9
$TREEDEPTH
 70
  3020
  9
$CMLSTYLE
  2
Standard
  9
$CMLJUST
 70
     0
  9
$CMLSCALE
 40
1.0
  9
$PROXYGRAPHICS
 70
     0
  9
$MEASUREMENT
 70
     1
  9
$CELWEIGHT
370
    -1
  9
$ENDCAPS
280
     0
  9
$JOINSTYLE
280
     0
  9
$LWDISPLAY
290
     1
  9
$INSUNITS
 70
     4
  9
$HYPERLINKBASE
  1

  9
$STYLESHEET
  1

  9
$XEDIT
290
     1
  9
$CEPSNTYPE
380
     0
  9
$PSTYLEMODE
290
     1
  9
$FINGERPRINTGUID
  2

  9
$VERSIONGUID
  2

  9
$EXTNAMES
290
     1
  9
$PSVPSCALE
 40
0.0
  9
$OLESTARTUP
290
     0
  9
$SORTENTS
280
   127
  9
$INDEXCTL
280
     0
  9
$HIDETEXT
280
     1
  9
$XCLIPFRAME
290
     0
  9
$HALOGAP
280
     0
  9
$OBSCOLOR
 70
   257
  9
$OBSLTYPE
280
     0
  9
$INTERSECTIONDISPLAY
280
     0
  9
$INTERSECTIONCOLOR
 70
   257
  9
$DIMASSOC
280
     2
  9
$PROJECTNAME
  1

  9
$CAMERADISPLAY
290
     0
  9
$LENSLENGTH
 40
50.0
  9
$CAMERAHEIGHT
 40
0.0
  9
$STEPSPERSEC
 40
2.0
  9
$STEPSIZE
 40
6.0
  9
$3DDWFPREC
 40
2.0
  9
$PSOLWIDTH
 40
0.25
  9
$PSOLHEIGHT
 40
4.0
  9
$LOFTANG1
 40
1.570796326794897
  9
$LOFTANG2
 40
1.570796326794897
  9
$LOFTMAG1
 40
0.0
  9
$LOFTMAG2
 40
0.0
  9
$LOFTPARAM
 70
     7
  9
$LOFTNORMALS
280
     1
  9
$LATITUDE
 40
37.795
  9
$LONGITUDE
 40
-122.394
  9
$NORTHDIRECTION
 40
0.0
  9
$TIMEZONE
 70
 -8000
  9
$LIGHTGLYPHDISPLAY
280
     1
  9
$TILEMODELIGHTSYNCH
280
     1
  9
$SOLIDHIST
280
     1
  9
$SHOWHIST
280
     1
  9
$DWFFRAME
280
     2
  9
$DGNFRAME
280
     2
  9
$REALWORLDSCALE
290
     1
  9
$INTERFERECOLOR
 62
   256
  9
$CSHADOW
280
     0
  9
$SHADOWPLANELOCATION
 40
0.0
  0
ENDSEC
  0
SECTION
  2
CLASSES
  0
CLASS
  1
LWPOLYLINE
  2
AcDbPolyline
  3
ObjectDBX Classes
 90
        0
 91
        1
280
     0
281
     1
  0
CLASS
  1
IMAGE
  2
AcDbRasterImage
  3
ISM
 90
      127
 91
       32
280
     0
281
     1
  0
CLASS
  1
OLE2FRAME
  2
AcDbOle2Frame
  3
ObjectDBX Classes
 90
        0
 91
        1
280
     0
281
     1
  0
CLASS
  1
HATCH
  2
AcDbHatch
  3
ObjectDBX Classes
 90
        0
 91
        1
280
     0
281
     1
  0
CLASS
  1
DICTIONARYVAR
  2
AcDbDictionaryVar
  3
ObjectDBX Classes
 90
        0
 91
       31
280
     0
281
     0
  0
CLASS
  1
RASTERVARIABLES
  2
AcDbRasterVariables
  3
ISM
 90
        0
 91
       31
280
     0
281
     0
  0
CLASS
  1
IMAGEDEF
  2
AcDbRasterImageDef
  3
ISM
 90
        0
 91
       31
280
     0
281
     0
  0
CLASS
  1
IMAGEDEF_REACTOR
  2
AcDbRasterImageDefReactor
  3
ISM
 90
        1
 91
       31
280
     0
281
     0
  0
CLASS
  1
IDBUFFER
  2
AcDbIdBuffer
  3
ObjectDBX Classes
 90
        0
 91
       31
280
     0
281
     0
  0
CLASS
  1
SPATIAL_FILTER
  2
AcDbSpatialFilter
  3
ObjectDBX Classes
 90
        0
 91
       31
280
     0
281
     0
  0
CLASS
  1
XRECORD
  2
AcDbXrecord
  3
ObjectDBX Classes
 90
        0
 91
        1
280
     0
281
     0
  0
CLASS
  1
SORTENTSTABLE
  2
AcDbSortentsTable
  3
ObjectDBX Classes
 90
        0
 91
       31
280
     0
281
     0
  0
CLASS
  1
LAYER_INDEX
  2
AcDbLayerIndex
  3
ObjectDBX Classes
 90
        0
 91
       31
280
     0
281
     0
  0
CLASS
  1
SPATIAL_INDEX
  2
AcDbSpatialIndex
  3
AutoCAD 2000
 90
        0
 91
       31
280
     0
281
     0
  0
CLASS
  1
OBJECT_PTR
  2
CAseDLPNTableRecord
  3
ASE-LPNTableRecord
 90
        1
 91
       31
280
     0
281
     0
  0
CLASS
  1
LAYOUT
  2
AcDbLayout
  3
ObjectDBX Classes
 90
        0
 91
        1
280
     0
281
     0
  0
CLASS
  1
PLOTSETTINGS
  2
AcDbPlotSettings
  3
ObjectDBX Classes
 90
        0
 91
       31
280
     0
281
     0
  0
CLASS
  1
ACDBDICTIONARYWDFLT
  2
AcDbDictionaryWithDefault
  3
ObjectDBX Classes
 90
        0
 91
       31
280
     0
281
     0
  0
CLASS
  1
ACDBPLACEHOLDER
  2
AcDbPlaceHolder
  3
ObjectDBX Classes
 90
        0
 91
        1
280
     0
281
     0
  0
CLASS
  1
SCALE
  2
AcDbScale
  3
ObjectDBX Classes
 90
     1153
 91
       31
280
     0
281
     0
  0
CLASS
  1
MATERIAL
  2
AcDbMaterial
  3
ObjectDBX Classes
 90
     1153
 91
       31
280
     0
281
     0
  0
CLASS
  1
VISUALSTYLE
  2
AcDbVisualStyle
  3
ObjectDBX Classes
 90
     4095
 91
       31
280
     0
281
     0
  0
CLASS
  1
TABLESTYLE
  2
AcDbTableStyle
  3
ObjectDBX Classes
 90
     4095
 91
       31
280
     0
281
     0
  0
CLASS
  1
DIMASSOC
  2
AcDbDimAssoc
  3
"AcDbDimAssoc|Product Desc:     AcDim ARX App For Dimension|Company:          Autodesk, Inc.|WEB Address:      www.autodesk.com"
 90
        0
 91
       31
280
     0
281
     0
  0
CLASS
  1
CELLSTYLEMAP
  2
AcDbCellStyleMap
  3
ObjectDBX Classes
 90
     1152
 91
       31
280
     0
281
     0
  0
CLASS
  1
SUN
  2
AcDbSun
  3
SCENEOE
 90
     1153
 91
       31
280
     0
281
     0
  0
CLASS
  1
MLEADERSTYLE
  2
AcDbMLeaderStyle
  3
ACDB_MLEADERSTYLE_CLASS
 90
     4095
 91
       31
280
     0
281
     0
  0
CLASS
  1
FIELD
  2
AcDbField
  3
ObjectDBX Classes
 90
     1152
 91
       31
280
     0
281
     0
  0
CLASS
  1
FIELDLIST
  2
AcDbFieldList
  3
ObjectDBX Classes
 90
     1152
 91
       31
280
     0
281
     0
  0
ENDSEC
  0
SECTION
  2
TABLES
  0
TABLE
  2
VPORT
  5
7
330
0
100
AcDbSymbolTable
 70
     1
  0
VPORT
  5
15
330
7
100
AcDbSymbolTableRecord
100
AcDbViewportTableRecord
  2
*ACTIVE
 70
     0
 10
0.0
 20
0.0
 11
1.0
 21
1.0
 12
296.9999999999999
 22
210.0
 13
0.0
 23
0.0
 14
1.0
 24
1.0
 15
0.0
 25
0.0
 16
0.0
 26
0.0
 36
1.0
 17
0.0
 27
0.0
 37
0.0
 40
428.4
 41
2.419452887537993
 42
50.0
 43
0.0
 44
0.0
 50
0.0
 51
0.0
 71
    16
 72
  2000
 73
     1
 74
     1
 75
     0
 76
     0
 77
     0
 78
     0
281
     0
 65
     1
110
0.0
120
0.0
130
0.0
111
1.0
121
0.0
131
0.0
112
0.0
122
1.0
132
0.0
 79
     0
146
0.0
348
26C
 60
     3
 61
     5
292
     1
282
     1
141
0.0
142
0.0
 63
   256
361
10E8
  0
ENDTAB
  0
TABLE
  2
LTYPE
  5
4
330
0
100
AcDbSymbolTable
 70
     3
  0
LTYPE
  5
11
330
4
100
AcDbSymbolTableRecord
100
AcDbLinetypeTableRecord
  2
ByBlock
 70
     0
  3

 72
    65
 73
     0
 40
0.0
  0
LTYPE
  5
12
330
4
100
AcDbSymbolTableRecord
100
AcDbLinetypeTableRecord
  2
ByLayer
 70
     0
  3
Solid line
 72
    65
 73
     0
 40
0.0
  0
LTYPE
  5
13
330
4
100
AcDbSymbolTableRecord
100
AcDbLinetypeTableRecord
  2
Continuous
 70
     0
  3
Solid line
 72
    65
 73
     0
 40
0.0
  0
LTYPE
  5
88D
330
4
100
AcDbSymbolTableRecord
100
AcDbLinetypeTableRecord
  2
CENTER
 70
     0
  3
----------  --  ----------  --  
 72
    65
 73
     4
 40
20.0
 49
12.5
 74
     0
 49
-2.5
 74
     0
 49
2.5
 74
     0
 49
-2.5
 74
     0
  0
LTYPE
  5
12C7
330
4
100
AcDbSymbolTableRecord
100
AcDbLinetypeTableRecord
  2
HIDDEN
 70
     0
  3
Hidden _ _ _ _ _ _ _ _ _ _ _ _ _ _ _ _ _ _ _ _ 
 72
    65
 73
     2
 40
9.524999999999999
 49
6.35
 74
     0
 49
-3.175
 74
     0
  0
ENDTAB
  0
TABLE
  2
LAYER
  5
2
102
{ACAD_XDICTIONARY
360
2E1
102
}
330
0
100
AcDbSymbolTable
 70
    10
  0
LAYER
  5
14
330
2
100
AcDbSymbolTableRecord
100
AcDbLayerTableRecord
  2
0
 70
     0
 62
     7
  6
Continuous
370
    -3
390
1D
347
266
  0
LAYER
  5
4A
330
2
100
AcDbSymbolTableRecord
100
AcDbLayerTableRecord
  2
Defpoints
 70
     0
 62
     7
  6
Continuous
290
     0
370
    -3
390
1D
347
266
  0
LAYER
  5
12CE
330
2
100
AcDbSymbolTableRecord
100
AcDbLayerTableRecord
  2
寸法
 70
     0
 62
     7
  6
Continuous
370
    13
390
1D
347
266
1001
AcAecLayerStandard
1000

1000

  0
LAYER
  5
12CF
330
2
100
AcDbSymbolTableRecord
100
AcDbLayerTableRecord
  2
モデル
 70
     0
 62
     7
  6
Continuous
370
    20
390
1D
347
266
1001
AcAecLayerStandard
1000

1000

  0
LAYER
  5
142A
330
2
100
AcDbSymbolTableRecord
100
AcDbLayerTableRecord
  2
テンプレート
 70
     0
 62
     7
  6
Continuous
370
    20
390
1D
347
266
1001
AcAecLayerStandard
1000

1000

  0
LAYER
  5
1D5C
330
2
100
AcDbSymbolTableRecord
100
AcDbLayerTableRecord
  2
TFORMLOGO
 70
     0
 62
     7
  6
Continuous
370
    20
390
1D
347
266
  0
LAYER
  5
3848
330
2
100
AcDbSymbolTableRecord
100
AcDbLayerTableRecord
  2
PRINT BORDER
 70
     0
 62
     4
  6
Continuous
290
     0
370
    -3
390
1D
347
266
1001
AcAecLayerStandard
1000

1000

  0
LAYER
  5
3E88
330
2
100
AcDbSymbolTableRecord
100
AcDbLayerTableRecord
  2
CutoutOverlay
 70
     0
 62
     7
  6
Continuous
370
    20
390
1D
347
266
1001
AcAecLayerStandard
1000

1000

  0
LAYER
  5
3E89
330
2
100
AcDbSymbolTableRecord
100
AcDbLayerTableRecord
  2
CutoutUnderlay
 70
     0
 62
   254
  6
Continuous
370
    20
390
1D
347
266
1001
AcAecLayerStandard
1000

1000

  0
LAYER
  5
56DF
330
2
100
AcDbSymbolTableRecord
100
AcDbLayerTableRecord
  2
HIDDEN
 70
     0
 62
   252
  6
HIDDEN
370
    20
390
1D
347
266
1001
AcAecLayerStandard
1000

1000

  0
ENDTAB
  0
TABLE
  2
STYLE
  5
3
330
0
100
AcDbSymbolTable
 70
     2
  0
STYLE
  5
17
330
3
100
AcDbSymbolTableRecord
100
AcDbTextStyleTableRecord
  2
Standard
 70
     0
 40
0.0
 41
1.0
 50
0.0
 71
     0
 42
2.5
  3
txt
  4
BIGFONT.SHX
  0
STYLE
  5
39
330
3
100
AcDbSymbolTableRecord
100
AcDbTextStyleTableRecord
  2
ＭＳ ゴシック
 70
     0
 40
0.0
 41
1.0
 50
0.0
 71
     0
 42
2.5
  3
msgothic.ttc
  4
ＭＳ ゴシック
1001
ACAD
1000
ＭＳ ゴシック
1071
        0
  0
ENDTAB
  0
TABLE
  2
VIEW
  5
5
330
0
100
AcDbSymbolTable
 70
     0
  0
ENDTAB
  0
TABLE
  2
UCS
  5
6
330
0
100
AcDbSymbolTable
 70
     0
  0
ENDTAB
  0
TABLE
  2
APPID
  5
8
330
0
100
AcDbSymbolTable
 70
     4
  0
APPID
  5
16
330
8
100
AcDbSymbolTableRecord
100
AcDbRegAppTableRecord
  2
ACAD
 70
     0
  0
APPID
  5
7AC
330
8
100
AcDbSymbolTableRecord
100
AcDbRegAppTableRecord
  2
AcAecLayerStandard
 70
     0
  0
APPID
  5
415F
330
8
100
AcDbSymbolTableRecord
100
AcDbRegAppTableRecord
  2
ACAD_MLEADERVER
 70
     0
  0
APPID
  5
663B
330
8
100
AcDbSymbolTableRecord
100
AcDbRegAppTableRecord
  2
ACAD_DSTYLE_DIMRADIAL_EXTENSION
 70
     0
  0
ENDTAB
  0
TABLE
  2
DIMSTYLE
  5
9
330
0
100
AcDbSymbolTable
 70
     2
100
AcDbDimStyleTable
  0
DIMSTYLE
105
18
330
9
100
AcDbSymbolTableRecord
100
AcDbDimStyleTableRecord
  2
Standard
 70
     0
178
     0
340
17
  0
DIMSTYLE
105
57
102
{ACAD_REACTORS
330
62E5
330
62E6
330
62E9
330
62ED
330
62EE
330
69C5
330
69E1
330
69F1
330
69FE
330
6A98
330
6B4D
330
708B
330
70A4
102
}
330
9
100
AcDbSymbolTableRecord
100
AcDbDimStyleTableRecord
  2
tfrom線あり
 70
     0
  3
<>
  4
[]
 41
2.0
 42
5.0
 43
0.9999999999999999
 44
0.0
 73
     0
 74
     0
 77
     1
 78
    11
140
5.0
141
0.0
143
1.0
147
2.0
171
     1
174
     1
178
     0
179
     2
271
     0
272
     1
276
     2
284
    11
285
    11
286
    11
289
     0
340
39
341
4E
342
4E
  0
ENDTAB
  0
TABLE
  2
BLOCK_RECORD
  5
1
330
0
100
AcDbSymbolTable
 70
    19
  0
BLOCK_RECORD
  5
A
102
{ACAD_XDICTIONARY
360
5382
102
}
330
1
100
AcDbSymbolTableRecord
100
AcDbBlockTableRecord
  2
*MODEL_SPACE
340
20
 70
     0
280
     1
281
     0
  0
BLOCK_RECORD
  5
B
330
1
100
AcDbSymbolTableRecord
100
AcDbBlockTableRecord
  2
*PAPER_SPACE
340
21
 70
     0
280
     1
281
     0
  0
BLOCK_RECORD
  5
4E
330
1
100
AcDbSymbolTableRecord
100
AcDbBlockTableRecord
  2
_DOT
340
0
102
{BLKREFS
331
62F9
331
62FA
331
6305
331
6306
331
6311
331
6312
331
69CC
331
69CD
331
69EA
331
69EB
331
69F8
331
69F9
331
6A07
331
6A08
331
6AA1
331
6AA2
331
6B56
331
6B57
331
7092
331
7093
331
70AD
331
70AE
102
}
 70
     0
280
     1
281
     0
  0
BLOCK_RECORD
  5
12C3
330
1
100
AcDbSymbolTableRecord
100
AcDbBlockTableRecord
  2
*Paper_Space1
340
12C4
 70
     0
280
     1
281
     0
  0
BLOCK_RECORD
  5
1D88
330
1
100
AcDbSymbolTableRecord
100
AcDbBlockTableRecord
  2
名称未設定-1
340
0
102
{BLKREFS
331
5E5F
102
}
 70
     1
280
     1
281
     0
  0
BLOCK_RECORD
  5
1D8B
330
1
100
AcDbSymbolTableRecord
100
AcDbBlockTableRecord
  2
block 2
340
0
102
{BLKREFS
331
1D8A
102
}
 70
     0
280
     1
281
     0
  0
BLOCK_RECORD
  5
1D8E
330
1
100
AcDbSymbolTableRecord
100
AcDbBlockTableRecord
  2
block 3
340
0
102
{BLKREFS
331
1D8D
102
}
 70
     0
280
     1
281
     0
  0
BLOCK_RECORD
  5
1D91
330
1
100
AcDbSymbolTableRecord
100
AcDbBlockTableRecord
  2
block 4
340
0
102
{BLKREFS
331
1D90
102
}
 70
     0
280
     1
281
     0
  0
BLOCK_RECORD
  5
1DA0
330
1
100
AcDbSymbolTableRecord
100
AcDbBlockTableRecord
  2
block 5
340
0
102
{BLKREFS
331
1D9F
102
}
 70
     0
280
     1
281
     0
  0
BLOCK_RECORD
  5
4163
330
1
100
AcDbSymbolTableRecord
100
AcDbBlockTableRecord
  2
_NONE
340
0
 70
     0
280
     1
281
     0
  0
BLOCK_RECORD
  5
62F1
330
1
100
AcDbSymbolTableRecord
100
AcDbBlockTableRecord
  2
*D8
340
0
 70
     0
280
     1
281
     0
  0
BLOCK_RECORD
  5
62FF
330
1
100
AcDbSymbolTableRecord
100
AcDbBlockTableRecord
  2
*D9
340
0
 70
     0
280
     1
281
     0
  0
BLOCK_RECORD
  5
630B
330
1
100
AcDbSymbolTableRecord
100
AcDbBlockTableRecord
  2
*D10
340
0
 70
     0
280
     1
281
     0
  0
BLOCK_RECORD
  5
69C6
330
1
100
AcDbSymbolTableRecord
100
AcDbBlockTableRecord
  2
*D11
340
0
 70
     0
280
     1
281
     0
  0
BLOCK_RECORD
  5
69E4
330
1
100
AcDbSymbolTableRecord
100
AcDbBlockTableRecord
  2
*D12
340
0
 70
     0
280
     1
281
     0
  0
BLOCK_RECORD
  5
69F2
330
1
100
AcDbSymbolTableRecord
100
AcDbBlockTableRecord
  2
*D13
340
0
 70
     0
280
     1
281
     0
  0
BLOCK_RECORD
  5
6A01
330
1
100
AcDbSymbolTableRecord
100
AcDbBlockTableRecord
  2
*D14
340
0
 70
     0
280
     1
281
     0
  0
BLOCK_RECORD
  5
6A9B
330
1
100
AcDbSymbolTableRecord
100
AcDbBlockTableRecord
  2
*D15
340
0
 70
     0
280
     1
281
     0
  0
BLOCK_RECORD
  5
6B50
330
1
100
AcDbSymbolTableRecord
100
AcDbBlockTableRecord
  2
*D16
340
0
 70
     0
280
     1
281
     0
  0
BLOCK_RECORD
  5
708C
330
1
100
AcDbSymbolTableRecord
100
AcDbBlockTableRecord
  2
*D17
340
0
 70
     0
280
     1
281
     0
  0
BLOCK_RECORD
  5
70A7
330
1
100
AcDbSymbolTableRecord
100
AcDbBlockTableRecord
  2
*D18
340
0
 70
     0
280
     1
281
     0
  0
ENDTAB
  0
ENDSEC
  0
SECTION
  2
BLOCKS
  0
BLOCK
  5
D
330
A
100
AcDbEntity
  8
0
390
1D
100
AcDbBlockBegin
  2
*MODEL_SPACE
 70
     0
 10
0.0
 20
0.0
 30
0.0
  3
*MODEL_SPACE
  1
*MODEL_SPACE
  0
ENDBLK
  5
E
330
A
100
AcDbEntity
  8
0
390
1D
100
AcDbBlockEnd
  0
BLOCK
  5
F
330
B
100
AcDbEntity
 67
     1
  8
0
390
1D
100
AcDbBlockBegin
  2
*PAPER_SPACE
 70
     0
 10
0.0
 20
0.0
 30
0.0
  3
*PAPER_SPACE
  1
*PAPER_SPACE
  0
ENDBLK
  5
10
330
B
100
AcDbEntity
 67
     1
  8
0
390
1D
100
AcDbBlockEnd
  0
BLOCK
  5
544B
330
4E
100
AcDbEntity
  8
0
390
1D
100
AcDbBlockBegin
  2
_DOT
 70
     0
 10
0.0
 20
0.0
 30
0.0
  3
_DOT
  1
_DOT
  0
POLYLINE
  5
544D
330
4E
100
AcDbEntity
  8
0
  6
ByBlock
 62
     0
370
    -2
390
1D
100
AcDb2dPolyline
 66
     1
 10
0.0
 20
0.0
 30
0.0
 70
     1
 40
0.5
 41
0.5
  0
VERTEX
  5
544E
330
544D
100
AcDbEntity
  8
0
  6
ByBlock
 62
     0
370
    -2
390
1D
100
AcDbVertex
100
AcDb2dVertex
 10
-0.25
 20
0.0
 30
0.0
 42
1.0
  0
VERTEX
  5
544F
330
544D
100
AcDbEntity
  8
0
  6
ByBlock
 62
     0
370
    -2
390
1D
100
AcDbVertex
100
AcDb2dVertex
 10
0.25
 20
0.0
 30
0.0
 42
1.0
  0
SEQEND
  5
5450
330
544D
100
AcDbEntity
  8
0
390
1D
  0
LINE
  5
5451
330
4E
100
AcDbEntity
  8
0
  6
ByBlock
 62
     0
370
    -2
390
1D
100
AcDbLine
 10
-0.5
 20
0.0
 30
0.0
 11
-1.0
 21
0.0
 31
0.0
  0
ENDBLK
  5
5452
330
4E
100
AcDbEntity
  8
0
390
1D
100
AcDbBlockEnd
  0
BLOCK
  5
12C5
330
12C3
100
AcDbEntity
  8
0
100
AcDbBlockBegin
  2
*Paper_Space1
 70
     0
 10
0.0
 20
0.0
 30
0.0
  3
*Paper_Space1
  1
*Paper_Space83
  0
ENDBLK
  5
12C6
330
12C3
100
AcDbEntity
  8
0
100
AcDbBlockEnd
  0
BLOCK
  5
1D89
330
1D88
100
AcDbEntity
  8
0
100
AcDbBlockBegin
  2
名称未設定-1
 70
     0
 10
0.0
 20
0.0
 30
0.0
  3
名称未設定-1
  1
名称未設定-1
  0
INSERT
  5
1D8A
330
1D88
100
AcDbEntity
  8
TFORMLOGO
100
AcDbBlockReference
  2
block 2
 10
0.0
 20
0.0
 30
0.0
  0
ENDBLK
  5
1DAF
330
1D88
100
AcDbEntity
  8
0
100
AcDbBlockEnd
  0
BLOCK
  5
1D8C
330
1D8B
100
AcDbEntity
  8
0
100
AcDbBlockBegin
  2
block 2
 70
     0
 10
0.0
 20
0.0
 30
0.0
  3
block 2
  1
block 2
  0
INSERT
  5
1D8D
330
1D8B
100
AcDbEntity
  8
TFORMLOGO
100
AcDbBlockReference
  2
block 3
 10
0.0
 20
0.0
 30
0.0
  0
ENDBLK
  5
1DAE
330
1D8B
100
AcDbEntity
  8
0
100
AcDbBlockEnd
  0
BLOCK
  5
1D8F
330
1D8E
100
AcDbEntity
  8
0
100
AcDbBlockBegin
  2
block 3
 70
     0
 10
0.0
 20
0.0
 30
0.0
  3
block 3
  1
block 3
  0
INSERT
  5
1D90
330
1D8E
100
AcDbEntity
  8
TFORMLOGO
100
AcDbBlockReference
  2
block 4
 10
0.0
 20
0.0
 30
0.0
  0
ENDBLK
  5
1DAD
330
1D8E
100
AcDbEntity
  8
0
100
AcDbBlockEnd
  0
BLOCK
  5
1D92
330
1D91
100
AcDbEntity
  8
0
100
AcDbBlockBegin
  2
block 4
 70
     0
 10
0.0
 20
0.0
 30
0.0
  3
block 4
  1
block 4
  0
POLYLINE
  5
1D93
330
1D91
100
AcDbEntity
  8
TFORMLOGO
370
     0
100
AcDb2dPolyline
 66
     1
 10
0.0
 20
0.0
 30
0.0
  0
VERTEX
  5
1D94
330
1D93
100
AcDbEntity
  8
TFORMLOGO
370
     0
100
AcDbVertex
100
AcDb2dVertex
 10
83.79545727667795
 20
167.6444858234922
 30
0.0
  0
VERTEX
  5
1D95
330
1D93
100
AcDbEntity
  8
TFORMLOGO
370
     0
100
AcDbVertex
100
AcDb2dVertex
 10
83.79545727667795
 20
159.7968976406313
 30
0.0
  0
VERTEX
  5
1D96
330
1D93
100
AcDbEntity
  8
TFORMLOGO
370
     0
100
AcDbVertex
100
AcDb2dVertex
 10
71.3631329975216
 20
159.7968976406313
 30
0.0
  0
VERTEX
  5
1D97
330
1D93
100
AcDbEntity
  8
TFORMLOGO
370
     0
100
AcDbVertex
100
AcDb2dVertex
 10
71.3631329975216
 20
127.8027915271048
 30
0.0
  0
VERTEX
  5
1D98
330
1D93
100
AcDbEntity
  8
TFORMLOGO
370
     0
100
AcDbVertex
100
AcDb2dVertex
 10
60.43011526263018
 20
127.8027915271048
 30
0.0
  0
VERTEX
  5
1D99
330
1D93
100
AcDbEntity
  8
TFORMLOGO
370
     0
100
AcDbVertex
100
AcDb2dVertex
 10
60.43011526263018
 20
159.7968976406313
 30
0.0
  0
VERTEX
  5
1D9A
330
1D93
100
AcDbEntity
  8
TFORMLOGO
370
     0
100
AcDbVertex
100
AcDb2dVertex
 10
48.21793273020759
 20
159.7968976406313
 30
0.0
  0
VERTEX
  5
1D9B
330
1D93
100
AcDbEntity
  8
TFORMLOGO
370
     0
100
AcDbVertex
100
AcDb2dVertex
 10
48.21793273020759
 20
167.6444858234922
 30
0.0
  0
VERTEX
  5
1D9C
330
1D93
100
AcDbEntity
  8
TFORMLOGO
370
     0
100
AcDbVertex
100
AcDb2dVertex
 10
83.79545727667795
 20
167.6444858234922
 30
0.0
  0
SEQEND
  5
1D9D
330
1D93
100
AcDbEntity
  8
TFORMLOGO
370
     0
  0
HATCH
  5
1D9E
330
1D91
100
AcDbEntity
  8
TFORMLOGO
 62
   250
420
  2234388
100
AcDbHatch
 10
0.0
 20
0.0
 30
0.0
210
0.0
220
0.0
230
1.0
  2
SOLID
 70
     1
 71
     0
 91
        1
 92
        1
 93
        8
 72
     1
 10
83.79545727667795
 20
167.6444858234922
 11
83.79545727667795
 21
159.7968976406313
 72
     1
 10
83.79545727667795
 20
159.7968976406313
 11
71.3631329975216
 21
159.7968976406313
 72
     1
 10
71.3631329975216
 20
159.7968976406313
 11
71.3631329975216
 21
127.8027915271048
 72
     1
 10
71.3631329975216
 20
127.8027915271048
 11
60.43011526263018
 21
127.8027915271048
 72
     1
 10
60.43011526263018
 20
127.8027915271048
 11
60.43011526263018
 21
159.7968976406313
 72
     1
 10
60.43011526263018
 20
159.7968976406313
 11
48.21793273020759
 21
159.7968976406313
 72
     1
 10
48.21793273020759
 20
159.7968976406313
 11
48.21793273020759
 21
167.6444858234922
 72
     1
 10
48.21793273020759
 20
167.6444858234922
 11
83.79545727667795
 21
167.6444858234922
 97
        0
 75
     2
 76
     1
 98
        0
  0
INSERT
  5
1D9F
330
1D91
100
AcDbEntity
  8
TFORMLOGO
100
AcDbBlockReference
  2
block 5
 10
0.0
 20
0.0
 30
0.0
  0
ENDBLK
  5
1DAC
330
1D91
100
AcDbEntity
  8
0
100
AcDbBlockEnd
  0
BLOCK
  5
1DA1
330
1DA0
100
AcDbEntity
  8
0
100
AcDbBlockBegin
  2
block 5
 70
     0
 10
0.0
 20
0.0
 30
0.0
  3
block 5
  1
block 5
  0
SPLINE
  5
1DA2
330
1DA0
100
AcDbEntity
  8
TFORMLOGO
370
     0
100
AcDbSpline
210
0.0
220
0.0
230
1.0
 70
    11
 71
     3
 72
    56
 73
    52
 74
     0
 42
0.000000001
 43
0.0000000001
 40
0.0
 40
0.0
 40
0.0
 40
0.0
 40
1.0
 40
1.0
 40
1.0
 40
2.0
 40
2.0
 40
2.0
 40
3.0
 40
3.0
 40
3.0
 40
4.0
 40
4.0
 40
4.0
 40
5.0
 40
5.0
 40
5.0
 40
6.0
 40
6.0
 40
6.0
 40
7.0
 40
7.0
 40
7.0
 40
8.0
 40
8.0
 40
8.0
 40
9.0
 40
9.0
 40
9.0
 40
10.0
 40
10.0
 40
10.0
 40
11.0
 40
11.0
 40
11.0
 40
12.0
 40
12.0
 40
12.0
 40
13.0
 40
13.0
 40
13.0
 40
14.0
 40
14.0
 40
14.0
 40
15.0
 40
15.0
 40
15.0
 40
16.0
 40
16.0
 40
16.0
 40
17.0
 40
17.0
 40
17.0
 40
17.0
 10
100.4504378777679
 20
166.69157178364
 30
0.0
 10
101.9848844191641
 20
167.1313385124438
 30
0.0
 10
103.9637485713373
 20
166.7649523658846
 30
0.0
 10
103.9637485713373
 20
166.7649523658846
 30
0.0
 10
103.9637485713373
 20
166.7649523658846
 30
0.0
 10
103.0132460999156
 20
163.911205638077
 30
0.0
 10
103.0132460999156
 20
163.911205638077
 30
0.0
 10
103.0132460999156
 20
163.911205638077
 30
0.0
 10
101.0674548862189
 20
164.3601018759394
 30
0.0
 10
99.57090442016032
 20
163.1805004036133
 30
0.0
 10
98.40508333886608
 20
162.258247733807
 30
0.0
 10
97.65301849830304
 20
159.804132345923
 30
0.0
 10
97.3598406791005
 20
158.8699940888517
 30
0.0
 10
97.3598406791005
 20
158.8699940888517
 30
0.0
 10
96.07137411762282
 20
154.9119212747295
 30
0.0
 10
96.07137411762282
 20
154.9119212747295
 30
0.0
 10
96.07137411762282
 20
154.9119212747295
 30
0.0
 10
100.3012651448482
 20
154.9119212747295
 30
0.0
 10
100.3012651448482
 20
154.9119212747295
 30
0.0
 10
100.3012651448482
 20
154.9119212747295
 30
0.0
 10
99.64152892419852
 20
152.4199098115079
 30
0.0
 10
99.64152892419852
 20
152.4199098115079
 30
0.0
 10
99.64152892419852
 20
152.4199098115079
 30
0.0
 10
95.38097652692731
 20
152.4199098115079
 30
0.0
 10
95.38097652692731
 20
152.4199098115079
 30
0.0
 10
95.38097652692731
 20
152.4199098115079
 30
0.0
 10
87.75353009080013
 20
127.8027915271048
 30
0.0
 10
87.75353009080013
 20
127.8027915271048
 30
0.0
 10
87.75353009080013
 20
127.8027915271048
 30
0.0
 10
85.36538832498108
 20
127.8027915271048
 30
0.0
 10
85.36538832498108
 20
127.8027915271048
 30
0.0
 10
85.36538832498108
 20
127.8027915271048
 30
0.0
 10
93.00006946639998
 20
152.4199098115079
 30
0.0
 10
93.00006946639998
 20
152.4199098115079
 30
0.0
 10
93.00006946639998
 20
152.4199098115079
 30
0.0
 10
89.85297266450198
 20
152.4199098115079
 30
0.0
 10
89.85297266450198
 20
152.4199098115079
 30
0.0
 10
89.85297266450198
 20
152.4199098115079
 30
0.0
 10
90.51270888515164
 20
154.9119212747295
 30
0.0
 10
90.51270888515164
 20
154.9119212747295
 30
0.0
 10
90.51270888515164
 20
154.9119212747295
 30
0.0
 10
93.6904670570955
 20
154.9119212747295
 30
0.0
 10
93.6904670570955
 20
154.9119212747295
 30
0.0
 10
93.6904670570955
 20
154.9119212747295
 30
0.0
 10
94.81598049462158
 20
158.3616699146644
 30
0.0
 10
94.81598049462158
 20
158.3616699146644
 30
0.0
 10
95.7237637538445
 20
161.2605474231013
 30
0.0
 10
96.4968436907311
 20
162.8139420021662
 30
0.0
 10
97.15657991138076
 20
163.9844139654337
 30
0.0
 10
97.81183750494507
 20
165.1523021053827
 30
0.0
 10
99.1047826935081
 20
166.3084769129547
 30
0.0
 10
100.4504378777679
 20
166.69157178364
 30
0.0
  0
HATCH
  5
1DA3
330
1DA0
100
AcDbEntity
  8
TFORMLOGO
 62
   250
420
  2234388
100
AcDbHatch
 10
0.0
 20
0.0
 30
0.0
210
0.0
220
0.0
230
1.0
  2
SOLID
 70
     1
 71
     0
 91
        1
 92
        1
 93
        1
 72
     4
 94
        3
 73
     0
 74
     1
 95
       56
 96
       52
 40
0.0
 40
0.0
 40
0.0
 40
0.0
 40
1.0
 40
1.0
 40
1.0
 40
2.0
 40
2.0
 40
2.0
 40
3.0
 40
3.0
 40
3.0
 40
4.0
 40
4.0
 40
4.0
 40
5.0
 40
5.0
 40
5.0
 40
6.0
 40
6.0
 40
6.0
 40
7.0
 40
7.0
 40
7.0
 40
8.0
 40
8.0
 40
8.0
 40
9.0
 40
9.0
 40
9.0
 40
10.0
 40
10.0
 40
10.0
 40
11.0
 40
11.0
 40
11.0
 40
12.0
 40
12.0
 40
12.0
 40
13.0
 40
13.0
 40
13.0
 40
14.0
 40
14.0
 40
14.0
 40
15.0
 40
15.0
 40
15.0
 40
16.0
 40
16.0
 40
16.0
 40
17.0
 40
17.0
 40
17.0
 40
17.0
 10
100.4504378777679
 20
166.69157178364
 10
101.9848844191641
 20
167.1313385124438
 10
103.9637485713373
 20
166.7649523658846
 10
103.9637485713373
 20
166.7649523658846
 10
103.9637485713373
 20
166.7649523658846
 10
103.0132460999156
 20
163.911205638077
 10
103.0132460999156
 20
163.911205638077
 10
103.0132460999156
 20
163.911205638077
 10
101.0674548862189
 20
164.3601018759394
 10
99.57090442016032
 20
163.1805004036133
 10
98.40508333886608
 20
162.258247733807
 10
97.65301849830304
 20
159.804132345923
 10
97.3598406791005
 20
158.8699940888517
 10
97.3598406791005
 20
158.8699940888517
 10
96.07137411762282
 20
154.9119212747295
 10
96.07137411762282
 20
154.9119212747295
 10
96.07137411762282
 20
154.9119212747295
 10
100.3012651448482
 20
154.9119212747295
 10
100.3012651448482
 20
154.9119212747295
 10
100.3012651448482
 20
154.9119212747295
 10
99.64152892419852
 20
152.4199098115079
 10
99.64152892419852
 20
152.4199098115079
 10
99.64152892419852
 20
152.4199098115079
 10
95.38097652692731
 20
152.4199098115079
 10
95.38097652692731
 20
152.4199098115079
 10
95.38097652692731
 20
152.4199098115079
 10
87.75353009080013
 20
127.8027915271048
 10
87.75353009080013
 20
127.8027915271048
 10
87.75353009080013
 20
127.8027915271048
 10
85.36538832498108
 20
127.8027915271048
 10
85.36538832498108
 20
127.8027915271048
 10
85.36538832498108
 20
127.8027915271048
 10
93.00006946639998
 20
152.4199098115079
 10
93.00006946639998
 20
152.4199098115079
 10
93.00006946639998
 20
152.4199098115079
 10
89.85297266450198
 20
152.4199098115079
 10
89.85297266450198
 20
152.4199098115079
 10
89.85297266450198
 20
152.4199098115079
 10
90.51270888515164
 20
154.9119212747295
 10
90.51270888515164
 20
154.9119212747295
 10
90.51270888515164
 20
154.9119212747295
 10
93.6904670570955
 20
154.9119212747295
 10
93.6904670570955
 20
154.9119212747295
 10
93.6904670570955
 20
154.9119212747295
 10
94.81598049462158
 20
158.3616699146644
 10
94.81598049462158
 20
158.3616699146644
 10
95.7237637538445
 20
161.2605474231013
 10
96.4968436907311
 20
162.8139420021662
 10
97.15657991138076
 20
163.9844139654337
 10
97.81183750494507
 20
165.1523021053827
 10
99.1047826935081
 20
166.3084769129547
 10
100.4504378777679
 20
166.69157178364
 97
        0
 75
     2
 76
     1
 98
        0
  0
SPLINE
  5
1DA4
330
1DA0
100
AcDbEntity
  8
TFORMLOGO
370
     0
100
AcDbSpline
210
0.0
220
0.0
230
1.0
 70
    11
 71
     3
 72
    38
 73
    34
 74
     0
 42
0.000000001
 43
0.0000000001
 40
0.0
 40
0.0
 40
0.0
 40
0.0
 40
1.0
 40
1.0
 40
1.0
 40
2.0
 40
2.0
 40
2.0
 40
3.0
 40
3.0
 40
3.0
 40
4.0
 40
4.0
 40
4.0
 40
5.0
 40
5.0
 40
5.0
 40
6.0
 40
6.0
 40
6.0
 40
7.0
 40
7.0
 40
7.0
 40
8.0
 40
8.0
 40
8.0
 40
9.0
 40
9.0
 40
9.0
 40
10.0
 40
10.0
 40
10.0
 40
11.0
 40
11.0
 40
11.0
 40
11.0
 10
126.377554584636
 20
154.8151140277308
 30
0.0
 10
126.377554584636
 20
154.8151140277308
 30
0.0
 10
128.8311532078563
 20
154.8151140277308
 30
0.0
 10
128.8311532078563
 20
154.8151140277308
 30
0.0
 10
128.8311532078563
 20
154.8151140277308
 30
0.0
 10
127.7345785914971
 20
151.3062819612468
 30
0.0
 10
127.7345785914971
 20
151.3062819612468
 30
0.0
 10
128.571392836906
 20
152.2922689395754
 30
0.0
 10
129.8860421413442
 20
153.604506675583
 30
0.0
 10
131.0163787157314
 20
154.2664822097754
 30
0.0
 10
132.7044766171327
 20
155.2500576196734
 30
0.0
 10
133.6642808525008
 20
155.3847609420097
 30
0.0
 10
134.7284715499351
 20
155.3565111403944
 30
0.0
 10
134.7284715499351
 20
155.3565111403944
 30
0.0
 10
133.6877075172549
 20
152.0345756272799
 30
0.0
 10
133.6877075172549
 20
152.0345756272799
 30
0.0
 10
133.011434827367
 20
152.3184516825359
 30
0.0
 10
130.930940291334
 20
151.7768823149844
 30
0.0
 10
129.739280976855
 20
150.9162968950455
 30
0.0
 10
128.66613302525
 20
150.1454562717016
 30
0.0
 10
127.9192358313239
 20
149.4857200510519
 30
0.0
 10
127.0393578639405
 20
147.8282835196966
 30
0.0
 10
126.164647543194
 20
146.1699857139017
 30
0.0
 10
125.4742499524985
 20
143.5262176944419
 30
0.0
 10
124.2822461282437
 20
139.6959580071401
 30
0.0
 10
124.2822461282437
 20
139.6959580071401
 30
0.0
 10
120.5753209406769
 20
127.8027915271048
 30
0.0
 10
120.5753209406769
 20
127.8027915271048
 30
0.0
 10
120.5753209406769
 20
127.8027915271048
 30
0.0
 10
118.1964809388044
 20
127.8027915271048
 30
0.0
 10
118.1964809388044
 20
127.8027915271048
 30
0.0
 10
118.1964809388044
 20
127.8027915271048
 30
0.0
 10
126.377554584636
 20
154.8151140277308
 30
0.0
 10
126.377554584636
 20
154.8151140277308
 30
0.0
  0
HATCH
  5
1DA5
330
1DA0
100
AcDbEntity
  8
TFORMLOGO
 62
   250
420
  2234388
100
AcDbHatch
 10
0.0
 20
0.0
 30
0.0
210
0.0
220
0.0
230
1.0
  2
SOLID
 70
     1
 71
     0
 91
        1
 92
        1
 93
        1
 72
     4
 94
        3
 73
     0
 74
     1
 95
       38
 96
       34
 40
0.0
 40
0.0
 40
0.0
 40
0.0
 40
1.0
 40
1.0
 40
1.0
 40
2.0
 40
2.0
 40
2.0
 40
3.0
 40
3.0
 40
3.0
 40
4.0
 40
4.0
 40
4.0
 40
5.0
 40
5.0
 40
5.0
 40
6.0
 40
6.0
 40
6.0
 40
7.0
 40
7.0
 40
7.0
 40
8.0
 40
8.0
 40
8.0
 40
9.0
 40
9.0
 40
9.0
 40
10.0
 40
10.0
 40
10.0
 40
11.0
 40
11.0
 40
11.0
 40
11.0
 10
126.377554584636
 20
154.8151140277308
 10
126.377554584636
 20
154.8151140277308
 10
128.8311532078563
 20
154.8151140277308
 10
128.8311532078563
 20
154.8151140277308
 10
128.8311532078563
 20
154.8151140277308
 10
127.7345785914971
 20
151.3062819612468
 10
127.7345785914971
 20
151.3062819612468
 10
128.571392836906
 20
152.2922689395754
 10
129.8860421413442
 20
153.604506675583
 10
131.0163787157314
 20
154.2664822097754
 10
132.7044766171327
 20
155.2500576196734
 10
133.6642808525008
 20
155.3847609420097
 10
134.7284715499351
 20
155.3565111403944
 10
134.7284715499351
 20
155.3565111403944
 10
133.6877075172549
 20
152.0345756272799
 10
133.6877075172549
 20
152.0345756272799
 10
133.011434827367
 20
152.3184516825359
 10
130.930940291334
 20
151.7768823149844
 10
129.739280976855
 20
150.9162968950455
 10
128.66613302525
 20
150.1454562717016
 10
127.9192358313239
 20
149.4857200510519
 10
127.0393578639405
 20
147.8282835196966
 10
126.164647543194
 20
146.1699857139017
 10
125.4742499524985
 20
143.5262176944419
 10
124.2822461282437
 20
139.6959580071401
 10
124.2822461282437
 20
139.6959580071401
 10
120.5753209406769
 20
127.8027915271048
 10
120.5753209406769
 20
127.8027915271048
 10
120.5753209406769
 20
127.8027915271048
 10
118.1964809388044
 20
127.8027915271048
 10
118.1964809388044
 20
127.8027915271048
 10
118.1964809388044
 20
127.8027915271048
 10
126.377554584636
 20
154.8151140277308
 10
126.377554584636
 20
154.8151140277308
 97
        0
 75
     2
 76
     1
 98
        0
  0
SPLINE
  5
1DA6
330
1DA0
100
AcDbEntity
  8
TFORMLOGO
370
     0
100
AcDbSpline
210
0.0
220
0.0
230
1.0
 70
    11
 71
     3
 72
   104
 73
   100
 74
     0
 42
0.000000001
 43
0.0000000001
 40
0.0
 40
0.0
 40
0.0
 40
0.0
 40
1.0
 40
1.0
 40
1.0
 40
2.0
 40
2.0
 40
2.0
 40
3.0
 40
3.0
 40
3.0
 40
4.0
 40
4.0
 40
4.0
 40
5.0
 40
5.0
 40
5.0
 40
6.0
 40
6.0
 40
6.0
 40
7.0
 40
7.0
 40
7.0
 40
8.0
 40
8.0
 40
8.0
 40
9.0
 40
9.0
 40
9.0
 40
10.0
 40
10.0
 40
10.0
 40
11.0
 40
11.0
 40
11.0
 40
12.0
 40
12.0
 40
12.0
 40
13.0
 40
13.0
 40
13.0
 40
14.0
 40
14.0
 40
14.0
 40
15.0
 40
15.0
 40
15.0
 40
16.0
 40
16.0
 40
16.0
 40
17.0
 40
17.0
 40
17.0
 40
18.0
 40
18.0
 40
18.0
 40
19.0
 40
19.0
 40
19.0
 40
20.0
 40
20.0
 40
20.0
 40
21.0
 40
21.0
 40
21.0
 40
22.0
 40
22.0
 40
22.0
 40
23.0
 40
23.0
 40
23.0
 40
24.0
 40
24.0
 40
24.0
 40
25.0
 40
25.0
 40
25.0
 40
26.0
 40
26.0
 40
26.0
 40
27.0
 40
27.0
 40
27.0
 40
28.0
 40
28.0
 40
28.0
 40
29.0
 40
29.0
 40
29.0
 40
30.0
 40
30.0
 40
30.0
 40
31.0
 40
31.0
 40
31.0
 40
32.0
 40
32.0
 40
32.0
 40
33.0
 40
33.0
 40
33.0
 40
33.0
 10
139.8926730891197
 20
154.8294111834263
 30
0.0
 10
139.8926730891197
 20
154.8294111834263
 30
0.0
 10
142.0344903652445
 20
154.8294111834263
 30
0.0
 10
142.0344903652445
 20
154.8294111834263
 30
0.0
 10
142.0344903652445
 20
154.8294111834263
 30
0.0
 10
140.9516961399171
 20
151.3157559800812
 30
0.0
 10
140.9516961399171
 20
151.3157559800812
 30
0.0
 10
141.8928968473923
 20
152.7887075264977
 30
0.0
 10
142.7341897198865
 20
153.4484437471474
 30
0.0
 10
143.8552245303272
 20
154.2926649527359
 30
0.0
 10
144.9803934580775
 20
155.1296514530327
 30
0.0
 10
146.3139908001845
 20
155.3044901642492
 30
0.0
 10
147.241066606852
 20
155.3044901642492
 30
0.0
 10
148.3855280820469
 20
155.3044901642492
 30
0.0
 10
149.4969166187653
 20
155.0752189084569
 30
0.0
 10
150.0784491203092
 20
153.8172414621372
 30
0.0
 10
150.5228667310863
 20
152.833838307127
 30
0.0
 10
150.5414702589793
 20
152.7201500811143
 30
0.0
 10
150.4140016419347
 20
150.7765981809602
 30
0.0
 10
151.5818897818837
 20
152.7699317437168
 30
0.0
 10
152.4424752018226
 20
153.6256940267945
 30
0.0
 10
153.9038856707499
 20
154.4507949398263
 30
0.0
 10
155.4455669174378
 20
155.3044901642492
 30
0.0
 10
156.339225275853
 20
155.3659851592288
 30
0.0
 10
157.3748216618963
 20
155.2147453676543
 30
0.0
 10
158.911679771723
 20
154.9877134254046
 30
0.0
 10
159.8859534176746
 20
154.4390816074493
 30
0.0
 10
160.3965169054045
 20
152.7816450760939
 30
0.0
 10
160.9070803931344
 20
151.1219692311958
 30
0.0
 10
160.6328506116007
 20
150.2303779314354
 30
0.0
 10
159.9992971339115
 20
147.597634224801
 30
0.0
 10
159.7105979417943
 20
146.4014962832367
 30
0.0
 10
159.2947746424084
 20
144.9400858143094
 30
0.0
 10
158.7463150793409
 20
143.2092687007094
 30
0.0
 10
158.7463150793409
 20
143.2092687007094
 30
0.0
 10
153.9038856707499
 20
127.8027915271048
 30
0.0
 10
153.9038856707499
 20
127.8027915271048
 30
0.0
 10
153.9038856707499
 20
127.8027915271048
 30
0.0
 10
151.3882752878863
 20
127.8027915271048
 30
0.0
 10
151.3882752878863
 20
127.8027915271048
 30
0.0
 10
151.3882752878863
 20
127.8027915271048
 30
0.0
 10
155.6250565106276
 20
141.2751908193897
 30
0.0
 10
155.6250565106276
 20
141.2751908193897
 30
0.0
 10
156.5094131050963
 20
144.0936252951782
 30
0.0
 10
157.109893644309
 20
146.1506931664571
 30
0.0
 10
157.4220195011804
 20
147.4415712963654
 30
0.0
 10
157.8095929989511
 20
149.0530157726519
 30
0.0
 10
157.9656559273867
 20
149.5826995529385
 30
0.0
 10
157.7816877071116
 20
150.7529992613181
 30
0.0
 10
157.6111553680925
 20
151.8430281919372
 30
0.0
 10
157.0582171779396
 20
152.5547853887321
 30
0.0
 10
156.1170164704645
 20
152.5547853887321
 30
0.0
 10
155.1096698860365
 20
152.5547853887321
 30
0.0
 10
154.2962823053817
 20
152.4412694176073
 30
0.0
 10
153.156643967048
 20
151.2945686288697
 30
0.0
 10
152.0170056287143
 20
150.1476955852443
 30
0.0
 10
151.076149431015
 20
148.7930831468137
 30
0.0
 10
150.3337308641742
 20
147.2290087646991
 30
0.0
 10
149.5957909244188
 20
145.6683794803425
 30
0.0
 10
148.8530278478023
 20
143.6822806228776
 30
0.0
 10
148.0964843801539
 20
141.2751908193897
 30
0.0
 10
148.0964843801539
 20
141.2751908193897
 30
0.0
 10
143.8552245303272
 20
127.8027915271048
 30
0.0
 10
143.8552245303272
 20
127.8027915271048
 30
0.0
 10
143.8552245303272
 20
127.8027915271048
 30
0.0
 10
141.486030802177
 20
127.8027915271048
 30
0.0
 10
141.486030802177
 20
127.8027915271048
 30
0.0
 10
141.486030802177
 20
127.8027915271048
 30
0.0
 10
146.3329388378533
 20
143.2092687007094
 30
0.0
 10
146.3329388378533
 20
143.2092687007094
 30
0.0
 10
146.8483254624444
 20
144.8408669988801
 30
0.0
 10
147.2314203331297
 20
146.1837661049335
 30
0.0
 10
147.4867020769946
 20
147.224185627838
 30
0.0
 10
147.9169947869641
 20
149.0197705792876
 30
0.0
 10
148.0306830129768
 20
150.2400242051577
 30
0.0
 10
147.709255392159
 20
151.3157559800812
 30
0.0
 10
147.3874832615654
 20
152.3916600098926
 30
0.0
 10
146.8245542879144
 20
152.6683013598569
 30
0.0
 10
145.8840425999909
 20
152.6683013598569
 30
0.0
 10
145.0989048209514
 20
152.6683013598569
 30
0.0
 10
144.3282364524954
 20
152.3275811915945
 30
0.0
 10
143.4531816219731
 20
151.6538923250251
 30
0.0
 10
142.34627171234
 20
150.8074318058939
 30
0.0
 10
141.901854101563
 20
150.1097995099067
 30
0.0
 10
141.3578731655808
 20
149.289521733736
 30
0.0
 10
140.6299240093235
 20
148.192602607601
 30
0.0
 10
140.2850697237515
 20
147.455696197173
 30
0.0
 10
139.6652966370942
 20
145.8385673095858
 30
0.0
 10
139.0506911970739
 20
144.2214384219986
 30
0.0
 10
138.463991048893
 20
142.3252566160164
 30
0.0
 10
138.0571250036777
 20
141.0154304484394
 30
0.0
 10
138.0571250036777
 20
141.0154304484394
 30
0.0
 10
133.9009590684727
 20
127.8027915271048
 30
0.0
 10
133.9009590684727
 20
127.8027915271048
 30
0.0
 10
133.9009590684727
 20
127.8027915271048
 30
0.0
 10
131.4180771143097
 20
127.8027915271048
 30
0.0
 10
131.4180771143097
 20
127.8027915271048
 30
0.0
 10
131.4180771143097
 20
127.8027915271048
 30
0.0
 10
139.8926730891197
 20
154.8294111834263
 30
0.0
 10
139.8926730891197
 20
154.8294111834263
 30
0.0
  0
HATCH
  5
1DA7
330
1DA0
100
AcDbEntity
  8
TFORMLOGO
 62
   250
420
  2234388
100
AcDbHatch
 10
0.0
 20
0.0
 30
0.0
210
0.0
220
0.0
230
1.0
  2
SOLID
 70
     1
 71
     0
 91
        1
 92
        1
 93
        1
 72
     4
 94
        3
 73
     0
 74
     1
 95
      104
 96
      100
 40
0.0
 40
0.0
 40
0.0
 40
0.0
 40
1.0
 40
1.0
 40
1.0
 40
2.0
 40
2.0
 40
2.0
 40
3.0
 40
3.0
 40
3.0
 40
4.0
 40
4.0
 40
4.0
 40
5.0
 40
5.0
 40
5.0
 40
6.0
 40
6.0
 40
6.0
 40
7.0
 40
7.0
 40
7.0
 40
8.0
 40
8.0
 40
8.0
 40
9.0
 40
9.0
 40
9.0
 40
10.0
 40
10.0
 40
10.0
 40
11.0
 40
11.0
 40
11.0
 40
12.0
 40
12.0
 40
12.0
 40
13.0
 40
13.0
 40
13.0
 40
14.0
 40
14.0
 40
14.0
 40
15.0
 40
15.0
 40
15.0
 40
16.0
 40
16.0
 40
16.0
 40
17.0
 40
17.0
 40
17.0
 40
18.0
 40
18.0
 40
18.0
 40
19.0
 40
19.0
 40
19.0
 40
20.0
 40
20.0
 40
20.0
 40
21.0
 40
21.0
 40
21.0
 40
22.0
 40
22.0
 40
22.0
 40
23.0
 40
23.0
 40
23.0
 40
24.0
 40
24.0
 40
24.0
 40
25.0
 40
25.0
 40
25.0
 40
26.0
 40
26.0
 40
26.0
 40
27.0
 40
27.0
 40
27.0
 40
28.0
 40
28.0
 40
28.0
 40
29.0
 40
29.0
 40
29.0
 40
30.0
 40
30.0
 40
30.0
 40
31.0
 40
31.0
 40
31.0
 40
32.0
 40
32.0
 40
32.0
 40
33.0
 40
33.0
 40
33.0
 40
33.0
 10
139.8926730891197
 20
154.8294111834263
 10
139.8926730891197
 20
154.8294111834263
 10
142.0344903652445
 20
154.8294111834263
 10
142.0344903652445
 20
154.8294111834263
 10
142.0344903652445
 20
154.8294111834263
 10
140.9516961399171
 20
151.3157559800812
 10
140.9516961399171
 20
151.3157559800812
 10
141.8928968473923
 20
152.7887075264977
 10
142.7341897198865
 20
153.4484437471474
 10
143.8552245303272
 20
154.2926649527359
 10
144.9803934580775
 20
155.1296514530327
 10
146.3139908001845
 20
155.3044901642492
 10
147.241066606852
 20
155.3044901642492
 10
148.3855280820469
 20
155.3044901642492
 10
149.4969166187653
 20
155.0752189084569
 10
150.0784491203092
 20
153.8172414621372
 10
150.5228667310863
 20
152.833838307127
 10
150.5414702589793
 20
152.7201500811143
 10
150.4140016419347
 20
150.7765981809602
 10
151.5818897818837
 20
152.7699317437168
 10
152.4424752018226
 20
153.6256940267945
 10
153.9038856707499
 20
154.4507949398263
 10
155.4455669174378
 20
155.3044901642492
 10
156.339225275853
 20
155.3659851592288
 10
157.3748216618963
 20
155.2147453676543
 10
158.911679771723
 20
154.9877134254046
 10
159.8859534176746
 20
154.4390816074493
 10
160.3965169054045
 20
152.7816450760939
 10
160.9070803931344
 20
151.1219692311958
 10
160.6328506116007
 20
150.2303779314354
 10
159.9992971339115
 20
147.597634224801
 10
159.7105979417943
 20
146.4014962832367
 10
159.2947746424084
 20
144.9400858143094
 10
158.7463150793409
 20
143.2092687007094
 10
158.7463150793409
 20
143.2092687007094
 10
153.9038856707499
 20
127.8027915271048
 10
153.9038856707499
 20
127.8027915271048
 10
153.9038856707499
 20
127.8027915271048
 10
151.3882752878863
 20
127.8027915271048
 10
151.3882752878863
 20
127.8027915271048
 10
151.3882752878863
 20
127.8027915271048
 10
155.6250565106276
 20
141.2751908193897
 10
155.6250565106276
 20
141.2751908193897
 10
156.5094131050963
 20
144.0936252951782
 10
157.109893644309
 20
146.1506931664571
 10
157.4220195011804
 20
147.4415712963654
 10
157.8095929989511
 20
149.0530157726519
 10
157.9656559273867
 20
149.5826995529385
 10
157.7816877071116
 20
150.7529992613181
 10
157.6111553680925
 20
151.8430281919372
 10
157.0582171779396
 20
152.5547853887321
 10
156.1170164704645
 20
152.5547853887321
 10
155.1096698860365
 20
152.5547853887321
 10
154.2962823053817
 20
152.4412694176073
 10
153.156643967048
 20
151.2945686288697
 10
152.0170056287143
 20
150.1476955852443
 10
151.076149431015
 20
148.7930831468137
 10
150.3337308641742
 20
147.2290087646991
 10
149.5957909244188
 20
145.6683794803425
 10
148.8530278478023
 20
143.6822806228776
 10
148.0964843801539
 20
141.2751908193897
 10
148.0964843801539
 20
141.2751908193897
 10
143.8552245303272
 20
127.8027915271048
 10
143.8552245303272
 20
127.8027915271048
 10
143.8552245303272
 20
127.8027915271048
 10
141.486030802177
 20
127.8027915271048
 10
141.486030802177
 20
127.8027915271048
 10
141.486030802177
 20
127.8027915271048
 10
146.3329388378533
 20
143.2092687007094
 10
146.3329388378533
 20
143.2092687007094
 10
146.8483254624444
 20
144.8408669988801
 10
147.2314203331297
 20
146.1837661049335
 10
147.4867020769946
 20
147.224185627838
 10
147.9169947869641
 20
149.0197705792876
 10
148.0306830129768
 20
150.2400242051577
 10
147.709255392159
 20
151.3157559800812
 10
147.3874832615654
 20
152.3916600098926
 10
146.8245542879144
 20
152.6683013598569
 10
145.8840425999909
 20
152.6683013598569
 10
145.0989048209514
 20
152.6683013598569
 10
144.3282364524954
 20
152.3275811915945
 10
143.4531816219731
 20
151.6538923250251
 10
142.34627171234
 20
150.8074318058939
 10
141.901854101563
 20
150.1097995099067
 10
141.3578731655808
 20
149.289521733736
 10
140.6299240093235
 20
148.192602607601
 10
140.2850697237515
 20
147.455696197173
 10
139.6652966370942
 20
145.8385673095858
 10
139.0506911970739
 20
144.2214384219986
 10
138.463991048893
 20
142.3252566160164
 10
138.0571250036777
 20
141.0154304484394
 10
138.0571250036777
 20
141.0154304484394
 10
133.9009590684727
 20
127.8027915271048
 10
133.9009590684727
 20
127.8027915271048
 10
133.9009590684727
 20
127.8027915271048
 10
131.4180771143097
 20
127.8027915271048
 10
131.4180771143097
 20
127.8027915271048
 10
131.4180771143097
 20
127.8027915271048
 10
139.8926730891197
 20
154.8294111834263
 10
139.8926730891197
 20
154.8294111834263
 97
        0
 75
     2
 76
     1
 98
        0
  0
SPLINE
  5
1DA8
330
1DA0
100
AcDbEntity
  8
TFORMLOGO
370
     0
100
AcDbSpline
210
0.0
220
0.0
230
1.0
 70
    11
 71
     3
 72
    29
 73
    25
 74
     0
 42
0.000000001
 43
0.0000000001
 40
0.0
 40
0.0
 40
0.0
 40
0.0
 40
1.0
 40
1.0
 40
1.0
 40
2.0
 40
2.0
 40
2.0
 40
3.0
 40
3.0
 40
3.0
 40
4.0
 40
4.0
 40
4.0
 40
5.0
 40
5.0
 40
5.0
 40
6.0
 40
6.0
 40
6.0
 40
7.0
 40
7.0
 40
7.0
 40
8.0
 40
8.0
 40
8.0
 40
8.0
 10
101.6420971922469
 20
132.8388354296931
 30
0.0
 10
101.630039350094
 20
134.7164137077823
 30
0.0
 10
102.2236296937908
 20
138.0598810818841
 30
0.0
 10
103.7487744712405
 20
142.5378191476827
 30
0.0
 10
105.819967243327
 20
148.5896501242061
 30
0.0
 10
107.0602024361932
 20
150.8074318058939
 30
0.0
 10
108.1522984254671
 20
151.8833358357054
 30
0.0
 10
109.741177511439
 20
153.4532668840085
 30
0.0
 10
111.8740375333931
 20
153.5290590346837
 30
0.0
 10
112.5075910110823
 20
153.4532668840085
 30
0.0
 10
113.4012493694975
 20
153.3490526768302
 30
0.0
 10
114.6683563248758
 20
152.7580461564518
 30
0.0
 10
114.7493161221879
 20
150.7838328862519
 30
0.0
 10
114.8106388622796
 20
149.0909118479895
 30
0.0
 10
114.3186789024427
 20
145.9191825971221
 30
0.0
 10
112.6164561002338
 20
140.9489400617108
 30
0.0
 10
110.6444821435766
 20
135.1746117095912
 30
0.0
 10
109.4669477299053
 20
132.8960240524753
 30
0.0
 10
108.5212683953448
 20
131.9072809959403
 30
0.0
 10
106.7346406980658
 20
130.0538184021569
 30
0.0
 10
104.8222669326213
 20
130.2336525051225
 30
0.0
 10
104.5408024457958
 20
130.2336525051225
 30
0.0
 10
104.1721769856939
 20
130.2336525051225
 30
0.0
 10
101.6465758193322
 20
130.6305277668397
 30
0.0
 10
101.6420971922469
 20
132.8388354296931
 30
0.0
  0
SPLINE
  5
1DA9
330
1DA0
100
AcDbEntity
  8
TFORMLOGO
370
     0
100
AcDbSpline
210
0.0
220
0.0
230
1.0
 70
    11
 71
     3
 72
    32
 73
    28
 74
     0
 42
0.000000001
 43
0.0000000001
 40
0.0
 40
0.0
 40
0.0
 40
0.0
 40
1.0
 40
1.0
 40
1.0
 40
2.0
 40
2.0
 40
2.0
 40
3.0
 40
3.0
 40
3.0
 40
4.0
 40
4.0
 40
4.0
 40
5.0
 40
5.0
 40
5.0
 40
6.0
 40
6.0
 40
6.0
 40
7.0
 40
7.0
 40
7.0
 40
8.0
 40
8.0
 40
8.0
 40
9.0
 40
9.0
 40
9.0
 40
9.0
 10
106.2595617172429
 20
153.4105476718098
 30
0.0
 10
104.8222669326213
 20
151.5474388043041
 30
0.0
 10
103.7177685914188
 20
149.8758773721411
 30
0.0
 10
101.9232171692965
 20
144.6141795664062
 30
0.0
 10
100.2754269116635
 20
139.7999999594306
 30
0.0
 10
99.22777268346732
 20
136.3052927937542
 30
0.0
 10
99.06964269637689
 20
132.039572749846
 30
0.0
 10
98.94665270641765
 20
128.8673267343149
 30
0.0
 10
100.8807305877373
 20
127.8027915271048
 30
0.0
 10
103.7129454545577
 20
127.8027915271048
 30
0.0
 10
104.9352661390825
 20
127.8027915271048
 30
0.0
 10
108.0151835347002
 20
127.8827177950895
 30
0.0
 10
110.2045431598849
 20
130.5926316915021
 30
0.0
 10
111.7417457794874
 20
132.4984597712065
 30
0.0
 10
113.155269389579
 20
134.475256864725
 30
0.0
 10
115.0562743324223
 20
140.9489400617108
 30
0.0
 10
116.6361961642235
 20
146.3680788349845
 30
0.0
 10
117.7282921534974
 20
149.8639917848761
 30
0.0
 10
117.6480213757369
 20
151.8595646611754
 30
0.0
 10
117.6480213757369
 20
151.8595646611754
 30
0.0
 10
117.6480213757369
 20
151.8595646611754
 30
0.0
 10
117.6480213757369
 20
151.8595646611754
 30
0.0
 10
117.13229024137
 20
155.18150017429
 30
0.0
 10
114.7162431837115
 20
155.886194920681
 30
0.0
 10
113.3351034925446
 20
155.886194920681
 30
0.0
 10
111.9829026225447
 20
155.886194920681
 30
0.0
 10
108.3414342923792
 20
156.1251124501957
 30
0.0
 10
106.2595617172429
 20
153.4105476718098
 30
0.0
  0
HATCH
  5
1DAA
330
1DA0
100
AcDbEntity
  8
TFORMLOGO
 62
   250
420
  2234388
100
AcDbHatch
 10
0.0
 20
0.0
 30
0.0
210
0.0
220
0.0
230
1.0
  2
SOLID
 70
     1
 71
     0
 91
        2
 92
        1
 93
        1
 72
     4
 94
        3
 73
     0
 74
     1
 95
       29
 96
       25
 40
0.0
 40
0.0
 40
0.0
 40
0.0
 40
1.0
 40
1.0
 40
1.0
 40
2.0
 40
2.0
 40
2.0
 40
3.0
 40
3.0
 40
3.0
 40
4.0
 40
4.0
 40
4.0
 40
5.0
 40
5.0
 40
5.0
 40
6.0
 40
6.0
 40
6.0
 40
7.0
 40
7.0
 40
7.0
 40
8.0
 40
8.0
 40
8.0
 40
8.0
 10
101.6420971922469
 20
132.8388354296931
 10
101.630039350094
 20
134.7164137077823
 10
102.2236296937908
 20
138.0598810818841
 10
103.7487744712405
 20
142.5378191476827
 10
105.819967243327
 20
148.5896501242061
 10
107.0602024361932
 20
150.8074318058939
 10
108.1522984254671
 20
151.8833358357054
 10
109.741177511439
 20
153.4532668840085
 10
111.8740375333931
 20
153.5290590346837
 10
112.5075910110823
 20
153.4532668840085
 10
113.4012493694975
 20
153.3490526768302
 10
114.6683563248758
 20
152.7580461564518
 10
114.7493161221879
 20
150.7838328862519
 10
114.8106388622796
 20
149.0909118479895
 10
114.3186789024427
 20
145.9191825971221
 10
112.6164561002338
 20
140.9489400617108
 10
110.6444821435766
 20
135.1746117095912
 10
109.4669477299053
 20
132.8960240524753
 10
108.5212683953448
 20
131.9072809959403
 10
106.7346406980658
 20
130.0538184021569
 10
104.8222669326213
 20
130.2336525051225
 10
104.5408024457958
 20
130.2336525051225
 10
104.1721769856939
 20
130.2336525051225
 10
101.6465758193322
 20
130.6305277668397
 10
101.6420971922469
 20
132.8388354296931
 97
        0
 92
        1
 93
        1
 72
     4
 94
        3
 73
     0
 74
     1
 95
       32
 96
       28
 40
0.0
 40
0.0
 40
0.0
 40
0.0
 40
1.0
 40
1.0
 40
1.0
 40
2.0
 40
2.0
 40
2.0
 40
3.0
 40
3.0
 40
3.0
 40
4.0
 40
4.0
 40
4.0
 40
5.0
 40
5.0
 40
5.0
 40
6.0
 40
6.0
 40
6.0
 40
7.0
 40
7.0
 40
7.0
 40
8.0
 40
8.0
 40
8.0
 40
9.0
 40
9.0
 40
9.0
 40
9.0
 10
106.2595617172429
 20
153.4105476718098
 10
104.8222669326213
 20
151.5474388043041
 10
103.7177685914188
 20
149.8758773721411
 10
101.9232171692965
 20
144.6141795664062
 10
100.2754269116635
 20
139.7999999594306
 10
99.22777268346732
 20
136.3052927937542
 10
99.06964269637689
 20
132.039572749846
 10
98.94665270641765
 20
128.8673267343149
 10
100.8807305877373
 20
127.8027915271048
 10
103.7129454545577
 20
127.8027915271048
 10
104.9352661390825
 20
127.8027915271048
 10
108.0151835347002
 20
127.8827177950895
 10
110.2045431598849
 20
130.5926316915021
 10
111.7417457794874
 20
132.4984597712065
 10
113.155269389579
 20
134.475256864725
 10
115.0562743324223
 20
140.9489400617108
 10
116.6361961642235
 20
146.3680788349845
 10
117.7282921534974
 20
149.8639917848761
 10
117.6480213757369
 20
151.8595646611754
 10
117.6480213757369
 20
151.8595646611754
 10
117.6480213757369
 20
151.8595646611754
 10
117.6480213757369
 20
151.8595646611754
 10
117.13229024137
 20
155.18150017429
 10
114.7162431837115
 20
155.886194920681
 10
113.3351034925446
 20
155.886194920681
 10
111.9829026225447
 20
155.886194920681
 10
108.3414342923792
 20
156.1251124501957
 10
106.2595617172429
 20
153.4105476718098
 97
        0
 75
     2
 76
     1
 98
        0
  0
ENDBLK
  5
1DAB
330
1DA0
100
AcDbEntity
  8
0
100
AcDbBlockEnd
  0
BLOCK
  5
4164
330
4163
100
AcDbEntity
  8
0
100
AcDbBlockBegin
  2
_NONE
 70
     0
 10
0.0
 20
0.0
 30
0.0
  3
_NONE
  1
_NONE
  0
ENDBLK
  5
4165
330
4163
100
AcDbEntity
  8
0
100
AcDbBlockEnd
  0
BLOCK
  5
62F2
330
62F1
100
AcDbEntity
  8
0
100
AcDbBlockBegin
  2
*D8
 70
     1
 10
0.0
 20
0.0
 30
0.0
  3
*D8
  1

  0
LINE
  5
62F4
330
62F1
100
AcDbEntity
  8
寸法
 62
     0
370
    -2
100
AcDbLine
 10
388.4599190935024
 20
164.9875618622925
 30
0.0
 11
388.4599190935024
 21
132.1996542806003
 31
0.0
  0
LINE
  5
62F5
330
62F1
100
AcDbEntity
  8
寸法
 62
     0
370
    -2
100
AcDbLine
 10
350.4599190935024
 20
164.9875618622925
 30
0.0
 11
350.4599190935024
 21
132.1996542806003
 31
0.0
  0
LINE
  5
62F6
330
62F1
100
AcDbEntity
  8
寸法
 62
     0
370
    -2
100
AcDbLine
 10
350.4599190935024
 20
132.1996542806003
 30
0.0
 11
336.4699190935023
 21
132.1996542806003
 31
0.0
  0
LINE
  5
62F7
330
62F1
100
AcDbEntity
  8
寸法
 62
     0
370
    -2
100
AcDbLine
 10
386.4599190935024
 20
132.1996542806003
 30
0.0
 11
352.4599190935024
 21
132.1996542806003
 31
0.0
  0
LINE
  5
62F8
330
62F1
100
AcDbEntity
  8
寸法
 62
     0
370
    -2
100
AcDbLine
 10
352.4599190935024
 20
132.1996542806003
 30
0.0
 11
354.4599190935024
 21
132.1996542806003
 31
0.0
  0
INSERT
  5
62F9
330
62F1
100
AcDbEntity
  8
寸法
 62
     0
370
    -2
100
AcDbBlockReference
  2
_DOT
 10
388.4599190935024
 20
132.1996542806003
 30
0.0
 41
2.0
 42
2.0
 43
2.0
  0
INSERT
  5
62FA
330
62F1
100
AcDbEntity
  8
寸法
 62
     0
370
    -2
100
AcDbBlockReference
  2
_DOT
 10
350.4599190935024
 20
132.1996542806003
 30
0.0
 41
2.0
 42
2.0
 43
2.0
 50
180.0
  0
MTEXT
  5
62FB
330
62F1
100
AcDbEntity
  8
寸法
 62
     0
100
AcDbMText
 10
341.4649190935023
 20
136.7246542806003
 30
0.0
 40
5.0
 41
0.0
 46
0.0
 71
     5
 72
     1
  1
\A1;ø8
  7
ＭＳ ゴシック
 73
     1
 44
1.0
  0
POINT
  5
62FC
330
62F1
100
AcDbEntity
  8
Defpoints
 62
     0
100
AcDbPoint
 10
388.4599190935024
 20
164.9875618622925
 30
0.0
  0
POINT
  5
62FD
330
62F1
100
AcDbEntity
  8
Defpoints
 62
     0
100
AcDbPoint
 10
350.4599190935024
 20
164.9875618622925
 30
0.0
  0
POINT
  5
62FE
330
62F1
100
AcDbEntity
  8
Defpoints
 62
     0
100
AcDbPoint
 10
350.4599190935024
 20
132.1996542806003
 30
0.0
  0
ENDBLK
  5
62F3
330
62F1
100
AcDbEntity
  8
0
100
AcDbBlockEnd
  0
BLOCK
  5
6300
330
62FF
100
AcDbEntity
  8
0
100
AcDbBlockBegin
  2
*D9
 70
     1
 10
0.0
 20
0.0
 30
0.0
  3
*D9
  1

  0
LINE
  5
6302
330
62FF
100
AcDbEntity
  8
寸法
 62
     0
370
    -2
100
AcDbLine
 10
369.4599190935024
 20
194.5011778482723
 30
0.0
 11
369.4599190935024
 21
201.4446872012076
 31
0.0
  0
LINE
  5
6303
330
62FF
100
AcDbEntity
  8
寸法
 62
     0
370
    -2
100
AcDbLine
 10
388.530989035183
 20
186.1643118080976
 30
0.0
 11
388.530989035183
 21
201.4446872012076
 31
0.0
  0
LINE
  5
6304
330
62FF
100
AcDbEntity
  8
寸法
 62
     0
370
    -2
100
AcDbLine
 10
371.4599190935024
 20
201.4446872012076
 30
0.0
 11
386.530989035183
 21
201.4446872012076
 31
0.0
  0
INSERT
  5
6305
330
62FF
100
AcDbEntity
  8
寸法
 62
     0
370
    -2
100
AcDbBlockReference
  2
_DOT
 10
369.4599190935024
 20
201.4446872012076
 30
0.0
 41
2.0
 42
2.0
 43
2.0
 50
180.0
  0
INSERT
  5
6306
330
62FF
100
AcDbEntity
  8
寸法
 62
     0
370
    -2
100
AcDbBlockReference
  2
_DOT
 10
388.530989035183
 20
201.4446872012076
 30
0.0
 41
2.0
 42
2.0
 43
2.0
  0
MTEXT
  5
6307
330
62FF
100
AcDbEntity
  8
寸法
 62
     0
100
AcDbMText
 10
378.9954540643427
 20
205.9446872012076
 30
0.0
 40
5.0
 41
0.0
 46
0.0
 71
     5
 72
     1
  1
\A1;19
  7
ＭＳ ゴシック
 73
     1
 44
1.0
  0
POINT
  5
6308
330
62FF
100
AcDbEntity
  8
Defpoints
 62
     0
100
AcDbPoint
 10
369.4599190935024
 20
189.5011778482723
 30
0.0
  0
POINT
  5
6309
330
62FF
100
AcDbEntity
  8
Defpoints
 62
     0
100
AcDbPoint
 10
388.530989035183
 20
181.1643118080976
 30
0.0
  0
POINT
  5
630A
330
62FF
100
AcDbEntity
  8
Defpoints
 62
     0
100
AcDbPoint
 10
388.530989035183
 20
201.4446872012076
 30
0.0
  0
ENDBLK
  5
6301
330
62FF
100
AcDbEntity
  8
0
100
AcDbBlockEnd
  0
BLOCK
  5
630C
330
630B
100
AcDbEntity
  8
0
100
AcDbBlockBegin
  2
*D10
 70
     1
 10
0.0
 20
0.0
 30
0.0
  3
*D10
  1

  0
LINE
  5
630E
330
630B
100
AcDbEntity
  8
寸法
 62
     0
370
    -2
100
AcDbLine
 10
350.530989035183
 20
186.1643118080976
 30
0.0
 11
350.530989035183
 21
201.4446872012076
 31
0.0
  0
LINE
  5
630F
330
630B
100
AcDbEntity
  8
寸法
 62
     0
370
    -2
100
AcDbLine
 10
369.4599190935024
 20
194.5011778482723
 30
0.0
 11
369.4599190935024
 21
201.4446872012076
 31
0.0
  0
LINE
  5
6310
330
630B
100
AcDbEntity
  8
寸法
 62
     0
370
    -2
100
AcDbLine
 10
352.530989035183
 20
201.4446872012076
 30
0.0
 11
367.4599190935024
 21
201.4446872012076
 31
0.0
  0
INSERT
  5
6311
330
630B
100
AcDbEntity
  8
寸法
 62
     0
370
    -2
100
AcDbBlockReference
  2
_DOT
 10
350.530989035183
 20
201.4446872012076
 30
0.0
 41
2.0
 42
2.0
 43
2.0
 50
180.0
  0
INSERT
  5
6312
330
630B
100
AcDbEntity
  8
寸法
 62
     0
370
    -2
100
AcDbBlockReference
  2
_DOT
 10
369.4599190935024
 20
201.4446872012076
 30
0.0
 41
2.0
 42
2.0
 43
2.0
  0
MTEXT
  5
6313
330
630B
100
AcDbEntity
  8
寸法
 62
     0
100
AcDbMText
 10
359.9954540643427
 20
205.9446872012076
 30
0.0
 40
5.0
 41
0.0
 46
0.0
 71
     5
 72
     1
  1
\A1;19
  7
ＭＳ ゴシック
 73
     1
 44
1.0
  0
POINT
  5
6314
330
630B
100
AcDbEntity
  8
Defpoints
 62
     0
100
AcDbPoint
 10
350.530989035183
 20
181.1643118080976
 30
0.0
  0
POINT
  5
6315
330
630B
100
AcDbEntity
  8
Defpoints
 62
     0
100
AcDbPoint
 10
369.4599190935024
 20
189.5011778482723
 30
0.0
  0
POINT
  5
6316
330
630B
100
AcDbEntity
  8
Defpoints
 62
     0
100
AcDbPoint
 10
369.4599190935024
 20
201.4446872012076
 30
0.0
  0
ENDBLK
  5
630D
330
630B
100
AcDbEntity
  8
0
100
AcDbBlockEnd
  0
BLOCK
  5
69C7
330
69C6
100
AcDbEntity
  8
0
100
AcDbBlockBegin
  2
*D11
 70
     1
 10
0.0
 20
0.0
 30
0.0
  3
*D11
  1

  0
LINE
  5
69C9
330
69C6
100
AcDbEntity
  8
寸法
 62
     0
370
    -2
100
AcDbLine
 10
240.6778120512213
 20
260.5043481764484
 30
0.0
 11
240.6778120512213
 21
212.7023592780861
 31
0.0
  0
LINE
  5
69CA
330
69C6
100
AcDbEntity
  8
寸法
 62
     0
370
    -2
100
AcDbLine
 10
124.3201634042553
 20
249.4635969361703
 30
0.0
 11
124.3201634042553
 21
212.7023592780861
 31
0.0
  0
LINE
  5
69CB
330
69C6
100
AcDbEntity
  8
寸法
 62
     0
370
    -2
100
AcDbLine
 10
238.6778120512213
 20
212.7023592780861
 30
0.0
 11
126.3201634042553
 21
212.7023592780861
 31
0.0
  0
INSERT
  5
69CC
330
69C6
100
AcDbEntity
  8
寸法
 62
     0
370
    -2
100
AcDbBlockReference
  2
_DOT
 10
240.6778120512213
 20
212.7023592780861
 30
0.0
 41
2.0
 42
2.0
 43
2.0
  0
INSERT
  5
69CD
330
69C6
100
AcDbEntity
  8
寸法
 62
     0
370
    -2
100
AcDbBlockReference
  2
_DOT
 10
124.3201634042553
 20
212.7023592780861
 30
0.0
 41
2.0
 42
2.0
 43
2.0
 50
180.0
  0
MTEXT
  5
69CE
330
69C6
100
AcDbEntity
  8
寸法
 62
     0
100
AcDbMText
 10
182.4989877277383
 20
217.2023592780861
 30
0.0
 40
5.0
 41
0.0
 46
0.0
 71
     5
 72
     1
  1
\A1;116.5
  7
ＭＳ ゴシック
 73
     1
 44
1.0
  0
POINT
  5
69CF
330
69C6
100
AcDbEntity
  8
Defpoints
 62
     0
100
AcDbPoint
 10
240.6778120512213
 20
265.5043481764484
 30
0.0
  0
POINT
  5
69D0
330
69C6
100
AcDbEntity
  8
Defpoints
 62
     0
100
AcDbPoint
 10
124.3201634042553
 20
254.4635969361703
 30
0.0
  0
POINT
  5
69D1
330
69C6
100
AcDbEntity
  8
Defpoints
 62
     0
100
AcDbPoint
 10
124.3201634042553
 20
212.7023592780861
 30
0.0
  0
ENDBLK
  5
69C8
330
69C6
100
AcDbEntity
  8
0
100
AcDbBlockEnd
  0
BLOCK
  5
69E5
330
69E4
100
AcDbEntity
  8
0
100
AcDbBlockBegin
  2
*D12
 70
     1
 10
0.0
 20
0.0
 30
0.0
  3
*D12
  1

  0
LINE
  5
69E7
330
69E4
100
AcDbEntity
  8
寸法
 62
     0
370
    -2
100
AcDbLine
 10
104.1778120512213
 20
291.5912374959719
 30
0.0
 11
99.33923679827366
 21
291.5912374959719
 31
0.0
  0
LINE
  5
69E8
330
69E4
100
AcDbEntity
  8
寸法
 62
     0
370
    -2
100
AcDbLine
 10
104.1778120512213
 20
289.5912374959719
 30
0.0
 11
99.33923679827366
 21
289.5912374959719
 31
0.0
  0
LINE
  5
69E9
330
69E4
100
AcDbEntity
  8
寸法
 62
     0
370
    -2
100
AcDbLine
 10
99.33923679827366
 20
289.5912374959719
 30
0.0
 11
99.33923679827366
 21
291.5912374959719
 31
0.0
  0
INSERT
  5
69EA
330
69E4
100
AcDbEntity
  8
寸法
 62
     0
370
    -2
100
AcDbBlockReference
  2
_DOT
 10
99.33923679827366
 20
291.5912374959719
 30
0.0
 41
2.0
 42
2.0
 43
2.0
 50
90.0
  0
INSERT
  5
69EB
330
69E4
100
AcDbEntity
  8
寸法
 62
     0
370
    -2
100
AcDbBlockReference
  2
_DOT
 10
99.33923679827366
 20
289.5912374959719
 30
0.0
 41
2.0
 42
2.0
 43
2.0
 50
270.0
  0
MTEXT
  5
69EC
330
69E4
100
AcDbEntity
  8
寸法
 62
     0
100
AcDbMText
 10
94.83923679827366
 20
290.5912374959719
 30
0.0
 40
5.0
 41
0.0
 46
0.0
 71
     5
 72
     1
  1
\A1;2
  7
ＭＳ ゴシック
 11
0.0
 21
1.0
 31
0.0
 73
     1
 44
1.0
  0
POINT
  5
69ED
330
69E4
100
AcDbEntity
  8
Defpoints
 62
     0
100
AcDbPoint
 10
109.1778120512213
 20
291.5912374959719
 30
0.0
  0
POINT
  5
69EE
330
69E4
100
AcDbEntity
  8
Defpoints
 62
     0
100
AcDbPoint
 10
109.1778120512213
 20
289.5912374959719
 30
0.0
  0
POINT
  5
69EF
330
69E4
100
AcDbEntity
  8
Defpoints
 62
     0
100
AcDbPoint
 10
99.33923679827366
 20
289.5912374959719
 30
0.0
  0
ENDBLK
  5
69E6
330
69E4
100
AcDbEntity
  8
0
100
AcDbBlockEnd
  0
BLOCK
  5
69F3
330
69F2
100
AcDbEntity
  8
0
100
AcDbBlockBegin
  2
*D13
 70
     1
 10
0.0
 20
0.0
 30
0.0
  3
*D13
  1

  0
LINE
  5
69F5
330
69F2
100
AcDbEntity
  8
寸法
 62
     0
370
    -2
100
AcDbLine
 10
104.1778120512213
 20
289.5912374959719
 30
0.0
 11
99.33923679827366
 21
289.5912374959719
 31
0.0
  0
LINE
  5
69F6
330
69F2
100
AcDbEntity
  8
寸法
 62
     0
370
    -2
100
AcDbLine
 10
148.8533960104427
 20
233.5912374959719
 30
0.0
 11
99.33923679827366
 21
233.5912374959719
 31
0.0
  0
LINE
  5
69F7
330
69F2
100
AcDbEntity
  8
寸法
 62
     0
370
    -2
100
AcDbLine
 10
99.33923679827366
 20
287.5912374959719
 30
0.0
 11
99.33923679827366
 21
235.5912374959719
 31
0.0
  0
INSERT
  5
69F8
330
69F2
100
AcDbEntity
  8
寸法
 62
     0
370
    -2
100
AcDbBlockReference
  2
_DOT
 10
99.33923679827366
 20
289.5912374959719
 30
0.0
 41
2.0
 42
2.0
 43
2.0
 50
90.0
  0
INSERT
  5
69F9
330
69F2
100
AcDbEntity
  8
寸法
 62
     0
370
    -2
100
AcDbBlockReference
  2
_DOT
 10
99.33923679827366
 20
233.5912374959719
 30
0.0
 41
2.0
 42
2.0
 43
2.0
 50
270.0
  0
MTEXT
  5
69FA
330
69F2
100
AcDbEntity
  8
寸法
 62
     0
100
AcDbMText
 10
94.83923679827366
 20
261.5912374959719
 30
0.0
 40
5.0
 41
0.0
 46
0.0
 71
     5
 72
     1
  1
\A1;56
  7
ＭＳ ゴシック
 11
0.0
 21
1.0
 31
0.0
 73
     1
 44
1.0
  0
POINT
  5
69FB
330
69F2
100
AcDbEntity
  8
Defpoints
 62
     0
100
AcDbPoint
 10
109.1778120512213
 20
289.5912374959719
 30
0.0
  0
POINT
  5
69FC
330
69F2
100
AcDbEntity
  8
Defpoints
 62
     0
100
AcDbPoint
 10
153.8533960104427
 20
233.5912374959719
 30
0.0
  0
POINT
  5
69FD
330
69F2
100
AcDbEntity
  8
Defpoints
 62
     0
100
AcDbPoint
 10
99.33923679827366
 20
233.5912374959719
 30
0.0
  0
ENDBLK
  5
69F4
330
69F2
100
AcDbEntity
  8
0
100
AcDbBlockEnd
  0
BLOCK
  5
6A02
330
6A01
100
AcDbEntity
  8
0
100
AcDbBlockBegin
  2
*D14
 70
     1
 10
0.0
 20
0.0
 30
0.0
  3
*D14
  1

  0
LINE
  5
6A04
330
6A01
100
AcDbEntity
  8
寸法
 62
     0
370
    -2
100
AcDbLine
 10
104.1778120512213
 20
291.5912374959719
 30
0.0
 11
86.03692781889336
 21
291.5912374959719
 31
0.0
  0
LINE
  5
6A05
330
6A01
100
AcDbEntity
  8
寸法
 62
     0
370
    -2
100
AcDbLine
 10
148.8533960104427
 20
233.5912374959719
 30
0.0
 11
86.03692781889336
 21
233.5912374959719
 31
0.0
  0
LINE
  5
6A06
330
6A01
100
AcDbEntity
  8
寸法
 62
     0
370
    -2
100
AcDbLine
 10
86.03692781889336
 20
289.5912374959719
 30
0.0
 11
86.03692781889336
 21
235.5912374959719
 31
0.0
  0
INSERT
  5
6A07
330
6A01
100
AcDbEntity
  8
寸法
 62
     0
370
    -2
100
AcDbBlockReference
  2
_DOT
 10
86.03692781889336
 20
291.5912374959719
 30
0.0
 41
2.0
 42
2.0
 43
2.0
 50
90.0
  0
INSERT
  5
6A08
330
6A01
100
AcDbEntity
  8
寸法
 62
     0
370
    -2
100
AcDbBlockReference
  2
_DOT
 10
86.03692781889336
 20
233.5912374959719
 30
0.0
 41
2.0
 42
2.0
 43
2.0
 50
270.0
  0
MTEXT
  5
6A09
330
6A01
100
AcDbEntity
  8
寸法
 62
     0
100
AcDbMText
 10
81.53692781889336
 20
262.5912374959719
 30
0.0
 40
5.0
 41
0.0
 46
0.0
 71
     5
 72
     1
  1
\A1;58
  7
ＭＳ ゴシック
 11
0.0
 21
1.0
 31
0.0
 73
     1
 44
1.0
  0
POINT
  5
6A0A
330
6A01
100
AcDbEntity
  8
Defpoints
 62
     0
100
AcDbPoint
 10
109.1778120512213
 20
291.5912374959719
 30
0.0
  0
POINT
  5
6A0B
330
6A01
100
AcDbEntity
  8
Defpoints
 62
     0
100
AcDbPoint
 10
153.8533960104427
 20
233.5912374959719
 30
0.0
  0
POINT
  5
6A0C
330
6A01
100
AcDbEntity
  8
Defpoints
 62
     0
100
AcDbPoint
 10
86.03692781889336
 20
233.5912374959719
 30
0.0
  0
ENDBLK
  5
6A03
330
6A01
100
AcDbEntity
  8
0
100
AcDbBlockEnd
  0
BLOCK
  5
6A9C
330
6A9B
100
AcDbEntity
  8
0
100
AcDbBlockBegin
  2
*D15
 70
     1
 10
0.0
 20
0.0
 30
0.0
  3
*D15
  1

  0
LINE
  5
6A9E
330
6A9B
100
AcDbEntity
  8
寸法
 62
     0
370
    -2
100
AcDbLine
 10
115.1778120512212
 20
325.544201864902
 30
0.0
 11
115.1778120512212
 21
331.8166582357978
 31
0.0
  0
LINE
  5
6A9F
330
6A9B
100
AcDbEntity
  8
寸法
 62
     0
370
    -2
100
AcDbLine
 10
153.1778120512213
 20
325.544201864902
 30
0.0
 11
153.1778120512213
 21
331.8166582357978
 31
0.0
  0
LINE
  5
6AA0
330
6A9B
100
AcDbEntity
  8
寸法
 62
     0
370
    -2
100
AcDbLine
 10
117.1778120512212
 20
331.8166582357978
 30
0.0
 11
151.1778120512213
 21
331.8166582357978
 31
0.0
  0
INSERT
  5
6AA1
330
6A9B
100
AcDbEntity
  8
寸法
 62
     0
370
    -2
100
AcDbBlockReference
  2
_DOT
 10
115.1778120512212
 20
331.8166582357978
 30
0.0
 41
2.0
 42
2.0
 43
2.0
 50
180.0
  0
INSERT
  5
6AA2
330
6A9B
100
AcDbEntity
  8
寸法
 62
     0
370
    -2
100
AcDbBlockReference
  2
_DOT
 10
153.1778120512213
 20
331.8166582357978
 30
0.0
 41
2.0
 42
2.0
 43
2.0
  0
MTEXT
  5
6AA3
330
6A9B
100
AcDbEntity
  8
寸法
 62
     0
100
AcDbMText
 10
134.1778120512213
 20
336.3166582357978
 30
0.0
 40
5.0
 41
0.0
 46
0.0
 71
     5
 72
     1
  1
\A1;38
  7
ＭＳ ゴシック
 73
     1
 44
1.0
  0
POINT
  5
6AA4
330
6A9B
100
AcDbEntity
  8
Defpoints
 62
     0
100
AcDbPoint
 10
115.1778120512212
 20
320.544201864902
 30
0.0
  0
POINT
  5
6AA5
330
6A9B
100
AcDbEntity
  8
Defpoints
 62
     0
100
AcDbPoint
 10
153.1778120512213
 20
320.544201864902
 30
0.0
  0
POINT
  5
6AA6
330
6A9B
100
AcDbEntity
  8
Defpoints
 62
     0
100
AcDbPoint
 10
153.1778120512213
 20
331.8166582357978
 30
0.0
  0
ENDBLK
  5
6A9D
330
6A9B
100
AcDbEntity
  8
0
100
AcDbBlockEnd
  0
BLOCK
  5
6B51
330
6B50
100
AcDbEntity
  8
0
100
AcDbBlockBegin
  2
*D16
 70
     1
 10
0.0
 20
0.0
 30
0.0
  3
*D16
  1

  0
LINE
  5
6B53
330
6B50
100
AcDbEntity
  8
寸法
 62
     0
370
    -2
100
AcDbLine
 10
354.8212811216713
 20
344.9733977752239
 30
0.0
 11
326.5458158986718
 21
344.9733977752239
 31
0.0
  0
LINE
  5
6B54
330
6B50
100
AcDbEntity
  8
寸法
 62
     0
370
    -2
100
AcDbLine
 10
354.8212811216713
 20
294.9733977752238
 30
0.0
 11
326.5458158986718
 21
294.9733977752238
 31
0.0
  0
LINE
  5
6B55
330
6B50
100
AcDbEntity
  8
寸法
 62
     0
370
    -2
100
AcDbLine
 10
326.5458158986718
 20
342.9733977752239
 30
0.0
 11
326.5458158986718
 21
296.9733977752238
 31
0.0
  0
INSERT
  5
6B56
330
6B50
100
AcDbEntity
  8
寸法
 62
     0
370
    -2
100
AcDbBlockReference
  2
_DOT
 10
326.5458158986718
 20
344.9733977752239
 30
0.0
 41
2.0
 42
2.0
 43
2.0
 50
90.0
  0
INSERT
  5
6B57
330
6B50
100
AcDbEntity
  8
寸法
 62
     0
370
    -2
100
AcDbBlockReference
  2
_DOT
 10
326.5458158986718
 20
294.9733977752238
 30
0.0
 41
2.0
 42
2.0
 43
2.0
 50
270.0
  0
MTEXT
  5
6B58
330
6B50
100
AcDbEntity
  8
寸法
 62
     0
100
AcDbMText
 10
322.0458158986718
 20
319.9733977752238
 30
0.0
 40
5.0
 41
0.0
 46
0.0
 71
     5
 72
     1
  1
\A1;50
  7
ＭＳ ゴシック
 11
0.0
 21
1.0
 31
0.0
 73
     1
 44
1.0
  0
POINT
  5
6B59
330
6B50
100
AcDbEntity
  8
Defpoints
 62
     0
100
AcDbPoint
 10
359.8212811216713
 20
344.9733977752239
 30
0.0
  0
POINT
  5
6B5A
330
6B50
100
AcDbEntity
  8
Defpoints
 62
     0
100
AcDbPoint
 10
359.8212811216713
 20
294.9733977752238
 30
0.0
  0
POINT
  5
6B5B
330
6B50
100
AcDbEntity
  8
Defpoints
 62
     0
100
AcDbPoint
 10
326.5458158986718
 20
294.9733977752238
 30
0.0
  0
ENDBLK
  5
6B52
330
6B50
100
AcDbEntity
  8
0
100
AcDbBlockEnd
  0
BLOCK
  5
708D
330
708C
100
AcDbEntity
  8
0
100
AcDbBlockBegin
  2
*D17
 70
     1
 10
0.0
 20
0.0
 30
0.0
  3
*D17
  1

  0
LINE
  5
708F
330
708C
100
AcDbEntity
  8
寸法
 62
     0
370
    -2
100
AcDbLine
 10
260.0565776793194
 20
168.6955878087287
 30
0.0
 11
276.1772966580428
 21
168.6955878087287
 31
0.0
  0
LINE
  5
7090
330
708C
100
AcDbEntity
  8
寸法
 62
     0
370
    -2
100
AcDbLine
 10
260.0565776793194
 20
149.6955878087287
 30
0.0
 11
276.1772966580428
 21
149.6955878087287
 31
0.0
  0
LINE
  5
7091
330
708C
100
AcDbEntity
  8
寸法
 62
     0
370
    -2
100
AcDbLine
 10
276.1772966580428
 20
166.6955878087287
 30
0.0
 11
276.1772966580428
 21
151.6955878087287
 31
0.0
  0
INSERT
  5
7092
330
708C
100
AcDbEntity
  8
寸法
 62
     0
370
    -2
100
AcDbBlockReference
  2
_DOT
 10
276.1772966580428
 20
168.6955878087287
 30
0.0
 41
2.0
 42
2.0
 43
2.0
 50
90.0
  0
INSERT
  5
7093
330
708C
100
AcDbEntity
  8
寸法
 62
     0
370
    -2
100
AcDbBlockReference
  2
_DOT
 10
276.1772966580428
 20
149.6955878087287
 30
0.0
 41
2.0
 42
2.0
 43
2.0
 50
270.0
  0
MTEXT
  5
7094
330
708C
100
AcDbEntity
  8
寸法
 62
     0
100
AcDbMText
 10
271.6772966580428
 20
159.1955878087287
 30
0.0
 40
5.0
 41
0.0
 46
0.0
 71
     5
 72
     1
  1
\A1;19
  7
ＭＳ ゴシック
 11
0.0
 21
1.0
 31
0.0
 73
     1
 44
1.0
  0
POINT
  5
7095
330
708C
100
AcDbEntity
  8
Defpoints
 62
     0
100
AcDbPoint
 10
255.0565776793194
 20
168.6955878087287
 30
0.0
  0
POINT
  5
7096
330
708C
100
AcDbEntity
  8
Defpoints
 62
     0
100
AcDbPoint
 10
255.0565776793194
 20
149.6955878087287
 30
0.0
  0
POINT
  5
7097
330
708C
100
AcDbEntity
  8
Defpoints
 62
     0
100
AcDbPoint
 10
276.1772966580428
 20
149.6955878087287
 30
0.0
  0
ENDBLK
  5
708E
330
708C
100
AcDbEntity
  8
0
100
AcDbBlockEnd
  0
BLOCK
  5
70A8
330
70A7
100
AcDbEntity
  8
0
100
AcDbBlockBegin
  2
*D18
 70
     1
 10
0.0
 20
0.0
 30
0.0
  3
*D18
  1

  0
LINE
  5
70AA
330
70A7
100
AcDbEntity
  8
寸法
 62
     0
370
    -2
100
AcDbLine
 10
161.1778120512212
 20
301.5912374959719
 30
0.0
 11
176.8319509787234
 21
301.5912374959719
 31
0.0
  0
LINE
  5
70AB
330
70A7
100
AcDbEntity
  8
寸法
 62
     0
370
    -2
100
AcDbLine
 10
164.1778120512213
 20
291.5912374959719
 30
0.0
 11
176.8319509787234
 21
291.5912374959719
 31
0.0
  0
LINE
  5
70AC
330
70A7
100
AcDbEntity
  8
寸法
 62
     0
370
    -2
100
AcDbLine
 10
176.8319509787234
 20
299.5912374959719
 30
0.0
 11
176.8319509787234
 21
293.5912374959719
 31
0.0
  0
INSERT
  5
70AD
330
70A7
100
AcDbEntity
  8
寸法
 62
     0
370
    -2
100
AcDbBlockReference
  2
_DOT
 10
176.8319509787234
 20
301.5912374959719
 30
0.0
 41
2.0
 42
2.0
 43
2.0
 50
90.0
  0
INSERT
  5
70AE
330
70A7
100
AcDbEntity
  8
寸法
 62
     0
370
    -2
100
AcDbBlockReference
  2
_DOT
 10
176.8319509787234
 20
291.5912374959719
 30
0.0
 41
2.0
 42
2.0
 43
2.0
 50
270.0
  0
MTEXT
  5
70AF
330
70A7
100
AcDbEntity
  8
寸法
 62
     0
100
AcDbMText
 10
172.3319509787234
 20
296.5912374959719
 30
0.0
 40
5.0
 41
0.0
 46
0.0
 71
     5
 72
     1
  1
\A1;10
  7
ＭＳ ゴシック
 11
0.0
 21
1.0
 31
0.0
 73
     1
 44
1.0
  0
POINT
  5
70B0
330
70A7
100
AcDbEntity
  8
Defpoints
 62
     0
100
AcDbPoint
 10
156.1778120512212
 20
301.5912374959719
 30
0.0
  0
POINT
  5
70B1
330
70A7
100
AcDbEntity
  8
Defpoints
 62
     0
100
AcDbPoint
 10
159.1778120512213
 20
291.5912374959719
 30
0.0
  0
POINT
  5
70B2
330
70A7
100
AcDbEntity
  8
Defpoints
 62
     0
100
AcDbPoint
 10
176.8319509787234
 20
291.5912374959719
 30
0.0
  0
ENDBLK
  5
70A9
330
70A7
100
AcDbEntity
  8
0
100
AcDbBlockEnd
  0
ENDSEC
  0
SECTION
  2
ENTITIES
  0
LINE
  5
5E4A
330
A
100
AcDbEntity
  8
PRINT BORDER
100
AcDbLine
 10
296.9999999999999
 20
0.0
 30
0.0
 11
296.9999999999999
 21
15.30952622855898
 31
0.0
  0
LINE
  5
5E4B
330
A
100
AcDbEntity
  8
テンプレート
100
AcDbLine
 10
437.9999999999999
 20
38.27810890422097
 30
0.0
 11
15.30952622855898
 21
38.27810890422097
 31
0.0
  0
LINE
  5
5E4C
330
A
100
AcDbEntity
  8
テンプレート
100
AcDbLine
 10
15.30952622855898
 20
26.22153683920783
 30
0.0
 11
578.6904737714407
 21
26.22153683920783
 31
0.0
  0
TEXT
  5
5E4D
330
A
100
AcDbEntity
  8
テンプレート
100
AcDbText
 10
18.06121699514119
 20
32.16825981613692
 30
0.0
 40
3.5
  1
材質
  7
ＭＳ ゴシック
100
AcDbText
  0
TEXT
  5
5E4E
330
A
100
AcDbEntity
  8
テンプレート
100
AcDbText
 10
36.7528253083583
 20
41.29280421576505
 30
0.0
 40
6.0
  1
サテン
  7
ＭＳ ゴシック
100
AcDbText
  0
TEXT
  5
5E4F
330
A
100
AcDbEntity
  8
テンプレート
100
AcDbText
 10
36.7528253083583
 20
29.19151340726899
 30
0.0
 40
5.5
  1
ステンレス
  7
ＭＳ ゴシック
100
AcDbText
  0
TEXT
  5
5E50
330
A
100
AcDbEntity
  8
テンプレート
100
AcDbText
 10
18.06121699514119
 20
56.50959028673083
 30
0.0
 40
3.5
  1
品名
  7
ＭＳ ゴシック
100
AcDbText
  0
TEXT
  5
5E51
330
A
100
AcDbEntity
  8
テンプレート
100
AcDbText
 10
18.06121699514119
 20
44.65099339080098
 30
0.0
 40
3.5
  1
仕上げ
  7
ＭＳ ゴシック
100
AcDbText
  0
TEXT
  5
5E52
330
A
100
AcDbEntity
  8
テンプレート
100
AcDbText
 10
298.8233485179306
 20
56.58523052309897
 30
0.0
 40
3.5
  1
品番
  7
ＭＳ ゴシック
100
AcDbText
  0
TEXT
  5
5E53
330
A
100
AcDbEntity
  8
テンプレート
100
AcDbText
 10
36.7528253083583
 20
53.09440584367189
 30
0.0
 40
5.5
  1
レバーハンドル(プレート座) - RANDI -
  7
ＭＳ ゴシック
100
AcDbText
  0
TEXT
  5
5E54
330
A
100
AcDbEntity
  8
テンプレート
100
AcDbText
 10
313.0171205424464
 20
52.977080524553
 30
0.0
 40
5.5
  1
RAN10-1090-P
  7
ＭＳ ゴシック
100
AcDbText
  0
LINE
  5
5E55
330
A
100
AcDbEntity
  8
テンプレート
100
AcDbLine
 10
437.9999999999999
 20
50.16496477419605
 30
0.0
 11
15.30952622855898
 21
50.16496477419605
 31
0.0
  0
LINE
  5
5E56
330
A
100
AcDbEntity
  8
テンプレート
100
AcDbLine
 10
578.6904737714411
 20
62.22153683920783
 30
0.0
 11
15.30952622855898
 21
62.22153683920783
 31
0.0
  0
LINE
  5
5E57
330
A
100
AcDbEntity
  8
PRINT BORDER
100
AcDbLine
 10
593.9999999999999
 20
210.0
 30
0.0
 11
578.6904737714411
 21
210.0
 31
0.0
  0
LINE
  5
5E58
330
A
100
AcDbEntity
  8
PRINT BORDER
100
AcDbLine
 10
0.0
 20
210.0
 30
0.0
 11
15.30952622855898
 21
210.0
 31
0.0
  0
LINE
  5
5E59
330
A
100
AcDbEntity
  8
PRINT BORDER
100
AcDbLine
 10
296.9999999999999
 20
420.0
 30
0.0
 11
296.9999999999999
 21
404.690473771441
 31
0.0
  0
LINE
  5
5E5A
330
A
100
AcDbEntity
  8
テンプレート
100
AcDbLine
 10
578.6904737714411
 20
62.22153683920783
 30
0.0
 11
578.6904737714411
 21
26.22153683920783
 31
0.0
  0
LINE
  5
5E5B
330
A
100
AcDbEntity
  8
テンプレート
100
AcDbLine
 10
15.30952622855898
 20
62.22153683920783
 30
0.0
 11
15.30952622855898
 21
26.22153683920783
 31
0.0
  0
TEXT
  5
5E5C
330
A
100
AcDbEntity
  8
テンプレート
100
AcDbText
 10
494.9733384955217
 20
16.51938390313694
 30
0.0
 40
5.5
  1
大洋金物株式会社  
  7
ＭＳ ゴシック
100
AcDbText
  0
LINE
  5
5E5D
330
A
100
AcDbEntity
  8
テンプレート
100
AcDbLine
 10
437.9999999999999
 20
62.22153683920783
 30
0.0
 11
437.9999999999999
 21
26.22153683920783
 31
0.0
  0
LINE
  5
5E5E
330
A
100
AcDbEntity
  8
テンプレート
100
AcDbLine
 10
296.9999999999999
 20
62.22153683920783
 30
0.0
 11
296.9999999999999
 21
26.22153683920783
 31
0.0
  0
INSERT
  5
5E5F
330
A
100
AcDbEntity
  8
テンプレート
100
AcDbBlockReference
  2
名称未設定-1
 10
548.3945198859805
 20
-7.642344203993161
 30
0.0
 41
0.180975
 42
0.180975
 43
0.180975
  0
LINE
  5
5E60
330
A
100
AcDbEntity
  8
テンプレート
100
AcDbLine
 10
15.30952622855898
 20
210.0
 30
0.0
 11
15.30952622855898
 21
26.22153683920783
 31
0.0
  0
LINE
  5
5E61
330
A
100
AcDbEntity
  8
テンプレート
100
AcDbLine
 10
15.30952622855898
 20
210.0
 30
0.0
 11
15.30952622855898
 21
404.690473771441
 31
0.0
  0
LINE
  5
5E62
330
A
100
AcDbEntity
  8
テンプレート
100
AcDbLine
 10
296.9999999999999
 20
404.690473771441
 30
0.0
 11
15.30952622855887
 21
404.690473771441
 31
0.0
  0
LINE
  5
5E63
330
A
100
AcDbEntity
  8
テンプレート
100
AcDbLine
 10
296.9999999999999
 20
404.690473771441
 30
0.0
 11
578.6904737714411
 21
404.690473771441
 31
0.0
  0
LINE
  5
5E64
330
A
100
AcDbEntity
  8
テンプレート
100
AcDbLine
 10
578.6904737714411
 20
210.0
 30
0.0
 11
578.6904737714411
 21
404.690473771441
 31
0.0
  0
LINE
  5
5E65
330
A
100
AcDbEntity
  8
テンプレート
100
AcDbLine
 10
578.6904737714411
 20
210.0
 30
0.0
 11
578.6904737714411
 21
26.22153683920783
 31
0.0
  0
LWPOLYLINE
  5
5E66
330
A
100
AcDbEntity
  8
PRINT BORDER
  6
HIDDEN
 48
3.0
100
AcDbPolyline
 90
        4
 70
     1
 43
0.0
 10
0.0
 20
0.0
 10
0.0
 20
420.0
 10
593.9999999999999
 20
420.0
 10
593.9999999999999
 20
0.0
  0
TEXT
  5
5E67
330
A
100
AcDbEntity
  8
テンプレート
100
AcDbText
 10
298.7989156222221
 20
32.62405342819488
 30
0.0
 40
3.5
  1
縮尺
  7
ＭＳ ゴシック
100
AcDbText
  0
TEXT
  5
5E68
330
A
100
AcDbEntity
  8
テンプレート
100
AcDbText
 10
313.0171205424464
 20
28.29362070227194
 30
0.0
 40
5.5
  1
1/2
  7
ＭＳ ゴシック
100
AcDbText
  0
TEXT
  5
5E69
330
A
100
AcDbEntity
  8
テンプレート
100
AcDbText
 10
298.8233485179306
 20
44.52865845808583
 30
0.0
 40
3.5
  1
扉厚
  7
ＭＳ ゴシック
100
AcDbText
  0
TEXT
  5
5E6A
330
A
100
AcDbEntity
  8
テンプレート
100
AcDbText
 10
313.0505831322699
 20
44.82304125840493
 30
0.0
 40
4.0
  1
MIWAケース：37～57
  7
ＭＳ ゴシック
100
AcDbText
  0
TEXT
  5
5E6B
330
A
100
AcDbEntity
  8
テンプレート
100
AcDbText
 10
440.0887524673468
 20
56.58523052309897
 30
0.0
 40
3.5
  1
備考
  7
ＭＳ ゴシック
100
AcDbText
  0
TEXT
  5
5E6C
330
A
100
AcDbEntity
  8
テンプレート
100
AcDbText
 10
449.0017237694899
 20
47.28154793898159
 30
0.0
 40
5.5
  1
取付方＝呼込み(ビス・ナット付)
  7
ＭＳ ゴシック
100
AcDbText
  0
TEXT
  5
5E70
330
A
100
AcDbEntity
  8
テンプレート
100
AcDbText
 10
313.0505831322699
 20
39.82799187435585
 30
0.0
 40
4.0
  1
ユーロケース(DIN規格)：34～58
  7
ＭＳ ゴシック
100
AcDbText
  0
MTEXT
  5
5FD9
102
{ACAD_XDICTIONARY
360
5FDA
102
}
330
A
100
AcDbEntity
  8
テンプレート
100
AcDbMText
 10
15.78567077270533
 20
24.01367737959613
 30
0.0
 40
4.0
 41
0.0
 46
4.0
 71
     1
 72
     1
  1
{20170908N}
  7
ＭＳ ゴシック
 73
     1
 44
1.0
1001
ACAD
1000
ACAD_MTEXT_DEFINED_HEIGHT_BEGIN
1070
    46
1040
4.0
1000
ACAD_MTEXT_DEFINED_HEIGHT_END
  0
HATCH
  5
62E2
330
A
100
AcDbEntity
  8
CutoutOverlay
100
AcDbHatch
 10
0.0
 20
0.0
 30
0.0
210
0.0
220
0.0
230
1.0
  2
ANSI31
 70
     0
 71
     1
 91
        3
 92
        1
 93
        1
 72
     2
 10
350.4599190935024
 20
168.5052005871414
 40
4.0
 50
0.0
 51
360.0
 73
     1
 97
        1
330
62E4
 92
        1
 93
        1
 72
     2
 10
369.4599190935024
 20
168.5052005871414
 40
15.0
 50
0.0
 51
360.0
 73
     1
 97
        1
330
62E3
 92
        1
 93
        1
 72
     2
 10
388.4599190935024
 20
168.5052005871414
 40
4.0
 50
0.0
 51
360.0
 73
     1
 97
        1
330
62F0
 75
     0
 76
     1
 52
0.0
 41
1.0
 77
     0
 78
     1
 53
45.0
 43
-39.41220541805251
 44
-12.35764633289654
 45
-2.245064030267288
 46
2.245064030267288
 79
     0
 98
        1
 10
-39.41220541805251
 20
-12.35764633289654
1001
ACAD
1010
0.0
1020
0.0
1030
0.0
  0
CIRCLE
  5
62E3
102
{ACAD_REACTORS
330
62EB
330
62E2
102
}
330
A
100
AcDbEntity
  8
CutoutOverlay
100
AcDbCircle
 10
369.4599190935024
 20
168.5052005871414
 30
0.0
 40
15.0
  0
CIRCLE
  5
62E4
102
{ACAD_REACTORS
330
62E2
102
}
330
A
100
AcDbEntity
  8
CutoutOverlay
100
AcDbCircle
 10
350.4599190935024
 20
168.5052005871414
 30
0.0
 40
4.0
  0
DIMENSION
  5
62E5
330
A
100
AcDbEntity
  8
寸法
100
AcDbDimension
  2
*D8
 10
350.4599190935024
 20
132.1996542806003
 30
0.0
 11
341.4649190935023
 21
132.1996542806003
 31
0.0
 70
   160
  1
ø8
 71
     5
 42
38.0
 73
     0
 74
     1
 75
     1
  3
tfrom線あり
100
AcDbAlignedDimension
 13
388.4599190935024
 23
164.9875618622925
 33
0.0
 14
350.4599190935024
 24
164.9875618622925
 34
0.0
100
AcDbRotatedDimension
1001
ACAD
1000
DSTYLE
1002
{
1070
    42
1040
0.0
1070
    73
1070
     0
1070
   147
1040
2.0
1070
   172
1070
     1
1002
}
  0
LEADER
  5
62E6
102
{ACAD_XDICTIONARY
360
62E7
102
}
330
A
100
AcDbEntity
  8
寸法
100
AcDbLeader
  3
tfrom線あり
 76
     3
 10
369.4599190935024
 20
168.5052005871414
 30
0.0
 10
402.7408059950554
 20
144.2093031159238
 30
0.0
 10
470.6960845226633
 20
144.2093031159238
 30
0.0
  0
TEXT
  5
62E8
330
A
100
AcDbEntity
  8
寸法
100
AcDbText
 10
404.3217430646785
 20
146.8447560656193
 30
0.0
 40
5.0
  1
レバー角芯 センター
  7
ＭＳ ゴシック
100
AcDbText
  0
LEADER
  5
62E9
102
{ACAD_REACTORS
330
62EB
102
}
102
{ACAD_XDICTIONARY
360
62EA
102
}
330
A
100
AcDbEntity
  8
寸法
100
AcDbLeader
  3
tfrom線あり
 76
     3
 10
369.4599190935024
 20
183.5052005871414
 30
0.0
 10
369.4599190935024
 20
188.3761289553302
 30
0.0
 10
408.5409016314902
 20
188.3761289553302
 30
0.0
1001
ACAD
1000
DSTYLE
1002
{
1070
   341
1005
4163
1002
}
  0
TEXT
  5
62EC
330
A
100
AcDbEntity
  8
寸法
100
AcDbText
 10
398.6573496982382
 20
190.6850033828064
 30
0.0
 40
5.0
  1
ø30
  7
ＭＳ ゴシック
100
AcDbText
  0
DIMENSION
  5
62ED
330
A
100
AcDbEntity
  8
寸法
100
AcDbDimension
  2
*D9
 10
388.530989035183
 20
201.4446872012076
 30
0.0
 11
378.9954540643427
 21
205.9446872012076
 31
0.0
 70
    32
 71
     5
 42
19.07106994168061
 73
     0
 74
     0
 75
     0
  3
tfrom線あり
100
AcDbAlignedDimension
 13
369.4599190935024
 23
189.5011778482723
 33
0.0
 14
388.530989035183
 24
181.1643118080976
 34
0.0
100
AcDbRotatedDimension
  0
DIMENSION
  5
62EE
330
A
100
AcDbEntity
  8
寸法
100
AcDbDimension
  2
*D10
 10
369.4599190935024
 20
201.4446872012076
 30
0.0
 11
359.9954540643427
 21
205.9446872012076
 31
0.0
 70
    32
 71
     5
 42
18.92893005831939
 73
     0
 74
     0
 75
     0
  3
tfrom線あり
100
AcDbAlignedDimension
 13
350.530989035183
 23
181.1643118080976
 33
0.0
 14
369.4599190935024
 24
189.5011778482723
 34
0.0
100
AcDbRotatedDimension
  0
TEXT
  5
62EF
330
A
100
AcDbEntity
  8
寸法
100
AcDbText
 10
315.1937846617384
 20
216.1094832709044
 30
0.0
 40
5.0
  1
<切欠図>
  7
ＭＳ ゴシック
100
AcDbText
  0
CIRCLE
  5
62F0
102
{ACAD_REACTORS
330
62E2
102
}
330
A
100
AcDbEntity
  8
CutoutOverlay
100
AcDbCircle
 10
388.4599190935024
 20
168.5052005871414
 30
0.0
 40
4.0
  0
TEXT
  5
6624
330
A
100
AcDbEntity
  8
テンプレート
100
AcDbText
 10
192.6640855805966
 20
95.04979593480049
 30
0.0
 40
5.0
  1
　 加工は現物合わせの上行って下さい。
  7
ＭＳ ゴシック
100
AcDbText
  0
TEXT
  5
6625
330
A
100
AcDbEntity
  8
テンプレート
100
AcDbText
 10
192.8363286628053
 20
103.1535800309407
 30
0.0
 40
5.0
  1
※ 輸入製品の為、国内製品と比べ製品寸法の個体差に幅が有ります。
  7
ＭＳ ゴシック
100
AcDbText
  0
TEXT
  5
6626
330
A
100
AcDbEntity
  8
テンプレート
100
AcDbText
 10
192.6640855805966
 20
85.67816463031998
 30
0.0
 40
5.0
  1
※ ご注文の際は正確な扉厚の指示をしてください。
  7
ＭＳ ゴシック
100
AcDbText
  0
TEXT
  5
6627
330
A
100
AcDbEntity
  8
テンプレート
100
AcDbText
 10
192.6640855805966
 20
76.97867599933406
 30
0.0
 40
5.0
  1
※ イモネジ・ビスのゆるみ止め防止のために金属製ネジ用ゆるみ止剤(中強度タイプ)
  7
ＭＳ ゴシック
100
AcDbText
  0
TEXT
  5
6628
330
A
100
AcDbEntity
  8
テンプレート
100
AcDbText
 10
188.8996399017463
 20
67.53780285295781
 30
0.0
 40
5.0
  1
　　を用意して塗布してください。(推奨商品　住友3M社TL42J等)
  7
ＭＳ ゴシック
100
AcDbText
  0
ARC
  5
6847
330
A
100
AcDbEntity
  8
モデル
100
AcDbCircle
 10
470.4599190935023
 20
319.9733977752239
 30
0.0
 40
5.499999999999998
100
AcDbArc
 50
270.7339743164126
 51
89.26602283996772
  0
ARC
  5
6848
330
A
100
AcDbEntity
  8
モデル
100
AcDbCircle
 10
369.4599190935024
 20
319.9733977752239
 30
0.0
 40
9.49999999999999
100
AcDbArc
 50
73.05726801872095
 51
286.9433508581856
  0
SPLINE
  5
6849
330
A
100
AcDbEntity
  8
モデル
100
AcDbSpline
210
0.0
220
0.0
230
1.0
 70
     8
 71
     3
 72
    24
 73
    20
 74
     0
 42
0.000000001
 43
0.0000000001
 40
0.0
 40
0.0
 40
0.0
 40
0.0
 40
2.78519266288026
 40
2.78519266288026
 40
5.576983303677839
 40
5.576983303677839
 40
8.365652325856988
 40
8.365652325856988
 40
9.05154747800412
 40
9.05154747800412
 40
9.724210251033476
 40
9.724210251033476
 40
10.48299584820366
 40
10.48299584820366
 40
10.84315219527305
 40
10.84315219527305
 40
11.17522774786123
 40
11.17522774786123
 40
11.41658609296603
 40
11.41658609296603
 40
11.41658609296603
 40
11.41658609296603
 10
470.5802069375352
 20
314.4760291620458
 30
0.0
 10
463.6430860482468
 20
314.1724470760395
 30
0.0
 10
455.7140649343241
 20
313.8658089320123
 30
0.0
 10
438.8482340327763
 20
313.2583949129985
 30
0.0
 10
429.7307605809027
 20
312.951055183127
 30
0.0
 10
411.3162483090032
 20
312.3433117684265
 30
0.0
 10
401.8190379862745
 20
312.0363097971722
 30
0.0
 10
390.3924060329601
 20
311.6577489880349
 30
0.0
 10
388.1183121986334
 20
311.5826827857867
 30
0.0
 10
383.8348099640901
 20
311.4347134186431
 30
0.0
 10
381.7953242055388
 20
311.3607278552626
 30
0.0
 10
377.9129051062686
 20
311.2055445032723
 30
0.0
 10
376.0742923775638
 20
311.1221857400749
 30
0.0
 10
373.9374485585545
 20
311.0042741839774
 30
0.0
 10
373.329153744505
 20
310.9666516298774
 30
0.0
 10
372.3612640656419
 20
310.8981948589452
 30
0.0
 10
371.9819893557412
 20
310.866391835312
 30
0.0
 10
371.549265594356
 20
310.8234719140364
 30
0.0
 10
371.4305529549606
 20
310.8079090020453
 30
0.0
 10
371.4305529553442
 20
310.8079090021001
 30
0.0
  0
SPLINE
  5
684A
330
A
100
AcDbEntity
  8
モデル
100
AcDbSpline
210
0.0
220
0.0
230
1.0
 70
     8
 71
     3
 72
    28
 73
    24
 74
     0
 42
0.000000001
 43
0.0000000001
 40
14.48678654122874
 40
14.48678654122874
 40
14.48678654122874
 40
14.48678654122874
 40
14.52702739317497
 40
14.52702739317497
 40
14.75138454390014
 40
14.75138454390014
 40
15.12329398264557
 40
15.12329398264557
 40
15.67447069646427
 40
15.67447069646427
 40
16.36602346919812
 40
16.36602346919812
 40
17.10401604028873
 40
17.10401604028873
 40
17.86177503688437
 40
17.86177503688437
 40
18.76931620066971
 40
18.76931620066971
 40
21.51653197982191
 40
21.51653197982191
 40
24.30254890015671
 40
24.30254890015671
 40
25.91180400661487
 40
25.91180400661487
 40
25.91180400661487
 40
25.91180400661487
 10
371.4305529553469
 20
329.1388865483473
 30
0.0
 10
371.4305529553549
 20
329.1388865483461
 30
0.0
 10
371.4340130319046
 20
329.1383950676238
 30
0.0
 10
371.4766182534962
 20
329.1327312183618
 30
0.0
 10
371.6038723782915
 20
329.117483831271
 30
0.0
 10
372.0856372854928
 20
329.0710263827464
 30
0.0
 10
372.5424223451231
 20
329.0343552612654
 30
0.0
 10
373.9236153860551
 20
328.9414267329815
 30
0.0
 10
374.9850665026914
 20
328.8822335358832
 30
0.0
 10
377.7365659874788
 20
328.7491470515811
 30
0.0
 10
379.5553113681794
 20
328.6732724534138
 30
0.0
 10
383.6462882130293
 20
328.5179794768015
 30
0.0
 10
385.988612316499
 20
328.4365940523856
 30
0.0
 10
390.8486833091106
 20
328.2735695624706
 30
0.0
 10
393.3499120680436
 20
328.1909191870441
 30
0.0
 10
398.8544311432188
 20
328.0095294072565
 30
0.0
 10
401.876505460003
 20
327.9105792459778
 30
0.0
 10
414.0480022829988
 20
327.512560224513
 30
0.0
 10
423.3274798637809
 20
327.2102156555348
 30
0.0
 10
441.1259688361044
 20
326.6076151357582
 30
0.0
 10
449.8199482585044
 20
326.3009228836622
 30
0.0
 10
462.2472019893871
 20
325.8221287296728
 30
0.0
 10
466.5720112518334
 20
325.6461729333948
 30
0.0
 10
470.5802069375352
 20
325.470766388402
 30
0.0
  0
SPLINE
  5
684F
330
A
100
AcDbEntity
  8
モデル
100
AcDbSpline
210
0.0
220
0.0
230
1.0
 70
    28
 71
     2
 72
     6
 73
     3
 74
     0
 42
0.000000001
 43
0.0000000001
 40
0.1075065677739789
 40
0.1075065677739789
 40
0.1075065677739789
 40
0.3974686791476238
 40
0.3974686791476238
 40
0.3974686791476238
 10
349.3208317969762
 20
322.7233977752239
 30
0.0
 41
1.091402125117523
 10
348.5153754452515
 20
321.917941423499
 30
0.0
 41
1.181325147610837
 10
347.7099190935022
 20
321.1124850717499
 30
0.0
 41
1.091402125115353
  0
SPLINE
  5
6850
330
A
100
AcDbEntity
  8
モデル
100
AcDbSpline
210
0.0
220
0.0
230
1.0
 70
    28
 71
     2
 72
     6
 73
     3
 74
     0
 42
0.000000001
 43
0.0000000001
 40
0.1075065677739793
 40
0.1075065677739793
 40
0.1075065677739793
 40
0.3974686791476233
 40
0.3974686791476233
 40
0.3974686791476233
 10
351.5990063900286
 20
322.7233977752239
 30
0.0
 41
1.091402125117523
 10
350.4599190935195
 20
322.7233977752238
 30
0.0
 41
1.181325147610836
 10
349.3208317969762
 20
322.7233977752239
 30
0.0
 41
1.091402125115353
  0
SPLINE
  5
6851
330
A
100
AcDbEntity
  8
モデル
100
AcDbSpline
210
0.0
220
0.0
230
1.0
 70
    28
 71
     2
 72
     6
 73
     3
 74
     0
 42
0.000000001
 43
0.0000000001
 40
0.1075065677739789
 40
0.1075065677739789
 40
0.1075065677739789
 40
0.3974686791476232
 40
0.3974686791476232
 40
0.3974686791476232
 10
353.2099190935025
 20
321.1124850717499
 30
0.0
 41
1.091402125117524
 10
352.4044627417775
 20
321.9179414234749
 30
0.0
 41
1.181325147610838
 10
351.5990063900283
 20
322.7233977752238
 30
0.0
 41
1.091402125115354
  0
SPLINE
  5
6852
330
A
100
AcDbEntity
  8
モデル
100
AcDbSpline
210
0.0
220
0.0
230
1.0
 70
    28
 71
     2
 72
     6
 73
     3
 74
     0
 42
0.000000001
 43
0.0000000001
 40
0.1075065677739799
 40
0.1075065677739799
 40
0.1075065677739799
 40
0.3974686791476239
 40
0.3974686791476239
 40
0.3974686791476239
 10
353.2099190935025
 20
318.8343104786979
 30
0.0
 41
1.091402125117524
 10
353.2099190935023
 20
319.9733977752069
 30
0.0
 41
1.181325147610837
 10
353.2099190935023
 20
321.1124850717499
 30
0.0
 41
1.091402125115354
  0
SPLINE
  5
6853
330
A
100
AcDbEntity
  8
モデル
100
AcDbSpline
210
0.0
220
0.0
230
1.0
 70
    28
 71
     2
 72
     6
 73
     3
 74
     0
 42
0.000000001
 43
0.0000000001
 40
0.1075065677739796
 40
0.1075065677739796
 40
0.1075065677739796
 40
0.3974686791476233
 40
0.3974686791476233
 40
0.3974686791476233
 10
351.5990063900284
 20
317.2233977752239
 30
0.0
 41
1.091402125117523
 10
352.4044627417534
 20
318.0288541269486
 30
0.0
 41
1.181325147610835
 10
353.2099190935026
 20
318.8343104786979
 30
0.0
 41
1.091402125115353
  0
SPLINE
  5
6854
330
A
100
AcDbEntity
  8
モデル
100
AcDbSpline
210
0.0
220
0.0
230
1.0
 70
    28
 71
     2
 72
     6
 73
     3
 74
     0
 42
0.000000001
 43
0.0000000001
 40
0.1075065677739789
 40
0.1075065677739789
 40
0.1075065677739789
 40
0.3974686791476234
 40
0.3974686791476234
 40
0.3974686791476234
 10
349.3208317969762
 20
317.2233977752239
 30
0.0
 41
1.091402125117523
 10
350.4599190934854
 20
317.2233977752239
 30
0.0
 41
1.181325147610835
 10
351.5990063900284
 20
317.2233977752238
 30
0.0
 41
1.091402125115353
  0
SPLINE
  5
6855
330
A
100
AcDbEntity
  8
モデル
100
AcDbSpline
210
0.0
220
0.0
230
1.0
 70
    28
 71
     2
 72
     6
 73
     3
 74
     0
 42
0.000000001
 43
0.0000000001
 40
0.1075065677739793
 40
0.1075065677739793
 40
0.1075065677739793
 40
0.397468679147623
 40
0.397468679147623
 40
0.397468679147623
 10
347.7099190935025
 20
318.8343104786979
 30
0.0
 41
1.091402125117522
 10
348.5153754452273
 20
318.0288541269728
 30
0.0
 41
1.181325147610833
 10
349.3208317969762
 20
317.2233977752239
 30
0.0
 41
1.091402125115352
  0
SPLINE
  5
6856
330
A
100
AcDbEntity
  8
モデル
100
AcDbSpline
210
0.0
220
0.0
230
1.0
 70
    28
 71
     2
 72
     6
 73
     3
 74
     0
 42
0.000000001
 43
0.0000000001
 40
0.1075065677739789
 40
0.1075065677739789
 40
0.1075065677739789
 40
0.3974686791476241
 40
0.3974686791476241
 40
0.3974686791476241
 10
347.7099190935026
 20
321.11248507175
 30
0.0
 41
1.091402125117523
 10
347.7099190935023
 20
319.9733977752409
 30
0.0
 41
1.181325147610837
 10
347.7099190935022
 20
318.8343104786979
 30
0.0
 41
1.091402125115353
  0
CIRCLE
  5
6857
330
A
100
AcDbEntity
  8
モデル
100
AcDbCircle
 10
350.4599190935024
 20
319.9733977752239
 30
0.0
 40
3.500000000000006
  0
ARC
  5
6858
330
A
100
AcDbEntity
  8
モデル
100
AcDbCircle
 10
369.4599190935024
 20
319.9733977752239
 30
0.0
 40
25.00000000000004
100
AcDbArc
 50
19.21288103485209
 51
340.7869815835276
  0
SPLINE
  5
686D
330
A
100
AcDbEntity
  8
HIDDEN
 48
0.75
100
AcDbSpline
210
0.0
220
0.0
230
1.0
 70
     8
 71
     3
 72
    22
 73
    18
 74
     0
 42
0.000000001
 43
0.0000000001
 40
0.3722662218752164
 40
0.3722662218752164
 40
0.3722662218752164
 40
0.3722662218752164
 40
0.4653252734252767
 40
0.4653252734252767
 40
0.5583843249753371
 40
0.5583843249753371
 40
0.651458384362885
 40
0.651458384362885
 40
0.7445324437504328
 40
0.7445324437504328
 40
0.8376065031379807
 40
0.8376065031379807
 40
0.9306805625255284
 40
0.9306805625255284
 40
1.023739614075589
 40
1.023739614075589
 40
1.116798665625649
 40
1.116798665625649
 40
1.116798665625649
 40
1.116798665625649
 10
195.7289197373398
 20
158.739273112353
 30
0.0
 10
195.7289197373398
 20
159.0494699508532
 30
0.0
 10
195.7912006352646
 20
159.3793932595594
 30
0.0
 10
196.0425443766728
 20
159.9847165627089
 30
0.0
 10
196.2315309372946
 20
160.2602283554019
 30
0.0
 10
196.6664995656356
 20
160.695196983743
 30
0.0
 10
196.9419968088349
 20
160.884156228183
 30
0.0
 10
197.5472683154022
 20
161.1354799944148
 30
0.0
 10
197.8771728727147
 20
161.197773112353
 30
0.0
 10
198.4976666019651
 20
161.197773112353
 30
0.0
 10
198.8275711592776
 20
161.1354799944148
 30
0.0
 10
199.4328426658448
 20
160.884156228183
 30
0.0
 10
199.7083399090441
 20
160.695196983743
 30
0.0
 10
200.1433085373851
 20
160.2602283554019
 30
0.0
 10
200.3322950980068
 20
159.9847165627089
 30
0.0
 10
200.583638839415
 20
159.3793932595594
 30
0.0
 10
200.6459197373398
 20
159.0494699508532
 30
0.0
 10
200.6459197373398
 20
158.739273112353
 30
0.0
  0
SPLINE
  5
686E
330
A
100
AcDbEntity
  8
HIDDEN
 48
0.75
100
AcDbSpline
210
0.0
220
0.0
230
1.0
 70
     8
 71
     3
 72
    23
 73
    19
 74
     0
 42
0.000000001
 43
0.0000000001
 40
1.116798665625649
 40
1.116798665625649
 40
1.116798665625649
 40
1.116798665625649
 40
1.209857717175709
 40
1.209857717175709
 40
1.30291676872577
 40
1.30291676872577
 40
1.395990828113318
 40
1.395990828113318
 40
1.489064887500866
 40
1.489064887500866
 40
1.489064887500866
 40
1.582138946888413
 40
1.582138946888413
 40
1.675213006275961
 40
1.675213006275961
 40
1.768272057826022
 40
1.768272057826022
 40
1.861331109376082
 40
1.861331109376082
 40
1.861331109376082
 40
1.861331109376082
 10
200.6459197373398
 20
158.739273112353
 30
0.0
 10
200.6459197373398
 20
158.4290762738528
 30
0.0
 10
200.583638839415
 20
158.0991529651466
 30
0.0
 10
200.3322950980068
 20
157.4938296619971
 30
0.0
 10
200.1433085373851
 20
157.2183178693041
 30
0.0
 10
199.7083399090441
 20
156.783349240963
 30
0.0
 10
199.4328426658448
 20
156.5943899965229
 30
0.0
 10
198.8275711592776
 20
156.3430662302911
 30
0.0
 10
198.4976666019651
 20
156.280773112353
 30
0.0
 10
198.1874197373399
 20
156.280773112353
 30
0.0
 10
197.8771728727147
 20
156.280773112353
 30
0.0
 10
197.5472683154022
 20
156.3430662302911
 30
0.0
 10
196.941996808835
 20
156.5943899965229
 30
0.0
 10
196.6664995656356
 20
156.783349240963
 30
0.0
 10
196.2315309372946
 20
157.2183178693041
 30
0.0
 10
196.0425443766728
 20
157.4938296619971
 30
0.0
 10
195.7912006352646
 20
158.0991529651466
 30
0.0
 10
195.7289197373398
 20
158.4290762738528
 30
0.0
 10
195.7289197373398
 20
158.739273112353
 30
0.0
  0
LINE
  5
686F
330
A
100
AcDbEntity
  8
モデル
100
AcDbLine
 10
211.4574197373427
 20
149.239273112353
 30
0.0
 11
190.1874197373427
 21
149.239273112353
 31
0.0
  0
LINE
  5
6870
330
A
100
AcDbEntity
  8
モデル
100
AcDbLine
 10
211.4574197373427
 20
168.239273112353
 30
0.0
 11
190.1874197373427
 21
168.239273112353
 31
0.0
  0
SPLINE
  5
6881
330
A
100
AcDbEntity
  8
モデル
100
AcDbSpline
210
0.0
220
0.0
230
1.0
 70
     8
 71
     3
 72
    50
 73
    46
 74
     0
 42
0.000000001
 43
0.0000000001
 40
0.0
 40
0.0
 40
0.0
 40
0.0
 40
1.009735900115357
 40
1.009735900115357
 40
1.980781414839414
 40
1.980781414839414
 40
2.77161835070209
 40
2.77161835070209
 40
3.626162753907446
 40
3.626162753907446
 40
4.662149475059241
 40
4.662149475059241
 40
4.890809891299715
 40
4.890809891299715
 40
5.025974872142392
 40
5.025974872142392
 40
5.229869388029718
 40
5.229869388029718
 40
5.428462678601177
 40
5.428462678601177
 40
5.649809106186367
 40
5.649809106186367
 40
5.884844773907378
 40
5.884844773907378
 40
6.123095547111299
 40
6.123095547111299
 40
6.356009385676293
 40
6.356009385676293
 40
6.568467037574205
 40
6.568467037574205
 40
6.763530939773364
 40
6.763530939773364
 40
7.002528895638663
 40
7.002528895638663
 40
7.422038628339881
 40
7.422038628339881
 40
8.614748325543353
 40
8.614748325543353
 40
9.463976364190563
 40
9.463976364190563
 40
10.34342580835865
 40
10.34342580835865
 40
11.1443915111552
 40
11.1443915111552
 40
11.50295960710975
 40
11.50295960710975
 40
11.50295960710975
 40
11.50295960710975
 10
211.4574197373427
 20
168.239273112353
 30
0.0
 10
214.8214089518993
 20
168.1292997964695
 30
0.0
 10
218.2809352049833
 20
168.017298331049
 30
0.0
 10
224.5016068062241
 20
167.8014679052193
 30
0.0
 10
227.3786802801437
 20
167.6936008346443
 30
0.0
 10
231.7207665073886
 20
167.5000113720259
 30
0.0
 10
233.4009449958804
 20
167.4122158110052
 30
0.0
 10
236.1815015692498
 20
167.2201093047285
 30
0.0
 10
237.4425922379876
 20
167.0777212992241
 30
0.0
 10
239.1049407641794
 20
166.7868815525002
 30
0.0
 10
239.8198488842531
 20
166.7347061376689
 30
0.0
 10
241.6783639588766
 20
165.9120661734148
 30
0.0
 10
242.0723329939149
 20
165.7159737047364
 30
0.0
 10
242.7778165484059
 20
165.2644268773237
 30
0.0
 10
243.0588278358903
 20
165.0637180134441
 30
0.0
 10
243.769867241174
 20
164.4725784086913
 30
0.0
 10
244.2099901671031
 20
164.0277888555715
 30
0.0
 10
244.9733316022414
 20
163.025911609318
 30
0.0
 10
245.3079373311044
 20
162.4621089977442
 30
0.0
 10
245.8545596865709
 20
161.1981083937197
 30
0.0
 10
246.0551512382933
 20
160.4742947658929
 30
0.0
 10
246.2491148021697
 20
158.9673783924168
 30
0.0
 10
246.2313432884352
 20
158.1638440684427
 30
0.0
 10
245.9621207154176
 20
156.6130918691622
 30
0.0
 10
245.7031805932913
 20
155.8460626151906
 30
0.0
 10
245.0054924072094
 20
154.4805934706243
 30
0.0
 10
244.5595459840583
 20
153.8603294740319
 30
0.0
 10
243.6482018647205
 20
152.8838154102961
 30
0.0
 10
243.1794632691328
 20
152.4979947421499
 30
0.0
 10
242.3622221569909
 20
151.9346065698588
 30
0.0
 10
241.9999880554793
 20
151.7334320214264
 30
0.0
 10
241.2975619410363
 20
151.3868200685765
 30
0.0
 10
240.9708762683572
 20
151.2577746569936
 30
0.0
 10
240.1766729405962
 20
150.9736175501667
 30
0.0
 10
239.7750884581205
 20
150.8676711301335
 30
0.0
 10
238.3056319915922
 20
150.5170868544536
 30
0.0
 10
237.1791777376653
 20
150.3417236967956
 30
0.0
 10
233.9483525948917
 20
150.0969533194556
 30
0.0
 10
232.2191324481015
 20
150.0028952582162
 30
0.0
 10
228.0427411271696
 20
149.8127132436063
 30
0.0
 10
225.5214124040694
 20
149.7153047774897
 30
0.0
 10
220.3682813683877
 20
149.5321465324819
 30
0.0
 10
217.7021393974295
 20
149.4437124696129
 30
0.0
 10
213.8491885406993
 20
149.317408376155
 30
0.0
 10
212.6520085474834
 20
149.2783258215591
 30
0.0
 10
211.4574197373427
 20
149.239273112353
 30
0.0
  0
LINE
  5
688E
330
A
100
AcDbEntity
  8
モデル
100
AcDbLine
 10
190.1874197373427
 20
183.7392731123529
 30
0.0
 11
190.1874197373427
 21
133.7392731123531
 31
0.0
  0
LINE
  5
688F
330
A
100
AcDbEntity
  8
モデル
100
AcDbLine
 10
188.1874197373427
 20
183.7392731123529
 30
0.0
 11
188.1874197373427
 21
133.7392731123531
 31
0.0
  0
LINE
  5
6890
330
A
100
AcDbEntity
  8
モデル
100
AcDbLine
 10
188.1874197373427
 20
183.7392731123529
 30
0.0
 11
190.1874197373427
 21
183.7392731123529
 31
0.0
  0
LINE
  5
6891
330
A
100
AcDbEntity
  8
モデル
100
AcDbLine
 10
188.1874197373427
 20
133.7392731123531
 30
0.0
 11
190.1874197373427
 21
133.7392731123531
 31
0.0
  0
SPLINE
  5
6892
330
A
100
AcDbEntity
  8
モデル
100
AcDbSpline
210
0.0
220
0.0
230
1.0
 70
     8
 71
     3
 72
    22
 73
    18
 74
     0
 42
0.000000001
 43
0.0000000001
 40
0.3722662218752164
 40
0.3722662218752164
 40
0.3722662218752164
 40
0.3722662218752164
 40
0.4653252734252767
 40
0.4653252734252767
 40
0.5583843249753371
 40
0.5583843249753371
 40
0.651458384362885
 40
0.651458384362885
 40
0.7445324437504328
 40
0.7445324437504328
 40
0.8376065031379807
 40
0.8376065031379807
 40
0.9306805625255284
 40
0.9306805625255284
 40
1.023739614075589
 40
1.023739614075589
 40
1.116798665625649
 40
1.116798665625649
 40
1.116798665625649
 40
1.116798665625649
 10
124.6778120512213
 20
284.049737495972
 30
0.0
 10
124.6778120512213
 20
284.049737495972
 30
0.0
 10
124.6945235173666
 20
283.9874565980473
 30
0.0
 10
124.7548939343608
 20
283.7361128566392
 30
0.0
 10
124.7977467301531
 20
283.5471262960178
 30
0.0
 10
124.8787095207805
 20
283.1121576676767
 30
0.0
 10
124.9222070597807
 20
282.8366604244774
 30
0.0
 10
124.9840674164271
 20
282.2313889179105
 30
0.0
 10
125.0014414315265
 20
281.9014843605977
 30
0.0
 10
125.0014414315265
 20
281.2809906313474
 30
0.0
 10
124.9840674164271
 20
280.9510860740349
 30
0.0
 10
124.9222070597807
 20
280.3458145674676
 30
0.0
 10
124.8787095207805
 20
280.0703173242683
 30
0.0
 10
124.7977467301531
 20
279.6353486959271
 30
0.0
 10
124.7548939343608
 20
279.4463621353054
 30
0.0
 10
124.6945235173666
 20
279.1950183938969
 30
0.0
 10
124.6778120512213
 20
279.132737495972
 30
0.0
 10
124.6778120512213
 20
279.132737495972
 30
0.0
  0
LINE
  5
6893
330
A
100
AcDbEntity
  8
モデル
100
AcDbLine
 10
124.6778120512213
 20
268.3212374959721
 30
0.0
 11
124.6778120512213
 21
279.132737495972
 31
0.0
  0
LINE
  5
6894
330
A
100
AcDbEntity
  8
モデル
100
AcDbLine
 10
124.6778120512213
 20
284.049737495972
 30
0.0
 11
124.6778120512213
 21
289.5912374959719
 31
0.0
  0
LINE
  5
6895
330
A
100
AcDbEntity
  8
モデル
100
AcDbLine
 10
143.6778120512213
 20
268.3212374959721
 30
0.0
 11
143.6778120512213
 21
289.5912374959719
 31
0.0
  0
ARC
  5
689E
330
A
100
AcDbEntity
  8
モデル
100
AcDbCircle
 10
235.1778120512213
 20
265.5043481764484
 30
0.0
 40
5.499999999999988
100
AcDbArc
 50
315.0000000000002
 51
135.0000000000002
  0
SPLINE
  5
68A3
330
A
100
AcDbEntity
  8
モデル
100
AcDbSpline
210
0.0
220
0.0
230
1.0
 70
     8
 71
     3
 72
    26
 73
    22
 74
     0
 42
0.000000001
 43
0.0000000001
 40
0.0
 40
0.0
 40
0.0
 40
0.0
 40
0.5011179774156487
 40
0.5011179774156487
 40
0.8653403732643838
 40
0.8653403732643838
 40
1.348362255734781
 40
1.348362255734781
 40
1.837341385955465
 40
1.837341385955465
 40
2.331397091684164
 40
2.331397091684164
 40
2.865195329256637
 40
2.865195329256637
 40
4.472983529437483
 40
4.472983529437483
 40
7.144726347838985
 40
7.144726347838985
 40
9.827253724505216
 40
9.827253724505216
 40
10.3164729968797
 40
10.3164729968797
 40
10.3164729968797
 40
10.3164729968797
 10
143.6778120512213
 20
268.3212374959721
 30
0.0
 10
143.6229740373512
 20
266.6517446302249
 30
0.0
 10
143.5509137761034
 20
264.9567055775196
 30
0.0
 10
144.0639855204754
 20
262.1182354765619
 30
0.0
 10
144.4259516635691
 20
260.9399326901935
 30
0.0
 10
145.59372411527
 20
258.3685289614905
 30
0.0
 10
146.511280823482
 20
256.9949267489637
 30
0.0
 10
148.7171795258844
 20
254.6218206011317
 30
0.0
 10
150.044103297245
 20
253.6042738551487
 30
0.0
 10
152.9202113176985
 20
252.0341438972882
 30
0.0
 10
154.4999817691398
 20
251.4519450661783
 30
0.0
 10
157.8574946955951
 20
250.7694386222408
 30
0.0
 10
159.6075054851386
 20
250.4433168333613
 30
0.0
 10
166.6569669254343
 20
249.3185903158391
 30
0.0
 10
172.0504507234257
 20
248.9569091353463
 30
0.0
 10
186.3100647968387
 20
249.3526127557412
 30
0.0
 10
195.2745879445687
 20
250.9859959862973
 30
0.0
 10
212.1449845598077
 20
256.810545511843
 30
0.0
 10
220.2377119347628
 20
261.0735491811525
 30
0.0
 10
228.7452646243582
 20
267.3504168153393
 30
0.0
 10
230.0314398572082
 20
268.3549182701415
 30
0.0
 10
231.2887247546953
 20
269.3934354729744
 30
0.0
  0
SPLINE
  5
68A4
330
A
100
AcDbEntity
  8
モデル
100
AcDbSpline
210
0.0
220
0.0
230
1.0
 70
     8
 71
     3
 72
    22
 73
    18
 74
     0
 42
0.000000001
 43
0.0000000001
 40
0.0
 40
0.0
 40
0.0
 40
0.0
 40
2.855337797569099
 40
2.855337797569099
 40
5.726914174573579
 40
5.726914174573579
 40
8.611041113646724
 40
8.611041113646724
 40
10.04510901505457
 40
10.04510901505457
 40
10.92481127938945
 40
10.92481127938945
 40
11.96005322350059
 40
11.96005322350059
 40
13.0287853283
 40
13.0287853283
 40
14.08836364122693
 40
14.08836364122693
 40
14.08836364122693
 40
14.08836364122693
 10
239.0668993477473
 20
261.6152608799226
 30
0.0
 10
232.1858619163322
 20
255.039570729157
 30
0.0
 10
224.2842523825842
 20
249.3972051046151
 30
0.0
 10
207.3405921325718
 20
240.6034826449248
 30
0.0
 10
198.1249696164579
 20
237.3791022950858
 30
0.0
 10
179.3051725429048
 20
233.6500987155869
 30
0.0
 10
169.512009714563
 20
233.0995931649567
 30
0.0
 10
155.1754492545707
 20
234.3840288658928
 30
0.0
 10
150.3296378098839
 20
234.9805964854889
 30
0.0
 10
143.1045722250734
 20
237.6791369067125
 30
0.0
 10
140.4801868196382
 20
239.1097051891464
 30
0.0
 10
135.3435231849087
 20
242.8990662094375
 30
0.0
 10
132.8651158860152
 20
245.4225830247681
 30
0.0
 10
128.7974744929618
 20
251.1357191680648
 30
0.0
 10
127.1876690093876
 20
254.4189284008933
 30
0.0
 10
125.13755935491
 20
261.210622487233
 30
0.0
 10
124.7931748899728
 20
264.79119432876
 30
0.0
 10
124.6778120512213
 20
268.3212374959721
 30
0.0
  0
LINE
  5
68A5
102
{ACAD_REACTORS
330
69E3
102
}
330
A
100
AcDbEntity
  8
モデル
100
AcDbLine
 10
159.1778120512213
 20
289.5912374959719
 30
0.0
 11
109.1778120512213
 21
289.5912374959719
 31
0.0
  0
LINE
  5
68A6
102
{ACAD_REACTORS
330
69E3
330
6A00
330
70A6
102
}
330
A
100
AcDbEntity
  8
モデル
100
AcDbLine
 10
159.1778120512213
 20
291.5912374959719
 30
0.0
 11
109.1778120512213
 21
291.5912374959719
 31
0.0
  0
LINE
  5
68A7
330
A
100
AcDbEntity
  8
モデル
100
AcDbLine
 10
159.1778120512213
 20
291.5912374959719
 30
0.0
 11
159.1778120512213
 21
289.5912374959719
 31
0.0
  0
LINE
  5
68A8
330
A
100
AcDbEntity
  8
モデル
100
AcDbLine
 10
109.1778120512213
 20
291.5912374959719
 30
0.0
 11
109.1778120512213
 21
289.5912374959719
 31
0.0
  0
CIRCLE
  5
69C4
330
A
100
AcDbEntity
  8
HIDDEN
100
AcDbCircle
 10
388.4599190935024
 20
319.9733977752239
 30
0.0
 40
3.500000000000006
  0
DIMENSION
  5
69C5
330
A
100
AcDbEntity
  8
寸法
100
AcDbDimension
  2
*D11
 10
124.3201634042553
 20
212.7023592780861
 30
0.0
 11
182.4989877277383
 21
217.2023592780861
 31
0.0
 70
    32
  1
116.5
 71
     5
 42
116.357648646966
 73
     0
 74
     0
 75
     0
  3
tfrom線あり
100
AcDbAlignedDimension
 13
240.6778120512213
 23
265.5043481764484
 33
0.0
 14
124.3201634042553
 24
254.4635969361703
 34
0.0
100
AcDbRotatedDimension
1001
ACAD
1000
DSTYLE
1002
{
1070
   144
1040
1.0
1002
}
  0
DIMENSION
  5
69E1
102
{ACAD_REACTORS
330
69E3
102
}
102
{ACAD_XDICTIONARY
360
69E2
102
}
330
A
100
AcDbEntity
  8
寸法
100
AcDbDimension
  2
*D12
 10
99.33923679827366
 20
289.5912374959719
 30
0.0
 11
94.83923679827366
 21
290.5912374959719
 31
0.0
 70
    32
 71
     5
 42
2.0
 73
     0
 74
     1
 75
     1
  3
tfrom線あり
100
AcDbAlignedDimension
 13
109.1778120512213
 23
291.5912374959719
 33
0.0
 14
109.1778120512213
 24
289.5912374959719
 34
0.0
 50
90.0
100
AcDbRotatedDimension
1001
ACAD
1000
DSTYLE
1002
{
1070
   172
1070
     1
1070
   144
1040
1.0
1002
}
  0
DIMENSION
  5
69F1
330
A
100
AcDbEntity
  8
寸法
100
AcDbDimension
  2
*D13
 10
99.33923679827366
 20
233.5912374959719
 30
0.0
 11
94.83923679827366
 21
261.5912374959719
 31
0.0
 70
    32
 71
     5
 42
56.0
 73
     0
 74
     0
 75
     0
  3
tfrom線あり
100
AcDbAlignedDimension
 13
109.1778120512213
 23
289.5912374959719
 33
0.0
 14
153.8533960104427
 24
233.5912374959719
 34
0.0
 50
90.0
100
AcDbRotatedDimension
1001
ACAD
1000
DSTYLE
1002
{
1070
   144
1040
1.0
1002
}
  0
DIMENSION
  5
69FE
102
{ACAD_REACTORS
330
6A00
102
}
102
{ACAD_XDICTIONARY
360
69FF
102
}
330
A
100
AcDbEntity
  8
寸法
100
AcDbDimension
  2
*D14
 10
86.03692781889336
 20
233.5912374959719
 30
0.0
 11
81.53692781889336
 21
262.5912374959719
 31
0.0
 70
    32
 71
     5
 42
58.0
 73
     0
 74
     0
 75
     0
  3
tfrom線あり
100
AcDbAlignedDimension
 13
109.1778120512213
 23
291.5912374959719
 33
0.0
 14
153.8533960104427
 24
233.5912374959719
 34
0.0
 50
90.0
100
AcDbRotatedDimension
1001
ACAD
1000
DSTYLE
1002
{
1070
   144
1040
1.0
1002
}
  0
LINE
  5
6A4B
330
A
100
AcDbEntity
  8
モデル
  6
CENTER
 48
0.9
100
AcDbLine
 10
123.4880058173653
 20
281.6449120458113
 30
0.0
 11
112.3999764439139
 21
281.6449120458113
 31
0.0
  0
LINE
  5
6A4C
330
A
100
AcDbEntity
  8
モデル
100
AcDbLine
 10
110.3998917700467
 20
283.1839458649185
 30
0.0
 11
107.2749529290033
 21
283.1839458649185
 31
0.0
  0
LINE
  5
6A4D
330
A
100
AcDbEntity
  8
モデル
100
AcDbLine
 10
110.3998917700467
 20
283.1839458649185
 30
0.0
 11
111.26014993372
 21
281.7327076007971
 31
0.0
  0
LINE
  5
6A4E
330
A
100
AcDbEntity
  8
モデル
100
AcDbLine
 10
107.2749529290033
 20
283.1839458649185
 30
0.0
 11
107.2749529290033
 21
281.7327076007971
 31
0.0
  0
LINE
  5
6A4F
330
A
100
AcDbEntity
  8
モデル
100
AcDbLine
 10
110.3998917700467
 20
280.2814693366761
 30
0.0
 11
107.2749529290033
 21
280.2814693366761
 31
0.0
  0
LINE
  5
6A50
330
A
100
AcDbEntity
  8
モデル
100
AcDbLine
 10
110.3998917700467
 20
280.2814693366761
 30
0.0
 11
111.26014993372
 21
281.7327076007971
 31
0.0
  0
LINE
  5
6A51
330
A
100
AcDbEntity
  8
モデル
100
AcDbLine
 10
107.2749529290033
 20
280.2814693366761
 30
0.0
 11
107.2749529290033
 21
281.7327076007971
 31
0.0
  0
LINE
  5
6A52
330
A
100
AcDbEntity
  8
モデル
100
AcDbLine
 10
110.3998917700467
 20
283.1839458649185
 30
0.0
 11
109.9289759864569
 21
280.2814693366761
 31
0.0
  0
LINE
  5
6A53
330
A
100
AcDbEntity
  8
モデル
100
AcDbLine
 10
109.5807078025002
 20
283.1839458649185
 30
0.0
 11
109.1097920189104
 21
280.2814693366761
 31
0.0
  0
LINE
  5
6A54
330
A
100
AcDbEntity
  8
モデル
100
AcDbLine
 10
108.7273911696394
 20
283.1839458649185
 30
0.0
 11
108.2564753860493
 21
280.2814693366761
 31
0.0
  0
LINE
  5
6A55
330
A
100
AcDbEntity
  8
モデル
100
AcDbLine
 10
107.9423398674073
 20
283.1839458649185
 30
0.0
 11
107.4714240838173
 21
280.2814693366761
 31
0.0
  0
DIMENSION
  5
6A98
330
A
100
AcDbEntity
  8
寸法
100
AcDbDimension
  2
*D15
 10
153.1778120512213
 20
331.8166582357978
 30
0.0
 11
134.1778120512213
 21
331.8166582357978
 31
0.0
 70
   160
 71
     5
 42
38.00000000000011
 73
     0
 74
     0
 75
     0
  3
tfrom線あり
100
AcDbAlignedDimension
 13
115.1778120512212
 23
320.544201864902
 33
0.0
 14
153.1778120512213
 24
320.544201864902
 34
0.0
100
AcDbRotatedDimension
  0
DIMENSION
  5
6B4D
330
A
100
AcDbEntity
  8
寸法
100
AcDbDimension
  2
*D16
 10
326.5458158986718
 20
294.9733977752238
 30
0.0
 11
326.5458158986718
 21
319.9733977752238
 31
0.0
 70
   160
 71
     5
 42
50.00000000000006
 73
     0
 74
     0
 75
     0
  3
tfrom線あり
100
AcDbAlignedDimension
 13
359.8212811216713
 23
344.9733977752239
 33
0.0
 14
359.8212811216713
 24
294.9733977752238
 34
0.0
 50
90.0
100
AcDbRotatedDimension
1001
ACAD
1000
DSTYLE
1002
{
1070
   144
1040
1.0
1002
}
  0
ARC
  5
6B86
330
A
100
AcDbEntity
  8
CutoutUnderlay
100
AcDbCircle
 10
470.4599190935023
 20
168.5052005871414
 30
0.0
 40
5.499999999999998
100
AcDbArc
 50
270.7339743164126
 51
89.26602283996772
  0
ARC
  5
6B87
330
A
100
AcDbEntity
  8
CutoutUnderlay
100
AcDbCircle
 10
369.4599190935024
 20
168.5052005871414
 30
0.0
 40
9.49999999999999
100
AcDbArc
 50
73.05726801872098
 51
286.9433508581856
  0
SPLINE
  5
6B88
330
A
100
AcDbEntity
  8
CutoutUnderlay
100
AcDbSpline
210
0.0
220
0.0
230
1.0
 70
     8
 71
     3
 72
    24
 73
    20
 74
     0
 42
0.000000001
 43
0.0000000001
 40
0.0
 40
0.0
 40
0.0
 40
0.0
 40
2.78519266288026
 40
2.78519266288026
 40
5.576983303677839
 40
5.576983303677839
 40
8.365652325856988
 40
8.365652325856988
 40
9.05154747800412
 40
9.05154747800412
 40
9.724210251033476
 40
9.724210251033476
 40
10.48299584820366
 40
10.48299584820366
 40
10.84315219527305
 40
10.84315219527305
 40
11.17522774786123
 40
11.17522774786123
 40
11.41658609296603
 40
11.41658609296603
 40
11.41658609296603
 40
11.41658609296603
 10
470.5802069375351
 20
163.0078319739633
 30
0.0
 10
463.6430860482467
 20
162.704249887957
 30
0.0
 10
455.7140649343241
 20
162.3976117439298
 30
0.0
 10
438.8482340327762
 20
161.790197724916
 30
0.0
 10
429.7307605809027
 20
161.4828579950445
 30
0.0
 10
411.3162483090031
 20
160.875114580344
 30
0.0
 10
401.8190379862744
 20
160.5681126090898
 30
0.0
 10
390.3924060329601
 20
160.1895517999525
 30
0.0
 10
388.1183121986333
 20
160.1144855977042
 30
0.0
 10
383.8348099640901
 20
159.9665162305606
 30
0.0
 10
381.7953242055387
 20
159.8925306671801
 30
0.0
 10
377.9129051062685
 20
159.7373473151899
 30
0.0
 10
376.0742923775637
 20
159.6539885519924
 30
0.0
 10
373.9374485585544
 20
159.5360769958949
 30
0.0
 10
373.3291537445049
 20
159.4984544417949
 30
0.0
 10
372.3612640656418
 20
159.4299976708627
 30
0.0
 10
371.9819893557412
 20
159.3981946472295
 30
0.0
 10
371.549265594356
 20
159.3552747259539
 30
0.0
 10
371.4305529549605
 20
159.3397118139629
 30
0.0
 10
371.4305529553441
 20
159.3397118140176
 30
0.0
  0
SPLINE
  5
6B89
330
A
100
AcDbEntity
  8
CutoutUnderlay
100
AcDbSpline
210
0.0
220
0.0
230
1.0
 70
     8
 71
     3
 72
    28
 73
    24
 74
     0
 42
0.000000001
 43
0.0000000001
 40
14.48678654122874
 40
14.48678654122874
 40
14.48678654122874
 40
14.48678654122874
 40
14.52702739317497
 40
14.52702739317497
 40
14.75138454390014
 40
14.75138454390014
 40
15.12329398264557
 40
15.12329398264557
 40
15.67447069646427
 40
15.67447069646427
 40
16.36602346919812
 40
16.36602346919812
 40
17.10401604028873
 40
17.10401604028873
 40
17.86177503688437
 40
17.86177503688437
 40
18.76931620066971
 40
18.76931620066971
 40
21.51653197982191
 40
21.51653197982191
 40
24.30254890015671
 40
24.30254890015671
 40
25.91180400661487
 40
25.91180400661487
 40
25.91180400661487
 40
25.91180400661487
 10
371.4305529553469
 20
177.6706893602648
 30
0.0
 10
371.4305529553548
 20
177.6706893602637
 30
0.0
 10
371.4340130319045
 20
177.6701978795413
 30
0.0
 10
371.4766182534962
 20
177.6645340302793
 30
0.0
 10
371.6038723782914
 20
177.6492866431885
 30
0.0
 10
372.0856372854927
 20
177.6028291946639
 30
0.0
 10
372.542422345123
 20
177.5661580731829
 30
0.0
 10
373.923615386055
 20
177.473229544899
 30
0.0
 10
374.9850665026914
 20
177.4140363478007
 30
0.0
 10
377.7365659874787
 20
177.2809498634986
 30
0.0
 10
379.5553113681794
 20
177.2050752653313
 30
0.0
 10
383.6462882130292
 20
177.049782288719
 30
0.0
 10
385.988612316499
 20
176.9683968643031
 30
0.0
 10
390.8486833091105
 20
176.8053723743881
 30
0.0
 10
393.3499120680436
 20
176.7227219989616
 30
0.0
 10
398.8544311432187
 20
176.541332219174
 30
0.0
 10
401.876505460003
 20
176.4423820578953
 30
0.0
 10
414.0480022829988
 20
176.0443630364305
 30
0.0
 10
423.3274798637809
 20
175.7420184674523
 30
0.0
 10
441.1259688361044
 20
175.1394179476758
 30
0.0
 10
449.8199482585043
 20
174.8327256955797
 30
0.0
 10
462.2472019893871
 20
174.3539315415903
 30
0.0
 10
466.5720112518333
 20
174.1779757453123
 30
0.0
 10
470.5802069375351
 20
174.0025692003195
 30
0.0
  0
CIRCLE
  5
6B92
330
A
100
AcDbEntity
  8
CutoutUnderlay
  6
HIDDEN
100
AcDbCircle
 10
350.4599190935024
 20
168.5052005871414
 30
0.0
 40
3.500000000000006
  0
ARC
  5
6B93
330
A
100
AcDbEntity
  8
CutoutUnderlay
100
AcDbCircle
 10
369.4599190935024
 20
168.5052005871414
 30
0.0
 40
25.00000000000004
100
AcDbArc
 50
19.21288103485209
 51
340.7869815835276
  0
CIRCLE
  5
6B9C
330
A
100
AcDbEntity
  8
CutoutUnderlay
  6
HIDDEN
100
AcDbCircle
 10
388.4599190935024
 20
168.5052005871414
 30
0.0
 40
3.500000000000006
  0
TEXT
  5
6E5E
330
A
100
AcDbEntity
  8
テンプレート
100
AcDbText
 10
81.32391724901116
 20
41.29280421576505
 30
0.0
 40
6.0
  1
ブラス
  7
ＭＳ ゴシック
100
AcDbText
  0
TEXT
  5
6E5F
330
A
100
AcDbEntity
  8
テンプレート
100
AcDbText
 10
81.32391724901116
 20
29.19151340726899
 30
0.0
 40
5.5
  1
真鍮
  7
ＭＳ ゴシック
100
AcDbText
  0
LINE
  5
6F2F
330
A
100
AcDbEntity
  8
テンプレート
100
AcDbLine
 10
76.66154919881293
 20
26.22153683920783
 30
0.0
 11
76.66154919881296
 21
50.16496477419605
 31
0.0
  0
LINE
  5
704F
330
A
100
AcDbEntity
  8
モデル
100
AcDbLine
 10
112.1778120512211
 20
301.5912374959719
 30
0.0
 11
118.1778120512211
 21
301.5912374959719
 31
0.0
  0
LINE
  5
7050
102
{ACAD_REACTORS
330
70A6
102
}
330
A
100
AcDbEntity
  8
モデル
100
AcDbLine
 10
156.1778120512212
 20
301.5912374959719
 30
0.0
 11
150.1778120512212
 21
301.5912374959719
 31
0.0
  0
LINE
  5
7051
330
A
100
AcDbEntity
  8
モデル
100
AcDbLine
 10
118.1778120512211
 20
291.5912374959719
 30
0.0
 11
118.1778120512211
 21
301.5912374959719
 31
0.0
  0
LINE
  5
7052
330
A
100
AcDbEntity
  8
モデル
100
AcDbLine
 10
112.1778120512211
 20
291.5912374959719
 30
0.0
 11
112.1778120512211
 21
301.5912374959719
 31
0.0
  0
LINE
  5
7053
330
A
100
AcDbEntity
  8
モデル
100
AcDbLine
 10
150.1778120512212
 20
291.5912374959719
 30
0.0
 11
150.1778120512212
 21
301.5912374959719
 31
0.0
  0
LINE
  5
7054
330
A
100
AcDbEntity
  8
モデル
100
AcDbLine
 10
156.1778120512212
 20
291.5912374959719
 30
0.0
 11
156.1778120512212
 21
301.5912374959719
 31
0.0
  0
LINE
  5
7055
330
A
100
AcDbEntity
  8
寸法
100
AcDbLine
 10
155.4909778636509
 20
301.5912374959719
 30
0.0
 11
155.4909778636509
 21
317.7023759591997
 31
0.0
  0
LINE
  5
7056
330
A
100
AcDbEntity
  8
寸法
100
AcDbLine
 10
150.8646462387914
 20
301.5912374959719
 30
0.0
 11
150.8646462387914
 21
317.7023759591997
 31
0.0
  0
LINE
  5
7057
330
A
100
AcDbEntity
  8
寸法
100
AcDbLine
 10
117.4909778636509
 20
301.5912374959719
 30
0.0
 11
117.4909778636509
 21
317.7023759591997
 31
0.0
  0
LINE
  5
7058
330
A
100
AcDbEntity
  8
寸法
100
AcDbLine
 10
112.8646462387914
 20
301.5912374959719
 30
0.0
 11
112.8646462387914
 21
317.7023759591997
 31
0.0
  0
LINE
  5
7059
330
A
100
AcDbEntity
  8
モデル
100
AcDbLine
 10
188.1874197373427
 20
155.739273112353
 30
0.0
 11
178.1874197373427
 21
155.739273112353
 31
0.0
  0
LINE
  5
705A
330
A
100
AcDbEntity
  8
モデル
100
AcDbLine
 10
178.1874197373427
 20
161.739273112353
 30
0.0
 11
178.1874197373427
 21
155.739273112353
 31
0.0
  0
LINE
  5
705B
330
A
100
AcDbEntity
  8
モデル
100
AcDbLine
 10
188.1874197373427
 20
161.739273112353
 30
0.0
 11
178.1874197373427
 21
161.739273112353
 31
0.0
  0
LINE
  5
705C
330
A
100
AcDbEntity
  8
寸法
100
AcDbLine
 10
178.1874197373427
 20
161.0524389247828
 30
0.0
 11
162.076281274115
 21
161.0524389247828
 31
0.0
  0
LINE
  5
705D
330
A
100
AcDbEntity
  8
寸法
100
AcDbLine
 10
178.1874197373427
 20
156.4261072999232
 30
0.0
 11
162.076281274115
 21
156.4261072999232
 31
0.0
  0
SPLINE
  5
706A
330
A
100
AcDbEntity
  8
HIDDEN
 48
0.75
100
AcDbSpline
210
0.0
220
0.0
230
1.0
 70
     8
 71
     3
 72
    22
 73
    18
 74
     0
 42
0.000000001
 43
0.0000000001
 40
0.3722662218752164
 40
0.3722662218752164
 40
0.3722662218752164
 40
0.3722662218752164
 40
0.4653252734252767
 40
0.4653252734252767
 40
0.5583843249753371
 40
0.5583843249753371
 40
0.651458384362885
 40
0.651458384362885
 40
0.7445324437504328
 40
0.7445324437504328
 40
0.8376065031379807
 40
0.8376065031379807
 40
0.9306805625255284
 40
0.9306805625255284
 40
1.023739614075589
 40
1.023739614075589
 40
1.116798665625649
 40
1.116798665625649
 40
1.116798665625649
 40
1.116798665625649
 10
154.5347812741178
 20
158.7392731123529
 30
0.0
 10
154.5347812741178
 20
159.0494699508531
 30
0.0
 10
154.4725003761931
 20
159.3793932595593
 30
0.0
 10
154.2211566347848
 20
159.9847165627088
 30
0.0
 10
154.032170074163
 20
160.2602283554018
 30
0.0
 10
153.5972014458221
 20
160.6951969837429
 30
0.0
 10
153.3217042026228
 20
160.8841562281829
 30
0.0
 10
152.7164326960554
 20
161.1354799944147
 30
0.0
 10
152.386528138743
 20
161.1977731123529
 30
0.0
 10
151.7660344094926
 20
161.1977731123529
 30
0.0
 10
151.4361298521801
 20
161.1354799944147
 30
0.0
 10
150.8308583456129
 20
160.8841562281829
 30
0.0
 10
150.5553611024136
 20
160.6951969837429
 30
0.0
 10
150.1203924740726
 20
160.2602283554018
 30
0.0
 10
149.9314059134509
 20
159.9847165627088
 30
0.0
 10
149.6800621720427
 20
159.3793932595593
 30
0.0
 10
149.6177812741179
 20
159.0494699508531
 30
0.0
 10
149.6177812741179
 20
158.7392731123529
 30
0.0
  0
SPLINE
  5
706B
330
A
100
AcDbEntity
  8
HIDDEN
 48
0.75
100
AcDbSpline
210
0.0
220
0.0
230
1.0
 70
     8
 71
     3
 72
    23
 73
    19
 74
     0
 42
0.000000001
 43
0.0000000001
 40
1.116798665625649
 40
1.116798665625649
 40
1.116798665625649
 40
1.116798665625649
 40
1.209857717175709
 40
1.209857717175709
 40
1.30291676872577
 40
1.30291676872577
 40
1.395990828113318
 40
1.395990828113318
 40
1.489064887500866
 40
1.489064887500866
 40
1.489064887500866
 40
1.582138946888413
 40
1.582138946888413
 40
1.675213006275961
 40
1.675213006275961
 40
1.768272057826022
 40
1.768272057826022
 40
1.861331109376082
 40
1.861331109376082
 40
1.861331109376082
 40
1.861331109376082
 10
149.6177812741179
 20
158.7392731123529
 30
0.0
 10
149.6177812741179
 20
158.4290762738527
 30
0.0
 10
149.6800621720427
 20
158.0991529651465
 30
0.0
 10
149.9314059134509
 20
157.493829661997
 30
0.0
 10
150.1203924740726
 20
157.218317869304
 30
0.0
 10
150.5553611024136
 20
156.7833492409629
 30
0.0
 10
150.8308583456129
 20
156.5943899965228
 30
0.0
 10
151.4361298521801
 20
156.343066230291
 30
0.0
 10
151.7660344094926
 20
156.2807731123529
 30
0.0
 10
152.0762812741177
 20
156.2807731123529
 30
0.0
 10
152.386528138743
 20
156.2807731123529
 30
0.0
 10
152.7164326960554
 20
156.343066230291
 30
0.0
 10
153.3217042026227
 20
156.5943899965228
 30
0.0
 10
153.5972014458221
 20
156.7833492409629
 30
0.0
 10
154.032170074163
 20
157.218317869304
 30
0.0
 10
154.2211566347848
 20
157.493829661997
 30
0.0
 10
154.4725003761931
 20
158.0991529651465
 30
0.0
 10
154.5347812741178
 20
158.4290762738527
 30
0.0
 10
154.5347812741178
 20
158.7392731123529
 30
0.0
  0
LINE
  5
706C
330
A
100
AcDbEntity
  8
モデル
100
AcDbLine
 10
138.806281274115
 20
149.2392731123529
 30
0.0
 11
160.076281274115
 21
149.2392731123529
 31
0.0
  0
LINE
  5
706D
330
A
100
AcDbEntity
  8
モデル
100
AcDbLine
 10
138.8062812741149
 20
168.2392731123529
 30
0.0
 11
160.0762812741149
 21
168.2392731123529
 31
0.0
  0
SPLINE
  5
706E
330
A
100
AcDbEntity
  8
モデル
100
AcDbSpline
210
0.0
220
0.0
230
1.0
 70
     8
 71
     3
 72
    50
 73
    46
 74
     0
 42
0.000000001
 43
0.0000000001
 40
0.0
 40
0.0
 40
0.0
 40
0.0
 40
1.009735900115357
 40
1.009735900115357
 40
1.980781414839414
 40
1.980781414839414
 40
2.77161835070209
 40
2.77161835070209
 40
3.626162753907446
 40
3.626162753907446
 40
4.662149475059241
 40
4.662149475059241
 40
4.890809891299715
 40
4.890809891299715
 40
5.025974872142392
 40
5.025974872142392
 40
5.229869388029718
 40
5.229869388029718
 40
5.428462678601177
 40
5.428462678601177
 40
5.649809106186367
 40
5.649809106186367
 40
5.884844773907378
 40
5.884844773907378
 40
6.123095547111299
 40
6.123095547111299
 40
6.356009385676293
 40
6.356009385676293
 40
6.568467037574205
 40
6.568467037574205
 40
6.763530939773364
 40
6.763530939773364
 40
7.002528895638663
 40
7.002528895638663
 40
7.422038628339881
 40
7.422038628339881
 40
8.614748325543353
 40
8.614748325543353
 40
9.463976364190563
 40
9.463976364190563
 40
10.34342580835865
 40
10.34342580835865
 40
11.1443915111552
 40
11.1443915111552
 40
11.50295960710975
 40
11.50295960710975
 40
11.50295960710975
 40
11.50295960710975
 10
138.8062812741149
 20
168.2392731123529
 30
0.0
 10
135.4422920595583
 20
168.1292997964694
 30
0.0
 10
131.9827658064743
 20
168.0172983310488
 30
0.0
 10
125.7620942052335
 20
167.8014679052191
 30
0.0
 10
122.8850207313139
 20
167.6936008346441
 30
0.0
 10
118.542934504069
 20
167.5000113720257
 30
0.0
 10
116.8627560155772
 20
167.412215811005
 30
0.0
 10
114.0821994422078
 20
167.2201093047283
 30
0.0
 10
112.82110877347
 20
167.0777212992239
 30
0.0
 10
111.1587602472782
 20
166.7868815525
 30
0.0
 10
110.4438521272045
 20
166.7347061376687
 30
0.0
 10
108.585337052581
 20
165.9120661734146
 30
0.0
 10
108.1913680175427
 20
165.7159737047362
 30
0.0
 10
107.4858844630517
 20
165.2644268773235
 30
0.0
 10
107.2048731755673
 20
165.0637180134439
 30
0.0
 10
106.4938337702836
 20
164.472578408691
 30
0.0
 10
106.0537108443545
 20
164.0277888555713
 30
0.0
 10
105.2903694092163
 20
163.0259116093178
 30
0.0
 10
104.9557636803533
 20
162.462108997744
 30
0.0
 10
104.4091413248867
 20
161.1981083937195
 30
0.0
 10
104.2085497731643
 20
160.4742947658927
 30
0.0
 10
104.014586209288
 20
158.9673783924166
 30
0.0
 10
104.0323577230225
 20
158.1638440684425
 30
0.0
 10
104.3015802960401
 20
156.613091869162
 30
0.0
 10
104.5605204181664
 20
155.8460626151904
 30
0.0
 10
105.2582086042483
 20
154.4805934706241
 30
0.0
 10
105.7041550273994
 20
153.8603294740317
 30
0.0
 10
106.6154991467372
 20
152.8838154102959
 30
0.0
 10
107.0842377423249
 20
152.4979947421497
 30
0.0
 10
107.9014788544668
 20
151.9346065698586
 30
0.0
 10
108.2637129559784
 20
151.7334320214262
 30
0.0
 10
108.9661390704214
 20
151.3868200685763
 30
0.0
 10
109.2928247431005
 20
151.2577746569934
 30
0.0
 10
110.0870280708615
 20
150.9736175501665
 30
0.0
 10
110.4886125533372
 20
150.8676711301333
 30
0.0
 10
111.9580690198655
 20
150.5170868544534
 30
0.0
 10
113.0845232737924
 20
150.3417236967954
 30
0.0
 10
116.315348416566
 20
150.0969533194554
 30
0.0
 10
118.0445685633562
 20
150.002895258216
 30
0.0
 10
122.2209598842881
 20
149.8127132436061
 30
0.0
 10
124.7422886073883
 20
149.7153047774895
 30
0.0
 10
129.89541964307
 20
149.5321465324818
 30
0.0
 10
132.5615616140282
 20
149.4437124696128
 30
0.0
 10
136.4145124707584
 20
149.3174083761549
 30
0.0
 10
137.6116924639743
 20
149.278325821559
 30
0.0
 10
138.806281274115
 20
149.2392731123529
 30
0.0
  0
LINE
  5
706F
330
A
100
AcDbEntity
  8
モデル
100
AcDbLine
 10
160.0762812741149
 20
183.7392731123528
 30
0.0
 11
160.076281274115
 21
133.739273112353
 31
0.0
  0
LINE
  5
7070
330
A
100
AcDbEntity
  8
モデル
100
AcDbLine
 10
162.0762812741149
 20
183.7392731123529
 30
0.0
 11
162.076281274115
 21
133.7392731123531
 31
0.0
  0
LINE
  5
7071
330
A
100
AcDbEntity
  8
モデル
100
AcDbLine
 10
162.0762812741149
 20
183.7392731123529
 30
0.0
 11
160.0762812741149
 21
183.7392731123528
 31
0.0
  0
LINE
  5
7072
330
A
100
AcDbEntity
  8
モデル
100
AcDbLine
 10
162.076281274115
 20
133.7392731123531
 30
0.0
 11
160.076281274115
 21
133.739273112353
 31
0.0
  0
SPLINE
  5
7073
330
A
100
AcDbEntity
  8
モデル
100
AcDbSpline
210
0.0
220
0.0
230
1.0
 70
     8
 71
     3
 72
    22
 73
    18
 74
     0
 42
0.000000001
 43
0.0000000001
 40
0.3722662218752164
 40
0.3722662218752164
 40
0.3722662218752164
 40
0.3722662218752164
 40
0.4653252734252767
 40
0.4653252734252767
 40
0.5583843249753371
 40
0.5583843249753371
 40
0.651458384362885
 40
0.651458384362885
 40
0.7445324437504328
 40
0.7445324437504328
 40
0.8376065031379807
 40
0.8376065031379807
 40
0.9306805625255284
 40
0.9306805625255284
 40
1.023739614075589
 40
1.023739614075589
 40
1.116798665625649
 40
1.116798665625649
 40
1.116798665625649
 40
1.116798665625649
 10
124.6778120512213
 20
325.2438759591996
 30
0.0
 10
124.6778120512213
 20
325.2438759591996
 30
0.0
 10
124.6945235173666
 20
325.3061568571242
 30
0.0
 10
124.7548939343608
 20
325.5575005985323
 30
0.0
 10
124.7977467301531
 20
325.7464871591538
 30
0.0
 10
124.8787095207805
 20
326.1814557874948
 30
0.0
 10
124.9222070597807
 20
326.4569530306941
 30
0.0
 10
124.9840674164271
 20
327.0622245372611
 30
0.0
 10
125.0014414315265
 20
327.3921290945738
 30
0.0
 10
125.0014414315265
 20
328.0126228238241
 30
0.0
 10
124.9840674164271
 20
328.3425273811366
 30
0.0
 10
124.9222070597807
 20
328.9477988877039
 30
0.0
 10
124.8787095207805
 20
329.2232961309032
 30
0.0
 10
124.7977467301531
 20
329.6582647592445
 30
0.0
 10
124.7548939343608
 20
329.8472513198662
 30
0.0
 10
124.6945235173666
 20
330.0985950612746
 30
0.0
 10
124.6778120512213
 20
330.1608759591996
 30
0.0
 10
124.6778120512213
 20
330.1608759591996
 30
0.0
  0
LINE
  5
7074
330
A
100
AcDbEntity
  8
モデル
100
AcDbLine
 10
124.6778120512213
 20
340.9723759591995
 30
0.0
 11
124.6778120512213
 21
330.1608759591996
 31
0.0
  0
LINE
  5
7075
330
A
100
AcDbEntity
  8
モデル
100
AcDbLine
 10
124.6778120512213
 20
325.2438759591996
 30
0.0
 11
124.6778120512213
 21
319.7023759591997
 31
0.0
  0
LINE
  5
7076
330
A
100
AcDbEntity
  8
モデル
100
AcDbLine
 10
143.6778120512213
 20
340.9723759591995
 30
0.0
 11
143.6778120512213
 21
319.7023759591997
 31
0.0
  0
ARC
  5
7077
330
A
100
AcDbEntity
  8
モデル
100
AcDbCircle
 10
235.1778120512213
 20
343.7892652787231
 30
0.0
 40
5.499999999999988
100
AcDbArc
 50
224.9999999999998
 51
44.99999999999979
  0
SPLINE
  5
7078
330
A
100
AcDbEntity
  8
モデル
100
AcDbSpline
210
0.0
220
0.0
230
1.0
 70
     8
 71
     3
 72
    26
 73
    22
 74
     0
 42
0.000000001
 43
0.0000000001
 40
0.0
 40
0.0
 40
0.0
 40
0.0
 40
0.5011179774156487
 40
0.5011179774156487
 40
0.8653403732643838
 40
0.8653403732643838
 40
1.348362255734781
 40
1.348362255734781
 40
1.837341385955465
 40
1.837341385955465
 40
2.331397091684164
 40
2.331397091684164
 40
2.865195329256637
 40
2.865195329256637
 40
4.472983529437483
 40
4.472983529437483
 40
7.144726347838985
 40
7.144726347838985
 40
9.827253724505216
 40
9.827253724505216
 40
10.3164729968797
 40
10.3164729968797
 40
10.3164729968797
 40
10.3164729968797
 10
143.6778120512213
 20
340.9723759591995
 30
0.0
 10
143.6229740373512
 20
342.6418688249467
 30
0.0
 10
143.5509137761034
 20
344.3369078776519
 30
0.0
 10
144.0639855204754
 20
347.1753779786096
 30
0.0
 10
144.4259516635691
 20
348.3536807649781
 30
0.0
 10
145.59372411527
 20
350.9250844936811
 30
0.0
 10
146.511280823482
 20
352.2986867062079
 30
0.0
 10
148.7171795258844
 20
354.6717928540399
 30
0.0
 10
150.044103297245
 20
355.6893396000228
 30
0.0
 10
152.9202113176985
 20
357.2594695578834
 30
0.0
 10
154.4999817691398
 20
357.8416683889933
 30
0.0
 10
157.8574946955951
 20
358.5241748329308
 30
0.0
 10
159.6075054851386
 20
358.8502966218102
 30
0.0
 10
166.6569669254343
 20
359.9750231393325
 30
0.0
 10
172.0504507234257
 20
360.3367043198253
 30
0.0
 10
186.3100647968387
 20
359.9410006994303
 30
0.0
 10
195.2745879445687
 20
358.3076174688743
 30
0.0
 10
212.1449845598077
 20
352.4830679433285
 30
0.0
 10
220.2377119347628
 20
348.220064274019
 30
0.0
 10
228.7452646243582
 20
341.9431966398323
 30
0.0
 10
230.0314398572082
 20
340.9386951850301
 30
0.0
 10
231.2887247546953
 20
339.9001779821972
 30
0.0
  0
SPLINE
  5
7079
330
A
100
AcDbEntity
  8
モデル
100
AcDbSpline
210
0.0
220
0.0
230
1.0
 70
     8
 71
     3
 72
    22
 73
    18
 74
     0
 42
0.000000001
 43
0.0000000001
 40
0.0
 40
0.0
 40
0.0
 40
0.0
 40
2.855337797569099
 40
2.855337797569099
 40
5.726914174573579
 40
5.726914174573579
 40
8.611041113646724
 40
8.611041113646724
 40
10.04510901505457
 40
10.04510901505457
 40
10.92481127938945
 40
10.92481127938945
 40
11.96005322350059
 40
11.96005322350059
 40
13.0287853283
 40
13.0287853283
 40
14.08836364122693
 40
14.08836364122693
 40
14.08836364122693
 40
14.08836364122693
 10
239.0668993477473
 20
347.678352575249
 30
0.0
 10
232.1858619163322
 20
354.2540427260145
 30
0.0
 10
224.2842523825842
 20
359.8964083505565
 30
0.0
 10
207.3405921325718
 20
368.6901308102467
 30
0.0
 10
198.1249696164579
 20
371.9145111600858
 30
0.0
 10
179.3051725429048
 20
375.6435147395847
 30
0.0
 10
169.512009714563
 20
376.1940202902148
 30
0.0
 10
155.1754492545707
 20
374.9095845892787
 30
0.0
 10
150.3296378098839
 20
374.3130169696826
 30
0.0
 10
143.1045722250734
 20
371.614476548459
 30
0.0
 10
140.4801868196382
 20
370.1839082660251
 30
0.0
 10
135.3435231849087
 20
366.394547245734
 30
0.0
 10
132.8651158860152
 20
363.8710304304034
 30
0.0
 10
128.7974744929618
 20
358.1578942871068
 30
0.0
 10
127.1876690093876
 20
354.8746850542783
 30
0.0
 10
125.13755935491
 20
348.0829909679386
 30
0.0
 10
124.7931748899728
 20
344.5024191264116
 30
0.0
 10
124.6778120512213
 20
340.9723759591995
 30
0.0
  0
LINE
  5
707A
102
{ACAD_REACTORS
330
69E3
102
}
330
A
100
AcDbEntity
  8
モデル
100
AcDbLine
 10
159.1778120512213
 20
319.7023759591997
 30
0.0
 11
109.1778120512213
 21
319.7023759591997
 31
0.0
  0
LINE
  5
7086
102
{ACAD_REACTORS
330
69E3
330
6A00
102
}
330
A
100
AcDbEntity
  8
モデル
100
AcDbLine
 10
159.1778120512213
 20
317.7023759591997
 30
0.0
 11
109.1778120512213
 21
317.7023759591997
 31
0.0
  0
LINE
  5
7087
330
A
100
AcDbEntity
  8
モデル
 48
0.5
100
AcDbLine
 10
153.1778120512213
 20
315.7511627675292
 30
0.0
 11
153.1778120512213
 21
321.8133414965219
 31
0.0
  0
LINE
  5
7088
330
A
100
AcDbEntity
  8
モデル
 48
0.5
100
AcDbLine
 10
115.1778120512212
 20
315.7511627675292
 30
0.0
 11
115.1778120512212
 21
321.8133414965219
 31
0.0
  0
LINE
  5
7089
330
A
100
AcDbEntity
  8
モデル
100
AcDbLine
 10
109.1778120512213
 20
317.7023759591997
 30
0.0
 11
109.1778120512213
 21
319.7023759591997
 31
0.0
  0
LINE
  5
708A
330
A
100
AcDbEntity
  8
モデル
100
AcDbLine
 10
159.1778120512213
 20
317.7023759591997
 30
0.0
 11
159.1778120512213
 21
319.7023759591997
 31
0.0
  0
DIMENSION
  5
708B
330
A
100
AcDbEntity
  8
寸法
100
AcDbDimension
  2
*D17
 10
276.1772966580428
 20
149.6955878087287
 30
0.0
 11
271.6772966580428
 21
159.1955878087287
 31
0.0
 70
    32
 71
     5
 42
19.0
 73
     0
 74
     0
 75
     0
  3
tfrom線あり
100
AcDbAlignedDimension
 13
255.0565776793194
 23
168.6955878087287
 33
0.0
 14
255.0565776793194
 24
149.6955878087287
 34
0.0
 50
90.0
100
AcDbRotatedDimension
1001
ACAD
1000
DSTYLE
1002
{
1070
   144
1040
1.0
1002
}
  0
DIMENSION
  5
70A4
102
{ACAD_REACTORS
330
70A6
102
}
102
{ACAD_XDICTIONARY
360
70A5
102
}
330
A
100
AcDbEntity
  8
寸法
100
AcDbDimension
  2
*D18
 10
176.8319509787234
 20
291.5912374959719
 30
0.0
 11
172.3319509787234
 21
296.5912374959719
 31
0.0
 70
    32
 71
     5
 42
10.0
 73
     0
 74
     0
 75
     0
  3
tfrom線あり
100
AcDbAlignedDimension
 13
156.1778120512212
 23
301.5912374959719
 33
0.0
 14
159.1778120512213
 24
291.5912374959719
 34
0.0
 50
90.0
100
AcDbRotatedDimension
1001
ACAD
1000
DSTYLE
1002
{
1070
   144
1040
1.0
1002
}
  0
VIEWPORT
  5
349
330
B
100
AcDbEntity
 67
     1
  8
0
100
AcDbViewport
 10
202.5
 20
128.5
 30
0.0
 40
486.0
 41
308.4
 68
     1
 69
     1
 12
202.5
 22
128.5
 13
0.0
 23
0.0
 14
0.5
 24
0.5
 15
0.0
 25
0.0
 16
0.0
 26
0.0
 36
1.0
 17
0.0
 27
0.0
 37
0.0
 42
50.0
 43
0.0
 44
0.0
 45
308.4
 50
0.0
 51
0.0
 72
   100
 90
   557152
  1

281
     0
 71
     1
 74
     0
110
0.0
120
0.0
130
0.0
111
1.0
121
0.0
131
0.0
112
0.0
122
1.0
132
0.0
 79
     0
146
0.0
170
     0
 61
     5
348
26C
292
     1
282
     1
141
0.0
142
0.0
 63
   256
  0
VIEWPORT
  5
34A
330
B
100
AcDbEntity
 67
     1
  8
0
100
AcDbViewport
 10
202.5
 20
128.5
 30
0.0
 40
324.0
 41
205.6
 68
     2
 69
     2
 12
986.6781359294573
 22
1427.077061889956
 13
0.0
 23
0.0
 14
0.5
 24
0.5
 15
0.0
 25
0.0
 16
0.0
 26
0.0
 36
1.0
 17
0.0
 27
0.0
 37
0.0
 42
50.0
 43
0.0
 44
0.0
 45
2890.021615685494
 50
0.0
 51
0.0
 72
   100
 90
   557152
  1

281
     0
 71
     1
 74
     0
110
0.0
120
0.0
130
0.0
111
1.0
121
0.0
131
0.0
112
0.0
122
1.0
132
0.0
 79
     0
146
0.0
170
     0
 61
     5
348
26C
292
     1
282
     1
141
0.0
142
0.0
 63
   256
  0
ENDSEC
  0
SECTION
  2
OBJECTS
  0
DICTIONARY
  5
19
330
0
100
AcDbDictionary
281
     1
  3
ACAD_COLOR
350
674
  3
ACAD_DETAILVIEWSTYLE
350
12F4
  3
ACAD_FIELDLIST
350
565D
  3
ACAD_GROUP
350
1A
  3
ACAD_IMAGE_VARS
350
27B
  3
ACAD_LAYOUT
350
1E
  3
ACAD_MATERIAL
350
263
  3
ACAD_MLEADERSTYLE
350
336
  3
ACAD_MLINESTYLE
350
1B
  3
ACAD_PLOTSETTINGS
350
22
  3
ACAD_PLOTSTYLENAME
350
1F
  3
ACAD_SCALELIST
350
241
  3
ACAD_SECTIONVIEWSTYLE
350
12F5
  3
ACAD_TABLESTYLE
350
278
  3
ACAD_VISUALSTYLE
350
267
  3
ACDB_RECOMPOSE_DATA
350
70CA
  3
AcDbVariableDictionary
350
330
  3
AcStStandard
350
12B9
  3
APPDATA
350
27A
  3
DimOffsetDictionary
350
5454
  0
SUN
  5
10E8
330
15
100
AcDbSun
 90
        1
290
     0
 63
     7
421
 16777215
 40
1.0
291
     1
 91
  2455826
 92
 54000000
292
     0
 70
     2
 71
   256
280
     1
  0
DICTIONARY
  5
2E1
330
2
100
AcDbDictionary
280
     1
281
     1
  3
ACAD_LAYERSTATES
360
2E2
  3
ACLYDICTIONARY
360
6E33
  0
DICTIONARY
  5
5382
330
A
100
AcDbDictionary
280
     1
281
     1
  3
ACAD_SORTENTS
360
5383
  0
DICTIONARY
  5
5FDA
330
5FD9
100
AcDbDictionary
280
     1
281
     1
  3
ACAD_FIELD
360
5FDB
  0
DICTIONARY
  5
62E7
330
62E6
100
AcDbDictionary
280
     1
281
     1
  0
DICTIONARY
  5
62EA
330
62E9
100
AcDbDictionary
280
     1
281
     1
  3
ACAD_DIMASSOC
360
62EB
  0
DICTIONARY
  5
69E2
330
69E1
100
AcDbDictionary
280
     1
281
     1
  3
ACAD_DIMASSOC
360
69E3
  0
DICTIONARY
  5
69FF
330
69FE
100
AcDbDictionary
280
     1
281
     1
  3
ACAD_DIMASSOC
360
6A00
  0
DICTIONARY
  5
70A5
330
70A4
100
AcDbDictionary
280
     1
281
     1
  3
ACAD_DIMASSOC
360
70A6
  0
DICTIONARY
  5
674
102
{ACAD_REACTORS
330
19
102
}
330
19
100
AcDbDictionary
281
     1
  0
DICTIONARY
  5
12F4
102
{ACAD_REACTORS
330
19
102
}
330
19
100
AcDbDictionary
281
     1
  0
FIELDLIST
  5
565D
102
{ACAD_REACTORS
330
19
102
}
330
19
100
AcDbIdSet
 90
        1
330
5FDC
100
AcDbFieldList
  0
DICTIONARY
  5
1A
102
{ACAD_REACTORS
330
19
102
}
330
19
100
AcDbDictionary
281
     1
  0
RASTERVARIABLES
  5
27B
102
{ACAD_REACTORS
330
19
102
}
330
19
100
AcDbRasterVariables
 90
        0
 70
     1
 71
     1
 72
     1
  0
DICTIONARY
  5
1E
102
{ACAD_REACTORS
330
19
102
}
330
19
100
AcDbDictionary
281
     1
  3
Layout1
350
21
  3
Layout2
350
12C4
  3
Model
350
20
  0
DICTIONARY
  5
263
102
{ACAD_REACTORS
330
19
102
}
330
19
100
AcDbDictionary
281
     1
  3
ByBlock
350
385B
  3
ByLayer
350
264
  3
Global
350
266
  0
DICTIONARY
  5
336
102
{ACAD_REACTORS
330
19
102
}
330
19
100
AcDbDictionary
281
     1
  3
Standard
350
4124
  0
DICTIONARY
  5
1B
102
{ACAD_REACTORS
330
19
102
}
330
19
100
AcDbDictionary
281
     1
  3
Standard
350
1C
  0
DICTIONARY
  5
22
102
{ACAD_REACTORS
330
19
102
}
330
19
100
AcDbDictionary
281
     1
  0
ACDBDICTIONARYWDFLT
  5
1F
102
{ACAD_REACTORS
330
19
102
}
330
19
100
AcDbDictionary
281
     1
  3
Normal
350
1D
100
AcDbDictionaryWithDefault
340
1D
  0
DICTIONARY
  5
241
102
{ACAD_REACTORS
330
19
102
}
330
19
100
AcDbDictionary
281
     1
  3
A0
350
242
  3
A1
350
243
  3
A2
350
244
  3
A3
350
245
  3
A4
350
246
  3
A5
350
247
  3
A6
350
248
  3
A7
350
249
  3
A8
350
24A
  3
A9
350
24B
  3
B0
350
24C
  3
B1
350
24D
  3
B2
350
24E
  3
B3
350
24F
  3
B4
350
250
  3
B5
350
251
  3
B6
350
252
  3
B7
350
253
  3
B8
350
254
  3
B9
350
255
  3
C0
350
256
  3
C1
350
257
  3
C2
350
258
  3
C3
350
259
  3
C4
350
25A
  3
C5
350
25B
  3
C6
350
25C
  3
C7
350
25D
  3
C8
350
25E
  3
C9
350
25F
  3
D0
350
260
  3
D1
350
261
  3
D2
350
262
  0
DICTIONARY
  5
12F5
102
{ACAD_REACTORS
330
19
102
}
330
19
100
AcDbDictionary
281
     1
  0
DICTIONARY
  5
278
102
{ACAD_REACTORS
330
19
102
}
330
19
100
AcDbDictionary
281
     1
  3
Standard
350
279
  0
DICTIONARY
  5
267
102
{ACAD_REACTORS
330
19
102
}
330
19
100
AcDbDictionary
281
     1
  3
2dWireframe
350
26C
  3
3D Hidden
350
26E
  3
3dWireframe
350
26D
  3
Basic
350
26F
  3
Brighten
350
273
  3
ColorChange
350
277
  3
Conceptual
350
271
  3
Dim
350
272
  3
EdgeColorOff
350
10E2
  3
Facepattern
350
276
  3
Flat
350
268
  3
FlatWithEdges
350
269
  3
Gouraud
350
26A
  3
GouraudWithEdges
350
26B
  3
Hidden
350
10DF
  3
JitterOff
350
10E0
  3
Linepattern
350
275
  3
OverhangOff
350
10E1
  3
Realistic
350
270
  3
Shaded
350
10E7
  3
Shaded with edges
350
10E6
  3
Shades of Gray
350
10E3
  3
Sketchy
350
10E4
  3
Thicken
350
274
  3
Wireframe
350
10DE
  3
X-Ray
350
10E5
  0
XRECORD
  5
70CA
102
{ACAD_REACTORS
330
19
102
}
330
19
100
AcDbXrecord
280
     1
 90
        1
330
279
  0
DICTIONARY
  5
330
102
{ACAD_REACTORS
330
19
102
}
330
19
100
AcDbDictionary
281
     1
  3
CANNOSCALE
350
331
  3
CMLEADERSTYLE
350
4129
  3
CTABLESTYLE
350
335
  3
HPTRANSPARENCY
350
5453
  3
XCLIPFRAME
350
109E
  0
DICTIONARY
  5
12B9
102
{ACAD_REACTORS
330
19
102
}
330
19
100
AcDbDictionary
281
     1
  0
DICTIONARY
  5
27A
102
{ACAD_REACTORS
330
19
102
}
330
19
100
AcDbDictionary
281
     1
  0
DICTIONARY
  5
5454
102
{ACAD_REACTORS
330
19
102
}
330
19
100
AcDbDictionary
281
     1
  3
DIMRAILANGLE
350
5457
  3
DIMRAILFIRSTOFFSET
350
5455
  3
DIMRAILOFFSET
350
5456
  3
DIMRAILSENABLED
350
5458
  0
DICTIONARY
  5
2E2
102
{ACAD_REACTORS
330
2E1
102
}
330
2E1
100
AcDbDictionary
281
     1
  0
DICTIONARY
  5
6E33
102
{ACAD_REACTORS
330
2E1
102
}
330
2E1
100
AcDbDictionary
281
     1
1001
ACAD
1000
<All
  0
SORTENTSTABLE
  5
5383
102
{ACAD_REACTORS
330
5382
102
}
330
5382
100
AcDbSortentsTable
330
A
331
0
  5
625C
331
5E4A
  5
5E61
331
5E4B
  5
5E62
331
5E4C
  5
5E63
331
5E4D
  5
5E64
331
5E4E
  5
5E65
331
5E4F
  5
5E66
331
5E50
  5
5E67
331
5E51
  5
5E68
331
5E52
  5
5E69
331
5E53
  5
5E6A
331
5E54
  5
5E6B
331
5E55
  5
5E6C
331
5E56
  5
5E70
331
5E57
  5
5FD9
331
5E58
  5
6072
331
5E59
  5
60AA
331
5E5A
  5
60C9
331
5E5B
  5
615E
331
5E5C
  5
6162
331
5E5D
  5
6163
331
5E5E
  5
6169
331
5E5F
  5
616C
331
5E60
  5
616F
331
5E61
  5
6171
331
5E62
  5
6172
331
5E63
  5
6173
331
5E64
  5
6180
331
5E65
  5
6182
331
5E66
  5
6246
331
5E67
  5
6247
331
5E68
  5
6248
331
5E69
  5
6249
331
5E6A
  5
624C
331
5E6B
  5
6253
331
5E6C
  5
6259
331
5E70
  5
625A
331
5FD9
  5
625B
331
62E2
  5
6428
331
62E3
  5
6429
331
62E4
  5
6439
331
62E5
  5
644E
331
62E6
  5
6566
331
62E8
  5
6567
331
62E9
  5
6568
331
62EC
  5
6569
331
62ED
  5
656A
331
62EE
  5
656B
331
62EF
  5
656C
331
62F0
  5
656D
331
6624
  5
6857
331
6625
  5
6858
331
6626
  5
6859
331
6627
  5
685A
331
6628
  5
685B
331
6847
  5
685E
331
6848
  5
685F
331
6849
  5
6860
331
684A
  5
6861
331
684F
  5
6866
331
6850
  5
6867
331
6851
  5
6868
331
6852
  5
6869
331
6853
  5
686A
331
6854
  5
686B
331
6855
  5
686C
331
6856
  5
686D
331
6857
  5
686E
331
6858
  5
686F
331
686D
  5
6884
331
686E
  5
6885
331
686F
  5
6886
331
6870
  5
6887
331
6881
  5
6898
331
688E
  5
68A5
331
688F
  5
68A6
331
6890
  5
68A7
331
6891
  5
68A8
331
6892
  5
68A9
331
6893
  5
68AA
331
6894
  5
68AB
331
6895
  5
68AC
331
689E
  5
68B5
331
68A3
  5
68BA
331
68A4
  5
68BB
331
68A5
  5
68BC
331
68A6
  5
68BD
331
68A7
  5
68BE
331
68A8
  5
68BF
331
69C4
  5
6B4D
331
69C5
  5
6B86
331
69E1
  5
6B88
331
69F1
  5
6B89
331
69FE
  5
6B8A
331
6A4B
  5
6B8C
331
6A4C
  5
6B8D
331
6A4D
  5
6B8E
331
6A4E
  5
6B8F
331
6A4F
  5
6B90
331
6A50
  5
6B91
331
6A51
  5
6B92
331
6A52
  5
6B93
331
6A53
  5
6B94
331
6A54
  5
6B95
331
6A55
  5
6B96
331
6A98
  5
6B98
331
6B4D
  5
6B9C
331
6B86
  5
5E4A
331
6B87
  5
5E4B
331
6B88
  5
5E4C
331
6B89
  5
5E4D
331
6B92
  5
5E4E
331
6B93
  5
5E4F
331
6B9C
  5
5E50
  0
DICTIONARY
  5
5FDB
102
{ACAD_REACTORS
330
5FDA
102
}
330
5FDA
100
AcDbDictionary
280
     1
281
     1
  3
TEXT
360
5FDC
  0
DIMASSOC
  5
62EB
102
{ACAD_REACTORS
330
62EA
102
}
330
62EA
100
AcDbDimAssoc
330
62E9
 90
        1
 70
     0
 71
     1
  1
AcDbOsnapPointRef
 72
     5
331
62E3
 73
     0
 91
        0
 40
1.570796326794897
 10
0.0
 20
0.0
 30
0.0
 75
     0
  0
DIMASSOC
  5
69E3
102
{ACAD_REACTORS
330
69E2
102
}
330
69E2
100
AcDbDimAssoc
330
69E1
 90
        3
 70
     0
 71
     1
  1
AcDbOsnapPointRef
 72
     1
331
68A6
 73
     0
 91
        0
 40
0.0
 10
0.0
 20
0.0
 30
0.0
 75
     0
  1
AcDbOsnapPointRef
 72
     1
331
68A5
 73
     0
 91
        0
 40
0.0
 10
0.0
 20
0.0
 30
0.0
 75
     0
  0
DIMASSOC
  5
6A00
102
{ACAD_REACTORS
330
69FF
102
}
330
69FF
100
AcDbDimAssoc
330
69FE
 90
        1
 70
     0
 71
     1
  1
AcDbOsnapPointRef
 72
     1
331
68A6
 73
     0
 91
        0
 40
0.0
 10
0.0
 20
0.0
 30
0.0
 75
     0
  0
DIMASSOC
  5
70A6
102
{ACAD_REACTORS
330
70A5
102
}
330
70A5
100
AcDbDimAssoc
330
70A4
 90
        3
 70
     0
 71
     1
  1
AcDbOsnapPointRef
 72
    13
331
7050
 73
     0
 91
        0
 40
0.0
 10
0.0
 20
0.0
 30
0.0
 75
     0
  1
AcDbOsnapPointRef
 72
    13
331
68A6
 73
     0
 91
        0
 40
0.0
 10
0.0
 20
0.0
 30
0.0
 75
     0
  0
LAYOUT
  5
21
102
{ACAD_REACTORS
330
1E
102
}
330
1E
100
AcDbPlotSettings
  1

  2
none_device
  4
ISO_A3_(420.00_x_297.00_MM)
  6

 40
7.5
 41
20.0
 42
7.5
 43
20.0
 44
420.0
 45
297.0
 46
0.0
 47
0.0
 48
0.0
 49
0.0
140
0.0
141
0.0
142
1.0
143
1.0
 70
     0
 72
     1
 73
     0
 74
     0
  7

 75
     0
 76
     0
 77
     2
 78
   300
147
1.0
148
0.0
149
0.0
100
AcDbLayout
  1
Layout1
 70
     0
 71
     0
 10
-7.5
 20
-20.0
 11
412.5
 21
277.0
 12
0.0
 22
0.0
 32
0.0
 14
0.0
 24
0.0
 34
0.0
 15
0.0
 25
0.0
 35
0.0
146
0.0
 13
0.0
 23
0.0
 33
0.0
 16
0.0
 26
0.0
 36
0.0
 17
0.0
 27
0.0
 37
0.0
 76
     0
330
B
331
349
  0
LAYOUT
  5
12C4
102
{ACAD_REACTORS
330
1E
102
}
330
1E
100
AcDbPlotSettings
  1

  2
none_device
  4

  6

 40
0.0
 41
0.0
 42
0.0
 43
0.0
 44
0.0
 45
0.0
 46
0.0
 47
0.0
 48
0.0
 49
0.0
140
0.0
141
0.0
142
1.0
143
1.0
 70
   688
 72
     1
 73
     0
 74
     5
  7

 75
    16
 76
     0
 77
     2
 78
   300
147
1.0
148
0.0
149
0.0
100
AcDbLayout
  1
Layout2
 70
     1
 71
     2
 10
0.0
 20
0.0
 11
0.0
 21
0.0
 12
0.0
 22
0.0
 32
0.0
 14
0.0
 24
0.0
 34
0.0
 15
0.0
 25
0.0
 35
0.0
146
0.0
 13
0.0
 23
0.0
 33
0.0
 16
1.0
 26
0.0
 36
0.0
 17
0.0
 27
1.0
 37
0.0
 76
     0
330
12C3
  0
LAYOUT
  5
20
102
{ACAD_REACTORS
330
1E
102
}
330
1E
100
AcDbPlotSettings
  1

  2
none_device
  4
ISO_A3_(420.00_x_297.00_MM)
  6

 40
7.5
 41
20.0
 42
7.5
 43
20.0
 44
420.0
 45
297.0
 46
0.0
 47
0.0
 48
0.0
 49
0.0
140
0.0
141
0.0
142
1.0
143
1.0
 70
  1024
 72
     1
 73
     0
 74
     0
  7

 75
     0
 76
     0
 77
     2
 78
   300
147
1.0
148
0.0
149
0.0
100
AcDbLayout
  1
Model
 70
     0
 71
     1
 10
0.0
 20
0.0
 11
593.9999999999999
 21
420.0
 12
0.0
 22
0.0
 32
0.0
 14
0.0
 24
0.0
 34
0.0
 15
593.9999999999999
 25
420.0
 35
0.0
146
0.0
 13
0.0
 23
0.0
 33
0.0
 16
0.0
 26
0.0
 36
0.0
 17
0.0
 27
0.0
 37
0.0
 76
     0
330
A
331
15
  0
MATERIAL
  5
385B
102
{ACAD_REACTORS
330
263
102
}
330
263
100
AcDbMaterial
  1
ByBlock
 72
     1
 94
      127
  0
MATERIAL
  5
264
102
{ACAD_REACTORS
330
263
102
}
330
263
100
AcDbMaterial
  1
ByLayer
 72
     1
 94
      127
  0
MATERIAL
  5
266
102
{ACAD_REACTORS
330
263
102
}
330
263
100
AcDbMaterial
  1
Global
 72
     1
 94
      127
  0
MLEADERSTYLE
  5
4124
102
{ACAD_REACTORS
330
336
102
}
330
336
100
AcDbMLeaderStyle
170
     2
171
     1
172
     0
 90
        2
 40
0.0
 41
0.0
173
     1
 91
-1056964608
340
11
 92
       -2
290
     1
 42
2.0
291
     1
 43
8.0
  3
Standard
341
0
 44
4.0
300

342
17
174
     1
178
     6
175
     1
176
     0
 93
-1056964608
 45
4.0
292
     0
297
     0
 46
4.0
343
0
 94
-1056964608
 47
1.0
 49
1.0
140
1.0
293
     1
141
0.0
294
     1
177
     0
142
1.0
295
     0
296
     0
143
3.75
1001
ACAD_MLEADERVER
1070
     2
  0
MLINESTYLE
  5
1C
102
{ACAD_REACTORS
330
1B
102
}
330
1B
100
AcDbMlineStyle
  2
Standard
 70
     0
  3

 62
     0
 51
90.0
 52
90.0
 71
     2
 49
0.5
 62
   256
  6
BYLAYER
 49
-0.5
 62
   256
  6
BYLAYER
  0
ACDBPLACEHOLDER
  5
1D
102
{ACAD_REACTORS
330
1F
102
}
330
1F
  0
SCALE
  5
242
102
{ACAD_REACTORS
330
241
102
}
330
241
100
AcDbScale
 70
     0
300
1:1
140
1.0
141
1.0
290
     1
  0
SCALE
  5
243
102
{ACAD_REACTORS
330
241
102
}
330
241
100
AcDbScale
 70
     0
300
1:2
140
1.0
141
2.0
290
     0
  0
SCALE
  5
244
102
{ACAD_REACTORS
330
241
102
}
330
241
100
AcDbScale
 70
     0
300
1:4
140
1.0
141
4.0
290
     0
  0
SCALE
  5
245
102
{ACAD_REACTORS
330
241
102
}
330
241
100
AcDbScale
 70
     0
300
1:5
140
1.0
141
5.0
290
     0
  0
SCALE
  5
246
102
{ACAD_REACTORS
330
241
102
}
330
241
100
AcDbScale
 70
     0
300
1:8
140
1.0
141
8.0
290
     0
  0
SCALE
  5
247
102
{ACAD_REACTORS
330
241
102
}
330
241
100
AcDbScale
 70
     0
300
1:10
140
1.0
141
10.0
290
     0
  0
SCALE
  5
248
102
{ACAD_REACTORS
330
241
102
}
330
241
100
AcDbScale
 70
     0
300
1:16
140
1.0
141
16.0
290
     0
  0
SCALE
  5
249
102
{ACAD_REACTORS
330
241
102
}
330
241
100
AcDbScale
 70
     0
300
1:20
140
1.0
141
20.0
290
     0
  0
SCALE
  5
24A
102
{ACAD_REACTORS
330
241
102
}
330
241
100
AcDbScale
 70
     0
300
1:30
140
1.0
141
30.0
290
     0
  0
SCALE
  5
24B
102
{ACAD_REACTORS
330
241
102
}
330
241
100
AcDbScale
 70
     0
300
1:40
140
1.0
141
40.0
290
     0
  0
SCALE
  5
24C
102
{ACAD_REACTORS
330
241
102
}
330
241
100
AcDbScale
 70
     0
300
1:50
140
1.0
141
50.0
290
     0
  0
SCALE
  5
24D
102
{ACAD_REACTORS
330
241
102
}
330
241
100
AcDbScale
 70
     0
300
1:100
140
1.0
141
100.0
290
     0
  0
SCALE
  5
24E
102
{ACAD_REACTORS
330
241
102
}
330
241
100
AcDbScale
 70
     0
300
2:1
140
2.0
141
1.0
290
     0
  0
SCALE
  5
24F
102
{ACAD_REACTORS
330
241
102
}
330
241
100
AcDbScale
 70
     0
300
4:1
140
4.0
141
1.0
290
     0
  0
SCALE
  5
250
102
{ACAD_REACTORS
330
241
102
}
330
241
100
AcDbScale
 70
     0
300
8:1
140
8.0
141
1.0
290
     0
  0
SCALE
  5
251
102
{ACAD_REACTORS
330
241
102
}
330
241
100
AcDbScale
 70
     0
300
10:1
140
10.0
141
1.0
290
     0
  0
SCALE
  5
252
102
{ACAD_REACTORS
330
241
102
}
330
241
100
AcDbScale
 70
     0
300
100:1
140
100.0
141
1.0
290
     0
  0
SCALE
  5
253
102
{ACAD_REACTORS
330
241
102
}
330
241
100
AcDbScale
 70
     0
300
1/128" = 1'-0"
140
0.0078125
141
12.0
290
     0
  0
SCALE
  5
254
102
{ACAD_REACTORS
330
241
102
}
330
241
100
AcDbScale
 70
     0
300
1/64" = 1'-0"
140
0.015625
141
12.0
290
     0
  0
SCALE
  5
255
102
{ACAD_REACTORS
330
241
102
}
330
241
100
AcDbScale
 70
     0
300
1/32" = 1'-0"
140
0.03125
141
12.0
290
     0
  0
SCALE
  5
256
102
{ACAD_REACTORS
330
241
102
}
330
241
100
AcDbScale
 70
     0
300
1/16" = 1'-0"
140
0.0625
141
12.0
290
     0
  0
SCALE
  5
257
102
{ACAD_REACTORS
330
241
102
}
330
241
100
AcDbScale
 70
     0
300
3/32" = 1'-0"
140
0.09375
141
12.0
290
     0
  0
SCALE
  5
258
102
{ACAD_REACTORS
330
241
102
}
330
241
100
AcDbScale
 70
     0
300
1/8" = 1'-0"
140
0.125
141
12.0
290
     0
  0
SCALE
  5
259
102
{ACAD_REACTORS
330
241
102
}
330
241
100
AcDbScale
 70
     0
300
3/16" = 1'-0"
140
0.1875
141
12.0
290
     0
  0
SCALE
  5
25A
102
{ACAD_REACTORS
330
241
102
}
330
241
100
AcDbScale
 70
     0
300
1/4" = 1'-0"
140
0.25
141
12.0
290
     0
  0
SCALE
  5
25B
102
{ACAD_REACTORS
330
241
102
}
330
241
100
AcDbScale
 70
     0
300
3/8" = 1'-0"
140
0.375
141
12.0
290
     0
  0
SCALE
  5
25C
102
{ACAD_REACTORS
330
241
102
}
330
241
100
AcDbScale
 70
     0
300
1/2" = 1'-0"
140
0.5
141
12.0
290
     0
  0
SCALE
  5
25D
102
{ACAD_REACTORS
330
241
102
}
330
241
100
AcDbScale
 70
     0
300
3/4" = 1'-0"
140
0.75
141
12.0
290
     0
  0
SCALE
  5
25E
102
{ACAD_REACTORS
330
241
102
}
330
241
100
AcDbScale
 70
     0
300
1" = 1'-0"
140
1.0
141
12.0
290
     0
  0
SCALE
  5
25F
102
{ACAD_REACTORS
330
241
102
}
330
241
100
AcDbScale
 70
     0
300
1-1/2" = 1'-0"
140
1.5
141
12.0
290
     0
  0
SCALE
  5
260
102
{ACAD_REACTORS
330
241
102
}
330
241
100
AcDbScale
 70
     0
300
3" = 1'-0"
140
3.0
141
12.0
290
     0
  0
SCALE
  5
261
102
{ACAD_REACTORS
330
241
102
}
330
241
100
AcDbScale
 70
     0
300
6" = 1'-0"
140
6.0
141
12.0
290
     0
  0
SCALE
  5
262
102
{ACAD_REACTORS
330
241
102
}
330
241
100
AcDbScale
 70
     0
300
1'-0" = 1'-0"
140
12.0
141
12.0
290
     0
  0
TABLESTYLE
  5
279
102
{ACAD_REACTORS
330
278
102
}
102
{ACAD_XDICTIONARY
360
70C8
102
}
330
278
100
AcDbTableStyle
  3
Standard
 70
     0
 71
     0
 40
0.06
 41
0.06
280
     0
281
     0
  7
Standard
140
4.5
170
     2
 62
     0
 63
   257
283
     0
 90
        4
 91
        0
  1

274
    -2
284
     1
 64
     0
275
    -2
285
     1
 65
     0
276
    -2
286
     1
 66
     0
277
    -2
287
     1
 67
     0
278
    -2
288
     1
 68
     0
279
    -2
289
     1
 69
     0
  7
Standard
140
6.0
170
     5
 62
     0
 63
   257
283
     0
 90
        4
 91
        0
  1

274
    -2
284
     1
 64
     0
275
    -2
285
     1
 65
     0
276
    -2
286
     1
 66
     0
277
    -2
287
     1
 67
     0
278
    -2
288
     1
 68
     0
279
    -2
289
     1
 69
     0
  7
Standard
140
4.5
170
     5
 62
     0
 63
   257
283
     0
 90
        4
 91
        0
  1

274
    -2
284
     1
 64
     0
275
    -2
285
     1
 65
     0
276
    -2
286
     1
 66
     0
277
    -2
287
     1
 67
     0
278
    -2
288
     1
 68
     0
279
    -2
289
     1
 69
     0
  0
VISUALSTYLE
  5
26C
102
{ACAD_REACTORS
330
267
102
}
330
267
100
AcDbVisualStyle
  2
2dWireframe
 70
     4
 71
     0
 72
     2
 73
     0
 90
        0
 40
-0.6
 41
-30.0
 62
     5
 63
     7
421
 16777215
 74
     1
 91
        4
 64
     7
 65
   257
 75
     1
175
     1
 42
1.0
 92
        0
 66
   257
 43
1.0
 76
     1
 77
     6
 78
     2
 67
     7
 79
     5
170
     0
171
     0
290
     0
174
     0
 93
        1
 44
0.0
173
     0
291
     0
 45
0.0
  0
VISUALSTYLE
  5
26E
102
{ACAD_REACTORS
330
267
102
}
330
267
100
AcDbVisualStyle
  2
3D Hidden
 70
     6
 71
     1
 72
     2
 73
     2
 90
        0
 40
-0.6
 41
-30.0
 62
     5
 63
     7
421
 16777215
 74
     2
 91
        2
 64
     7
 65
   257
 75
     2
175
     1
 42
40.0
 92
        0
 66
   257
 43
1.0
 76
     1
 77
     6
 78
     2
 67
     7
 79
     3
170
     0
171
     0
290
     0
174
     0
 93
        1
 44
0.0
173
     0
291
     0
 45
0.0
  0
VISUALSTYLE
  5
26D
102
{ACAD_REACTORS
330
267
102
}
330
267
100
AcDbVisualStyle
  2
3dWireframe
 70
     5
 71
     0
 72
     2
 73
     0
 90
        0
 40
-0.6
 41
-30.0
 62
     5
 63
     7
421
 16777215
 74
     1
 91
        4
 64
     7
 65
   257
 75
     1
175
     1
 42
1.0
 92
        0
 66
   257
 43
1.0
 76
     1
 77
     6
 78
     2
 67
     7
 79
     5
170
     0
171
     0
290
     0
174
     0
 93
        1
 44
0.0
173
     0
291
     0
 45
0.0
  0
VISUALSTYLE
  5
26F
102
{ACAD_REACTORS
330
267
102
}
330
267
100
AcDbVisualStyle
  2
Basic
 70
     7
 71
     1
 72
     0
 73
     1
 90
        0
 40
-0.6
 41
-30.0
 62
     5
 63
     7
421
 16777215
 74
     0
 91
        4
 64
     7
 65
   257
 75
     1
175
     1
 42
1.0
 92
        8
 66
     7
 43
1.0
 76
     1
 77
     6
 78
     2
 67
     7
 79
     5
170
     0
171
     0
290
     0
174
     0
 93
        1
 44
0.0
173
     0
291
     1
 45
0.0
  0
VISUALSTYLE
  5
273
102
{ACAD_REACTORS
330
267
102
}
330
267
100
AcDbVisualStyle
  2
Brighten
 70
    12
 71
     2
 72
     2
 73
     0
 90
        0
 40
-0.6
 41
-30.0
 62
     5
 63
     7
421
 16777215
 74
     1
 91
        4
 64
     7
 65
   257
 75
     1
175
     1
 42
1.0
 92
        8
 66
     7
 43
1.0
 76
     1
 77
     6
 78
     2
 67
     7
 79
     5
170
     0
171
     0
290
     0
174
     0
 93
        1
 44
50.0
173
     0
291
     1
 45
0.0
  0
VISUALSTYLE
  5
277
102
{ACAD_REACTORS
330
267
102
}
330
267
100
AcDbVisualStyle
  2
ColorChange
 70
    16
 71
     2
 72
     2
 73
     3
 90
        0
 40
-0.6
 41
-30.0
 62
     5
 63
     8
421
  8421504
 74
     1
 91
        4
 64
     7
 65
   257
 75
     1
175
     1
 42
1.0
 92
        8
 66
     8
424
  8421504
 43
1.0
 76
     1
 77
     6
 78
     2
 67
     7
 79
     5
170
     0
171
     0
290
     0
174
     0
 93
        1
 44
0.0
173
     0
291
     1
 45
0.0
  0
VISUALSTYLE
  5
271
102
{ACAD_REACTORS
330
267
102
}
330
267
100
AcDbVisualStyle
  2
Conceptual
 70
     9
 71
     3
 72
     2
 73
     0
 90
        0
 40
-0.6
 41
-30.0
 62
     5
 63
     7
421
 16777215
 74
     2
 91
        2
 64
     7
 65
   257
 75
     1
175
     1
 42
40.0
 92
        8
 66
     7
 43
1.0
 76
     1
 77
     6
 78
     2
 67
     7
 79
     3
170
     0
171
     0
290
     0
174
     0
 93
        1
 44
0.0
173
     0
291
     0
 45
0.0
  0
VISUALSTYLE
  5
272
102
{ACAD_REACTORS
330
267
102
}
330
267
100
AcDbVisualStyle
  2
Dim
 70
    11
 71
     2
 72
     2
 73
     0
 90
        0
 40
-0.6
 41
-30.0
 62
     5
 63
     7
421
 16777215
 74
     1
 91
        4
 64
     7
 65
   257
 75
     1
175
     1
 42
1.0
 92
        8
 66
     7
 43
1.0
 76
     1
 77
     6
 78
     2
 67
     7
 79
     5
170
     0
171
     0
290
     0
174
     0
 93
        1
 44
-50.0
173
     0
291
     1
 45
0.0
  0
VISUALSTYLE
  5
10E2
102
{ACAD_REACTORS
330
267
102
}
330
267
100
AcDbVisualStyle
  2
EdgeColorOff
 70
    22
 71
     2
 72
     2
 73
     0
 90
        0
 40
0.6
 41
30.0
 62
     5
 63
     7
421
 16777215
 74
     1
 91
        4
 64
     7
 65
   257
 75
     1
175
     1
 42
1.0
 92
        8
 66
     7
 43
1.0
 76
     1
 77
     6
 78
     2
 67
     7
 79
     5
170
     0
171
     0
290
     0
174
     0
 93
        1
 44
0.0
173
     0
291
     1
 45
0.0
  0
VISUALSTYLE
  5
276
102
{ACAD_REACTORS
330
267
102
}
330
267
100
AcDbVisualStyle
  2
Facepattern
 70
    15
 71
     2
 72
     2
 73
     0
 90
        0
 40
-0.6
 41
-30.0
 62
     5
 63
     7
421
 16777215
 74
     1
 91
        4
 64
     7
 65
   257
 75
     1
175
     1
 42
1.0
 92
        8
 66
     7
 43
1.0
 76
     1
 77
     6
 78
     2
 67
     7
 79
     5
170
     0
171
     0
290
     0
174
     0
 93
        1
 44
0.0
173
     0
291
     1
 45
0.0
  0
VISUALSTYLE
  5
268
102
{ACAD_REACTORS
330
267
102
}
330
267
100
AcDbVisualStyle
  2
Flat
 70
     0
 71
     2
 72
     1
 73
     1
 90
        2
 40
-0.6
 41
30.0
 62
     5
 63
     7
421
 16777215
 74
     0
 91
        4
 64
     7
 65
   257
 75
     1
175
     1
 42
1.0
 92
        8
 66
     7
 43
1.0
 76
     1
 77
     6
 78
     2
 67
     7
 79
     5
170
     0
171
     0
290
     0
174
     0
 93
       13
 44
0.0
173
     0
291
     1
 45
0.0
  0
VISUALSTYLE
  5
269
102
{ACAD_REACTORS
330
267
102
}
330
267
100
AcDbVisualStyle
  2
FlatWithEdges
 70
     1
 71
     2
 72
     1
 73
     1
 90
        2
 40
-0.6
 41
30.0
 62
     5
 63
     7
421
 16777215
 74
     1
 91
        4
 64
     7
 65
   257
 75
     1
175
     1
 42
1.0
 92
        0
 66
   257
 43
1.0
 76
     1
 77
     6
 78
     2
 67
     7
 79
     5
170
     0
171
     0
290
     0
174
     0
 93
       13
 44
0.0
173
     0
291
     1
 45
0.0
  0
VISUALSTYLE
  5
26A
102
{ACAD_REACTORS
330
267
102
}
330
267
100
AcDbVisualStyle
  2
Gouraud
 70
     2
 71
     2
 72
     2
 73
     1
 90
        2
 40
-0.6
 41
30.0
 62
     5
 63
     7
421
 16777215
 74
     0
 91
        4
 64
     7
 65
   257
 75
     1
175
     1
 42
1.0
 92
        0
 66
     7
 43
1.0
 76
     1
 77
     6
 78
     2
 67
     7
 79
     5
170
     0
171
     0
290
     0
174
     0
 93
       13
 44
0.0
173
     0
291
     1
 45
0.0
  0
VISUALSTYLE
  5
26B
102
{ACAD_REACTORS
330
267
102
}
330
267
100
AcDbVisualStyle
  2
GouraudWithEdges
 70
     3
 71
     2
 72
     2
 73
     1
 90
        2
 40
-0.6
 41
30.0
 62
     5
 63
     7
421
 16777215
 74
     1
 91
        4
 64
     7
 65
   257
 75
     1
175
     1
 42
1.0
 92
        0
 66
   257
 43
1.0
 76
     1
 77
     6
 78
     2
 67
     7
 79
     5
170
     0
171
     0
290
     0
174
     0
 93
       13
 44
0.0
173
     0
291
     1
 45
0.0
  0
VISUALSTYLE
  5
10DF
102
{ACAD_REACTORS
330
267
102
}
330
267
100
AcDbVisualStyle
  2
Hidden
 70
     6
 71
     1
 72
     2
 73
     2
 90
        0
 40
0.6
 41
30.0
 62
     5
 63
     7
421
 16777215
 74
     2
 91
        2
 64
     7
 65
   257
 75
     2
175
     1
 42
40.0
 92
        0
 66
   257
 43
1.0
 76
     1
 77
     6
 78
     2
 67
     7
 79
     3
170
     0
171
     0
290
     0
174
     0
 93
        1
 44
0.0
173
     0
291
     0
 45
0.0
  0
VISUALSTYLE
  5
10E0
102
{ACAD_REACTORS
330
267
102
}
330
267
100
AcDbVisualStyle
  2
JitterOff
 70
    20
 71
     2
 72
     2
 73
     0
 90
        0
 40
0.6
 41
30.0
 62
     5
 63
     7
421
 16777215
 74
     1
 91
        4
 64
     7
 65
   257
 75
     1
175
     1
 42
1.0
 92
       10
 66
     7
 43
1.0
 76
     1
 77
     6
 78
     2
 67
     7
 79
     5
170
     0
171
     0
290
     0
174
     0
 93
        1
 44
0.0
173
     0
291
     1
 45
0.0
  0
VISUALSTYLE
  5
275
102
{ACAD_REACTORS
330
267
102
}
330
267
100
AcDbVisualStyle
  2
Linepattern
 70
    14
 71
     2
 72
     2
 73
     0
 90
        0
 40
-0.6
 41
-30.0
 62
     5
 63
     7
421
 16777215
 74
     1
 91
        4
 64
     7
 65
   257
 75
     7
175
     7
 42
1.0
 92
        8
 66
     7
 43
1.0
 76
     1
 77
     6
 78
     2
 67
     7
 79
     5
170
     0
171
     0
290
     0
174
     0
 93
        1
 44
0.0
173
     0
291
     1
 45
0.0
  0
VISUALSTYLE
  5
10E1
102
{ACAD_REACTORS
330
267
102
}
330
267
100
AcDbVisualStyle
  2
OverhangOff
 70
    21
 71
     2
 72
     2
 73
     0
 90
        0
 40
0.6
 41
30.0
 62
     5
 63
     7
421
 16777215
 74
     1
 91
        4
 64
     7
 65
   257
 75
     1
175
     1
 42
1.0
 92
        9
 66
     7
 43
1.0
 76
     1
 77
     6
 78
     2
 67
     7
 79
     5
170
     0
171
     0
290
     0
174
     0
 93
        1
 44
0.0
173
     0
291
     1
 45
0.0
  0
VISUALSTYLE
  5
270
102
{ACAD_REACTORS
330
267
102
}
330
267
100
AcDbVisualStyle
  2
Realistic
 70
     8
 71
     2
 72
     2
 73
     0
 90
        0
 40
-0.6
 41
-30.0
 62
     5
 63
     7
421
 16777215
 74
     1
 91
        0
 64
     7
 65
   257
 75
     1
175
     1
 42
1.0
 92
        8
 66
     8
424
  7895160
 43
1.0
 76
     1
 77
     6
 78
     2
 67
     7
 79
     5
170
     0
171
     0
290
     0
174
     0
 93
       13
 44
0.0
173
     0
291
     0
 45
0.0
  0
VISUALSTYLE
  5
10E7
102
{ACAD_REACTORS
330
267
102
}
330
267
100
AcDbVisualStyle
  2
Shaded
 70
    27
 71
     2
 72
     2
 73
     1
 90
        2
 40
0.6
 41
30.0
 62
     5
 63
     7
421
 16777215
 74
     0
 91
        4
 64
     7
 65
   257
 75
     1
175
     1
 42
1.0
 92
        8
 66
   257
 43
1.0
 76
     1
 77
     6
 78
     2
 67
     8
425
  7895160
 79
     3
170
     0
171
     0
290
     0
174
     0
 93
        5
 44
0.0
173
     0
291
     0
 45
0.0
  0
VISUALSTYLE
  5
10E6
102
{ACAD_REACTORS
330
267
102
}
330
267
100
AcDbVisualStyle
  2
Shaded with edges
 70
    26
 71
     2
 72
     2
 73
     1
 90
        2
 40
0.6
 41
30.0
 62
     5
 63
     7
421
 16777215
 74
     1
 91
       10
 64
     7
 65
   257
 75
     2
175
     1
 42
1.0
 92
        8
 66
   257
 43
1.0
 76
     1
 77
     6
 78
     2
 67
     7
 79
     3
170
     0
171
     0
290
     0
174
     0
 93
        5
 44
0.0
173
     0
291
     0
 45
0.0
  0
VISUALSTYLE
  5
10E3
102
{ACAD_REACTORS
330
267
102
}
330
267
100
AcDbVisualStyle
  2
Shades of Gray
 70
    23
 71
     2
 72
     2
 73
     3
 90
        0
 40
0.6
 41
30.0
 62
     5
 63
     7
421
 16777215
 74
     2
 91
        2
 64
     7
 65
     7
 75
     1
175
     1
 42
40.0
 92
        8
 66
     7
 43
1.0
 76
     1
 77
     6
 78
     2
 67
     7
 79
     3
170
     0
171
     0
290
     0
174
     0
 93
        1
 44
0.0
173
     0
291
     0
 45
0.0
  0
VISUALSTYLE
  5
10E4
102
{ACAD_REACTORS
330
267
102
}
330
267
100
AcDbVisualStyle
  2
Sketchy
 70
    24
 71
     1
 72
     2
 73
     2
 90
        0
 40
0.6
 41
30.0
 62
     5
 63
     7
421
 16777215
 74
     2
 91
        2
 64
     7
 65
     7
 75
     1
175
     1
 42
40.0
 92
       11
 66
     7
 43
1.0
 76
     1
 77
     6
 78
     2
 67
     7
 79
     6
170
     0
171
     0
290
     0
174
     0
 93
        1
 44
0.0
173
     0
291
     0
 45
0.0
  0
VISUALSTYLE
  5
274
102
{ACAD_REACTORS
330
267
102
}
330
267
100
AcDbVisualStyle
  2
Thicken
 70
    13
 71
     2
 72
     2
 73
     0
 90
        0
 40
-0.6
 41
-30.0
 62
     5
 63
     7
421
 16777215
 74
     1
 91
        4
 64
     7
 65
   257
 75
     1
175
     1
 42
1.0
 92
       12
 66
     7
 43
1.0
 76
     1
 77
     6
 78
     2
 67
     7
 79
     5
170
     0
171
     0
290
     0
174
     0
 93
        1
 44
0.0
173
     0
291
     1
 45
0.0
  0
VISUALSTYLE
  5
10DE
102
{ACAD_REACTORS
330
267
102
}
330
267
100
AcDbVisualStyle
  2
Wireframe
 70
     5
 71
     0
 72
     2
 73
     0
 90
        0
 40
0.6
 41
30.0
 62
     5
 63
     7
421
 16777215
 74
     1
 91
        4
 64
     7
 65
   257
 75
     1
175
     1
 42
1.0
 92
        0
 66
   257
 43
1.0
 76
     1
 77
     6
 78
     2
 67
     7
 79
     3
170
     0
171
     0
290
     0
174
     0
 93
        1
 44
0.0
173
     0
291
     0
 45
0.0
  0
VISUALSTYLE
  5
10E5
102
{ACAD_REACTORS
330
267
102
}
330
267
100
AcDbVisualStyle
  2
X-Ray
 70
    25
 71
     2
 72
     2
 73
     1
 90
        1
 40
0.5
 41
30.0
 62
     5
 63
     7
421
 16777215
 74
     1
 91
        0
 64
     7
 65
   257
 75
     1
175
     1
 42
1.0
 92
        8
 66
     7
 43
1.0
 76
     1
 77
     6
 78
     2
 67
     7
 79
     3
170
     0
171
     0
290
     0
174
     0
 93
       13
 44
0.0
173
     0
291
     0
 45
0.0
  0
DICTIONARYVAR
  5
331
102
{ACAD_REACTORS
330
330
102
}
330
330
100
DictionaryVariables
280
     0
  1
1:1
  0
DICTIONARYVAR
  5
4129
102
{ACAD_REACTORS
330
330
102
}
330
330
100
DictionaryVariables
280
     0
  1
Standard
  0
DICTIONARYVAR
  5
335
102
{ACAD_REACTORS
330
330
102
}
330
330
100
DictionaryVariables
280
     0
  1
Standard
  0
DICTIONARYVAR
  5
5453
102
{ACAD_REACTORS
330
330
102
}
330
330
100
DictionaryVariables
280
     0
  1
ByLayer
  0
DICTIONARYVAR
  5
109E
102
{ACAD_REACTORS
330
330
102
}
330
330
100
DictionaryVariables
280
     0
  1
0
  0
DICTIONARYVAR
  5
5457
102
{ACAD_REACTORS
330
5454
102
}
330
5454
100
DictionaryVariables
280
     0
  1
0.261799
  0
DICTIONARYVAR
  5
5455
102
{ACAD_REACTORS
330
5454
102
}
330
5454
100
DictionaryVariables
280
     0
  1
0.400000
  0
DICTIONARYVAR
  5
5456
102
{ACAD_REACTORS
330
5454
102
}
330
5454
100
DictionaryVariables
280
     0
  1
0.250000
  0
DICTIONARYVAR
  5
5458
102
{ACAD_REACTORS
330
5454
102
}
330
5454
100
DictionaryVariables
280
     0
  1
1
  0
FIELD
  5
5FDC
102
{ACAD_REACTORS
330
5FDB
102
}
330
5FDB
100
AcDbField
  1
_text
  2
{%<\_FldIdx 0>%N}
 90
        1
360
5FDD
 97
        0
 91
       63
 92
        0
 94
        8
 95
        2
 96
        0
300

 93
        1
  6
ACFD_FIELDTEXT_CHECKSUM
 93
        2
 90
        2
140
4568.0
 94
        0
300

302

304
ACVALUE_END
  7
ACFD_FIELD_VALUE
 93
        6
 90
        4
  1
{20170908N}
 94
        0
300

302

304
ACVALUE_END
301
{20170908N}
 98
       11
  0
DICTIONARY
  5
70C8
330
279
100
AcDbDictionary
280
     1
281
     1
  3
ACAD_ROUNDTRIP_2008_TABLESTYLE_CELLSTYLEMAP
360
70C9
  0
FIELD
  5
5FDD
330
5FDC
100
AcDbField
  1
AcVar
  2
\AcVar Date \f "yyyyMMdd"
 90
        0
 97
        0
 91
       63
 92
        0
 94
        8
 95
       64
 96
        0
300
Variable not supported
 93
        1
  6
Variable
 93
        2
 90
        4
  1
Date
 94
        0
300

302

304
ACVALUE_END
  7
ACFD_FIELD_VALUE
 93
        6
 90
        8
 92
       16
310
E1070900000008000B002B0004000000
 94
        0
300
yyyyMMdd
302

304
ACVALUE_END
301
20170908
 98
        8
  0
CELLSTYLEMAP
  5
70C9
102
{ACAD_REACTORS
330
70C8
102
}
330
70C8
100
AcDbCellStyleMap
 90
        3
300
CELLSTYLE
  1
TABLEFORMAT_BEGIN
 90
        5
170
     1
 91
        0
 92
    32768
 62
   257
 93
        1
300
CONTENTFORMAT
  1
CONTENTFORMAT_BEGIN
 90
        0
 91
        0
 92
        4
 93
        0
300

 40
0.0
140
1.0
 94
        5
 62
     0
340
17
144
6.0
309
CONTENTFORMAT_END
171
     1
301
MARGIN
  1
CELLMARGIN_BEGIN
 40
0.06
 40
0.06
 40
0.06
 40
0.06
 40
0.18
 40
0.18
309
CELLMARGIN_END
 94
        6
 95
        1
302
GRIDFORMAT
  1
GRIDFORMAT_BEGIN
 90
        0
 91
        1
 62
     0
 92
       -2
340
0
 93
        0
 40
0.045
309
GRIDFORMAT_END
 95
        2
302
GRIDFORMAT
  1
GRIDFORMAT_BEGIN
 90
        0
 91
        1
 62
     0
 92
       -2
340
0
 93
        0
 40
0.045
309
GRIDFORMAT_END
 95
        4
302
GRIDFORMAT
  1
GRIDFORMAT_BEGIN
 90
        0
 91
        1
 62
     0
 92
       -2
340
0
 93
        0
 40
0.045
309
GRIDFORMAT_END
 95
        8
302
GRIDFORMAT
  1
GRIDFORMAT_BEGIN
 90
        0
 91
        1
 62
     0
 92
       -2
340
0
 93
        0
 40
0.045
309
GRIDFORMAT_END
 95
       16
302
GRIDFORMAT
  1
GRIDFORMAT_BEGIN
 90
        0
 91
        1
 62
     0
 92
       -2
340
0
 93
        0
 40
0.045
309
GRIDFORMAT_END
 95
       32
302
GRIDFORMAT
  1
GRIDFORMAT_BEGIN
 90
        0
 91
        1
 62
     0
 92
       -2
340
0
 93
        0
 40
0.045
309
GRIDFORMAT_END
309
TABLEFORMAT_END
  1
CELLSTYLE_BEGIN
 90
        1
 91
        1
300
_TITLE
309
CELLSTYLE_END
300
CELLSTYLE
  1
TABLEFORMAT_BEGIN
 90
        5
170
     1
 91
        0
 92
        0
 62
   257
 93
        1
300
CONTENTFORMAT
  1
CONTENTFORMAT_BEGIN
 90
        0
 91
        0
 92
        4
 93
        0
300

 40
0.0
140
1.0
 94
        5
 62
     0
340
17
144
4.5
309
CONTENTFORMAT_END
171
     1
301
MARGIN
  1
CELLMARGIN_BEGIN
 40
0.06
 40
0.06
 40
0.06
 40
0.06
 40
0.18
 40
0.18
309
CELLMARGIN_END
 94
        6
 95
        1
302
GRIDFORMAT
  1
GRIDFORMAT_BEGIN
 90
        0
 91
        1
 62
     0
 92
       -2
340
0
 93
        0
 40
0.045
309
GRIDFORMAT_END
 95
        2
302
GRIDFORMAT
  1
GRIDFORMAT_BEGIN
 90
        0
 91
        1
 62
     0
 92
       -2
340
0
 93
        0
 40
0.045
309
GRIDFORMAT_END
 95
        4
302
GRIDFORMAT
  1
GRIDFORMAT_BEGIN
 90
        0
 91
        1
 62
     0
 92
       -2
340
0
 93
        0
 40
0.045
309
GRIDFORMAT_END
 95
        8
302
GRIDFORMAT
  1
GRIDFORMAT_BEGIN
 90
        0
 91
        1
 62
     0
 92
       -2
340
0
 93
        0
 40
0.045
309
GRIDFORMAT_END
 95
       16
302
GRIDFORMAT
  1
GRIDFORMAT_BEGIN
 90
        0
 91
        1
 62
     0
 92
       -2
340
0
 93
        0
 40
0.045
309
GRIDFORMAT_END
 95
       32
302
GRIDFORMAT
  1
GRIDFORMAT_BEGIN
 90
        0
 91
        1
 62
     0
 92
       -2
340
0
 93
        0
 40
0.045
309
GRIDFORMAT_END
309
TABLEFORMAT_END
  1
CELLSTYLE_BEGIN
 90
        2
 91
        1
300
_HEADER
309
CELLSTYLE_END
300
CELLSTYLE
  1
TABLEFORMAT_BEGIN
 90
        5
170
     1
 91
        0
 92
        0
 62
   257
 93
        1
300
CONTENTFORMAT
  1
CONTENTFORMAT_BEGIN
 90
        0
 91
        0
 92
        4
 93
        0
300

 40
0.0
140
1.0
 94
        2
 62
     0
340
17
144
4.5
309
CONTENTFORMAT_END
171
     1
301
MARGIN
  1
CELLMARGIN_BEGIN
 40
0.06
 40
0.06
 40
0.06
 40
0.06
 40
0.18
 40
0.18
309
CELLMARGIN_END
 94
        6
 95
        1
302
GRIDFORMAT
  1
GRIDFORMAT_BEGIN
 90
        0
 91
        1
 62
     0
 92
       -2
340
0
 93
        0
 40
0.045
309
GRIDFORMAT_END
 95
        2
302
GRIDFORMAT
  1
GRIDFORMAT_BEGIN
 90
        0
 91
        1
 62
     0
 92
       -2
340
0
 93
        0
 40
0.045
309
GRIDFORMAT_END
 95
        4
302
GRIDFORMAT
  1
GRIDFORMAT_BEGIN
 90
        0
 91
        1
 62
     0
 92
       -2
340
0
 93
        0
 40
0.045
309
GRIDFORMAT_END
 95
        8
302
GRIDFORMAT
  1
GRIDFORMAT_BEGIN
 90
        0
 91
        1
 62
     0
 92
       -2
340
0
 93
        0
 40
0.045
309
GRIDFORMAT_END
 95
       16
302
GRIDFORMAT
  1
GRIDFORMAT_BEGIN
 90
        0
 91
        1
 62
     0
 92
       -2
340
0
 93
        0
 40
0.045
309
GRIDFORMAT_END
 95
       32
302
GRIDFORMAT
  1
GRIDFORMAT_BEGIN
 90
        0
 91
        1
 62
     0
 92
       -2
340
0
 93
        0
 40
0.045
309
GRIDFORMAT_END
309
TABLEFORMAT_END
  1
CELLSTYLE_BEGIN
 90
        3
 91
        2
300
_DATA
309
CELLSTYLE_END
  0
ENDSEC
  0
EOF
