  0
SECTION
  2
HEADER
  9
$ACADVER
  1
AC1021
  9
$ACADMAINTVER
 70
    25
  9
$DWGCODEPAGE
  3
ANSI_932
  9
$LASTSAVEDBY
  1
howeNelson
  9
$INSBASE
 10
0.0
 20
0.0
 30
0.0
  9
$EXTMIN
 10
0.0
 20
0.0
 30
0.0
  9
$EXTMAX
 10
593.9999999999999
 20
420.0
 30
0.0
  9
$LIMMIN
 10
0.0
 20
0.0
  9
$LIMMAX
 10
593.9999999999999
 20
420.0
  9
$ORTHOMODE
 70
     0
  9
$REGENMODE
 70
     1
  9
$FILLMODE
 70
     1
  9
$QTEXTMODE
 70
     0
  9
$MIRRTEXT
 70
     1
  9
$LTSCALE
 40
0.5
  9
$ATTMODE
 70
     1
  9
$TEXTSIZE
 40
2.5
  9
$TRACEWID
 40
1.0
  9
$TEXTSTYLE
  7
ＭＳ ゴシック
  9
$CLAYER
  8
寸法
  9
$CELTYPE
  6
ByLayer
  9
$CECOLOR
 62
   256
  9
$CELTSCALE
 40
1.0
  9
$DISPSILH
 70
     0
  9
$DIMSCALE
 40
1.0
  9
$DIMASZ
 40
2.0
  9
$DIMEXO
 40
5.0
  9
$DIMDLI
 40
0.9999999999999999
  9
$DIMRND
 40
0.0
  9
$DIMDLE
 40
0.0
  9
$DIMEXE
 40
0.0
  9
$DIMTP
 40
0.0
  9
$DIMTM
 40
0.0
  9
$DIMTXT
 40
5.0
  9
$DIMCEN
 40
0.0
  9
$DIMTSZ
 40
0.0
  9
$DIMTOL
 70
     0
  9
$DIMLIM
 70
     0
  9
$DIMTIH
 70
     0
  9
$DIMTOH
 70
     0
  9
$DIMSE1
 70
     0
  9
$DIMSE2
 70
     0
  9
$DIMTAD
 70
     1
  9
$DIMZIN
 70
    11
  9
$DIMBLK
  1
DOT
  9
$DIMASO
 70
     1
  9
$DIMSHO
 70
     1
  9
$DIMPOST
  1
<>
  9
$DIMAPOST
  1
[]
  9
$DIMALT
 70
     0
  9
$DIMALTD
 70
     1
  9
$DIMALTF
 40
1.0
  9
$DIMLFAC
 40
1.0
  9
$DIMTOFL
 70
     0
  9
$DIMTVP
 40
0.0
  9
$DIMTIX
 70
     1
  9
$DIMSOXD
 70
     0
  9
$DIMSAH
 70
     0
  9
$DIMBLK1
  1

  9
$DIMBLK2
  1

  9
$DIMSTYLE
  2
tfrom線あり
  9
$DIMCLRD
 70
     0
  9
$DIMCLRE
 70
     0
  9
$DIMCLRT
 70
     0
  9
$DIMTFAC
 40
1.0
  9
$DIMGAP
 40
5.0
  9
$DIMJUST
 70
     0
  9
$DIMSD1
 70
     0
  9
$DIMSD2
 70
     0
  9
$DIMTOLJ
 70
     1
  9
$DIMTZIN
 70
    11
  9
$DIMALTZ
 70
    11
  9
$DIMALTTZ
 70
    11
  9
$DIMUPT
 70
     0
  9
$DIMDEC
 70
     0
  9
$DIMTDEC
 70
     1
  9
$DIMALTU
 70
     2
  9
$DIMALTTD
 70
     2
  9
$DIMTXSTY
  7
ＭＳ ゴシック
  9
$DIMAUNIT
 70
     0
  9
$DIMADEC
 70
     2
  9
$DIMALTRND
 40
0.0
  9
$DIMAZIN
 70
     0
  9
$DIMDSEP
 70
    46
  9
$DIMATFIT
 70
     0
  9
$DIMFRAC
 70
     2
  9
$DIMLDRBLK
  1
DOT
  9
$DIMLUNIT
 70
     2
  9
$DIMLWD
 70
    -2
  9
$DIMLWE
 70
    -2
  9
$DIMTMOVE
 70
     0
  9
$DIMFXL
 40
1.0
  9
$DIMFXLON
 70
     0
  9
$DIMJOGANG
 40
0.7853981633974483
  9
$DIMTFILL
 70
     0
  9
$DIMTFILLCLR
 70
     0
  9
$DIMARCSYM
 70
     0
  9
$DIMLTYPE
  6

  9
$DIMLTEX1
  6

  9
$DIMLTEX2
  6

  9
$LUNITS
 70
     2
  9
$LUPREC
 70
     0
  9
$SKETCHINC
 40
0.1
  9
$FILLETRAD
 40
12.0
  9
$AUNITS
 70
     0
  9
$AUPREC
 70
     0
  9
$MENU
  1
acad
  9
$ELEVATION
 40
0.0
  9
$PELEVATION
 40
0.0
  9
$THICKNESS
 40
0.0
  9
$LIMCHECK
 70
     0
  9
$CHAMFERA
 40
0.0
  9
$CHAMFERB
 40
0.0
  9
$CHAMFERC
 40
0.0
  9
$CHAMFERD
 40
0.0
  9
$SKPOLY
 70
     0
  9
$TDCREATE
 40
2447893.375
  9
$TDUCREATE
 40
0.0
  9
$TDUPDATE
 40
2458411.734392384
  9
$TDUUPDATE
 40
2458411.359392384
  9
$TDINDWG
 40
0.0482943866
  9
$TDUSRTIMER
 40
0.0000103935
  9
$USRTIMER
 70
     1
  9
$ANGBASE
 50
0.0
  9
$ANGDIR
 70
     0
  9
$PDMODE
 70
     1
  9
$PDSIZE
 40
-2.0
  9
$PLINEWID
 40
0.0
  9
$SPLFRAME
 70
     0
  9
$SPLINETYPE
 70
     6
  9
$SPLINESEGS
 70
     8
  9
$HANDSEED
  5
83C6
  9
$SURFTAB1
 70
     6
  9
$SURFTAB2
 70
     6
  9
$SURFTYPE
 70
     6
  9
$SURFU
 70
     6
  9
$SURFV
 70
     6
  9
$UCSBASE
  2

  9
$UCSNAME
  2

  9
$UCSORG
 10
0.0
 20
0.0
 30
0.0
  9
$UCSXDIR
 10
1.0
 20
0.0
 30
0.0
  9
$UCSYDIR
 10
0.0
 20
1.0
 30
0.0
  9
$UCSORTHOREF
  2

  9
$UCSORTHOVIEW
 70
     0
  9
$UCSORGTOP
 10
0.0
 20
0.0
 30
0.0
  9
$UCSORGBOTTOM
 10
0.0
 20
0.0
 30
0.0
  9
$UCSORGLEFT
 10
0.0
 20
0.0
 30
0.0
  9
$UCSORGRIGHT
 10
0.0
 20
0.0
 30
0.0
  9
$UCSORGFRONT
 10
0.0
 20
0.0
 30
0.0
  9
$UCSORGBACK
 10
0.0
 20
0.0
 30
0.0
  9
$PUCSBASE
  2

  9
$PUCSNAME
  2

  9
$PUCSORG
 10
0.0
 20
0.0
 30
0.0
  9
$PUCSXDIR
 10
1.0
 20
0.0
 30
0.0
  9
$PUCSYDIR
 10
0.0
 20
1.0
 30
0.0
  9
$PUCSORTHOREF
  2

  9
$PUCSORTHOVIEW
 70
     0
  9
$PUCSORGTOP
 10
0.0
 20
0.0
 30
0.0
  9
$PUCSORGBOTTOM
 10
0.0
 20
0.0
 30
0.0
  9
$PUCSORGLEFT
 10
0.0
 20
0.0
 30
0.0
  9
$PUCSORGRIGHT
 10
0.0
 20
0.0
 30
0.0
  9
$PUCSORGFRONT
 10
0.0
 20
0.0
 30
0.0
  9
$PUCSORGBACK
 10
0.0
 20
0.0
 30
0.0
  9
$USERI1
 70
     0
  9
$USERI2
 70
     0
  9
$USERI3
 70
     0
  9
$USERI4
 70
     0
  9
$USERI5
 70
     0
  9
$USERR1
 40
0.0
  9
$USERR2
 40
0.0
  9
$USERR3
 40
0.0
  9
$USERR4
 40
0.0
  9
$USERR5
 40
0.0
  9
$WORLDVIEW
 70
     1
  9
$SHADEDGE
 70
     3
  9
$SHADEDIF
 70
    70
  9
$TILEMODE
 70
     1
  9
$MAXACTVP
 70
    64
  9
$PINSBASE
 10
0.0
 20
0.0
 30
0.0
  9
$PLIMCHECK
 70
     0
  9
$PEXTMIN
 10
0.0
 20
0.0
 30
0.0
  9
$PEXTMAX
 10
0.0
 20
0.0
 30
0.0
  9
$PLIMMIN
 10
-7.5
 20
-20.0
  9
$PLIMMAX
 10
412.5
 20
277.0
  9
$UNITMODE
 70
     0
  9
$VISRETAIN
 70
     0
  9
$PLINEGEN
 70
     1
  9
$PSLTSCALE
 70
     0
  9
$TREEDEPTH
 70
  3020
  9
$CMLSTYLE
  2
Standard
  9
$CMLJUST
 70
     0
  9
$CMLSCALE
 40
1.0
  9
$PROXYGRAPHICS
 70
     0
  9
$MEASUREMENT
 70
     1
  9
$CELWEIGHT
370
    -1
  9
$ENDCAPS
280
     0
  9
$JOINSTYLE
280
     0
  9
$LWDISPLAY
290
     1
  9
$INSUNITS
 70
     4
  9
$HYPERLINKBASE
  1

  9
$STYLESHEET
  1

  9
$XEDIT
290
     1
  9
$CEPSNTYPE
380
     0
  9
$PSTYLEMODE
290
     1
  9
$FINGERPRINTGUID
  2

  9
$VERSIONGUID
  2

  9
$EXTNAMES
290
     1
  9
$PSVPSCALE
 40
0.0
  9
$OLESTARTUP
290
     0
  9
$SORTENTS
280
   127
  9
$INDEXCTL
280
     0
  9
$HIDETEXT
280
     1
  9
$XCLIPFRAME
290
     0
  9
$HALOGAP
280
     0
  9
$OBSCOLOR
 70
   257
  9
$OBSLTYPE
280
     0
  9
$INTERSECTIONDISPLAY
280
     0
  9
$INTERSECTIONCOLOR
 70
   257
  9
$DIMASSOC
280
     2
  9
$PROJECTNAME
  1

  9
$CAMERADISPLAY
290
     0
  9
$LENSLENGTH
 40
50.0
  9
$CAMERAHEIGHT
 40
0.0
  9
$STEPSPERSEC
 40
2.0
  9
$STEPSIZE
 40
6.0
  9
$3DDWFPREC
 40
2.0
  9
$PSOLWIDTH
 40
0.25
  9
$PSOLHEIGHT
 40
4.0
  9
$LOFTANG1
 40
1.570796326794897
  9
$LOFTANG2
 40
1.570796326794897
  9
$LOFTMAG1
 40
0.0
  9
$LOFTMAG2
 40
0.0
  9
$LOFTPARAM
 70
     7
  9
$LOFTNORMALS
280
     1
  9
$LATITUDE
 40
37.795
  9
$LONGITUDE
 40
-122.394
  9
$NORTHDIRECTION
 40
0.0
  9
$TIMEZONE
 70
 -8000
  9
$LIGHTGLYPHDISPLAY
280
     1
  9
$TILEMODELIGHTSYNCH
280
     1
  9
$SOLIDHIST
280
     1
  9
$SHOWHIST
280
     1
  9
$DWFFRAME
280
     2
  9
$DGNFRAME
280
     2
  9
$REALWORLDSCALE
290
     1
  9
$INTERFERECOLOR
 62
   256
  9
$CSHADOW
280
     0
  9
$SHADOWPLANELOCATION
 40
0.0
  0
ENDSEC
  0
SECTION
  2
CLASSES
  0
CLASS
  1
LWPOLYLINE
  2
AcDbPolyline
  3
ObjectDBX Classes
 90
        0
 91
        1
280
     0
281
     1
  0
CLASS
  1
IMAGE
  2
AcDbRasterImage
  3
ISM
 90
      127
 91
        6
280
     0
281
     1
  0
CLASS
  1
OLE2FRAME
  2
AcDbOle2Frame
  3
ObjectDBX Classes
 90
        0
 91
        1
280
     0
281
     1
  0
CLASS
  1
HATCH
  2
AcDbHatch
  3
ObjectDBX Classes
 90
        0
 91
        1
280
     0
281
     1
  0
CLASS
  1
DICTIONARYVAR
  2
AcDbDictionaryVar
  3
ObjectDBX Classes
 90
        0
 91
        5
280
     0
281
     0
  0
CLASS
  1
RASTERVARIABLES
  2
AcDbRasterVariables
  3
ISM
 90
        0
 91
        5
280
     0
281
     0
  0
CLASS
  1
IMAGEDEF
  2
AcDbRasterImageDef
  3
ISM
 90
        0
 91
        5
280
     0
281
     0
  0
CLASS
  1
IMAGEDEF_REACTOR
  2
AcDbRasterImageDefReactor
  3
ISM
 90
        1
 91
        5
280
     0
281
     0
  0
CLASS
  1
IDBUFFER
  2
AcDbIdBuffer
  3
ObjectDBX Classes
 90
        0
 91
        5
280
     0
281
     0
  0
CLASS
  1
SPATIAL_FILTER
  2
AcDbSpatialFilter
  3
ObjectDBX Classes
 90
        0
 91
        5
280
     0
281
     0
  0
CLASS
  1
XRECORD
  2
AcDbXrecord
  3
ObjectDBX Classes
 90
        0
 91
        1
280
     0
281
     0
  0
CLASS
  1
SORTENTSTABLE
  2
AcDbSortentsTable
  3
ObjectDBX Classes
 90
        0
 91
        5
280
     0
281
     0
  0
CLASS
  1
LAYER_INDEX
  2
AcDbLayerIndex
  3
ObjectDBX Classes
 90
        0
 91
        5
280
     0
281
     0
  0
CLASS
  1
SPATIAL_INDEX
  2
AcDbSpatialIndex
  3
AutoCAD 2000
 90
        0
 91
        5
280
     0
281
     0
  0
CLASS
  1
OBJECT_PTR
  2
CAseDLPNTableRecord
  3
ASE-LPNTableRecord
 90
        1
 91
        5
280
     0
281
     0
  0
CLASS
  1
LAYOUT
  2
AcDbLayout
  3
ObjectDBX Classes
 90
        0
 91
        1
280
     0
281
     0
  0
CLASS
  1
PLOTSETTINGS
  2
AcDbPlotSettings
  3
ObjectDBX Classes
 90
        0
 91
        5
280
     0
281
     0
  0
CLASS
  1
ACDBDICTIONARYWDFLT
  2
AcDbDictionaryWithDefault
  3
ObjectDBX Classes
 90
        0
 91
        5
280
     0
281
     0
  0
CLASS
  1
ACDBPLACEHOLDER
  2
AcDbPlaceHolder
  3
ObjectDBX Classes
 90
        0
 91
        1
280
     0
281
     0
  0
CLASS
  1
SCALE
  2
AcDbScale
  3
ObjectDBX Classes
 90
     1153
 91
        5
280
     0
281
     0
  0
CLASS
  1
MATERIAL
  2
AcDbMaterial
  3
ObjectDBX Classes
 90
     1153
 91
        5
280
     0
281
     0
  0
CLASS
  1
VISUALSTYLE
  2
AcDbVisualStyle
  3
ObjectDBX Classes
 90
     4095
 91
        5
280
     0
281
     0
  0
CLASS
  1
TABLESTYLE
  2
AcDbTableStyle
  3
ObjectDBX Classes
 90
     4095
 91
        5
280
     0
281
     0
  0
CLASS
  1
DIMASSOC
  2
AcDbDimAssoc
  3
"AcDbDimAssoc|Product Desc:     AcDim ARX App For Dimension|Company:          Autodesk, Inc.|WEB Address:      www.autodesk.com"
 90
        0
 91
        5
280
     0
281
     0
  0
CLASS
  1
CELLSTYLEMAP
  2
AcDbCellStyleMap
  3
ObjectDBX Classes
 90
     1152
 91
        5
280
     0
281
     0
  0
CLASS
  1
SUN
  2
AcDbSun
  3
SCENEOE
 90
     1153
 91
        5
280
     0
281
     0
  0
CLASS
  1
MLEADERSTYLE
  2
AcDbMLeaderStyle
  3
ACDB_MLEADERSTYLE_CLASS
 90
     4095
 91
        5
280
     0
281
     0
  0
CLASS
  1
FIELD
  2
AcDbField
  3
ObjectDBX Classes
 90
     1152
 91
        5
280
     0
281
     0
  0
CLASS
  1
FIELDLIST
  2
AcDbFieldList
  3
ObjectDBX Classes
 90
     1152
 91
        5
280
     0
281
     0
  0
ENDSEC
  0
SECTION
  2
TABLES
  0
TABLE
  2
VPORT
  5
7
330
0
100
AcDbSymbolTable
 70
     1
  0
VPORT
  5
15
330
7
100
AcDbSymbolTableRecord
100
AcDbViewportTableRecord
  2
*ACTIVE
 70
     0
 10
0.0
 20
0.0
 11
1.0
 21
1.0
 12
296.9999999999999
 22
210.0
 13
0.0
 23
0.0
 14
1.0
 24
1.0
 15
0.0
 25
0.0
 16
0.0
 26
0.0
 36
1.0
 17
0.0
 27
0.0
 37
0.0
 40
428.4
 41
2.358662613981763
 42
50.0
 43
0.0
 44
0.0
 50
0.0
 51
0.0
 71
    16
 72
  2000
 73
     1
 74
     1
 75
     0
 76
     0
 77
     0
 78
     0
281
     0
 65
     1
110
0.0
120
0.0
130
0.0
111
1.0
121
0.0
131
0.0
112
0.0
122
1.0
132
0.0
 79
     0
146
0.0
348
26C
 60
     3
 61
     5
292
     1
282
     1
141
0.0
142
0.0
 63
   256
361
10E8
  0
ENDTAB
  0
TABLE
  2
LTYPE
  5
4
330
0
100
AcDbSymbolTable
 70
     2
  0
LTYPE
  5
11
330
4
100
AcDbSymbolTableRecord
100
AcDbLinetypeTableRecord
  2
ByBlock
 70
     0
  3

 72
    65
 73
     0
 40
0.0
  0
LTYPE
  5
12
330
4
100
AcDbSymbolTableRecord
100
AcDbLinetypeTableRecord
  2
ByLayer
 70
     0
  3
Solid line
 72
    65
 73
     0
 40
0.0
  0
LTYPE
  5
13
330
4
100
AcDbSymbolTableRecord
100
AcDbLinetypeTableRecord
  2
Continuous
 70
     0
  3
Solid line
 72
    65
 73
     0
 40
0.0
  0
LTYPE
  5
12C7
330
4
100
AcDbSymbolTableRecord
100
AcDbLinetypeTableRecord
  2
HIDDEN
 70
     0
  3
Hidden _ _ _ _ _ _ _ _ _ _ _ _ _ _ _ _ _ _ _ _ 
 72
    65
 73
     2
 40
9.524999999999999
 49
6.35
 74
     0
 49
-3.175
 74
     0
  0
ENDTAB
  0
TABLE
  2
LAYER
  5
2
102
{ACAD_XDICTIONARY
360
2E1
102
}
330
0
100
AcDbSymbolTable
 70
     7
  0
LAYER
  5
14
330
2
100
AcDbSymbolTableRecord
100
AcDbLayerTableRecord
  2
0
 70
     0
 62
     7
  6
Continuous
370
    -3
390
1D
347
266
  0
LAYER
  5
4A
330
2
100
AcDbSymbolTableRecord
100
AcDbLayerTableRecord
  2
Defpoints
 70
     0
 62
     7
  6
Continuous
290
     0
370
    -3
390
1D
347
266
  0
LAYER
  5
12CE
330
2
100
AcDbSymbolTableRecord
100
AcDbLayerTableRecord
  2
寸法
 70
     0
 62
     3
  6
Continuous
370
    13
390
1D
347
266
1001
AcAecLayerStandard
1000

1000

  0
LAYER
  5
12CF
330
2
100
AcDbSymbolTableRecord
100
AcDbLayerTableRecord
  2
モデル
 70
     0
 62
     7
  6
Continuous
370
    20
390
1D
347
266
1001
AcAecLayerStandard
1000

1000

  0
LAYER
  5
142A
330
2
100
AcDbSymbolTableRecord
100
AcDbLayerTableRecord
  2
テンプレート
 70
     0
 62
     7
  6
Continuous
370
    20
390
1D
347
266
1001
AcAecLayerStandard
1000

1000

  0
LAYER
  5
1D5C
330
2
100
AcDbSymbolTableRecord
100
AcDbLayerTableRecord
  2
TFORMLOGO
 70
     0
 62
     7
  6
Continuous
370
    20
390
1D
347
266
  0
LAYER
  5
3848
330
2
100
AcDbSymbolTableRecord
100
AcDbLayerTableRecord
  2
PRINT BORDER
 70
     0
 62
     4
  6
Continuous
290
     0
370
    -3
390
1D
347
266
1001
AcAecLayerStandard
1000

1000

  0
ENDTAB
  0
TABLE
  2
STYLE
  5
3
330
0
100
AcDbSymbolTable
 70
     2
  0
STYLE
  5
17
330
3
100
AcDbSymbolTableRecord
100
AcDbTextStyleTableRecord
  2
Standard
 70
     0
 40
0.0
 41
1.0
 50
0.0
 71
     0
 42
2.5
  3
txt
  4
BIGFONT.SHX
  0
STYLE
  5
39
330
3
100
AcDbSymbolTableRecord
100
AcDbTextStyleTableRecord
  2
ＭＳ ゴシック
 70
     0
 40
0.0
 41
1.0
 50
0.0
 71
     0
 42
2.5
  3
msgothic.ttc
  4
ＭＳ ゴシック
1001
ACAD
1000
ＭＳ ゴシック
1071
        0
  0
ENDTAB
  0
TABLE
  2
VIEW
  5
5
330
0
100
AcDbSymbolTable
 70
     0
  0
ENDTAB
  0
TABLE
  2
UCS
  5
6
330
0
100
AcDbSymbolTable
 70
     0
  0
ENDTAB
  0
TABLE
  2
APPID
  5
8
330
0
100
AcDbSymbolTable
 70
     3
  0
APPID
  5
16
330
8
100
AcDbSymbolTableRecord
100
AcDbRegAppTableRecord
  2
ACAD
 70
     0
  0
APPID
  5
7AC
330
8
100
AcDbSymbolTableRecord
100
AcDbRegAppTableRecord
  2
AcAecLayerStandard
 70
     0
  0
APPID
  5
7284
330
8
100
AcDbSymbolTableRecord
100
AcDbRegAppTableRecord
  2
ACAD_MLEADERVER
 70
     0
  0
ENDTAB
  0
TABLE
  2
DIMSTYLE
  5
9
330
0
100
AcDbSymbolTable
 70
     2
100
AcDbDimStyleTable
  0
DIMSTYLE
105
18
330
9
100
AcDbSymbolTableRecord
100
AcDbDimStyleTableRecord
  2
Standard
 70
     0
178
     0
340
17
  0
DIMSTYLE
105
57
102
{ACAD_REACTORS
330
7DF6
330
7FD7
330
7FDB
330
7FDE
330
801E
330
8024
330
8025
330
8026
330
80A1
330
80B2
330
80C5
330
82D3
102
}
330
9
100
AcDbSymbolTableRecord
100
AcDbDimStyleTableRecord
  2
tfrom線あり
 70
     0
  3
<>
  4
[]
 41
2.0
 42
5.0
 43
0.9999999999999999
 44
0.0
 73
     0
 74
     0
 77
     1
 78
    11
140
5.0
141
0.0
143
1.0
147
5.0
171
     1
174
     1
178
     0
179
     2
271
     0
272
     1
276
     2
284
    11
285
    11
286
    11
289
     0
340
39
341
4E
342
4E
  0
ENDTAB
  0
TABLE
  2
BLOCK_RECORD
  5
1
330
0
100
AcDbSymbolTable
 70
    64
  0
BLOCK_RECORD
  5
A
102
{ACAD_XDICTIONARY
360
7060
102
}
330
1
100
AcDbSymbolTableRecord
100
AcDbBlockTableRecord
  2
*MODEL_SPACE
340
20
 70
     0
280
     1
281
     0
  0
BLOCK_RECORD
  5
B
330
1
100
AcDbSymbolTableRecord
100
AcDbBlockTableRecord
  2
*PAPER_SPACE
340
21
 70
     0
280
     1
281
     0
  0
BLOCK_RECORD
  5
4E
330
1
100
AcDbSymbolTableRecord
100
AcDbBlockTableRecord
  2
_DOT
340
0
102
{BLKREFS
331
7C38
331
7C39
331
7C4A
331
7C4B
331
7C59
331
7C5A
331
7CA6
331
7CA7
331
7CB5
331
7CB6
331
7CC2
331
7CC3
331
7CCF
331
7CD0
331
7CDE
331
7CDF
331
7CF6
331
7CF7
331
7EB8
331
7EB9
331
7ECA
331
7ECB
331
7ED9
331
7EDA
331
7F25
331
7F26
331
7F34
331
7F35
331
7F41
331
7F42
331
7F4E
331
7F4F
331
7F5D
331
7F5E
331
7F6C
331
7F6D
331
7F78
331
7F79
331
7F84
331
7F85
331
7F90
331
7F91
331
7F9C
331
7F9D
331
7FA8
331
7FA9
331
7FB4
331
7FB5
331
7FC0
331
7FC1
331
802F
331
8030
331
803B
331
803C
331
8047
331
8048
331
8053
331
8054
331
805F
331
8060
331
806B
331
806C
331
8077
331
8078
331
8083
331
8084
331
80A8
331
80A9
331
80BB
331
80BC
331
80CE
331
80CF
331
8127
331
8128
331
8139
331
813A
331
8148
331
8149
331
8194
331
8195
331
81A1
331
81A2
331
81AE
331
81AF
331
81BD
331
81BE
331
81CA
331
81CB
331
81D8
331
81D9
331
81E6
331
81E7
331
825A
331
825B
331
8266
331
8267
331
8272
331
8273
331
827E
331
827F
331
828A
331
828B
331
8296
331
8297
331
82A2
331
82A3
331
82AE
331
82AF
331
82BA
331
82BB
331
82C6
331
82C7
331
82DC
331
82DD
102
}
 70
     0
280
     1
281
     0
  0
BLOCK_RECORD
  5
12C3
330
1
100
AcDbSymbolTableRecord
100
AcDbBlockTableRecord
  2
*Paper_Space1
340
12C4
 70
     0
280
     1
281
     0
  0
BLOCK_RECORD
  5
1D88
330
1
100
AcDbSymbolTableRecord
100
AcDbBlockTableRecord
  2
名称未設定-1
340
0
102
{BLKREFS
331
7D73
102
}
 70
     1
280
     1
281
     0
  0
BLOCK_RECORD
  5
1D8B
330
1
100
AcDbSymbolTableRecord
100
AcDbBlockTableRecord
  2
block 2
340
0
102
{BLKREFS
331
1D8A
102
}
 70
     0
280
     1
281
     0
  0
BLOCK_RECORD
  5
1D8E
330
1
100
AcDbSymbolTableRecord
100
AcDbBlockTableRecord
  2
block 3
340
0
102
{BLKREFS
331
1D8D
102
}
 70
     0
280
     1
281
     0
  0
BLOCK_RECORD
  5
1D91
330
1
100
AcDbSymbolTableRecord
100
AcDbBlockTableRecord
  2
block 4
340
0
102
{BLKREFS
331
1D90
102
}
 70
     0
280
     1
281
     0
  0
BLOCK_RECORD
  5
1DA0
330
1
100
AcDbSymbolTableRecord
100
AcDbBlockTableRecord
  2
block 5
340
0
102
{BLKREFS
331
1D9F
102
}
 70
     0
280
     1
281
     0
  0
BLOCK_RECORD
  5
7C33
330
1
100
AcDbSymbolTableRecord
100
AcDbBlockTableRecord
  2
*D7
340
0
 70
     0
280
     1
281
     0
  0
BLOCK_RECORD
  5
7C45
330
1
100
AcDbSymbolTableRecord
100
AcDbBlockTableRecord
  2
*D8
340
0
 70
     0
280
     1
281
     0
  0
BLOCK_RECORD
  5
7C54
330
1
100
AcDbSymbolTableRecord
100
AcDbBlockTableRecord
  2
*D9
340
0
 70
     0
280
     1
281
     0
  0
BLOCK_RECORD
  5
7CA1
330
1
100
AcDbSymbolTableRecord
100
AcDbBlockTableRecord
  2
*D10
340
0
 70
     0
280
     1
281
     0
  0
BLOCK_RECORD
  5
7CB0
330
1
100
AcDbSymbolTableRecord
100
AcDbBlockTableRecord
  2
*D11
340
0
 70
     0
280
     1
281
     0
  0
BLOCK_RECORD
  5
7CBD
330
1
100
AcDbSymbolTableRecord
100
AcDbBlockTableRecord
  2
*D12
340
0
 70
     0
280
     1
281
     0
  0
BLOCK_RECORD
  5
7CCA
330
1
100
AcDbSymbolTableRecord
100
AcDbBlockTableRecord
  2
*D13
340
0
 70
     0
280
     1
281
     0
  0
BLOCK_RECORD
  5
7CD9
330
1
100
AcDbSymbolTableRecord
100
AcDbBlockTableRecord
  2
*D14
340
0
 70
     0
280
     1
281
     0
  0
BLOCK_RECORD
  5
7CF1
330
1
100
AcDbSymbolTableRecord
100
AcDbBlockTableRecord
  2
*D15
340
0
 70
     0
280
     1
281
     0
  0
BLOCK_RECORD
  5
7EB3
330
1
100
AcDbSymbolTableRecord
100
AcDbBlockTableRecord
  2
*D16
340
0
 70
     0
280
     1
281
     0
  0
BLOCK_RECORD
  5
7EC5
330
1
100
AcDbSymbolTableRecord
100
AcDbBlockTableRecord
  2
*D17
340
0
 70
     0
280
     1
281
     0
  0
BLOCK_RECORD
  5
7ED4
330
1
100
AcDbSymbolTableRecord
100
AcDbBlockTableRecord
  2
*D18
340
0
 70
     0
280
     1
281
     0
  0
BLOCK_RECORD
  5
7F20
330
1
100
AcDbSymbolTableRecord
100
AcDbBlockTableRecord
  2
*D19
340
0
 70
     0
280
     1
281
     0
  0
BLOCK_RECORD
  5
7F2F
330
1
100
AcDbSymbolTableRecord
100
AcDbBlockTableRecord
  2
*D20
340
0
 70
     0
280
     1
281
     0
  0
BLOCK_RECORD
  5
7F3C
330
1
100
AcDbSymbolTableRecord
100
AcDbBlockTableRecord
  2
*D21
340
0
 70
     0
280
     1
281
     0
  0
BLOCK_RECORD
  5
7F49
330
1
100
AcDbSymbolTableRecord
100
AcDbBlockTableRecord
  2
*D22
340
0
 70
     0
280
     1
281
     0
  0
BLOCK_RECORD
  5
7F58
330
1
100
AcDbSymbolTableRecord
100
AcDbBlockTableRecord
  2
*D23
340
0
 70
     0
280
     1
281
     0
  0
BLOCK_RECORD
  5
7F66
330
1
100
AcDbSymbolTableRecord
100
AcDbBlockTableRecord
  2
*D24
340
0
 70
     0
280
     1
281
     0
  0
BLOCK_RECORD
  5
7F72
330
1
100
AcDbSymbolTableRecord
100
AcDbBlockTableRecord
  2
*D25
340
0
 70
     0
280
     1
281
     0
  0
BLOCK_RECORD
  5
7F7E
330
1
100
AcDbSymbolTableRecord
100
AcDbBlockTableRecord
  2
*D26
340
0
 70
     0
280
     1
281
     0
  0
BLOCK_RECORD
  5
7F8A
330
1
100
AcDbSymbolTableRecord
100
AcDbBlockTableRecord
  2
*D27
340
0
 70
     0
280
     1
281
     0
  0
BLOCK_RECORD
  5
7F96
330
1
100
AcDbSymbolTableRecord
100
AcDbBlockTableRecord
  2
*D28
340
0
 70
     0
280
     1
281
     0
  0
BLOCK_RECORD
  5
7FA2
330
1
100
AcDbSymbolTableRecord
100
AcDbBlockTableRecord
  2
*D29
340
0
 70
     0
280
     1
281
     0
  0
BLOCK_RECORD
  5
7FAE
330
1
100
AcDbSymbolTableRecord
100
AcDbBlockTableRecord
  2
*D30
340
0
 70
     0
280
     1
281
     0
  0
BLOCK_RECORD
  5
7FBA
330
1
100
AcDbSymbolTableRecord
100
AcDbBlockTableRecord
  2
*D31
340
0
 70
     0
280
     1
281
     0
  0
BLOCK_RECORD
  5
8029
330
1
100
AcDbSymbolTableRecord
100
AcDbBlockTableRecord
  2
*D32
340
0
 70
     0
280
     1
281
     0
  0
BLOCK_RECORD
  5
8035
330
1
100
AcDbSymbolTableRecord
100
AcDbBlockTableRecord
  2
*D33
340
0
 70
     0
280
     1
281
     0
  0
BLOCK_RECORD
  5
8041
330
1
100
AcDbSymbolTableRecord
100
AcDbBlockTableRecord
  2
*D34
340
0
 70
     0
280
     1
281
     0
  0
BLOCK_RECORD
  5
804D
330
1
100
AcDbSymbolTableRecord
100
AcDbBlockTableRecord
  2
*D35
340
0
 70
     0
280
     1
281
     0
  0
BLOCK_RECORD
  5
8059
330
1
100
AcDbSymbolTableRecord
100
AcDbBlockTableRecord
  2
*D36
340
0
 70
     0
280
     1
281
     0
  0
BLOCK_RECORD
  5
8065
330
1
100
AcDbSymbolTableRecord
100
AcDbBlockTableRecord
  2
*D37
340
0
 70
     0
280
     1
281
     0
  0
BLOCK_RECORD
  5
8071
330
1
100
AcDbSymbolTableRecord
100
AcDbBlockTableRecord
  2
*D38
340
0
 70
     0
280
     1
281
     0
  0
BLOCK_RECORD
  5
807D
330
1
100
AcDbSymbolTableRecord
100
AcDbBlockTableRecord
  2
*D39
340
0
 70
     0
280
     1
281
     0
  0
BLOCK_RECORD
  5
80A2
330
1
100
AcDbSymbolTableRecord
100
AcDbBlockTableRecord
  2
*D40
340
0
 70
     0
280
     1
281
     0
  0
BLOCK_RECORD
  5
80B5
330
1
100
AcDbSymbolTableRecord
100
AcDbBlockTableRecord
  2
*D41
340
0
 70
     0
280
     1
281
     0
  0
BLOCK_RECORD
  5
80C8
330
1
100
AcDbSymbolTableRecord
100
AcDbBlockTableRecord
  2
*D42
340
0
 70
     0
280
     1
281
     0
  0
BLOCK_RECORD
  5
8122
330
1
100
AcDbSymbolTableRecord
100
AcDbBlockTableRecord
  2
*D43
340
0
 70
     0
280
     1
281
     0
  0
BLOCK_RECORD
  5
8134
330
1
100
AcDbSymbolTableRecord
100
AcDbBlockTableRecord
  2
*D44
340
0
 70
     0
280
     1
281
     0
  0
BLOCK_RECORD
  5
8143
330
1
100
AcDbSymbolTableRecord
100
AcDbBlockTableRecord
  2
*D45
340
0
 70
     0
280
     1
281
     0
  0
BLOCK_RECORD
  5
818F
330
1
100
AcDbSymbolTableRecord
100
AcDbBlockTableRecord
  2
*D46
340
0
 70
     0
280
     1
281
     0
  0
BLOCK_RECORD
  5
819C
330
1
100
AcDbSymbolTableRecord
100
AcDbBlockTableRecord
  2
*D47
340
0
 70
     0
280
     1
281
     0
  0
BLOCK_RECORD
  5
81A9
330
1
100
AcDbSymbolTableRecord
100
AcDbBlockTableRecord
  2
*D48
340
0
 70
     0
280
     1
281
     0
  0
BLOCK_RECORD
  5
81B8
330
1
100
AcDbSymbolTableRecord
100
AcDbBlockTableRecord
  2
*D49
340
0
 70
     0
280
     1
281
     0
  0
BLOCK_RECORD
  5
81C5
330
1
100
AcDbSymbolTableRecord
100
AcDbBlockTableRecord
  2
*D50
340
0
 70
     0
280
     1
281
     0
  0
BLOCK_RECORD
  5
81D3
330
1
100
AcDbSymbolTableRecord
100
AcDbBlockTableRecord
  2
*D51
340
0
 70
     0
280
     1
281
     0
  0
BLOCK_RECORD
  5
81E1
330
1
100
AcDbSymbolTableRecord
100
AcDbBlockTableRecord
  2
*D52
340
0
 70
     0
280
     1
281
     0
  0
BLOCK_RECORD
  5
8254
330
1
100
AcDbSymbolTableRecord
100
AcDbBlockTableRecord
  2
*D53
340
0
 70
     0
280
     1
281
     0
  0
BLOCK_RECORD
  5
8260
330
1
100
AcDbSymbolTableRecord
100
AcDbBlockTableRecord
  2
*D54
340
0
 70
     0
280
     1
281
     0
  0
BLOCK_RECORD
  5
826C
330
1
100
AcDbSymbolTableRecord
100
AcDbBlockTableRecord
  2
*D55
340
0
 70
     0
280
     1
281
     0
  0
BLOCK_RECORD
  5
8278
330
1
100
AcDbSymbolTableRecord
100
AcDbBlockTableRecord
  2
*D56
340
0
 70
     0
280
     1
281
     0
  0
BLOCK_RECORD
  5
8284
330
1
100
AcDbSymbolTableRecord
100
AcDbBlockTableRecord
  2
*D57
340
0
 70
     0
280
     1
281
     0
  0
BLOCK_RECORD
  5
8290
330
1
100
AcDbSymbolTableRecord
100
AcDbBlockTableRecord
  2
*D58
340
0
 70
     0
280
     1
281
     0
  0
BLOCK_RECORD
  5
829C
330
1
100
AcDbSymbolTableRecord
100
AcDbBlockTableRecord
  2
*D59
340
0
 70
     0
280
     1
281
     0
  0
BLOCK_RECORD
  5
82A8
330
1
100
AcDbSymbolTableRecord
100
AcDbBlockTableRecord
  2
*D60
340
0
 70
     0
280
     1
281
     0
  0
BLOCK_RECORD
  5
82B4
330
1
100
AcDbSymbolTableRecord
100
AcDbBlockTableRecord
  2
*D61
340
0
 70
     0
280
     1
281
     0
  0
BLOCK_RECORD
  5
82C0
330
1
100
AcDbSymbolTableRecord
100
AcDbBlockTableRecord
  2
*D62
340
0
 70
     0
280
     1
281
     0
  0
BLOCK_RECORD
  5
82D6
330
1
100
AcDbSymbolTableRecord
100
AcDbBlockTableRecord
  2
*D63
340
0
 70
     0
280
     1
281
     0
  0
ENDTAB
  0
ENDSEC
  0
SECTION
  2
BLOCKS
  0
BLOCK
  5
D
330
A
100
AcDbEntity
  8
0
390
1D
100
AcDbBlockBegin
  2
*MODEL_SPACE
 70
     0
 10
0.0
 20
0.0
 30
0.0
  3
*MODEL_SPACE
  1
*MODEL_SPACE
  0
ENDBLK
  5
E
330
A
100
AcDbEntity
  8
0
390
1D
100
AcDbBlockEnd
  0
BLOCK
  5
F
330
B
100
AcDbEntity
 67
     1
  8
0
390
1D
100
AcDbBlockBegin
  2
*PAPER_SPACE
 70
     0
 10
0.0
 20
0.0
 30
0.0
  3
*PAPER_SPACE
  1
*PAPER_SPACE
  0
ENDBLK
  5
10
330
B
100
AcDbEntity
 67
     1
  8
0
390
1D
100
AcDbBlockEnd
  0
BLOCK
  5
1066
330
4E
100
AcDbEntity
  8
0
390
1D
100
AcDbBlockBegin
  2
_DOT
 70
     0
 10
0.0
 20
0.0
 30
0.0
  3
_DOT
  1
_DOT
  0
POLYLINE
  5
1068
330
4E
100
AcDbEntity
  8
0
  6
ByBlock
 62
     0
370
    -2
390
1D
100
AcDb2dPolyline
 66
     1
 10
0.0
 20
0.0
 30
0.0
 70
     1
 40
0.5
 41
0.5
  0
VERTEX
  5
1069
330
1068
100
AcDbEntity
  8
0
  6
ByBlock
 62
     0
370
    -2
390
1D
100
AcDbVertex
100
AcDb2dVertex
 10
-0.25
 20
0.0
 30
0.0
 42
1.0
  0
VERTEX
  5
106A
330
1068
100
AcDbEntity
  8
0
  6
ByBlock
 62
     0
370
    -2
390
1D
100
AcDbVertex
100
AcDb2dVertex
 10
0.25
 20
0.0
 30
0.0
 42
1.0
  0
SEQEND
  5
106B
330
1068
100
AcDbEntity
  8
0
390
1D
  0
LINE
  5
106C
330
4E
100
AcDbEntity
  8
0
  6
ByBlock
 62
     0
370
    -2
390
1D
100
AcDbLine
 10
-0.5
 20
0.0
 30
0.0
 11
-1.0
 21
0.0
 31
0.0
  0
ENDBLK
  5
106D
330
4E
100
AcDbEntity
  8
0
390
1D
100
AcDbBlockEnd
  0
BLOCK
  5
12C5
330
12C3
100
AcDbEntity
  8
0
100
AcDbBlockBegin
  2
*Paper_Space1
 70
     0
 10
0.0
 20
0.0
 30
0.0
  3
*Paper_Space1
  1
*Paper_Space83
  0
ENDBLK
  5
12C6
330
12C3
100
AcDbEntity
  8
0
100
AcDbBlockEnd
  0
BLOCK
  5
1D89
330
1D88
100
AcDbEntity
  8
0
100
AcDbBlockBegin
  2
名称未設定-1
 70
     0
 10
0.0
 20
0.0
 30
0.0
  3
名称未設定-1
  1
名称未設定-1
  0
INSERT
  5
1D8A
330
1D88
100
AcDbEntity
  8
TFORMLOGO
100
AcDbBlockReference
  2
block 2
 10
0.0
 20
0.0
 30
0.0
  0
ENDBLK
  5
1DAF
330
1D88
100
AcDbEntity
  8
0
100
AcDbBlockEnd
  0
BLOCK
  5
1D8C
330
1D8B
100
AcDbEntity
  8
0
100
AcDbBlockBegin
  2
block 2
 70
     0
 10
0.0
 20
0.0
 30
0.0
  3
block 2
  1
block 2
  0
INSERT
  5
1D8D
330
1D8B
100
AcDbEntity
  8
TFORMLOGO
100
AcDbBlockReference
  2
block 3
 10
0.0
 20
0.0
 30
0.0
  0
ENDBLK
  5
1DAE
330
1D8B
100
AcDbEntity
  8
0
100
AcDbBlockEnd
  0
BLOCK
  5
1D8F
330
1D8E
100
AcDbEntity
  8
0
100
AcDbBlockBegin
  2
block 3
 70
     0
 10
0.0
 20
0.0
 30
0.0
  3
block 3
  1
block 3
  0
INSERT
  5
1D90
330
1D8E
100
AcDbEntity
  8
TFORMLOGO
100
AcDbBlockReference
  2
block 4
 10
0.0
 20
0.0
 30
0.0
  0
ENDBLK
  5
1DAD
330
1D8E
100
AcDbEntity
  8
0
100
AcDbBlockEnd
  0
BLOCK
  5
1D92
330
1D91
100
AcDbEntity
  8
0
100
AcDbBlockBegin
  2
block 4
 70
     0
 10
0.0
 20
0.0
 30
0.0
  3
block 4
  1
block 4
  0
POLYLINE
  5
1D93
330
1D91
100
AcDbEntity
  8
TFORMLOGO
370
     0
100
AcDb2dPolyline
 66
     1
 10
0.0
 20
0.0
 30
0.0
  0
VERTEX
  5
1D94
330
1D93
100
AcDbEntity
  8
TFORMLOGO
370
     0
100
AcDbVertex
100
AcDb2dVertex
 10
83.79545727667795
 20
167.6444858234922
 30
0.0
  0
VERTEX
  5
1D95
330
1D93
100
AcDbEntity
  8
TFORMLOGO
370
     0
100
AcDbVertex
100
AcDb2dVertex
 10
83.79545727667795
 20
159.7968976406313
 30
0.0
  0
VERTEX
  5
1D96
330
1D93
100
AcDbEntity
  8
TFORMLOGO
370
     0
100
AcDbVertex
100
AcDb2dVertex
 10
71.3631329975216
 20
159.7968976406313
 30
0.0
  0
VERTEX
  5
1D97
330
1D93
100
AcDbEntity
  8
TFORMLOGO
370
     0
100
AcDbVertex
100
AcDb2dVertex
 10
71.3631329975216
 20
127.8027915271048
 30
0.0
  0
VERTEX
  5
1D98
330
1D93
100
AcDbEntity
  8
TFORMLOGO
370
     0
100
AcDbVertex
100
AcDb2dVertex
 10
60.43011526263018
 20
127.8027915271048
 30
0.0
  0
VERTEX
  5
1D99
330
1D93
100
AcDbEntity
  8
TFORMLOGO
370
     0
100
AcDbVertex
100
AcDb2dVertex
 10
60.43011526263018
 20
159.7968976406313
 30
0.0
  0
VERTEX
  5
1D9A
330
1D93
100
AcDbEntity
  8
TFORMLOGO
370
     0
100
AcDbVertex
100
AcDb2dVertex
 10
48.21793273020759
 20
159.7968976406313
 30
0.0
  0
VERTEX
  5
1D9B
330
1D93
100
AcDbEntity
  8
TFORMLOGO
370
     0
100
AcDbVertex
100
AcDb2dVertex
 10
48.21793273020759
 20
167.6444858234922
 30
0.0
  0
VERTEX
  5
1D9C
330
1D93
100
AcDbEntity
  8
TFORMLOGO
370
     0
100
AcDbVertex
100
AcDb2dVertex
 10
83.79545727667795
 20
167.6444858234922
 30
0.0
  0
SEQEND
  5
1D9D
330
1D93
100
AcDbEntity
  8
TFORMLOGO
370
     0
  0
HATCH
  5
1D9E
330
1D91
100
AcDbEntity
  8
TFORMLOGO
 62
   250
420
  2234388
100
AcDbHatch
 10
0.0
 20
0.0
 30
0.0
210
0.0
220
0.0
230
1.0
  2
SOLID
 70
     1
 71
     0
 91
        1
 92
        1
 93
        8
 72
     1
 10
83.79545727667795
 20
167.6444858234922
 11
83.79545727667795
 21
159.7968976406313
 72
     1
 10
83.79545727667795
 20
159.7968976406313
 11
71.3631329975216
 21
159.7968976406313
 72
     1
 10
71.3631329975216
 20
159.7968976406313
 11
71.3631329975216
 21
127.8027915271048
 72
     1
 10
71.3631329975216
 20
127.8027915271048
 11
60.43011526263018
 21
127.8027915271048
 72
     1
 10
60.43011526263018
 20
127.8027915271048
 11
60.43011526263018
 21
159.7968976406313
 72
     1
 10
60.43011526263018
 20
159.7968976406313
 11
48.21793273020759
 21
159.7968976406313
 72
     1
 10
48.21793273020759
 20
159.7968976406313
 11
48.21793273020759
 21
167.6444858234922
 72
     1
 10
48.21793273020759
 20
167.6444858234922
 11
83.79545727667795
 21
167.6444858234922
 97
        0
 75
     2
 76
     1
 98
        0
  0
INSERT
  5
1D9F
330
1D91
100
AcDbEntity
  8
TFORMLOGO
100
AcDbBlockReference
  2
block 5
 10
0.0
 20
0.0
 30
0.0
  0
ENDBLK
  5
1DAC
330
1D91
100
AcDbEntity
  8
0
100
AcDbBlockEnd
  0
BLOCK
  5
1DA1
330
1DA0
100
AcDbEntity
  8
0
100
AcDbBlockBegin
  2
block 5
 70
     0
 10
0.0
 20
0.0
 30
0.0
  3
block 5
  1
block 5
  0
SPLINE
  5
1DA2
330
1DA0
100
AcDbEntity
  8
TFORMLOGO
370
     0
100
AcDbSpline
210
0.0
220
0.0
230
1.0
 70
    11
 71
     3
 72
    56
 73
    52
 74
     0
 42
0.000000001
 43
0.0000000001
 40
0.0
 40
0.0
 40
0.0
 40
0.0
 40
1.0
 40
1.0
 40
1.0
 40
2.0
 40
2.0
 40
2.0
 40
3.0
 40
3.0
 40
3.0
 40
4.0
 40
4.0
 40
4.0
 40
5.0
 40
5.0
 40
5.0
 40
6.0
 40
6.0
 40
6.0
 40
7.0
 40
7.0
 40
7.0
 40
8.0
 40
8.0
 40
8.0
 40
9.0
 40
9.0
 40
9.0
 40
10.0
 40
10.0
 40
10.0
 40
11.0
 40
11.0
 40
11.0
 40
12.0
 40
12.0
 40
12.0
 40
13.0
 40
13.0
 40
13.0
 40
14.0
 40
14.0
 40
14.0
 40
15.0
 40
15.0
 40
15.0
 40
16.0
 40
16.0
 40
16.0
 40
17.0
 40
17.0
 40
17.0
 40
17.0
 10
100.4504378777679
 20
166.69157178364
 30
0.0
 10
101.9848844191641
 20
167.1313385124438
 30
0.0
 10
103.9637485713373
 20
166.7649523658846
 30
0.0
 10
103.9637485713373
 20
166.7649523658846
 30
0.0
 10
103.9637485713373
 20
166.7649523658846
 30
0.0
 10
103.0132460999156
 20
163.911205638077
 30
0.0
 10
103.0132460999156
 20
163.911205638077
 30
0.0
 10
103.0132460999156
 20
163.911205638077
 30
0.0
 10
101.0674548862189
 20
164.3601018759394
 30
0.0
 10
99.57090442016032
 20
163.1805004036133
 30
0.0
 10
98.40508333886608
 20
162.258247733807
 30
0.0
 10
97.65301849830304
 20
159.804132345923
 30
0.0
 10
97.3598406791005
 20
158.8699940888517
 30
0.0
 10
97.3598406791005
 20
158.8699940888517
 30
0.0
 10
96.07137411762282
 20
154.9119212747295
 30
0.0
 10
96.07137411762282
 20
154.9119212747295
 30
0.0
 10
96.07137411762282
 20
154.9119212747295
 30
0.0
 10
100.3012651448482
 20
154.9119212747295
 30
0.0
 10
100.3012651448482
 20
154.9119212747295
 30
0.0
 10
100.3012651448482
 20
154.9119212747295
 30
0.0
 10
99.64152892419852
 20
152.4199098115079
 30
0.0
 10
99.64152892419852
 20
152.4199098115079
 30
0.0
 10
99.64152892419852
 20
152.4199098115079
 30
0.0
 10
95.38097652692731
 20
152.4199098115079
 30
0.0
 10
95.38097652692731
 20
152.4199098115079
 30
0.0
 10
95.38097652692731
 20
152.4199098115079
 30
0.0
 10
87.75353009080013
 20
127.8027915271048
 30
0.0
 10
87.75353009080013
 20
127.8027915271048
 30
0.0
 10
87.75353009080013
 20
127.8027915271048
 30
0.0
 10
85.36538832498108
 20
127.8027915271048
 30
0.0
 10
85.36538832498108
 20
127.8027915271048
 30
0.0
 10
85.36538832498108
 20
127.8027915271048
 30
0.0
 10
93.00006946639998
 20
152.4199098115079
 30
0.0
 10
93.00006946639998
 20
152.4199098115079
 30
0.0
 10
93.00006946639998
 20
152.4199098115079
 30
0.0
 10
89.85297266450198
 20
152.4199098115079
 30
0.0
 10
89.85297266450198
 20
152.4199098115079
 30
0.0
 10
89.85297266450198
 20
152.4199098115079
 30
0.0
 10
90.51270888515164
 20
154.9119212747295
 30
0.0
 10
90.51270888515164
 20
154.9119212747295
 30
0.0
 10
90.51270888515164
 20
154.9119212747295
 30
0.0
 10
93.6904670570955
 20
154.9119212747295
 30
0.0
 10
93.6904670570955
 20
154.9119212747295
 30
0.0
 10
93.6904670570955
 20
154.9119212747295
 30
0.0
 10
94.81598049462158
 20
158.3616699146644
 30
0.0
 10
94.81598049462158
 20
158.3616699146644
 30
0.0
 10
95.7237637538445
 20
161.2605474231013
 30
0.0
 10
96.4968436907311
 20
162.8139420021662
 30
0.0
 10
97.15657991138076
 20
163.9844139654337
 30
0.0
 10
97.81183750494507
 20
165.1523021053827
 30
0.0
 10
99.1047826935081
 20
166.3084769129547
 30
0.0
 10
100.4504378777679
 20
166.69157178364
 30
0.0
  0
HATCH
  5
1DA3
330
1DA0
100
AcDbEntity
  8
TFORMLOGO
 62
   250
420
  2234388
100
AcDbHatch
 10
0.0
 20
0.0
 30
0.0
210
0.0
220
0.0
230
1.0
  2
SOLID
 70
     1
 71
     0
 91
        1
 92
        1
 93
        1
 72
     4
 94
        3
 73
     0
 74
     1
 95
       56
 96
       52
 40
0.0
 40
0.0
 40
0.0
 40
0.0
 40
1.0
 40
1.0
 40
1.0
 40
2.0
 40
2.0
 40
2.0
 40
3.0
 40
3.0
 40
3.0
 40
4.0
 40
4.0
 40
4.0
 40
5.0
 40
5.0
 40
5.0
 40
6.0
 40
6.0
 40
6.0
 40
7.0
 40
7.0
 40
7.0
 40
8.0
 40
8.0
 40
8.0
 40
9.0
 40
9.0
 40
9.0
 40
10.0
 40
10.0
 40
10.0
 40
11.0
 40
11.0
 40
11.0
 40
12.0
 40
12.0
 40
12.0
 40
13.0
 40
13.0
 40
13.0
 40
14.0
 40
14.0
 40
14.0
 40
15.0
 40
15.0
 40
15.0
 40
16.0
 40
16.0
 40
16.0
 40
17.0
 40
17.0
 40
17.0
 40
17.0
 10
100.4504378777679
 20
166.69157178364
 10
101.9848844191641
 20
167.1313385124438
 10
103.9637485713373
 20
166.7649523658846
 10
103.9637485713373
 20
166.7649523658846
 10
103.9637485713373
 20
166.7649523658846
 10
103.0132460999156
 20
163.911205638077
 10
103.0132460999156
 20
163.911205638077
 10
103.0132460999156
 20
163.911205638077
 10
101.0674548862189
 20
164.3601018759394
 10
99.57090442016032
 20
163.1805004036133
 10
98.40508333886608
 20
162.258247733807
 10
97.65301849830304
 20
159.804132345923
 10
97.3598406791005
 20
158.8699940888517
 10
97.3598406791005
 20
158.8699940888517
 10
96.07137411762282
 20
154.9119212747295
 10
96.07137411762282
 20
154.9119212747295
 10
96.07137411762282
 20
154.9119212747295
 10
100.3012651448482
 20
154.9119212747295
 10
100.3012651448482
 20
154.9119212747295
 10
100.3012651448482
 20
154.9119212747295
 10
99.64152892419852
 20
152.4199098115079
 10
99.64152892419852
 20
152.4199098115079
 10
99.64152892419852
 20
152.4199098115079
 10
95.38097652692731
 20
152.4199098115079
 10
95.38097652692731
 20
152.4199098115079
 10
95.38097652692731
 20
152.4199098115079
 10
87.75353009080013
 20
127.8027915271048
 10
87.75353009080013
 20
127.8027915271048
 10
87.75353009080013
 20
127.8027915271048
 10
85.36538832498108
 20
127.8027915271048
 10
85.36538832498108
 20
127.8027915271048
 10
85.36538832498108
 20
127.8027915271048
 10
93.00006946639998
 20
152.4199098115079
 10
93.00006946639998
 20
152.4199098115079
 10
93.00006946639998
 20
152.4199098115079
 10
89.85297266450198
 20
152.4199098115079
 10
89.85297266450198
 20
152.4199098115079
 10
89.85297266450198
 20
152.4199098115079
 10
90.51270888515164
 20
154.9119212747295
 10
90.51270888515164
 20
154.9119212747295
 10
90.51270888515164
 20
154.9119212747295
 10
93.6904670570955
 20
154.9119212747295
 10
93.6904670570955
 20
154.9119212747295
 10
93.6904670570955
 20
154.9119212747295
 10
94.81598049462158
 20
158.3616699146644
 10
94.81598049462158
 20
158.3616699146644
 10
95.7237637538445
 20
161.2605474231013
 10
96.4968436907311
 20
162.8139420021662
 10
97.15657991138076
 20
163.9844139654337
 10
97.81183750494507
 20
165.1523021053827
 10
99.1047826935081
 20
166.3084769129547
 10
100.4504378777679
 20
166.69157178364
 97
        0
 75
     2
 76
     1
 98
        0
  0
SPLINE
  5
1DA4
330
1DA0
100
AcDbEntity
  8
TFORMLOGO
370
     0
100
AcDbSpline
210
0.0
220
0.0
230
1.0
 70
    11
 71
     3
 72
    38
 73
    34
 74
     0
 42
0.000000001
 43
0.0000000001
 40
0.0
 40
0.0
 40
0.0
 40
0.0
 40
1.0
 40
1.0
 40
1.0
 40
2.0
 40
2.0
 40
2.0
 40
3.0
 40
3.0
 40
3.0
 40
4.0
 40
4.0
 40
4.0
 40
5.0
 40
5.0
 40
5.0
 40
6.0
 40
6.0
 40
6.0
 40
7.0
 40
7.0
 40
7.0
 40
8.0
 40
8.0
 40
8.0
 40
9.0
 40
9.0
 40
9.0
 40
10.0
 40
10.0
 40
10.0
 40
11.0
 40
11.0
 40
11.0
 40
11.0
 10
126.377554584636
 20
154.8151140277308
 30
0.0
 10
126.377554584636
 20
154.8151140277308
 30
0.0
 10
128.8311532078563
 20
154.8151140277308
 30
0.0
 10
128.8311532078563
 20
154.8151140277308
 30
0.0
 10
128.8311532078563
 20
154.8151140277308
 30
0.0
 10
127.7345785914971
 20
151.3062819612468
 30
0.0
 10
127.7345785914971
 20
151.3062819612468
 30
0.0
 10
128.571392836906
 20
152.2922689395754
 30
0.0
 10
129.8860421413442
 20
153.604506675583
 30
0.0
 10
131.0163787157314
 20
154.2664822097754
 30
0.0
 10
132.7044766171327
 20
155.2500576196734
 30
0.0
 10
133.6642808525008
 20
155.3847609420097
 30
0.0
 10
134.7284715499351
 20
155.3565111403944
 30
0.0
 10
134.7284715499351
 20
155.3565111403944
 30
0.0
 10
133.6877075172549
 20
152.0345756272799
 30
0.0
 10
133.6877075172549
 20
152.0345756272799
 30
0.0
 10
133.011434827367
 20
152.3184516825359
 30
0.0
 10
130.930940291334
 20
151.7768823149844
 30
0.0
 10
129.739280976855
 20
150.9162968950455
 30
0.0
 10
128.66613302525
 20
150.1454562717016
 30
0.0
 10
127.9192358313239
 20
149.4857200510519
 30
0.0
 10
127.0393578639405
 20
147.8282835196966
 30
0.0
 10
126.164647543194
 20
146.1699857139017
 30
0.0
 10
125.4742499524985
 20
143.5262176944419
 30
0.0
 10
124.2822461282437
 20
139.6959580071401
 30
0.0
 10
124.2822461282437
 20
139.6959580071401
 30
0.0
 10
120.5753209406769
 20
127.8027915271048
 30
0.0
 10
120.5753209406769
 20
127.8027915271048
 30
0.0
 10
120.5753209406769
 20
127.8027915271048
 30
0.0
 10
118.1964809388044
 20
127.8027915271048
 30
0.0
 10
118.1964809388044
 20
127.8027915271048
 30
0.0
 10
118.1964809388044
 20
127.8027915271048
 30
0.0
 10
126.377554584636
 20
154.8151140277308
 30
0.0
 10
126.377554584636
 20
154.8151140277308
 30
0.0
  0
HATCH
  5
1DA5
330
1DA0
100
AcDbEntity
  8
TFORMLOGO
 62
   250
420
  2234388
100
AcDbHatch
 10
0.0
 20
0.0
 30
0.0
210
0.0
220
0.0
230
1.0
  2
SOLID
 70
     1
 71
     0
 91
        1
 92
        1
 93
        1
 72
     4
 94
        3
 73
     0
 74
     1
 95
       38
 96
       34
 40
0.0
 40
0.0
 40
0.0
 40
0.0
 40
1.0
 40
1.0
 40
1.0
 40
2.0
 40
2.0
 40
2.0
 40
3.0
 40
3.0
 40
3.0
 40
4.0
 40
4.0
 40
4.0
 40
5.0
 40
5.0
 40
5.0
 40
6.0
 40
6.0
 40
6.0
 40
7.0
 40
7.0
 40
7.0
 40
8.0
 40
8.0
 40
8.0
 40
9.0
 40
9.0
 40
9.0
 40
10.0
 40
10.0
 40
10.0
 40
11.0
 40
11.0
 40
11.0
 40
11.0
 10
126.377554584636
 20
154.8151140277308
 10
126.377554584636
 20
154.8151140277308
 10
128.8311532078563
 20
154.8151140277308
 10
128.8311532078563
 20
154.8151140277308
 10
128.8311532078563
 20
154.8151140277308
 10
127.7345785914971
 20
151.3062819612468
 10
127.7345785914971
 20
151.3062819612468
 10
128.571392836906
 20
152.2922689395754
 10
129.8860421413442
 20
153.604506675583
 10
131.0163787157314
 20
154.2664822097754
 10
132.7044766171327
 20
155.2500576196734
 10
133.6642808525008
 20
155.3847609420097
 10
134.7284715499351
 20
155.3565111403944
 10
134.7284715499351
 20
155.3565111403944
 10
133.6877075172549
 20
152.0345756272799
 10
133.6877075172549
 20
152.0345756272799
 10
133.011434827367
 20
152.3184516825359
 10
130.930940291334
 20
151.7768823149844
 10
129.739280976855
 20
150.9162968950455
 10
128.66613302525
 20
150.1454562717016
 10
127.9192358313239
 20
149.4857200510519
 10
127.0393578639405
 20
147.8282835196966
 10
126.164647543194
 20
146.1699857139017
 10
125.4742499524985
 20
143.5262176944419
 10
124.2822461282437
 20
139.6959580071401
 10
124.2822461282437
 20
139.6959580071401
 10
120.5753209406769
 20
127.8027915271048
 10
120.5753209406769
 20
127.8027915271048
 10
120.5753209406769
 20
127.8027915271048
 10
118.1964809388044
 20
127.8027915271048
 10
118.1964809388044
 20
127.8027915271048
 10
118.1964809388044
 20
127.8027915271048
 10
126.377554584636
 20
154.8151140277308
 10
126.377554584636
 20
154.8151140277308
 97
        0
 75
     2
 76
     1
 98
        0
  0
SPLINE
  5
1DA6
330
1DA0
100
AcDbEntity
  8
TFORMLOGO
370
     0
100
AcDbSpline
210
0.0
220
0.0
230
1.0
 70
    11
 71
     3
 72
   104
 73
   100
 74
     0
 42
0.000000001
 43
0.0000000001
 40
0.0
 40
0.0
 40
0.0
 40
0.0
 40
1.0
 40
1.0
 40
1.0
 40
2.0
 40
2.0
 40
2.0
 40
3.0
 40
3.0
 40
3.0
 40
4.0
 40
4.0
 40
4.0
 40
5.0
 40
5.0
 40
5.0
 40
6.0
 40
6.0
 40
6.0
 40
7.0
 40
7.0
 40
7.0
 40
8.0
 40
8.0
 40
8.0
 40
9.0
 40
9.0
 40
9.0
 40
10.0
 40
10.0
 40
10.0
 40
11.0
 40
11.0
 40
11.0
 40
12.0
 40
12.0
 40
12.0
 40
13.0
 40
13.0
 40
13.0
 40
14.0
 40
14.0
 40
14.0
 40
15.0
 40
15.0
 40
15.0
 40
16.0
 40
16.0
 40
16.0
 40
17.0
 40
17.0
 40
17.0
 40
18.0
 40
18.0
 40
18.0
 40
19.0
 40
19.0
 40
19.0
 40
20.0
 40
20.0
 40
20.0
 40
21.0
 40
21.0
 40
21.0
 40
22.0
 40
22.0
 40
22.0
 40
23.0
 40
23.0
 40
23.0
 40
24.0
 40
24.0
 40
24.0
 40
25.0
 40
25.0
 40
25.0
 40
26.0
 40
26.0
 40
26.0
 40
27.0
 40
27.0
 40
27.0
 40
28.0
 40
28.0
 40
28.0
 40
29.0
 40
29.0
 40
29.0
 40
30.0
 40
30.0
 40
30.0
 40
31.0
 40
31.0
 40
31.0
 40
32.0
 40
32.0
 40
32.0
 40
33.0
 40
33.0
 40
33.0
 40
33.0
 10
139.8926730891197
 20
154.8294111834263
 30
0.0
 10
139.8926730891197
 20
154.8294111834263
 30
0.0
 10
142.0344903652445
 20
154.8294111834263
 30
0.0
 10
142.0344903652445
 20
154.8294111834263
 30
0.0
 10
142.0344903652445
 20
154.8294111834263
 30
0.0
 10
140.9516961399171
 20
151.3157559800812
 30
0.0
 10
140.9516961399171
 20
151.3157559800812
 30
0.0
 10
141.8928968473923
 20
152.7887075264977
 30
0.0
 10
142.7341897198865
 20
153.4484437471474
 30
0.0
 10
143.8552245303272
 20
154.2926649527359
 30
0.0
 10
144.9803934580775
 20
155.1296514530327
 30
0.0
 10
146.3139908001845
 20
155.3044901642492
 30
0.0
 10
147.241066606852
 20
155.3044901642492
 30
0.0
 10
148.3855280820469
 20
155.3044901642492
 30
0.0
 10
149.4969166187653
 20
155.0752189084569
 30
0.0
 10
150.0784491203092
 20
153.8172414621372
 30
0.0
 10
150.5228667310863
 20
152.833838307127
 30
0.0
 10
150.5414702589793
 20
152.7201500811143
 30
0.0
 10
150.4140016419347
 20
150.7765981809602
 30
0.0
 10
151.5818897818837
 20
152.7699317437168
 30
0.0
 10
152.4424752018226
 20
153.6256940267945
 30
0.0
 10
153.9038856707499
 20
154.4507949398263
 30
0.0
 10
155.4455669174378
 20
155.3044901642492
 30
0.0
 10
156.339225275853
 20
155.3659851592288
 30
0.0
 10
157.3748216618963
 20
155.2147453676543
 30
0.0
 10
158.911679771723
 20
154.9877134254046
 30
0.0
 10
159.8859534176746
 20
154.4390816074493
 30
0.0
 10
160.3965169054045
 20
152.7816450760939
 30
0.0
 10
160.9070803931344
 20
151.1219692311958
 30
0.0
 10
160.6328506116007
 20
150.2303779314354
 30
0.0
 10
159.9992971339115
 20
147.597634224801
 30
0.0
 10
159.7105979417943
 20
146.4014962832367
 30
0.0
 10
159.2947746424084
 20
144.9400858143094
 30
0.0
 10
158.7463150793409
 20
143.2092687007094
 30
0.0
 10
158.7463150793409
 20
143.2092687007094
 30
0.0
 10
153.9038856707499
 20
127.8027915271048
 30
0.0
 10
153.9038856707499
 20
127.8027915271048
 30
0.0
 10
153.9038856707499
 20
127.8027915271048
 30
0.0
 10
151.3882752878863
 20
127.8027915271048
 30
0.0
 10
151.3882752878863
 20
127.8027915271048
 30
0.0
 10
151.3882752878863
 20
127.8027915271048
 30
0.0
 10
155.6250565106276
 20
141.2751908193897
 30
0.0
 10
155.6250565106276
 20
141.2751908193897
 30
0.0
 10
156.5094131050963
 20
144.0936252951782
 30
0.0
 10
157.109893644309
 20
146.1506931664571
 30
0.0
 10
157.4220195011804
 20
147.4415712963654
 30
0.0
 10
157.8095929989511
 20
149.0530157726519
 30
0.0
 10
157.9656559273867
 20
149.5826995529385
 30
0.0
 10
157.7816877071116
 20
150.7529992613181
 30
0.0
 10
157.6111553680925
 20
151.8430281919372
 30
0.0
 10
157.0582171779396
 20
152.5547853887321
 30
0.0
 10
156.1170164704645
 20
152.5547853887321
 30
0.0
 10
155.1096698860365
 20
152.5547853887321
 30
0.0
 10
154.2962823053817
 20
152.4412694176073
 30
0.0
 10
153.156643967048
 20
151.2945686288697
 30
0.0
 10
152.0170056287143
 20
150.1476955852443
 30
0.0
 10
151.076149431015
 20
148.7930831468137
 30
0.0
 10
150.3337308641742
 20
147.2290087646991
 30
0.0
 10
149.5957909244188
 20
145.6683794803425
 30
0.0
 10
148.8530278478023
 20
143.6822806228776
 30
0.0
 10
148.0964843801539
 20
141.2751908193897
 30
0.0
 10
148.0964843801539
 20
141.2751908193897
 30
0.0
 10
143.8552245303272
 20
127.8027915271048
 30
0.0
 10
143.8552245303272
 20
127.8027915271048
 30
0.0
 10
143.8552245303272
 20
127.8027915271048
 30
0.0
 10
141.486030802177
 20
127.8027915271048
 30
0.0
 10
141.486030802177
 20
127.8027915271048
 30
0.0
 10
141.486030802177
 20
127.8027915271048
 30
0.0
 10
146.3329388378533
 20
143.2092687007094
 30
0.0
 10
146.3329388378533
 20
143.2092687007094
 30
0.0
 10
146.8483254624444
 20
144.8408669988801
 30
0.0
 10
147.2314203331297
 20
146.1837661049335
 30
0.0
 10
147.4867020769946
 20
147.224185627838
 30
0.0
 10
147.9169947869641
 20
149.0197705792876
 30
0.0
 10
148.0306830129768
 20
150.2400242051577
 30
0.0
 10
147.709255392159
 20
151.3157559800812
 30
0.0
 10
147.3874832615654
 20
152.3916600098926
 30
0.0
 10
146.8245542879144
 20
152.6683013598569
 30
0.0
 10
145.8840425999909
 20
152.6683013598569
 30
0.0
 10
145.0989048209514
 20
152.6683013598569
 30
0.0
 10
144.3282364524954
 20
152.3275811915945
 30
0.0
 10
143.4531816219731
 20
151.6538923250251
 30
0.0
 10
142.34627171234
 20
150.8074318058939
 30
0.0
 10
141.901854101563
 20
150.1097995099067
 30
0.0
 10
141.3578731655808
 20
149.289521733736
 30
0.0
 10
140.6299240093235
 20
148.192602607601
 30
0.0
 10
140.2850697237515
 20
147.455696197173
 30
0.0
 10
139.6652966370942
 20
145.8385673095858
 30
0.0
 10
139.0506911970739
 20
144.2214384219986
 30
0.0
 10
138.463991048893
 20
142.3252566160164
 30
0.0
 10
138.0571250036777
 20
141.0154304484394
 30
0.0
 10
138.0571250036777
 20
141.0154304484394
 30
0.0
 10
133.9009590684727
 20
127.8027915271048
 30
0.0
 10
133.9009590684727
 20
127.8027915271048
 30
0.0
 10
133.9009590684727
 20
127.8027915271048
 30
0.0
 10
131.4180771143097
 20
127.8027915271048
 30
0.0
 10
131.4180771143097
 20
127.8027915271048
 30
0.0
 10
131.4180771143097
 20
127.8027915271048
 30
0.0
 10
139.8926730891197
 20
154.8294111834263
 30
0.0
 10
139.8926730891197
 20
154.8294111834263
 30
0.0
  0
HATCH
  5
1DA7
330
1DA0
100
AcDbEntity
  8
TFORMLOGO
 62
   250
420
  2234388
100
AcDbHatch
 10
0.0
 20
0.0
 30
0.0
210
0.0
220
0.0
230
1.0
  2
SOLID
 70
     1
 71
     0
 91
        1
 92
        1
 93
        1
 72
     4
 94
        3
 73
     0
 74
     1
 95
      104
 96
      100
 40
0.0
 40
0.0
 40
0.0
 40
0.0
 40
1.0
 40
1.0
 40
1.0
 40
2.0
 40
2.0
 40
2.0
 40
3.0
 40
3.0
 40
3.0
 40
4.0
 40
4.0
 40
4.0
 40
5.0
 40
5.0
 40
5.0
 40
6.0
 40
6.0
 40
6.0
 40
7.0
 40
7.0
 40
7.0
 40
8.0
 40
8.0
 40
8.0
 40
9.0
 40
9.0
 40
9.0
 40
10.0
 40
10.0
 40
10.0
 40
11.0
 40
11.0
 40
11.0
 40
12.0
 40
12.0
 40
12.0
 40
13.0
 40
13.0
 40
13.0
 40
14.0
 40
14.0
 40
14.0
 40
15.0
 40
15.0
 40
15.0
 40
16.0
 40
16.0
 40
16.0
 40
17.0
 40
17.0
 40
17.0
 40
18.0
 40
18.0
 40
18.0
 40
19.0
 40
19.0
 40
19.0
 40
20.0
 40
20.0
 40
20.0
 40
21.0
 40
21.0
 40
21.0
 40
22.0
 40
22.0
 40
22.0
 40
23.0
 40
23.0
 40
23.0
 40
24.0
 40
24.0
 40
24.0
 40
25.0
 40
25.0
 40
25.0
 40
26.0
 40
26.0
 40
26.0
 40
27.0
 40
27.0
 40
27.0
 40
28.0
 40
28.0
 40
28.0
 40
29.0
 40
29.0
 40
29.0
 40
30.0
 40
30.0
 40
30.0
 40
31.0
 40
31.0
 40
31.0
 40
32.0
 40
32.0
 40
32.0
 40
33.0
 40
33.0
 40
33.0
 40
33.0
 10
139.8926730891197
 20
154.8294111834263
 10
139.8926730891197
 20
154.8294111834263
 10
142.0344903652445
 20
154.8294111834263
 10
142.0344903652445
 20
154.8294111834263
 10
142.0344903652445
 20
154.8294111834263
 10
140.9516961399171
 20
151.3157559800812
 10
140.9516961399171
 20
151.3157559800812
 10
141.8928968473923
 20
152.7887075264977
 10
142.7341897198865
 20
153.4484437471474
 10
143.8552245303272
 20
154.2926649527359
 10
144.9803934580775
 20
155.1296514530327
 10
146.3139908001845
 20
155.3044901642492
 10
147.241066606852
 20
155.3044901642492
 10
148.3855280820469
 20
155.3044901642492
 10
149.4969166187653
 20
155.0752189084569
 10
150.0784491203092
 20
153.8172414621372
 10
150.5228667310863
 20
152.833838307127
 10
150.5414702589793
 20
152.7201500811143
 10
150.4140016419347
 20
150.7765981809602
 10
151.5818897818837
 20
152.7699317437168
 10
152.4424752018226
 20
153.6256940267945
 10
153.9038856707499
 20
154.4507949398263
 10
155.4455669174378
 20
155.3044901642492
 10
156.339225275853
 20
155.3659851592288
 10
157.3748216618963
 20
155.2147453676543
 10
158.911679771723
 20
154.9877134254046
 10
159.8859534176746
 20
154.4390816074493
 10
160.3965169054045
 20
152.7816450760939
 10
160.9070803931344
 20
151.1219692311958
 10
160.6328506116007
 20
150.2303779314354
 10
159.9992971339115
 20
147.597634224801
 10
159.7105979417943
 20
146.4014962832367
 10
159.2947746424084
 20
144.9400858143094
 10
158.7463150793409
 20
143.2092687007094
 10
158.7463150793409
 20
143.2092687007094
 10
153.9038856707499
 20
127.8027915271048
 10
153.9038856707499
 20
127.8027915271048
 10
153.9038856707499
 20
127.8027915271048
 10
151.3882752878863
 20
127.8027915271048
 10
151.3882752878863
 20
127.8027915271048
 10
151.3882752878863
 20
127.8027915271048
 10
155.6250565106276
 20
141.2751908193897
 10
155.6250565106276
 20
141.2751908193897
 10
156.5094131050963
 20
144.0936252951782
 10
157.109893644309
 20
146.1506931664571
 10
157.4220195011804
 20
147.4415712963654
 10
157.8095929989511
 20
149.0530157726519
 10
157.9656559273867
 20
149.5826995529385
 10
157.7816877071116
 20
150.7529992613181
 10
157.6111553680925
 20
151.8430281919372
 10
157.0582171779396
 20
152.5547853887321
 10
156.1170164704645
 20
152.5547853887321
 10
155.1096698860365
 20
152.5547853887321
 10
154.2962823053817
 20
152.4412694176073
 10
153.156643967048
 20
151.2945686288697
 10
152.0170056287143
 20
150.1476955852443
 10
151.076149431015
 20
148.7930831468137
 10
150.3337308641742
 20
147.2290087646991
 10
149.5957909244188
 20
145.6683794803425
 10
148.8530278478023
 20
143.6822806228776
 10
148.0964843801539
 20
141.2751908193897
 10
148.0964843801539
 20
141.2751908193897
 10
143.8552245303272
 20
127.8027915271048
 10
143.8552245303272
 20
127.8027915271048
 10
143.8552245303272
 20
127.8027915271048
 10
141.486030802177
 20
127.8027915271048
 10
141.486030802177
 20
127.8027915271048
 10
141.486030802177
 20
127.8027915271048
 10
146.3329388378533
 20
143.2092687007094
 10
146.3329388378533
 20
143.2092687007094
 10
146.8483254624444
 20
144.8408669988801
 10
147.2314203331297
 20
146.1837661049335
 10
147.4867020769946
 20
147.224185627838
 10
147.9169947869641
 20
149.0197705792876
 10
148.0306830129768
 20
150.2400242051577
 10
147.709255392159
 20
151.3157559800812
 10
147.3874832615654
 20
152.3916600098926
 10
146.8245542879144
 20
152.6683013598569
 10
145.8840425999909
 20
152.6683013598569
 10
145.0989048209514
 20
152.6683013598569
 10
144.3282364524954
 20
152.3275811915945
 10
143.4531816219731
 20
151.6538923250251
 10
142.34627171234
 20
150.8074318058939
 10
141.901854101563
 20
150.1097995099067
 10
141.3578731655808
 20
149.289521733736
 10
140.6299240093235
 20
148.192602607601
 10
140.2850697237515
 20
147.455696197173
 10
139.6652966370942
 20
145.8385673095858
 10
139.0506911970739
 20
144.2214384219986
 10
138.463991048893
 20
142.3252566160164
 10
138.0571250036777
 20
141.0154304484394
 10
138.0571250036777
 20
141.0154304484394
 10
133.9009590684727
 20
127.8027915271048
 10
133.9009590684727
 20
127.8027915271048
 10
133.9009590684727
 20
127.8027915271048
 10
131.4180771143097
 20
127.8027915271048
 10
131.4180771143097
 20
127.8027915271048
 10
131.4180771143097
 20
127.8027915271048
 10
139.8926730891197
 20
154.8294111834263
 10
139.8926730891197
 20
154.8294111834263
 97
        0
 75
     2
 76
     1
 98
        0
  0
SPLINE
  5
1DA8
330
1DA0
100
AcDbEntity
  8
TFORMLOGO
370
     0
100
AcDbSpline
210
0.0
220
0.0
230
1.0
 70
    11
 71
     3
 72
    29
 73
    25
 74
     0
 42
0.000000001
 43
0.0000000001
 40
0.0
 40
0.0
 40
0.0
 40
0.0
 40
1.0
 40
1.0
 40
1.0
 40
2.0
 40
2.0
 40
2.0
 40
3.0
 40
3.0
 40
3.0
 40
4.0
 40
4.0
 40
4.0
 40
5.0
 40
5.0
 40
5.0
 40
6.0
 40
6.0
 40
6.0
 40
7.0
 40
7.0
 40
7.0
 40
8.0
 40
8.0
 40
8.0
 40
8.0
 10
101.6420971922469
 20
132.8388354296931
 30
0.0
 10
101.630039350094
 20
134.7164137077823
 30
0.0
 10
102.2236296937908
 20
138.0598810818841
 30
0.0
 10
103.7487744712405
 20
142.5378191476827
 30
0.0
 10
105.819967243327
 20
148.5896501242061
 30
0.0
 10
107.0602024361932
 20
150.8074318058939
 30
0.0
 10
108.1522984254671
 20
151.8833358357054
 30
0.0
 10
109.741177511439
 20
153.4532668840085
 30
0.0
 10
111.8740375333931
 20
153.5290590346837
 30
0.0
 10
112.5075910110823
 20
153.4532668840085
 30
0.0
 10
113.4012493694975
 20
153.3490526768302
 30
0.0
 10
114.6683563248758
 20
152.7580461564518
 30
0.0
 10
114.7493161221879
 20
150.7838328862519
 30
0.0
 10
114.8106388622796
 20
149.0909118479895
 30
0.0
 10
114.3186789024427
 20
145.9191825971221
 30
0.0
 10
112.6164561002338
 20
140.9489400617108
 30
0.0
 10
110.6444821435766
 20
135.1746117095912
 30
0.0
 10
109.4669477299053
 20
132.8960240524753
 30
0.0
 10
108.5212683953448
 20
131.9072809959403
 30
0.0
 10
106.7346406980658
 20
130.0538184021569
 30
0.0
 10
104.8222669326213
 20
130.2336525051225
 30
0.0
 10
104.5408024457958
 20
130.2336525051225
 30
0.0
 10
104.1721769856939
 20
130.2336525051225
 30
0.0
 10
101.6465758193322
 20
130.6305277668397
 30
0.0
 10
101.6420971922469
 20
132.8388354296931
 30
0.0
  0
SPLINE
  5
1DA9
330
1DA0
100
AcDbEntity
  8
TFORMLOGO
370
     0
100
AcDbSpline
210
0.0
220
0.0
230
1.0
 70
    11
 71
     3
 72
    32
 73
    28
 74
     0
 42
0.000000001
 43
0.0000000001
 40
0.0
 40
0.0
 40
0.0
 40
0.0
 40
1.0
 40
1.0
 40
1.0
 40
2.0
 40
2.0
 40
2.0
 40
3.0
 40
3.0
 40
3.0
 40
4.0
 40
4.0
 40
4.0
 40
5.0
 40
5.0
 40
5.0
 40
6.0
 40
6.0
 40
6.0
 40
7.0
 40
7.0
 40
7.0
 40
8.0
 40
8.0
 40
8.0
 40
9.0
 40
9.0
 40
9.0
 40
9.0
 10
106.2595617172429
 20
153.4105476718098
 30
0.0
 10
104.8222669326213
 20
151.5474388043041
 30
0.0
 10
103.7177685914188
 20
149.8758773721411
 30
0.0
 10
101.9232171692965
 20
144.6141795664062
 30
0.0
 10
100.2754269116635
 20
139.7999999594306
 30
0.0
 10
99.22777268346732
 20
136.3052927937542
 30
0.0
 10
99.06964269637689
 20
132.039572749846
 30
0.0
 10
98.94665270641765
 20
128.8673267343149
 30
0.0
 10
100.8807305877373
 20
127.8027915271048
 30
0.0
 10
103.7129454545577
 20
127.8027915271048
 30
0.0
 10
104.9352661390825
 20
127.8027915271048
 30
0.0
 10
108.0151835347002
 20
127.8827177950895
 30
0.0
 10
110.2045431598849
 20
130.5926316915021
 30
0.0
 10
111.7417457794874
 20
132.4984597712065
 30
0.0
 10
113.155269389579
 20
134.475256864725
 30
0.0
 10
115.0562743324223
 20
140.9489400617108
 30
0.0
 10
116.6361961642235
 20
146.3680788349845
 30
0.0
 10
117.7282921534974
 20
149.8639917848761
 30
0.0
 10
117.6480213757369
 20
151.8595646611754
 30
0.0
 10
117.6480213757369
 20
151.8595646611754
 30
0.0
 10
117.6480213757369
 20
151.8595646611754
 30
0.0
 10
117.6480213757369
 20
151.8595646611754
 30
0.0
 10
117.13229024137
 20
155.18150017429
 30
0.0
 10
114.7162431837115
 20
155.886194920681
 30
0.0
 10
113.3351034925446
 20
155.886194920681
 30
0.0
 10
111.9829026225447
 20
155.886194920681
 30
0.0
 10
108.3414342923792
 20
156.1251124501957
 30
0.0
 10
106.2595617172429
 20
153.4105476718098
 30
0.0
  0
HATCH
  5
1DAA
330
1DA0
100
AcDbEntity
  8
TFORMLOGO
 62
   250
420
  2234388
100
AcDbHatch
 10
0.0
 20
0.0
 30
0.0
210
0.0
220
0.0
230
1.0
  2
SOLID
 70
     1
 71
     0
 91
        2
 92
        1
 93
        1
 72
     4
 94
        3
 73
     0
 74
     1
 95
       29
 96
       25
 40
0.0
 40
0.0
 40
0.0
 40
0.0
 40
1.0
 40
1.0
 40
1.0
 40
2.0
 40
2.0
 40
2.0
 40
3.0
 40
3.0
 40
3.0
 40
4.0
 40
4.0
 40
4.0
 40
5.0
 40
5.0
 40
5.0
 40
6.0
 40
6.0
 40
6.0
 40
7.0
 40
7.0
 40
7.0
 40
8.0
 40
8.0
 40
8.0
 40
8.0
 10
101.6420971922469
 20
132.8388354296931
 10
101.630039350094
 20
134.7164137077823
 10
102.2236296937908
 20
138.0598810818841
 10
103.7487744712405
 20
142.5378191476827
 10
105.819967243327
 20
148.5896501242061
 10
107.0602024361932
 20
150.8074318058939
 10
108.1522984254671
 20
151.8833358357054
 10
109.741177511439
 20
153.4532668840085
 10
111.8740375333931
 20
153.5290590346837
 10
112.5075910110823
 20
153.4532668840085
 10
113.4012493694975
 20
153.3490526768302
 10
114.6683563248758
 20
152.7580461564518
 10
114.7493161221879
 20
150.7838328862519
 10
114.8106388622796
 20
149.0909118479895
 10
114.3186789024427
 20
145.9191825971221
 10
112.6164561002338
 20
140.9489400617108
 10
110.6444821435766
 20
135.1746117095912
 10
109.4669477299053
 20
132.8960240524753
 10
108.5212683953448
 20
131.9072809959403
 10
106.7346406980658
 20
130.0538184021569
 10
104.8222669326213
 20
130.2336525051225
 10
104.5408024457958
 20
130.2336525051225
 10
104.1721769856939
 20
130.2336525051225
 10
101.6465758193322
 20
130.6305277668397
 10
101.6420971922469
 20
132.8388354296931
 97
        0
 92
        1
 93
        1
 72
     4
 94
        3
 73
     0
 74
     1
 95
       32
 96
       28
 40
0.0
 40
0.0
 40
0.0
 40
0.0
 40
1.0
 40
1.0
 40
1.0
 40
2.0
 40
2.0
 40
2.0
 40
3.0
 40
3.0
 40
3.0
 40
4.0
 40
4.0
 40
4.0
 40
5.0
 40
5.0
 40
5.0
 40
6.0
 40
6.0
 40
6.0
 40
7.0
 40
7.0
 40
7.0
 40
8.0
 40
8.0
 40
8.0
 40
9.0
 40
9.0
 40
9.0
 40
9.0
 10
106.2595617172429
 20
153.4105476718098
 10
104.8222669326213
 20
151.5474388043041
 10
103.7177685914188
 20
149.8758773721411
 10
101.9232171692965
 20
144.6141795664062
 10
100.2754269116635
 20
139.7999999594306
 10
99.22777268346732
 20
136.3052927937542
 10
99.06964269637689
 20
132.039572749846
 10
98.94665270641765
 20
128.8673267343149
 10
100.8807305877373
 20
127.8027915271048
 10
103.7129454545577
 20
127.8027915271048
 10
104.9352661390825
 20
127.8027915271048
 10
108.0151835347002
 20
127.8827177950895
 10
110.2045431598849
 20
130.5926316915021
 10
111.7417457794874
 20
132.4984597712065
 10
113.155269389579
 20
134.475256864725
 10
115.0562743324223
 20
140.9489400617108
 10
116.6361961642235
 20
146.3680788349845
 10
117.7282921534974
 20
149.8639917848761
 10
117.6480213757369
 20
151.8595646611754
 10
117.6480213757369
 20
151.8595646611754
 10
117.6480213757369
 20
151.8595646611754
 10
117.6480213757369
 20
151.8595646611754
 10
117.13229024137
 20
155.18150017429
 10
114.7162431837115
 20
155.886194920681
 10
113.3351034925446
 20
155.886194920681
 10
111.9829026225447
 20
155.886194920681
 10
108.3414342923792
 20
156.1251124501957
 10
106.2595617172429
 20
153.4105476718098
 97
        0
 75
     2
 76
     1
 98
        0
  0
ENDBLK
  5
1DAB
330
1DA0
100
AcDbEntity
  8
0
100
AcDbBlockEnd
  0
BLOCK
  5
7C34
330
7C33
100
AcDbEntity
  8
0
100
AcDbBlockBegin
  2
*D7
 70
     1
 10
0.0
 20
0.0
 30
0.0
  3
*D7
  1

  0
LINE
  5
7C35
330
7C33
100
AcDbEntity
  8
寸法
 62
     0
370
    -2
100
AcDbLine
 10
175.1191159999997
 20
166.9124786086959
 30
0.0
 11
147.4658626980958
 21
166.9124786086959
 31
0.0
  0
LINE
  5
7C36
330
7C33
100
AcDbEntity
  8
寸法
 62
     0
370
    -2
100
AcDbLine
 10
175.1191159999997
 20
194.4272810868171
 30
0.0
 11
147.4658626980958
 21
194.4272810868171
 31
0.0
  0
LINE
  5
7C37
330
7C33
100
AcDbEntity
  8
寸法
 62
     0
370
    -2
100
AcDbLine
 10
147.4658626980958
 20
168.9124786086959
 30
0.0
 11
147.4658626980958
 21
192.4272810868171
 31
0.0
  0
INSERT
  5
7C38
330
7C33
100
AcDbEntity
  8
寸法
 62
     0
370
    -2
100
AcDbBlockReference
  2
_DOT
 10
147.4658626980958
 20
166.9124786086959
 30
0.0
 41
2.0
 42
2.0
 43
2.0
 50
270.0
  0
INSERT
  5
7C39
330
7C33
100
AcDbEntity
  8
寸法
 62
     0
370
    -2
100
AcDbBlockReference
  2
_DOT
 10
147.4658626980958
 20
194.4272810868171
 30
0.0
 41
2.0
 42
2.0
 43
2.0
 50
90.0
  0
MTEXT
  5
7C3A
330
7C33
100
AcDbEntity
  8
寸法
 62
     0
100
AcDbMText
 10
139.9658626980958
 20
180.6698798477565
 30
0.0
 40
5.0
 41
0.0
 46
0.0
 71
     5
 72
     1
  1
\A1;28
  7
ＭＳ ゴシック
 11
0.0
 21
1.0
 31
0.0
 73
     1
 44
1.0
  0
POINT
  5
7C3B
330
7C33
100
AcDbEntity
  8
Defpoints
 62
     0
100
AcDbPoint
 10
180.1191159999997
 20
166.9124786086959
 30
0.0
  0
POINT
  5
7C3C
330
7C33
100
AcDbEntity
  8
Defpoints
 62
     0
100
AcDbPoint
 10
180.1191159999997
 20
194.4272810868171
 30
0.0
  0
POINT
  5
7C3D
330
7C33
100
AcDbEntity
  8
Defpoints
 62
     0
100
AcDbPoint
 10
147.4658626980958
 20
194.4272810868171
 30
0.0
  0
ENDBLK
  5
7C3E
330
7C33
100
AcDbEntity
  8
0
100
AcDbBlockEnd
  0
BLOCK
  5
7C46
330
7C45
100
AcDbEntity
  8
0
100
AcDbBlockBegin
  2
*D8
 70
     1
 10
0.0
 20
0.0
 30
0.0
  3
*D8
  1

  0
LINE
  5
7C47
330
7C45
100
AcDbEntity
  8
寸法
 62
     0
370
    -2
100
AcDbLine
 10
175.1191159999997
 20
194.4272810868171
 30
0.0
 11
147.4658626980958
 21
194.4272810868171
 31
0.0
  0
LINE
  5
7C48
330
7C45
100
AcDbEntity
  8
寸法
 62
     0
370
    -2
100
AcDbLine
 10
181.1191159999997
 20
221.9420835649384
 30
0.0
 11
147.4658626980958
 21
221.9420835649384
 31
0.0
  0
LINE
  5
7C49
330
7C45
100
AcDbEntity
  8
寸法
 62
     0
370
    -2
100
AcDbLine
 10
147.4658626980958
 20
196.4272810868171
 30
0.0
 11
147.4658626980958
 21
219.9420835649384
 31
0.0
  0
INSERT
  5
7C4A
330
7C45
100
AcDbEntity
  8
寸法
 62
     0
370
    -2
100
AcDbBlockReference
  2
_DOT
 10
147.4658626980958
 20
194.4272810868171
 30
0.0
 41
2.0
 42
2.0
 43
2.0
 50
270.0
  0
INSERT
  5
7C4B
330
7C45
100
AcDbEntity
  8
寸法
 62
     0
370
    -2
100
AcDbBlockReference
  2
_DOT
 10
147.4658626980958
 20
221.9420835649384
 30
0.0
 41
2.0
 42
2.0
 43
2.0
 50
90.0
  0
MTEXT
  5
7C4C
330
7C45
100
AcDbEntity
  8
寸法
 62
     0
100
AcDbMText
 10
139.9658626980958
 20
208.1846823258778
 30
0.0
 40
5.0
 41
0.0
 46
0.0
 71
     5
 72
     1
  1
\A1;28
  7
ＭＳ ゴシック
 11
0.0
 21
1.0
 31
0.0
 73
     1
 44
1.0
  0
POINT
  5
7C4D
330
7C45
100
AcDbEntity
  8
Defpoints
 62
     0
100
AcDbPoint
 10
180.1191159999997
 20
194.4272810868171
 30
0.0
  0
POINT
  5
7C4E
330
7C45
100
AcDbEntity
  8
Defpoints
 62
     0
100
AcDbPoint
 10
186.1191159999997
 20
221.9420835649384
 30
0.0
  0
POINT
  5
7C4F
330
7C45
100
AcDbEntity
  8
Defpoints
 62
     0
100
AcDbPoint
 10
147.4658626980958
 20
221.9420835649384
 30
0.0
  0
ENDBLK
  5
7C50
330
7C45
100
AcDbEntity
  8
0
100
AcDbBlockEnd
  0
BLOCK
  5
7C55
330
7C54
100
AcDbEntity
  8
0
100
AcDbBlockBegin
  2
*D9
 70
     1
 10
0.0
 20
0.0
 30
0.0
  3
*D9
  1

  0
LINE
  5
7C56
330
7C54
100
AcDbEntity
  8
寸法
 62
     0
370
    -2
100
AcDbLine
 10
181.1191159999997
 20
221.9420835649384
 30
0.0
 11
147.4658626980958
 21
221.9420835649384
 31
0.0
  0
LINE
  5
7C57
330
7C54
100
AcDbEntity
  8
寸法
 62
     0
370
    -2
100
AcDbLine
 10
175.1191159999997
 20
249.4568860430597
 30
0.0
 11
147.4658626980958
 21
249.4568860430597
 31
0.0
  0
LINE
  5
7C58
330
7C54
100
AcDbEntity
  8
寸法
 62
     0
370
    -2
100
AcDbLine
 10
147.4658626980958
 20
223.9420835649384
 30
0.0
 11
147.4658626980958
 21
247.4568860430597
 31
0.0
  0
INSERT
  5
7C59
330
7C54
100
AcDbEntity
  8
寸法
 62
     0
370
    -2
100
AcDbBlockReference
  2
_DOT
 10
147.4658626980958
 20
221.9420835649384
 30
0.0
 41
2.0
 42
2.0
 43
2.0
 50
270.0
  0
INSERT
  5
7C5A
330
7C54
100
AcDbEntity
  8
寸法
 62
     0
370
    -2
100
AcDbBlockReference
  2
_DOT
 10
147.4658626980958
 20
249.4568860430597
 30
0.0
 41
2.0
 42
2.0
 43
2.0
 50
90.0
  0
MTEXT
  5
7C5B
330
7C54
100
AcDbEntity
  8
寸法
 62
     0
100
AcDbMText
 10
139.9658626980958
 20
235.6994848039991
 30
0.0
 40
5.0
 41
0.0
 46
0.0
 71
     5
 72
     1
  1
\A1;28
  7
ＭＳ ゴシック
 11
0.0
 21
1.0
 31
0.0
 73
     1
 44
1.0
  0
POINT
  5
7C5C
330
7C54
100
AcDbEntity
  8
Defpoints
 62
     0
100
AcDbPoint
 10
186.1191159999997
 20
221.9420835649384
 30
0.0
  0
POINT
  5
7C5D
330
7C54
100
AcDbEntity
  8
Defpoints
 62
     0
100
AcDbPoint
 10
180.1191159999997
 20
249.4568860430597
 30
0.0
  0
POINT
  5
7C5E
330
7C54
100
AcDbEntity
  8
Defpoints
 62
     0
100
AcDbPoint
 10
147.4658626980958
 20
249.4568860430597
 30
0.0
  0
ENDBLK
  5
7C5F
330
7C54
100
AcDbEntity
  8
0
100
AcDbBlockEnd
  0
BLOCK
  5
7CA2
330
7CA1
100
AcDbEntity
  8
0
100
AcDbBlockBegin
  2
*D10
 70
     1
 10
0.0
 20
0.0
 30
0.0
  3
*D10
  1

  0
LINE
  5
7CA3
330
7CA1
100
AcDbEntity
  8
寸法
 62
     0
370
    -2
100
AcDbLine
 10
186.1191159999997
 20
226.9420835649384
 30
0.0
 11
186.1191159999997
 21
273.5392672482749
 31
0.0
  0
LINE
  5
7CA4
330
7CA1
100
AcDbEntity
  8
寸法
 62
     0
370
    -2
100
AcDbLine
 10
168.1191159999997
 20
254.4568860430597
 30
0.0
 11
168.1191159999997
 21
273.5392672482749
 31
0.0
  0
LINE
  5
7CA5
330
7CA1
100
AcDbEntity
  8
寸法
 62
     0
370
    -2
100
AcDbLine
 10
184.1191159999997
 20
273.5392672482749
 30
0.0
 11
170.1191159999997
 21
273.5392672482749
 31
0.0
  0
INSERT
  5
7CA6
330
7CA1
100
AcDbEntity
  8
寸法
 62
     0
370
    -2
100
AcDbBlockReference
  2
_DOT
 10
186.1191159999997
 20
273.5392672482749
 30
0.0
 41
2.0
 42
2.0
 43
2.0
  0
INSERT
  5
7CA7
330
7CA1
100
AcDbEntity
  8
寸法
 62
     0
370
    -2
100
AcDbBlockReference
  2
_DOT
 10
168.1191159999997
 20
273.5392672482749
 30
0.0
 41
2.0
 42
2.0
 43
2.0
 50
180.0
  0
MTEXT
  5
7CA8
330
7CA1
100
AcDbEntity
  8
寸法
 62
     0
100
AcDbMText
 10
177.1191159999997
 20
281.0392672482749
 30
0.0
 40
5.0
 41
0.0
 46
0.0
 71
     5
 72
     1
  1
\A1;18
  7
ＭＳ ゴシック
 73
     1
 44
1.0
  0
POINT
  5
7CA9
330
7CA1
100
AcDbEntity
  8
Defpoints
 62
     0
100
AcDbPoint
 10
186.1191159999997
 20
221.9420835649384
 30
0.0
  0
POINT
  5
7CAA
330
7CA1
100
AcDbEntity
  8
Defpoints
 62
     0
100
AcDbPoint
 10
168.1191159999997
 20
249.4568860430597
 30
0.0
  0
POINT
  5
7CAB
330
7CA1
100
AcDbEntity
  8
Defpoints
 62
     0
100
AcDbPoint
 10
168.1191159999997
 20
273.5392672482749
 30
0.0
  0
ENDBLK
  5
7CAC
330
7CA1
100
AcDbEntity
  8
0
100
AcDbBlockEnd
  0
BLOCK
  5
7CB1
330
7CB0
100
AcDbEntity
  8
0
100
AcDbBlockBegin
  2
*D11
 70
     1
 10
0.0
 20
0.0
 30
0.0
  3
*D11
  1

  0
LINE
  5
7CB2
330
7CB0
100
AcDbEntity
  8
寸法
 62
     0
370
    -2
100
AcDbLine
 10
175.1191159999997
 20
249.4568860430597
 30
0.0
 11
147.4658626980958
 21
249.4568860430597
 31
0.0
  0
LINE
  5
7CB3
330
7CB0
100
AcDbEntity
  8
寸法
 62
     0
370
    -2
100
AcDbLine
 10
175.1191159999997
 20
262.4568860430597
 30
0.0
 11
147.4658626980958
 21
262.4568860430597
 31
0.0
  0
LINE
  5
7CB4
330
7CB0
100
AcDbEntity
  8
寸法
 62
     0
370
    -2
100
AcDbLine
 10
147.4658626980958
 20
251.4568860430597
 30
0.0
 11
147.4658626980958
 21
260.4568860430597
 31
0.0
  0
INSERT
  5
7CB5
330
7CB0
100
AcDbEntity
  8
寸法
 62
     0
370
    -2
100
AcDbBlockReference
  2
_DOT
 10
147.4658626980958
 20
249.4568860430597
 30
0.0
 41
2.0
 42
2.0
 43
2.0
 50
270.0
  0
INSERT
  5
7CB6
330
7CB0
100
AcDbEntity
  8
寸法
 62
     0
370
    -2
100
AcDbBlockReference
  2
_DOT
 10
147.4658626980958
 20
262.4568860430597
 30
0.0
 41
2.0
 42
2.0
 43
2.0
 50
90.0
  0
MTEXT
  5
7CB7
330
7CB0
100
AcDbEntity
  8
寸法
 62
     0
100
AcDbMText
 10
139.9658626980957
 20
255.4568860430597
 30
0.0
 40
5.0
 41
0.0
 46
0.0
 71
     5
 72
     1
  1
\A1;13
  7
ＭＳ ゴシック
 11
0.0
 21
1.0
 31
0.0
 73
     1
 44
1.0
  0
POINT
  5
7CB8
330
7CB0
100
AcDbEntity
  8
Defpoints
 62
     0
100
AcDbPoint
 10
180.1191159999997
 20
249.4568860430597
 30
0.0
  0
POINT
  5
7CB9
330
7CB0
100
AcDbEntity
  8
Defpoints
 62
     0
100
AcDbPoint
 10
180.1191159999997
 20
262.4568860430597
 30
0.0
  0
POINT
  5
7CBA
330
7CB0
100
AcDbEntity
  8
Defpoints
 62
     0
100
AcDbPoint
 10
147.4658626980958
 20
262.4568860430597
 30
0.0
  0
ENDBLK
  5
7CBB
330
7CB0
100
AcDbEntity
  8
0
100
AcDbBlockEnd
  0
BLOCK
  5
7CBE
330
7CBD
100
AcDbEntity
  8
0
100
AcDbBlockBegin
  2
*D12
 70
     1
 10
0.0
 20
0.0
 30
0.0
  3
*D12
  1

  0
LINE
  5
7CBF
330
7CBD
100
AcDbEntity
  8
寸法
 62
     0
370
    -2
100
AcDbLine
 10
234.5285184347823
 20
269.9124786086959
 30
0.0
 11
305.3684831213151
 21
269.9124786086959
 31
0.0
  0
LINE
  5
7CC0
330
7CBD
100
AcDbEntity
  8
寸法
 62
     0
370
    -2
100
AcDbLine
 10
234.5285184347822
 20
147.9124786086959
 30
0.0
 11
305.3684831213151
 21
147.9124786086959
 31
0.0
  0
LINE
  5
7CC1
330
7CBD
100
AcDbEntity
  8
寸法
 62
     0
370
    -2
100
AcDbLine
 10
305.3684831213151
 20
267.9124786086959
 30
0.0
 11
305.3684831213151
 21
149.9124786086959
 31
0.0
  0
INSERT
  5
7CC2
330
7CBD
100
AcDbEntity
  8
寸法
 62
     0
370
    -2
100
AcDbBlockReference
  2
_DOT
 10
305.3684831213151
 20
269.9124786086959
 30
0.0
 41
2.0
 42
2.0
 43
2.0
 50
90.0
  0
INSERT
  5
7CC3
330
7CBD
100
AcDbEntity
  8
寸法
 62
     0
370
    -2
100
AcDbBlockReference
  2
_DOT
 10
305.3684831213151
 20
147.9124786086959
 30
0.0
 41
2.0
 42
2.0
 43
2.0
 50
270.0
  0
MTEXT
  5
7CC4
330
7CBD
100
AcDbEntity
  8
寸法
 62
     0
100
AcDbMText
 10
297.8684831213151
 20
208.9124786086959
 30
0.0
 40
5.0
 41
0.0
 46
0.0
 71
     5
 72
     1
  1
\A1;122
  7
ＭＳ ゴシック
 11
0.0
 21
1.0
 31
0.0
 73
     1
 44
1.0
  0
POINT
  5
7CC5
330
7CBD
100
AcDbEntity
  8
Defpoints
 62
     0
100
AcDbPoint
 10
229.5285184347823
 20
269.9124786086959
 30
0.0
  0
POINT
  5
7CC6
330
7CBD
100
AcDbEntity
  8
Defpoints
 62
     0
100
AcDbPoint
 10
229.5285184347822
 20
147.9124786086959
 30
0.0
  0
POINT
  5
7CC7
330
7CBD
100
AcDbEntity
  8
Defpoints
 62
     0
100
AcDbPoint
 10
305.3684831213151
 20
147.9124786086959
 30
0.0
  0
ENDBLK
  5
7CC8
330
7CBD
100
AcDbEntity
  8
0
100
AcDbBlockEnd
  0
BLOCK
  5
7CCB
330
7CCA
100
AcDbEntity
  8
0
100
AcDbBlockBegin
  2
*D13
 70
     1
 10
0.0
 20
0.0
 30
0.0
  3
*D13
  1

  0
LINE
  5
7CCC
330
7CCA
100
AcDbEntity
  8
寸法
 62
     0
370
    -2
100
AcDbLine
 10
180.1191159999997
 20
158.3521641739133
 30
0.0
 11
180.1191159999997
 21
137.7895640134925
 31
0.0
  0
LINE
  5
7CCD
330
7CCA
100
AcDbEntity
  8
寸法
 62
     0
370
    -2
100
AcDbLine
 10
168.1191159999997
 20
158.3521641739133
 30
0.0
 11
168.1191159999997
 21
137.7895640134925
 31
0.0
  0
LINE
  5
7CCE
330
7CCA
100
AcDbEntity
  8
寸法
 62
     0
370
    -2
100
AcDbLine
 10
178.1191159999997
 20
137.7895640134925
 30
0.0
 11
170.1191159999997
 21
137.7895640134925
 31
0.0
  0
INSERT
  5
7CCF
330
7CCA
100
AcDbEntity
  8
寸法
 62
     0
370
    -2
100
AcDbBlockReference
  2
_DOT
 10
180.1191159999997
 20
137.7895640134925
 30
0.0
 41
2.0
 42
2.0
 43
2.0
  0
INSERT
  5
7CD0
330
7CCA
100
AcDbEntity
  8
寸法
 62
     0
370
    -2
100
AcDbBlockReference
  2
_DOT
 10
168.1191159999997
 20
137.7895640134925
 30
0.0
 41
2.0
 42
2.0
 43
2.0
 50
180.0
  0
MTEXT
  5
7CD1
330
7CCA
100
AcDbEntity
  8
寸法
 62
     0
100
AcDbMText
 10
174.1191159999997
 20
145.2895640134925
 30
0.0
 40
5.0
 41
0.0
 46
0.0
 71
     5
 72
     1
  1
\A1;12
  7
ＭＳ ゴシック
 73
     1
 44
1.0
  0
POINT
  5
7CD2
330
7CCA
100
AcDbEntity
  8
Defpoints
 62
     0
100
AcDbPoint
 10
180.1191159999997
 20
163.3521641739133
 30
0.0
  0
POINT
  5
7CD3
330
7CCA
100
AcDbEntity
  8
Defpoints
 62
     0
100
AcDbPoint
 10
168.1191159999997
 20
163.3521641739133
 30
0.0
  0
POINT
  5
7CD4
330
7CCA
100
AcDbEntity
  8
Defpoints
 62
     0
100
AcDbPoint
 10
168.1191159999997
 20
137.7895640134925
 30
0.0
  0
ENDBLK
  5
7CD5
330
7CCA
100
AcDbEntity
  8
0
100
AcDbBlockEnd
  0
BLOCK
  5
7CDA
330
7CD9
100
AcDbEntity
  8
0
100
AcDbBlockBegin
  2
*D14
 70
     1
 10
0.0
 20
0.0
 30
0.0
  3
*D14
  1

  0
LINE
  5
7CDB
330
7CD9
100
AcDbEntity
  8
寸法
 62
     0
370
    -2
100
AcDbLine
 10
180.1191159999997
 20
158.3521641739133
 30
0.0
 11
180.1191159999997
 21
137.7895640134925
 31
0.0
  0
LINE
  5
7CDC
330
7CD9
100
AcDbEntity
  8
寸法
 62
     0
370
    -2
100
AcDbLine
 10
192.1191159999997
 20
158.3521641739133
 30
0.0
 11
192.1191159999997
 21
137.7895640134925
 31
0.0
  0
LINE
  5
7CDD
330
7CD9
100
AcDbEntity
  8
寸法
 62
     0
370
    -2
100
AcDbLine
 10
182.1191159999997
 20
137.7895640134925
 30
0.0
 11
190.1191159999997
 21
137.7895640134925
 31
0.0
  0
INSERT
  5
7CDE
330
7CD9
100
AcDbEntity
  8
寸法
 62
     0
370
    -2
100
AcDbBlockReference
  2
_DOT
 10
180.1191159999997
 20
137.7895640134925
 30
0.0
 41
2.0
 42
2.0
 43
2.0
 50
180.0
  0
INSERT
  5
7CDF
330
7CD9
100
AcDbEntity
  8
寸法
 62
     0
370
    -2
100
AcDbBlockReference
  2
_DOT
 10
192.1191159999997
 20
137.7895640134925
 30
0.0
 41
2.0
 42
2.0
 43
2.0
  0
MTEXT
  5
7CE0
330
7CD9
100
AcDbEntity
  8
寸法
 62
     0
100
AcDbMText
 10
186.1191159999997
 20
145.2895640134925
 30
0.0
 40
5.0
 41
0.0
 46
0.0
 71
     5
 72
     1
  1
\A1;12
  7
ＭＳ ゴシック
 73
     1
 44
1.0
  0
POINT
  5
7CE1
330
7CD9
100
AcDbEntity
  8
Defpoints
 62
     0
100
AcDbPoint
 10
180.1191159999997
 20
163.3521641739133
 30
0.0
  0
POINT
  5
7CE2
330
7CD9
100
AcDbEntity
  8
Defpoints
 62
     0
100
AcDbPoint
 10
192.1191159999997
 20
163.3521641739133
 30
0.0
  0
POINT
  5
7CE3
330
7CD9
100
AcDbEntity
  8
Defpoints
 62
     0
100
AcDbPoint
 10
192.1191159999997
 20
137.7895640134925
 30
0.0
  0
ENDBLK
  5
7CE4
330
7CD9
100
AcDbEntity
  8
0
100
AcDbBlockEnd
  0
BLOCK
  5
7CF2
330
7CF1
100
AcDbEntity
  8
0
100
AcDbBlockBegin
  2
*D15
 70
     1
 10
0.0
 20
0.0
 30
0.0
  3
*D15
  1

  0
LINE
  5
7CF3
330
7CF1
100
AcDbEntity
  8
寸法
 62
     0
370
    -2
100
AcDbLine
 10
168.1191159999997
 20
346.9401771613182
 30
0.0
 11
168.1191159999997
 21
360.2455977256454
 31
0.0
  0
LINE
  5
7CF4
330
7CF1
100
AcDbEntity
  8
寸法
 62
     0
370
    -2
100
AcDbLine
 10
272.1191159999997
 20
346.9401771613182
 30
0.0
 11
272.1191159999997
 21
360.2455977256454
 31
0.0
  0
LINE
  5
7CF5
330
7CF1
100
AcDbEntity
  8
寸法
 62
     0
370
    -2
100
AcDbLine
 10
170.1191159999997
 20
360.2455977256454
 30
0.0
 11
270.1191159999997
 21
360.2455977256454
 31
0.0
  0
INSERT
  5
7CF6
330
7CF1
100
AcDbEntity
  8
寸法
 62
     0
370
    -2
100
AcDbBlockReference
  2
_DOT
 10
168.1191159999997
 20
360.2455977256454
 30
0.0
 41
2.0
 42
2.0
 43
2.0
 50
180.0
  0
INSERT
  5
7CF7
330
7CF1
100
AcDbEntity
  8
寸法
 62
     0
370
    -2
100
AcDbBlockReference
  2
_DOT
 10
272.1191159999997
 20
360.2455977256454
 30
0.0
 41
2.0
 42
2.0
 43
2.0
  0
MTEXT
  5
7CF8
330
7CF1
100
AcDbEntity
  8
寸法
 62
     0
100
AcDbMText
 10
220.1191159999997
 20
367.7455977256454
 30
0.0
 40
5.0
 41
0.0
 46
0.0
 71
     5
 72
     1
  1
\A1;104
  7
ＭＳ ゴシック
 73
     1
 44
1.0
  0
POINT
  5
7CF9
330
7CF1
100
AcDbEntity
  8
Defpoints
 62
     0
100
AcDbPoint
 10
168.1191159999997
 20
341.9401771613182
 30
0.0
  0
POINT
  5
7CFA
330
7CF1
100
AcDbEntity
  8
Defpoints
 62
     0
100
AcDbPoint
 10
272.1191159999997
 20
341.9401771613182
 30
0.0
  0
POINT
  5
7CFB
330
7CF1
100
AcDbEntity
  8
Defpoints
 62
     0
100
AcDbPoint
 10
272.1191159999997
 20
360.2455977256454
 30
0.0
  0
ENDBLK
  5
7CFC
330
7CF1
100
AcDbEntity
  8
0
100
AcDbBlockEnd
  0
BLOCK
  5
7EB4
330
7EB3
100
AcDbEntity
  8
0
100
AcDbBlockBegin
  2
*D16
 70
     1
 10
0.0
 20
0.0
 30
0.0
  3
*D16
  1

  0
LINE
  5
7EB5
330
7EB3
100
AcDbEntity
  8
寸法
 62
     0
370
    -2
100
AcDbLine
 10
175.1191159999997
 20
166.9124786086959
 30
0.0
 11
147.4658626980958
 21
166.9124786086959
 31
0.0
  0
LINE
  5
7EB6
330
7EB3
100
AcDbEntity
  8
寸法
 62
     0
370
    -2
100
AcDbLine
 10
175.1191159999997
 20
194.4272810868171
 30
0.0
 11
147.4658626980958
 21
194.4272810868171
 31
0.0
  0
LINE
  5
7EB7
330
7EB3
100
AcDbEntity
  8
寸法
 62
     0
370
    -2
100
AcDbLine
 10
147.4658626980958
 20
168.9124786086959
 30
0.0
 11
147.4658626980958
 21
192.4272810868171
 31
0.0
  0
INSERT
  5
7EB8
330
7EB3
100
AcDbEntity
  8
寸法
 62
     0
370
    -2
100
AcDbBlockReference
  2
_DOT
 10
147.4658626980958
 20
166.9124786086959
 30
0.0
 41
2.0
 42
2.0
 43
2.0
 50
270.0
  0
INSERT
  5
7EB9
330
7EB3
100
AcDbEntity
  8
寸法
 62
     0
370
    -2
100
AcDbBlockReference
  2
_DOT
 10
147.4658626980958
 20
194.4272810868171
 30
0.0
 41
2.0
 42
2.0
 43
2.0
 50
90.0
  0
MTEXT
  5
7EBA
330
7EB3
100
AcDbEntity
  8
寸法
 62
     0
100
AcDbMText
 10
139.9658626980958
 20
180.6698798477565
 30
0.0
 40
5.0
 41
0.0
 46
0.0
 71
     5
 72
     1
  1
\A1;28
  7
ＭＳ ゴシック
 11
0.0
 21
1.0
 31
0.0
 73
     1
 44
1.0
  0
POINT
  5
7EBB
330
7EB3
100
AcDbEntity
  8
Defpoints
 62
     0
100
AcDbPoint
 10
180.1191159999997
 20
166.9124786086959
 30
0.0
  0
POINT
  5
7EBC
330
7EB3
100
AcDbEntity
  8
Defpoints
 62
     0
100
AcDbPoint
 10
180.1191159999997
 20
194.4272810868171
 30
0.0
  0
POINT
  5
7EBD
330
7EB3
100
AcDbEntity
  8
Defpoints
 62
     0
100
AcDbPoint
 10
147.4658626980958
 20
194.4272810868171
 30
0.0
  0
ENDBLK
  5
7EBE
330
7EB3
100
AcDbEntity
  8
0
100
AcDbBlockEnd
  0
BLOCK
  5
7EC6
330
7EC5
100
AcDbEntity
  8
0
100
AcDbBlockBegin
  2
*D17
 70
     1
 10
0.0
 20
0.0
 30
0.0
  3
*D17
  1

  0
LINE
  5
7EC7
330
7EC5
100
AcDbEntity
  8
寸法
 62
     0
370
    -2
100
AcDbLine
 10
175.1191159999997
 20
194.4272810868171
 30
0.0
 11
147.4658626980958
 21
194.4272810868171
 31
0.0
  0
LINE
  5
7EC8
330
7EC5
100
AcDbEntity
  8
寸法
 62
     0
370
    -2
100
AcDbLine
 10
181.1191159999997
 20
221.9420835649384
 30
0.0
 11
147.4658626980958
 21
221.9420835649384
 31
0.0
  0
LINE
  5
7EC9
330
7EC5
100
AcDbEntity
  8
寸法
 62
     0
370
    -2
100
AcDbLine
 10
147.4658626980958
 20
196.4272810868171
 30
0.0
 11
147.4658626980958
 21
219.9420835649384
 31
0.0
  0
INSERT
  5
7ECA
330
7EC5
100
AcDbEntity
  8
寸法
 62
     0
370
    -2
100
AcDbBlockReference
  2
_DOT
 10
147.4658626980958
 20
194.4272810868171
 30
0.0
 41
2.0
 42
2.0
 43
2.0
 50
270.0
  0
INSERT
  5
7ECB
330
7EC5
100
AcDbEntity
  8
寸法
 62
     0
370
    -2
100
AcDbBlockReference
  2
_DOT
 10
147.4658626980958
 20
221.9420835649384
 30
0.0
 41
2.0
 42
2.0
 43
2.0
 50
90.0
  0
MTEXT
  5
7ECC
330
7EC5
100
AcDbEntity
  8
寸法
 62
     0
100
AcDbMText
 10
139.9658626980958
 20
208.1846823258778
 30
0.0
 40
5.0
 41
0.0
 46
0.0
 71
     5
 72
     1
  1
\A1;28
  7
ＭＳ ゴシック
 11
0.0
 21
1.0
 31
0.0
 73
     1
 44
1.0
  0
POINT
  5
7ECD
330
7EC5
100
AcDbEntity
  8
Defpoints
 62
     0
100
AcDbPoint
 10
180.1191159999997
 20
194.4272810868171
 30
0.0
  0
POINT
  5
7ECE
330
7EC5
100
AcDbEntity
  8
Defpoints
 62
     0
100
AcDbPoint
 10
186.1191159999997
 20
221.9420835649384
 30
0.0
  0
POINT
  5
7ECF
330
7EC5
100
AcDbEntity
  8
Defpoints
 62
     0
100
AcDbPoint
 10
147.4658626980958
 20
221.9420835649384
 30
0.0
  0
ENDBLK
  5
7ED0
330
7EC5
100
AcDbEntity
  8
0
100
AcDbBlockEnd
  0
BLOCK
  5
7ED5
330
7ED4
100
AcDbEntity
  8
0
100
AcDbBlockBegin
  2
*D18
 70
     1
 10
0.0
 20
0.0
 30
0.0
  3
*D18
  1

  0
LINE
  5
7ED6
330
7ED4
100
AcDbEntity
  8
寸法
 62
     0
370
    -2
100
AcDbLine
 10
181.1191159999997
 20
221.9420835649384
 30
0.0
 11
147.4658626980958
 21
221.9420835649384
 31
0.0
  0
LINE
  5
7ED7
330
7ED4
100
AcDbEntity
  8
寸法
 62
     0
370
    -2
100
AcDbLine
 10
175.1191159999997
 20
249.4568860430597
 30
0.0
 11
147.4658626980958
 21
249.4568860430597
 31
0.0
  0
LINE
  5
7ED8
330
7ED4
100
AcDbEntity
  8
寸法
 62
     0
370
    -2
100
AcDbLine
 10
147.4658626980958
 20
223.9420835649384
 30
0.0
 11
147.4658626980958
 21
247.4568860430597
 31
0.0
  0
INSERT
  5
7ED9
330
7ED4
100
AcDbEntity
  8
寸法
 62
     0
370
    -2
100
AcDbBlockReference
  2
_DOT
 10
147.4658626980958
 20
221.9420835649384
 30
0.0
 41
2.0
 42
2.0
 43
2.0
 50
270.0
  0
INSERT
  5
7EDA
330
7ED4
100
AcDbEntity
  8
寸法
 62
     0
370
    -2
100
AcDbBlockReference
  2
_DOT
 10
147.4658626980958
 20
249.4568860430597
 30
0.0
 41
2.0
 42
2.0
 43
2.0
 50
90.0
  0
MTEXT
  5
7EDB
330
7ED4
100
AcDbEntity
  8
寸法
 62
     0
100
AcDbMText
 10
139.9658626980958
 20
235.6994848039991
 30
0.0
 40
5.0
 41
0.0
 46
0.0
 71
     5
 72
     1
  1
\A1;28
  7
ＭＳ ゴシック
 11
0.0
 21
1.0
 31
0.0
 73
     1
 44
1.0
  0
POINT
  5
7EDC
330
7ED4
100
AcDbEntity
  8
Defpoints
 62
     0
100
AcDbPoint
 10
186.1191159999997
 20
221.9420835649384
 30
0.0
  0
POINT
  5
7EDD
330
7ED4
100
AcDbEntity
  8
Defpoints
 62
     0
100
AcDbPoint
 10
180.1191159999997
 20
249.4568860430597
 30
0.0
  0
POINT
  5
7EDE
330
7ED4
100
AcDbEntity
  8
Defpoints
 62
     0
100
AcDbPoint
 10
147.4658626980958
 20
249.4568860430597
 30
0.0
  0
ENDBLK
  5
7EDF
330
7ED4
100
AcDbEntity
  8
0
100
AcDbBlockEnd
  0
BLOCK
  5
7F21
330
7F20
100
AcDbEntity
  8
0
100
AcDbBlockBegin
  2
*D19
 70
     1
 10
0.0
 20
0.0
 30
0.0
  3
*D19
  1

  0
LINE
  5
7F22
330
7F20
100
AcDbEntity
  8
寸法
 62
     0
370
    -2
100
AcDbLine
 10
186.1191159999997
 20
226.9420835649384
 30
0.0
 11
186.1191159999997
 21
273.5392672482749
 31
0.0
  0
LINE
  5
7F23
330
7F20
100
AcDbEntity
  8
寸法
 62
     0
370
    -2
100
AcDbLine
 10
168.1191159999997
 20
254.4568860430597
 30
0.0
 11
168.1191159999997
 21
273.5392672482749
 31
0.0
  0
LINE
  5
7F24
330
7F20
100
AcDbEntity
  8
寸法
 62
     0
370
    -2
100
AcDbLine
 10
184.1191159999997
 20
273.5392672482749
 30
0.0
 11
170.1191159999997
 21
273.5392672482749
 31
0.0
  0
INSERT
  5
7F25
330
7F20
100
AcDbEntity
  8
寸法
 62
     0
370
    -2
100
AcDbBlockReference
  2
_DOT
 10
186.1191159999997
 20
273.5392672482749
 30
0.0
 41
2.0
 42
2.0
 43
2.0
  0
INSERT
  5
7F26
330
7F20
100
AcDbEntity
  8
寸法
 62
     0
370
    -2
100
AcDbBlockReference
  2
_DOT
 10
168.1191159999997
 20
273.5392672482749
 30
0.0
 41
2.0
 42
2.0
 43
2.0
 50
180.0
  0
MTEXT
  5
7F27
330
7F20
100
AcDbEntity
  8
寸法
 62
     0
100
AcDbMText
 10
177.1191159999997
 20
281.0392672482749
 30
0.0
 40
5.0
 41
0.0
 46
0.0
 71
     5
 72
     1
  1
\A1;18
  7
ＭＳ ゴシック
 73
     1
 44
1.0
  0
POINT
  5
7F28
330
7F20
100
AcDbEntity
  8
Defpoints
 62
     0
100
AcDbPoint
 10
186.1191159999997
 20
221.9420835649384
 30
0.0
  0
POINT
  5
7F29
330
7F20
100
AcDbEntity
  8
Defpoints
 62
     0
100
AcDbPoint
 10
168.1191159999997
 20
249.4568860430597
 30
0.0
  0
POINT
  5
7F2A
330
7F20
100
AcDbEntity
  8
Defpoints
 62
     0
100
AcDbPoint
 10
168.1191159999997
 20
273.5392672482749
 30
0.0
  0
ENDBLK
  5
7F2B
330
7F20
100
AcDbEntity
  8
0
100
AcDbBlockEnd
  0
BLOCK
  5
7F30
330
7F2F
100
AcDbEntity
  8
0
100
AcDbBlockBegin
  2
*D20
 70
     1
 10
0.0
 20
0.0
 30
0.0
  3
*D20
  1

  0
LINE
  5
7F31
330
7F2F
100
AcDbEntity
  8
寸法
 62
     0
370
    -2
100
AcDbLine
 10
175.1191159999997
 20
249.4568860430597
 30
0.0
 11
147.4658626980958
 21
249.4568860430597
 31
0.0
  0
LINE
  5
7F32
330
7F2F
100
AcDbEntity
  8
寸法
 62
     0
370
    -2
100
AcDbLine
 10
175.1191159999997
 20
262.4568860430597
 30
0.0
 11
147.4658626980958
 21
262.4568860430597
 31
0.0
  0
LINE
  5
7F33
330
7F2F
100
AcDbEntity
  8
寸法
 62
     0
370
    -2
100
AcDbLine
 10
147.4658626980958
 20
251.4568860430597
 30
0.0
 11
147.4658626980958
 21
260.4568860430597
 31
0.0
  0
INSERT
  5
7F34
330
7F2F
100
AcDbEntity
  8
寸法
 62
     0
370
    -2
100
AcDbBlockReference
  2
_DOT
 10
147.4658626980958
 20
249.4568860430597
 30
0.0
 41
2.0
 42
2.0
 43
2.0
 50
270.0
  0
INSERT
  5
7F35
330
7F2F
100
AcDbEntity
  8
寸法
 62
     0
370
    -2
100
AcDbBlockReference
  2
_DOT
 10
147.4658626980958
 20
262.4568860430597
 30
0.0
 41
2.0
 42
2.0
 43
2.0
 50
90.0
  0
MTEXT
  5
7F36
330
7F2F
100
AcDbEntity
  8
寸法
 62
     0
100
AcDbMText
 10
139.9658626980957
 20
255.4568860430597
 30
0.0
 40
5.0
 41
0.0
 46
0.0
 71
     5
 72
     1
  1
\A1;13
  7
ＭＳ ゴシック
 11
0.0
 21
1.0
 31
0.0
 73
     1
 44
1.0
  0
POINT
  5
7F37
330
7F2F
100
AcDbEntity
  8
Defpoints
 62
     0
100
AcDbPoint
 10
180.1191159999997
 20
249.4568860430597
 30
0.0
  0
POINT
  5
7F38
330
7F2F
100
AcDbEntity
  8
Defpoints
 62
     0
100
AcDbPoint
 10
180.1191159999997
 20
262.4568860430597
 30
0.0
  0
POINT
  5
7F39
330
7F2F
100
AcDbEntity
  8
Defpoints
 62
     0
100
AcDbPoint
 10
147.4658626980958
 20
262.4568860430597
 30
0.0
  0
ENDBLK
  5
7F3A
330
7F2F
100
AcDbEntity
  8
0
100
AcDbBlockEnd
  0
BLOCK
  5
7F3D
330
7F3C
100
AcDbEntity
  8
0
100
AcDbBlockBegin
  2
*D21
 70
     1
 10
0.0
 20
0.0
 30
0.0
  3
*D21
  1

  0
LINE
  5
7F3E
330
7F3C
100
AcDbEntity
  8
寸法
 62
     0
370
    -2
100
AcDbLine
 10
234.5285184347823
 20
269.9124786086959
 30
0.0
 11
305.3684831213151
 21
269.9124786086959
 31
0.0
  0
LINE
  5
7F3F
330
7F3C
100
AcDbEntity
  8
寸法
 62
     0
370
    -2
100
AcDbLine
 10
234.5285184347822
 20
147.9124786086959
 30
0.0
 11
305.3684831213151
 21
147.9124786086959
 31
0.0
  0
LINE
  5
7F40
330
7F3C
100
AcDbEntity
  8
寸法
 62
     0
370
    -2
100
AcDbLine
 10
305.3684831213151
 20
267.9124786086959
 30
0.0
 11
305.3684831213151
 21
149.9124786086959
 31
0.0
  0
INSERT
  5
7F41
330
7F3C
100
AcDbEntity
  8
寸法
 62
     0
370
    -2
100
AcDbBlockReference
  2
_DOT
 10
305.3684831213151
 20
269.9124786086959
 30
0.0
 41
2.0
 42
2.0
 43
2.0
 50
90.0
  0
INSERT
  5
7F42
330
7F3C
100
AcDbEntity
  8
寸法
 62
     0
370
    -2
100
AcDbBlockReference
  2
_DOT
 10
305.3684831213151
 20
147.9124786086959
 30
0.0
 41
2.0
 42
2.0
 43
2.0
 50
270.0
  0
MTEXT
  5
7F43
330
7F3C
100
AcDbEntity
  8
寸法
 62
     0
100
AcDbMText
 10
297.8684831213151
 20
208.9124786086959
 30
0.0
 40
5.0
 41
0.0
 46
0.0
 71
     5
 72
     1
  1
\A1;122
  7
ＭＳ ゴシック
 11
0.0
 21
1.0
 31
0.0
 73
     1
 44
1.0
  0
POINT
  5
7F44
330
7F3C
100
AcDbEntity
  8
Defpoints
 62
     0
100
AcDbPoint
 10
229.5285184347823
 20
269.9124786086959
 30
0.0
  0
POINT
  5
7F45
330
7F3C
100
AcDbEntity
  8
Defpoints
 62
     0
100
AcDbPoint
 10
229.5285184347822
 20
147.9124786086959
 30
0.0
  0
POINT
  5
7F46
330
7F3C
100
AcDbEntity
  8
Defpoints
 62
     0
100
AcDbPoint
 10
305.3684831213151
 20
147.9124786086959
 30
0.0
  0
ENDBLK
  5
7F47
330
7F3C
100
AcDbEntity
  8
0
100
AcDbBlockEnd
  0
BLOCK
  5
7F4A
330
7F49
100
AcDbEntity
  8
0
100
AcDbBlockBegin
  2
*D22
 70
     1
 10
0.0
 20
0.0
 30
0.0
  3
*D22
  1

  0
LINE
  5
7F4B
330
7F49
100
AcDbEntity
  8
寸法
 62
     0
370
    -2
100
AcDbLine
 10
180.1191159999997
 20
158.3521641739133
 30
0.0
 11
180.1191159999997
 21
137.7895640134925
 31
0.0
  0
LINE
  5
7F4C
330
7F49
100
AcDbEntity
  8
寸法
 62
     0
370
    -2
100
AcDbLine
 10
168.1191159999997
 20
158.3521641739133
 30
0.0
 11
168.1191159999997
 21
137.7895640134925
 31
0.0
  0
LINE
  5
7F4D
330
7F49
100
AcDbEntity
  8
寸法
 62
     0
370
    -2
100
AcDbLine
 10
178.1191159999997
 20
137.7895640134925
 30
0.0
 11
170.1191159999997
 21
137.7895640134925
 31
0.0
  0
INSERT
  5
7F4E
330
7F49
100
AcDbEntity
  8
寸法
 62
     0
370
    -2
100
AcDbBlockReference
  2
_DOT
 10
180.1191159999997
 20
137.7895640134925
 30
0.0
 41
2.0
 42
2.0
 43
2.0
  0
INSERT
  5
7F4F
330
7F49
100
AcDbEntity
  8
寸法
 62
     0
370
    -2
100
AcDbBlockReference
  2
_DOT
 10
168.1191159999997
 20
137.7895640134925
 30
0.0
 41
2.0
 42
2.0
 43
2.0
 50
180.0
  0
MTEXT
  5
7F50
330
7F49
100
AcDbEntity
  8
寸法
 62
     0
100
AcDbMText
 10
174.1191159999997
 20
145.2895640134925
 30
0.0
 40
5.0
 41
0.0
 46
0.0
 71
     5
 72
     1
  1
\A1;12
  7
ＭＳ ゴシック
 73
     1
 44
1.0
  0
POINT
  5
7F51
330
7F49
100
AcDbEntity
  8
Defpoints
 62
     0
100
AcDbPoint
 10
180.1191159999997
 20
163.3521641739133
 30
0.0
  0
POINT
  5
7F52
330
7F49
100
AcDbEntity
  8
Defpoints
 62
     0
100
AcDbPoint
 10
168.1191159999997
 20
163.3521641739133
 30
0.0
  0
POINT
  5
7F53
330
7F49
100
AcDbEntity
  8
Defpoints
 62
     0
100
AcDbPoint
 10
168.1191159999997
 20
137.7895640134925
 30
0.0
  0
ENDBLK
  5
7F54
330
7F49
100
AcDbEntity
  8
0
100
AcDbBlockEnd
  0
BLOCK
  5
7F59
330
7F58
100
AcDbEntity
  8
0
100
AcDbBlockBegin
  2
*D23
 70
     1
 10
0.0
 20
0.0
 30
0.0
  3
*D23
  1

  0
LINE
  5
7F5A
330
7F58
100
AcDbEntity
  8
寸法
 62
     0
370
    -2
100
AcDbLine
 10
180.1191159999997
 20
158.3521641739133
 30
0.0
 11
180.1191159999997
 21
137.7895640134925
 31
0.0
  0
LINE
  5
7F5B
330
7F58
100
AcDbEntity
  8
寸法
 62
     0
370
    -2
100
AcDbLine
 10
192.1191159999997
 20
158.3521641739133
 30
0.0
 11
192.1191159999997
 21
137.7895640134925
 31
0.0
  0
LINE
  5
7F5C
330
7F58
100
AcDbEntity
  8
寸法
 62
     0
370
    -2
100
AcDbLine
 10
182.1191159999997
 20
137.7895640134925
 30
0.0
 11
190.1191159999997
 21
137.7895640134925
 31
0.0
  0
INSERT
  5
7F5D
330
7F58
100
AcDbEntity
  8
寸法
 62
     0
370
    -2
100
AcDbBlockReference
  2
_DOT
 10
180.1191159999997
 20
137.7895640134925
 30
0.0
 41
2.0
 42
2.0
 43
2.0
 50
180.0
  0
INSERT
  5
7F5E
330
7F58
100
AcDbEntity
  8
寸法
 62
     0
370
    -2
100
AcDbBlockReference
  2
_DOT
 10
192.1191159999997
 20
137.7895640134925
 30
0.0
 41
2.0
 42
2.0
 43
2.0
  0
MTEXT
  5
7F5F
330
7F58
100
AcDbEntity
  8
寸法
 62
     0
100
AcDbMText
 10
186.1191159999997
 20
145.2895640134925
 30
0.0
 40
5.0
 41
0.0
 46
0.0
 71
     5
 72
     1
  1
\A1;12
  7
ＭＳ ゴシック
 73
     1
 44
1.0
  0
POINT
  5
7F60
330
7F58
100
AcDbEntity
  8
Defpoints
 62
     0
100
AcDbPoint
 10
180.1191159999997
 20
163.3521641739133
 30
0.0
  0
POINT
  5
7F61
330
7F58
100
AcDbEntity
  8
Defpoints
 62
     0
100
AcDbPoint
 10
192.1191159999997
 20
163.3521641739133
 30
0.0
  0
POINT
  5
7F62
330
7F58
100
AcDbEntity
  8
Defpoints
 62
     0
100
AcDbPoint
 10
192.1191159999997
 20
137.7895640134925
 30
0.0
  0
ENDBLK
  5
7F63
330
7F58
100
AcDbEntity
  8
0
100
AcDbBlockEnd
  0
BLOCK
  5
7F67
330
7F66
100
AcDbEntity
  8
0
100
AcDbBlockBegin
  2
*D24
 70
     1
 10
0.0
 20
0.0
 30
0.0
  3
*D24
  1

  0
LINE
  5
7F69
330
7F66
100
AcDbEntity
  8
寸法
 62
     0
370
    -2
100
AcDbLine
 10
37.65325330190407
 20
30.12291459520338
 30
0.0
 11
10.00000000000017
 21
30.12291459520339
 31
0.0
  0
LINE
  5
7F6A
330
7F66
100
AcDbEntity
  8
寸法
 62
     0
370
    -2
100
AcDbLine
 10
37.65325330190407
 20
57.63771707332458
 30
0.0
 11
10.00000000000017
 21
57.63771707332458
 31
0.0
  0
LINE
  5
7F6B
330
7F66
100
AcDbEntity
  8
寸法
 62
     0
370
    -2
100
AcDbLine
 10
10.00000000000017
 20
32.12291459520338
 30
0.0
 11
10.00000000000017
 21
55.63771707332458
 31
0.0
  0
INSERT
  5
7F6C
330
7F66
100
AcDbEntity
  8
寸法
 62
     0
370
    -2
100
AcDbBlockReference
  2
_DOT
 10
10.00000000000017
 20
30.12291459520339
 30
0.0
 41
2.0
 42
2.0
 43
2.0
 50
270.0
  0
INSERT
  5
7F6D
330
7F66
100
AcDbEntity
  8
寸法
 62
     0
370
    -2
100
AcDbBlockReference
  2
_DOT
 10
10.00000000000017
 20
57.63771707332458
 30
0.0
 41
2.0
 42
2.0
 43
2.0
 50
90.0
  0
MTEXT
  5
7F6E
330
7F66
100
AcDbEntity
  8
寸法
 62
     0
100
AcDbMText
 10
2.500000000000171
 20
43.88031583426398
 30
0.0
 40
5.0
 41
0.0
 46
0.0
 71
     5
 72
     1
  1
\A1;28
  7
ＭＳ ゴシック
 11
6.456004330079227E-17
 21
1.0
 31
0.0
 73
     1
 44
1.0
  0
POINT
  5
7F6F
330
7F66
100
AcDbEntity
  8
Defpoints
 62
     0
100
AcDbPoint
 10
42.65325330190407
 20
30.12291459520338
 30
0.0
  0
POINT
  5
7F70
330
7F66
100
AcDbEntity
  8
Defpoints
 62
     0
100
AcDbPoint
 10
42.65325330190407
 20
57.63771707332458
 30
0.0
  0
POINT
  5
7F71
330
7F66
100
AcDbEntity
  8
Defpoints
 62
     0
100
AcDbPoint
 10
10.00000000000017
 20
57.63771707332458
 30
0.0
  0
ENDBLK
  5
7F68
330
7F66
100
AcDbEntity
  8
0
100
AcDbBlockEnd
  0
BLOCK
  5
7F73
330
7F72
100
AcDbEntity
  8
0
100
AcDbBlockBegin
  2
*D25
 70
     1
 10
0.0
 20
0.0
 30
0.0
  3
*D25
  1

  0
LINE
  5
7F75
330
7F72
100
AcDbEntity
  8
寸法
 62
     0
370
    -2
100
AcDbLine
 10
37.65325330190407
 20
57.63771707332458
 30
0.0
 11
10.00000000000017
 21
57.63771707332458
 31
0.0
  0
LINE
  5
7F76
330
7F72
100
AcDbEntity
  8
寸法
 62
     0
370
    -2
100
AcDbLine
 10
43.65325330190407
 20
85.15251955144589
 30
0.0
 11
10.00000000000017
 21
85.15251955144589
 31
0.0
  0
LINE
  5
7F77
330
7F72
100
AcDbEntity
  8
寸法
 62
     0
370
    -2
100
AcDbLine
 10
10.00000000000017
 20
59.63771707332458
 30
0.0
 11
10.00000000000017
 21
83.15251955144589
 31
0.0
  0
INSERT
  5
7F78
330
7F72
100
AcDbEntity
  8
寸法
 62
     0
370
    -2
100
AcDbBlockReference
  2
_DOT
 10
10.00000000000017
 20
57.63771707332458
 30
0.0
 41
2.0
 42
2.0
 43
2.0
 50
270.0
  0
INSERT
  5
7F79
330
7F72
100
AcDbEntity
  8
寸法
 62
     0
370
    -2
100
AcDbBlockReference
  2
_DOT
 10
10.00000000000017
 20
85.15251955144589
 30
0.0
 41
2.0
 42
2.0
 43
2.0
 50
90.0
  0
MTEXT
  5
7F7A
330
7F72
100
AcDbEntity
  8
寸法
 62
     0
100
AcDbMText
 10
2.500000000000171
 20
71.39511831238524
 30
0.0
 40
5.0
 41
0.0
 46
0.0
 71
     5
 72
     1
  1
\A1;28
  7
ＭＳ ゴシック
 11
6.456004330079198E-17
 21
1.0
 31
0.0
 73
     1
 44
1.0
  0
POINT
  5
7F7B
330
7F72
100
AcDbEntity
  8
Defpoints
 62
     0
100
AcDbPoint
 10
42.65325330190407
 20
57.63771707332458
 30
0.0
  0
POINT
  5
7F7C
330
7F72
100
AcDbEntity
  8
Defpoints
 62
     0
100
AcDbPoint
 10
48.65325330190407
 20
85.15251955144589
 30
0.0
  0
POINT
  5
7F7D
330
7F72
100
AcDbEntity
  8
Defpoints
 62
     0
100
AcDbPoint
 10
10.00000000000017
 20
85.15251955144589
 30
0.0
  0
ENDBLK
  5
7F74
330
7F72
100
AcDbEntity
  8
0
100
AcDbBlockEnd
  0
BLOCK
  5
7F7F
330
7F7E
100
AcDbEntity
  8
0
100
AcDbBlockBegin
  2
*D26
 70
     1
 10
0.0
 20
0.0
 30
0.0
  3
*D26
  1

  0
LINE
  5
7F81
330
7F7E
100
AcDbEntity
  8
寸法
 62
     0
370
    -2
100
AcDbLine
 10
43.65325330190407
 20
85.15251955144589
 30
0.0
 11
10.00000000000017
 21
85.15251955144589
 31
0.0
  0
LINE
  5
7F82
330
7F7E
100
AcDbEntity
  8
寸法
 62
     0
370
    -2
100
AcDbLine
 10
37.65325330190407
 20
112.6673220295672
 30
0.0
 11
10.00000000000017
 21
112.6673220295672
 31
0.0
  0
LINE
  5
7F83
330
7F7E
100
AcDbEntity
  8
寸法
 62
     0
370
    -2
100
AcDbLine
 10
10.00000000000017
 20
87.15251955144589
 30
0.0
 11
10.00000000000017
 21
110.6673220295672
 31
0.0
  0
INSERT
  5
7F84
330
7F7E
100
AcDbEntity
  8
寸法
 62
     0
370
    -2
100
AcDbBlockReference
  2
_DOT
 10
10.00000000000017
 20
85.15251955144589
 30
0.0
 41
2.0
 42
2.0
 43
2.0
 50
270.0
  0
INSERT
  5
7F85
330
7F7E
100
AcDbEntity
  8
寸法
 62
     0
370
    -2
100
AcDbBlockReference
  2
_DOT
 10
10.00000000000017
 20
112.6673220295672
 30
0.0
 41
2.0
 42
2.0
 43
2.0
 50
90.0
  0
MTEXT
  5
7F86
330
7F7E
100
AcDbEntity
  8
寸法
 62
     0
100
AcDbMText
 10
2.500000000000171
 20
98.90992079050655
 30
0.0
 40
5.0
 41
0.0
 46
0.0
 71
     5
 72
     1
  1
\A1;28
  7
ＭＳ ゴシック
 11
6.456004330079198E-17
 21
1.0
 31
0.0
 73
     1
 44
1.0
  0
POINT
  5
7F87
330
7F7E
100
AcDbEntity
  8
Defpoints
 62
     0
100
AcDbPoint
 10
48.65325330190407
 20
85.15251955144589
 30
0.0
  0
POINT
  5
7F88
330
7F7E
100
AcDbEntity
  8
Defpoints
 62
     0
100
AcDbPoint
 10
42.65325330190407
 20
112.6673220295672
 30
0.0
  0
POINT
  5
7F89
330
7F7E
100
AcDbEntity
  8
Defpoints
 62
     0
100
AcDbPoint
 10
10.00000000000017
 20
112.6673220295672
 30
0.0
  0
ENDBLK
  5
7F80
330
7F7E
100
AcDbEntity
  8
0
100
AcDbBlockEnd
  0
BLOCK
  5
7F8B
330
7F8A
100
AcDbEntity
  8
0
100
AcDbBlockBegin
  2
*D27
 70
     1
 10
0.0
 20
0.0
 30
0.0
  3
*D27
  1

  0
LINE
  5
7F8D
330
7F8A
100
AcDbEntity
  8
寸法
 62
     0
370
    -2
100
AcDbLine
 10
48.65325330190407
 20
90.15251955144589
 30
0.0
 11
48.65325330190407
 21
136.7497032347824
 31
0.0
  0
LINE
  5
7F8E
330
7F8A
100
AcDbEntity
  8
寸法
 62
     0
370
    -2
100
AcDbLine
 10
30.65325330190407
 20
117.6673220295672
 30
0.0
 11
30.65325330190407
 21
136.7497032347824
 31
0.0
  0
LINE
  5
7F8F
330
7F8A
100
AcDbEntity
  8
寸法
 62
     0
370
    -2
100
AcDbLine
 10
46.65325330190407
 20
136.7497032347824
 30
0.0
 11
32.65325330190407
 21
136.7497032347824
 31
0.0
  0
INSERT
  5
7F90
330
7F8A
100
AcDbEntity
  8
寸法
 62
     0
370
    -2
100
AcDbBlockReference
  2
_DOT
 10
48.65325330190407
 20
136.7497032347824
 30
0.0
 41
2.0
 42
2.0
 43
2.0
  0
INSERT
  5
7F91
330
7F8A
100
AcDbEntity
  8
寸法
 62
     0
370
    -2
100
AcDbBlockReference
  2
_DOT
 10
30.65325330190407
 20
136.7497032347824
 30
0.0
 41
2.0
 42
2.0
 43
2.0
 50
180.0
  0
MTEXT
  5
7F92
330
7F8A
100
AcDbEntity
  8
寸法
 62
     0
100
AcDbMText
 10
39.65325330190407
 20
144.2497032347824
 30
0.0
 40
5.0
 41
0.0
 46
0.0
 71
     5
 72
     1
  1
\A1;18
  7
ＭＳ ゴシック
 73
     1
 44
1.0
  0
POINT
  5
7F93
330
7F8A
100
AcDbEntity
  8
Defpoints
 62
     0
100
AcDbPoint
 10
48.65325330190407
 20
85.15251955144589
 30
0.0
  0
POINT
  5
7F94
330
7F8A
100
AcDbEntity
  8
Defpoints
 62
     0
100
AcDbPoint
 10
30.65325330190407
 20
112.6673220295672
 30
0.0
  0
POINT
  5
7F95
330
7F8A
100
AcDbEntity
  8
Defpoints
 62
     0
100
AcDbPoint
 10
30.65325330190407
 20
136.7497032347824
 30
0.0
  0
ENDBLK
  5
7F8C
330
7F8A
100
AcDbEntity
  8
0
100
AcDbBlockEnd
  0
BLOCK
  5
7F97
330
7F96
100
AcDbEntity
  8
0
100
AcDbBlockBegin
  2
*D28
 70
     1
 10
0.0
 20
0.0
 30
0.0
  3
*D28
  1

  0
LINE
  5
7F99
330
7F96
100
AcDbEntity
  8
寸法
 62
     0
370
    -2
100
AcDbLine
 10
37.65325330190407
 20
112.6673220295672
 30
0.0
 11
10.00000000000017
 21
112.6673220295672
 31
0.0
  0
LINE
  5
7F9A
330
7F96
100
AcDbEntity
  8
寸法
 62
     0
370
    -2
100
AcDbLine
 10
37.65325330190407
 20
125.6673220295672
 30
0.0
 11
10.00000000000017
 21
125.6673220295672
 31
0.0
  0
LINE
  5
7F9B
330
7F96
100
AcDbEntity
  8
寸法
 62
     0
370
    -2
100
AcDbLine
 10
10.00000000000017
 20
114.6673220295672
 30
0.0
 11
10.00000000000017
 21
123.6673220295672
 31
0.0
  0
INSERT
  5
7F9C
330
7F96
100
AcDbEntity
  8
寸法
 62
     0
370
    -2
100
AcDbBlockReference
  2
_DOT
 10
10.00000000000017
 20
112.6673220295672
 30
0.0
 41
2.0
 42
2.0
 43
2.0
 50
270.0
  0
INSERT
  5
7F9D
330
7F96
100
AcDbEntity
  8
寸法
 62
     0
370
    -2
100
AcDbBlockReference
  2
_DOT
 10
10.00000000000017
 20
125.6673220295672
 30
0.0
 41
2.0
 42
2.0
 43
2.0
 50
90.0
  0
MTEXT
  5
7F9E
330
7F96
100
AcDbEntity
  8
寸法
 62
     0
100
AcDbMText
 10
2.500000000000171
 20
118.6673220295672
 30
0.0
 40
5.0
 41
0.0
 46
0.0
 71
     5
 72
     1
  1
\A1;13
  7
ＭＳ ゴシック
 11
0.0
 21
1.0
 31
0.0
 73
     1
 44
1.0
  0
POINT
  5
7F9F
330
7F96
100
AcDbEntity
  8
Defpoints
 62
     0
100
AcDbPoint
 10
42.65325330190407
 20
112.6673220295672
 30
0.0
  0
POINT
  5
7FA0
330
7F96
100
AcDbEntity
  8
Defpoints
 62
     0
100
AcDbPoint
 10
42.65325330190407
 20
125.6673220295672
 30
0.0
  0
POINT
  5
7FA1
330
7F96
100
AcDbEntity
  8
Defpoints
 62
     0
100
AcDbPoint
 10
10.00000000000017
 20
125.6673220295672
 30
0.0
  0
ENDBLK
  5
7F98
330
7F96
100
AcDbEntity
  8
0
100
AcDbBlockEnd
  0
BLOCK
  5
7FA3
330
7FA2
100
AcDbEntity
  8
0
100
AcDbBlockBegin
  2
*D29
 70
     1
 10
0.0
 20
0.0
 30
0.0
  3
*D29
  1

  0
LINE
  5
7FA5
330
7FA2
100
AcDbEntity
  8
寸法
 62
     0
370
    -2
100
AcDbLine
 10
97.06265573668668
 20
133.1229145952034
 30
0.0
 11
167.9026204232194
 21
133.1229145952034
 31
0.0
  0
LINE
  5
7FA6
330
7FA2
100
AcDbEntity
  8
寸法
 62
     0
370
    -2
100
AcDbLine
 10
97.06265573668657
 20
11.12291459520338
 30
0.0
 11
167.9026204232194
 21
11.12291459520338
 31
0.0
  0
LINE
  5
7FA7
330
7FA2
100
AcDbEntity
  8
寸法
 62
     0
370
    -2
100
AcDbLine
 10
167.9026204232194
 20
131.1229145952034
 30
0.0
 11
167.9026204232194
 21
13.12291459520338
 31
0.0
  0
INSERT
  5
7FA8
330
7FA2
100
AcDbEntity
  8
寸法
 62
     0
370
    -2
100
AcDbBlockReference
  2
_DOT
 10
167.9026204232194
 20
133.1229145952034
 30
0.0
 41
2.0
 42
2.0
 43
2.0
 50
90.0
  0
INSERT
  5
7FA9
330
7FA2
100
AcDbEntity
  8
寸法
 62
     0
370
    -2
100
AcDbBlockReference
  2
_DOT
 10
167.9026204232194
 20
11.12291459520338
 30
0.0
 41
2.0
 42
2.0
 43
2.0
 50
270.0
  0
MTEXT
  5
7FAA
330
7FA2
100
AcDbEntity
  8
寸法
 62
     0
100
AcDbMText
 10
160.4026204232194
 20
72.12291459520338
 30
0.0
 40
5.0
 41
0.0
 46
0.0
 71
     5
 72
     1
  1
\A1;122
  7
ＭＳ ゴシック
 11
0.0
 21
1.0
 31
0.0
 73
     1
 44
1.0
  0
POINT
  5
7FAB
330
7FA2
100
AcDbEntity
  8
Defpoints
 62
     0
100
AcDbPoint
 10
92.06265573668668
 20
133.1229145952034
 30
0.0
  0
POINT
  5
7FAC
330
7FA2
100
AcDbEntity
  8
Defpoints
 62
     0
100
AcDbPoint
 10
92.06265573668657
 20
11.12291459520338
 30
0.0
  0
POINT
  5
7FAD
330
7FA2
100
AcDbEntity
  8
Defpoints
 62
     0
100
AcDbPoint
 10
167.9026204232194
 20
11.12291459520338
 30
0.0
  0
ENDBLK
  5
7FA4
330
7FA2
100
AcDbEntity
  8
0
100
AcDbBlockEnd
  0
BLOCK
  5
7FAF
330
7FAE
100
AcDbEntity
  8
0
100
AcDbBlockBegin
  2
*D30
 70
     1
 10
0.0
 20
0.0
 30
0.0
  3
*D30
  1

  0
LINE
  5
7FB1
330
7FAE
100
AcDbEntity
  8
寸法
 62
     0
370
    -2
100
AcDbLine
 10
42.65325330190407
 20
21.5626001604208
 30
0.0
 11
42.65325330190407
 21
1.0
 31
0.0
  0
LINE
  5
7FB2
330
7FAE
100
AcDbEntity
  8
寸法
 62
     0
370
    -2
100
AcDbLine
 10
30.65325330190407
 20
21.5626001604208
 30
0.0
 11
30.65325330190407
 21
1.0
 31
0.0
  0
LINE
  5
7FB3
330
7FAE
100
AcDbEntity
  8
寸法
 62
     0
370
    -2
100
AcDbLine
 10
40.65325330190407
 20
1.0
 30
0.0
 11
32.65325330190407
 21
1.0
 31
0.0
  0
INSERT
  5
7FB4
330
7FAE
100
AcDbEntity
  8
寸法
 62
     0
370
    -2
100
AcDbBlockReference
  2
_DOT
 10
42.65325330190407
 20
1.0
 30
0.0
 41
2.0
 42
2.0
 43
2.0
  0
INSERT
  5
7FB5
330
7FAE
100
AcDbEntity
  8
寸法
 62
     0
370
    -2
100
AcDbBlockReference
  2
_DOT
 10
30.65325330190407
 20
1.0
 30
0.0
 41
2.0
 42
2.0
 43
2.0
 50
180.0
  0
MTEXT
  5
7FB6
330
7FAE
100
AcDbEntity
  8
寸法
 62
     0
100
AcDbMText
 10
36.65325330190407
 20
8.5
 30
0.0
 40
5.0
 41
0.0
 46
0.0
 71
     5
 72
     1
  1
\A1;12
  7
ＭＳ ゴシック
 73
     1
 44
1.0
  0
POINT
  5
7FB7
330
7FAE
100
AcDbEntity
  8
Defpoints
 62
     0
100
AcDbPoint
 10
42.65325330190407
 20
26.5626001604208
 30
0.0
  0
POINT
  5
7FB8
330
7FAE
100
AcDbEntity
  8
Defpoints
 62
     0
100
AcDbPoint
 10
30.65325330190407
 20
26.5626001604208
 30
0.0
  0
POINT
  5
7FB9
330
7FAE
100
AcDbEntity
  8
Defpoints
 62
     0
100
AcDbPoint
 10
30.65325330190407
 20
1.0
 30
0.0
  0
ENDBLK
  5
7FB0
330
7FAE
100
AcDbEntity
  8
0
100
AcDbBlockEnd
  0
BLOCK
  5
7FBB
330
7FBA
100
AcDbEntity
  8
0
100
AcDbBlockBegin
  2
*D31
 70
     1
 10
0.0
 20
0.0
 30
0.0
  3
*D31
  1

  0
LINE
  5
7FBD
330
7FBA
100
AcDbEntity
  8
寸法
 62
     0
370
    -2
100
AcDbLine
 10
42.65325330190407
 20
21.5626001604208
 30
0.0
 11
42.65325330190407
 21
1.000000000000001
 31
0.0
  0
LINE
  5
7FBE
330
7FBA
100
AcDbEntity
  8
寸法
 62
     0
370
    -2
100
AcDbLine
 10
54.65325330190407
 20
21.5626001604208
 30
0.0
 11
54.65325330190407
 21
0.9999999999999992
 31
0.0
  0
LINE
  5
7FBF
330
7FBA
100
AcDbEntity
  8
寸法
 62
     0
370
    -2
100
AcDbLine
 10
44.65325330190407
 20
1.000000000000001
 30
0.0
 11
52.65325330190407
 21
0.9999999999999994
 31
0.0
  0
INSERT
  5
7FC0
330
7FBA
100
AcDbEntity
  8
寸法
 62
     0
370
    -2
100
AcDbBlockReference
  2
_DOT
 10
42.65325330190407
 20
1.000000000000001
 30
0.0
 41
2.0
 42
2.0
 43
2.0
 50
180.0
  0
INSERT
  5
7FC1
330
7FBA
100
AcDbEntity
  8
寸法
 62
     0
370
    -2
100
AcDbBlockReference
  2
_DOT
 10
54.65325330190407
 20
0.9999999999999992
 30
0.0
 41
2.0
 42
2.0
 43
2.0
 50
360.0
  0
MTEXT
  5
7FC2
330
7FBA
100
AcDbEntity
  8
寸法
 62
     0
100
AcDbMText
 10
48.65325330190407
 20
8.5
 30
0.0
 40
5.0
 41
0.0
 46
0.0
 71
     5
 72
     1
  1
\A1;12
  7
ＭＳ ゴシック
 73
     1
 44
1.0
  0
POINT
  5
7FC3
330
7FBA
100
AcDbEntity
  8
Defpoints
 62
     0
100
AcDbPoint
 10
42.65325330190407
 20
26.5626001604208
 30
0.0
  0
POINT
  5
7FC4
330
7FBA
100
AcDbEntity
  8
Defpoints
 62
     0
100
AcDbPoint
 10
54.65325330190407
 20
26.5626001604208
 30
0.0
  0
POINT
  5
7FC5
330
7FBA
100
AcDbEntity
  8
Defpoints
 62
     0
100
AcDbPoint
 10
54.65325330190407
 20
1.0
 30
0.0
  0
ENDBLK
  5
7FBC
330
7FBA
100
AcDbEntity
  8
0
100
AcDbBlockEnd
  0
BLOCK
  5
802A
330
8029
100
AcDbEntity
  8
0
100
AcDbBlockBegin
  2
*D32
 70
     1
 10
0.0
 20
0.0
 30
0.0
  3
*D32
  1

  0
LINE
  5
802C
330
8029
100
AcDbEntity
  8
寸法
 62
     0
370
    -2
100
AcDbLine
 10
175.1191159999997
 20
165.4568860430597
 30
0.0
 11
147.4658626980959
 21
165.4568860430597
 31
0.0
  0
LINE
  5
802D
330
8029
100
AcDbEntity
  8
寸法
 62
     0
370
    -2
100
AcDbLine
 10
175.1191159999997
 20
193.4568860430597
 30
0.0
 11
147.4658626980959
 21
193.4568860430597
 31
0.0
  0
LINE
  5
802E
330
8029
100
AcDbEntity
  8
寸法
 62
     0
370
    -2
100
AcDbLine
 10
147.4658626980959
 20
167.4568860430597
 30
0.0
 11
147.4658626980959
 21
191.4568860430597
 31
0.0
  0
INSERT
  5
802F
330
8029
100
AcDbEntity
  8
寸法
 62
     0
370
    -2
100
AcDbBlockReference
  2
_DOT
 10
147.4658626980959
 20
165.4568860430597
 30
0.0
 41
2.0
 42
2.0
 43
2.0
 50
270.0
  0
INSERT
  5
8030
330
8029
100
AcDbEntity
  8
寸法
 62
     0
370
    -2
100
AcDbBlockReference
  2
_DOT
 10
147.4658626980959
 20
193.4568860430597
 30
0.0
 41
2.0
 42
2.0
 43
2.0
 50
90.0
  0
MTEXT
  5
8031
330
8029
100
AcDbEntity
  8
寸法
 62
     0
100
AcDbMText
 10
139.9658626980959
 20
179.4568860430597
 30
0.0
 40
5.0
 41
0.0
 46
0.0
 71
     5
 72
     1
  1
\A1;28
  7
ＭＳ ゴシック
 11
0.0
 21
1.0
 31
0.0
 73
     1
 44
1.0
  0
POINT
  5
8032
330
8029
100
AcDbEntity
  8
Defpoints
 62
     0
100
AcDbPoint
 10
180.1191159999997
 20
165.4568860430597
 30
0.0
  0
POINT
  5
8033
330
8029
100
AcDbEntity
  8
Defpoints
 62
     0
100
AcDbPoint
 10
180.1191159999997
 20
193.4568860430597
 30
0.0
  0
POINT
  5
8034
330
8029
100
AcDbEntity
  8
Defpoints
 62
     0
100
AcDbPoint
 10
147.4658626980959
 20
193.4568860430597
 30
0.0
  0
ENDBLK
  5
802B
330
8029
100
AcDbEntity
  8
0
100
AcDbBlockEnd
  0
BLOCK
  5
8036
330
8035
100
AcDbEntity
  8
0
100
AcDbBlockBegin
  2
*D33
 70
     1
 10
0.0
 20
0.0
 30
0.0
  3
*D33
  1

  0
LINE
  5
8038
330
8035
100
AcDbEntity
  8
寸法
 62
     0
370
    -2
100
AcDbLine
 10
175.1191159999997
 20
193.4568860430597
 30
0.0
 11
147.4658626980959
 21
193.4568860430597
 31
0.0
  0
LINE
  5
8039
330
8035
100
AcDbEntity
  8
寸法
 62
     0
370
    -2
100
AcDbLine
 10
181.1191159999997
 20
221.4568860430597
 30
0.0
 11
147.4658626980959
 21
221.4568860430597
 31
0.0
  0
LINE
  5
803A
330
8035
100
AcDbEntity
  8
寸法
 62
     0
370
    -2
100
AcDbLine
 10
147.4658626980959
 20
195.4568860430597
 30
0.0
 11
147.4658626980959
 21
219.4568860430597
 31
0.0
  0
INSERT
  5
803B
330
8035
100
AcDbEntity
  8
寸法
 62
     0
370
    -2
100
AcDbBlockReference
  2
_DOT
 10
147.4658626980959
 20
193.4568860430597
 30
0.0
 41
2.0
 42
2.0
 43
2.0
 50
270.0
  0
INSERT
  5
803C
330
8035
100
AcDbEntity
  8
寸法
 62
     0
370
    -2
100
AcDbBlockReference
  2
_DOT
 10
147.4658626980959
 20
221.4568860430597
 30
0.0
 41
2.0
 42
2.0
 43
2.0
 50
90.0
  0
MTEXT
  5
803D
330
8035
100
AcDbEntity
  8
寸法
 62
     0
100
AcDbMText
 10
139.9658626980959
 20
207.4568860430597
 30
0.0
 40
5.0
 41
0.0
 46
0.0
 71
     5
 72
     1
  1
\A1;28
  7
ＭＳ ゴシック
 11
0.0
 21
1.0
 31
0.0
 73
     1
 44
1.0
  0
POINT
  5
803E
330
8035
100
AcDbEntity
  8
Defpoints
 62
     0
100
AcDbPoint
 10
180.1191159999997
 20
193.4568860430597
 30
0.0
  0
POINT
  5
803F
330
8035
100
AcDbEntity
  8
Defpoints
 62
     0
100
AcDbPoint
 10
186.1191159999997
 20
221.4568860430597
 30
0.0
  0
POINT
  5
8040
330
8035
100
AcDbEntity
  8
Defpoints
 62
     0
100
AcDbPoint
 10
147.4658626980959
 20
221.4568860430597
 30
0.0
  0
ENDBLK
  5
8037
330
8035
100
AcDbEntity
  8
0
100
AcDbBlockEnd
  0
BLOCK
  5
8042
330
8041
100
AcDbEntity
  8
0
100
AcDbBlockBegin
  2
*D34
 70
     1
 10
0.0
 20
0.0
 30
0.0
  3
*D34
  1

  0
LINE
  5
8044
330
8041
100
AcDbEntity
  8
寸法
 62
     0
370
    -2
100
AcDbLine
 10
181.1191159999997
 20
221.4568860430597
 30
0.0
 11
147.4658626980959
 21
221.4568860430597
 31
0.0
  0
LINE
  5
8045
330
8041
100
AcDbEntity
  8
寸法
 62
     0
370
    -2
100
AcDbLine
 10
175.1191159999997
 20
249.4568860430597
 30
0.0
 11
147.4658626980959
 21
249.4568860430597
 31
0.0
  0
LINE
  5
8046
330
8041
100
AcDbEntity
  8
寸法
 62
     0
370
    -2
100
AcDbLine
 10
147.4658626980959
 20
223.4568860430597
 30
0.0
 11
147.4658626980959
 21
247.4568860430597
 31
0.0
  0
INSERT
  5
8047
330
8041
100
AcDbEntity
  8
寸法
 62
     0
370
    -2
100
AcDbBlockReference
  2
_DOT
 10
147.4658626980959
 20
221.4568860430597
 30
0.0
 41
2.0
 42
2.0
 43
2.0
 50
270.0
  0
INSERT
  5
8048
330
8041
100
AcDbEntity
  8
寸法
 62
     0
370
    -2
100
AcDbBlockReference
  2
_DOT
 10
147.4658626980959
 20
249.4568860430597
 30
0.0
 41
2.0
 42
2.0
 43
2.0
 50
90.0
  0
MTEXT
  5
8049
330
8041
100
AcDbEntity
  8
寸法
 62
     0
100
AcDbMText
 10
139.9658626980959
 20
235.4568860430597
 30
0.0
 40
5.0
 41
0.0
 46
0.0
 71
     5
 72
     1
  1
\A1;28
  7
ＭＳ ゴシック
 11
0.0
 21
1.0
 31
0.0
 73
     1
 44
1.0
  0
POINT
  5
804A
330
8041
100
AcDbEntity
  8
Defpoints
 62
     0
100
AcDbPoint
 10
186.1191159999997
 20
221.4568860430597
 30
0.0
  0
POINT
  5
804B
330
8041
100
AcDbEntity
  8
Defpoints
 62
     0
100
AcDbPoint
 10
180.1191159999997
 20
249.4568860430597
 30
0.0
  0
POINT
  5
804C
330
8041
100
AcDbEntity
  8
Defpoints
 62
     0
100
AcDbPoint
 10
147.4658626980959
 20
249.4568860430597
 30
0.0
  0
ENDBLK
  5
8043
330
8041
100
AcDbEntity
  8
0
100
AcDbBlockEnd
  0
BLOCK
  5
804E
330
804D
100
AcDbEntity
  8
0
100
AcDbBlockBegin
  2
*D35
 70
     1
 10
0.0
 20
0.0
 30
0.0
  3
*D35
  1

  0
LINE
  5
8050
330
804D
100
AcDbEntity
  8
寸法
 62
     0
370
    -2
100
AcDbLine
 10
186.1191159999997
 20
226.4568860430597
 30
0.0
 11
186.1191159999997
 21
272.0836746826387
 31
0.0
  0
LINE
  5
8051
330
804D
100
AcDbEntity
  8
寸法
 62
     0
370
    -2
100
AcDbLine
 10
168.1191159999997
 20
253.0012934774235
 30
0.0
 11
168.1191159999997
 21
272.0836746826387
 31
0.0
  0
LINE
  5
8052
330
804D
100
AcDbEntity
  8
寸法
 62
     0
370
    -2
100
AcDbLine
 10
184.1191159999997
 20
272.0836746826387
 30
0.0
 11
170.1191159999997
 21
272.0836746826387
 31
0.0
  0
INSERT
  5
8053
330
804D
100
AcDbEntity
  8
寸法
 62
     0
370
    -2
100
AcDbBlockReference
  2
_DOT
 10
186.1191159999997
 20
272.0836746826387
 30
0.0
 41
2.0
 42
2.0
 43
2.0
  0
INSERT
  5
8054
330
804D
100
AcDbEntity
  8
寸法
 62
     0
370
    -2
100
AcDbBlockReference
  2
_DOT
 10
168.1191159999997
 20
272.0836746826387
 30
0.0
 41
2.0
 42
2.0
 43
2.0
 50
180.0
  0
MTEXT
  5
8055
330
804D
100
AcDbEntity
  8
寸法
 62
     0
100
AcDbMText
 10
177.1191159999997
 20
279.5836746826387
 30
0.0
 40
5.0
 41
0.0
 46
0.0
 71
     5
 72
     1
  1
\A1;18
  7
ＭＳ ゴシック
 73
     1
 44
1.0
  0
POINT
  5
8056
330
804D
100
AcDbEntity
  8
Defpoints
 62
     0
100
AcDbPoint
 10
186.1191159999997
 20
221.4568860430597
 30
0.0
  0
POINT
  5
8057
330
804D
100
AcDbEntity
  8
Defpoints
 62
     0
100
AcDbPoint
 10
168.1191159999997
 20
248.0012934774235
 30
0.0
  0
POINT
  5
8058
330
804D
100
AcDbEntity
  8
Defpoints
 62
     0
100
AcDbPoint
 10
168.1191159999997
 20
272.0836746826387
 30
0.0
  0
ENDBLK
  5
804F
330
804D
100
AcDbEntity
  8
0
100
AcDbBlockEnd
  0
BLOCK
  5
805A
330
8059
100
AcDbEntity
  8
0
100
AcDbBlockBegin
  2
*D36
 70
     1
 10
0.0
 20
0.0
 30
0.0
  3
*D36
  1

  0
LINE
  5
805C
330
8059
100
AcDbEntity
  8
寸法
 62
     0
370
    -2
100
AcDbLine
 10
172.6191159999997
 20
248.4864909993022
 30
0.0
 11
147.4658626980959
 21
248.4864909993022
 31
0.0
  0
LINE
  5
805D
330
8059
100
AcDbEntity
  8
寸法
 62
     0
370
    -2
100
AcDbLine
 10
175.1191159999997
 20
262.4568860430597
 30
0.0
 11
147.4658626980959
 21
262.4568860430597
 31
0.0
  0
LINE
  5
805E
330
8059
100
AcDbEntity
  8
寸法
 62
     0
370
    -2
100
AcDbLine
 10
147.4658626980959
 20
250.4864909993022
 30
0.0
 11
147.4658626980959
 21
260.4568860430597
 31
0.0
  0
INSERT
  5
805F
330
8059
100
AcDbEntity
  8
寸法
 62
     0
370
    -2
100
AcDbBlockReference
  2
_DOT
 10
147.4658626980959
 20
248.4864909993022
 30
0.0
 41
2.0
 42
2.0
 43
2.0
 50
270.0
  0
INSERT
  5
8060
330
8059
100
AcDbEntity
  8
寸法
 62
     0
370
    -2
100
AcDbBlockReference
  2
_DOT
 10
147.4658626980959
 20
262.4568860430597
 30
0.0
 41
2.0
 42
2.0
 43
2.0
 50
90.0
  0
MTEXT
  5
8061
330
8059
100
AcDbEntity
  8
寸法
 62
     0
100
AcDbMText
 10
139.9658626980959
 20
254.262553681512
 30
0.0
 40
5.0
 41
0.0
 46
0.0
 71
     5
 72
     1
  1
\A1;13.97039504
  7
ＭＳ ゴシック
 11
0.0
 21
1.0
 31
0.0
 73
     1
 44
1.0
  0
POINT
  5
8062
330
8059
100
AcDbEntity
  8
Defpoints
 62
     0
100
AcDbPoint
 10
177.6191159999997
 20
248.4864909993022
 30
0.0
  0
POINT
  5
8063
330
8059
100
AcDbEntity
  8
Defpoints
 62
     0
100
AcDbPoint
 10
180.1191159999997
 20
262.4568860430597
 30
0.0
  0
POINT
  5
8064
330
8059
100
AcDbEntity
  8
Defpoints
 62
     0
100
AcDbPoint
 10
147.4658626980959
 20
262.4568860430597
 30
0.0
  0
ENDBLK
  5
805B
330
8059
100
AcDbEntity
  8
0
100
AcDbBlockEnd
  0
BLOCK
  5
8066
330
8065
100
AcDbEntity
  8
0
100
AcDbBlockBegin
  2
*D37
 70
     1
 10
0.0
 20
0.0
 30
0.0
  3
*D37
  1

  0
LINE
  5
8068
330
8065
100
AcDbEntity
  8
寸法
 62
     0
370
    -2
100
AcDbLine
 10
234.5285184347823
 20
269.9124786086959
 30
0.0
 11
305.3684831213151
 21
269.9124786086959
 31
0.0
  0
LINE
  5
8069
330
8065
100
AcDbEntity
  8
寸法
 62
     0
370
    -2
100
AcDbLine
 10
234.5285184347822
 20
147.9124786086959
 30
0.0
 11
305.3684831213151
 21
147.9124786086959
 31
0.0
  0
LINE
  5
806A
330
8065
100
AcDbEntity
  8
寸法
 62
     0
370
    -2
100
AcDbLine
 10
305.3684831213151
 20
267.9124786086959
 30
0.0
 11
305.3684831213151
 21
149.9124786086959
 31
0.0
  0
INSERT
  5
806B
330
8065
100
AcDbEntity
  8
寸法
 62
     0
370
    -2
100
AcDbBlockReference
  2
_DOT
 10
305.3684831213151
 20
269.9124786086959
 30
0.0
 41
2.0
 42
2.0
 43
2.0
 50
90.0
  0
INSERT
  5
806C
330
8065
100
AcDbEntity
  8
寸法
 62
     0
370
    -2
100
AcDbBlockReference
  2
_DOT
 10
305.3684831213151
 20
147.9124786086959
 30
0.0
 41
2.0
 42
2.0
 43
2.0
 50
270.0
  0
MTEXT
  5
806D
330
8065
100
AcDbEntity
  8
寸法
 62
     0
100
AcDbMText
 10
297.8684831213151
 20
208.9124786086959
 30
0.0
 40
5.0
 41
0.0
 46
0.0
 71
     5
 72
     1
  1
\A1;122
  7
ＭＳ ゴシック
 11
0.0
 21
1.0
 31
0.0
 73
     1
 44
1.0
  0
POINT
  5
806E
330
8065
100
AcDbEntity
  8
Defpoints
 62
     0
100
AcDbPoint
 10
229.5285184347823
 20
269.9124786086959
 30
0.0
  0
POINT
  5
806F
330
8065
100
AcDbEntity
  8
Defpoints
 62
     0
100
AcDbPoint
 10
229.5285184347822
 20
147.9124786086959
 30
0.0
  0
POINT
  5
8070
330
8065
100
AcDbEntity
  8
Defpoints
 62
     0
100
AcDbPoint
 10
305.3684831213151
 20
147.9124786086959
 30
0.0
  0
ENDBLK
  5
8067
330
8065
100
AcDbEntity
  8
0
100
AcDbBlockEnd
  0
BLOCK
  5
8072
330
8071
100
AcDbEntity
  8
0
100
AcDbBlockBegin
  2
*D38
 70
     1
 10
0.0
 20
0.0
 30
0.0
  3
*D38
  1

  0
LINE
  5
8074
330
8071
100
AcDbEntity
  8
寸法
 62
     0
370
    -2
100
AcDbLine
 10
180.1191159999997
 20
158.3521641739133
 30
0.0
 11
180.1191159999997
 21
137.7895640134925
 31
0.0
  0
LINE
  5
8075
330
8071
100
AcDbEntity
  8
寸法
 62
     0
370
    -2
100
AcDbLine
 10
168.1191159999997
 20
158.3521641739133
 30
0.0
 11
168.1191159999997
 21
137.7895640134925
 31
0.0
  0
LINE
  5
8076
330
8071
100
AcDbEntity
  8
寸法
 62
     0
370
    -2
100
AcDbLine
 10
178.1191159999997
 20
137.7895640134925
 30
0.0
 11
170.1191159999997
 21
137.7895640134925
 31
0.0
  0
INSERT
  5
8077
330
8071
100
AcDbEntity
  8
寸法
 62
     0
370
    -2
100
AcDbBlockReference
  2
_DOT
 10
180.1191159999997
 20
137.7895640134925
 30
0.0
 41
2.0
 42
2.0
 43
2.0
  0
INSERT
  5
8078
330
8071
100
AcDbEntity
  8
寸法
 62
     0
370
    -2
100
AcDbBlockReference
  2
_DOT
 10
168.1191159999997
 20
137.7895640134925
 30
0.0
 41
2.0
 42
2.0
 43
2.0
 50
180.0
  0
MTEXT
  5
8079
330
8071
100
AcDbEntity
  8
寸法
 62
     0
100
AcDbMText
 10
174.1191159999997
 20
145.2895640134925
 30
0.0
 40
5.0
 41
0.0
 46
0.0
 71
     5
 72
     1
  1
\A1;12
  7
ＭＳ ゴシック
 73
     1
 44
1.0
  0
POINT
  5
807A
330
8071
100
AcDbEntity
  8
Defpoints
 62
     0
100
AcDbPoint
 10
180.1191159999997
 20
163.3521641739133
 30
0.0
  0
POINT
  5
807B
330
8071
100
AcDbEntity
  8
Defpoints
 62
     0
100
AcDbPoint
 10
168.1191159999997
 20
163.3521641739133
 30
0.0
  0
POINT
  5
807C
330
8071
100
AcDbEntity
  8
Defpoints
 62
     0
100
AcDbPoint
 10
168.1191159999997
 20
137.7895640134925
 30
0.0
  0
ENDBLK
  5
8073
330
8071
100
AcDbEntity
  8
0
100
AcDbBlockEnd
  0
BLOCK
  5
807E
330
807D
100
AcDbEntity
  8
0
100
AcDbBlockBegin
  2
*D39
 70
     1
 10
0.0
 20
0.0
 30
0.0
  3
*D39
  1

  0
LINE
  5
8080
330
807D
100
AcDbEntity
  8
寸法
 62
     0
370
    -2
100
AcDbLine
 10
180.1191159999997
 20
158.3521641739133
 30
0.0
 11
180.1191159999997
 21
137.7895640134925
 31
0.0
  0
LINE
  5
8081
330
807D
100
AcDbEntity
  8
寸法
 62
     0
370
    -2
100
AcDbLine
 10
192.1191159999997
 20
158.3521641739133
 30
0.0
 11
192.1191159999997
 21
137.7895640134925
 31
0.0
  0
LINE
  5
8082
330
807D
100
AcDbEntity
  8
寸法
 62
     0
370
    -2
100
AcDbLine
 10
182.1191159999997
 20
137.7895640134925
 30
0.0
 11
190.1191159999997
 21
137.7895640134925
 31
0.0
  0
INSERT
  5
8083
330
807D
100
AcDbEntity
  8
寸法
 62
     0
370
    -2
100
AcDbBlockReference
  2
_DOT
 10
180.1191159999997
 20
137.7895640134925
 30
0.0
 41
2.0
 42
2.0
 43
2.0
 50
180.0
  0
INSERT
  5
8084
330
807D
100
AcDbEntity
  8
寸法
 62
     0
370
    -2
100
AcDbBlockReference
  2
_DOT
 10
192.1191159999997
 20
137.7895640134925
 30
0.0
 41
2.0
 42
2.0
 43
2.0
  0
MTEXT
  5
8085
330
807D
100
AcDbEntity
  8
寸法
 62
     0
100
AcDbMText
 10
186.1191159999997
 20
145.2895640134925
 30
0.0
 40
5.0
 41
0.0
 46
0.0
 71
     5
 72
     1
  1
\A1;12
  7
ＭＳ ゴシック
 73
     1
 44
1.0
  0
POINT
  5
8086
330
807D
100
AcDbEntity
  8
Defpoints
 62
     0
100
AcDbPoint
 10
180.1191159999997
 20
163.3521641739133
 30
0.0
  0
POINT
  5
8087
330
807D
100
AcDbEntity
  8
Defpoints
 62
     0
100
AcDbPoint
 10
192.1191159999997
 20
163.3521641739133
 30
0.0
  0
POINT
  5
8088
330
807D
100
AcDbEntity
  8
Defpoints
 62
     0
100
AcDbPoint
 10
192.1191159999997
 20
137.7895640134925
 30
0.0
  0
ENDBLK
  5
807F
330
807D
100
AcDbEntity
  8
0
100
AcDbBlockEnd
  0
BLOCK
  5
80A3
330
80A2
100
AcDbEntity
  8
0
100
AcDbBlockBegin
  2
*D40
 70
     1
 10
0.0
 20
0.0
 30
0.0
  3
*D40
  1

  0
LINE
  5
80A5
330
80A2
100
AcDbEntity
  8
寸法
 62
     0
370
    -2
100
AcDbLine
 10
175.1191159999997
 20
262.4568860430597
 30
0.0
 11
147.4658626980959
 21
262.4568860430597
 31
0.0
  0
LINE
  5
80A6
330
80A2
100
AcDbEntity
  8
寸法
 62
     0
370
    -2
100
AcDbLine
 10
175.1191159999997
 20
249.4568860430597
 30
0.0
 11
147.4658626980959
 21
249.4568860430597
 31
0.0
  0
LINE
  5
80A7
330
80A2
100
AcDbEntity
  8
寸法
 62
     0
370
    -2
100
AcDbLine
 10
147.4658626980959
 20
260.4568860430597
 30
0.0
 11
147.4658626980959
 21
251.4568860430597
 31
0.0
  0
INSERT
  5
80A8
330
80A2
100
AcDbEntity
  8
寸法
 62
     0
370
    -2
100
AcDbBlockReference
  2
_DOT
 10
147.4658626980959
 20
262.4568860430597
 30
0.0
 41
2.0
 42
2.0
 43
2.0
 50
90.0
  0
INSERT
  5
80A9
330
80A2
100
AcDbEntity
  8
寸法
 62
     0
370
    -2
100
AcDbBlockReference
  2
_DOT
 10
147.4658626980959
 20
249.4568860430597
 30
0.0
 41
2.0
 42
2.0
 43
2.0
 50
270.0
  0
MTEXT
  5
80AA
330
80A2
100
AcDbEntity
  8
寸法
 62
     0
100
AcDbMText
 10
139.9658626980959
 20
255.9568860430597
 30
0.0
 40
5.0
 41
0.0
 46
0.0
 71
     5
 72
     1
  1
\A1;13
  7
ＭＳ ゴシック
 11
0.0
 21
1.0
 31
0.0
 73
     1
 44
1.0
  0
POINT
  5
80AB
330
80A2
100
AcDbEntity
  8
Defpoints
 62
     0
100
AcDbPoint
 10
180.1191159999997
 20
262.4568860430597
 30
0.0
  0
POINT
  5
80AC
330
80A2
100
AcDbEntity
  8
Defpoints
 62
     0
100
AcDbPoint
 10
180.1191159999997
 20
249.4568860430597
 30
0.0
  0
POINT
  5
80AD
330
80A2
100
AcDbEntity
  8
Defpoints
 62
     0
100
AcDbPoint
 10
147.4658626980959
 20
249.4568860430597
 30
0.0
  0
ENDBLK
  5
80A4
330
80A2
100
AcDbEntity
  8
0
100
AcDbBlockEnd
  0
BLOCK
  5
80B6
330
80B5
100
AcDbEntity
  8
0
100
AcDbBlockBegin
  2
*D41
 70
     1
 10
0.0
 20
0.0
 30
0.0
  3
*D41
  1

  0
LINE
  5
80B8
330
80B5
100
AcDbEntity
  8
寸法
 62
     0
370
    -2
100
AcDbLine
 10
170.1191159999997
 20
262.4568860430597
 30
0.0
 11
130.074944931661
 21
262.4568860430597
 31
0.0
  0
LINE
  5
80B9
330
80B5
100
AcDbEntity
  8
寸法
 62
     0
370
    -2
100
AcDbLine
 10
175.1191159999997
 20
153.4568860430597
 30
0.0
 11
130.074944931661
 21
153.4568860430597
 31
0.0
  0
LINE
  5
80BA
330
80B5
100
AcDbEntity
  8
寸法
 62
     0
370
    -2
100
AcDbLine
 10
130.074944931661
 20
260.4568860430597
 30
0.0
 11
130.074944931661
 21
155.4568860430597
 31
0.0
  0
INSERT
  5
80BB
330
80B5
100
AcDbEntity
  8
寸法
 62
     0
370
    -2
100
AcDbBlockReference
  2
_DOT
 10
130.074944931661
 20
262.4568860430597
 30
0.0
 41
2.0
 42
2.0
 43
2.0
 50
90.0
  0
INSERT
  5
80BC
330
80B5
100
AcDbEntity
  8
寸法
 62
     0
370
    -2
100
AcDbBlockReference
  2
_DOT
 10
130.074944931661
 20
153.4568860430597
 30
0.0
 41
2.0
 42
2.0
 43
2.0
 50
270.0
  0
MTEXT
  5
80BD
330
80B5
100
AcDbEntity
  8
寸法
 62
     0
100
AcDbMText
 10
122.574944931661
 20
207.9568860430597
 30
0.0
 40
5.0
 41
0.0
 46
0.0
 71
     5
 72
     1
  1
\A1;109
  7
ＭＳ ゴシック
 11
0.0
 21
1.0
 31
0.0
 73
     1
 44
1.0
  0
POINT
  5
80BE
330
80B5
100
AcDbEntity
  8
Defpoints
 62
     0
100
AcDbPoint
 10
175.1191159999997
 20
262.4568860430597
 30
0.0
  0
POINT
  5
80BF
330
80B5
100
AcDbEntity
  8
Defpoints
 62
     0
100
AcDbPoint
 10
180.1191159999997
 20
153.4568860430597
 30
0.0
  0
POINT
  5
80C0
330
80B5
100
AcDbEntity
  8
Defpoints
 62
     0
100
AcDbPoint
 10
130.074944931661
 20
153.4568860430597
 30
0.0
  0
ENDBLK
  5
80B7
330
80B5
100
AcDbEntity
  8
0
100
AcDbBlockEnd
  0
BLOCK
  5
80C9
330
80C8
100
AcDbEntity
  8
0
100
AcDbBlockBegin
  2
*D42
 70
     1
 10
0.0
 20
0.0
 30
0.0
  3
*D42
  1

  0
LINE
  5
80CB
330
80C8
100
AcDbEntity
  8
寸法
 62
     0
370
    -2
100
AcDbLine
 10
170.1191159999997
 20
165.4568860430597
 30
0.0
 11
147.4658626980959
 21
165.4568860430597
 31
0.0
  0
LINE
  5
80CC
330
80C8
100
AcDbEntity
  8
寸法
 62
     0
370
    -2
100
AcDbLine
 10
175.1191159999997
 20
153.4568860430597
 30
0.0
 11
147.4658626980959
 21
153.4568860430597
 31
0.0
  0
LINE
  5
80CD
330
80C8
100
AcDbEntity
  8
寸法
 62
     0
370
    -2
100
AcDbLine
 10
147.4658626980959
 20
163.4568860430597
 30
0.0
 11
147.4658626980959
 21
155.4568860430597
 31
0.0
  0
INSERT
  5
80CE
330
80C8
100
AcDbEntity
  8
寸法
 62
     0
370
    -2
100
AcDbBlockReference
  2
_DOT
 10
147.4658626980959
 20
165.4568860430597
 30
0.0
 41
2.0
 42
2.0
 43
2.0
 50
90.0
  0
INSERT
  5
80CF
330
80C8
100
AcDbEntity
  8
寸法
 62
     0
370
    -2
100
AcDbBlockReference
  2
_DOT
 10
147.4658626980959
 20
153.4568860430597
 30
0.0
 41
2.0
 42
2.0
 43
2.0
 50
270.0
  0
MTEXT
  5
80D0
330
80C8
100
AcDbEntity
  8
寸法
 62
     0
100
AcDbMText
 10
139.9658626980959
 20
159.4568860430597
 30
0.0
 40
5.0
 41
0.0
 46
0.0
 71
     5
 72
     1
  1
\A1;12
  7
ＭＳ ゴシック
 11
0.0
 21
1.0
 31
0.0
 73
     1
 44
1.0
  0
POINT
  5
80D1
330
80C8
100
AcDbEntity
  8
Defpoints
 62
     0
100
AcDbPoint
 10
175.1191159999997
 20
165.4568860430597
 30
0.0
  0
POINT
  5
80D2
330
80C8
100
AcDbEntity
  8
Defpoints
 62
     0
100
AcDbPoint
 10
180.1191159999997
 20
153.4568860430597
 30
0.0
  0
POINT
  5
80D3
330
80C8
100
AcDbEntity
  8
Defpoints
 62
     0
100
AcDbPoint
 10
147.4658626980959
 20
153.4568860430597
 30
0.0
  0
ENDBLK
  5
80CA
330
80C8
100
AcDbEntity
  8
0
100
AcDbBlockEnd
  0
BLOCK
  5
8123
330
8122
100
AcDbEntity
  8
0
100
AcDbBlockBegin
  2
*D43
 70
     1
 10
0.0
 20
0.0
 30
0.0
  3
*D43
  1

  0
LINE
  5
8124
330
8122
100
AcDbEntity
  8
寸法
 62
     0
370
    -2
100
AcDbLine
 10
55.0441710683387
 20
28.66732202956717
 30
0.0
 11
27.39091776643488
 21
28.66732202956718
 31
0.0
  0
LINE
  5
8125
330
8122
100
AcDbEntity
  8
寸法
 62
     0
370
    -2
100
AcDbLine
 10
55.0441710683387
 20
56.66732202956717
 30
0.0
 11
27.39091776643488
 21
56.66732202956717
 31
0.0
  0
LINE
  5
8126
330
8122
100
AcDbEntity
  8
寸法
 62
     0
370
    -2
100
AcDbLine
 10
27.39091776643488
 20
30.66732202956718
 30
0.0
 11
27.39091776643488
 21
54.66732202956717
 31
0.0
  0
INSERT
  5
8127
330
8122
100
AcDbEntity
  8
寸法
 62
     0
370
    -2
100
AcDbBlockReference
  2
_DOT
 10
27.39091776643488
 20
28.66732202956718
 30
0.0
 41
2.0
 42
2.0
 43
2.0
 50
270.0
  0
INSERT
  5
8128
330
8122
100
AcDbEntity
  8
寸法
 62
     0
370
    -2
100
AcDbBlockReference
  2
_DOT
 10
27.39091776643488
 20
56.66732202956717
 30
0.0
 41
2.0
 42
2.0
 43
2.0
 50
90.0
  0
MTEXT
  5
8129
330
8122
100
AcDbEntity
  8
寸法
 62
     0
100
AcDbMText
 10
19.89091776643488
 20
42.66732202956717
 30
0.0
 40
5.0
 41
0.0
 46
0.0
 71
     5
 72
     1
  1
\A1;28
  7
ＭＳ ゴシック
 11
0.0
 21
1.0
 31
0.0
 73
     1
 44
1.0
  0
POINT
  5
812A
330
8122
100
AcDbEntity
  8
Defpoints
 62
     0
100
AcDbPoint
 10
60.0441710683387
 20
28.66732202956717
 30
0.0
  0
POINT
  5
812B
330
8122
100
AcDbEntity
  8
Defpoints
 62
     0
100
AcDbPoint
 10
60.0441710683387
 20
56.66732202956717
 30
0.0
  0
POINT
  5
812C
330
8122
100
AcDbEntity
  8
Defpoints
 62
     0
100
AcDbPoint
 10
27.39091776643488
 20
56.66732202956717
 30
0.0
  0
ENDBLK
  5
812D
330
8122
100
AcDbEntity
  8
0
100
AcDbBlockEnd
  0
BLOCK
  5
8135
330
8134
100
AcDbEntity
  8
0
100
AcDbBlockBegin
  2
*D44
 70
     1
 10
0.0
 20
0.0
 30
0.0
  3
*D44
  1

  0
LINE
  5
8136
330
8134
100
AcDbEntity
  8
寸法
 62
     0
370
    -2
100
AcDbLine
 10
55.0441710683387
 20
56.66732202956717
 30
0.0
 11
27.39091776643488
 21
56.66732202956717
 31
0.0
  0
LINE
  5
8137
330
8134
100
AcDbEntity
  8
寸法
 62
     0
370
    -2
100
AcDbLine
 10
61.0441710683387
 20
84.66732202956723
 30
0.0
 11
27.39091776643488
 21
84.66732202956723
 31
0.0
  0
LINE
  5
8138
330
8134
100
AcDbEntity
  8
寸法
 62
     0
370
    -2
100
AcDbLine
 10
27.39091776643488
 20
58.66732202956717
 30
0.0
 11
27.39091776643488
 21
82.66732202956723
 31
0.0
  0
INSERT
  5
8139
330
8134
100
AcDbEntity
  8
寸法
 62
     0
370
    -2
100
AcDbBlockReference
  2
_DOT
 10
27.39091776643488
 20
56.66732202956717
 30
0.0
 41
2.0
 42
2.0
 43
2.0
 50
270.0
  0
INSERT
  5
813A
330
8134
100
AcDbEntity
  8
寸法
 62
     0
370
    -2
100
AcDbBlockReference
  2
_DOT
 10
27.39091776643488
 20
84.66732202956723
 30
0.0
 41
2.0
 42
2.0
 43
2.0
 50
90.0
  0
MTEXT
  5
813B
330
8134
100
AcDbEntity
  8
寸法
 62
     0
100
AcDbMText
 10
19.89091776643488
 20
70.6673220295672
 30
0.0
 40
5.0
 41
0.0
 46
0.0
 71
     5
 72
     1
  1
\A1;28
  7
ＭＳ ゴシック
 11
0.0
 21
1.0
 31
0.0
 73
     1
 44
1.0
  0
POINT
  5
813C
330
8134
100
AcDbEntity
  8
Defpoints
 62
     0
100
AcDbPoint
 10
60.0441710683387
 20
56.66732202956717
 30
0.0
  0
POINT
  5
813D
330
8134
100
AcDbEntity
  8
Defpoints
 62
     0
100
AcDbPoint
 10
66.0441710683387
 20
84.66732202956723
 30
0.0
  0
POINT
  5
813E
330
8134
100
AcDbEntity
  8
Defpoints
 62
     0
100
AcDbPoint
 10
27.39091776643488
 20
84.66732202956723
 30
0.0
  0
ENDBLK
  5
813F
330
8134
100
AcDbEntity
  8
0
100
AcDbBlockEnd
  0
BLOCK
  5
8144
330
8143
100
AcDbEntity
  8
0
100
AcDbBlockBegin
  2
*D45
 70
     1
 10
0.0
 20
0.0
 30
0.0
  3
*D45
  1

  0
LINE
  5
8145
330
8143
100
AcDbEntity
  8
寸法
 62
     0
370
    -2
100
AcDbLine
 10
61.0441710683387
 20
84.66732202956723
 30
0.0
 11
27.39091776643488
 21
84.66732202956723
 31
0.0
  0
LINE
  5
8146
330
8143
100
AcDbEntity
  8
寸法
 62
     0
370
    -2
100
AcDbLine
 10
55.0441710683387
 20
112.6673220295672
 30
0.0
 11
27.39091776643488
 21
112.6673220295672
 31
0.0
  0
LINE
  5
8147
330
8143
100
AcDbEntity
  8
寸法
 62
     0
370
    -2
100
AcDbLine
 10
27.39091776643488
 20
86.66732202956723
 30
0.0
 11
27.39091776643488
 21
110.6673220295672
 31
0.0
  0
INSERT
  5
8148
330
8143
100
AcDbEntity
  8
寸法
 62
     0
370
    -2
100
AcDbBlockReference
  2
_DOT
 10
27.39091776643488
 20
84.66732202956723
 30
0.0
 41
2.0
 42
2.0
 43
2.0
 50
270.0
  0
INSERT
  5
8149
330
8143
100
AcDbEntity
  8
寸法
 62
     0
370
    -2
100
AcDbBlockReference
  2
_DOT
 10
27.39091776643488
 20
112.6673220295672
 30
0.0
 41
2.0
 42
2.0
 43
2.0
 50
90.0
  0
MTEXT
  5
814A
330
8143
100
AcDbEntity
  8
寸法
 62
     0
100
AcDbMText
 10
19.89091776643488
 20
98.66732202956723
 30
0.0
 40
5.0
 41
0.0
 46
0.0
 71
     5
 72
     1
  1
\A1;28
  7
ＭＳ ゴシック
 11
0.0
 21
1.0
 31
0.0
 73
     1
 44
1.0
  0
POINT
  5
814B
330
8143
100
AcDbEntity
  8
Defpoints
 62
     0
100
AcDbPoint
 10
66.0441710683387
 20
84.66732202956723
 30
0.0
  0
POINT
  5
814C
330
8143
100
AcDbEntity
  8
Defpoints
 62
     0
100
AcDbPoint
 10
60.0441710683387
 20
112.6673220295672
 30
0.0
  0
POINT
  5
814D
330
8143
100
AcDbEntity
  8
Defpoints
 62
     0
100
AcDbPoint
 10
27.39091776643488
 20
112.6673220295672
 30
0.0
  0
ENDBLK
  5
814E
330
8143
100
AcDbEntity
  8
0
100
AcDbBlockEnd
  0
BLOCK
  5
8190
330
818F
100
AcDbEntity
  8
0
100
AcDbBlockBegin
  2
*D46
 70
     1
 10
0.0
 20
0.0
 30
0.0
  3
*D46
  1

  0
LINE
  5
8191
330
818F
100
AcDbEntity
  8
寸法
 62
     0
370
    -2
100
AcDbLine
 10
66.0441710683387
 20
89.66732202956723
 30
0.0
 11
66.0441710683387
 21
135.2941106691462
 31
0.0
  0
LINE
  5
8192
330
818F
100
AcDbEntity
  8
寸法
 62
     0
370
    -2
100
AcDbLine
 10
48.0441710683387
 20
116.211729463931
 30
0.0
 11
48.0441710683387
 21
135.2941106691462
 31
0.0
  0
LINE
  5
8193
330
818F
100
AcDbEntity
  8
寸法
 62
     0
370
    -2
100
AcDbLine
 10
64.0441710683387
 20
135.2941106691462
 30
0.0
 11
50.0441710683387
 21
135.2941106691462
 31
0.0
  0
INSERT
  5
8194
330
818F
100
AcDbEntity
  8
寸法
 62
     0
370
    -2
100
AcDbBlockReference
  2
_DOT
 10
66.0441710683387
 20
135.2941106691462
 30
0.0
 41
2.0
 42
2.0
 43
2.0
  0
INSERT
  5
8195
330
818F
100
AcDbEntity
  8
寸法
 62
     0
370
    -2
100
AcDbBlockReference
  2
_DOT
 10
48.0441710683387
 20
135.2941106691462
 30
0.0
 41
2.0
 42
2.0
 43
2.0
 50
180.0
  0
MTEXT
  5
8196
330
818F
100
AcDbEntity
  8
寸法
 62
     0
100
AcDbMText
 10
57.0441710683387
 20
142.7941106691462
 30
0.0
 40
5.0
 41
0.0
 46
0.0
 71
     5
 72
     1
  1
\A1;18
  7
ＭＳ ゴシック
 73
     1
 44
1.0
  0
POINT
  5
8197
330
818F
100
AcDbEntity
  8
Defpoints
 62
     0
100
AcDbPoint
 10
66.0441710683387
 20
84.66732202956723
 30
0.0
  0
POINT
  5
8198
330
818F
100
AcDbEntity
  8
Defpoints
 62
     0
100
AcDbPoint
 10
48.0441710683387
 20
111.211729463931
 30
0.0
  0
POINT
  5
8199
330
818F
100
AcDbEntity
  8
Defpoints
 62
     0
100
AcDbPoint
 10
48.0441710683387
 20
135.2941106691462
 30
0.0
  0
ENDBLK
  5
819A
330
818F
100
AcDbEntity
  8
0
100
AcDbBlockEnd
  0
BLOCK
  5
819D
330
819C
100
AcDbEntity
  8
0
100
AcDbBlockBegin
  2
*D47
 70
     1
 10
0.0
 20
0.0
 30
0.0
  3
*D47
  1

  0
LINE
  5
819E
330
819C
100
AcDbEntity
  8
寸法
 62
     0
370
    -2
100
AcDbLine
 10
114.4535735031213
 20
133.1229145952034
 30
0.0
 11
185.2935381896541
 21
133.1229145952034
 31
0.0
  0
LINE
  5
819F
330
819C
100
AcDbEntity
  8
寸法
 62
     0
370
    -2
100
AcDbLine
 10
114.4535735031212
 20
11.12291459520338
 30
0.0
 11
185.2935381896541
 21
11.12291459520338
 31
0.0
  0
LINE
  5
81A0
330
819C
100
AcDbEntity
  8
寸法
 62
     0
370
    -2
100
AcDbLine
 10
185.2935381896541
 20
131.1229145952034
 30
0.0
 11
185.2935381896541
 21
13.12291459520338
 31
0.0
  0
INSERT
  5
81A1
330
819C
100
AcDbEntity
  8
寸法
 62
     0
370
    -2
100
AcDbBlockReference
  2
_DOT
 10
185.2935381896541
 20
133.1229145952034
 30
0.0
 41
2.0
 42
2.0
 43
2.0
 50
90.0
  0
INSERT
  5
81A2
330
819C
100
AcDbEntity
  8
寸法
 62
     0
370
    -2
100
AcDbBlockReference
  2
_DOT
 10
185.2935381896541
 20
11.12291459520338
 30
0.0
 41
2.0
 42
2.0
 43
2.0
 50
270.0
  0
MTEXT
  5
81A3
330
819C
100
AcDbEntity
  8
寸法
 62
     0
100
AcDbMText
 10
177.7935381896541
 20
72.12291459520338
 30
0.0
 40
5.0
 41
0.0
 46
0.0
 71
     5
 72
     1
  1
\A1;122
  7
ＭＳ ゴシック
 11
0.0
 21
1.0
 31
0.0
 73
     1
 44
1.0
  0
POINT
  5
81A4
330
819C
100
AcDbEntity
  8
Defpoints
 62
     0
100
AcDbPoint
 10
109.4535735031213
 20
133.1229145952034
 30
0.0
  0
POINT
  5
81A5
330
819C
100
AcDbEntity
  8
Defpoints
 62
     0
100
AcDbPoint
 10
109.4535735031212
 20
11.12291459520338
 30
0.0
  0
POINT
  5
81A6
330
819C
100
AcDbEntity
  8
Defpoints
 62
     0
100
AcDbPoint
 10
185.2935381896541
 20
11.12291459520338
 30
0.0
  0
ENDBLK
  5
81A7
330
819C
100
AcDbEntity
  8
0
100
AcDbBlockEnd
  0
BLOCK
  5
81AA
330
81A9
100
AcDbEntity
  8
0
100
AcDbBlockBegin
  2
*D48
 70
     1
 10
0.0
 20
0.0
 30
0.0
  3
*D48
  1

  0
LINE
  5
81AB
330
81A9
100
AcDbEntity
  8
寸法
 62
     0
370
    -2
100
AcDbLine
 10
60.0441710683387
 20
21.5626001604208
 30
0.0
 11
60.0441710683387
 21
1.0
 31
0.0
  0
LINE
  5
81AC
330
81A9
100
AcDbEntity
  8
寸法
 62
     0
370
    -2
100
AcDbLine
 10
48.0441710683387
 20
21.5626001604208
 30
0.0
 11
48.0441710683387
 21
1.0
 31
0.0
  0
LINE
  5
81AD
330
81A9
100
AcDbEntity
  8
寸法
 62
     0
370
    -2
100
AcDbLine
 10
58.0441710683387
 20
1.0
 30
0.0
 11
50.0441710683387
 21
1.0
 31
0.0
  0
INSERT
  5
81AE
330
81A9
100
AcDbEntity
  8
寸法
 62
     0
370
    -2
100
AcDbBlockReference
  2
_DOT
 10
60.0441710683387
 20
1.0
 30
0.0
 41
2.0
 42
2.0
 43
2.0
  0
INSERT
  5
81AF
330
81A9
100
AcDbEntity
  8
寸法
 62
     0
370
    -2
100
AcDbBlockReference
  2
_DOT
 10
48.0441710683387
 20
1.0
 30
0.0
 41
2.0
 42
2.0
 43
2.0
 50
180.0
  0
MTEXT
  5
81B0
330
81A9
100
AcDbEntity
  8
寸法
 62
     0
100
AcDbMText
 10
54.0441710683387
 20
8.5
 30
0.0
 40
5.0
 41
0.0
 46
0.0
 71
     5
 72
     1
  1
\A1;12
  7
ＭＳ ゴシック
 73
     1
 44
1.0
  0
POINT
  5
81B1
330
81A9
100
AcDbEntity
  8
Defpoints
 62
     0
100
AcDbPoint
 10
60.0441710683387
 20
26.5626001604208
 30
0.0
  0
POINT
  5
81B2
330
81A9
100
AcDbEntity
  8
Defpoints
 62
     0
100
AcDbPoint
 10
48.0441710683387
 20
26.5626001604208
 30
0.0
  0
POINT
  5
81B3
330
81A9
100
AcDbEntity
  8
Defpoints
 62
     0
100
AcDbPoint
 10
48.0441710683387
 20
1.0
 30
0.0
  0
ENDBLK
  5
81B4
330
81A9
100
AcDbEntity
  8
0
100
AcDbBlockEnd
  0
BLOCK
  5
81B9
330
81B8
100
AcDbEntity
  8
0
100
AcDbBlockBegin
  2
*D49
 70
     1
 10
0.0
 20
0.0
 30
0.0
  3
*D49
  1

  0
LINE
  5
81BA
330
81B8
100
AcDbEntity
  8
寸法
 62
     0
370
    -2
100
AcDbLine
 10
60.0441710683387
 20
21.5626001604208
 30
0.0
 11
60.0441710683387
 21
1.000000000000001
 31
0.0
  0
LINE
  5
81BB
330
81B8
100
AcDbEntity
  8
寸法
 62
     0
370
    -2
100
AcDbLine
 10
72.0441710683387
 20
21.5626001604208
 30
0.0
 11
72.0441710683387
 21
0.9999999999999992
 31
0.0
  0
LINE
  5
81BC
330
81B8
100
AcDbEntity
  8
寸法
 62
     0
370
    -2
100
AcDbLine
 10
62.0441710683387
 20
1.000000000000001
 30
0.0
 11
70.0441710683387
 21
0.9999999999999994
 31
0.0
  0
INSERT
  5
81BD
330
81B8
100
AcDbEntity
  8
寸法
 62
     0
370
    -2
100
AcDbBlockReference
  2
_DOT
 10
60.0441710683387
 20
1.000000000000001
 30
0.0
 41
2.0
 42
2.0
 43
2.0
 50
180.0
  0
INSERT
  5
81BE
330
81B8
100
AcDbEntity
  8
寸法
 62
     0
370
    -2
100
AcDbBlockReference
  2
_DOT
 10
72.0441710683387
 20
0.9999999999999992
 30
0.0
 41
2.0
 42
2.0
 43
2.0
 50
360.0
  0
MTEXT
  5
81BF
330
81B8
100
AcDbEntity
  8
寸法
 62
     0
100
AcDbMText
 10
66.0441710683387
 20
8.5
 30
0.0
 40
5.0
 41
0.0
 46
0.0
 71
     5
 72
     1
  1
\A1;12
  7
ＭＳ ゴシック
 73
     1
 44
1.0
  0
POINT
  5
81C0
330
81B8
100
AcDbEntity
  8
Defpoints
 62
     0
100
AcDbPoint
 10
60.0441710683387
 20
26.5626001604208
 30
0.0
  0
POINT
  5
81C1
330
81B8
100
AcDbEntity
  8
Defpoints
 62
     0
100
AcDbPoint
 10
72.0441710683387
 20
26.5626001604208
 30
0.0
  0
POINT
  5
81C2
330
81B8
100
AcDbEntity
  8
Defpoints
 62
     0
100
AcDbPoint
 10
72.0441710683387
 20
1.0
 30
0.0
  0
ENDBLK
  5
81C3
330
81B8
100
AcDbEntity
  8
0
100
AcDbBlockEnd
  0
BLOCK
  5
81C6
330
81C5
100
AcDbEntity
  8
0
100
AcDbBlockBegin
  2
*D50
 70
     1
 10
0.0
 20
0.0
 30
0.0
  3
*D50
  1

  0
LINE
  5
81C7
330
81C5
100
AcDbEntity
  8
寸法
 62
     0
370
    -2
100
AcDbLine
 10
55.0441710683387
 20
125.6673220295672
 30
0.0
 11
27.39091776643488
 21
125.6673220295672
 31
0.0
  0
LINE
  5
81C8
330
81C5
100
AcDbEntity
  8
寸法
 62
     0
370
    -2
100
AcDbLine
 10
55.0441710683387
 20
112.6673220295672
 30
0.0
 11
27.39091776643488
 21
112.6673220295672
 31
0.0
  0
LINE
  5
81C9
330
81C5
100
AcDbEntity
  8
寸法
 62
     0
370
    -2
100
AcDbLine
 10
27.39091776643488
 20
123.6673220295672
 30
0.0
 11
27.39091776643488
 21
114.6673220295672
 31
0.0
  0
INSERT
  5
81CA
330
81C5
100
AcDbEntity
  8
寸法
 62
     0
370
    -2
100
AcDbBlockReference
  2
_DOT
 10
27.39091776643488
 20
125.6673220295672
 30
0.0
 41
2.0
 42
2.0
 43
2.0
 50
90.0
  0
INSERT
  5
81CB
330
81C5
100
AcDbEntity
  8
寸法
 62
     0
370
    -2
100
AcDbBlockReference
  2
_DOT
 10
27.39091776643488
 20
112.6673220295672
 30
0.0
 41
2.0
 42
2.0
 43
2.0
 50
270.0
  0
MTEXT
  5
81CC
330
81C5
100
AcDbEntity
  8
寸法
 62
     0
100
AcDbMText
 10
19.89091776643488
 20
119.1673220295672
 30
0.0
 40
5.0
 41
0.0
 46
0.0
 71
     5
 72
     1
  1
\A1;13
  7
ＭＳ ゴシック
 11
0.0
 21
1.0
 31
0.0
 73
     1
 44
1.0
  0
POINT
  5
81CD
330
81C5
100
AcDbEntity
  8
Defpoints
 62
     0
100
AcDbPoint
 10
60.0441710683387
 20
125.6673220295672
 30
0.0
  0
POINT
  5
81CE
330
81C5
100
AcDbEntity
  8
Defpoints
 62
     0
100
AcDbPoint
 10
60.0441710683387
 20
112.6673220295672
 30
0.0
  0
POINT
  5
81CF
330
81C5
100
AcDbEntity
  8
Defpoints
 62
     0
100
AcDbPoint
 10
27.39091776643488
 20
112.6673220295672
 30
0.0
  0
ENDBLK
  5
81D0
330
81C5
100
AcDbEntity
  8
0
100
AcDbBlockEnd
  0
BLOCK
  5
81D4
330
81D3
100
AcDbEntity
  8
0
100
AcDbBlockBegin
  2
*D51
 70
     1
 10
0.0
 20
0.0
 30
0.0
  3
*D51
  1

  0
LINE
  5
81D5
330
81D3
100
AcDbEntity
  8
寸法
 62
     0
370
    -2
100
AcDbLine
 10
50.0441710683387
 20
125.6673220295672
 30
0.0
 11
9.999999999999979
 21
125.6673220295672
 31
0.0
  0
LINE
  5
81D6
330
81D3
100
AcDbEntity
  8
寸法
 62
     0
370
    -2
100
AcDbLine
 10
55.0441710683387
 20
16.66732202956717
 30
0.0
 11
9.999999999999972
 21
16.66732202956718
 31
0.0
  0
LINE
  5
81D7
330
81D3
100
AcDbEntity
  8
寸法
 62
     0
370
    -2
100
AcDbLine
 10
9.999999999999979
 20
123.6673220295672
 30
0.0
 11
9.999999999999972
 21
18.66732202956718
 31
0.0
  0
INSERT
  5
81D8
330
81D3
100
AcDbEntity
  8
寸法
 62
     0
370
    -2
100
AcDbBlockReference
  2
_DOT
 10
9.999999999999979
 20
125.6673220295672
 30
0.0
 41
2.0
 42
2.0
 43
2.0
 50
90.0
  0
INSERT
  5
81D9
330
81D3
100
AcDbEntity
  8
寸法
 62
     0
370
    -2
100
AcDbBlockReference
  2
_DOT
 10
9.999999999999972
 20
16.66732202956718
 30
0.0
 41
2.0
 42
2.0
 43
2.0
 50
270.0
  0
MTEXT
  5
81DA
330
81D3
100
AcDbEntity
  8
寸法
 62
     0
100
AcDbMText
 10
2.499999999999975
 20
71.1673220295672
 30
0.0
 40
5.0
 41
0.0
 46
0.0
 71
     5
 72
     1
  1
\A1;109
  7
ＭＳ ゴシック
 11
6.518740695046787E-17
 21
1.0
 31
0.0
 73
     1
 44
1.0
  0
POINT
  5
81DB
330
81D3
100
AcDbEntity
  8
Defpoints
 62
     0
100
AcDbPoint
 10
55.0441710683387
 20
125.6673220295672
 30
0.0
  0
POINT
  5
81DC
330
81D3
100
AcDbEntity
  8
Defpoints
 62
     0
100
AcDbPoint
 10
60.0441710683387
 20
16.66732202956717
 30
0.0
  0
POINT
  5
81DD
330
81D3
100
AcDbEntity
  8
Defpoints
 62
     0
100
AcDbPoint
 10
9.999999999999972
 20
16.66732202956718
 30
0.0
  0
ENDBLK
  5
81DE
330
81D3
100
AcDbEntity
  8
0
100
AcDbBlockEnd
  0
BLOCK
  5
81E2
330
81E1
100
AcDbEntity
  8
0
100
AcDbBlockBegin
  2
*D52
 70
     1
 10
0.0
 20
0.0
 30
0.0
  3
*D52
  1

  0
LINE
  5
81E3
330
81E1
100
AcDbEntity
  8
寸法
 62
     0
370
    -2
100
AcDbLine
 10
50.0441710683387
 20
28.66732202956717
 30
0.0
 11
27.39091776643488
 21
28.66732202956717
 31
0.0
  0
LINE
  5
81E4
330
81E1
100
AcDbEntity
  8
寸法
 62
     0
370
    -2
100
AcDbLine
 10
55.0441710683387
 20
16.66732202956717
 30
0.0
 11
27.39091776643488
 21
16.66732202956717
 31
0.0
  0
LINE
  5
81E5
330
81E1
100
AcDbEntity
  8
寸法
 62
     0
370
    -2
100
AcDbLine
 10
27.39091776643488
 20
26.66732202956717
 30
0.0
 11
27.39091776643488
 21
18.66732202956717
 31
0.0
  0
INSERT
  5
81E6
330
81E1
100
AcDbEntity
  8
寸法
 62
     0
370
    -2
100
AcDbBlockReference
  2
_DOT
 10
27.39091776643488
 20
28.66732202956717
 30
0.0
 41
2.0
 42
2.0
 43
2.0
 50
90.0
  0
INSERT
  5
81E7
330
81E1
100
AcDbEntity
  8
寸法
 62
     0
370
    -2
100
AcDbBlockReference
  2
_DOT
 10
27.39091776643488
 20
16.66732202956717
 30
0.0
 41
2.0
 42
2.0
 43
2.0
 50
270.0
  0
MTEXT
  5
81E8
330
81E1
100
AcDbEntity
  8
寸法
 62
     0
100
AcDbMText
 10
19.89091776643488
 20
22.66732202956717
 30
0.0
 40
5.0
 41
0.0
 46
0.0
 71
     5
 72
     1
  1
\A1;12
  7
ＭＳ ゴシック
 11
0.0
 21
1.0
 31
0.0
 73
     1
 44
1.0
  0
POINT
  5
81E9
330
81E1
100
AcDbEntity
  8
Defpoints
 62
     0
100
AcDbPoint
 10
55.0441710683387
 20
28.66732202956717
 30
0.0
  0
POINT
  5
81EA
330
81E1
100
AcDbEntity
  8
Defpoints
 62
     0
100
AcDbPoint
 10
60.0441710683387
 20
16.66732202956717
 30
0.0
  0
POINT
  5
81EB
330
81E1
100
AcDbEntity
  8
Defpoints
 62
     0
100
AcDbPoint
 10
27.39091776643488
 20
16.66732202956718
 30
0.0
  0
ENDBLK
  5
81EC
330
81E1
100
AcDbEntity
  8
0
100
AcDbBlockEnd
  0
BLOCK
  5
8255
330
8254
100
AcDbEntity
  8
0
100
AcDbBlockBegin
  2
*D53
 70
     1
 10
0.0
 20
0.0
 30
0.0
  3
*D53
  1

  0
LINE
  5
8257
330
8254
100
AcDbEntity
  8
寸法
 62
     0
370
    -2
100
AcDbLine
 10
811.5480441731495
 20
254.3703404202175
 30
0.0
 11
839.2012974750533
 21
254.3703404202175
 31
0.0
  0
LINE
  5
8258
330
8254
100
AcDbEntity
  8
寸法
 62
     0
370
    -2
100
AcDbLine
 10
811.5480441731495
 20
226.3703404202175
 30
0.0
 11
839.2012974750533
 21
226.3703404202175
 31
0.0
  0
LINE
  5
8259
330
8254
100
AcDbEntity
  8
寸法
 62
     0
370
    -2
100
AcDbLine
 10
839.2012974750533
 20
252.3703404202175
 30
0.0
 11
839.2012974750533
 21
228.3703404202175
 31
0.0
  0
INSERT
  5
825A
330
8254
100
AcDbEntity
  8
寸法
 62
     0
370
    -2
100
AcDbBlockReference
  2
_DOT
 10
839.2012974750533
 20
254.3703404202175
 30
0.0
 41
2.0
 42
2.0
 43
2.0
 50
90.0
  0
INSERT
  5
825B
330
8254
100
AcDbEntity
  8
寸法
 62
     0
370
    -2
100
AcDbBlockReference
  2
_DOT
 10
839.2012974750533
 20
226.3703404202175
 30
0.0
 41
2.0
 42
2.0
 43
2.0
 50
270.0
  0
MTEXT
  5
825C
330
8254
100
AcDbEntity
  8
寸法
 62
     0
100
AcDbMText
 10
831.7012974750533
 20
240.3703404202175
 30
0.0
 40
5.0
 41
0.0
 46
0.0
 71
     5
 72
     1
  1
\A1;28
  7
ＭＳ ゴシック
 11
0.0
 21
1.0
 31
0.0
 73
     1
 44
1.0
  0
POINT
  5
825D
330
8254
100
AcDbEntity
  8
Defpoints
 62
     0
100
AcDbPoint
 10
806.5480441731495
 20
254.3703404202175
 30
0.0
  0
POINT
  5
825E
330
8254
100
AcDbEntity
  8
Defpoints
 62
     0
100
AcDbPoint
 10
806.5480441731495
 20
226.3703404202175
 30
0.0
  0
POINT
  5
825F
330
8254
100
AcDbEntity
  8
Defpoints
 62
     0
100
AcDbPoint
 10
839.2012974750533
 20
226.3703404202175
 30
0.0
  0
ENDBLK
  5
8256
330
8254
100
AcDbEntity
  8
0
100
AcDbBlockEnd
  0
BLOCK
  5
8261
330
8260
100
AcDbEntity
  8
0
100
AcDbBlockBegin
  2
*D54
 70
     1
 10
0.0
 20
0.0
 30
0.0
  3
*D54
  1

  0
LINE
  5
8263
330
8260
100
AcDbEntity
  8
寸法
 62
     0
370
    -2
100
AcDbLine
 10
811.5480441731495
 20
226.3703404202175
 30
0.0
 11
839.2012974750533
 21
226.3703404202175
 31
0.0
  0
LINE
  5
8264
330
8260
100
AcDbEntity
  8
寸法
 62
     0
370
    -2
100
AcDbLine
 10
805.5480441731495
 20
198.3703404202174
 30
0.0
 11
839.2012974750533
 21
198.3703404202174
 31
0.0
  0
LINE
  5
8265
330
8260
100
AcDbEntity
  8
寸法
 62
     0
370
    -2
100
AcDbLine
 10
839.2012974750533
 20
224.3703404202175
 30
0.0
 11
839.2012974750533
 21
200.3703404202174
 31
0.0
  0
INSERT
  5
8266
330
8260
100
AcDbEntity
  8
寸法
 62
     0
370
    -2
100
AcDbBlockReference
  2
_DOT
 10
839.2012974750533
 20
226.3703404202175
 30
0.0
 41
2.0
 42
2.0
 43
2.0
 50
90.0
  0
INSERT
  5
8267
330
8260
100
AcDbEntity
  8
寸法
 62
     0
370
    -2
100
AcDbBlockReference
  2
_DOT
 10
839.2012974750533
 20
198.3703404202174
 30
0.0
 41
2.0
 42
2.0
 43
2.0
 50
270.0
  0
MTEXT
  5
8268
330
8260
100
AcDbEntity
  8
寸法
 62
     0
100
AcDbMText
 10
831.7012974750533
 20
212.3703404202174
 30
0.0
 40
5.0
 41
0.0
 46
0.0
 71
     5
 72
     1
  1
\A1;28
  7
ＭＳ ゴシック
 11
0.0
 21
1.0
 31
0.0
 73
     1
 44
1.0
  0
POINT
  5
8269
330
8260
100
AcDbEntity
  8
Defpoints
 62
     0
100
AcDbPoint
 10
806.5480441731495
 20
226.3703404202175
 30
0.0
  0
POINT
  5
826A
330
8260
100
AcDbEntity
  8
Defpoints
 62
     0
100
AcDbPoint
 10
800.5480441731495
 20
198.3703404202174
 30
0.0
  0
POINT
  5
826B
330
8260
100
AcDbEntity
  8
Defpoints
 62
     0
100
AcDbPoint
 10
839.2012974750533
 20
198.3703404202174
 30
0.0
  0
ENDBLK
  5
8262
330
8260
100
AcDbEntity
  8
0
100
AcDbBlockEnd
  0
BLOCK
  5
826D
330
826C
100
AcDbEntity
  8
0
100
AcDbBlockBegin
  2
*D55
 70
     1
 10
0.0
 20
0.0
 30
0.0
  3
*D55
  1

  0
LINE
  5
826F
330
826C
100
AcDbEntity
  8
寸法
 62
     0
370
    -2
100
AcDbLine
 10
805.5480441731495
 20
198.3703404202174
 30
0.0
 11
839.2012974750533
 21
198.3703404202174
 31
0.0
  0
LINE
  5
8270
330
826C
100
AcDbEntity
  8
寸法
 62
     0
370
    -2
100
AcDbLine
 10
811.5480441731495
 20
170.3703404202174
 30
0.0
 11
839.2012974750533
 21
170.3703404202174
 31
0.0
  0
LINE
  5
8271
330
826C
100
AcDbEntity
  8
寸法
 62
     0
370
    -2
100
AcDbLine
 10
839.2012974750533
 20
196.3703404202174
 30
0.0
 11
839.2012974750533
 21
172.3703404202174
 31
0.0
  0
INSERT
  5
8272
330
826C
100
AcDbEntity
  8
寸法
 62
     0
370
    -2
100
AcDbBlockReference
  2
_DOT
 10
839.2012974750533
 20
198.3703404202174
 30
0.0
 41
2.0
 42
2.0
 43
2.0
 50
90.0
  0
INSERT
  5
8273
330
826C
100
AcDbEntity
  8
寸法
 62
     0
370
    -2
100
AcDbBlockReference
  2
_DOT
 10
839.2012974750533
 20
170.3703404202174
 30
0.0
 41
2.0
 42
2.0
 43
2.0
 50
270.0
  0
MTEXT
  5
8274
330
826C
100
AcDbEntity
  8
寸法
 62
     0
100
AcDbMText
 10
831.7012974750533
 20
184.3703404202174
 30
0.0
 40
5.0
 41
0.0
 46
0.0
 71
     5
 72
     1
  1
\A1;28
  7
ＭＳ ゴシック
 11
0.0
 21
1.0
 31
0.0
 73
     1
 44
1.0
  0
POINT
  5
8275
330
826C
100
AcDbEntity
  8
Defpoints
 62
     0
100
AcDbPoint
 10
800.5480441731495
 20
198.3703404202174
 30
0.0
  0
POINT
  5
8276
330
826C
100
AcDbEntity
  8
Defpoints
 62
     0
100
AcDbPoint
 10
806.5480441731495
 20
170.3703404202174
 30
0.0
  0
POINT
  5
8277
330
826C
100
AcDbEntity
  8
Defpoints
 62
     0
100
AcDbPoint
 10
839.2012974750533
 20
170.3703404202174
 30
0.0
  0
ENDBLK
  5
826E
330
826C
100
AcDbEntity
  8
0
100
AcDbBlockEnd
  0
BLOCK
  5
8279
330
8278
100
AcDbEntity
  8
0
100
AcDbBlockBegin
  2
*D56
 70
     1
 10
0.0
 20
0.0
 30
0.0
  3
*D56
  1

  0
LINE
  5
827B
330
8278
100
AcDbEntity
  8
寸法
 62
     0
370
    -2
100
AcDbLine
 10
800.5480441731495
 20
193.3703404202174
 30
0.0
 11
800.5480441731495
 21
147.7435517806385
 31
0.0
  0
LINE
  5
827C
330
8278
100
AcDbEntity
  8
寸法
 62
     0
370
    -2
100
AcDbLine
 10
818.5480441731495
 20
166.8259329858537
 30
0.0
 11
818.5480441731495
 21
147.7435517806385
 31
0.0
  0
LINE
  5
827D
330
8278
100
AcDbEntity
  8
寸法
 62
     0
370
    -2
100
AcDbLine
 10
802.5480441731495
 20
147.7435517806385
 30
0.0
 11
816.5480441731495
 21
147.7435517806385
 31
0.0
  0
INSERT
  5
827E
330
8278
100
AcDbEntity
  8
寸法
 62
     0
370
    -2
100
AcDbBlockReference
  2
_DOT
 10
800.5480441731495
 20
147.7435517806385
 30
0.0
 41
2.0
 42
2.0
 43
2.0
 50
180.0
  0
INSERT
  5
827F
330
8278
100
AcDbEntity
  8
寸法
 62
     0
370
    -2
100
AcDbBlockReference
  2
_DOT
 10
818.5480441731495
 20
147.7435517806385
 30
0.0
 41
2.0
 42
2.0
 43
2.0
  0
MTEXT
  5
8280
330
8278
100
AcDbEntity
  8
寸法
 62
     0
100
AcDbMText
 10
809.5480441731495
 20
155.2435517806385
 30
0.0
 40
5.0
 41
0.0
 46
0.0
 71
     5
 72
     1
  1
\A1;18
  7
ＭＳ ゴシック
 73
     1
 44
1.0
  0
POINT
  5
8281
330
8278
100
AcDbEntity
  8
Defpoints
 62
     0
100
AcDbPoint
 10
800.5480441731495
 20
198.3703404202174
 30
0.0
  0
POINT
  5
8282
330
8278
100
AcDbEntity
  8
Defpoints
 62
     0
100
AcDbPoint
 10
818.5480441731495
 20
171.8259329858537
 30
0.0
  0
POINT
  5
8283
330
8278
100
AcDbEntity
  8
Defpoints
 62
     0
100
AcDbPoint
 10
818.5480441731495
 20
147.7435517806385
 30
0.0
  0
ENDBLK
  5
827A
330
8278
100
AcDbEntity
  8
0
100
AcDbBlockEnd
  0
BLOCK
  5
8285
330
8284
100
AcDbEntity
  8
0
100
AcDbBlockBegin
  2
*D57
 70
     1
 10
0.0
 20
0.0
 30
0.0
  3
*D57
  1

  0
LINE
  5
8287
330
8284
100
AcDbEntity
  8
寸法
 62
     0
370
    -2
100
AcDbLine
 10
752.1386417383668
 20
149.9147478545813
 30
0.0
 11
681.298677051834
 21
149.9147478545813
 31
0.0
  0
LINE
  5
8288
330
8284
100
AcDbEntity
  8
寸法
 62
     0
370
    -2
100
AcDbLine
 10
752.1386417383669
 20
271.9147478545813
 30
0.0
 11
681.298677051834
 21
271.9147478545813
 31
0.0
  0
LINE
  5
8289
330
8284
100
AcDbEntity
  8
寸法
 62
     0
370
    -2
100
AcDbLine
 10
681.298677051834
 20
151.9147478545813
 30
0.0
 11
681.298677051834
 21
269.9147478545813
 31
0.0
  0
INSERT
  5
828A
330
8284
100
AcDbEntity
  8
寸法
 62
     0
370
    -2
100
AcDbBlockReference
  2
_DOT
 10
681.298677051834
 20
149.9147478545813
 30
0.0
 41
2.0
 42
2.0
 43
2.0
 50
270.0
  0
INSERT
  5
828B
330
8284
100
AcDbEntity
  8
寸法
 62
     0
370
    -2
100
AcDbBlockReference
  2
_DOT
 10
681.298677051834
 20
271.9147478545813
 30
0.0
 41
2.0
 42
2.0
 43
2.0
 50
90.0
  0
MTEXT
  5
828C
330
8284
100
AcDbEntity
  8
寸法
 62
     0
100
AcDbMText
 10
673.798677051834
 20
210.9147478545813
 30
0.0
 40
5.0
 41
0.0
 46
0.0
 71
     5
 72
     1
  1
\A1;122
  7
ＭＳ ゴシック
 11
0.0
 21
1.0
 31
0.0
 73
     1
 44
1.0
  0
POINT
  5
828D
330
8284
100
AcDbEntity
  8
Defpoints
 62
     0
100
AcDbPoint
 10
757.1386417383668
 20
149.9147478545813
 30
0.0
  0
POINT
  5
828E
330
8284
100
AcDbEntity
  8
Defpoints
 62
     0
100
AcDbPoint
 10
757.1386417383669
 20
271.9147478545813
 30
0.0
  0
POINT
  5
828F
330
8284
100
AcDbEntity
  8
Defpoints
 62
     0
100
AcDbPoint
 10
681.298677051834
 20
271.9147478545813
 30
0.0
  0
ENDBLK
  5
8286
330
8284
100
AcDbEntity
  8
0
100
AcDbBlockEnd
  0
BLOCK
  5
8291
330
8290
100
AcDbEntity
  8
0
100
AcDbBlockBegin
  2
*D58
 70
     1
 10
0.0
 20
0.0
 30
0.0
  3
*D58
  1

  0
LINE
  5
8293
330
8290
100
AcDbEntity
  8
寸法
 62
     0
370
    -2
100
AcDbLine
 10
806.5480441731495
 20
261.4750622893638
 30
0.0
 11
806.5480441731495
 21
282.0376624497846
 31
0.0
  0
LINE
  5
8294
330
8290
100
AcDbEntity
  8
寸法
 62
     0
370
    -2
100
AcDbLine
 10
818.5480441731495
 20
261.4750622893638
 30
0.0
 11
818.5480441731495
 21
282.0376624497846
 31
0.0
  0
LINE
  5
8295
330
8290
100
AcDbEntity
  8
寸法
 62
     0
370
    -2
100
AcDbLine
 10
808.5480441731495
 20
282.0376624497846
 30
0.0
 11
816.5480441731495
 21
282.0376624497846
 31
0.0
  0
INSERT
  5
8296
330
8290
100
AcDbEntity
  8
寸法
 62
     0
370
    -2
100
AcDbBlockReference
  2
_DOT
 10
806.5480441731495
 20
282.0376624497846
 30
0.0
 41
2.0
 42
2.0
 43
2.0
 50
180.0
  0
INSERT
  5
8297
330
8290
100
AcDbEntity
  8
寸法
 62
     0
370
    -2
100
AcDbBlockReference
  2
_DOT
 10
818.5480441731495
 20
282.0376624497846
 30
0.0
 41
2.0
 42
2.0
 43
2.0
  0
MTEXT
  5
8298
330
8290
100
AcDbEntity
  8
寸法
 62
     0
100
AcDbMText
 10
812.5480441731495
 20
289.5376624497846
 30
0.0
 40
5.0
 41
0.0
 46
0.0
 71
     5
 72
     1
  1
\A1;12
  7
ＭＳ ゴシック
 73
     1
 44
1.0
  0
POINT
  5
8299
330
8290
100
AcDbEntity
  8
Defpoints
 62
     0
100
AcDbPoint
 10
806.5480441731495
 20
256.4750622893638
 30
0.0
  0
POINT
  5
829A
330
8290
100
AcDbEntity
  8
Defpoints
 62
     0
100
AcDbPoint
 10
818.5480441731495
 20
256.4750622893638
 30
0.0
  0
POINT
  5
829B
330
8290
100
AcDbEntity
  8
Defpoints
 62
     0
100
AcDbPoint
 10
818.5480441731495
 20
282.0376624497846
 30
0.0
  0
ENDBLK
  5
8292
330
8290
100
AcDbEntity
  8
0
100
AcDbBlockEnd
  0
BLOCK
  5
829D
330
829C
100
AcDbEntity
  8
0
100
AcDbBlockBegin
  2
*D59
 70
     1
 10
0.0
 20
0.0
 30
0.0
  3
*D59
  1

  0
LINE
  5
829F
330
829C
100
AcDbEntity
  8
寸法
 62
     0
370
    -2
100
AcDbLine
 10
806.5480441731495
 20
261.4750622893638
 30
0.0
 11
806.5480441731495
 21
282.0376624497846
 31
0.0
  0
LINE
  5
82A0
330
829C
100
AcDbEntity
  8
寸法
 62
     0
370
    -2
100
AcDbLine
 10
794.5480441731495
 20
261.4750622893638
 30
0.0
 11
794.5480441731495
 21
282.0376624497846
 31
0.0
  0
LINE
  5
82A1
330
829C
100
AcDbEntity
  8
寸法
 62
     0
370
    -2
100
AcDbLine
 10
804.5480441731495
 20
282.0376624497846
 30
0.0
 11
796.5480441731495
 21
282.0376624497846
 31
0.0
  0
INSERT
  5
82A2
330
829C
100
AcDbEntity
  8
寸法
 62
     0
370
    -2
100
AcDbBlockReference
  2
_DOT
 10
806.5480441731495
 20
282.0376624497846
 30
0.0
 41
2.0
 42
2.0
 43
2.0
  0
INSERT
  5
82A3
330
829C
100
AcDbEntity
  8
寸法
 62
     0
370
    -2
100
AcDbBlockReference
  2
_DOT
 10
794.5480441731495
 20
282.0376624497846
 30
0.0
 41
2.0
 42
2.0
 43
2.0
 50
180.0
  0
MTEXT
  5
82A4
330
829C
100
AcDbEntity
  8
寸法
 62
     0
100
AcDbMText
 10
800.5480441731495
 20
289.5376624497846
 30
0.0
 40
5.0
 41
0.0
 46
0.0
 71
     5
 72
     1
  1
\A1;12
  7
ＭＳ ゴシック
 73
     1
 44
1.0
  0
POINT
  5
82A5
330
829C
100
AcDbEntity
  8
Defpoints
 62
     0
100
AcDbPoint
 10
806.5480441731495
 20
256.4750622893638
 30
0.0
  0
POINT
  5
82A6
330
829C
100
AcDbEntity
  8
Defpoints
 62
     0
100
AcDbPoint
 10
794.5480441731495
 20
256.4750622893638
 30
0.0
  0
POINT
  5
82A7
330
829C
100
AcDbEntity
  8
Defpoints
 62
     0
100
AcDbPoint
 10
794.5480441731495
 20
282.0376624497846
 30
0.0
  0
ENDBLK
  5
829E
330
829C
100
AcDbEntity
  8
0
100
AcDbBlockEnd
  0
BLOCK
  5
82A9
330
82A8
100
AcDbEntity
  8
0
100
AcDbBlockBegin
  2
*D60
 70
     1
 10
0.0
 20
0.0
 30
0.0
  3
*D60
  1

  0
LINE
  5
82AB
330
82A8
100
AcDbEntity
  8
寸法
 62
     0
370
    -2
100
AcDbLine
 10
811.5480441731495
 20
157.3703404202174
 30
0.0
 11
839.2012974750533
 21
157.3703404202174
 31
0.0
  0
LINE
  5
82AC
330
82A8
100
AcDbEntity
  8
寸法
 62
     0
370
    -2
100
AcDbLine
 10
811.5480441731495
 20
170.3703404202174
 30
0.0
 11
839.2012974750533
 21
170.3703404202174
 31
0.0
  0
LINE
  5
82AD
330
82A8
100
AcDbEntity
  8
寸法
 62
     0
370
    -2
100
AcDbLine
 10
839.2012974750533
 20
159.3703404202174
 30
0.0
 11
839.2012974750533
 21
168.3703404202174
 31
0.0
  0
INSERT
  5
82AE
330
82A8
100
AcDbEntity
  8
寸法
 62
     0
370
    -2
100
AcDbBlockReference
  2
_DOT
 10
839.2012974750533
 20
157.3703404202174
 30
0.0
 41
2.0
 42
2.0
 43
2.0
 50
270.0
  0
INSERT
  5
82AF
330
82A8
100
AcDbEntity
  8
寸法
 62
     0
370
    -2
100
AcDbBlockReference
  2
_DOT
 10
839.2012974750533
 20
170.3703404202174
 30
0.0
 41
2.0
 42
2.0
 43
2.0
 50
90.0
  0
MTEXT
  5
82B0
330
82A8
100
AcDbEntity
  8
寸法
 62
     0
100
AcDbMText
 10
831.7012974750533
 20
163.8703404202174
 30
0.0
 40
5.0
 41
0.0
 46
0.0
 71
     5
 72
     1
  1
\A1;13
  7
ＭＳ ゴシック
 11
0.0
 21
1.0
 31
0.0
 73
     1
 44
1.0
  0
POINT
  5
82B1
330
82A8
100
AcDbEntity
  8
Defpoints
 62
     0
100
AcDbPoint
 10
806.5480441731495
 20
157.3703404202174
 30
0.0
  0
POINT
  5
82B2
330
82A8
100
AcDbEntity
  8
Defpoints
 62
     0
100
AcDbPoint
 10
806.5480441731495
 20
170.3703404202174
 30
0.0
  0
POINT
  5
82B3
330
82A8
100
AcDbEntity
  8
Defpoints
 62
     0
100
AcDbPoint
 10
839.2012974750533
 20
170.3703404202174
 30
0.0
  0
ENDBLK
  5
82AA
330
82A8
100
AcDbEntity
  8
0
100
AcDbBlockEnd
  0
BLOCK
  5
82B5
330
82B4
100
AcDbEntity
  8
0
100
AcDbBlockBegin
  2
*D61
 70
     1
 10
0.0
 20
0.0
 30
0.0
  3
*D61
  1

  0
LINE
  5
82B7
330
82B4
100
AcDbEntity
  8
寸法
 62
     0
370
    -2
100
AcDbLine
 10
816.5480441731495
 20
157.3703404202174
 30
0.0
 11
856.5922152414881
 21
157.3703404202174
 31
0.0
  0
LINE
  5
82B8
330
82B4
100
AcDbEntity
  8
寸法
 62
     0
370
    -2
100
AcDbLine
 10
811.5480441731495
 20
266.3703404202175
 30
0.0
 11
856.5922152414881
 21
266.3703404202175
 31
0.0
  0
LINE
  5
82B9
330
82B4
100
AcDbEntity
  8
寸法
 62
     0
370
    -2
100
AcDbLine
 10
856.5922152414881
 20
159.3703404202174
 30
0.0
 11
856.5922152414881
 21
264.3703404202175
 31
0.0
  0
INSERT
  5
82BA
330
82B4
100
AcDbEntity
  8
寸法
 62
     0
370
    -2
100
AcDbBlockReference
  2
_DOT
 10
856.5922152414881
 20
157.3703404202174
 30
0.0
 41
2.0
 42
2.0
 43
2.0
 50
270.0
  0
INSERT
  5
82BB
330
82B4
100
AcDbEntity
  8
寸法
 62
     0
370
    -2
100
AcDbBlockReference
  2
_DOT
 10
856.5922152414881
 20
266.3703404202175
 30
0.0
 41
2.0
 42
2.0
 43
2.0
 50
90.0
  0
MTEXT
  5
82BC
330
82B4
100
AcDbEntity
  8
寸法
 62
     0
100
AcDbMText
 10
849.0922152414881
 20
211.8703404202174
 30
0.0
 40
5.0
 41
0.0
 46
0.0
 71
     5
 72
     1
  1
\A1;109
  7
ＭＳ ゴシック
 11
0.0
 21
1.0
 31
0.0
 73
     1
 44
1.0
  0
POINT
  5
82BD
330
82B4
100
AcDbEntity
  8
Defpoints
 62
     0
100
AcDbPoint
 10
811.5480441731495
 20
157.3703404202174
 30
0.0
  0
POINT
  5
82BE
330
82B4
100
AcDbEntity
  8
Defpoints
 62
     0
100
AcDbPoint
 10
806.5480441731495
 20
266.3703404202175
 30
0.0
  0
POINT
  5
82BF
330
82B4
100
AcDbEntity
  8
Defpoints
 62
     0
100
AcDbPoint
 10
856.5922152414881
 20
266.3703404202175
 30
0.0
  0
ENDBLK
  5
82B6
330
82B4
100
AcDbEntity
  8
0
100
AcDbBlockEnd
  0
BLOCK
  5
82C1
330
82C0
100
AcDbEntity
  8
0
100
AcDbBlockBegin
  2
*D62
 70
     1
 10
0.0
 20
0.0
 30
0.0
  3
*D62
  1

  0
LINE
  5
82C3
330
82C0
100
AcDbEntity
  8
寸法
 62
     0
370
    -2
100
AcDbLine
 10
816.5480441731495
 20
254.3703404202175
 30
0.0
 11
839.2012974750533
 21
254.3703404202175
 31
0.0
  0
LINE
  5
82C4
330
82C0
100
AcDbEntity
  8
寸法
 62
     0
370
    -2
100
AcDbLine
 10
811.5480441731495
 20
266.3703404202175
 30
0.0
 11
839.2012974750533
 21
266.3703404202175
 31
0.0
  0
LINE
  5
82C5
330
82C0
100
AcDbEntity
  8
寸法
 62
     0
370
    -2
100
AcDbLine
 10
839.2012974750533
 20
256.3703404202175
 30
0.0
 11
839.2012974750533
 21
264.3703404202175
 31
0.0
  0
INSERT
  5
82C6
330
82C0
100
AcDbEntity
  8
寸法
 62
     0
370
    -2
100
AcDbBlockReference
  2
_DOT
 10
839.2012974750533
 20
254.3703404202175
 30
0.0
 41
2.0
 42
2.0
 43
2.0
 50
270.0
  0
INSERT
  5
82C7
330
82C0
100
AcDbEntity
  8
寸法
 62
     0
370
    -2
100
AcDbBlockReference
  2
_DOT
 10
839.2012974750533
 20
266.3703404202175
 30
0.0
 41
2.0
 42
2.0
 43
2.0
 50
90.0
  0
MTEXT
  5
82C8
330
82C0
100
AcDbEntity
  8
寸法
 62
     0
100
AcDbMText
 10
831.7012974750533
 20
260.3703404202175
 30
0.0
 40
5.0
 41
0.0
 46
0.0
 71
     5
 72
     1
  1
\A1;12
  7
ＭＳ ゴシック
 11
0.0
 21
1.0
 31
0.0
 73
     1
 44
1.0
  0
POINT
  5
82C9
330
82C0
100
AcDbEntity
  8
Defpoints
 62
     0
100
AcDbPoint
 10
811.5480441731495
 20
254.3703404202175
 30
0.0
  0
POINT
  5
82CA
330
82C0
100
AcDbEntity
  8
Defpoints
 62
     0
100
AcDbPoint
 10
806.5480441731495
 20
266.3703404202175
 30
0.0
  0
POINT
  5
82CB
330
82C0
100
AcDbEntity
  8
Defpoints
 62
     0
100
AcDbPoint
 10
839.2012974750533
 20
266.3703404202175
 30
0.0
  0
ENDBLK
  5
82C2
330
82C0
100
AcDbEntity
  8
0
100
AcDbBlockEnd
  0
BLOCK
  5
82D7
330
82D6
100
AcDbEntity
  8
0
100
AcDbBlockBegin
  2
*D63
 70
     1
 10
0.0
 20
0.0
 30
0.0
  3
*D63
  1

  0
LINE
  5
82D9
330
82D6
100
AcDbEntity
  8
寸法
 62
     0
370
    -2
100
AcDbLine
 10
212.1191159999997
 20
274.3040813641803
 30
0.0
 11
212.1191159999997
 21
288.330097414593
 31
0.0
  0
LINE
  5
82DA
330
82D6
100
AcDbEntity
  8
寸法
 62
     0
370
    -2
100
AcDbLine
 10
228.1191159999997
 20
274.3040813641803
 30
0.0
 11
228.1191159999997
 21
288.330097414593
 31
0.0
  0
LINE
  5
82DB
330
82D6
100
AcDbEntity
  8
寸法
 62
     0
370
    -2
100
AcDbLine
 10
214.1191159999997
 20
288.330097414593
 30
0.0
 11
226.1191159999997
 21
288.330097414593
 31
0.0
  0
INSERT
  5
82DC
330
82D6
100
AcDbEntity
  8
寸法
 62
     0
370
    -2
100
AcDbBlockReference
  2
_DOT
 10
212.1191159999997
 20
288.330097414593
 30
0.0
 41
2.0
 42
2.0
 43
2.0
 50
180.0
  0
INSERT
  5
82DD
330
82D6
100
AcDbEntity
  8
寸法
 62
     0
370
    -2
100
AcDbBlockReference
  2
_DOT
 10
228.1191159999997
 20
288.330097414593
 30
0.0
 41
2.0
 42
2.0
 43
2.0
  0
MTEXT
  5
82DE
330
82D6
100
AcDbEntity
  8
寸法
 62
     0
100
AcDbMText
 10
220.1191159999997
 20
295.830097414593
 30
0.0
 40
5.0
 41
0.0
 46
0.0
 71
     5
 72
     1
  1
\A1;%%c16
  7
ＭＳ ゴシック
 73
     1
 44
1.0
  0
POINT
  5
82DF
330
82D6
100
AcDbEntity
  8
Defpoints
 62
     0
100
AcDbPoint
 10
212.1191159999997
 20
269.3040813641803
 30
0.0
  0
POINT
  5
82E0
330
82D6
100
AcDbEntity
  8
Defpoints
 62
     0
100
AcDbPoint
 10
228.1191159999997
 20
269.3040813641803
 30
0.0
  0
POINT
  5
82E1
330
82D6
100
AcDbEntity
  8
Defpoints
 62
     0
100
AcDbPoint
 10
228.1191159999997
 20
288.330097414593
 30
0.0
  0
ENDBLK
  5
82D8
330
82D6
100
AcDbEntity
  8
0
100
AcDbBlockEnd
  0
ENDSEC
  0
SECTION
  2
ENTITIES
  0
LINE
  5
7D5E
330
A
100
AcDbEntity
  8
PRINT BORDER
100
AcDbLine
 10
296.9999999999999
 20
0.0
 30
0.0
 11
296.9999999999999
 21
15.30952622855898
 31
0.0
  0
LINE
  5
7D5F
330
A
100
AcDbEntity
  8
テンプレート
100
AcDbLine
 10
437.9999999999999
 20
38.27810890422097
 30
0.0
 11
15.30952622855898
 21
38.27810890422097
 31
0.0
  0
LINE
  5
7D60
330
A
100
AcDbEntity
  8
テンプレート
100
AcDbLine
 10
15.30952622855898
 20
26.22153683920783
 30
0.0
 11
578.6904737714407
 21
26.22153683920783
 31
0.0
  0
TEXT
  5
7D61
330
A
100
AcDbEntity
  8
テンプレート
100
AcDbText
 10
18.06121699514119
 20
32.16825981613692
 30
0.0
 40
3.5
  1
材質
  7
ＭＳ ゴシック
100
AcDbText
  0
TEXT
  5
7D62
330
A
100
AcDbEntity
  8
テンプレート
100
AcDbText
 10
36.7528253083583
 20
41.29280421576505
 30
0.0
 40
5.5
  1
ブラス
  7
ＭＳ ゴシック
100
AcDbText
  0
TEXT
  5
7D63
330
A
100
AcDbEntity
  8
テンプレート
100
AcDbText
 10
36.7528253083583
 20
29.19151340726899
 30
0.0
 40
5.5
  1
真鍮
  7
ＭＳ ゴシック
100
AcDbText
  0
TEXT
  5
7D64
330
A
100
AcDbEntity
  8
テンプレート
100
AcDbText
 10
18.06121699514119
 20
56.50959028673083
 30
0.0
 40
3.5
  1
品名
  7
ＭＳ ゴシック
100
AcDbText
  0
TEXT
  5
7D65
330
A
100
AcDbEntity
  8
テンプレート
100
AcDbText
 10
18.06121699514119
 20
44.65099339080098
 30
0.0
 40
3.5
  1
仕上げ
  7
ＭＳ ゴシック
100
AcDbText
  0
TEXT
  5
7D66
330
A
100
AcDbEntity
  8
テンプレート
100
AcDbText
 10
298.8233485179306
 20
56.58523052309897
 30
0.0
 40
3.5
  1
品番
  7
ＭＳ ゴシック
100
AcDbText
  0
TEXT
  5
7D67
330
A
100
AcDbEntity
  8
テンプレート
100
AcDbText
 10
36.7528253083583
 20
53.09440584367189
 30
0.0
 40
5.5
  1
ヒンジ - RANDI -
  7
ＭＳ ゴシック
100
AcDbText
  0
TEXT
  5
7D68
330
A
100
AcDbEntity
  8
テンプレート
100
AcDbText
 10
313.0171205424464
 20
52.977080524553
 30
0.0
 40
5.5
  1
RAN35-3615
  7
ＭＳ ゴシック
100
AcDbText
  0
LINE
  5
7D69
330
A
100
AcDbEntity
  8
テンプレート
100
AcDbLine
 10
437.9999999999999
 20
50.16496477419605
 30
0.0
 11
15.30952622855898
 21
50.16496477419605
 31
0.0
  0
LINE
  5
7D6A
330
A
100
AcDbEntity
  8
テンプレート
100
AcDbLine
 10
578.6904737714411
 20
62.22153683920783
 30
0.0
 11
15.30952622855898
 21
62.22153683920783
 31
0.0
  0
LINE
  5
7D6B
330
A
100
AcDbEntity
  8
PRINT BORDER
100
AcDbLine
 10
593.9999999999999
 20
210.0
 30
0.0
 11
578.6904737714411
 21
210.0
 31
0.0
  0
LINE
  5
7D6C
330
A
100
AcDbEntity
  8
PRINT BORDER
100
AcDbLine
 10
0.0
 20
210.0
 30
0.0
 11
15.30952622855898
 21
210.0
 31
0.0
  0
LINE
  5
7D6D
330
A
100
AcDbEntity
  8
PRINT BORDER
100
AcDbLine
 10
296.9999999999999
 20
420.0
 30
0.0
 11
296.9999999999999
 21
404.690473771441
 31
0.0
  0
LINE
  5
7D6E
330
A
100
AcDbEntity
  8
テンプレート
100
AcDbLine
 10
578.6904737714411
 20
62.22153683920783
 30
0.0
 11
578.6904737714411
 21
26.22153683920783
 31
0.0
  0
LINE
  5
7D6F
330
A
100
AcDbEntity
  8
テンプレート
100
AcDbLine
 10
15.30952622855898
 20
62.22153683920783
 30
0.0
 11
15.30952622855898
 21
26.22153683920783
 31
0.0
  0
TEXT
  5
7D70
330
A
100
AcDbEntity
  8
テンプレート
100
AcDbText
 10
494.9733384955217
 20
16.51938390313694
 30
0.0
 40
5.5
  1
大洋金物株式会社  
  7
ＭＳ ゴシック
100
AcDbText
  0
LINE
  5
7D71
330
A
100
AcDbEntity
  8
テンプレート
100
AcDbLine
 10
437.9999999999999
 20
62.22153683920783
 30
0.0
 11
437.9999999999999
 21
26.22153683920783
 31
0.0
  0
LINE
  5
7D72
330
A
100
AcDbEntity
  8
テンプレート
100
AcDbLine
 10
296.9999999999999
 20
62.22153683920783
 30
0.0
 11
296.9999999999999
 21
26.22153683920783
 31
0.0
  0
INSERT
  5
7D73
330
A
100
AcDbEntity
  8
テンプレート
100
AcDbBlockReference
  2
名称未設定-1
 10
548.3945198859805
 20
-7.642344203993161
 30
0.0
 41
0.180975
 42
0.180975
 43
0.180975
  0
LINE
  5
7D74
330
A
100
AcDbEntity
  8
テンプレート
100
AcDbLine
 10
15.30952622855898
 20
210.0
 30
0.0
 11
15.30952622855898
 21
26.22153683920783
 31
0.0
  0
LINE
  5
7D75
330
A
100
AcDbEntity
  8
テンプレート
100
AcDbLine
 10
15.30952622855898
 20
210.0
 30
0.0
 11
15.30952622855898
 21
404.690473771441
 31
0.0
  0
LINE
  5
7D76
330
A
100
AcDbEntity
  8
テンプレート
100
AcDbLine
 10
296.9999999999999
 20
404.690473771441
 30
0.0
 11
15.30952622855887
 21
404.690473771441
 31
0.0
  0
LINE
  5
7D77
330
A
100
AcDbEntity
  8
テンプレート
100
AcDbLine
 10
296.9999999999999
 20
404.690473771441
 30
0.0
 11
578.6904737714411
 21
404.690473771441
 31
0.0
  0
LINE
  5
7D78
330
A
100
AcDbEntity
  8
テンプレート
100
AcDbLine
 10
578.6904737714411
 20
210.0
 30
0.0
 11
578.6904737714411
 21
404.690473771441
 31
0.0
  0
LINE
  5
7D79
330
A
100
AcDbEntity
  8
テンプレート
100
AcDbLine
 10
578.6904737714411
 20
210.0
 30
0.0
 11
578.6904737714411
 21
26.22153683920783
 31
0.0
  0
LWPOLYLINE
  5
7D7A
330
A
100
AcDbEntity
  8
PRINT BORDER
  6
HIDDEN
 48
3.0
100
AcDbPolyline
 90
        4
 70
     1
 43
0.0
 10
0.0
 20
0.0
 10
0.0
 20
420.0
 10
593.9999999999999
 20
420.0
 10
593.9999999999999
 20
0.0
  0
TEXT
  5
7D7B
330
A
100
AcDbEntity
  8
テンプレート
100
AcDbText
 10
298.7989156222221
 20
32.62405342819488
 30
0.0
 40
3.5
  1
縮尺
  7
ＭＳ ゴシック
100
AcDbText
  0
TEXT
  5
7D7C
330
A
100
AcDbEntity
  8
テンプレート
100
AcDbText
 10
313.0171205424464
 20
28.29362070227194
 30
0.0
 40
5.5
  1
1/2
  7
ＭＳ ゴシック
100
AcDbText
  0
TEXT
  5
7D7D
330
A
100
AcDbEntity
  8
テンプレート
100
AcDbText
 10
298.8233485179306
 20
44.52865845808583
 30
0.0
 40
3.5
  1
扉厚
  7
ＭＳ ゴシック
100
AcDbText
  0
TEXT
  5
7D7E
330
A
100
AcDbEntity
  8
テンプレート
100
AcDbText
 10
440.0887524673468
 20
56.58523052309897
 30
0.0
 40
3.5
  1
備考
  7
ＭＳ ゴシック
100
AcDbText
  0
TEXT
  5
7D7F
330
A
100
AcDbEntity
  8
テンプレート
100
AcDbText
 10
444.0180146133788
 20
46.4888579631901
 30
0.0
 40
5.0
  1
木ネジ付
  7
ＭＳ ゴシック
100
AcDbText
  0
TEXT
  5
7D80
330
A
100
AcDbEntity
  8
テンプレート
100
AcDbText
 10
451.9619706133789
 20
54.97679765444849
 30
0.0
 40
5.5
  1
一枚単位
  7
ＭＳ ゴシック
100
AcDbText
  0
TEXT
  5
7D81
330
A
100
AcDbEntity
  8
テンプレート
100
AcDbText
 10
192.6640855805967
 20
92.94340789374755
 30
0.0
 40
5.0
  1
　 加工は現物合わせの上行って下さい。
  7
ＭＳ ゴシック
100
AcDbText
  0
TEXT
  5
7D82
330
A
100
AcDbEntity
  8
テンプレート
100
AcDbText
 10
192.8363286628053
 20
101.0471919898874
 30
0.0
 40
5.0
  1
※ 輸入製品の為、国内製品と比べ製品寸法の個体差に幅が有ります。
  7
ＭＳ ゴシック
100
AcDbText
  0
MTEXT
  5
7D83
102
{ACAD_XDICTIONARY
360
7D84
102
}
330
A
100
AcDbEntity
  8
TFORMLOGO
100
AcDbMText
 10
16.01106879791133
 20
22.96825509339511
 30
0.0
 40
4.0
 41
0.0
 46
4.0
 71
     1
 72
     1
  1
{20181020N}
  7
ＭＳ ゴシック
 73
     1
 44
1.0
1001
ACAD
1000
ACAD_MTEXT_DEFINED_HEIGHT_BEGIN
1070
    46
1040
4.0
1000
ACAD_MTEXT_DEFINED_HEIGHT_END
  0
TEXT
  5
7D88
330
A
100
AcDbEntity
  8
テンプレート
100
AcDbText
 10
192.5975540869563
 20
82.68101008695663
 30
0.0
 40
5.0
  1
※ 右左勝手があります。ご注文の際はご指示お願いします。
  7
ＭＳ ゴシック
100
AcDbText
  0
TEXT
  5
7D89
330
A
100
AcDbEntity
  8
テンプレート
100
AcDbText
 10
192.8363286628053
 20
72.05606016380045
 30
0.0
 40
5.0
  1
※ 本図は右勝手を示す。
  7
ＭＳ ゴシック
100
AcDbText
  0
LINE
  5
7DED
102
{ACAD_REACTORS
330
7DF8
102
}
330
A
100
AcDbEntity
  8
モデル
100
AcDbLine
 10
168.1191159999997
 20
338.9401771613182
 30
0.0
 11
168.1191159999997
 21
341.9401771613182
 31
0.0
  0
LINE
  5
7DEE
330
A
100
AcDbEntity
  8
モデル
100
AcDbLine
 10
213.5047377223382
 20
341.9401771613182
 30
0.0
 11
168.1191159999997
 21
341.9401771613182
 31
0.0
  0
LINE
  5
7DEF
330
A
100
AcDbEntity
  8
モデル
100
AcDbLine
 10
168.1191159999997
 20
338.9401771613182
 30
0.0
 11
212.2609991772488
 21
338.9401771613182
 31
0.0
  0
CIRCLE
  5
7DF0
330
A
100
AcDbEntity
  8
モデル
100
AcDbCircle
 10
220.1191159999997
 20
337.4401771613182
 30
0.0
 40
8.0
  0
CIRCLE
  5
7DF1
330
A
100
AcDbEntity
  8
モデル
100
AcDbCircle
 10
220.1191159999997
 20
337.4401771613182
 30
0.0
 40
7.613645878376474
  0
LINE
  5
7DF2
330
A
100
AcDbEntity
  8
モデル
100
AcDbLine
 10
227.3302185509277
 20
341.9401771613182
 30
0.0
 11
272.1191159999997
 21
341.9401771613182
 31
0.0
  0
LINE
  5
7DF3
330
A
100
AcDbEntity
  8
モデル
100
AcDbLine
 10
248.1191159999997
 20
338.9401771613182
 30
0.0
 11
248.1191159999997
 21
341.9401771613182
 31
0.0
  0
LINE
  5
7DF4
330
A
100
AcDbEntity
  8
モデル
100
AcDbLine
 10
272.1191159999997
 20
338.9401771613182
 30
0.0
 11
228.4857162653404
 21
338.9401771613182
 31
0.0
  0
LINE
  5
7DF5
330
A
100
AcDbEntity
  8
モデル
100
AcDbLine
 10
272.1191159999997
 20
338.9401771613182
 30
0.0
 11
272.1191159999997
 21
341.9401771613182
 31
0.0
  0
DIMENSION
  5
7DF6
102
{ACAD_REACTORS
330
7DF8
102
}
102
{ACAD_XDICTIONARY
360
7DF7
102
}
330
A
100
AcDbEntity
  8
寸法
100
AcDbDimension
  2
*D15
 10
272.1191159999997
 20
360.2455977256454
 30
0.0
 11
220.1191159999997
 21
367.7455977256454
 31
0.0
 70
    32
 71
     5
 42
104.0
 73
     0
 74
     0
 75
     0
  3
tfrom線あり
100
AcDbAlignedDimension
 13
168.1191159999997
 23
341.9401771613182
 33
0.0
 14
272.1191159999997
 24
341.9401771613182
 34
0.0
100
AcDbRotatedDimension
1001
ACAD
1000
DSTYLE
1002
{
1070
   144
1040
1.0
1002
}
  0
LINE
  5
7DF9
330
A
100
AcDbEntity
  8
モデル
100
AcDbLine
 10
427.1825773681118
 20
262.4568860430597
 30
0.0
 11
427.1825773681118
 21
155.368071174332
 31
0.0
  0
LINE
  5
7DFA
330
A
100
AcDbEntity
  8
モデル
100
AcDbLine
 10
430.1825773681118
 20
155.368071174332
 30
0.0
 11
430.1825773681118
 21
262.4568860430597
 31
0.0
  0
ARC
  5
7DFB
330
A
100
AcDbEntity
  8
モデル
100
AcDbCircle
 10
220.1191159999997
 20
337.4401771613182
 30
0.0
 40
8.5
100
AcDbArc
 50
169.8357513782765
 51
148.0342812492031
  0
LINE
  5
7DFC
330
A
100
AcDbEntity
  8
モデル
100
AcDbLine
 10
425.6825773681118
 20
263.9567639798917
 30
0.0
 11
433.6825773681118
 21
263.9567639798917
 31
0.0
  0
LINE
  5
7DFD
330
A
100
AcDbEntity
  8
モデル
100
AcDbLine
 10
417.6825773681118
 20
262.4568860430597
 30
0.0
 11
427.1825773681118
 21
262.4568860430597
 31
0.0
  0
LINE
  5
7DFE
330
A
100
AcDbEntity
  8
モデル
100
AcDbLine
 10
425.6825773681118
 20
265.4190482713348
 30
0.0
 11
432.5492449027775
 21
265.4190482713348
 31
0.0
  0
LINE
  5
7DFF
330
A
100
AcDbEntity
  8
モデル
100
AcDbLine
 10
432.5492449027775
 20
265.4190482713348
 30
0.0
 11
433.6825773681118
 21
263.9567639798917
 31
0.0
  0
LINE
  5
7E00
330
A
100
AcDbEntity
  8
モデル
100
AcDbLine
 10
433.6825773681118
 20
210.9124786086959
 30
0.0
 11
433.6825773681118
 21
263.9567639798917
 31
0.0
  0
LINE
  5
7E01
330
A
100
AcDbEntity
  8
モデル
100
AcDbLine
 10
432.5492449027775
 20
266.1846823258778
 30
0.0
 11
432.5492449027775
 21
265.4190482713348
 31
0.0
  0
LINE
  5
7E02
330
A
100
AcDbEntity
  8
モデル
100
AcDbLine
 10
425.6825773681118
 20
266.9503163804209
 30
0.0
 11
432.5492449027775
 21
266.9503163804209
 31
0.0
  0
LINE
  5
7E03
330
A
100
AcDbEntity
  8
モデル
100
AcDbLine
 10
432.5492449027775
 20
266.9503163804209
 30
0.0
 11
433.6825773681118
 21
268.412600671864
 31
0.0
  0
LINE
  5
7E04
330
A
100
AcDbEntity
  8
モデル
100
AcDbLine
 10
432.5492449027775
 20
266.1846823258778
 30
0.0
 11
432.5492449027775
 21
266.9503163804209
 31
0.0
  0
LINE
  5
7E05
330
A
100
AcDbEntity
  8
モデル
100
AcDbLine
 10
425.6825773681118
 20
268.412600671864
 30
0.0
 11
433.6825773681118
 21
268.412600671864
 31
0.0
  0
LINE
  5
7E06
330
A
100
AcDbEntity
  8
モデル
100
AcDbLine
 10
433.6825773681118
 20
268.412600671864
 30
0.0
 11
433.6825773681118
 21
269.3040813641803
 31
0.0
  0
LINE
  5
7E07
330
A
100
AcDbEntity
  8
モデル
100
AcDbLine
 10
433.6825773681118
 20
269.3040813641803
 30
0.0
 11
433.2962232464882
 21
269.9124786086959
 31
0.0
  0
LINE
  5
7E08
330
A
100
AcDbEntity
  8
モデル
100
AcDbLine
 10
433.6825773681118
 20
269.3040813641803
 30
0.0
 11
425.6825773681118
 21
269.3040813641803
 31
0.0
  0
LINE
  5
7E09
330
A
100
AcDbEntity
  8
モデル
100
AcDbLine
 10
433.2962232464882
 20
269.9124786086959
 30
0.0
 11
425.6825773681118
 21
269.9124786086959
 31
0.0
  0
LINE
  5
7E0A
330
A
100
AcDbEntity
  8
モデル
100
AcDbLine
 10
425.6825773681118
 20
266.9503163804209
 30
0.0
 11
418.815909833446
 21
266.9503163804209
 31
0.0
  0
LINE
  5
7E0B
330
A
100
AcDbEntity
  8
モデル
100
AcDbLine
 10
418.815909833446
 20
266.9503163804209
 30
0.0
 11
417.6825773681118
 21
268.412600671864
 31
0.0
  0
LINE
  5
7E0C
330
A
100
AcDbEntity
  8
モデル
100
AcDbLine
 10
418.815909833446
 20
266.1846823258778
 30
0.0
 11
418.815909833446
 21
266.9503163804209
 31
0.0
  0
LINE
  5
7E0D
330
A
100
AcDbEntity
  8
モデル
100
AcDbLine
 10
425.6825773681118
 20
268.412600671864
 30
0.0
 11
417.6825773681118
 21
268.412600671864
 31
0.0
  0
LINE
  5
7E0E
330
A
100
AcDbEntity
  8
モデル
100
AcDbLine
 10
417.6825773681118
 20
268.412600671864
 30
0.0
 11
417.6825773681118
 21
269.3040813641803
 31
0.0
  0
LINE
  5
7E0F
330
A
100
AcDbEntity
  8
モデル
100
AcDbLine
 10
417.6825773681118
 20
269.3040813641803
 30
0.0
 11
418.0689314897353
 21
269.9124786086959
 31
0.0
  0
LINE
  5
7E10
330
A
100
AcDbEntity
  8
モデル
100
AcDbLine
 10
417.6825773681118
 20
269.3040813641803
 30
0.0
 11
425.6825773681118
 21
269.3040813641803
 31
0.0
  0
LINE
  5
7E11
330
A
100
AcDbEntity
  8
モデル
100
AcDbLine
 10
418.0689314897353
 20
269.9124786086959
 30
0.0
 11
425.6825773681118
 21
269.9124786086959
 31
0.0
  0
LINE
  5
7E12
330
A
100
AcDbEntity
  8
モデル
100
AcDbLine
 10
425.6825773681118
 20
263.9567639798917
 30
0.0
 11
417.6825773681118
 21
263.9567639798917
 31
0.0
  0
LINE
  5
7E13
330
A
100
AcDbEntity
  8
モデル
100
AcDbLine
 10
425.6825773681118
 20
265.4190482713348
 30
0.0
 11
418.815909833446
 21
265.4190482713348
 31
0.0
  0
LINE
  5
7E14
330
A
100
AcDbEntity
  8
モデル
100
AcDbLine
 10
418.815909833446
 20
265.4190482713348
 30
0.0
 11
417.6825773681118
 21
263.9567639798917
 31
0.0
  0
LINE
  5
7E15
330
A
100
AcDbEntity
  8
モデル
100
AcDbLine
 10
418.815909833446
 20
266.1846823258778
 30
0.0
 11
418.815909833446
 21
265.4190482713348
 31
0.0
  0
LINE
  5
7E16
330
A
100
AcDbEntity
  8
モデル
100
AcDbLine
 10
417.6825773681118
 20
210.9124786086959
 30
0.0
 11
417.6825773681118
 21
263.9567639798917
 31
0.0
  0
ARC
  5
7E17
330
A
100
AcDbEntity
  8
モデル
100
AcDbCircle
 10
419.1825773681118
 20
208.9124786086959
 30
0.0
 40
2.0
100
AcDbArc
 50
90.0
 51
270.0
  0
ARC
  5
7E18
330
A
100
AcDbEntity
  8
モデル
100
AcDbCircle
 10
432.1825773681118
 20
208.9124786086959
 30
0.0
 40
2.0
100
AcDbArc
 50
270.0
 51
90.0
  0
LINE
  5
7E19
330
A
100
AcDbEntity
  8
モデル
100
AcDbLine
 10
417.6825773681118
 20
210.9124786086959
 30
0.0
 11
427.1825773681118
 21
210.9124786086959
 31
0.0
  0
LINE
  5
7E1A
330
A
100
AcDbEntity
  8
モデル
100
AcDbLine
 10
432.1825773681118
 20
206.9124786086959
 30
0.0
 11
430.1825773681118
 21
206.9124786086959
 31
0.0
  0
LINE
  5
7E1B
330
A
100
AcDbEntity
  8
モデル
100
AcDbLine
 10
425.6825773681118
 20
263.9567639798917
 30
0.0
 11
433.6825773681118
 21
263.9567639798917
 31
0.0
  0
LINE
  5
7E1C
330
A
100
AcDbEntity
  8
モデル
100
AcDbLine
 10
425.6825773681118
 20
265.4190482713348
 30
0.0
 11
432.5492449027775
 21
265.4190482713348
 31
0.0
  0
LINE
  5
7E1D
330
A
100
AcDbEntity
  8
モデル
100
AcDbLine
 10
432.5492449027775
 20
265.4190482713348
 30
0.0
 11
433.6825773681118
 21
263.9567639798917
 31
0.0
  0
LINE
  5
7E1E
330
A
100
AcDbEntity
  8
モデル
100
AcDbLine
 10
433.6825773681118
 20
210.9124786086959
 30
0.0
 11
433.6825773681118
 21
263.9567639798917
 31
0.0
  0
LINE
  5
7E1F
330
A
100
AcDbEntity
  8
モデル
100
AcDbLine
 10
432.5492449027775
 20
266.1846823258778
 30
0.0
 11
432.5492449027775
 21
265.4190482713348
 31
0.0
  0
LINE
  5
7E20
330
A
100
AcDbEntity
  8
モデル
100
AcDbLine
 10
425.6825773681118
 20
266.9503163804209
 30
0.0
 11
432.5492449027775
 21
266.9503163804209
 31
0.0
  0
LINE
  5
7E21
330
A
100
AcDbEntity
  8
モデル
100
AcDbLine
 10
432.5492449027775
 20
266.9503163804209
 30
0.0
 11
433.6825773681118
 21
268.412600671864
 31
0.0
  0
LINE
  5
7E22
330
A
100
AcDbEntity
  8
モデル
100
AcDbLine
 10
432.5492449027775
 20
266.1846823258778
 30
0.0
 11
432.5492449027775
 21
266.9503163804209
 31
0.0
  0
LINE
  5
7E23
330
A
100
AcDbEntity
  8
モデル
100
AcDbLine
 10
425.6825773681118
 20
268.412600671864
 30
0.0
 11
433.6825773681118
 21
268.412600671864
 31
0.0
  0
LINE
  5
7E24
330
A
100
AcDbEntity
  8
モデル
100
AcDbLine
 10
433.6825773681118
 20
268.412600671864
 30
0.0
 11
433.6825773681118
 21
269.3040813641803
 31
0.0
  0
LINE
  5
7E25
330
A
100
AcDbEntity
  8
モデル
100
AcDbLine
 10
433.6825773681118
 20
269.3040813641803
 30
0.0
 11
433.2962232464882
 21
269.9124786086959
 31
0.0
  0
LINE
  5
7E26
330
A
100
AcDbEntity
  8
モデル
100
AcDbLine
 10
433.6825773681118
 20
269.3040813641803
 30
0.0
 11
425.6825773681118
 21
269.3040813641803
 31
0.0
  0
LINE
  5
7E27
330
A
100
AcDbEntity
  8
モデル
100
AcDbLine
 10
433.2962232464882
 20
269.9124786086959
 30
0.0
 11
425.6825773681118
 21
269.9124786086959
 31
0.0
  0
LINE
  5
7E28
330
A
100
AcDbEntity
  8
モデル
100
AcDbLine
 10
425.6825773681118
 20
266.9503163804209
 30
0.0
 11
418.815909833446
 21
266.9503163804209
 31
0.0
  0
LINE
  5
7E29
330
A
100
AcDbEntity
  8
モデル
100
AcDbLine
 10
418.815909833446
 20
266.9503163804209
 30
0.0
 11
417.6825773681118
 21
268.412600671864
 31
0.0
  0
LINE
  5
7E2A
330
A
100
AcDbEntity
  8
モデル
100
AcDbLine
 10
418.815909833446
 20
266.1846823258778
 30
0.0
 11
418.815909833446
 21
266.9503163804209
 31
0.0
  0
LINE
  5
7E2B
330
A
100
AcDbEntity
  8
モデル
100
AcDbLine
 10
425.6825773681118
 20
268.412600671864
 30
0.0
 11
417.6825773681118
 21
268.412600671864
 31
0.0
  0
LINE
  5
7E2C
330
A
100
AcDbEntity
  8
モデル
100
AcDbLine
 10
417.6825773681118
 20
268.412600671864
 30
0.0
 11
417.6825773681118
 21
269.3040813641803
 31
0.0
  0
LINE
  5
7E2D
330
A
100
AcDbEntity
  8
モデル
100
AcDbLine
 10
417.6825773681118
 20
269.3040813641803
 30
0.0
 11
418.0689314897353
 21
269.9124786086959
 31
0.0
  0
LINE
  5
7E2E
330
A
100
AcDbEntity
  8
モデル
100
AcDbLine
 10
417.6825773681118
 20
269.3040813641803
 30
0.0
 11
425.6825773681118
 21
269.3040813641803
 31
0.0
  0
LINE
  5
7E2F
330
A
100
AcDbEntity
  8
モデル
100
AcDbLine
 10
418.0689314897353
 20
269.9124786086959
 30
0.0
 11
425.6825773681118
 21
269.9124786086959
 31
0.0
  0
LINE
  5
7E30
330
A
100
AcDbEntity
  8
モデル
100
AcDbLine
 10
425.6825773681118
 20
263.9567639798917
 30
0.0
 11
417.6825773681118
 21
263.9567639798917
 31
0.0
  0
LINE
  5
7E31
330
A
100
AcDbEntity
  8
モデル
100
AcDbLine
 10
425.6825773681118
 20
265.4190482713348
 30
0.0
 11
418.815909833446
 21
265.4190482713348
 31
0.0
  0
LINE
  5
7E32
330
A
100
AcDbEntity
  8
モデル
100
AcDbLine
 10
418.815909833446
 20
265.4190482713348
 30
0.0
 11
417.6825773681118
 21
263.9567639798917
 31
0.0
  0
LINE
  5
7E33
330
A
100
AcDbEntity
  8
モデル
100
AcDbLine
 10
418.815909833446
 20
266.1846823258778
 30
0.0
 11
418.815909833446
 21
265.4190482713348
 31
0.0
  0
LINE
  5
7E34
330
A
100
AcDbEntity
  8
モデル
100
AcDbLine
 10
417.6825773681118
 20
210.9124786086959
 30
0.0
 11
417.6825773681118
 21
263.9567639798917
 31
0.0
  0
LINE
  5
7E35
330
A
100
AcDbEntity
  8
モデル
100
AcDbLine
 10
430.1825773681118
 20
155.368071174332
 30
0.0
 11
427.1825773681118
 21
155.368071174332
 31
0.0
  0
LINE
  5
7E36
330
A
100
AcDbEntity
  8
モデル
100
AcDbLine
 10
425.6825773681118
 20
153.8681932375001
 30
0.0
 11
433.6825773681118
 21
153.8681932375001
 31
0.0
  0
LINE
  5
7E37
330
A
100
AcDbEntity
  8
モデル
100
AcDbLine
 10
417.6825773681118
 20
155.368071174332
 30
0.0
 11
427.1825773681118
 21
155.368071174332
 31
0.0
  0
LINE
  5
7E38
330
A
100
AcDbEntity
  8
モデル
100
AcDbLine
 10
425.6825773681118
 20
152.405908946057
 30
0.0
 11
432.5492449027775
 21
152.405908946057
 31
0.0
  0
LINE
  5
7E39
330
A
100
AcDbEntity
  8
モデル
100
AcDbLine
 10
432.5492449027775
 20
152.405908946057
 30
0.0
 11
433.6825773681118
 21
153.8681932375001
 31
0.0
  0
LINE
  5
7E3A
330
A
100
AcDbEntity
  8
モデル
100
AcDbLine
 10
433.6825773681118
 20
206.9124786086959
 30
0.0
 11
433.6825773681118
 21
153.8681932375001
 31
0.0
  0
LINE
  5
7E3B
330
A
100
AcDbEntity
  8
モデル
100
AcDbLine
 10
432.5492449027775
 20
151.6402748915139
 30
0.0
 11
432.5492449027775
 21
152.405908946057
 31
0.0
  0
LINE
  5
7E3C
330
A
100
AcDbEntity
  8
モデル
100
AcDbLine
 10
425.6825773681118
 20
150.8746408369709
 30
0.0
 11
432.5492449027775
 21
150.8746408369709
 31
0.0
  0
LINE
  5
7E3D
330
A
100
AcDbEntity
  8
モデル
100
AcDbLine
 10
432.5492449027775
 20
150.8746408369709
 30
0.0
 11
433.6825773681118
 21
149.4123565455278
 31
0.0
  0
LINE
  5
7E3E
330
A
100
AcDbEntity
  8
モデル
100
AcDbLine
 10
432.5492449027775
 20
151.6402748915139
 30
0.0
 11
432.5492449027775
 21
150.8746408369709
 31
0.0
  0
LINE
  5
7E3F
330
A
100
AcDbEntity
  8
モデル
100
AcDbLine
 10
425.6825773681118
 20
149.4123565455278
 30
0.0
 11
433.6825773681118
 21
149.4123565455278
 31
0.0
  0
LINE
  5
7E40
330
A
100
AcDbEntity
  8
モデル
100
AcDbLine
 10
433.6825773681118
 20
149.4123565455278
 30
0.0
 11
433.6825773681118
 21
148.5208758532114
 31
0.0
  0
LINE
  5
7E41
330
A
100
AcDbEntity
  8
モデル
100
AcDbLine
 10
433.6825773681118
 20
148.5208758532114
 30
0.0
 11
433.2962232464882
 21
147.9124786086958
 31
0.0
  0
LINE
  5
7E42
330
A
100
AcDbEntity
  8
モデル
100
AcDbLine
 10
433.6825773681118
 20
148.5208758532114
 30
0.0
 11
425.6825773681118
 21
148.5208758532114
 31
0.0
  0
LINE
  5
7E43
330
A
100
AcDbEntity
  8
モデル
100
AcDbLine
 10
433.2962232464882
 20
147.9124786086958
 30
0.0
 11
425.6825773681118
 21
147.9124786086958
 31
0.0
  0
LINE
  5
7E44
330
A
100
AcDbEntity
  8
モデル
100
AcDbLine
 10
425.6825773681118
 20
150.8746408369709
 30
0.0
 11
418.815909833446
 21
150.8746408369709
 31
0.0
  0
LINE
  5
7E45
330
A
100
AcDbEntity
  8
モデル
100
AcDbLine
 10
418.815909833446
 20
150.8746408369709
 30
0.0
 11
417.6825773681118
 21
149.4123565455278
 31
0.0
  0
LINE
  5
7E46
330
A
100
AcDbEntity
  8
モデル
100
AcDbLine
 10
418.815909833446
 20
151.6402748915139
 30
0.0
 11
418.815909833446
 21
150.8746408369709
 31
0.0
  0
LINE
  5
7E47
330
A
100
AcDbEntity
  8
モデル
100
AcDbLine
 10
425.6825773681118
 20
149.4123565455278
 30
0.0
 11
417.6825773681118
 21
149.4123565455278
 31
0.0
  0
LINE
  5
7E48
330
A
100
AcDbEntity
  8
モデル
100
AcDbLine
 10
417.6825773681118
 20
149.4123565455278
 30
0.0
 11
417.6825773681118
 21
148.5208758532114
 31
0.0
  0
LINE
  5
7E49
330
A
100
AcDbEntity
  8
モデル
100
AcDbLine
 10
417.6825773681118
 20
148.5208758532114
 30
0.0
 11
418.0689314897353
 21
147.9124786086958
 31
0.0
  0
LINE
  5
7E4A
330
A
100
AcDbEntity
  8
モデル
100
AcDbLine
 10
417.6825773681118
 20
148.5208758532114
 30
0.0
 11
425.6825773681118
 21
148.5208758532114
 31
0.0
  0
LINE
  5
7E4B
330
A
100
AcDbEntity
  8
モデル
100
AcDbLine
 10
418.0689314897353
 20
147.9124786086958
 30
0.0
 11
425.6825773681118
 21
147.9124786086958
 31
0.0
  0
LINE
  5
7E4C
330
A
100
AcDbEntity
  8
モデル
100
AcDbLine
 10
425.6825773681118
 20
153.8681932375001
 30
0.0
 11
417.6825773681118
 21
153.8681932375001
 31
0.0
  0
LINE
  5
7E4D
330
A
100
AcDbEntity
  8
モデル
100
AcDbLine
 10
425.6825773681118
 20
152.405908946057
 30
0.0
 11
418.815909833446
 21
152.405908946057
 31
0.0
  0
LINE
  5
7E4E
330
A
100
AcDbEntity
  8
モデル
100
AcDbLine
 10
418.815909833446
 20
152.405908946057
 30
0.0
 11
417.6825773681118
 21
153.8681932375001
 31
0.0
  0
LINE
  5
7E4F
330
A
100
AcDbEntity
  8
モデル
100
AcDbLine
 10
418.815909833446
 20
151.6402748915139
 30
0.0
 11
418.815909833446
 21
152.405908946057
 31
0.0
  0
LINE
  5
7E50
330
A
100
AcDbEntity
  8
モデル
100
AcDbLine
 10
417.6825773681118
 20
206.9124786086959
 30
0.0
 11
417.6825773681118
 21
153.8681932375001
 31
0.0
  0
LINE
  5
7E51
330
A
100
AcDbEntity
  8
モデル
100
AcDbLine
 10
430.1825773681118
 20
155.368071174332
 30
0.0
 11
433.6825773681118
 21
155.368071174332
 31
0.0
  0
LINE
  5
7E52
330
A
100
AcDbEntity
  8
モデル
100
AcDbLine
 10
427.1825773681118
 20
206.9124786086959
 30
0.0
 11
419.1825773681118
 21
206.9124786086959
 31
0.0
  0
LINE
  5
7E53
330
A
100
AcDbEntity
  8
モデル
100
AcDbLine
 10
430.1825773681118
 20
210.9124786086959
 30
0.0
 11
433.6825773681118
 21
210.9124786086959
 31
0.0
  0
LINE
  5
7E54
330
A
100
AcDbEntity
  8
モデル
100
AcDbLine
 10
417.6825773681118
 20
206.9124786086959
 30
0.0
 11
419.1825773681118
 21
206.9124786086959
 31
0.0
  0
LINE
  5
7E55
330
A
100
AcDbEntity
  8
モデル
100
AcDbLine
 10
432.1825773681118
 20
206.9124786086959
 30
0.0
 11
433.6825773681118
 21
206.9124786086959
 31
0.0
  0
LINE
  5
7E56
330
A
100
AcDbEntity
  8
モデル
100
AcDbLine
 10
427.1825773681118
 20
262.4568860430597
 30
0.0
 11
433.6825773681118
 21
262.4568860430597
 31
0.0
  0
LINE
  5
7FC7
330
A
100
AcDbEntity
  8
モデル
100
AcDbLine
 10
192.1191159999997
 20
165.4568860430597
 30
0.0
 11
192.1191159999997
 21
210.9124786086959
 31
0.0
  0
LINE
  5
7FC8
330
A
100
AcDbEntity
  8
モデル
100
AcDbLine
 10
192.1191159999997
 20
210.9124786086959
 30
0.0
 11
212.1191159999997
 21
210.9124786086959
 31
0.0
  0
LINE
  5
7FC9
330
A
100
AcDbEntity
  8
モデル
100
AcDbLine
 10
212.1191159999997
 20
262.4568860430597
 30
0.0
 11
180.1191159999997
 21
262.4568860430597
 31
0.0
  0
LINE
  5
7FCA
330
A
100
AcDbEntity
  8
モデル
100
AcDbLine
 10
168.1191159999997
 20
165.4568860430597
 30
0.0
 11
168.1191159999997
 21
250.4568860430597
 31
0.0
  0
LINE
  5
7FCB
330
A
100
AcDbEntity
  8
モデル
100
AcDbLine
 10
228.1191159999997
 20
210.9124786086959
 30
0.0
 11
228.1191159999997
 21
263.9567639798917
 31
0.0
  0
ARC
  5
7FCC
330
A
100
AcDbEntity
  8
モデル
100
AcDbCircle
 10
213.6191159999997
 20
208.9124786086959
 30
0.0
 40
2.0
100
AcDbArc
 50
90.0
 51
270.0
  0
ARC
  5
7FCD
330
A
100
AcDbEntity
  8
モデル
100
AcDbCircle
 10
226.6191159999997
 20
208.9124786086959
 30
0.0
 40
2.0
100
AcDbArc
 50
270.0
 51
90.0
  0
LINE
  5
7FCE
330
A
100
AcDbEntity
  8
モデル
100
AcDbLine
 10
212.1191159999997
 20
210.9124786086959
 30
0.0
 11
228.1191159999997
 21
210.9124786086959
 31
0.0
  0
LINE
  5
7FCF
330
A
100
AcDbEntity
  8
モデル
100
AcDbLine
 10
226.6191159999997
 20
206.9124786086959
 30
0.0
 11
213.6191159999997
 21
206.9124786086959
 31
0.0
  0
LINE
  5
7FD0
330
A
100
AcDbEntity
  8
モデル
100
AcDbLine
 10
220.1191159999997
 20
263.9567639798917
 30
0.0
 11
228.1191159999997
 21
263.9567639798917
 31
0.0
  0
LINE
  5
7FD1
330
A
100
AcDbEntity
  8
モデル
100
AcDbLine
 10
220.1191159999997
 20
265.4190482713348
 30
0.0
 11
226.9857835346654
 21
265.4190482713348
 31
0.0
  0
LINE
  5
7FD2
330
A
100
AcDbEntity
  8
モデル
100
AcDbLine
 10
226.9857835346654
 20
265.4190482713348
 30
0.0
 11
228.1191159999997
 21
263.9567639798917
 31
0.0
  0
LINE
  5
7FD3
330
A
100
AcDbEntity
  8
モデル
100
AcDbLine
 10
226.9857835346654
 20
266.1846823258778
 30
0.0
 11
226.9857835346654
 21
265.4190482713348
 31
0.0
  0
LINE
  5
7FD4
330
A
100
AcDbEntity
  8
モデル
100
AcDbLine
 10
212.1191159999997
 20
210.9124786086959
 30
0.0
 11
212.1191159999997
 21
263.9567639798917
 31
0.0
  0
ARC
  5
7FD5
330
A
100
AcDbEntity
  8
モデル
100
AcDbCircle
 10
180.1191159999997
 20
165.4568860430597
 30
0.0
 40
12.0
100
AcDbArc
 50
180.0
 51
0.0
  0
CIRCLE
  5
7FD6
330
A
100
AcDbEntity
  8
モデル
100
AcDbCircle
 10
180.1191159999997
 20
165.4568860430597
 30
0.0
 40
2.5
  0
DIMENSION
  5
7FD7
330
A
100
AcDbEntity
  8
寸法
100
AcDbDimension
  2
*D32
 10
147.4658626980959
 20
193.4568860430597
 30
0.0
 11
139.9658626980959
 21
179.4568860430597
 31
0.0
 70
    32
 71
     5
 42
28.0
 73
     0
 74
     0
 75
     0
  3
tfrom線あり
100
AcDbAlignedDimension
 13
180.1191159999997
 23
165.4568860430597
 33
0.0
 14
180.1191159999997
 24
193.4568860430597
 34
0.0
 50
90.0
100
AcDbRotatedDimension
1001
ACAD
1000
DSTYLE
1002
{
1070
   271
1070
     8
1070
   144
1040
1.0
1002
}
  0
CIRCLE
  5
7FD8
102
{ACAD_REACTORS
330
7FDD
102
}
330
A
100
AcDbEntity
  8
モデル
100
AcDbCircle
 10
180.1191159999997
 20
193.4568860430597
 30
0.0
 40
2.5
  0
CIRCLE
  5
7FD9
102
{ACAD_REACTORS
330
8020
102
}
330
A
100
AcDbEntity
  8
モデル
100
AcDbCircle
 10
186.1191159999997
 20
221.4568860430597
 30
0.0
 40
2.5
  0
CIRCLE
  5
7FDA
102
{ACAD_REACTORS
330
7FE0
102
}
330
A
100
AcDbEntity
  8
モデル
100
AcDbCircle
 10
180.1191159999997
 20
249.4568860430597
 30
0.0
 40
2.5
  0
DIMENSION
  5
7FDB
102
{ACAD_REACTORS
330
7FDD
102
}
102
{ACAD_XDICTIONARY
360
7FDC
102
}
330
A
100
AcDbEntity
  8
寸法
100
AcDbDimension
  2
*D33
 10
147.4658626980959
 20
221.4568860430597
 30
0.0
 11
139.9658626980959
 21
207.4568860430597
 31
0.0
 70
    32
 71
     5
 42
28.00000000000006
 73
     0
 74
     0
 75
     0
  3
tfrom線あり
100
AcDbAlignedDimension
 13
180.1191159999997
 23
193.4568860430597
 33
0.0
 14
186.1191159999997
 24
221.4568860430597
 34
0.0
 50
90.0
100
AcDbRotatedDimension
1001
ACAD
1000
DSTYLE
1002
{
1070
   271
1070
     8
1070
   144
1040
1.0
1002
}
  0
DIMENSION
  5
7FDE
102
{ACAD_REACTORS
330
7FE0
330
8020
102
}
102
{ACAD_XDICTIONARY
360
7FDF
102
}
330
A
100
AcDbEntity
  8
寸法
100
AcDbDimension
  2
*D34
 10
147.4658626980959
 20
249.4568860430597
 30
0.0
 11
139.9658626980959
 21
235.4568860430597
 31
0.0
 70
    32
 71
     5
 42
28.0
 73
     0
 74
     0
 75
     0
  3
tfrom線あり
100
AcDbAlignedDimension
 13
186.1191159999997
 23
221.4568860430597
 33
0.0
 14
180.1191159999997
 24
249.4568860430597
 34
0.0
 50
90.0
100
AcDbRotatedDimension
1001
ACAD
1000
DSTYLE
1002
{
1070
   271
1070
     8
1070
   144
1040
1.0
1002
}
  0
ARC
  5
7FE1
330
A
100
AcDbEntity
  8
モデル
100
AcDbCircle
 10
180.1191159999997
 20
250.4568860430597
 30
0.0
 40
12.00000000000001
100
AcDbArc
 50
90.0
 51
180.0
  0
LINE
  5
7FE2
330
A
100
AcDbEntity
  8
モデル
100
AcDbLine
 10
212.1191159999997
 20
262.4568860430597
 30
0.0
 11
228.1191159999997
 21
262.4568860430597
 31
0.0
  0
LINE
  5
7FE3
330
A
100
AcDbEntity
  8
モデル
100
AcDbLine
 10
220.1191159999997
 20
266.9503163804209
 30
0.0
 11
226.9857835346654
 21
266.9503163804209
 31
0.0
  0
LINE
  5
7FE4
330
A
100
AcDbEntity
  8
モデル
100
AcDbLine
 10
226.9857835346654
 20
266.9503163804209
 30
0.0
 11
228.1191159999997
 21
268.412600671864
 31
0.0
  0
LINE
  5
7FE5
330
A
100
AcDbEntity
  8
モデル
100
AcDbLine
 10
226.9857835346654
 20
266.1846823258778
 30
0.0
 11
226.9857835346654
 21
266.9503163804209
 31
0.0
  0
LINE
  5
7FE6
330
A
100
AcDbEntity
  8
モデル
100
AcDbLine
 10
220.1191159999997
 20
268.412600671864
 30
0.0
 11
228.1191159999997
 21
268.412600671864
 31
0.0
  0
LINE
  5
7FE7
330
A
100
AcDbEntity
  8
モデル
100
AcDbLine
 10
228.1191159999997
 20
268.412600671864
 30
0.0
 11
228.1191159999997
 21
269.3040813641803
 31
0.0
  0
LINE
  5
7FE8
330
A
100
AcDbEntity
  8
モデル
100
AcDbLine
 10
228.1191159999997
 20
269.3040813641803
 30
0.0
 11
227.7327618783762
 21
269.9124786086959
 31
0.0
  0
LINE
  5
7FE9
102
{ACAD_REACTORS
330
82D5
102
}
330
A
100
AcDbEntity
  8
モデル
100
AcDbLine
 10
228.1191159999997
 20
269.3040813641803
 30
0.0
 11
220.1191159999997
 21
269.3040813641803
 31
0.0
  0
LINE
  5
7FEA
330
A
100
AcDbEntity
  8
モデル
100
AcDbLine
 10
227.7327618783762
 20
269.9124786086959
 30
0.0
 11
220.1191159999997
 21
269.9124786086959
 31
0.0
  0
LINE
  5
7FEB
330
A
100
AcDbEntity
  8
モデル
100
AcDbLine
 10
220.1191159999997
 20
266.9503163804209
 30
0.0
 11
213.2524484653339
 21
266.9503163804209
 31
0.0
  0
LINE
  5
7FEC
330
A
100
AcDbEntity
  8
モデル
100
AcDbLine
 10
213.2524484653339
 20
266.9503163804209
 30
0.0
 11
212.1191159999997
 21
268.412600671864
 31
0.0
  0
LINE
  5
7FED
330
A
100
AcDbEntity
  8
モデル
100
AcDbLine
 10
213.2524484653339
 20
266.1846823258778
 30
0.0
 11
213.2524484653339
 21
266.9503163804209
 31
0.0
  0
LINE
  5
7FEE
330
A
100
AcDbEntity
  8
モデル
100
AcDbLine
 10
220.1191159999997
 20
268.412600671864
 30
0.0
 11
212.1191159999997
 21
268.412600671864
 31
0.0
  0
LINE
  5
7FEF
102
{ACAD_REACTORS
330
82D5
102
}
330
A
100
AcDbEntity
  8
モデル
100
AcDbLine
 10
212.1191159999997
 20
268.412600671864
 30
0.0
 11
212.1191159999997
 21
269.3040813641803
 31
0.0
  0
LINE
  5
7FF0
330
A
100
AcDbEntity
  8
モデル
100
AcDbLine
 10
212.1191159999997
 20
269.3040813641803
 30
0.0
 11
212.5054701216231
 21
269.9124786086959
 31
0.0
  0
LINE
  5
7FF1
330
A
100
AcDbEntity
  8
モデル
100
AcDbLine
 10
212.1191159999997
 20
269.3040813641803
 30
0.0
 11
220.1191159999997
 21
269.3040813641803
 31
0.0
  0
LINE
  5
7FF2
330
A
100
AcDbEntity
  8
モデル
100
AcDbLine
 10
212.5054701216231
 20
269.9124786086959
 30
0.0
 11
220.1191159999997
 21
269.9124786086959
 31
0.0
  0
LINE
  5
7FF3
330
A
100
AcDbEntity
  8
モデル
100
AcDbLine
 10
220.1191159999997
 20
263.9567639798917
 30
0.0
 11
212.1191159999997
 21
263.9567639798917
 31
0.0
  0
LINE
  5
7FF4
330
A
100
AcDbEntity
  8
モデル
100
AcDbLine
 10
220.1191159999997
 20
265.4190482713348
 30
0.0
 11
213.2524484653339
 21
265.4190482713348
 31
0.0
  0
LINE
  5
7FF5
330
A
100
AcDbEntity
  8
モデル
100
AcDbLine
 10
213.2524484653339
 20
265.4190482713348
 30
0.0
 11
212.1191159999997
 21
263.9567639798917
 31
0.0
  0
LINE
  5
7FF6
330
A
100
AcDbEntity
  8
モデル
100
AcDbLine
 10
213.2524484653339
 20
266.1846823258778
 30
0.0
 11
213.2524484653339
 21
265.4190482713348
 31
0.0
  0
LINE
  5
7FF7
330
A
100
AcDbEntity
  8
モデル
100
AcDbLine
 10
248.1191159999997
 20
206.9124786086959
 30
0.0
 11
228.1191159999997
 21
206.9124786086959
 31
0.0
  0
LINE
  5
7FF8
330
A
100
AcDbEntity
  8
モデル
100
AcDbLine
 10
228.1191159999997
 20
155.368071174332
 30
0.0
 11
260.1191159999996
 21
155.368071174332
 31
0.0
  0
LINE
  5
7FF9
330
A
100
AcDbEntity
  8
モデル
100
AcDbLine
 10
228.1191159999997
 20
206.9124786086959
 30
0.0
 11
212.1191159999997
 21
206.9124786086959
 31
0.0
  0
LINE
  5
7FFA
330
A
100
AcDbEntity
  8
モデル
100
AcDbLine
 10
220.1191159999997
 20
153.8681932375001
 30
0.0
 11
212.1191159999997
 21
153.8681932375001
 31
0.0
  0
LINE
  5
7FFB
330
A
100
AcDbEntity
  8
モデル
100
AcDbLine
 10
248.1191159999997
 20
250.9124786086959
 30
0.0
 11
248.1191159999997
 21
206.9124786086959
 31
0.0
  0
LINE
  5
7FFC
330
A
100
AcDbEntity
  8
モデル
100
AcDbLine
 10
272.1191159999996
 20
250.9124786086959
 30
0.0
 11
272.1191159999996
 21
167.368071174332
 31
0.0
  0
ARC
  5
7FFD
330
A
100
AcDbEntity
  8
モデル
100
AcDbCircle
 10
260.1191159999996
 20
250.9124786086959
 30
0.0
 40
12.0
100
AcDbArc
 50
0.0
 51
180.0
  0
ARC
  5
8002
330
A
100
AcDbEntity
  8
モデル
100
AcDbCircle
 10
260.1191159999996
 20
167.368071174332
 30
0.0
 40
12.00000000000001
100
AcDbArc
 50
270.0
 51
0.0
  0
LINE
  5
8003
330
A
100
AcDbEntity
  8
モデル
100
AcDbLine
 10
228.1191159999997
 20
155.368071174332
 30
0.0
 11
212.1191159999997
 21
155.368071174332
 31
0.0
  0
LINE
  5
8004
330
A
100
AcDbEntity
  8
モデル
100
AcDbLine
 10
220.1191159999997
 20
152.405908946057
 30
0.0
 11
213.2524484653339
 21
152.405908946057
 31
0.0
  0
LINE
  5
8005
330
A
100
AcDbEntity
  8
モデル
100
AcDbLine
 10
213.2524484653339
 20
152.405908946057
 30
0.0
 11
212.1191159999997
 21
153.8681932375001
 31
0.0
  0
LINE
  5
8006
330
A
100
AcDbEntity
  8
モデル
100
AcDbLine
 10
212.1191159999997
 20
206.9124786086959
 30
0.0
 11
212.1191159999997
 21
153.8681932375001
 31
0.0
  0
LINE
  5
8007
330
A
100
AcDbEntity
  8
モデル
100
AcDbLine
 10
213.2524484653339
 20
151.6402748915139
 30
0.0
 11
213.2524484653339
 21
152.405908946057
 31
0.0
  0
LINE
  5
8008
330
A
100
AcDbEntity
  8
モデル
100
AcDbLine
 10
220.1191159999997
 20
150.8746408369709
 30
0.0
 11
213.2524484653339
 21
150.8746408369709
 31
0.0
  0
LINE
  5
8009
330
A
100
AcDbEntity
  8
モデル
100
AcDbLine
 10
213.2524484653339
 20
150.8746408369709
 30
0.0
 11
212.1191159999997
 21
149.4123565455278
 31
0.0
  0
LINE
  5
800A
330
A
100
AcDbEntity
  8
モデル
100
AcDbLine
 10
213.2524484653339
 20
151.6402748915139
 30
0.0
 11
213.2524484653339
 21
150.8746408369709
 31
0.0
  0
LINE
  5
800B
330
A
100
AcDbEntity
  8
モデル
100
AcDbLine
 10
220.1191159999997
 20
149.4123565455278
 30
0.0
 11
212.1191159999997
 21
149.4123565455278
 31
0.0
  0
LINE
  5
800C
330
A
100
AcDbEntity
  8
モデル
100
AcDbLine
 10
212.1191159999997
 20
149.4123565455278
 30
0.0
 11
212.1191159999997
 21
148.5208758532114
 31
0.0
  0
LINE
  5
800D
330
A
100
AcDbEntity
  8
モデル
100
AcDbLine
 10
212.1191159999997
 20
148.5208758532114
 30
0.0
 11
212.5054701216231
 21
147.9124786086959
 31
0.0
  0
LINE
  5
800E
330
A
100
AcDbEntity
  8
モデル
100
AcDbLine
 10
212.1191159999997
 20
148.5208758532114
 30
0.0
 11
220.1191159999997
 21
148.5208758532114
 31
0.0
  0
LINE
  5
800F
330
A
100
AcDbEntity
  8
モデル
100
AcDbLine
 10
212.5054701216231
 20
147.9124786086959
 30
0.0
 11
220.1191159999997
 21
147.9124786086959
 31
0.0
  0
LINE
  5
8010
330
A
100
AcDbEntity
  8
モデル
100
AcDbLine
 10
220.1191159999997
 20
150.8746408369709
 30
0.0
 11
226.9857835346654
 21
150.8746408369709
 31
0.0
  0
LINE
  5
8011
330
A
100
AcDbEntity
  8
モデル
100
AcDbLine
 10
226.9857835346654
 20
150.8746408369709
 30
0.0
 11
228.1191159999997
 21
149.4123565455278
 31
0.0
  0
LINE
  5
8012
330
A
100
AcDbEntity
  8
モデル
100
AcDbLine
 10
226.9857835346654
 20
151.6402748915139
 30
0.0
 11
226.9857835346654
 21
150.8746408369709
 31
0.0
  0
LINE
  5
8013
330
A
100
AcDbEntity
  8
モデル
100
AcDbLine
 10
220.1191159999997
 20
149.4123565455278
 30
0.0
 11
228.1191159999997
 21
149.4123565455278
 31
0.0
  0
LINE
  5
8014
330
A
100
AcDbEntity
  8
モデル
100
AcDbLine
 10
228.1191159999997
 20
149.4123565455278
 30
0.0
 11
228.1191159999997
 21
148.5208758532114
 31
0.0
  0
LINE
  5
8015
330
A
100
AcDbEntity
  8
モデル
100
AcDbLine
 10
228.1191159999997
 20
148.5208758532114
 30
0.0
 11
227.7327618783761
 21
147.9124786086959
 31
0.0
  0
LINE
  5
8016
330
A
100
AcDbEntity
  8
モデル
100
AcDbLine
 10
228.1191159999997
 20
148.5208758532114
 30
0.0
 11
220.1191159999997
 21
148.5208758532114
 31
0.0
  0
LINE
  5
8017
330
A
100
AcDbEntity
  8
モデル
100
AcDbLine
 10
227.7327618783761
 20
147.9124786086959
 30
0.0
 11
220.1191159999997
 21
147.9124786086959
 31
0.0
  0
LINE
  5
8018
330
A
100
AcDbEntity
  8
モデル
100
AcDbLine
 10
220.1191159999997
 20
153.8681932375001
 30
0.0
 11
228.1191159999997
 21
153.8681932375001
 31
0.0
  0
LINE
  5
8019
330
A
100
AcDbEntity
  8
モデル
100
AcDbLine
 10
220.1191159999997
 20
152.405908946057
 30
0.0
 11
226.9857835346654
 21
152.405908946057
 31
0.0
  0
LINE
  5
801A
330
A
100
AcDbEntity
  8
モデル
100
AcDbLine
 10
226.9857835346654
 20
152.405908946057
 30
0.0
 11
228.1191159999997
 21
153.8681932375001
 31
0.0
  0
LINE
  5
801B
330
A
100
AcDbEntity
  8
モデル
100
AcDbLine
 10
226.9857835346654
 20
151.6402748915139
 30
0.0
 11
226.9857835346654
 21
152.405908946057
 31
0.0
  0
LINE
  5
801C
330
A
100
AcDbEntity
  8
モデル
100
AcDbLine
 10
228.1191159999997
 20
206.9124786086959
 30
0.0
 11
228.1191159999997
 21
153.8681932375001
 31
0.0
  0
CIRCLE
  5
801D
330
A
100
AcDbEntity
  8
モデル
100
AcDbCircle
 10
220.1191159999997
 20
247.4568860430597
 30
0.0
 40
1.3
  0
DIMENSION
  5
801E
102
{ACAD_REACTORS
330
8020
102
}
102
{ACAD_XDICTIONARY
360
801F
102
}
330
A
100
AcDbEntity
  8
寸法
100
AcDbDimension
  2
*D35
 10
168.1191159999997
 20
272.0836746826387
 30
0.0
 11
177.1191159999997
 21
279.5836746826387
 31
0.0
 70
    32
 71
     5
 42
18.0
 73
     0
 74
     0
 75
     0
  3
tfrom線あり
100
AcDbAlignedDimension
 13
186.1191159999997
 23
221.4568860430597
 33
0.0
 14
168.1191159999997
 24
248.0012934774235
 34
0.0
100
AcDbRotatedDimension
1001
ACAD
1000
DSTYLE
1002
{
1070
   144
1040
1.0
1002
}
  0
DIMENSION
  5
8024
330
A
100
AcDbEntity
  8
寸法
100
AcDbDimension
  2
*D37
 10
305.3684831213151
 20
147.9124786086959
 30
0.0
 11
297.8684831213151
 21
208.9124786086959
 31
0.0
 70
    32
 71
     5
 42
122.0
 73
     0
 74
     0
 75
     0
  3
tfrom線あり
100
AcDbAlignedDimension
 13
229.5285184347823
 23
269.9124786086959
 33
0.0
 14
229.5285184347822
 24
147.9124786086959
 34
0.0
 50
90.0
100
AcDbRotatedDimension
1001
ACAD
1000
DSTYLE
1002
{
1070
   144
1040
1.0
1002
}
  0
DIMENSION
  5
8025
330
A
100
AcDbEntity
  8
寸法
100
AcDbDimension
  2
*D38
 10
168.1191159999997
 20
137.7895640134925
 30
0.0
 11
174.1191159999997
 21
137.7895640134925
 31
0.0
 70
   160
 71
     5
 42
12.0
 73
     0
 74
     0
 75
     0
  3
tfrom線あり
100
AcDbAlignedDimension
 13
180.1191159999997
 23
163.3521641739133
 33
0.0
 14
168.1191159999997
 24
163.3521641739133
 34
0.0
100
AcDbRotatedDimension
1001
ACAD
1000
DSTYLE
1002
{
1070
   144
1040
1.0
1002
}
  0
DIMENSION
  5
8026
102
{ACAD_XDICTIONARY
360
8027
102
}
330
A
100
AcDbEntity
  8
寸法
100
AcDbDimension
  2
*D39
 10
192.1191159999997
 20
137.7895640134925
 30
0.0
 11
186.1191159999997
 21
137.7895640134925
 31
0.0
 70
   160
 71
     5
 42
12.0
 73
     0
 74
     0
 75
     0
 52
-89.99999999999999
  3
tfrom線あり
100
AcDbAlignedDimension
 13
180.1191159999997
 23
163.3521641739133
 33
0.0
 14
192.1191159999997
 24
163.3521641739133
 34
0.0
 50
180.0
100
AcDbRotatedDimension
1001
ACAD
1000
DSTYLE
1002
{
1070
   144
1040
1.0
1002
}
  0
DIMENSION
  5
80A1
330
A
100
AcDbEntity
  8
寸法
100
AcDbDimension
  2
*D40
 10
147.4658626980959
 20
249.4568860430597
 30
0.0
 11
147.4658626980959
 21
255.9568860430597
 31
0.0
 70
   160
 71
     5
 42
13.0
 73
     0
 74
     0
 75
     0
  3
tfrom線あり
100
AcDbAlignedDimension
 13
180.1191159999997
 23
262.4568860430597
 33
0.0
 14
180.1191159999997
 24
249.4568860430597
 34
0.0
 50
90.0
100
AcDbRotatedDimension
1001
ACAD
1000
DSTYLE
1002
{
1070
   144
1040
1.0
1002
}
  0
DIMENSION
  5
80B2
330
A
100
AcDbEntity
  8
寸法
100
AcDbDimension
  2
*D41
 10
130.074944931661
 20
153.4568860430597
 30
0.0
 11
122.574944931661
 21
207.9568860430597
 31
0.0
 70
    32
 71
     5
 42
109.0000000000001
 73
     0
 74
     0
 75
     0
  3
tfrom線あり
100
AcDbAlignedDimension
 13
175.1191159999997
 23
262.4568860430597
 33
0.0
 14
180.1191159999997
 24
153.4568860430597
 34
0.0
 50
90.0
100
AcDbRotatedDimension
1001
ACAD
1000
DSTYLE
1002
{
1070
   144
1040
1.0
1002
}
  0
DIMENSION
  5
80C5
330
A
100
AcDbEntity
  8
寸法
100
AcDbDimension
  2
*D42
 10
147.4658626980959
 20
153.4568860430597
 30
0.0
 11
147.4658626980959
 21
159.4568860430597
 31
0.0
 70
   160
 71
     5
 42
12.0
 73
     0
 74
     0
 75
     0
  3
tfrom線あり
100
AcDbAlignedDimension
 13
175.1191159999997
 23
165.4568860430597
 33
0.0
 14
180.1191159999997
 24
153.4568860430597
 34
0.0
 50
90.0
100
AcDbRotatedDimension
1001
ACAD
1000
DSTYLE
1002
{
1070
   144
1040
1.0
1002
}
  0
CIRCLE
  5
82CC
330
A
100
AcDbEntity
  8
モデル
100
AcDbCircle
 10
260.1191159999997
 20
252.3680711743321
 30
0.0
 40
2.5
  0
CIRCLE
  5
82CD
330
A
100
AcDbEntity
  8
モデル
100
AcDbCircle
 10
260.1191159999997
 20
224.3680711743321
 30
0.0
 40
2.5
  0
CIRCLE
  5
82CE
330
A
100
AcDbEntity
  8
モデル
100
AcDbCircle
 10
254.1191159999997
 20
196.368071174332
 30
0.0
 40
2.5
  0
CIRCLE
  5
82CF
330
A
100
AcDbEntity
  8
モデル
100
AcDbCircle
 10
260.1191159999997
 20
168.368071174332
 30
0.0
 40
2.5
  0
DIMENSION
  5
82D3
102
{ACAD_REACTORS
330
82D5
102
}
102
{ACAD_XDICTIONARY
360
82D4
102
}
330
A
100
AcDbEntity
  8
寸法
100
AcDbDimension
  2
*D63
 10
228.1191159999997
 20
288.330097414593
 30
0.0
 11
220.1191159999997
 21
288.330097414593
 31
0.0
 70
   160
 71
     5
 42
16.0
 73
     0
 74
     0
 75
     0
  3
tfrom線あり
100
AcDbAlignedDimension
 13
212.1191159999997
 23
269.3040813641803
 33
0.0
 14
228.1191159999997
 24
269.3040813641803
 34
0.0
100
AcDbRotatedDimension
1001
ACAD
1000
DSTYLE
1002
{
1070
     3
1000
%%c<>
1070
   144
1040
1.0
1002
}
  0
TEXT
  5
8392
330
A
100
AcDbEntity
  8
モデル
100
AcDbText
 10
504.2290229041095
 20
132.299301369863
 30
0.0
 40
5.0
  1
左右勝手の見方
  7
ＭＳ ゴシック
100
AcDbText
  0
LINE
  5
8393
330
A
100
AcDbEntity
  8
モデル
100
AcDbLine
 10
500.0615999999997
 20
134.7189698630137
 30
0.0
 11
483.9115068493148
 21
134.7189698630137
 31
0.0
  0
LINE
  5
8394
330
A
100
AcDbEntity
  8
モデル
100
AcDbLine
 10
483.9115068493148
 20
134.7189698630137
 30
0.0
 11
483.9115068493148
 21
70.86976438356166
 31
0.0
  0
LINE
  5
8395
330
A
100
AcDbEntity
  8
モデル
100
AcDbLine
 10
483.9115068493148
 20
70.86976438356166
 30
0.0
 11
569.5445589041095
 21
70.86976438356166
 31
0.0
  0
LINE
  5
8396
330
A
100
AcDbEntity
  8
モデル
100
AcDbLine
 10
569.5445589041095
 20
134.7189698630137
 30
0.0
 11
569.5445589041095
 21
70.86976438356166
 31
0.0
  0
LINE
  5
8397
330
A
100
AcDbEntity
  8
モデル
100
AcDbLine
 10
553.3944657534245
 20
134.7189698630137
 30
0.0
 11
569.5445589041095
 21
134.7189698630137
 31
0.0
  0
LINE
  5
8398
330
A
100
AcDbEntity
  8
モデル
100
AcDbLine
 10
491.7837383013697
 20
90.37006290410963
 30
0.0
 11
499.7160631232874
 21
90.37006290410963
 31
0.0
  0
LINE
  5
8399
330
A
100
AcDbEntity
  8
モデル
100
AcDbLine
 10
491.7837383013697
 20
98.30238772602738
 30
0.0
 11
491.7837383013697
 21
90.37006290410963
 31
0.0
  0
LINE
  5
839A
330
A
100
AcDbEntity
  8
モデル
100
AcDbLine
 10
499.7160631232874
 20
90.37006290410963
 30
0.0
 11
499.7160631232874
 21
98.30238772602738
 31
0.0
  0
LINE
  5
839B
330
A
100
AcDbEntity
  8
モデル
100
AcDbLine
 10
491.7837383013697
 20
98.30238772602738
 30
0.0
 11
499.7160631232874
 21
98.30238772602738
 31
0.0
  0
LINE
  5
839C
330
A
100
AcDbEntity
  8
モデル
100
AcDbLine
 10
561.6723274520547
 20
90.37006290410963
 30
0.0
 11
553.7400026301369
 21
90.37006290410963
 31
0.0
  0
LINE
  5
839D
330
A
100
AcDbEntity
  8
モデル
100
AcDbLine
 10
561.6723274520547
 20
98.30238772602738
 30
0.0
 11
561.6723274520547
 21
90.37006290410963
 31
0.0
  0
LINE
  5
839E
330
A
100
AcDbEntity
  8
モデル
100
AcDbLine
 10
553.7400026301369
 20
90.37006290410963
 30
0.0
 11
553.7400026301369
 21
98.30238772602738
 31
0.0
  0
LINE
  5
839F
330
A
100
AcDbEntity
  8
モデル
100
AcDbLine
 10
561.6723274520547
 20
98.30238772602738
 30
0.0
 11
553.7400026301369
 21
98.30238772602738
 31
0.0
  0
LINE
  5
83A0
330
A
100
AcDbEntity
  8
モデル
100
AcDbLine
 10
499.7160631232874
 20
94.3362253150685
 30
0.0
 11
553.7400026301369
 21
94.3362253150685
 31
0.0
  0
LINE
  5
83A1
330
A
100
AcDbEntity
  8
モデル
100
AcDbLine
 10
499.7160631232874
 20
98.30238772602738
 30
0.0
 11
516.854622291458
 21
113.8357691228883
 31
0.0
  0
LINE
  5
83A2
330
A
100
AcDbEntity
  8
モデル
100
AcDbLine
 10
553.7400026301369
 20
98.30238772602738
 30
0.0
 11
536.6014434619666
 21
113.8357691228883
 31
0.0
  0
ARC
  5
83A3
330
A
100
AcDbEntity
  8
モデル
100
AcDbCircle
 10
508.8850961037657
 20
99.29139481454777
 30
0.0
 40
11.9462425422189
100
AcDbArc
 50
351.5155397717085
 51
48.92859554663291
  0
LINE
  5
83A4
330
A
100
AcDbEntity
  8
モデル
100
AcDbLine
 10
516.7337663519651
 20
108.2975641563129
 30
0.0
 11
516.7337663519651
 21
106.0835128818975
 31
0.0
  0
LINE
  5
83A5
330
A
100
AcDbEntity
  8
モデル
100
AcDbLine
 10
516.7337663519651
 20
108.2975641563129
 30
0.0
 11
519.1282400370693
 21
108.2975641563129
 31
0.0
  0
LINE
  5
83A6
330
A
100
AcDbEntity
  8
モデル
100
AcDbLine
 10
520.7005979626907
 20
97.52883227686084
 30
0.0
 11
519.2565629762195
 21
99.20716061291043
 31
0.0
  0
LINE
  5
83A7
330
A
100
AcDbEntity
  8
モデル
100
AcDbLine
 10
520.7005979626907
 20
97.52883227686084
 30
0.0
 11
522.5156927990544
 21
99.09054126500914
 31
0.0
  0
ARC
  5
83A8
330
A
100
AcDbEntity
  8
モデル
100
AcDbCircle
 10
544.5709696496587
 20
99.29139481454777
 30
0.0
 40
11.9462425422189
100
AcDbArc
 50
131.0714044533671
 51
188.4844602282911
  0
LINE
  5
83A9
330
A
100
AcDbEntity
  8
モデル
100
AcDbLine
 10
536.7222994014593
 20
108.2975641563129
 30
0.0
 11
536.7222994014593
 21
106.0835128818975
 31
0.0
  0
LINE
  5
83AA
330
A
100
AcDbEntity
  8
モデル
100
AcDbLine
 10
536.7222994014593
 20
108.2975641563129
 30
0.0
 11
534.327825716355
 21
108.2975641563129
 31
0.0
  0
LINE
  5
83AB
330
A
100
AcDbEntity
  8
モデル
100
AcDbLine
 10
532.7554677907334
 20
97.52883227686084
 30
0.0
 11
534.1995027772051
 21
99.20716061291043
 31
0.0
  0
LINE
  5
83AC
330
A
100
AcDbEntity
  8
モデル
100
AcDbLine
 10
532.7554677907334
 20
97.52883227686084
 30
0.0
 11
530.9403729543702
 21
99.09054126500914
 31
0.0
  0
TEXT
  5
83AD
330
A
100
AcDbEntity
  8
モデル
100
AcDbText
 10
490.1801460790367
 20
77.21441335027602
 30
0.0
 40
8.0
  1
左
  7
ＭＳ ゴシック
100
AcDbText
  0
TEXT
  5
83AE
330
A
100
AcDbEntity
  8
モデル
100
AcDbText
 10
552.136410407804
 20
77.21441335027602
 30
0.0
 40
8.0
  1
右
  7
ＭＳ ゴシック
100
AcDbText
  0
VIEWPORT
  5
349
330
B
100
AcDbEntity
 67
     1
  8
0
100
AcDbViewport
 10
202.5
 20
128.5
 30
0.0
 40
486.0
 41
308.4
 68
     1
 69
     1
 12
202.5
 22
128.5
 13
0.0
 23
0.0
 14
0.5
 24
0.5
 15
0.0
 25
0.0
 16
0.0
 26
0.0
 36
1.0
 17
0.0
 27
0.0
 37
0.0
 42
50.0
 43
0.0
 44
0.0
 45
308.4
 50
0.0
 51
0.0
 72
   100
 90
   557152
  1

281
     0
 71
     1
 74
     0
110
0.0
120
0.0
130
0.0
111
1.0
121
0.0
131
0.0
112
0.0
122
1.0
132
0.0
 79
     0
146
0.0
170
     0
 61
     5
348
26C
292
     1
282
     1
141
0.0
142
0.0
 63
   256
  0
VIEWPORT
  5
34A
330
B
100
AcDbEntity
 67
     1
  8
0
100
AcDbViewport
 10
202.5
 20
128.5
 30
0.0
 40
324.0
 41
205.6
 68
     2
 69
     2
 12
986.6781359294573
 22
1427.077061889956
 13
0.0
 23
0.0
 14
0.5
 24
0.5
 15
0.0
 25
0.0
 16
0.0
 26
0.0
 36
1.0
 17
0.0
 27
0.0
 37
0.0
 42
50.0
 43
0.0
 44
0.0
 45
2890.021615685494
 50
0.0
 51
0.0
 72
   100
 90
   557152
  1

281
     0
 71
     1
 74
     0
110
0.0
120
0.0
130
0.0
111
1.0
121
0.0
131
0.0
112
0.0
122
1.0
132
0.0
 79
     0
146
0.0
170
     0
 61
     5
348
26C
292
     1
282
     1
141
0.0
142
0.0
 63
   256
  0
ENDSEC
  0
SECTION
  2
OBJECTS
  0
DICTIONARY
  5
19
330
0
100
AcDbDictionary
281
     1
  3
ACAD_COLOR
350
674
  3
ACAD_DETAILVIEWSTYLE
350
12F4
  3
ACAD_FIELDLIST
350
7512
  3
ACAD_GROUP
350
1A
  3
ACAD_IMAGE_VARS
350
27B
  3
ACAD_LAYOUT
350
1E
  3
ACAD_MATERIAL
350
263
  3
ACAD_MLEADERSTYLE
350
336
  3
ACAD_MLINESTYLE
350
1B
  3
ACAD_PLOTSETTINGS
350
22
  3
ACAD_PLOTSTYLENAME
350
1F
  3
ACAD_SCALELIST
350
241
  3
ACAD_SECTIONVIEWSTYLE
350
12F5
  3
ACAD_TABLESTYLE
350
278
  3
ACAD_VISUALSTYLE
350
267
  3
ACDB_RECOMPOSE_DATA
350
83C5
  3
AcDbVariableDictionary
350
330
  3
AcStStandard
350
12B9
  3
APPDATA
350
27A
  3
DimOffsetDictionary
350
73D6
  0
SUN
  5
10E8
330
15
100
AcDbSun
 90
        1
290
     0
 63
     7
421
 16777215
 40
1.0
291
     1
 91
  2455826
 92
 54000000
292
     0
 70
     2
 71
   256
280
     1
  0
DICTIONARY
  5
2E1
330
2
100
AcDbDictionary
280
     1
281
     1
  3
ACAD_LAYERSTATES
360
2E2
  3
ACLYDICTIONARY
360
7E65
  0
DICTIONARY
  5
7060
330
A
100
AcDbDictionary
280
     1
281
     1
  3
ACAD_SORTENTS
360
7061
  0
DICTIONARY
  5
7D84
330
7D83
100
AcDbDictionary
280
     1
281
     1
  3
ACAD_FIELD
360
83BF
  0
DICTIONARY
  5
7DF7
330
7DF6
100
AcDbDictionary
280
     1
281
     1
  3
ACAD_DIMASSOC
360
7DF8
  0
DICTIONARY
  5
7FDC
330
7FDB
100
AcDbDictionary
280
     1
281
     1
  3
ACAD_DIMASSOC
360
7FDD
  0
DICTIONARY
  5
7FDF
330
7FDE
100
AcDbDictionary
280
     1
281
     1
  3
ACAD_DIMASSOC
360
7FE0
  0
DICTIONARY
  5
801F
330
801E
100
AcDbDictionary
280
     1
281
     1
  3
ACAD_DIMASSOC
360
8020
  0
DICTIONARY
  5
8027
330
8026
100
AcDbDictionary
280
     1
281
     1
  3
ACAD_DIMASSOC
360
8028
  0
DICTIONARY
  5
82D4
330
82D3
100
AcDbDictionary
280
     1
281
     1
  3
ACAD_DIMASSOC
360
82D5
  0
DICTIONARY
  5
674
102
{ACAD_REACTORS
330
19
102
}
330
19
100
AcDbDictionary
281
     1
  0
DICTIONARY
  5
12F4
102
{ACAD_REACTORS
330
19
102
}
330
19
100
AcDbDictionary
281
     1
  0
FIELDLIST
  5
7512
102
{ACAD_REACTORS
330
19
102
}
330
19
100
AcDbIdSet
 90
        2
330
7D87
330
7D86
100
AcDbFieldList
  0
DICTIONARY
  5
1A
102
{ACAD_REACTORS
330
19
102
}
330
19
100
AcDbDictionary
281
     1
  0
RASTERVARIABLES
  5
27B
102
{ACAD_REACTORS
330
19
102
}
330
19
100
AcDbRasterVariables
 90
        0
 70
     1
 71
     1
 72
     1
  0
DICTIONARY
  5
1E
102
{ACAD_REACTORS
330
19
102
}
330
19
100
AcDbDictionary
281
     1
  3
Layout1
350
21
  3
Layout2
350
12C4
  3
Model
350
20
  0
DICTIONARY
  5
263
102
{ACAD_REACTORS
330
19
102
}
330
19
100
AcDbDictionary
281
     1
  3
ByBlock
350
385B
  3
ByLayer
350
264
  3
Global
350
266
  0
DICTIONARY
  5
336
102
{ACAD_REACTORS
330
19
102
}
330
19
100
AcDbDictionary
281
     1
  3
Standard
350
71F2
  0
DICTIONARY
  5
1B
102
{ACAD_REACTORS
330
19
102
}
330
19
100
AcDbDictionary
281
     1
  3
Standard
350
1C
  0
DICTIONARY
  5
22
102
{ACAD_REACTORS
330
19
102
}
330
19
100
AcDbDictionary
281
     1
  0
ACDBDICTIONARYWDFLT
  5
1F
102
{ACAD_REACTORS
330
19
102
}
330
19
100
AcDbDictionary
281
     1
  3
Normal
350
1D
100
AcDbDictionaryWithDefault
340
1D
  0
DICTIONARY
  5
241
102
{ACAD_REACTORS
330
19
102
}
330
19
100
AcDbDictionary
281
     1
  3
A0
350
242
  3
A1
350
243
  3
A2
350
244
  3
A3
350
245
  3
A4
350
246
  3
A5
350
247
  3
A6
350
248
  3
A7
350
249
  3
A8
350
24A
  3
A9
350
24B
  3
B0
350
24C
  3
B1
350
24D
  3
B2
350
24E
  3
B3
350
24F
  3
B4
350
250
  3
B5
350
251
  3
B6
350
252
  3
B7
350
253
  3
B8
350
254
  3
B9
350
255
  3
C0
350
256
  3
C1
350
257
  3
C2
350
258
  3
C3
350
259
  3
C4
350
25A
  3
C5
350
25B
  3
C6
350
25C
  3
C7
350
25D
  3
C8
350
25E
  3
C9
350
25F
  3
D0
350
260
  3
D1
350
261
  3
D2
350
262
  0
DICTIONARY
  5
12F5
102
{ACAD_REACTORS
330
19
102
}
330
19
100
AcDbDictionary
281
     1
  0
DICTIONARY
  5
278
102
{ACAD_REACTORS
330
19
102
}
330
19
100
AcDbDictionary
281
     1
  3
Standard
350
279
  0
DICTIONARY
  5
267
102
{ACAD_REACTORS
330
19
102
}
330
19
100
AcDbDictionary
281
     1
  3
2dWireframe
350
26C
  3
3D Hidden
350
26E
  3
3dWireframe
350
26D
  3
Basic
350
26F
  3
Brighten
350
273
  3
ColorChange
350
277
  3
Conceptual
350
271
  3
Dim
350
272
  3
EdgeColorOff
350
10E2
  3
Facepattern
350
276
  3
Flat
350
268
  3
FlatWithEdges
350
269
  3
Gouraud
350
26A
  3
GouraudWithEdges
350
26B
  3
Hidden
350
10DF
  3
JitterOff
350
10E0
  3
Linepattern
350
275
  3
OverhangOff
350
10E1
  3
Realistic
350
270
  3
Shaded
350
10E7
  3
Shaded with edges
350
10E6
  3
Shades of Gray
350
10E3
  3
Sketchy
350
10E4
  3
Thicken
350
274
  3
Wireframe
350
10DE
  3
X-Ray
350
10E5
  0
XRECORD
  5
83C5
102
{ACAD_REACTORS
330
19
102
}
330
19
100
AcDbXrecord
280
     1
 90
        1
330
279
  0
DICTIONARY
  5
330
102
{ACAD_REACTORS
330
19
102
}
330
19
100
AcDbDictionary
281
     1
  3
CANNOSCALE
350
331
  3
CMLEADERSTYLE
350
71F7
  3
CTABLESTYLE
350
335
  3
HPTRANSPARENCY
350
73D5
  3
XCLIPFRAME
350
109E
  0
DICTIONARY
  5
12B9
102
{ACAD_REACTORS
330
19
102
}
330
19
100
AcDbDictionary
281
     1
  0
DICTIONARY
  5
27A
102
{ACAD_REACTORS
330
19
102
}
330
19
100
AcDbDictionary
281
     1
  0
DICTIONARY
  5
73D6
102
{ACAD_REACTORS
330
19
102
}
330
19
100
AcDbDictionary
281
     1
  3
DIMRAILANGLE
350
73D9
  3
DIMRAILFIRSTOFFSET
350
73D7
  3
DIMRAILOFFSET
350
73D8
  3
DIMRAILSENABLED
350
73DA
  0
DICTIONARY
  5
2E2
102
{ACAD_REACTORS
330
2E1
102
}
330
2E1
100
AcDbDictionary
281
     1
  0
DICTIONARY
  5
7E65
102
{ACAD_REACTORS
330
2E1
102
}
330
2E1
100
AcDbDictionary
281
     1
1001
ACAD
1000
<All
  0
SORTENTSTABLE
  5
7061
102
{ACAD_REACTORS
330
7060
102
}
330
7060
100
AcDbSortentsTable
330
A
331
0
  5
7342
  0
DICTIONARY
  5
83BF
102
{ACAD_REACTORS
330
7D84
102
}
330
7D84
100
AcDbDictionary
280
     1
281
     1
  3
TEXT
360
7D86
  0
DIMASSOC
  5
7DF8
102
{ACAD_REACTORS
330
7DF7
102
}
330
7DF7
100
AcDbDimAssoc
330
7DF6
 90
        1
 70
     0
 71
     1
  1
AcDbOsnapPointRef
 72
     1
331
7DED
 73
     0
 91
        0
 40
0.0
 10
0.0
 20
0.0
 30
0.0
 75
     0
  0
DIMASSOC
  5
7FDD
102
{ACAD_REACTORS
330
7FDC
102
}
330
7FDC
100
AcDbDimAssoc
330
7FDB
 90
        1
 70
     0
 71
     1
  1
AcDbOsnapPointRef
 72
     3
331
7FD8
 73
     0
 91
        0
 40
0.0
 10
0.0
 20
0.0
 30
0.0
 75
     0
  0
DIMASSOC
  5
7FE0
102
{ACAD_REACTORS
330
7FDF
102
}
330
7FDF
100
AcDbDimAssoc
330
7FDE
 90
        2
 70
     0
 71
     1
  1
AcDbOsnapPointRef
 72
     3
331
7FDA
 73
     0
 91
        0
 40
0.0
 10
0.0
 20
0.0
 30
0.0
 75
     0
  0
DIMASSOC
  5
8020
102
{ACAD_REACTORS
330
801F
102
}
330
801F
100
AcDbDimAssoc
330
801E
 90
        1
 70
     0
 71
     1
  1
AcDbOsnapPointRef
 72
     3
331
7FD9
 73
     0
 91
        0
 40
0.0
 10
0.0
 20
0.0
 30
0.0
 75
     0
  0
DIMASSOC
  5
8028
102
{ACAD_REACTORS
330
8027
102
}
330
8027
100
AcDbDimAssoc
330
8026
 90
        0
 70
     0
 71
     1
  0
DIMASSOC
  5
82D5
102
{ACAD_REACTORS
330
82D4
102
}
330
82D4
100
AcDbDimAssoc
330
82D3
 90
        3
 70
     0
 71
     1
  1
AcDbOsnapPointRef
 72
     1
331
7FEF
 73
     0
 91
        0
 40
0.0
 10
0.0
 20
0.0
 30
0.0
 75
     0
  1
AcDbOsnapPointRef
 72
    13
331
7FE9
 73
     0
 91
        0
 40
0.0
 10
0.0
 20
0.0
 30
0.0
 75
     0
  0
LAYOUT
  5
21
102
{ACAD_REACTORS
330
1E
102
}
330
1E
100
AcDbPlotSettings
  1

  2
none_device
  4
ISO_A3_(420.00_x_297.00_MM)
  6

 40
7.5
 41
20.0
 42
7.5
 43
20.0
 44
420.0
 45
297.0
 46
0.0
 47
0.0
 48
0.0
 49
0.0
140
0.0
141
0.0
142
1.0
143
1.0
 70
     0
 72
     1
 73
     0
 74
     0
  7

 75
     0
 76
     0
 77
     2
 78
   300
147
1.0
148
0.0
149
0.0
100
AcDbLayout
  1
Layout1
 70
     0
 71
     0
 10
-7.5
 20
-20.0
 11
412.5
 21
277.0
 12
0.0
 22
0.0
 32
0.0
 14
0.0
 24
0.0
 34
0.0
 15
0.0
 25
0.0
 35
0.0
146
0.0
 13
0.0
 23
0.0
 33
0.0
 16
0.0
 26
0.0
 36
0.0
 17
0.0
 27
0.0
 37
0.0
 76
     0
330
B
331
349
  0
LAYOUT
  5
12C4
102
{ACAD_REACTORS
330
1E
102
}
330
1E
100
AcDbPlotSettings
  1

  2
none_device
  4

  6

 40
0.0
 41
0.0
 42
0.0
 43
0.0
 44
0.0
 45
0.0
 46
0.0
 47
0.0
 48
0.0
 49
0.0
140
0.0
141
0.0
142
1.0
143
1.0
 70
   688
 72
     1
 73
     0
 74
     5
  7

 75
    16
 76
     0
 77
     2
 78
   300
147
1.0
148
0.0
149
0.0
100
AcDbLayout
  1
Layout2
 70
     1
 71
     2
 10
0.0
 20
0.0
 11
0.0
 21
0.0
 12
0.0
 22
0.0
 32
0.0
 14
0.0
 24
0.0
 34
0.0
 15
0.0
 25
0.0
 35
0.0
146
0.0
 13
0.0
 23
0.0
 33
0.0
 16
1.0
 26
0.0
 36
0.0
 17
0.0
 27
1.0
 37
0.0
 76
     0
330
12C3
  0
LAYOUT
  5
20
102
{ACAD_REACTORS
330
1E
102
}
330
1E
100
AcDbPlotSettings
  1

  2
none_device
  4
ISO_A3_(420.00_x_297.00_MM)
  6

 40
7.5
 41
20.0
 42
7.5
 43
20.0
 44
420.0
 45
297.0
 46
0.0
 47
0.0
 48
0.0
 49
0.0
140
0.0
141
0.0
142
1.0
143
1.0
 70
  1024
 72
     1
 73
     0
 74
     0
  7

 75
     0
 76
     0
 77
     2
 78
   300
147
1.0
148
0.0
149
0.0
100
AcDbLayout
  1
Model
 70
     0
 71
     1
 10
0.0
 20
0.0
 11
593.9999999999999
 21
420.0
 12
0.0
 22
0.0
 32
0.0
 14
0.0
 24
0.0
 34
0.0
 15
593.9999999999999
 25
420.0
 35
0.0
146
0.0
 13
0.0
 23
0.0
 33
0.0
 16
0.0
 26
0.0
 36
0.0
 17
0.0
 27
0.0
 37
0.0
 76
     0
330
A
331
15
  0
MATERIAL
  5
385B
102
{ACAD_REACTORS
330
263
102
}
330
263
100
AcDbMaterial
  1
ByBlock
 72
     1
 94
      127
  0
MATERIAL
  5
264
102
{ACAD_REACTORS
330
263
102
}
330
263
100
AcDbMaterial
  1
ByLayer
 72
     1
 94
      127
  0
MATERIAL
  5
266
102
{ACAD_REACTORS
330
263
102
}
330
263
100
AcDbMaterial
  1
Global
 72
     1
 94
      127
  0
MLEADERSTYLE
  5
71F2
102
{ACAD_REACTORS
330
336
102
}
330
336
100
AcDbMLeaderStyle
170
     2
171
     1
172
     0
 90
        2
 40
0.0
 41
0.0
173
     1
 91
-1056964608
340
11
 92
       -2
290
     1
 42
2.0
291
     1
 43
8.0
  3
Standard
341
0
 44
4.0
300

342
17
174
     1
178
     6
175
     1
176
     0
 93
-1056964608
 45
4.0
292
     0
297
     0
 46
4.0
343
0
 94
-1056964608
 47
1.0
 49
1.0
140
1.0
293
     1
141
0.0
294
     1
177
     0
142
1.0
295
     0
296
     0
143
3.75
1001
ACAD_MLEADERVER
1070
     2
  0
MLINESTYLE
  5
1C
102
{ACAD_REACTORS
330
1B
102
}
330
1B
100
AcDbMlineStyle
  2
Standard
 70
     0
  3

 62
     0
 51
90.0
 52
90.0
 71
     2
 49
0.5
 62
   256
  6
BYLAYER
 49
-0.5
 62
   256
  6
BYLAYER
  0
ACDBPLACEHOLDER
  5
1D
102
{ACAD_REACTORS
330
1F
102
}
330
1F
  0
SCALE
  5
242
102
{ACAD_REACTORS
330
241
102
}
330
241
100
AcDbScale
 70
     0
300
1:1
140
1.0
141
1.0
290
     1
  0
SCALE
  5
243
102
{ACAD_REACTORS
330
241
102
}
330
241
100
AcDbScale
 70
     0
300
1:2
140
1.0
141
2.0
290
     0
  0
SCALE
  5
244
102
{ACAD_REACTORS
330
241
102
}
330
241
100
AcDbScale
 70
     0
300
1:4
140
1.0
141
4.0
290
     0
  0
SCALE
  5
245
102
{ACAD_REACTORS
330
241
102
}
330
241
100
AcDbScale
 70
     0
300
1:5
140
1.0
141
5.0
290
     0
  0
SCALE
  5
246
102
{ACAD_REACTORS
330
241
102
}
330
241
100
AcDbScale
 70
     0
300
1:8
140
1.0
141
8.0
290
     0
  0
SCALE
  5
247
102
{ACAD_REACTORS
330
241
102
}
330
241
100
AcDbScale
 70
     0
300
1:10
140
1.0
141
10.0
290
     0
  0
SCALE
  5
248
102
{ACAD_REACTORS
330
241
102
}
330
241
100
AcDbScale
 70
     0
300
1:16
140
1.0
141
16.0
290
     0
  0
SCALE
  5
249
102
{ACAD_REACTORS
330
241
102
}
330
241
100
AcDbScale
 70
     0
300
1:20
140
1.0
141
20.0
290
     0
  0
SCALE
  5
24A
102
{ACAD_REACTORS
330
241
102
}
330
241
100
AcDbScale
 70
     0
300
1:30
140
1.0
141
30.0
290
     0
  0
SCALE
  5
24B
102
{ACAD_REACTORS
330
241
102
}
330
241
100
AcDbScale
 70
     0
300
1:40
140
1.0
141
40.0
290
     0
  0
SCALE
  5
24C
102
{ACAD_REACTORS
330
241
102
}
330
241
100
AcDbScale
 70
     0
300
1:50
140
1.0
141
50.0
290
     0
  0
SCALE
  5
24D
102
{ACAD_REACTORS
330
241
102
}
330
241
100
AcDbScale
 70
     0
300
1:100
140
1.0
141
100.0
290
     0
  0
SCALE
  5
24E
102
{ACAD_REACTORS
330
241
102
}
330
241
100
AcDbScale
 70
     0
300
2:1
140
2.0
141
1.0
290
     0
  0
SCALE
  5
24F
102
{ACAD_REACTORS
330
241
102
}
330
241
100
AcDbScale
 70
     0
300
4:1
140
4.0
141
1.0
290
     0
  0
SCALE
  5
250
102
{ACAD_REACTORS
330
241
102
}
330
241
100
AcDbScale
 70
     0
300
8:1
140
8.0
141
1.0
290
     0
  0
SCALE
  5
251
102
{ACAD_REACTORS
330
241
102
}
330
241
100
AcDbScale
 70
     0
300
10:1
140
10.0
141
1.0
290
     0
  0
SCALE
  5
252
102
{ACAD_REACTORS
330
241
102
}
330
241
100
AcDbScale
 70
     0
300
100:1
140
100.0
141
1.0
290
     0
  0
SCALE
  5
253
102
{ACAD_REACTORS
330
241
102
}
330
241
100
AcDbScale
 70
     0
300
1/128" = 1'-0"
140
0.0078125
141
12.0
290
     0
  0
SCALE
  5
254
102
{ACAD_REACTORS
330
241
102
}
330
241
100
AcDbScale
 70
     0
300
1/64" = 1'-0"
140
0.015625
141
12.0
290
     0
  0
SCALE
  5
255
102
{ACAD_REACTORS
330
241
102
}
330
241
100
AcDbScale
 70
     0
300
1/32" = 1'-0"
140
0.03125
141
12.0
290
     0
  0
SCALE
  5
256
102
{ACAD_REACTORS
330
241
102
}
330
241
100
AcDbScale
 70
     0
300
1/16" = 1'-0"
140
0.0625
141
12.0
290
     0
  0
SCALE
  5
257
102
{ACAD_REACTORS
330
241
102
}
330
241
100
AcDbScale
 70
     0
300
3/32" = 1'-0"
140
0.09375
141
12.0
290
     0
  0
SCALE
  5
258
102
{ACAD_REACTORS
330
241
102
}
330
241
100
AcDbScale
 70
     0
300
1/8" = 1'-0"
140
0.125
141
12.0
290
     0
  0
SCALE
  5
259
102
{ACAD_REACTORS
330
241
102
}
330
241
100
AcDbScale
 70
     0
300
3/16" = 1'-0"
140
0.1875
141
12.0
290
     0
  0
SCALE
  5
25A
102
{ACAD_REACTORS
330
241
102
}
330
241
100
AcDbScale
 70
     0
300
1/4" = 1'-0"
140
0.25
141
12.0
290
     0
  0
SCALE
  5
25B
102
{ACAD_REACTORS
330
241
102
}
330
241
100
AcDbScale
 70
     0
300
3/8" = 1'-0"
140
0.375
141
12.0
290
     0
  0
SCALE
  5
25C
102
{ACAD_REACTORS
330
241
102
}
330
241
100
AcDbScale
 70
     0
300
1/2" = 1'-0"
140
0.5
141
12.0
290
     0
  0
SCALE
  5
25D
102
{ACAD_REACTORS
330
241
102
}
330
241
100
AcDbScale
 70
     0
300
3/4" = 1'-0"
140
0.75
141
12.0
290
     0
  0
SCALE
  5
25E
102
{ACAD_REACTORS
330
241
102
}
330
241
100
AcDbScale
 70
     0
300
1" = 1'-0"
140
1.0
141
12.0
290
     0
  0
SCALE
  5
25F
102
{ACAD_REACTORS
330
241
102
}
330
241
100
AcDbScale
 70
     0
300
1-1/2" = 1'-0"
140
1.5
141
12.0
290
     0
  0
SCALE
  5
260
102
{ACAD_REACTORS
330
241
102
}
330
241
100
AcDbScale
 70
     0
300
3" = 1'-0"
140
3.0
141
12.0
290
     0
  0
SCALE
  5
261
102
{ACAD_REACTORS
330
241
102
}
330
241
100
AcDbScale
 70
     0
300
6" = 1'-0"
140
6.0
141
12.0
290
     0
  0
SCALE
  5
262
102
{ACAD_REACTORS
330
241
102
}
330
241
100
AcDbScale
 70
     0
300
1'-0" = 1'-0"
140
12.0
141
12.0
290
     0
  0
TABLESTYLE
  5
279
102
{ACAD_REACTORS
330
278
102
}
102
{ACAD_XDICTIONARY
360
83C3
102
}
330
278
100
AcDbTableStyle
  3
Standard
 70
     0
 71
     0
 40
0.06
 41
0.06
280
     0
281
     0
  7
Standard
140
4.5
170
     2
 62
     0
 63
   257
283
     0
 90
        4
 91
        0
  1

274
    -2
284
     1
 64
     0
275
    -2
285
     1
 65
     0
276
    -2
286
     1
 66
     0
277
    -2
287
     1
 67
     0
278
    -2
288
     1
 68
     0
279
    -2
289
     1
 69
     0
  7
Standard
140
6.0
170
     5
 62
     0
 63
   257
283
     0
 90
        4
 91
        0
  1

274
    -2
284
     1
 64
     0
275
    -2
285
     1
 65
     0
276
    -2
286
     1
 66
     0
277
    -2
287
     1
 67
     0
278
    -2
288
     1
 68
     0
279
    -2
289
     1
 69
     0
  7
Standard
140
4.5
170
     5
 62
     0
 63
   257
283
     0
 90
        4
 91
        0
  1

274
    -2
284
     1
 64
     0
275
    -2
285
     1
 65
     0
276
    -2
286
     1
 66
     0
277
    -2
287
     1
 67
     0
278
    -2
288
     1
 68
     0
279
    -2
289
     1
 69
     0
  0
VISUALSTYLE
  5
26C
102
{ACAD_REACTORS
330
267
102
}
330
267
100
AcDbVisualStyle
  2
2dWireframe
 70
     4
 71
     0
 72
     2
 73
     0
 90
        0
 40
-0.6
 41
-30.0
 62
     5
 63
     7
421
 16777215
 74
     1
 91
        4
 64
     7
 65
   257
 75
     1
175
     1
 42
1.0
 92
        0
 66
   257
 43
1.0
 76
     1
 77
     6
 78
     2
 67
     7
 79
     5
170
     0
171
     0
290
     0
174
     0
 93
        1
 44
0.0
173
     0
291
     0
 45
0.0
  0
VISUALSTYLE
  5
26E
102
{ACAD_REACTORS
330
267
102
}
330
267
100
AcDbVisualStyle
  2
3D Hidden
 70
     6
 71
     1
 72
     2
 73
     2
 90
        0
 40
-0.6
 41
-30.0
 62
     5
 63
     7
421
 16777215
 74
     2
 91
        2
 64
     7
 65
   257
 75
     2
175
     1
 42
40.0
 92
        0
 66
   257
 43
1.0
 76
     1
 77
     6
 78
     2
 67
     7
 79
     3
170
     0
171
     0
290
     0
174
     0
 93
        1
 44
0.0
173
     0
291
     0
 45
0.0
  0
VISUALSTYLE
  5
26D
102
{ACAD_REACTORS
330
267
102
}
330
267
100
AcDbVisualStyle
  2
3dWireframe
 70
     5
 71
     0
 72
     2
 73
     0
 90
        0
 40
-0.6
 41
-30.0
 62
     5
 63
     7
421
 16777215
 74
     1
 91
        4
 64
     7
 65
   257
 75
     1
175
     1
 42
1.0
 92
        0
 66
   257
 43
1.0
 76
     1
 77
     6
 78
     2
 67
     7
 79
     5
170
     0
171
     0
290
     0
174
     0
 93
        1
 44
0.0
173
     0
291
     0
 45
0.0
  0
VISUALSTYLE
  5
26F
102
{ACAD_REACTORS
330
267
102
}
330
267
100
AcDbVisualStyle
  2
Basic
 70
     7
 71
     1
 72
     0
 73
     1
 90
        0
 40
-0.6
 41
-30.0
 62
     5
 63
     7
421
 16777215
 74
     0
 91
        4
 64
     7
 65
   257
 75
     1
175
     1
 42
1.0
 92
        8
 66
     7
 43
1.0
 76
     1
 77
     6
 78
     2
 67
     7
 79
     5
170
     0
171
     0
290
     0
174
     0
 93
        1
 44
0.0
173
     0
291
     1
 45
0.0
  0
VISUALSTYLE
  5
273
102
{ACAD_REACTORS
330
267
102
}
330
267
100
AcDbVisualStyle
  2
Brighten
 70
    12
 71
     2
 72
     2
 73
     0
 90
        0
 40
-0.6
 41
-30.0
 62
     5
 63
     7
421
 16777215
 74
     1
 91
        4
 64
     7
 65
   257
 75
     1
175
     1
 42
1.0
 92
        8
 66
     7
 43
1.0
 76
     1
 77
     6
 78
     2
 67
     7
 79
     5
170
     0
171
     0
290
     0
174
     0
 93
        1
 44
50.0
173
     0
291
     1
 45
0.0
  0
VISUALSTYLE
  5
277
102
{ACAD_REACTORS
330
267
102
}
330
267
100
AcDbVisualStyle
  2
ColorChange
 70
    16
 71
     2
 72
     2
 73
     3
 90
        0
 40
-0.6
 41
-30.0
 62
     5
 63
     8
421
  8421504
 74
     1
 91
        4
 64
     7
 65
   257
 75
     1
175
     1
 42
1.0
 92
        8
 66
     8
424
  8421504
 43
1.0
 76
     1
 77
     6
 78
     2
 67
     7
 79
     5
170
     0
171
     0
290
     0
174
     0
 93
        1
 44
0.0
173
     0
291
     1
 45
0.0
  0
VISUALSTYLE
  5
271
102
{ACAD_REACTORS
330
267
102
}
330
267
100
AcDbVisualStyle
  2
Conceptual
 70
     9
 71
     3
 72
     2
 73
     0
 90
        0
 40
-0.6
 41
-30.0
 62
     5
 63
     7
421
 16777215
 74
     2
 91
        2
 64
     7
 65
   257
 75
     1
175
     1
 42
40.0
 92
        8
 66
     7
 43
1.0
 76
     1
 77
     6
 78
     2
 67
     7
 79
     3
170
     0
171
     0
290
     0
174
     0
 93
        1
 44
0.0
173
     0
291
     0
 45
0.0
  0
VISUALSTYLE
  5
272
102
{ACAD_REACTORS
330
267
102
}
330
267
100
AcDbVisualStyle
  2
Dim
 70
    11
 71
     2
 72
     2
 73
     0
 90
        0
 40
-0.6
 41
-30.0
 62
     5
 63
     7
421
 16777215
 74
     1
 91
        4
 64
     7
 65
   257
 75
     1
175
     1
 42
1.0
 92
        8
 66
     7
 43
1.0
 76
     1
 77
     6
 78
     2
 67
     7
 79
     5
170
     0
171
     0
290
     0
174
     0
 93
        1
 44
-50.0
173
     0
291
     1
 45
0.0
  0
VISUALSTYLE
  5
10E2
102
{ACAD_REACTORS
330
267
102
}
330
267
100
AcDbVisualStyle
  2
EdgeColorOff
 70
    22
 71
     2
 72
     2
 73
     0
 90
        0
 40
0.6
 41
30.0
 62
     5
 63
     7
421
 16777215
 74
     1
 91
        4
 64
     7
 65
   257
 75
     1
175
     1
 42
1.0
 92
        8
 66
     7
 43
1.0
 76
     1
 77
     6
 78
     2
 67
     7
 79
     5
170
     0
171
     0
290
     0
174
     0
 93
        1
 44
0.0
173
     0
291
     1
 45
0.0
  0
VISUALSTYLE
  5
276
102
{ACAD_REACTORS
330
267
102
}
330
267
100
AcDbVisualStyle
  2
Facepattern
 70
    15
 71
     2
 72
     2
 73
     0
 90
        0
 40
-0.6
 41
-30.0
 62
     5
 63
     7
421
 16777215
 74
     1
 91
        4
 64
     7
 65
   257
 75
     1
175
     1
 42
1.0
 92
        8
 66
     7
 43
1.0
 76
     1
 77
     6
 78
     2
 67
     7
 79
     5
170
     0
171
     0
290
     0
174
     0
 93
        1
 44
0.0
173
     0
291
     1
 45
0.0
  0
VISUALSTYLE
  5
268
102
{ACAD_REACTORS
330
267
102
}
330
267
100
AcDbVisualStyle
  2
Flat
 70
     0
 71
     2
 72
     1
 73
     1
 90
        2
 40
-0.6
 41
30.0
 62
     5
 63
     7
421
 16777215
 74
     0
 91
        4
 64
     7
 65
   257
 75
     1
175
     1
 42
1.0
 92
        8
 66
     7
 43
1.0
 76
     1
 77
     6
 78
     2
 67
     7
 79
     5
170
     0
171
     0
290
     0
174
     0
 93
       13
 44
0.0
173
     0
291
     1
 45
0.0
  0
VISUALSTYLE
  5
269
102
{ACAD_REACTORS
330
267
102
}
330
267
100
AcDbVisualStyle
  2
FlatWithEdges
 70
     1
 71
     2
 72
     1
 73
     1
 90
        2
 40
-0.6
 41
30.0
 62
     5
 63
     7
421
 16777215
 74
     1
 91
        4
 64
     7
 65
   257
 75
     1
175
     1
 42
1.0
 92
        0
 66
   257
 43
1.0
 76
     1
 77
     6
 78
     2
 67
     7
 79
     5
170
     0
171
     0
290
     0
174
     0
 93
       13
 44
0.0
173
     0
291
     1
 45
0.0
  0
VISUALSTYLE
  5
26A
102
{ACAD_REACTORS
330
267
102
}
330
267
100
AcDbVisualStyle
  2
Gouraud
 70
     2
 71
     2
 72
     2
 73
     1
 90
        2
 40
-0.6
 41
30.0
 62
     5
 63
     7
421
 16777215
 74
     0
 91
        4
 64
     7
 65
   257
 75
     1
175
     1
 42
1.0
 92
        0
 66
     7
 43
1.0
 76
     1
 77
     6
 78
     2
 67
     7
 79
     5
170
     0
171
     0
290
     0
174
     0
 93
       13
 44
0.0
173
     0
291
     1
 45
0.0
  0
VISUALSTYLE
  5
26B
102
{ACAD_REACTORS
330
267
102
}
330
267
100
AcDbVisualStyle
  2
GouraudWithEdges
 70
     3
 71
     2
 72
     2
 73
     1
 90
        2
 40
-0.6
 41
30.0
 62
     5
 63
     7
421
 16777215
 74
     1
 91
        4
 64
     7
 65
   257
 75
     1
175
     1
 42
1.0
 92
        0
 66
   257
 43
1.0
 76
     1
 77
     6
 78
     2
 67
     7
 79
     5
170
     0
171
     0
290
     0
174
     0
 93
       13
 44
0.0
173
     0
291
     1
 45
0.0
  0
VISUALSTYLE
  5
10DF
102
{ACAD_REACTORS
330
267
102
}
330
267
100
AcDbVisualStyle
  2
Hidden
 70
     6
 71
     1
 72
     2
 73
     2
 90
        0
 40
0.6
 41
30.0
 62
     5
 63
     7
421
 16777215
 74
     2
 91
        2
 64
     7
 65
   257
 75
     2
175
     1
 42
40.0
 92
        0
 66
   257
 43
1.0
 76
     1
 77
     6
 78
     2
 67
     7
 79
     3
170
     0
171
     0
290
     0
174
     0
 93
        1
 44
0.0
173
     0
291
     0
 45
0.0
  0
VISUALSTYLE
  5
10E0
102
{ACAD_REACTORS
330
267
102
}
330
267
100
AcDbVisualStyle
  2
JitterOff
 70
    20
 71
     2
 72
     2
 73
     0
 90
        0
 40
0.6
 41
30.0
 62
     5
 63
     7
421
 16777215
 74
     1
 91
        4
 64
     7
 65
   257
 75
     1
175
     1
 42
1.0
 92
       10
 66
     7
 43
1.0
 76
     1
 77
     6
 78
     2
 67
     7
 79
     5
170
     0
171
     0
290
     0
174
     0
 93
        1
 44
0.0
173
     0
291
     1
 45
0.0
  0
VISUALSTYLE
  5
275
102
{ACAD_REACTORS
330
267
102
}
330
267
100
AcDbVisualStyle
  2
Linepattern
 70
    14
 71
     2
 72
     2
 73
     0
 90
        0
 40
-0.6
 41
-30.0
 62
     5
 63
     7
421
 16777215
 74
     1
 91
        4
 64
     7
 65
   257
 75
     7
175
     7
 42
1.0
 92
        8
 66
     7
 43
1.0
 76
     1
 77
     6
 78
     2
 67
     7
 79
     5
170
     0
171
     0
290
     0
174
     0
 93
        1
 44
0.0
173
     0
291
     1
 45
0.0
  0
VISUALSTYLE
  5
10E1
102
{ACAD_REACTORS
330
267
102
}
330
267
100
AcDbVisualStyle
  2
OverhangOff
 70
    21
 71
     2
 72
     2
 73
     0
 90
        0
 40
0.6
 41
30.0
 62
     5
 63
     7
421
 16777215
 74
     1
 91
        4
 64
     7
 65
   257
 75
     1
175
     1
 42
1.0
 92
        9
 66
     7
 43
1.0
 76
     1
 77
     6
 78
     2
 67
     7
 79
     5
170
     0
171
     0
290
     0
174
     0
 93
        1
 44
0.0
173
     0
291
     1
 45
0.0
  0
VISUALSTYLE
  5
270
102
{ACAD_REACTORS
330
267
102
}
330
267
100
AcDbVisualStyle
  2
Realistic
 70
     8
 71
     2
 72
     2
 73
     0
 90
        0
 40
-0.6
 41
-30.0
 62
     5
 63
     7
421
 16777215
 74
     1
 91
        0
 64
     7
 65
   257
 75
     1
175
     1
 42
1.0
 92
        8
 66
     8
424
  7895160
 43
1.0
 76
     1
 77
     6
 78
     2
 67
     7
 79
     5
170
     0
171
     0
290
     0
174
     0
 93
       13
 44
0.0
173
     0
291
     0
 45
0.0
  0
VISUALSTYLE
  5
10E7
102
{ACAD_REACTORS
330
267
102
}
330
267
100
AcDbVisualStyle
  2
Shaded
 70
    27
 71
     2
 72
     2
 73
     1
 90
        2
 40
0.6
 41
30.0
 62
     5
 63
     7
421
 16777215
 74
     0
 91
        4
 64
     7
 65
   257
 75
     1
175
     1
 42
1.0
 92
        8
 66
   257
 43
1.0
 76
     1
 77
     6
 78
     2
 67
     8
425
  7895160
 79
     3
170
     0
171
     0
290
     0
174
     0
 93
        5
 44
0.0
173
     0
291
     0
 45
0.0
  0
VISUALSTYLE
  5
10E6
102
{ACAD_REACTORS
330
267
102
}
330
267
100
AcDbVisualStyle
  2
Shaded with edges
 70
    26
 71
     2
 72
     2
 73
     1
 90
        2
 40
0.6
 41
30.0
 62
     5
 63
     7
421
 16777215
 74
     1
 91
       10
 64
     7
 65
   257
 75
     2
175
     1
 42
1.0
 92
        8
 66
   257
 43
1.0
 76
     1
 77
     6
 78
     2
 67
     7
 79
     3
170
     0
171
     0
290
     0
174
     0
 93
        5
 44
0.0
173
     0
291
     0
 45
0.0
  0
VISUALSTYLE
  5
10E3
102
{ACAD_REACTORS
330
267
102
}
330
267
100
AcDbVisualStyle
  2
Shades of Gray
 70
    23
 71
     2
 72
     2
 73
     3
 90
        0
 40
0.6
 41
30.0
 62
     5
 63
     7
421
 16777215
 74
     2
 91
        2
 64
     7
 65
     7
 75
     1
175
     1
 42
40.0
 92
        8
 66
     7
 43
1.0
 76
     1
 77
     6
 78
     2
 67
     7
 79
     3
170
     0
171
     0
290
     0
174
     0
 93
        1
 44
0.0
173
     0
291
     0
 45
0.0
  0
VISUALSTYLE
  5
10E4
102
{ACAD_REACTORS
330
267
102
}
330
267
100
AcDbVisualStyle
  2
Sketchy
 70
    24
 71
     1
 72
     2
 73
     2
 90
        0
 40
0.6
 41
30.0
 62
     5
 63
     7
421
 16777215
 74
     2
 91
        2
 64
     7
 65
     7
 75
     1
175
     1
 42
40.0
 92
       11
 66
     7
 43
1.0
 76
     1
 77
     6
 78
     2
 67
     7
 79
     6
170
     0
171
     0
290
     0
174
     0
 93
        1
 44
0.0
173
     0
291
     0
 45
0.0
  0
VISUALSTYLE
  5
274
102
{ACAD_REACTORS
330
267
102
}
330
267
100
AcDbVisualStyle
  2
Thicken
 70
    13
 71
     2
 72
     2
 73
     0
 90
        0
 40
-0.6
 41
-30.0
 62
     5
 63
     7
421
 16777215
 74
     1
 91
        4
 64
     7
 65
   257
 75
     1
175
     1
 42
1.0
 92
       12
 66
     7
 43
1.0
 76
     1
 77
     6
 78
     2
 67
     7
 79
     5
170
     0
171
     0
290
     0
174
     0
 93
        1
 44
0.0
173
     0
291
     1
 45
0.0
  0
VISUALSTYLE
  5
10DE
102
{ACAD_REACTORS
330
267
102
}
330
267
100
AcDbVisualStyle
  2
Wireframe
 70
     5
 71
     0
 72
     2
 73
     0
 90
        0
 40
0.6
 41
30.0
 62
     5
 63
     7
421
 16777215
 74
     1
 91
        4
 64
     7
 65
   257
 75
     1
175
     1
 42
1.0
 92
        0
 66
   257
 43
1.0
 76
     1
 77
     6
 78
     2
 67
     7
 79
     3
170
     0
171
     0
290
     0
174
     0
 93
        1
 44
0.0
173
     0
291
     0
 45
0.0
  0
VISUALSTYLE
  5
10E5
102
{ACAD_REACTORS
330
267
102
}
330
267
100
AcDbVisualStyle
  2
X-Ray
 70
    25
 71
     2
 72
     2
 73
     1
 90
        1
 40
0.5
 41
30.0
 62
     5
 63
     7
421
 16777215
 74
     1
 91
        0
 64
     7
 65
   257
 75
     1
175
     1
 42
1.0
 92
        8
 66
     7
 43
1.0
 76
     1
 77
     6
 78
     2
 67
     7
 79
     3
170
     0
171
     0
290
     0
174
     0
 93
       13
 44
0.0
173
     0
291
     0
 45
0.0
  0
DICTIONARYVAR
  5
331
102
{ACAD_REACTORS
330
330
102
}
330
330
100
DictionaryVariables
280
     0
  1
1:1
  0
DICTIONARYVAR
  5
71F7
102
{ACAD_REACTORS
330
330
102
}
330
330
100
DictionaryVariables
280
     0
  1
Standard
  0
DICTIONARYVAR
  5
335
102
{ACAD_REACTORS
330
330
102
}
330
330
100
DictionaryVariables
280
     0
  1
Standard
  0
DICTIONARYVAR
  5
73D5
102
{ACAD_REACTORS
330
330
102
}
330
330
100
DictionaryVariables
280
     0
  1
ByLayer
  0
DICTIONARYVAR
  5
109E
102
{ACAD_REACTORS
330
330
102
}
330
330
100
DictionaryVariables
280
     0
  1
0
  0
DICTIONARYVAR
  5
73D9
102
{ACAD_REACTORS
330
73D6
102
}
330
73D6
100
DictionaryVariables
280
     0
  1
0.261799
  0
DICTIONARYVAR
  5
73D7
102
{ACAD_REACTORS
330
73D6
102
}
330
73D6
100
DictionaryVariables
280
     0
  1
0.400000
  0
DICTIONARYVAR
  5
73D8
102
{ACAD_REACTORS
330
73D6
102
}
330
73D6
100
DictionaryVariables
280
     0
  1
0.250000
  0
DICTIONARYVAR
  5
73DA
102
{ACAD_REACTORS
330
73D6
102
}
330
73D6
100
DictionaryVariables
280
     0
  1
1
  0
FIELD
  5
7D86
102
{ACAD_REACTORS
330
7D85
330
83BF
102
}
330
83BF
100
AcDbField
  1
_text
  2
{%<\_FldIdx 0>%N}
 90
        1
360
7D87
 97
        0
 91
       63
 92
        0
 94
       11
 95
        2
 96
        0
300

 93
        1
  6
ACFD_FIELDTEXT_CHECKSUM
 93
        2
 90
        2
140
4460.0
 94
        0
300

302

304
ACVALUE_END
  7
ACFD_FIELD_VALUE
 93
        6
 90
        4
  1
{20181020N}
 94
        0
300

302

304
ACVALUE_END
301
{20181020N}
 98
       11
  0
DICTIONARY
  5
83C3
330
279
100
AcDbDictionary
280
     1
281
     1
  3
ACAD_ROUNDTRIP_2008_TABLESTYLE_CELLSTYLEMAP
360
83C4
  0
FIELD
  5
7D87
330
7D86
100
AcDbField
  1
AcVar
  2
\AcVar Date \f "yyyyMMdd"
 90
        0
 97
        0
 91
       63
 92
        0
 94
        8
 95
       64
 96
        0
300
Variable not supported
 93
        1
  6
Variable
 93
        2
 90
        4
  1
Date
 94
        0
300

302

304
ACVALUE_END
  7
ACFD_FIELD_VALUE
 93
        6
 90
        8
 92
       16
310
E2070A00000013001100240037000000
 94
        0
300
yyyyMMdd
302

304
ACVALUE_END
301
20181020
 98
        8
  0
CELLSTYLEMAP
  5
83C4
102
{ACAD_REACTORS
330
83C3
102
}
330
83C3
100
AcDbCellStyleMap
 90
        3
300
CELLSTYLE
  1
TABLEFORMAT_BEGIN
 90
        5
170
     1
 91
        0
 92
    32768
 62
   257
 93
        1
300
CONTENTFORMAT
  1
CONTENTFORMAT_BEGIN
 90
        0
 91
        0
 92
        4
 93
        0
300

 40
0.0
140
1.0
 94
        5
 62
     0
340
17
144
6.0
309
CONTENTFORMAT_END
171
     1
301
MARGIN
  1
CELLMARGIN_BEGIN
 40
0.06
 40
0.06
 40
0.06
 40
0.06
 40
0.18
 40
0.18
309
CELLMARGIN_END
 94
        6
 95
        1
302
GRIDFORMAT
  1
GRIDFORMAT_BEGIN
 90
        0
 91
        1
 62
     0
 92
       -2
340
0
 93
        0
 40
0.045
309
GRIDFORMAT_END
 95
        2
302
GRIDFORMAT
  1
GRIDFORMAT_BEGIN
 90
        0
 91
        1
 62
     0
 92
       -2
340
0
 93
        0
 40
0.045
309
GRIDFORMAT_END
 95
        4
302
GRIDFORMAT
  1
GRIDFORMAT_BEGIN
 90
        0
 91
        1
 62
     0
 92
       -2
340
0
 93
        0
 40
0.045
309
GRIDFORMAT_END
 95
        8
302
GRIDFORMAT
  1
GRIDFORMAT_BEGIN
 90
        0
 91
        1
 62
     0
 92
       -2
340
0
 93
        0
 40
0.045
309
GRIDFORMAT_END
 95
       16
302
GRIDFORMAT
  1
GRIDFORMAT_BEGIN
 90
        0
 91
        1
 62
     0
 92
       -2
340
0
 93
        0
 40
0.045
309
GRIDFORMAT_END
 95
       32
302
GRIDFORMAT
  1
GRIDFORMAT_BEGIN
 90
        0
 91
        1
 62
     0
 92
       -2
340
0
 93
        0
 40
0.045
309
GRIDFORMAT_END
309
TABLEFORMAT_END
  1
CELLSTYLE_BEGIN
 90
        1
 91
        1
300
_TITLE
309
CELLSTYLE_END
300
CELLSTYLE
  1
TABLEFORMAT_BEGIN
 90
        5
170
     1
 91
        0
 92
        0
 62
   257
 93
        1
300
CONTENTFORMAT
  1
CONTENTFORMAT_BEGIN
 90
        0
 91
        0
 92
        4
 93
        0
300

 40
0.0
140
1.0
 94
        5
 62
     0
340
17
144
4.5
309
CONTENTFORMAT_END
171
     1
301
MARGIN
  1
CELLMARGIN_BEGIN
 40
0.06
 40
0.06
 40
0.06
 40
0.06
 40
0.18
 40
0.18
309
CELLMARGIN_END
 94
        6
 95
        1
302
GRIDFORMAT
  1
GRIDFORMAT_BEGIN
 90
        0
 91
        1
 62
     0
 92
       -2
340
0
 93
        0
 40
0.045
309
GRIDFORMAT_END
 95
        2
302
GRIDFORMAT
  1
GRIDFORMAT_BEGIN
 90
        0
 91
        1
 62
     0
 92
       -2
340
0
 93
        0
 40
0.045
309
GRIDFORMAT_END
 95
        4
302
GRIDFORMAT
  1
GRIDFORMAT_BEGIN
 90
        0
 91
        1
 62
     0
 92
       -2
340
0
 93
        0
 40
0.045
309
GRIDFORMAT_END
 95
        8
302
GRIDFORMAT
  1
GRIDFORMAT_BEGIN
 90
        0
 91
        1
 62
     0
 92
       -2
340
0
 93
        0
 40
0.045
309
GRIDFORMAT_END
 95
       16
302
GRIDFORMAT
  1
GRIDFORMAT_BEGIN
 90
        0
 91
        1
 62
     0
 92
       -2
340
0
 93
        0
 40
0.045
309
GRIDFORMAT_END
 95
       32
302
GRIDFORMAT
  1
GRIDFORMAT_BEGIN
 90
        0
 91
        1
 62
     0
 92
       -2
340
0
 93
        0
 40
0.045
309
GRIDFORMAT_END
309
TABLEFORMAT_END
  1
CELLSTYLE_BEGIN
 90
        2
 91
        1
300
_HEADER
309
CELLSTYLE_END
300
CELLSTYLE
  1
TABLEFORMAT_BEGIN
 90
        5
170
     1
 91
        0
 92
        0
 62
   257
 93
        1
300
CONTENTFORMAT
  1
CONTENTFORMAT_BEGIN
 90
        0
 91
        0
 92
        4
 93
        0
300

 40
0.0
140
1.0
 94
        2
 62
     0
340
17
144
4.5
309
CONTENTFORMAT_END
171
     1
301
MARGIN
  1
CELLMARGIN_BEGIN
 40
0.06
 40
0.06
 40
0.06
 40
0.06
 40
0.18
 40
0.18
309
CELLMARGIN_END
 94
        6
 95
        1
302
GRIDFORMAT
  1
GRIDFORMAT_BEGIN
 90
        0
 91
        1
 62
     0
 92
       -2
340
0
 93
        0
 40
0.045
309
GRIDFORMAT_END
 95
        2
302
GRIDFORMAT
  1
GRIDFORMAT_BEGIN
 90
        0
 91
        1
 62
     0
 92
       -2
340
0
 93
        0
 40
0.045
309
GRIDFORMAT_END
 95
        4
302
GRIDFORMAT
  1
GRIDFORMAT_BEGIN
 90
        0
 91
        1
 62
     0
 92
       -2
340
0
 93
        0
 40
0.045
309
GRIDFORMAT_END
 95
        8
302
GRIDFORMAT
  1
GRIDFORMAT_BEGIN
 90
        0
 91
        1
 62
     0
 92
       -2
340
0
 93
        0
 40
0.045
309
GRIDFORMAT_END
 95
       16
302
GRIDFORMAT
  1
GRIDFORMAT_BEGIN
 90
        0
 91
        1
 62
     0
 92
       -2
340
0
 93
        0
 40
0.045
309
GRIDFORMAT_END
 95
       32
302
GRIDFORMAT
  1
GRIDFORMAT_BEGIN
 90
        0
 91
        1
 62
     0
 92
       -2
340
0
 93
        0
 40
0.045
309
GRIDFORMAT_END
309
TABLEFORMAT_END
  1
CELLSTYLE_BEGIN
 90
        3
 91
        2
300
_DATA
309
CELLSTYLE_END
  0
ENDSEC
  0
EOF
