  0
SECTION
  2
HEADER
  9
$ACADVER
  1
AC1021
  9
$ACADMAINTVER
 70
    25
  9
$DWGCODEPAGE
  3
ANSI_932
  9
$LASTSAVEDBY
  1
howeNelson
  9
$INSBASE
 10
0.0
 20
0.0
 30
0.0
  9
$EXTMIN
 10
0.0
 20
0.0
 30
-0.0000000000000071
  9
$EXTMAX
 10
210.0
 20
297.0
 30
0.0000000000000142
  9
$LIMMIN
 10
0.0
 20
0.0
  9
$LIMMAX
 10
210.0
 20
297.0
  9
$ORTHOMODE
 70
     0
  9
$REGENMODE
 70
     1
  9
$FILLMODE
 70
     1
  9
$QTEXTMODE
 70
     0
  9
$MIRRTEXT
 70
     1
  9
$LTSCALE
 40
0.5
  9
$ATTMODE
 70
     1
  9
$TEXTSIZE
 40
2.5
  9
$TRACEWID
 40
1.0
  9
$TEXTSTYLE
  7
ＭＳ ゴシック
  9
$CLAYER
  8
DIM
  9
$CELTYPE
  6
ByLayer
  9
$CECOLOR
 62
   256
  9
$CELTSCALE
 40
1.0
  9
$DISPSILH
 70
     0
  9
$DIMSCALE
 40
1.0
  9
$DIMASZ
 40
1.0
  9
$DIMEXO
 40
2.0
  9
$DIMDLI
 40
0.9999999999999999
  9
$DIMRND
 40
0.0
  9
$DIMDLE
 40
0.0
  9
$DIMEXE
 40
0.0
  9
$DIMTP
 40
0.0
  9
$DIMTM
 40
0.0
  9
$DIMTXT
 40
3.0
  9
$DIMCEN
 40
0.0
  9
$DIMTSZ
 40
0.0
  9
$DIMTOL
 70
     0
  9
$DIMLIM
 70
     0
  9
$DIMTIH
 70
     0
  9
$DIMTOH
 70
     0
  9
$DIMSE1
 70
     0
  9
$DIMSE2
 70
     0
  9
$DIMTAD
 70
     1
  9
$DIMZIN
 70
    11
  9
$DIMBLK
  1
DOT
  9
$DIMASO
 70
     1
  9
$DIMSHO
 70
     1
  9
$DIMPOST
  1
<>
  9
$DIMAPOST
  1
[]
  9
$DIMALT
 70
     0
  9
$DIMALTD
 70
     1
  9
$DIMALTF
 40
1.0
  9
$DIMLFAC
 40
1.0
  9
$DIMTOFL
 70
     0
  9
$DIMTVP
 40
0.0
  9
$DIMTIX
 70
     1
  9
$DIMSOXD
 70
     0
  9
$DIMSAH
 70
     0
  9
$DIMBLK1
  1

  9
$DIMBLK2
  1

  9
$DIMSTYLE
  2
tfrom線あり
  9
$DIMCLRD
 70
     0
  9
$DIMCLRE
 70
     0
  9
$DIMCLRT
 70
     0
  9
$DIMTFAC
 40
1.0
  9
$DIMGAP
 40
1.0
  9
$DIMJUST
 70
     0
  9
$DIMSD1
 70
     0
  9
$DIMSD2
 70
     0
  9
$DIMTOLJ
 70
     1
  9
$DIMTZIN
 70
    11
  9
$DIMALTZ
 70
    11
  9
$DIMALTTZ
 70
    11
  9
$DIMUPT
 70
     0
  9
$DIMDEC
 70
     0
  9
$DIMTDEC
 70
     1
  9
$DIMALTU
 70
     2
  9
$DIMALTTD
 70
     2
  9
$DIMTXSTY
  7
ＭＳ ゴシック
  9
$DIMAUNIT
 70
     0
  9
$DIMADEC
 70
     2
  9
$DIMALTRND
 40
0.0
  9
$DIMAZIN
 70
     0
  9
$DIMDSEP
 70
    46
  9
$DIMATFIT
 70
     0
  9
$DIMFRAC
 70
     2
  9
$DIMLDRBLK
  1
DOT
  9
$DIMLUNIT
 70
     2
  9
$DIMLWD
 70
    -2
  9
$DIMLWE
 70
    -2
  9
$DIMTMOVE
 70
     0
  9
$DIMFXL
 40
1.0
  9
$DIMFXLON
 70
     0
  9
$DIMJOGANG
 40
0.7853981633974483
  9
$DIMTFILL
 70
     0
  9
$DIMTFILLCLR
 70
     0
  9
$DIMARCSYM
 70
     0
  9
$DIMLTYPE
  6

  9
$DIMLTEX1
  6

  9
$DIMLTEX2
  6

  9
$LUNITS
 70
     2
  9
$LUPREC
 70
     0
  9
$SKETCHINC
 40
0.1
  9
$FILLETRAD
 40
0.0
  9
$AUNITS
 70
     0
  9
$AUPREC
 70
     0
  9
$MENU
  1
acad
  9
$ELEVATION
 40
0.0
  9
$PELEVATION
 40
0.0
  9
$THICKNESS
 40
0.0
  9
$LIMCHECK
 70
     0
  9
$CHAMFERA
 40
0.0
  9
$CHAMFERB
 40
0.0
  9
$CHAMFERC
 40
0.0
  9
$CHAMFERD
 40
0.0
  9
$SKPOLY
 70
     0
  9
$TDCREATE
 40
2447893.375
  9
$TDUCREATE
 40
0.0
  9
$TDUPDATE
 40
2458212.64095103
  9
$TDUUPDATE
 40
2458212.26595103
  9
$TDINDWG
 40
0.2948778241
  9
$TDUSRTIMER
 40
0.1636549074
  9
$USRTIMER
 70
     1
  9
$ANGBASE
 50
0.0
  9
$ANGDIR
 70
     0
  9
$PDMODE
 70
     1
  9
$PDSIZE
 40
-2.0
  9
$PLINEWID
 40
0.0
  9
$SPLFRAME
 70
     0
  9
$SPLINETYPE
 70
     6
  9
$SPLINESEGS
 70
     8
  9
$HANDSEED
  5
283C
  9
$SURFTAB1
 70
     6
  9
$SURFTAB2
 70
     6
  9
$SURFTYPE
 70
     6
  9
$SURFU
 70
     6
  9
$SURFV
 70
     6
  9
$UCSBASE
  2

  9
$UCSNAME
  2

  9
$UCSORG
 10
0.0
 20
0.0
 30
0.0
  9
$UCSXDIR
 10
1.0
 20
0.0
 30
0.0
  9
$UCSYDIR
 10
0.0
 20
1.0
 30
0.0
  9
$UCSORTHOREF
  2

  9
$UCSORTHOVIEW
 70
     0
  9
$UCSORGTOP
 10
0.0
 20
0.0
 30
0.0
  9
$UCSORGBOTTOM
 10
0.0
 20
0.0
 30
0.0
  9
$UCSORGLEFT
 10
0.0
 20
0.0
 30
0.0
  9
$UCSORGRIGHT
 10
0.0
 20
0.0
 30
0.0
  9
$UCSORGFRONT
 10
0.0
 20
0.0
 30
0.0
  9
$UCSORGBACK
 10
0.0
 20
0.0
 30
0.0
  9
$PUCSBASE
  2

  9
$PUCSNAME
  2

  9
$PUCSORG
 10
0.0
 20
0.0
 30
0.0
  9
$PUCSXDIR
 10
1.0
 20
0.0
 30
0.0
  9
$PUCSYDIR
 10
0.0
 20
1.0
 30
0.0
  9
$PUCSORTHOREF
  2

  9
$PUCSORTHOVIEW
 70
     0
  9
$PUCSORGTOP
 10
0.0
 20
0.0
 30
0.0
  9
$PUCSORGBOTTOM
 10
0.0
 20
0.0
 30
0.0
  9
$PUCSORGLEFT
 10
0.0
 20
0.0
 30
0.0
  9
$PUCSORGRIGHT
 10
0.0
 20
0.0
 30
0.0
  9
$PUCSORGFRONT
 10
0.0
 20
0.0
 30
0.0
  9
$PUCSORGBACK
 10
0.0
 20
0.0
 30
0.0
  9
$USERI1
 70
     0
  9
$USERI2
 70
     0
  9
$USERI3
 70
     0
  9
$USERI4
 70
     0
  9
$USERI5
 70
     0
  9
$USERR1
 40
0.0
  9
$USERR2
 40
0.0
  9
$USERR3
 40
0.0
  9
$USERR4
 40
0.0
  9
$USERR5
 40
0.0
  9
$WORLDVIEW
 70
     1
  9
$SHADEDGE
 70
     3
  9
$SHADEDIF
 70
    70
  9
$TILEMODE
 70
     1
  9
$MAXACTVP
 70
    64
  9
$PINSBASE
 10
0.0
 20
0.0
 30
0.0
  9
$PLIMCHECK
 70
     0
  9
$PEXTMIN
 10
0.0
 20
0.0
 30
0.0
  9
$PEXTMAX
 10
0.0
 20
0.0
 30
0.0
  9
$PLIMMIN
 10
-7.5
 20
-20.0
  9
$PLIMMAX
 10
412.5
 20
277.0
  9
$UNITMODE
 70
     0
  9
$VISRETAIN
 70
     0
  9
$PLINEGEN
 70
     1
  9
$PSLTSCALE
 70
     0
  9
$TREEDEPTH
 70
  3020
  9
$CMLSTYLE
  2
Standard
  9
$CMLJUST
 70
     0
  9
$CMLSCALE
 40
1.0
  9
$PROXYGRAPHICS
 70
     0
  9
$MEASUREMENT
 70
     1
  9
$CELWEIGHT
370
    -1
  9
$ENDCAPS
280
     0
  9
$JOINSTYLE
280
     0
  9
$LWDISPLAY
290
     1
  9
$INSUNITS
 70
     4
  9
$HYPERLINKBASE
  1

  9
$STYLESHEET
  1

  9
$XEDIT
290
     1
  9
$CEPSNTYPE
380
     0
  9
$PSTYLEMODE
290
     1
  9
$FINGERPRINTGUID
  2

  9
$VERSIONGUID
  2

  9
$EXTNAMES
290
     1
  9
$PSVPSCALE
 40
0.0
  9
$OLESTARTUP
290
     0
  9
$SORTENTS
280
   127
  9
$INDEXCTL
280
     0
  9
$HIDETEXT
280
     1
  9
$XCLIPFRAME
290
     0
  9
$HALOGAP
280
     0
  9
$OBSCOLOR
 70
   257
  9
$OBSLTYPE
280
     0
  9
$INTERSECTIONDISPLAY
280
     0
  9
$INTERSECTIONCOLOR
 70
   257
  9
$DIMASSOC
280
     2
  9
$PROJECTNAME
  1

  9
$CAMERADISPLAY
290
     0
  9
$LENSLENGTH
 40
50.0
  9
$CAMERAHEIGHT
 40
0.0
  9
$STEPSPERSEC
 40
2.0
  9
$STEPSIZE
 40
6.0
  9
$3DDWFPREC
 40
2.0
  9
$PSOLWIDTH
 40
0.25
  9
$PSOLHEIGHT
 40
4.0
  9
$LOFTANG1
 40
1.570796326794897
  9
$LOFTANG2
 40
1.570796326794897
  9
$LOFTMAG1
 40
0.0
  9
$LOFTMAG2
 40
0.0
  9
$LOFTPARAM
 70
     7
  9
$LOFTNORMALS
280
     1
  9
$LATITUDE
 40
37.795
  9
$LONGITUDE
 40
-122.394
  9
$NORTHDIRECTION
 40
0.0
  9
$TIMEZONE
 70
 -8000
  9
$LIGHTGLYPHDISPLAY
280
     1
  9
$TILEMODELIGHTSYNCH
280
     1
  9
$SOLIDHIST
280
     1
  9
$SHOWHIST
280
     1
  9
$DWFFRAME
280
     2
  9
$DGNFRAME
280
     2
  9
$REALWORLDSCALE
290
     1
  9
$INTERFERECOLOR
 62
   256
  9
$CSHADOW
280
     0
  9
$SHADOWPLANELOCATION
 40
0.0
  0
ENDSEC
  0
SECTION
  2
CLASSES
  0
CLASS
  1
LWPOLYLINE
  2
AcDbPolyline
  3
ObjectDBX Classes
 90
        0
 91
        1
280
     0
281
     1
  0
CLASS
  1
IMAGE
  2
AcDbRasterImage
  3
ISM
 90
      127
 91
        5
280
     0
281
     1
  0
CLASS
  1
OLE2FRAME
  2
AcDbOle2Frame
  3
ObjectDBX Classes
 90
        0
 91
        1
280
     0
281
     1
  0
CLASS
  1
HATCH
  2
AcDbHatch
  3
ObjectDBX Classes
 90
        0
 91
        1
280
     0
281
     1
  0
CLASS
  1
DICTIONARYVAR
  2
AcDbDictionaryVar
  3
ObjectDBX Classes
 90
        0
 91
        4
280
     0
281
     0
  0
CLASS
  1
RASTERVARIABLES
  2
AcDbRasterVariables
  3
ISM
 90
        0
 91
        4
280
     0
281
     0
  0
CLASS
  1
IMAGEDEF
  2
AcDbRasterImageDef
  3
ISM
 90
        0
 91
        4
280
     0
281
     0
  0
CLASS
  1
IMAGEDEF_REACTOR
  2
AcDbRasterImageDefReactor
  3
ISM
 90
        1
 91
        4
280
     0
281
     0
  0
CLASS
  1
IDBUFFER
  2
AcDbIdBuffer
  3
ObjectDBX Classes
 90
        0
 91
        4
280
     0
281
     0
  0
CLASS
  1
SPATIAL_FILTER
  2
AcDbSpatialFilter
  3
ObjectDBX Classes
 90
        0
 91
        4
280
     0
281
     0
  0
CLASS
  1
XRECORD
  2
AcDbXrecord
  3
ObjectDBX Classes
 90
        0
 91
        1
280
     0
281
     0
  0
CLASS
  1
SORTENTSTABLE
  2
AcDbSortentsTable
  3
ObjectDBX Classes
 90
        0
 91
        4
280
     0
281
     0
  0
CLASS
  1
LAYER_INDEX
  2
AcDbLayerIndex
  3
ObjectDBX Classes
 90
        0
 91
        4
280
     0
281
     0
  0
CLASS
  1
SPATIAL_INDEX
  2
AcDbSpatialIndex
  3
AutoCAD 2000
 90
        0
 91
        4
280
     0
281
     0
  0
CLASS
  1
OBJECT_PTR
  2
CAseDLPNTableRecord
  3
ASE-LPNTableRecord
 90
        1
 91
        4
280
     0
281
     0
  0
CLASS
  1
LAYOUT
  2
AcDbLayout
  3
ObjectDBX Classes
 90
        0
 91
        1
280
     0
281
     0
  0
CLASS
  1
PLOTSETTINGS
  2
AcDbPlotSettings
  3
ObjectDBX Classes
 90
        0
 91
        4
280
     0
281
     0
  0
CLASS
  1
ACDBDICTIONARYWDFLT
  2
AcDbDictionaryWithDefault
  3
ObjectDBX Classes
 90
        0
 91
        4
280
     0
281
     0
  0
CLASS
  1
ACDBPLACEHOLDER
  2
AcDbPlaceHolder
  3
ObjectDBX Classes
 90
        0
 91
        1
280
     0
281
     0
  0
CLASS
  1
SCALE
  2
AcDbScale
  3
ObjectDBX Classes
 90
     1153
 91
        4
280
     0
281
     0
  0
CLASS
  1
MATERIAL
  2
AcDbMaterial
  3
ObjectDBX Classes
 90
     1153
 91
        4
280
     0
281
     0
  0
CLASS
  1
VISUALSTYLE
  2
AcDbVisualStyle
  3
ObjectDBX Classes
 90
     4095
 91
        4
280
     0
281
     0
  0
CLASS
  1
TABLESTYLE
  2
AcDbTableStyle
  3
ObjectDBX Classes
 90
     4095
 91
        4
280
     0
281
     0
  0
CLASS
  1
DIMASSOC
  2
AcDbDimAssoc
  3
"AcDbDimAssoc|Product Desc:     AcDim ARX App For Dimension|Company:          Autodesk, Inc.|WEB Address:      www.autodesk.com"
 90
        0
 91
        4
280
     0
281
     0
  0
CLASS
  1
CELLSTYLEMAP
  2
AcDbCellStyleMap
  3
ObjectDBX Classes
 90
     1152
 91
        4
280
     0
281
     0
  0
CLASS
  1
SUN
  2
AcDbSun
  3
SCENEOE
 90
     1153
 91
        4
280
     0
281
     0
  0
CLASS
  1
MLEADERSTYLE
  2
AcDbMLeaderStyle
  3
ACDB_MLEADERSTYLE_CLASS
 90
     4095
 91
        4
280
     0
281
     0
  0
CLASS
  1
FIELD
  2
AcDbField
  3
ObjectDBX Classes
 90
     1152
 91
        4
280
     0
281
     0
  0
CLASS
  1
FIELDLIST
  2
AcDbFieldList
  3
ObjectDBX Classes
 90
     1152
 91
        4
280
     0
281
     0
  0
ENDSEC
  0
SECTION
  2
TABLES
  0
TABLE
  2
VPORT
  5
7
330
0
100
AcDbSymbolTable
 70
     1
  0
VPORT
  5
15
330
7
100
AcDbSymbolTableRecord
100
AcDbViewportTableRecord
  2
*ACTIVE
 70
     0
 10
0.0
 20
0.0
 11
1.0
 21
1.0
 12
196.0201356708993
 22
74.90128546983397
 13
0.0
 23
0.0
 14
1.0
 24
1.0
 15
0.0
 25
0.0
 16
0.0
 26
0.0
 36
1.0
 17
-91.02013567089926
 27
73.59871453016603
 37
-46.86809886248109
 40
302.94
 41
2.242253521126761
 42
50.0
 43
0.0
 44
0.0
 50
0.0
 51
0.0
 71
    16
 72
  2000
 73
     1
 74
     1
 75
     0
 76
     0
 77
     0
 78
     0
281
     0
 65
     1
110
0.0
120
0.0
130
0.0
111
1.0
121
0.0
131
0.0
112
0.0
122
1.0
132
0.0
 79
     0
146
0.0
348
26C
 60
     3
 61
     5
292
     1
282
     1
141
0.0
142
0.0
 63
   256
361
904
  0
ENDTAB
  0
TABLE
  2
LTYPE
  5
4
330
0
100
AcDbSymbolTable
 70
    21
  0
LTYPE
  5
11
330
4
100
AcDbSymbolTableRecord
100
AcDbLinetypeTableRecord
  2
ByBlock
 70
     0
  3

 72
    65
 73
     0
 40
0.0
  0
LTYPE
  5
12
330
4
100
AcDbSymbolTableRecord
100
AcDbLinetypeTableRecord
  2
ByLayer
 70
     0
  3

 72
    65
 73
     0
 40
0.0
  0
LTYPE
  5
13
330
4
100
AcDbSymbolTableRecord
100
AcDbLinetypeTableRecord
  2
Continuous
 70
     0
  3
Solid line
 72
    65
 73
     0
 40
0.0
  0
LTYPE
  5
D6C
330
4
100
AcDbSymbolTableRecord
100
AcDbLinetypeTableRecord
  2
BORDER
 70
     0
  3
Border __  __  . __  __  . __  __  . __  __  . 
 72
    65
 73
     6
 40
44.45
 49
12.7
 74
     0
 49
-6.35
 74
     0
 49
12.7
 74
     0
 49
-6.35
 74
     0
 49
0.0
 74
     0
 49
-6.35
 74
     0
  0
LTYPE
  5
D6D
330
4
100
AcDbSymbolTableRecord
100
AcDbLinetypeTableRecord
  2
HIDDEN
 70
     0
  3
Hidden _ _ _ _ _ _ _ _ _ _ _ _ _ _ _ _ _ _ _ _ 
 72
    65
 73
     2
 40
9.524999999999999
 49
6.35
 74
     0
 49
-3.175
 74
     0
  0
ENDTAB
  0
TABLE
  2
LAYER
  5
2
102
{ACAD_XDICTIONARY
360
2E1
102
}
330
0
100
AcDbSymbolTable
 70
    10
  0
LAYER
  5
14
330
2
100
AcDbSymbolTableRecord
100
AcDbLayerTableRecord
  2
0
 70
     0
 62
     7
  6
Continuous
370
    -3
390
1D
347
266
  0
LAYER
  5
4B
330
2
100
AcDbSymbolTableRecord
100
AcDbLayerTableRecord
  2
TEMPLATE
 70
     0
 62
     7
  6
Continuous
370
    20
390
1D
347
266
  0
LAYER
  5
4C
330
2
100
AcDbSymbolTableRecord
100
AcDbLayerTableRecord
  2
DIM
 70
     0
 62
     7
  6
Continuous
370
    13
390
1D
347
266
  0
LAYER
  5
4D
330
2
100
AcDbSymbolTableRecord
100
AcDbLayerTableRecord
  2
MODEL
 70
     0
 62
     7
  6
Continuous
370
    20
390
1D
347
266
  0
LAYER
  5
667
330
2
100
AcDbSymbolTableRecord
100
AcDbLayerTableRecord
  2
LOGO
 70
     0
 62
     7
  6
Continuous
370
    -3
390
1D
347
266
  0
LAYER
  5
88C
330
2
100
AcDbSymbolTableRecord
100
AcDbLayerTableRecord
  2
HIDDEN
 70
     0
 62
   250
  6
HIDDEN
370
    20
390
1D
347
266
1001
AcAecLayerStandard
1000

1000

  0
LAYER
  5
D6B
330
2
100
AcDbSymbolTableRecord
100
AcDbLayerTableRecord
  2
BORDER
 70
     0
 62
     4
  6
BORDER
290
     0
370
    20
390
1D
347
266
1001
AcAecLayerStandard
1000

1000

  0
LAYER
  5
D8C
330
2
100
AcDbSymbolTableRecord
100
AcDbLayerTableRecord
  2
Defpoints
 70
     0
 62
     7
  6
Continuous
290
     0
370
    -3
390
1D
347
266
  0
ENDTAB
  0
TABLE
  2
STYLE
  5
3
330
0
100
AcDbSymbolTable
 70
     4
  0
STYLE
  5
17
330
3
100
AcDbSymbolTableRecord
100
AcDbTextStyleTableRecord
  2
Standard
 70
     0
 40
0.0
 41
1.0
 50
0.0
 71
     0
 42
2.5
  3
txt
  4
BIGFONT.SHX
  0
STYLE
  5
39
330
3
100
AcDbSymbolTableRecord
100
AcDbTextStyleTableRecord
  2
ＭＳ ゴシック
 70
     0
 40
0.0
 41
1.0
 50
0.0
 71
     0
 42
2.5
  3
msgothic.ttc
  4
ＭＳ ゴシック
1001
ACAD
1000
ＭＳ ゴシック
1071
        0
  0
ENDTAB
  0
TABLE
  2
VIEW
  5
5
330
0
100
AcDbSymbolTable
 70
     0
  0
ENDTAB
  0
TABLE
  2
UCS
  5
6
330
0
100
AcDbSymbolTable
 70
     0
  0
ENDTAB
  0
TABLE
  2
APPID
  5
8
330
0
100
AcDbSymbolTable
 70
     3
  0
APPID
  5
16
330
8
100
AcDbSymbolTableRecord
100
AcDbRegAppTableRecord
  2
ACAD
 70
     0
  0
APPID
  5
7AC
330
8
100
AcDbSymbolTableRecord
100
AcDbRegAppTableRecord
  2
AcAecLayerStandard
 70
     0
  0
APPID
  5
E29
330
8
100
AcDbSymbolTableRecord
100
AcDbRegAppTableRecord
  2
ACAD_MLEADERVER
 70
     0
  0
ENDTAB
  0
TABLE
  2
DIMSTYLE
  5
9
330
0
100
AcDbSymbolTable
 70
     5
100
AcDbDimStyleTable
  0
DIMSTYLE
105
18
330
9
100
AcDbSymbolTableRecord
100
AcDbDimStyleTableRecord
  2
Standard
 70
     0
178
     0
340
17
  0
DIMSTYLE
105
57
102
{ACAD_REACTORS
330
1EEE
330
1F0D
330
1F27
330
1F36
330
1F54
330
1F63
330
1F74
330
24BA
330
24D2
330
24DF
330
24EE
330
24FD
330
250D
330
26B7
330
27F4
102
}
330
9
100
AcDbSymbolTableRecord
100
AcDbDimStyleTableRecord
  2
tfrom線あり
 70
     0
  3
<>
  4
[]
 41
1.0
 42
2.0
 43
0.9999999999999999
 44
0.0
 73
     0
 74
     0
 77
     1
 78
    11
140
3.0
141
0.0
143
1.0
147
1.0
171
     1
174
     1
178
     0
179
     2
271
     0
272
     1
276
     2
284
    11
285
    11
286
    11
289
     0
340
39
341
4E
342
4E
  0
ENDTAB
  0
TABLE
  2
BLOCK_RECORD
  5
1
330
0
100
AcDbSymbolTable
 70
    90
  0
BLOCK_RECORD
  5
A
102
{ACAD_XDICTIONARY
360
2778
102
}
330
1
100
AcDbSymbolTableRecord
100
AcDbBlockTableRecord
  2
*MODEL_SPACE
340
20
 70
     0
280
     1
281
     0
  0
BLOCK_RECORD
  5
B
330
1
100
AcDbSymbolTableRecord
100
AcDbBlockTableRecord
  2
*PAPER_SPACE
340
21
 70
     0
280
     1
281
     0
  0
BLOCK_RECORD
  5
4E
330
1
100
AcDbSymbolTableRecord
100
AcDbBlockTableRecord
  2
_DOT
340
0
102
{BLKREFS
331
D96
331
D97
331
DA5
331
DA6
331
E53
331
E54
331
1200
331
1201
331
124E
331
124F
331
125D
331
125E
331
1270
331
1271
331
1281
331
1282
331
1290
331
1291
331
129D
331
129E
331
12AA
331
12AB
331
12B7
331
12B8
331
12C4
331
12C5
331
12D1
331
12D2
331
12E0
331
12E1
331
12F9
331
12FA
331
1308
331
1309
331
1315
331
1316
331
1322
331
1323
331
0
331
13EE
331
13F9
331
13FA
331
1405
331
1406
331
1411
331
1412
331
141E
331
141F
331
142A
331
142B
331
1436
331
1437
331
1442
331
1443
331
144E
331
144F
331
145A
331
145B
331
1466
331
1467
331
1472
331
1473
331
147E
331
147F
331
148A
331
148B
331
1496
331
1497
331
14A2
331
14A3
331
15D9
331
15DA
331
1606
331
1607
331
19B3
331
19B4
331
19C4
331
19C5
331
19D3
331
19D4
331
19E0
331
19E1
331
1D2A
331
1D2B
331
1D36
331
1D37
331
1D42
331
1D43
331
1D4E
331
1D4F
331
1D60
331
1D61
331
1DA9
331
1DAA
331
1DB9
331
1DBA
331
1DDA
331
1DDB
331
13EF
331
1ED9
331
1ED8
331
1EF6
331
1EF5
331
1F31
331
1F30
331
1F40
331
1F3F
331
1F4F
331
0
331
1F5E
331
1F5D
331
1F6D
331
1F6C
331
1F7E
331
0
331
0
331
247A
331
2479
331
2570
331
2571
331
257C
331
257D
331
2588
331
2589
331
2594
331
2595
331
25A0
331
25A1
331
25AC
331
25AD
331
26AC
331
26AB
331
26C1
331
26C0
331
0
331
0
331
0
331
0
331
0
331
27FD
331
27FE
102
}
 70
     0
280
     1
281
     0
  0
BLOCK_RECORD
  5
68A
330
1
100
AcDbSymbolTableRecord
100
AcDbBlockTableRecord
  2
名称未設定-1
340
0
102
{BLKREFS
331
6B5
102
}
 70
     1
280
     1
281
     0
  0
BLOCK_RECORD
  5
68D
330
1
100
AcDbSymbolTableRecord
100
AcDbBlockTableRecord
  2
block 2
340
0
102
{BLKREFS
331
68C
331
1343
102
}
 70
     0
280
     1
281
     0
  0
BLOCK_RECORD
  5
690
330
1
100
AcDbSymbolTableRecord
100
AcDbBlockTableRecord
  2
block 3
340
0
102
{BLKREFS
331
68F
102
}
 70
     0
280
     1
281
     0
  0
BLOCK_RECORD
  5
693
330
1
100
AcDbSymbolTableRecord
100
AcDbBlockTableRecord
  2
block 4
340
0
102
{BLKREFS
331
692
102
}
 70
     0
280
     1
281
     0
  0
BLOCK_RECORD
  5
6A2
330
1
100
AcDbSymbolTableRecord
100
AcDbBlockTableRecord
  2
block 5
340
0
102
{BLKREFS
331
6A1
102
}
 70
     0
280
     1
281
     0
  0
BLOCK_RECORD
  5
1EEF
330
1
100
AcDbSymbolTableRecord
100
AcDbBlockTableRecord
  2
*D56
340
0
 70
     0
280
     1
281
     0
  0
BLOCK_RECORD
  5
1F0E
330
1
100
AcDbSymbolTableRecord
100
AcDbBlockTableRecord
  2
*D57
340
0
 70
     0
280
     1
281
     0
  0
BLOCK_RECORD
  5
1F2A
330
1
100
AcDbSymbolTableRecord
100
AcDbBlockTableRecord
  2
*D58
340
0
 70
     0
280
     1
281
     0
  0
BLOCK_RECORD
  5
1F39
330
1
100
AcDbSymbolTableRecord
100
AcDbBlockTableRecord
  2
*D59
340
0
 70
     0
280
     1
281
     0
  0
BLOCK_RECORD
  5
1F48
330
1
100
AcDbSymbolTableRecord
100
AcDbBlockTableRecord
  2
*D60
340
0
 70
     0
280
     1
281
     0
  0
BLOCK_RECORD
  5
1F57
330
1
100
AcDbSymbolTableRecord
100
AcDbBlockTableRecord
  2
*D61
340
0
 70
     0
280
     1
281
     0
  0
BLOCK_RECORD
  5
1F66
330
1
100
AcDbSymbolTableRecord
100
AcDbBlockTableRecord
  2
*D62
340
0
 70
     0
280
     1
281
     0
  0
BLOCK_RECORD
  5
1F77
330
1
100
AcDbSymbolTableRecord
100
AcDbBlockTableRecord
  2
*D63
340
0
 70
     0
280
     1
281
     0
  0
BLOCK_RECORD
  5
26BA
330
1
100
AcDbSymbolTableRecord
100
AcDbBlockTableRecord
  2
*D85
340
0
 70
     0
280
     1
281
     0
  0
BLOCK_RECORD
  5
27F7
330
1
100
AcDbSymbolTableRecord
100
AcDbBlockTableRecord
  2
*D89
340
0
 70
     0
280
     1
281
     0
  0
ENDTAB
  0
ENDSEC
  0
SECTION
  2
BLOCKS
  0
BLOCK
  5
D
330
A
100
AcDbEntity
  8
0
390
1D
100
AcDbBlockBegin
  2
*MODEL_SPACE
 70
     0
 10
0.0
 20
0.0
 30
0.0
  3
*MODEL_SPACE
  1
*MODEL_SPACE
  0
ENDBLK
  5
E
330
A
100
AcDbEntity
  8
0
390
1D
100
AcDbBlockEnd
  0
BLOCK
  5
F
330
B
100
AcDbEntity
 67
     1
  8
0
390
1D
100
AcDbBlockBegin
  2
*PAPER_SPACE
 70
     0
 10
0.0
 20
0.0
 30
0.0
  3
*PAPER_SPACE
  1
*PAPER_SPACE
  0
ENDBLK
  5
10
330
B
100
AcDbEntity
 67
     1
  8
0
390
1D
100
AcDbBlockEnd
  0
BLOCK
  5
1DF2
330
4E
100
AcDbEntity
  8
0
390
1D
100
AcDbBlockBegin
  2
_DOT
 70
     0
 10
0.0
 20
0.0
 30
0.0
  3
_DOT
  1
_DOT
  0
POLYLINE
  5
1DF4
330
4E
100
AcDbEntity
  8
0
  6
ByBlock
 62
     0
370
    -2
390
1D
100
AcDb2dPolyline
 66
     1
 10
0.0
 20
0.0
 30
0.0
 70
     1
 40
0.5
 41
0.5
  0
VERTEX
  5
1DF5
330
1DF4
100
AcDbEntity
  8
0
  6
ByBlock
 62
     0
370
    -2
390
1D
100
AcDbVertex
100
AcDb2dVertex
 10
-0.25
 20
0.0
 30
0.0
 42
1.0
  0
VERTEX
  5
1DF6
330
1DF4
100
AcDbEntity
  8
0
  6
ByBlock
 62
     0
370
    -2
390
1D
100
AcDbVertex
100
AcDb2dVertex
 10
0.25
 20
0.0
 30
0.0
 42
1.0
  0
SEQEND
  5
1DF7
330
1DF4
100
AcDbEntity
  8
0
390
1D
  0
LINE
  5
1DF8
330
4E
100
AcDbEntity
  8
0
  6
ByBlock
 62
     0
370
    -2
390
1D
100
AcDbLine
 10
-0.5
 20
0.0
 30
0.0
 11
-1.0
 21
0.0
 31
0.0
  0
ENDBLK
  5
1DF9
330
4E
100
AcDbEntity
  8
0
390
1D
100
AcDbBlockEnd
  0
BLOCK
  5
68B
330
68A
100
AcDbEntity
  8
0
100
AcDbBlockBegin
  2
名称未設定-1
 70
     0
 10
0.0
 20
0.0
 30
0.0
  3
名称未設定-1
  1
名称未設定-1
  0
INSERT
  5
68F
330
68A
100
AcDbEntity
  8
LOGO
100
AcDbBlockReference
  2
block 3
 10
0.0
 20
0.0
 30
0.0
  0
ENDBLK
  5
6B1
330
68A
100
AcDbEntity
  8
0
100
AcDbBlockEnd
  0
BLOCK
  5
68E
330
68D
100
AcDbEntity
  8
0
100
AcDbBlockBegin
  2
block 2
 70
     0
 10
0.0
 20
0.0
 30
0.0
  3
block 2
  1
block 2
  0
ENDBLK
  5
6B0
330
68D
100
AcDbEntity
  8
0
100
AcDbBlockEnd
  0
BLOCK
  5
691
330
690
100
AcDbEntity
  8
0
100
AcDbBlockBegin
  2
block 3
 70
     0
 10
0.0
 20
0.0
 30
0.0
  3
block 3
  1
block 3
  0
INSERT
  5
692
330
690
100
AcDbEntity
  8
LOGO
100
AcDbBlockReference
  2
block 4
 10
0.0
 20
0.0
 30
0.0
  0
INSERT
  5
6A1
330
690
100
AcDbEntity
  8
LOGO
100
AcDbBlockReference
  2
block 5
 10
0.0
 20
0.0
 30
0.0
  0
ENDBLK
  5
6AF
330
690
100
AcDbEntity
  8
0
100
AcDbBlockEnd
  0
BLOCK
  5
694
330
693
100
AcDbEntity
  8
0
100
AcDbBlockBegin
  2
block 4
 70
     0
 10
0.0
 20
0.0
 30
0.0
  3
block 4
  1
block 4
  0
POLYLINE
  5
695
330
693
100
AcDbEntity
  8
LOGO
370
     0
100
AcDb2dPolyline
 66
     1
 10
0.0
 20
0.0
 30
0.0
  0
VERTEX
  5
696
330
695
100
AcDbEntity
  8
LOGO
370
     0
100
AcDbVertex
100
AcDb2dVertex
 10
83.79545727667795
 20
167.6444858234922
 30
0.0
  0
VERTEX
  5
697
330
695
100
AcDbEntity
  8
LOGO
370
     0
100
AcDbVertex
100
AcDb2dVertex
 10
83.79545727667795
 20
159.7968976406313
 30
0.0
  0
VERTEX
  5
698
330
695
100
AcDbEntity
  8
LOGO
370
     0
100
AcDbVertex
100
AcDb2dVertex
 10
71.3631329975216
 20
159.7968976406313
 30
0.0
  0
VERTEX
  5
699
330
695
100
AcDbEntity
  8
LOGO
370
     0
100
AcDbVertex
100
AcDb2dVertex
 10
71.3631329975216
 20
127.8027915271048
 30
0.0
  0
VERTEX
  5
69A
330
695
100
AcDbEntity
  8
LOGO
370
     0
100
AcDbVertex
100
AcDb2dVertex
 10
60.43011526263018
 20
127.8027915271048
 30
0.0
  0
VERTEX
  5
69B
330
695
100
AcDbEntity
  8
LOGO
370
     0
100
AcDbVertex
100
AcDb2dVertex
 10
60.43011526263018
 20
159.7968976406313
 30
0.0
  0
VERTEX
  5
69C
330
695
100
AcDbEntity
  8
LOGO
370
     0
100
AcDbVertex
100
AcDb2dVertex
 10
48.21793273020759
 20
159.7968976406313
 30
0.0
  0
VERTEX
  5
69D
330
695
100
AcDbEntity
  8
LOGO
370
     0
100
AcDbVertex
100
AcDb2dVertex
 10
48.21793273020759
 20
167.6444858234922
 30
0.0
  0
VERTEX
  5
69E
330
695
100
AcDbEntity
  8
LOGO
370
     0
100
AcDbVertex
100
AcDb2dVertex
 10
83.79545727667795
 20
167.6444858234922
 30
0.0
  0
SEQEND
  5
69F
330
695
100
AcDbEntity
  8
LOGO
370
     0
  0
HATCH
  5
6A0
330
693
100
AcDbEntity
  8
LOGO
 62
   250
420
  2234388
100
AcDbHatch
 10
0.0
 20
0.0
 30
0.0
210
0.0
220
0.0
230
1.0
  2
SOLID
 70
     1
 71
     0
 91
        1
 92
        1
 93
        8
 72
     1
 10
83.79545727667795
 20
167.6444858234922
 11
83.79545727667795
 21
159.7968976406313
 72
     1
 10
83.79545727667795
 20
159.7968976406313
 11
71.3631329975216
 21
159.7968976406313
 72
     1
 10
71.3631329975216
 20
159.7968976406313
 11
71.3631329975216
 21
127.8027915271048
 72
     1
 10
71.3631329975216
 20
127.8027915271048
 11
60.43011526263018
 21
127.8027915271048
 72
     1
 10
60.43011526263018
 20
127.8027915271048
 11
60.43011526263018
 21
159.7968976406313
 72
     1
 10
60.43011526263018
 20
159.7968976406313
 11
48.21793273020759
 21
159.7968976406313
 72
     1
 10
48.21793273020759
 20
159.7968976406313
 11
48.21793273020759
 21
167.6444858234922
 72
     1
 10
48.21793273020759
 20
167.6444858234922
 11
83.79545727667795
 21
167.6444858234922
 97
        0
 75
     2
 76
     1
 98
        0
  0
ENDBLK
  5
6AE
330
693
100
AcDbEntity
  8
0
100
AcDbBlockEnd
  0
BLOCK
  5
6A3
330
6A2
100
AcDbEntity
  8
0
100
AcDbBlockBegin
  2
block 5
 70
     0
 10
0.0
 20
0.0
 30
0.0
  3
block 5
  1
block 5
  0
SPLINE
  5
6A4
330
6A2
100
AcDbEntity
  8
LOGO
370
     0
100
AcDbSpline
210
0.0
220
0.0
230
1.0
 70
    11
 71
     3
 72
    56
 73
    52
 74
     0
 42
0.000000001
 43
0.0000000001
 40
0.0
 40
0.0
 40
0.0
 40
0.0
 40
1.0
 40
1.0
 40
1.0
 40
2.0
 40
2.0
 40
2.0
 40
3.0
 40
3.0
 40
3.0
 40
4.0
 40
4.0
 40
4.0
 40
5.0
 40
5.0
 40
5.0
 40
6.0
 40
6.0
 40
6.0
 40
7.0
 40
7.0
 40
7.0
 40
8.0
 40
8.0
 40
8.0
 40
9.0
 40
9.0
 40
9.0
 40
10.0
 40
10.0
 40
10.0
 40
11.0
 40
11.0
 40
11.0
 40
12.0
 40
12.0
 40
12.0
 40
13.0
 40
13.0
 40
13.0
 40
14.0
 40
14.0
 40
14.0
 40
15.0
 40
15.0
 40
15.0
 40
16.0
 40
16.0
 40
16.0
 40
17.0
 40
17.0
 40
17.0
 40
17.0
 10
100.4504378777679
 20
166.69157178364
 30
0.0
 10
101.9848844191641
 20
167.1313385124438
 30
0.0
 10
103.9637485713373
 20
166.7649523658846
 30
0.0
 10
103.9637485713373
 20
166.7649523658846
 30
0.0
 10
103.9637485713373
 20
166.7649523658846
 30
0.0
 10
103.0132460999156
 20
163.911205638077
 30
0.0
 10
103.0132460999156
 20
163.911205638077
 30
0.0
 10
103.0132460999156
 20
163.911205638077
 30
0.0
 10
101.0674548862189
 20
164.3601018759394
 30
0.0
 10
99.57090442016032
 20
163.1805004036133
 30
0.0
 10
98.40508333886608
 20
162.258247733807
 30
0.0
 10
97.65301849830304
 20
159.804132345923
 30
0.0
 10
97.3598406791005
 20
158.8699940888517
 30
0.0
 10
97.3598406791005
 20
158.8699940888517
 30
0.0
 10
96.07137411762282
 20
154.9119212747295
 30
0.0
 10
96.07137411762282
 20
154.9119212747295
 30
0.0
 10
96.07137411762282
 20
154.9119212747295
 30
0.0
 10
100.3012651448482
 20
154.9119212747295
 30
0.0
 10
100.3012651448482
 20
154.9119212747295
 30
0.0
 10
100.3012651448482
 20
154.9119212747295
 30
0.0
 10
99.64152892419852
 20
152.4199098115079
 30
0.0
 10
99.64152892419852
 20
152.4199098115079
 30
0.0
 10
99.64152892419852
 20
152.4199098115079
 30
0.0
 10
95.38097652692731
 20
152.4199098115079
 30
0.0
 10
95.38097652692731
 20
152.4199098115079
 30
0.0
 10
95.38097652692731
 20
152.4199098115079
 30
0.0
 10
87.75353009080013
 20
127.8027915271048
 30
0.0
 10
87.75353009080013
 20
127.8027915271048
 30
0.0
 10
87.75353009080013
 20
127.8027915271048
 30
0.0
 10
85.36538832498108
 20
127.8027915271048
 30
0.0
 10
85.36538832498108
 20
127.8027915271048
 30
0.0
 10
85.36538832498108
 20
127.8027915271048
 30
0.0
 10
93.00006946639998
 20
152.4199098115079
 30
0.0
 10
93.00006946639998
 20
152.4199098115079
 30
0.0
 10
93.00006946639998
 20
152.4199098115079
 30
0.0
 10
89.85297266450198
 20
152.4199098115079
 30
0.0
 10
89.85297266450198
 20
152.4199098115079
 30
0.0
 10
89.85297266450198
 20
152.4199098115079
 30
0.0
 10
90.51270888515164
 20
154.9119212747295
 30
0.0
 10
90.51270888515164
 20
154.9119212747295
 30
0.0
 10
90.51270888515164
 20
154.9119212747295
 30
0.0
 10
93.6904670570955
 20
154.9119212747295
 30
0.0
 10
93.6904670570955
 20
154.9119212747295
 30
0.0
 10
93.6904670570955
 20
154.9119212747295
 30
0.0
 10
94.81598049462158
 20
158.3616699146644
 30
0.0
 10
94.81598049462158
 20
158.3616699146644
 30
0.0
 10
95.7237637538445
 20
161.2605474231013
 30
0.0
 10
96.4968436907311
 20
162.8139420021662
 30
0.0
 10
97.15657991138076
 20
163.9844139654337
 30
0.0
 10
97.81183750494507
 20
165.1523021053827
 30
0.0
 10
99.1047826935081
 20
166.3084769129547
 30
0.0
 10
100.4504378777679
 20
166.69157178364
 30
0.0
  0
HATCH
  5
6A5
330
6A2
100
AcDbEntity
  8
LOGO
 62
   250
420
  2234388
100
AcDbHatch
 10
0.0
 20
0.0
 30
0.0
210
0.0
220
0.0
230
1.0
  2
SOLID
 70
     1
 71
     0
 91
        1
 92
        1
 93
        1
 72
     4
 94
        3
 73
     0
 74
     1
 95
       56
 96
       52
 40
0.0
 40
0.0
 40
0.0
 40
0.0
 40
1.0
 40
1.0
 40
1.0
 40
2.0
 40
2.0
 40
2.0
 40
3.0
 40
3.0
 40
3.0
 40
4.0
 40
4.0
 40
4.0
 40
5.0
 40
5.0
 40
5.0
 40
6.0
 40
6.0
 40
6.0
 40
7.0
 40
7.0
 40
7.0
 40
8.0
 40
8.0
 40
8.0
 40
9.0
 40
9.0
 40
9.0
 40
10.0
 40
10.0
 40
10.0
 40
11.0
 40
11.0
 40
11.0
 40
12.0
 40
12.0
 40
12.0
 40
13.0
 40
13.0
 40
13.0
 40
14.0
 40
14.0
 40
14.0
 40
15.0
 40
15.0
 40
15.0
 40
16.0
 40
16.0
 40
16.0
 40
17.0
 40
17.0
 40
17.0
 40
17.0
 10
100.4504378777679
 20
166.69157178364
 10
101.9848844191641
 20
167.1313385124438
 10
103.9637485713373
 20
166.7649523658846
 10
103.9637485713373
 20
166.7649523658846
 10
103.9637485713373
 20
166.7649523658846
 10
103.0132460999156
 20
163.911205638077
 10
103.0132460999156
 20
163.911205638077
 10
103.0132460999156
 20
163.911205638077
 10
101.0674548862189
 20
164.3601018759394
 10
99.57090442016032
 20
163.1805004036133
 10
98.40508333886608
 20
162.258247733807
 10
97.65301849830304
 20
159.804132345923
 10
97.3598406791005
 20
158.8699940888517
 10
97.3598406791005
 20
158.8699940888517
 10
96.07137411762282
 20
154.9119212747295
 10
96.07137411762282
 20
154.9119212747295
 10
96.07137411762282
 20
154.9119212747295
 10
100.3012651448482
 20
154.9119212747295
 10
100.3012651448482
 20
154.9119212747295
 10
100.3012651448482
 20
154.9119212747295
 10
99.64152892419852
 20
152.4199098115079
 10
99.64152892419852
 20
152.4199098115079
 10
99.64152892419852
 20
152.4199098115079
 10
95.38097652692731
 20
152.4199098115079
 10
95.38097652692731
 20
152.4199098115079
 10
95.38097652692731
 20
152.4199098115079
 10
87.75353009080013
 20
127.8027915271048
 10
87.75353009080013
 20
127.8027915271048
 10
87.75353009080013
 20
127.8027915271048
 10
85.36538832498108
 20
127.8027915271048
 10
85.36538832498108
 20
127.8027915271048
 10
85.36538832498108
 20
127.8027915271048
 10
93.00006946639998
 20
152.4199098115079
 10
93.00006946639998
 20
152.4199098115079
 10
93.00006946639998
 20
152.4199098115079
 10
89.85297266450198
 20
152.4199098115079
 10
89.85297266450198
 20
152.4199098115079
 10
89.85297266450198
 20
152.4199098115079
 10
90.51270888515164
 20
154.9119212747295
 10
90.51270888515164
 20
154.9119212747295
 10
90.51270888515164
 20
154.9119212747295
 10
93.6904670570955
 20
154.9119212747295
 10
93.6904670570955
 20
154.9119212747295
 10
93.6904670570955
 20
154.9119212747295
 10
94.81598049462158
 20
158.3616699146644
 10
94.81598049462158
 20
158.3616699146644
 10
95.7237637538445
 20
161.2605474231013
 10
96.4968436907311
 20
162.8139420021662
 10
97.15657991138076
 20
163.9844139654337
 10
97.81183750494507
 20
165.1523021053827
 10
99.1047826935081
 20
166.3084769129547
 10
100.4504378777679
 20
166.69157178364
 97
        0
 75
     2
 76
     1
 98
        0
  0
SPLINE
  5
6A6
330
6A2
100
AcDbEntity
  8
LOGO
370
     0
100
AcDbSpline
210
0.0
220
0.0
230
1.0
 70
    11
 71
     3
 72
    38
 73
    34
 74
     0
 42
0.000000001
 43
0.0000000001
 40
0.0
 40
0.0
 40
0.0
 40
0.0
 40
1.0
 40
1.0
 40
1.0
 40
2.0
 40
2.0
 40
2.0
 40
3.0
 40
3.0
 40
3.0
 40
4.0
 40
4.0
 40
4.0
 40
5.0
 40
5.0
 40
5.0
 40
6.0
 40
6.0
 40
6.0
 40
7.0
 40
7.0
 40
7.0
 40
8.0
 40
8.0
 40
8.0
 40
9.0
 40
9.0
 40
9.0
 40
10.0
 40
10.0
 40
10.0
 40
11.0
 40
11.0
 40
11.0
 40
11.0
 10
126.377554584636
 20
154.8151140277308
 30
0.0
 10
126.377554584636
 20
154.8151140277308
 30
0.0
 10
128.8311532078563
 20
154.8151140277308
 30
0.0
 10
128.8311532078563
 20
154.8151140277308
 30
0.0
 10
128.8311532078563
 20
154.8151140277308
 30
0.0
 10
127.7345785914971
 20
151.3062819612468
 30
0.0
 10
127.7345785914971
 20
151.3062819612468
 30
0.0
 10
128.571392836906
 20
152.2922689395754
 30
0.0
 10
129.8860421413442
 20
153.604506675583
 30
0.0
 10
131.0163787157314
 20
154.2664822097754
 30
0.0
 10
132.7044766171327
 20
155.2500576196734
 30
0.0
 10
133.6642808525008
 20
155.3847609420097
 30
0.0
 10
134.7284715499351
 20
155.3565111403944
 30
0.0
 10
134.7284715499351
 20
155.3565111403944
 30
0.0
 10
133.6877075172549
 20
152.0345756272799
 30
0.0
 10
133.6877075172549
 20
152.0345756272799
 30
0.0
 10
133.011434827367
 20
152.3184516825359
 30
0.0
 10
130.930940291334
 20
151.7768823149844
 30
0.0
 10
129.739280976855
 20
150.9162968950455
 30
0.0
 10
128.66613302525
 20
150.1454562717016
 30
0.0
 10
127.9192358313239
 20
149.4857200510519
 30
0.0
 10
127.0393578639405
 20
147.8282835196966
 30
0.0
 10
126.164647543194
 20
146.1699857139017
 30
0.0
 10
125.4742499524985
 20
143.5262176944419
 30
0.0
 10
124.2822461282437
 20
139.6959580071401
 30
0.0
 10
124.2822461282437
 20
139.6959580071401
 30
0.0
 10
120.5753209406769
 20
127.8027915271048
 30
0.0
 10
120.5753209406769
 20
127.8027915271048
 30
0.0
 10
120.5753209406769
 20
127.8027915271048
 30
0.0
 10
118.1964809388044
 20
127.8027915271048
 30
0.0
 10
118.1964809388044
 20
127.8027915271048
 30
0.0
 10
118.1964809388044
 20
127.8027915271048
 30
0.0
 10
126.377554584636
 20
154.8151140277308
 30
0.0
 10
126.377554584636
 20
154.8151140277308
 30
0.0
  0
HATCH
  5
6A7
330
6A2
100
AcDbEntity
  8
LOGO
 62
   250
420
  2234388
100
AcDbHatch
 10
0.0
 20
0.0
 30
0.0
210
0.0
220
0.0
230
1.0
  2
SOLID
 70
     1
 71
     0
 91
        1
 92
        1
 93
        1
 72
     4
 94
        3
 73
     0
 74
     1
 95
       38
 96
       34
 40
0.0
 40
0.0
 40
0.0
 40
0.0
 40
1.0
 40
1.0
 40
1.0
 40
2.0
 40
2.0
 40
2.0
 40
3.0
 40
3.0
 40
3.0
 40
4.0
 40
4.0
 40
4.0
 40
5.0
 40
5.0
 40
5.0
 40
6.0
 40
6.0
 40
6.0
 40
7.0
 40
7.0
 40
7.0
 40
8.0
 40
8.0
 40
8.0
 40
9.0
 40
9.0
 40
9.0
 40
10.0
 40
10.0
 40
10.0
 40
11.0
 40
11.0
 40
11.0
 40
11.0
 10
126.377554584636
 20
154.8151140277308
 10
126.377554584636
 20
154.8151140277308
 10
128.8311532078563
 20
154.8151140277308
 10
128.8311532078563
 20
154.8151140277308
 10
128.8311532078563
 20
154.8151140277308
 10
127.7345785914971
 20
151.3062819612468
 10
127.7345785914971
 20
151.3062819612468
 10
128.571392836906
 20
152.2922689395754
 10
129.8860421413442
 20
153.604506675583
 10
131.0163787157314
 20
154.2664822097754
 10
132.7044766171327
 20
155.2500576196734
 10
133.6642808525008
 20
155.3847609420097
 10
134.7284715499351
 20
155.3565111403944
 10
134.7284715499351
 20
155.3565111403944
 10
133.6877075172549
 20
152.0345756272799
 10
133.6877075172549
 20
152.0345756272799
 10
133.011434827367
 20
152.3184516825359
 10
130.930940291334
 20
151.7768823149844
 10
129.739280976855
 20
150.9162968950455
 10
128.66613302525
 20
150.1454562717016
 10
127.9192358313239
 20
149.4857200510519
 10
127.0393578639405
 20
147.8282835196966
 10
126.164647543194
 20
146.1699857139017
 10
125.4742499524985
 20
143.5262176944419
 10
124.2822461282437
 20
139.6959580071401
 10
124.2822461282437
 20
139.6959580071401
 10
120.5753209406769
 20
127.8027915271048
 10
120.5753209406769
 20
127.8027915271048
 10
120.5753209406769
 20
127.8027915271048
 10
118.1964809388044
 20
127.8027915271048
 10
118.1964809388044
 20
127.8027915271048
 10
118.1964809388044
 20
127.8027915271048
 10
126.377554584636
 20
154.8151140277308
 10
126.377554584636
 20
154.8151140277308
 97
        0
 75
     2
 76
     1
 98
        0
  0
SPLINE
  5
6A8
330
6A2
100
AcDbEntity
  8
LOGO
370
     0
100
AcDbSpline
210
0.0
220
0.0
230
1.0
 70
    11
 71
     3
 72
   104
 73
   100
 74
     0
 42
0.000000001
 43
0.0000000001
 40
0.0
 40
0.0
 40
0.0
 40
0.0
 40
1.0
 40
1.0
 40
1.0
 40
2.0
 40
2.0
 40
2.0
 40
3.0
 40
3.0
 40
3.0
 40
4.0
 40
4.0
 40
4.0
 40
5.0
 40
5.0
 40
5.0
 40
6.0
 40
6.0
 40
6.0
 40
7.0
 40
7.0
 40
7.0
 40
8.0
 40
8.0
 40
8.0
 40
9.0
 40
9.0
 40
9.0
 40
10.0
 40
10.0
 40
10.0
 40
11.0
 40
11.0
 40
11.0
 40
12.0
 40
12.0
 40
12.0
 40
13.0
 40
13.0
 40
13.0
 40
14.0
 40
14.0
 40
14.0
 40
15.0
 40
15.0
 40
15.0
 40
16.0
 40
16.0
 40
16.0
 40
17.0
 40
17.0
 40
17.0
 40
18.0
 40
18.0
 40
18.0
 40
19.0
 40
19.0
 40
19.0
 40
20.0
 40
20.0
 40
20.0
 40
21.0
 40
21.0
 40
21.0
 40
22.0
 40
22.0
 40
22.0
 40
23.0
 40
23.0
 40
23.0
 40
24.0
 40
24.0
 40
24.0
 40
25.0
 40
25.0
 40
25.0
 40
26.0
 40
26.0
 40
26.0
 40
27.0
 40
27.0
 40
27.0
 40
28.0
 40
28.0
 40
28.0
 40
29.0
 40
29.0
 40
29.0
 40
30.0
 40
30.0
 40
30.0
 40
31.0
 40
31.0
 40
31.0
 40
32.0
 40
32.0
 40
32.0
 40
33.0
 40
33.0
 40
33.0
 40
33.0
 10
139.8926730891197
 20
154.8294111834263
 30
0.0
 10
139.8926730891197
 20
154.8294111834263
 30
0.0
 10
142.0344903652445
 20
154.8294111834263
 30
0.0
 10
142.0344903652445
 20
154.8294111834263
 30
0.0
 10
142.0344903652445
 20
154.8294111834263
 30
0.0
 10
140.9516961399171
 20
151.3157559800812
 30
0.0
 10
140.9516961399171
 20
151.3157559800812
 30
0.0
 10
141.8928968473923
 20
152.7887075264977
 30
0.0
 10
142.7341897198865
 20
153.4484437471474
 30
0.0
 10
143.8552245303272
 20
154.2926649527359
 30
0.0
 10
144.9803934580775
 20
155.1296514530327
 30
0.0
 10
146.3139908001845
 20
155.3044901642492
 30
0.0
 10
147.241066606852
 20
155.3044901642492
 30
0.0
 10
148.3855280820469
 20
155.3044901642492
 30
0.0
 10
149.4969166187653
 20
155.0752189084569
 30
0.0
 10
150.0784491203092
 20
153.8172414621372
 30
0.0
 10
150.5228667310863
 20
152.833838307127
 30
0.0
 10
150.5414702589793
 20
152.7201500811143
 30
0.0
 10
150.4140016419347
 20
150.7765981809602
 30
0.0
 10
151.5818897818837
 20
152.7699317437168
 30
0.0
 10
152.4424752018226
 20
153.6256940267945
 30
0.0
 10
153.9038856707499
 20
154.4507949398263
 30
0.0
 10
155.4455669174378
 20
155.3044901642492
 30
0.0
 10
156.339225275853
 20
155.3659851592288
 30
0.0
 10
157.3748216618963
 20
155.2147453676543
 30
0.0
 10
158.911679771723
 20
154.9877134254046
 30
0.0
 10
159.8859534176746
 20
154.4390816074493
 30
0.0
 10
160.3965169054045
 20
152.7816450760939
 30
0.0
 10
160.9070803931344
 20
151.1219692311958
 30
0.0
 10
160.6328506116007
 20
150.2303779314354
 30
0.0
 10
159.9992971339115
 20
147.597634224801
 30
0.0
 10
159.7105979417943
 20
146.4014962832367
 30
0.0
 10
159.2947746424084
 20
144.9400858143094
 30
0.0
 10
158.7463150793409
 20
143.2092687007094
 30
0.0
 10
158.7463150793409
 20
143.2092687007094
 30
0.0
 10
153.9038856707499
 20
127.8027915271048
 30
0.0
 10
153.9038856707499
 20
127.8027915271048
 30
0.0
 10
153.9038856707499
 20
127.8027915271048
 30
0.0
 10
151.3882752878863
 20
127.8027915271048
 30
0.0
 10
151.3882752878863
 20
127.8027915271048
 30
0.0
 10
151.3882752878863
 20
127.8027915271048
 30
0.0
 10
155.6250565106276
 20
141.2751908193897
 30
0.0
 10
155.6250565106276
 20
141.2751908193897
 30
0.0
 10
156.5094131050963
 20
144.0936252951782
 30
0.0
 10
157.109893644309
 20
146.1506931664571
 30
0.0
 10
157.4220195011804
 20
147.4415712963654
 30
0.0
 10
157.8095929989511
 20
149.0530157726519
 30
0.0
 10
157.9656559273867
 20
149.5826995529385
 30
0.0
 10
157.7816877071116
 20
150.7529992613181
 30
0.0
 10
157.6111553680925
 20
151.8430281919372
 30
0.0
 10
157.0582171779396
 20
152.5547853887321
 30
0.0
 10
156.1170164704645
 20
152.5547853887321
 30
0.0
 10
155.1096698860365
 20
152.5547853887321
 30
0.0
 10
154.2962823053817
 20
152.4412694176073
 30
0.0
 10
153.156643967048
 20
151.2945686288697
 30
0.0
 10
152.0170056287143
 20
150.1476955852443
 30
0.0
 10
151.076149431015
 20
148.7930831468137
 30
0.0
 10
150.3337308641742
 20
147.2290087646991
 30
0.0
 10
149.5957909244188
 20
145.6683794803425
 30
0.0
 10
148.8530278478023
 20
143.6822806228776
 30
0.0
 10
148.0964843801539
 20
141.2751908193897
 30
0.0
 10
148.0964843801539
 20
141.2751908193897
 30
0.0
 10
143.8552245303272
 20
127.8027915271048
 30
0.0
 10
143.8552245303272
 20
127.8027915271048
 30
0.0
 10
143.8552245303272
 20
127.8027915271048
 30
0.0
 10
141.486030802177
 20
127.8027915271048
 30
0.0
 10
141.486030802177
 20
127.8027915271048
 30
0.0
 10
141.486030802177
 20
127.8027915271048
 30
0.0
 10
146.3329388378533
 20
143.2092687007094
 30
0.0
 10
146.3329388378533
 20
143.2092687007094
 30
0.0
 10
146.8483254624444
 20
144.8408669988801
 30
0.0
 10
147.2314203331297
 20
146.1837661049335
 30
0.0
 10
147.4867020769946
 20
147.224185627838
 30
0.0
 10
147.9169947869641
 20
149.0197705792876
 30
0.0
 10
148.0306830129768
 20
150.2400242051577
 30
0.0
 10
147.709255392159
 20
151.3157559800812
 30
0.0
 10
147.3874832615654
 20
152.3916600098926
 30
0.0
 10
146.8245542879144
 20
152.6683013598569
 30
0.0
 10
145.8840425999909
 20
152.6683013598569
 30
0.0
 10
145.0989048209514
 20
152.6683013598569
 30
0.0
 10
144.3282364524954
 20
152.3275811915945
 30
0.0
 10
143.4531816219731
 20
151.6538923250251
 30
0.0
 10
142.34627171234
 20
150.8074318058939
 30
0.0
 10
141.901854101563
 20
150.1097995099067
 30
0.0
 10
141.3578731655808
 20
149.289521733736
 30
0.0
 10
140.6299240093235
 20
148.192602607601
 30
0.0
 10
140.2850697237515
 20
147.455696197173
 30
0.0
 10
139.6652966370942
 20
145.8385673095858
 30
0.0
 10
139.0506911970739
 20
144.2214384219986
 30
0.0
 10
138.463991048893
 20
142.3252566160164
 30
0.0
 10
138.0571250036777
 20
141.0154304484394
 30
0.0
 10
138.0571250036777
 20
141.0154304484394
 30
0.0
 10
133.9009590684727
 20
127.8027915271048
 30
0.0
 10
133.9009590684727
 20
127.8027915271048
 30
0.0
 10
133.9009590684727
 20
127.8027915271048
 30
0.0
 10
131.4180771143097
 20
127.8027915271048
 30
0.0
 10
131.4180771143097
 20
127.8027915271048
 30
0.0
 10
131.4180771143097
 20
127.8027915271048
 30
0.0
 10
139.8926730891197
 20
154.8294111834263
 30
0.0
 10
139.8926730891197
 20
154.8294111834263
 30
0.0
  0
HATCH
  5
6A9
330
6A2
100
AcDbEntity
  8
LOGO
 62
   250
420
  2234388
100
AcDbHatch
 10
0.0
 20
0.0
 30
0.0
210
0.0
220
0.0
230
1.0
  2
SOLID
 70
     1
 71
     0
 91
        1
 92
        1
 93
        1
 72
     4
 94
        3
 73
     0
 74
     1
 95
      104
 96
      100
 40
0.0
 40
0.0
 40
0.0
 40
0.0
 40
1.0
 40
1.0
 40
1.0
 40
2.0
 40
2.0
 40
2.0
 40
3.0
 40
3.0
 40
3.0
 40
4.0
 40
4.0
 40
4.0
 40
5.0
 40
5.0
 40
5.0
 40
6.0
 40
6.0
 40
6.0
 40
7.0
 40
7.0
 40
7.0
 40
8.0
 40
8.0
 40
8.0
 40
9.0
 40
9.0
 40
9.0
 40
10.0
 40
10.0
 40
10.0
 40
11.0
 40
11.0
 40
11.0
 40
12.0
 40
12.0
 40
12.0
 40
13.0
 40
13.0
 40
13.0
 40
14.0
 40
14.0
 40
14.0
 40
15.0
 40
15.0
 40
15.0
 40
16.0
 40
16.0
 40
16.0
 40
17.0
 40
17.0
 40
17.0
 40
18.0
 40
18.0
 40
18.0
 40
19.0
 40
19.0
 40
19.0
 40
20.0
 40
20.0
 40
20.0
 40
21.0
 40
21.0
 40
21.0
 40
22.0
 40
22.0
 40
22.0
 40
23.0
 40
23.0
 40
23.0
 40
24.0
 40
24.0
 40
24.0
 40
25.0
 40
25.0
 40
25.0
 40
26.0
 40
26.0
 40
26.0
 40
27.0
 40
27.0
 40
27.0
 40
28.0
 40
28.0
 40
28.0
 40
29.0
 40
29.0
 40
29.0
 40
30.0
 40
30.0
 40
30.0
 40
31.0
 40
31.0
 40
31.0
 40
32.0
 40
32.0
 40
32.0
 40
33.0
 40
33.0
 40
33.0
 40
33.0
 10
139.8926730891197
 20
154.8294111834263
 10
139.8926730891197
 20
154.8294111834263
 10
142.0344903652445
 20
154.8294111834263
 10
142.0344903652445
 20
154.8294111834263
 10
142.0344903652445
 20
154.8294111834263
 10
140.9516961399171
 20
151.3157559800812
 10
140.9516961399171
 20
151.3157559800812
 10
141.8928968473923
 20
152.7887075264977
 10
142.7341897198865
 20
153.4484437471474
 10
143.8552245303272
 20
154.2926649527359
 10
144.9803934580775
 20
155.1296514530327
 10
146.3139908001845
 20
155.3044901642492
 10
147.241066606852
 20
155.3044901642492
 10
148.3855280820469
 20
155.3044901642492
 10
149.4969166187653
 20
155.0752189084569
 10
150.0784491203092
 20
153.8172414621372
 10
150.5228667310863
 20
152.833838307127
 10
150.5414702589793
 20
152.7201500811143
 10
150.4140016419347
 20
150.7765981809602
 10
151.5818897818837
 20
152.7699317437168
 10
152.4424752018226
 20
153.6256940267945
 10
153.9038856707499
 20
154.4507949398263
 10
155.4455669174378
 20
155.3044901642492
 10
156.339225275853
 20
155.3659851592288
 10
157.3748216618963
 20
155.2147453676543
 10
158.911679771723
 20
154.9877134254046
 10
159.8859534176746
 20
154.4390816074493
 10
160.3965169054045
 20
152.7816450760939
 10
160.9070803931344
 20
151.1219692311958
 10
160.6328506116007
 20
150.2303779314354
 10
159.9992971339115
 20
147.597634224801
 10
159.7105979417943
 20
146.4014962832367
 10
159.2947746424084
 20
144.9400858143094
 10
158.7463150793409
 20
143.2092687007094
 10
158.7463150793409
 20
143.2092687007094
 10
153.9038856707499
 20
127.8027915271048
 10
153.9038856707499
 20
127.8027915271048
 10
153.9038856707499
 20
127.8027915271048
 10
151.3882752878863
 20
127.8027915271048
 10
151.3882752878863
 20
127.8027915271048
 10
151.3882752878863
 20
127.8027915271048
 10
155.6250565106276
 20
141.2751908193897
 10
155.6250565106276
 20
141.2751908193897
 10
156.5094131050963
 20
144.0936252951782
 10
157.109893644309
 20
146.1506931664571
 10
157.4220195011804
 20
147.4415712963654
 10
157.8095929989511
 20
149.0530157726519
 10
157.9656559273867
 20
149.5826995529385
 10
157.7816877071116
 20
150.7529992613181
 10
157.6111553680925
 20
151.8430281919372
 10
157.0582171779396
 20
152.5547853887321
 10
156.1170164704645
 20
152.5547853887321
 10
155.1096698860365
 20
152.5547853887321
 10
154.2962823053817
 20
152.4412694176073
 10
153.156643967048
 20
151.2945686288697
 10
152.0170056287143
 20
150.1476955852443
 10
151.076149431015
 20
148.7930831468137
 10
150.3337308641742
 20
147.2290087646991
 10
149.5957909244188
 20
145.6683794803425
 10
148.8530278478023
 20
143.6822806228776
 10
148.0964843801539
 20
141.2751908193897
 10
148.0964843801539
 20
141.2751908193897
 10
143.8552245303272
 20
127.8027915271048
 10
143.8552245303272
 20
127.8027915271048
 10
143.8552245303272
 20
127.8027915271048
 10
141.486030802177
 20
127.8027915271048
 10
141.486030802177
 20
127.8027915271048
 10
141.486030802177
 20
127.8027915271048
 10
146.3329388378533
 20
143.2092687007094
 10
146.3329388378533
 20
143.2092687007094
 10
146.8483254624444
 20
144.8408669988801
 10
147.2314203331297
 20
146.1837661049335
 10
147.4867020769946
 20
147.224185627838
 10
147.9169947869641
 20
149.0197705792876
 10
148.0306830129768
 20
150.2400242051577
 10
147.709255392159
 20
151.3157559800812
 10
147.3874832615654
 20
152.3916600098926
 10
146.8245542879144
 20
152.6683013598569
 10
145.8840425999909
 20
152.6683013598569
 10
145.0989048209514
 20
152.6683013598569
 10
144.3282364524954
 20
152.3275811915945
 10
143.4531816219731
 20
151.6538923250251
 10
142.34627171234
 20
150.8074318058939
 10
141.901854101563
 20
150.1097995099067
 10
141.3578731655808
 20
149.289521733736
 10
140.6299240093235
 20
148.192602607601
 10
140.2850697237515
 20
147.455696197173
 10
139.6652966370942
 20
145.8385673095858
 10
139.0506911970739
 20
144.2214384219986
 10
138.463991048893
 20
142.3252566160164
 10
138.0571250036777
 20
141.0154304484394
 10
138.0571250036777
 20
141.0154304484394
 10
133.9009590684727
 20
127.8027915271048
 10
133.9009590684727
 20
127.8027915271048
 10
133.9009590684727
 20
127.8027915271048
 10
131.4180771143097
 20
127.8027915271048
 10
131.4180771143097
 20
127.8027915271048
 10
131.4180771143097
 20
127.8027915271048
 10
139.8926730891197
 20
154.8294111834263
 10
139.8926730891197
 20
154.8294111834263
 97
        0
 75
     2
 76
     1
 98
        0
  0
SPLINE
  5
6AA
330
6A2
100
AcDbEntity
  8
LOGO
370
     0
100
AcDbSpline
210
0.0
220
0.0
230
1.0
 70
    11
 71
     3
 72
    29
 73
    25
 74
     0
 42
0.000000001
 43
0.0000000001
 40
0.0
 40
0.0
 40
0.0
 40
0.0
 40
1.0
 40
1.0
 40
1.0
 40
2.0
 40
2.0
 40
2.0
 40
3.0
 40
3.0
 40
3.0
 40
4.0
 40
4.0
 40
4.0
 40
5.0
 40
5.0
 40
5.0
 40
6.0
 40
6.0
 40
6.0
 40
7.0
 40
7.0
 40
7.0
 40
8.0
 40
8.0
 40
8.0
 40
8.0
 10
101.6420971922469
 20
132.8388354296931
 30
0.0
 10
101.630039350094
 20
134.7164137077823
 30
0.0
 10
102.2236296937908
 20
138.0598810818841
 30
0.0
 10
103.7487744712405
 20
142.5378191476827
 30
0.0
 10
105.819967243327
 20
148.5896501242061
 30
0.0
 10
107.0602024361932
 20
150.8074318058939
 30
0.0
 10
108.1522984254671
 20
151.8833358357054
 30
0.0
 10
109.741177511439
 20
153.4532668840085
 30
0.0
 10
111.8740375333931
 20
153.5290590346837
 30
0.0
 10
112.5075910110823
 20
153.4532668840085
 30
0.0
 10
113.4012493694975
 20
153.3490526768302
 30
0.0
 10
114.6683563248758
 20
152.7580461564518
 30
0.0
 10
114.7493161221879
 20
150.7838328862519
 30
0.0
 10
114.8106388622796
 20
149.0909118479895
 30
0.0
 10
114.3186789024427
 20
145.9191825971221
 30
0.0
 10
112.6164561002338
 20
140.9489400617108
 30
0.0
 10
110.6444821435766
 20
135.1746117095912
 30
0.0
 10
109.4669477299053
 20
132.8960240524753
 30
0.0
 10
108.5212683953448
 20
131.9072809959403
 30
0.0
 10
106.7346406980658
 20
130.0538184021569
 30
0.0
 10
104.8222669326213
 20
130.2336525051225
 30
0.0
 10
104.5408024457958
 20
130.2336525051225
 30
0.0
 10
104.1721769856939
 20
130.2336525051225
 30
0.0
 10
101.6465758193322
 20
130.6305277668397
 30
0.0
 10
101.6420971922469
 20
132.8388354296931
 30
0.0
  0
SPLINE
  5
6AB
330
6A2
100
AcDbEntity
  8
LOGO
370
     0
100
AcDbSpline
210
0.0
220
0.0
230
1.0
 70
    11
 71
     3
 72
    32
 73
    28
 74
     0
 42
0.000000001
 43
0.0000000001
 40
0.0
 40
0.0
 40
0.0
 40
0.0
 40
1.0
 40
1.0
 40
1.0
 40
2.0
 40
2.0
 40
2.0
 40
3.0
 40
3.0
 40
3.0
 40
4.0
 40
4.0
 40
4.0
 40
5.0
 40
5.0
 40
5.0
 40
6.0
 40
6.0
 40
6.0
 40
7.0
 40
7.0
 40
7.0
 40
8.0
 40
8.0
 40
8.0
 40
9.0
 40
9.0
 40
9.0
 40
9.0
 10
106.2595617172429
 20
153.4105476718098
 30
0.0
 10
104.8222669326213
 20
151.5474388043041
 30
0.0
 10
103.7177685914188
 20
149.8758773721411
 30
0.0
 10
101.9232171692965
 20
144.6141795664062
 30
0.0
 10
100.2754269116635
 20
139.7999999594306
 30
0.0
 10
99.22777268346732
 20
136.3052927937542
 30
0.0
 10
99.06964269637689
 20
132.039572749846
 30
0.0
 10
98.94665270641765
 20
128.8673267343149
 30
0.0
 10
100.8807305877373
 20
127.8027915271048
 30
0.0
 10
103.7129454545577
 20
127.8027915271048
 30
0.0
 10
104.9352661390825
 20
127.8027915271048
 30
0.0
 10
108.0151835347002
 20
127.8827177950895
 30
0.0
 10
110.2045431598849
 20
130.5926316915021
 30
0.0
 10
111.7417457794874
 20
132.4984597712065
 30
0.0
 10
113.155269389579
 20
134.475256864725
 30
0.0
 10
115.0562743324223
 20
140.9489400617108
 30
0.0
 10
116.6361961642235
 20
146.3680788349845
 30
0.0
 10
117.7282921534974
 20
149.8639917848761
 30
0.0
 10
117.6480213757369
 20
151.8595646611754
 30
0.0
 10
117.6480213757369
 20
151.8595646611754
 30
0.0
 10
117.6480213757369
 20
151.8595646611754
 30
0.0
 10
117.6480213757369
 20
151.8595646611754
 30
0.0
 10
117.13229024137
 20
155.18150017429
 30
0.0
 10
114.7162431837115
 20
155.886194920681
 30
0.0
 10
113.3351034925446
 20
155.886194920681
 30
0.0
 10
111.9829026225447
 20
155.886194920681
 30
0.0
 10
108.3414342923792
 20
156.1251124501957
 30
0.0
 10
106.2595617172429
 20
153.4105476718098
 30
0.0
  0
HATCH
  5
6AC
330
6A2
100
AcDbEntity
  8
LOGO
 62
   250
420
  2234388
100
AcDbHatch
 10
0.0
 20
0.0
 30
0.0
210
0.0
220
0.0
230
1.0
  2
SOLID
 70
     1
 71
     0
 91
        2
 92
        1
 93
        1
 72
     4
 94
        3
 73
     0
 74
     1
 95
       29
 96
       25
 40
0.0
 40
0.0
 40
0.0
 40
0.0
 40
1.0
 40
1.0
 40
1.0
 40
2.0
 40
2.0
 40
2.0
 40
3.0
 40
3.0
 40
3.0
 40
4.0
 40
4.0
 40
4.0
 40
5.0
 40
5.0
 40
5.0
 40
6.0
 40
6.0
 40
6.0
 40
7.0
 40
7.0
 40
7.0
 40
8.0
 40
8.0
 40
8.0
 40
8.0
 10
101.6420971922469
 20
132.8388354296931
 10
101.630039350094
 20
134.7164137077823
 10
102.2236296937908
 20
138.0598810818841
 10
103.7487744712405
 20
142.5378191476827
 10
105.819967243327
 20
148.5896501242061
 10
107.0602024361932
 20
150.8074318058939
 10
108.1522984254671
 20
151.8833358357054
 10
109.741177511439
 20
153.4532668840085
 10
111.8740375333931
 20
153.5290590346837
 10
112.5075910110823
 20
153.4532668840085
 10
113.4012493694975
 20
153.3490526768302
 10
114.6683563248758
 20
152.7580461564518
 10
114.7493161221879
 20
150.7838328862519
 10
114.8106388622796
 20
149.0909118479895
 10
114.3186789024427
 20
145.9191825971221
 10
112.6164561002338
 20
140.9489400617108
 10
110.6444821435766
 20
135.1746117095912
 10
109.4669477299053
 20
132.8960240524753
 10
108.5212683953448
 20
131.9072809959403
 10
106.7346406980658
 20
130.0538184021569
 10
104.8222669326213
 20
130.2336525051225
 10
104.5408024457958
 20
130.2336525051225
 10
104.1721769856939
 20
130.2336525051225
 10
101.6465758193322
 20
130.6305277668397
 10
101.6420971922469
 20
132.8388354296931
 97
        0
 92
        1
 93
        1
 72
     4
 94
        3
 73
     0
 74
     1
 95
       32
 96
       28
 40
0.0
 40
0.0
 40
0.0
 40
0.0
 40
1.0
 40
1.0
 40
1.0
 40
2.0
 40
2.0
 40
2.0
 40
3.0
 40
3.0
 40
3.0
 40
4.0
 40
4.0
 40
4.0
 40
5.0
 40
5.0
 40
5.0
 40
6.0
 40
6.0
 40
6.0
 40
7.0
 40
7.0
 40
7.0
 40
8.0
 40
8.0
 40
8.0
 40
9.0
 40
9.0
 40
9.0
 40
9.0
 10
106.2595617172429
 20
153.4105476718098
 10
104.8222669326213
 20
151.5474388043041
 10
103.7177685914188
 20
149.8758773721411
 10
101.9232171692965
 20
144.6141795664062
 10
100.2754269116635
 20
139.7999999594306
 10
99.22777268346732
 20
136.3052927937542
 10
99.06964269637689
 20
132.039572749846
 10
98.94665270641765
 20
128.8673267343149
 10
100.8807305877373
 20
127.8027915271048
 10
103.7129454545577
 20
127.8027915271048
 10
104.9352661390825
 20
127.8027915271048
 10
108.0151835347002
 20
127.8827177950895
 10
110.2045431598849
 20
130.5926316915021
 10
111.7417457794874
 20
132.4984597712065
 10
113.155269389579
 20
134.475256864725
 10
115.0562743324223
 20
140.9489400617108
 10
116.6361961642235
 20
146.3680788349845
 10
117.7282921534974
 20
149.8639917848761
 10
117.6480213757369
 20
151.8595646611754
 10
117.6480213757369
 20
151.8595646611754
 10
117.6480213757369
 20
151.8595646611754
 10
117.6480213757369
 20
151.8595646611754
 10
117.13229024137
 20
155.18150017429
 10
114.7162431837115
 20
155.886194920681
 10
113.3351034925446
 20
155.886194920681
 10
111.9829026225447
 20
155.886194920681
 10
108.3414342923792
 20
156.1251124501957
 10
106.2595617172429
 20
153.4105476718098
 97
        0
 75
     2
 76
     1
 98
        0
  0
ENDBLK
  5
6AD
330
6A2
100
AcDbEntity
  8
0
100
AcDbBlockEnd
  0
BLOCK
  5
1EF0
330
1EEF
100
AcDbEntity
  8
0
100
AcDbBlockBegin
  2
*D56
 70
     1
 10
0.0
 20
0.0
 30
0.0
  3
*D56
  1

  0
LINE
  5
1EF2
330
1EEF
100
AcDbEntity
  8
DIM
 62
     0
370
    -2
100
AcDbLine
 10
49.81060904245018
 20
234.1692085413715
 30
0.0
 11
49.81060904245018
 21
241.2738044813628
 31
0.0
  0
LINE
  5
1EF3
330
1EEF
100
AcDbEntity
  8
DIM
 62
     0
370
    -2
100
AcDbLine
 10
57.31060904245018
 20
236.1692085413715
 30
0.0
 11
57.31060904245018
 21
241.2738044813628
 31
0.0
  0
LINE
  5
1EF4
330
1EEF
100
AcDbEntity
  8
DIM
 62
     0
370
    -2
100
AcDbLine
 10
50.81060904245018
 20
241.2738044813628
 30
0.0
 11
56.31060904245018
 21
241.2738044813628
 31
0.0
  0
INSERT
  5
1EF5
330
1EEF
100
AcDbEntity
  8
DIM
 62
     0
370
    -2
100
AcDbBlockReference
  2
_DOT
 10
49.81060904245018
 20
241.2738044813628
 30
0.0
 50
180.0
  0
INSERT
  5
1EF6
330
1EEF
100
AcDbEntity
  8
DIM
 62
     0
370
    -2
100
AcDbBlockReference
  2
_DOT
 10
57.31060904245018
 20
241.2738044813628
 30
0.0
  0
MTEXT
  5
1EF7
330
1EEF
100
AcDbEntity
  8
DIM
 62
     0
100
AcDbMText
 10
53.56060904245018
 20
243.5238044813628
 30
0.0
 40
2.5
 41
0.0
 46
0.0
 71
     5
 72
     1
  1
\A1;7.5
  7
ＭＳ ゴシック
 73
     1
 44
1.0
  0
POINT
  5
1EF8
330
1EEF
100
AcDbEntity
  8
Defpoints
 62
     0
100
AcDbPoint
 10
49.81060904245018
 20
232.1692085413715
 30
0.0
  0
POINT
  5
1EF9
330
1EEF
100
AcDbEntity
  8
Defpoints
 62
     0
100
AcDbPoint
 10
57.31060904245018
 20
234.1692085413715
 30
0.0
  0
POINT
  5
1EFA
330
1EEF
100
AcDbEntity
  8
Defpoints
 62
     0
100
AcDbPoint
 10
57.31060904245018
 20
241.2738044813628
 30
0.0
  0
ENDBLK
  5
1EF1
330
1EEF
100
AcDbEntity
  8
0
100
AcDbBlockEnd
  0
BLOCK
  5
1F0F
330
1F0E
100
AcDbEntity
  8
0
100
AcDbBlockBegin
  2
*D57
 70
     1
 10
0.0
 20
0.0
 30
0.0
  3
*D57
  1

  0
LINE
  5
1F11
330
1F0E
100
AcDbEntity
  8
DIM
 62
     0
370
    -2
100
AcDbLine
 10
89.81060904245018
 20
234.1692085413715
 30
0.0
 11
89.81060904245018
 21
241.2738044813628
 31
0.0
  0
LINE
  5
1F12
330
1F0E
100
AcDbEntity
  8
DIM
 62
     0
370
    -2
100
AcDbLine
 10
82.31060904245018
 20
236.1692085413715
 30
0.0
 11
82.31060904245018
 21
241.2738044813628
 31
0.0
  0
LINE
  5
1F13
330
1F0E
100
AcDbEntity
  8
DIM
 62
     0
370
    -2
100
AcDbLine
 10
88.81060904245018
 20
241.2738044813628
 30
0.0
 11
83.31060904245018
 21
241.2738044813628
 31
0.0
  0
INSERT
  5
1F14
330
1F0E
100
AcDbEntity
  8
DIM
 62
     0
370
    -2
100
AcDbBlockReference
  2
_DOT
 10
89.81060904245018
 20
241.2738044813628
 30
0.0
  0
INSERT
  5
1F15
330
1F0E
100
AcDbEntity
  8
DIM
 62
     0
370
    -2
100
AcDbBlockReference
  2
_DOT
 10
82.31060904245018
 20
241.2738044813628
 30
0.0
 50
180.0
  0
MTEXT
  5
1F16
330
1F0E
100
AcDbEntity
  8
DIM
 62
     0
100
AcDbMText
 10
86.06060904245018
 20
243.5238044813628
 30
0.0
 40
2.5
 41
0.0
 46
0.0
 71
     5
 72
     1
  1
\A1;7.5
  7
ＭＳ ゴシック
 73
     1
 44
1.0
  0
POINT
  5
1F17
330
1F0E
100
AcDbEntity
  8
Defpoints
 62
     0
100
AcDbPoint
 10
89.81060904245018
 20
232.1692085413715
 30
0.0
  0
POINT
  5
1F18
330
1F0E
100
AcDbEntity
  8
Defpoints
 62
     0
100
AcDbPoint
 10
82.31060904245018
 20
234.1692085413715
 30
0.0
  0
POINT
  5
1F19
330
1F0E
100
AcDbEntity
  8
Defpoints
 62
     0
100
AcDbPoint
 10
82.31060904245018
 20
241.2738044813628
 30
0.0
  0
ENDBLK
  5
1F10
330
1F0E
100
AcDbEntity
  8
0
100
AcDbBlockEnd
  0
BLOCK
  5
1F2B
330
1F2A
100
AcDbEntity
  8
0
100
AcDbBlockBegin
  2
*D58
 70
     1
 10
0.0
 20
0.0
 30
0.0
  3
*D58
  1

  0
LINE
  5
1F2D
330
1F2A
100
AcDbEntity
  8
DIM
 62
     0
370
    -2
100
AcDbLine
 10
49.81060904245018
 20
234.1692085413715
 30
0.0
 11
49.81060904245018
 21
249.8305875443845
 31
0.0
  0
LINE
  5
1F2E
330
1F2A
100
AcDbEntity
  8
DIM
 62
     0
370
    -2
100
AcDbLine
 10
89.81060904245018
 20
234.1692085413715
 30
0.0
 11
89.81060904245018
 21
249.8305875443845
 31
0.0
  0
LINE
  5
1F2F
330
1F2A
100
AcDbEntity
  8
DIM
 62
     0
370
    -2
100
AcDbLine
 10
50.81060904245018
 20
249.8305875443845
 30
0.0
 11
88.81060904245018
 21
249.8305875443845
 31
0.0
  0
INSERT
  5
1F30
330
1F2A
100
AcDbEntity
  8
DIM
 62
     0
370
    -2
100
AcDbBlockReference
  2
_DOT
 10
49.81060904245018
 20
249.8305875443845
 30
0.0
 50
180.0
  0
INSERT
  5
1F31
330
1F2A
100
AcDbEntity
  8
DIM
 62
     0
370
    -2
100
AcDbBlockReference
  2
_DOT
 10
89.81060904245018
 20
249.8305875443845
 30
0.0
  0
MTEXT
  5
1F32
330
1F2A
100
AcDbEntity
  8
DIM
 62
     0
100
AcDbMText
 10
69.81060904245018
 20
252.0805875443845
 30
0.0
 40
2.5
 41
0.0
 46
0.0
 71
     5
 72
     1
  1
\A1;40
  7
ＭＳ ゴシック
 73
     1
 44
1.0
  0
POINT
  5
1F33
330
1F2A
100
AcDbEntity
  8
Defpoints
 62
     0
100
AcDbPoint
 10
49.81060904245018
 20
232.1692085413715
 30
0.0
  0
POINT
  5
1F34
330
1F2A
100
AcDbEntity
  8
Defpoints
 62
     0
100
AcDbPoint
 10
89.81060904245018
 20
232.1692085413715
 30
0.0
  0
POINT
  5
1F35
330
1F2A
100
AcDbEntity
  8
Defpoints
 62
     0
100
AcDbPoint
 10
89.81060904245018
 20
249.8305875443845
 30
0.0
  0
ENDBLK
  5
1F2C
330
1F2A
100
AcDbEntity
  8
0
100
AcDbBlockEnd
  0
BLOCK
  5
1F3A
330
1F39
100
AcDbEntity
  8
0
100
AcDbBlockBegin
  2
*D59
 70
     1
 10
0.0
 20
0.0
 30
0.0
  3
*D59
  1

  0
LINE
  5
1F3C
330
1F39
100
AcDbEntity
  8
DIM
 62
     0
370
    -2
100
AcDbLine
 10
47.81060904245018
 20
232.1692085413715
 30
0.0
 11
31.60606688623182
 21
232.1692085413715
 31
0.0
  0
LINE
  5
1F3D
330
1F39
100
AcDbEntity
  8
DIM
 62
     0
370
    -2
100
AcDbLine
 10
47.81060904245017
 20
222.1692085413715
 30
0.0
 11
31.60606688623182
 21
222.1692085413715
 31
0.0
  0
LINE
  5
1F3E
330
1F39
100
AcDbEntity
  8
DIM
 62
     0
370
    -2
100
AcDbLine
 10
31.60606688623182
 20
231.1692085413715
 30
0.0
 11
31.60606688623182
 21
223.1692085413715
 31
0.0
  0
INSERT
  5
1F3F
330
1F39
100
AcDbEntity
  8
DIM
 62
     0
370
    -2
100
AcDbBlockReference
  2
_DOT
 10
31.60606688623182
 20
232.1692085413715
 30
0.0
 50
90.0
  0
INSERT
  5
1F40
330
1F39
100
AcDbEntity
  8
DIM
 62
     0
370
    -2
100
AcDbBlockReference
  2
_DOT
 10
31.60606688623182
 20
222.1692085413715
 30
0.0
 50
270.0
  0
MTEXT
  5
1F41
330
1F39
100
AcDbEntity
  8
DIM
 62
     0
100
AcDbMText
 10
29.35606688623182
 20
227.1692085413715
 30
0.0
 40
2.5
 41
0.0
 46
0.0
 71
     5
 72
     1
  1
\A1;10
  7
ＭＳ ゴシック
 11
0.0
 21
1.0
 31
0.0
 73
     1
 44
1.0
  0
POINT
  5
1F42
330
1F39
100
AcDbEntity
  8
Defpoints
 62
     0
100
AcDbPoint
 10
49.81060904245018
 20
232.1692085413715
 30
0.0
  0
POINT
  5
1F43
330
1F39
100
AcDbEntity
  8
Defpoints
 62
     0
100
AcDbPoint
 10
49.81060904245017
 20
222.1692085413715
 30
0.0
  0
POINT
  5
1F44
330
1F39
100
AcDbEntity
  8
Defpoints
 62
     0
100
AcDbPoint
 10
31.60606688623182
 20
222.1692085413715
 30
0.0
  0
ENDBLK
  5
1F3B
330
1F39
100
AcDbEntity
  8
0
100
AcDbBlockEnd
  0
BLOCK
  5
1F49
330
1F48
100
AcDbEntity
  8
0
100
AcDbBlockBegin
  2
*D60
 70
     1
 10
0.0
 20
0.0
 30
0.0
  3
*D60
  1

  0
LINE
  5
1F4B
330
1F48
100
AcDbEntity
  8
DIM
 62
     0
370
    -2
100
AcDbLine
 10
47.81060904245018
 20
230.1692085413716
 30
0.0
 11
43.00536995159293
 21
230.1692085413716
 31
0.0
  0
LINE
  5
1F4C
330
1F48
100
AcDbEntity
  8
DIM
 62
     0
370
    -2
100
AcDbLine
 10
47.81060904245017
 20
224.1692085413716
 30
0.0
 11
43.00536995159293
 21
224.1692085413716
 31
0.0
  0
LINE
  5
1F4D
330
1F48
100
AcDbEntity
  8
DIM
 62
     0
370
    -2
100
AcDbLine
 10
43.00536995159293
 20
229.1692085413716
 30
0.0
 11
43.00536995159293
 21
225.1692085413716
 31
0.0
  0
INSERT
  5
1F4E
330
1F48
100
AcDbEntity
  8
DIM
 62
     0
370
    -2
100
AcDbBlockReference
  2
_DOT
 10
43.00536995159293
 20
230.1692085413716
 30
0.0
 50
90.0
  0
INSERT
  5
1F4F
330
1F48
100
AcDbEntity
  8
DIM
 62
     0
370
    -2
100
AcDbBlockReference
  2
_DOT
 10
43.00536995159293
 20
224.1692085413716
 30
0.0
 50
270.0
  0
MTEXT
  5
1F50
330
1F48
100
AcDbEntity
  8
DIM
 62
     0
100
AcDbMText
 10
40.75536995159293
 20
227.1692085413716
 30
0.0
 40
2.5
 41
0.0
 46
0.0
 71
     5
 72
     1
  1
\A1;5.2
  7
ＭＳ ゴシック
 11
0.0
 21
1.0
 31
0.0
 73
     1
 44
1.0
  0
POINT
  5
1F51
330
1F48
100
AcDbEntity
  8
Defpoints
 62
     0
100
AcDbPoint
 10
49.81060904245018
 20
230.1692085413716
 30
0.0
  0
POINT
  5
1F52
330
1F48
100
AcDbEntity
  8
Defpoints
 62
     0
100
AcDbPoint
 10
49.81060904245017
 20
224.1692085413716
 30
0.0
  0
POINT
  5
1F53
330
1F48
100
AcDbEntity
  8
Defpoints
 62
     0
100
AcDbPoint
 10
43.00536995159293
 20
224.1692085413716
 30
0.0
  0
ENDBLK
  5
1F4A
330
1F48
100
AcDbEntity
  8
0
100
AcDbBlockEnd
  0
BLOCK
  5
1F58
330
1F57
100
AcDbEntity
  8
0
100
AcDbBlockBegin
  2
*D61
 70
     1
 10
0.0
 20
0.0
 30
0.0
  3
*D61
  1

  0
LINE
  5
1F5A
330
1F57
100
AcDbEntity
  8
DIM
 62
     0
370
    -2
100
AcDbLine
 10
47.81060904245018
 20
232.1692085413715
 30
0.0
 11
37.67783985742396
 21
232.1692085413715
 31
0.0
  0
LINE
  5
1F5B
330
1F57
100
AcDbEntity
  8
DIM
 62
     0
370
    -2
100
AcDbLine
 10
40.33930934317942
 20
227.1692085413715
 30
0.0
 11
37.67783985742396
 21
227.1692085413715
 31
0.0
  0
LINE
  5
1F5C
330
1F57
100
AcDbEntity
  8
DIM
 62
     0
370
    -2
100
AcDbLine
 10
37.67783985742396
 20
231.1692085413715
 30
0.0
 11
37.67783985742396
 21
228.1692085413715
 31
0.0
  0
INSERT
  5
1F5D
330
1F57
100
AcDbEntity
  8
DIM
 62
     0
370
    -2
100
AcDbBlockReference
  2
_DOT
 10
37.67783985742396
 20
232.1692085413715
 30
0.0
 50
90.0
  0
INSERT
  5
1F5E
330
1F57
100
AcDbEntity
  8
DIM
 62
     0
370
    -2
100
AcDbBlockReference
  2
_DOT
 10
37.67783985742396
 20
227.1692085413715
 30
0.0
 50
270.0
  0
MTEXT
  5
1F5F
330
1F57
100
AcDbEntity
  8
DIM
 62
     0
100
AcDbMText
 10
35.42783985742396
 20
229.6692085413715
 30
0.0
 40
2.5
 41
0.0
 46
0.0
 71
     5
 72
     1
  1
\A1;5
  7
ＭＳ ゴシック
 11
0.0
 21
1.0
 31
0.0
 73
     1
 44
1.0
  0
POINT
  5
1F60
330
1F57
100
AcDbEntity
  8
Defpoints
 62
     0
100
AcDbPoint
 10
49.81060904245018
 20
232.1692085413715
 30
0.0
  0
POINT
  5
1F61
330
1F57
100
AcDbEntity
  8
Defpoints
 62
     0
100
AcDbPoint
 10
42.33930934317942
 20
227.1692085413715
 30
0.0
  0
POINT
  5
1F62
330
1F57
100
AcDbEntity
  8
Defpoints
 62
     0
100
AcDbPoint
 10
37.67783985742396
 20
227.1692085413715
 30
0.0
  0
ENDBLK
  5
1F59
330
1F57
100
AcDbEntity
  8
0
100
AcDbBlockEnd
  0
BLOCK
  5
1F67
330
1F66
100
AcDbEntity
  8
0
100
AcDbBlockBegin
  2
*D62
 70
     1
 10
0.0
 20
0.0
 30
0.0
  3
*D62
  1

  0
LINE
  5
1F69
330
1F66
100
AcDbEntity
  8
DIM
 62
     0
370
    -2
100
AcDbLine
 10
69.7659458204931
 20
219.7653770260343
 30
0.0
 11
69.7659458204931
 21
209.0623285171681
 31
0.0
  0
LINE
  5
1F6A
330
1F66
100
AcDbEntity
  8
DIM
 62
     0
370
    -2
100
AcDbLine
 10
173.0863463936354
 20
221.3757755236289
 30
0.0
 11
173.0863463936354
 21
209.0623285171681
 31
0.0
  0
LINE
  5
1F6B
330
1F66
100
AcDbEntity
  8
DIM
 62
     0
370
    -2
100
AcDbLine
 10
70.7659458204931
 20
209.0623285171681
 30
0.0
 11
172.0863463936354
 21
209.0623285171681
 31
0.0
  0
INSERT
  5
1F6C
330
1F66
100
AcDbEntity
  8
DIM
 62
     0
370
    -2
100
AcDbBlockReference
  2
_DOT
 10
69.7659458204931
 20
209.0623285171681
 30
0.0
 50
180.0
  0
INSERT
  5
1F6D
330
1F66
100
AcDbEntity
  8
DIM
 62
     0
370
    -2
100
AcDbBlockReference
  2
_DOT
 10
173.0863463936354
 20
209.0623285171681
 30
0.0
  0
MTEXT
  5
1F6E
330
1F66
100
AcDbEntity
  8
DIM
 62
     0
100
AcDbMText
 10
121.4261461070643
 20
211.3123285171681
 30
0.0
 40
2.5
 41
0.0
 46
0.0
 71
     5
 72
     1
  1
\A1;300
  7
ＭＳ ゴシック
 73
     1
 44
1.0
  0
POINT
  5
1F6F
330
1F66
100
AcDbEntity
  8
Defpoints
 62
     0
100
AcDbPoint
 10
69.7659458204931
 20
221.7653770260343
 30
0.0
  0
POINT
  5
1F70
330
1F66
100
AcDbEntity
  8
Defpoints
 62
     0
100
AcDbPoint
 10
173.0863463936354
 20
223.3757755236289
 30
0.0
  0
POINT
  5
1F71
330
1F66
100
AcDbEntity
  8
Defpoints
 62
     0
100
AcDbPoint
 10
173.0863463936354
 20
209.0623285171681
 30
0.0
  0
ENDBLK
  5
1F68
330
1F66
100
AcDbEntity
  8
0
100
AcDbBlockEnd
  0
BLOCK
  5
1F78
330
1F77
100
AcDbEntity
  8
0
100
AcDbBlockBegin
  2
*D63
 70
     1
 10
0.0
 20
0.0
 30
0.0
  3
*D63
  1

  0
LINE
  5
1F7A
330
1F77
100
AcDbEntity
  8
DIM
 62
     0
370
    -2
100
AcDbLine
 10
175.0863463936355
 20
229.6699010551219
 30
0.0
 11
182.8236823767615
 21
229.6699010551219
 31
0.0
  0
LINE
  5
1F7B
330
1F77
100
AcDbEntity
  8
DIM
 62
     0
370
    -2
100
AcDbLine
 10
175.0863463936355
 20
224.6699010551219
 30
0.0
 11
182.8236823767615
 21
224.6699010551219
 31
0.0
  0
LINE
  5
1F7C
330
1F77
100
AcDbEntity
  8
DIM
 62
     0
370
    -2
100
AcDbLine
 10
182.8236823767615
 20
228.6699010551219
 30
0.0
 11
182.8236823767615
 21
225.6699010551219
 31
0.0
  0
INSERT
  5
1F7D
330
1F77
100
AcDbEntity
  8
DIM
 62
     0
370
    -2
100
AcDbBlockReference
  2
_DOT
 10
182.8236823767615
 20
229.6699010551219
 30
0.0
 50
90.0
  0
INSERT
  5
1F7E
330
1F77
100
AcDbEntity
  8
DIM
 62
     0
370
    -2
100
AcDbBlockReference
  2
_DOT
 10
182.8236823767615
 20
224.6699010551219
 30
0.0
 50
270.0
  0
MTEXT
  5
1F7F
330
1F77
100
AcDbEntity
  8
DIM
 62
     0
100
AcDbMText
 10
180.5736823767615
 20
227.1699010551219
 30
0.0
 40
2.5
 41
0.0
 46
0.0
 71
     5
 72
     1
  1
\A1;%%c5
  7
ＭＳ ゴシック
 11
0.0
 21
1.0
 31
0.0
 73
     1
 44
1.0
  0
POINT
  5
1F80
330
1F77
100
AcDbEntity
  8
Defpoints
 62
     0
100
AcDbPoint
 10
173.0863463936355
 20
229.6699010551219
 30
0.0
  0
POINT
  5
1F81
330
1F77
100
AcDbEntity
  8
Defpoints
 62
     0
100
AcDbPoint
 10
173.0863463936355
 20
224.6699010551219
 30
0.0
  0
POINT
  5
1F82
330
1F77
100
AcDbEntity
  8
Defpoints
 62
     0
100
AcDbPoint
 10
182.8236823767615
 20
224.6699010551219
 30
0.0
  0
ENDBLK
  5
1F79
330
1F77
100
AcDbEntity
  8
0
100
AcDbBlockEnd
  0
BLOCK
  5
26BB
330
26BA
100
AcDbEntity
  8
0
100
AcDbBlockBegin
  2
*D85
 70
     1
 10
0.0
 20
0.0
 30
0.0
  3
*D85
  1

  0
LINE
  5
26BD
330
26BA
100
AcDbEntity
  8
DIM
 62
     0
370
    -2
100
AcDbLine
 10
145.4782968194577
 20
114.1050081288886
 30
0.0
 11
145.4782968194577
 21
103.4748948343077
 31
0.0
  0
LINE
  5
26BE
330
26BA
100
AcDbEntity
  8
DIM
 62
     0
370
    -2
100
AcDbLine
 10
173.6288393160044
 20
114.1050081288886
 30
0.0
 11
173.6288393160044
 21
103.4748948343077
 31
0.0
  0
LINE
  5
26BF
330
26BA
100
AcDbEntity
  8
DIM
 62
     0
370
    -2
100
AcDbLine
 10
146.4782968194577
 20
103.4748948343077
 30
0.0
 11
172.6288393160044
 21
103.4748948343077
 31
0.0
  0
INSERT
  5
26C0
330
26BA
100
AcDbEntity
  8
DIM
 62
     0
370
    -2
100
AcDbBlockReference
  2
_DOT
 10
145.4782968194577
 20
103.4748948343077
 30
0.0
 50
180.0
  0
INSERT
  5
26C1
330
26BA
100
AcDbEntity
  8
DIM
 62
     0
370
    -2
100
AcDbBlockReference
  2
_DOT
 10
173.6288393160044
 20
103.4748948343077
 30
0.0
  0
MTEXT
  5
26C2
330
26BA
100
AcDbEntity
  8
DIM
 62
     0
100
AcDbMText
 10
159.5535680677311
 20
105.8073948343077
 30
0.0
 40
2.5
 41
0.0
 46
0.0
 71
     5
 72
     1
  1
\A1;※
  7
ＭＳ ゴシック
 73
     1
 44
1.0
  0
POINT
  5
26C3
330
26BA
100
AcDbEntity
  8
Defpoints
 62
     0
100
AcDbPoint
 10
145.4782968194577
 20
116.1050081288886
 30
0.0
  0
POINT
  5
26C4
330
26BA
100
AcDbEntity
  8
Defpoints
 62
     0
100
AcDbPoint
 10
173.6288393160044
 20
116.1050081288886
 30
0.0
  0
POINT
  5
26C5
330
26BA
100
AcDbEntity
  8
Defpoints
 62
     0
100
AcDbPoint
 10
173.6288393160044
 20
103.4748948343077
 30
0.0
  0
ENDBLK
  5
26BC
330
26BA
100
AcDbEntity
  8
0
100
AcDbBlockEnd
  0
BLOCK
  5
27F8
330
27F7
100
AcDbEntity
  8
0
100
AcDbBlockBegin
  2
*D89
 70
     1
 10
0.0
 20
0.0
 30
0.0
  3
*D89
  1

  0
LINE
  5
27FA
330
27F7
100
AcDbEntity
  8
DIM
 62
     0
370
    -2
100
AcDbLine
 10
47.81075955184008
 20
229.7702609908941
 30
0.0
 11
44.18547662113259
 21
229.7702609908941
 31
0.0
  0
LINE
  5
27FB
330
27F7
100
AcDbEntity
  8
DIM
 62
     0
370
    -2
100
AcDbLine
 10
47.81060904245017
 20
224.5699010551219
 30
0.0
 11
44.18547662113259
 21
224.5699010551219
 31
0.0
  0
LINE
  5
27FC
330
27F7
100
AcDbEntity
  8
DIM
 62
     0
370
    -2
100
AcDbLine
 10
44.18547662113259
 20
228.7702609908941
 30
0.0
 11
44.18547662113259
 21
225.5699010551219
 31
0.0
  0
INSERT
  5
27FD
330
27F7
100
AcDbEntity
  8
DIM
 62
     0
370
    -2
100
AcDbBlockReference
  2
_DOT
 10
44.18547662113259
 20
229.7702609908941
 30
0.0
 50
90.0
  0
INSERT
  5
27FE
330
27F7
100
AcDbEntity
  8
DIM
 62
     0
370
    -2
100
AcDbBlockReference
  2
_DOT
 10
44.18547662113259
 20
224.5699010551219
 30
0.0
 50
270.0
  0
MTEXT
  5
27FF
330
27F7
100
AcDbEntity
  8
DIM
 62
     0
100
AcDbMText
 10
41.93547662113259
 20
227.170081023008
 30
0.0
 40
2.5
 41
0.0
 46
0.0
 71
     5
 72
     1
  1
\A1;%%c5.2
  7
ＭＳ ゴシック
 11
0.0
 21
1.0
 31
0.0
 73
     1
 44
1.0
  0
POINT
  5
2800
330
27F7
100
AcDbEntity
  8
Defpoints
 62
     0
100
AcDbPoint
 10
49.81075955184008
 20
229.7702609908941
 30
0.0
  0
POINT
  5
2801
330
27F7
100
AcDbEntity
  8
Defpoints
 62
     0
100
AcDbPoint
 10
49.81060904245017
 20
224.5699010551219
 30
0.0
  0
POINT
  5
2802
330
27F7
100
AcDbEntity
  8
Defpoints
 62
     0
100
AcDbPoint
 10
44.18547662113259
 20
224.5699010551219
 30
0.0
  0
ENDBLK
  5
27F9
330
27F7
100
AcDbEntity
  8
0
100
AcDbBlockEnd
  0
ENDSEC
  0
SECTION
  2
ENTITIES
  0
MTEXT
  5
177
330
A
100
AcDbEntity
  8
TEMPLATE
390
1D
100
AcDbMText
 10
7.920214454773076
 20
34.37317516314283
 30
0.0
 40
1.628841145833333
 41
0.0
 46
0.0
 71
     1
 72
     1
  1
品名
  7
ＭＳ ゴシック
 73
     1
 44
0.7828267384257843
  0
MTEXT
  5
178
330
A
100
AcDbEntity
  8
TEMPLATE
390
1D
100
AcDbMText
 10
7.920214454773076
 20
25.8731751631428
 30
0.0
 40
1.628841145833333
 41
0.0
 46
0.0
 71
     1
 72
     1
  1
仕様
  7
ＭＳ ゴシック
 73
     1
 44
0.7828267384257843
  0
LINE
  5
179
330
A
100
AcDbEntity
  8
TEMPLATE
390
1D
100
AcDbLine
 10
202.2202144547248
 20
26.71466735064284
 30
0.0
 11
7.220214454724874
 21
26.71466735064284
 31
0.0
  0
LWPOLYLINE
  5
17A
330
A
100
AcDbEntity
  8
TEMPLATE
390
1D
100
AcDbPolyline
 90
        5
 70
   128
 43
0.0
 10
202.2202144547248
 20
289.7146673506426
 10
7.220214454724874
 20
289.7146673506426
 10
7.220214454724874
 20
9.714667350642827
 10
202.2202144547248
 20
9.714667350642827
 10
202.2202144547248
 20
289.7146673506426
  0
LINE
  5
17B
330
A
100
AcDbEntity
  8
TEMPLATE
390
1D
100
AcDbLine
 10
202.2202144547248
 20
35.21466735064282
 30
0.0
 11
7.220214454724874
 21
35.21466735064282
 31
0.0
  0
LINE
  5
17C
330
A
100
AcDbEntity
  8
TEMPLATE
390
1D
100
AcDbLine
 10
202.2202144547732
 20
18.21466735064282
 30
0.0
 11
126.920214454773
 21
18.21466735064282
 31
0.0
  0
MTEXT
  5
17E
330
A
100
AcDbEntity
  8
TEMPLATE
390
1D
100
AcDbMText
 10
129.9073550799991
 20
15.22362790331201
 30
0.0
 40
2.44326171875
 41
0.0
 46
0.0
 71
     1
 72
     1
  1
大洋金物株式会社 ティーフォルム事業部
  7
ＭＳ ゴシック
 73
     1
 44
0.7828267384257843
  0
MTEXT
  5
180
330
A
100
AcDbEntity
  8
TEMPLATE
390
1D
100
AcDbMText
 10
183.120214454799
 20
23.01492906939282
 30
0.0
 40
2.44326171875
 41
0.0
 46
2.44326171875
 71
     1
 72
     1
  1
{1:1}
  7
ＭＳ ゴシック
 73
     1
 44
0.7828267384257843
1001
ACAD
1000
ACAD_MTEXT_DEFINED_HEIGHT_BEGIN
1070
    46
1040
2.44326171875
1000
ACAD_MTEXT_DEFINED_HEIGHT_END
  0
MTEXT
  5
181
330
A
100
AcDbEntity
  8
TEMPLATE
390
1D
100
AcDbMText
 10
177.820214454799
 20
25.8731751631428
 30
0.0
 40
1.628841145833333
 41
0.0
 46
0.0
 71
     1
 72
     1
  1
縮尺
  7
ＭＳ ゴシック
 73
     1
 44
0.7828267384257843
  0
LINE
  5
182
330
A
100
AcDbEntity
  8
TEMPLATE
390
1D
100
AcDbLine
 10
177.120214454799
 20
18.21466735064282
 30
0.0
 11
177.120214454799
 21
26.71466735064284
 31
0.0
  0
MTEXT
  5
183
330
A
100
AcDbEntity
  8
TEMPLATE
390
1D
100
AcDbMText
 10
152.720214454799
 20
25.8731751631428
 30
0.0
 40
1.628841145833333
 41
0.0
 46
0.0
 71
     1
 72
     1
  1
容量
  7
ＭＳ ゴシック
 73
     1
 44
0.7828267384257843
  0
LINE
  5
184
330
A
100
AcDbEntity
  8
TEMPLATE
390
1D
100
AcDbLine
 10
152.020214454799
 20
18.21466735064282
 30
0.0
 11
152.020214454799
 21
26.71466735064284
 31
0.0
  0
MTEXT
  5
185
330
A
100
AcDbEntity
  8
TEMPLATE
390
1D
100
AcDbMText
 10
127.620214454799
 20
34.37317516314283
 30
0.0
 40
1.628841145833333
 41
0.0
 46
0.0
 71
     1
 72
     1
  1
品番
  7
ＭＳ ゴシック
 73
     1
 44
0.7828267384257843
  0
MTEXT
  5
186
330
A
100
AcDbEntity
  8
TEMPLATE
390
1D
100
AcDbMText
 10
127.620214454799
 20
25.8731751631428
 30
0.0
 40
1.628841145833333
 41
0.0
 46
0.0
 71
     1
 72
     1
  1
重量
  7
ＭＳ ゴシック
 73
     1
 44
0.7828267384257843
  0
LINE
  5
188
330
A
100
AcDbEntity
  8
TEMPLATE
390
1D
100
AcDbLine
 10
126.920214454799
 20
9.714667350642827
 30
0.0
 11
126.920214454799
 21
35.21466735064282
 31
0.0
  0
INSERT
  5
6B5
330
A
100
AcDbEntity
  8
TEMPLATE
100
AcDbBlockReference
  2
名称未設定-1
 10
187.075074808845
 20
2.594676575665382
 30
0.0
 41
0.0762
 42
0.0762
 43
0.0762
  0
INSERT
  5
68C
330
A
100
AcDbEntity
  8
TEMPLATE
100
AcDbBlockReference
  2
block 2
 10
183.8548603540515
 20
1.674615302867274
 30
0.0
 41
0.0762
 42
0.0762
 43
0.0762
  0
LWPOLYLINE
  5
D69
330
A
100
AcDbEntity
  8
BORDER
100
AcDbPolyline
 90
        4
 70
     1
 43
0.0
 10
0.0
 20
0.0
 10
0.0
 20
297.0
 10
210.0
 20
297.0
 10
210.0
 20
0.0
  0
INSERT
  5
1343
330
A
100
AcDbEntity
  8
TEMPLATE
100
AcDbBlockReference
  2
block 2
 10
419.3486941732937
 20
4.887064282459138
 30
0.0
 41
0.0762
 42
0.0762
 43
0.0762
  0
MTEXT
  5
1EAB
102
{ACAD_XDICTIONARY
360
1EAC
102
}
330
A
100
AcDbEntity
  8
TEMPLATE
100
AcDbMText
 10
7.472865654857031
 20
8.386172105142833
 30
0.0
 40
2.2
 41
0.0
 46
2.2
 71
     1
 72
     1
  1
{20180403N}
  7
ＭＳ ゴシック
 73
     1
 44
1.0
1001
ACAD
1000
ACAD_MTEXT_DEFINED_HEIGHT_BEGIN
1070
    46
1040
2.2
1000
ACAD_MTEXT_DEFINED_HEIGHT_END
  0
MTEXT
  5
1EB0
330
A
100
AcDbEntity
  8
TEMPLATE
390
1D
100
AcDbMText
 10
12.52543452760361
 20
22.68119760293951
 30
0.0
 40
2.44326171875
 41
0.0
 46
2.47991064453125
 71
     1
 72
     1
  1
{ステンレス}
  7
ＭＳ ゴシック
 73
     1
 44
0.9331787841240657
1001
ACAD
1000
ACAD_MTEXT_DEFINED_HEIGHT_BEGIN
1070
    46
1040
2.47991064453125
1000
ACAD_MTEXT_DEFINED_HEIGHT_END
  0
MTEXT
  5
1EB1
330
A
100
AcDbEntity
  8
TEMPLATE
390
1D
100
AcDbMText
 10
13.22021445477307
 20
31.51492906939281
 30
0.0
 40
2.44326171875
 41
0.0
 46
2.7413396484375
 71
     1
 72
     1
  1
{ポップアップ排水金具用延長金具}
  7
ＭＳ ゴシック
 73
     1
 44
0.7828267384257843
1001
ACAD
1000
ACAD_MTEXT_DEFINED_HEIGHT_BEGIN
1070
    46
1040
2.7413396484375
1000
ACAD_MTEXT_DEFINED_HEIGHT_END
  0
MTEXT
  5
1EB2
330
A
100
AcDbEntity
  8
TEMPLATE
390
1D
100
AcDbMText
 10
132.920214454799
 20
31.51492906939281
 30
0.0
 40
2.44326171875
 41
0.0
 46
2.44326171875
 71
     1
 72
     1
  1
{TFM73-7010}
  7
ＭＳ ゴシック
 73
     1
 44
0.7828267384257843
1001
ACAD
1000
ACAD_MTEXT_DEFINED_HEIGHT_BEGIN
1070
    46
1040
2.44326171875
1000
ACAD_MTEXT_DEFINED_HEIGHT_END
  0
LINE
  5
1EC6
102
{ACAD_REACTORS
330
1F29
330
1F38
330
1F56
102
}
330
A
100
AcDbEntity
  8
MODEL
100
AcDbLine
 10
49.81060904245018
 20
232.1692085413715
 30
0.0
 11
49.81075955184008
 21
229.7702609908941
 31
0.0
  0
LINE
  5
1EC7
102
{ACAD_REACTORS
330
1F38
102
}
330
A
100
AcDbEntity
  8
MODEL
100
AcDbLine
 10
49.81060904245017
 20
222.1692085413715
 30
0.0
 11
89.81060904245018
 21
222.1692085413715
 31
0.0
  0
LINE
  5
1EC8
330
A
100
AcDbEntity
  8
MODEL
100
AcDbLine
 10
89.81060904245018
 20
222.1692085413715
 30
0.0
 11
89.81060904245018
 21
224.1692085413716
 31
0.0
  0
LINE
  5
1EC9
102
{ACAD_REACTORS
330
1F29
102
}
330
A
100
AcDbEntity
  8
MODEL
100
AcDbLine
 10
89.81060904245018
 20
232.1692085413715
 30
0.0
 11
49.81060904245018
 21
232.1692085413715
 31
0.0
  0
LINE
  5
1ECD
102
{ACAD_REACTORS
102
}
330
A
100
AcDbEntity
  8
MODEL
100
AcDbLine
 10
81.28719590359968
 20
229.7729005871428
 30
0.0
 11
58.33432120842008
 21
229.7729005871428
 31
0.0
  0
LINE
  5
1EDF
330
A
100
AcDbEntity
  8
MODEL
100
AcDbLine
 10
69.7659458204931
 20
224.6699010551219
 30
0.0
 11
69.7659458204931
 21
229.6699010551219
 31
0.0
  0
LINE
  5
1EE0
330
A
100
AcDbEntity
  8
MODEL
100
AcDbLine
 10
118.1735667026137
 20
229.6699010551219
 30
0.0
 11
89.81060904245018
 21
229.6699010551219
 31
0.0
  0
LINE
  5
1EE1
330
A
100
AcDbEntity
  8
MODEL
100
AcDbLine
 10
120.8402855804936
 20
224.6699010551219
 30
0.0
 11
89.81060904245018
 21
224.6699010551219
 31
0.0
  0
LINE
  5
1EE4
330
A
100
AcDbEntity
  8
MODEL
100
AcDbLine
 10
89.81060904245018
 20
230.1692085413716
 30
0.0
 11
89.81060904245018
 21
232.1692085413715
 31
0.0
  0
LINE
  5
1EE5
330
A
100
AcDbEntity
  8
MODEL
100
AcDbLine
 10
89.81060904245018
 20
230.1692085413716
 30
0.0
 11
89.81060904245018
 21
229.7841299082974
 31
0.0
  0
LINE
  5
1EE6
330
A
100
AcDbEntity
  8
MODEL
100
AcDbLine
 10
89.81060904245018
 20
224.1692085413716
 30
0.0
 11
89.81060904245018
 21
224.5699010551219
 31
0.0
  0
LINE
  5
1EE8
330
A
100
AcDbEntity
  8
MODEL
100
AcDbLine
 10
173.0863463936355
 20
224.6699010551219
 30
0.0
 11
173.0863463936355
 21
229.6699010551219
 31
0.0
  0
LINE
  5
1EE9
102
{ACAD_REACTORS
330
1F76
102
}
330
A
100
AcDbEntity
  8
MODEL
100
AcDbLine
 10
173.0863463936355
 20
229.6699010551219
 30
0.0
 11
122.5248545925779
 21
229.6699010551219
 31
0.0
  0
LINE
  5
1EEA
102
{ACAD_REACTORS
330
1F76
102
}
330
A
100
AcDbEntity
  8
MODEL
100
AcDbLine
 10
173.0863463936355
 20
224.6699010551219
 30
0.0
 11
125.1915734704577
 21
224.6699010551219
 31
0.0
  0
DIMENSION
  5
1EEE
330
A
100
AcDbEntity
  8
DIM
100
AcDbDimension
  2
*D56
 10
57.31060904245018
 20
241.2738044813628
 30
0.0
 11
53.56060904245018
 21
243.5238044813628
 31
0.0
 70
    32
 71
     5
 42
7.5
 73
     0
 74
     0
 75
     0
  3
tfrom線あり
100
AcDbAlignedDimension
 13
49.81060904245018
 23
232.1692085413715
 33
0.0
 14
57.31060904245018
 24
234.1692085413715
 34
0.0
100
AcDbRotatedDimension
1001
ACAD
1000
DSTYLE
1002
{
1070
   140
1040
2.5
1070
   271
1070
     1
1070
   144
1040
1.0
1002
}
  0
LINE
  5
1EFD
330
A
100
AcDbEntity
  8
MODEL
100
AcDbLine
 10
56.28704639003999
 20
229.3990512752231
 30
0.0
 11
58.33417169486039
 21
229.3990512752231
 31
0.0
  0
LINE
  5
1EFF
330
A
100
AcDbEntity
  8
MODEL
100
AcDbLine
 10
58.33417169486039
 20
229.3990512752231
 30
0.0
 11
58.33417169486039
 21
233.1582989671849
 31
0.0
  0
LINE
  5
1F01
330
A
100
AcDbEntity
  8
MODEL
100
AcDbLine
 10
54.69022670889891
 20
233.1582989671849
 30
0.0
 11
59.93099137600147
 21
233.1582989671849
 31
0.0
  0
ARC
  5
1F04
330
A
100
AcDbEntity
  8
MODEL
100
AcDbCircle
 10
57.31060904245018
 20
229.9522107728125
 30
0.0
 40
4.306402554583288
100
AcDbArc
 50
52.51994461733908
 51
127.4800553826609
  0
LINE
  5
1F05
330
A
100
AcDbEntity
  8
MODEL
100
AcDbLine
 10
56.28704639003999
 20
229.3990512752231
 30
0.0
 11
56.28704639003999
 21
233.1582989671849
 31
0.0
  0
LINE
  5
1F06
330
A
100
AcDbEntity
  8
MODEL
100
AcDbLine
 10
58.33417169486039
 20
233.1582989671849
 30
0.0
 11
56.28704639003999
 21
232.7161397895201
 31
0.0
  0
LINE
  5
1F07
330
A
100
AcDbEntity
  8
MODEL
100
AcDbLine
 10
58.33417169486039
 20
232.4697701551842
 30
0.0
 11
56.28704639003999
 21
232.0276109775194
 31
0.0
  0
LINE
  5
1F08
330
A
100
AcDbEntity
  8
MODEL
100
AcDbLine
 10
58.33417169486039
 20
231.8058316578978
 30
0.0
 11
56.28704639003999
 21
231.3636724802329
 31
0.0
  0
LINE
  5
1F09
330
A
100
AcDbEntity
  8
MODEL
100
AcDbLine
 10
58.33417169486039
 20
231.0189415870398
 30
0.0
 11
56.28704639003999
 21
230.576782409375
 31
0.0
  0
LINE
  5
1F0A
330
A
100
AcDbEntity
  8
MODEL
100
AcDbLine
 10
58.33417169486039
 20
230.318117617682
 30
0.0
 11
56.28704639003999
 21
229.8759584400171
 31
0.0
  0
LINE
  5
1F0B
330
A
100
AcDbEntity
  8
MODEL
100
AcDbLine
 10
58.33417169486039
 20
229.5435227041812
 30
0.0
 11
57.66529240210106
 21
229.3990512752231
 31
0.0
  0
DIMENSION
  5
1F0D
330
A
100
AcDbEntity
  8
DIM
100
AcDbDimension
  2
*D57
 10
82.31060904245018
 20
241.2738044813628
 30
0.0
 11
86.06060904245018
 21
243.5238044813628
 31
0.0
 70
    32
 71
     5
 42
7.5
 73
     0
 74
     0
 75
     0
 52
-89.99999999999999
  3
tfrom線あり
100
AcDbAlignedDimension
 13
89.81060904245018
 23
232.1692085413715
 33
0.0
 14
82.31060904245018
 24
234.1692085413715
 34
0.0
 50
180.0
100
AcDbRotatedDimension
1001
ACAD
1000
DSTYLE
1002
{
1070
   140
1040
2.5
1070
   271
1070
     1
1070
   144
1040
1.0
1002
}
  0
DIMENSION
  5
1F27
102
{ACAD_REACTORS
330
1F29
102
}
102
{ACAD_XDICTIONARY
360
1F28
102
}
330
A
100
AcDbEntity
  8
DIM
100
AcDbDimension
  2
*D58
 10
89.81060904245018
 20
249.8305875443845
 30
0.0
 11
69.81060904245018
 21
252.0805875443845
 31
0.0
 70
    32
 71
     5
 42
40.0
 73
     0
 74
     0
 75
     0
  3
tfrom線あり
100
AcDbAlignedDimension
 13
49.81060904245018
 23
232.1692085413715
 33
0.0
 14
89.81060904245018
 24
232.1692085413715
 34
0.0
100
AcDbRotatedDimension
1001
ACAD
1000
DSTYLE
1002
{
1070
   140
1040
2.5
1070
   144
1040
1.0
1002
}
  0
DIMENSION
  5
1F36
102
{ACAD_REACTORS
330
1F38
102
}
102
{ACAD_XDICTIONARY
360
1F37
102
}
330
A
100
AcDbEntity
  8
DIM
100
AcDbDimension
  2
*D59
 10
31.60606688623182
 20
222.1692085413715
 30
0.0
 11
31.60606688623182
 21
227.1692085413715
 31
0.0
 70
   160
 71
     5
 42
10.0
 73
     0
 74
     0
 75
     0
  3
tfrom線あり
100
AcDbAlignedDimension
 13
49.81060904245018
 23
232.1692085413715
 33
0.0
 14
49.81060904245017
 24
222.1692085413715
 34
0.0
 50
90.0
100
AcDbRotatedDimension
1001
ACAD
1000
DSTYLE
1002
{
1070
   140
1040
2.5
1070
   144
1040
1.0
1002
}
  0
DIMENSION
  5
1F54
102
{ACAD_REACTORS
330
1F56
102
}
102
{ACAD_XDICTIONARY
360
1F55
102
}
330
A
100
AcDbEntity
  8
DIM
100
AcDbDimension
  2
*D61
 10
37.67783985742396
 20
227.1692085413715
 30
0.0
 11
35.42783985742396
 21
229.6692085413715
 31
0.0
 70
    32
 71
     5
 42
5.000000000000001
 73
     0
 74
     0
 75
     0
  3
tfrom線あり
100
AcDbAlignedDimension
 13
49.81060904245018
 23
232.1692085413715
 33
0.0
 14
42.33930934317942
 24
227.1692085413715
 34
0.0
 50
90.0
100
AcDbRotatedDimension
1001
ACAD
1000
DSTYLE
1002
{
1070
   140
1040
2.5
1070
   144
1040
1.0
1002
}
  0
DIMENSION
  5
1F63
102
{ACAD_XDICTIONARY
360
1F64
102
}
330
A
100
AcDbEntity
  8
DIM
100
AcDbDimension
  2
*D62
 10
173.0863463936354
 20
209.0623285171681
 30
0.0
 11
121.4261461070643
 21
209.0623285171681
 31
0.0
 70
   160
  1
300
 71
     5
 42
103.3204005731423
 73
     0
 74
     0
 75
     0
  3
tfrom線あり
100
AcDbAlignedDimension
 13
69.7659458204931
 23
221.7653770260343
 33
0.0
 14
173.0863463936354
 24
223.3757755236289
 34
0.0
100
AcDbRotatedDimension
1001
ACAD
1000
DSTYLE
1002
{
1070
   140
1040
2.5
1070
   144
1040
1.0
1002
}
  0
SPLINE
  5
1F72
330
A
100
AcDbEntity
  8
MODEL
100
AcDbSpline
210
0.0
220
0.0
230
1.0
 70
  1064
 71
     3
 72
    10
 73
     6
 74
     4
 42
0.000000001
 43
0.0000000001
 44
0.0
 40
0.0
 40
0.0
 40
0.0
 40
0.0
 40
5.763042420215124
 40
9.956271706708458
 40
15.59511587551553
 40
15.59511587551553
 40
15.59511587551553
 40
15.59511587551553
 10
120.4063798464299
 20
234.1813223002828
 30
0.0
 10
119.0456387143651
 20
232.3139465312769
 30
0.0
 10
116.6948129793663
 20
229.0878553143303
 30
0.0
 10
122.4611551786945
 20
225.0644000401167
 30
0.0
 10
119.6270965957606
 20
222.1257651363686
 30
0.0
 10
118.0017207493445
 20
220.4404131740804
 30
0.0
 11
120.4063798464299
 21
234.1813223002828
 31
0.0
 11
118.3452434774995
 21
228.7994662258535
 31
0.0
 11
120.749902574585
 21
225.3642389443029
 31
0.0
 11
118.0017207493445
 21
220.4404131740804
 31
0.0
  0
SPLINE
  5
1F73
330
A
100
AcDbEntity
  8
MODEL
100
AcDbSpline
210
0.0
220
0.0
230
1.0
 70
  1064
 71
     3
 72
    10
 73
     6
 74
     4
 42
0.000000001
 43
0.0000000001
 44
0.0
 40
0.0
 40
0.0
 40
0.0
 40
0.0
 40
5.763042420215124
 40
9.956271706708458
 40
15.59511587551553
 40
15.59511587551553
 40
15.59511587551553
 40
15.59511587551553
 10
124.7576677363941
 20
234.1813223002828
 30
0.0
 10
123.3969266043292
 20
232.3139465312769
 30
0.0
 10
121.0461008693304
 20
229.0878553143303
 30
0.0
 10
126.8124430686586
 20
225.0644000401167
 30
0.0
 10
123.9783844857247
 20
222.1257651363686
 30
0.0
 10
122.3530086393086
 20
220.4404131740804
 30
0.0
 11
124.7576677363941
 21
234.1813223002828
 31
0.0
 11
122.6965313674637
 21
228.7994662258535
 31
0.0
 11
125.1011904645491
 21
225.3642389443029
 31
0.0
 11
122.3530086393086
 21
220.4404131740804
 31
0.0
  0
DIMENSION
  5
1F74
102
{ACAD_REACTORS
330
1F76
102
}
102
{ACAD_XDICTIONARY
360
1F75
102
}
330
A
100
AcDbEntity
  8
DIM
100
AcDbDimension
  2
*D63
 10
182.8236823767615
 20
224.6699010551219
 30
0.0
 11
182.8236823767615
 21
227.1699010551219
 31
0.0
 70
   160
 71
     5
 42
5.0
 73
     0
 74
     0
 75
     0
  3
tfrom線あり
100
AcDbAlignedDimension
 13
173.0863463936355
 23
229.6699010551219
 33
0.0
 14
173.0863463936355
 24
224.6699010551219
 34
0.0
 50
90.0
100
AcDbRotatedDimension
1001
ACAD
1000
DSTYLE
1002
{
1070
   140
1040
2.5
1070
     3
1000
%%c<>
1070
   144
1040
1.0
1002
}
  0
MTEXT
  5
1FBA
330
A
100
AcDbEntity
  8
DIM
390
1D
100
AcDbMText
 10
34.37470852120683
 20
161.5096172066056
 30
0.0
 40
2.5
 41
0.0
 46
3.366
 71
     1
 72
     1
  1
{接続方法}
  7
ＭＳ ゴシック
 73
     1
 44
0.7828267384257843
1001
ACAD
1000
ACAD_MTEXT_DEFINED_HEIGHT_BEGIN
1070
    46
1040
3.366
1000
ACAD_MTEXT_DEFINED_HEIGHT_END
  0
LINE
  5
1FBD
330
A
100
AcDbEntity
  8
MODEL
100
AcDbLine
 10
59.93099137600145
 20
233.369621984261
 30
0.0
 11
59.93099137600147
 21
233.1582989671849
 31
0.0
  0
LINE
  5
1FBE
330
A
100
AcDbEntity
  8
MODEL
100
AcDbLine
 10
54.69022670889891
 20
233.369621984261
 30
0.0
 11
54.69022670889891
 21
233.1582989671849
 31
0.0
  0
LINE
  5
1FC1
330
A
100
AcDbEntity
  8
MODEL
100
AcDbLine
 10
83.33417169486037
 20
229.6699010551219
 30
0.0
 11
83.33417169486037
 21
233.1582989671849
 31
0.0
  0
LINE
  5
1FC2
330
A
100
AcDbEntity
  8
MODEL
100
AcDbLine
 10
79.6902267088989
 20
233.1582989671849
 30
0.0
 11
84.93099137600146
 21
233.1582989671849
 31
0.0
  0
ARC
  5
1FC3
330
A
100
AcDbEntity
  8
MODEL
100
AcDbCircle
 10
82.31060904245018
 20
229.9522107728125
 30
0.0
 40
4.306402554583288
100
AcDbArc
 50
52.51994461733915
 51
127.480055382661
  0
LINE
  5
1FC4
330
A
100
AcDbEntity
  8
MODEL
100
AcDbLine
 10
81.28704639003999
 20
229.6699010551219
 30
0.0
 11
81.28704639003999
 21
233.1582989671849
 31
0.0
  0
LINE
  5
1FC5
330
A
100
AcDbEntity
  8
MODEL
100
AcDbLine
 10
81.28704639003999
 20
229.6699010551219
 30
0.0
 11
83.33417169486037
 21
229.6699010551219
 31
0.0
  0
LINE
  5
1FC6
330
A
100
AcDbEntity
  8
MODEL
100
AcDbLine
 10
83.33417169486037
 20
233.1582989671849
 30
0.0
 11
81.28704639003999
 21
232.7161397895201
 31
0.0
  0
LINE
  5
1FC7
330
A
100
AcDbEntity
  8
MODEL
100
AcDbLine
 10
83.33417169486037
 20
232.4697701551842
 30
0.0
 11
81.28704639003999
 21
232.0276109775194
 31
0.0
  0
LINE
  5
1FC8
330
A
100
AcDbEntity
  8
MODEL
100
AcDbLine
 10
83.33417169486037
 20
231.8058316578978
 30
0.0
 11
81.28704639003999
 21
231.3636724802329
 31
0.0
  0
LINE
  5
1FC9
330
A
100
AcDbEntity
  8
MODEL
100
AcDbLine
 10
83.33417169486037
 20
231.0189415870398
 30
0.0
 11
81.28704639003999
 21
230.576782409375
 31
0.0
  0
LINE
  5
1FCA
330
A
100
AcDbEntity
  8
MODEL
100
AcDbLine
 10
83.33417169486037
 20
230.318117617682
 30
0.0
 11
81.28704639003999
 21
229.8759584400171
 31
0.0
  0
LINE
  5
1FCC
330
A
100
AcDbEntity
  8
MODEL
100
AcDbLine
 10
84.93099137600144
 20
233.369621984261
 30
0.0
 11
84.93099137600146
 21
233.1582989671849
 31
0.0
  0
LINE
  5
1FCD
330
A
100
AcDbEntity
  8
MODEL
100
AcDbLine
 10
79.6902267088989
 20
233.369621984261
 30
0.0
 11
79.6902267088989
 21
233.1582989671849
 31
0.0
  0
POLYLINE
  5
223D
330
A
100
AcDbEntity
  8
MODEL
100
AcDb2dPolyline
 66
     1
 10
0.0
 20
0.0
 30
0.0
  0
VERTEX
  5
223E
330
223D
100
AcDbEntity
  8
MODEL
100
AcDbVertex
100
AcDb2dVertex
 10
139.1139132948206
 20
116.0584884871319
 30
0.0
  0
VERTEX
  5
223F
330
223D
100
AcDbEntity
  8
MODEL
100
AcDbVertex
100
AcDb2dVertex
 10
140.6919629201907
 20
117.8241673342541
 30
0.0
  0
SEQEND
  5
2240
330
223D
100
AcDbEntity
  8
MODEL
  0
POLYLINE
  5
2241
330
A
100
AcDbEntity
  8
MODEL
100
AcDb2dPolyline
 66
     1
 10
0.0
 20
0.0
 30
0.0
  0
VERTEX
  5
2242
330
2241
100
AcDbEntity
  8
MODEL
100
AcDbVertex
100
AcDb2dVertex
 10
139.3459946186958
 20
115.849666984135
 30
0.0
  0
VERTEX
  5
2243
330
2241
100
AcDbEntity
  8
MODEL
100
AcDbVertex
100
AcDb2dVertex
 10
140.9245611289744
 20
117.6370549974104
 30
0.0
  0
SEQEND
  5
2244
330
2241
100
AcDbEntity
  8
MODEL
  0
POLYLINE
  5
2245
330
A
100
AcDbEntity
  8
MODEL
100
AcDb2dPolyline
 66
     1
 10
0.0
 20
0.0
 30
0.0
  0
VERTEX
  5
2246
330
2245
100
AcDbEntity
  8
MODEL
100
AcDbVertex
100
AcDb2dVertex
 10
138.8120525083103
 20
116.8482886271795
 30
0.0
  0
VERTEX
  5
2247
330
2245
100
AcDbEntity
  8
MODEL
100
AcDbVertex
100
AcDb2dVertex
 10
138.8580552651586
 20
117.1501494136899
 30
0.0
  0
VERTEX
  5
2248
330
2245
100
AcDbEntity
  8
MODEL
100
AcDbVertex
100
AcDb2dVertex
 10
138.9743543695504
 20
117.4520102002002
 30
0.0
  0
VERTEX
  5
2249
330
2245
100
AcDbEntity
  8
MODEL
100
AcDbVertex
100
AcDb2dVertex
 10
139.159916051669
 20
117.6835746391671
 30
0.0
  0
VERTEX
  5
224A
330
2245
100
AcDbEntity
  8
MODEL
100
AcDbVertex
100
AcDb2dVertex
 10
139.4157740813309
 20
117.892396142164
 30
0.0
  0
VERTEX
  5
224B
330
2245
100
AcDbEntity
  8
MODEL
100
AcDbVertex
100
AcDb2dVertex
 10
139.7176348678414
 20
118.0092121314642
 30
0.0
  0
VERTEX
  5
224C
330
2245
100
AcDbEntity
  8
MODEL
100
AcDbVertex
100
AcDb2dVertex
 10
140.0194956543518
 20
118.0557317732209
 30
0.0
  0
VERTEX
  5
224D
330
2245
100
AcDbEntity
  8
MODEL
100
AcDbVertex
100
AcDb2dVertex
 10
140.321356440862
 20
118.0092121314642
 30
0.0
  0
VERTEX
  5
224E
330
2245
100
AcDbEntity
  8
MODEL
100
AcDbVertex
100
AcDb2dVertex
 10
140.622700342464
 20
117.892396142164
 30
0.0
  0
VERTEX
  5
224F
330
2245
100
AcDbEntity
  8
MODEL
100
AcDbVertex
100
AcDb2dVertex
 10
140.8775246023093
 20
117.6835746391671
 30
0.0
  0
VERTEX
  5
2250
330
2245
100
AcDbEntity
  8
MODEL
100
AcDbVertex
100
AcDb2dVertex
 10
141.0641200542445
 20
117.4520102002002
 30
0.0
  0
VERTEX
  5
2251
330
2245
100
AcDbEntity
  8
MODEL
100
AcDbVertex
100
AcDb2dVertex
 10
141.1799022737279
 20
117.1501494136899
 30
0.0
  0
VERTEX
  5
2252
330
2245
100
AcDbEntity
  8
MODEL
100
AcDbVertex
100
AcDb2dVertex
 10
141.2264219154847
 20
116.8482886271795
 30
0.0
  0
VERTEX
  5
2253
330
2245
100
AcDbEntity
  8
MODEL
100
AcDbVertex
100
AcDb2dVertex
 10
141.1799022737279
 20
116.5236849046992
 30
0.0
  0
VERTEX
  5
2254
330
2245
100
AcDbEntity
  8
MODEL
100
AcDbVertex
100
AcDb2dVertex
 10
141.0641200542445
 20
116.2445670541588
 30
0.0
  0
VERTEX
  5
2255
330
2245
100
AcDbEntity
  8
MODEL
100
AcDbVertex
100
AcDb2dVertex
 10
140.8775246023093
 20
115.990259679222
 30
0.0
  0
VERTEX
  5
2256
330
2245
100
AcDbEntity
  8
MODEL
100
AcDbVertex
100
AcDb2dVertex
 10
140.622700342464
 20
115.8031473423783
 30
0.0
  0
VERTEX
  5
2257
330
2245
100
AcDbEntity
  8
MODEL
100
AcDbVertex
100
AcDb2dVertex
 10
140.321356440862
 20
115.6883988927116
 30
0.0
  0
VERTEX
  5
2258
330
2245
100
AcDbEntity
  8
MODEL
100
AcDbVertex
100
AcDb2dVertex
 10
140.0194956543518
 20
115.6418792509548
 30
0.0
  0
VERTEX
  5
2259
330
2245
100
AcDbEntity
  8
MODEL
100
AcDbVertex
100
AcDb2dVertex
 10
139.7176348678414
 20
115.6883988927116
 30
0.0
  0
VERTEX
  5
225A
330
2245
100
AcDbEntity
  8
MODEL
100
AcDbVertex
100
AcDb2dVertex
 10
139.4157740813309
 20
115.8031473423783
 30
0.0
  0
VERTEX
  5
225B
330
2245
100
AcDbEntity
  8
MODEL
100
AcDbVertex
100
AcDb2dVertex
 10
139.159916051669
 20
115.990259679222
 30
0.0
  0
VERTEX
  5
225C
330
2245
100
AcDbEntity
  8
MODEL
100
AcDbVertex
100
AcDb2dVertex
 10
138.9743543695504
 20
116.2445670541588
 30
0.0
  0
VERTEX
  5
225D
330
2245
100
AcDbEntity
  8
MODEL
100
AcDbVertex
100
AcDb2dVertex
 10
138.8580552651586
 20
116.5236849046992
 30
0.0
  0
VERTEX
  5
225E
330
2245
100
AcDbEntity
  8
MODEL
100
AcDbVertex
100
AcDb2dVertex
 10
138.8120525083103
 20
116.8482886271795
 30
0.0
  0
SEQEND
  5
225F
330
2245
100
AcDbEntity
  8
MODEL
  0
POLYLINE
  5
2260
330
A
100
AcDbEntity
  8
MODEL
100
AcDb2dPolyline
 66
     1
 10
0.0
 20
0.0
 30
0.0
  0
VERTEX
  5
2261
330
2260
100
AcDbEntity
  8
MODEL
100
AcDbVertex
100
AcDb2dVertex
 10
135.9562633893553
 20
118.1942569286743
 30
0.0
  0
VERTEX
  5
2262
330
2260
100
AcDbEntity
  8
MODEL
100
AcDbVertex
100
AcDb2dVertex
 10
141.6673247423569
 20
118.1942569286743
 30
0.0
  0
SEQEND
  5
2263
330
2260
100
AcDbEntity
  8
MODEL
  0
POLYLINE
  5
2264
330
A
100
AcDbEntity
  8
MODEL
100
AcDb2dPolyline
 66
     1
 10
0.0
 20
0.0
 30
0.0
  0
VERTEX
  5
2265
330
2264
100
AcDbEntity
  8
MODEL
100
AcDbVertex
100
AcDb2dVertex
 10
141.6673247423569
 20
115.5012865558679
 30
0.0
  0
VERTEX
  5
2266
330
2264
100
AcDbEntity
  8
MODEL
100
AcDbVertex
100
AcDb2dVertex
 10
135.9562633893553
 20
115.5012865558679
 30
0.0
  0
SEQEND
  5
2267
330
2264
100
AcDbEntity
  8
MODEL
  0
POLYLINE
  5
2268
330
A
100
AcDbEntity
  8
MODEL
100
AcDb2dPolyline
 66
     1
 10
0.0
 20
0.0
 30
0.0
  0
VERTEX
  5
2269
330
2268
100
AcDbEntity
  8
MODEL
100
AcDbVertex
100
AcDb2dVertex
 10
141.0641200542445
 20
118.1942569286743
 30
0.0
  0
VERTEX
  5
226A
330
2268
100
AcDbEntity
  8
MODEL
100
AcDbVertex
100
AcDb2dVertex
 10
141.2956844932114
 20
117.8469102702241
 30
0.0
  0
VERTEX
  5
226B
330
2268
100
AcDbEntity
  8
MODEL
100
AcDbVertex
100
AcDb2dVertex
 10
141.4357603033901
 20
117.4520102002002
 30
0.0
  0
VERTEX
  5
226C
330
2268
100
AcDbEntity
  8
MODEL
100
AcDbVertex
100
AcDb2dVertex
 10
141.5045059962083
 20
117.0571101301764
 30
0.0
  0
VERTEX
  5
226D
330
2268
100
AcDbEntity
  8
MODEL
100
AcDbVertex
100
AcDb2dVertex
 10
141.5045059962083
 20
116.6394671241827
 30
0.0
  0
VERTEX
  5
226E
330
2268
100
AcDbEntity
  8
MODEL
100
AcDbVertex
100
AcDb2dVertex
 10
141.4357603033901
 20
116.2218241181888
 30
0.0
  0
VERTEX
  5
226F
330
2268
100
AcDbEntity
  8
MODEL
100
AcDbVertex
100
AcDb2dVertex
 10
141.2956844932114
 20
115.849666984135
 30
0.0
  0
VERTEX
  5
2270
330
2268
100
AcDbEntity
  8
MODEL
100
AcDbVertex
100
AcDb2dVertex
 10
141.0641200542445
 20
115.5012865558679
 30
0.0
  0
SEQEND
  5
2271
330
2268
100
AcDbEntity
  8
MODEL
  0
POLYLINE
  5
2272
330
A
100
AcDbEntity
  8
MODEL
100
AcDb2dPolyline
 66
     1
 10
0.0
 20
0.0
 30
0.0
  0
VERTEX
  5
2273
330
2272
100
AcDbEntity
  8
MODEL
100
AcDbVertex
100
AcDb2dVertex
 10
141.6673247423569
 20
118.1942569286743
 30
0.0
  0
VERTEX
  5
2274
330
2272
100
AcDbEntity
  8
MODEL
100
AcDbVertex
100
AcDb2dVertex
 10
141.6673247423569
 20
115.5012865558679
 30
0.0
  0
SEQEND
  5
2275
330
2272
100
AcDbEntity
  8
MODEL
  0
POLYLINE
  5
2276
330
A
100
AcDbEntity
  8
MODEL
100
AcDb2dPolyline
 66
     1
 10
0.0
 20
0.0
 30
0.0
  0
VERTEX
  5
2277
330
2276
100
AcDbEntity
  8
MODEL
100
AcDbVertex
100
AcDb2dVertex
 10
136.559984962376
 20
115.5012865558679
 30
0.0
  0
VERTEX
  5
2278
330
2276
100
AcDbEntity
  8
MODEL
100
AcDbVertex
100
AcDb2dVertex
 10
136.3506465744707
 20
115.849666984135
 30
0.0
  0
VERTEX
  5
2279
330
2276
100
AcDbEntity
  8
MODEL
100
AcDbVertex
100
AcDb2dVertex
 10
136.211604534109
 20
116.2218241181888
 30
0.0
  0
VERTEX
  5
227A
330
2276
100
AcDbEntity
  8
MODEL
100
AcDbVertex
100
AcDb2dVertex
 10
136.1190821355039
 20
116.6394671241827
 30
0.0
  0
VERTEX
  5
227B
330
2276
100
AcDbEntity
  8
MODEL
100
AcDbVertex
100
AcDb2dVertex
 10
136.1190821355039
 20
117.0571101301764
 30
0.0
  0
VERTEX
  5
227C
330
2276
100
AcDbEntity
  8
MODEL
100
AcDbVertex
100
AcDb2dVertex
 10
136.211604534109
 20
117.4520102002002
 30
0.0
  0
VERTEX
  5
227D
330
2276
100
AcDbEntity
  8
MODEL
100
AcDbVertex
100
AcDb2dVertex
 10
136.3506465744707
 20
117.8469102702241
 30
0.0
  0
VERTEX
  5
227E
330
2276
100
AcDbEntity
  8
MODEL
100
AcDbVertex
100
AcDb2dVertex
 10
136.559984962376
 20
118.1942569286743
 30
0.0
  0
SEQEND
  5
227F
330
2276
100
AcDbEntity
  8
MODEL
  0
POLYLINE
  5
2280
330
A
100
AcDbEntity
  8
MODEL
100
AcDb2dPolyline
 66
     1
 10
0.0
 20
0.0
 30
0.0
  0
VERTEX
  5
2281
330
2280
100
AcDbEntity
  8
MODEL
100
AcDbVertex
100
AcDb2dVertex
 10
135.9562633893553
 20
116.1753044764321
 30
0.0
  0
VERTEX
  5
2282
330
2280
100
AcDbEntity
  8
MODEL
100
AcDbVertex
100
AcDb2dVertex
 10
135.6078829610882
 20
116.1753044764321
 30
0.0
  0
SEQEND
  5
2283
330
2280
100
AcDbEntity
  8
MODEL
  0
POLYLINE
  5
2284
330
A
100
AcDbEntity
  8
MODEL
100
AcDb2dPolyline
 66
     1
 10
0.0
 20
0.0
 30
0.0
  0
VERTEX
  5
2285
330
2284
100
AcDbEntity
  8
MODEL
100
AcDbVertex
100
AcDb2dVertex
 10
134.9147402989128
 20
117.892396142164
 30
0.0
  0
VERTEX
  5
2286
330
2284
100
AcDbEntity
  8
MODEL
100
AcDbVertex
100
AcDb2dVertex
 10
135.6078829610882
 20
117.892396142164
 30
0.0
  0
SEQEND
  5
2287
330
2284
100
AcDbEntity
  8
MODEL
  0
POLYLINE
  5
2288
330
A
100
AcDbEntity
  8
MODEL
100
AcDb2dPolyline
 66
     1
 10
0.0
 20
0.0
 30
0.0
  0
VERTEX
  5
2289
330
2288
100
AcDbEntity
  8
MODEL
100
AcDbVertex
100
AcDb2dVertex
 10
134.9147402989128
 20
117.3589709166867
 30
0.0
  0
VERTEX
  5
228A
330
2288
100
AcDbEntity
  8
MODEL
100
AcDbVertex
100
AcDb2dVertex
 10
135.6078829610882
 20
117.3589709166867
 30
0.0
  0
SEQEND
  5
228B
330
2288
100
AcDbEntity
  8
MODEL
  0
POLYLINE
  5
228C
330
A
100
AcDbEntity
  8
MODEL
100
AcDb2dPolyline
 66
     1
 10
0.0
 20
0.0
 30
0.0
  0
VERTEX
  5
228D
330
228C
100
AcDbEntity
  8
MODEL
100
AcDbVertex
100
AcDb2dVertex
 10
134.96436125012
 20
116.9868137826329
 30
0.0
  0
VERTEX
  5
228E
330
228C
100
AcDbEntity
  8
MODEL
100
AcDbVertex
100
AcDb2dVertex
 10
135.1902399550945
 20
116.9868137826329
 30
0.0
  0
SEQEND
  5
228F
330
228C
100
AcDbEntity
  8
MODEL
  0
POLYLINE
  5
2290
330
A
100
AcDbEntity
  8
MODEL
100
AcDb2dPolyline
 66
     1
 10
0.0
 20
0.0
 30
0.0
  0
VERTEX
  5
2291
330
2290
100
AcDbEntity
  8
MODEL
100
AcDbVertex
100
AcDb2dVertex
 10
134.96436125012
 20
116.6849529961225
 30
0.0
  0
VERTEX
  5
2292
330
2290
100
AcDbEntity
  8
MODEL
100
AcDbVertex
100
AcDb2dVertex
 10
135.1902399550945
 20
116.6849529961225
 30
0.0
  0
SEQEND
  5
2293
330
2290
100
AcDbEntity
  8
MODEL
  0
POLYLINE
  5
2294
330
A
100
AcDbEntity
  8
MODEL
100
AcDb2dPolyline
 66
     1
 10
0.0
 20
0.0
 30
0.0
  0
VERTEX
  5
2295
330
2294
100
AcDbEntity
  8
MODEL
100
AcDbVertex
100
AcDb2dVertex
 10
134.96436125012
 20
116.3148634017024
 30
0.0
  0
VERTEX
  5
2296
330
2294
100
AcDbEntity
  8
MODEL
100
AcDbVertex
100
AcDb2dVertex
 10
135.6078829610882
 20
116.3148634017024
 30
0.0
  0
SEQEND
  5
2297
330
2294
100
AcDbEntity
  8
MODEL
  0
POLYLINE
  5
2298
330
A
100
AcDbEntity
  8
MODEL
100
AcDb2dPolyline
 66
     1
 10
0.0
 20
0.0
 30
0.0
  0
VERTEX
  5
2299
330
2298
100
AcDbEntity
  8
MODEL
100
AcDbVertex
100
AcDb2dVertex
 10
134.9147402989128
 20
115.8031473423783
 30
0.0
  0
VERTEX
  5
229A
330
2298
100
AcDbEntity
  8
MODEL
100
AcDbVertex
100
AcDb2dVertex
 10
135.6078829610882
 20
115.8031473423783
 30
0.0
  0
SEQEND
  5
229B
330
2298
100
AcDbEntity
  8
MODEL
  0
POLYLINE
  5
229C
330
A
100
AcDbEntity
  8
MODEL
100
AcDb2dPolyline
 66
     1
 10
0.0
 20
0.0
 30
0.0
  0
VERTEX
  5
229D
330
229C
100
AcDbEntity
  8
MODEL
100
AcDbVertex
100
AcDb2dVertex
 10
135.1902399550945
 20
116.9868137826329
 30
0.0
  0
VERTEX
  5
229E
330
229C
100
AcDbEntity
  8
MODEL
100
AcDbVertex
100
AcDb2dVertex
 10
135.1902399550945
 20
116.6849529961225
 30
0.0
  0
SEQEND
  5
229F
330
229C
100
AcDbEntity
  8
MODEL
  0
POLYLINE
  5
22A0
330
A
100
AcDbEntity
  8
MODEL
100
AcDb2dPolyline
 66
     1
 10
0.0
 20
0.0
 30
0.0
  0
VERTEX
  5
22A1
330
22A0
100
AcDbEntity
  8
MODEL
100
AcDbVertex
100
AcDb2dVertex
 10
135.9562633893553
 20
115.5012865558679
 30
0.0
  0
VERTEX
  5
22A2
330
22A0
100
AcDbEntity
  8
MODEL
100
AcDbVertex
100
AcDb2dVertex
 10
135.9562633893553
 20
118.1942569286743
 30
0.0
  0
SEQEND
  5
22A3
330
22A0
100
AcDbEntity
  8
MODEL
  0
POLYLINE
  5
22A4
330
A
100
AcDbEntity
  8
MODEL
100
AcDb2dPolyline
 66
     1
 10
0.0
 20
0.0
 30
0.0
  0
VERTEX
  5
22A5
330
22A4
100
AcDbEntity
  8
MODEL
100
AcDbVertex
100
AcDb2dVertex
 10
135.9562633893553
 20
117.3351942109
 30
0.0
  0
VERTEX
  5
22A6
330
22A4
100
AcDbEntity
  8
MODEL
100
AcDbVertex
100
AcDb2dVertex
 10
135.6078829610882
 20
117.3351942109
 30
0.0
  0
SEQEND
  5
22A7
330
22A4
100
AcDbEntity
  8
MODEL
  0
POLYLINE
  5
22A8
330
A
100
AcDbEntity
  8
MODEL
100
AcDb2dPolyline
 66
     1
 10
0.0
 20
0.0
 30
0.0
  0
VERTEX
  5
22A9
330
22A8
100
AcDbEntity
  8
MODEL
100
AcDbVertex
100
AcDb2dVertex
 10
135.9562633893553
 20
116.3386401074891
 30
0.0
  0
VERTEX
  5
22AA
330
22A8
100
AcDbEntity
  8
MODEL
100
AcDbVertex
100
AcDb2dVertex
 10
135.6078829610882
 20
116.3386401074891
 30
0.0
  0
SEQEND
  5
22AB
330
22A8
100
AcDbEntity
  8
MODEL
  0
POLYLINE
  5
22AC
330
A
100
AcDbEntity
  8
MODEL
100
AcDb2dPolyline
 66
     1
 10
0.0
 20
0.0
 30
0.0
  0
VERTEX
  5
22AD
330
22AC
100
AcDbEntity
  8
MODEL
100
AcDbVertex
100
AcDb2dVertex
 10
135.6078829610882
 20
117.5905353556536
 30
0.0
  0
VERTEX
  5
22AE
330
22AC
100
AcDbEntity
  8
MODEL
100
AcDbVertex
100
AcDb2dVertex
 10
135.9562633893553
 20
117.5905353556536
 30
0.0
  0
SEQEND
  5
22AF
330
22AC
100
AcDbEntity
  8
MODEL
  0
POLYLINE
  5
22B0
330
A
100
AcDbEntity
  8
MODEL
100
AcDb2dPolyline
 66
     1
 10
0.0
 20
0.0
 30
0.0
  0
VERTEX
  5
22B1
330
22B0
100
AcDbEntity
  8
MODEL
100
AcDbVertex
100
AcDb2dVertex
 10
135.6078829610882
 20
116.1050081288886
 30
0.0
  0
VERTEX
  5
22B2
330
22B0
100
AcDbEntity
  8
MODEL
100
AcDbVertex
100
AcDb2dVertex
 10
135.9562633893553
 20
116.1050081288886
 30
0.0
  0
SEQEND
  5
22B3
330
22B0
100
AcDbEntity
  8
MODEL
  0
POLYLINE
  5
22B4
330
A
100
AcDbEntity
  8
MODEL
100
AcDb2dPolyline
 66
     1
 10
0.0
 20
0.0
 30
0.0
  0
VERTEX
  5
22B5
330
22B4
100
AcDbEntity
  8
MODEL
100
AcDbVertex
100
AcDb2dVertex
 10
135.6078829610882
 20
117.892396142164
 30
0.0
  0
VERTEX
  5
22B6
330
22B4
100
AcDbEntity
  8
MODEL
100
AcDbVertex
100
AcDb2dVertex
 10
135.6078829610882
 20
115.8031473423783
 30
0.0
  0
SEQEND
  5
22B7
330
22B4
100
AcDbEntity
  8
MODEL
  0
POLYLINE
  5
22B8
330
A
100
AcDbEntity
  8
MODEL
100
AcDb2dPolyline
 66
     1
 10
0.0
 20
0.0
 30
0.0
  0
VERTEX
  5
22B9
330
22B8
100
AcDbEntity
  8
MODEL
100
AcDbVertex
100
AcDb2dVertex
 10
135.9562633893553
 20
117.5223065477437
 30
0.0
  0
VERTEX
  5
22BA
330
22B8
100
AcDbEntity
  8
MODEL
100
AcDbVertex
100
AcDb2dVertex
 10
135.6078829610882
 20
117.5223065477437
 30
0.0
  0
SEQEND
  5
22BB
330
22B8
100
AcDbEntity
  8
MODEL
  0
POLYLINE
  5
22BC
330
A
100
AcDbEntity
  8
MODEL
100
AcDb2dPolyline
 66
     1
 10
0.0
 20
0.0
 30
0.0
  0
VERTEX
  5
22BD
330
22BC
100
AcDbEntity
  8
MODEL
100
AcDbVertex
100
AcDb2dVertex
 10
88.96843439510388
 20
117.5915691254704
 30
0.0
  0
VERTEX
  5
22BE
330
22BC
100
AcDbEntity
  8
MODEL
100
AcDbVertex
100
AcDb2dVertex
 10
54.85629790144702
 20
117.5915691254704
 30
0.0
  0
SEQEND
  5
22BF
330
22BC
100
AcDbEntity
  8
MODEL
  0
POLYLINE
  5
22C0
330
A
100
AcDbEntity
  8
MODEL
100
AcDb2dPolyline
 66
     1
 10
0.0
 20
0.0
 30
0.0
  0
VERTEX
  5
22C1
330
22C0
100
AcDbEntity
  8
MODEL
100
AcDbVertex
100
AcDb2dVertex
 10
88.96843439510388
 20
116.09156912127
 30
0.0
  0
VERTEX
  5
22C2
330
22C0
100
AcDbEntity
  8
MODEL
100
AcDbVertex
100
AcDb2dVertex
 10
54.85629790144702
 20
116.09156912127
 30
0.0
  0
SEQEND
  5
22C3
330
22C0
100
AcDbEntity
  8
MODEL
  0
POLYLINE
  5
22C4
330
A
100
AcDbEntity
  8
MODEL
100
AcDb2dPolyline
 66
     1
 10
0.0
 20
0.0
 30
0.0
  0
VERTEX
  5
22C5
330
22C4
100
AcDbEntity
  8
MODEL
100
AcDbVertex
100
AcDb2dVertex
 10
31.75629783676044
 20
125.1276514791259
 30
0.0
  0
VERTEX
  5
22C6
330
22C4
100
AcDbEntity
  8
MODEL
100
AcDbVertex
100
AcDb2dVertex
 10
31.68682850507037
 20
125.1276514791259
 30
0.0
  0
SEQEND
  5
22C7
330
22C4
100
AcDbEntity
  8
MODEL
  0
POLYLINE
  5
22C8
330
A
100
AcDbEntity
  8
MODEL
100
AcDb2dPolyline
 66
     1
 10
0.0
 20
0.0
 30
0.0
  0
VERTEX
  5
22C9
330
22C8
100
AcDbEntity
  8
MODEL
100
AcDbVertex
100
AcDb2dVertex
 10
31.61777268130703
 20
124.8497741523657
 30
0.0
  0
VERTEX
  5
22CA
330
22C8
100
AcDbEntity
  8
MODEL
100
AcDbVertex
100
AcDb2dVertex
 10
31.54747633376354
 20
124.8497741523657
 30
0.0
  0
SEQEND
  5
22CB
330
22C8
100
AcDbEntity
  8
MODEL
  0
POLYLINE
  5
22CC
330
A
100
AcDbEntity
  8
MODEL
100
AcDb2dPolyline
 66
     1
 10
0.0
 20
0.0
 30
0.0
  0
VERTEX
  5
22CD
330
22CC
100
AcDbEntity
  8
MODEL
100
AcDbVertex
100
AcDb2dVertex
 10
31.47800700207353
 20
124.5706563018253
 30
0.0
  0
VERTEX
  5
22CE
330
22CC
100
AcDbEntity
  8
MODEL
100
AcDbVertex
100
AcDb2dVertex
 10
31.40771065452998
 20
124.5706563018253
 30
0.0
  0
SEQEND
  5
22CF
330
22CC
100
AcDbEntity
  8
MODEL
  0
POLYLINE
  5
22D0
330
A
100
AcDbEntity
  8
MODEL
100
AcDb2dPolyline
 66
     1
 10
0.0
 20
0.0
 30
0.0
  0
VERTEX
  5
22D1
330
22D0
100
AcDbEntity
  8
MODEL
100
AcDbVertex
100
AcDb2dVertex
 10
31.61777268130703
 20
133.4392641833105
 30
0.0
  0
VERTEX
  5
22D2
330
22D0
100
AcDbEntity
  8
MODEL
100
AcDbVertex
100
AcDb2dVertex
 10
31.54747633376354
 20
133.4392641833105
 30
0.0
  0
SEQEND
  5
22D3
330
22D0
100
AcDbEntity
  8
MODEL
  0
POLYLINE
  5
22D4
330
A
100
AcDbEntity
  8
MODEL
100
AcDb2dPolyline
 66
     1
 10
0.0
 20
0.0
 30
0.0
  0
VERTEX
  5
22D5
330
22D4
100
AcDbEntity
  8
MODEL
100
AcDbVertex
100
AcDb2dVertex
 10
31.61777268130703
 20
132.8582855462597
 30
0.0
  0
VERTEX
  5
22D6
330
22D4
100
AcDbEntity
  8
MODEL
100
AcDbVertex
100
AcDb2dVertex
 10
31.54747633376354
 20
132.8582855462597
 30
0.0
  0
SEQEND
  5
22D7
330
22D4
100
AcDbEntity
  8
MODEL
  0
POLYLINE
  5
22D8
330
A
100
AcDbEntity
  8
MODEL
100
AcDb2dPolyline
 66
     1
 10
0.0
 20
0.0
 30
0.0
  0
VERTEX
  5
22D9
330
22D8
100
AcDbEntity
  8
MODEL
100
AcDbVertex
100
AcDb2dVertex
 10
42.20233508172561
 20
131.0016349552577
 30
0.0
  0
VERTEX
  5
22DA
330
22D8
100
AcDbEntity
  8
MODEL
100
AcDbVertex
100
AcDb2dVertex
 10
39.50957146288255
 20
131.0016349552577
 30
0.0
  0
SEQEND
  5
22DB
330
22D8
100
AcDbEntity
  8
MODEL
  0
POLYLINE
  5
22DC
330
A
100
AcDbEntity
  8
MODEL
100
AcDb2dPolyline
 66
     1
 10
0.0
 20
0.0
 30
0.0
  0
VERTEX
  5
22DD
330
22DC
100
AcDbEntity
  8
MODEL
100
AcDbVertex
100
AcDb2dVertex
 10
34.93700080914078
 20
136.8518417256028
 30
0.0
  0
VERTEX
  5
22DE
330
22DC
100
AcDbEntity
  8
MODEL
100
AcDbVertex
100
AcDb2dVertex
 10
36.37600839414898
 20
137.1764454480831
 30
0.0
  0
VERTEX
  5
22DF
330
22DC
100
AcDbEntity
  8
MODEL
100
AcDbVertex
100
AcDb2dVertex
 10
37.86256939073087
 20
137.4090436568667
 30
0.0
  0
VERTEX
  5
22E0
330
22DC
100
AcDbEntity
  8
MODEL
100
AcDbVertex
100
AcDb2dVertex
 10
39.34830337145917
 20
137.5475688123201
 30
0.0
  0
VERTEX
  5
22E1
330
22DC
100
AcDbEntity
  8
MODEL
100
AcDbVertex
100
AcDb2dVertex
 10
40.85636678023087
 20
137.5951222238936
 30
0.0
  0
VERTEX
  5
22E2
330
22DC
100
AcDbEntity
  8
MODEL
100
AcDbVertex
100
AcDb2dVertex
 10
42.34210076095917
 20
137.5475688123201
 30
0.0
  0
VERTEX
  5
22E3
330
22DC
100
AcDbEntity
  8
MODEL
100
AcDbVertex
100
AcDb2dVertex
 10
43.82700772583399
 20
137.4090436568667
 30
0.0
  0
VERTEX
  5
22E4
330
22DC
100
AcDbEntity
  8
MODEL
100
AcDbVertex
100
AcDb2dVertex
 10
45.31460249223272
 20
137.1764454480831
 30
0.0
  0
VERTEX
  5
22E5
330
22DC
100
AcDbEntity
  8
MODEL
100
AcDbVertex
100
AcDb2dVertex
 10
46.77531924339411
 20
136.8518417256028
 30
0.0
  0
VERTEX
  5
22E6
330
22DC
100
AcDbEntity
  8
MODEL
100
AcDbVertex
100
AcDb2dVertex
 10
34.93700080914078
 20
136.8518417256028
 30
0.0
  0
SEQEND
  5
22E7
330
22DC
100
AcDbEntity
  8
MODEL
  0
POLYLINE
  5
22E8
330
A
100
AcDbEntity
  8
MODEL
100
AcDb2dPolyline
 66
     1
 10
0.0
 20
0.0
 30
0.0
  0
VERTEX
  5
22E9
330
22E8
100
AcDbEntity
  8
MODEL
100
AcDbVertex
100
AcDb2dVertex
 10
50.30460939800491
 20
123.7126273538677
 30
0.0
  0
VERTEX
  5
22EA
330
22E8
100
AcDbEntity
  8
MODEL
100
AcDbVertex
100
AcDb2dVertex
 10
31.40771065452998
 20
123.7126273538677
 30
0.0
  0
SEQEND
  5
22EB
330
22E8
100
AcDbEntity
  8
MODEL
  0
POLYLINE
  5
22EC
330
A
100
AcDbEntity
  8
MODEL
100
AcDb2dPolyline
 66
     1
 10
0.0
 20
0.0
 30
0.0
  0
VERTEX
  5
22ED
330
22EC
100
AcDbEntity
  8
MODEL
100
AcDbVertex
100
AcDb2dVertex
 10
49.09716625196353
 20
125.4998086131797
 30
0.0
  0
VERTEX
  5
22EE
330
22EC
100
AcDbEntity
  8
MODEL
100
AcDbVertex
100
AcDb2dVertex
 10
32.5936513883816
 20
125.4998086131797
 30
0.0
  0
SEQEND
  5
22EF
330
22EC
100
AcDbEntity
  8
MODEL
  0
POLYLINE
  5
22F0
330
A
100
AcDbEntity
  8
MODEL
100
AcDb2dPolyline
 66
     1
 10
0.0
 20
0.0
 30
0.0
  0
VERTEX
  5
22F1
330
22F0
100
AcDbEntity
  8
MODEL
100
AcDbVertex
100
AcDb2dVertex
 10
50.74602910978552
 20
113.7717896523342
 30
0.0
  0
VERTEX
  5
22F2
330
22F0
100
AcDbEntity
  8
MODEL
100
AcDbVertex
100
AcDb2dVertex
 10
34.4966148671769
 20
113.7717896523342
 30
0.0
  0
SEQEND
  5
22F3
330
22F0
100
AcDbEntity
  8
MODEL
  0
POLYLINE
  5
22F4
330
A
100
AcDbEntity
  8
MODEL
100
AcDb2dPolyline
 66
     1
 10
0.0
 20
0.0
 30
0.0
  0
VERTEX
  5
22F5
330
22F4
100
AcDbEntity
  8
MODEL
100
AcDbVertex
100
AcDb2dVertex
 10
46.70709043548425
 20
110.4238216475798
 30
0.0
  0
VERTEX
  5
22F6
330
22F4
100
AcDbEntity
  8
MODEL
100
AcDbVertex
100
AcDb2dVertex
 10
35.00729715668422
 20
110.4238216475798
 30
0.0
  0
SEQEND
  5
22F7
330
22F4
100
AcDbEntity
  8
MODEL
  0
POLYLINE
  5
22F8
330
A
100
AcDbEntity
  8
MODEL
100
AcDb2dPolyline
 66
     1
 10
0.0
 20
0.0
 30
0.0
  0
VERTEX
  5
22F9
330
22F8
100
AcDbEntity
  8
MODEL
100
AcDbVertex
100
AcDb2dVertex
 10
47.14851014726486
 20
110.8879842953302
 30
0.0
  0
VERTEX
  5
22FA
330
22F8
100
AcDbEntity
  8
MODEL
100
AcDbVertex
100
AcDb2dVertex
 10
34.54210073911696
 20
110.8879842953302
 30
0.0
  0
SEQEND
  5
22FB
330
22F8
100
AcDbEntity
  8
MODEL
  0
POLYLINE
  5
22FC
330
A
100
AcDbEntity
  8
MODEL
100
AcDb2dPolyline
 66
     1
 10
0.0
 20
0.0
 30
0.0
  0
VERTEX
  5
22FD
330
22FC
100
AcDbEntity
  8
MODEL
100
AcDbVertex
100
AcDb2dVertex
 10
47.14851014726486
 20
113.3768895823104
 30
0.0
  0
VERTEX
  5
22FE
330
22FC
100
AcDbEntity
  8
MODEL
100
AcDbVertex
100
AcDb2dVertex
 10
34.54210073911696
 20
113.3768895823104
 30
0.0
  0
SEQEND
  5
22FF
330
22FC
100
AcDbEntity
  8
MODEL
  0
POLYLINE
  5
2300
330
A
100
AcDbEntity
  8
MODEL
100
AcDb2dPolyline
 66
     1
 10
0.0
 20
0.0
 30
0.0
  0
VERTEX
  5
2301
330
2300
100
AcDbEntity
  8
MODEL
100
AcDbVertex
100
AcDb2dVertex
 10
42.20233508172561
 20
127.3803392869502
 30
0.0
  0
VERTEX
  5
2302
330
2300
100
AcDbEntity
  8
MODEL
100
AcDbVertex
100
AcDb2dVertex
 10
39.50957146288255
 20
127.3803392869502
 30
0.0
  0
SEQEND
  5
2303
330
2300
100
AcDbEntity
  8
MODEL
  0
POLYLINE
  5
2304
330
A
100
AcDbEntity
  8
MODEL
100
AcDb2dPolyline
 66
     1
 10
0.0
 20
0.0
 30
0.0
  0
VERTEX
  5
2305
330
2304
100
AcDbEntity
  8
MODEL
100
AcDbVertex
100
AcDb2dVertex
 10
47.45037093377516
 20
123.108905780847
 30
0.0
  0
VERTEX
  5
2306
330
2304
100
AcDbEntity
  8
MODEL
100
AcDbVertex
100
AcDb2dVertex
 10
34.2402399526066
 20
123.108905780847
 30
0.0
  0
SEQEND
  5
2307
330
2304
100
AcDbEntity
  8
MODEL
  0
POLYLINE
  5
2308
330
A
100
AcDbEntity
  8
MODEL
100
AcDb2dPolyline
 66
     1
 10
0.0
 20
0.0
 30
0.0
  0
VERTEX
  5
2309
330
2308
100
AcDbEntity
  8
MODEL
100
AcDbVertex
100
AcDb2dVertex
 10
31.54747633376354
 20
133.6946053280641
 30
0.0
  0
VERTEX
  5
230A
330
2308
100
AcDbEntity
  8
MODEL
100
AcDbVertex
100
AcDb2dVertex
 10
50.14230753676469
 20
133.6946053280641
 30
0.0
  0
SEQEND
  5
230B
330
2308
100
AcDbEntity
  8
MODEL
  0
POLYLINE
  5
230C
330
A
100
AcDbEntity
  8
MODEL
100
AcDb2dPolyline
 66
     1
 10
0.0
 20
0.0
 30
0.0
  0
VERTEX
  5
230D
330
230C
100
AcDbEntity
  8
MODEL
100
AcDbVertex
100
AcDb2dVertex
 10
50.14230753676469
 20
132.0457424702421
 30
0.0
  0
VERTEX
  5
230E
330
230C
100
AcDbEntity
  8
MODEL
100
AcDbVertex
100
AcDb2dVertex
 10
31.54747633376354
 20
132.0457424702421
 30
0.0
  0
SEQEND
  5
230F
330
230C
100
AcDbEntity
  8
MODEL
  0
POLYLINE
  5
2310
330
A
100
AcDbEntity
  8
MODEL
100
AcDb2dPolyline
 66
     1
 10
0.0
 20
0.0
 30
0.0
  0
VERTEX
  5
2311
330
2310
100
AcDbEntity
  8
MODEL
100
AcDbVertex
100
AcDb2dVertex
 10
50.30460939800491
 20
136.0847845215251
 30
0.0
  0
VERTEX
  5
2312
330
2310
100
AcDbEntity
  8
MODEL
100
AcDbVertex
100
AcDb2dVertex
 10
31.40771065452998
 20
136.0847845215251
 30
0.0
  0
SEQEND
  5
2313
330
2310
100
AcDbEntity
  8
MODEL
  0
POLYLINE
  5
2314
330
A
100
AcDbEntity
  8
MODEL
100
AcDb2dPolyline
 66
     1
 10
0.0
 20
0.0
 30
0.0
  0
VERTEX
  5
2315
330
2314
100
AcDbEntity
  8
MODEL
100
AcDbVertex
100
AcDb2dVertex
 10
50.14230753676469
 20
136.3876790778523
 30
0.0
  0
VERTEX
  5
2316
330
2314
100
AcDbEntity
  8
MODEL
100
AcDbVertex
100
AcDb2dVertex
 10
31.54747633376354
 20
136.3876790778523
 30
0.0
  0
SEQEND
  5
2317
330
2314
100
AcDbEntity
  8
MODEL
  0
POLYLINE
  5
2318
330
A
100
AcDbEntity
  8
MODEL
100
AcDb2dPolyline
 66
     1
 10
0.0
 20
0.0
 30
0.0
  0
VERTEX
  5
2319
330
2318
100
AcDbEntity
  8
MODEL
100
AcDbVertex
100
AcDb2dVertex
 10
47.49482303589826
 20
113.7717896523342
 30
0.0
  0
VERTEX
  5
231A
330
2318
100
AcDbEntity
  8
MODEL
100
AcDbVertex
100
AcDb2dVertex
 10
47.12473344147799
 20
114.4222376210751
 30
0.0
  0
VERTEX
  5
231B
330
2318
100
AcDbEntity
  8
MODEL
100
AcDbVertex
100
AcDb2dVertex
 10
46.84561559093771
 20
115.0950150178591
 30
0.0
  0
VERTEX
  5
231C
330
2318
100
AcDbEntity
  8
MODEL
100
AcDbVertex
100
AcDb2dVertex
 10
46.65953702391073
 20
115.8145188103632
 30
0.0
  0
VERTEX
  5
231D
330
2318
100
AcDbEntity
  8
MODEL
100
AcDbVertex
100
AcDb2dVertex
 10
46.56649774039727
 20
116.5580060626175
 30
0.0
  0
VERTEX
  5
231E
330
2318
100
AcDbEntity
  8
MODEL
100
AcDbVertex
100
AcDb2dVertex
 10
46.56649774039727
 20
117.3002527910916
 30
0.0
  0
VERTEX
  5
231F
330
2318
100
AcDbEntity
  8
MODEL
100
AcDbVertex
100
AcDb2dVertex
 10
46.68331372969755
 20
118.0433265354192
 30
0.0
  0
VERTEX
  5
2320
330
2318
100
AcDbEntity
  8
MODEL
100
AcDbVertex
100
AcDb2dVertex
 10
46.89213523269433
 20
118.7400873919534
 30
0.0
  0
VERTEX
  5
2321
330
2318
100
AcDbEntity
  8
MODEL
100
AcDbVertex
100
AcDb2dVertex
 10
47.19399601920475
 20
119.436021232634
 30
0.0
  0
VERTEX
  5
2322
330
2318
100
AcDbEntity
  8
MODEL
100
AcDbVertex
100
AcDb2dVertex
 10
47.58889608922851
 20
120.0624857416247
 30
0.0
  0
SEQEND
  5
2323
330
2318
100
AcDbEntity
  8
MODEL
  0
POLYLINE
  5
2324
330
A
100
AcDbEntity
  8
MODEL
100
AcDb2dPolyline
 66
     1
 10
0.0
 20
0.0
 30
0.0
  0
VERTEX
  5
2325
330
2324
100
AcDbEntity
  8
MODEL
100
AcDbVertex
100
AcDb2dVertex
 10
54.85629790144702
 20
115.8612452060833
 30
0.0
  0
VERTEX
  5
2326
330
2324
100
AcDbEntity
  8
MODEL
100
AcDbVertex
100
AcDb2dVertex
 10
54.62266592284658
 20
115.582127355543
 30
0.0
  0
VERTEX
  5
2327
330
2324
100
AcDbEntity
  8
MODEL
100
AcDbVertex
100
AcDb2dVertex
 10
54.34458184212298
 20
115.3505629165761
 30
0.0
  0
SEQEND
  5
2328
330
2324
100
AcDbEntity
  8
MODEL
  0
POLYLINE
  5
2329
330
A
100
AcDbEntity
  8
MODEL
100
AcDb2dPolyline
 66
     1
 10
0.0
 20
0.0
 30
0.0
  0
VERTEX
  5
232A
330
2329
100
AcDbEntity
  8
MODEL
100
AcDbVertex
100
AcDb2dVertex
 10
49.86318968622442
 20
113.7717896523342
 30
0.0
  0
VERTEX
  5
232B
330
2329
100
AcDbEntity
  8
MODEL
100
AcDbVertex
100
AcDb2dVertex
 10
49.86318968622442
 20
119.9239605861713
 30
0.0
  0
SEQEND
  5
232C
330
2329
100
AcDbEntity
  8
MODEL
  0
POLYLINE
  5
232D
330
A
100
AcDbEntity
  8
MODEL
100
AcDb2dPolyline
 66
     1
 10
0.0
 20
0.0
 30
0.0
  0
VERTEX
  5
232E
330
232D
100
AcDbEntity
  8
MODEL
100
AcDbVertex
100
AcDb2dVertex
 10
50.74602910978552
 20
120.2258213726817
 30
0.0
  0
VERTEX
  5
232F
330
232D
100
AcDbEntity
  8
MODEL
100
AcDbVertex
100
AcDb2dVertex
 10
50.74602910978552
 20
113.4699288658239
 30
0.0
  0
SEQEND
  5
2330
330
232D
100
AcDbEntity
  8
MODEL
  0
POLYLINE
  5
2331
330
A
100
AcDbEntity
  8
MODEL
100
AcDb2dPolyline
 66
     1
 10
0.0
 20
0.0
 30
0.0
  0
VERTEX
  5
2332
330
2331
100
AcDbEntity
  8
MODEL
100
AcDbVertex
100
AcDb2dVertex
 10
51.65161146931649
 20
120.3403630683849
 30
0.0
  0
VERTEX
  5
2333
330
2331
100
AcDbEntity
  8
MODEL
100
AcDbVertex
100
AcDb2dVertex
 10
51.65161146931649
 20
113.3768895823104
 30
0.0
  0
SEQEND
  5
2334
330
2331
100
AcDbEntity
  8
MODEL
  0
POLYLINE
  5
2335
330
A
100
AcDbEntity
  8
MODEL
100
AcDb2dPolyline
 66
     1
 10
0.0
 20
0.0
 30
0.0
  0
VERTEX
  5
2336
330
2335
100
AcDbEntity
  8
MODEL
100
AcDbVertex
100
AcDb2dVertex
 10
54.34458184212298
 20
113.9330577437576
 30
0.0
  0
VERTEX
  5
2337
330
2335
100
AcDbEntity
  8
MODEL
100
AcDbVertex
100
AcDb2dVertex
 10
54.34458184212298
 20
119.7841949069378
 30
0.0
  0
SEQEND
  5
2338
330
2335
100
AcDbEntity
  8
MODEL
  0
POLYLINE
  5
2339
330
A
100
AcDbEntity
  8
MODEL
100
AcDb2dPolyline
 66
     1
 10
0.0
 20
0.0
 30
0.0
  0
VERTEX
  5
233A
330
2339
100
AcDbEntity
  8
MODEL
100
AcDbVertex
100
AcDb2dVertex
 10
53.46174241856187
 20
120.3403630683849
 30
0.0
  0
VERTEX
  5
233B
330
2339
100
AcDbEntity
  8
MODEL
100
AcDbVertex
100
AcDb2dVertex
 10
53.46174241856187
 20
113.3768895823104
 30
0.0
  0
SEQEND
  5
233C
330
2339
100
AcDbEntity
  8
MODEL
  0
POLYLINE
  5
233D
330
A
100
AcDbEntity
  8
MODEL
100
AcDb2dPolyline
 66
     1
 10
0.0
 20
0.0
 30
0.0
  0
VERTEX
  5
233E
330
233D
100
AcDbEntity
  8
MODEL
100
AcDbVertex
100
AcDb2dVertex
 10
54.34458184212298
 20
113.9330577437576
 30
0.0
  0
VERTEX
  5
233F
330
233D
100
AcDbEntity
  8
MODEL
100
AcDbVertex
100
AcDb2dVertex
 10
54.32080513633628
 20
113.7482197005108
 30
0.0
  0
VERTEX
  5
2340
330
233D
100
AcDbEntity
  8
MODEL
100
AcDbVertex
100
AcDb2dVertex
 10
54.22879962263954
 20
113.6084540212772
 30
0.0
  0
VERTEX
  5
2341
330
233D
100
AcDbEntity
  8
MODEL
100
AcDbVertex
100
AcDb2dVertex
 10
54.06546399158248
 20
113.5164485075807
 30
0.0
  0
VERTEX
  5
2342
330
233D
100
AcDbEntity
  8
MODEL
100
AcDbVertex
100
AcDb2dVertex
 10
53.90419590015921
 20
113.4699288658239
 30
0.0
  0
SEQEND
  5
2343
330
233D
100
AcDbEntity
  8
MODEL
  0
POLYLINE
  5
2344
330
A
100
AcDbEntity
  8
MODEL
100
AcDb2dPolyline
 66
     1
 10
0.0
 20
0.0
 30
0.0
  0
VERTEX
  5
2345
330
2344
100
AcDbEntity
  8
MODEL
100
AcDbVertex
100
AcDb2dVertex
 10
47.14851014726486
 20
113.7717896523342
 30
0.0
  0
VERTEX
  5
2346
330
2344
100
AcDbEntity
  8
MODEL
100
AcDbVertex
100
AcDb2dVertex
 10
46.70709043548425
 20
113.3768895823104
 30
0.0
  0
SEQEND
  5
2347
330
2344
100
AcDbEntity
  8
MODEL
  0
POLYLINE
  5
2348
330
A
100
AcDbEntity
  8
MODEL
100
AcDb2dPolyline
 66
     1
 10
0.0
 20
0.0
 30
0.0
  0
VERTEX
  5
2349
330
2348
100
AcDbEntity
  8
MODEL
100
AcDbVertex
100
AcDb2dVertex
 10
47.14851014726486
 20
110.8879842953302
 30
0.0
  0
VERTEX
  5
234A
330
2348
100
AcDbEntity
  8
MODEL
100
AcDbVertex
100
AcDb2dVertex
 10
46.70709043548425
 20
110.4238216475798
 30
0.0
  0
SEQEND
  5
234B
330
2348
100
AcDbEntity
  8
MODEL
  0
POLYLINE
  5
234C
330
A
100
AcDbEntity
  8
MODEL
100
AcDb2dPolyline
 66
     1
 10
0.0
 20
0.0
 30
0.0
  0
VERTEX
  5
234D
330
234C
100
AcDbEntity
  8
MODEL
100
AcDbVertex
100
AcDb2dVertex
 10
50.74602910978552
 20
114.1203768345647
 30
0.0
  0
VERTEX
  5
234E
330
234C
100
AcDbEntity
  8
MODEL
100
AcDbVertex
100
AcDb2dVertex
 10
49.86318968622442
 20
114.1203768345647
 30
0.0
  0
SEQEND
  5
234F
330
234C
100
AcDbEntity
  8
MODEL
  0
POLYLINE
  5
2350
330
A
100
AcDbEntity
  8
MODEL
100
AcDb2dPolyline
 66
     1
 10
0.0
 20
0.0
 30
0.0
  0
VERTEX
  5
2351
330
2350
100
AcDbEntity
  8
MODEL
100
AcDbVertex
100
AcDb2dVertex
 10
51.65161146931649
 20
113.3768895823104
 30
0.0
  0
VERTEX
  5
2352
330
2350
100
AcDbEntity
  8
MODEL
100
AcDbVertex
100
AcDb2dVertex
 10
53.46174241856187
 20
113.3768895823104
 30
0.0
  0
SEQEND
  5
2353
330
2350
100
AcDbEntity
  8
MODEL
  0
POLYLINE
  5
2354
330
A
100
AcDbEntity
  8
MODEL
100
AcDb2dPolyline
 66
     1
 10
0.0
 20
0.0
 30
0.0
  0
VERTEX
  5
2355
330
2354
100
AcDbEntity
  8
MODEL
100
AcDbVertex
100
AcDb2dVertex
 10
50.74602910978552
 20
113.4699288658239
 30
0.0
  0
VERTEX
  5
2356
330
2354
100
AcDbEntity
  8
MODEL
100
AcDbVertex
100
AcDb2dVertex
 10
51.65161146931649
 20
113.4699288658239
 30
0.0
  0
SEQEND
  5
2357
330
2354
100
AcDbEntity
  8
MODEL
  0
POLYLINE
  5
2358
330
A
100
AcDbEntity
  8
MODEL
100
AcDb2dPolyline
 66
     1
 10
0.0
 20
0.0
 30
0.0
  0
VERTEX
  5
2359
330
2358
100
AcDbEntity
  8
MODEL
100
AcDbVertex
100
AcDb2dVertex
 10
53.46174241856187
 20
113.4699288658239
 30
0.0
  0
VERTEX
  5
235A
330
2358
100
AcDbEntity
  8
MODEL
100
AcDbVertex
100
AcDb2dVertex
 10
53.90419590015921
 20
113.4699288658239
 30
0.0
  0
SEQEND
  5
235B
330
2358
100
AcDbEntity
  8
MODEL
  0
POLYLINE
  5
235C
330
A
100
AcDbEntity
  8
MODEL
100
AcDb2dPolyline
 66
     1
 10
0.0
 20
0.0
 30
0.0
  0
VERTEX
  5
235D
330
235C
100
AcDbEntity
  8
MODEL
100
AcDbVertex
100
AcDb2dVertex
 10
47.14851014726486
 20
110.8879842953302
 30
0.0
  0
VERTEX
  5
235E
330
235C
100
AcDbEntity
  8
MODEL
100
AcDbVertex
100
AcDb2dVertex
 10
47.14851014726486
 20
113.3303699405537
 30
0.0
  0
VERTEX
  5
235F
330
235C
100
AcDbEntity
  8
MODEL
100
AcDbVertex
100
AcDb2dVertex
 10
47.19399601920475
 20
113.4937055716107
 30
0.0
  0
VERTEX
  5
2360
330
235C
100
AcDbEntity
  8
MODEL
100
AcDbVertex
100
AcDb2dVertex
 10
47.28703530271815
 20
113.654973663034
 30
0.0
  0
VERTEX
  5
2361
330
235C
100
AcDbEntity
  8
MODEL
100
AcDbVertex
100
AcDb2dVertex
 10
47.42659422798835
 20
113.7482197005108
 30
0.0
  0
VERTEX
  5
2362
330
235C
100
AcDbEntity
  8
MODEL
100
AcDbVertex
100
AcDb2dVertex
 10
47.61163902519849
 20
113.7717896523342
 30
0.0
  0
SEQEND
  5
2363
330
235C
100
AcDbEntity
  8
MODEL
  0
POLYLINE
  5
2364
330
A
100
AcDbEntity
  8
MODEL
100
AcDb2dPolyline
 66
     1
 10
0.0
 20
0.0
 30
0.0
  0
VERTEX
  5
2365
330
2364
100
AcDbEntity
  8
MODEL
100
AcDbVertex
100
AcDb2dVertex
 10
46.70709043548425
 20
110.4238216475798
 30
0.0
  0
VERTEX
  5
2366
330
2364
100
AcDbEntity
  8
MODEL
100
AcDbVertex
100
AcDb2dVertex
 10
46.70709043548425
 20
113.3768895823104
 30
0.0
  0
SEQEND
  5
2367
330
2364
100
AcDbEntity
  8
MODEL
  0
POLYLINE
  5
2368
330
A
100
AcDbEntity
  8
MODEL
100
AcDb2dPolyline
 66
     1
 10
0.0
 20
0.0
 30
0.0
  0
VERTEX
  5
2369
330
2368
100
AcDbEntity
  8
MODEL
100
AcDbVertex
100
AcDb2dVertex
 10
46.77531924339411
 20
136.8518417256028
 30
0.0
  0
VERTEX
  5
236A
330
2368
100
AcDbEntity
  8
MODEL
100
AcDbVertex
100
AcDb2dVertex
 10
46.6367940879407
 20
136.3876790778523
 30
0.0
  0
SEQEND
  5
236B
330
2368
100
AcDbEntity
  8
MODEL
  0
POLYLINE
  5
236C
330
A
100
AcDbEntity
  8
MODEL
100
AcDb2dPolyline
 66
     1
 10
0.0
 20
0.0
 30
0.0
  0
VERTEX
  5
236D
330
236C
100
AcDbEntity
  8
MODEL
100
AcDbVertex
100
AcDb2dVertex
 10
47.10199050550801
 20
133.6946053280641
 30
0.0
  0
VERTEX
  5
236E
330
236C
100
AcDbEntity
  8
MODEL
100
AcDbVertex
100
AcDb2dVertex
 10
47.26325859693151
 20
134.2052876175713
 30
0.0
  0
VERTEX
  5
236F
330
236C
100
AcDbEntity
  8
MODEL
100
AcDbVertex
100
AcDb2dVertex
 10
47.51859974168508
 20
134.6456735595351
 30
0.0
  0
VERTEX
  5
2370
330
236C
100
AcDbEntity
  8
MODEL
100
AcDbVertex
100
AcDb2dVertex
 10
47.82046052819533
 20
135.0643503353457
 30
0.0
  0
VERTEX
  5
2371
330
236C
100
AcDbEntity
  8
MODEL
100
AcDbVertex
100
AcDb2dVertex
 10
48.21536059821909
 20
135.4128341405944
 30
0.0
  0
VERTEX
  5
2372
330
236C
100
AcDbEntity
  8
MODEL
100
AcDbVertex
100
AcDb2dVertex
 10
48.65678030999976
 20
135.713661157288
 30
0.0
  0
VERTEX
  5
2373
330
236C
100
AcDbEntity
  8
MODEL
100
AcDbVertex
100
AcDb2dVertex
 10
49.12094295775023
 20
135.9235164301017
 30
0.0
  0
VERTEX
  5
2374
330
236C
100
AcDbEntity
  8
MODEL
100
AcDbVertex
100
AcDb2dVertex
 10
49.63265901707427
 20
136.0392986495851
 30
0.0
  0
VERTEX
  5
2375
330
236C
100
AcDbEntity
  8
MODEL
100
AcDbVertex
100
AcDb2dVertex
 10
50.14230753676469
 20
136.0847845215251
 30
0.0
  0
SEQEND
  5
2376
330
236C
100
AcDbEntity
  8
MODEL
  0
POLYLINE
  5
2377
330
A
100
AcDbEntity
  8
MODEL
100
AcDb2dPolyline
 66
     1
 10
0.0
 20
0.0
 30
0.0
  0
VERTEX
  5
2378
330
2377
100
AcDbEntity
  8
MODEL
100
AcDbVertex
100
AcDb2dVertex
 10
53.90419590015921
 20
120.2258213726817
 30
0.0
  0
VERTEX
  5
2379
330
2377
100
AcDbEntity
  8
MODEL
100
AcDbVertex
100
AcDb2dVertex
 10
54.06546399158248
 20
120.2018379129316
 30
0.0
  0
VERTEX
  5
237A
330
2377
100
AcDbEntity
  8
MODEL
100
AcDbVertex
100
AcDb2dVertex
 10
54.22879962263954
 20
120.1087986294181
 30
0.0
  0
VERTEX
  5
237B
330
2377
100
AcDbEntity
  8
MODEL
100
AcDbVertex
100
AcDb2dVertex
 10
54.32080513633628
 20
119.9475305379947
 30
0.0
  0
VERTEX
  5
237C
330
2377
100
AcDbEntity
  8
MODEL
100
AcDbVertex
100
AcDb2dVertex
 10
54.34458184212298
 20
119.7841949069378
 30
0.0
  0
SEQEND
  5
237D
330
2377
100
AcDbEntity
  8
MODEL
  0
POLYLINE
  5
237E
330
A
100
AcDbEntity
  8
MODEL
100
AcDb2dPolyline
 66
     1
 10
0.0
 20
0.0
 30
0.0
  0
VERTEX
  5
237F
330
237E
100
AcDbEntity
  8
MODEL
100
AcDbVertex
100
AcDb2dVertex
 10
54.34458184212298
 20
118.3451873219295
 30
0.0
  0
VERTEX
  5
2380
330
237E
100
AcDbEntity
  8
MODEL
100
AcDbVertex
100
AcDb2dVertex
 10
54.62266592284658
 20
118.1363658189326
 30
0.0
  0
VERTEX
  5
2381
330
237E
100
AcDbEntity
  8
MODEL
100
AcDbVertex
100
AcDb2dVertex
 10
54.85629790144702
 20
117.8584884921724
 30
0.0
  0
VERTEX
  5
2382
330
237E
100
AcDbEntity
  8
MODEL
100
AcDbVertex
100
AcDb2dVertex
 10
54.85629790144702
 20
115.8612452060833
 30
0.0
  0
SEQEND
  5
2383
330
237E
100
AcDbEntity
  8
MODEL
  0
POLYLINE
  5
2384
330
A
100
AcDbEntity
  8
MODEL
100
AcDb2dPolyline
 66
     1
 10
0.0
 20
0.0
 30
0.0
  0
VERTEX
  5
2385
330
2384
100
AcDbEntity
  8
MODEL
100
AcDbVertex
100
AcDb2dVertex
 10
46.84561559093771
 20
125.4998086131797
 30
0.0
  0
VERTEX
  5
2386
330
2384
100
AcDbEntity
  8
MODEL
100
AcDbVertex
100
AcDb2dVertex
 10
46.84561559093771
 20
127.3803392869502
 30
0.0
  0
SEQEND
  5
2387
330
2384
100
AcDbEntity
  8
MODEL
  0
POLYLINE
  5
2388
330
A
100
AcDbEntity
  8
MODEL
100
AcDb2dPolyline
 66
     1
 10
0.0
 20
0.0
 30
0.0
  0
VERTEX
  5
2389
330
2388
100
AcDbEntity
  8
MODEL
100
AcDbVertex
100
AcDb2dVertex
 10
49.09716625196353
 20
125.4998086131797
 30
0.0
  0
VERTEX
  5
238A
330
2388
100
AcDbEntity
  8
MODEL
100
AcDbVertex
100
AcDb2dVertex
 10
49.42280374426065
 20
125.4522552016062
 30
0.0
  0
VERTEX
  5
238B
330
2388
100
AcDbEntity
  8
MODEL
100
AcDbVertex
100
AcDb2dVertex
 10
49.70088782498419
 20
125.3364729821227
 30
0.0
  0
VERTEX
  5
238C
330
2388
100
AcDbEntity
  8
MODEL
100
AcDbVertex
100
AcDb2dVertex
 10
49.95622896973788
 20
125.151634938876
 30
0.0
  0
VERTEX
  5
238D
330
2388
100
AcDbEntity
  8
MODEL
100
AcDbVertex
100
AcDb2dVertex
 10
50.14230753676469
 20
124.896087040159
 30
0.0
  0
VERTEX
  5
238E
330
2388
100
AcDbEntity
  8
MODEL
100
AcDbVertex
100
AcDb2dVertex
 10
50.25808975624824
 20
124.6169691896186
 30
0.0
  0
VERTEX
  5
238F
330
2388
100
AcDbEntity
  8
MODEL
100
AcDbVertex
100
AcDb2dVertex
 10
50.30460939800491
 20
124.3151084031083
 30
0.0
  0
SEQEND
  5
2390
330
2388
100
AcDbEntity
  8
MODEL
  0
POLYLINE
  5
2391
330
A
100
AcDbEntity
  8
MODEL
100
AcDb2dPolyline
 66
     1
 10
0.0
 20
0.0
 30
0.0
  0
VERTEX
  5
2392
330
2391
100
AcDbEntity
  8
MODEL
100
AcDbVertex
100
AcDb2dVertex
 10
47.45037093377516
 20
120.3879164799584
 30
0.0
  0
VERTEX
  5
2393
330
2391
100
AcDbEntity
  8
MODEL
100
AcDbVertex
100
AcDb2dVertex
 10
47.45037093377516
 20
123.4511832011485
 30
0.0
  0
SEQEND
  5
2394
330
2391
100
AcDbEntity
  8
MODEL
  0
POLYLINE
  5
2395
330
A
100
AcDbEntity
  8
MODEL
100
AcDb2dPolyline
 66
     1
 10
0.0
 20
0.0
 30
0.0
  0
VERTEX
  5
2396
330
2395
100
AcDbEntity
  8
MODEL
100
AcDbVertex
100
AcDb2dVertex
 10
50.74602910978552
 20
119.5753734039409
 30
0.0
  0
VERTEX
  5
2397
330
2395
100
AcDbEntity
  8
MODEL
100
AcDbVertex
100
AcDb2dVertex
 10
49.86318968622442
 20
119.5753734039409
 30
0.0
  0
SEQEND
  5
2398
330
2395
100
AcDbEntity
  8
MODEL
  0
POLYLINE
  5
2399
330
A
100
AcDbEntity
  8
MODEL
100
AcDb2dPolyline
 66
     1
 10
0.0
 20
0.0
 30
0.0
  0
VERTEX
  5
239A
330
2399
100
AcDbEntity
  8
MODEL
100
AcDbVertex
100
AcDb2dVertex
 10
50.74602910978552
 20
119.9239605861713
 30
0.0
  0
VERTEX
  5
239B
330
2399
100
AcDbEntity
  8
MODEL
100
AcDbVertex
100
AcDb2dVertex
 10
47.91349981170885
 20
119.9239605861713
 30
0.0
  0
SEQEND
  5
239C
330
2399
100
AcDbEntity
  8
MODEL
  0
POLYLINE
  5
239D
330
A
100
AcDbEntity
  8
MODEL
100
AcDb2dPolyline
 66
     1
 10
0.0
 20
0.0
 30
0.0
  0
VERTEX
  5
239E
330
239D
100
AcDbEntity
  8
MODEL
100
AcDbVertex
100
AcDb2dVertex
 10
51.65161146931649
 20
120.3403630683849
 30
0.0
  0
VERTEX
  5
239F
330
239D
100
AcDbEntity
  8
MODEL
100
AcDbVertex
100
AcDb2dVertex
 10
53.46174241856187
 20
120.3403630683849
 30
0.0
  0
SEQEND
  5
23A0
330
239D
100
AcDbEntity
  8
MODEL
  0
POLYLINE
  5
23A1
330
A
100
AcDbEntity
  8
MODEL
100
AcDb2dPolyline
 66
     1
 10
0.0
 20
0.0
 30
0.0
  0
VERTEX
  5
23A2
330
23A1
100
AcDbEntity
  8
MODEL
100
AcDbVertex
100
AcDb2dVertex
 10
51.65161146931649
 20
120.2258213726817
 30
0.0
  0
VERTEX
  5
23A3
330
23A1
100
AcDbEntity
  8
MODEL
100
AcDbVertex
100
AcDb2dVertex
 10
50.74602910978552
 20
120.2258213726817
 30
0.0
  0
SEQEND
  5
23A4
330
23A1
100
AcDbEntity
  8
MODEL
  0
POLYLINE
  5
23A5
330
A
100
AcDbEntity
  8
MODEL
100
AcDb2dPolyline
 66
     1
 10
0.0
 20
0.0
 30
0.0
  0
VERTEX
  5
23A6
330
23A5
100
AcDbEntity
  8
MODEL
100
AcDbVertex
100
AcDb2dVertex
 10
53.90419590015921
 20
120.2258213726817
 30
0.0
  0
VERTEX
  5
23A7
330
23A5
100
AcDbEntity
  8
MODEL
100
AcDbVertex
100
AcDb2dVertex
 10
53.46174241856187
 20
120.2258213726817
 30
0.0
  0
SEQEND
  5
23A8
330
23A5
100
AcDbEntity
  8
MODEL
  0
POLYLINE
  5
23A9
330
A
100
AcDbEntity
  8
MODEL
100
AcDb2dPolyline
 66
     1
 10
0.0
 20
0.0
 30
0.0
  0
VERTEX
  5
23AA
330
23A9
100
AcDbEntity
  8
MODEL
100
AcDbVertex
100
AcDb2dVertex
 10
47.91349981170885
 20
119.9239605861713
 30
0.0
  0
VERTEX
  5
23AB
330
23A9
100
AcDbEntity
  8
MODEL
100
AcDbVertex
100
AcDb2dVertex
 10
47.72845501449871
 20
119.9702734739646
 30
0.0
  0
VERTEX
  5
23AC
330
23A9
100
AcDbEntity
  8
MODEL
100
AcDbVertex
100
AcDb2dVertex
 10
47.58889608922851
 20
120.0624857416247
 30
0.0
  0
VERTEX
  5
23AD
330
23A9
100
AcDbEntity
  8
MODEL
100
AcDbVertex
100
AcDb2dVertex
 10
47.49482303589826
 20
120.2018379129316
 30
0.0
  0
VERTEX
  5
23AE
330
23A9
100
AcDbEntity
  8
MODEL
100
AcDbVertex
100
AcDb2dVertex
 10
47.45037093377516
 20
120.3879164799584
 30
0.0
  0
SEQEND
  5
23AF
330
23A9
100
AcDbEntity
  8
MODEL
  0
POLYLINE
  5
23B0
330
A
100
AcDbEntity
  8
MODEL
100
AcDb2dPolyline
 66
     1
 10
0.0
 20
0.0
 30
0.0
  0
VERTEX
  5
23B1
330
23B0
100
AcDbEntity
  8
MODEL
100
AcDbVertex
100
AcDb2dVertex
 10
47.45037093377516
 20
122.8752738022466
 30
0.0
  0
VERTEX
  5
23B2
330
23B0
100
AcDbEntity
  8
MODEL
100
AcDbVertex
100
AcDb2dVertex
 10
47.47311386974508
 20
122.9918830375834
 30
0.0
  0
VERTEX
  5
23B3
330
23B0
100
AcDbEntity
  8
MODEL
100
AcDbVertex
100
AcDb2dVertex
 10
47.56511938344181
 20
123.108905780847
 30
0.0
  0
VERTEX
  5
23B4
330
23B0
100
AcDbEntity
  8
MODEL
100
AcDbVertex
100
AcDb2dVertex
 10
47.68193537274198
 20
123.1543916527869
 30
0.0
  0
VERTEX
  5
23B5
330
23B0
100
AcDbEntity
  8
MODEL
100
AcDbVertex
100
AcDb2dVertex
 10
49.39902703847389
 20
123.5956046106042
 30
0.0
  0
SEQEND
  5
23B6
330
23B0
100
AcDbEntity
  8
MODEL
  0
POLYLINE
  5
23B7
330
A
100
AcDbEntity
  8
MODEL
100
AcDb2dPolyline
 66
     1
 10
0.0
 20
0.0
 30
0.0
  0
VERTEX
  5
23B8
330
23B7
100
AcDbEntity
  8
MODEL
100
AcDbVertex
100
AcDb2dVertex
 10
50.30460939800491
 20
136.0847845215251
 30
0.0
  0
VERTEX
  5
23B9
330
23B7
100
AcDbEntity
  8
MODEL
100
AcDbVertex
100
AcDb2dVertex
 10
50.14230753676469
 20
136.3876790778523
 30
0.0
  0
SEQEND
  5
23BA
330
23B7
100
AcDbEntity
  8
MODEL
  0
POLYLINE
  5
23BB
330
A
100
AcDbEntity
  8
MODEL
100
AcDb2dPolyline
 66
     1
 10
0.0
 20
0.0
 30
0.0
  0
VERTEX
  5
23BC
330
23BB
100
AcDbEntity
  8
MODEL
100
AcDbVertex
100
AcDb2dVertex
 10
50.14230753676469
 20
133.6946053280641
 30
0.0
  0
VERTEX
  5
23BD
330
23BB
100
AcDbEntity
  8
MODEL
100
AcDbVertex
100
AcDb2dVertex
 10
50.14230753676469
 20
132.0457424702421
 30
0.0
  0
SEQEND
  5
23BE
330
23BB
100
AcDbEntity
  8
MODEL
  0
POLYLINE
  5
23BF
330
A
100
AcDbEntity
  8
MODEL
100
AcDb2dPolyline
 66
     1
 10
0.0
 20
0.0
 30
0.0
  0
VERTEX
  5
23C0
330
23BF
100
AcDbEntity
  8
MODEL
100
AcDbVertex
100
AcDb2dVertex
 10
50.30460939800491
 20
123.7126273538677
 30
0.0
  0
VERTEX
  5
23C1
330
23BF
100
AcDbEntity
  8
MODEL
100
AcDbVertex
100
AcDb2dVertex
 10
50.30460939800491
 20
124.3151084031083
 30
0.0
  0
SEQEND
  5
23C2
330
23BF
100
AcDbEntity
  8
MODEL
  0
POLYLINE
  5
23C3
330
A
100
AcDbEntity
  8
MODEL
100
AcDb2dPolyline
 66
     1
 10
0.0
 20
0.0
 30
0.0
  0
VERTEX
  5
23C4
330
23C3
100
AcDbEntity
  8
MODEL
100
AcDbVertex
100
AcDb2dVertex
 10
42.20233508172561
 20
131.0016349552577
 30
0.0
  0
VERTEX
  5
23C5
330
23C3
100
AcDbEntity
  8
MODEL
100
AcDbVertex
100
AcDb2dVertex
 10
42.48000565452247
 20
130.955115313501
 30
0.0
  0
VERTEX
  5
23C6
330
23C3
100
AcDbEntity
  8
MODEL
100
AcDbVertex
100
AcDb2dVertex
 10
42.73638056909289
 20
130.8155563882308
 30
0.0
  0
VERTEX
  5
23C7
330
23C3
100
AcDbEntity
  8
MODEL
100
AcDbVertex
100
AcDb2dVertex
 10
42.92245913611981
 20
130.6305115910206
 30
0.0
  0
VERTEX
  5
23C8
330
23C3
100
AcDbEntity
  8
MODEL
100
AcDbVertex
100
AcDb2dVertex
 10
43.06201806139001
 20
130.3741366764502
 30
0.0
  0
VERTEX
  5
23C9
330
23C3
100
AcDbEntity
  8
MODEL
100
AcDbVertex
100
AcDb2dVertex
 10
43.10750393333001
 20
130.0960525957266
 30
0.0
  0
SEQEND
  5
23CA
330
23C3
100
AcDbEntity
  8
MODEL
  0
POLYLINE
  5
23CB
330
A
100
AcDbEntity
  8
MODEL
100
AcDb2dPolyline
 66
     1
 10
0.0
 20
0.0
 30
0.0
  0
VERTEX
  5
23CC
330
23CB
100
AcDbEntity
  8
MODEL
100
AcDbVertex
100
AcDb2dVertex
 10
46.24189401791688
 20
127.984060859971
 30
0.0
  0
VERTEX
  5
23CD
330
23CB
100
AcDbEntity
  8
MODEL
100
AcDbVertex
100
AcDb2dVertex
 10
46.24189401791688
 20
130.397913382237
 30
0.0
  0
SEQEND
  5
23CE
330
23CB
100
AcDbEntity
  8
MODEL
  0
POLYLINE
  5
23CF
330
A
100
AcDbEntity
  8
MODEL
100
AcDb2dPolyline
 66
     1
 10
0.0
 20
0.0
 30
0.0
  0
VERTEX
  5
23D0
330
23CF
100
AcDbEntity
  8
MODEL
100
AcDbVertex
100
AcDb2dVertex
 10
46.84561559093771
 20
131.0016349552577
 30
0.0
  0
VERTEX
  5
23D1
330
23CF
100
AcDbEntity
  8
MODEL
100
AcDbVertex
100
AcDb2dVertex
 10
46.84561559093771
 20
132.0457424702421
 30
0.0
  0
SEQEND
  5
23D2
330
23CF
100
AcDbEntity
  8
MODEL
  0
POLYLINE
  5
23D3
330
A
100
AcDbEntity
  8
MODEL
100
AcDb2dPolyline
 66
     1
 10
0.0
 20
0.0
 30
0.0
  0
VERTEX
  5
23D4
330
23D3
100
AcDbEntity
  8
MODEL
100
AcDbVertex
100
AcDb2dVertex
 10
46.84561559093771
 20
127.3803392869502
 30
0.0
  0
VERTEX
  5
23D5
330
23D3
100
AcDbEntity
  8
MODEL
100
AcDbVertex
100
AcDb2dVertex
 10
46.613017382154
 20
127.426858928707
 30
0.0
  0
VERTEX
  5
23D6
330
23D3
100
AcDbEntity
  8
MODEL
100
AcDbVertex
100
AcDb2dVertex
 10
46.42797258494386
 20
127.5653840841604
 30
0.0
  0
VERTEX
  5
23D7
330
23D3
100
AcDbEntity
  8
MODEL
100
AcDbVertex
100
AcDb2dVertex
 10
46.28841365967361
 20
127.7514626511873
 30
0.0
  0
VERTEX
  5
23D8
330
23D3
100
AcDbEntity
  8
MODEL
100
AcDbVertex
100
AcDb2dVertex
 10
46.24189401791688
 20
127.984060859971
 30
0.0
  0
SEQEND
  5
23D9
330
23D3
100
AcDbEntity
  8
MODEL
  0
POLYLINE
  5
23DA
330
A
100
AcDbEntity
  8
MODEL
100
AcDb2dPolyline
 66
     1
 10
0.0
 20
0.0
 30
0.0
  0
VERTEX
  5
23DB
330
23DA
100
AcDbEntity
  8
MODEL
100
AcDbVertex
100
AcDb2dVertex
 10
46.24189401791688
 20
130.397913382237
 30
0.0
  0
VERTEX
  5
23DC
330
23DA
100
AcDbEntity
  8
MODEL
100
AcDbVertex
100
AcDb2dVertex
 10
46.28841365967361
 20
130.6305115910206
 30
0.0
  0
VERTEX
  5
23DD
330
23DA
100
AcDbEntity
  8
MODEL
100
AcDbVertex
100
AcDb2dVertex
 10
46.42797258494386
 20
130.8155563882308
 30
0.0
  0
VERTEX
  5
23DE
330
23DA
100
AcDbEntity
  8
MODEL
100
AcDbVertex
100
AcDb2dVertex
 10
46.613017382154
 20
130.955115313501
 30
0.0
  0
VERTEX
  5
23DF
330
23DA
100
AcDbEntity
  8
MODEL
100
AcDbVertex
100
AcDb2dVertex
 10
46.84561559093771
 20
131.0016349552577
 30
0.0
  0
SEQEND
  5
23E0
330
23DA
100
AcDbEntity
  8
MODEL
  0
POLYLINE
  5
23E1
330
A
100
AcDbEntity
  8
MODEL
100
AcDb2dPolyline
 66
     1
 10
0.0
 20
0.0
 30
0.0
  0
VERTEX
  5
23E2
330
23E1
100
AcDbEntity
  8
MODEL
100
AcDbVertex
100
AcDb2dVertex
 10
43.10750393333001
 20
130.0960525957266
 30
0.0
  0
VERTEX
  5
23E3
330
23E1
100
AcDbEntity
  8
MODEL
100
AcDbVertex
100
AcDb2dVertex
 10
43.10750393333001
 20
128.2848878766645
 30
0.0
  0
VERTEX
  5
23E4
330
23E1
100
AcDbEntity
  8
MODEL
100
AcDbVertex
100
AcDb2dVertex
 10
43.06201806139001
 20
128.006803795941
 30
0.0
  0
VERTEX
  5
23E5
330
23E1
100
AcDbEntity
  8
MODEL
100
AcDbVertex
100
AcDb2dVertex
 10
42.92245913611981
 20
127.7514626511873
 30
0.0
  0
VERTEX
  5
23E6
330
23E1
100
AcDbEntity
  8
MODEL
100
AcDbVertex
100
AcDb2dVertex
 10
42.73638056909289
 20
127.5653840841604
 30
0.0
  0
VERTEX
  5
23E7
330
23E1
100
AcDbEntity
  8
MODEL
100
AcDbVertex
100
AcDb2dVertex
 10
42.48000565452247
 20
127.426858928707
 30
0.0
  0
VERTEX
  5
23E8
330
23E1
100
AcDbEntity
  8
MODEL
100
AcDbVertex
100
AcDb2dVertex
 10
42.20233508172561
 20
127.3803392869502
 30
0.0
  0
SEQEND
  5
23E9
330
23E1
100
AcDbEntity
  8
MODEL
  0
POLYLINE
  5
23EA
330
A
100
AcDbEntity
  8
MODEL
100
AcDb2dPolyline
 66
     1
 10
0.0
 20
0.0
 30
0.0
  0
VERTEX
  5
23EB
330
23EA
100
AcDbEntity
  8
MODEL
100
AcDbVertex
100
AcDb2dVertex
 10
34.2402399526066
 20
114.2349185302679
 30
0.0
  0
VERTEX
  5
23EC
330
23EA
100
AcDbEntity
  8
MODEL
100
AcDbVertex
100
AcDb2dVertex
 10
34.2402399526066
 20
123.4511832011485
 30
0.0
  0
SEQEND
  5
23ED
330
23EA
100
AcDbEntity
  8
MODEL
  0
POLYLINE
  5
23EE
330
A
100
AcDbEntity
  8
MODEL
100
AcDb2dPolyline
 66
     1
 10
0.0
 20
0.0
 30
0.0
  0
VERTEX
  5
23EF
330
23EE
100
AcDbEntity
  8
MODEL
100
AcDbVertex
100
AcDb2dVertex
 10
35.00729715668422
 20
110.4238216475798
 30
0.0
  0
VERTEX
  5
23F0
330
23EE
100
AcDbEntity
  8
MODEL
100
AcDbVertex
100
AcDb2dVertex
 10
35.00729715668422
 20
113.3768895823104
 30
0.0
  0
SEQEND
  5
23F1
330
23EE
100
AcDbEntity
  8
MODEL
  0
POLYLINE
  5
23F2
330
A
100
AcDbEntity
  8
MODEL
100
AcDb2dPolyline
 66
     1
 10
0.0
 20
0.0
 30
0.0
  0
VERTEX
  5
23F3
330
23F2
100
AcDbEntity
  8
MODEL
100
AcDbVertex
100
AcDb2dVertex
 10
34.54210073911696
 20
113.5619343795205
 30
0.0
  0
VERTEX
  5
23F4
330
23F2
100
AcDbEntity
  8
MODEL
100
AcDbVertex
100
AcDb2dVertex
 10
34.54210073911696
 20
110.8879842953302
 30
0.0
  0
VERTEX
  5
23F5
330
23F2
100
AcDbEntity
  8
MODEL
100
AcDbVertex
100
AcDb2dVertex
 10
35.00729715668422
 20
110.4238216475798
 30
0.0
  0
SEQEND
  5
23F6
330
23F2
100
AcDbEntity
  8
MODEL
  0
POLYLINE
  5
23F7
330
A
100
AcDbEntity
  8
MODEL
100
AcDb2dPolyline
 66
     1
 10
0.0
 20
0.0
 30
0.0
  0
VERTEX
  5
23F8
330
23F7
100
AcDbEntity
  8
MODEL
100
AcDbVertex
100
AcDb2dVertex
 10
34.54210073911696
 20
113.7717896523342
 30
0.0
  0
VERTEX
  5
23F9
330
23F7
100
AcDbEntity
  8
MODEL
100
AcDbVertex
100
AcDb2dVertex
 10
35.00729715668422
 20
113.3768895823104
 30
0.0
  0
SEQEND
  5
23FA
330
23F7
100
AcDbEntity
  8
MODEL
  0
POLYLINE
  5
23FB
330
A
100
AcDbEntity
  8
MODEL
100
AcDb2dPolyline
 66
     1
 10
0.0
 20
0.0
 30
0.0
  0
VERTEX
  5
23FC
330
23FB
100
AcDbEntity
  8
MODEL
100
AcDbVertex
100
AcDb2dVertex
 10
34.40274856781014
 20
113.8867448559642
 30
0.0
  0
VERTEX
  5
23FD
330
23FB
100
AcDbEntity
  8
MODEL
100
AcDbVertex
100
AcDb2dVertex
 10
34.28779336418012
 20
114.0500804870212
 30
0.0
  0
VERTEX
  5
23FE
330
23FB
100
AcDbEntity
  8
MODEL
100
AcDbVertex
100
AcDb2dVertex
 10
34.2402399526066
 20
114.2349185302679
 30
0.0
  0
SEQEND
  5
23FF
330
23FB
100
AcDbEntity
  8
MODEL
  0
POLYLINE
  5
2400
330
A
100
AcDbEntity
  8
MODEL
100
AcDb2dPolyline
 66
     1
 10
0.0
 20
0.0
 30
0.0
  0
VERTEX
  5
2401
330
2400
100
AcDbEntity
  8
MODEL
100
AcDbVertex
100
AcDb2dVertex
 10
34.40274856781014
 20
113.8867448559642
 30
0.0
  0
VERTEX
  5
2402
330
2400
100
AcDbEntity
  8
MODEL
100
AcDbVertex
100
AcDb2dVertex
 10
34.51853078729351
 20
113.7482197005108
 30
0.0
  0
VERTEX
  5
2403
330
2400
100
AcDbEntity
  8
MODEL
100
AcDbVertex
100
AcDb2dVertex
 10
34.54210073911696
 20
113.5619343795205
 30
0.0
  0
SEQEND
  5
2404
330
2400
100
AcDbEntity
  8
MODEL
  0
POLYLINE
  5
2405
330
A
100
AcDbEntity
  8
MODEL
100
AcDb2dPolyline
 66
     1
 10
0.0
 20
0.0
 30
0.0
  0
VERTEX
  5
2406
330
2405
100
AcDbEntity
  8
MODEL
100
AcDbVertex
100
AcDb2dVertex
 10
34.93700080914078
 20
136.8518417256028
 30
0.0
  0
VERTEX
  5
2407
330
2405
100
AcDbEntity
  8
MODEL
100
AcDbVertex
100
AcDb2dVertex
 10
35.07676648837435
 20
136.3876790778523
 30
0.0
  0
SEQEND
  5
2408
330
2405
100
AcDbEntity
  8
MODEL
  0
POLYLINE
  5
2409
330
A
100
AcDbEntity
  8
MODEL
100
AcDb2dPolyline
 66
     1
 10
0.0
 20
0.0
 30
0.0
  0
VERTEX
  5
240A
330
2409
100
AcDbEntity
  8
MODEL
100
AcDbVertex
100
AcDb2dVertex
 10
31.54747633376354
 20
136.0847845215251
 30
0.0
  0
VERTEX
  5
240B
330
2409
100
AcDbEntity
  8
MODEL
100
AcDbVertex
100
AcDb2dVertex
 10
32.08172857509419
 20
136.0392986495851
 30
0.0
  0
VERTEX
  5
240C
330
2409
100
AcDbEntity
  8
MODEL
100
AcDbVertex
100
AcDb2dVertex
 10
32.56884091277811
 20
135.9235164301017
 30
0.0
  0
VERTEX
  5
240D
330
2409
100
AcDbEntity
  8
MODEL
100
AcDbVertex
100
AcDb2dVertex
 10
33.05553974253507
 20
135.713661157288
 30
0.0
  0
VERTEX
  5
240E
330
2409
100
AcDbEntity
  8
MODEL
100
AcDbVertex
100
AcDb2dVertex
 10
33.49923374791268
 20
135.4128341405944
 30
0.0
  0
VERTEX
  5
240F
330
2409
100
AcDbEntity
  8
MODEL
100
AcDbVertex
100
AcDb2dVertex
 10
33.87015035818632
 20
135.0643503353457
 30
0.0
  0
VERTEX
  5
2410
330
2409
100
AcDbEntity
  8
MODEL
100
AcDbVertex
100
AcDb2dVertex
 10
34.19475408066666
 20
134.6456735595351
 30
0.0
  0
VERTEX
  5
2411
330
2409
100
AcDbEntity
  8
MODEL
100
AcDbVertex
100
AcDb2dVertex
 10
34.44906145560344
 20
134.2052876175713
 30
0.0
  0
VERTEX
  5
2412
330
2409
100
AcDbEntity
  8
MODEL
100
AcDbVertex
100
AcDb2dVertex
 10
34.61157007080703
 20
133.6946053280641
 30
0.0
  0
SEQEND
  5
2413
330
2409
100
AcDbEntity
  8
MODEL
  0
POLYLINE
  5
2414
330
A
100
AcDbEntity
  8
MODEL
100
AcDb2dPolyline
 66
     1
 10
0.0
 20
0.0
 30
0.0
  0
VERTEX
  5
2415
330
2414
100
AcDbEntity
  8
MODEL
100
AcDbVertex
100
AcDb2dVertex
 10
34.84396152562732
 20
125.4998086131797
 30
0.0
  0
VERTEX
  5
2416
330
2414
100
AcDbEntity
  8
MODEL
100
AcDbVertex
100
AcDb2dVertex
 10
34.84396152562732
 20
127.3803392869502
 30
0.0
  0
SEQEND
  5
2417
330
2414
100
AcDbEntity
  8
MODEL
  0
POLYLINE
  5
2418
330
A
100
AcDbEntity
  8
MODEL
100
AcDb2dPolyline
 66
     1
 10
0.0
 20
0.0
 30
0.0
  0
VERTEX
  5
2419
330
2418
100
AcDbEntity
  8
MODEL
100
AcDbVertex
100
AcDb2dVertex
 10
32.31453353784127
 20
123.5956046106042
 30
0.0
  0
VERTEX
  5
241A
330
2418
100
AcDbEntity
  8
MODEL
100
AcDbVertex
100
AcDb2dVertex
 10
34.03141844960976
 20
123.1543916527869
 30
0.0
  0
VERTEX
  5
241B
330
2418
100
AcDbEntity
  8
MODEL
100
AcDbVertex
100
AcDb2dVertex
 10
34.14844119287329
 20
123.108905780847
 30
0.0
  0
VERTEX
  5
241C
330
2418
100
AcDbEntity
  8
MODEL
100
AcDbVertex
100
AcDb2dVertex
 10
34.21749701663668
 20
122.9918830375834
 30
0.0
  0
VERTEX
  5
241D
330
2418
100
AcDbEntity
  8
MODEL
100
AcDbVertex
100
AcDb2dVertex
 10
34.2402399526066
 20
122.8752738022466
 30
0.0
  0
SEQEND
  5
241E
330
2418
100
AcDbEntity
  8
MODEL
  0
POLYLINE
  5
241F
330
A
100
AcDbEntity
  8
MODEL
100
AcDb2dPolyline
 66
     1
 10
0.0
 20
0.0
 30
0.0
  0
VERTEX
  5
2420
330
241F
100
AcDbEntity
  8
MODEL
100
AcDbVertex
100
AcDb2dVertex
 10
31.40771065452998
 20
123.7126273538677
 30
0.0
  0
VERTEX
  5
2421
330
241F
100
AcDbEntity
  8
MODEL
100
AcDbVertex
100
AcDb2dVertex
 10
31.40771065452998
 20
124.3151084031083
 30
0.0
  0
VERTEX
  5
2422
330
241F
100
AcDbEntity
  8
MODEL
100
AcDbVertex
100
AcDb2dVertex
 10
31.43169411428011
 20
124.6169691896186
 30
0.0
  0
VERTEX
  5
2423
330
241F
100
AcDbEntity
  8
MODEL
100
AcDbVertex
100
AcDb2dVertex
 10
31.57104628558687
 20
124.896087040159
 30
0.0
  0
VERTEX
  5
2424
330
241F
100
AcDbEntity
  8
MODEL
100
AcDbVertex
100
AcDb2dVertex
 10
31.75629783676044
 20
125.151634938876
 30
0.0
  0
VERTEX
  5
2425
330
241F
100
AcDbEntity
  8
MODEL
100
AcDbVertex
100
AcDb2dVertex
 10
31.98992981536088
 20
125.3364729821227
 30
0.0
  0
VERTEX
  5
2426
330
241F
100
AcDbEntity
  8
MODEL
100
AcDbVertex
100
AcDb2dVertex
 10
32.29055007809114
 20
125.4522552016062
 30
0.0
  0
VERTEX
  5
2427
330
241F
100
AcDbEntity
  8
MODEL
100
AcDbVertex
100
AcDb2dVertex
 10
32.5936513883816
 20
125.4998086131797
 30
0.0
  0
SEQEND
  5
2428
330
241F
100
AcDbEntity
  8
MODEL
  0
POLYLINE
  5
2429
330
A
100
AcDbEntity
  8
MODEL
100
AcDb2dPolyline
 66
     1
 10
0.0
 20
0.0
 30
0.0
  0
VERTEX
  5
242A
330
2429
100
AcDbEntity
  8
MODEL
100
AcDbVertex
100
AcDb2dVertex
 10
34.84396152562732
 20
131.0016349552577
 30
0.0
  0
VERTEX
  5
242B
330
2429
100
AcDbEntity
  8
MODEL
100
AcDbVertex
100
AcDb2dVertex
 10
34.84396152562732
 20
132.0457424702421
 30
0.0
  0
SEQEND
  5
242C
330
2429
100
AcDbEntity
  8
MODEL
  0
POLYLINE
  5
242D
330
A
100
AcDbEntity
  8
MODEL
100
AcDb2dPolyline
 66
     1
 10
0.0
 20
0.0
 30
0.0
  0
VERTEX
  5
242E
330
242D
100
AcDbEntity
  8
MODEL
100
AcDbVertex
100
AcDb2dVertex
 10
38.60481611920494
 20
130.0960525957266
 30
0.0
  0
VERTEX
  5
242F
330
242D
100
AcDbEntity
  8
MODEL
100
AcDbVertex
100
AcDb2dVertex
 10
38.65154251492498
 20
130.3741366764502
 30
0.0
  0
VERTEX
  5
2430
330
242D
100
AcDbEntity
  8
MODEL
100
AcDbVertex
100
AcDb2dVertex
 10
38.76732473440848
 20
130.6305115910206
 30
0.0
  0
VERTEX
  5
2431
330
242D
100
AcDbEntity
  8
MODEL
100
AcDbVertex
100
AcDb2dVertex
 10
38.97614623740532
 20
130.8155563882308
 30
0.0
  0
VERTEX
  5
2432
330
242D
100
AcDbEntity
  8
MODEL
100
AcDbVertex
100
AcDb2dVertex
 10
39.23128062819563
 20
130.955115313501
 30
0.0
  0
VERTEX
  5
2433
330
242D
100
AcDbEntity
  8
MODEL
100
AcDbVertex
100
AcDb2dVertex
 10
39.50957146288255
 20
131.0016349552577
 30
0.0
  0
SEQEND
  5
2434
330
242D
100
AcDbEntity
  8
MODEL
  0
POLYLINE
  5
2435
330
A
100
AcDbEntity
  8
MODEL
100
AcDb2dPolyline
 66
     1
 10
0.0
 20
0.0
 30
0.0
  0
VERTEX
  5
2436
330
2435
100
AcDbEntity
  8
MODEL
100
AcDbVertex
100
AcDb2dVertex
 10
38.60481611920494
 20
128.2848878766645
 30
0.0
  0
VERTEX
  5
2437
330
2435
100
AcDbEntity
  8
MODEL
100
AcDbVertex
100
AcDb2dVertex
 10
38.60481611920494
 20
130.0960525957266
 30
0.0
  0
SEQEND
  5
2438
330
2435
100
AcDbEntity
  8
MODEL
  0
POLYLINE
  5
2439
330
A
100
AcDbEntity
  8
MODEL
100
AcDb2dPolyline
 66
     1
 10
0.0
 20
0.0
 30
0.0
  0
VERTEX
  5
243A
330
2439
100
AcDbEntity
  8
MODEL
100
AcDbVertex
100
AcDb2dVertex
 10
39.50957146288255
 20
127.3803392869502
 30
0.0
  0
VERTEX
  5
243B
330
2439
100
AcDbEntity
  8
MODEL
100
AcDbVertex
100
AcDb2dVertex
 10
39.23128062819563
 20
127.426858928707
 30
0.0
  0
VERTEX
  5
243C
330
2439
100
AcDbEntity
  8
MODEL
100
AcDbVertex
100
AcDb2dVertex
 10
38.97614623740532
 20
127.5653840841604
 30
0.0
  0
VERTEX
  5
243D
330
2439
100
AcDbEntity
  8
MODEL
100
AcDbVertex
100
AcDb2dVertex
 10
38.76732473440848
 20
127.7514626511873
 30
0.0
  0
VERTEX
  5
243E
330
2439
100
AcDbEntity
  8
MODEL
100
AcDbVertex
100
AcDb2dVertex
 10
38.65154251492498
 20
128.006803795941
 30
0.0
  0
VERTEX
  5
243F
330
2439
100
AcDbEntity
  8
MODEL
100
AcDbVertex
100
AcDb2dVertex
 10
38.60481611920494
 20
128.2848878766645
 30
0.0
  0
SEQEND
  5
2440
330
2439
100
AcDbEntity
  8
MODEL
  0
POLYLINE
  5
2441
330
A
100
AcDbEntity
  8
MODEL
100
AcDb2dPolyline
 66
     1
 10
0.0
 20
0.0
 30
0.0
  0
VERTEX
  5
2442
330
2441
100
AcDbEntity
  8
MODEL
100
AcDbVertex
100
AcDb2dVertex
 10
35.44685608279457
 20
127.984060859971
 30
0.0
  0
VERTEX
  5
2443
330
2441
100
AcDbEntity
  8
MODEL
100
AcDbVertex
100
AcDb2dVertex
 10
35.44685608279457
 20
130.397913382237
 30
0.0
  0
SEQEND
  5
2444
330
2441
100
AcDbEntity
  8
MODEL
  0
POLYLINE
  5
2445
330
A
100
AcDbEntity
  8
MODEL
100
AcDb2dPolyline
 66
     1
 10
0.0
 20
0.0
 30
0.0
  0
VERTEX
  5
2446
330
2445
100
AcDbEntity
  8
MODEL
100
AcDbVertex
100
AcDb2dVertex
 10
34.91343085731734
 20
127.3803392869502
 30
0.0
  0
VERTEX
  5
2447
330
2445
100
AcDbEntity
  8
MODEL
100
AcDbVertex
100
AcDb2dVertex
 10
34.75092224211386
 20
127.3803392869502
 30
0.0
  0
SEQEND
  5
2448
330
2445
100
AcDbEntity
  8
MODEL
  0
POLYLINE
  5
2449
330
A
100
AcDbEntity
  8
MODEL
100
AcDb2dPolyline
 66
     1
 10
0.0
 20
0.0
 30
0.0
  0
VERTEX
  5
244A
330
2449
100
AcDbEntity
  8
MODEL
100
AcDbVertex
100
AcDb2dVertex
 10
35.44685608279457
 20
127.984060859971
 30
0.0
  0
VERTEX
  5
244B
330
2449
100
AcDbEntity
  8
MODEL
100
AcDbVertex
100
AcDb2dVertex
 10
35.40012968707441
 20
127.7514626511873
 30
0.0
  0
VERTEX
  5
244C
330
2449
100
AcDbEntity
  8
MODEL
100
AcDbVertex
100
AcDb2dVertex
 10
35.28558799137119
 20
127.5653840841604
 30
0.0
  0
VERTEX
  5
244D
330
2449
100
AcDbEntity
  8
MODEL
100
AcDbVertex
100
AcDb2dVertex
 10
35.07676648837435
 20
127.426858928707
 30
0.0
  0
VERTEX
  5
244E
330
2449
100
AcDbEntity
  8
MODEL
100
AcDbVertex
100
AcDb2dVertex
 10
34.84396152562732
 20
127.3803392869502
 30
0.0
  0
SEQEND
  5
244F
330
2449
100
AcDbEntity
  8
MODEL
  0
POLYLINE
  5
2450
330
A
100
AcDbEntity
  8
MODEL
100
AcDb2dPolyline
 66
     1
 10
0.0
 20
0.0
 30
0.0
  0
VERTEX
  5
2451
330
2450
100
AcDbEntity
  8
MODEL
100
AcDbVertex
100
AcDb2dVertex
 10
34.84396152562732
 20
131.0016349552577
 30
0.0
  0
VERTEX
  5
2452
330
2450
100
AcDbEntity
  8
MODEL
100
AcDbVertex
100
AcDb2dVertex
 10
35.07676648837435
 20
130.955115313501
 30
0.0
  0
VERTEX
  5
2453
330
2450
100
AcDbEntity
  8
MODEL
100
AcDbVertex
100
AcDb2dVertex
 10
35.28558799137119
 20
130.8155563882308
 30
0.0
  0
VERTEX
  5
2454
330
2450
100
AcDbEntity
  8
MODEL
100
AcDbVertex
100
AcDb2dVertex
 10
35.40012968707441
 20
130.6305115910206
 30
0.0
  0
VERTEX
  5
2455
330
2450
100
AcDbEntity
  8
MODEL
100
AcDbVertex
100
AcDb2dVertex
 10
35.44685608279457
 20
130.397913382237
 30
0.0
  0
SEQEND
  5
2456
330
2450
100
AcDbEntity
  8
MODEL
  0
POLYLINE
  5
2457
330
A
100
AcDbEntity
  8
MODEL
100
AcDb2dPolyline
 66
     1
 10
0.0
 20
0.0
 30
0.0
  0
VERTEX
  5
2458
330
2457
100
AcDbEntity
  8
MODEL
100
AcDbVertex
100
AcDb2dVertex
 10
34.91343085731734
 20
131.0016349552577
 30
0.0
  0
VERTEX
  5
2459
330
2457
100
AcDbEntity
  8
MODEL
100
AcDbVertex
100
AcDb2dVertex
 10
34.75092224211386
 20
131.0016349552577
 30
0.0
  0
SEQEND
  5
245A
330
2457
100
AcDbEntity
  8
MODEL
  0
POLYLINE
  5
245B
330
A
100
AcDbEntity
  8
MODEL
100
AcDb2dPolyline
 66
     1
 10
0.0
 20
0.0
 30
0.0
  0
VERTEX
  5
245C
330
245B
100
AcDbEntity
  8
MODEL
100
AcDbVertex
100
AcDb2dVertex
 10
31.54747633376354
 20
136.3876790778523
 30
0.0
  0
VERTEX
  5
245D
330
245B
100
AcDbEntity
  8
MODEL
100
AcDbVertex
100
AcDb2dVertex
 10
31.40771065452998
 20
136.0847845215251
 30
0.0
  0
SEQEND
  5
245E
330
245B
100
AcDbEntity
  8
MODEL
  0
POLYLINE
  5
245F
330
A
100
AcDbEntity
  8
MODEL
100
AcDb2dPolyline
 66
     1
 10
0.0
 20
0.0
 30
0.0
  0
VERTEX
  5
2460
330
245F
100
AcDbEntity
  8
MODEL
100
AcDbVertex
100
AcDb2dVertex
 10
31.54747633376354
 20
132.0457424702421
 30
0.0
  0
VERTEX
  5
2461
330
245F
100
AcDbEntity
  8
MODEL
100
AcDbVertex
100
AcDb2dVertex
 10
31.54747633376354
 20
133.6946053280641
 30
0.0
  0
SEQEND
  5
2462
330
245F
100
AcDbEntity
  8
MODEL
  0
POLYLINE
  5
2463
330
A
100
AcDbEntity
  8
MODEL
100
AcDb2dPolyline
 66
     1
 10
0.0
 20
0.0
 30
0.0
  0
VERTEX
  5
2464
330
2463
100
AcDbEntity
  8
MODEL
100
AcDbVertex
100
AcDb2dVertex
 10
134.9147402989128
 20
117.892396142164
 30
0.0
  0
VERTEX
  5
2465
330
2463
100
AcDbEntity
  8
MODEL
100
AcDbVertex
100
AcDb2dVertex
 10
134.9147402989128
 20
115.8031473423783
 30
0.0
  0
SEQEND
  5
2466
330
2463
100
AcDbEntity
  8
MODEL
  0
POLYLINE
  5
2467
102
{ACAD_REACTORS
102
}
330
A
100
AcDbEntity
  8
MODEL
100
AcDb2dPolyline
 66
     1
 10
0.0
 20
0.0
 30
0.0
  0
VERTEX
  5
2468
330
2467
100
AcDbEntity
  8
MODEL
100
AcDbVertex
100
AcDb2dVertex
 10
134.9147402989128
 20
117.5915691254704
 30
0.0
  0
VERTEX
  5
2469
330
2467
100
AcDbEntity
  8
MODEL
100
AcDbVertex
100
AcDb2dVertex
 10
100.9684343951039
 20
117.5915691254704
 30
0.0
  0
SEQEND
  5
246A
330
2467
100
AcDbEntity
  8
MODEL
  0
POLYLINE
  5
246B
102
{ACAD_REACTORS
102
}
330
A
100
AcDbEntity
  8
MODEL
100
AcDb2dPolyline
 66
     1
 10
0.0
 20
0.0
 30
0.0
  0
VERTEX
  5
246C
330
246B
100
AcDbEntity
  8
MODEL
100
AcDbVertex
100
AcDb2dVertex
 10
134.9147402989128
 20
116.09156912127
 30
0.0
  0
VERTEX
  5
246D
330
246B
100
AcDbEntity
  8
MODEL
100
AcDbVertex
100
AcDb2dVertex
 10
100.9684343951039
 20
116.09156912127
 30
0.0
  0
SEQEND
  5
246E
330
246B
100
AcDbEntity
  8
MODEL
  0
LINE
  5
2530
102
{ACAD_REACTORS
330
25B5
102
}
330
A
100
AcDbEntity
  8
MODEL
100
AcDbLine
 10
88.96843439510388
 20
115.4226163053149
 30
0.0
 11
100.9684343951039
 21
115.4226163053149
 31
0.0
  0
LINE
  5
2531
102
{ACAD_REACTORS
330
25B5
102
}
330
A
100
AcDbEntity
  8
MODEL
100
AcDbLine
 10
100.9684343951039
 20
118.4226163053149
 30
0.0
 11
88.96843439510388
 21
118.4226163053149
 31
0.0
  0
LINE
  5
2535
102
{ACAD_REACTORS
330
25B5
102
}
330
A
100
AcDbEntity
  8
MODEL
100
AcDbLine
 10
88.96843439510388
 20
118.4226163053149
 30
0.0
 11
88.96843439510388
 21
115.4226163053149
 31
0.0
  0
LINE
  5
2536
102
{ACAD_REACTORS
330
25B5
102
}
330
A
100
AcDbEntity
  8
MODEL
100
AcDbLine
 10
100.9684343951039
 20
115.4226163053149
 30
0.0
 11
100.9684343951039
 21
118.4226163053149
 31
0.0
  0
LINE
  5
2540
102
{ACAD_REACTORS
330
25B5
102
}
330
A
100
AcDbEntity
  8
MODEL
100
AcDbLine
 10
91.52550319082701
 20
118.4226163053149
 30
0.0
 11
91.52550319082701
 21
118.7193434330589
 31
0.0
  0
LINE
  5
2541
102
{ACAD_REACTORS
330
25B5
102
}
330
A
100
AcDbEntity
  8
MODEL
100
AcDbLine
 10
90.43231969503853
 20
118.7193434330589
 30
0.0
 11
92.0045490951693
 21
118.7193434330589
 31
0.0
  0
ARC
  5
2542
102
{ACAD_REACTORS
330
25B5
102
}
330
A
100
AcDbEntity
  8
MODEL
100
AcDbCircle
 10
91.21843439510388
 20
117.7575169747472
 30
0.0
 40
1.291920766374986
100
AcDbArc
 50
52.51994461733723
 51
127.4800553826596
  0
LINE
  5
2543
102
{ACAD_REACTORS
330
25B5
102
}
330
A
100
AcDbEntity
  8
MODEL
100
AcDbLine
 10
90.91136559938087
 20
118.4226163053149
 30
0.0
 11
90.91136559938087
 21
118.7193434330589
 31
0.0
  0
LINE
  5
2545
102
{ACAD_REACTORS
330
25B5
102
}
330
A
100
AcDbEntity
  8
MODEL
100
AcDbLine
 10
91.52550319082701
 20
118.7193434330589
 30
0.0
 11
90.91136559938087
 21
118.5866956797595
 31
0.0
  0
LINE
  5
2546
102
{ACAD_REACTORS
330
25B5
102
}
330
A
100
AcDbEntity
  8
MODEL
100
AcDbLine
 10
91.52550319082701
 20
118.5127847894587
 30
0.0
 11
91.10803772835953
 21
118.4226163053149
 31
0.0
  0
LINE
  5
2559
102
{ACAD_REACTORS
330
25B5
102
}
330
A
100
AcDbEntity
  8
MODEL
100
AcDbLine
 10
92.0045490951693
 20
118.7827403381818
 30
0.0
 11
92.0045490951693
 21
118.7193434330589
 31
0.0
  0
LINE
  5
255A
102
{ACAD_REACTORS
330
25B5
102
}
330
A
100
AcDbEntity
  8
MODEL
100
AcDbLine
 10
90.43231969503853
 20
118.7827403381818
 30
0.0
 11
90.43231969503853
 21
118.7193434330589
 31
0.0
  0
LINE
  5
255B
102
{ACAD_REACTORS
330
25B5
102
}
330
A
100
AcDbEntity
  8
MODEL
100
AcDbLine
 10
90.43231969503853
 20
118.7827403381818
 30
0.0
 11
92.0045490951693
 21
118.7827403381818
 31
0.0
  0
LINE
  5
255C
102
{ACAD_REACTORS
330
25B5
102
}
330
A
100
AcDbEntity
  8
MODEL
100
AcDbLine
 10
99.02550319082695
 20
118.4226163053149
 30
0.0
 11
99.02550319082695
 21
118.7193434330589
 31
0.0
  0
LINE
  5
255D
102
{ACAD_REACTORS
330
25B5
102
}
330
A
100
AcDbEntity
  8
MODEL
100
AcDbLine
 10
97.93231969503853
 20
118.7193434330589
 30
0.0
 11
99.5045490951693
 21
118.7193434330589
 31
0.0
  0
ARC
  5
255E
102
{ACAD_REACTORS
330
25B5
102
}
330
A
100
AcDbEntity
  8
MODEL
100
AcDbCircle
 10
98.71843439510388
 20
117.7575169747472
 30
0.0
 40
1.291920766374986
100
AcDbArc
 50
52.51994461733723
 51
127.4800553826596
  0
LINE
  5
255F
102
{ACAD_REACTORS
330
25B5
102
}
330
A
100
AcDbEntity
  8
MODEL
100
AcDbLine
 10
98.41136559938087
 20
118.4226163053149
 30
0.0
 11
98.41136559938087
 21
118.7193434330589
 31
0.0
  0
LINE
  5
2561
102
{ACAD_REACTORS
330
25B5
102
}
330
A
100
AcDbEntity
  8
MODEL
100
AcDbLine
 10
99.02550319082695
 20
118.7193434330589
 30
0.0
 11
98.41136559938087
 21
118.5866956797595
 31
0.0
  0
LINE
  5
2562
102
{ACAD_REACTORS
330
25B5
102
}
330
A
100
AcDbEntity
  8
MODEL
100
AcDbLine
 10
99.02550319082695
 20
118.5127847894587
 30
0.0
 11
98.60803772835953
 21
118.4226163053149
 31
0.0
  0
LINE
  5
2567
102
{ACAD_REACTORS
330
25B5
102
}
330
A
100
AcDbEntity
  8
MODEL
100
AcDbLine
 10
99.5045490951693
 20
118.7827403381818
 30
0.0
 11
99.5045490951693
 21
118.7193434330589
 31
0.0
  0
LINE
  5
2568
102
{ACAD_REACTORS
330
25B5
102
}
330
A
100
AcDbEntity
  8
MODEL
100
AcDbLine
 10
97.93231969503853
 20
118.7827403381818
 30
0.0
 11
97.93231969503853
 21
118.7193434330589
 31
0.0
  0
LINE
  5
2569
102
{ACAD_REACTORS
330
25B5
102
}
330
A
100
AcDbEntity
  8
MODEL
100
AcDbLine
 10
97.93231969503853
 20
118.7827403381818
 30
0.0
 11
99.5045490951693
 21
118.7827403381818
 31
0.0
  0
POLYLINE
  5
25EE
330
A
100
AcDbEntity
  8
MODEL
100
AcDb2dPolyline
 66
     1
 10
0.0
 20
0.0
 30
0.0
  0
VERTEX
  5
25F7
330
25EE
100
AcDbEntity
  8
MODEL
100
AcDbVertex
100
AcDb2dVertex
 10
140.843443733549
 20
112.3486573748468
 30
0.0
  0
VERTEX
  5
25F8
330
25EE
100
AcDbEntity
  8
MODEL
100
AcDbVertex
100
AcDb2dVertex
 10
140.843443733549
 20
115.5012865558679
 30
0.0
  0
SEQEND
  5
25FD
330
25EE
100
AcDbEntity
  8
MODEL
  0
POLYLINE
  5
25F2
330
A
100
AcDbEntity
  8
MODEL
100
AcDb2dPolyline
 66
     1
 10
0.0
 20
0.0
 30
0.0
  0
VERTEX
  5
25FE
330
25F2
100
AcDbEntity
  8
MODEL
100
AcDbVertex
100
AcDb2dVertex
 10
139.3434437293485
 20
112.3486573748468
 30
0.0
  0
VERTEX
  5
25FF
330
25F2
100
AcDbEntity
  8
MODEL
100
AcDbVertex
100
AcDb2dVertex
 10
139.3434437293485
 20
115.5012865558679
 30
0.0
  0
SEQEND
  5
2604
330
25F2
100
AcDbEntity
  8
MODEL
  0
LINE
  5
25F6
330
A
100
AcDbEntity
  8
MODEL
100
AcDbLine
 10
139.3434437293485
 20
112.3486573748468
 30
0.0
 11
140.843443733549
 21
112.3486573748468
 31
0.0
  0
POLYLINE
  5
25F9
330
A
100
AcDbEntity
  8
MODEL
100
AcDb2dPolyline
 66
     1
 10
0.0
 20
0.0
 30
0.0
  0
VERTEX
  5
2637
330
25F9
100
AcDbEntity
  8
MODEL
100
AcDbVertex
100
AcDb2dVertex
 10
140.843443733549
 20
118.1942569286743
 30
0.0
  0
VERTEX
  5
2638
330
25F9
100
AcDbEntity
  8
MODEL
100
AcDbVertex
100
AcDb2dVertex
 10
140.843443733549
 20
145.1564996479005
 30
0.0
  0
SEQEND
  5
2639
330
25F9
100
AcDbEntity
  8
MODEL
  0
POLYLINE
  5
2600
330
A
100
AcDbEntity
  8
MODEL
100
AcDb2dPolyline
 66
     1
 10
0.0
 20
0.0
 30
0.0
  0
VERTEX
  5
263A
330
2600
100
AcDbEntity
  8
MODEL
100
AcDbVertex
100
AcDb2dVertex
 10
139.3434437293485
 20
118.1942569286743
 30
0.0
  0
VERTEX
  5
263B
330
2600
100
AcDbEntity
  8
MODEL
100
AcDbVertex
100
AcDb2dVertex
 10
139.3434437293485
 20
145.7695491990691
 30
0.0
  0
SEQEND
  5
263C
330
2600
100
AcDbEntity
  8
MODEL
  0
SPLINE
  5
2636
330
A
100
AcDbEntity
  8
MODEL
100
AcDbSpline
210
0.0
220
0.0
230
1.0
 70
  1064
 71
     3
 72
    10
 73
     6
 74
     4
 42
0.000000001
 43
0.0000000001
 44
0.0
 40
0.0
 40
0.0
 40
0.0
 40
0.0
 40
2.881521210107546
 40
4.978135853354209
 40
7.797557937757728
 40
7.797557937757728
 40
7.797557937757728
 40
7.797557937757728
 10
136.6182885053298
 20
144.1833213031502
 30
0.0
 10
137.3460174501625
 20
145.0805881283719
 30
0.0
 10
138.6032469784714
 20
146.6307124644321
 30
0.0
 10
141.2877270342492
 20
144.3606264515311
 30
0.0
 10
142.3440170374599
 20
146.10737120002
 30
0.0
 10
142.9498154737972
 20
147.1091559694474
 30
0.0
 11
136.6182885053298
 21
144.1833213031502
 31
0.0
 11
138.9544602749323
 21
145.8701721997063
 31
0.0
 11
140.9231734945418
 21
145.1490888333671
 31
0.0
 11
142.9498154737972
 21
147.1091559694474
 31
0.0
  0
LINE
  5
263D
330
A
100
AcDbEntity
  8
MODEL
100
AcDbLine
 10
140.843443733549
 20
141.2521717151027
 30
0.0
 11
148.4776171572541
 21
146.6019656682375
 31
0.0
  0
MTEXT
  5
266F
330
A
100
AcDbEntity
  8
DIM
390
1D
100
AcDbMText
 10
150.3853133742752
 20
150.1509656682375
 30
0.0
 40
2.5
 41
0.0
 46
3.336
 71
     1
 72
     1
  1
{引き棒}
  7
ＭＳ ゴシック
 73
     1
 44
0.7828267384257843
1001
ACAD
1000
ACAD_MTEXT_DEFINED_HEIGHT_BEGIN
1070
    46
1040
3.336
1000
ACAD_MTEXT_DEFINED_HEIGHT_END
  0
POLYLINE
  5
26B1
102
{ACAD_REACTORS
330
26B9
102
}
330
A
100
AcDbEntity
  8
HIDDEN
 62
     7
 48
0.4
100
AcDb2dPolyline
 66
     1
 10
0.0
 20
0.0
 30
0.0
  0
VERTEX
  5
26B2
330
26B1
100
AcDbEntity
  8
HIDDEN
 62
     7
 48
0.4
100
AcDbVertex
100
AcDb2dVertex
 10
146.907015356203
 20
116.1050081288886
 30
0.0
  0
VERTEX
  5
26B3
330
26B1
100
AcDbEntity
  8
HIDDEN
 62
     7
 48
0.4
100
AcDbVertex
100
AcDb2dVertex
 10
173.6288393160044
 20
116.1050081288886
 30
0.0
  0
VERTEX
  5
26B4
330
26B1
100
AcDbEntity
  8
HIDDEN
 62
     7
 48
0.4
100
AcDbVertex
100
AcDb2dVertex
 10
173.6288393160044
 20
117.5905353556536
 30
0.0
  0
VERTEX
  5
26B5
330
26B1
100
AcDbEntity
  8
HIDDEN
 62
     7
 48
0.4
100
AcDbVertex
100
AcDb2dVertex
 10
146.907015356203
 20
117.5905353556536
 30
0.0
  0
SEQEND
  5
26B6
330
26B1
100
AcDbEntity
  8
HIDDEN
 62
     7
 48
0.4
  0
DIMENSION
  5
26B7
102
{ACAD_REACTORS
330
26B9
102
}
102
{ACAD_XDICTIONARY
360
26B8
102
}
330
A
100
AcDbEntity
  8
DIM
100
AcDbDimension
  2
*D85
 10
173.6288393160044
 20
103.4748948343077
 30
0.0
 11
159.5535680677311
 21
105.8073948343077
 31
0.0
 70
    32
  1
※
 71
     5
 42
28.15054249654671
 73
     0
 74
     0
 75
     0
  3
tfrom線あり
100
AcDbAlignedDimension
 13
145.4782968194577
 23
116.1050081288886
 33
0.0
 14
173.6288393160044
 24
116.1050081288886
 34
0.0
100
AcDbRotatedDimension
1001
ACAD
1000
DSTYLE
1002
{
1070
   140
1040
2.5
1070
   144
1040
1.0
1002
}
  0
LINE
  5
26C9
330
A
100
AcDbEntity
  8
MODEL
100
AcDbLine
 10
137.4171326729889
 20
116.1407299017592
 30
0.0
 11
141.9010534731718
 21
93.19615835547037
 31
0.0
  0
MTEXT
  5
26FA
330
A
100
AcDbEntity
  8
DIM
390
1D
100
AcDbMText
 10
141.3103902587462
 20
91.91589649725093
 30
0.0
 40
2.5
 41
0.0
 46
3.366
 71
     1
 72
     1
  1
{連絡金具}
  7
ＭＳ ゴシック
 73
     1
 44
0.7828267384257843
1001
ACAD
1000
ACAD_MTEXT_DEFINED_HEIGHT_BEGIN
1070
    46
1040
3.366
1000
ACAD_MTEXT_DEFINED_HEIGHT_END
  0
LINE
  5
26FB
330
A
100
AcDbEntity
  8
MODEL
100
AcDbLine
 10
99.35766589770475
 20
115.4226163053149
 30
0.0
 11
103.5053561891066
 21
101.6186644051791
 31
0.0
  0
LINE
  5
26FC
330
A
100
AcDbEntity
  8
MODEL
100
AcDbLine
 10
107.4167566880421
 20
116.8812198833737
 30
0.0
 11
105.703901649299
 21
102.3515128919099
 31
0.0
  0
MTEXT
  5
272D
330
A
100
AcDbEntity
  8
DIM
390
1D
100
AcDbMText
 10
99.74950769461128
 20
99.12166438965008
 30
0.0
 40
2.5
 41
0.0
 46
3.366
 71
     1
 72
     1
  1
{延長金具}
  7
ＭＳ ゴシック
 73
     1
 44
0.7828267384257843
1001
ACAD
1000
ACAD_MTEXT_DEFINED_HEIGHT_BEGIN
1070
    46
1040
3.366
1000
ACAD_MTEXT_DEFINED_HEIGHT_END
  0
MTEXT
  5
2731
330
A
100
AcDbEntity
  8
DIM
390
1D
100
AcDbMText
 10
35.62526510566658
 20
93.77966343430595
 30
0.0
 40
2.5
 41
0.0
 46
3.366
 71
     1
 72
     1
  1
{ポップアップ排水金具}
  7
ＭＳ ゴシック
 73
     1
 44
0.7828267384257843
1001
ACAD
1000
ACAD_MTEXT_DEFINED_HEIGHT_BEGIN
1070
    46
1040
3.366
1000
ACAD_MTEXT_DEFINED_HEIGHT_END
  0
LINE
  5
2732
330
A
100
AcDbEntity
  8
MODEL
100
AcDbLine
 10
53.58005303057109
 20
96.03069469385682
 30
0.0
 11
60.63371971535501
 21
114.0770886796027
 31
0.0
  0
MTEXT
  5
2763
330
A
100
AcDbEntity
  8
DIM
390
1D
100
AcDbMText
 10
33.37737391111776
 20
73.70169476789985
 30
0.0
 40
2.5
 41
0.0
 46
3.336
 71
     1
 72
     1
  1
{※余分な丸棒はカットしてください。}
  7
ＭＳ ゴシック
 73
     1
 44
0.7828267384257843
1001
ACAD
1000
ACAD_MTEXT_DEFINED_HEIGHT_BEGIN
1070
    46
1040
3.336
1000
ACAD_MTEXT_DEFINED_HEIGHT_END
  0
LINE
  5
2764
330
A
100
AcDbEntity
  8
DIM
100
AcDbLine
 10
32.98161906572621
 20
159.5558266559113
 30
0.0
 11
20.88103081940152
 21
159.5558266559113
 31
0.0
  0
LINE
  5
2765
330
A
100
AcDbEntity
  8
DIM
100
AcDbLine
 10
20.88103081940152
 20
159.5558266559113
 30
0.0
 11
20.8810308194015
 21
60.03264043911309
 31
0.0
  0
LINE
  5
2766
330
A
100
AcDbEntity
  8
DIM
100
AcDbLine
 10
20.8810308194015
 20
60.03264043911309
 30
0.0
 11
188.3371784145199
 21
60.03264043911309
 31
0.0
  0
LINE
  5
2767
330
A
100
AcDbEntity
  8
DIM
100
AcDbLine
 10
188.3371784145199
 20
60.03264043911309
 30
0.0
 11
188.3371784145199
 21
159.5558266559113
 31
0.0
  0
LINE
  5
2768
330
A
100
AcDbEntity
  8
DIM
100
AcDbLine
 10
48.44384160162254
 20
159.5558266559113
 30
0.0
 11
188.3371784145199
 21
159.5558266559113
 31
0.0
  0
LINE
  5
2774
330
A
100
AcDbEntity
  8
MODEL
100
AcDbLine
 10
49.81075955184008
 20
229.7702609908941
 30
0.0
 11
49.81060904245017
 21
224.5699010551219
 31
0.0
  0
LINE
  5
2775
102
{ACAD_REACTORS
330
1F29
330
1F38
330
1F56
102
}
330
A
100
AcDbEntity
  8
MODEL
100
AcDbLine
 10
49.81060904245018
 20
222.1692085413717
 30
0.0
 11
49.81060904245018
 21
224.5699010551219
 31
0.0
  0
LINE
  5
277C
330
A
100
AcDbEntity
  8
MODEL
100
AcDbLine
 10
89.81060904245018
 20
224.6699010551219
 30
0.0
 11
69.7659458204931
 21
224.6699010551219
 31
0.0
  0
LINE
  5
277D
102
{ACAD_REACTORS
330
281E
102
}
330
A
100
AcDbEntity
  8
MODEL
100
AcDbLine
 10
89.81060904245018
 20
229.6699010551219
 30
0.0
 11
83.33417169486037
 21
229.6699010551219
 31
0.0
  0
LINE
  5
277E
102
{ACAD_REACTORS
330
281E
102
}
330
A
100
AcDbEntity
  8
MODEL
100
AcDbLine
 10
83.33417169486037
 20
229.7841299082974
 30
0.0
 11
89.81060904245018
 21
229.7841299082974
 31
0.0
  0
LINE
  5
277F
102
{ACAD_REACTORS
330
281E
102
}
330
A
100
AcDbEntity
  8
MODEL
100
AcDbLine
 10
83.33417169486037
 20
229.7841299082974
 30
0.0
 11
83.33417169486037
 21
229.6699010551219
 31
0.0
  0
LINE
  5
2780
330
A
100
AcDbEntity
  8
MODEL
100
AcDbLine
 10
83.33417169486037
 20
229.6699010551219
 30
0.0
 11
81.28704639003999
 21
229.6699010551219
 31
0.0
  0
LINE
  5
2781
330
A
100
AcDbEntity
  8
MODEL
100
AcDbLine
 10
81.28704639003999
 20
229.6699010551219
 30
0.0
 11
81.28719590359968
 21
229.7729005871428
 31
0.0
  0
LINE
  5
2782
330
A
100
AcDbEntity
  8
MODEL
100
AcDbLine
 10
58.33432120842008
 20
229.7729005871428
 30
0.0
 11
58.33417169486039
 21
229.3990512752231
 31
0.0
  0
LINE
  5
2783
330
A
100
AcDbEntity
  8
MODEL
100
AcDbLine
 10
58.33417169486039
 20
229.3990512752231
 30
0.0
 11
56.28704639003999
 21
229.3990512752231
 31
0.0
  0
LINE
  5
2784
330
A
100
AcDbEntity
  8
MODEL
100
AcDbLine
 10
56.28704639003999
 20
229.3990512752231
 30
0.0
 11
56.28719689942989
 21
229.7702609908941
 31
0.0
  0
LINE
  5
2785
102
{ACAD_REACTORS
330
27F6
102
}
330
A
100
AcDbEntity
  8
MODEL
100
AcDbLine
 10
49.81075955184008
 20
229.7702609908941
 30
0.0
 11
56.28719689942989
 21
229.7702609908941
 31
0.0
  0
LINE
  5
27E4
330
A
100
AcDbEntity
  8
DIM
  6
HIDDEN
 48
0.4
100
AcDbLine
 10
95.77476066660545
 20
117.5915691254704
 30
0.0
 11
95.77476066660545
 21
116.09156912127
 31
0.0
  0
LINE
  5
27E5
330
A
100
AcDbEntity
  8
DIM
  6
HIDDEN
 48
0.4
100
AcDbLine
 10
100.9684343951039
 20
117.5915691254704
 30
0.0
 11
95.77476066660545
 21
117.5915691254704
 31
0.0
  0
LINE
  5
27E6
330
A
100
AcDbEntity
  8
DIM
  6
HIDDEN
 48
0.4
100
AcDbLine
 10
100.9684343951039
 20
116.09156912127
 30
0.0
 11
95.77476066660545
 21
116.09156912127
 31
0.0
  0
LINE
  5
27E8
330
A
100
AcDbEntity
  8
DIM
  6
HIDDEN
 48
0.4
100
AcDbLine
 10
88.96843439510388
 20
117.5915691254704
 30
0.0
 11
94.16210812360232
 21
117.5915691254704
 31
0.0
  0
LINE
  5
27E9
330
A
100
AcDbEntity
  8
DIM
  6
HIDDEN
 48
0.4
100
AcDbLine
 10
88.96843439510388
 20
116.09156912127
 30
0.0
 11
94.16210812360232
 21
116.09156912127
 31
0.0
  0
LINE
  5
27EA
330
A
100
AcDbEntity
  8
DIM
  6
HIDDEN
 48
0.4
100
AcDbLine
 10
94.16210812360232
 20
117.5915691254704
 30
0.0
 11
94.16210812360232
 21
116.09156912127
 31
0.0
  0
LINE
  5
27EB
330
A
100
AcDbEntity
  8
MODEL
100
AcDbLine
 10
141.6673247423569
 20
116.1050081288886
 30
0.0
 11
145.4782968194577
 21
116.1050081288886
 31
0.0
  0
LINE
  5
27ED
330
A
100
AcDbEntity
  8
MODEL
100
AcDbLine
 10
145.4782968194577
 20
117.5905353556536
 30
0.0
 11
141.6673247423569
 21
117.5905353556536
 31
0.0
  0
LINE
  5
27F1
102
{ACAD_REACTORS
330
27F6
102
}
330
A
100
AcDbEntity
  8
DIM
100
AcDbLine
 10
49.81060904245017
 20
224.5699010551219
 30
0.0
 11
89.81060904245018
 21
224.5699010551219
 31
0.0
  0
LINE
  5
27F2
102
{ACAD_REACTORS
330
281E
102
}
330
A
100
AcDbEntity
  8
DIM
100
AcDbLine
 10
89.81060904245018
 20
229.7841299082974
 30
0.0
 11
89.81060904245018
 21
229.6699010551219
 31
0.0
  0
LINE
  5
27F3
330
A
100
AcDbEntity
  8
DIM
100
AcDbLine
 10
89.81060904245018
 20
224.5699010551219
 30
0.0
 11
89.81060904245018
 21
224.6699010551219
 31
0.0
  0
DIMENSION
  5
27F4
102
{ACAD_REACTORS
330
27F6
102
}
102
{ACAD_XDICTIONARY
360
27F5
102
}
330
A
100
AcDbEntity
  8
DIM
100
AcDbDimension
  2
*D89
 10
44.18547662113259
 20
224.5699010551219
 30
0.0
 11
41.93547662113259
 21
227.170081023008
 31
0.0
 70
    32
 71
     5
 42
5.200359935772155
 73
     0
 74
     1
 75
     1
  3
tfrom線あり
100
AcDbAlignedDimension
 13
49.81075955184008
 23
229.7702609908941
 33
0.0
 14
49.81060904245017
 24
224.5699010551219
 34
0.0
 50
90.0
100
AcDbRotatedDimension
1001
ACAD
1000
DSTYLE
1002
{
1070
   140
1040
2.5
1070
   172
1070
     1
1070
     3
1000
%%c<>
1070
   271
1070
     1
1070
   144
1040
1.0
1002
}
  0
LINE
  5
2805
330
A
100
AcDbEntity
  8
DIM
100
AcDbLine
 10
81.28704639003999
 20
229.6699010551219
 30
0.0
 11
69.7659458204931
 21
229.6699010551219
 31
0.0
  0
HATCH
  5
281E
330
A
100
AcDbEntity
  8
DIM
 62
   253
100
AcDbHatch
 10
0.0
 20
0.0
 30
0.0
210
0.0
220
0.0
230
1.0
  2
SOLID
 70
     1
 71
     1
 91
        1
 92
        1
 93
        4
 72
     1
 10
83.33417169486037
 20
229.7841299082974
 11
89.81060904245018
 21
229.7841299082974
 72
     1
 10
89.81060904245018
 20
229.7841299082974
 11
89.81060904245018
 21
229.6699010551219
 72
     1
 10
89.81060904245018
 20
229.6699010551219
 11
83.33417169486037
 21
229.6699010551219
 72
     1
 10
83.33417169486037
 20
229.6699010551219
 11
83.33417169486037
 21
229.7841299082974
 97
        4
330
277E
330
27F2
330
277D
330
277F
 75
     0
 76
     1
 98
        1
 10
0.0
 20
0.0
1001
ACAD
1010
0.0
1020
0.0
1030
0.0
  0
LWPOLYLINE
  5
2829
102
{ACAD_REACTORS
330
282F
102
}
330
A
100
AcDbEntity
  8
DIM
100
AcDbPolyline
 90
        4
 70
     1
 43
0.0
 10
69.7659458204931
 20
229.6699010551219
 10
69.7659458204931
 20
229.7729005871428
 10
81.28719590359968
 20
229.7729005871428
 10
81.28719590359968
 20
229.6699010551219
  0
LWPOLYLINE
  5
282A
102
{ACAD_REACTORS
330
282F
102
}
330
A
100
AcDbEntity
  8
DIM
100
AcDbPolyline
 90
        4
 70
     1
 43
0.0
 10
69.7659458204931
 20
224.6699010551219
 10
69.7659458204931
 20
224.5699010551219
 10
89.81060904245018
 20
224.5699010551219
 10
89.81060904245018
 20
224.6699010551219
  0
LWPOLYLINE
  5
282B
102
{ACAD_REACTORS
330
282F
102
}
330
A
100
AcDbEntity
  8
DIM
100
AcDbPolyline
 90
        4
 70
     1
 43
0.0
 10
49.81075955184008
 20
229.7702609908941
 10
49.81075955184008
 20
224.5699010551219
 10
69.7659458204931
 20
224.5699010551219
 10
69.7659458204931
 20
229.7702609908941
  0
HATCH
  5
282F
330
A
100
AcDbEntity
  8
DIM
 62
   253
100
AcDbHatch
 10
0.0
 20
0.0
 30
0.0
210
0.0
220
0.0
230
1.0
  2
SOLID
 70
     1
 71
     1
 91
        3
 92
        1
 93
        4
 72
     1
 10
49.81075955184008
 20
229.7702609908941
 11
49.81075955184008
 21
224.5699010551219
 72
     1
 10
49.81075955184008
 20
224.5699010551219
 11
69.7659458204931
 21
224.5699010551219
 72
     1
 10
69.7659458204931
 20
224.5699010551219
 11
69.7659458204931
 21
229.7702609908941
 72
     1
 10
69.7659458204931
 20
229.7702609908941
 11
49.81075955184008
 21
229.7702609908941
 97
        1
330
282B
 92
        1
 93
        4
 72
     1
 10
69.7659458204931
 20
224.6699010551219
 11
69.7659458204931
 21
224.5699010551219
 72
     1
 10
69.7659458204931
 20
224.5699010551219
 11
89.81060904245018
 21
224.5699010551219
 72
     1
 10
89.81060904245018
 20
224.5699010551219
 11
89.81060904245018
 21
224.6699010551219
 72
     1
 10
89.81060904245018
 20
224.6699010551219
 11
69.7659458204931
 21
224.6699010551219
 97
        1
330
282A
 92
        1
 93
        4
 72
     1
 10
69.7659458204931
 20
229.6699010551219
 11
69.7659458204931
 21
229.7729005871428
 72
     1
 10
69.7659458204931
 20
229.7729005871428
 11
81.28719590359968
 21
229.7729005871428
 72
     1
 10
81.28719590359968
 20
229.7729005871428
 11
81.28719590359968
 21
229.6699010551219
 72
     1
 10
81.28719590359968
 20
229.6699010551219
 11
69.7659458204931
 21
229.6699010551219
 97
        1
330
2829
 75
     0
 76
     1
 98
        1
 10
0.0
 20
0.0
1001
ACAD
1010
0.0
1020
0.0
1030
0.0
  0
VIEWPORT
  5
349
330
B
100
AcDbEntity
 67
     1
  8
0
100
AcDbViewport
 10
202.5
 20
128.5
 30
0.0
 40
486.0
 41
308.4
 68
     1
 69
     1
 12
202.5
 22
128.5
 13
0.0
 23
0.0
 14
0.5
 24
0.5
 15
0.0
 25
0.0
 16
0.0
 26
0.0
 36
1.0
 17
0.0
 27
0.0
 37
0.0
 42
50.0
 43
0.0
 44
0.0
 45
308.4
 50
0.0
 51
0.0
 72
   100
 90
   557152
  1

281
     0
 71
     1
 74
     0
110
0.0
120
0.0
130
0.0
111
1.0
121
0.0
131
0.0
112
0.0
122
1.0
132
0.0
 79
     0
146
0.0
170
     0
 61
     5
348
26C
292
     1
282
     1
141
0.0
142
0.0
 63
   256
  0
VIEWPORT
  5
34A
330
B
100
AcDbEntity
 67
     1
  8
0
100
AcDbViewport
 10
202.5
 20
128.5
 30
0.0
 40
324.0
 41
205.6
 68
     2
 69
     2
 12
986.6781359294573
 22
1427.077061889956
 13
0.0
 23
0.0
 14
0.5
 24
0.5
 15
0.0
 25
0.0
 16
0.0
 26
0.0
 36
1.0
 17
0.0
 27
0.0
 37
0.0
 42
50.0
 43
0.0
 44
0.0
 45
2890.021615685494
 50
0.0
 51
0.0
 72
   100
 90
   557152
  1

281
     0
 71
     1
 74
     0
110
0.0
120
0.0
130
0.0
111
1.0
121
0.0
131
0.0
112
0.0
122
1.0
132
0.0
 79
     0
146
0.0
170
     0
 61
     5
348
26C
292
     1
282
     1
141
0.0
142
0.0
 63
   256
  0
ENDSEC
  0
SECTION
  2
OBJECTS
  0
DICTIONARY
  5
19
330
0
100
AcDbDictionary
281
     1
  3
ACAD_COLOR
350
674
  3
ACAD_DETAILVIEWSTYLE
350
BBF
  3
ACAD_FIELDLIST
350
1E8E
  3
ACAD_GROUP
350
1A
  3
ACAD_IMAGE_VARS
350
27B
  3
ACAD_LAYOUT
350
1E
  3
ACAD_MATERIAL
350
263
  3
ACAD_MLEADERSTYLE
350
336
  3
ACAD_MLINESTYLE
350
1B
  3
ACAD_PLOTSETTINGS
350
22
  3
ACAD_PLOTSTYLENAME
350
1F
  3
ACAD_SCALELIST
350
241
  3
ACAD_SECTIONVIEWSTYLE
350
BC0
  3
ACAD_TABLESTYLE
350
278
  3
ACAD_VISUALSTYLE
350
267
  3
ACDB_RECOMPOSE_DATA
350
283B
  3
AcDbVariableDictionary
350
330
  3
APPDATA
350
27A
  3
DimOffsetDictionary
350
E38
  0
SUN
  5
904
330
15
100
AcDbSun
 90
        1
290
     0
 63
     7
421
 16777215
 40
1.0
291
     1
 91
  2455826
 92
 54000000
292
     0
 70
     2
 71
   256
280
     1
  0
DICTIONARY
  5
2E1
330
2
100
AcDbDictionary
280
     1
281
     1
  3
ACAD_LAYERSTATES
360
2E2
  3
ACLYDICTIONARY
360
27CB
  0
DICTIONARY
  5
2778
330
A
100
AcDbDictionary
280
     1
281
     1
  3
ACAD_SORTENTS
360
2779
  0
DICTIONARY
  5
1EAC
330
1EAB
100
AcDbDictionary
280
     1
281
     1
  3
ACAD_FIELD
360
1EC5
  0
DICTIONARY
  5
1F28
330
1F27
100
AcDbDictionary
280
     1
281
     1
  3
ACAD_DIMASSOC
360
1F29
  0
DICTIONARY
  5
1F37
330
1F36
100
AcDbDictionary
280
     1
281
     1
  3
ACAD_DIMASSOC
360
1F38
  0
DICTIONARY
  5
1F55
330
1F54
100
AcDbDictionary
280
     1
281
     1
  3
ACAD_DIMASSOC
360
1F56
  0
DICTIONARY
  5
1F64
330
1F63
100
AcDbDictionary
280
     1
281
     1
  0
DICTIONARY
  5
1F75
330
1F74
100
AcDbDictionary
280
     1
281
     1
  3
ACAD_DIMASSOC
360
1F76
  0
DICTIONARY
  5
26B8
330
26B7
100
AcDbDictionary
280
     1
281
     1
  3
ACAD_DIMASSOC
360
26B9
  0
DICTIONARY
  5
27F5
330
27F4
100
AcDbDictionary
280
     1
281
     1
  3
ACAD_DIMASSOC
360
27F6
  0
DICTIONARY
  5
674
102
{ACAD_REACTORS
330
19
102
}
330
19
100
AcDbDictionary
281
     1
  0
DICTIONARY
  5
BBF
102
{ACAD_REACTORS
330
19
102
}
330
19
100
AcDbDictionary
281
     1
  0
FIELDLIST
  5
1E8E
102
{ACAD_REACTORS
330
19
102
}
330
19
100
AcDbIdSet
 90
        2
330
1EAF
330
1EAE
100
AcDbFieldList
  0
DICTIONARY
  5
1A
102
{ACAD_REACTORS
330
19
102
}
330
19
100
AcDbDictionary
281
     1
  3
*A7
350
25B5
  0
RASTERVARIABLES
  5
27B
102
{ACAD_REACTORS
330
19
102
}
330
19
100
AcDbRasterVariables
 90
        0
 70
     1
 71
     1
 72
     1
  0
DICTIONARY
  5
1E
102
{ACAD_REACTORS
330
19
102
}
330
19
100
AcDbDictionary
281
     1
  3
Layout1
350
21
  3
Model
350
20
  0
DICTIONARY
  5
263
102
{ACAD_REACTORS
330
19
102
}
330
19
100
AcDbDictionary
281
     1
  3
ByBlock
350
265
  3
ByLayer
350
264
  3
Global
350
266
  0
DICTIONARY
  5
336
102
{ACAD_REACTORS
330
19
102
}
330
19
100
AcDbDictionary
281
     1
  3
Standard
350
D59
  0
DICTIONARY
  5
1B
102
{ACAD_REACTORS
330
19
102
}
330
19
100
AcDbDictionary
281
     1
  3
Standard
350
1C
  0
DICTIONARY
  5
22
102
{ACAD_REACTORS
330
19
102
}
330
19
100
AcDbDictionary
281
     1
  0
ACDBDICTIONARYWDFLT
  5
1F
102
{ACAD_REACTORS
330
19
102
}
330
19
100
AcDbDictionary
281
     1
  3
Normal
350
1D
100
AcDbDictionaryWithDefault
340
1D
  0
DICTIONARY
  5
241
102
{ACAD_REACTORS
330
19
102
}
330
19
100
AcDbDictionary
281
     1
  3
A0
350
242
  3
A1
350
243
  3
A2
350
244
  3
A3
350
245
  3
A4
350
246
  3
A5
350
247
  3
A6
350
248
  3
A7
350
249
  3
A8
350
24A
  3
A9
350
24B
  3
B0
350
24C
  3
B1
350
24D
  3
B2
350
24E
  3
B3
350
24F
  3
B4
350
250
  3
B5
350
251
  3
B6
350
252
  3
B7
350
253
  3
B8
350
254
  3
B9
350
255
  3
C0
350
256
  3
C1
350
257
  3
C2
350
258
  3
C3
350
259
  3
C4
350
25A
  3
C5
350
25B
  3
C6
350
25C
  3
C7
350
25D
  3
C8
350
25E
  3
C9
350
25F
  3
D0
350
260
  3
D1
350
261
  3
D2
350
262
  0
DICTIONARY
  5
BC0
102
{ACAD_REACTORS
330
19
102
}
330
19
100
AcDbDictionary
281
     1
  0
DICTIONARY
  5
278
102
{ACAD_REACTORS
330
19
102
}
330
19
100
AcDbDictionary
281
     1
  3
Standard
350
279
  0
DICTIONARY
  5
267
102
{ACAD_REACTORS
330
19
102
}
330
19
100
AcDbDictionary
281
     1
  3
2dWireframe
350
26C
  3
3D Hidden
350
26E
  3
3dWireframe
350
26D
  3
Basic
350
26F
  3
Brighten
350
273
  3
ColorChange
350
277
  3
Conceptual
350
271
  3
Dim
350
272
  3
EdgeColorOff
350
8FE
  3
Facepattern
350
276
  3
Flat
350
268
  3
FlatWithEdges
350
269
  3
Gouraud
350
26A
  3
GouraudWithEdges
350
26B
  3
Hidden
350
8FB
  3
JitterOff
350
8FC
  3
Linepattern
350
275
  3
OverhangOff
350
8FD
  3
Realistic
350
270
  3
Shaded
350
903
  3
Shaded with edges
350
902
  3
Shades of Gray
350
8FF
  3
Sketchy
350
900
  3
Thicken
350
274
  3
Wireframe
350
8FA
  3
X-Ray
350
901
  0
XRECORD
  5
283B
102
{ACAD_REACTORS
330
19
102
}
330
19
100
AcDbXrecord
280
     1
 90
        1
330
279
  0
DICTIONARY
  5
330
102
{ACAD_REACTORS
330
19
102
}
330
19
100
AcDbDictionary
281
     1
  3
CANNOSCALE
350
331
  3
CMLEADERSTYLE
350
D5E
  3
CTABLESTYLE
350
335
  3
HPTRANSPARENCY
350
D52
  3
XCLIPFRAME
350
896
  0
DICTIONARY
  5
27A
102
{ACAD_REACTORS
330
19
102
}
330
19
100
AcDbDictionary
281
     1
  0
DICTIONARY
  5
E38
102
{ACAD_REACTORS
330
19
102
}
330
19
100
AcDbDictionary
281
     1
  3
DIMRAILANGLE
350
1DFC
  3
DIMRAILFIRSTOFFSET
350
1DFA
  3
DIMRAILOFFSET
350
1DFB
  3
DIMRAILSENABLED
350
1DFD
  0
DICTIONARY
  5
2E2
102
{ACAD_REACTORS
330
2E1
102
}
330
2E1
100
AcDbDictionary
281
     1
  0
DICTIONARY
  5
27CB
102
{ACAD_REACTORS
330
2E1
102
}
330
2E1
100
AcDbDictionary
281
     1
1001
ACAD
1000
<All
  0
SORTENTSTABLE
  5
2779
102
{ACAD_REACTORS
330
2778
102
}
330
2778
100
AcDbSortentsTable
330
A
331
1ECD
  5
1EFB
331
0
  5
1EFC
331
0
  5
1EFD
331
0
  5
1EFE
331
1EDF
  5
1EFF
331
1EE0
  5
1F00
331
1EE1
  5
1F01
331
0
  5
1F02
331
1EE4
  5
1F03
331
1EE5
  5
1F04
331
1EE6
  5
1F05
331
0
  5
1F06
331
1EE8
  5
1F07
331
1EE9
  5
1F08
331
1EEA
  5
1F09
331
1EEE
  5
1F0A
331
0
  5
1F0B
331
0
  5
1F0D
331
1EFD
  5
1F1A
331
0
  5
1F1B
331
1EFF
  5
1F1C
331
0
  5
1F1D
331
1F01
  5
1F1E
331
0
  5
1F1F
331
0
  5
1F20
331
1F04
  5
1F21
331
1F05
  5
1F22
331
1F06
  5
1F23
331
1F07
  5
1F24
331
1F08
  5
1F25
331
1F09
  5
1F27
331
1F0A
  5
1F36
331
1F0B
  5
1F45
331
1F0D
  5
1F54
331
0
  5
1F63
331
0
  5
1F72
331
0
  5
1F73
331
0
  5
1F74
331
0
  5
1FB9
331
0
  5
1FBA
331
0
  5
1FBB
331
0
  5
1FBC
331
0
  5
1FBD
331
0
  5
1FBE
331
0
  5
1FBF
331
0
  5
1FC1
331
1F27
  5
1FC2
331
1F36
  5
1FC3
331
0
  5
1FC4
331
1F54
  5
1FC5
331
1F63
  5
1FC6
331
1F72
  5
1FC7
331
1F73
  5
1FC8
331
1F74
  5
1FC9
331
0
  5
1FCA
331
1FBA
  5
1FCB
331
0
  5
1FCC
331
0
  5
1FCD
331
1FBD
  5
1FCE
331
1FBE
  5
1FD3
331
0
  5
1FD4
331
1FC1
  5
1FD5
331
1FC2
  5
1FD6
331
1FC3
  5
2236
331
1FC4
  5
2237
331
1FC5
  5
223D
331
1FC6
  5
2241
331
1FC7
  5
2245
331
1FC8
  5
2260
331
1FC9
  5
2264
331
1FCA
  5
2268
331
0
  5
2272
331
1FCC
  5
2276
331
1FCD
  5
2280
331
0
  5
2284
331
0
  5
2288
331
0
  5
228C
331
0
  5
2290
331
0
  5
2294
331
0
  5
2298
331
0
  5
229C
331
223D
  5
22A0
331
2241
  5
22A4
331
2245
  5
22A8
331
2260
  5
22AC
331
2264
  5
22B0
331
2268
  5
22B4
331
2272
  5
22B8
331
2276
  5
22BC
331
2280
  5
22C0
331
2284
  5
22C4
331
2288
  5
22C8
331
228C
  5
22CC
331
2290
  5
22D0
331
2294
  5
22D4
331
2298
  5
22D8
331
229C
  5
22DC
331
22A0
  5
22E8
331
22A4
  5
22EC
331
22A8
  5
22F0
331
22AC
  5
22F4
331
22B0
  5
22F8
331
22B4
  5
22FC
331
22B8
  5
2300
331
22BC
  5
2304
331
22C0
  5
2308
331
22C4
  5
230C
331
22C8
  5
2310
331
22CC
  5
2314
331
22D0
  5
2318
331
22D4
  5
2324
331
22D8
  5
2329
331
22DC
  5
232D
331
22E8
  5
2331
331
22EC
  5
2335
331
22F0
  5
2339
331
22F4
  5
233D
331
22F8
  5
2344
331
22FC
  5
2348
331
2300
  5
234C
331
2304
  5
2350
331
2308
  5
2354
331
230C
  5
2358
331
2310
  5
235C
331
2314
  5
2364
331
2318
  5
2368
331
2324
  5
236C
331
2329
  5
2377
331
232D
  5
237E
331
2331
  5
2384
331
2335
  5
2388
331
2339
  5
2391
331
233D
  5
2395
331
2344
  5
2399
331
2348
  5
239D
331
234C
  5
23A1
331
2350
  5
23A5
331
2354
  5
23A9
331
2358
  5
23B0
331
235C
  5
23B7
331
2364
  5
23BB
331
2368
  5
23BF
331
236C
  5
23C3
331
2377
  5
23CB
331
237E
  5
23CF
331
2384
  5
23D3
331
2388
  5
23DA
331
2391
  5
23E1
331
2395
  5
23EA
331
2399
  5
23EE
331
239D
  5
23F2
331
23A1
  5
23F7
331
23A5
  5
23FB
331
23A9
  5
2400
331
23B0
  5
2405
331
23B7
  5
2409
331
23BB
  5
2414
331
23BF
  5
2418
331
23C3
  5
241F
331
23CB
  5
2429
331
23CF
  5
242D
331
23D3
  5
2435
331
23DA
  5
2439
331
23E1
  5
2441
331
23EA
  5
2445
331
23EE
  5
2449
331
23F2
  5
2450
331
23F7
  5
2457
331
23FB
  5
245B
331
2400
  5
245F
331
2405
  5
2463
331
2409
  5
2467
331
2414
  5
246B
331
2418
  5
246F
331
241F
  5
252F
331
2429
  5
2530
331
242D
  5
2531
331
2435
  5
2532
331
2439
  5
2533
331
2441
  5
2534
331
2445
  5
2535
331
2449
  5
2536
331
2450
  5
2537
331
2457
  5
2538
331
245B
  5
2539
331
245F
  5
253A
331
2463
  5
253B
331
2467
  5
253C
331
246B
  5
253D
331
0
  5
253E
331
0
  5
253F
331
2530
  5
2540
331
2531
  5
2541
331
0
  5
2542
331
0
  5
2543
331
0
  5
2544
331
2535
  5
2545
331
2536
  5
2546
331
0
  5
2547
331
0
  5
2548
331
0
  5
2549
331
0
  5
254A
331
0
  5
254B
331
0
  5
254C
331
0
  5
254F
331
0
  5
2552
331
0
  5
2554
331
2540
  5
2555
331
2541
  5
2556
331
2542
  5
2559
331
2543
  5
255A
331
0
  5
255B
331
2545
  5
255C
331
2546
  5
255D
331
0
  5
255E
331
0
  5
255F
331
0
  5
2560
331
0
  5
2561
331
0
  5
2562
331
0
  5
2563
331
0
  5
2564
331
0
  5
2565
331
0
  5
2566
331
0
  5
2567
331
0
  5
2568
331
2559
  5
2569
331
255A
  5
25B2
331
255B
  5
25B3
331
255C
  5
25ED
331
255D
  5
25EE
331
255E
  5
25F2
331
255F
  5
25F6
331
0
  5
25F9
331
2561
  5
2600
331
2562
  5
2634
331
0
  5
2635
331
0
  5
2636
331
0
  5
263D
331
0
  5
263E
331
2567
  5
266E
331
2568
  5
266F
331
2569
  5
269F
331
0
  5
26A0
331
0
  5
26A1
331
0
  5
26B1
331
25EE
  5
26B7
331
25F2
  5
26C9
331
25F6
  5
26F9
331
25F9
  5
26FA
331
2600
  5
26FB
331
0
  5
26FC
331
0
  5
272C
331
2636
  5
272D
331
263D
  5
2731
331
0
  5
2732
331
0
  5
2762
331
266F
  5
2763
331
0
  5
2764
331
0
  5
2765
331
0
  5
2766
331
26B1
  5
2767
331
26B7
  5
2768
331
26C9
  5
2772
331
0
  5
2773
331
26FA
  5
2774
331
26FB
  5
2775
331
26FC
  5
2776
331
0
  5
2777
331
272D
  5
277A
331
2731
  5
277B
331
2732
  5
277C
331
0
  5
277D
331
2763
  5
277E
331
2764
  5
277F
331
2765
  5
2780
331
2766
  5
2781
331
2767
  5
2782
331
2768
  5
2783
331
0
  5
2784
331
0
  5
2785
331
2774
  5
278D
331
2775
  5
278E
331
0
  5
278F
331
0
  5
1ECD
331
0
  5
1ECE
331
0
  5
1ECF
331
277C
  5
2790
331
277D
  5
2794
331
277E
  5
2795
331
277F
  5
2796
331
2780
  5
2797
331
2781
  5
2798
331
2782
  5
2799
331
2783
  5
279A
331
2784
  5
27AC
331
2785
  5
27AD
331
0
  5
27D2
331
0
  5
2789
331
0
  5
278A
331
0
  5
278B
331
0
  5
278C
331
0
  5
1EDE
331
0
  5
1EDF
331
0
  5
1EE0
331
0
  5
1EE1
331
0
  5
1EE3
331
0
  5
1EE4
331
0
  5
1EE5
331
0
  5
1EE6
331
0
  5
1EE7
331
0
  5
1EE8
331
0
  5
1EE9
331
0
  5
1EEA
331
0
  5
1EEE
331
0
  5
27E2
331
0
  5
27E3
331
0
  5
27E4
331
0
  5
27E5
331
0
  5
27E6
331
27E4
  5
27E8
331
27E5
  5
27E9
331
27E6
  5
27EA
331
27E8
  5
27EB
331
27E9
  5
27EC
331
27EA
  5
27ED
331
27EB
  5
27EE
331
0
  5
27EF
331
27ED
  5
27F0
331
0
  5
27F1
331
0
  5
27F2
331
0
  5
27F3
331
27F1
  5
27F4
331
27F2
  5
2805
331
27F3
  5
2809
331
27F4
  5
280A
331
2805
  5
280B
331
0
  5
280C
331
0
  5
280D
331
0
  5
280E
331
0
  5
280F
331
0
  5
2810
331
0
  5
2811
331
0
  5
2812
331
0
  5
2813
331
0
  5
2814
331
0
  5
2815
331
0
  5
2816
331
0
  5
2817
331
0
  5
2818
331
0
  5
2819
331
0
  5
281A
331
0
  5
281B
331
0
  5
281C
331
0
  5
281D
331
0
  5
281E
331
0
  5
2791
331
0
  5
2792
331
281E
  5
2793
331
2829
  5
282B
331
282A
  5
282D
331
282B
  5
282F
331
0
  5
282E
331
0
  5
282C
331
0
  5
2829
331
282F
  5
282A
  0
DICTIONARY
  5
1EC5
102
{ACAD_REACTORS
330
1EAC
102
}
330
1EAC
100
AcDbDictionary
280
     1
281
     1
  3
TEXT
360
1EAE
  0
DIMASSOC
  5
1F29
102
{ACAD_REACTORS
330
1F28
102
}
330
1F28
100
AcDbDimAssoc
330
1F27
 90
        3
 70
     0
 71
     1
  1
AcDbOsnapPointRef
 72
    13
331
1EC6
 73
     0
 91
        0
 40
0.0
 10
0.0
 20
0.0
 30
0.0
 75
     0
  1
AcDbOsnapPointRef
 72
    13
331
1EC9
 73
     0
 91
        0
 40
0.0
 10
0.0
 20
0.0
 30
0.0
 75
     0
  0
DIMASSOC
  5
1F38
102
{ACAD_REACTORS
330
1F37
102
}
330
1F37
100
AcDbDimAssoc
330
1F36
 90
        3
 70
     0
 71
     1
  1
AcDbOsnapPointRef
 72
    13
331
1EC6
 73
     0
 91
        0
 40
0.0
 10
0.0
 20
0.0
 30
0.0
 75
     0
  1
AcDbOsnapPointRef
 72
    13
331
1EC7
 73
     0
 91
        0
 40
0.0
 10
0.0
 20
0.0
 30
0.0
 75
     0
  0
DIMASSOC
  5
1F56
102
{ACAD_REACTORS
330
1F55
102
}
330
1F55
100
AcDbDimAssoc
330
1F54
 90
        1
 70
     0
 71
     1
  1
AcDbOsnapPointRef
 72
    13
331
1EC6
 73
     0
 91
        0
 40
0.0
 10
0.0
 20
0.0
 30
0.0
 75
     0
  0
DIMASSOC
  5
1F76
102
{ACAD_REACTORS
330
1F75
102
}
330
1F75
100
AcDbDimAssoc
330
1F74
 90
        3
 70
     0
 71
     1
  1
AcDbOsnapPointRef
 72
    13
331
1EE9
 73
     0
 91
        0
 40
0.0
 10
0.0
 20
0.0
 30
0.0
 75
     0
  1
AcDbOsnapPointRef
 72
    13
331
1EEA
 73
     0
 91
        0
 40
0.0
 10
0.0
 20
0.0
 30
0.0
 75
     0
  0
DIMASSOC
  5
26B9
102
{ACAD_REACTORS
330
26B8
102
}
330
26B8
100
AcDbDimAssoc
330
26B7
 90
        2
 70
     0
 71
     1
  1
AcDbOsnapPointRef
 72
     1
331
26B1
 73
     2
 91
        1
 40
1.0
 10
0.0
 20
0.0
 30
0.0
 75
     0
  0
DIMASSOC
  5
27F6
102
{ACAD_REACTORS
330
27F5
102
}
330
27F5
100
AcDbDimAssoc
330
27F4
 90
        3
 70
     0
 71
     1
  1
AcDbOsnapPointRef
 72
    13
331
2785
 73
     0
 91
        0
 40
0.0
 10
0.0
 20
0.0
 30
0.0
 75
     0
  1
AcDbOsnapPointRef
 72
    13
331
27F1
 73
     0
 91
        0
 40
0.0
 10
0.0
 20
0.0
 30
0.0
 75
     0
  0
GROUP
  5
25B5
102
{ACAD_REACTORS
330
1A
102
}
330
1A
100
AcDbGroup
300

 70
     1
 71
     1
340
2530
340
2531
340
2535
340
2536
340
2541
340
2542
340
2545
340
2559
340
255A
340
255B
340
255D
340
255E
340
2561
340
2567
340
2568
340
2569
340
2562
340
255C
340
2546
340
255F
340
2543
340
2540
  0
LAYOUT
  5
21
102
{ACAD_REACTORS
330
1E
102
}
330
1E
100
AcDbPlotSettings
  1

  2
none_device
  4
ISO_A3_(420.00_x_297.00_MM)
  6

 40
7.5
 41
20.0
 42
7.5
 43
20.0
 44
420.0
 45
297.0
 46
0.0
 47
0.0
 48
0.0
 49
0.0
140
0.0
141
0.0
142
1.0
143
1.0
 70
     0
 72
     1
 73
     0
 74
     0
  7

 75
     0
 76
     0
 77
     2
 78
   300
147
1.0
148
0.0
149
0.0
100
AcDbLayout
  1
Layout1
 70
     0
 71
     0
 10
-7.5
 20
-20.0
 11
412.5
 21
277.0
 12
0.0
 22
0.0
 32
0.0
 14
0.0
 24
0.0
 34
0.0
 15
0.0
 25
0.0
 35
0.0
146
0.0
 13
0.0
 23
0.0
 33
0.0
 16
0.0
 26
0.0
 36
0.0
 17
0.0
 27
0.0
 37
0.0
 76
     0
330
B
331
349
  0
LAYOUT
  5
20
102
{ACAD_REACTORS
330
1E
102
}
330
1E
100
AcDbPlotSettings
  1

  2
none_device
  4
ISO_A3_(420.00_x_297.00_MM)
  6

 40
7.5
 41
20.0
 42
7.5
 43
20.0
 44
420.0
 45
297.0
 46
0.0
 47
0.0
 48
0.0
 49
0.0
140
0.0
141
0.0
142
1.0
143
1.0
 70
  1024
 72
     1
 73
     0
 74
     0
  7

 75
     0
 76
     0
 77
     2
 78
   300
147
1.0
148
0.0
149
0.0
100
AcDbLayout
  1
Model
 70
     0
 71
     1
 10
0.0
 20
0.0
 11
210.0
 21
297.0
 12
0.0
 22
0.0
 32
0.0
 14
0.0
 24
0.0
 34
-0.0000000000000071
 15
210.0
 25
297.0
 35
0.0000000000000142
146
0.0
 13
0.0
 23
0.0
 33
0.0
 16
0.0
 26
0.0
 36
0.0
 17
0.0
 27
0.0
 37
0.0
 76
     0
330
A
331
15
  0
MATERIAL
  5
265
102
{ACAD_REACTORS
330
263
102
}
330
263
100
AcDbMaterial
  1
ByBlock
 72
     1
 94
      127
  0
MATERIAL
  5
264
102
{ACAD_REACTORS
330
263
102
}
330
263
100
AcDbMaterial
  1
ByLayer
 72
     1
 94
      127
  0
MATERIAL
  5
266
102
{ACAD_REACTORS
330
263
102
}
330
263
100
AcDbMaterial
  1
Global
 72
     1
 94
      127
  0
MLEADERSTYLE
  5
D59
102
{ACAD_REACTORS
330
336
102
}
330
336
100
AcDbMLeaderStyle
170
     2
171
     1
172
     0
 90
        2
 40
0.0
 41
0.0
173
     1
 91
-1056964608
340
11
 92
       -2
290
     1
 42
2.0
291
     1
 43
8.0
  3
Standard
341
0
 44
4.0
300

342
17
174
     1
178
     6
175
     1
176
     0
 93
-1056964608
 45
4.0
292
     0
297
     0
 46
4.0
343
0
 94
-1056964608
 47
1.0
 49
1.0
140
1.0
293
     1
141
0.0
294
     1
177
     0
142
1.0
295
     0
296
     0
143
3.75
1001
ACAD_MLEADERVER
1070
     2
  0
MLINESTYLE
  5
1C
102
{ACAD_REACTORS
330
1B
102
}
330
1B
100
AcDbMlineStyle
  2
Standard
 70
     0
  3

 62
     0
 51
90.0
 52
90.0
 71
     2
 49
0.5
 62
   256
  6
BYLAYER
 49
-0.5
 62
   256
  6
BYLAYER
  0
ACDBPLACEHOLDER
  5
1D
102
{ACAD_REACTORS
330
1F
102
}
330
1F
  0
SCALE
  5
242
102
{ACAD_REACTORS
330
241
102
}
330
241
100
AcDbScale
 70
     0
300
1:1
140
1.0
141
1.0
290
     1
  0
SCALE
  5
243
102
{ACAD_REACTORS
330
241
102
}
330
241
100
AcDbScale
 70
     0
300
1:2
140
1.0
141
2.0
290
     0
  0
SCALE
  5
244
102
{ACAD_REACTORS
330
241
102
}
330
241
100
AcDbScale
 70
     0
300
1:4
140
1.0
141
4.0
290
     0
  0
SCALE
  5
245
102
{ACAD_REACTORS
330
241
102
}
330
241
100
AcDbScale
 70
     0
300
1:5
140
1.0
141
5.0
290
     0
  0
SCALE
  5
246
102
{ACAD_REACTORS
330
241
102
}
330
241
100
AcDbScale
 70
     0
300
1:8
140
1.0
141
8.0
290
     0
  0
SCALE
  5
247
102
{ACAD_REACTORS
330
241
102
}
330
241
100
AcDbScale
 70
     0
300
1:10
140
1.0
141
10.0
290
     0
  0
SCALE
  5
248
102
{ACAD_REACTORS
330
241
102
}
330
241
100
AcDbScale
 70
     0
300
1:16
140
1.0
141
16.0
290
     0
  0
SCALE
  5
249
102
{ACAD_REACTORS
330
241
102
}
330
241
100
AcDbScale
 70
     0
300
1:20
140
1.0
141
20.0
290
     0
  0
SCALE
  5
24A
102
{ACAD_REACTORS
330
241
102
}
330
241
100
AcDbScale
 70
     0
300
1:30
140
1.0
141
30.0
290
     0
  0
SCALE
  5
24B
102
{ACAD_REACTORS
330
241
102
}
330
241
100
AcDbScale
 70
     0
300
1:40
140
1.0
141
40.0
290
     0
  0
SCALE
  5
24C
102
{ACAD_REACTORS
330
241
102
}
330
241
100
AcDbScale
 70
     0
300
1:50
140
1.0
141
50.0
290
     0
  0
SCALE
  5
24D
102
{ACAD_REACTORS
330
241
102
}
330
241
100
AcDbScale
 70
     0
300
1:100
140
1.0
141
100.0
290
     0
  0
SCALE
  5
24E
102
{ACAD_REACTORS
330
241
102
}
330
241
100
AcDbScale
 70
     0
300
2:1
140
2.0
141
1.0
290
     0
  0
SCALE
  5
24F
102
{ACAD_REACTORS
330
241
102
}
330
241
100
AcDbScale
 70
     0
300
4:1
140
4.0
141
1.0
290
     0
  0
SCALE
  5
250
102
{ACAD_REACTORS
330
241
102
}
330
241
100
AcDbScale
 70
     0
300
8:1
140
8.0
141
1.0
290
     0
  0
SCALE
  5
251
102
{ACAD_REACTORS
330
241
102
}
330
241
100
AcDbScale
 70
     0
300
10:1
140
10.0
141
1.0
290
     0
  0
SCALE
  5
252
102
{ACAD_REACTORS
330
241
102
}
330
241
100
AcDbScale
 70
     0
300
100:1
140
100.0
141
1.0
290
     0
  0
SCALE
  5
253
102
{ACAD_REACTORS
330
241
102
}
330
241
100
AcDbScale
 70
     0
300
1/128" = 1'-0"
140
0.0078125
141
12.0
290
     0
  0
SCALE
  5
254
102
{ACAD_REACTORS
330
241
102
}
330
241
100
AcDbScale
 70
     0
300
1/64" = 1'-0"
140
0.015625
141
12.0
290
     0
  0
SCALE
  5
255
102
{ACAD_REACTORS
330
241
102
}
330
241
100
AcDbScale
 70
     0
300
1/32" = 1'-0"
140
0.03125
141
12.0
290
     0
  0
SCALE
  5
256
102
{ACAD_REACTORS
330
241
102
}
330
241
100
AcDbScale
 70
     0
300
1/16" = 1'-0"
140
0.0625
141
12.0
290
     0
  0
SCALE
  5
257
102
{ACAD_REACTORS
330
241
102
}
330
241
100
AcDbScale
 70
     0
300
3/32" = 1'-0"
140
0.09375
141
12.0
290
     0
  0
SCALE
  5
258
102
{ACAD_REACTORS
330
241
102
}
330
241
100
AcDbScale
 70
     0
300
1/8" = 1'-0"
140
0.125
141
12.0
290
     0
  0
SCALE
  5
259
102
{ACAD_REACTORS
330
241
102
}
330
241
100
AcDbScale
 70
     0
300
3/16" = 1'-0"
140
0.1875
141
12.0
290
     0
  0
SCALE
  5
25A
102
{ACAD_REACTORS
330
241
102
}
330
241
100
AcDbScale
 70
     0
300
1/4" = 1'-0"
140
0.25
141
12.0
290
     0
  0
SCALE
  5
25B
102
{ACAD_REACTORS
330
241
102
}
330
241
100
AcDbScale
 70
     0
300
3/8" = 1'-0"
140
0.375
141
12.0
290
     0
  0
SCALE
  5
25C
102
{ACAD_REACTORS
330
241
102
}
330
241
100
AcDbScale
 70
     0
300
1/2" = 1'-0"
140
0.5
141
12.0
290
     0
  0
SCALE
  5
25D
102
{ACAD_REACTORS
330
241
102
}
330
241
100
AcDbScale
 70
     0
300
3/4" = 1'-0"
140
0.75
141
12.0
290
     0
  0
SCALE
  5
25E
102
{ACAD_REACTORS
330
241
102
}
330
241
100
AcDbScale
 70
     0
300
1" = 1'-0"
140
1.0
141
12.0
290
     0
  0
SCALE
  5
25F
102
{ACAD_REACTORS
330
241
102
}
330
241
100
AcDbScale
 70
     0
300
1-1/2" = 1'-0"
140
1.5
141
12.0
290
     0
  0
SCALE
  5
260
102
{ACAD_REACTORS
330
241
102
}
330
241
100
AcDbScale
 70
     0
300
3" = 1'-0"
140
3.0
141
12.0
290
     0
  0
SCALE
  5
261
102
{ACAD_REACTORS
330
241
102
}
330
241
100
AcDbScale
 70
     0
300
6" = 1'-0"
140
6.0
141
12.0
290
     0
  0
SCALE
  5
262
102
{ACAD_REACTORS
330
241
102
}
330
241
100
AcDbScale
 70
     0
300
1'-0" = 1'-0"
140
12.0
141
12.0
290
     0
  0
TABLESTYLE
  5
279
102
{ACAD_REACTORS
330
278
102
}
102
{ACAD_XDICTIONARY
360
2839
102
}
330
278
100
AcDbTableStyle
  3
Standard
 70
     0
 71
     0
 40
0.06
 41
0.06
280
     0
281
     0
  7
Standard
140
4.5
170
     2
 62
     0
 63
   257
283
     0
 90
        4
 91
        0
  1

274
    -2
284
     1
 64
     0
275
    -2
285
     1
 65
     0
276
    -2
286
     1
 66
     0
277
    -2
287
     1
 67
     0
278
    -2
288
     1
 68
     0
279
    -2
289
     1
 69
     0
  7
Standard
140
6.0
170
     5
 62
     0
 63
   257
283
     0
 90
        4
 91
        0
  1

274
    -2
284
     1
 64
     0
275
    -2
285
     1
 65
     0
276
    -2
286
     1
 66
     0
277
    -2
287
     1
 67
     0
278
    -2
288
     1
 68
     0
279
    -2
289
     1
 69
     0
  7
Standard
140
4.5
170
     5
 62
     0
 63
   257
283
     0
 90
        4
 91
        0
  1

274
    -2
284
     1
 64
     0
275
    -2
285
     1
 65
     0
276
    -2
286
     1
 66
     0
277
    -2
287
     1
 67
     0
278
    -2
288
     1
 68
     0
279
    -2
289
     1
 69
     0
  0
VISUALSTYLE
  5
26C
102
{ACAD_REACTORS
330
267
102
}
330
267
100
AcDbVisualStyle
  2
2dWireframe
 70
     4
 71
     0
 72
     2
 73
     0
 90
        0
 40
-0.6
 41
-30.0
 62
     5
 63
     7
421
 16777215
 74
     1
 91
        4
 64
     7
 65
   257
 75
     1
175
     1
 42
1.0
 92
        0
 66
   257
 43
1.0
 76
     1
 77
     6
 78
     2
 67
     7
 79
     5
170
     0
171
     0
290
     0
174
     0
 93
        1
 44
0.0
173
     0
291
     0
 45
0.0
  0
VISUALSTYLE
  5
26E
102
{ACAD_REACTORS
330
267
102
}
330
267
100
AcDbVisualStyle
  2
3D Hidden
 70
     6
 71
     1
 72
     2
 73
     2
 90
        0
 40
-0.6
 41
-30.0
 62
     5
 63
     7
421
 16777215
 74
     2
 91
        2
 64
     7
 65
   257
 75
     2
175
     1
 42
40.0
 92
        0
 66
   257
 43
1.0
 76
     1
 77
     6
 78
     2
 67
     7
 79
     3
170
     0
171
     0
290
     0
174
     0
 93
        1
 44
0.0
173
     0
291
     0
 45
0.0
  0
VISUALSTYLE
  5
26D
102
{ACAD_REACTORS
330
267
102
}
330
267
100
AcDbVisualStyle
  2
3dWireframe
 70
     5
 71
     0
 72
     2
 73
     0
 90
        0
 40
-0.6
 41
-30.0
 62
     5
 63
     7
421
 16777215
 74
     1
 91
        4
 64
     7
 65
   257
 75
     1
175
     1
 42
1.0
 92
        0
 66
   257
 43
1.0
 76
     1
 77
     6
 78
     2
 67
     7
 79
     5
170
     0
171
     0
290
     0
174
     0
 93
        1
 44
0.0
173
     0
291
     0
 45
0.0
  0
VISUALSTYLE
  5
26F
102
{ACAD_REACTORS
330
267
102
}
330
267
100
AcDbVisualStyle
  2
Basic
 70
     7
 71
     1
 72
     0
 73
     1
 90
        0
 40
-0.6
 41
-30.0
 62
     5
 63
     7
421
 16777215
 74
     0
 91
        4
 64
     7
 65
   257
 75
     1
175
     1
 42
1.0
 92
        8
 66
     7
 43
1.0
 76
     1
 77
     6
 78
     2
 67
     7
 79
     5
170
     0
171
     0
290
     0
174
     0
 93
        1
 44
0.0
173
     0
291
     1
 45
0.0
  0
VISUALSTYLE
  5
273
102
{ACAD_REACTORS
330
267
102
}
330
267
100
AcDbVisualStyle
  2
Brighten
 70
    12
 71
     2
 72
     2
 73
     0
 90
        0
 40
-0.6
 41
-30.0
 62
     5
 63
     7
421
 16777215
 74
     1
 91
        4
 64
     7
 65
   257
 75
     1
175
     1
 42
1.0
 92
        8
 66
     7
 43
1.0
 76
     1
 77
     6
 78
     2
 67
     7
 79
     5
170
     0
171
     0
290
     0
174
     0
 93
        1
 44
50.0
173
     0
291
     1
 45
0.0
  0
VISUALSTYLE
  5
277
102
{ACAD_REACTORS
330
267
102
}
330
267
100
AcDbVisualStyle
  2
ColorChange
 70
    16
 71
     2
 72
     2
 73
     3
 90
        0
 40
-0.6
 41
-30.0
 62
     5
 63
     8
421
  8421504
 74
     1
 91
        4
 64
     7
 65
   257
 75
     1
175
     1
 42
1.0
 92
        8
 66
     8
424
  8421504
 43
1.0
 76
     1
 77
     6
 78
     2
 67
     7
 79
     5
170
     0
171
     0
290
     0
174
     0
 93
        1
 44
0.0
173
     0
291
     1
 45
0.0
  0
VISUALSTYLE
  5
271
102
{ACAD_REACTORS
330
267
102
}
330
267
100
AcDbVisualStyle
  2
Conceptual
 70
     9
 71
     3
 72
     2
 73
     0
 90
        0
 40
-0.6
 41
-30.0
 62
     5
 63
     7
421
 16777215
 74
     2
 91
        2
 64
     7
 65
   257
 75
     1
175
     1
 42
40.0
 92
        8
 66
     7
 43
1.0
 76
     1
 77
     6
 78
     2
 67
     7
 79
     3
170
     0
171
     0
290
     0
174
     0
 93
        1
 44
0.0
173
     0
291
     0
 45
0.0
  0
VISUALSTYLE
  5
272
102
{ACAD_REACTORS
330
267
102
}
330
267
100
AcDbVisualStyle
  2
Dim
 70
    11
 71
     2
 72
     2
 73
     0
 90
        0
 40
-0.6
 41
-30.0
 62
     5
 63
     7
421
 16777215
 74
     1
 91
        4
 64
     7
 65
   257
 75
     1
175
     1
 42
1.0
 92
        8
 66
     7
 43
1.0
 76
     1
 77
     6
 78
     2
 67
     7
 79
     5
170
     0
171
     0
290
     0
174
     0
 93
        1
 44
-50.0
173
     0
291
     1
 45
0.0
  0
VISUALSTYLE
  5
8FE
102
{ACAD_REACTORS
330
267
102
}
330
267
100
AcDbVisualStyle
  2
EdgeColorOff
 70
    22
 71
     2
 72
     2
 73
     0
 90
        0
 40
0.6
 41
30.0
 62
     5
 63
     7
421
 16777215
 74
     1
 91
        4
 64
     7
 65
   257
 75
     1
175
     1
 42
1.0
 92
        8
 66
     7
 43
1.0
 76
     1
 77
     6
 78
     2
 67
     7
 79
     5
170
     0
171
     0
290
     0
174
     0
 93
        1
 44
0.0
173
     0
291
     1
 45
0.0
  0
VISUALSTYLE
  5
276
102
{ACAD_REACTORS
330
267
102
}
330
267
100
AcDbVisualStyle
  2
Facepattern
 70
    15
 71
     2
 72
     2
 73
     0
 90
        0
 40
-0.6
 41
-30.0
 62
     5
 63
     7
421
 16777215
 74
     1
 91
        4
 64
     7
 65
   257
 75
     1
175
     1
 42
1.0
 92
        8
 66
     7
 43
1.0
 76
     1
 77
     6
 78
     2
 67
     7
 79
     5
170
     0
171
     0
290
     0
174
     0
 93
        1
 44
0.0
173
     0
291
     1
 45
0.0
  0
VISUALSTYLE
  5
268
102
{ACAD_REACTORS
330
267
102
}
330
267
100
AcDbVisualStyle
  2
Flat
 70
     0
 71
     2
 72
     1
 73
     1
 90
        2
 40
-0.6
 41
30.0
 62
     5
 63
     7
421
 16777215
 74
     0
 91
        4
 64
     7
 65
   257
 75
     1
175
     1
 42
1.0
 92
        8
 66
     7
 43
1.0
 76
     1
 77
     6
 78
     2
 67
     7
 79
     5
170
     0
171
     0
290
     0
174
     0
 93
       13
 44
0.0
173
     0
291
     1
 45
0.0
  0
VISUALSTYLE
  5
269
102
{ACAD_REACTORS
330
267
102
}
330
267
100
AcDbVisualStyle
  2
FlatWithEdges
 70
     1
 71
     2
 72
     1
 73
     1
 90
        2
 40
-0.6
 41
30.0
 62
     5
 63
     7
421
 16777215
 74
     1
 91
        4
 64
     7
 65
   257
 75
     1
175
     1
 42
1.0
 92
        0
 66
   257
 43
1.0
 76
     1
 77
     6
 78
     2
 67
     7
 79
     5
170
     0
171
     0
290
     0
174
     0
 93
       13
 44
0.0
173
     0
291
     1
 45
0.0
  0
VISUALSTYLE
  5
26A
102
{ACAD_REACTORS
330
267
102
}
330
267
100
AcDbVisualStyle
  2
Gouraud
 70
     2
 71
     2
 72
     2
 73
     1
 90
        2
 40
-0.6
 41
30.0
 62
     5
 63
     7
421
 16777215
 74
     0
 91
        4
 64
     7
 65
   257
 75
     1
175
     1
 42
1.0
 92
        0
 66
     7
 43
1.0
 76
     1
 77
     6
 78
     2
 67
     7
 79
     5
170
     0
171
     0
290
     0
174
     0
 93
       13
 44
0.0
173
     0
291
     1
 45
0.0
  0
VISUALSTYLE
  5
26B
102
{ACAD_REACTORS
330
267
102
}
330
267
100
AcDbVisualStyle
  2
GouraudWithEdges
 70
     3
 71
     2
 72
     2
 73
     1
 90
        2
 40
-0.6
 41
30.0
 62
     5
 63
     7
421
 16777215
 74
     1
 91
        4
 64
     7
 65
   257
 75
     1
175
     1
 42
1.0
 92
        0
 66
   257
 43
1.0
 76
     1
 77
     6
 78
     2
 67
     7
 79
     5
170
     0
171
     0
290
     0
174
     0
 93
       13
 44
0.0
173
     0
291
     1
 45
0.0
  0
VISUALSTYLE
  5
8FB
102
{ACAD_REACTORS
330
267
102
}
330
267
100
AcDbVisualStyle
  2
Hidden
 70
     6
 71
     1
 72
     2
 73
     2
 90
        0
 40
0.6
 41
30.0
 62
     5
 63
     7
421
 16777215
 74
     2
 91
        2
 64
     7
 65
   257
 75
     2
175
     1
 42
40.0
 92
        0
 66
   257
 43
1.0
 76
     1
 77
     6
 78
     2
 67
     7
 79
     3
170
     0
171
     0
290
     0
174
     0
 93
        1
 44
0.0
173
     0
291
     0
 45
0.0
  0
VISUALSTYLE
  5
8FC
102
{ACAD_REACTORS
330
267
102
}
330
267
100
AcDbVisualStyle
  2
JitterOff
 70
    20
 71
     2
 72
     2
 73
     0
 90
        0
 40
0.6
 41
30.0
 62
     5
 63
     7
421
 16777215
 74
     1
 91
        4
 64
     7
 65
   257
 75
     1
175
     1
 42
1.0
 92
       10
 66
     7
 43
1.0
 76
     1
 77
     6
 78
     2
 67
     7
 79
     5
170
     0
171
     0
290
     0
174
     0
 93
        1
 44
0.0
173
     0
291
     1
 45
0.0
  0
VISUALSTYLE
  5
275
102
{ACAD_REACTORS
330
267
102
}
330
267
100
AcDbVisualStyle
  2
Linepattern
 70
    14
 71
     2
 72
     2
 73
     0
 90
        0
 40
-0.6
 41
-30.0
 62
     5
 63
     7
421
 16777215
 74
     1
 91
        4
 64
     7
 65
   257
 75
     7
175
     7
 42
1.0
 92
        8
 66
     7
 43
1.0
 76
     1
 77
     6
 78
     2
 67
     7
 79
     5
170
     0
171
     0
290
     0
174
     0
 93
        1
 44
0.0
173
     0
291
     1
 45
0.0
  0
VISUALSTYLE
  5
8FD
102
{ACAD_REACTORS
330
267
102
}
330
267
100
AcDbVisualStyle
  2
OverhangOff
 70
    21
 71
     2
 72
     2
 73
     0
 90
        0
 40
0.6
 41
30.0
 62
     5
 63
     7
421
 16777215
 74
     1
 91
        4
 64
     7
 65
   257
 75
     1
175
     1
 42
1.0
 92
        9
 66
     7
 43
1.0
 76
     1
 77
     6
 78
     2
 67
     7
 79
     5
170
     0
171
     0
290
     0
174
     0
 93
        1
 44
0.0
173
     0
291
     1
 45
0.0
  0
VISUALSTYLE
  5
270
102
{ACAD_REACTORS
330
267
102
}
330
267
100
AcDbVisualStyle
  2
Realistic
 70
     8
 71
     2
 72
     2
 73
     0
 90
        0
 40
-0.6
 41
-30.0
 62
     5
 63
     7
421
 16777215
 74
     1
 91
        0
 64
     7
 65
   257
 75
     1
175
     1
 42
1.0
 92
        8
 66
     8
424
  7895160
 43
1.0
 76
     1
 77
     6
 78
     2
 67
     7
 79
     5
170
     0
171
     0
290
     0
174
     0
 93
       13
 44
0.0
173
     0
291
     0
 45
0.0
  0
VISUALSTYLE
  5
903
102
{ACAD_REACTORS
330
267
102
}
330
267
100
AcDbVisualStyle
  2
Shaded
 70
    27
 71
     2
 72
     2
 73
     1
 90
        2
 40
0.6
 41
30.0
 62
     5
 63
     7
421
 16777215
 74
     0
 91
        4
 64
     7
 65
   257
 75
     1
175
     1
 42
1.0
 92
        8
 66
   257
 43
1.0
 76
     1
 77
     6
 78
     2
 67
     8
425
  7895160
 79
     3
170
     0
171
     0
290
     0
174
     0
 93
        5
 44
0.0
173
     0
291
     0
 45
0.0
  0
VISUALSTYLE
  5
902
102
{ACAD_REACTORS
330
267
102
}
330
267
100
AcDbVisualStyle
  2
Shaded with edges
 70
    26
 71
     2
 72
     2
 73
     1
 90
        2
 40
0.6
 41
30.0
 62
     5
 63
     7
421
 16777215
 74
     1
 91
       10
 64
     7
 65
   257
 75
     2
175
     1
 42
1.0
 92
        8
 66
   257
 43
1.0
 76
     1
 77
     6
 78
     2
 67
     7
 79
     3
170
     0
171
     0
290
     0
174
     0
 93
        5
 44
0.0
173
     0
291
     0
 45
0.0
  0
VISUALSTYLE
  5
8FF
102
{ACAD_REACTORS
330
267
102
}
330
267
100
AcDbVisualStyle
  2
Shades of Gray
 70
    23
 71
     2
 72
     2
 73
     3
 90
        0
 40
0.6
 41
30.0
 62
     5
 63
     7
421
 16777215
 74
     2
 91
        2
 64
     7
 65
     7
 75
     1
175
     1
 42
40.0
 92
        8
 66
     7
 43
1.0
 76
     1
 77
     6
 78
     2
 67
     7
 79
     3
170
     0
171
     0
290
     0
174
     0
 93
        1
 44
0.0
173
     0
291
     0
 45
0.0
  0
VISUALSTYLE
  5
900
102
{ACAD_REACTORS
330
267
102
}
330
267
100
AcDbVisualStyle
  2
Sketchy
 70
    24
 71
     1
 72
     2
 73
     2
 90
        0
 40
0.6
 41
30.0
 62
     5
 63
     7
421
 16777215
 74
     2
 91
        2
 64
     7
 65
     7
 75
     1
175
     1
 42
40.0
 92
       11
 66
     7
 43
1.0
 76
     1
 77
     6
 78
     2
 67
     7
 79
     6
170
     0
171
     0
290
     0
174
     0
 93
        1
 44
0.0
173
     0
291
     0
 45
0.0
  0
VISUALSTYLE
  5
274
102
{ACAD_REACTORS
330
267
102
}
330
267
100
AcDbVisualStyle
  2
Thicken
 70
    13
 71
     2
 72
     2
 73
     0
 90
        0
 40
-0.6
 41
-30.0
 62
     5
 63
     7
421
 16777215
 74
     1
 91
        4
 64
     7
 65
   257
 75
     1
175
     1
 42
1.0
 92
       12
 66
     7
 43
1.0
 76
     1
 77
     6
 78
     2
 67
     7
 79
     5
170
     0
171
     0
290
     0
174
     0
 93
        1
 44
0.0
173
     0
291
     1
 45
0.0
  0
VISUALSTYLE
  5
8FA
102
{ACAD_REACTORS
330
267
102
}
330
267
100
AcDbVisualStyle
  2
Wireframe
 70
     5
 71
     0
 72
     2
 73
     0
 90
        0
 40
0.6
 41
30.0
 62
     5
 63
     7
421
 16777215
 74
     1
 91
        4
 64
     7
 65
   257
 75
     1
175
     1
 42
1.0
 92
        0
 66
   257
 43
1.0
 76
     1
 77
     6
 78
     2
 67
     7
 79
     3
170
     0
171
     0
290
     0
174
     0
 93
        1
 44
0.0
173
     0
291
     0
 45
0.0
  0
VISUALSTYLE
  5
901
102
{ACAD_REACTORS
330
267
102
}
330
267
100
AcDbVisualStyle
  2
X-Ray
 70
    25
 71
     2
 72
     2
 73
     1
 90
        1
 40
0.5
 41
30.0
 62
     5
 63
     7
421
 16777215
 74
     1
 91
        0
 64
     7
 65
   257
 75
     1
175
     1
 42
1.0
 92
        8
 66
     7
 43
1.0
 76
     1
 77
     6
 78
     2
 67
     7
 79
     3
170
     0
171
     0
290
     0
174
     0
 93
       13
 44
0.0
173
     0
291
     0
 45
0.0
  0
DICTIONARYVAR
  5
331
102
{ACAD_REACTORS
330
330
102
}
330
330
100
DictionaryVariables
280
     0
  1
1:1
  0
DICTIONARYVAR
  5
D5E
102
{ACAD_REACTORS
330
330
102
}
330
330
100
DictionaryVariables
280
     0
  1
Standard
  0
DICTIONARYVAR
  5
335
102
{ACAD_REACTORS
330
330
102
}
330
330
100
DictionaryVariables
280
     0
  1
Standard
  0
DICTIONARYVAR
  5
D52
102
{ACAD_REACTORS
330
330
102
}
330
330
100
DictionaryVariables
280
     0
  1
ByLayer
  0
DICTIONARYVAR
  5
896
102
{ACAD_REACTORS
330
330
102
}
330
330
100
DictionaryVariables
280
     0
  1
0
  0
DICTIONARYVAR
  5
1DFC
102
{ACAD_REACTORS
330
E38
102
}
330
E38
100
DictionaryVariables
280
     0
  1
0.261799
  0
DICTIONARYVAR
  5
1DFA
102
{ACAD_REACTORS
330
E38
102
}
330
E38
100
DictionaryVariables
280
     0
  1
0.400000
  0
DICTIONARYVAR
  5
1DFB
102
{ACAD_REACTORS
330
E38
102
}
330
E38
100
DictionaryVariables
280
     0
  1
0.250000
  0
DICTIONARYVAR
  5
1DFD
102
{ACAD_REACTORS
330
E38
102
}
330
E38
100
DictionaryVariables
280
     0
  1
1
  0
FIELD
  5
1EAE
102
{ACAD_REACTORS
330
1EAD
330
1EC5
102
}
330
1EC5
100
AcDbField
  1
_text
  2
{%<\_FldIdx 0>%N}
 90
        1
360
1EAF
 97
        0
 91
       63
 92
        0
 94
       11
 95
        2
 96
        0
300

 93
        1
  6
ACFD_FIELDTEXT_CHECKSUM
 93
        2
 90
        2
140
4493.0
 94
        0
300

302

304
ACVALUE_END
  7
ACFD_FIELD_VALUE
 93
        6
 90
        4
  1
{20180403N}
 94
        0
300

302

304
ACVALUE_END
301
{20180403N}
 98
       11
  0
DICTIONARY
  5
2839
330
279
100
AcDbDictionary
280
     1
281
     1
  3
ACAD_ROUNDTRIP_2008_TABLESTYLE_CELLSTYLEMAP
360
283A
  0
FIELD
  5
1EAF
330
1EAE
100
AcDbField
  1
AcVar
  2
\AcVar Date \f "yyyyMMdd"
 90
        0
 97
        0
 91
       63
 92
        0
 94
        8
 95
       64
 96
        0
300
Variable not supported
 93
        1
  6
Variable
 93
        2
 90
        4
  1
Date
 94
        0
300

302

304
ACVALUE_END
  7
ACFD_FIELD_VALUE
 93
        6
 90
        8
 92
       16
310
E2070400000003000B000C0003000000
 94
        0
300
yyyyMMdd
302

304
ACVALUE_END
301
20180403
 98
        8
  0
CELLSTYLEMAP
  5
283A
102
{ACAD_REACTORS
330
2839
102
}
330
2839
100
AcDbCellStyleMap
 90
        3
300
CELLSTYLE
  1
TABLEFORMAT_BEGIN
 90
        5
170
     1
 91
        0
 92
    32768
 62
   257
 93
        1
300
CONTENTFORMAT
  1
CONTENTFORMAT_BEGIN
 90
        0
 91
        0
 92
        4
 93
        0
300

 40
0.0
140
1.0
 94
        5
 62
     0
340
17
144
6.0
309
CONTENTFORMAT_END
171
     1
301
MARGIN
  1
CELLMARGIN_BEGIN
 40
0.06
 40
0.06
 40
0.06
 40
0.06
 40
0.18
 40
0.18
309
CELLMARGIN_END
 94
        6
 95
        1
302
GRIDFORMAT
  1
GRIDFORMAT_BEGIN
 90
        0
 91
        1
 62
     0
 92
       -2
340
0
 93
        0
 40
0.045
309
GRIDFORMAT_END
 95
        2
302
GRIDFORMAT
  1
GRIDFORMAT_BEGIN
 90
        0
 91
        1
 62
     0
 92
       -2
340
0
 93
        0
 40
0.045
309
GRIDFORMAT_END
 95
        4
302
GRIDFORMAT
  1
GRIDFORMAT_BEGIN
 90
        0
 91
        1
 62
     0
 92
       -2
340
0
 93
        0
 40
0.045
309
GRIDFORMAT_END
 95
        8
302
GRIDFORMAT
  1
GRIDFORMAT_BEGIN
 90
        0
 91
        1
 62
     0
 92
       -2
340
0
 93
        0
 40
0.045
309
GRIDFORMAT_END
 95
       16
302
GRIDFORMAT
  1
GRIDFORMAT_BEGIN
 90
        0
 91
        1
 62
     0
 92
       -2
340
0
 93
        0
 40
0.045
309
GRIDFORMAT_END
 95
       32
302
GRIDFORMAT
  1
GRIDFORMAT_BEGIN
 90
        0
 91
        1
 62
     0
 92
       -2
340
0
 93
        0
 40
0.045
309
GRIDFORMAT_END
309
TABLEFORMAT_END
  1
CELLSTYLE_BEGIN
 90
        1
 91
        1
300
_TITLE
309
CELLSTYLE_END
300
CELLSTYLE
  1
TABLEFORMAT_BEGIN
 90
        5
170
     1
 91
        0
 92
        0
 62
   257
 93
        1
300
CONTENTFORMAT
  1
CONTENTFORMAT_BEGIN
 90
        0
 91
        0
 92
        4
 93
        0
300

 40
0.0
140
1.0
 94
        5
 62
     0
340
17
144
4.5
309
CONTENTFORMAT_END
171
     1
301
MARGIN
  1
CELLMARGIN_BEGIN
 40
0.06
 40
0.06
 40
0.06
 40
0.06
 40
0.18
 40
0.18
309
CELLMARGIN_END
 94
        6
 95
        1
302
GRIDFORMAT
  1
GRIDFORMAT_BEGIN
 90
        0
 91
        1
 62
     0
 92
       -2
340
0
 93
        0
 40
0.045
309
GRIDFORMAT_END
 95
        2
302
GRIDFORMAT
  1
GRIDFORMAT_BEGIN
 90
        0
 91
        1
 62
     0
 92
       -2
340
0
 93
        0
 40
0.045
309
GRIDFORMAT_END
 95
        4
302
GRIDFORMAT
  1
GRIDFORMAT_BEGIN
 90
        0
 91
        1
 62
     0
 92
       -2
340
0
 93
        0
 40
0.045
309
GRIDFORMAT_END
 95
        8
302
GRIDFORMAT
  1
GRIDFORMAT_BEGIN
 90
        0
 91
        1
 62
     0
 92
       -2
340
0
 93
        0
 40
0.045
309
GRIDFORMAT_END
 95
       16
302
GRIDFORMAT
  1
GRIDFORMAT_BEGIN
 90
        0
 91
        1
 62
     0
 92
       -2
340
0
 93
        0
 40
0.045
309
GRIDFORMAT_END
 95
       32
302
GRIDFORMAT
  1
GRIDFORMAT_BEGIN
 90
        0
 91
        1
 62
     0
 92
       -2
340
0
 93
        0
 40
0.045
309
GRIDFORMAT_END
309
TABLEFORMAT_END
  1
CELLSTYLE_BEGIN
 90
        2
 91
        1
300
_HEADER
309
CELLSTYLE_END
300
CELLSTYLE
  1
TABLEFORMAT_BEGIN
 90
        5
170
     1
 91
        0
 92
        0
 62
   257
 93
        1
300
CONTENTFORMAT
  1
CONTENTFORMAT_BEGIN
 90
        0
 91
        0
 92
        4
 93
        0
300

 40
0.0
140
1.0
 94
        2
 62
     0
340
17
144
4.5
309
CONTENTFORMAT_END
171
     1
301
MARGIN
  1
CELLMARGIN_BEGIN
 40
0.06
 40
0.06
 40
0.06
 40
0.06
 40
0.18
 40
0.18
309
CELLMARGIN_END
 94
        6
 95
        1
302
GRIDFORMAT
  1
GRIDFORMAT_BEGIN
 90
        0
 91
        1
 62
     0
 92
       -2
340
0
 93
        0
 40
0.045
309
GRIDFORMAT_END
 95
        2
302
GRIDFORMAT
  1
GRIDFORMAT_BEGIN
 90
        0
 91
        1
 62
     0
 92
       -2
340
0
 93
        0
 40
0.045
309
GRIDFORMAT_END
 95
        4
302
GRIDFORMAT
  1
GRIDFORMAT_BEGIN
 90
        0
 91
        1
 62
     0
 92
       -2
340
0
 93
        0
 40
0.045
309
GRIDFORMAT_END
 95
        8
302
GRIDFORMAT
  1
GRIDFORMAT_BEGIN
 90
        0
 91
        1
 62
     0
 92
       -2
340
0
 93
        0
 40
0.045
309
GRIDFORMAT_END
 95
       16
302
GRIDFORMAT
  1
GRIDFORMAT_BEGIN
 90
        0
 91
        1
 62
     0
 92
       -2
340
0
 93
        0
 40
0.045
309
GRIDFORMAT_END
 95
       32
302
GRIDFORMAT
  1
GRIDFORMAT_BEGIN
 90
        0
 91
        1
 62
     0
 92
       -2
340
0
 93
        0
 40
0.045
309
GRIDFORMAT_END
309
TABLEFORMAT_END
  1
CELLSTYLE_BEGIN
 90
        3
 91
        2
300
_DATA
309
CELLSTYLE_END
  0
ENDSEC
  0
EOF
