  0
SECTION
  2
HEADER
  9
$ACADVER
  1
AC1021
  9
$ACADMAINTVER
 70
    25
  9
$DWGCODEPAGE
  3
ANSI_932
  9
$LASTSAVEDBY
  1
tform
  9
$INSBASE
 10
0.0
 20
0.0
 30
0.0
  9
$EXTMIN
 10
0.0
 20
0.0
 30
-0.0000000000000071
  9
$EXTMAX
 10
519.6741912622088
 20
594.0
 30
0.0000000000000142
  9
$LIMMIN
 10
0.0
 20
0.0
  9
$LIMMAX
 10
420.0
 20
594.0
  9
$ORTHOMODE
 70
     1
  9
$REGENMODE
 70
     1
  9
$FILLMODE
 70
     1
  9
$QTEXTMODE
 70
     0
  9
$MIRRTEXT
 70
     1
  9
$LTSCALE
 40
1.0
  9
$ATTMODE
 70
     1
  9
$TEXTSIZE
 40
2.5
  9
$TRACEWID
 40
1.0
  9
$TEXTSTYLE
  7
ＭＳ ゴシック
  9
$CLAYER
  8
DIM
  9
$CELTYPE
  6
ByLayer
  9
$CECOLOR
 62
   256
  9
$CELTSCALE
 40
0.05
  9
$DISPSILH
 70
     0
  9
$DIMSCALE
 40
1.0
  9
$DIMASZ
 40
2.0
  9
$DIMEXO
 40
5.0
  9
$DIMDLI
 40
0.9999999999999999
  9
$DIMRND
 40
0.0
  9
$DIMDLE
 40
0.0
  9
$DIMEXE
 40
0.0
  9
$DIMTP
 40
0.0
  9
$DIMTM
 40
0.0
  9
$DIMTXT
 40
5.0
  9
$DIMCEN
 40
0.0
  9
$DIMTSZ
 40
0.0
  9
$DIMTOL
 70
     0
  9
$DIMLIM
 70
     0
  9
$DIMTIH
 70
     0
  9
$DIMTOH
 70
     0
  9
$DIMSE1
 70
     0
  9
$DIMSE2
 70
     0
  9
$DIMTAD
 70
     1
  9
$DIMZIN
 70
    11
  9
$DIMBLK
  1
DOT
  9
$DIMASO
 70
     1
  9
$DIMSHO
 70
     1
  9
$DIMPOST
  1
<>
  9
$DIMAPOST
  1
[]
  9
$DIMALT
 70
     0
  9
$DIMALTD
 70
     1
  9
$DIMALTF
 40
1.0
  9
$DIMLFAC
 40
1.0
  9
$DIMTOFL
 70
     0
  9
$DIMTVP
 40
0.0
  9
$DIMTIX
 70
     1
  9
$DIMSOXD
 70
     0
  9
$DIMSAH
 70
     0
  9
$DIMBLK1
  1

  9
$DIMBLK2
  1

  9
$DIMSTYLE
  2
tfrom線あり
  9
$DIMCLRD
 70
     0
  9
$DIMCLRE
 70
     0
  9
$DIMCLRT
 70
     0
  9
$DIMTFAC
 40
1.0
  9
$DIMGAP
 40
3.0
  9
$DIMJUST
 70
     0
  9
$DIMSD1
 70
     0
  9
$DIMSD2
 70
     0
  9
$DIMTOLJ
 70
     1
  9
$DIMTZIN
 70
    11
  9
$DIMALTZ
 70
    11
  9
$DIMALTTZ
 70
    11
  9
$DIMUPT
 70
     0
  9
$DIMDEC
 70
     0
  9
$DIMTDEC
 70
     1
  9
$DIMALTU
 70
     2
  9
$DIMALTTD
 70
     2
  9
$DIMTXSTY
  7
ＭＳ ゴシック
  9
$DIMAUNIT
 70
     0
  9
$DIMADEC
 70
     2
  9
$DIMALTRND
 40
0.0
  9
$DIMAZIN
 70
     0
  9
$DIMDSEP
 70
    46
  9
$DIMATFIT
 70
     0
  9
$DIMFRAC
 70
     2
  9
$DIMLDRBLK
  1
DOT
  9
$DIMLUNIT
 70
     2
  9
$DIMLWD
 70
    -2
  9
$DIMLWE
 70
    -2
  9
$DIMTMOVE
 70
     0
  9
$DIMFXL
 40
1.0
  9
$DIMFXLON
 70
     0
  9
$DIMJOGANG
 40
0.7853981633974483
  9
$DIMTFILL
 70
     0
  9
$DIMTFILLCLR
 70
     0
  9
$DIMARCSYM
 70
     0
  9
$DIMLTYPE
  6

  9
$DIMLTEX1
  6

  9
$DIMLTEX2
  6

  9
$LUNITS
 70
     2
  9
$LUPREC
 70
     0
  9
$SKETCHINC
 40
0.1
  9
$FILLETRAD
 40
0.0
  9
$AUNITS
 70
     0
  9
$AUPREC
 70
     0
  9
$MENU
  1
acad
  9
$ELEVATION
 40
0.0
  9
$PELEVATION
 40
0.0
  9
$THICKNESS
 40
0.0
  9
$LIMCHECK
 70
     0
  9
$CHAMFERA
 40
0.0
  9
$CHAMFERB
 40
0.0
  9
$CHAMFERC
 40
0.0
  9
$CHAMFERD
 40
0.0
  9
$SKPOLY
 70
     0
  9
$TDCREATE
 40
2447893.375
  9
$TDUCREATE
 40
0.0
  9
$TDUPDATE
 40
2460026.410568021
  9
$TDUUPDATE
 40
2460026.035568021
  9
$TDINDWG
 40
0.1479759375
  9
$TDUSRTIMER
 40
0.0070470486
  9
$USRTIMER
 70
     1
  9
$ANGBASE
 50
0.0
  9
$ANGDIR
 70
     0
  9
$PDMODE
 70
     1
  9
$PDSIZE
 40
-2.0
  9
$PLINEWID
 40
0.0
  9
$SPLFRAME
 70
     0
  9
$SPLINETYPE
 70
     6
  9
$SPLINESEGS
 70
     8
  9
$HANDSEED
  5
5972
  9
$SURFTAB1
 70
     6
  9
$SURFTAB2
 70
     6
  9
$SURFTYPE
 70
     6
  9
$SURFU
 70
     6
  9
$SURFV
 70
     6
  9
$UCSBASE
  2

  9
$UCSNAME
  2

  9
$UCSORG
 10
0.0
 20
0.0
 30
0.0
  9
$UCSXDIR
 10
1.0
 20
0.0
 30
0.0
  9
$UCSYDIR
 10
0.0
 20
1.0
 30
0.0
  9
$UCSORTHOREF
  2

  9
$UCSORTHOVIEW
 70
     0
  9
$UCSORGTOP
 10
0.0
 20
0.0
 30
0.0
  9
$UCSORGBOTTOM
 10
0.0
 20
0.0
 30
0.0
  9
$UCSORGLEFT
 10
0.0
 20
0.0
 30
0.0
  9
$UCSORGRIGHT
 10
0.0
 20
0.0
 30
0.0
  9
$UCSORGFRONT
 10
0.0
 20
0.0
 30
0.0
  9
$UCSORGBACK
 10
0.0
 20
0.0
 30
0.0
  9
$PUCSBASE
  2

  9
$PUCSNAME
  2

  9
$PUCSORG
 10
0.0
 20
0.0
 30
0.0
  9
$PUCSXDIR
 10
1.0
 20
0.0
 30
0.0
  9
$PUCSYDIR
 10
0.0
 20
1.0
 30
0.0
  9
$PUCSORTHOREF
  2

  9
$PUCSORTHOVIEW
 70
     0
  9
$PUCSORGTOP
 10
0.0
 20
0.0
 30
0.0
  9
$PUCSORGBOTTOM
 10
0.0
 20
0.0
 30
0.0
  9
$PUCSORGLEFT
 10
0.0
 20
0.0
 30
0.0
  9
$PUCSORGRIGHT
 10
0.0
 20
0.0
 30
0.0
  9
$PUCSORGFRONT
 10
0.0
 20
0.0
 30
0.0
  9
$PUCSORGBACK
 10
0.0
 20
0.0
 30
0.0
  9
$USERI1
 70
     0
  9
$USERI2
 70
     0
  9
$USERI3
 70
     0
  9
$USERI4
 70
     0
  9
$USERI5
 70
     0
  9
$USERR1
 40
0.0
  9
$USERR2
 40
0.0
  9
$USERR3
 40
0.0
  9
$USERR4
 40
0.0
  9
$USERR5
 40
0.0
  9
$WORLDVIEW
 70
     1
  9
$SHADEDGE
 70
     3
  9
$SHADEDIF
 70
    70
  9
$TILEMODE
 70
     1
  9
$MAXACTVP
 70
    64
  9
$PINSBASE
 10
0.0
 20
0.0
 30
0.0
  9
$PLIMCHECK
 70
     0
  9
$PEXTMIN
 10
0.0
 20
0.0
 30
0.0
  9
$PEXTMAX
 10
0.0
 20
0.0
 30
0.0
  9
$PLIMMIN
 10
-7.5
 20
-20.0
  9
$PLIMMAX
 10
412.5
 20
277.0
  9
$UNITMODE
 70
     0
  9
$VISRETAIN
 70
     0
  9
$PLINEGEN
 70
     1
  9
$PSLTSCALE
 70
     0
  9
$TREEDEPTH
 70
  3020
  9
$CMLSTYLE
  2
Standard
  9
$CMLJUST
 70
     0
  9
$CMLSCALE
 40
1.0
  9
$PROXYGRAPHICS
 70
     0
  9
$MEASUREMENT
 70
     1
  9
$CELWEIGHT
370
    -1
  9
$ENDCAPS
280
     0
  9
$JOINSTYLE
280
     0
  9
$LWDISPLAY
290
     1
  9
$INSUNITS
 70
     4
  9
$HYPERLINKBASE
  1

  9
$STYLESHEET
  1

  9
$XEDIT
290
     1
  9
$CEPSNTYPE
380
     0
  9
$PSTYLEMODE
290
     1
  9
$FINGERPRINTGUID
  2

  9
$VERSIONGUID
  2

  9
$EXTNAMES
290
     1
  9
$PSVPSCALE
 40
0.0
  9
$OLESTARTUP
290
     0
  9
$SORTENTS
280
   127
  9
$INDEXCTL
280
     0
  9
$HIDETEXT
280
     1
  9
$XCLIPFRAME
290
     0
  9
$HALOGAP
280
     0
  9
$OBSCOLOR
 70
   257
  9
$OBSLTYPE
280
     0
  9
$INTERSECTIONDISPLAY
280
     0
  9
$INTERSECTIONCOLOR
 70
   257
  9
$DIMASSOC
280
     2
  9
$PROJECTNAME
  1

  9
$CAMERADISPLAY
290
     0
  9
$LENSLENGTH
 40
50.0
  9
$CAMERAHEIGHT
 40
0.0
  9
$STEPSPERSEC
 40
2.0
  9
$STEPSIZE
 40
6.0
  9
$3DDWFPREC
 40
2.0
  9
$PSOLWIDTH
 40
0.25
  9
$PSOLHEIGHT
 40
4.0
  9
$LOFTANG1
 40
1.570796326794897
  9
$LOFTANG2
 40
1.570796326794897
  9
$LOFTMAG1
 40
0.0
  9
$LOFTMAG2
 40
0.0
  9
$LOFTPARAM
 70
     7
  9
$LOFTNORMALS
280
     1
  9
$LATITUDE
 40
37.795
  9
$LONGITUDE
 40
-122.394
  9
$NORTHDIRECTION
 40
0.0
  9
$TIMEZONE
 70
 -8000
  9
$LIGHTGLYPHDISPLAY
280
     1
  9
$TILEMODELIGHTSYNCH
280
     1
  9
$SOLIDHIST
280
     1
  9
$SHOWHIST
280
     1
  9
$DWFFRAME
280
     2
  9
$DGNFRAME
280
     2
  9
$REALWORLDSCALE
290
     1
  9
$INTERFERECOLOR
 62
   256
  9
$CSHADOW
280
     0
  9
$SHADOWPLANELOCATION
 40
0.0
  0
ENDSEC
  0
SECTION
  2
CLASSES
  0
CLASS
  1
LWPOLYLINE
  2
AcDbPolyline
  3
ObjectDBX Classes
 90
        0
 91
        1
280
     0
281
     1
  0
CLASS
  1
IMAGE
  2
AcDbRasterImage
  3
ISM
 90
      127
 91
        4
280
     0
281
     1
  0
CLASS
  1
OLE2FRAME
  2
AcDbOle2Frame
  3
ObjectDBX Classes
 90
        0
 91
        1
280
     0
281
     1
  0
CLASS
  1
HATCH
  2
AcDbHatch
  3
ObjectDBX Classes
 90
        0
 91
        1
280
     0
281
     1
  0
CLASS
  1
DICTIONARYVAR
  2
AcDbDictionaryVar
  3
ObjectDBX Classes
 90
        0
 91
        3
280
     0
281
     0
  0
CLASS
  1
RASTERVARIABLES
  2
AcDbRasterVariables
  3
ISM
 90
        0
 91
        3
280
     0
281
     0
  0
CLASS
  1
IMAGEDEF
  2
AcDbRasterImageDef
  3
ISM
 90
        0
 91
        3
280
     0
281
     0
  0
CLASS
  1
IMAGEDEF_REACTOR
  2
AcDbRasterImageDefReactor
  3
ISM
 90
        1
 91
        3
280
     0
281
     0
  0
CLASS
  1
IDBUFFER
  2
AcDbIdBuffer
  3
ObjectDBX Classes
 90
        0
 91
        3
280
     0
281
     0
  0
CLASS
  1
SPATIAL_FILTER
  2
AcDbSpatialFilter
  3
ObjectDBX Classes
 90
        0
 91
        3
280
     0
281
     0
  0
CLASS
  1
XRECORD
  2
AcDbXrecord
  3
ObjectDBX Classes
 90
        0
 91
        1
280
     0
281
     0
  0
CLASS
  1
SORTENTSTABLE
  2
AcDbSortentsTable
  3
ObjectDBX Classes
 90
        0
 91
        3
280
     0
281
     0
  0
CLASS
  1
LAYER_INDEX
  2
AcDbLayerIndex
  3
ObjectDBX Classes
 90
        0
 91
        3
280
     0
281
     0
  0
CLASS
  1
SPATIAL_INDEX
  2
AcDbSpatialIndex
  3
AutoCAD 2000
 90
        0
 91
        3
280
     0
281
     0
  0
CLASS
  1
OBJECT_PTR
  2
CAseDLPNTableRecord
  3
ASE-LPNTableRecord
 90
        1
 91
        3
280
     0
281
     0
  0
CLASS
  1
LAYOUT
  2
AcDbLayout
  3
ObjectDBX Classes
 90
        0
 91
        1
280
     0
281
     0
  0
CLASS
  1
PLOTSETTINGS
  2
AcDbPlotSettings
  3
ObjectDBX Classes
 90
        0
 91
        3
280
     0
281
     0
  0
CLASS
  1
ACDBDICTIONARYWDFLT
  2
AcDbDictionaryWithDefault
  3
ObjectDBX Classes
 90
        0
 91
        3
280
     0
281
     0
  0
CLASS
  1
ACDBPLACEHOLDER
  2
AcDbPlaceHolder
  3
ObjectDBX Classes
 90
        0
 91
        1
280
     0
281
     0
  0
CLASS
  1
SCALE
  2
AcDbScale
  3
ObjectDBX Classes
 90
     1153
 91
        3
280
     0
281
     0
  0
CLASS
  1
MATERIAL
  2
AcDbMaterial
  3
ObjectDBX Classes
 90
     1153
 91
        3
280
     0
281
     0
  0
CLASS
  1
VISUALSTYLE
  2
AcDbVisualStyle
  3
ObjectDBX Classes
 90
     4095
 91
        3
280
     0
281
     0
  0
CLASS
  1
TABLESTYLE
  2
AcDbTableStyle
  3
ObjectDBX Classes
 90
     4095
 91
        3
280
     0
281
     0
  0
CLASS
  1
DIMASSOC
  2
AcDbDimAssoc
  3
"AcDbDimAssoc|Product Desc:     AcDim ARX App For Dimension|Company:          Autodesk, Inc.|WEB Address:      www.autodesk.com"
 90
        0
 91
        3
280
     0
281
     0
  0
CLASS
  1
CELLSTYLEMAP
  2
AcDbCellStyleMap
  3
ObjectDBX Classes
 90
     1152
 91
        3
280
     0
281
     0
  0
CLASS
  1
SUN
  2
AcDbSun
  3
SCENEOE
 90
     1153
 91
        3
280
     0
281
     0
  0
CLASS
  1
MLEADERSTYLE
  2
AcDbMLeaderStyle
  3
ACDB_MLEADERSTYLE_CLASS
 90
     4095
 91
        3
280
     0
281
     0
  0
ENDSEC
  0
SECTION
  2
TABLES
  0
TABLE
  2
VPORT
  5
7
330
0
100
AcDbSymbolTable
 70
     1
  0
VPORT
  5
15
330
7
100
AcDbSymbolTableRecord
100
AcDbViewportTableRecord
  2
*ACTIVE
 70
     0
 10
0.0
 20
0.0
 11
1.0
 21
1.0
 12
301.0201356708994
 22
223.401285469834
 13
0.0
 23
0.0
 14
1.0
 24
1.0
 15
0.0
 25
0.0
 16
0.0
 26
0.0
 36
1.0
 17
-91.02013567089944
 27
73.59871453016603
 37
-46.86809886248109
 40
605.88
 41
2.120713305898491
 42
50.0
 43
0.0
 44
0.0
 50
0.0
 51
0.0
 71
    16
 72
  2000
 73
     1
 74
     1
 75
     0
 76
     0
 77
     0
 78
     0
281
     0
 65
     1
110
0.0
120
0.0
130
0.0
111
1.0
121
0.0
131
0.0
112
0.0
122
1.0
132
0.0
 79
     0
146
0.0
348
26C
 60
     3
 61
     5
292
     1
282
     1
141
0.0
142
0.0
 63
   256
361
904
  0
ENDTAB
  0
TABLE
  2
LTYPE
  5
4
330
0
100
AcDbSymbolTable
 70
     2
  0
LTYPE
  5
11
330
4
100
AcDbSymbolTableRecord
100
AcDbLinetypeTableRecord
  2
ByBlock
 70
     0
  3

 72
    65
 73
     0
 40
0.0
  0
LTYPE
  5
12
330
4
100
AcDbSymbolTableRecord
100
AcDbLinetypeTableRecord
  2
ByLayer
 70
     0
  3

 72
    65
 73
     0
 40
0.0
  0
LTYPE
  5
13
330
4
100
AcDbSymbolTableRecord
100
AcDbLinetypeTableRecord
  2
Continuous
 70
     0
  3
Solid line
 72
    65
 73
     0
 40
0.0
  0
LTYPE
  5
D6C
330
4
100
AcDbSymbolTableRecord
100
AcDbLinetypeTableRecord
  2
BORDER
 70
     0
  3
Border __  __  . __  __  . __  __  . __  __  . 
 72
    65
 73
     6
 40
44.45
 49
12.7
 74
     0
 49
-6.35
 74
     0
 49
12.7
 74
     0
 49
-6.35
 74
     0
 49
0.0
 74
     0
 49
-6.35
 74
     0
  0
ENDTAB
  0
TABLE
  2
LAYER
  5
2
102
{ACAD_XDICTIONARY
360
2E1
102
}
330
0
100
AcDbSymbolTable
 70
     9
  0
LAYER
  5
14
330
2
100
AcDbSymbolTableRecord
100
AcDbLayerTableRecord
  2
0
 70
     0
 62
     7
  6
Continuous
370
    -3
390
1D
347
266
  0
LAYER
  5
4B
330
2
100
AcDbSymbolTableRecord
100
AcDbLayerTableRecord
  2
TEMPLATE
 70
     0
 62
     7
  6
Continuous
370
    20
390
1D
347
266
  0
LAYER
  5
4C
330
2
100
AcDbSymbolTableRecord
100
AcDbLayerTableRecord
  2
DIM
 70
     0
 62
     7
  6
Continuous
370
    13
390
1D
347
266
  0
LAYER
  5
4D
330
2
100
AcDbSymbolTableRecord
100
AcDbLayerTableRecord
  2
MODEL
 70
     0
 62
     7
  6
Continuous
370
    20
390
1D
347
266
  0
LAYER
  5
667
330
2
100
AcDbSymbolTableRecord
100
AcDbLayerTableRecord
  2
LOGO
 70
     0
 62
     7
  6
Continuous
370
    -3
390
1D
347
266
  0
LAYER
  5
D6B
330
2
100
AcDbSymbolTableRecord
100
AcDbLayerTableRecord
  2
BORDER
 70
     0
 62
     4
  6
BORDER
290
     0
370
    20
390
1D
347
266
1001
AcAecLayerStandard
1000

1000

  0
LAYER
  5
D8C
330
2
100
AcDbSymbolTableRecord
100
AcDbLayerTableRecord
  2
Defpoints
 70
     0
 62
     7
  6
Continuous
290
     0
370
    -3
390
1D
347
266
  0
LAYER
  5
3653
330
2
100
AcDbSymbolTableRecord
100
AcDbLayerTableRecord
  2
Standard
 70
     0
 62
     7
  6
Continuous
370
    -3
390
1D
347
266
  0
LAYER
  5
3BE0
330
2
100
AcDbSymbolTableRecord
100
AcDbLayerTableRecord
  2
レイヤー 1
 70
     0
 62
     7
  6
Continuous
370
    -3
390
1D
347
266
  0
ENDTAB
  0
TABLE
  2
STYLE
  5
3
330
0
100
AcDbSymbolTable
 70
     2
  0
STYLE
  5
17
330
3
100
AcDbSymbolTableRecord
100
AcDbTextStyleTableRecord
  2
Standard
 70
     0
 40
0.0
 41
1.0
 50
0.0
 71
     0
 42
2.5
  3
txt
  4
BIGFONT.SHX
  0
STYLE
  5
39
330
3
100
AcDbSymbolTableRecord
100
AcDbTextStyleTableRecord
  2
ＭＳ ゴシック
 70
     0
 40
0.0
 41
1.0
 50
0.0
 71
     0
 42
2.5
  3
msgothic.ttc
  4
ＭＳ ゴシック
1001
ACAD
1000
ＭＳ ゴシック
1071
        0
  0
ENDTAB
  0
TABLE
  2
VIEW
  5
5
330
0
100
AcDbSymbolTable
 70
     0
  0
ENDTAB
  0
TABLE
  2
UCS
  5
6
330
0
100
AcDbSymbolTable
 70
     0
  0
ENDTAB
  0
TABLE
  2
APPID
  5
8
330
0
100
AcDbSymbolTable
 70
     4
  0
APPID
  5
16
330
8
100
AcDbSymbolTableRecord
100
AcDbRegAppTableRecord
  2
ACAD
 70
     0
  0
APPID
  5
7AC
330
8
100
AcDbSymbolTableRecord
100
AcDbRegAppTableRecord
  2
AcAecLayerStandard
 70
     0
  0
APPID
  5
E29
330
8
100
AcDbSymbolTableRecord
100
AcDbRegAppTableRecord
  2
ACAD_MLEADERVER
 70
     0
  0
APPID
  5
595D
330
8
100
AcDbSymbolTableRecord
100
AcDbRegAppTableRecord
  2
PLOTTRANSPARENCY
 70
     0
  0
ENDTAB
  0
TABLE
  2
DIMSTYLE
  5
9
330
0
100
AcDbSymbolTable
 70
     2
100
AcDbDimStyleTable
  0
DIMSTYLE
105
18
330
9
100
AcDbSymbolTableRecord
100
AcDbDimStyleTableRecord
  2
Standard
 70
     0
178
     0
340
17
  0
DIMSTYLE
105
57
102
{ACAD_REACTORS
330
5726
330
5736
330
5754
330
5763
330
5772
330
593F
330
594E
102
}
330
9
100
AcDbSymbolTableRecord
100
AcDbDimStyleTableRecord
  2
tfrom線あり
 70
     0
  3
<>
  4
[]
 41
2.0
 42
5.0
 43
0.9999999999999999
 44
0.0
 73
     0
 74
     0
 77
     1
 78
    11
140
5.0
141
0.0
143
1.0
147
3.0
171
     1
174
     1
178
     0
179
     2
271
     0
272
     1
276
     2
284
    11
285
    11
286
    11
289
     0
340
39
341
4E
342
4E
  0
ENDTAB
  0
TABLE
  2
BLOCK_RECORD
  5
1
330
0
100
AcDbSymbolTable
 70
    24
  0
BLOCK_RECORD
  5
A
102
{ACAD_XDICTIONARY
360
57C1
102
}
330
1
100
AcDbSymbolTableRecord
100
AcDbBlockTableRecord
  2
*MODEL_SPACE
340
20
 70
     0
280
     1
281
     0
  0
BLOCK_RECORD
  5
B
330
1
100
AcDbSymbolTableRecord
100
AcDbBlockTableRecord
  2
*PAPER_SPACE
340
21
 70
     0
280
     1
281
     0
  0
BLOCK_RECORD
  5
4E
330
1
100
AcDbSymbolTableRecord
100
AcDbBlockTableRecord
  2
_DOT
340
0
102
{BLKREFS
331
572F
331
5730
331
573F
331
5740
331
574E
331
574F
331
575D
331
575E
331
576C
331
576D
331
577B
331
577C
331
5826
331
5827
331
5833
331
5834
331
5840
331
5841
331
584D
331
584E
331
58A0
331
58A1
331
58AC
331
58AD
331
58B8
331
58B9
331
58C4
331
58C5
331
58D3
331
58D4
331
58E2
331
58E3
331
5948
331
5949
331
5957
331
5958
102
}
 70
     0
280
     1
281
     0
  0
BLOCK_RECORD
  5
68A
330
1
100
AcDbSymbolTableRecord
100
AcDbBlockTableRecord
  2
名称未設定-1
340
0
102
{BLKREFS
331
6B5
102
}
 70
     1
280
     1
281
     0
  0
BLOCK_RECORD
  5
68D
330
1
100
AcDbSymbolTableRecord
100
AcDbBlockTableRecord
  2
block 2
340
0
102
{BLKREFS
331
68C
331
1343
102
}
 70
     0
280
     1
281
     0
  0
BLOCK_RECORD
  5
690
330
1
100
AcDbSymbolTableRecord
100
AcDbBlockTableRecord
  2
block 3
340
0
102
{BLKREFS
331
68F
102
}
 70
     0
280
     1
281
     0
  0
BLOCK_RECORD
  5
693
330
1
100
AcDbSymbolTableRecord
100
AcDbBlockTableRecord
  2
block 4
340
0
102
{BLKREFS
331
692
102
}
 70
     0
280
     1
281
     0
  0
BLOCK_RECORD
  5
6A2
330
1
100
AcDbSymbolTableRecord
100
AcDbBlockTableRecord
  2
block 5
340
0
102
{BLKREFS
331
6A1
102
}
 70
     0
280
     1
281
     0
  0
BLOCK_RECORD
  5
5729
330
1
100
AcDbSymbolTableRecord
100
AcDbBlockTableRecord
  2
*D6
340
0
 70
     0
280
     1
281
     0
  0
BLOCK_RECORD
  5
5739
330
1
100
AcDbSymbolTableRecord
100
AcDbBlockTableRecord
  2
*D7
340
0
 70
     0
280
     1
281
     0
  0
BLOCK_RECORD
  5
5748
330
1
100
AcDbSymbolTableRecord
100
AcDbBlockTableRecord
  2
*D8
340
0
 70
     0
280
     1
281
     0
  0
BLOCK_RECORD
  5
5757
330
1
100
AcDbSymbolTableRecord
100
AcDbBlockTableRecord
  2
*D9
340
0
 70
     0
280
     1
281
     0
  0
BLOCK_RECORD
  5
5766
330
1
100
AcDbSymbolTableRecord
100
AcDbBlockTableRecord
  2
*D10
340
0
 70
     0
280
     1
281
     0
  0
BLOCK_RECORD
  5
5775
330
1
100
AcDbSymbolTableRecord
100
AcDbBlockTableRecord
  2
*D11
340
0
 70
     0
280
     1
281
     0
  0
BLOCK_RECORD
  5
5821
330
1
100
AcDbSymbolTableRecord
100
AcDbBlockTableRecord
  2
*D12
340
0
 70
     0
280
     1
281
     0
  0
BLOCK_RECORD
  5
582E
330
1
100
AcDbSymbolTableRecord
100
AcDbBlockTableRecord
  2
*D13
340
0
 70
     0
280
     1
281
     0
  0
BLOCK_RECORD
  5
583B
330
1
100
AcDbSymbolTableRecord
100
AcDbBlockTableRecord
  2
*D14
340
0
 70
     0
280
     1
281
     0
  0
BLOCK_RECORD
  5
5848
330
1
100
AcDbSymbolTableRecord
100
AcDbBlockTableRecord
  2
*D15
340
0
 70
     0
280
     1
281
     0
  0
BLOCK_RECORD
  5
589A
330
1
100
AcDbSymbolTableRecord
100
AcDbBlockTableRecord
  2
*D16
340
0
 70
     0
280
     1
281
     0
  0
BLOCK_RECORD
  5
58A6
330
1
100
AcDbSymbolTableRecord
100
AcDbBlockTableRecord
  2
*D17
340
0
 70
     0
280
     1
281
     0
  0
BLOCK_RECORD
  5
58B2
330
1
100
AcDbSymbolTableRecord
100
AcDbBlockTableRecord
  2
*D18
340
0
 70
     0
280
     1
281
     0
  0
BLOCK_RECORD
  5
58BE
330
1
100
AcDbSymbolTableRecord
100
AcDbBlockTableRecord
  2
*D19
340
0
 70
     0
280
     1
281
     0
  0
BLOCK_RECORD
  5
58CD
330
1
100
AcDbSymbolTableRecord
100
AcDbBlockTableRecord
  2
*D20
340
0
 70
     0
280
     1
281
     0
  0
BLOCK_RECORD
  5
58DC
330
1
100
AcDbSymbolTableRecord
100
AcDbBlockTableRecord
  2
*D21
340
0
 70
     0
280
     1
281
     0
  0
BLOCK_RECORD
  5
5942
330
1
100
AcDbSymbolTableRecord
100
AcDbBlockTableRecord
  2
*D22
340
0
 70
     0
280
     1
281
     0
  0
BLOCK_RECORD
  5
5951
330
1
100
AcDbSymbolTableRecord
100
AcDbBlockTableRecord
  2
*D23
340
0
 70
     0
280
     1
281
     0
  0
ENDTAB
  0
ENDSEC
  0
SECTION
  2
BLOCKS
  0
BLOCK
  5
D
330
A
100
AcDbEntity
  8
0
390
1D
100
AcDbBlockBegin
  2
*MODEL_SPACE
 70
     0
 10
0.0
 20
0.0
 30
0.0
  3
*MODEL_SPACE
  1
*MODEL_SPACE
  0
ENDBLK
  5
E
330
A
100
AcDbEntity
  8
0
390
1D
100
AcDbBlockEnd
  0
BLOCK
  5
F
330
B
100
AcDbEntity
 67
     1
  8
0
390
1D
100
AcDbBlockBegin
  2
*PAPER_SPACE
 70
     0
 10
0.0
 20
0.0
 30
0.0
  3
*PAPER_SPACE
  1
*PAPER_SPACE
  0
ENDBLK
  5
10
330
B
100
AcDbEntity
 67
     1
  8
0
390
1D
100
AcDbBlockEnd
  0
BLOCK
  5
2462
330
4E
100
AcDbEntity
  8
0
390
1D
100
AcDbBlockBegin
  2
_DOT
 70
     0
 10
0.0
 20
0.0
 30
0.0
  3
_DOT
  1
_DOT
  0
POLYLINE
  5
2464
330
4E
100
AcDbEntity
  8
0
  6
ByBlock
 62
     0
370
    -2
390
1D
100
AcDb2dPolyline
 66
     1
 10
0.0
 20
0.0
 30
0.0
 70
     1
 40
0.5
 41
0.5
  0
VERTEX
  5
2465
330
2464
100
AcDbEntity
  8
0
  6
ByBlock
 62
     0
370
    -2
390
1D
100
AcDbVertex
100
AcDb2dVertex
 10
-0.25
 20
0.0
 30
0.0
 42
1.0
  0
VERTEX
  5
2466
330
2464
100
AcDbEntity
  8
0
  6
ByBlock
 62
     0
370
    -2
390
1D
100
AcDbVertex
100
AcDb2dVertex
 10
0.25
 20
0.0
 30
0.0
 42
1.0
  0
SEQEND
  5
2467
330
2464
100
AcDbEntity
  8
0
390
1D
  0
LINE
  5
2468
330
4E
100
AcDbEntity
  8
0
  6
ByBlock
 62
     0
370
    -2
390
1D
100
AcDbLine
 10
-0.5
 20
0.0
 30
0.0
 11
-1.0
 21
0.0
 31
0.0
  0
ENDBLK
  5
2469
330
4E
100
AcDbEntity
  8
0
390
1D
100
AcDbBlockEnd
  0
BLOCK
  5
68B
330
68A
100
AcDbEntity
  8
0
100
AcDbBlockBegin
  2
名称未設定-1
 70
     0
 10
0.0
 20
0.0
 30
0.0
  3
名称未設定-1
  1
名称未設定-1
  0
INSERT
  5
68F
330
68A
100
AcDbEntity
  8
LOGO
100
AcDbBlockReference
  2
block 3
 10
0.0
 20
0.0
 30
0.0
  0
ENDBLK
  5
6B1
330
68A
100
AcDbEntity
  8
0
100
AcDbBlockEnd
  0
BLOCK
  5
68E
330
68D
100
AcDbEntity
  8
0
100
AcDbBlockBegin
  2
block 2
 70
     0
 10
0.0
 20
0.0
 30
0.0
  3
block 2
  1
block 2
  0
ENDBLK
  5
6B0
330
68D
100
AcDbEntity
  8
0
100
AcDbBlockEnd
  0
BLOCK
  5
691
330
690
100
AcDbEntity
  8
0
100
AcDbBlockBegin
  2
block 3
 70
     0
 10
0.0
 20
0.0
 30
0.0
  3
block 3
  1
block 3
  0
INSERT
  5
692
330
690
100
AcDbEntity
  8
LOGO
100
AcDbBlockReference
  2
block 4
 10
0.0
 20
0.0
 30
0.0
  0
INSERT
  5
6A1
330
690
100
AcDbEntity
  8
LOGO
100
AcDbBlockReference
  2
block 5
 10
0.0
 20
0.0
 30
0.0
  0
ENDBLK
  5
6AF
330
690
100
AcDbEntity
  8
0
100
AcDbBlockEnd
  0
BLOCK
  5
694
330
693
100
AcDbEntity
  8
0
100
AcDbBlockBegin
  2
block 4
 70
     0
 10
0.0
 20
0.0
 30
0.0
  3
block 4
  1
block 4
  0
POLYLINE
  5
695
330
693
100
AcDbEntity
  8
LOGO
370
     0
100
AcDb2dPolyline
 66
     1
 10
0.0
 20
0.0
 30
0.0
  0
VERTEX
  5
696
330
695
100
AcDbEntity
  8
LOGO
370
     0
100
AcDbVertex
100
AcDb2dVertex
 10
83.79545727667795
 20
167.6444858234922
 30
0.0
  0
VERTEX
  5
697
330
695
100
AcDbEntity
  8
LOGO
370
     0
100
AcDbVertex
100
AcDb2dVertex
 10
83.79545727667795
 20
159.7968976406313
 30
0.0
  0
VERTEX
  5
698
330
695
100
AcDbEntity
  8
LOGO
370
     0
100
AcDbVertex
100
AcDb2dVertex
 10
71.3631329975216
 20
159.7968976406313
 30
0.0
  0
VERTEX
  5
699
330
695
100
AcDbEntity
  8
LOGO
370
     0
100
AcDbVertex
100
AcDb2dVertex
 10
71.3631329975216
 20
127.8027915271048
 30
0.0
  0
VERTEX
  5
69A
330
695
100
AcDbEntity
  8
LOGO
370
     0
100
AcDbVertex
100
AcDb2dVertex
 10
60.43011526263018
 20
127.8027915271048
 30
0.0
  0
VERTEX
  5
69B
330
695
100
AcDbEntity
  8
LOGO
370
     0
100
AcDbVertex
100
AcDb2dVertex
 10
60.43011526263018
 20
159.7968976406313
 30
0.0
  0
VERTEX
  5
69C
330
695
100
AcDbEntity
  8
LOGO
370
     0
100
AcDbVertex
100
AcDb2dVertex
 10
48.21793273020759
 20
159.7968976406313
 30
0.0
  0
VERTEX
  5
69D
330
695
100
AcDbEntity
  8
LOGO
370
     0
100
AcDbVertex
100
AcDb2dVertex
 10
48.21793273020759
 20
167.6444858234922
 30
0.0
  0
VERTEX
  5
69E
330
695
100
AcDbEntity
  8
LOGO
370
     0
100
AcDbVertex
100
AcDb2dVertex
 10
83.79545727667795
 20
167.6444858234922
 30
0.0
  0
SEQEND
  5
69F
330
695
100
AcDbEntity
  8
LOGO
370
     0
  0
HATCH
  5
6A0
330
693
100
AcDbEntity
  8
LOGO
 62
   250
420
  2234388
100
AcDbHatch
 10
0.0
 20
0.0
 30
0.0
210
0.0
220
0.0
230
1.0
  2
SOLID
 70
     1
 71
     0
 91
        1
 92
        1
 93
        8
 72
     1
 10
83.79545727667795
 20
167.6444858234922
 11
83.79545727667795
 21
159.7968976406313
 72
     1
 10
83.79545727667795
 20
159.7968976406313
 11
71.3631329975216
 21
159.7968976406313
 72
     1
 10
71.3631329975216
 20
159.7968976406313
 11
71.3631329975216
 21
127.8027915271048
 72
     1
 10
71.3631329975216
 20
127.8027915271048
 11
60.43011526263018
 21
127.8027915271048
 72
     1
 10
60.43011526263018
 20
127.8027915271048
 11
60.43011526263018
 21
159.7968976406313
 72
     1
 10
60.43011526263018
 20
159.7968976406313
 11
48.21793273020759
 21
159.7968976406313
 72
     1
 10
48.21793273020759
 20
159.7968976406313
 11
48.21793273020759
 21
167.6444858234922
 72
     1
 10
48.21793273020759
 20
167.6444858234922
 11
83.79545727667795
 21
167.6444858234922
 97
        0
 75
     2
 76
     1
 98
        0
  0
ENDBLK
  5
6AE
330
693
100
AcDbEntity
  8
0
100
AcDbBlockEnd
  0
BLOCK
  5
6A3
330
6A2
100
AcDbEntity
  8
0
100
AcDbBlockBegin
  2
block 5
 70
     0
 10
0.0
 20
0.0
 30
0.0
  3
block 5
  1
block 5
  0
SPLINE
  5
6A4
330
6A2
100
AcDbEntity
  8
LOGO
370
     0
100
AcDbSpline
210
0.0
220
0.0
230
1.0
 70
    11
 71
     3
 72
    56
 73
    52
 74
     0
 42
0.000000001
 43
0.0000000001
 40
0.0
 40
0.0
 40
0.0
 40
0.0
 40
1.0
 40
1.0
 40
1.0
 40
2.0
 40
2.0
 40
2.0
 40
3.0
 40
3.0
 40
3.0
 40
4.0
 40
4.0
 40
4.0
 40
5.0
 40
5.0
 40
5.0
 40
6.0
 40
6.0
 40
6.0
 40
7.0
 40
7.0
 40
7.0
 40
8.0
 40
8.0
 40
8.0
 40
9.0
 40
9.0
 40
9.0
 40
10.0
 40
10.0
 40
10.0
 40
11.0
 40
11.0
 40
11.0
 40
12.0
 40
12.0
 40
12.0
 40
13.0
 40
13.0
 40
13.0
 40
14.0
 40
14.0
 40
14.0
 40
15.0
 40
15.0
 40
15.0
 40
16.0
 40
16.0
 40
16.0
 40
17.0
 40
17.0
 40
17.0
 40
17.0
 10
100.4504378777679
 20
166.69157178364
 30
0.0
 10
101.9848844191641
 20
167.1313385124438
 30
0.0
 10
103.9637485713373
 20
166.7649523658846
 30
0.0
 10
103.9637485713373
 20
166.7649523658846
 30
0.0
 10
103.9637485713373
 20
166.7649523658846
 30
0.0
 10
103.0132460999156
 20
163.911205638077
 30
0.0
 10
103.0132460999156
 20
163.911205638077
 30
0.0
 10
103.0132460999156
 20
163.911205638077
 30
0.0
 10
101.0674548862189
 20
164.3601018759394
 30
0.0
 10
99.57090442016032
 20
163.1805004036133
 30
0.0
 10
98.40508333886608
 20
162.258247733807
 30
0.0
 10
97.65301849830304
 20
159.804132345923
 30
0.0
 10
97.3598406791005
 20
158.8699940888517
 30
0.0
 10
97.3598406791005
 20
158.8699940888517
 30
0.0
 10
96.07137411762282
 20
154.9119212747295
 30
0.0
 10
96.07137411762282
 20
154.9119212747295
 30
0.0
 10
96.07137411762282
 20
154.9119212747295
 30
0.0
 10
100.3012651448482
 20
154.9119212747295
 30
0.0
 10
100.3012651448482
 20
154.9119212747295
 30
0.0
 10
100.3012651448482
 20
154.9119212747295
 30
0.0
 10
99.64152892419852
 20
152.4199098115079
 30
0.0
 10
99.64152892419852
 20
152.4199098115079
 30
0.0
 10
99.64152892419852
 20
152.4199098115079
 30
0.0
 10
95.38097652692731
 20
152.4199098115079
 30
0.0
 10
95.38097652692731
 20
152.4199098115079
 30
0.0
 10
95.38097652692731
 20
152.4199098115079
 30
0.0
 10
87.75353009080013
 20
127.8027915271048
 30
0.0
 10
87.75353009080013
 20
127.8027915271048
 30
0.0
 10
87.75353009080013
 20
127.8027915271048
 30
0.0
 10
85.36538832498108
 20
127.8027915271048
 30
0.0
 10
85.36538832498108
 20
127.8027915271048
 30
0.0
 10
85.36538832498108
 20
127.8027915271048
 30
0.0
 10
93.00006946639998
 20
152.4199098115079
 30
0.0
 10
93.00006946639998
 20
152.4199098115079
 30
0.0
 10
93.00006946639998
 20
152.4199098115079
 30
0.0
 10
89.85297266450198
 20
152.4199098115079
 30
0.0
 10
89.85297266450198
 20
152.4199098115079
 30
0.0
 10
89.85297266450198
 20
152.4199098115079
 30
0.0
 10
90.51270888515164
 20
154.9119212747295
 30
0.0
 10
90.51270888515164
 20
154.9119212747295
 30
0.0
 10
90.51270888515164
 20
154.9119212747295
 30
0.0
 10
93.6904670570955
 20
154.9119212747295
 30
0.0
 10
93.6904670570955
 20
154.9119212747295
 30
0.0
 10
93.6904670570955
 20
154.9119212747295
 30
0.0
 10
94.81598049462158
 20
158.3616699146644
 30
0.0
 10
94.81598049462158
 20
158.3616699146644
 30
0.0
 10
95.7237637538445
 20
161.2605474231013
 30
0.0
 10
96.4968436907311
 20
162.8139420021662
 30
0.0
 10
97.15657991138076
 20
163.9844139654337
 30
0.0
 10
97.81183750494507
 20
165.1523021053827
 30
0.0
 10
99.1047826935081
 20
166.3084769129547
 30
0.0
 10
100.4504378777679
 20
166.69157178364
 30
0.0
  0
HATCH
  5
6A5
330
6A2
100
AcDbEntity
  8
LOGO
 62
   250
420
  2234388
100
AcDbHatch
 10
0.0
 20
0.0
 30
0.0
210
0.0
220
0.0
230
1.0
  2
SOLID
 70
     1
 71
     0
 91
        1
 92
        1
 93
        1
 72
     4
 94
        3
 73
     0
 74
     1
 95
       56
 96
       52
 40
0.0
 40
0.0
 40
0.0
 40
0.0
 40
1.0
 40
1.0
 40
1.0
 40
2.0
 40
2.0
 40
2.0
 40
3.0
 40
3.0
 40
3.0
 40
4.0
 40
4.0
 40
4.0
 40
5.0
 40
5.0
 40
5.0
 40
6.0
 40
6.0
 40
6.0
 40
7.0
 40
7.0
 40
7.0
 40
8.0
 40
8.0
 40
8.0
 40
9.0
 40
9.0
 40
9.0
 40
10.0
 40
10.0
 40
10.0
 40
11.0
 40
11.0
 40
11.0
 40
12.0
 40
12.0
 40
12.0
 40
13.0
 40
13.0
 40
13.0
 40
14.0
 40
14.0
 40
14.0
 40
15.0
 40
15.0
 40
15.0
 40
16.0
 40
16.0
 40
16.0
 40
17.0
 40
17.0
 40
17.0
 40
17.0
 10
100.4504378777679
 20
166.69157178364
 10
101.9848844191641
 20
167.1313385124438
 10
103.9637485713373
 20
166.7649523658846
 10
103.9637485713373
 20
166.7649523658846
 10
103.9637485713373
 20
166.7649523658846
 10
103.0132460999156
 20
163.911205638077
 10
103.0132460999156
 20
163.911205638077
 10
103.0132460999156
 20
163.911205638077
 10
101.0674548862189
 20
164.3601018759394
 10
99.57090442016032
 20
163.1805004036133
 10
98.40508333886608
 20
162.258247733807
 10
97.65301849830304
 20
159.804132345923
 10
97.3598406791005
 20
158.8699940888517
 10
97.3598406791005
 20
158.8699940888517
 10
96.07137411762282
 20
154.9119212747295
 10
96.07137411762282
 20
154.9119212747295
 10
96.07137411762282
 20
154.9119212747295
 10
100.3012651448482
 20
154.9119212747295
 10
100.3012651448482
 20
154.9119212747295
 10
100.3012651448482
 20
154.9119212747295
 10
99.64152892419852
 20
152.4199098115079
 10
99.64152892419852
 20
152.4199098115079
 10
99.64152892419852
 20
152.4199098115079
 10
95.38097652692731
 20
152.4199098115079
 10
95.38097652692731
 20
152.4199098115079
 10
95.38097652692731
 20
152.4199098115079
 10
87.75353009080013
 20
127.8027915271048
 10
87.75353009080013
 20
127.8027915271048
 10
87.75353009080013
 20
127.8027915271048
 10
85.36538832498108
 20
127.8027915271048
 10
85.36538832498108
 20
127.8027915271048
 10
85.36538832498108
 20
127.8027915271048
 10
93.00006946639998
 20
152.4199098115079
 10
93.00006946639998
 20
152.4199098115079
 10
93.00006946639998
 20
152.4199098115079
 10
89.85297266450198
 20
152.4199098115079
 10
89.85297266450198
 20
152.4199098115079
 10
89.85297266450198
 20
152.4199098115079
 10
90.51270888515164
 20
154.9119212747295
 10
90.51270888515164
 20
154.9119212747295
 10
90.51270888515164
 20
154.9119212747295
 10
93.6904670570955
 20
154.9119212747295
 10
93.6904670570955
 20
154.9119212747295
 10
93.6904670570955
 20
154.9119212747295
 10
94.81598049462158
 20
158.3616699146644
 10
94.81598049462158
 20
158.3616699146644
 10
95.7237637538445
 20
161.2605474231013
 10
96.4968436907311
 20
162.8139420021662
 10
97.15657991138076
 20
163.9844139654337
 10
97.81183750494507
 20
165.1523021053827
 10
99.1047826935081
 20
166.3084769129547
 10
100.4504378777679
 20
166.69157178364
 97
        0
 75
     2
 76
     1
 98
        0
  0
SPLINE
  5
6A6
330
6A2
100
AcDbEntity
  8
LOGO
370
     0
100
AcDbSpline
210
0.0
220
0.0
230
1.0
 70
    11
 71
     3
 72
    38
 73
    34
 74
     0
 42
0.000000001
 43
0.0000000001
 40
0.0
 40
0.0
 40
0.0
 40
0.0
 40
1.0
 40
1.0
 40
1.0
 40
2.0
 40
2.0
 40
2.0
 40
3.0
 40
3.0
 40
3.0
 40
4.0
 40
4.0
 40
4.0
 40
5.0
 40
5.0
 40
5.0
 40
6.0
 40
6.0
 40
6.0
 40
7.0
 40
7.0
 40
7.0
 40
8.0
 40
8.0
 40
8.0
 40
9.0
 40
9.0
 40
9.0
 40
10.0
 40
10.0
 40
10.0
 40
11.0
 40
11.0
 40
11.0
 40
11.0
 10
126.377554584636
 20
154.8151140277308
 30
0.0
 10
126.377554584636
 20
154.8151140277308
 30
0.0
 10
128.8311532078563
 20
154.8151140277308
 30
0.0
 10
128.8311532078563
 20
154.8151140277308
 30
0.0
 10
128.8311532078563
 20
154.8151140277308
 30
0.0
 10
127.7345785914971
 20
151.3062819612468
 30
0.0
 10
127.7345785914971
 20
151.3062819612468
 30
0.0
 10
128.571392836906
 20
152.2922689395754
 30
0.0
 10
129.8860421413442
 20
153.604506675583
 30
0.0
 10
131.0163787157314
 20
154.2664822097754
 30
0.0
 10
132.7044766171327
 20
155.2500576196734
 30
0.0
 10
133.6642808525008
 20
155.3847609420097
 30
0.0
 10
134.7284715499351
 20
155.3565111403944
 30
0.0
 10
134.7284715499351
 20
155.3565111403944
 30
0.0
 10
133.6877075172549
 20
152.0345756272799
 30
0.0
 10
133.6877075172549
 20
152.0345756272799
 30
0.0
 10
133.011434827367
 20
152.3184516825359
 30
0.0
 10
130.930940291334
 20
151.7768823149844
 30
0.0
 10
129.739280976855
 20
150.9162968950455
 30
0.0
 10
128.66613302525
 20
150.1454562717016
 30
0.0
 10
127.9192358313239
 20
149.4857200510519
 30
0.0
 10
127.0393578639405
 20
147.8282835196966
 30
0.0
 10
126.164647543194
 20
146.1699857139017
 30
0.0
 10
125.4742499524985
 20
143.5262176944419
 30
0.0
 10
124.2822461282437
 20
139.6959580071401
 30
0.0
 10
124.2822461282437
 20
139.6959580071401
 30
0.0
 10
120.5753209406769
 20
127.8027915271048
 30
0.0
 10
120.5753209406769
 20
127.8027915271048
 30
0.0
 10
120.5753209406769
 20
127.8027915271048
 30
0.0
 10
118.1964809388044
 20
127.8027915271048
 30
0.0
 10
118.1964809388044
 20
127.8027915271048
 30
0.0
 10
118.1964809388044
 20
127.8027915271048
 30
0.0
 10
126.377554584636
 20
154.8151140277308
 30
0.0
 10
126.377554584636
 20
154.8151140277308
 30
0.0
  0
HATCH
  5
6A7
330
6A2
100
AcDbEntity
  8
LOGO
 62
   250
420
  2234388
100
AcDbHatch
 10
0.0
 20
0.0
 30
0.0
210
0.0
220
0.0
230
1.0
  2
SOLID
 70
     1
 71
     0
 91
        1
 92
        1
 93
        1
 72
     4
 94
        3
 73
     0
 74
     1
 95
       38
 96
       34
 40
0.0
 40
0.0
 40
0.0
 40
0.0
 40
1.0
 40
1.0
 40
1.0
 40
2.0
 40
2.0
 40
2.0
 40
3.0
 40
3.0
 40
3.0
 40
4.0
 40
4.0
 40
4.0
 40
5.0
 40
5.0
 40
5.0
 40
6.0
 40
6.0
 40
6.0
 40
7.0
 40
7.0
 40
7.0
 40
8.0
 40
8.0
 40
8.0
 40
9.0
 40
9.0
 40
9.0
 40
10.0
 40
10.0
 40
10.0
 40
11.0
 40
11.0
 40
11.0
 40
11.0
 10
126.377554584636
 20
154.8151140277308
 10
126.377554584636
 20
154.8151140277308
 10
128.8311532078563
 20
154.8151140277308
 10
128.8311532078563
 20
154.8151140277308
 10
128.8311532078563
 20
154.8151140277308
 10
127.7345785914971
 20
151.3062819612468
 10
127.7345785914971
 20
151.3062819612468
 10
128.571392836906
 20
152.2922689395754
 10
129.8860421413442
 20
153.604506675583
 10
131.0163787157314
 20
154.2664822097754
 10
132.7044766171327
 20
155.2500576196734
 10
133.6642808525008
 20
155.3847609420097
 10
134.7284715499351
 20
155.3565111403944
 10
134.7284715499351
 20
155.3565111403944
 10
133.6877075172549
 20
152.0345756272799
 10
133.6877075172549
 20
152.0345756272799
 10
133.011434827367
 20
152.3184516825359
 10
130.930940291334
 20
151.7768823149844
 10
129.739280976855
 20
150.9162968950455
 10
128.66613302525
 20
150.1454562717016
 10
127.9192358313239
 20
149.4857200510519
 10
127.0393578639405
 20
147.8282835196966
 10
126.164647543194
 20
146.1699857139017
 10
125.4742499524985
 20
143.5262176944419
 10
124.2822461282437
 20
139.6959580071401
 10
124.2822461282437
 20
139.6959580071401
 10
120.5753209406769
 20
127.8027915271048
 10
120.5753209406769
 20
127.8027915271048
 10
120.5753209406769
 20
127.8027915271048
 10
118.1964809388044
 20
127.8027915271048
 10
118.1964809388044
 20
127.8027915271048
 10
118.1964809388044
 20
127.8027915271048
 10
126.377554584636
 20
154.8151140277308
 10
126.377554584636
 20
154.8151140277308
 97
        0
 75
     2
 76
     1
 98
        0
  0
SPLINE
  5
6A8
330
6A2
100
AcDbEntity
  8
LOGO
370
     0
100
AcDbSpline
210
0.0
220
0.0
230
1.0
 70
    11
 71
     3
 72
   104
 73
   100
 74
     0
 42
0.000000001
 43
0.0000000001
 40
0.0
 40
0.0
 40
0.0
 40
0.0
 40
1.0
 40
1.0
 40
1.0
 40
2.0
 40
2.0
 40
2.0
 40
3.0
 40
3.0
 40
3.0
 40
4.0
 40
4.0
 40
4.0
 40
5.0
 40
5.0
 40
5.0
 40
6.0
 40
6.0
 40
6.0
 40
7.0
 40
7.0
 40
7.0
 40
8.0
 40
8.0
 40
8.0
 40
9.0
 40
9.0
 40
9.0
 40
10.0
 40
10.0
 40
10.0
 40
11.0
 40
11.0
 40
11.0
 40
12.0
 40
12.0
 40
12.0
 40
13.0
 40
13.0
 40
13.0
 40
14.0
 40
14.0
 40
14.0
 40
15.0
 40
15.0
 40
15.0
 40
16.0
 40
16.0
 40
16.0
 40
17.0
 40
17.0
 40
17.0
 40
18.0
 40
18.0
 40
18.0
 40
19.0
 40
19.0
 40
19.0
 40
20.0
 40
20.0
 40
20.0
 40
21.0
 40
21.0
 40
21.0
 40
22.0
 40
22.0
 40
22.0
 40
23.0
 40
23.0
 40
23.0
 40
24.0
 40
24.0
 40
24.0
 40
25.0
 40
25.0
 40
25.0
 40
26.0
 40
26.0
 40
26.0
 40
27.0
 40
27.0
 40
27.0
 40
28.0
 40
28.0
 40
28.0
 40
29.0
 40
29.0
 40
29.0
 40
30.0
 40
30.0
 40
30.0
 40
31.0
 40
31.0
 40
31.0
 40
32.0
 40
32.0
 40
32.0
 40
33.0
 40
33.0
 40
33.0
 40
33.0
 10
139.8926730891197
 20
154.8294111834263
 30
0.0
 10
139.8926730891197
 20
154.8294111834263
 30
0.0
 10
142.0344903652445
 20
154.8294111834263
 30
0.0
 10
142.0344903652445
 20
154.8294111834263
 30
0.0
 10
142.0344903652445
 20
154.8294111834263
 30
0.0
 10
140.9516961399171
 20
151.3157559800812
 30
0.0
 10
140.9516961399171
 20
151.3157559800812
 30
0.0
 10
141.8928968473923
 20
152.7887075264977
 30
0.0
 10
142.7341897198865
 20
153.4484437471474
 30
0.0
 10
143.8552245303272
 20
154.2926649527359
 30
0.0
 10
144.9803934580775
 20
155.1296514530327
 30
0.0
 10
146.3139908001845
 20
155.3044901642492
 30
0.0
 10
147.241066606852
 20
155.3044901642492
 30
0.0
 10
148.3855280820469
 20
155.3044901642492
 30
0.0
 10
149.4969166187653
 20
155.0752189084569
 30
0.0
 10
150.0784491203092
 20
153.8172414621372
 30
0.0
 10
150.5228667310863
 20
152.833838307127
 30
0.0
 10
150.5414702589793
 20
152.7201500811143
 30
0.0
 10
150.4140016419347
 20
150.7765981809602
 30
0.0
 10
151.5818897818837
 20
152.7699317437168
 30
0.0
 10
152.4424752018226
 20
153.6256940267945
 30
0.0
 10
153.9038856707499
 20
154.4507949398263
 30
0.0
 10
155.4455669174378
 20
155.3044901642492
 30
0.0
 10
156.339225275853
 20
155.3659851592288
 30
0.0
 10
157.3748216618963
 20
155.2147453676543
 30
0.0
 10
158.911679771723
 20
154.9877134254046
 30
0.0
 10
159.8859534176746
 20
154.4390816074493
 30
0.0
 10
160.3965169054045
 20
152.7816450760939
 30
0.0
 10
160.9070803931344
 20
151.1219692311958
 30
0.0
 10
160.6328506116007
 20
150.2303779314354
 30
0.0
 10
159.9992971339115
 20
147.597634224801
 30
0.0
 10
159.7105979417943
 20
146.4014962832367
 30
0.0
 10
159.2947746424084
 20
144.9400858143094
 30
0.0
 10
158.7463150793409
 20
143.2092687007094
 30
0.0
 10
158.7463150793409
 20
143.2092687007094
 30
0.0
 10
153.9038856707499
 20
127.8027915271048
 30
0.0
 10
153.9038856707499
 20
127.8027915271048
 30
0.0
 10
153.9038856707499
 20
127.8027915271048
 30
0.0
 10
151.3882752878863
 20
127.8027915271048
 30
0.0
 10
151.3882752878863
 20
127.8027915271048
 30
0.0
 10
151.3882752878863
 20
127.8027915271048
 30
0.0
 10
155.6250565106276
 20
141.2751908193897
 30
0.0
 10
155.6250565106276
 20
141.2751908193897
 30
0.0
 10
156.5094131050963
 20
144.0936252951782
 30
0.0
 10
157.109893644309
 20
146.1506931664571
 30
0.0
 10
157.4220195011804
 20
147.4415712963654
 30
0.0
 10
157.8095929989511
 20
149.0530157726519
 30
0.0
 10
157.9656559273867
 20
149.5826995529385
 30
0.0
 10
157.7816877071116
 20
150.7529992613181
 30
0.0
 10
157.6111553680925
 20
151.8430281919372
 30
0.0
 10
157.0582171779396
 20
152.5547853887321
 30
0.0
 10
156.1170164704645
 20
152.5547853887321
 30
0.0
 10
155.1096698860365
 20
152.5547853887321
 30
0.0
 10
154.2962823053817
 20
152.4412694176073
 30
0.0
 10
153.156643967048
 20
151.2945686288697
 30
0.0
 10
152.0170056287143
 20
150.1476955852443
 30
0.0
 10
151.076149431015
 20
148.7930831468137
 30
0.0
 10
150.3337308641742
 20
147.2290087646991
 30
0.0
 10
149.5957909244188
 20
145.6683794803425
 30
0.0
 10
148.8530278478023
 20
143.6822806228776
 30
0.0
 10
148.0964843801539
 20
141.2751908193897
 30
0.0
 10
148.0964843801539
 20
141.2751908193897
 30
0.0
 10
143.8552245303272
 20
127.8027915271048
 30
0.0
 10
143.8552245303272
 20
127.8027915271048
 30
0.0
 10
143.8552245303272
 20
127.8027915271048
 30
0.0
 10
141.486030802177
 20
127.8027915271048
 30
0.0
 10
141.486030802177
 20
127.8027915271048
 30
0.0
 10
141.486030802177
 20
127.8027915271048
 30
0.0
 10
146.3329388378533
 20
143.2092687007094
 30
0.0
 10
146.3329388378533
 20
143.2092687007094
 30
0.0
 10
146.8483254624444
 20
144.8408669988801
 30
0.0
 10
147.2314203331297
 20
146.1837661049335
 30
0.0
 10
147.4867020769946
 20
147.224185627838
 30
0.0
 10
147.9169947869641
 20
149.0197705792876
 30
0.0
 10
148.0306830129768
 20
150.2400242051577
 30
0.0
 10
147.709255392159
 20
151.3157559800812
 30
0.0
 10
147.3874832615654
 20
152.3916600098926
 30
0.0
 10
146.8245542879144
 20
152.6683013598569
 30
0.0
 10
145.8840425999909
 20
152.6683013598569
 30
0.0
 10
145.0989048209514
 20
152.6683013598569
 30
0.0
 10
144.3282364524954
 20
152.3275811915945
 30
0.0
 10
143.4531816219731
 20
151.6538923250251
 30
0.0
 10
142.34627171234
 20
150.8074318058939
 30
0.0
 10
141.901854101563
 20
150.1097995099067
 30
0.0
 10
141.3578731655808
 20
149.289521733736
 30
0.0
 10
140.6299240093235
 20
148.192602607601
 30
0.0
 10
140.2850697237515
 20
147.455696197173
 30
0.0
 10
139.6652966370942
 20
145.8385673095858
 30
0.0
 10
139.0506911970739
 20
144.2214384219986
 30
0.0
 10
138.463991048893
 20
142.3252566160164
 30
0.0
 10
138.0571250036777
 20
141.0154304484394
 30
0.0
 10
138.0571250036777
 20
141.0154304484394
 30
0.0
 10
133.9009590684727
 20
127.8027915271048
 30
0.0
 10
133.9009590684727
 20
127.8027915271048
 30
0.0
 10
133.9009590684727
 20
127.8027915271048
 30
0.0
 10
131.4180771143097
 20
127.8027915271048
 30
0.0
 10
131.4180771143097
 20
127.8027915271048
 30
0.0
 10
131.4180771143097
 20
127.8027915271048
 30
0.0
 10
139.8926730891197
 20
154.8294111834263
 30
0.0
 10
139.8926730891197
 20
154.8294111834263
 30
0.0
  0
HATCH
  5
6A9
330
6A2
100
AcDbEntity
  8
LOGO
 62
   250
420
  2234388
100
AcDbHatch
 10
0.0
 20
0.0
 30
0.0
210
0.0
220
0.0
230
1.0
  2
SOLID
 70
     1
 71
     0
 91
        1
 92
        1
 93
        1
 72
     4
 94
        3
 73
     0
 74
     1
 95
      104
 96
      100
 40
0.0
 40
0.0
 40
0.0
 40
0.0
 40
1.0
 40
1.0
 40
1.0
 40
2.0
 40
2.0
 40
2.0
 40
3.0
 40
3.0
 40
3.0
 40
4.0
 40
4.0
 40
4.0
 40
5.0
 40
5.0
 40
5.0
 40
6.0
 40
6.0
 40
6.0
 40
7.0
 40
7.0
 40
7.0
 40
8.0
 40
8.0
 40
8.0
 40
9.0
 40
9.0
 40
9.0
 40
10.0
 40
10.0
 40
10.0
 40
11.0
 40
11.0
 40
11.0
 40
12.0
 40
12.0
 40
12.0
 40
13.0
 40
13.0
 40
13.0
 40
14.0
 40
14.0
 40
14.0
 40
15.0
 40
15.0
 40
15.0
 40
16.0
 40
16.0
 40
16.0
 40
17.0
 40
17.0
 40
17.0
 40
18.0
 40
18.0
 40
18.0
 40
19.0
 40
19.0
 40
19.0
 40
20.0
 40
20.0
 40
20.0
 40
21.0
 40
21.0
 40
21.0
 40
22.0
 40
22.0
 40
22.0
 40
23.0
 40
23.0
 40
23.0
 40
24.0
 40
24.0
 40
24.0
 40
25.0
 40
25.0
 40
25.0
 40
26.0
 40
26.0
 40
26.0
 40
27.0
 40
27.0
 40
27.0
 40
28.0
 40
28.0
 40
28.0
 40
29.0
 40
29.0
 40
29.0
 40
30.0
 40
30.0
 40
30.0
 40
31.0
 40
31.0
 40
31.0
 40
32.0
 40
32.0
 40
32.0
 40
33.0
 40
33.0
 40
33.0
 40
33.0
 10
139.8926730891197
 20
154.8294111834263
 10
139.8926730891197
 20
154.8294111834263
 10
142.0344903652445
 20
154.8294111834263
 10
142.0344903652445
 20
154.8294111834263
 10
142.0344903652445
 20
154.8294111834263
 10
140.9516961399171
 20
151.3157559800812
 10
140.9516961399171
 20
151.3157559800812
 10
141.8928968473923
 20
152.7887075264977
 10
142.7341897198865
 20
153.4484437471474
 10
143.8552245303272
 20
154.2926649527359
 10
144.9803934580775
 20
155.1296514530327
 10
146.3139908001845
 20
155.3044901642492
 10
147.241066606852
 20
155.3044901642492
 10
148.3855280820469
 20
155.3044901642492
 10
149.4969166187653
 20
155.0752189084569
 10
150.0784491203092
 20
153.8172414621372
 10
150.5228667310863
 20
152.833838307127
 10
150.5414702589793
 20
152.7201500811143
 10
150.4140016419347
 20
150.7765981809602
 10
151.5818897818837
 20
152.7699317437168
 10
152.4424752018226
 20
153.6256940267945
 10
153.9038856707499
 20
154.4507949398263
 10
155.4455669174378
 20
155.3044901642492
 10
156.339225275853
 20
155.3659851592288
 10
157.3748216618963
 20
155.2147453676543
 10
158.911679771723
 20
154.9877134254046
 10
159.8859534176746
 20
154.4390816074493
 10
160.3965169054045
 20
152.7816450760939
 10
160.9070803931344
 20
151.1219692311958
 10
160.6328506116007
 20
150.2303779314354
 10
159.9992971339115
 20
147.597634224801
 10
159.7105979417943
 20
146.4014962832367
 10
159.2947746424084
 20
144.9400858143094
 10
158.7463150793409
 20
143.2092687007094
 10
158.7463150793409
 20
143.2092687007094
 10
153.9038856707499
 20
127.8027915271048
 10
153.9038856707499
 20
127.8027915271048
 10
153.9038856707499
 20
127.8027915271048
 10
151.3882752878863
 20
127.8027915271048
 10
151.3882752878863
 20
127.8027915271048
 10
151.3882752878863
 20
127.8027915271048
 10
155.6250565106276
 20
141.2751908193897
 10
155.6250565106276
 20
141.2751908193897
 10
156.5094131050963
 20
144.0936252951782
 10
157.109893644309
 20
146.1506931664571
 10
157.4220195011804
 20
147.4415712963654
 10
157.8095929989511
 20
149.0530157726519
 10
157.9656559273867
 20
149.5826995529385
 10
157.7816877071116
 20
150.7529992613181
 10
157.6111553680925
 20
151.8430281919372
 10
157.0582171779396
 20
152.5547853887321
 10
156.1170164704645
 20
152.5547853887321
 10
155.1096698860365
 20
152.5547853887321
 10
154.2962823053817
 20
152.4412694176073
 10
153.156643967048
 20
151.2945686288697
 10
152.0170056287143
 20
150.1476955852443
 10
151.076149431015
 20
148.7930831468137
 10
150.3337308641742
 20
147.2290087646991
 10
149.5957909244188
 20
145.6683794803425
 10
148.8530278478023
 20
143.6822806228776
 10
148.0964843801539
 20
141.2751908193897
 10
148.0964843801539
 20
141.2751908193897
 10
143.8552245303272
 20
127.8027915271048
 10
143.8552245303272
 20
127.8027915271048
 10
143.8552245303272
 20
127.8027915271048
 10
141.486030802177
 20
127.8027915271048
 10
141.486030802177
 20
127.8027915271048
 10
141.486030802177
 20
127.8027915271048
 10
146.3329388378533
 20
143.2092687007094
 10
146.3329388378533
 20
143.2092687007094
 10
146.8483254624444
 20
144.8408669988801
 10
147.2314203331297
 20
146.1837661049335
 10
147.4867020769946
 20
147.224185627838
 10
147.9169947869641
 20
149.0197705792876
 10
148.0306830129768
 20
150.2400242051577
 10
147.709255392159
 20
151.3157559800812
 10
147.3874832615654
 20
152.3916600098926
 10
146.8245542879144
 20
152.6683013598569
 10
145.8840425999909
 20
152.6683013598569
 10
145.0989048209514
 20
152.6683013598569
 10
144.3282364524954
 20
152.3275811915945
 10
143.4531816219731
 20
151.6538923250251
 10
142.34627171234
 20
150.8074318058939
 10
141.901854101563
 20
150.1097995099067
 10
141.3578731655808
 20
149.289521733736
 10
140.6299240093235
 20
148.192602607601
 10
140.2850697237515
 20
147.455696197173
 10
139.6652966370942
 20
145.8385673095858
 10
139.0506911970739
 20
144.2214384219986
 10
138.463991048893
 20
142.3252566160164
 10
138.0571250036777
 20
141.0154304484394
 10
138.0571250036777
 20
141.0154304484394
 10
133.9009590684727
 20
127.8027915271048
 10
133.9009590684727
 20
127.8027915271048
 10
133.9009590684727
 20
127.8027915271048
 10
131.4180771143097
 20
127.8027915271048
 10
131.4180771143097
 20
127.8027915271048
 10
131.4180771143097
 20
127.8027915271048
 10
139.8926730891197
 20
154.8294111834263
 10
139.8926730891197
 20
154.8294111834263
 97
        0
 75
     2
 76
     1
 98
        0
  0
SPLINE
  5
6AA
330
6A2
100
AcDbEntity
  8
LOGO
370
     0
100
AcDbSpline
210
0.0
220
0.0
230
1.0
 70
    11
 71
     3
 72
    29
 73
    25
 74
     0
 42
0.000000001
 43
0.0000000001
 40
0.0
 40
0.0
 40
0.0
 40
0.0
 40
1.0
 40
1.0
 40
1.0
 40
2.0
 40
2.0
 40
2.0
 40
3.0
 40
3.0
 40
3.0
 40
4.0
 40
4.0
 40
4.0
 40
5.0
 40
5.0
 40
5.0
 40
6.0
 40
6.0
 40
6.0
 40
7.0
 40
7.0
 40
7.0
 40
8.0
 40
8.0
 40
8.0
 40
8.0
 10
101.6420971922469
 20
132.8388354296931
 30
0.0
 10
101.630039350094
 20
134.7164137077823
 30
0.0
 10
102.2236296937908
 20
138.0598810818841
 30
0.0
 10
103.7487744712405
 20
142.5378191476827
 30
0.0
 10
105.819967243327
 20
148.5896501242061
 30
0.0
 10
107.0602024361932
 20
150.8074318058939
 30
0.0
 10
108.1522984254671
 20
151.8833358357054
 30
0.0
 10
109.741177511439
 20
153.4532668840085
 30
0.0
 10
111.8740375333931
 20
153.5290590346837
 30
0.0
 10
112.5075910110823
 20
153.4532668840085
 30
0.0
 10
113.4012493694975
 20
153.3490526768302
 30
0.0
 10
114.6683563248758
 20
152.7580461564518
 30
0.0
 10
114.7493161221879
 20
150.7838328862519
 30
0.0
 10
114.8106388622796
 20
149.0909118479895
 30
0.0
 10
114.3186789024427
 20
145.9191825971221
 30
0.0
 10
112.6164561002338
 20
140.9489400617108
 30
0.0
 10
110.6444821435766
 20
135.1746117095912
 30
0.0
 10
109.4669477299053
 20
132.8960240524753
 30
0.0
 10
108.5212683953448
 20
131.9072809959403
 30
0.0
 10
106.7346406980658
 20
130.0538184021569
 30
0.0
 10
104.8222669326213
 20
130.2336525051225
 30
0.0
 10
104.5408024457958
 20
130.2336525051225
 30
0.0
 10
104.1721769856939
 20
130.2336525051225
 30
0.0
 10
101.6465758193322
 20
130.6305277668397
 30
0.0
 10
101.6420971922469
 20
132.8388354296931
 30
0.0
  0
SPLINE
  5
6AB
330
6A2
100
AcDbEntity
  8
LOGO
370
     0
100
AcDbSpline
210
0.0
220
0.0
230
1.0
 70
    11
 71
     3
 72
    32
 73
    28
 74
     0
 42
0.000000001
 43
0.0000000001
 40
0.0
 40
0.0
 40
0.0
 40
0.0
 40
1.0
 40
1.0
 40
1.0
 40
2.0
 40
2.0
 40
2.0
 40
3.0
 40
3.0
 40
3.0
 40
4.0
 40
4.0
 40
4.0
 40
5.0
 40
5.0
 40
5.0
 40
6.0
 40
6.0
 40
6.0
 40
7.0
 40
7.0
 40
7.0
 40
8.0
 40
8.0
 40
8.0
 40
9.0
 40
9.0
 40
9.0
 40
9.0
 10
106.2595617172429
 20
153.4105476718098
 30
0.0
 10
104.8222669326213
 20
151.5474388043041
 30
0.0
 10
103.7177685914188
 20
149.8758773721411
 30
0.0
 10
101.9232171692965
 20
144.6141795664062
 30
0.0
 10
100.2754269116635
 20
139.7999999594306
 30
0.0
 10
99.22777268346732
 20
136.3052927937542
 30
0.0
 10
99.06964269637689
 20
132.039572749846
 30
0.0
 10
98.94665270641765
 20
128.8673267343149
 30
0.0
 10
100.8807305877373
 20
127.8027915271048
 30
0.0
 10
103.7129454545577
 20
127.8027915271048
 30
0.0
 10
104.9352661390825
 20
127.8027915271048
 30
0.0
 10
108.0151835347002
 20
127.8827177950895
 30
0.0
 10
110.2045431598849
 20
130.5926316915021
 30
0.0
 10
111.7417457794874
 20
132.4984597712065
 30
0.0
 10
113.155269389579
 20
134.475256864725
 30
0.0
 10
115.0562743324223
 20
140.9489400617108
 30
0.0
 10
116.6361961642235
 20
146.3680788349845
 30
0.0
 10
117.7282921534974
 20
149.8639917848761
 30
0.0
 10
117.6480213757369
 20
151.8595646611754
 30
0.0
 10
117.6480213757369
 20
151.8595646611754
 30
0.0
 10
117.6480213757369
 20
151.8595646611754
 30
0.0
 10
117.6480213757369
 20
151.8595646611754
 30
0.0
 10
117.13229024137
 20
155.18150017429
 30
0.0
 10
114.7162431837115
 20
155.886194920681
 30
0.0
 10
113.3351034925446
 20
155.886194920681
 30
0.0
 10
111.9829026225447
 20
155.886194920681
 30
0.0
 10
108.3414342923792
 20
156.1251124501957
 30
0.0
 10
106.2595617172429
 20
153.4105476718098
 30
0.0
  0
HATCH
  5
6AC
330
6A2
100
AcDbEntity
  8
LOGO
 62
   250
420
  2234388
100
AcDbHatch
 10
0.0
 20
0.0
 30
0.0
210
0.0
220
0.0
230
1.0
  2
SOLID
 70
     1
 71
     0
 91
        2
 92
        1
 93
        1
 72
     4
 94
        3
 73
     0
 74
     1
 95
       29
 96
       25
 40
0.0
 40
0.0
 40
0.0
 40
0.0
 40
1.0
 40
1.0
 40
1.0
 40
2.0
 40
2.0
 40
2.0
 40
3.0
 40
3.0
 40
3.0
 40
4.0
 40
4.0
 40
4.0
 40
5.0
 40
5.0
 40
5.0
 40
6.0
 40
6.0
 40
6.0
 40
7.0
 40
7.0
 40
7.0
 40
8.0
 40
8.0
 40
8.0
 40
8.0
 10
101.6420971922469
 20
132.8388354296931
 10
101.630039350094
 20
134.7164137077823
 10
102.2236296937908
 20
138.0598810818841
 10
103.7487744712405
 20
142.5378191476827
 10
105.819967243327
 20
148.5896501242061
 10
107.0602024361932
 20
150.8074318058939
 10
108.1522984254671
 20
151.8833358357054
 10
109.741177511439
 20
153.4532668840085
 10
111.8740375333931
 20
153.5290590346837
 10
112.5075910110823
 20
153.4532668840085
 10
113.4012493694975
 20
153.3490526768302
 10
114.6683563248758
 20
152.7580461564518
 10
114.7493161221879
 20
150.7838328862519
 10
114.8106388622796
 20
149.0909118479895
 10
114.3186789024427
 20
145.9191825971221
 10
112.6164561002338
 20
140.9489400617108
 10
110.6444821435766
 20
135.1746117095912
 10
109.4669477299053
 20
132.8960240524753
 10
108.5212683953448
 20
131.9072809959403
 10
106.7346406980658
 20
130.0538184021569
 10
104.8222669326213
 20
130.2336525051225
 10
104.5408024457958
 20
130.2336525051225
 10
104.1721769856939
 20
130.2336525051225
 10
101.6465758193322
 20
130.6305277668397
 10
101.6420971922469
 20
132.8388354296931
 97
        0
 92
        1
 93
        1
 72
     4
 94
        3
 73
     0
 74
     1
 95
       32
 96
       28
 40
0.0
 40
0.0
 40
0.0
 40
0.0
 40
1.0
 40
1.0
 40
1.0
 40
2.0
 40
2.0
 40
2.0
 40
3.0
 40
3.0
 40
3.0
 40
4.0
 40
4.0
 40
4.0
 40
5.0
 40
5.0
 40
5.0
 40
6.0
 40
6.0
 40
6.0
 40
7.0
 40
7.0
 40
7.0
 40
8.0
 40
8.0
 40
8.0
 40
9.0
 40
9.0
 40
9.0
 40
9.0
 10
106.2595617172429
 20
153.4105476718098
 10
104.8222669326213
 20
151.5474388043041
 10
103.7177685914188
 20
149.8758773721411
 10
101.9232171692965
 20
144.6141795664062
 10
100.2754269116635
 20
139.7999999594306
 10
99.22777268346732
 20
136.3052927937542
 10
99.06964269637689
 20
132.039572749846
 10
98.94665270641765
 20
128.8673267343149
 10
100.8807305877373
 20
127.8027915271048
 10
103.7129454545577
 20
127.8027915271048
 10
104.9352661390825
 20
127.8027915271048
 10
108.0151835347002
 20
127.8827177950895
 10
110.2045431598849
 20
130.5926316915021
 10
111.7417457794874
 20
132.4984597712065
 10
113.155269389579
 20
134.475256864725
 10
115.0562743324223
 20
140.9489400617108
 10
116.6361961642235
 20
146.3680788349845
 10
117.7282921534974
 20
149.8639917848761
 10
117.6480213757369
 20
151.8595646611754
 10
117.6480213757369
 20
151.8595646611754
 10
117.6480213757369
 20
151.8595646611754
 10
117.6480213757369
 20
151.8595646611754
 10
117.13229024137
 20
155.18150017429
 10
114.7162431837115
 20
155.886194920681
 10
113.3351034925446
 20
155.886194920681
 10
111.9829026225447
 20
155.886194920681
 10
108.3414342923792
 20
156.1251124501957
 10
106.2595617172429
 20
153.4105476718098
 97
        0
 75
     2
 76
     1
 98
        0
  0
ENDBLK
  5
6AD
330
6A2
100
AcDbEntity
  8
0
100
AcDbBlockEnd
  0
BLOCK
  5
572A
330
5729
100
AcDbEntity
  8
0
100
AcDbBlockBegin
  2
*D6
 70
     1
 10
0.0
 20
0.0
 30
0.0
  3
*D6
  1

  0
LINE
  5
572C
330
5729
100
AcDbEntity
  8
DIM
 62
     0
 48
0.05
370
    -2
100
AcDbLine
 10
177.4613188996505
 20
155.9628468400984
 30
0.0
 11
121.0988930903077
 21
155.9628468400984
 31
0.0
  0
LINE
  5
572D
330
5729
100
AcDbEntity
  8
DIM
 62
     0
 48
0.05
370
    -2
100
AcDbLine
 10
174.9170244809781
 20
209.591236415406
 30
0.0
 11
121.0988930903077
 21
209.591236415406
 31
0.0
  0
LINE
  5
572E
330
5729
100
AcDbEntity
  8
DIM
 62
     0
 48
0.05
370
    -2
100
AcDbLine
 10
121.0988930903077
 20
157.9628468400984
 30
0.0
 11
121.0988930903077
 21
207.591236415406
 31
0.0
  0
INSERT
  5
572F
330
5729
100
AcDbEntity
  8
DIM
 62
     0
370
    -2
100
AcDbBlockReference
  2
_DOT
 10
121.0988930903077
 20
155.9628468400984
 30
0.0
 41
2.0
 42
2.0
 43
2.0
 50
270.0
  0
INSERT
  5
5730
330
5729
100
AcDbEntity
  8
DIM
 62
     0
370
    -2
100
AcDbBlockReference
  2
_DOT
 10
121.0988930903077
 20
209.591236415406
 30
0.0
 41
2.0
 42
2.0
 43
2.0
 50
90.0
  0
MTEXT
  5
5731
330
5729
100
AcDbEntity
  8
DIM
 62
     0
 48
0.05
100
AcDbMText
 10
115.5979552386133
 20
182.7770416277522
 30
0.0
 40
5.0
 41
0.0
 46
0.0
 71
     5
 72
     1
  1
\A1;95
  7
ＭＳ ゴシック
 11
0.0
 21
1.0
 31
0.0
 73
     1
 44
1.0
  0
POINT
  5
5732
330
5729
100
AcDbEntity
  8
Defpoints
 62
     0
100
AcDbPoint
 10
182.4613188996505
 20
155.9628468400984
 30
0.0
  0
POINT
  5
5733
330
5729
100
AcDbEntity
  8
Defpoints
 62
     0
100
AcDbPoint
 10
179.9170244809781
 20
209.591236415406
 30
0.0
  0
POINT
  5
5734
330
5729
100
AcDbEntity
  8
Defpoints
 62
     0
100
AcDbPoint
 10
121.0988930903077
 20
209.591236415406
 30
0.0
  0
ENDBLK
  5
572B
330
5729
100
AcDbEntity
  8
0
100
AcDbBlockEnd
  0
BLOCK
  5
573A
330
5739
100
AcDbEntity
  8
0
100
AcDbBlockBegin
  2
*D7
 70
     1
 10
0.0
 20
0.0
 30
0.0
  3
*D7
  1

  0
LINE
  5
573C
330
5739
100
AcDbEntity
  8
DIM
 62
     0
 48
0.05
370
    -2
100
AcDbLine
 10
155.4764624198775
 20
348.9705207779327
 30
0.0
 11
155.4764624198775
 21
361.5857970508309
 31
0.0
  0
LINE
  5
573D
330
5739
100
AcDbEntity
  8
DIM
 62
     0
 48
0.05
370
    -2
100
AcDbLine
 10
197.3260443441159
 20
348.2077902386941
 30
0.0
 11
197.3260443441159
 21
361.5857970508309
 31
0.0
  0
LINE
  5
573E
330
5739
100
AcDbEntity
  8
DIM
 62
     0
 48
0.05
370
    -2
100
AcDbLine
 10
157.4764624198775
 20
361.5857970508309
 30
0.0
 11
195.3260443441159
 21
361.5857970508309
 31
0.0
  0
INSERT
  5
573F
330
5739
100
AcDbEntity
  8
DIM
 62
     0
370
    -2
100
AcDbBlockReference
  2
_DOT
 10
155.4764624198775
 20
361.5857970508309
 30
0.0
 41
2.0
 42
2.0
 43
2.0
 50
180.0
  0
INSERT
  5
5740
330
5739
100
AcDbEntity
  8
DIM
 62
     0
370
    -2
100
AcDbBlockReference
  2
_DOT
 10
197.3260443441159
 20
361.5857970508309
 30
0.0
 41
2.0
 42
2.0
 43
2.0
  0
MTEXT
  5
5741
330
5739
100
AcDbEntity
  8
DIM
 62
     0
 48
0.05
100
AcDbMText
 10
176.4012533819967
 20
367.6194346649362
 30
0.0
 40
5.0
 41
0.0
 46
0.0
 71
     5
 72
     1
  1
\A1;G1.1/2"
  7
ＭＳ ゴシック
 73
     1
 44
1.0
  0
POINT
  5
5742
330
5739
100
AcDbEntity
  8
Defpoints
 62
     0
100
AcDbPoint
 10
155.4764624198775
 20
343.9705207779327
 30
0.0
  0
POINT
  5
5743
330
5739
100
AcDbEntity
  8
Defpoints
 62
     0
100
AcDbPoint
 10
197.3260443441159
 20
343.2077902386941
 30
0.0
  0
POINT
  5
5744
330
5739
100
AcDbEntity
  8
Defpoints
 62
     0
100
AcDbPoint
 10
197.3260443441159
 20
361.5857970508309
 30
0.0
  0
ENDBLK
  5
573B
330
5739
100
AcDbEntity
  8
0
100
AcDbBlockEnd
  0
BLOCK
  5
5749
330
5748
100
AcDbEntity
  8
0
100
AcDbBlockBegin
  2
*D8
 70
     1
 10
0.0
 20
0.0
 30
0.0
  3
*D8
  1

  0
LINE
  5
574B
330
5748
100
AcDbEntity
  8
DIM
 62
     0
 48
0.05
370
    -2
100
AcDbLine
 10
540.69790147323
 20
448.6478518211109
 30
0.0
 11
514.9691982146396
 21
448.6478518211109
 31
0.0
  0
LINE
  5
574C
330
5748
100
AcDbEntity
  8
DIM
 62
     0
 48
0.05
370
    -2
100
AcDbLine
 10
535.2308315683337
 20
479.0020453080912
 30
0.0
 11
514.9691982146396
 21
479.0020453080912
 31
0.0
  0
LINE
  5
574D
330
5748
100
AcDbEntity
  8
DIM
 62
     0
 48
0.05
370
    -2
100
AcDbLine
 10
514.9691982146396
 20
450.6478518211109
 30
0.0
 11
514.9691982146396
 21
477.0020453080912
 31
0.0
  0
INSERT
  5
574E
330
5748
100
AcDbEntity
  8
DIM
 62
     0
370
    -2
100
AcDbBlockReference
  2
_DOT
 10
514.9691982146396
 20
448.6478518211109
 30
0.0
 41
2.0
 42
2.0
 43
2.0
 50
270.0
  0
INSERT
  5
574F
330
5748
100
AcDbEntity
  8
DIM
 62
     0
370
    -2
100
AcDbBlockReference
  2
_DOT
 10
514.9691982146396
 20
479.0020453080912
 30
0.0
 41
2.0
 42
2.0
 43
2.0
 50
90.0
  0
MTEXT
  5
5750
330
5748
100
AcDbEntity
  8
DIM
 62
     0
 48
0.05
100
AcDbMText
 10
509.4682603629452
 20
463.8249485646011
 30
0.0
 40
5.0
 41
0.0
 46
0.0
 71
     5
 72
     1
  1
\A1;33
  7
ＭＳ ゴシック
 11
0.0
 21
1.0
 31
0.0
 73
     1
 44
1.0
  0
POINT
  5
5751
330
5748
100
AcDbEntity
  8
Defpoints
 62
     0
100
AcDbPoint
 10
545.69790147323
 20
448.6478518211109
 30
0.0
  0
POINT
  5
5752
330
5748
100
AcDbEntity
  8
Defpoints
 62
     0
100
AcDbPoint
 10
540.2308315683337
 20
479.0020453080912
 30
0.0
  0
POINT
  5
5753
330
5748
100
AcDbEntity
  8
Defpoints
 62
     0
100
AcDbPoint
 10
514.9691982146396
 20
479.0020453080912
 30
0.0
  0
ENDBLK
  5
574A
330
5748
100
AcDbEntity
  8
0
100
AcDbBlockEnd
  0
BLOCK
  5
5758
330
5757
100
AcDbEntity
  8
0
100
AcDbBlockBegin
  2
*D9
 70
     1
 10
0.0
 20
0.0
 30
0.0
  3
*D9
  1

  0
LINE
  5
575A
330
5757
100
AcDbEntity
  8
DIM
 62
     0
 48
0.05
370
    -2
100
AcDbLine
 10
176.401454392496
 20
304.3560140628929
 30
0.0
 11
176.401454392496
 21
279.7531865570414
 31
0.0
  0
LINE
  5
575B
330
5757
100
AcDbEntity
  8
DIM
 62
     0
 48
0.05
370
    -2
100
AcDbLine
 10
275.0551963616739
 20
303.4469479353327
 30
0.0
 11
275.0551963616739
 21
279.7531865570414
 31
0.0
  0
LINE
  5
575C
330
5757
100
AcDbEntity
  8
DIM
 62
     0
 48
0.05
370
    -2
100
AcDbLine
 10
178.401454392496
 20
279.7531865570414
 30
0.0
 11
273.0551963616739
 21
279.7531865570414
 31
0.0
  0
INSERT
  5
575D
330
5757
100
AcDbEntity
  8
DIM
 62
     0
370
    -2
100
AcDbBlockReference
  2
_DOT
 10
176.401454392496
 20
279.7531865570414
 30
0.0
 41
2.0
 42
2.0
 43
2.0
 50
180.0
  0
INSERT
  5
575E
330
5757
100
AcDbEntity
  8
DIM
 62
     0
370
    -2
100
AcDbBlockReference
  2
_DOT
 10
275.0551963616739
 20
279.7531865570414
 30
0.0
 41
2.0
 42
2.0
 43
2.0
  0
MTEXT
  5
575F
330
5757
100
AcDbEntity
  8
DIM
 62
     0
 48
0.05
100
AcDbMText
 10
225.728325377085
 20
285.2541244087358
 30
0.0
 40
5.0
 41
0.0
 46
0.0
 71
     5
 72
     1
  1
\A1;100
  7
ＭＳ ゴシック
 73
     1
 44
1.0
  0
POINT
  5
5760
330
5757
100
AcDbEntity
  8
Defpoints
 62
     0
100
AcDbPoint
 10
176.401454392496
 20
309.3560140628929
 30
0.0
  0
POINT
  5
5761
330
5757
100
AcDbEntity
  8
Defpoints
 62
     0
100
AcDbPoint
 10
275.0551963616739
 20
308.4469479353327
 30
0.0
  0
POINT
  5
5762
330
5757
100
AcDbEntity
  8
Defpoints
 62
     0
100
AcDbPoint
 10
275.0551963616739
 20
279.7531865570414
 30
0.0
  0
ENDBLK
  5
5759
330
5757
100
AcDbEntity
  8
0
100
AcDbBlockEnd
  0
BLOCK
  5
5767
330
5766
100
AcDbEntity
  8
0
100
AcDbBlockBegin
  2
*D10
 70
     1
 10
0.0
 20
0.0
 30
0.0
  3
*D10
  1

  0
LINE
  5
5769
330
5766
100
AcDbEntity
  8
DIM
 62
     0
 48
0.05
370
    -2
100
AcDbLine
 10
281.7469007242667
 20
351.6317382457689
 30
0.0
 11
292.4094867619136
 21
351.6317382457689
 31
0.0
  0
LINE
  5
576A
330
5766
100
AcDbEntity
  8
DIM
 62
     0
 48
0.05
370
    -2
100
AcDbLine
 10
281.7469007242667
 20
311.649945881561
 30
0.0
 11
292.4094867619136
 21
311.649945881561
 31
0.0
  0
LINE
  5
576B
330
5766
100
AcDbEntity
  8
DIM
 62
     0
 48
0.05
370
    -2
100
AcDbLine
 10
292.4094867619136
 20
349.6317382457689
 30
0.0
 11
292.4094867619136
 21
313.649945881561
 31
0.0
  0
INSERT
  5
576C
330
5766
100
AcDbEntity
  8
DIM
 62
     0
370
    -2
100
AcDbBlockReference
  2
_DOT
 10
292.4094867619136
 20
351.6317382457689
 30
0.0
 41
2.0
 42
2.0
 43
2.0
 50
90.0
  0
INSERT
  5
576D
330
5766
100
AcDbEntity
  8
DIM
 62
     0
370
    -2
100
AcDbBlockReference
  2
_DOT
 10
292.4094867619136
 20
311.649945881561
 30
0.0
 41
2.0
 42
2.0
 43
2.0
 50
270.0
  0
MTEXT
  5
576E
330
5766
100
AcDbEntity
  8
DIM
 62
     0
 48
0.05
100
AcDbMText
 10
286.9085489102192
 20
331.6408420636649
 30
0.0
 40
5.0
 41
0.0
 46
0.0
 71
     5
 72
     1
  1
\A1;%%c38.3
  7
ＭＳ ゴシック
 11
0.0
 21
1.0
 31
0.0
 73
     1
 44
1.0
  0
POINT
  5
576F
330
5766
100
AcDbEntity
  8
Defpoints
 62
     0
100
AcDbPoint
 10
276.7469007242667
 20
351.6317382457689
 30
0.0
  0
POINT
  5
5770
330
5766
100
AcDbEntity
  8
Defpoints
 62
     0
100
AcDbPoint
 10
276.7469007242667
 20
311.649945881561
 30
0.0
  0
POINT
  5
5771
330
5766
100
AcDbEntity
  8
Defpoints
 62
     0
100
AcDbPoint
 10
292.4094867619136
 20
311.649945881561
 30
0.0
  0
ENDBLK
  5
5768
330
5766
100
AcDbEntity
  8
0
100
AcDbBlockEnd
  0
BLOCK
  5
5776
330
5775
100
AcDbEntity
  8
0
100
AcDbBlockBegin
  2
*D11
 70
     1
 10
0.0
 20
0.0
 30
0.0
  3
*D11
  1

  0
LINE
  5
5778
330
5775
100
AcDbEntity
  8
DIM
 62
     0
 48
0.05
370
    -2
100
AcDbLine
 10
281.8843919058273
 20
309.3560140628929
 30
0.0
 11
304.2334393286534
 21
309.3560140628929
 31
0.0
  0
LINE
  5
5779
330
5775
100
AcDbEntity
  8
DIM
 62
     0
 48
0.05
370
    -2
100
AcDbLine
 10
281.8843919058273
 20
353.994817676216
 30
0.0
 11
304.2334393286534
 21
353.994817676216
 31
0.0
  0
LINE
  5
577A
330
5775
100
AcDbEntity
  8
DIM
 62
     0
 48
0.05
370
    -2
100
AcDbLine
 10
304.2334393286534
 20
311.3560140628929
 30
0.0
 11
304.2334393286534
 21
351.994817676216
 31
0.0
  0
INSERT
  5
577B
330
5775
100
AcDbEntity
  8
DIM
 62
     0
370
    -2
100
AcDbBlockReference
  2
_DOT
 10
304.2334393286534
 20
309.3560140628929
 30
0.0
 41
2.0
 42
2.0
 43
2.0
 50
270.0
  0
INSERT
  5
577C
330
5775
100
AcDbEntity
  8
DIM
 62
     0
370
    -2
100
AcDbBlockReference
  2
_DOT
 10
304.2334393286534
 20
353.994817676216
 30
0.0
 41
2.0
 42
2.0
 43
2.0
 50
90.0
  0
MTEXT
  5
577D
330
5775
100
AcDbEntity
  8
DIM
 62
     0
 48
0.05
100
AcDbMText
 10
298.7334393286534
 20
331.6754158695544
 30
0.0
 40
5.0
 41
0.0
 46
0.0
 71
     5
 72
     1
  1
\A1;%%c44
  7
ＭＳ ゴシック
 11
0.0
 21
1.0
 31
0.0
 73
     1
 44
1.0
  0
POINT
  5
577E
330
5775
100
AcDbEntity
  8
Defpoints
 62
     0
100
AcDbPoint
 10
276.8843919058273
 20
309.3560140628929
 30
0.0
  0
POINT
  5
577F
330
5775
100
AcDbEntity
  8
Defpoints
 62
     0
100
AcDbPoint
 10
276.8843919058273
 20
353.994817676216
 30
0.0
  0
POINT
  5
5780
330
5775
100
AcDbEntity
  8
Defpoints
 62
     0
100
AcDbPoint
 10
304.2334393286534
 20
353.994817676216
 30
0.0
  0
ENDBLK
  5
5777
330
5775
100
AcDbEntity
  8
0
100
AcDbBlockEnd
  0
BLOCK
  5
5822
330
5821
100
AcDbEntity
  8
0
100
AcDbBlockBegin
  2
*D12
 70
     1
 10
0.0
 20
0.0
 30
0.0
  3
*D12
  1

  0
LINE
  5
5823
330
5821
100
AcDbEntity
  8
DIM
 62
     0
 48
0.05
370
    -2
100
AcDbLine
 10
28.86182676624264
 20
70.2173342208913
 30
0.0
 11
28.86182676624264
 21
82.8326104937895
 31
0.0
  0
LINE
  5
5824
330
5821
100
AcDbEntity
  8
DIM
 62
     0
 48
0.05
370
    -2
100
AcDbLine
 10
70.711408690481
 20
69.45460368165266
 30
0.0
 11
70.711408690481
 21
82.8326104937895
 31
0.0
  0
LINE
  5
5825
330
5821
100
AcDbEntity
  8
DIM
 62
     0
 48
0.05
370
    -2
100
AcDbLine
 10
30.86182676624264
 20
82.8326104937895
 30
0.0
 11
68.711408690481
 21
82.8326104937895
 31
0.0
  0
INSERT
  5
5826
330
5821
100
AcDbEntity
  8
DIM
 62
     0
370
    -2
100
AcDbBlockReference
  2
_DOT
 10
28.86182676624264
 20
82.8326104937895
 30
0.0
 41
2.0
 42
2.0
 43
2.0
 50
180.0
  0
INSERT
  5
5827
330
5821
100
AcDbEntity
  8
DIM
 62
     0
370
    -2
100
AcDbBlockReference
  2
_DOT
 10
70.711408690481
 20
82.8326104937895
 30
0.0
 41
2.0
 42
2.0
 43
2.0
  0
MTEXT
  5
5828
330
5821
100
AcDbEntity
  8
DIM
 62
     0
 48
0.05
100
AcDbMText
 10
49.78661772836188
 20
88.86624810789479
 30
0.0
 40
5.0
 41
0.0
 46
0.0
 71
     5
 72
     1
  1
\A1;G1.1/2"
  7
ＭＳ ゴシック
 73
     1
 44
1.0
  0
POINT
  5
5829
330
5821
100
AcDbEntity
  8
Defpoints
 62
     0
100
AcDbPoint
 10
28.86182676624264
 20
65.2173342208913
 30
0.0
  0
POINT
  5
582A
330
5821
100
AcDbEntity
  8
Defpoints
 62
     0
100
AcDbPoint
 10
70.711408690481
 20
64.45460368165266
 30
0.0
  0
POINT
  5
582B
330
5821
100
AcDbEntity
  8
Defpoints
 62
     0
100
AcDbPoint
 10
70.711408690481
 20
82.8326104937895
 30
0.0
  0
ENDBLK
  5
582C
330
5821
100
AcDbEntity
  8
0
100
AcDbBlockEnd
  0
BLOCK
  5
582F
330
582E
100
AcDbEntity
  8
0
100
AcDbBlockBegin
  2
*D13
 70
     1
 10
0.0
 20
0.0
 30
0.0
  3
*D13
  1

  0
LINE
  5
5830
330
582E
100
AcDbEntity
  8
DIM
 62
     0
 48
0.05
370
    -2
100
AcDbLine
 10
49.78681873886114
 20
25.60282750585151
 30
0.0
 11
49.78681873886114
 21
1.0
 31
0.0
  0
LINE
  5
5831
330
582E
100
AcDbEntity
  8
DIM
 62
     0
 48
0.05
370
    -2
100
AcDbLine
 10
148.440560708039
 20
24.6937613782913
 30
0.0
 11
148.440560708039
 21
1.0
 31
0.0
  0
LINE
  5
5832
330
582E
100
AcDbEntity
  8
DIM
 62
     0
 48
0.05
370
    -2
100
AcDbLine
 10
51.78681873886114
 20
1.0
 30
0.0
 11
146.440560708039
 21
1.0
 31
0.0
  0
INSERT
  5
5833
330
582E
100
AcDbEntity
  8
DIM
 62
     0
370
    -2
100
AcDbBlockReference
  2
_DOT
 10
49.78681873886114
 20
1.0
 30
0.0
 41
2.0
 42
2.0
 43
2.0
 50
180.0
  0
INSERT
  5
5834
330
582E
100
AcDbEntity
  8
DIM
 62
     0
370
    -2
100
AcDbBlockReference
  2
_DOT
 10
148.440560708039
 20
1.0
 30
0.0
 41
2.0
 42
2.0
 43
2.0
  0
MTEXT
  5
5835
330
582E
100
AcDbEntity
  8
DIM
 62
     0
 48
0.05
100
AcDbMText
 10
99.11368972345008
 20
6.500937851694386
 30
0.0
 40
5.0
 41
0.0
 46
0.0
 71
     5
 72
     1
  1
\A1;100
  7
ＭＳ ゴシック
 73
     1
 44
1.0
  0
POINT
  5
5836
330
582E
100
AcDbEntity
  8
Defpoints
 62
     0
100
AcDbPoint
 10
49.78681873886114
 20
30.60282750585151
 30
0.0
  0
POINT
  5
5837
330
582E
100
AcDbEntity
  8
Defpoints
 62
     0
100
AcDbPoint
 10
148.440560708039
 20
29.6937613782913
 30
0.0
  0
POINT
  5
5838
330
582E
100
AcDbEntity
  8
Defpoints
 62
     0
100
AcDbPoint
 10
148.440560708039
 20
1.0
 30
0.0
  0
ENDBLK
  5
5839
330
582E
100
AcDbEntity
  8
0
100
AcDbBlockEnd
  0
BLOCK
  5
583C
330
583B
100
AcDbEntity
  8
0
100
AcDbBlockBegin
  2
*D14
 70
     1
 10
0.0
 20
0.0
 30
0.0
  3
*D14
  1

  0
LINE
  5
583D
330
583B
100
AcDbEntity
  8
DIM
 62
     0
 48
0.05
370
    -2
100
AcDbLine
 10
155.1322650706318
 20
72.8785516887275
 30
0.0
 11
165.7948511082787
 21
72.8785516887275
 31
0.0
  0
LINE
  5
583E
330
583B
100
AcDbEntity
  8
DIM
 62
     0
 48
0.05
370
    -2
100
AcDbLine
 10
155.1322650706318
 20
32.89675932451956
 30
0.0
 11
165.7948511082787
 21
32.89675932451956
 31
0.0
  0
LINE
  5
583F
330
583B
100
AcDbEntity
  8
DIM
 62
     0
 48
0.05
370
    -2
100
AcDbLine
 10
165.7948511082787
 20
70.8785516887275
 30
0.0
 11
165.7948511082787
 21
34.89675932451956
 31
0.0
  0
INSERT
  5
5840
330
583B
100
AcDbEntity
  8
DIM
 62
     0
370
    -2
100
AcDbBlockReference
  2
_DOT
 10
165.7948511082787
 20
72.8785516887275
 30
0.0
 41
2.0
 42
2.0
 43
2.0
 50
90.0
  0
INSERT
  5
5841
330
583B
100
AcDbEntity
  8
DIM
 62
     0
370
    -2
100
AcDbBlockReference
  2
_DOT
 10
165.7948511082787
 20
32.89675932451956
 30
0.0
 41
2.0
 42
2.0
 43
2.0
 50
270.0
  0
MTEXT
  5
5842
330
583B
100
AcDbEntity
  8
DIM
 62
     0
 48
0.05
100
AcDbMText
 10
160.2939132565843
 20
52.88765550662353
 30
0.0
 40
5.0
 41
0.0
 46
0.0
 71
     5
 72
     1
  1
\A1;%%c38.3
  7
ＭＳ ゴシック
 11
0.0
 21
1.0
 31
0.0
 73
     1
 44
1.0
  0
POINT
  5
5843
330
583B
100
AcDbEntity
  8
Defpoints
 62
     0
100
AcDbPoint
 10
150.1322650706318
 20
72.8785516887275
 30
0.0
  0
POINT
  5
5844
330
583B
100
AcDbEntity
  8
Defpoints
 62
     0
100
AcDbPoint
 10
150.1322650706318
 20
32.89675932451956
 30
0.0
  0
POINT
  5
5845
330
583B
100
AcDbEntity
  8
Defpoints
 62
     0
100
AcDbPoint
 10
165.7948511082787
 20
32.89675932451956
 30
0.0
  0
ENDBLK
  5
5846
330
583B
100
AcDbEntity
  8
0
100
AcDbBlockEnd
  0
BLOCK
  5
5849
330
5848
100
AcDbEntity
  8
0
100
AcDbBlockBegin
  2
*D15
 70
     1
 10
0.0
 20
0.0
 30
0.0
  3
*D15
  1

  0
LINE
  5
584A
330
5848
100
AcDbEntity
  8
DIM
 62
     0
 48
0.05
370
    -2
100
AcDbLine
 10
155.2697562521925
 20
30.60282750585151
 30
0.0
 11
177.6188036750185
 21
30.60282750585151
 31
0.0
  0
LINE
  5
584B
330
5848
100
AcDbEntity
  8
DIM
 62
     0
 48
0.05
370
    -2
100
AcDbLine
 10
155.2697562521925
 20
75.2416311191746
 30
0.0
 11
177.6188036750185
 21
75.2416311191746
 31
0.0
  0
LINE
  5
584C
330
5848
100
AcDbEntity
  8
DIM
 62
     0
 48
0.05
370
    -2
100
AcDbLine
 10
177.6188036750185
 20
32.60282750585151
 30
0.0
 11
177.6188036750185
 21
73.2416311191746
 31
0.0
  0
INSERT
  5
584D
330
5848
100
AcDbEntity
  8
DIM
 62
     0
370
    -2
100
AcDbBlockReference
  2
_DOT
 10
177.6188036750185
 20
30.60282750585151
 30
0.0
 41
2.0
 42
2.0
 43
2.0
 50
270.0
  0
INSERT
  5
584E
330
5848
100
AcDbEntity
  8
DIM
 62
     0
370
    -2
100
AcDbBlockReference
  2
_DOT
 10
177.6188036750185
 20
75.2416311191746
 30
0.0
 41
2.0
 42
2.0
 43
2.0
 50
90.0
  0
MTEXT
  5
584F
330
5848
100
AcDbEntity
  8
DIM
 62
     0
 48
0.05
100
AcDbMText
 10
172.1188036750185
 20
52.92222931251305
 30
0.0
 40
5.0
 41
0.0
 46
0.0
 71
     5
 72
     1
  1
\A1;%%c44
  7
ＭＳ ゴシック
 11
0.0
 21
1.0
 31
0.0
 73
     1
 44
1.0
  0
POINT
  5
5850
330
5848
100
AcDbEntity
  8
Defpoints
 62
     0
100
AcDbPoint
 10
150.2697562521925
 20
30.60282750585151
 30
0.0
  0
POINT
  5
5851
330
5848
100
AcDbEntity
  8
Defpoints
 62
     0
100
AcDbPoint
 10
150.2697562521925
 20
75.2416311191746
 30
0.0
  0
POINT
  5
5852
330
5848
100
AcDbEntity
  8
Defpoints
 62
     0
100
AcDbPoint
 10
177.6188036750185
 20
75.2416311191746
 30
0.0
  0
ENDBLK
  5
5853
330
5848
100
AcDbEntity
  8
0
100
AcDbBlockEnd
  0
BLOCK
  5
589B
330
589A
100
AcDbEntity
  8
0
100
AcDbBlockBegin
  2
*D16
 70
     1
 10
0.0
 20
0.0
 30
0.0
  3
*D16
  1

  0
LINE
  5
589D
330
589A
100
AcDbEntity
  8
DIM
 62
     0
 48
0.05
370
    -2
100
AcDbLine
 10
796.2652613875316
 20
382.5113076400501
 30
0.0
 11
796.2652613875316
 21
395.1265839129483
 31
0.0
  0
LINE
  5
589E
330
589A
100
AcDbEntity
  8
DIM
 62
     0
 48
0.05
370
    -2
100
AcDbLine
 10
838.11484331177
 20
381.7485771008115
 30
0.0
 11
838.11484331177
 21
395.1265839129483
 31
0.0
  0
LINE
  5
589F
330
589A
100
AcDbEntity
  8
DIM
 62
     0
 48
0.05
370
    -2
100
AcDbLine
 10
798.2652613875316
 20
395.1265839129483
 30
0.0
 11
836.11484331177
 21
395.1265839129483
 31
0.0
  0
INSERT
  5
58A0
330
589A
100
AcDbEntity
  8
DIM
 62
     0
370
    -2
100
AcDbBlockReference
  2
_DOT
 10
796.2652613875316
 20
395.1265839129483
 30
0.0
 41
2.0
 42
2.0
 43
2.0
 50
180.0
  0
INSERT
  5
58A1
330
589A
100
AcDbEntity
  8
DIM
 62
     0
370
    -2
100
AcDbBlockReference
  2
_DOT
 10
838.11484331177
 20
395.1265839129483
 30
0.0
 41
2.0
 42
2.0
 43
2.0
  0
MTEXT
  5
58A2
330
589A
100
AcDbEntity
  8
DIM
 62
     0
 48
0.05
100
AcDbMText
 10
817.1900523496508
 20
401.1602215270536
 30
0.0
 40
5.0
 41
0.0
 46
0.0
 71
     5
 72
     1
  1
\A1;G1.1/2"
  7
ＭＳ ゴシック
 73
     1
 44
1.0
  0
POINT
  5
58A3
330
589A
100
AcDbEntity
  8
Defpoints
 62
     0
100
AcDbPoint
 10
796.2652613875316
 20
377.5113076400501
 30
0.0
  0
POINT
  5
58A4
330
589A
100
AcDbEntity
  8
Defpoints
 62
     0
100
AcDbPoint
 10
838.11484331177
 20
376.7485771008115
 30
0.0
  0
POINT
  5
58A5
330
589A
100
AcDbEntity
  8
Defpoints
 62
     0
100
AcDbPoint
 10
838.11484331177
 20
395.1265839129483
 30
0.0
  0
ENDBLK
  5
589C
330
589A
100
AcDbEntity
  8
0
100
AcDbBlockEnd
  0
BLOCK
  5
58A7
330
58A6
100
AcDbEntity
  8
0
100
AcDbBlockBegin
  2
*D17
 70
     1
 10
0.0
 20
0.0
 30
0.0
  3
*D17
  1

  0
LINE
  5
58A9
330
58A6
100
AcDbEntity
  8
DIM
 62
     0
 48
0.05
370
    -2
100
AcDbLine
 10
817.1902533601501
 20
337.8968009250103
 30
0.0
 11
817.1902533601501
 21
313.2939734191588
 31
0.0
  0
LINE
  5
58AA
330
58A6
100
AcDbEntity
  8
DIM
 62
     0
 48
0.05
370
    -2
100
AcDbLine
 10
915.843995329328
 20
336.9877347974501
 30
0.0
 11
915.843995329328
 21
313.2939734191588
 31
0.0
  0
LINE
  5
58AB
330
58A6
100
AcDbEntity
  8
DIM
 62
     0
 48
0.05
370
    -2
100
AcDbLine
 10
819.1902533601501
 20
313.2939734191588
 30
0.0
 11
913.843995329328
 21
313.2939734191588
 31
0.0
  0
INSERT
  5
58AC
330
58A6
100
AcDbEntity
  8
DIM
 62
     0
370
    -2
100
AcDbBlockReference
  2
_DOT
 10
817.1902533601501
 20
313.2939734191588
 30
0.0
 41
2.0
 42
2.0
 43
2.0
 50
180.0
  0
INSERT
  5
58AD
330
58A6
100
AcDbEntity
  8
DIM
 62
     0
370
    -2
100
AcDbBlockReference
  2
_DOT
 10
915.843995329328
 20
313.2939734191588
 30
0.0
 41
2.0
 42
2.0
 43
2.0
  0
MTEXT
  5
58AE
330
58A6
100
AcDbEntity
  8
DIM
 62
     0
 48
0.05
100
AcDbMText
 10
866.517124344739
 20
318.7949112708532
 30
0.0
 40
5.0
 41
0.0
 46
0.0
 71
     5
 72
     1
  1
\A1;100
  7
ＭＳ ゴシック
 73
     1
 44
1.0
  0
POINT
  5
58AF
330
58A6
100
AcDbEntity
  8
Defpoints
 62
     0
100
AcDbPoint
 10
817.1902533601501
 20
342.8968009250103
 30
0.0
  0
POINT
  5
58B0
330
58A6
100
AcDbEntity
  8
Defpoints
 62
     0
100
AcDbPoint
 10
915.843995329328
 20
341.9877347974501
 30
0.0
  0
POINT
  5
58B1
330
58A6
100
AcDbEntity
  8
Defpoints
 62
     0
100
AcDbPoint
 10
915.843995329328
 20
313.2939734191588
 30
0.0
  0
ENDBLK
  5
58A8
330
58A6
100
AcDbEntity
  8
0
100
AcDbBlockEnd
  0
BLOCK
  5
58B3
330
58B2
100
AcDbEntity
  8
0
100
AcDbBlockBegin
  2
*D18
 70
     1
 10
0.0
 20
0.0
 30
0.0
  3
*D18
  1

  0
LINE
  5
58B5
330
58B2
100
AcDbEntity
  8
DIM
 62
     0
 48
0.05
370
    -2
100
AcDbLine
 10
922.5356996919207
 20
385.1725251078863
 30
0.0
 11
933.1982857295677
 21
385.1725251078863
 31
0.0
  0
LINE
  5
58B6
330
58B2
100
AcDbEntity
  8
DIM
 62
     0
 48
0.05
370
    -2
100
AcDbLine
 10
922.5356996919207
 20
345.1907327436784
 30
0.0
 11
933.1982857295677
 21
345.1907327436784
 31
0.0
  0
LINE
  5
58B7
330
58B2
100
AcDbEntity
  8
DIM
 62
     0
 48
0.05
370
    -2
100
AcDbLine
 10
933.1982857295677
 20
383.1725251078863
 30
0.0
 11
933.1982857295677
 21
347.1907327436784
 31
0.0
  0
INSERT
  5
58B8
330
58B2
100
AcDbEntity
  8
DIM
 62
     0
370
    -2
100
AcDbBlockReference
  2
_DOT
 10
933.1982857295677
 20
385.1725251078863
 30
0.0
 41
2.0
 42
2.0
 43
2.0
 50
90.0
  0
INSERT
  5
58B9
330
58B2
100
AcDbEntity
  8
DIM
 62
     0
370
    -2
100
AcDbBlockReference
  2
_DOT
 10
933.1982857295677
 20
345.1907327436784
 30
0.0
 41
2.0
 42
2.0
 43
2.0
 50
270.0
  0
MTEXT
  5
58BA
330
58B2
100
AcDbEntity
  8
DIM
 62
     0
 48
0.05
100
AcDbMText
 10
927.6973478778733
 20
365.1816289257823
 30
0.0
 40
5.0
 41
0.0
 46
0.0
 71
     5
 72
     1
  1
\A1;%%c38.3
  7
ＭＳ ゴシック
 11
0.0
 21
1.0
 31
0.0
 73
     1
 44
1.0
  0
POINT
  5
58BB
330
58B2
100
AcDbEntity
  8
Defpoints
 62
     0
100
AcDbPoint
 10
917.5356996919207
 20
385.1725251078863
 30
0.0
  0
POINT
  5
58BC
330
58B2
100
AcDbEntity
  8
Defpoints
 62
     0
100
AcDbPoint
 10
917.5356996919207
 20
345.1907327436784
 30
0.0
  0
POINT
  5
58BD
330
58B2
100
AcDbEntity
  8
Defpoints
 62
     0
100
AcDbPoint
 10
933.1982857295677
 20
345.1907327436784
 30
0.0
  0
ENDBLK
  5
58B4
330
58B2
100
AcDbEntity
  8
0
100
AcDbBlockEnd
  0
BLOCK
  5
58BF
330
58BE
100
AcDbEntity
  8
0
100
AcDbBlockBegin
  2
*D19
 70
     1
 10
0.0
 20
0.0
 30
0.0
  3
*D19
  1

  0
LINE
  5
58C1
330
58BE
100
AcDbEntity
  8
DIM
 62
     0
 48
0.05
370
    -2
100
AcDbLine
 10
922.6731908734814
 20
342.8968009250103
 30
0.0
 11
945.0222382963075
 21
342.8968009250103
 31
0.0
  0
LINE
  5
58C2
330
58BE
100
AcDbEntity
  8
DIM
 62
     0
 48
0.05
370
    -2
100
AcDbLine
 10
922.6731908734814
 20
387.5356045383334
 30
0.0
 11
945.0222382963075
 21
387.5356045383334
 31
0.0
  0
LINE
  5
58C3
330
58BE
100
AcDbEntity
  8
DIM
 62
     0
 48
0.05
370
    -2
100
AcDbLine
 10
945.0222382963075
 20
344.8968009250103
 30
0.0
 11
945.0222382963075
 21
385.5356045383334
 31
0.0
  0
INSERT
  5
58C4
330
58BE
100
AcDbEntity
  8
DIM
 62
     0
370
    -2
100
AcDbBlockReference
  2
_DOT
 10
945.0222382963075
 20
342.8968009250103
 30
0.0
 41
2.0
 42
2.0
 43
2.0
 50
270.0
  0
INSERT
  5
58C5
330
58BE
100
AcDbEntity
  8
DIM
 62
     0
370
    -2
100
AcDbBlockReference
  2
_DOT
 10
945.0222382963075
 20
387.5356045383334
 30
0.0
 41
2.0
 42
2.0
 43
2.0
 50
90.0
  0
MTEXT
  5
58C6
330
58BE
100
AcDbEntity
  8
DIM
 62
     0
 48
0.05
100
AcDbMText
 10
939.5222382963075
 20
365.2162027316718
 30
0.0
 40
5.0
 41
0.0
 46
0.0
 71
     5
 72
     1
  1
\A1;%%c44
  7
ＭＳ ゴシック
 11
0.0
 21
1.0
 31
0.0
 73
     1
 44
1.0
  0
POINT
  5
58C7
330
58BE
100
AcDbEntity
  8
Defpoints
 62
     0
100
AcDbPoint
 10
917.6731908734814
 20
342.8968009250103
 30
0.0
  0
POINT
  5
58C8
330
58BE
100
AcDbEntity
  8
Defpoints
 62
     0
100
AcDbPoint
 10
917.6731908734814
 20
387.5356045383334
 30
0.0
  0
POINT
  5
58C9
330
58BE
100
AcDbEntity
  8
Defpoints
 62
     0
100
AcDbPoint
 10
945.0222382963075
 20
387.5356045383334
 30
0.0
  0
ENDBLK
  5
58C0
330
58BE
100
AcDbEntity
  8
0
100
AcDbBlockEnd
  0
BLOCK
  5
58CE
330
58CD
100
AcDbEntity
  8
0
100
AcDbBlockBegin
  2
*D20
 70
     1
 10
0.0
 20
0.0
 30
0.0
  3
*D20
  1

  0
LINE
  5
58D0
330
58CD
100
AcDbEntity
  8
DIM
 62
     0
 48
0.05
370
    -2
100
AcDbLine
 10
588.9408850345424
 20
275.4961367725662
 30
0.0
 11
588.9408850345424
 21
248.967172095358
 31
0.0
  0
LINE
  5
58D1
330
58CD
100
AcDbEntity
  8
DIM
 62
     0
 48
0.05
370
    -2
100
AcDbLine
 10
670.1559611319583
 20
275.4961367725662
 30
0.0
 11
670.1559611319583
 21
248.967172095358
 31
0.0
  0
LINE
  5
58D2
330
58CD
100
AcDbEntity
  8
DIM
 62
     0
 48
0.05
370
    -2
100
AcDbLine
 10
590.9408850345424
 20
248.967172095358
 30
0.0
 11
668.1559611319583
 21
248.967172095358
 31
0.0
  0
INSERT
  5
58D3
330
58CD
100
AcDbEntity
  8
DIM
 62
     0
370
    -2
100
AcDbBlockReference
  2
_DOT
 10
588.9408850345424
 20
248.967172095358
 30
0.0
 41
2.0
 42
2.0
 43
2.0
 50
180.0
  0
INSERT
  5
58D4
330
58CD
100
AcDbEntity
  8
DIM
 62
     0
370
    -2
100
AcDbBlockReference
  2
_DOT
 10
670.1559611319583
 20
248.967172095358
 30
0.0
 41
2.0
 42
2.0
 43
2.0
  0
MTEXT
  5
58D5
330
58CD
100
AcDbEntity
  8
DIM
 62
     0
 48
0.05
100
AcDbMText
 10
629.5484230832503
 20
254.4681099470524
 30
0.0
 40
5.0
 41
0.0
 46
0.0
 71
     5
 72
     1
  1
\A1;81.2150761
  7
ＭＳ ゴシック
 73
     1
 44
1.0
  0
POINT
  5
58D6
330
58CD
100
AcDbEntity
  8
Defpoints
 62
     0
100
AcDbPoint
 10
588.9408850345424
 20
280.4961367725662
 30
0.0
  0
POINT
  5
58D7
330
58CD
100
AcDbEntity
  8
Defpoints
 62
     0
100
AcDbPoint
 10
670.1559611319583
 20
280.4961367725662
 30
0.0
  0
POINT
  5
58D8
330
58CD
100
AcDbEntity
  8
Defpoints
 62
     0
100
AcDbPoint
 10
670.1559611319583
 20
248.967172095358
 30
0.0
  0
ENDBLK
  5
58CF
330
58CD
100
AcDbEntity
  8
0
100
AcDbBlockEnd
  0
BLOCK
  5
58DD
330
58DC
100
AcDbEntity
  8
0
100
AcDbBlockBegin
  2
*D21
 70
     1
 10
0.0
 20
0.0
 30
0.0
  3
*D21
  1

  0
LINE
  5
58DF
330
58DC
100
AcDbEntity
  8
DIM
 62
     0
 48
0.05
370
    -2
100
AcDbLine
 10
831.9740250991551
 20
352.3657548801841
 30
0.0
 11
831.9740250991551
 21
367.6570417854196
 31
0.0
  0
LINE
  5
58E0
330
58DC
100
AcDbEntity
  8
DIM
 62
     0
 48
0.05
370
    -2
100
AcDbLine
 10
913.0851519549998
 20
352.3657548801841
 30
0.0
 11
913.0851519549998
 21
367.6570417854196
 31
0.0
  0
LINE
  5
58E1
330
58DC
100
AcDbEntity
  8
DIM
 62
     0
 48
0.05
370
    -2
100
AcDbLine
 10
833.9740250991551
 20
367.6570417854196
 30
0.0
 11
911.0851519549998
 21
367.6570417854196
 31
0.0
  0
INSERT
  5
58E2
330
58DC
100
AcDbEntity
  8
DIM
 62
     0
370
    -2
100
AcDbBlockReference
  2
_DOT
 10
831.9740250991551
 20
367.6570417854196
 30
0.0
 41
2.0
 42
2.0
 43
2.0
 50
180.0
  0
INSERT
  5
58E3
330
58DC
100
AcDbEntity
  8
DIM
 62
     0
370
    -2
100
AcDbBlockReference
  2
_DOT
 10
913.0851519549998
 20
367.6570417854196
 30
0.0
 41
2.0
 42
2.0
 43
2.0
  0
MTEXT
  5
58E4
330
58DC
100
AcDbEntity
  8
DIM
 62
     0
 48
0.05
100
AcDbMText
 10
872.5295885270775
 20
373.157979637114
 30
0.0
 40
5.0
 41
0.0
 46
0.0
 71
     5
 72
     1
  1
\A1;81.1111269
  7
ＭＳ ゴシック
 73
     1
 44
1.0
  0
POINT
  5
58E5
330
58DC
100
AcDbEntity
  8
Defpoints
 62
     0
100
AcDbPoint
 10
831.9740250991551
 20
347.3657548801841
 30
0.0
  0
POINT
  5
58E6
330
58DC
100
AcDbEntity
  8
Defpoints
 62
     0
100
AcDbPoint
 10
913.0851519549998
 20
347.3657548801841
 30
0.0
  0
POINT
  5
58E7
330
58DC
100
AcDbEntity
  8
Defpoints
 62
     0
100
AcDbPoint
 10
913.0851519549998
 20
367.6570417854196
 30
0.0
  0
ENDBLK
  5
58DE
330
58DC
100
AcDbEntity
  8
0
100
AcDbBlockEnd
  0
BLOCK
  5
5943
330
5942
100
AcDbEntity
  8
0
100
AcDbBlockBegin
  2
*D22
 70
     1
 10
0.0
 20
0.0
 30
0.0
  3
*D22
  1

  0
LINE
  5
5945
330
5942
100
AcDbEntity
  8
DIM
 62
     0
 48
0.05
370
    -2
100
AcDbLine
 10
159.4763538322501
 20
444.5665301600629
 30
0.0
 11
115.4866955101498
 21
444.5665301600628
 31
0.0
  0
LINE
  5
5946
330
5942
100
AcDbEntity
  8
DIM
 62
     0
 48
0.05
370
    -2
100
AcDbLine
 10
159.4763538322501
 20
542.1450141810483
 30
0.0
 11
115.4866955101498
 21
542.1450141810483
 31
0.0
  0
LINE
  5
5947
330
5942
100
AcDbEntity
  8
DIM
 62
     0
 48
0.05
370
    -2
100
AcDbLine
 10
115.4866955101498
 20
446.5665301600628
 30
0.0
 11
115.4866955101498
 21
540.1450141810483
 31
0.0
  0
INSERT
  5
5948
330
5942
100
AcDbEntity
  8
DIM
 62
     0
370
    -2
100
AcDbBlockReference
  2
_DOT
 10
115.4866955101498
 20
444.5665301600628
 30
0.0
 41
2.0
 42
2.0
 43
2.0
 50
270.0
  0
INSERT
  5
5949
330
5942
100
AcDbEntity
  8
DIM
 62
     0
370
    -2
100
AcDbBlockReference
  2
_DOT
 10
115.4866955101498
 20
542.1450141810483
 30
0.0
 41
2.0
 42
2.0
 43
2.0
 50
90.00000000000004
  0
MTEXT
  5
594A
330
5942
100
AcDbEntity
  8
DIM
 62
     0
 48
0.05
100
AcDbMText
 10
109.9866955101498
 20
493.3557721705556
 30
0.0
 40
5.0
 41
0.0
 46
0.0
 71
     5
 72
     1
  1
\A1;98
  7
ＭＳ ゴシック
 11
-5.825404998973251E-16
 21
1.0
 31
0.0
 73
     1
 44
1.0
  0
POINT
  5
594B
330
5942
100
AcDbEntity
  8
Defpoints
 62
     0
100
AcDbPoint
 10
164.4763538322501
 20
444.5665301600629
 30
0.0
  0
POINT
  5
594C
330
5942
100
AcDbEntity
  8
Defpoints
 62
     0
100
AcDbPoint
 10
164.4763538322501
 20
542.1450141810483
 30
0.0
  0
POINT
  5
594D
330
5942
100
AcDbEntity
  8
Defpoints
 62
     0
100
AcDbPoint
 10
115.4866955101498
 20
542.1450141810483
 30
0.0
  0
ENDBLK
  5
5944
330
5942
100
AcDbEntity
  8
0
100
AcDbBlockEnd
  0
BLOCK
  5
5952
330
5951
100
AcDbEntity
  8
0
100
AcDbBlockBegin
  2
*D23
 70
     1
 10
0.0
 20
0.0
 30
0.0
  3
*D23
  1

  0
LINE
  5
5954
330
5951
100
AcDbEntity
  8
DIM
 62
     0
 48
0.05
370
    -2
100
AcDbLine
 10
126.6146361391601
 20
477.4282478531531
 30
0.0
 11
126.6146361391602
 21
431.3833700602268
 31
0.0
  0
LINE
  5
5955
330
5951
100
AcDbEntity
  8
DIM
 62
     0
 48
0.05
370
    -2
100
AcDbLine
 10
275.0551963616739
 20
466.3557721705558
 30
0.0
 11
275.0551963616739
 21
431.3833700602268
 31
0.0
  0
LINE
  5
5956
330
5951
100
AcDbEntity
  8
DIM
 62
     0
 48
0.05
370
    -2
100
AcDbLine
 10
128.6146361391602
 20
431.3833700602268
 30
0.0
 11
273.0551963616739
 21
431.3833700602268
 31
0.0
  0
INSERT
  5
5957
330
5951
100
AcDbEntity
  8
DIM
 62
     0
370
    -2
100
AcDbBlockReference
  2
_DOT
 10
126.6146361391602
 20
431.3833700602268
 30
0.0
 41
2.0
 42
2.0
 43
2.0
 50
180.0
  0
INSERT
  5
5958
330
5951
100
AcDbEntity
  8
DIM
 62
     0
370
    -2
100
AcDbBlockReference
  2
_DOT
 10
275.0551963616739
 20
431.3833700602268
 30
0.0
 41
2.0
 42
2.0
 43
2.0
 50
0.0000000000000219
  0
MTEXT
  5
5959
330
5951
100
AcDbEntity
  8
DIM
 62
     0
 48
0.05
100
AcDbMText
 10
200.834916250417
 20
436.8843079119212
 30
0.0
 40
5.0
 41
0.0
 46
0.0
 71
     5
 72
     1
  1
\A1;149
  7
ＭＳ ゴシック
 73
     1
 44
1.0
  0
POINT
  5
595A
330
5951
100
AcDbEntity
  8
Defpoints
 62
     0
100
AcDbPoint
 10
126.6146361391601
 20
482.4282478531531
 30
0.0
  0
POINT
  5
595B
330
5951
100
AcDbEntity
  8
Defpoints
 62
     0
100
AcDbPoint
 10
275.0551963616739
 20
471.3557721705558
 30
0.0
  0
POINT
  5
595C
330
5951
100
AcDbEntity
  8
Defpoints
 62
     0
100
AcDbPoint
 10
275.0551963616739
 20
431.3833700602268
 30
0.0
  0
ENDBLK
  5
5953
330
5951
100
AcDbEntity
  8
0
100
AcDbBlockEnd
  0
ENDSEC
  0
SECTION
  2
ENTITIES
  0
MTEXT
  5
177
330
A
100
AcDbEntity
  8
TEMPLATE
390
1D
100
AcDbMText
 10
15.84042890954615
 20
68.74635032628565
 30
0.0
 40
3.257682291666665
 41
0.0
 46
0.0
 71
     1
 72
     1
  1
品名
  7
ＭＳ ゴシック
 73
     1
 44
0.7828267384257843
  0
MTEXT
  5
178
330
A
100
AcDbEntity
  8
TEMPLATE
390
1D
100
AcDbMText
 10
15.84042890954615
 20
51.7463503262856
 30
0.0
 40
3.257682291666665
 41
0.0
 46
0.0
 71
     1
 72
     1
  1
仕様
  7
ＭＳ ゴシック
 73
     1
 44
0.7828267384257843
  0
LINE
  5
179
330
A
100
AcDbEntity
  8
TEMPLATE
390
1D
100
AcDbLine
 10
404.4404289094496
 20
53.42933470128568
 30
0.0
 11
14.44042890944975
 21
53.42933470128568
 31
0.0
  0
LWPOLYLINE
  5
17A
330
A
100
AcDbEntity
  8
TEMPLATE
390
1D
100
AcDbPolyline
 90
        5
 70
   128
 43
0.0
 10
404.4404289094496
 20
579.4293347012853
 10
14.44042890944975
 20
579.4293347012853
 10
14.44042890944975
 20
19.42933470128565
 10
404.4404289094496
 20
19.42933470128565
 10
404.4404289094496
 20
579.4293347012853
  0
LINE
  5
17B
330
A
100
AcDbEntity
  8
TEMPLATE
390
1D
100
AcDbLine
 10
404.4404289094496
 20
70.42933470128564
 30
0.0
 11
14.44042890944975
 21
70.42933470128564
 31
0.0
  0
LINE
  5
17C
330
A
100
AcDbEntity
  8
TEMPLATE
390
1D
100
AcDbLine
 10
404.4404289095464
 20
36.42933470128565
 30
0.0
 11
253.840428909546
 21
36.42933470128565
 31
0.0
  0
MTEXT
  5
17D
330
A
100
AcDbEntity
  8
TEMPLATE
390
1D
100
AcDbMText
 10
14.4404289095869
 20
17.05857028991423
 30
0.0
 40
4.343576388888888
 41
0.0
 46
4.343576388888888
 71
     1
 72
     1
  1
{20230322M}
  7
ＭＳ ゴシック
 73
     1
 44
0.7828267384257843
1001
ACAD
1000
ACAD_MTEXT_DEFINED_HEIGHT_BEGIN
1070
    46
1040
4.343576388888888
1000
ACAD_MTEXT_DEFINED_HEIGHT_END
  0
MTEXT
  5
17E
330
A
100
AcDbEntity
  8
TEMPLATE
390
1D
100
AcDbMText
 10
259.8147101599982
 20
30.44725580662403
 30
0.0
 40
4.8865234375
 41
0.0
 46
0.0
 71
     1
 72
     1
  1
大洋金物株式会社 ティーフォルム事業部
  7
ＭＳ ゴシック
 73
     1
 44
0.7828267384257843
  0
MTEXT
  5
180
330
A
100
AcDbEntity
  8
TEMPLATE
390
1D
100
AcDbMText
 10
366.240428909598
 20
46.02985813878564
 30
0.0
 40
4.8865234375
 41
0.0
 46
4.8865234375
 71
     1
 72
     1
  1
{FREE}
  7
ＭＳ ゴシック
 73
     1
 44
0.7828267384257843
1001
ACAD
1000
ACAD_MTEXT_DEFINED_HEIGHT_BEGIN
1070
    46
1040
4.8865234375
1000
ACAD_MTEXT_DEFINED_HEIGHT_END
  0
MTEXT
  5
181
330
A
100
AcDbEntity
  8
TEMPLATE
390
1D
100
AcDbMText
 10
355.640428909598
 20
51.7463503262856
 30
0.0
 40
3.257682291666665
 41
0.0
 46
0.0
 71
     1
 72
     1
  1
縮尺
  7
ＭＳ ゴシック
 73
     1
 44
0.7828267384257843
  0
LINE
  5
182
330
A
100
AcDbEntity
  8
TEMPLATE
390
1D
100
AcDbLine
 10
354.240428909598
 20
36.42933470128565
 30
0.0
 11
354.240428909598
 21
53.42933470128568
 31
0.0
  0
MTEXT
  5
183
330
A
100
AcDbEntity
  8
TEMPLATE
390
1D
100
AcDbMText
 10
305.440428909598
 20
51.7463503262856
 30
0.0
 40
3.257682291666665
 41
0.0
 46
0.0
 71
     1
 72
     1
  1
容量
  7
ＭＳ ゴシック
 73
     1
 44
0.7828267384257843
  0
LINE
  5
184
330
A
100
AcDbEntity
  8
TEMPLATE
390
1D
100
AcDbLine
 10
304.040428909598
 20
36.42933470128565
 30
0.0
 11
304.040428909598
 21
53.42933470128568
 31
0.0
  0
MTEXT
  5
185
330
A
100
AcDbEntity
  8
TEMPLATE
390
1D
100
AcDbMText
 10
255.240428909598
 20
68.74635032628565
 30
0.0
 40
3.257682291666665
 41
0.0
 46
0.0
 71
     1
 72
     1
  1
品番
  7
ＭＳ ゴシック
 73
     1
 44
0.7828267384257843
  0
MTEXT
  5
186
330
A
100
AcDbEntity
  8
TEMPLATE
390
1D
100
AcDbMText
 10
255.240428909598
 20
51.7463503262856
 30
0.0
 40
3.257682291666665
 41
0.0
 46
0.0
 71
     1
 72
     1
  1
重量
  7
ＭＳ ゴシック
 73
     1
 44
0.7828267384257843
  0
MTEXT
  5
187
330
A
100
AcDbEntity
  8
TEMPLATE
390
1D
100
AcDbMText
 10
265.840428909598
 20
63.02985813878564
 30
0.0
 40
4.8865234375
 41
0.0
 46
4.8865234375
 71
     1
 72
     1
  1
{TFM73-9518}
  7
ＭＳ ゴシック
 73
     1
 44
0.7828267384257843
1001
ACAD
1000
ACAD_MTEXT_DEFINED_HEIGHT_BEGIN
1070
    46
1040
4.8865234375
1000
ACAD_MTEXT_DEFINED_HEIGHT_END
  0
LINE
  5
188
330
A
100
AcDbEntity
  8
TEMPLATE
390
1D
100
AcDbLine
 10
253.840428909598
 20
19.42933470128565
 30
0.0
 11
253.840428909598
 21
70.42933470128564
 31
0.0
  0
MTEXT
  5
189
330
A
100
AcDbEntity
  8
TEMPLATE
390
1D
100
AcDbMText
 10
26.44042890954615
 20
63.02985813878564
 30
0.0
 40
4.8865234375
 41
0.0
 46
5.2823318359375
 71
     1
 72
     1
  1
{横引きエルボ -TFORM-}
  7
ＭＳ ゴシック
 73
     1
 44
0.7828267384257843
1001
ACAD
1000
ACAD_MTEXT_DEFINED_HEIGHT_BEGIN
1070
    46
1040
5.2823318359375
1000
ACAD_MTEXT_DEFINED_HEIGHT_END
  0
INSERT
  5
6B5
330
A
100
AcDbEntity
  8
TEMPLATE
100
AcDbBlockReference
  2
名称未設定-1
 10
374.15014961769
 20
5.189353151330764
 30
0.0
 41
0.1524
 42
0.1524
 43
0.1524
  0
INSERT
  5
68C
330
A
100
AcDbEntity
  8
TEMPLATE
100
AcDbBlockReference
  2
block 2
 10
367.7097207081031
 20
3.349230605734547
 30
0.0
 41
0.1524
 42
0.1524
 43
0.1524
  0
LWPOLYLINE
  5
D69
330
A
100
AcDbEntity
  8
BORDER
 48
0.5
100
AcDbPolyline
 90
        4
 70
     1
 43
0.0
 10
0.0
 20
0.0
 10
0.0
 20
594.0
 10
420.0
 20
594.0
 10
420.0
 20
0.0
  0
INSERT
  5
1343
330
A
100
AcDbEntity
  8
TEMPLATE
100
AcDbBlockReference
  2
block 2
 10
838.6973883465873
 20
9.774128564918277
 30
0.0
 41
0.1524
 42
0.1524
 43
0.1524
  0
HATCH
  5
3CF7
330
A
100
AcDbEntity
  8
レイヤー 1
100
AcDbHatch
 10
0.0
 20
0.0
 30
0.0
210
0.0
220
0.0
230
1.0
  2
SOLID
 70
     1
 71
     0
 91
        1
 92
        1
 93
        1
 72
     4
 94
        3
 73
     0
 74
     1
 95
       11
 96
        7
 40
0.0
 40
0.0
 40
0.0
 40
0.0
 40
1.0
 40
1.0
 40
1.0
 40
2.0
 40
2.0
 40
2.0
 40
2.0
 10
510.5210832839682
 20
316.4637152952369
 10
510.5210832839682
 20
316.4637152952369
 10
516.7994294380776
 20
316.4637152952369
 10
516.7994294380776
 20
316.4637152952369
 10
516.7994294380776
 20
316.4637152952369
 10
510.5210832839682
 20
316.4637152952369
 10
510.5210832839682
 20
316.4637152952369
 97
        0
 75
     2
 76
     1
 98
        0
  0
HATCH
  5
3CF9
330
A
100
AcDbEntity
  8
レイヤー 1
100
AcDbHatch
 10
0.0
 20
0.0
 30
0.0
210
0.0
220
0.0
230
1.0
  2
SOLID
 70
     1
 71
     0
 91
        1
 92
        1
 93
        1
 72
     4
 94
        3
 73
     0
 74
     1
 95
       11
 96
        7
 40
0.0
 40
0.0
 40
0.0
 40
0.0
 40
1.0
 40
1.0
 40
1.0
 40
2.0
 40
2.0
 40
2.0
 40
2.0
 10
510.5210832839682
 20
303.4577822393799
 10
510.5210832839682
 20
303.4577822393799
 10
519.6741912622088
 20
303.4577822393799
 10
519.6741912622088
 20
303.4577822393799
 10
519.6741912622088
 20
303.4577822393799
 10
510.5210832839682
 20
303.4577822393799
 10
510.5210832839682
 20
303.4577822393799
 97
        0
 75
     2
 76
     1
 98
        0
  0
HATCH
  5
3CFB
330
A
100
AcDbEntity
  8
レイヤー 1
100
AcDbHatch
 10
0.0
 20
0.0
 30
0.0
210
0.0
220
0.0
230
1.0
  2
SOLID
 70
     1
 71
     0
 91
        1
 92
        1
 93
        1
 72
     4
 94
        3
 73
     0
 74
     1
 95
       11
 96
        7
 40
0.0
 40
0.0
 40
0.0
 40
0.0
 40
1.0
 40
1.0
 40
1.0
 40
2.0
 40
2.0
 40
2.0
 40
2.0
 10
510.7686135578778
 20
303.4577822393799
 10
510.7686135578778
 20
303.4577822393799
 10
510.7686135578778
 20
307.9470891277797
 10
510.7686135578778
 20
307.9470891277797
 10
510.7686135578778
 20
307.9470891277797
 10
510.7686135578778
 20
303.4577822393799
 10
510.7686135578778
 20
303.4577822393799
 97
        0
 75
     2
 76
     1
 98
        0
  0
HATCH
  5
3CFD
330
A
100
AcDbEntity
  8
レイヤー 1
100
AcDbHatch
 10
0.0
 20
0.0
 30
0.0
210
0.0
220
0.0
230
1.0
  2
SOLID
 70
     1
 71
     0
 91
        1
 92
        1
 93
        1
 72
     4
 94
        3
 73
     0
 74
     1
 95
       11
 96
        7
 40
0.0
 40
0.0
 40
0.0
 40
0.0
 40
1.0
 40
1.0
 40
1.0
 40
2.0
 40
2.0
 40
2.0
 40
2.0
 10
510.7686135578778
 20
307.5236866133263
 10
510.7686135578778
 20
307.5236866133263
 10
510.7686135578778
 20
316.4637152952369
 10
510.7686135578778
 20
316.4637152952369
 10
510.7686135578778
 20
316.4637152952369
 10
510.7686135578778
 20
307.5236866133263
 10
510.7686135578778
 20
307.5236866133263
 97
        0
 75
     2
 76
     1
 98
        0
  0
SPLINE
  5
3D0D
330
A
100
AcDbEntity
  8
MODEL
100
AcDbSpline
210
0.0
220
0.0
230
1.0
 70
    11
 71
     3
 72
    17
 73
    13
 74
     0
 42
0.000000001
 43
0.0000000001
 40
0.0
 40
0.0
 40
0.0
 40
0.0
 40
1.0
 40
1.0
 40
1.0
 40
2.0
 40
2.0
 40
2.0
 40
3.0
 40
3.0
 40
3.0
 40
4.0
 40
4.0
 40
4.0
 40
4.0
 10
230.2707367581676
 20
207.0472475355372
 30
0.0
 10
230.2707367581676
 20
203.9581181814109
 30
0.0
 10
228.4825473558832
 20
202.8091421670831
 30
0.0
 10
228.4825473558832
 20
202.8091421670831
 30
0.0
 10
228.4825473558832
 20
202.8091421670831
 30
0.0
 10
190.423621428529
 20
202.8091421670831
 30
0.0
 10
190.423621428529
 20
202.8091421670831
 30
0.0
 10
188.6386481942342
 20
202.8091421670831
 30
0.0
 10
188.6386481942342
 20
207.0472475355372
 30
0.0
 10
188.6386481942342
 20
207.0472475355372
 30
0.0
 10
188.6386481942342
 20
207.0472475355372
 30
0.0
 10
230.2707367581676
 20
207.0472475355372
 30
0.0
 10
230.2707367581676
 20
207.0472475355372
 30
0.0
  0
SPLINE
  5
3D0E
330
A
100
AcDbEntity
  8
MODEL
100
AcDbSpline
210
0.0
220
0.0
230
1.0
 70
     8
 71
     3
 72
    20
 73
    16
 74
     0
 42
0.000000001
 43
0.0000000001
 40
0.0
 40
0.0
 40
0.0
 40
0.0
 40
1.0
 40
1.0
 40
1.0
 40
2.0
 40
2.0
 40
2.0
 40
3.0
 40
3.0
 40
3.0
 40
4.0
 40
4.0
 40
4.0
 40
5.0
 40
5.0
 40
5.0
 40
5.0
 10
187.0382025983499
 20
225.880323241342
 30
0.0
 10
187.0382025983499
 20
225.880323241342
 30
0.0
 10
187.0382025983499
 20
224.6983815051197
 30
0.0
 10
187.0382025983499
 20
224.6983815051197
 30
0.0
 10
187.0382025983499
 20
224.6983815051197
 30
0.0
 10
231.8723884170486
 20
224.6983815051197
 30
0.0
 10
231.8723884170486
 20
224.6983815051197
 30
0.0
 10
231.8723884170486
 20
224.6983815051197
 30
0.0
 10
231.8723884170486
 20
225.684136993969
 30
0.0
 10
231.8723884170486
 20
225.684136993969
 30
0.0
 10
231.8723884170486
 20
225.684136993969
 30
0.0
 10
210.3598427548083
 20
230.5518072464106
 30
0.0
 10
187.0382025983499
 20
225.684136993969
 30
0.0
 10
187.0382025983499
 20
225.684136993969
 30
0.0
 10
231.8723884170486
 20
225.684136993969
 30
0.0
 10
231.8723884170486
 20
225.684136993969
 30
0.0
  0
SPLINE
  5
3D0F
330
A
100
AcDbEntity
  8
MODEL
100
AcDbSpline
210
0.0
220
0.0
230
1.0
 70
    11
 71
     3
 72
    17
 73
    13
 74
     0
 42
0.000000001
 43
0.0000000001
 40
0.0
 40
0.0
 40
0.0
 40
0.0
 40
1.0
 40
1.0
 40
1.0
 40
2.0
 40
2.0
 40
2.0
 40
3.0
 40
3.0
 40
3.0
 40
4.0
 40
4.0
 40
4.0
 40
4.0
 10
187.0382025983499
 20
216.9337479359374
 30
0.0
 10
187.0382025983499
 20
216.9337479359374
 30
0.0
 10
231.8723884170486
 20
216.9337479359374
 30
0.0
 10
231.8723884170486
 20
216.9337479359374
 30
0.0
 10
231.8723884170486
 20
216.9337479359374
 30
0.0
 10
229.9487179381969
 20
216.2277990621939
 30
0.0
 10
229.9487179381969
 20
215.5926058842241
 30
0.0
 10
229.9487179381969
 20
215.5926058842241
 30
0.0
 10
188.9578528672145
 20
215.5926058842241
 30
0.0
 10
188.9578528672145
 20
215.5926058842241
 30
0.0
 10
188.9578528672145
 20
215.5926058842241
 30
0.0
 10
187.8486769317594
 20
216.9337479359374
 30
0.0
 10
187.0382025983499
 20
216.9337479359374
 30
0.0
  0
SPLINE
  5
3D10
330
A
100
AcDbEntity
  8
MODEL
100
AcDbSpline
210
0.0
220
0.0
230
1.0
 70
     8
 71
     3
 72
    14
 73
    10
 74
     0
 42
0.000000001
 43
0.0000000001
 40
0.0
 40
0.0
 40
0.0
 40
0.0
 40
1.0
 40
1.0
 40
1.0
 40
2.0
 40
2.0
 40
2.0
 40
3.0
 40
3.0
 40
3.0
 40
3.0
 10
188.9594609512091
 20
215.5926058842241
 30
0.0
 10
188.9594609512091
 20
215.5926058842241
 30
0.0
 10
188.768902997818
 20
214.150958582832
 30
0.0
 10
187.0369965353538
 20
213.6717495523638
 30
0.0
 10
187.0369965353538
 20
213.6717495523638
 30
0.0
 10
231.8723884170486
 20
213.6717495523638
 30
0.0
 10
231.8723884170486
 20
213.6717495523638
 30
0.0
 10
231.8723884170486
 20
213.6717495523638
 30
0.0
 10
229.9499240011933
 20
214.2514638325107
 30
0.0
 10
229.9499240011933
 20
215.5926058842241
 30
0.0
  0
SPLINE
  5
3D11
330
A
100
AcDbEntity
  8
MODEL
100
AcDbSpline
210
0.0
220
0.0
230
1.0
 70
     8
 71
     3
 72
     8
 73
     4
 74
     0
 42
0.000000001
 43
0.0000000001
 40
0.0
 40
0.0
 40
0.0
 40
0.0
 40
1.0
 40
1.0
 40
1.0
 40
1.0
 10
195.0436467457623
 20
213.6717495523638
 30
0.0
 10
195.0436467457623
 20
213.6717495523638
 30
0.0
 10
196.6457004256418
 20
210.7168952118081
 30
0.0
 10
196.6457004256418
 20
209.591236415406
 30
0.0
  0
SPLINE
  5
3D12
330
A
100
AcDbEntity
  8
MODEL
100
AcDbSpline
210
0.0
220
0.0
230
1.0
 70
     8
 71
     3
 72
     8
 73
     4
 74
     0
 42
0.000000001
 43
0.0000000001
 40
0.0
 40
0.0
 40
0.0
 40
0.0
 40
1.0
 40
1.0
 40
1.0
 40
1.0
 10
223.8657382066398
 20
213.6717495523638
 30
0.0
 10
223.8657382066398
 20
213.6717495523638
 30
0.0
 10
222.2648905897562
 20
210.7168952118081
 30
0.0
 10
222.2648905897562
 20
209.591236415406
 30
0.0
  0
SPLINE
  5
3D13
330
A
100
AcDbEntity
  8
MODEL
100
AcDbSpline
210
0.0
220
0.0
230
1.0
 70
    11
 71
     3
 72
    32
 73
    28
 74
     0
 42
0.000000001
 43
0.0000000001
 40
0.0
 40
0.0
 40
0.0
 40
0.0
 40
1.0
 40
1.0
 40
1.0
 40
2.0
 40
2.0
 40
2.0
 40
3.0
 40
3.0
 40
3.0
 40
4.0
 40
4.0
 40
4.0
 40
5.0
 40
5.0
 40
5.0
 40
6.0
 40
6.0
 40
6.0
 40
7.0
 40
7.0
 40
7.0
 40
8.0
 40
8.0
 40
8.0
 40
9.0
 40
9.0
 40
9.0
 40
9.0
 10
213.8465708766636
 20
190.9109286891129
 30
0.0
 10
213.8465708766636
 20
190.9109286891129
 30
0.0
 10
213.8465708766636
 20
177.288045126655
 30
0.0
 10
213.8465708766636
 20
177.288045126655
 30
0.0
 10
213.8465708766636
 20
177.288045126655
 30
0.0
 10
236.4321105844746
 20
177.288045126655
 30
0.0
 10
236.4321105844746
 20
177.288045126655
 30
0.0
 10
236.4321105844746
 20
177.288045126655
 30
0.0
 10
236.4321105844746
 20
190.9109286891129
 30
0.0
 10
236.4321105844746
 20
190.9109286891129
 30
0.0
 10
236.4321105844746
 20
190.9109286891129
 30
0.0
 10
236.4956299022714
 20
193.1823473318529
 30
0.0
 10
232.4143127233161
 20
193.1823473318529
 30
0.0
 10
232.4143127233161
 20
193.1823473318529
 30
0.0
 10
232.4143127233161
 20
197.4887962700886
 30
0.0
 10
232.4143127233161
 20
197.4887962700886
 30
0.0
 10
232.4143127233161
 20
197.4887962700886
 30
0.0
 10
230.5609959192399
 20
202.8091421670831
 30
0.0
 10
225.2012519643712
 20
202.8091421670831
 30
0.0
 10
219.840703967505
 20
202.8091421670831
 30
0.0
 10
217.8603485278344
 20
197.7251846173329
 30
0.0
 10
217.8603485278344
 20
197.7251846173329
 30
0.0
 10
217.8603485278344
 20
197.7251846173329
 30
0.0
 10
217.8603485278344
 20
193.1823473318529
 30
0.0
 10
217.8603485278344
 20
193.1823473318529
 30
0.0
 10
217.8603485278344
 20
193.1823473318529
 30
0.0
 10
213.8465708766636
 20
193.0649572002283
 30
0.0
 10
213.8465708766636
 20
190.9109286891129
 30
0.0
  0
SPLINE
  5
3D14
330
A
100
AcDbEntity
  8
MODEL
100
AcDbSpline
210
0.0
220
0.0
230
1.0
 70
     8
 71
     3
 72
    14
 73
    10
 74
     0
 42
0.000000001
 43
0.0000000001
 40
0.0
 40
0.0
 40
0.0
 40
0.0
 40
1.0
 40
1.0
 40
1.0
 40
2.0
 40
2.0
 40
2.0
 40
3.0
 40
3.0
 40
3.0
 40
3.0
 10
204.9960785899522
 20
186.3126125058103
 30
0.0
 10
204.9960785899522
 20
186.3126125058103
 30
0.0
 10
193.6417995232429
 20
186.3126125058103
 30
0.0
 10
193.6417995232429
 20
186.3126125058103
 30
0.0
 10
193.6417995232429
 20
186.3126125058103
 30
0.0
 10
192.2459826157043
 20
184.3435136541042
 30
0.0
 10
193.5855165834229
 20
180.6634134318665
 30
0.0
 10
193.5855165834229
 20
180.6634134318665
 30
0.0
 10
204.9960785899522
 20
180.6634134318665
 30
0.0
 10
204.9960785899522
 20
180.6634134318665
 30
0.0
  0
SPLINE
  5
3D15
330
A
100
AcDbEntity
  8
MODEL
100
AcDbSpline
210
0.0
220
0.0
230
1.0
 70
     8
 71
     3
 72
    11
 73
     7
 74
     0
 42
0.000000001
 43
0.0000000001
 40
0.0
 40
0.0
 40
0.0
 40
0.0
 40
1.0
 40
1.0
 40
1.0
 40
2.0
 40
2.0
 40
2.0
 40
2.0
 10
197.4147665961838
 20
180.6827104398049
 30
0.0
 10
196.8668119749349
 20
180.149630595509
 30
0.0
 10
196.2356390069523
 20
179.6776579430172
 30
0.0
 10
195.5047648312888
 20
179.2901097002561
 30
0.0
 10
195.5047648312888
 20
179.2901097002561
 30
0.0
 10
181.3568418445091
 20
179.2901097002561
 30
0.0
 10
181.3568418445091
 20
179.2901097002561
 30
0.0
  0
SPLINE
  5
3D16
330
A
100
AcDbEntity
  8
MODEL
100
AcDbSpline
210
0.0
220
0.0
230
1.0
 70
     8
 71
     3
 72
    14
 73
    10
 74
     0
 42
0.000000001
 43
0.0000000001
 40
0.0
 40
0.0
 40
0.0
 40
0.0
 40
1.0
 40
1.0
 40
1.0
 40
2.0
 40
2.0
 40
2.0
 40
3.0
 40
3.0
 40
3.0
 40
3.0
 10
181.3536256765191
 20
202.8091421670831
 30
0.0
 10
181.3536256765191
 20
202.8091421670831
 30
0.0
 10
193.355962593157
 20
202.8091421670831
 30
0.0
 10
193.355962593157
 20
202.8091421670831
 30
0.0
 10
193.355962593157
 20
202.8091421670831
 30
0.0
 10
200.9605918048503
 20
197.9591608385849
 30
0.0
 10
200.9605918048503
 20
191.0516360386634
 30
0.0
 10
200.9605918048503
 20
191.0516360386634
 30
0.0
 10
201.0590869495358
 20
188.8831347715944
 30
0.0
 10
200.4238937715659
 20
186.3294973877564
 30
0.0
  0
SPLINE
  5
3D17
330
A
100
AcDbEntity
  8
MODEL
100
AcDbSpline
210
0.0
220
0.0
230
1.0
 70
     8
 71
     3
 72
    11
 73
     7
 74
     0
 42
0.000000001
 43
0.0000000001
 40
0.0
 40
0.0
 40
0.0
 40
0.0
 40
1.0
 40
1.0
 40
1.0
 40
2.0
 40
2.0
 40
2.0
 40
2.0
 10
143.5399325583816
 20
182.5818576377348
 30
0.0
 10
143.5399325583816
 20
182.5818576377348
 30
0.0
 10
168.3932727199439
 20
184.8388035245208
 30
0.0
 10
179.1252232806418
 20
184.8388035245208
 30
0.0
 10
179.1252232806418
 20
184.8388035245208
 30
0.0
 10
193.1075136159507
 20
184.8388035245208
 30
0.0
 10
193.1075136159507
 20
184.8388035245208
 30
0.0
  0
SPLINE
  5
3D18
330
A
100
AcDbEntity
  8
MODEL
100
AcDbSpline
210
0.0
220
0.0
230
1.0
 70
     8
 71
     3
 72
    11
 73
     7
 74
     0
 42
0.000000001
 43
0.0000000001
 40
0.0
 40
0.0
 40
0.0
 40
0.0
 40
1.0
 40
1.0
 40
1.0
 40
2.0
 40
2.0
 40
2.0
 40
2.0
 10
144.095927599604
 20
179.480667653647
 30
0.0
 10
144.095927599604
 20
179.480667653647
 30
0.0
 10
168.9520819081574
 20
181.7424377924177
 30
0.0
 10
179.6840324688557
 20
181.7424377924177
 30
0.0
 10
179.6840324688557
 20
181.7424377924177
 30
0.0
 10
193.2562613854752
 20
181.7424377924177
 30
0.0
 10
193.2562613854752
 20
181.7424377924177
 30
0.0
  0
SPLINE
  5
3D19
330
A
100
AcDbEntity
  8
MODEL
100
AcDbSpline
210
0.0
220
0.0
230
1.0
 70
     8
 71
     3
 72
    14
 73
    10
 74
     0
 42
0.000000001
 43
0.0000000001
 40
0.0
 40
0.0
 40
0.0
 40
0.0
 40
1.0
 40
1.0
 40
1.0
 40
2.0
 40
2.0
 40
2.0
 40
3.0
 40
3.0
 40
3.0
 40
3.0
 10
159.5134329003258
 20
183.8586763296537
 30
0.0
 10
159.5134329003258
 20
183.8586763296537
 30
0.0
 10
159.5134329003258
 20
204.8699018064965
 30
0.0
 10
159.5134329003258
 20
204.8699018064965
 30
0.0
 10
159.5134329003258
 20
205.6755518879217
 30
0.0
 10
160.9538741387221
 20
205.5002707324818
 30
0.0
 10
160.9538741387221
 20
205.5002707324818
 30
0.0
 10
160.9538741387221
 20
205.5002707324818
 30
0.0
 10
173.4852706896685
 20
205.5083111524562
 30
0.0
 10
173.4852706896685
 20
205.5083111524562
 30
0.0
  0
SPLINE
  5
3D1A
330
A
100
AcDbEntity
  8
MODEL
100
AcDbSpline
210
0.0
220
0.0
230
1.0
 70
     8
 71
     3
 72
    17
 73
    13
 74
     0
 42
0.000000001
 43
0.0000000001
 40
0.0
 40
0.0
 40
0.0
 40
0.0
 40
1.0
 40
1.0
 40
1.0
 40
2.0
 40
2.0
 40
2.0
 40
3.0
 40
3.0
 40
3.0
 40
4.0
 40
4.0
 40
4.0
 40
4.0
 10
173.4868787736631
 20
176.6134538908113
 30
0.0
 10
173.4868787736631
 20
176.6134538908113
 30
0.0
 10
160.9538741387221
 20
176.6094336808244
 30
0.0
 10
160.9538741387221
 20
176.6094336808244
 30
0.0
 10
160.9538741387221
 20
176.6094336808244
 30
0.0
 10
159.5134329003258
 20
176.4349565673818
 30
0.0
 10
159.5134329003258
 20
177.2373904808171
 30
0.0
 10
159.5134329003258
 20
177.2373904808171
 30
0.0
 10
159.5134329003258
 20
179.3005622462226
 30
0.0
 10
159.5134329003258
 20
179.3005622462226
 30
0.0
 10
159.5134329003258
 20
179.3005622462226
 30
0.0
 10
159.5134329003258
 20
180.7164802036972
 30
0.0
 10
159.5134329003258
 20
180.7164802036972
 30
0.0
  0
SPLINE
  5
3D1B
330
A
100
AcDbEntity
  8
MODEL
100
AcDbSpline
210
0.0
220
0.0
230
1.0
 70
     8
 71
     3
 72
    11
 73
     7
 74
     0
 42
0.000000001
 43
0.0000000001
 40
0.0
 40
0.0
 40
0.0
 40
0.0
 40
1.0
 40
1.0
 40
1.0
 40
2.0
 40
2.0
 40
2.0
 40
2.0
 10
194.7188137788007
 20
179.2901097002561
 30
0.0
 10
194.7188137788007
 20
179.2901097002561
 30
0.0
 10
193.3688272651156
 20
177.0516567794108
 30
0.0
 10
192.3054817235142
 20
177.0516567794108
 30
0.0
 10
192.3054817235142
 20
177.0516567794108
 30
0.0
 10
226.6026971658918
 20
177.0516567794108
 30
0.0
 10
226.6026971658918
 20
177.0516567794108
 30
0.0
  0
LINE
  5
3D1E
330
A
100
AcDbEntity
  8
MODEL
100
AcDbLine
 10
149.6371074135416
 20
308.4358247982714
 30
0.0
 11
275.0551963616739
 21
308.4358247982714
 31
0.0
  0
LINE
  5
3D1F
330
A
100
AcDbEntity
  8
MODEL
100
AcDbLine
 10
275.0551963616739
 20
308.4358247982714
 30
0.0
 11
275.0551963616739
 21
353.6426472813417
 31
0.0
  0
LINE
  5
3D22
330
A
100
AcDbEntity
  8
MODEL
100
AcDbLine
 10
275.0551963616739
 20
353.6426472813417
 30
0.0
 11
256.0042252745657
 21
353.6426472813417
 31
0.0
  0
LINE
  5
3D23
330
A
100
AcDbEntity
  8
MODEL
100
AcDbLine
 10
256.0042252745657
 20
353.6426472813417
 30
0.0
 11
255.5314485800766
 21
351.5947523138872
 31
0.0
  0
LINE
  5
3D24
330
A
100
AcDbEntity
  8
MODEL
100
AcDbLine
 10
255.5314485800766
 20
351.5947523138872
 30
0.0
 11
218.3217141626919
 21
335.9235069239954
 31
0.0
  0
LINE
  5
3D30
330
A
100
AcDbEntity
  8
MODEL
100
AcDbLine
 10
145.109546926013
 20
340.9235069239954
 30
0.0
 11
211.1808796085061
 21
340.9235069239954
 31
0.0
  0
LINE
  5
3D31
330
A
100
AcDbEntity
  8
MODEL
100
AcDbLine
 10
275.0551963616739
 20
351.6317382457689
 30
0.0
 11
258.0489040740303
 21
351.6317382457689
 31
0.0
  0
LINE
  5
3D32
330
A
100
AcDbEntity
  8
MODEL
100
AcDbLine
 10
258.0489040740303
 20
351.6317382457689
 30
0.0
 11
257.6589437052768
 21
349.9512904711402
 31
0.0
  0
LINE
  5
3D33
330
A
100
AcDbEntity
  8
MODEL
100
AcDbLine
 10
257.6589437052768
 20
349.9512904711402
 30
0.0
 11
211.7742770169354
 21
330.6510663648285
 31
0.0
  0
LINE
  5
3D34
330
A
100
AcDbEntity
  8
MODEL
100
AcDbLine
 10
275.0551963616739
 20
311.649945881561
 30
0.0
 11
257.9733241262717
 21
311.649945881561
 31
0.0
  0
LINE
  5
3D35
330
A
100
AcDbEntity
  8
MODEL
100
AcDbLine
 10
257.9733241262717
 20
311.649945881561
 30
0.0
 11
257.9733241262717
 21
313.6174366492723
 31
0.0
  0
LINE
  5
3D36
330
A
100
AcDbEntity
  8
MODEL
100
AcDbLine
 10
257.9733241262717
 20
313.6174366492723
 30
0.0
 11
205.2145003809022
 21
313.6174366492723
 31
0.0
  0
LINE
  5
3D37
330
A
100
AcDbEntity
  8
MODEL
100
AcDbLine
 10
205.2145003809022
 20
313.6174366492723
 30
0.0
 11
203.1658013714505
 21
311.649945881561
 31
0.0
  0
LINE
  5
3D38
330
A
100
AcDbEntity
  8
MODEL
100
AcDbLine
 10
203.1658013714505
 20
311.649945881561
 30
0.0
 11
156.4436992323082
 21
311.649945881561
 31
0.0
  0
LINE
  5
3D3C
330
A
100
AcDbEntity
  8
MODEL
100
AcDbLine
 10
201.157706482869
 20
330.6486542388362
 30
0.0
 11
211.7734729749384
 21
330.6486542388362
 31
0.0
  0
LINE
  5
3D4C
330
A
100
AcDbEntity
  8
MODEL
100
AcDbLine
 10
154.1244658011991
 20
328.0516182010729
 30
0.0
 11
154.1244658011991
 21
340.8728522781571
 31
0.0
  0
LINE
  5
3D4D
330
A
100
AcDbEntity
  8
MODEL
100
AcDbLine
 10
154.1244658011991
 20
340.8728522781571
 30
0.0
 11
155.4764624198775
 21
339.5140213025003
 31
0.0
  0
LINE
  5
3D4E
330
A
100
AcDbEntity
  8
MODEL
100
AcDbLine
 10
155.4764624198775
 20
339.5140213025003
 30
0.0
 11
155.4764624198775
 21
312.7372004548281
 31
0.0
  0
LINE
  5
3D4F
330
A
100
AcDbEntity
  8
MODEL
100
AcDbLine
 10
198.6792470257907
 20
335.9235069239954
 30
0.0
 11
198.6792470257907
 21
340.8833048241237
 31
0.0
  0
LINE
  5
3D50
330
A
100
AcDbEntity
  8
MODEL
100
AcDbLine
 10
198.6792470257907
 20
340.8833048241237
 30
0.0
 11
197.3260443441159
 21
339.5140213025003
 31
0.0
  0
LINE
  5
3D51
330
A
100
AcDbEntity
  8
MODEL
100
AcDbLine
 10
197.3260443441159
 20
339.5140213025003
 30
0.0
 11
197.3260443441159
 21
330.7274503545841
 31
0.0
  0
LINE
  5
3D52
330
A
100
AcDbEntity
  8
MODEL
100
AcDbLine
 10
155.4764624198775
 20
339.5140213025003
 30
0.0
 11
197.3264463651145
 21
339.5140213025003
 31
0.0
  0
LINE
  5
3D5A
330
A
100
AcDbEntity
  8
MODEL
100
AcDbLine
 10
197.3260443441159
 20
330.6486542388362
 30
0.0
 11
201.157706482869
 21
330.6486542388362
 31
0.0
  0
TEXT
  5
3D6F
330
A
100
AcDbEntity
  8
TEMPLATE
100
AcDbText
 10
100.6651316062397
 20
94.60330895640834
 30
0.0
 40
5.038834712854613
  1
・塩ビ管30に接続できます。
  7
ＭＳ ゴシック
100
AcDbText
  0
TEXT
  5
3D70
330
A
100
AcDbEntity
  8
TEMPLATE
100
AcDbText
 10
100.6651316062397
 20
85.71140850682926
 30
0.0
 40
5.038834712854613
  1
・塩ビパイプ用の接着材を使ってVP30と接着してください。
  7
ＭＳ ゴシック
100
AcDbText
  0
LINE
  5
3D84
330
A
100
AcDbEntity
  8
MODEL
100
AcDbLine
 10
196.6444943626457
 20
175.7153575725385
 30
0.0
 11
196.6444943626457
 21
176.9374828157757
 31
0.0
  0
LINE
  5
3D85
330
A
100
AcDbEntity
  8
MODEL
100
AcDbLine
 10
222.1382539751611
 20
175.7153575725385
 30
0.0
 11
222.1382539751611
 21
176.9374828157757
 31
0.0
  0
LINE
  5
3D89
330
A
100
AcDbEntity
  8
MODEL
100
AcDbLine
 10
145.0740446894779
 20
201.2790502459738
 30
0.0
 11
159.5134329003258
 21
201.2790502459738
 31
0.0
  0
LINE
  5
3D8A
330
A
100
AcDbEntity
  8
MODEL
100
AcDbLine
 10
174.0288030799313
 20
189.2570143003993
 30
0.0
 11
164.4213052526392
 21
189.2570143003993
 31
0.0
  0
LINE
  5
3D8B
330
A
100
AcDbEntity
  8
MODEL
100
AcDbLine
 10
164.4213052526392
 20
189.2570143003993
 30
0.0
 11
164.4213052526392
 21
192.4587095341658
 31
0.0
  0
LINE
  5
3D8C
330
A
100
AcDbEntity
  8
MODEL
100
AcDbLine
 10
164.4213052526392
 20
192.4587095341658
 30
0.0
 11
174.0288030799313
 21
192.4587095341658
 31
0.0
  0
LINE
  5
3D8D
330
A
100
AcDbEntity
  8
MODEL
100
AcDbLine
 10
174.0288030799313
 20
192.4587095341658
 30
0.0
 11
174.0288030799313
 21
189.2570143003993
 31
0.0
  0
LINE
  5
3D8E
330
A
100
AcDbEntity
  8
MODEL
100
AcDbLine
 10
174.0288030799313
 20
199.6066428913193
 30
0.0
 11
164.4213052526392
 21
199.6066428913193
 31
0.0
  0
LINE
  5
3D8F
330
A
100
AcDbEntity
  8
MODEL
100
AcDbLine
 10
164.4213052526392
 20
199.6066428913193
 30
0.0
 11
164.4213052526392
 21
202.8091421670831
 31
0.0
  0
LINE
  5
3D90
330
A
100
AcDbEntity
  8
MODEL
100
AcDbLine
 10
164.4213052526392
 20
202.8091421670831
 30
0.0
 11
174.0288030799313
 21
202.8091421670831
 31
0.0
  0
LINE
  5
3D91
330
A
100
AcDbEntity
  8
MODEL
100
AcDbLine
 10
174.0288030799313
 20
202.8091421670831
 30
0.0
 11
174.0288030799313
 21
199.6066428913193
 31
0.0
  0
LINE
  5
3D92
330
A
100
AcDbEntity
  8
MODEL
100
AcDbLine
 10
164.4213052526392
 20
205.5034869004715
 30
0.0
 11
164.4213052526392
 21
206.1451124144208
 31
0.0
  0
LINE
  5
3D93
330
A
100
AcDbEntity
  8
MODEL
100
AcDbLine
 10
164.4213052526392
 20
206.1451124144208
 30
0.0
 11
173.4868787736631
 21
206.1451124144208
 31
0.0
  0
LINE
  5
3D94
330
A
100
AcDbEntity
  8
MODEL
100
AcDbLine
 10
164.4213052526392
 20
176.6110417648191
 30
0.0
 11
164.4213052526392
 21
175.9694162508698
 31
0.0
  0
LINE
  5
3D95
330
A
100
AcDbEntity
  8
MODEL
100
AcDbLine
 10
164.4213052526392
 20
175.9694162508698
 30
0.0
 11
173.4868787736631
 21
175.9694162508698
 31
0.0
  0
LINE
  5
3D96
330
A
100
AcDbEntity
  8
MODEL
100
AcDbLine
 10
173.4868787736631
 20
199.6066428913193
 30
0.0
 11
173.4868787736631
 21
192.4562974081736
 31
0.0
  0
LINE
  5
3D97
330
A
100
AcDbEntity
  8
MODEL
100
AcDbLine
 10
188.6386481942342
 20
207.0472475355372
 30
0.0
 11
187.0369965353538
 21
207.0472475355372
 31
0.0
  0
LINE
  5
3D98
330
A
100
AcDbEntity
  8
MODEL
100
AcDbLine
 10
187.0369965353538
 20
207.0472475355372
 30
0.0
 11
187.0369965353538
 21
209.591236415406
 31
0.0
  0
LINE
  5
3D99
330
A
100
AcDbEntity
  8
MODEL
100
AcDbLine
 10
187.0369965353538
 20
209.591236415406
 30
0.0
 11
231.8723884170486
 21
209.591236415406
 31
0.0
  0
LINE
  5
3D9A
330
A
100
AcDbEntity
  8
MODEL
100
AcDbLine
 10
231.8723884170486
 20
209.591236415406
 30
0.0
 11
231.8723884170486
 21
207.0472475355372
 31
0.0
  0
LINE
  5
3D9B
330
A
100
AcDbEntity
  8
MODEL
100
AcDbLine
 10
231.8723884170486
 20
207.0472475355372
 30
0.0
 11
230.2707367581676
 21
207.0472475355372
 31
0.0
  0
LINE
  5
3D9C
330
A
100
AcDbEntity
  8
MODEL
100
AcDbLine
 10
199.5253768394379
 20
224.6983815051197
 30
0.0
 11
199.5253768394379
 21
223.0299943604523
 31
0.0
  0
LINE
  5
3D9D
330
A
100
AcDbEntity
  8
MODEL
100
AcDbLine
 10
199.5253768394379
 20
223.0299943604523
 30
0.0
 11
219.3811939659735
 21
223.0299943604523
 31
0.0
  0
LINE
  5
3D9E
330
A
100
AcDbEntity
  8
MODEL
100
AcDbLine
 10
219.3811939659735
 20
223.0299943604523
 30
0.0
 11
219.3811939659735
 21
224.6983815051197
 31
0.0
  0
LINE
  5
3D9F
330
A
100
AcDbEntity
  8
MODEL
100
AcDbLine
 10
199.5253768394379
 20
223.0299943604523
 30
0.0
 11
198.5649486735073
 21
223.0299943604523
 31
0.0
  0
LINE
  5
3DA0
330
A
100
AcDbEntity
  8
MODEL
100
AcDbLine
 10
198.5649486735073
 20
223.0299943604523
 30
0.0
 11
198.5649486735073
 21
221.4765852214174
 31
0.0
  0
LINE
  5
3DA1
330
A
100
AcDbEntity
  8
MODEL
100
AcDbLine
 10
198.5649486735073
 20
221.4765852214174
 30
0.0
 11
220.3400140479088
 21
221.4765852214174
 31
0.0
  0
LINE
  5
3DA2
330
A
100
AcDbEntity
  8
MODEL
100
AcDbLine
 10
220.3400140479088
 20
221.4765852214174
 30
0.0
 11
220.3400140479088
 21
223.0299943604523
 31
0.0
  0
LINE
  5
3DA3
330
A
100
AcDbEntity
  8
MODEL
100
AcDbLine
 10
220.3400140479088
 20
223.0299943604523
 30
0.0
 11
219.3811939659735
 21
223.0299943604523
 31
0.0
  0
SPLINE
  5
3DA4
330
A
100
AcDbEntity
  8
MODEL
100
AcDbSpline
210
0.0
220
0.0
230
1.0
 70
     8
 71
     3
 72
    14
 73
    10
 74
     0
 42
0.000000001
 43
0.0000000001
 40
0.0
 40
0.0
 40
0.0
 40
0.0
 40
1.0
 40
1.0
 40
1.0
 40
2.0
 40
2.0
 40
2.0
 40
3.0
 40
3.0
 40
3.0
 40
3.0
 10
220.3436322368972
 20
221.4765852214174
 30
0.0
 10
220.3436322368972
 20
221.4765852214174
 30
0.0
 10
222.2648905897562
 20
221.4765852214174
 30
0.0
 10
222.2648905897562
 20
221.4765852214174
 30
0.0
 10
222.2648905897562
 20
221.4765852214174
 30
0.0
 10
220.3436322368972
 20
220.3975608608663
 30
0.0
 10
220.3436322368972
 20
219.781664690835
 30
0.0
 10
220.3436322368972
 20
219.781664690835
 30
0.0
 10
198.5637426105113
 20
219.781664690835
 30
0.0
 10
198.5637426105113
 20
219.781664690835
 30
0.0
  0
SPLINE
  5
3DA5
330
A
100
AcDbEntity
  8
MODEL
100
AcDbSpline
210
0.0
220
0.0
230
1.0
 70
     8
 71
     3
 72
    11
 73
     7
 74
     0
 42
0.000000001
 43
0.0000000001
 40
3.0
 40
3.0
 40
3.0
 40
3.0
 40
4.0
 40
4.0
 40
4.0
 40
5.0
 40
5.0
 40
5.0
 40
5.0
 10
198.5637426105113
 20
219.781664690835
 30
0.0
 10
198.5637426105113
 20
220.4425872127224
 30
0.0
 10
196.6444943626457
 20
221.4765852214174
 30
0.0
 10
196.6444943626457
 20
221.4765852214174
 30
0.0
 10
196.6444943626457
 20
221.4765852214174
 30
0.0
 10
198.5637426105113
 20
221.4765852214174
 30
0.0
 10
198.5637426105113
 20
221.4765852214174
 30
0.0
  0
LINE
  5
3DA6
330
A
100
AcDbEntity
  8
MODEL
100
AcDbLine
 10
199.8445815124174
 20
219.7824687328324
 30
0.0
 11
199.8445815124174
 21
218.6535937684403
 31
0.0
  0
LINE
  5
3DA7
330
A
100
AcDbEntity
  8
MODEL
100
AcDbLine
 10
199.8445815124174
 20
218.6535937684403
 30
0.0
 11
219.0635973769885
 21
218.6535937684403
 31
0.0
  0
LINE
  5
3DA8
330
A
100
AcDbEntity
  8
MODEL
100
AcDbLine
 10
219.0635973769885
 20
218.6535937684403
 30
0.0
 11
219.0635973769885
 21
219.7824687328324
 31
0.0
  0
LINE
  5
3DA9
330
A
100
AcDbEntity
  8
MODEL
100
AcDbLine
 10
187.0382025983499
 20
224.6983815051197
 30
0.0
 11
187.0382025983499
 21
225.684136993969
 31
0.0
  0
LINE
  5
3DAA
330
A
100
AcDbEntity
  8
MODEL
100
AcDbLine
 10
187.0382025983499
 20
225.684136993969
 30
0.0
 11
187.3071546464901
 21
225.7540886477454
 31
0.0
  0
LINE
  5
3DAB
330
A
100
AcDbEntity
  8
MODEL
100
AcDbLine
 10
211.0569471665798
 20
218.6535937684403
 30
0.0
 11
211.0569471665798
 21
216.9337479359374
 31
0.0
  0
LINE
  5
3DAC
330
A
100
AcDbEntity
  8
MODEL
100
AcDbLine
 10
207.8548499118144
 20
218.6535937684403
 30
0.0
 11
207.8548499118144
 21
216.9337479359374
 31
0.0
  0
LINE
  5
3DAD
330
A
100
AcDbEntity
  8
MODEL
100
AcDbLine
 10
213.8465708766636
 20
188.7560961360004
 30
0.0
 11
204.9960785899522
 21
188.7560961360004
 31
0.0
  0
LINE
  5
3DAE
330
A
100
AcDbEntity
  8
MODEL
100
AcDbLine
 10
204.9960785899522
 20
188.7560961360004
 30
0.0
 11
204.9960785899522
 21
178.2175176756843
 31
0.0
  0
LINE
  5
3DAF
330
A
100
AcDbEntity
  8
MODEL
100
AcDbLine
 10
204.9960785899522
 20
178.2175176756843
 30
0.0
 11
213.8465708766636
 21
178.2175176756843
 31
0.0
  0
LINE
  5
3DB0
330
A
100
AcDbEntity
  8
MODEL
100
AcDbLine
 10
174.0288030799313
 20
181.6049466108575
 30
0.0
 11
174.0288030799313
 21
179.2901097002561
 31
0.0
  0
LINE
  5
3DB1
330
A
100
AcDbEntity
  8
MODEL
100
AcDbLine
 10
174.0288030799313
 20
179.2901097002561
 30
0.0
 11
164.4213052526392
 21
179.2901097002561
 31
0.0
  0
LINE
  5
3DB2
330
A
100
AcDbEntity
  8
MODEL
100
AcDbLine
 10
164.4213052526392
 20
179.2901097002561
 30
0.0
 11
164.4213052526392
 21
181.0742788925534
 31
0.0
  0
LINE
  5
3DB3
330
A
100
AcDbEntity
  8
MODEL
100
AcDbLine
 10
173.4868787736631
 20
189.2570143003993
 30
0.0
 11
173.4868787736631
 21
184.7013123429606
 31
0.0
  0
LINE
  5
3DB4
330
A
100
AcDbEntity
  8
MODEL
100
AcDbLine
 10
177.2300962926992
 20
181.7102761125206
 30
0.0
 11
177.2300962926992
 21
174.3709807599787
 31
0.0
  0
LINE
  5
3DB5
330
A
100
AcDbEntity
  8
MODEL
100
AcDbLine
 10
177.2300962926992
 20
174.3709807599787
 30
0.0
 11
173.4852706896685
 21
174.3709807599787
 31
0.0
  0
LINE
  5
3DB6
330
A
100
AcDbEntity
  8
MODEL
100
AcDbLine
 10
173.4852706896685
 20
174.3709807599787
 30
0.0
 11
173.4852706896685
 21
179.2901097002561
 31
0.0
  0
LINE
  5
3DB7
330
A
100
AcDbEntity
  8
MODEL
100
AcDbLine
 10
173.4868787736631
 20
202.8091421670831
 30
0.0
 11
173.4868787736631
 21
207.7459600313039
 31
0.0
  0
LINE
  5
3DB8
330
A
100
AcDbEntity
  8
MODEL
100
AcDbLine
 10
173.4868787736631
 20
207.7459600313039
 30
0.0
 11
177.2300962926992
 21
207.7459600313039
 31
0.0
  0
LINE
  5
3DB9
330
A
100
AcDbEntity
  8
MODEL
100
AcDbLine
 10
177.2300962926992
 20
207.7459600313039
 30
0.0
 11
177.2300962926992
 21
184.821918642575
 31
0.0
  0
LINE
  5
3DBA
330
A
100
AcDbEntity
  8
MODEL
100
AcDbLine
 10
179.9553966429883
 20
181.7424377924177
 30
0.0
 11
179.9553966429883
 21
178.2134974656973
 31
0.0
  0
LINE
  5
3DBB
330
A
100
AcDbEntity
  8
MODEL
100
AcDbLine
 10
179.9553966429883
 20
178.2134974656973
 30
0.0
 11
177.2300962926992
 21
178.2134974656973
 31
0.0
  0
LINE
  5
3DBC
330
A
100
AcDbEntity
  8
MODEL
100
AcDbLine
 10
177.2300962926992
 20
203.9050514095805
 30
0.0
 11
179.9553966429883
 21
203.9050514095805
 31
0.0
  0
LINE
  5
3DBD
330
A
100
AcDbEntity
  8
MODEL
100
AcDbLine
 10
179.9553966429883
 20
203.9050514095805
 30
0.0
 11
179.9553966429883
 21
184.8388035245208
 31
0.0
  0
LINE
  5
3DBE
330
A
100
AcDbEntity
  8
MODEL
100
AcDbLine
 10
181.3536256765191
 20
181.7424377924177
 30
0.0
 11
181.3536256765191
 21
179.2901097002561
 31
0.0
  0
LINE
  5
3DBF
330
A
100
AcDbEntity
  8
MODEL
100
AcDbLine
 10
181.3536256765191
 20
179.2901097002561
 30
0.0
 11
179.9578087689806
 21
179.2901097002561
 31
0.0
  0
LINE
  5
3DC0
330
A
100
AcDbEntity
  8
MODEL
100
AcDbLine
 10
179.9553966429883
 20
202.8091421670831
 30
0.0
 11
181.3524196135228
 21
202.8091421670831
 31
0.0
  0
LINE
  5
3DC1
330
A
100
AcDbEntity
  8
MODEL
100
AcDbLine
 10
181.3524196135228
 20
202.8091421670831
 30
0.0
 11
181.3524196135228
 21
184.8379994825238
 31
0.0
  0
TEXT
  5
3DC2
330
A
100
AcDbEntity
  8
TEMPLATE
100
AcDbText
 10
280.174741751387
 20
148.8753109274559
 30
0.0
 40
5.038834712854613
  1
VP30に接続
  7
ＭＳ ゴシック
100
AcDbText
  0
LINE
  5
3DCD
330
A
100
AcDbEntity
  8
MODEL
100
AcDbLine
 10
269.399298322709
 20
181.3008105198907
 30
0.0
 11
325.010059032963
 21
181.3008105198907
 31
0.0
  0
LINE
  5
3DCE
330
A
100
AcDbEntity
  8
MODEL
100
AcDbLine
 10
325.010059032963
 20
181.3008105198907
 30
0.0
 11
325.010059032963
 21
158.1106312300126
 31
0.0
  0
SOLID
  5
3DCF
330
A
100
AcDbEntity
  8
MODEL
 62
   254
100
AcDbTrace
 10
269.399298322709
 20
158.1106312300126
 30
0.0
 11
269.399298322709
 21
181.3008105198907
 31
0.0
 12
325.010059032963
 22
158.1106312300126
 32
0.0
 13
325.010059032963
 23
158.1106312300126
 33
0.0
  0
SOLID
  5
3DD0
330
A
100
AcDbEntity
  8
MODEL
 62
   254
100
AcDbTrace
 10
325.010059032963
 20
158.1106312300126
 30
0.0
 11
269.399298322709
 21
181.3008105198907
 31
0.0
 12
325.010059032963
 22
181.3008105198907
 32
0.0
 13
325.010059032963
 23
181.3008105198907
 33
0.0
  0
SPLINE
  5
3DD1
330
A
100
AcDbEntity
  8
MODEL
100
AcDbSpline
210
0.0
220
0.0
230
1.0
 70
     8
 71
     3
 72
     8
 73
     4
 74
     0
 42
0.000000001
 43
0.0000000001
 40
0.0
 40
0.0
 40
0.0
 40
0.0
 40
1.0
 40
1.0
 40
1.0
 40
1.0
 10
185.4992662152687
 20
212.9778613085815
 30
0.0
 10
186.6892483714652
 20
211.0690656066825
 30
0.0
 10
187.8872709476358
 20
211.3713853977161
 30
0.0
 10
189.9170749701481
 20
211.3713853977161
 30
0.0
  0
SPLINE
  5
3DD2
330
A
100
AcDbEntity
  8
MODEL
100
AcDbSpline
210
0.0
220
0.0
230
1.0
 70
     8
 71
     3
 72
     8
 73
     4
 74
     0
 42
0.000000001
 43
0.0000000001
 40
0.0
 40
0.0
 40
0.0
 40
0.0
 40
1.0
 40
1.0
 40
1.0
 40
1.0
 10
185.4992662152687
 20
212.9778613085815
 30
0.0
 10
184.8632689953014
 20
213.9451238314899
 30
0.0
 10
184.5195410414
 20
215.086059425843
 30
0.0
 10
182.7623072560165
 20
215.086059425843
 30
0.0
  0
SPLINE
  5
3DD3
330
A
100
AcDbEntity
  8
MODEL
100
AcDbSpline
210
0.0
220
0.0
230
1.0
 70
     8
 71
     3
 72
     8
 73
     4
 74
     0
 42
0.000000001
 43
0.0000000001
 40
0.0
 40
0.0
 40
0.0
 40
0.0
 40
1.0
 40
1.0
 40
1.0
 40
1.0
 10
145.0740446894779
 20
215.9881945469595
 30
0.0
 10
147.4053644610266
 20
215.1954091374937
 30
0.0
 10
177.3100984714433
 20
215.086059425843
 30
0.0
 10
182.7623072560165
 20
215.086059425843
 30
0.0
  0
SPLINE
  5
3DD4
330
A
100
AcDbEntity
  8
MODEL
100
AcDbSpline
210
0.0
220
0.0
230
1.0
 70
     8
 71
     3
 72
     8
 73
     4
 74
     0
 42
0.000000001
 43
0.0000000001
 40
0.0
 40
0.0
 40
0.0
 40
0.0
 40
1.0
 40
1.0
 40
1.0
 40
1.0
 10
234.1928536216319
 20
212.9778613085815
 30
0.0
 10
233.0012633814404
 20
211.0690656066825
 30
0.0
 10
231.8032408052695
 20
211.3713853977161
 30
0.0
 10
229.7742408247548
 20
211.3713853977161
 30
0.0
  0
SPLINE
  5
3DD5
330
A
100
AcDbEntity
  8
MODEL
100
AcDbSpline
210
0.0
220
0.0
230
1.0
 70
     8
 71
     3
 72
     8
 73
     4
 74
     0
 42
0.000000001
 43
0.0000000001
 40
0.0
 40
0.0
 40
0.0
 40
0.0
 40
1.0
 40
1.0
 40
1.0
 40
1.0
 10
234.1928536216319
 20
212.9778613085815
 30
0.0
 10
234.8272427576043
 20
213.9451238314899
 30
0.0
 10
235.1705686905066
 20
215.086059425843
 30
0.0
 10
236.927400454891
 20
215.086059425843
 30
0.0
  0
SPLINE
  5
3DD6
330
A
100
AcDbEntity
  8
MODEL
100
AcDbSpline
210
0.0
220
0.0
230
1.0
 70
     8
 71
     3
 72
     8
 73
     4
 74
     0
 42
0.000000001
 43
0.0000000001
 40
0.0
 40
0.0
 40
0.0
 40
0.0
 40
1.0
 40
1.0
 40
1.0
 40
1.0
 10
274.6152610004317
 20
215.9881945469595
 30
0.0
 10
272.2843432498819
 20
215.1954091374937
 30
0.0
 10
242.3812173234596
 20
215.086059425843
 30
0.0
 10
236.927400454891
 20
215.086059425843
 30
0.0
  0
TEXT
  5
3DD7
330
A
100
AcDbEntity
  8
TEMPLATE
100
AcDbText
 10
112.0618665316982
 20
249.772341398164
 30
0.0
 40
5.038834712854613
  1
接続方法
  7
ＭＳ ゴシック
100
AcDbText
  0
TEXT
  5
3DD8
330
A
100
AcDbEntity
  8
TEMPLATE
100
AcDbText
 10
103.3760246817554
 20
249.772341398164
 30
0.0
 40
5.038834712854613
  1
■
  7
ＭＳ ゴシック
100
AcDbText
  0
TEXT
  5
3DD9
330
A
100
AcDbEntity
  8
TEMPLATE
100
AcDbText
 10
110.0106817274911
 20
127.1726432921776
 30
0.0
 40
5.038834712854613
  1
トラップ機能はありません。ご注意ください。
  7
ＭＳ ゴシック
100
AcDbText
  0
LINE
  5
3DDA
330
A
100
AcDbEntity
  8
MODEL
100
AcDbLine
 10
251.8878995144264
 20
123.0635337905092
 30
0.0
 11
103.3760246817554
 21
123.0635337905092
 31
0.0
  0
LINE
  5
3DDB
330
A
100
AcDbEntity
  8
MODEL
100
AcDbLine
 10
103.3760246817554
 20
123.0635337905092
 30
0.0
 11
103.3760246817554
 21
135.5470898426086
 31
0.0
  0
LINE
  5
3DDC
330
A
100
AcDbEntity
  8
MODEL
100
AcDbLine
 10
103.3760246817554
 20
135.5470898426086
 30
0.0
 11
251.8878995144264
 21
135.5470898426086
 31
0.0
  0
LINE
  5
3DDD
330
A
100
AcDbEntity
  8
MODEL
100
AcDbLine
 10
251.8878995144264
 20
135.5470898426086
 30
0.0
 11
251.8878995144264
 21
123.0635337905092
 31
0.0
  0
TEXT
  5
3DDE
330
A
100
AcDbEntity
  8
TEMPLATE
100
AcDbText
 10
100.6651316062397
 20
103.2341672014012
 30
0.0
 40
5.038834712854613
  1
・排水部品の端部ネジ(G 1.1/2”)にシール材を巻きつけエルボを接続してください。
  7
ＭＳ ゴシック
100
AcDbText
  0
LINE
  5
3DDF
330
A
100
AcDbEntity
  8
MODEL
100
AcDbLine
 10
195.4356172195095
 20
211.3713853977161
 30
0.0
 11
189.8302384344256
 21
211.3713853977161
 31
0.0
  0
LINE
  5
3DE0
330
A
100
AcDbEntity
  8
MODEL
100
AcDbLine
 10
224.2556985753935
 20
211.3713853977161
 30
0.0
 11
229.8618814024744
 21
211.3713853977161
 31
0.0
  0
DIMENSION
  5
5726
330
A
100
AcDbEntity
  8
DIM
 48
0.05
100
AcDbDimension
  2
*D6
 10
121.0988930903077
 20
209.591236415406
 30
0.0
 11
115.5979552386133
 21
182.7770416277522
 31
0.0
 70
    32
  1
95
 71
     5
 42
53.62838957530761
 73
     0
 74
     0
 75
     0
  3
tfrom線あり
100
AcDbAlignedDimension
 13
182.4613188996505
 23
155.9628468400984
 33
0.0
 14
179.9170244809781
 24
209.591236415406
 34
0.0
 50
90.0
100
AcDbRotatedDimension
1001
ACAD
1000
DSTYLE
1002
{
1070
   144
1040
1.0
1002
}
  0
MTEXT
  5
5735
330
A
100
AcDbEntity
  8
TEMPLATE
390
1D
100
AcDbMText
 10
26.44042890954615
 20
45.72434321890432
 30
0.0
 40
4.8865234375
 41
0.0
 46
4.935388671875
 71
     1
 72
     1
  1
{・本体/塩ビ}
  7
ＭＳ ゴシック
 73
     1
 44
0.7828267384257843
1001
ACAD
1000
ACAD_MTEXT_DEFINED_HEIGHT_BEGIN
1070
    46
1040
4.935388671875
1000
ACAD_MTEXT_DEFINED_HEIGHT_END
  0
DIMENSION
  5
5736
330
A
100
AcDbEntity
  8
DIM
 48
0.05
100
AcDbDimension
  2
*D7
 10
197.3260443441159
 20
361.5857970508309
 30
0.0
 11
176.4012533819967
 21
361.5857970508309
 31
0.0
 70
   160
  1
G1.1/2"
 71
     5
 42
41.84958192423841
 73
     0
 74
     0
 75
     0
  3
tfrom線あり
100
AcDbAlignedDimension
 13
155.4764624198775
 23
343.9705207779327
 33
0.0
 14
197.3260443441159
 24
343.2077902386941
 34
0.0
100
AcDbRotatedDimension
1001
ACAD
1000
DSTYLE
1002
{
1070
   144
1040
1.0
1002
}
  0
DIMENSION
  5
5754
330
A
100
AcDbEntity
  8
DIM
 48
0.05
100
AcDbDimension
  2
*D9
 10
275.0551963616739
 20
279.7531865570414
 30
0.0
 11
225.728325377085
 21
285.2541244087358
 31
0.0
 70
    32
  1
100
 71
     5
 42
98.65374196917787
 73
     0
 74
     0
 75
     0
  3
tfrom線あり
100
AcDbAlignedDimension
 13
176.401454392496
 23
309.3560140628929
 33
0.0
 14
275.0551963616739
 24
308.4469479353327
 34
0.0
100
AcDbRotatedDimension
1001
ACAD
1000
DSTYLE
1002
{
1070
   144
1040
1.0
1002
}
  0
DIMENSION
  5
5763
330
A
100
AcDbEntity
  8
DIM
 48
0.05
100
AcDbDimension
  2
*D10
 10
292.4094867619136
 20
311.649945881561
 30
0.0
 11
286.9085489102192
 21
331.6408420636649
 31
0.0
 70
    32
  1
%%c38.3
 71
     5
 42
39.98179236420788
 73
     0
 74
     0
 75
     0
  3
tfrom線あり
100
AcDbAlignedDimension
 13
276.7469007242667
 23
351.6317382457689
 33
0.0
 14
276.7469007242667
 24
311.649945881561
 34
0.0
 50
90.0
100
AcDbRotatedDimension
1001
ACAD
1000
DSTYLE
1002
{
1070
   144
1040
1.0
1002
}
  0
DIMENSION
  5
5772
330
A
100
AcDbEntity
  8
DIM
 48
0.05
100
AcDbDimension
  2
*D11
 10
304.2334393286534
 20
353.994817676216
 30
0.0
 11
298.7334393286534
 21
331.6754158695544
 31
0.0
 70
    32
  1
%%c44
 71
     5
 42
44.63880361332309
 73
     0
 74
     0
 75
     0
  3
tfrom線あり
100
AcDbAlignedDimension
 13
276.8843919058273
 23
309.3560140628929
 33
0.0
 14
276.8843919058273
 24
353.994817676216
 34
0.0
 50
90.0
100
AcDbRotatedDimension
1001
ACAD
1000
DSTYLE
1002
{
1070
   144
1040
1.0
1002
}
  0
LINE
  5
57BB
330
A
100
AcDbEntity
  8
DIM
 48
0.05
100
AcDbLine
 10
204.0097018335217
 20
337.9235069239953
 30
0.0
 11
211.0918923457136
 21
337.9235069239953
 31
0.0
  0
LINE
  5
57BC
330
A
100
AcDbEntity
  8
DIM
 48
0.05
100
AcDbLine
 10
211.0918923457136
 20
337.9235069239953
 30
0.0
 11
203.1953667787859
 21
337.9235069239953
 31
0.0
  0
LINE
  5
57BF
330
A
100
AcDbEntity
  8
DIM
 48
0.05
100
AcDbLine
 10
218.3217141626919
 20
335.9235069239954
 30
0.0
 11
198.6792470257907
 21
335.9235069239954
 31
0.0
  0
LINE
  5
57C8
330
A
100
AcDbEntity
  8
DIM
 48
0.05
100
AcDbLine
 10
203.1953667787859
 20
336.9046828154829
 30
0.0
 11
203.1953667787859
 21
337.9235069239953
 31
0.0
  0
LINE
  5
57C9
330
A
100
AcDbEntity
  8
DIM
 48
0.05
100
AcDbLine
 10
203.1953667787859
 20
337.9235069239953
 30
0.0
 11
203.1953667787859
 21
335.9235069239954
 31
0.0
  0
LINE
  5
57CD
330
A
100
AcDbEntity
  8
DIM
 48
0.05
100
AcDbLine
 10
148.7932069514703
 20
337.9235069239953
 30
0.0
 11
141.7110164392784
 21
337.9235069239953
 31
0.0
  0
LINE
  5
57CE
330
A
100
AcDbEntity
  8
DIM
 48
0.05
100
AcDbLine
 10
141.7110164392784
 20
337.9235069239953
 30
0.0
 11
149.6075420062062
 21
337.9235069239953
 31
0.0
  0
LINE
  5
57CF
330
A
100
AcDbEntity
  8
DIM
 48
0.05
100
AcDbLine
 10
149.6075420062062
 20
336.9046828154829
 30
0.0
 11
149.6075420062062
 21
337.9235069239953
 31
0.0
  0
LINE
  5
57D0
330
A
100
AcDbEntity
  8
DIM
 48
0.05
100
AcDbLine
 10
149.6075420062062
 20
337.9235069239953
 30
0.0
 11
149.6371074135416
 21
308.4358247982714
 31
0.0
  0
LINE
  5
57D3
330
A
100
AcDbEntity
  8
DIM
 48
0.05
100
AcDbLine
 10
211.1808796085061
 20
340.9235069239954
 30
0.0
 11
211.0918923457136
 21
337.9235069239953
 31
0.0
  0
LINE
  5
57D4
330
A
100
AcDbEntity
  8
DIM
 48
0.05
100
AcDbLine
 10
145.109546926013
 20
340.9235069239954
 30
0.0
 11
141.586458995107
 21
340.9235069239954
 31
0.0
  0
LINE
  5
57D5
330
A
100
AcDbEntity
  8
DIM
 48
0.05
100
AcDbLine
 10
141.586458995107
 20
340.9235069239954
 30
0.0
 11
141.7110164392784
 21
337.9235069239953
 31
0.0
  0
ARC
  5
57D6
330
A
100
AcDbEntity
  8
DIM
 48
0.05
100
AcDbCircle
 10
156.4726117612574
 20
312.649527827011
 30
0.0
 40
1.0
100
AcDbArc
 50
174.9702708651515
 51
271.6567967674202
  0
LINE
  5
57E1
330
A
100
AcDbEntity
  8
DIM
 48
0.05
100
AcDbLine
 10
149.6146356536349
 20
333.794193807996
 30
0.0
 11
128.3662958410943
 21
333.794193807996
 31
0.0
  0
LINE
  5
57E3
330
A
100
AcDbEntity
  8
DIM
 48
0.05
100
AcDbLine
 10
126.6146356536349
 20
332.0425336205367
 30
0.0
 11
126.6146399977945
 21
310.1874849857309
 31
0.0
  0
LINE
  5
57E5
330
A
100
AcDbEntity
  8
DIM
 48
0.05
100
AcDbLine
 10
155.4764624198775
 20
328.0535510000091
 30
0.0
 11
154.1244658011991
 21
328.0516182010729
 31
0.0
  0
ARC
  5
57E6
330
A
100
AcDbEntity
  8
DIM
 48
0.05
100
AcDbCircle
 10
128.3662958410943
 20
332.0425336205367
 30
0.0
 40
1.75166018745939
100
AcDbArc
 50
90.0
 51
180.0
  0
ARC
  5
57EA
330
A
100
AcDbEntity
  8
DIM
 48
0.05
100
AcDbCircle
 10
128.3663001852539
 20
310.1874849857309
 30
0.0
 40
1.75166018745939
100
AcDbArc
 50
180.0
 51
270.0
  0
LINE
  5
57EC
330
A
100
AcDbEntity
  8
DIM
 48
0.05
100
AcDbLine
 10
128.3662958410943
 20
333.794193807996
 30
0.0
 11
128.3663001852539
 21
308.4358247982715
 31
0.0
  0
LINE
  5
57F1
330
A
100
AcDbEntity
  8
DIM
 48
0.05
100
AcDbLine
 10
149.6371074135416
 20
308.4358247982714
 30
0.0
 11
128.3663001852539
 21
308.4358247982715
 31
0.0
  0
LINE
  5
586B
330
A
100
AcDbEntity
  8
MODEL
100
AcDbLine
 10
193.1451002422446
 20
155.9628468400984
 30
0.0
 11
269.399298322709
 21
155.9628468400984
 31
0.0
  0
LINE
  5
586C
330
A
100
AcDbEntity
  8
MODEL
100
AcDbLine
 10
269.399298322709
 20
155.9628468400984
 30
0.0
 11
269.399298322709
 21
183.448594909805
 31
0.0
  0
LINE
  5
586D
330
A
100
AcDbEntity
  8
MODEL
100
AcDbLine
 10
269.399298322709
 20
183.448594909805
 30
0.0
 11
257.8163079017472
 21
183.448594909805
 31
0.0
  0
LINE
  5
586E
330
A
100
AcDbEntity
  8
MODEL
100
AcDbLine
 10
257.8163079017472
 20
183.448594909805
 30
0.0
 11
257.5288596714978
 21
182.2034747695928
 31
0.0
  0
LINE
  5
586F
330
A
100
AcDbEntity
  8
MODEL
100
AcDbLine
 10
257.5288596714978
 20
182.2034747695928
 30
0.0
 11
234.9053411457278
 21
172.6753575725385
 31
0.0
  0
LINE
  5
5870
330
A
100
AcDbEntity
  8
MODEL
100
AcDbLine
 10
190.3923434658271
 20
175.7153575725385
 30
0.0
 11
230.563713736783
 21
175.7153575725385
 31
0.0
  0
LINE
  5
5886
330
A
100
AcDbEntity
  8
DIM
 48
0.05
100
AcDbLine
 10
226.2036376495925
 20
173.8913575725385
 30
0.0
 11
230.509609481005
 21
173.8913575725385
 31
0.0
  0
LINE
  5
5887
330
A
100
AcDbEntity
  8
DIM
 48
0.05
100
AcDbLine
 10
230.509609481005
 20
173.8913575725385
 30
0.0
 11
225.7085219363129
 21
173.8913575725385
 31
0.0
  0
LINE
  5
5888
330
A
100
AcDbEntity
  8
DIM
 48
0.05
100
AcDbLine
 10
234.9053411457278
 20
172.6753575725385
 30
0.0
 11
225.7085219363129
 21
172.6753575725385
 31
0.0
  0
LINE
  5
5889
330
A
100
AcDbEntity
  8
DIM
 48
0.05
100
AcDbLine
 10
225.7085219363129
 20
173.271912514563
 30
0.0
 11
225.7085219363129
 21
173.8913575725385
 31
0.0
  0
LINE
  5
588A
330
A
100
AcDbEntity
  8
DIM
 48
0.05
100
AcDbLine
 10
225.7085219363129
 20
173.8913575725385
 30
0.0
 11
225.7085219363129
 21
172.6753575725385
 31
0.0
  0
LINE
  5
588B
330
A
100
AcDbEntity
  8
DIM
 48
0.05
100
AcDbLine
 10
192.6320087613051
 20
173.8913575725385
 30
0.0
 11
188.3260369298926
 21
173.8913575725385
 31
0.0
  0
LINE
  5
588C
330
A
100
AcDbEntity
  8
DIM
 48
0.05
100
AcDbLine
 10
188.3260369298926
 20
173.8913575725385
 30
0.0
 11
193.1271244745847
 21
173.8913575725385
 31
0.0
  0
LINE
  5
588D
330
A
100
AcDbEntity
  8
DIM
 48
0.05
100
AcDbLine
 10
193.1271244745847
 20
173.271912514563
 30
0.0
 11
193.1271244745847
 21
173.8913575725385
 31
0.0
  0
LINE
  5
588E
330
A
100
AcDbEntity
  8
DIM
 48
0.05
100
AcDbLine
 10
193.1271244745847
 20
173.8913575725385
 30
0.0
 11
193.1451002422446
 21
155.9628468400984
 31
0.0
  0
LINE
  5
588F
330
A
100
AcDbEntity
  8
DIM
 48
0.05
100
AcDbLine
 10
230.563713736783
 20
175.7153575725385
 30
0.0
 11
230.509609481005
 21
173.8913575725385
 31
0.0
  0
LINE
  5
5890
330
A
100
AcDbEntity
  8
DIM
 48
0.05
100
AcDbLine
 10
190.3923434658271
 20
175.7153575725385
 30
0.0
 11
188.2503060038362
 21
175.7153575725385
 31
0.0
  0
LINE
  5
5891
330
A
100
AcDbEntity
  8
DIM
 48
0.05
100
AcDbLine
 10
188.2503060038362
 20
175.7153575725385
 30
0.0
 11
188.3260369298926
 21
173.8913575725385
 31
0.0
  0
LINE
  5
5893
330
A
100
AcDbEntity
  8
DIM
 48
0.05
100
AcDbLine
 10
193.1314374122213
 20
171.3807351980108
 30
0.0
 11
180.2124468061966
 21
171.3807351980108
 31
0.0
  0
LINE
  5
5894
330
A
100
AcDbEntity
  8
DIM
 48
0.05
100
AcDbLine
 10
179.1474374122212
 20
170.3157258040356
 30
0.0
 11
179.1474400534702
 21
157.0278562340736
 31
0.0
  0
ARC
  5
5896
330
A
100
AcDbEntity
  8
DIM
 48
0.05
100
AcDbCircle
 10
180.2124468061966
 20
170.3157258040356
 30
0.0
 40
1.065009393975309
100
AcDbArc
 50
90.0
 51
180.0
  0
ARC
  5
5897
330
A
100
AcDbEntity
  8
DIM
 48
0.05
100
AcDbCircle
 10
180.2124494474456
 20
157.0278562340736
 30
0.0
 40
1.065009393975309
100
AcDbArc
 50
180.0
 51
270.0
  0
LINE
  5
5898
330
A
100
AcDbEntity
  8
DIM
 48
0.05
100
AcDbLine
 10
180.2124468061966
 20
171.3807351980108
 30
0.0
 11
180.2124494474456
 21
155.9628468400984
 31
0.0
  0
LINE
  5
5899
330
A
100
AcDbEntity
  8
DIM
 48
0.05
100
AcDbLine
 10
193.1451002422446
 20
155.9628468400984
 30
0.0
 11
180.2124494474456
 21
155.9628468400984
 31
0.0
  0
LINE
  5
58EA
330
A
100
AcDbEntity
  8
DIM
 48
0.05
100
AcDbLine
 10
193.1271244745847
 20
173.8913575725385
 30
0.0
 11
225.7085219363129
 21
173.8913575725385
 31
0.0
  0
LINE
  5
58EB
330
A
100
AcDbEntity
  8
DIM
 48
0.05
100
AcDbLine
 10
225.7085219363129
 20
173.8913575725385
 30
0.0
 11
209.4178232054488
 21
173.8913575725385
 31
0.0
  0
CIRCLE
  5
58EE
330
A
100
AcDbEntity
  8
DIM
 48
0.05
100
AcDbCircle
 10
210.478028601305
 20
163.6717910190547
 30
0.0
 40
7.622200867880224
  0
CIRCLE
  5
58EF
330
A
100
AcDbEntity
  8
DIM
 48
0.05
100
AcDbCircle
 10
210.478028601305
 20
163.6717910190547
 30
0.0
 40
6.677193891250454
  0
CIRCLE
  5
58F1
330
A
100
AcDbEntity
  8
DIM
 48
0.05
100
AcDbCircle
 10
175.403878149653
 20
493.3557721705557
 30
0.0
 40
20.89797579275933
  0
CIRCLE
  5
58F2
330
A
100
AcDbEntity
  8
DIM
 48
0.05
100
AcDbCircle
 10
175.403878149653
 20
493.3557721705557
 30
0.0
 40
34.78923983841293
  0
LWPOLYLINE
  5
58F4
330
A
100
AcDbEntity
  8
DIM
 48
0.05
100
AcDbPolyline
 90
        4
 70
     0
 43
0.0
 10
202.3536686596851
 20
515.3557721705556
 10
275.0551963616739
 20
515.3557721705558
 10
275.0551963616739
 20
471.3557721705558
 10
202.3536686596852
 20
471.3557721705557
  0
LINE
  5
58F9
330
A
100
AcDbEntity
  8
DIM
 48
0.05
100
AcDbLine
 10
254.4038781496531
 20
479.8557721705558
 30
0.0
 11
254.4038781496529
 21
506.8557721705558
 31
0.0
  0
SPLINE
  5
5901
330
A
100
AcDbEntity
  8
DIM
 48
0.05
100
AcDbSpline
210
0.0
220
0.0
230
1.0
 70
     8
 71
     3
 72
     8
 73
     4
 74
     0
 42
0.000000001
 43
0.0000000001
 40
0.0
 40
0.0
 40
0.0
 40
0.0
 40
40.89315346118462
 40
40.89315346118462
 40
40.89315346118462
 40
40.89315346118462
 10
254.4038781496529
 20
506.8557721705558
 30
0.0
 10
241.2022583478858
 20
510.9426023182311
 30
0.0
 10
228.0006385461188
 20
515.0294324659067
 30
0.0
 10
214.403878149653
 20
515.3557721705556
 30
0.0
  0
SPLINE
  5
5902
330
A
100
AcDbEntity
  8
DIM
 48
0.05
100
AcDbSpline
210
0.0
220
0.0
230
1.0
 70
     8
 71
     3
 72
     8
 73
     4
 74
     0
 42
0.000000001
 43
0.0000000001
 40
0.0
 40
0.0
 40
0.0
 40
0.0
 40
40.89315346118462
 40
40.89315346118462
 40
40.89315346118462
 40
40.89315346118462
 10
254.4038781496529
 20
479.8557721705558
 30
0.0
 10
241.202258347886
 20
475.7689420228805
 30
0.0
 10
228.0006385461188
 20
471.6821118752048
 30
0.0
 10
214.403878149653
 20
471.3557721705558
 30
0.0
  0
LINE
  5
5908
330
A
100
AcDbEntity
  8
DIM
 48
0.05
100
AcDbLine
 10
254.403878149653
 20
496.3557721705558
 30
0.0
 11
210.063461090984
 21
496.3565252206437
 31
0.0
  0
LINE
  5
5909
330
A
100
AcDbEntity
  8
DIM
 48
0.05
100
AcDbLine
 10
254.403878149653
 20
490.3557721705558
 30
0.0
 11
210.063461090984
 21
490.3550191204674
 31
0.0
  0
LINE
  5
5929
330
A
100
AcDbEntity
  8
DIM
 48
0.05
100
AcDbLine
 10
162.7246936447908
 20
460.9593296370571
 30
0.0
 11
162.7246936447908
 21
446.3181903475223
 31
0.0
  0
LINE
  5
592A
330
A
100
AcDbEntity
  8
DIM
 48
0.05
100
AcDbLine
 10
164.4763538322501
 20
444.5665301600629
 30
0.0
 11
186.3314024670559
 21
444.5665345042225
 31
0.0
  0
ARC
  5
592B
102
{ACAD_REACTORS
330
5941
102
}
330
A
100
AcDbEntity
  8
DIM
 48
0.05
100
AcDbCircle
 10
164.4763538322501
 20
446.3181903475223
 30
0.0
 40
1.75166018745939
100
AcDbArc
 50
180.0
 51
270.0
  0
ARC
  5
592C
330
A
100
AcDbEntity
  8
DIM
 48
0.05
100
AcDbCircle
 10
186.3314024670559
 20
446.3181946916819
 30
0.0
 40
1.75166018745939
100
AcDbArc
 50
270.0
 51
0.0
  0
LINE
  5
592D
330
A
100
AcDbEntity
  8
DIM
 48
0.05
100
AcDbLine
 10
162.7246936447908
 20
446.3181903475223
 30
0.0
 11
188.0830626545153
 21
446.3181946916819
 31
0.0
  0
LINE
  5
592E
330
A
100
AcDbEntity
  8
DIM
 48
0.05
100
AcDbLine
 10
188.0830626545153
 20
460.9593296370571
 30
0.0
 11
188.0830626545153
 21
446.3181946916819
 31
0.0
  0
LINE
  5
5933
330
A
100
AcDbEntity
  8
DIM
 48
0.05
100
AcDbLine
 10
143.0074356161543
 20
480.6765876656936
 30
0.0
 11
128.3662963266196
 21
480.6765876656936
 31
0.0
  0
LINE
  5
5934
102
{ACAD_REACTORS
330
5950
102
}
330
A
100
AcDbEntity
  8
DIM
 48
0.05
100
AcDbLine
 10
126.6146361391601
 20
482.4282478531531
 30
0.0
 11
126.61464048332
 21
504.2832964879588
 31
0.0
  0
ARC
  5
5935
330
A
100
AcDbEntity
  8
DIM
 48
0.05
100
AcDbCircle
 10
128.3662963266196
 20
482.4282478531531
 30
0.0
 40
1.75166018745939
100
AcDbArc
 50
180.0
 51
270.0
  0
ARC
  5
5936
330
A
100
AcDbEntity
  8
DIM
 48
0.05
100
AcDbCircle
 10
128.3663006707792
 20
504.2832964879588
 30
0.0
 40
1.75166018745939
100
AcDbArc
 50
90.0
 51
179.9999999999963
  0
LINE
  5
5937
330
A
100
AcDbEntity
  8
DIM
 48
0.05
100
AcDbLine
 10
128.3662963266196
 20
480.6765876656936
 30
0.0
 11
128.3663006707792
 21
506.0349566754183
 31
0.0
  0
LINE
  5
5938
330
A
100
AcDbEntity
  8
DIM
 48
0.05
100
AcDbLine
 10
143.0074356161545
 20
506.0349566754182
 30
0.0
 11
128.3663006707792
 21
506.0349566754183
 31
0.0
  0
LINE
  5
5939
330
A
100
AcDbEntity
  8
DIM
 48
0.05
100
AcDbLine
 10
162.7246936447908
 20
525.7522147040543
 30
0.0
 11
162.7246936447908
 21
540.393353993589
 31
0.0
  0
LINE
  5
593A
330
A
100
AcDbEntity
  8
DIM
 48
0.05
100
AcDbLine
 10
164.4763538322501
 20
542.1450141810483
 30
0.0
 11
186.3314024670559
 21
542.1450098368887
 31
0.0
  0
ARC
  5
593B
102
{ACAD_REACTORS
330
5941
102
}
330
A
100
AcDbEntity
  8
DIM
 48
0.05
100
AcDbCircle
 10
164.4763538322501
 20
540.393353993589
 30
0.0
 40
1.75166018745939
100
AcDbArc
 50
90.0
 51
180.0
  0
ARC
  5
593C
330
A
100
AcDbEntity
  8
DIM
 48
0.05
100
AcDbCircle
 10
186.3314024670559
 20
540.3933496494294
 30
0.0
 40
1.75166018745939
100
AcDbArc
 50
0.0
 51
90.0
  0
LINE
  5
593D
330
A
100
AcDbEntity
  8
DIM
 48
0.05
100
AcDbLine
 10
162.7246936447908
 20
540.393353993589
 30
0.0
 11
188.0830626545153
 21
540.3933496494294
 31
0.0
  0
LINE
  5
593E
330
A
100
AcDbEntity
  8
DIM
 48
0.05
100
AcDbLine
 10
188.0830626545153
 20
525.7522147040543
 30
0.0
 11
188.0830626545153
 21
540.3933496494294
 31
0.0
  0
DIMENSION
  5
593F
102
{ACAD_REACTORS
330
5941
102
}
102
{ACAD_XDICTIONARY
360
5940
102
}
330
A
100
AcDbEntity
  8
DIM
 48
0.05
100
AcDbDimension
  2
*D22
 10
115.4866955101498
 20
542.1450141810483
 30
0.0
 11
109.9866955101498
 21
493.3557721705556
 31
0.0
 70
    32
 71
     5
 42
97.5784840209854
 73
     0
 74
     0
 75
     0
 52
-270.0
  3
tfrom線あり
100
AcDbAlignedDimension
 13
164.4763538322501
 23
444.5665301600629
 33
0.0
 14
164.4763538322501
 24
542.1450141810483
 34
0.0
 50
90.00000000000004
100
AcDbRotatedDimension
  0
DIMENSION
  5
594E
102
{ACAD_REACTORS
330
5950
102
}
102
{ACAD_XDICTIONARY
360
594F
102
}
330
A
100
AcDbEntity
  8
DIM
 48
0.05
100
AcDbDimension
  2
*D23
 10
275.0551963616739
 20
431.3833700602268
 30
0.0
 11
200.834916250417
 21
436.8843079119212
 31
0.0
 70
    32
  1
149
 71
     5
 42
148.4405602225138
 73
     0
 74
     0
 75
     0
  3
tfrom線あり
100
AcDbAlignedDimension
 13
126.6146361391601
 23
482.4282478531531
 33
0.0
 14
275.0551963616739
 24
471.3557721705558
 34
0.0
 50
-180.0
100
AcDbRotatedDimension
  0
VIEWPORT
  5
349
330
B
100
AcDbEntity
 67
     1
  8
0
100
AcDbViewport
 10
202.5
 20
128.5
 30
0.0
 40
486.0
 41
308.4
 68
     1
 69
     1
 12
202.5
 22
128.5
 13
0.0
 23
0.0
 14
0.5
 24
0.5
 15
0.0
 25
0.0
 16
0.0
 26
0.0
 36
1.0
 17
0.0
 27
0.0
 37
0.0
 42
50.0
 43
0.0
 44
0.0
 45
308.4
 50
0.0
 51
0.0
 72
   100
 90
   557152
  1

281
     0
 71
     1
 74
     0
110
0.0
120
0.0
130
0.0
111
1.0
121
0.0
131
0.0
112
0.0
122
1.0
132
0.0
 79
     0
146
0.0
170
     0
 61
     5
348
26C
292
     1
282
     1
141
0.0
142
0.0
 63
   256
  0
VIEWPORT
  5
34A
330
B
100
AcDbEntity
 67
     1
  8
0
100
AcDbViewport
 10
202.5
 20
128.5
 30
0.0
 40
324.0
 41
205.6
 68
     2
 69
     2
 12
986.6781359294573
 22
1427.077061889956
 13
0.0
 23
0.0
 14
0.5
 24
0.5
 15
0.0
 25
0.0
 16
0.0
 26
0.0
 36
1.0
 17
0.0
 27
0.0
 37
0.0
 42
50.0
 43
0.0
 44
0.0
 45
2890.021615685494
 50
0.0
 51
0.0
 72
   100
 90
   557152
  1

281
     0
 71
     1
 74
     0
110
0.0
120
0.0
130
0.0
111
1.0
121
0.0
131
0.0
112
0.0
122
1.0
132
0.0
 79
     0
146
0.0
170
     0
 61
     5
348
26C
292
     1
282
     1
141
0.0
142
0.0
 63
   256
  0
ENDSEC
  0
SECTION
  2
OBJECTS
  0
DICTIONARY
  5
19
330
0
100
AcDbDictionary
281
     1
  3
ACAD_COLOR
350
674
  3
ACAD_DETAILVIEWSTYLE
350
BBF
  3
ACAD_GROUP
350
1A
  3
ACAD_IMAGE_VARS
350
27B
  3
ACAD_LAYOUT
350
1E
  3
ACAD_MATERIAL
350
263
  3
ACAD_MLEADERSTYLE
350
336
  3
ACAD_MLINESTYLE
350
1B
  3
ACAD_PLOTSETTINGS
350
22
  3
ACAD_PLOTSTYLENAME
350
1F
  3
ACAD_SCALELIST
350
241
  3
ACAD_SECTIONVIEWSTYLE
350
BC0
  3
ACAD_TABLESTYLE
350
278
  3
ACAD_VISUALSTYLE
350
267
  3
ACDB_RECOMPOSE_DATA
350
5971
  3
AcDbVariableDictionary
350
330
  3
APPDATA
350
27A
  3
DimOffsetDictionary
350
E38
  0
SUN
  5
904
330
15
100
AcDbSun
 90
        1
290
     0
 63
     7
421
 16777215
 40
1.0
291
     1
 91
  2455826
 92
 54000000
292
     0
 70
     2
 71
   256
280
     1
  0
DICTIONARY
  5
2E1
330
2
100
AcDbDictionary
280
     1
281
     1
  3
ACAD_LAYERSTATES
360
2E2
  3
ACLYDICTIONARY
360
579E
  0
DICTIONARY
  5
57C1
330
A
100
AcDbDictionary
280
     1
281
     1
  3
ACAD_SORTENTS
360
57C2
  0
DICTIONARY
  5
5940
330
593F
100
AcDbDictionary
280
     1
281
     1
  3
ACAD_DIMASSOC
360
5941
  0
DICTIONARY
  5
594F
330
594E
100
AcDbDictionary
280
     1
281
     1
  3
ACAD_DIMASSOC
360
5950
  0
DICTIONARY
  5
674
102
{ACAD_REACTORS
330
19
102
}
330
19
100
AcDbDictionary
281
     1
  0
DICTIONARY
  5
BBF
102
{ACAD_REACTORS
330
19
102
}
330
19
100
AcDbDictionary
281
     1
  0
DICTIONARY
  5
1A
102
{ACAD_REACTORS
330
19
102
}
330
19
100
AcDbDictionary
281
     1
  0
RASTERVARIABLES
  5
27B
102
{ACAD_REACTORS
330
19
102
}
330
19
100
AcDbRasterVariables
 90
        0
 70
     1
 71
     1
 72
     1
  0
DICTIONARY
  5
1E
102
{ACAD_REACTORS
330
19
102
}
330
19
100
AcDbDictionary
281
     1
  3
Layout1
350
21
  3
Model
350
20
  0
DICTIONARY
  5
263
102
{ACAD_REACTORS
330
19
102
}
330
19
100
AcDbDictionary
281
     1
  3
ByBlock
350
265
  3
ByLayer
350
264
  3
Global
350
266
  0
DICTIONARY
  5
336
102
{ACAD_REACTORS
330
19
102
}
330
19
100
AcDbDictionary
281
     1
  3
Standard
350
D59
  0
DICTIONARY
  5
1B
102
{ACAD_REACTORS
330
19
102
}
330
19
100
AcDbDictionary
281
     1
  3
Standard
350
1C
  0
DICTIONARY
  5
22
102
{ACAD_REACTORS
330
19
102
}
330
19
100
AcDbDictionary
281
     1
  0
ACDBDICTIONARYWDFLT
  5
1F
102
{ACAD_REACTORS
330
19
102
}
330
19
100
AcDbDictionary
281
     1
  3
Normal
350
1D
100
AcDbDictionaryWithDefault
340
1D
  0
DICTIONARY
  5
241
102
{ACAD_REACTORS
330
19
102
}
330
19
100
AcDbDictionary
281
     1
  3
A0
350
242
  3
A1
350
243
  3
A2
350
244
  3
A3
350
245
  3
A4
350
246
  3
A5
350
247
  3
A6
350
248
  3
A7
350
249
  3
A8
350
24A
  3
A9
350
24B
  3
B0
350
24C
  3
B1
350
24D
  3
B2
350
24E
  3
B3
350
24F
  3
B4
350
250
  3
B5
350
251
  3
B6
350
252
  3
B7
350
253
  3
B8
350
254
  3
B9
350
255
  3
C0
350
256
  3
C1
350
257
  3
C2
350
258
  3
C3
350
259
  3
C4
350
25A
  3
C5
350
25B
  3
C6
350
25C
  3
C7
350
25D
  3
C8
350
25E
  3
C9
350
25F
  3
D0
350
260
  3
D1
350
261
  3
D2
350
262
  0
DICTIONARY
  5
BC0
102
{ACAD_REACTORS
330
19
102
}
330
19
100
AcDbDictionary
281
     1
  0
DICTIONARY
  5
278
102
{ACAD_REACTORS
330
19
102
}
330
19
100
AcDbDictionary
281
     1
  3
Standard
350
279
  0
DICTIONARY
  5
267
102
{ACAD_REACTORS
330
19
102
}
330
19
100
AcDbDictionary
281
     1
  3
2dWireframe
350
26C
  3
3D Hidden
350
26E
  3
3dWireframe
350
26D
  3
Basic
350
26F
  3
Brighten
350
273
  3
ColorChange
350
277
  3
Conceptual
350
271
  3
Dim
350
272
  3
EdgeColorOff
350
8FE
  3
Facepattern
350
276
  3
Flat
350
268
  3
FlatWithEdges
350
269
  3
Gouraud
350
26A
  3
GouraudWithEdges
350
26B
  3
Hidden
350
8FB
  3
JitterOff
350
8FC
  3
Linepattern
350
275
  3
OverhangOff
350
8FD
  3
Realistic
350
270
  3
Shaded
350
903
  3
Shaded with edges
350
902
  3
Shades of Gray
350
8FF
  3
Sketchy
350
900
  3
Thicken
350
274
  3
Wireframe
350
8FA
  3
X-Ray
350
901
  0
XRECORD
  5
5971
102
{ACAD_REACTORS
330
19
102
}
330
19
100
AcDbXrecord
280
     1
 90
        1
330
279
  0
DICTIONARY
  5
330
102
{ACAD_REACTORS
330
19
102
}
330
19
100
AcDbDictionary
281
     1
  3
CANNOSCALE
350
331
  3
CMLEADERSTYLE
350
D5E
  3
CTABLESTYLE
350
335
  3
HPTRANSPARENCY
350
D52
  3
XCLIPFRAME
350
896
  0
DICTIONARY
  5
27A
102
{ACAD_REACTORS
330
19
102
}
330
19
100
AcDbDictionary
281
     1
  0
DICTIONARY
  5
E38
102
{ACAD_REACTORS
330
19
102
}
330
19
100
AcDbDictionary
281
     1
  3
DIMRAILANGLE
350
246C
  3
DIMRAILFIRSTOFFSET
350
246A
  3
DIMRAILOFFSET
350
246B
  3
DIMRAILSENABLED
350
246D
  0
DICTIONARY
  5
2E2
102
{ACAD_REACTORS
330
2E1
102
}
330
2E1
100
AcDbDictionary
281
     1
  0
DICTIONARY
  5
579E
102
{ACAD_REACTORS
330
2E1
102
}
330
2E1
100
AcDbDictionary
281
     1
1001
ACAD
1000
<All
  0
SORTENTSTABLE
  5
57C2
102
{ACAD_REACTORS
330
57C1
102
}
330
57C1
100
AcDbSortentsTable
330
A
331
3D3C
  5
3D4C
331
3D4C
  5
3D4D
331
3D4D
  5
3D4E
331
3D4E
  5
3D4F
331
3D4F
  5
3D50
331
3D50
  5
3D51
331
3D51
  5
3D52
331
3D52
  5
3D59
331
3D5A
  5
3D6F
331
3D6F
  5
3D70
331
3D70
  5
3D71
331
3D84
  5
3D85
331
3D85
  5
3D86
331
3D89
  5
3D8A
331
3D8A
  5
3D8B
331
3D8B
  5
3D8C
331
3D8C
  5
3D8D
331
3D8D
  5
3D8E
331
3D8E
  5
3D8F
331
3D8F
  5
3D90
331
3D90
  5
3D91
331
3D91
  5
3D92
331
3D92
  5
3D93
331
3D93
  5
3D94
331
3D94
  5
3D95
331
3D95
  5
3D96
331
3D96
  5
3D97
331
3D97
  5
3D98
331
3D98
  5
3D99
331
3D99
  5
3D9A
331
3D9A
  5
3D9B
331
3D9B
  5
3D9C
331
3D9C
  5
3D9D
331
3D9D
  5
3D9E
331
3D9E
  5
3D9F
331
3D9F
  5
3DA0
331
3DA0
  5
3DA1
331
3DA1
  5
3DA2
331
3DA2
  5
3DA3
331
3DA3
  5
3DA4
331
3DA4
  5
3DA5
331
3DA5
  5
3DA6
331
3DA6
  5
3DA7
331
3DA7
  5
3DA8
331
3DA8
  5
3DA9
331
3DA9
  5
3DAA
331
3DAA
  5
3DAB
331
3DAB
  5
3DAC
331
3DAC
  5
3DAD
331
3DAD
  5
3DAE
331
3DAE
  5
3DAF
331
3DAF
  5
3DB0
331
3DB0
  5
3DB1
331
3DB1
  5
3DB2
331
3DB2
  5
3DB3
331
3DB3
  5
3DB4
331
3DB4
  5
3DB5
331
3DB5
  5
3DB6
331
3DB6
  5
3DB7
331
3DB7
  5
3DB8
331
3DB8
  5
3DB9
331
3DB9
  5
3DBA
331
3DBA
  5
3DBB
331
3DBB
  5
3DBC
331
3DBC
  5
3DBD
331
3DBD
  5
3DBE
331
3DBE
  5
3DBF
331
3DBF
  5
3DC0
331
3DC0
  5
3DC1
331
3DC1
  5
3DC2
331
3DC2
  5
3DCB
331
3DCD
  5
3DCE
331
3DCE
  5
3DCF
331
3DCF
  5
3DD0
331
3DD0
  5
3DD1
331
3DD1
  5
3DD2
331
3DD2
  5
3DD3
331
3DD3
  5
3DD4
331
3DD4
  5
3DD5
331
3DD5
  5
3DD6
331
3DD6
  5
3DD7
331
3DD7
  5
3DD8
331
3DD8
  5
3DD9
331
3DD9
  5
3DDA
331
3DDA
  5
3DDB
331
3DDB
  5
3DDC
331
3DDC
  5
3DDD
331
3DDD
  5
3DDE
331
3DDE
  5
3DDF
331
3DDF
  5
3DE0
331
3DE0
  5
5726
331
5726
  5
5735
331
5735
  5
5736
331
5736
  5
5745
331
5754
  5
5763
331
5763
  5
5772
331
5772
  5
57A2
331
57BB
  5
57BC
331
57BC
  5
57BD
331
57BF
  5
57C0
331
57C8
  5
57C9
331
57C9
  5
57CA
331
57CD
  5
57CE
331
57CE
  5
57CF
331
57CF
  5
57D0
331
57D0
  5
57D1
331
57D3
  5
57D4
331
57D4
  5
57D5
331
57D5
  5
57D6
331
57D6
  5
57D7
331
58F4
  5
58F5
  0
DIMASSOC
  5
5941
102
{ACAD_REACTORS
330
5940
102
}
330
5940
100
AcDbDimAssoc
330
593F
 90
        3
 70
     0
 71
     1
  1
AcDbOsnapPointRef
 72
     1
331
592B
 73
     0
 91
        0
 40
0.0
 10
0.0
 20
0.0
 30
0.0
 75
     0
  1
AcDbOsnapPointRef
 72
    13
331
593B
 73
     0
 91
        0
 40
0.0
 10
0.0
 20
0.0
 30
0.0
 75
     0
  0
DIMASSOC
  5
5950
102
{ACAD_REACTORS
330
594F
102
}
330
594F
100
AcDbDimAssoc
330
594E
 90
        1
 70
     0
 71
     1
  1
AcDbOsnapPointRef
 72
    13
331
5934
 73
     0
 91
        0
 40
0.0
 10
0.0
 20
0.0
 30
0.0
 75
     0
  0
LAYOUT
  5
21
102
{ACAD_REACTORS
330
1E
102
}
330
1E
100
AcDbPlotSettings
  1

  2
none_device
  4
ISO_A3_(420.00_x_297.00_MM)
  6

 40
7.5
 41
20.0
 42
7.5
 43
20.0
 44
420.0
 45
297.0
 46
0.0
 47
0.0
 48
0.0
 49
0.0
140
0.0
141
0.0
142
1.0
143
1.0
 70
     0
 72
     1
 73
     0
 74
     0
  7

 75
     0
 76
     0
 77
     2
 78
   300
147
1.0
148
0.0
149
0.0
100
AcDbLayout
  1
Layout1
 70
     0
 71
     0
 10
-7.5
 20
-20.0
 11
412.5
 21
277.0
 12
0.0
 22
0.0
 32
0.0
 14
0.0
 24
0.0
 34
0.0
 15
0.0
 25
0.0
 35
0.0
146
0.0
 13
0.0
 23
0.0
 33
0.0
 16
0.0
 26
0.0
 36
0.0
 17
0.0
 27
0.0
 37
0.0
 76
     0
330
B
331
349
  0
LAYOUT
  5
20
102
{ACAD_REACTORS
330
1E
102
}
330
1E
100
AcDbPlotSettings
  1

  2
none_device
  4
ISO_A3_(420.00_x_297.00_MM)
  6

 40
7.5
 41
20.0
 42
7.5
 43
20.0
 44
420.0
 45
297.0
 46
0.0
 47
0.0
 48
0.0
 49
0.0
140
0.0
141
0.0
142
1.0
143
1.0
 70
  1024
 72
     1
 73
     0
 74
     0
  7

 75
     0
 76
     0
 77
     2
 78
   300
147
1.0
148
0.0
149
0.0
100
AcDbLayout
  1
Model
 70
     0
 71
     1
 10
0.0
 20
0.0
 11
420.0
 21
594.0
 12
0.0
 22
0.0
 32
0.0
 14
0.0
 24
0.0
 34
-0.0000000000000071
 15
519.6741912622088
 25
594.0
 35
0.0000000000000142
146
0.0
 13
0.0
 23
0.0
 33
0.0
 16
0.0
 26
0.0
 36
0.0
 17
0.0
 27
0.0
 37
0.0
 76
     0
330
A
331
15
  0
MATERIAL
  5
265
102
{ACAD_REACTORS
330
263
102
}
330
263
100
AcDbMaterial
  1
ByBlock
 72
     1
 94
      127
  0
MATERIAL
  5
264
102
{ACAD_REACTORS
330
263
102
}
330
263
100
AcDbMaterial
  1
ByLayer
 72
     1
 94
      127
  0
MATERIAL
  5
266
102
{ACAD_REACTORS
330
263
102
}
330
263
100
AcDbMaterial
  1
Global
 72
     1
 94
      127
  0
MLEADERSTYLE
  5
D59
102
{ACAD_REACTORS
330
336
102
}
330
336
100
AcDbMLeaderStyle
170
     2
171
     1
172
     0
 90
        2
 40
0.0
 41
0.0
173
     1
 91
-1056964608
340
11
 92
       -2
290
     1
 42
2.0
291
     1
 43
8.0
  3
Standard
341
0
 44
4.0
300

342
17
174
     1
178
     6
175
     1
176
     0
 93
-1056964608
 45
4.0
292
     0
297
     0
 46
4.0
343
0
 94
-1056964608
 47
1.0
 49
1.0
140
1.0
293
     1
141
0.0
294
     1
177
     0
142
1.0
295
     0
296
     0
143
3.75
1001
ACAD_MLEADERVER
1070
     2
  0
MLINESTYLE
  5
1C
102
{ACAD_REACTORS
330
1B
102
}
330
1B
100
AcDbMlineStyle
  2
Standard
 70
     0
  3

 62
     0
 51
90.0
 52
90.0
 71
     2
 49
0.5
 62
   256
  6
BYLAYER
 49
-0.5
 62
   256
  6
BYLAYER
  0
ACDBPLACEHOLDER
  5
1D
102
{ACAD_REACTORS
330
1F
102
}
330
1F
  0
SCALE
  5
242
102
{ACAD_REACTORS
330
241
102
}
330
241
100
AcDbScale
 70
     0
300
1:1
140
1.0
141
1.0
290
     1
  0
SCALE
  5
243
102
{ACAD_REACTORS
330
241
102
}
330
241
100
AcDbScale
 70
     0
300
1:2
140
1.0
141
2.0
290
     0
  0
SCALE
  5
244
102
{ACAD_REACTORS
330
241
102
}
330
241
100
AcDbScale
 70
     0
300
1:4
140
1.0
141
4.0
290
     0
  0
SCALE
  5
245
102
{ACAD_REACTORS
330
241
102
}
330
241
100
AcDbScale
 70
     0
300
1:5
140
1.0
141
5.0
290
     0
  0
SCALE
  5
246
102
{ACAD_REACTORS
330
241
102
}
330
241
100
AcDbScale
 70
     0
300
1:8
140
1.0
141
8.0
290
     0
  0
SCALE
  5
247
102
{ACAD_REACTORS
330
241
102
}
330
241
100
AcDbScale
 70
     0
300
1:10
140
1.0
141
10.0
290
     0
  0
SCALE
  5
248
102
{ACAD_REACTORS
330
241
102
}
330
241
100
AcDbScale
 70
     0
300
1:16
140
1.0
141
16.0
290
     0
  0
SCALE
  5
249
102
{ACAD_REACTORS
330
241
102
}
330
241
100
AcDbScale
 70
     0
300
1:20
140
1.0
141
20.0
290
     0
  0
SCALE
  5
24A
102
{ACAD_REACTORS
330
241
102
}
330
241
100
AcDbScale
 70
     0
300
1:30
140
1.0
141
30.0
290
     0
  0
SCALE
  5
24B
102
{ACAD_REACTORS
330
241
102
}
330
241
100
AcDbScale
 70
     0
300
1:40
140
1.0
141
40.0
290
     0
  0
SCALE
  5
24C
102
{ACAD_REACTORS
330
241
102
}
330
241
100
AcDbScale
 70
     0
300
1:50
140
1.0
141
50.0
290
     0
  0
SCALE
  5
24D
102
{ACAD_REACTORS
330
241
102
}
330
241
100
AcDbScale
 70
     0
300
1:100
140
1.0
141
100.0
290
     0
  0
SCALE
  5
24E
102
{ACAD_REACTORS
330
241
102
}
330
241
100
AcDbScale
 70
     0
300
2:1
140
2.0
141
1.0
290
     0
  0
SCALE
  5
24F
102
{ACAD_REACTORS
330
241
102
}
330
241
100
AcDbScale
 70
     0
300
4:1
140
4.0
141
1.0
290
     0
  0
SCALE
  5
250
102
{ACAD_REACTORS
330
241
102
}
330
241
100
AcDbScale
 70
     0
300
8:1
140
8.0
141
1.0
290
     0
  0
SCALE
  5
251
102
{ACAD_REACTORS
330
241
102
}
330
241
100
AcDbScale
 70
     0
300
10:1
140
10.0
141
1.0
290
     0
  0
SCALE
  5
252
102
{ACAD_REACTORS
330
241
102
}
330
241
100
AcDbScale
 70
     0
300
100:1
140
100.0
141
1.0
290
     0
  0
SCALE
  5
253
102
{ACAD_REACTORS
330
241
102
}
330
241
100
AcDbScale
 70
     0
300
1/128" = 1'-0"
140
0.0078125
141
12.0
290
     0
  0
SCALE
  5
254
102
{ACAD_REACTORS
330
241
102
}
330
241
100
AcDbScale
 70
     0
300
1/64" = 1'-0"
140
0.015625
141
12.0
290
     0
  0
SCALE
  5
255
102
{ACAD_REACTORS
330
241
102
}
330
241
100
AcDbScale
 70
     0
300
1/32" = 1'-0"
140
0.03125
141
12.0
290
     0
  0
SCALE
  5
256
102
{ACAD_REACTORS
330
241
102
}
330
241
100
AcDbScale
 70
     0
300
1/16" = 1'-0"
140
0.0625
141
12.0
290
     0
  0
SCALE
  5
257
102
{ACAD_REACTORS
330
241
102
}
330
241
100
AcDbScale
 70
     0
300
3/32" = 1'-0"
140
0.09375
141
12.0
290
     0
  0
SCALE
  5
258
102
{ACAD_REACTORS
330
241
102
}
330
241
100
AcDbScale
 70
     0
300
1/8" = 1'-0"
140
0.125
141
12.0
290
     0
  0
SCALE
  5
259
102
{ACAD_REACTORS
330
241
102
}
330
241
100
AcDbScale
 70
     0
300
3/16" = 1'-0"
140
0.1875
141
12.0
290
     0
  0
SCALE
  5
25A
102
{ACAD_REACTORS
330
241
102
}
330
241
100
AcDbScale
 70
     0
300
1/4" = 1'-0"
140
0.25
141
12.0
290
     0
  0
SCALE
  5
25B
102
{ACAD_REACTORS
330
241
102
}
330
241
100
AcDbScale
 70
     0
300
3/8" = 1'-0"
140
0.375
141
12.0
290
     0
  0
SCALE
  5
25C
102
{ACAD_REACTORS
330
241
102
}
330
241
100
AcDbScale
 70
     0
300
1/2" = 1'-0"
140
0.5
141
12.0
290
     0
  0
SCALE
  5
25D
102
{ACAD_REACTORS
330
241
102
}
330
241
100
AcDbScale
 70
     0
300
3/4" = 1'-0"
140
0.75
141
12.0
290
     0
  0
SCALE
  5
25E
102
{ACAD_REACTORS
330
241
102
}
330
241
100
AcDbScale
 70
     0
300
1" = 1'-0"
140
1.0
141
12.0
290
     0
  0
SCALE
  5
25F
102
{ACAD_REACTORS
330
241
102
}
330
241
100
AcDbScale
 70
     0
300
1-1/2" = 1'-0"
140
1.5
141
12.0
290
     0
  0
SCALE
  5
260
102
{ACAD_REACTORS
330
241
102
}
330
241
100
AcDbScale
 70
     0
300
3" = 1'-0"
140
3.0
141
12.0
290
     0
  0
SCALE
  5
261
102
{ACAD_REACTORS
330
241
102
}
330
241
100
AcDbScale
 70
     0
300
6" = 1'-0"
140
6.0
141
12.0
290
     0
  0
SCALE
  5
262
102
{ACAD_REACTORS
330
241
102
}
330
241
100
AcDbScale
 70
     0
300
1'-0" = 1'-0"
140
12.0
141
12.0
290
     0
  0
TABLESTYLE
  5
279
102
{ACAD_REACTORS
330
278
102
}
102
{ACAD_XDICTIONARY
360
596F
102
}
330
278
100
AcDbTableStyle
  3
Standard
 70
     0
 71
     0
 40
0.06
 41
0.06
280
     0
281
     0
  7
Standard
140
4.5
170
     2
 62
     0
 63
   257
283
     0
 90
        4
 91
        0
  1

274
    -2
284
     1
 64
     0
275
    -2
285
     1
 65
     0
276
    -2
286
     1
 66
     0
277
    -2
287
     1
 67
     0
278
    -2
288
     1
 68
     0
279
    -2
289
     1
 69
     0
  7
Standard
140
6.0
170
     5
 62
     0
 63
   257
283
     0
 90
        4
 91
        0
  1

274
    -2
284
     1
 64
     0
275
    -2
285
     1
 65
     0
276
    -2
286
     1
 66
     0
277
    -2
287
     1
 67
     0
278
    -2
288
     1
 68
     0
279
    -2
289
     1
 69
     0
  7
Standard
140
4.5
170
     5
 62
     0
 63
   257
283
     0
 90
        4
 91
        0
  1

274
    -2
284
     1
 64
     0
275
    -2
285
     1
 65
     0
276
    -2
286
     1
 66
     0
277
    -2
287
     1
 67
     0
278
    -2
288
     1
 68
     0
279
    -2
289
     1
 69
     0
  0
VISUALSTYLE
  5
26C
102
{ACAD_REACTORS
330
267
102
}
330
267
100
AcDbVisualStyle
  2
2dWireframe
 70
     4
 71
     0
 72
     2
 73
     0
 90
        0
 40
-0.6
 41
-30.0
 62
     5
 63
     7
421
 16777215
 74
     1
 91
        4
 64
     7
 65
   257
 75
     1
175
     1
 42
1.0
 92
        0
 66
   257
 43
1.0
 76
     1
 77
     6
 78
     2
 67
     7
 79
     5
170
     0
171
     0
290
     0
174
     0
 93
        1
 44
0.0
173
     0
291
     0
 45
0.0
  0
VISUALSTYLE
  5
26E
102
{ACAD_REACTORS
330
267
102
}
330
267
100
AcDbVisualStyle
  2
3D Hidden
 70
     6
 71
     1
 72
     2
 73
     2
 90
        0
 40
-0.6
 41
-30.0
 62
     5
 63
     7
421
 16777215
 74
     2
 91
        2
 64
     7
 65
   257
 75
     2
175
     1
 42
40.0
 92
        0
 66
   257
 43
1.0
 76
     1
 77
     6
 78
     2
 67
     7
 79
     3
170
     0
171
     0
290
     0
174
     0
 93
        1
 44
0.0
173
     0
291
     0
 45
0.0
  0
VISUALSTYLE
  5
26D
102
{ACAD_REACTORS
330
267
102
}
330
267
100
AcDbVisualStyle
  2
3dWireframe
 70
     5
 71
     0
 72
     2
 73
     0
 90
        0
 40
-0.6
 41
-30.0
 62
     5
 63
     7
421
 16777215
 74
     1
 91
        4
 64
     7
 65
   257
 75
     1
175
     1
 42
1.0
 92
        0
 66
   257
 43
1.0
 76
     1
 77
     6
 78
     2
 67
     7
 79
     5
170
     0
171
     0
290
     0
174
     0
 93
        1
 44
0.0
173
     0
291
     0
 45
0.0
  0
VISUALSTYLE
  5
26F
102
{ACAD_REACTORS
330
267
102
}
330
267
100
AcDbVisualStyle
  2
Basic
 70
     7
 71
     1
 72
     0
 73
     1
 90
        0
 40
-0.6
 41
-30.0
 62
     5
 63
     7
421
 16777215
 74
     0
 91
        4
 64
     7
 65
   257
 75
     1
175
     1
 42
1.0
 92
        8
 66
     7
 43
1.0
 76
     1
 77
     6
 78
     2
 67
     7
 79
     5
170
     0
171
     0
290
     0
174
     0
 93
        1
 44
0.0
173
     0
291
     1
 45
0.0
  0
VISUALSTYLE
  5
273
102
{ACAD_REACTORS
330
267
102
}
330
267
100
AcDbVisualStyle
  2
Brighten
 70
    12
 71
     2
 72
     2
 73
     0
 90
        0
 40
-0.6
 41
-30.0
 62
     5
 63
     7
421
 16777215
 74
     1
 91
        4
 64
     7
 65
   257
 75
     1
175
     1
 42
1.0
 92
        8
 66
     7
 43
1.0
 76
     1
 77
     6
 78
     2
 67
     7
 79
     5
170
     0
171
     0
290
     0
174
     0
 93
        1
 44
50.0
173
     0
291
     1
 45
0.0
  0
VISUALSTYLE
  5
277
102
{ACAD_REACTORS
330
267
102
}
330
267
100
AcDbVisualStyle
  2
ColorChange
 70
    16
 71
     2
 72
     2
 73
     3
 90
        0
 40
-0.6
 41
-30.0
 62
     5
 63
     8
421
  8421504
 74
     1
 91
        4
 64
     7
 65
   257
 75
     1
175
     1
 42
1.0
 92
        8
 66
     8
424
  8421504
 43
1.0
 76
     1
 77
     6
 78
     2
 67
     7
 79
     5
170
     0
171
     0
290
     0
174
     0
 93
        1
 44
0.0
173
     0
291
     1
 45
0.0
  0
VISUALSTYLE
  5
271
102
{ACAD_REACTORS
330
267
102
}
330
267
100
AcDbVisualStyle
  2
Conceptual
 70
     9
 71
     3
 72
     2
 73
     0
 90
        0
 40
-0.6
 41
-30.0
 62
     5
 63
     7
421
 16777215
 74
     2
 91
        2
 64
     7
 65
   257
 75
     1
175
     1
 42
40.0
 92
        8
 66
     7
 43
1.0
 76
     1
 77
     6
 78
     2
 67
     7
 79
     3
170
     0
171
     0
290
     0
174
     0
 93
        1
 44
0.0
173
     0
291
     0
 45
0.0
  0
VISUALSTYLE
  5
272
102
{ACAD_REACTORS
330
267
102
}
330
267
100
AcDbVisualStyle
  2
Dim
 70
    11
 71
     2
 72
     2
 73
     0
 90
        0
 40
-0.6
 41
-30.0
 62
     5
 63
     7
421
 16777215
 74
     1
 91
        4
 64
     7
 65
   257
 75
     1
175
     1
 42
1.0
 92
        8
 66
     7
 43
1.0
 76
     1
 77
     6
 78
     2
 67
     7
 79
     5
170
     0
171
     0
290
     0
174
     0
 93
        1
 44
-50.0
173
     0
291
     1
 45
0.0
  0
VISUALSTYLE
  5
8FE
102
{ACAD_REACTORS
330
267
102
}
330
267
100
AcDbVisualStyle
  2
EdgeColorOff
 70
    22
 71
     2
 72
     2
 73
     0
 90
        0
 40
0.6
 41
30.0
 62
     5
 63
     7
421
 16777215
 74
     1
 91
        4
 64
     7
 65
   257
 75
     1
175
     1
 42
1.0
 92
        8
 66
     7
 43
1.0
 76
     1
 77
     6
 78
     2
 67
     7
 79
     5
170
     0
171
     0
290
     0
174
     0
 93
        1
 44
0.0
173
     0
291
     1
 45
0.0
  0
VISUALSTYLE
  5
276
102
{ACAD_REACTORS
330
267
102
}
330
267
100
AcDbVisualStyle
  2
Facepattern
 70
    15
 71
     2
 72
     2
 73
     0
 90
        0
 40
-0.6
 41
-30.0
 62
     5
 63
     7
421
 16777215
 74
     1
 91
        4
 64
     7
 65
   257
 75
     1
175
     1
 42
1.0
 92
        8
 66
     7
 43
1.0
 76
     1
 77
     6
 78
     2
 67
     7
 79
     5
170
     0
171
     0
290
     0
174
     0
 93
        1
 44
0.0
173
     0
291
     1
 45
0.0
  0
VISUALSTYLE
  5
268
102
{ACAD_REACTORS
330
267
102
}
330
267
100
AcDbVisualStyle
  2
Flat
 70
     0
 71
     2
 72
     1
 73
     1
 90
        2
 40
-0.6
 41
30.0
 62
     5
 63
     7
421
 16777215
 74
     0
 91
        4
 64
     7
 65
   257
 75
     1
175
     1
 42
1.0
 92
        8
 66
     7
 43
1.0
 76
     1
 77
     6
 78
     2
 67
     7
 79
     5
170
     0
171
     0
290
     0
174
     0
 93
       13
 44
0.0
173
     0
291
     1
 45
0.0
  0
VISUALSTYLE
  5
269
102
{ACAD_REACTORS
330
267
102
}
330
267
100
AcDbVisualStyle
  2
FlatWithEdges
 70
     1
 71
     2
 72
     1
 73
     1
 90
        2
 40
-0.6
 41
30.0
 62
     5
 63
     7
421
 16777215
 74
     1
 91
        4
 64
     7
 65
   257
 75
     1
175
     1
 42
1.0
 92
        0
 66
   257
 43
1.0
 76
     1
 77
     6
 78
     2
 67
     7
 79
     5
170
     0
171
     0
290
     0
174
     0
 93
       13
 44
0.0
173
     0
291
     1
 45
0.0
  0
VISUALSTYLE
  5
26A
102
{ACAD_REACTORS
330
267
102
}
330
267
100
AcDbVisualStyle
  2
Gouraud
 70
     2
 71
     2
 72
     2
 73
     1
 90
        2
 40
-0.6
 41
30.0
 62
     5
 63
     7
421
 16777215
 74
     0
 91
        4
 64
     7
 65
   257
 75
     1
175
     1
 42
1.0
 92
        0
 66
     7
 43
1.0
 76
     1
 77
     6
 78
     2
 67
     7
 79
     5
170
     0
171
     0
290
     0
174
     0
 93
       13
 44
0.0
173
     0
291
     1
 45
0.0
  0
VISUALSTYLE
  5
26B
102
{ACAD_REACTORS
330
267
102
}
330
267
100
AcDbVisualStyle
  2
GouraudWithEdges
 70
     3
 71
     2
 72
     2
 73
     1
 90
        2
 40
-0.6
 41
30.0
 62
     5
 63
     7
421
 16777215
 74
     1
 91
        4
 64
     7
 65
   257
 75
     1
175
     1
 42
1.0
 92
        0
 66
   257
 43
1.0
 76
     1
 77
     6
 78
     2
 67
     7
 79
     5
170
     0
171
     0
290
     0
174
     0
 93
       13
 44
0.0
173
     0
291
     1
 45
0.0
  0
VISUALSTYLE
  5
8FB
102
{ACAD_REACTORS
330
267
102
}
330
267
100
AcDbVisualStyle
  2
Hidden
 70
     6
 71
     1
 72
     2
 73
     2
 90
        0
 40
0.6
 41
30.0
 62
     5
 63
     7
421
 16777215
 74
     2
 91
        2
 64
     7
 65
   257
 75
     2
175
     1
 42
40.0
 92
        0
 66
   257
 43
1.0
 76
     1
 77
     6
 78
     2
 67
     7
 79
     3
170
     0
171
     0
290
     0
174
     0
 93
        1
 44
0.0
173
     0
291
     0
 45
0.0
  0
VISUALSTYLE
  5
8FC
102
{ACAD_REACTORS
330
267
102
}
330
267
100
AcDbVisualStyle
  2
JitterOff
 70
    20
 71
     2
 72
     2
 73
     0
 90
        0
 40
0.6
 41
30.0
 62
     5
 63
     7
421
 16777215
 74
     1
 91
        4
 64
     7
 65
   257
 75
     1
175
     1
 42
1.0
 92
       10
 66
     7
 43
1.0
 76
     1
 77
     6
 78
     2
 67
     7
 79
     5
170
     0
171
     0
290
     0
174
     0
 93
        1
 44
0.0
173
     0
291
     1
 45
0.0
  0
VISUALSTYLE
  5
275
102
{ACAD_REACTORS
330
267
102
}
330
267
100
AcDbVisualStyle
  2
Linepattern
 70
    14
 71
     2
 72
     2
 73
     0
 90
        0
 40
-0.6
 41
-30.0
 62
     5
 63
     7
421
 16777215
 74
     1
 91
        4
 64
     7
 65
   257
 75
     7
175
     7
 42
1.0
 92
        8
 66
     7
 43
1.0
 76
     1
 77
     6
 78
     2
 67
     7
 79
     5
170
     0
171
     0
290
     0
174
     0
 93
        1
 44
0.0
173
     0
291
     1
 45
0.0
  0
VISUALSTYLE
  5
8FD
102
{ACAD_REACTORS
330
267
102
}
330
267
100
AcDbVisualStyle
  2
OverhangOff
 70
    21
 71
     2
 72
     2
 73
     0
 90
        0
 40
0.6
 41
30.0
 62
     5
 63
     7
421
 16777215
 74
     1
 91
        4
 64
     7
 65
   257
 75
     1
175
     1
 42
1.0
 92
        9
 66
     7
 43
1.0
 76
     1
 77
     6
 78
     2
 67
     7
 79
     5
170
     0
171
     0
290
     0
174
     0
 93
        1
 44
0.0
173
     0
291
     1
 45
0.0
  0
VISUALSTYLE
  5
270
102
{ACAD_REACTORS
330
267
102
}
330
267
100
AcDbVisualStyle
  2
Realistic
 70
     8
 71
     2
 72
     2
 73
     0
 90
        0
 40
-0.6
 41
-30.0
 62
     5
 63
     7
421
 16777215
 74
     1
 91
        0
 64
     7
 65
   257
 75
     1
175
     1
 42
1.0
 92
        8
 66
     8
424
  7895160
 43
1.0
 76
     1
 77
     6
 78
     2
 67
     7
 79
     5
170
     0
171
     0
290
     0
174
     0
 93
       13
 44
0.0
173
     0
291
     0
 45
0.0
  0
VISUALSTYLE
  5
903
102
{ACAD_REACTORS
330
267
102
}
330
267
100
AcDbVisualStyle
  2
Shaded
 70
    27
 71
     2
 72
     2
 73
     1
 90
        2
 40
0.6
 41
30.0
 62
     5
 63
     7
421
 16777215
 74
     0
 91
        4
 64
     7
 65
   257
 75
     1
175
     1
 42
1.0
 92
        8
 66
   257
 43
1.0
 76
     1
 77
     6
 78
     2
 67
     8
425
  7895160
 79
     3
170
     0
171
     0
290
     0
174
     0
 93
        5
 44
0.0
173
     0
291
     0
 45
0.0
  0
VISUALSTYLE
  5
902
102
{ACAD_REACTORS
330
267
102
}
330
267
100
AcDbVisualStyle
  2
Shaded with edges
 70
    26
 71
     2
 72
     2
 73
     1
 90
        2
 40
0.6
 41
30.0
 62
     5
 63
     7
421
 16777215
 74
     1
 91
       10
 64
     7
 65
   257
 75
     2
175
     1
 42
1.0
 92
        8
 66
   257
 43
1.0
 76
     1
 77
     6
 78
     2
 67
     7
 79
     3
170
     0
171
     0
290
     0
174
     0
 93
        5
 44
0.0
173
     0
291
     0
 45
0.0
  0
VISUALSTYLE
  5
8FF
102
{ACAD_REACTORS
330
267
102
}
330
267
100
AcDbVisualStyle
  2
Shades of Gray
 70
    23
 71
     2
 72
     2
 73
     3
 90
        0
 40
0.6
 41
30.0
 62
     5
 63
     7
421
 16777215
 74
     2
 91
        2
 64
     7
 65
     7
 75
     1
175
     1
 42
40.0
 92
        8
 66
     7
 43
1.0
 76
     1
 77
     6
 78
     2
 67
     7
 79
     3
170
     0
171
     0
290
     0
174
     0
 93
        1
 44
0.0
173
     0
291
     0
 45
0.0
  0
VISUALSTYLE
  5
900
102
{ACAD_REACTORS
330
267
102
}
330
267
100
AcDbVisualStyle
  2
Sketchy
 70
    24
 71
     1
 72
     2
 73
     2
 90
        0
 40
0.6
 41
30.0
 62
     5
 63
     7
421
 16777215
 74
     2
 91
        2
 64
     7
 65
     7
 75
     1
175
     1
 42
40.0
 92
       11
 66
     7
 43
1.0
 76
     1
 77
     6
 78
     2
 67
     7
 79
     6
170
     0
171
     0
290
     0
174
     0
 93
        1
 44
0.0
173
     0
291
     0
 45
0.0
  0
VISUALSTYLE
  5
274
102
{ACAD_REACTORS
330
267
102
}
330
267
100
AcDbVisualStyle
  2
Thicken
 70
    13
 71
     2
 72
     2
 73
     0
 90
        0
 40
-0.6
 41
-30.0
 62
     5
 63
     7
421
 16777215
 74
     1
 91
        4
 64
     7
 65
   257
 75
     1
175
     1
 42
1.0
 92
       12
 66
     7
 43
1.0
 76
     1
 77
     6
 78
     2
 67
     7
 79
     5
170
     0
171
     0
290
     0
174
     0
 93
        1
 44
0.0
173
     0
291
     1
 45
0.0
  0
VISUALSTYLE
  5
8FA
102
{ACAD_REACTORS
330
267
102
}
330
267
100
AcDbVisualStyle
  2
Wireframe
 70
     5
 71
     0
 72
     2
 73
     0
 90
        0
 40
0.6
 41
30.0
 62
     5
 63
     7
421
 16777215
 74
     1
 91
        4
 64
     7
 65
   257
 75
     1
175
     1
 42
1.0
 92
        0
 66
   257
 43
1.0
 76
     1
 77
     6
 78
     2
 67
     7
 79
     3
170
     0
171
     0
290
     0
174
     0
 93
        1
 44
0.0
173
     0
291
     0
 45
0.0
  0
VISUALSTYLE
  5
901
102
{ACAD_REACTORS
330
267
102
}
330
267
100
AcDbVisualStyle
  2
X-Ray
 70
    25
 71
     2
 72
     2
 73
     1
 90
        1
 40
0.5
 41
30.0
 62
     5
 63
     7
421
 16777215
 74
     1
 91
        0
 64
     7
 65
   257
 75
     1
175
     1
 42
1.0
 92
        8
 66
     7
 43
1.0
 76
     1
 77
     6
 78
     2
 67
     7
 79
     3
170
     0
171
     0
290
     0
174
     0
 93
       13
 44
0.0
173
     0
291
     0
 45
0.0
  0
DICTIONARYVAR
  5
331
102
{ACAD_REACTORS
330
330
102
}
330
330
100
DictionaryVariables
280
     0
  1
1:1
  0
DICTIONARYVAR
  5
D5E
102
{ACAD_REACTORS
330
330
102
}
330
330
100
DictionaryVariables
280
     0
  1
Standard
  0
DICTIONARYVAR
  5
335
102
{ACAD_REACTORS
330
330
102
}
330
330
100
DictionaryVariables
280
     0
  1
Standard
  0
DICTIONARYVAR
  5
D52
102
{ACAD_REACTORS
330
330
102
}
330
330
100
DictionaryVariables
280
     0
  1
ByLayer
  0
DICTIONARYVAR
  5
896
102
{ACAD_REACTORS
330
330
102
}
330
330
100
DictionaryVariables
280
     0
  1
0
  0
DICTIONARYVAR
  5
246C
102
{ACAD_REACTORS
330
E38
102
}
330
E38
100
DictionaryVariables
280
     0
  1
0.261799
  0
DICTIONARYVAR
  5
246A
102
{ACAD_REACTORS
330
E38
102
}
330
E38
100
DictionaryVariables
280
     0
  1
0.400000
  0
DICTIONARYVAR
  5
246B
102
{ACAD_REACTORS
330
E38
102
}
330
E38
100
DictionaryVariables
280
     0
  1
0.250000
  0
DICTIONARYVAR
  5
246D
102
{ACAD_REACTORS
330
E38
102
}
330
E38
100
DictionaryVariables
280
     0
  1
1
  0
DICTIONARY
  5
596F
330
279
100
AcDbDictionary
280
     1
281
     1
  3
ACAD_ROUNDTRIP_2008_TABLESTYLE_CELLSTYLEMAP
360
5970
  0
CELLSTYLEMAP
  5
5970
102
{ACAD_REACTORS
330
596F
102
}
330
596F
100
AcDbCellStyleMap
 90
        3
300
CELLSTYLE
  1
TABLEFORMAT_BEGIN
 90
        5
170
     1
 91
        0
 92
    32768
 62
   257
 93
        1
300
CONTENTFORMAT
  1
CONTENTFORMAT_BEGIN
 90
        0
 91
        0
 92
        4
 93
        0
300

 40
0.0
140
1.0
 94
        5
 62
     0
340
17
144
6.0
309
CONTENTFORMAT_END
171
     1
301
MARGIN
  1
CELLMARGIN_BEGIN
 40
0.06
 40
0.06
 40
0.06
 40
0.06
 40
0.18
 40
0.18
309
CELLMARGIN_END
 94
        6
 95
        1
302
GRIDFORMAT
  1
GRIDFORMAT_BEGIN
 90
        0
 91
        1
 62
     0
 92
       -2
340
0
 93
        0
 40
0.045
309
GRIDFORMAT_END
 95
        2
302
GRIDFORMAT
  1
GRIDFORMAT_BEGIN
 90
        0
 91
        1
 62
     0
 92
       -2
340
0
 93
        0
 40
0.045
309
GRIDFORMAT_END
 95
        4
302
GRIDFORMAT
  1
GRIDFORMAT_BEGIN
 90
        0
 91
        1
 62
     0
 92
       -2
340
0
 93
        0
 40
0.045
309
GRIDFORMAT_END
 95
        8
302
GRIDFORMAT
  1
GRIDFORMAT_BEGIN
 90
        0
 91
        1
 62
     0
 92
       -2
340
0
 93
        0
 40
0.045
309
GRIDFORMAT_END
 95
       16
302
GRIDFORMAT
  1
GRIDFORMAT_BEGIN
 90
        0
 91
        1
 62
     0
 92
       -2
340
0
 93
        0
 40
0.045
309
GRIDFORMAT_END
 95
       32
302
GRIDFORMAT
  1
GRIDFORMAT_BEGIN
 90
        0
 91
        1
 62
     0
 92
       -2
340
0
 93
        0
 40
0.045
309
GRIDFORMAT_END
309
TABLEFORMAT_END
  1
CELLSTYLE_BEGIN
 90
        1
 91
        1
300
_TITLE
309
CELLSTYLE_END
300
CELLSTYLE
  1
TABLEFORMAT_BEGIN
 90
        5
170
     1
 91
        0
 92
        0
 62
   257
 93
        1
300
CONTENTFORMAT
  1
CONTENTFORMAT_BEGIN
 90
        0
 91
        0
 92
        4
 93
        0
300

 40
0.0
140
1.0
 94
        5
 62
     0
340
17
144
4.5
309
CONTENTFORMAT_END
171
     1
301
MARGIN
  1
CELLMARGIN_BEGIN
 40
0.06
 40
0.06
 40
0.06
 40
0.06
 40
0.18
 40
0.18
309
CELLMARGIN_END
 94
        6
 95
        1
302
GRIDFORMAT
  1
GRIDFORMAT_BEGIN
 90
        0
 91
        1
 62
     0
 92
       -2
340
0
 93
        0
 40
0.045
309
GRIDFORMAT_END
 95
        2
302
GRIDFORMAT
  1
GRIDFORMAT_BEGIN
 90
        0
 91
        1
 62
     0
 92
       -2
340
0
 93
        0
 40
0.045
309
GRIDFORMAT_END
 95
        4
302
GRIDFORMAT
  1
GRIDFORMAT_BEGIN
 90
        0
 91
        1
 62
     0
 92
       -2
340
0
 93
        0
 40
0.045
309
GRIDFORMAT_END
 95
        8
302
GRIDFORMAT
  1
GRIDFORMAT_BEGIN
 90
        0
 91
        1
 62
     0
 92
       -2
340
0
 93
        0
 40
0.045
309
GRIDFORMAT_END
 95
       16
302
GRIDFORMAT
  1
GRIDFORMAT_BEGIN
 90
        0
 91
        1
 62
     0
 92
       -2
340
0
 93
        0
 40
0.045
309
GRIDFORMAT_END
 95
       32
302
GRIDFORMAT
  1
GRIDFORMAT_BEGIN
 90
        0
 91
        1
 62
     0
 92
       -2
340
0
 93
        0
 40
0.045
309
GRIDFORMAT_END
309
TABLEFORMAT_END
  1
CELLSTYLE_BEGIN
 90
        2
 91
        1
300
_HEADER
309
CELLSTYLE_END
300
CELLSTYLE
  1
TABLEFORMAT_BEGIN
 90
        5
170
     1
 91
        0
 92
        0
 62
   257
 93
        1
300
CONTENTFORMAT
  1
CONTENTFORMAT_BEGIN
 90
        0
 91
        0
 92
        4
 93
        0
300

 40
0.0
140
1.0
 94
        2
 62
     0
340
17
144
4.5
309
CONTENTFORMAT_END
171
     1
301
MARGIN
  1
CELLMARGIN_BEGIN
 40
0.06
 40
0.06
 40
0.06
 40
0.06
 40
0.18
 40
0.18
309
CELLMARGIN_END
 94
        6
 95
        1
302
GRIDFORMAT
  1
GRIDFORMAT_BEGIN
 90
        0
 91
        1
 62
     0
 92
       -2
340
0
 93
        0
 40
0.045
309
GRIDFORMAT_END
 95
        2
302
GRIDFORMAT
  1
GRIDFORMAT_BEGIN
 90
        0
 91
        1
 62
     0
 92
       -2
340
0
 93
        0
 40
0.045
309
GRIDFORMAT_END
 95
        4
302
GRIDFORMAT
  1
GRIDFORMAT_BEGIN
 90
        0
 91
        1
 62
     0
 92
       -2
340
0
 93
        0
 40
0.045
309
GRIDFORMAT_END
 95
        8
302
GRIDFORMAT
  1
GRIDFORMAT_BEGIN
 90
        0
 91
        1
 62
     0
 92
       -2
340
0
 93
        0
 40
0.045
309
GRIDFORMAT_END
 95
       16
302
GRIDFORMAT
  1
GRIDFORMAT_BEGIN
 90
        0
 91
        1
 62
     0
 92
       -2
340
0
 93
        0
 40
0.045
309
GRIDFORMAT_END
 95
       32
302
GRIDFORMAT
  1
GRIDFORMAT_BEGIN
 90
        0
 91
        1
 62
     0
 92
       -2
340
0
 93
        0
 40
0.045
309
GRIDFORMAT_END
309
TABLEFORMAT_END
  1
CELLSTYLE_BEGIN
 90
        3
 91
        2
300
_DATA
309
CELLSTYLE_END
  0
ENDSEC
  0
EOF
