  0
SECTION
  2
HEADER
  9
$ACADVER
  1
AC1015
  9
$ACADMAINTVER
 70
               6
  9
$DWGCODEPAGE
  3
ANSI_932
  9
$INSBASE
 10
0.0
 20
0.0
 30
0.0
  9
$EXTMIN
 10
-975.00000000024102
 20
-1431.5255224711132
 30
-14.834305555555556
  9
$EXTMAX
 10
975.00000000024124
 20
1405.9972926412995
 30
14.834305555555556
  9
$LIMMIN
 10
0.0
 20
0.0
  9
$LIMMAX
 10
0.0
 20
0.0
  9
$ORTHOMODE
 70
               0
  9
$REGENMODE
 70
               1
  9
$FILLMODE
 70
               1
  9
$QTEXTMODE
 70
               0
  9
$MIRRTEXT
 70
               1
  9
$LTSCALE
 40
50.799999999999997
  9
$ATTMODE
 70
               1
  9
$TEXTSIZE
 40
0.2
  9
$TRACEWID
 40
1.0
  9
$TEXTSTYLE
  7
Standard
  9
$CLAYER
  8
AAA70-0202+AAA75-0201
  9
$CELTYPE
  6
Continuous
  9
$CECOLOR
 62
             256
  9
$CELTSCALE
 40
1.0
  9
$DISPSILH
 70
               0
  9
$DIMSCALE
 40
1.0
  9
$DIMASZ
 40
31.75
  9
$DIMEXO
 40
0.0
  9
$DIMDLI
 40
6.9999999999999396
  9
$DIMRND
 40
0.0
  9
$DIMDLE
 40
0.0
  9
$DIMEXE
 40
19.999999999996199
  9
$DIMTP
 40
0.0
  9
$DIMTM
 40
0.0
  9
$DIMTXT
 40
24.432617187500004
  9
$DIMCEN
 40
0.0
  9
$DIMTSZ
 40
0.0
  9
$DIMTOL
 70
               0
  9
$DIMLIM
 70
               0
  9
$DIMTIH
 70
               0
  9
$DIMTOH
 70
               0
  9
$DIMSE1
 70
               0
  9
$DIMSE2
 70
               0
  9
$DIMTAD
 70
               1
  9
$DIMZIN
 70
              11
  9
$DIMBLK
  1
VW_FILLEDARROW
  9
$DIMASO
 70
               1
  9
$DIMSHO
 70
               1
  9
$DIMPOST
  1
<>
  9
$DIMAPOST
  1
[]
  9
$DIMALT
 70
               0
  9
$DIMALTD
 70
               1
  9
$DIMALTF
 40
1.0
  9
$DIMLFAC
 40
1.0
  9
$DIMTOFL
 70
               0
  9
$DIMTVP
 40
0.0
  9
$DIMTIX
 70
               1
  9
$DIMSOXD
 70
               0
  9
$DIMSAH
 70
               0
  9
$DIMBLK1
  1

  9
$DIMBLK2
  1

  9
$DIMSTYLE
  2
JIS
  9
$DIMCLRD
 70
               0
  9
$DIMCLRE
 70
               0
  9
$DIMCLRT
 70
               0
  9
$DIMTFAC
 40
1.0
  9
$DIMGAP
 40
1.00000000000108
  9
$DIMJUST
 70
               0
  9
$DIMSD1
 70
               0
  9
$DIMSD2
 70
               0
  9
$DIMTOLJ
 70
               1
  9
$DIMTZIN
 70
              11
  9
$DIMALTZ
 70
              11
  9
$DIMALTTZ
 70
              11
  9
$DIMUPT
 70
               0
  9
$DIMDEC
 70
               1
  9
$DIMTDEC
 70
               1
  9
$DIMALTU
 70
               2
  9
$DIMALTTD
 70
               2
  9
$DIMTXSTY
  7
ＭＳ ゴシック
  9
$DIMAUNIT
 70
               0
  9
$DIMADEC
 70
               2
  9
$DIMALTRND
 40
0.0
  9
$DIMAZIN
 70
               0
  9
$DIMDSEP
 70
              46
  9
$DIMATFIT
 70
               0
  9
$DIMFRAC
 70
               2
  9
$DIMLDRBLK
  1

  9
$DIMLUNIT
 70
               2
  9
$DIMLWD
 70
              -2
  9
$DIMLWE
 70
              -2
  9
$DIMTMOVE
 70
               0
  9
$LUNITS
 70
               2
  9
$LUPREC
 70
               4
  9
$SKETCHINC
 40
0.1
  9
$FILLETRAD
 40
0.0
  9
$AUNITS
 70
               0
  9
$AUPREC
 70
               0
  9
$MENU
  1
acad
  9
$ELEVATION
 40
0.0
  9
$PELEVATION
 40
0.0
  9
$THICKNESS
 40
0.0
  9
$LIMCHECK
 70
               0
  9
$CHAMFERA
 40
0.0
  9
$CHAMFERB
 40
0.0
  9
$CHAMFERC
 40
0.0
  9
$CHAMFERD
 40
0.0
  9
$SKPOLY
 70
               0
  9
$TDCREATE
 40
2455727.423680556
  9
$TDUCREATE
 40
0.000000000
  9
$TDUPDATE
 40
2455727.423680556
  9
$TDUUPDATE
 40
0.000000000
  9
$TDINDWG
 40
0.0000000000
  9
$TDUSRTIMER
 40
0.0000000000
  9
$USRTIMER
 70
               1
  9
$ANGBASE
 50
0.0
  9
$ANGDIR
 70
               0
  9
$PDMODE
 70
               1
  9
$PDSIZE
 40
-2.0
  9
$PLINEWID
 40
0.0
  9
$SPLFRAME
 70
               0
  9
$SPLINETYPE
 70
               6
  9
$SPLINESEGS
 70
               8
  9
$HANDSEED
  5
306
  9
$SURFTAB1
 70
               6
  9
$SURFTAB2
 70
               6
  9
$SURFTYPE
 70
               6
  9
$SURFU
 70
               6
  9
$SURFV
 70
               6
  9
$UCSBASE
  2

  9
$UCSNAME
  2

  9
$UCSORG
 10
0.0
 20
0.0
 30
0.0
  9
$UCSXDIR
 10
1.0
 20
0.0
 30
0.0
  9
$UCSYDIR
 10
0.0
 20
1.0
 30
0.0
  9
$UCSORTHOREF
  2

  9
$UCSORTHOVIEW
 70
               0
  9
$UCSORGTOP
 10
0.0
 20
0.0
 30
0.0
  9
$UCSORGBOTTOM
 10
0.0
 20
0.0
 30
0.0
  9
$UCSORGLEFT
 10
0.0
 20
0.0
 30
0.0
  9
$UCSORGRIGHT
 10
0.0
 20
0.0
 30
0.0
  9
$UCSORGFRONT
 10
0.0
 20
0.0
 30
0.0
  9
$UCSORGBACK
 10
0.0
 20
0.0
 30
0.0
  9
$PUCSBASE
  2

  9
$PUCSNAME
  2

  9
$PUCSORG
 10
0.0
 20
0.0
 30
0.0
  9
$PUCSXDIR
 10
1.0
 20
0.0
 30
0.0
  9
$PUCSYDIR
 10
0.0
 20
1.0
 30
0.0
  9
$PUCSORTHOREF
  2

  9
$PUCSORTHOVIEW
 70
               0
  9
$PUCSORGTOP
 10
0.0
 20
0.0
 30
0.0
  9
$PUCSORGBOTTOM
 10
0.0
 20
0.0
 30
0.0
  9
$PUCSORGLEFT
 10
0.0
 20
0.0
 30
0.0
  9
$PUCSORGRIGHT
 10
0.0
 20
0.0
 30
0.0
  9
$PUCSORGFRONT
 10
0.0
 20
0.0
 30
0.0
  9
$PUCSORGBACK
 10
0.0
 20
0.0
 30
0.0
  9
$USERI1
 70
               0
  9
$USERI2
 70
               0
  9
$USERI3
 70
               0
  9
$USERI4
 70
               0
  9
$USERI5
 70
               0
  9
$USERR1
 40
0.0
  9
$USERR2
 40
0.0
  9
$USERR3
 40
0.0
  9
$USERR4
 40
0.0
  9
$USERR5
 40
0.0
  9
$WORLDVIEW
 70
               1
  9
$SHADEDGE
 70
               3
  9
$SHADEDIF
 70
              70
  9
$TILEMODE
 70
               1
  9
$MAXACTVP
 70
              64
  9
$PINSBASE
 10
0.0
 20
0.0
 30
0.0
  9
$PLIMCHECK
 70
               0
  9
$PEXTMIN
 10
1.0000000000000000E+20
 20
1.0000000000000000E+20
 30
1.0000000000000000E+20
  9
$PEXTMAX
 10
-1.0000000000000000E+20
 20
-1.0000000000000000E+20
 30
-1.0000000000000000E+20
  9
$PLIMMIN
 10
0.0
 20
0.0
  9
$PLIMMAX
 10
12.0
 20
9.0
  9
$UNITMODE
 70
               0
  9
$VISRETAIN
 70
               0
  9
$PLINEGEN
 70
               1
  9
$PSLTSCALE
 70
               0
  9
$TREEDEPTH
 70
            3020
  9
$CMLSTYLE
  2
Standard
  9
$CMLJUST
 70
               0
  9
$CMLSCALE
 40
1.0
  9
$PROXYGRAPHICS
 70
               0
  9
$MEASUREMENT
 70
               1
  9
$CELWEIGHT
370
               0
  9
$ENDCAPS
280
               0
  9
$JOINSTYLE
280
               0
  9
$LWDISPLAY
290
               1
  9
$INSUNITS
 70
               4
  9
$HYPERLINKBASE
  1

  9
$STYLESHEET
  1

  9
$XEDIT
290
               1
  9
$CEPSNTYPE
380
               0
  9
$PSTYLEMODE
290
               1
  9
$FINGERPRINTGUID
  2

  9
$VERSIONGUID
  2

  9
$EXTNAMES
290
               1
  9
$PSVPSCALE
 40
0.0
  0
ENDSEC
  0
SECTION
  2
CLASSES
  0
CLASS
  1
LWPOLYLINE
  2
AcDbPolyline
  3
AutoCAD 2000
 90
        0
280
               0
281
               1
  0
CLASS
  1
IMAGE
  2
AcDbRasterImage
  3
ISM
 90
      127
280
               0
281
               1
  0
CLASS
  1
OLE2FRAME
  2
AcDbOle2Frame
  3
AutoCAD 2000
 90
        0
280
               0
281
               1
  0
CLASS
  1
HATCH
  2
AcDbHatch
  3
AutoCAD 2000
 90
        0
280
               0
281
               1
  0
CLASS
  1
DICTIONARYVAR
  2
AcDbDictionaryVar
  3
AutoCAD 2000
 90
        0
280
               0
281
               0
  0
CLASS
  1
RASTERVARIABLES
  2
AcDbRasterVariables
  3
ISM
 90
        0
280
               0
281
               0
  0
CLASS
  1
IMAGEDEF
  2
AcDbRasterImageDef
  3
ISM
 90
        0
280
               0
281
               0
  0
CLASS
  1
IMAGEDEF_REACTOR
  2
AcDbRasterImageDefReactor
  3
ISM
 90
        1
280
               0
281
               0
  0
CLASS
  1
IDBUFFER
  2
AcDbIdBuffer
  3
AutoCAD 2000
 90
        0
280
               0
281
               0
  0
CLASS
  1
SPATIAL_FILTER
  2
AcDbSpatialFilter
  3
AutoCAD 2000
 90
        0
280
               0
281
               0
  0
CLASS
  1
XRECORD
  2
AcDbXrecord
  3
AutoCAD 2000
 90
        0
280
               0
281
               0
  0
CLASS
  1
SORTENTSTABLE
  2
AcDbSortentsTable
  3
AutoCAD 2000
 90
        0
280
               0
281
               0
  0
CLASS
  1
LAYER_INDEX
  2
AcDbLayerIndex
  3
AutoCAD 2000
 90
        0
280
               0
281
               0
  0
CLASS
  1
SPATIAL_INDEX
  2
AcDbSpatialIndex
  3
AutoCAD 2000
 90
        0
280
               0
281
               0
  0
CLASS
  1
OBJECT_PTR
  2
CAseDLPNTableRecord
  3
"ASE-LPNTableRecord"
 90
        1
280
               0
281
               0
  0
CLASS
  1
LAYOUT
  2
AcDbLayout
  3
AutoCAD 2000
 90
        0
280
               0
281
               0
  0
CLASS
  1
PLOTSETTINGS
  2
AcDbPlotSettings
  3
AutoCAD 2000
 90
        0
280
               0
281
               0
  0
CLASS
  1
ACDBDICTIONARYWDFLT
  2
AcDbDictionaryWithDefault
  3
AutoCAD 2000
 90
        0
280
               0
281
               0
  0
CLASS
  1
ACDBPLACEHOLDER
  2
AcDbPlaceHolder
  3
AutoCAD 2000
 90
        0
280
               0
281
               0
  0
ENDSEC
  0
SECTION
  2
TABLES
  0
TABLE
  2
VPORT
  5
7
100
AcDbSymbolTable
 70
               1
  0
VPORT
  5
15
100
AcDbSymbolTableRecord
100
AcDbViewportTableRecord
  2
*ACTIVE
 70
               0
 10
0.0
 20
0.0
 11
1.0
 21
1.0
 12
0.0000000000001137
 22
-12.764114914906713
 13
0.0
 23
0.0
 14
1.0
 24
1.0
 15
0.0
 25
0.0
 16
0.0
 26
0.0
 36
1.0
 17
0.0
 27
0.0
 37
0.0
 40
2837.5228151124129
 41
0.688564
 42
50.0
 43
0.0
 44
0.0
 50
0.0
 51
0.0
 71
               0
 72
            2000
 73
               1
 74
               1
 75
               0
 76
               0
 77
               0
 78
               0
281
               0
 65
               0
110
0.0
120
0.0
130
0.0
111
1.0
121
0.0
131
0.0
112
0.0
122
1.0
132
0.0
345
0
346
0
 79
               0
146
0.0
  0
ENDTAB
  0
TABLE
  2
LTYPE
  5
4
100
AcDbSymbolTable
 70
              17
  0
LTYPE
  5
11
100
AcDbSymbolTableRecord
100
AcDbLinetypeTableRecord
  2
ByBlock
 70
              64
  3

 72
              65
 73
               0
 40
0.0
  0
LTYPE
  5
12
100
AcDbSymbolTableRecord
100
AcDbLinetypeTableRecord
  2
ByLayer
 70
              64
  3

 72
              65
 73
               0
 40
0.0
  0
LTYPE
  5
13
100
AcDbSymbolTableRecord
100
AcDbLinetypeTableRecord
  2
Continuous
 70
              64
  3
Solid line
 72
              65
 73
               0
 40
0.0
  0
LTYPE
  5
39
100
AcDbSymbolTableRecord
100
AcDbLinetypeTableRecord
  2
STYLE_01
 70
               0
  3

 72
              65
 73
               2
 40
0.0375
 49
0.025
 74
               0
 49
-0.0125
 74
               0
  0
LTYPE
  5
3A
100
AcDbSymbolTableRecord
100
AcDbLinetypeTableRecord
  2
STYLE_02
 70
               0
  3

 72
              65
 73
               2
 40
0.6944250000000001
 49
0.48607
 74
               0
 49
-0.2083550000000001
 74
               0
  0
LTYPE
  5
3B
100
AcDbSymbolTableRecord
100
AcDbLinetypeTableRecord
  2
STYLE_03
 70
               0
  3

 72
              65
 73
               2
 40
1.25
 49
1.0416400000000001
 74
               0
 49
-0.2083599999999999
 74
               0
  0
LTYPE
  5
3C
100
AcDbSymbolTableRecord
100
AcDbLinetypeTableRecord
  2
STYLE_04
 70
               0
  3

 72
              65
 73
               2
 40
1.5277099999999999
 49
1.3194249999999998
 74
               0
 49
-0.208285
 74
               0
  0
LTYPE
  5
3D
100
AcDbSymbolTableRecord
100
AcDbLinetypeTableRecord
  2
STYLE_05
 70
               0
  3

 72
              65
 73
               2
 40
0.20828
 49
0.069425
 74
               0
 49
-0.138855
 74
               0
  0
LTYPE
  5
3E
100
AcDbSymbolTableRecord
100
AcDbLinetypeTableRecord
  2
STYLE_06
 70
               0
  3

 72
              65
 73
               4
 40
1.0416400000000001
 49
0.625
 74
               0
 49
-0.20828
 74
               0
 49
0.06943
 74
               0
 49
-0.13893
 74
               0
  0
LTYPE
  5
3F
100
AcDbSymbolTableRecord
100
AcDbLinetypeTableRecord
  2
STYLE_07
 70
               0
  3

 72
              65
 73
               6
 40
1.875
 49
0.625
 74
               0
 49
-0.20828
 74
               0
 49
0.6250000000000001
 74
               0
 49
-0.2083599999999999
 74
               0
 49
0.06943
 74
               0
 49
-0.1389299999999999
 74
               0
  0
LTYPE
  5
40
100
AcDbSymbolTableRecord
100
AcDbLinetypeTableRecord
  2
STYLE_08
 70
               0
  3

 72
              65
 73
               6
 40
1.25
 49
0.625
 74
               0
 49
-0.20828
 74
               0
 49
0.06943
 74
               0
 49
-0.13893
 74
               0
 49
0.0694299999999999
 74
               0
 49
-0.13893
 74
               0
  0
LTYPE
  5
41
100
AcDbSymbolTableRecord
100
AcDbLinetypeTableRecord
  2
STYLE_09
 70
               0
  3

 72
              65
 73
               4
 40
5.0
 49
3.75
 74
               0
 49
-0.2777849999999998
 74
               0
 49
0.6944300000000003
 74
               0
 49
-0.2777849999999998
 74
               0
  0
LTYPE
  5
42
100
AcDbSymbolTableRecord
100
AcDbLinetypeTableRecord
  2
STYLE_10
 70
               0
  3

 72
              65
 73
               6
 40
5.9375
 49
3.75
 74
               0
 49
-0.2777849999999998
 74
               0
 49
0.6944300000000003
 74
               0
 49
-0.2777849999999998
 74
               0
 49
0.625
 74
               0
 49
-0.3125
 74
               0
  0
LTYPE
  5
43
100
AcDbSymbolTableRecord
100
AcDbLinetypeTableRecord
  2
STYLE_11
 70
               0
  3

 72
              65
 73
               2
 40
0.0694444881889764
 49
0.0347222440944882
 74
               0
 49
-0.0347222440944882
 74
               0
  0
LTYPE
  5
44
100
AcDbSymbolTableRecord
100
AcDbLinetypeTableRecord
  2
STYLE_12
 70
               0
  3

 72
              65
 73
               2
 40
0.3937007874015748
 49
0.1968503937007874
 74
               0
 49
-0.1968503937007874
 74
               0
  0
LTYPE
  5
45
100
AcDbSymbolTableRecord
100
AcDbLinetypeTableRecord
  2
STYLE_13
 70
               0
  3

 72
              65
 73
               2
 40
0.5905511811023622
 49
0.2952755905511811
 74
               0
 49
-0.2952755905511811
 74
               0
  0
LTYPE
  5
46
100
AcDbSymbolTableRecord
100
AcDbLinetypeTableRecord
  2
STYLE_14
 70
               0
  3

 72
              65
 73
               2
 40
1.9685039370078738
 49
0.9842519685039369
 74
               0
 49
-0.9842519685039369
 74
               0
  0
ENDTAB
  0
TABLE
  2
LAYER
  5
2
100
AcDbSymbolTable
 70
               5
  0
LAYER
  5
14
100
AcDbSymbolTableRecord
100
AcDbLayerTableRecord
  2
0
 70
               0
 62
               7
  6
Continuous
290
               1
370
              -3
390
1D
  0
LAYER
  5
47
100
AcDbSymbolTableRecord
100
AcDbLayerTableRecord
  2
Defpoints
 70
               0
 62
               7
  6
Continuous
290
               0
370
              -3
390
1D
  0
LAYER
  5
48
100
AcDbSymbolTableRecord
100
AcDbLayerTableRecord
  2
template
 70
               0
 62
               7
  6
Continuous
290
               1
370
              -3
390
1D
  0
LAYER
  5
49
100
AcDbSymbolTableRecord
100
AcDbLayerTableRecord
  2
notes
 70
               0
 62
               7
  6
Continuous
290
               1
370
              -3
390
1D
  0
LAYER
  5
4A
100
AcDbSymbolTableRecord
100
AcDbLayerTableRecord
  2
AAA70-0202+AAA75-0201
 70
               0
 62
               7
  6
Continuous
290
               1
370
              -3
390
1D
  0
ENDTAB
  0
TABLE
  2
STYLE
  5
3
100
AcDbSymbolTable
 70
               2
  0
STYLE
  5
17
100
AcDbSymbolTableRecord
100
AcDbTextStyleTableRecord
  2
Standard
 70
               0
 40
0.0
 41
1.0
 50
0.0
 71
               0
 42
0.0
  3
txt
  4
BIGFONT.SHX
  0
STYLE
  5
38
100
AcDbSymbolTableRecord
100
AcDbTextStyleTableRecord
  2
ＭＳ ゴシック
 70
               0
 40
0.0
 41
1.0
 50
0.0
 71
               0
 42
0.0
  3

  4
ＭＳ ゴシック
1001
ACAD
1000
ＭＳ ゴシック
1071
        0
  0
ENDTAB
  0
TABLE
  2
VIEW
  5
5
100
AcDbSymbolTable
 70
               0
  0
ENDTAB
  0
TABLE
  2
UCS
  5
6
100
AcDbSymbolTable
 70
               0
  0
ENDTAB
  0
TABLE
  2
APPID
  5
8
100
AcDbSymbolTable
 70
               1
  0
APPID
  5
16
100
AcDbSymbolTableRecord
100
AcDbRegAppTableRecord
  2
ACAD
 70
               0
  0
ENDTAB
  0
TABLE
  2
DIMSTYLE
  5
9
100
AcDbSymbolTable
 70
               3
100
AcDbDimStyleTable
 71
               0
  0
DIMSTYLE
105
18
100
AcDbSymbolTableRecord
100
AcDbDimStyleTableRecord
  2
Standard
 70
               0
  3

  4

 40
1.0
 41
0.18
 42
0.0625
 43
0.38
 44
0.18
 45
0.0
 46
0.0
 47
0.0
 48
0.0
 71
               0
 72
               0
 73
               1
 74
               1
 75
               0
 76
               0
 77
               0
 78
               0
 79
               0
140
0.18
141
0.09
142
0.0
143
25.399999999999999
144
1.0
145
0.0
146
1.0
147
0.09
148
0.0
170
               0
171
               2
172
               0
173
               0
174
               0
175
               0
176
               0
177
               0
178
               0
179
               0
271
               4
272
               4
273
               2
274
               2
275
               0
276
               0
277
               2
278
              46
279
               0
280
               0
281
               0
282
               0
283
               1
284
               0
285
               0
286
               0
288
               0
289
               3
340
17
341
0
342
0
343
0
344
0
371
              -2
372
              -2
  0
DIMSTYLE
105
53
100
AcDbSymbolTableRecord
100
AcDbDimStyleTableRecord
  2
tfrom線あり
 70
               0
  3
<>
  4
[]
 40
1.0
 41
3.999755859375
 42
24.999999999999996
 43
0.9999999999999999
 44
0.0
 45
0.0
 46
0.0
 47
0.0
 48
0.0
 71
               0
 72
               0
 73
               0
 74
               0
 75
               0
 76
               0
 77
               1
 78
              11
 79
               0
140
24.432617187500004
141
0.0
142
0.0
143
1.0
144
1.0
145
0.0
146
1.0
147
0.4999999999999999
148
0.0
170
               0
171
               1
172
               0
173
               0
174
               1
175
               0
176
               0
177
               0
178
               0
179
               2
271
               1
272
               1
273
               2
274
               2
275
               0
276
               2
277
               2
278
              46
279
               0
280
               0
281
               0
282
               0
283
               1
284
              11
285
              11
286
              11
288
               0
289
               0
340
38
341
4B
342
4B
343
0
344
0
371
              -2
372
              -2
  0
DIMSTYLE
105
58
100
AcDbSymbolTableRecord
100
AcDbDimStyleTableRecord
  2
JIS
 70
               0
  3
<>
  4
[]
 40
1.0
 41
31.75
 42
0.0
 43
6.9999999999999396
 44
19.999999999996199
 45
0.0
 46
0.0
 47
0.0
 48
0.0
 71
               0
 72
               0
 73
               0
 74
               0
 75
               0
 76
               0
 77
               1
 78
              11
 79
               0
140
24.432617187500004
141
0.0
142
0.0
143
1.0
144
1.0
145
0.0
146
1.0
147
1.00000000000108
148
0.0
170
               0
171
               1
172
               0
173
               0
174
               1
175
               0
176
               0
177
               0
178
               0
179
               2
271
               1
272
               1
273
               2
274
               2
275
               0
276
               2
277
               2
278
              46
279
               0
280
               0
281
               0
282
               0
283
               1
284
              11
285
              11
286
              11
288
               0
289
               0
340
38
341
54
342
54
343
0
344
0
371
              -2
372
              -2
  0
ENDTAB
  0
TABLE
  2
BLOCK_RECORD
  5
1
100
AcDbSymbolTable
 70
              23
  0
BLOCK_RECORD
  5
A
100
AcDbSymbolTableRecord
100
AcDbBlockTableRecord
  2
*MODEL_SPACE
340
20
  0
BLOCK_RECORD
  5
B
100
AcDbSymbolTableRecord
100
AcDbBlockTableRecord
  2
*PAPER_SPACE
340
21
  0
BLOCK_RECORD
  5
4B
100
AcDbSymbolTableRecord
100
AcDbBlockTableRecord
  2
_DOT
340
0
  0
BLOCK_RECORD
  5
54
100
AcDbSymbolTableRecord
100
AcDbBlockTableRecord
  2
VW_FILLEDARROW
340
0
  0
BLOCK_RECORD
  5
23
100
AcDbSymbolTableRecord
100
AcDbBlockTableRecord
  2
グループ
340
0
102
{BLKREFS
331
16B
102
}
  0
BLOCK_RECORD
  5
24
100
AcDbSymbolTableRecord
100
AcDbBlockTableRecord
  2
*D3
340
0
  0
BLOCK_RECORD
  5
25
100
AcDbSymbolTableRecord
100
AcDbBlockTableRecord
  2
*D4
340
0
  0
BLOCK_RECORD
  5
26
100
AcDbSymbolTableRecord
100
AcDbBlockTableRecord
  2
*D5
340
0
  0
BLOCK_RECORD
  5
27
100
AcDbSymbolTableRecord
100
AcDbBlockTableRecord
  2
*D6
340
0
  0
BLOCK_RECORD
  5
28
100
AcDbSymbolTableRecord
100
AcDbBlockTableRecord
  2
*D7
340
0
  0
BLOCK_RECORD
  5
29
100
AcDbSymbolTableRecord
100
AcDbBlockTableRecord
  2
*D8
340
0
  0
BLOCK_RECORD
  5
2A
100
AcDbSymbolTableRecord
100
AcDbBlockTableRecord
  2
*D9
340
0
  0
BLOCK_RECORD
  5
2B
100
AcDbSymbolTableRecord
100
AcDbBlockTableRecord
  2
*D10
340
0
  0
BLOCK_RECORD
  5
2C
100
AcDbSymbolTableRecord
100
AcDbBlockTableRecord
  2
*D11
340
0
  0
BLOCK_RECORD
  5
2D
100
AcDbSymbolTableRecord
100
AcDbBlockTableRecord
  2
*D12
340
0
  0
BLOCK_RECORD
  5
2E
100
AcDbSymbolTableRecord
100
AcDbBlockTableRecord
  2
*D13
340
0
  0
BLOCK_RECORD
  5
2F
100
AcDbSymbolTableRecord
100
AcDbBlockTableRecord
  2
*D14
340
0
  0
BLOCK_RECORD
  5
30
100
AcDbSymbolTableRecord
100
AcDbBlockTableRecord
  2
*D15
340
0
  0
BLOCK_RECORD
  5
31
100
AcDbSymbolTableRecord
100
AcDbBlockTableRecord
  2
*D16
340
0
  0
BLOCK_RECORD
  5
32
100
AcDbSymbolTableRecord
100
AcDbBlockTableRecord
  2
*D17
340
0
  0
BLOCK_RECORD
  5
33
100
AcDbSymbolTableRecord
100
AcDbBlockTableRecord
  2
*D18
340
0
  0
BLOCK_RECORD
  5
34
100
AcDbSymbolTableRecord
100
AcDbBlockTableRecord
  2
*D19
340
0
  0
BLOCK_RECORD
  5
35
100
AcDbSymbolTableRecord
100
AcDbBlockTableRecord
  2
*D20
340
0
  0
BLOCK_RECORD
  5
36
100
AcDbSymbolTableRecord
100
AcDbBlockTableRecord
  2
*D21
340
0
  0
BLOCK_RECORD
  5
37
100
AcDbSymbolTableRecord
100
AcDbBlockTableRecord
  2
*D22
340
0
  0
ENDTAB
  0
ENDSEC
  0
SECTION
  2
BLOCKS
  0
BLOCK
  5
D
100
AcDbEntity
  8
0
390
0
100
AcDbBlockBegin
  2
*MODEL_SPACE
 70
               0
 10
0.0
 20
0.0
 30
0.0
  3
*MODEL_SPACE
  1

  0
ENDBLK
  5
E
100
AcDbEntity
  8
0
390
0
100
AcDbBlockEnd
  0
BLOCK
  5
F
100
AcDbEntity
 67
               1
  8
0
390
0
100
AcDbBlockBegin
  2
*PAPER_SPACE
 70
               0
 10
0.0
 20
0.0
 30
0.0
  3
*PAPER_SPACE
  1

  0
ENDBLK
  5
10
100
AcDbEntity
 67
               1
  8
0
390
0
100
AcDbBlockEnd
  0
BLOCK
  5
4C
100
AcDbEntity
  8
0
390
0
100
AcDbBlockBegin
  2
_DOT
 70
               0
 10
0.0
 20
0.0
 30
0.0
  3
_DOT
  1

  0
POLYLINE
  5
4D
100
AcDbEntity
  8
0
370
              -2
390
0
  6
ByBlock
 62
               0
100
AcDb2dPolyline
 66
               1
 10
0.0
 20
0.0
 30
0.0
 70
               1
 40
0.5
 41
0.5
  0
VERTEX
  5
4E
100
AcDbEntity
  8
0
370
              -2
390
0
  6
ByBlock
 62
               0
100
AcDbVertex
100
AcDb2dVertex
 10
-0.25
 20
0.0
 30
0.0
 42
1.0
  0
VERTEX
  5
4F
100
AcDbEntity
  8
0
370
              -2
390
0
  6
ByBlock
 62
               0
100
AcDbVertex
100
AcDb2dVertex
 10
0.25
 20
0.0
 30
0.0
 42
1.0
  0
SEQEND
  5
50
100
AcDbEntity
  8
0
390
0
  0
LINE
  5
51
100
AcDbEntity
  8
0
370
              -2
390
0
  6
ByBlock
 62
               0
100
AcDbLine
 10
-0.5
 20
0.0
 30
0.0
 11
-1.0
 21
0.0
 31
0.0
  0
ENDBLK
  5
52
100
AcDbEntity
  8
0
390
0
100
AcDbBlockEnd
  0
BLOCK
  5
55
100
AcDbEntity
  8
0
370
              -2
390
0
  6
ByBlock
 62
               0
100
AcDbBlockBegin
  2
VW_FILLEDARROW
 70
               0
 10
0.0
 20
0.0
 30
0.0
  3
VW_FILLEDARROW
  1

  0
SOLID
  5
56
100
AcDbEntity
  8
0
370
              -2
390
0
 62
               0
100
AcDbTrace
 10
0.0
 20
0.0
 30
0.0
 11
-0.9921874999999999
 21
-0.2658558393652545
 31
0.0
 12
-0.9921874999999999
 22
0.2658558393652548
 32
0.0
 13
-0.9921874999999999
 23
0.2658558393652548
 33
0.0
  0
ENDBLK
  5
57
100
AcDbEntity
  8
0
390
0
100
AcDbBlockEnd
  0
BLOCK
  5
59
100
AcDbEntity
  8
template
390
0
100
AcDbBlockBegin
  2
グループ
 70
               0
 10
0.0
 20
0.0
 30
0.0
  3
グループ
  1

  0
LWPOLYLINE
  5
5A
100
AcDbEntity
  8
0
370
              15
390
0
  6
Continuous
 62
               7
100
AcDbPolyline
 90
        8
 70
             129
 10
-1212.5714921969252
 20
-2819.4897210236859
 10
-1212.5714921969252
 20
-2825.4871097172618
 10
-1222.0726891149284
 20
-2825.4871097172618
 10
-1222.0726891149284
 20
-2849.9380729807708
 10
-1230.4280663767113
 20
-2849.9380729807708
 10
-1230.4280663767113
 20
-2825.4871097172618
 10
-1239.7610233230207
 20
-2825.4871097172618
 10
-1239.7610233230207
 20
-2819.4897210236859
  0
LWPOLYLINE
  5
5B
100
AcDbEntity
  8
0
370
              15
390
0
  6
Continuous
 62
               7
100
AcDbPolyline
 90
      101
 70
             128
 10
-1199.8432003663684
 20
-2820.2179695166224
 10
-1199.82785033758
 20
-2820.2136087599365
 42
-0.0222221607813707
 10
-1199.5378457609122
 20
-2820.1449842946927
 10
-1199.5220519969189
 20
-2820.1419808715955
 42
-0.014688356558648
 10
-1199.2593492916944
 20
-2820.0999776846465
 42
-0.012745884418496
 10
-1198.9947103245397
 20
-2820.0724407165735
 10
-1198.9322552462286
 20
-2820.0675472939856
 42
-0.0198099018567585
 10
-1198.5414061367585
 20
-2820.0524621365889
 10
-1198.489594667308
 20
-2820.052515912254
 42
-0.0147617382760588
 10
-1197.9949712063246
 20
-2820.0676359374993
 10
-1197.922279751464
 20
-2820.0720085443863
 42
-0.0162624549000291
 10
-1197.5321261219942
 20
-2820.108241419659
 10
-1197.4105937307186
 20
-2820.1235279786574
 42
-0.0080020874664922
 10
-1197.2650146996434
 20
-2820.1442108259239
 10
-1197.2266952290865
 20
-2820.1502821037288
 42
-0.0053821929676822
 10
-1197.1582111237335
 20
-2820.1618896275568
 10
-1197.8846168229322
 20
-2822.3428180832707
 42
0.010866775738844
 10
-1197.9519338930645
 20
-2822.3296309680504
 10
-1197.9894019162525
 20
-2822.3231332254563
 42
0.017066320331549
 10
-1198.1326187031757
 20
-2822.3033036281636
 10
-1198.2004940358511
 20
-2822.2962564575769
 42
0.0220162375278542
 10
-1198.4808734437026
 20
-2822.2795740968068
 10
-1198.5587290107612
 20
-2822.2783747295398
 42
0.0282606915784004
 10
-1198.8943653343363
 20
-2822.2921780065089
 10
-1198.9382786081044
 20
-2822.2964779965123
 42
0.0169677213685564
 10
-1199.1842031030676
 20
-2822.3290150460653
 42
0.0190576269873002
 10
-1199.4271110656491
 20
-2822.379161918172
 10
-1199.4333702537585
 20
-2822.3807048922808
 42
0.0213685642844145
 10
-1199.683754738232
 20
-2822.4539051773841
 10
-1199.6892446331526
 20
-2822.4557681734445
 42
0.0237595297603112
 10
-1199.9427395180519
 20
-2822.5554526953406
 10
-1199.947841592081
 20
-2822.5577444708183
 42
0.0261857468815931
 10
-1200.2000123683113
 20
-2822.687280808193
 10
-1200.2104385573966
 20
-2822.6933462826605
 42
0.0272553062023782
 10
-1200.4468683326363
 20
-2822.8487184886053
 10
-1200.4816313461438
 20
-2822.8743796366957
 42
0.0325996893170546
 10
-1200.6317866897971
 20
-2823.001127509669
 10
-1200.6554961189227
 20
-2823.0239455381843
 42
0.0138050960614773
 10
-1200.7473792751305
 20
-2823.1173951997334
 42
0.0125280103804117
 10
-1200.8342218079597
 20
-2823.2155585263286
 10
-1200.8579022528725
 20
-2823.2437170245212
 42
0.0205218024739937
 10
-1200.9830023283866
 20
-2823.4055103387509
 10
-1201.0054686688732
 20
-2823.437170068577
 42
0.0163110129586555
 10
-1201.1611790481227
 20
-2823.6725005036442
 10
-1201.1639029441753
 20
-2823.6769242656324
 42
0.0131897341894687
 10
-1201.310703465082
 20
-2823.9300563579982
 10
-1201.3124035604478
 20
-2823.9331745971326
 42
0.0107895576053624
 10
-1201.450180262656
 20
-2824.1993898067626
 10
-1201.4509131521836
 20
-2824.2008840394142
 42
0.0091371507221883
 10
-1201.5793931008354
 20
-2824.4754092371786
 10
-1201.6091387322424
 20
-2824.5421157443325
 42
0.0135418326354703
 10
-1201.7808526713145
 20
-2824.9570535296025
 10
-1201.8144574797473
 20
-2825.0449196718796
 42
0.0092834542418064
 10
-1201.9856865396691
 20
-2825.5188181701878
 10
-1202.0113036673843
 20
-2825.5940592399743
 42
0.0054261043583794
 10
-1202.1189418156796
 20
-2825.9218232130465
 10
-1202.1364678018626
 20
-2825.9772113752938
 42
0.0008225090809422
 10
-1202.2051378536871
 20
-2826.1954801334259
 10
-1203.1898269856206
 20
-2829.2203714266825
 10
-1199.9572031455468
 20
-2829.2203714266825
 10
-1200.4613955754003
 20
-2831.1248497250344
 10
-1203.7174518573836
 20
-2831.1248497250344
 10
-1209.5466008897374
 20
-2849.9380727910393
 10
-1211.3716985000478
 20
-2849.9380727910393
 10
-1205.5370204645469
 20
-2831.1248497250344
 10
-1207.942136833587
 20
-2831.1248497250344
 10
-1207.4379444037336
 20
-2829.2203714266825
 10
-1205.0093955927837
 20
-2829.2203714266825
 10
-1204.1492406745951
 20
-2826.5839584259834
 42
-0.0005863560624464
 10
-1204.1125059963895
 20
-2826.467132005685
 10
-1204.036418162731
 20
-2826.2261397063062
 42
-0.008752237892494
 10
-1203.8369500192759
 20
-2825.6308636191648
 10
-1203.7446857438583
 20
-2825.3707234506396
 42
-0.007740095382555
 10
-1203.4867520847297
 20
-2824.6777187730986
 10
-1203.4709871131536
 20
-2824.6372878897196
 42
-0.0082369946332203
 10
-1203.2239026425389
 20
-2824.0332088235168
 42
-0.0085725238365565
 10
-1202.9566565465329
 20
-2823.4377827842231
 10
-1202.8550269455261
 20
-2823.2213616822391
 42
-0.0168109410588858
 10
-1202.5680825167988
 20
-2822.6601541561404
 10
-1202.4422391263629
 20
-2822.4331901231844
 42
-0.0007817726868767
 10
-1202.3879547762831
 20
-2822.3356458781118
 10
-1202.387826470276
 20
-2822.3354161693937
 42
-0.003662614215754
 10
-1202.3329386062444
 20
-2822.2388182894069
 42
-0.0080221150674661
 10
-1202.2758143508379
 20
-2822.1435390546544
 10
-1202.2451143994765
 20
-2822.0941481055315
 42
-0.0202139325569367
 10
-1202.1174586596692
 20
-2821.9061665048494
 10
-1202.0633911944822
 20
-2821.8330876406094
 42
-0.0249323791794401
 10
-1201.8042284007633
 20
-2821.517042398455
 10
-1201.7800885866359
 20
-2821.4904281255422
 42
-0.0242132121538608
 10
-1201.4404078450953
 20
-2821.1505446393394
 10
-1201.392496272342
 20
-2821.1070355031511
 42
-0.0251017527852394
 10
-1201.1085145717027
 20
-2820.8740427573875
 10
-1201.1070690948914
 20
-2820.8729734998105
 42
-0.0130868069033673
 10
-1200.8088084449316
 20
-2820.6641930312662
 10
-1200.8072466257906
 20
-2820.6631595909921
 42
-0.029032952638935
 10
-1200.4961354843956
 20
-2820.4823340893618
 10
-1200.4662899224063
 20
-2820.4672317065206
 42
-0.0160250190048339
 10
-1200.200385508645
 20
-2820.3432155963092
 42
-0.0267600374774479
 10
-1199.9251094311714
 20
-2820.2424672757593
 10
-1199.8983735116553
 20
-2820.234274716935
 42
-0.0049981587650601
 10
-1199.8432003663684
 20
-2820.2179695166224
 42
-0.0049981587650601
  0
LWPOLYLINE
  5
5C
100
AcDbEntity
  8
0
370
              15
390
0
  6
Continuous
 62
               7
100
AcDbPolyline
 90
      118
 70
             128
 10
-1180.0288328019215
 20
-2829.2943547545096
 10
-1178.1537108774219
 20
-2829.2943547545096
 10
-1178.9917497830218
 20
-2831.9759212809095
 42
-0.0010587229201984
 10
-1178.9602939674812
 20
-2831.9390167475913
 10
-1178.9020998768178
 20
-2831.8710344913789
 42
-0.0071874740405649
 10
-1178.7517246587167
 20
-2831.7003937993459
 10
-1178.6100018854577
 20
-2831.5441576580361
 42
-0.0148118053511988
 10
-1178.159872592747
 20
-2831.0765438120256
 10
-1178.0726502578402
 20
-2830.9911464911675
 42
-0.0086273358693892
 10
-1177.7371014568346
 20
-2830.6737708571536
 10
-1177.693267740608
 20
-2830.6337212128201
 42
-0.0103138323117853
 10
-1177.4352440383752
 20
-2830.407558075482
 10
-1177.3894696320494
 20
-2830.3690760282229
 42
-0.0060206748561565
 10
-1177.216621567936
 20
-2830.2272813774675
 10
-1177.2145904370568
 20
-2830.2256556718417
 42
-0.0067069027291482
 10
-1177.0422976223877
 20
-2830.0915050380413
 10
-1177.0397488564599
 20
-2830.0895748681646
 42
-0.0076184352054399
 10
-1176.8688435905901
 20
-2829.9641999929222
 42
-0.0089652861668304
 10
-1176.6938826278481
 20
-2829.844566732585
 10
-1176.6575309077025
 20
-2829.8206555191014
 42
-0.015691624593149
 10
-1176.4615714105505
 20
-2829.7003930326318
 42
-0.0023299011058912
 10
-1176.2613093665295
 20
-2829.5872150930682
 10
-1176.2459252341907
 20
-2829.5786150980266
 42
-0.0107669341474646
 10
-1176.0116884090871
 20
-2829.4542149646759
 10
-1175.9894236080145
 20
-2829.4429982147271
 42
-0.0078058045908418
 10
-1175.7058334900769
 20
-2829.3056367590957
 10
-1175.6959264023526
 20
-2829.3010276312202
 42
-0.0181829330466848
 10
-1175.3856169977312
 20
-2829.1701638901227
 10
-1175.3315615551671
 20
-2829.1496487701802
 42
-0.0208411536028567
 10
-1174.9824765877202
 20
-2829.0335583076881
 10
-1174.9681204875994
 20
-2829.0294398627366
 42
-0.0222799817148966
 10
-1174.6394006936755
 20
-2828.9507982965943
 10
-1174.6305117304369
 20
-2828.9490862860089
 42
-0.0215509523875768
 10
-1174.3140407621586
 20
-2828.9021705974747
 10
-1174.2715588011051
 20
-2828.8977330706834
 42
-0.0182545924863903
 10
-1174.0374500218045
 20
-2828.8818892452928
 10
-1173.9980490054593
 20
-2828.8806647002139
 42
-0.0072962856526667
 10
-1173.8421261257677
 20
-2828.8780953716914
 10
-1173.8130264552178
 20
-2828.8780405362877
 42
-0.00592275163198
 10
-1173.7152769560505
 20
-2828.8790142480784
 10
-1173.6860347384663
 20
-2828.8796520146839
 42
-0.0011833111938152
 10
-1173.6467834548462
 20
-2828.8806010189919
 10
-1174.4421700504533
 20
-2831.4193349640909
 42
0.0143932051674296
 10
-1174.468571432802
 20
-2831.4091359940462
 10
-1174.4758434052212
 20
-2831.4065647751881
 42
0.0234388603420021
 10
-1174.5176742711524
 20
-2831.393945539473
 10
-1174.526355934066
 20
-2831.3917645774677
 42
0.0199162742989605
 10
-1174.586644768146
 20
-2831.3791478421322
 10
-1174.6074587059522
 20
-2831.3756506427039
 42
0.0293643550687102
 10
-1174.7105335647157
 20
-2831.3645005970507
 10
-1174.7352187454317
 20
-2831.3632889800324
 42
0.0214606686879081
 10
-1174.8883596613923
 20
-2831.3623504196157
 10
-1174.8977315722022
 20
-2831.3626953311596
 42
0.0167564054187815
 10
-1175.0692517633065
 20
-2831.3747723735269
 10
-1175.0777115560695
 20
-2831.3756537139543
 42
0.0137677553234426
 10
-1175.2650648693427
 20
-2831.4004030224992
 10
-1175.2724166088419
 20
-2831.4015809424659
 42
0.0118497261496386
 10
-1175.4729143729435
 20
-2831.4385982926551
 10
-1175.4790643801907
 20
-2831.4398851553751
 42
0.0106421143876789
 10
-1175.6899452674743
 20
-2831.4887175309495
 10
-1175.6948540758647
 20
-2831.489964873635
 42
0.0099746379703482
 10
-1175.9133125450253
 20
-2831.5501394019489
 10
-1175.9748605851973
 20
-2831.5684212805804
 42
0.0191613675850078
 10
-1176.3108450477087
 20
-2831.6823986608656
 10
-1176.3989048204535
 20
-2831.7160855711891
 42
0.0205274080138301
 10
-1176.7842115923593
 20
-2831.881913979018
 10
-1176.8418608743441
 20
-2831.909581943592
 42
0.0181256912204255
 10
-1177.1001378150081
 20
-2832.0452657625683
 10
-1177.1530931983264
 20
-2832.0755833757853
 42
0.0140709242415724
 10
-1177.2980481329505
 20
-2832.1640780492171
 10
-1177.3242970015524
 20
-2832.1811348679216
 42
0.0086667884377647
 10
-1177.4132231631115
 20
-2832.2411375358156
 42
0.0036408192023418
 10
-1177.5006564011514
 20
-2832.3033183936127
 10
-1177.5358832756137
 20
-2832.3287593395207
 42
0.0052260781284618
 10
-1177.6921119729984
 20
-2832.4440917261504
 10
-1177.7083188292643
 20
-2832.4563198367732
 42
0.0050024435896513
 10
-1177.8943221723171
 20
-2832.5996024050305
 10
-1177.9096403288381
 20
-2832.6116484274808
 42
0.0136138710279836
 10
-1178.1200815971631
 20
-2832.7866149323941
 10
-1178.1537494729573
 20
-2832.8161939051088
 42
0.0172815186913331
 10
-1178.41815301462
 20
-2833.0651905777318
 10
-1178.4207153604623
 20
-2833.0677763948788
 42
0.0189403857984862
 10
-1178.6712971590412
 20
-2833.3405816596828
 10
-1178.7039286525796
 20
-2833.3789255911829
 42
0.0185044199512365
 10
-1178.8958850915574
 20
-2833.6221741723034
 42
0.0088565243903403
 10
-1179.0743451981855
 20
-2833.8756905924533
 10
-1179.0835231778342
 20
-2833.8892319722136
 42
0.0157195347233246
 10
-1179.2667437841699
 20
-2834.1787541815315
 10
-1179.3128267261013
 20
-2834.2569063785536
 42
0.009545187979076
 10
-1179.477912276237
 20
-2834.5495010209065
 10
-1179.4890601951668
 20
-2834.5701716930384
 42
0.010035170624677
 10
-1179.6211039443258
 20
-2834.8272272535296
 42
0.0086935915430618
 10
-1179.7434350961214
 20
-2835.0890603989374
 10
-1179.7467558375342
 20
-2835.0965027219054
 42
0.0072580174864718
 10
-1179.8671022894805
 20
-2835.3770947134917
 10
-1179.8703639227856
 20
-2835.3850147395065
 42
0.0060005122616704
 10
-1179.989564591127
 20
-2835.6846244101084
 10
-1179.9927755694698
 20
-2835.6929859380161
 42
0.0049017786982607
 10
-1180.1116757283269
 20
-2836.0119149186194
 10
-1180.1148415347179
 20
-2836.0206678558516
 42
0.0039415167605751
 10
-1180.2342778127761
 20
-2836.3592099182692
 10
-1180.2374089154266
 20
-2836.3683131191406
 42
0.0031035838771985
 10
-1180.3582137011135
 20
-2836.7267529808955
 10
-1180.36132374565
 20
-2836.7361736022885
 42
0.0025070747147588
 10
-1180.4842250969637
 20
-2837.1148208192271
 10
-1180.5215189933908
 20
-2837.2317124844858
 42
0.0029081910280922
 10
-1180.7135372912019
 20
-2837.8458761427778
 10
-1180.7543404597186
 20
-2837.9790993850534
 42
0.0009266453736234
 10
-1181.0227578340373
 20
-2838.8613238449893
 10
-1181.0436453066977
 20
-2838.9304357242904
 42
-0.0005809993662486
 10
-1181.3209819872652
 20
-2839.8442438308516
 10
-1181.3872637855286
 20
-2840.0617287629802
 42
-0.0012018708166935
 10
-1181.5342480949673
 20
-2840.539891427532
 10
-1181.5865679465448
 20
-2840.708650568436
 42
-0.0002691059594016
 10
-1181.6301374277014
 20
-2840.8489181887398
 10
-1184.4630933259907
 20
-2849.9380727910393
 10
-1186.2810822179692
 20
-2849.9380727910393
 10
-1180.0288328019215
 20
-2829.2943547545096
  0
SPLINE
  5
5D
100
AcDbEntity
  8
0
370
              15
390
0
  6
Continuous
 62
               7
100
AcDbSpline
210
0.0
220
0.0
230
1.0
 70
              13
 71
               2
 72
             782
 73
             779
 74
               0
 42
0.000001
 43
0.000001
 40
0.0
 40
0.0
 40
0.0
 40
1.0
 40
1.0
 40
2.0
 40
2.0
 40
3.0
 40
3.0
 40
4.0
 40
4.0
 40
5.0
 40
5.0
 40
6.0
 40
6.0
 40
7.0
 40
7.0
 40
8.0
 40
8.0
 40
9.0
 40
9.0
 40
10.0
 40
10.0
 40
11.0
 40
11.0
 40
12.0
 40
12.0
 40
13.0
 40
13.0
 40
14.0
 40
14.0
 40
15.0
 40
15.0
 40
16.0
 40
16.0
 40
17.0
 40
17.0
 40
18.0
 40
18.0
 40
19.0
 40
19.0
 40
20.0
 40
20.0
 40
21.0
 40
21.0
 40
22.0
 40
22.0
 40
23.0
 40
23.0
 40
24.0
 40
24.0
 40
25.0
 40
25.0
 40
26.0
 40
26.0
 40
27.0
 40
27.0
 40
28.0
 40
28.0
 40
29.0
 40
29.0
 40
30.0
 40
30.0
 40
31.0
 40
31.0
 40
32.0
 40
32.0
 40
33.0
 40
33.0
 40
34.0
 40
34.0
 40
35.0
 40
35.0
 40
36.0
 40
36.0
 40
37.0
 40
37.0
 40
38.0
 40
38.0
 40
39.0
 40
39.0
 40
40.0
 40
40.0
 40
41.0
 40
41.0
 40
42.0
 40
42.0
 40
43.0
 40
43.0
 40
44.0
 40
44.0
 40
45.0
 40
45.0
 40
46.0
 40
46.0
 40
47.0
 40
47.0
 40
48.0
 40
48.0
 40
49.0
 40
49.0
 40
50.0
 40
50.0
 40
51.0
 40
51.0
 40
52.0
 40
52.0
 40
53.0
 40
53.0
 40
54.0
 40
54.0
 40
55.0
 40
55.0
 40
56.0
 40
56.0
 40
57.0
 40
57.0
 40
58.0
 40
58.0
 40
59.0
 40
59.0
 40
60.0
 40
60.0
 40
61.0
 40
61.0
 40
62.0
 40
62.0
 40
63.0
 40
63.0
 40
64.0
 40
64.0
 40
65.0
 40
65.0
 40
66.0
 40
66.0
 40
67.0
 40
67.0
 40
68.0
 40
68.0
 40
69.0
 40
69.0
 40
70.0
 40
70.0
 40
71.0
 40
71.0
 40
72.0
 40
72.0
 40
73.0
 40
73.0
 40
74.0
 40
74.0
 40
75.0
 40
75.0
 40
76.0
 40
76.0
 40
77.0
 40
77.0
 40
78.0
 40
78.0
 40
79.0
 40
79.0
 40
80.0
 40
80.0
 40
81.0
 40
81.0
 40
82.0
 40
82.0
 40
83.0
 40
83.0
 40
84.0
 40
84.0
 40
85.0
 40
85.0
 40
86.0
 40
86.0
 40
87.0
 40
87.0
 40
88.0
 40
88.0
 40
89.0
 40
89.0
 40
90.0
 40
90.0
 40
91.0
 40
91.0
 40
92.0
 40
92.0
 40
93.0
 40
93.0
 40
94.0
 40
94.0
 40
95.0
 40
95.0
 40
96.0
 40
96.0
 40
97.0
 40
97.0
 40
98.0
 40
98.0
 40
99.0
 40
99.0
 40
100.0
 40
100.0
 40
101.0
 40
101.0
 40
102.0
 40
102.0
 40
103.0
 40
103.0
 40
104.0
 40
104.0
 40
105.0
 40
105.0
 40
106.0
 40
106.0
 40
107.0
 40
107.0
 40
108.0
 40
108.0
 40
109.0
 40
109.0
 40
110.0
 40
110.0
 40
111.0
 40
111.0
 40
112.0
 40
112.0
 40
113.0
 40
113.0
 40
114.0
 40
114.0
 40
115.0
 40
115.0
 40
116.0
 40
116.0
 40
117.0
 40
117.0
 40
118.0
 40
118.0
 40
119.0
 40
119.0
 40
120.0
 40
120.0
 40
121.0
 40
121.0
 40
122.0
 40
122.0
 40
123.0
 40
123.0
 40
124.0
 40
124.0
 40
125.0
 40
125.0
 40
126.0
 40
126.0
 40
127.0
 40
127.0
 40
128.0
 40
128.0
 40
129.0
 40
129.0
 40
130.0
 40
130.0
 40
131.0
 40
131.0
 40
132.0
 40
132.0
 40
133.0
 40
133.0
 40
134.0
 40
134.0
 40
135.0
 40
135.0
 40
136.0
 40
136.0
 40
137.0
 40
137.0
 40
138.0
 40
138.0
 40
139.0
 40
139.0
 40
140.0
 40
140.0
 40
141.0
 40
141.0
 40
142.0
 40
142.0
 40
143.0
 40
143.0
 40
144.0
 40
144.0
 40
145.0
 40
145.0
 40
146.0
 40
146.0
 40
147.0
 40
147.0
 40
148.0
 40
148.0
 40
149.0
 40
149.0
 40
150.0
 40
150.0
 40
151.0
 40
151.0
 40
152.0
 40
152.0
 40
153.0
 40
153.0
 40
154.0
 40
154.0
 40
155.0
 40
155.0
 40
156.0
 40
156.0
 40
157.0
 40
157.0
 40
158.0
 40
158.0
 40
159.0
 40
159.0
 40
160.0
 40
160.0
 40
161.0
 40
161.0
 40
162.0
 40
162.0
 40
163.0
 40
163.0
 40
164.0
 40
164.0
 40
165.0
 40
165.0
 40
166.0
 40
166.0
 40
167.0
 40
167.0
 40
168.0
 40
168.0
 40
169.0
 40
169.0
 40
170.0
 40
170.0
 40
171.0
 40
171.0
 40
172.0
 40
172.0
 40
173.0
 40
173.0
 40
174.0
 40
174.0
 40
175.0
 40
175.0
 40
176.0
 40
176.0
 40
177.0
 40
177.0
 40
178.0
 40
178.0
 40
179.0
 40
179.0
 40
180.0
 40
180.0
 40
181.0
 40
181.0
 40
182.0
 40
182.0
 40
183.0
 40
183.0
 40
184.0
 40
184.0
 40
185.0
 40
185.0
 40
186.0
 40
186.0
 40
187.0
 40
187.0
 40
188.0
 40
188.0
 40
189.0
 40
189.0
 40
190.0
 40
190.0
 40
191.0
 40
191.0
 40
192.0
 40
192.0
 40
193.0
 40
193.0
 40
194.0
 40
194.0
 40
195.0
 40
195.0
 40
196.0
 40
196.0
 40
197.0
 40
197.0
 40
198.0
 40
198.0
 40
199.0
 40
199.0
 40
200.0
 40
200.0
 40
201.0
 40
201.0
 40
202.0
 40
202.0
 40
203.0
 40
203.0
 40
204.0
 40
204.0
 40
205.0
 40
205.0
 40
206.0
 40
206.0
 40
207.0
 40
207.0
 40
208.0
 40
208.0
 40
209.0
 40
209.0
 40
210.0
 40
210.0
 40
211.0
 40
211.0
 40
212.0
 40
212.0
 40
213.0
 40
213.0
 40
214.0
 40
214.0
 40
215.0
 40
215.0
 40
216.0
 40
216.0
 40
217.0
 40
217.0
 40
218.0
 40
218.0
 40
219.0
 40
219.0
 40
220.0
 40
220.0
 40
221.0
 40
221.0
 40
222.0
 40
222.0
 40
223.0
 40
223.0
 40
224.0
 40
224.0
 40
225.0
 40
225.0
 40
226.0
 40
226.0
 40
227.0
 40
227.0
 40
228.0
 40
228.0
 40
229.0
 40
229.0
 40
230.0
 40
230.0
 40
231.0
 40
231.0
 40
232.0
 40
232.0
 40
233.0
 40
233.0
 40
234.0
 40
234.0
 40
235.0
 40
235.0
 40
236.0
 40
236.0
 40
237.0
 40
237.0
 40
238.0
 40
238.0
 40
239.0
 40
239.0
 40
240.0
 40
240.0
 40
241.0
 40
241.0
 40
242.0
 40
242.0
 40
243.0
 40
243.0
 40
244.0
 40
244.0
 40
245.0
 40
245.0
 40
246.0
 40
246.0
 40
247.0
 40
247.0
 40
248.0
 40
248.0
 40
249.0
 40
249.0
 40
250.0
 40
250.0
 40
251.0
 40
251.0
 40
252.0
 40
252.0
 40
253.0
 40
253.0
 40
254.0
 40
254.0
 40
255.0
 40
255.0
 40
256.0
 40
256.0
 40
257.0
 40
257.0
 40
258.0
 40
258.0
 40
259.0
 40
259.0
 40
260.0
 40
260.0
 40
261.0
 40
261.0
 40
262.0
 40
262.0
 40
263.0
 40
263.0
 40
264.0
 40
264.0
 40
265.0
 40
265.0
 40
266.0
 40
266.0
 40
267.0
 40
267.0
 40
268.0
 40
268.0
 40
269.0
 40
269.0
 40
270.0
 40
270.0
 40
271.0
 40
271.0
 40
272.0
 40
272.0
 40
273.0
 40
273.0
 40
274.0
 40
274.0
 40
275.0
 40
275.0
 40
276.0
 40
276.0
 40
277.0
 40
277.0
 40
278.0
 40
278.0
 40
279.0
 40
279.0
 40
280.0
 40
280.0
 40
281.0
 40
281.0
 40
282.0
 40
282.0
 40
283.0
 40
283.0
 40
284.0
 40
284.0
 40
285.0
 40
285.0
 40
286.0
 40
286.0
 40
287.0
 40
287.0
 40
288.0
 40
288.0
 40
289.0
 40
289.0
 40
290.0
 40
290.0
 40
291.0
 40
291.0
 40
292.0
 40
292.0
 40
293.0
 40
293.0
 40
294.0
 40
294.0
 40
295.0
 40
295.0
 40
296.0
 40
296.0
 40
297.0
 40
297.0
 40
298.0
 40
298.0
 40
299.0
 40
299.0
 40
300.0
 40
300.0
 40
301.0
 40
301.0
 40
302.0
 40
302.0
 40
303.0
 40
303.0
 40
304.0
 40
304.0
 40
305.0
 40
305.0
 40
306.0
 40
306.0
 40
307.0
 40
307.0
 40
308.0
 40
308.0
 40
309.0
 40
309.0
 40
310.0
 40
310.0
 40
311.0
 40
311.0
 40
312.0
 40
312.0
 40
313.0
 40
313.0
 40
314.0
 40
314.0
 40
315.0
 40
315.0
 40
316.0
 40
316.0
 40
317.0
 40
317.0
 40
318.0
 40
318.0
 40
319.0
 40
319.0
 40
320.0
 40
320.0
 40
321.0
 40
321.0
 40
322.0
 40
322.0
 40
323.0
 40
323.0
 40
324.0
 40
324.0
 40
325.0
 40
325.0
 40
326.0
 40
326.0
 40
327.0
 40
327.0
 40
328.0
 40
328.0
 40
329.0
 40
329.0
 40
330.0
 40
330.0
 40
331.0
 40
331.0
 40
332.0
 40
332.0
 40
333.0
 40
333.0
 40
334.0
 40
334.0
 40
335.0
 40
335.0
 40
336.0
 40
336.0
 40
337.0
 40
337.0
 40
338.0
 40
338.0
 40
339.0
 40
339.0
 40
340.0
 40
340.0
 40
341.0
 40
341.0
 40
342.0
 40
342.0
 40
343.0
 40
343.0
 40
344.0
 40
344.0
 40
345.0
 40
345.0
 40
346.0
 40
346.0
 40
347.0
 40
347.0
 40
348.0
 40
348.0
 40
349.0
 40
349.0
 40
350.0
 40
350.0
 40
351.0
 40
351.0
 40
352.0
 40
352.0
 40
353.0
 40
353.0
 40
354.0
 40
354.0
 40
355.0
 40
355.0
 40
356.0
 40
356.0
 40
357.0
 40
357.0
 40
358.0
 40
358.0
 40
359.0
 40
359.0
 40
360.0
 40
360.0
 40
361.0
 40
361.0
 40
362.0
 40
362.0
 40
363.0
 40
363.0
 40
364.0
 40
364.0
 40
365.0
 40
365.0
 40
366.0
 40
366.0
 40
367.0
 40
367.0
 40
368.0
 40
368.0
 40
369.0
 40
369.0
 40
370.0
 40
370.0
 40
371.0
 40
371.0
 40
372.0
 40
372.0
 40
373.0
 40
373.0
 40
374.0
 40
374.0
 40
375.0
 40
375.0
 40
376.0
 40
376.0
 40
377.0
 40
377.0
 40
378.0
 40
378.0
 40
379.0
 40
379.0
 40
380.0
 40
380.0
 40
381.0
 40
381.0
 40
382.0
 40
382.0
 40
383.0
 40
383.0
 40
384.0
 40
384.0
 40
385.0
 40
385.0
 40
386.0
 40
386.0
 40
387.0
 40
387.0
 40
388.0
 40
388.0
 40
389.0
 40
389.0
 40
389.0
 10
-1169.7001283511886
 20
-2829.283428391147
 30
0.0
 41
1.0
 10
-1168.8817042424682
 20
-2829.283428391147
 30
0.0
 41
1.0
 10
-1168.0632801337479
 20
-2829.283428391147
 30
0.0
 41
1.0
 10
-1168.4770338692647
 20
-2830.6260546553967
 30
0.0
 41
1.0
 10
-1168.8907876047813
 20
-2831.9686809196464
 30
0.0
 41
1.0
 10
-1168.8724481096119
 20
-2831.9399801467325
 30
0.0
 41
0.9999957264329795
 10
-1168.8539411127788
 20
-2831.9113870965789
 30
0.0
 41
1.0
 10
-1168.8235117886434
 20
-2831.8643742182057
 30
0.0
 41
1.0
 10
-1168.793082464508
 20
-2831.817361339833
 30
0.0
 41
1.0
 10
-1168.7137168194004
 20
-2831.6947425329272
 30
0.0
 41
0.9995394069081274
 10
-1168.62705842785
 20
-2831.5771644711881
 30
0.0
 41
1.0
 10
-1168.5913015655899
 20
-2831.528649578594
 30
0.0
 41
1.0
 10
-1168.5555447033298
 20
-2831.4801346859999
 30
0.0
 41
1.0
 10
-1168.421818035514
 20
-2831.2986944108761
 30
0.0
 41
0.9994460617143036
 10
-1168.2763175542243
 20
-2831.1265520132247
 30
0.0
 41
1.0
 10
-1168.2719293732493
 20
-2831.1213603328424
 30
0.0
 41
1.0
 10
-1168.2675411922746
 20
-2831.1161686524597
 30
0.0
 41
1.0
 10
-1168.1308170729365
 20
-2830.9544096155746
 30
0.0
 41
0.9994359394933957
 10
-1167.9835428425849
 20
-2830.8021934144103
 30
0.0
 41
1.0
 10
-1167.9811594886312
 20
-2830.799730084037
 30
0.0
 41
1.0
 10
-1167.9787761346774
 20
-2830.7972667536633
 30
0.0
 41
1.0
 10
-1167.8362686122323
 20
-2830.6499772132443
 30
0.0
 41
0.9995293688567417
 10
-1167.6849969312514
 20
-2830.5117040010814
 30
0.0
 41
1.0
 10
-1167.6657031719883
 20
-2830.4940681154303
 30
0.0
 41
1.0
 10
-1167.6464094127252
 20
-2830.4764322297792
 30
0.0
 41
1.0
 10
-1167.5337252502682
 20
-2830.3734307889167
 30
0.0
 41
0.9997087614804251
 10
-1167.4162023613142
 20
-2830.2759865081193
 30
0.0
 41
1.0
 10
-1167.3970362881364
 20
-2830.2600949296093
 30
0.0
 41
1.0
 10
-1167.3778702149586
 20
-2830.2442033510997
 30
0.0
 41
1.0
 10
-1167.2986794723631
 20
-2830.1785422273247
 30
0.0
 41
0.9999595338698918
 10
-1167.218320201504
 20
-2830.1143164966666
 30
0.0
 41
1.0
 10
-1167.1379609306557
 20
-2830.0500907660171
 30
0.0
 41
0.9999749417498303
 10
-1167.0567003963013
 20
-2829.9870092120623
 30
0.0
 41
1.0
 10
-1167.0357142501339
 20
-2829.9707179247566
 30
0.0
 41
1.0
 10
-1167.0147281039663
 20
-2829.954426637451
 30
0.0
 41
1.0
 10
-1166.9301602186704
 20
-2829.8887776276147
 30
0.0
 41
0.9999792037121205
 10
-1166.8447526189029
 20
-2829.8242248459728
 30
0.0
 41
1.0
 10
-1166.8239277930188
 20
-2829.8084850237356
 30
0.0
 41
1.0
 10
-1166.8031029671347
 20
-2829.7927452014987
 30
0.0
 41
1.0
 10
-1166.7593450191139
 20
-2829.7596720643141
 30
0.0
 41
0.9999993373928729
 10
-1166.7156633329903
 20
-2829.7264982689048
 30
0.0
 41
1.0
 10
-1166.671981646851
 20
-2829.6933244734837
 30
0.0
 41
0.9999160953817279
 10
-1166.6274552359353
 20
-2829.6612934082882
 30
0.0
 41
1.0
 10
-1166.5946333485117
 20
-2829.6376822527009
 30
0.0
 41
1.0
 10
-1166.5618114610884
 20
-2829.6140710971131
 30
0.0
 41
1.0
 10
-1166.4516412753303
 20
-2829.5348177207452
 30
0.0
 41
0.9980964527231915
 10
-1166.33255228183
 20
-2829.4697302478894
 30
0.0
 41
1.0
 10
-1166.2955196749017
 20
-2829.4494902682964
 30
0.0
 41
1.0
 10
-1166.2584870679734
 20
-2829.4292502887029
 30
0.0
 41
1.0
 10
-1166.0791600547007
 20
-2829.3312400380019
 30
0.0
 41
0.9984572810572236
 10
-1165.8900714883412
 20
-2829.2537177766553
 30
0.0
 41
1.0
 10
-1165.8864252189435
 20
-2829.2522228843163
 30
0.0
 41
1.0
 10
-1165.8827789495458
 20
-2829.2507279919778
 30
0.0
 41
1.0
 10
-1165.7009829219803
 20
-2829.1761955153083
 30
0.0
 41
0.9987838528034335
 10
-1165.5127302634232
 20
-2829.119929875143
 30
0.0
 41
1.0
 10
-1165.5084923142217
 20
-2829.1186632214522
 30
0.0
 41
1.0
 10
-1165.50425436502
 20
-2829.1173965677608
 30
0.0
 41
1.0
 10
-1165.3244776048602
 20
-2829.0636642349764
 30
0.0
 41
0.9990652816208212
 10
-1165.1407316731479
 20
-2829.025660555435
 30
0.0
 41
1.0
 10
-1165.1355432721161
 20
-2829.0245874523284
 30
0.0
 41
1.0
 10
-1165.1303548710846
 20
-2829.0235143492218
 30
0.0
 41
1.0
 10
-1164.9569857414313
 20
-2828.9876568758928
 30
0.0
 41
0.9992909934270041
 10
-1164.7814099749739
 20
-2828.9649464434265
 30
0.0
 41
1.0
 10
-1164.6058342085121
 20
-2828.9422360109602
 30
0.0
 41
0.9994553539448954
 10
-1164.4291427754149
 20
-2828.9311567067534
 30
0.0
 41
1.0
 10
-1164.3937083676221
 20
-2828.9289348187058
 30
0.0
 41
1.0
 10
-1164.3582739598294
 20
-2828.9267129306581
 30
0.0
 41
1.0
 10
-1164.1920481932607
 20
-2828.9162898682462
 30
0.0
 41
0.9990928098292109
 10
-1164.025538401359
 20
-2828.920049509481
 30
0.0
 41
1.0
 10
-1163.9869765660821
 20
-2828.9209202010143
 30
0.0
 41
1.0
 10
-1163.9484147308053
 20
-2828.9217908925471
 30
0.0
 41
1.0
 10
-1163.8590286094516
 20
-2828.9238091507159
 30
0.0
 41
0.9998382089205689
 10
-1163.7697729266702
 20
-2828.9290412772434
 30
0.0
 41
1.0
 10
-1163.7693430204508
 20
-2828.9290664781456
 30
0.0
 41
1.0
 10
-1163.7689131142317
 20
-2828.9290916790478
 30
0.0
 41
1.0
 10
-1163.6805172438851
 20
-2828.9342734037718
 30
0.0
 41
0.9997558016759112
 10
-1163.5924366666832
 20
-2828.9433559191384
 30
0.0
 41
1.0
 10
-1163.5919605282534
 20
-2828.943405016621
 30
0.0
 41
1.0
 10
-1163.5914843898238
 20
-2828.9434541141036
 30
0.0
 41
1.0
 10
-1163.5043560894819
 20
-2828.9524384345045
 30
0.0
 41
0.9996565144180857
 10
-1163.4178182361402
 20
-2828.9659757411937
 30
0.0
 41
1.0
 10
-1163.4173523107684
 20
-2828.966048626924
 30
0.0
 41
1.0
 10
-1163.4168863853965
 20
-2828.9661215126544
 30
0.0
 41
1.0
 10
-1163.3312803828037
 20
-2828.979513047881
 30
0.0
 41
0.9995321806865548
 10
-1163.2466533024703
 20
-2828.9981135363118
 30
0.0
 41
1.0
 10
-1163.2462641078996
 20
-2828.9981990787774
 30
0.0
 41
1.0
 10
-1163.2458749133291
 20
-2828.9982846212429
 30
0.0
 41
1.0
 10
-1163.1620262221436
 20
-2829.0167140247408
 30
0.0
 41
0.9993819199219864
 10
-1163.0796796879461
 20
-2829.0409894080021
 30
0.0
 41
1.0
 10
-1163.0794412544442
 20
-2829.0410596971124
 30
0.0
 41
1.0
 10
-1163.0792028209423
 20
-2829.041129986223
 30
0.0
 41
1.0
 10
-1162.9973331537469
 20
-2829.0652647912634
 30
0.0
 41
0.9992088568505456
 10
-1162.9176406347615
 20
-2829.0958300270568
 30
0.0
 41
1.0
 10
-1162.8379596438824
 20
-2829.1263896277901
 30
0.0
 41
0.9990226101774526
 10
-1162.7612889739753
 20
-2829.1638670594048
 30
0.0
 41
1.0
 10
-1162.6846298321818
 20
-2829.2013388559553
 30
0.0
 41
0.9988424273971533
 10
-1162.6119262049722
 20
-2829.2460036312063
 30
0.0
 41
1.0
 10
-1162.6116584965894
 20
-2829.2461680952811
 30
0.0
 41
1.0
 10
-1162.6113907882063
 20
-2829.2463325593553
 30
0.0
 41
1.0
 10
-1162.5381517442349
 20
-2829.291326262753
 30
0.0
 41
0.9986928844491148
 10
-1162.4698888775247
 20
-2829.3435619970332
 30
0.0
 41
1.0
 10
-1162.4693075853024
 20
-2829.3440068102609
 30
0.0
 41
1.0
 10
-1162.4687262930802
 20
-2829.3444516234881
 30
0.0
 41
1.0
 10
-1162.3993008419243
 20
-2829.3975769842241
 30
0.0
 41
0.9986007262278605
 10
-1162.3358746721569
 20
-2829.4577377539181
 30
0.0
 41
1.0
 10
-1162.3349802567004
 20
-2829.4585861217529
 30
0.0
 41
1.0
 10
-1162.3340858412437
 20
-2829.4594344895872
 30
0.0
 41
1.0
 10
-1162.2688708405633
 20
-2829.5212919949499
 30
0.0
 41
0.9985581491379646
 10
-1162.2106632288626
 20
-2829.5897844852207
 30
0.0
 41
1.0
 10
-1162.2014047752659
 20
-2829.6006788429231
 30
0.0
 41
1.0
 10
-1162.1921463216693
 20
-2829.611573200626
 30
0.0
 41
1.0
 10
-1162.1154218027743
 20
-2829.7018544063039
 30
0.0
 41
0.9970460233522052
 10
-1162.053429901614
 20
-2829.8028214904871
 30
0.0
 41
1.0
 10
-1162.0389605365349
 20
-2829.8263879495676
 30
0.0
 41
1.0
 10
-1162.024491171456
 20
-2829.849954408648
 30
0.0
 41
1.0
 10
-1161.9847544714455
 20
-2829.9146741326772
 30
0.0
 41
0.998846881663747
 10
-1161.9514081006937
 20
-2829.982906585105
 30
0.0
 41
1.0
 10
-1161.9443720782053
 20
-2829.9973035062358
 30
0.0
 41
1.0
 10
-1161.937336055717
 20
-2830.0117004273666
 30
0.0
 41
1.0
 10
-1161.9180617299451
 20
-2830.0511390375254
 30
0.0
 41
0.9998431189999105
 10
-1161.9001964024474
 20
-2830.0912355919731
 30
0.0
 41
1.0
 10
-1161.8823310750327
 20
-2830.131332146233
 30
0.0
 41
0.9999989989660457
 10
-1161.8643523516273
 20
-2830.1713779837814
 30
0.0
 41
1.0
 10
-1161.8581800399845
 20
-2830.1851262007021
 30
0.0
 41
1.0
 10
-1161.8520077283417
 20
-2830.1988744176228
 30
0.0
 41
1.0
 10
-1161.8216843817308
 20
-2830.2664166888321
 30
0.0
 41
0.9998790356321103
 10
-1161.7934765015927
 20
-2830.3348694407705
 30
0.0
 41
1.0
 10
-1161.7866413203087
 20
-2830.3514565421974
 30
0.0
 41
1.0
 10
-1161.7798061390247
 20
-2830.3680436436243
 30
0.0
 41
1.0
 10
-1161.7562484766447
 20
-2830.4252115985091
 30
0.0
 41
0.9998227574562022
 10
-1161.7348597282551
 20
-2830.4832259067871
 30
0.0
 41
1.0
 10
-1161.7134709798665
 20
-2830.5412402150619
 30
0.0
 41
0.9996797971041879
 10
-1161.6950446949079
 20
-2830.6002623341774
 30
0.0
 41
1.0
 10
-1161.6911408921815
 20
-2830.6127667923488
 30
0.0
 41
1.0
 10
-1161.6872370894553
 20
-2830.6252712505202
 30
0.0
 41
1.0
 10
-1161.6610031990447
 20
-2830.7093022859772
 30
0.0
 41
0.997927493873397
 10
-1161.6457786755655
 20
-2830.7960066446394
 30
0.0
 41
1.0
 10
-1161.6435549883047
 20
-2830.8086706454583
 30
0.0
 41
1.0
 10
-1161.6413313010439
 20
-2830.8213346462771
 30
0.0
 41
1.0
 10
-1161.6304013613449
 20
-2830.8835811535719
 30
0.0
 41
0.9994985982136362
 10
-1161.6234331961684
 20
-2830.9463946547112
 30
0.0
 41
1.0
 10
-1161.6164650309915
 20
-2831.0092081558505
 30
0.0
 41
0.9996372611200672
 10
-1161.612889165224
 20
-2831.0723057345308
 30
0.0
 41
1.0
 10
-1161.6127205877347
 20
-2831.0752803516152
 30
0.0
 41
1.0
 10
-1161.6125520102451
 20
-2831.0782549686996
 30
0.0
 41
1.0
 10
-1161.6086389894986
 20
-2831.1473017815447
 30
0.0
 41
0.9997730630735289
 10
-1161.6076706760105
 20
-2831.2164526055767
 30
0.0
 41
1.0
 10
-1161.6076135695923
 20
-2831.2205307847203
 30
0.0
 41
1.0
 10
-1161.6075564631742
 20
-2831.2246089638638
 30
0.0
 41
1.0
 10
-1161.6064739368501
 20
-2831.3019161461784
 30
0.0
 41
0.9998772614071799
 10
-1161.607814023582
 20
-2831.3792192927531
 30
0.0
 41
1.0
 10
-1161.6079032867806
 20
-2831.3843684565845
 30
0.0
 41
1.0
 10
-1161.6079925499794
 20
-2831.389517620416
 30
0.0
 41
1.0
 10
-1161.6095111631084
 20
-2831.477119094659
 30
0.0
 41
0.9999415567322962
 10
-1161.6129234733542
 20
-2831.5646672563216
 30
0.0
 41
1.0
 10
-1161.6131647940297
 20
-2831.5708587160607
 30
0.0
 41
1.0
 10
-1161.613406114705
 20
-2831.5770501757997
 30
0.0
 41
1.0
 10
-1161.6173010663019
 20
-2831.6769812569542
 30
0.0
 41
0.9999716810426876
 10
-1161.6226996494222
 20
-2831.7768423952157
 30
0.0
 41
1.0
 10
-1161.6259124482108
 20
-2831.8362716448664
 30
0.0
 41
1.0
 10
-1161.6291252469991
 20
-2831.8957008945172
 30
0.0
 41
1.0
 10
-1161.6371991561523
 20
-2832.0450492958053
 30
0.0
 41
0.9999819129908284
 10
-1161.6470689477671
 20
-2832.1942897734857
 30
0.0
 41
1.0
 10
-1161.6569387393838
 20
-2832.3435302511971
 30
0.0
 41
1.0
 10
-1161.6593780599476
 20
-2832.3807232970462
 30
0.0
 41
1.0
 10
-1161.6366798261183
 20
-2832.3419822997193
 30
0.0
 41
0.9999982128186215
 10
-1161.6138352673559
 20
-2832.3033274057498
 30
0.0
 41
1.0
 10
-1161.5869257074737
 20
-2832.2577941916988
 30
0.0
 41
1.0
 10
-1161.5600161475913
 20
-2832.2122609776484
 30
0.0
 41
1.0
 10
-1161.4833524690653
 20
-2832.0825396555783
 30
0.0
 41
0.9998609190057464
 10
-1161.4024051562023
 20
-2831.9554472736468
 30
0.0
 41
1.0
 10
-1161.3727568347206
 20
-2831.9088975406894
 30
0.0
 41
1.0
 10
-1161.3431085132388
 20
-2831.8623478077325
 30
0.0
 41
1.0
 10
-1161.2608362930021
 20
-2831.7331752377377
 30
0.0
 41
0.9999067609729945
 10
-1161.1750672835392
 20
-2831.6062975482982
 30
0.0
 41
1.0
 10
-1161.1726625803383
 20
-2831.6027402822438
 30
0.0
 41
1.0
 10
-1161.1702578771374
 20
-2831.5991830161888
 30
0.0
 41
1.0
 10
-1161.0892982740759
 20
-2831.4794198588579
 30
0.0
 41
0.9998784952148405
 10
-1161.0046446643937
 20
-2831.3622386421484
 30
0.0
 41
1.0
 10
-1160.9199910547159
 20
-2831.245057425444
 30
0.0
 41
0.9998532968283106
 10
-1160.8313734338901
 20
-2831.1308445169698
 30
0.0
 41
1.0
 10
-1160.8114116448983
 20
-2831.1051171959489
 30
0.0
 41
1.0
 10
-1160.7914498559064
 20
-2831.0793898749275
 30
0.0
 41
1.0
 10
-1160.6729658061497
 20
-2830.9266842639613
 30
0.0
 41
0.999155197579462
 10
-1160.5423413565254
 20
-2830.7842247018771
 30
0.0
 41
1.0
 10
-1160.5388317405454
 20
-2830.7803971002522
 30
0.0
 41
1.0
 10
-1160.5353221245653
 20
-2830.7765694986279
 30
0.0
 41
1.0
 10
-1160.4117169069043
 20
-2830.6417651397956
 30
0.0
 41
0.9997418144181004
 10
-1160.2821147672012
 20
-2830.5127157291809
 30
0.0
 41
1.0
 10
-1160.1525126274992
 20
-2830.3836663185675
 30
0.0
 41
0.998923820463353
 10
-1160.0115100792468
 20
-2830.2671813565271
 30
0.0
 41
1.0
 10
-1159.9662624011085
 20
-2830.2298013649197
 30
0.0
 41
1.0
 10
-1159.9210147229703
 20
-2830.1924213733118
 30
0.0
 41
1.0
 10
-1159.7807746657486
 20
-2830.0765663200209
 30
0.0
 41
0.9990825084096856
 10
-1159.631134733145
 20
-2829.973137322188
 30
0.0
 41
1.0
 10
-1159.6210893690882
 20
-2829.9661941091085
 30
0.0
 41
1.0
 10
-1159.6110440050315
 20
-2829.9592508960291
 30
0.0
 41
1.0
 10
-1159.4814948005414
 20
-2829.8697083243555
 30
0.0
 41
0.9998164899826184
 10
-1159.3486105971647
 20
-2829.7851940828386
 30
0.0
 41
1.0
 10
-1159.3367650366354
 20
-2829.7776603163111
 30
0.0
 41
1.0
 10
-1159.3249194761063
 20
-2829.7701265497831
 30
0.0
 41
1.0
 10
-1159.2157263937875
 20
-2829.7006798413217
 30
0.0
 41
0.9997473449131461
 10
-1159.1035224365392
 20
-2829.6362108835065
 30
0.0
 41
1.0
 10
-1158.9913184792842
 20
-2829.571741925688
 30
0.0
 41
0.9999327861144657
 10
-1158.8776498685058
 20
-2829.5098919339985
 30
0.0
 41
1.0
 10
-1158.8770978659554
 20
-2829.5095915753245
 30
0.0
 41
1.0
 10
-1158.8765458634048
 20
-2829.509291216651
 30
0.0
 41
1.0
 10
-1158.7617732475212
 20
-2829.4468405076118
 30
0.0
 41
0.9996956420484151
 10
-1158.644059921683
 20
-2829.3901270406382
 30
0.0
 41
1.0
 10
-1158.6136195167908
 20
-2829.3754610639085
 30
0.0
 41
1.0
 10
-1158.5831791118985
 20
-2829.3607950871788
 30
0.0
 41
1.0
 10
-1158.4802020051545
 20
-2829.3111814287354
 30
0.0
 41
0.9998070570177111
 10
-1158.3753556162094
 20
-2829.2656508418322
 30
0.0
 41
1.0
 10
-1158.2705092272693
 20
-2829.2201202549313
 30
0.0
 41
0.9997827436148187
 10
-1158.1638562906603
 20
-2829.1789990836201
 30
0.0
 41
1.0
 10
-1158.144633441028
 20
-2829.1715875099871
 30
0.0
 41
1.0
 10
-1158.1254105913958
 20
-2829.1641759363547
 30
0.0
 41
1.0
 10
-1157.9803119555208
 20
-2829.1082316177776
 30
0.0
 41
0.9988031841977305
 10
-1157.8304415929153
 20
-2829.0667315536098
 30
0.0
 41
1.0
 10
-1157.805524344556
 20
-2829.0598318078037
 30
0.0
 41
1.0
 10
-1157.7806070961969
 20
-2829.052932061998
 30
0.0
 41
1.0
 10
-1157.6133370705475
 20
-2829.0066139195901
 30
0.0
 41
0.9984748040549676
 10
-1157.441980161896
 20
-2828.9790196873246
 30
0.0
 41
1.0
 10
-1157.4372410256478
 20
-2828.9782565268115
 30
0.0
 41
1.0
 10
-1157.4325018893994
 20
-2828.9774933662979
 30
0.0
 41
1.0
 10
-1157.2706232532471
 20
-2828.95142545506
 30
0.0
 41
0.9984436495479857
 10
-1157.106848509522
 20
-2828.9435475012415
 30
0.0
 41
1.0
 10
-1157.0851513013874
 20
-2828.9425038140416
 30
0.0
 41
1.0
 10
-1157.0634540932529
 20
-2828.9414601268418
 30
0.0
 41
1.0
 10
-1156.9430737657942
 20
-2828.9356695474225
 30
0.0
 41
0.9987954789335639
 10
-1156.8227055208877
 20
-2828.9417060751648
 30
0.0
 41
1.0
 10
-1156.802740728401
 20
-2828.9427073195029
 30
0.0
 41
1.0
 10
-1156.7827759359143
 20
-2828.943708563841
 30
0.0
 41
1.0
 10
-1156.7023372759852
 20
-2828.9477426029066
 30
0.0
 41
0.9997941595876959
 10
-1156.6221284978835
 20
-2828.9550366688281
 30
0.0
 41
1.0
 10
-1156.5419197197918
 20
-2828.9623307347488
 30
0.0
 41
0.9998589466237342
 10
-1156.4620011729385
 20
-2828.972314589199
 30
0.0
 41
1.0
 10
-1156.4295949711282
 20
-2828.9763629461186
 30
0.0
 41
1.0
 10
-1156.3971887693176
 20
-2828.9804113030377
 30
0.0
 41
1.0
 10
-1156.2524578188441
 20
-2828.9984918713267
 30
0.0
 41
0.9993495063249431
 10
-1156.1094065750754
 20
-2829.0269575810689
 30
0.0
 41
1.0
 10
-1156.0764728779241
 20
-2829.0335110442838
 30
0.0
 41
1.0
 10
-1156.043539180773
 20
-2829.0400645074983
 30
0.0
 41
1.0
 10
-1155.9342453575694
 20
-2829.0618128416331
 30
0.0
 41
0.9996788715560259
 10
-1155.8261937856155
 20
-2829.0890706409959
 30
0.0
 41
1.0
 10
-1155.8241307830767
 20
-2829.089591067569
 30
0.0
 41
1.0
 10
-1155.8220677805382
 20
-2829.0901114941416
 30
0.0
 41
1.0
 10
-1155.7181422136605
 20
-2829.1163284403588
 30
0.0
 41
0.9995480654493174
 10
-1155.6159799784296
 20
-2829.1487433969833
 30
0.0
 41
1.0
 10
-1155.6142903362993
 20
-2829.1492795018976
 30
0.0
 41
1.0
 10
-1155.6126006941688
 20
-2829.1498156068119
 30
0.0
 41
1.0
 10
-1155.5138177431988
 20
-2829.1811583536082
 30
0.0
 41
0.9993867959456384
 10
-1155.4174705847574
 20
-2829.2193377228978
 30
0.0
 41
1.0
 10
-1155.4162276356724
 20
-2829.2198302647939
 30
0.0
 41
1.0
 10
-1155.4149846865871
 20
-2829.2203228066905
 30
0.0
 41
1.0
 10
-1155.321123426316
 20
-2829.2575170921868
 30
0.0
 41
0.9992050256521196
 10
-1155.2305237512817
 20
-2829.3020709914263
 30
0.0
 41
1.0
 10
-1155.2297890685672
 20
-2829.3024322838883
 30
0.0
 41
1.0
 10
-1155.2290543858528
 20
-2829.3027935763498
 30
0.0
 41
1.0
 10
-1155.1399240762478
 20
-2829.3466248906652
 30
0.0
 41
0.9990222350741849
 10
-1155.0550140148548
 20
-2829.398158158363
 30
0.0
 41
1.0
 10
-1155.054830129571
 20
-2829.3982697612682
 30
0.0
 41
1.0
 10
-1155.0546462442871
 20
-2829.3983813641739
 30
0.0
 41
1.0
 10
-1154.9701039534598
 20
-2829.4496914260626
 30
0.0
 41
0.9988642743807399
 10
-1154.8908294188418
 20
-2829.5088156135866
 30
0.0
 41
1.0
 10
-1154.8115548842252
 20
-2829.5679398011098
 30
0.0
 41
0.9987681233310051
 10
-1154.7385310999487
 20
-2829.634630492511
 30
0.0
 41
1.0
 10
-1154.7382021719818
 20
-2829.6349308937261
 30
0.0
 41
1.0
 10
-1154.7378732440152
 20
-2829.6352312949411
 30
0.0
 41
1.0
 10
-1154.6641916038107
 20
-2829.7025227887666
 30
0.0
 41
0.9987496570896647
 10
-1154.5975977984847
 20
-2829.7768356028519
 30
0.0
 41
1.0
 10
-1154.5968256287219
 20
-2829.7776972762122
 30
0.0
 41
1.0
 10
-1154.5960534589594
 20
-2829.7785589495725
 30
0.0
 41
1.0
 10
-1154.5279153141121
 20
-2829.8545951103742
 30
0.0
 41
0.9988147669827405
 10
-1154.4674930598876
 20
-2829.9368961172158
 30
0.0
 41
1.0
 10
-1154.4663737338092
 20
-2829.9384207485691
 30
0.0
 41
1.0
 10
-1154.465254407731
 20
-2829.9399453799224
 30
0.0
 41
1.0
 10
-1154.4025935013494
 20
-2830.0252956494714
 30
0.0
 41
0.9989452636216447
 10
-1154.348026588387
 20
-2830.1160343386309
 30
0.0
 41
1.0
 10
-1154.3466778623024
 20
-2830.1182771196554
 30
0.0
 41
1.0
 10
-1154.3453291362177
 20
-2830.1205199006799
 30
0.0
 41
1.0
 10
-1154.2880647710856
 20
-2830.2157441518889
 30
0.0
 41
0.9991046436070278
 10
-1154.2390555577626
 20
-2830.3154685849172
 30
0.0
 41
1.0
 10
-1154.237591696173
 20
-2830.3184472649891
 30
0.0
 41
1.0
 10
-1154.2361278345834
 20
-2830.3214259450606
 30
0.0
 41
1.0
 10
-1154.1841908980805
 20
-2830.4271077382346
 30
0.0
 41
0.9992763831102232
 10
-1154.1404377695239
 20
-2830.5364318001939
 30
0.0
 41
1.0
 10
-1154.1389584998619
 20
-2830.5401279877242
 30
0.0
 41
1.0
 10
-1154.1374792301999
 20
-2830.5438241752545
 30
0.0
 41
1.0
 10
-1154.0907675623152
 20
-2830.6605406122867
 30
0.0
 41
0.999416347288417
 10
-1154.0521345311247
 20
-2830.7801742007537
 30
0.0
 41
1.0
 10
-1154.0508963788789
 20
-2830.7840083445335
 30
0.0
 41
1.0
 10
-1154.049658226633
 20
-2830.7878424883133
 30
0.0
 41
1.0
 10
-1154.009774665617
 20
-2830.9113485497883
 30
0.0
 41
0.9997268055891696
 10
-1153.9757066097056
 20
-2831.0365835817365
 30
0.0
 41
1.0
 10
-1153.9747764294361
 20
-2831.0400029478451
 30
0.0
 41
1.0
 10
-1153.9738462491666
 20
-2831.0434223139541
 30
0.0
 41
1.0
 10
-1153.9416385537929
 20
-2831.1618186136911
 30
0.0
 41
0.9996701319001211
 10
-1153.9155529370232
 20
-2831.2817125669508
 30
0.0
 41
1.0
 10
-1153.8894673202526
 20
-2831.401606520214
 30
0.0
 41
0.9995785451109294
 10
-1153.870383742913
 20
-2831.5228122812459
 30
0.0
 41
1.0
 10
-1153.8661639607394
 20
-2831.5496134360101
 30
0.0
 41
1.0
 10
-1153.8619441785656
 20
-2831.5764145907742
 30
0.0
 41
1.0
 10
-1153.8353692026271
 20
-2831.7452005644759
 30
0.0
 41
0.9979925101216641
 10
-1153.8303436167007
 20
-2831.9159918925702
 30
0.0
 41
1.0
 10
-1153.8295188042759
 20
-2831.9440226160541
 30
0.0
 41
1.0
 10
-1153.8286939918512
 20
-2831.9720533395375
 30
0.0
 41
1.0
 10
-1153.8253180307743
 20
-2832.0867832206641
 30
0.0
 41
0.9995314902263085
 10
-1153.8289682229129
 20
-2832.2015047044142
 30
0.0
 41
1.0
 10
-1153.8326184150515
 20
-2832.3162261881666
 30
0.0
 41
0.9996245486944814
 10
-1153.8425475101822
 20
-2832.430575459291
 30
0.0
 41
1.0
 10
-1153.8427105581763
 20
-2832.432453215426
 30
0.0
 41
1.0
 10
-1153.8428736061705
 20
-2832.4343309715605
 30
0.0
 41
1.0
 10
-1153.8531287972894
 20
-2832.5524357549516
 30
0.0
 41
0.9997286095000508
 10
-1153.8688741208618
 20
-2832.669934663852
 30
0.0
 41
1.0
 10
-1153.869267613512
 20
-2832.6728710885527
 30
0.0
 41
1.0
 10
-1153.8696611061621
 20
-2832.6758075132529
 30
0.0
 41
1.0
 10
-1153.8861934150357
 20
-2832.7991792715602
 30
0.0
 41
0.9998265533969737
 10
-1153.9073088737678
 20
-2832.9218497463453
 30
0.0
 41
1.0
 10
-1153.9079854159045
 20
-2832.92578012485
 30
0.0
 41
1.0
 10
-1153.9086619580412
 20
-2832.9297105033547
 30
0.0
 41
1.0
 10
-1153.9311305010492
 20
-2833.0602417351638
 30
0.0
 41
0.9999022530853677
 10
-1153.957239965657
 20
-2833.1900937037913
 30
0.0
 41
1.0
 10
-1153.9582186068228
 20
-2833.1949608461814
 30
0.0
 41
1.0
 10
-1153.9591972479889
 20
-2833.1998279885715
 30
0.0
 41
1.0
 10
-1153.9872639949319
 20
-2833.3394142419975
 30
0.0
 41
0.9999524761933164
 10
-1154.0180469637646
 20
-2833.4784267351515
 30
0.0
 41
1.0
 10
-1154.0193230709399
 20
-2833.4841894944529
 30
0.0
 41
1.0
 10
-1154.0205991781152
 20
-2833.4899522537544
 30
0.0
 41
1.0
 10
-1154.0539343612998
 20
-2833.6404902655181
 30
0.0
 41
0.9999813588725325
 10
-1154.0891053620946
 20
-2833.7906099781703
 30
0.0
 41
1.0
 10
-1154.0906592875522
 20
-2833.7972425685971
 30
0.0
 41
1.0
 10
-1154.0922132130097
 20
-2833.8038751590238
 30
0.0
 41
1.0
 10
-1154.1304920647267
 20
-2833.9672600525578
 30
0.0
 41
0.9999955237690188
 10
-1154.1697479426989
 20
-2834.1304129561299
 30
0.0
 41
1.0
 10
-1154.1820295783334
 20
-2834.1814571466539
 30
0.0
 41
1.0
 10
-1154.1943112139679
 20
-2834.2325013371774
 30
0.0
 41
1.0
 10
-1154.2581303632214
 20
-2834.497742621847
 30
0.0
 41
0.9999993604530995
 10
-1154.3225493104046
 20
-2834.7628388725943
 30
0.0
 41
1.0
 10
-1154.3272681459418
 20
-2834.7822577805946
 30
0.0
 41
1.0
 10
-1154.3319869814791
 20
-2834.8016766885944
 30
0.0
 41
1.0
 10
-1154.4058435997456
 20
-2835.1056107553759
 30
0.0
 41
0.9999659914725514
 10
-1154.4847031956299
 20
-2835.4082853019313
 30
0.0
 41
1.0
 10
-1154.489655884558
 20
-2835.4272944391041
 30
0.0
 41
1.0
 10
-1154.4946085734864
 20
-2835.4463035762774
 30
0.0
 41
1.0
 10
-1154.5833735472311
 20
-2835.7869963971943
 30
0.0
 41
0.9999441976026104
 10
-1154.6793165801946
 20
-2836.1257378224941
 30
0.0
 41
1.0
 10
-1154.6960170986204
 20
-2836.1847015350222
 30
0.0
 41
1.0
 10
-1154.7127176170461
 20
-2836.2436652475508
 30
0.0
 41
1.0
 10
-1154.8420616868596
 20
-2836.7003340979022
 30
0.0
 41
0.9999625120729559
 10
-1154.9792944541823
 20
-2837.1546946318949
 30
0.0
 41
1.0
 10
-1155.0150843972647
 20
-2837.2731906585204
 30
0.0
 41
1.0
 10
-1155.050874340347
 20
-2837.3916866851455
 30
0.0
 41
1.0
 10
-1155.1253945443896
 20
-2837.6384137632513
 30
0.0
 41
0.999979338630493
 10
-1155.2030805675286
 20
-2837.8841624024935
 30
0.0
 41
1.0
 10
-1155.2807665906662
 20
-2838.1299110417299
 30
0.0
 41
1.0
 10
-1155.291546149537
 20
-2838.1639289461045
 30
0.0
 41
1.0
 10
-1157.1419192028061
 20
-2844.0510008685719
 30
0.0
 41
1.0
 10
-1158.9922922560754
 20
-2849.9380727910393
 30
0.0
 41
1.0
 10
-1159.9535489460989
 20
-2849.9380727910393
 30
0.0
 41
1.0
 10
-1160.9148056361223
 20
-2849.9380727910393
 30
0.0
 41
1.0
 10
-1159.295860857444
 20
-2844.7900442892501
 30
0.0
 41
1.0
 10
-1157.6769160787655
 20
-2839.6420157874609
 30
0.0
 41
1.0
 10
-1157.6317502555917
 20
-2839.4979845651919
 30
0.0
 41
1.0
 10
-1157.5865844324176
 20
-2839.353953342923
 30
0.0
 41
1.0
 10
-1157.4162800150534
 20
-2838.8108623137559
 30
0.0
 41
0.9999911657915672
 10
-1157.250547203374
 20
-2838.2663587823945
 30
0.0
 41
1.0
 10
-1157.2208512598727
 20
-2838.1687948423414
 30
0.0
 41
1.0
 10
-1157.1911553163716
 20
-2838.0712309022888
 30
0.0
 41
1.0
 10
-1157.084814391694
 20
-2837.7218552510308
 30
0.0
 41
0.9999952428180088
 10
-1156.9806308023688
 20
-2837.3718302266816
 30
0.0
 41
1.0
 10
-1156.9755713320358
 20
-2837.3548319524048
 30
0.0
 41
1.0
 10
-1156.9705118617028
 20
-2837.3378336781279
 30
0.0
 41
1.0
 10
-1156.8764472130501
 20
-2837.0218052023533
 30
0.0
 41
0.9999931687484158
 10
-1156.7847213751702
 20
-2836.7050899890614
 30
0.0
 41
1.0
 10
-1156.7797861107156
 20
-2836.6880492798073
 30
0.0
 41
1.0
 10
-1156.7748508462607
 20
-2836.6710085705527
 30
0.0
 41
1.0
 10
-1156.6929955373016
 20
-2836.3883747758073
 30
0.0
 41
0.9999893840777517
 10
-1156.6137483108398
 20
-2836.1049986465441
 30
0.0
 41
1.0
 10
-1156.5345010843866
 20
-2835.8216225173101
 30
0.0
 41
0.999983398007059
 10
-1156.4585248436406
 20
-2835.5373519342675
 30
0.0
 41
1.0
 10
-1156.4495209069187
 20
-2835.5036630557897
 30
0.0
 41
1.0
 10
-1156.4405169701965
 20
-2835.469974177312
 30
0.0
 41
1.0
 10
-1156.3715524213321
 20
-2835.2119383450236
 30
0.0
 41
0.999923365806521
 10
-1156.3089974501095
 20
-2834.9522741862911
 30
0.0
 41
1.0
 10
-1156.2464424788891
 20
-2834.6926100275687
 30
0.0
 41
1.0
 10
-1156.2069590600315
 20
-2834.5288033631427
 30
0.0
 41
1.0
 10
-1156.2019804560528
 20
-2834.5081484012658
 30
0.0
 41
1.0
 10
-1156.1970018520738
 20
-2834.4874934393888
 30
0.0
 41
1.0
 10
-1156.1674756411717
 20
-2834.3649966987068
 30
0.0
 41
0.9999868670871932
 10
-1156.1392065571777
 20
-2834.2422037530714
 30
0.0
 41
1.0
 10
-1156.1353090700209
 20
-2834.2252741656589
 30
0.0
 41
1.0
 10
-1156.1314115828643
 20
-2834.2083445782464
 30
0.0
 41
1.0
 10
-1156.1109374731795
 20
-2834.1194108074174
 30
0.0
 41
0.9999778173352587
 10
-1156.0916498750662
 20
-2834.0302121901955
 30
0.0
 41
1.0
 10
-1156.0723622769547
 20
-2833.941013572984
 30
0.0
 41
0.9999602692855384
 10
-1156.0546679183215
 20
-2833.8514852845469
 30
0.0
 41
1.0
 10
-1156.051464086243
 20
-2833.835274829657
 30
0.0
 41
1.0
 10
-1156.0482602541647
 20
-2833.8190643747671
 30
0.0
 41
1.0
 10
-1156.0241582313788
 20
-2833.6971151765697
 30
0.0
 41
0.999561798532099
 10
-1156.0073148841602
 20
-2833.5739534288646
 30
0.0
 41
1.0
 10
-1156.0048503942539
 20
-2833.555932611499
 30
0.0
 41
1.0
 10
-1156.0023859043479
 20
-2833.5379117941338
 30
0.0
 41
1.0
 10
-1155.9821026432999
 20
-2833.3895967444346
 30
0.0
 41
0.9991121410640543
 10
-1155.9743772897109
 20
-2833.2401006456248
 30
0.0
 41
1.0
 10
-1155.9734584996863
 20
-2833.2223208090481
 30
0.0
 41
1.0
 10
-1155.9725397096618
 20
-2833.2045409724719
 30
0.0
 41
1.0
 10
-1155.9666519361228
 20
-2833.0906045468205
 30
0.0
 41
0.9989792494905713
 10
-1155.97107102824
 20
-2832.97660171092
 30
0.0
 41
1.0
 10
-1155.9717190001088
 20
-2832.9598854649903
 30
0.0
 41
1.0
 10
-1155.9723669719774
 20
-2832.9431692190606
 30
0.0
 41
1.0
 10
-1155.9754901203573
 20
-2832.8625988750191
 30
0.0
 41
0.9997820295395475
 10
-1155.981974117733
 20
-2832.7822291532775
 30
0.0
 41
1.0
 10
-1155.9884581151075
 20
-2832.7018594315473
 30
0.0
 41
0.9998335105973314
 10
-1155.9978703106187
 20
-2832.6217798150988
 30
0.0
 41
1.0
 10
-1155.9994652352959
 20
-2832.6082100846079
 30
0.0
 41
1.0
 10
-1156.0010601599731
 20
-2832.5946403541175
 30
0.0
 41
1.0
 10
-1156.0136622048376
 20
-2832.4874212767008
 30
0.0
 41
0.9996876457879244
 10
-1156.0316061176361
 20
-2832.380965848984
 30
0.0
 41
1.0
 10
-1156.0338377807811
 20
-2832.3677261137436
 30
0.0
 41
1.0
 10
-1156.0360694439262
 20
-2832.3544863785037
 30
0.0
 41
1.0
 10
-1156.0498652653469
 20
-2832.2726402345443
 30
0.0
 41
0.9995547496493646
 10
-1156.0685185872401
 20
-2832.1917627373523
 30
0.0
 41
1.0
 10
-1156.0688925441111
 20
-2832.1901413266482
 30
0.0
 41
1.0
 10
-1156.0692665009822
 20
-2832.1885199159442
 30
0.0
 41
1.0
 10
-1156.0871719091328
 20
-2832.1108852401626
 30
0.0
 41
0.9994899427176827
 10
-1156.1099968178121
 20
-2832.0345519573266
 30
0.0
 41
1.0
 10
-1156.110455344553
 20
-2832.0330185075377
 30
0.0
 41
1.0
 10
-1156.1109138712936
 20
-2832.0314850577488
 30
0.0
 41
1.0
 10
-1156.1328217264913
 20
-2831.9582186744919
 30
0.0
 41
0.9993784877590722
 10
-1156.159837361598
 20
-2831.8866779693335
 30
0.0
 41
1.0
 10
-1156.1603690525744
 20
-2831.8852699866147
 30
0.0
 41
1.0
 10
-1156.1609007435507
 20
-2831.8838620038955
 30
0.0
 41
1.0
 10
-1156.186852996703
 20
-2831.8151372641778
 30
0.0
 41
0.9992430832253775
 10
-1156.2180695318639
 20
-2831.7486381121062
 30
0.0
 41
1.0
 10
-1156.218651647921
 20
-2831.7473980569875
 30
0.0
 41
1.0
 10
-1156.2192337639781
 20
-2831.7461580018694
 30
0.0
 41
1.0
 10
-1156.2492860670236
 20
-2831.6821389600368
 30
0.0
 41
0.9990789632797703
 10
-1156.2847166938
 20
-2831.6209323482881
 30
0.0
 41
1.0
 10
-1156.2853123999821
 20
-2831.6199032624281
 30
0.0
 41
1.0
 10
-1156.2859081061645
 20
-2831.6188741765686
 30
0.0
 41
1.0
 10
-1156.3201473205786
 20
-2831.5597257365357
 30
0.0
 41
0.9988874801122187
 10
-1156.3598065966089
 20
-2831.5040660241202
 30
0.0
 41
1.0
 10
-1156.360362122673
 20
-2831.5032863724455
 30
0.0
 41
1.0
 10
-1156.3609176487373
 20
-2831.5025067207707
 30
0.0
 41
1.0
 10
-1156.3994658726397
 20
-2831.4484063117038
 30
0.0
 41
0.9986762060693453
 10
-1156.443368343917
 20
-2831.3985525972635
 30
0.0
 41
1.0
 10
-1156.4438123042482
 20
-2831.3980484554477
 30
0.0
 41
1.0
 10
-1156.4442562645797
 20
-2831.3975443136319
 30
0.0
 41
1.0
 10
-1156.4872708151913
 20
-2831.3486988828263
 30
0.0
 41
0.9984621642488366
 10
-1156.5354283719707
 20
-2831.3049155823533
 30
0.0
 41
1.0
 10
-1156.5356750064866
 20
-2831.3046913501903
 30
0.0
 41
1.0
 10
-1156.5359216410022
 20
-2831.3044671180278
 30
0.0
 41
1.0
 10
-1156.5835859287488
 20
-2831.2611322818821
 30
0.0
 41
0.998272469385122
 10
-1156.6360045605902
 20
-2831.2236879313646
 30
0.0
 41
1.0
 10
-1156.6884231924296
 20
-2831.1862435808484
 30
0.0
 41
0.9981399180160949
 10
-1156.7450092558222
 20
-2831.1554570614048
 30
0.0
 41
1.0
 10
-1156.7450549179021
 20
-2831.1554322182469
 30
0.0
 41
1.0
 10
-1156.7451005799817
 20
-2831.155407375089
 30
0.0
 41
1.0
 10
-1156.8017779675342
 20
-2831.1245711693296
 30
0.0
 41
0.9980927086833205
 10
-1156.861823318603
 20
-2831.1009543604769
 30
0.0
 41
1.0
 10
-1156.8622634883125
 20
-2831.1007812346024
 30
0.0
 41
1.0
 10
-1156.8627036580219
 20
-2831.1006081087285
 30
0.0
 41
1.0
 10
-1156.9236293485103
 20
-2831.0766450481265
 30
0.0
 41
0.9981411356561801
 10
-1156.9870178699084
 20
-2831.0602724066212
 30
0.0
 41
1.0
 10
-1156.9878999866112
 20
-2831.0600445644154
 30
0.0
 41
1.0
 10
-1156.988782103314
 20
-2831.0598167222097
 30
0.0
 41
1.0
 10
-1157.053934858114
 20
-2831.0429883962938
 30
0.0
 41
0.9983031812938207
 10
-1157.1206022871058
 20
-2831.0338490351178
 30
0.0
 41
1.0
 10
-1157.1294733125101
 20
-2831.0326329164463
 30
0.0
 41
1.0
 10
-1157.1383443379145
 20
-2831.0314167977749
 30
0.0
 41
1.0
 10
-1157.1926939804209
 20
-2831.0239660677839
 30
0.0
 41
0.9983887708267326
 10
-1157.2475378297158
 20
-2831.0227213941498
 30
0.0
 41
1.0
 10
-1157.2556012349455
 20
-2831.0225383962747
 30
0.0
 41
1.0
 10
-1157.2636646401754
 20
-2831.0223553983997
 30
0.0
 41
1.0
 10
-1157.3023816790208
 20
-2831.0214767205161
 30
0.0
 41
0.9998869563078003
 10
-1157.3411076322113
 20
-2831.0217625898763
 30
0.0
 41
1.0
 10
-1157.3798335853819
 20
-2831.0220484592355
 30
0.0
 41
0.9999972320095606
 10
-1157.4185577645615
 20
-2831.0225165587644
 30
0.0
 41
1.0
 10
-1157.4379107811731
 20
-2831.0227504988543
 30
0.0
 41
1.0
 10
-1157.4572637977847
 20
-2831.0229844389441
 30
0.0
 41
1.0
 10
-1157.5346940101558
 20
-2831.0239204186519
 30
0.0
 41
0.999730494508711
 10
-1157.6119973163939
 20
-2831.0284495124379
 30
0.0
 41
1.0
 10
-1157.6210469580978
 20
-2831.0289797184278
 30
0.0
 41
1.0
 10
-1157.6300965998016
 20
-2831.0295099244177
 30
0.0
 41
1.0
 10
-1157.7254991894461
 20
-2831.0350994301834
 30
0.0
 41
0.9997888306414949
 10
-1157.8205915252859
 20
-2831.0446043946722
 30
0.0
 41
1.0
 10
-1157.8293125868609
 20
-2831.0454761093042
 30
0.0
 41
1.0
 10
-1157.8380336484356
 20
-2831.0463478239367
 30
0.0
 41
1.0
 10
-1157.9505681074238
 20
-2831.0575962176899
 30
0.0
 41
0.9984170238190421
 10
-1158.0611272547756
 20
-2831.0814122996258
 30
0.0
 41
1.0
 10
-1158.0975083857606
 20
-2831.0892493354313
 30
0.0
 41
1.0
 10
-1158.1338895167457
 20
-2831.0970863712373
 30
0.0
 41
1.0
 10
-1158.2490805851683
 20
-2831.121900237747
 30
0.0
 41
0.9976592854199013
 10
-1158.3598087515745
 20
-2831.1621989148948
 30
0.0
 41
1.0
 10
-1158.4705369179853
 20
-2831.2024975920444
 30
0.0
 41
0.9993255074351882
 10
-1158.5780087167796
 20
-2831.2508144905387
 30
0.0
 41
1.0
 10
-1158.5826338956981
 20
-2831.2528938667365
 30
0.0
 41
1.0
 10
-1158.5872590746169
 20
-2831.2549732429338
 30
0.0
 41
1.0
 10
-1158.7039812312532
 20
-2831.307448893825
 30
0.0
 41
0.9976475078274731
 10
-1158.8124285755628
 20
-2831.3753968834831
 30
0.0
 41
1.0
 10
-1158.8307709696969
 20
-2831.3868893622976
 30
0.0
 41
1.0
 10
-1158.8491133638313
 20
-2831.3983818411116
 30
0.0
 41
1.0
 10
-1158.9333155553841
 20
-2831.4511389618801
 30
0.0
 41
0.999513133640611
 10
-1159.0140632703437
 20
-2831.5090451738351
 30
0.0
 41
1.0
 10
-1159.0948109853057
 20
-2831.5669513857911
 30
0.0
 41
0.9995810107605122
 10
-1159.1720726330348
 20
-2831.6294330682581
 30
0.0
 41
1.0
 10
-1159.1750426642425
 20
-2831.6318349397206
 30
0.0
 41
1.0
 10
-1159.1780126954502
 20
-2831.6342368111832
 30
0.0
 41
1.0
 10
-1159.2612144056004
 20
-2831.701522236579
 30
0.0
 41
0.9996617837954342
 10
-1159.3408050927328
 20
-2831.7730426921366
 30
0.0
 41
1.0
 10
-1159.3529358436097
 20
-2831.7839434251273
 30
0.0
 41
1.0
 10
-1159.3650665944865
 20
-2831.7948441581175
 30
0.0
 41
1.0
 10
-1159.4333421218851
 20
-2831.8561967735918
 30
0.0
 41
0.9997267750052941
 10
-1159.4986756301696
 20
-2831.9206733101178
 30
0.0
 41
1.0
 10
-1159.5640091384553
 20
-2831.9851498466451
 30
0.0
 41
0.9999667288957301
 10
-1159.6282820816041
 20
-2832.0506836535419
 30
0.0
 41
1.0
 10
-1159.697109529377
 20
-2832.1208613122981
 30
0.0
 41
1.0
 10
-1159.7659369771502
 20
-2832.1910389710542
 30
0.0
 41
1.0
 10
-1159.9678648158467
 20
-2832.3969280954652
 30
0.0
 41
0.9988205335175603
 10
-1160.1488704328265
 20
-2832.6214323275258
 30
0.0
 41
1.0
 10
-1160.1795103977311
 20
-2832.6594355779557
 30
0.0
 41
1.0
 10
-1160.2101503626359
 20
-2832.6974388283857
 30
0.0
 41
1.0
 10
-1160.4524359094241
 20
-2832.9979495613052
 30
0.0
 41
0.9997077826755378
 10
-1160.6799138605284
 20
-2833.3098193555202
 30
0.0
 41
1.0
 10
-1160.6816372756598
 20
-2833.3121821389009
 30
0.0
 41
1.0
 10
-1160.683360690791
 20
-2833.3145449222816
 30
0.0
 41
1.0
 10
-1160.9142854721581
 20
-2833.6311402832589
 30
0.0
 41
0.9989147567078928
 10
-1161.114748975041
 20
-2833.967849744442
 30
0.0
 41
1.0
 10
-1161.1394901203482
 20
-2834.0094063249949
 30
0.0
 41
1.0
 10
-1161.1642312656554
 20
-2834.0509629055477
 30
0.0
 41
1.0
 10
-1161.3194425642951
 20
-2834.311664290004
 30
0.0
 41
0.9997476598181952
 10
-1161.4627875518015
 20
-2834.5790740385814
 30
0.0
 41
1.0
 10
-1161.6061325393125
 20
-2834.8464837871661
 30
0.0
 41
0.9996258967109688
 10
-1161.7346407912419
 20
-2835.1213317237862
 30
0.0
 41
1.0
 10
-1161.747840700692
 20
-2835.1495631238822
 30
0.0
 41
1.0
 10
-1161.7610406101419
 20
-2835.1777945239783
 30
0.0
 41
1.0
 10
-1161.9012493311445
 20
-2835.4776669219373
 30
0.0
 41
0.9998735413945504
 10
-1162.0318506778626
 20
-2835.7818465214004
 30
0.0
 41
1.0
 10
-1162.035293505922
 20
-2835.7898651068626
 30
0.0
 41
1.0
 10
-1162.0387363339814
 20
-2835.7978836923244
 30
0.0
 41
1.0
 10
-1162.1624520245814
 20
-2836.0860261208645
 30
0.0
 41
0.9999377418857892
 10
-1162.2797068267578
 20
-2836.3768575885433
 30
0.0
 41
1.0
 10
-1162.3969616289307
 20
-2836.667689056213
 30
0.0
 41
0.9999508299503218
 10
-1162.5084255723045
 20
-2836.9607887330258
 30
0.0
 41
1.0
 10
-1162.5115063409698
 20
-2836.9688897589967
 30
0.0
 41
1.0
 10
-1162.5145871096352
 20
-2836.9769907849682
 30
0.0
 41
1.0
 10
-1162.6322125903391
 20
-2837.2862925137206
 30
0.0
 41
0.9999609228429121
 10
-1162.7443511932152
 20
-2837.5976255297428
 30
0.0
 41
1.0
 10
-1162.747307203563
 20
-2837.6058323701473
 30
0.0
 41
1.0
 10
-1162.7502632139108
 20
-2837.6140392105517
 30
0.0
 41
1.0
 10
-1162.8683138374827
 20
-2837.9417859073819
 30
0.0
 41
0.9999674607399511
 10
-1162.9810613635509
 20
-2838.2713945273767
 30
0.0
 41
1.0
 10
-1163.0324597541139
 20
-2838.4216537230709
 30
0.0
 41
1.0
 10
-1163.0838581446772
 20
-2838.5719129187651
 30
0.0
 41
1.0
 10
-1163.1998687514383
 20
-2838.9110609012769
 30
0.0
 41
0.99992875323111
 10
-1163.3077501554058
 20
-2839.2528816402437
 30
0.0
 41
1.0
 10
-1163.3542274115471
 20
-2839.4001441846212
 30
0.0
 41
1.0
 10
-1163.4007046676882
 20
-2839.5474067289992
 30
0.0
 41
1.0
 10
-1163.4156315593827
 20
-2839.5947023792392
 30
0.0
 41
0.999999822294293
 10
-1163.430502068107
 20
-2839.6420157874609
 30
0.0
 41
1.0
 10
-1165.0511582049025
 20
-2844.7900442892501
 30
0.0
 41
1.0
 10
-1166.6718143416979
 20
-2849.9380727910393
 30
0.0
 41
1.0
 10
-1167.5771227855889
 20
-2849.9380727910393
 30
0.0
 41
1.0
 10
-1168.4824312294797
 20
-2849.9380727910393
 30
0.0
 41
1.0
 10
-1166.6303468180936
 20
-2844.0510008685719
 30
0.0
 41
1.0
 10
-1164.7782624067077
 20
-2838.1639289461045
 30
0.0
 41
1.0
 10
-1164.7681406484048
 20
-2838.1318857326551
 30
0.0
 41
1.0
 10
-1164.6955329795551
 20
-2837.9015861908292
 30
0.0
 41
1.0
 10
-1164.622925310709
 20
-2837.6712866490152
 30
0.0
 41
0.9999825681964373
 10
-1164.5530422714903
 20
-2837.4401457539261
 30
0.0
 41
1.0
 10
-1164.5047512093329
 20
-2837.2804211704415
 30
0.0
 41
1.0
 10
-1164.4564601471754
 20
-2837.1206965869569
 30
0.0
 41
1.0
 10
-1164.3593077938617
 20
-2836.7993613651915
 30
0.0
 41
0.9999672528965934
 10
-1164.2673689882331
 20
-2836.4764958195883
 30
0.0
 41
1.0
 10
-1164.2645801045637
 20
-2836.4667019741992
 30
0.0
 41
1.0
 10
-1164.2617912208941
 20
-2836.45690812881
 30
0.0
 41
1.0
 10
-1164.1754301826165
 20
-2836.1536302740242
 30
0.0
 41
0.999989974915237
 10
-1164.0917885730751
 20
-2835.8495911855498
 30
0.0
 41
1.0
 10
-1164.0816826540558
 20
-2835.8128559478646
 30
0.0
 41
1.0
 10
-1164.0715767350364
 20
-2835.7761207101794
 30
0.0
 41
1.0
 10
-1164.0081469635393
 20
-2835.5455520970927
 30
0.0
 41
0.9999214200504217
 10
-1163.9505175351626
 20
-2835.3134657548881
 30
0.0
 41
1.0
 10
-1163.9377516829823
 20
-2835.2620548694931
 30
0.0
 41
1.0
 10
-1163.9249858308021
 20
-2835.2106439840982
 30
0.0
 41
1.0
 10
-1163.8928881067857
 20
-2835.0813794126816
 30
0.0
 41
0.9999828681674715
 10
-1163.8623058547896
 20
-2834.9517479382112
 30
0.0
 41
1.0
 10
-1163.8317236027929
 20
-2834.8221164637393
 30
0.0
 41
0.9999389844478905
 10
-1163.804012614007
 20
-2834.6918410078538
 30
0.0
 41
1.0
 10
-1163.7968748702856
 20
-2834.6582849040115
 30
0.0
 41
1.0
 10
-1163.7897371265644
 20
-2834.6247288001687
 30
0.0
 41
1.0
 10
-1163.7477506503324
 20
-2834.4273411365834
 30
0.0
 41
0.9998933699440772
 10
-1163.7115463859316
 20
-2834.2288115288297
 30
0.0
 41
1.0
 10
-1163.7101735607157
 20
-2834.2212835081355
 30
0.0
 41
1.0
 10
-1163.7088007354998
 20
-2834.2137554874416
 30
0.0
 41
1.0
 10
-1163.6698508206644
 20
-2834.0001698382875
 30
0.0
 41
0.9996850305193767
 10
-1163.6416671444067
 20
-2833.7848988328574
 30
0.0
 41
1.0
 10
-1163.6396721110373
 20
-2833.7696604787352
 30
0.0
 41
1.0
 10
-1163.6376770776681
 20
-2833.7544221246126
 30
0.0
 41
1.0
 10
-1163.610269215209
 20
-2833.5450768974597
 30
0.0
 41
0.9994697936706345
 10
-1163.596544655989
 20
-2833.3343917021243
 30
0.0
 41
1.0
 10
-1163.5960675867395
 20
-2833.3270682299158
 30
0.0
 41
1.0
 10
-1163.5955905174899
 20
-2833.3197447577072
 30
0.0
 41
1.0
 10
-1163.5828200967699
 20
-2833.1237065067962
 30
0.0
 41
0.9991804893137886
 10
-1163.5859484130422
 20
-2832.92727765682
 30
0.0
 41
1.0
 10
-1163.5860322918643
 20
-2832.9220108554036
 30
0.0
 41
1.0
 10
-1163.5861161706864
 20
-2832.9167440539873
 30
0.0
 41
1.0
 10
-1163.5890767293147
 20
-2832.7308488068429
 30
0.0
 41
0.9988448329320829
 10
-1163.6098682749387
 20
-2832.5460962170132
 30
0.0
 41
1.0
 10
-1163.6114623486415
 20
-2832.5319313612431
 30
0.0
 41
1.0
 10
-1163.6130564223445
 20
-2832.517766505473
 30
0.0
 41
1.0
 10
-1163.6306598205622
 20
-2832.3613436271826
 30
0.0
 41
0.9985503209459387
 10
-1163.6649760928619
 20
-2832.2077194430904
 30
0.0
 41
1.0
 10
-1163.6725620849334
 20
-2832.1737591156893
 30
0.0
 41
1.0
 10
-1163.6801480770048
 20
-2832.1397987882883
 30
0.0
 41
1.0
 10
-1163.6992923651624
 20
-2832.0540952589981
 30
0.0
 41
0.9991036781370761
 10
-1163.7256172268126
 20
-2831.9703181716764
 30
0.0
 41
1.0
 10
-1163.7295994522694
 20
-2831.9576450091631
 30
0.0
 41
1.0
 10
-1163.7335816777263
 20
-2831.9449718466499
 30
0.0
 41
1.0
 10
-1163.7519420884646
 20
-2831.8865410843482
 30
0.0
 41
0.9998874504369077
 10
-1163.7720472961423
 20
-2831.8286874821279
 30
0.0
 41
1.0
 10
-1163.7921525038228
 20
-2831.7708338798993
 30
0.0
 41
0.9994041637543459
 10
-1163.8162011167572
 20
-2831.7145051760103
 30
0.0
 41
1.0
 10
-1163.82039790098
 20
-2831.7046751115313
 30
0.0
 41
1.0
 10
-1163.824594685203
 20
-2831.6948450470518
 30
0.0
 41
1.0
 10
-1163.852473516198
 20
-2831.6295448810838
 30
0.0
 41
0.9991846840702569
 10
-1163.8855298728909
 20
-2831.5667068498037
 30
0.0
 41
1.0
 10
-1163.8866664792874
 20
-2831.5645462333459
 30
0.0
 41
1.0
 10
-1163.887803085684
 20
-2831.5623856168882
 30
0.0
 41
1.0
 10
-1163.9185862295858
 20
-2831.50386881852
 30
0.0
 41
0.9989253167921617
 10
-1163.9546556536388
 20
-2831.4484538901334
 30
0.0
 41
1.0
 10
-1163.9557097783131
 20
-2831.4468343953713
 30
0.0
 41
1.0
 10
-1163.9567639029872
 20
-2831.4452149006092
 30
0.0
 41
1.0
 10
-1163.9907250776946
 20
-2831.3930389617421
 30
0.0
 41
0.9986467172837186
 10
-1164.0299222303311
 20
-2831.3446729281131
 30
0.0
 41
1.0
 10
-1164.0307963590317
 20
-2831.3435943258351
 30
0.0
 41
1.0
 10
-1164.0316704877323
 20
-2831.342515723557
 30
0.0
 41
1.0
 10
-1164.0691193829675
 20
-2831.296306894485
 30
0.0
 41
0.9984001104268023
 10
-1164.1115461134857
 20
-2831.254621787115
 30
0.0
 41
1.0
 10
-1164.1121332515957
 20
-2831.2540449122334
 30
0.0
 41
1.0
 10
-1164.1127203897056
 20
-2831.2534680373515
 30
0.0
 41
1.0
 10
-1164.1539728440027
 20
-2831.2129366797467
 30
0.0
 41
0.9982442159084118
 10
-1164.1997289453384
 20
-2831.1775681184863
 30
0.0
 41
1.0
 10
-1164.1999437407994
 20
-2831.1774020858438
 30
0.0
 41
1.0
 10
-1164.2001585362605
 20
-2831.1772360532009
 30
0.0
 41
1.0
 10
-1164.2454850466725
 20
-2831.1421995572273
 30
0.0
 41
0.9982450060838406
 10
-1164.2946360257458
 20
-2831.1127677741924
 30
0.0
 41
1.0
 10
-1164.3437870048167
 20
-2831.0833359911589
 30
0.0
 41
0.9983922639631674
 10
-1164.3959533109833
 20
-2831.0596563565045
 30
0.0
 41
1.0
 10
-1164.3961801883074
 20
-2831.059553371023
 30
0.0
 41
1.0
 10
-1164.3964070656314
 20
-2831.0594503855418
 30
0.0
 41
1.0
 10
-1164.4490271264453
 20
-2831.0355647799252
 30
0.0
 41
0.9986517147152279
 10
-1164.5038400993117
 20
-2831.0172636608036
 30
0.0
 41
1.0
 10
-1164.5045180207403
 20
-2831.0170373143719
 30
0.0
 41
1.0
 10
-1164.5051959421689
 20
-2831.0168109679403
 30
0.0
 41
1.0
 10
-1164.5613647578934
 20
-2830.9980571559549
 30
0.0
 41
0.99894355989546
 10
-1164.6190181450461
 20
-2830.9845394537206
 30
0.0
 41
1.0
 10
-1164.6200982646267
 20
-2830.9842862034675
 30
0.0
 41
1.0
 10
-1164.6211783842073
 20
-2830.9840329532149
 30
0.0
 41
1.0
 10
-1164.6809920105225
 20
-2830.9700087504743
 30
0.0
 41
0.9992249241241062
 10
-1164.7417235194202
 20
-2830.9607334077587
 30
0.0
 41
1.0
 10
-1164.7431372077108
 20
-2830.9605174993512
 30
0.0
 41
1.0
 10
-1164.7445508960013
 20
-2830.9603015909433
 30
0.0
 41
1.0
 10
-1164.8081097814816
 20
-2830.9505944314128
 30
0.0
 41
0.9994396597834078
 10
-1164.8721757180199
 20
-2830.945161509067
 30
0.0
 41
1.0
 10
-1164.8913163854968
 20
-2830.9435383413484
 30
0.0
 41
1.0
 10
-1164.9104570529735
 20
-2830.9419151736302
 30
0.0
 41
1.0
 10
-1165.0128043244679
 20
-2830.933235915847
 30
0.0
 41
0.9987693403120557
 10
-1165.1155079480568
 20
-2830.9347389792997
 30
0.0
 41
1.0
 10
-1165.1257622822845
 20
-2830.9348890510737
 30
0.0
 41
1.0
 10
-1165.1360166165121
 20
-2830.9350391228481
 30
0.0
 41
1.0
 10
-1165.2455723826884
 20
-2830.9366424671352
 30
0.0
 41
0.9989753644965451
 10
-1165.3545343827029
 20
-2830.9481454740603
 30
0.0
 41
1.0
 10
-1165.4634963827177
 20
-2830.9596484809854
 30
0.0
 41
0.9983190067305503
 10
-1165.570395193681
 20
-2830.9836834727716
 30
0.0
 41
1.0
 10
-1165.5792961452894
 20
-2830.9856847513347
 30
0.0
 41
1.0
 10
-1165.5881970968978
 20
-2830.9876860298978
 30
0.0
 41
1.0
 10
-1165.7128978110784
 20
-2831.0157235788106
 30
0.0
 41
0.9985539388303412
 10
-1165.8338675647581
 20
-2831.0569872548567
 30
0.0
 41
1.0
 10
-1165.8362129957163
 20
-2831.0577872986719
 30
0.0
 41
1.0
 10
-1165.8385584266748
 20
-2831.058587342487
 30
0.0
 41
1.0
 10
-1165.9642190422737
 20
-2831.1014511061644
 30
0.0
 41
0.9988468746493721
 10
-1166.0851893845759
 20
-2831.1561691912279
 30
0.0
 41
1.0
 10
-1166.0883722065635
 20
-2831.1576088657876
 30
0.0
 41
1.0
 10
-1166.0915550285511
 20
-2831.1590485403467
 30
0.0
 41
1.0
 10
-1166.2188910148279
 20
-2831.2166459745285
 30
0.0
 41
0.9991322885919318
 10
-1166.3409915988848
 20
-2831.2846413067105
 30
0.0
 41
1.0
 10
-1166.3585936099266
 20
-2831.2944435086993
 30
0.0
 41
1.0
 10
-1166.3761956209682
 20
-2831.3042457106876
 30
0.0
 41
1.0
 10
-1166.4783723020278
 20
-2831.36114582647
 30
0.0
 41
0.9993860037850564
 10
-1166.5763133061041
 20
-2831.4250618420597
 30
0.0
 41
1.0
 10
-1166.5819316189504
 20
-2831.4287283367507
 30
0.0
 41
1.0
 10
-1166.587549931797
 20
-2831.4323948314418
 30
0.0
 41
1.0
 10
-1166.674254310175
 20
-2831.4889778576467
 30
0.0
 41
0.9998821494953489
 10
-1166.75918068599
 20
-2831.548196087725
 30
0.0
 41
1.0
 10
-1166.8441070618071
 20
-2831.6074143178048
 30
0.0
 41
0.9997976482743751
 10
-1166.9265826922099
 20
-2831.670000725846
 30
0.0
 41
1.0
 10
-1166.941218957013
 20
-2831.6811074156244
 30
0.0
 41
1.0
 10
-1166.9558552218164
 20
-2831.6922141054029
 30
0.0
 41
1.0
 10
-1167.0676033818258
 20
-2831.7770138930014
 30
0.0
 41
0.9998091630801111
 10
-1167.1759536598549
 20
-2831.8661142437036
 30
0.0
 41
1.0
 10
-1167.1889594123336
 20
-2831.8768093441508
 30
0.0
 41
1.0
 10
-1167.2019651648122
 20
-2831.8875044445981
 30
0.0
 41
1.0
 10
-1167.3363269477932
 20
-2831.9979949961908
 30
0.0
 41
0.9995035112317608
 10
-1167.463462825556
 20
-2832.1167288132046
 30
0.0
 41
1.0
 10
-1167.4731101359453
 20
-2832.1257385593644
 30
0.0
 41
1.0
 10
-1167.4827574463343
 20
-2832.1347483055238
 30
0.0
 41
1.0
 10
-1167.6061805090985
 20
-2832.2500146772786
 30
0.0
 41
0.9994630424299207
 10
-1167.7217889148819
 20
-2832.3731174205132
 30
0.0
 41
1.0
 10
-1167.7254717536532
 20
-2832.3770390000263
 30
0.0
 41
1.0
 10
-1167.7291545924245
 20
-2832.3809605795391
 30
0.0
 41
1.0
 10
-1167.8373973206658
 20
-2832.4962201637481
 30
0.0
 41
0.9995160693749833
 10
-1167.9382633501978
 20
-2832.617987581621
 30
0.0
 41
1.0
 10
-1167.9401970702779
 20
-2832.6203220058287
 30
0.0
 41
1.0
 10
-1167.9421307903583
 20
-2832.6226564300364
 30
0.0
 41
1.0
 10
-1168.0391293797272
 20
-2832.7397549994912
 30
0.0
 41
0.999656147051491
 10
-1168.1298555983954
 20
-2832.8617777619429
 30
0.0
 41
1.0
 10
-1168.1360132642967
 20
-2832.8700595509845
 30
0.0
 41
1.0
 10
-1168.1421709301983
 20
-2832.8783413400261
 30
0.0
 41
1.0
 10
-1168.2205818170639
 20
-2832.9838005243955
 30
0.0
 41
0.9998349055173746
 10
-1168.2951090989936
 20
-2833.0920391080554
 30
0.0
 41
1.0
 10
-1168.3696363809265
 20
-2833.2002776917197
 30
0.0
 41
0.9999728109562845
 10
-1168.4425592768357
 20
-2833.3096036172738
 30
0.0
 41
1.0
 10
-1168.4438744922477
 20
-2833.3115753867764
 30
0.0
 41
1.0
 10
-1168.4451897076594
 20
-2833.3135471562791
 30
0.0
 41
1.0
 10
-1168.5207430344185
 20
-2833.4268166208767
 30
0.0
 41
0.9999972147403565
 10
-1168.5957608447725
 20
-2833.5404414636828
 30
0.0
 41
1.0
 10
-1168.6007323873923
 20
-2833.5479715521515
 30
0.0
 41
1.0
 10
-1168.6057039300119
 20
-2833.5555016406197
 30
0.0
 41
1.0
 10
-1168.6906648256358
 20
-2833.6841866604077
 30
0.0
 41
0.9999371979006716
 10
-1168.7727201750349
 20
-2833.8147435741771
 30
0.0
 41
1.0
 10
-1168.7762290593969
 20
-2833.8203265022426
 30
0.0
 41
1.0
 10
-1168.7797379437588
 20
-2833.825909430308
 30
0.0
 41
1.0
 10
-1168.8688110618871
 20
-2833.9676322002156
 30
0.0
 41
0.9998272025611716
 10
-1168.9525544527687
 20
-2834.1125680769574
 30
0.0
 41
1.0
 10
-1168.9677696247932
 20
-2834.1389011914148
 30
0.0
 41
1.0
 10
-1168.9829847968176
 20
-2834.1652343058722
 30
0.0
 41
1.0
 10
-1169.0971585317466
 20
-2834.3628364115266
 30
0.0
 41
0.9995217214838741
 10
-1169.198898221304
 20
-2834.5671187393914
 30
0.0
 41
1.0
 10
-1169.2065417839399
 20
-2834.5824661890961
 30
0.0
 41
1.0
 10
-1169.2141853465757
 20
-2834.5978136388007
 30
0.0
 41
1.0
 10
-1169.3010906391644
 20
-2834.7723100968797
 30
0.0
 41
0.9998269762607852
 10
-1169.3814451054352
 20
-2834.9499183836015
 30
0.0
 41
1.0
 10
-1169.4617995717058
 20
-2835.127526670321
 30
0.0
 41
0.9998944747387373
 10
-1169.5369603662691
 20
-2835.3073943959475
 30
0.0
 41
1.0
 10
-1169.5419140358604
 20
-2835.3192490508645
 30
0.0
 41
1.0
 10
-1169.5468677054516
 20
-2835.331103705782
 30
0.0
 41
1.0
 10
-1169.6275147660058
 20
-2835.5241006458041
 30
0.0
 41
0.9999506734417812
 10
-1169.704312294911
 20
-2835.7186614506645
 30
0.0
 41
1.0
 10
-1169.7189122601808
 20
-2835.7556493724674
 30
0.0
 41
1.0
 10
-1169.7335122254503
 20
-2835.7926372942702
 30
0.0
 41
1.0
 10
-1169.7811098238158
 20
-2835.9132222555236
 30
0.0
 41
0.9999912393903493
 10
-1169.8276962678369
 20
-2836.0342014582161
 30
0.0
 41
1.0
 10
-1169.8742827118538
 20
-2836.1551806608968
 30
0.0
 41
0.9999927113980063
 10
-1169.9199440062605
 20
-2836.2765120684317
 30
0.0
 41
1.0
 10
-1169.9339124376547
 20
-2836.3136290504217
 30
0.0
 41
1.0
 10
-1169.9478808690492
 20
-2836.3507460324117
 30
0.0
 41
1.0
 10
-1170.0214790262362
 20
-2836.5463114039044
 30
0.0
 41
0.9999487550949339
 10
-1170.0911026512119
 20
-2836.7433267690985
 30
0.0
 41
1.0
 10
-1170.1146962611472
 20
-2836.8100900793861
 30
0.0
 41
1.0
 10
-1170.1382898710824
 20
-2836.8768533896741
 30
0.0
 41
1.0
 10
-1170.2329755054593
 20
-2837.1447872245171
 30
0.0
 41
0.9999808436944633
 10
-1170.3243370940963
 20
-2837.413872655769
 30
0.0
 41
1.0
 10
-1170.4156986827434
 20
-2837.6829580870499
 30
0.0
 41
0.999987393291897
 10
-1170.5043533914525
 20
-2837.9529474420369
 30
0.0
 41
1.0
 10
-1170.5244457483236
 20
-2838.0141367747947
 30
0.0
 41
1.0
 10
-1170.5445381051945
 20
-2838.0753261075529
 30
0.0
 41
1.0
 10
-1170.6733775276548
 20
-2838.4676941280813
 30
0.0
 41
0.9999794883032358
 10
-1170.7971803126072
 20
-2838.861680334343
 30
0.0
 41
1.0
 10
-1170.8083325720377
 20
-2838.8971709445568
 30
0.0
 41
1.0
 10
-1170.8194848314679
 20
-2838.9326615547711
 30
0.0
 41
1.0
 10
-1170.9620429953525
 20
-2839.3863343068169
 30
0.0
 41
0.9999982761830143
 10
-1171.1029154353971
 20
-2839.840533329033
 30
0.0
 41
1.0
 10
-1172.6910557679698
 20
-2844.8893030600361
 30
0.0
 41
1.0
 10
-1174.2791961005423
 20
-2849.9380727910393
 30
0.0
 41
1.0
 10
-1175.2279467120188
 20
-2849.9380727910393
 30
0.0
 41
1.0
 10
-1176.1766973234951
 20
-2849.9380727910393
 30
0.0
 41
1.0
 10
-1172.9384128373417
 20
-2839.6107505910932
 30
0.0
 41
1.0
 10
-1169.7001283511886
 20
-2829.283428391147
 30
0.0
 41
1.0
  0
LWPOLYLINE
  5
5E
100
AcDbEntity
  8
0
370
              15
390
0
  6
Continuous
 62
               7
100
AcDbPolyline
 90
      232
 70
             128
 10
-1195.4036741250156
 20
-2830.3677712226627
 42
0.0004370800724504
 10
-1195.4565512990641
 20
-2830.436437861888
 10
-1195.4958355302151
 20
-2830.4875449748151
 42
0.0030481992177333
 10
-1195.6261742473416
 20
-2830.6592666671695
 10
-1195.6646859190848
 20
-2830.7106534509476
 42
0.0042058245757664
 10
-1195.8686709697542
 20
-2830.987659196021
 10
-1195.9210760922554
 20
-2831.0600920428019
 42
0.0120948898745615
 10
-1196.2171200090172
 20
-2831.4908416473518
 10
-1196.3133125081392
 20
-2831.6383223825765
 42
0.0141601263949215
 10
-1196.6169565550608
 20
-2832.1339917193113
 10
-1196.6564938224917
 20
-2832.2028356867518
 42
0.007113108130615
 10
-1196.8617661457251
 20
-2832.572338485581
 42
0.006845879100287
 10
-1197.0566456725714
 20
-2832.9474300490638
 10
-1197.0634575350259
 20
-2832.9609917627808
 42
0.0064120880288682
 10
-1197.2615997850635
 20
-2833.3684162376853
 10
-1197.2691344705872
 20
-2833.3844280944209
 42
0.0058857236452622
 10
-1197.4718898624571
 20
-2833.8288042054523
 10
-1197.4800647887528
 20
-2833.84729435909
 42
0.005318974188996
 10
-1197.6887691014153
 20
-2834.333257832996
 10
-1197.6975169071018
 20
-2834.3542397112042
 42
0.0047503650419193
 10
-1197.9134906332536
 20
-2834.8864391444163
 10
-1197.9227588816007
 20
-2834.9099155205217
 42
0.0042071762168289
 10
-1198.1473062653315
 20
-2835.4930091145998
 10
-1198.157055667677
 20
-2835.5189752894612
 42
0.0036680086484069
 10
-1198.3915103109919
 20
-2836.1576106739999
 10
-1198.401718090837
 20
-2836.1860592083367
 42
0.0032573142629873
 10
-1198.6473503768043
 20
-2836.8849118680919
 10
-1198.7160008976496
 20
-2837.0843749521591
 42
0.0026133366648979
 10
-1199.0644460964022
 20
-2838.1142382358148
 10
-1199.1277028838965
 20
-2838.3044690711881
 42
0.0020592950745697
 10
-1199.34156595287
 20
-2838.9565727238214
 10
-1199.3446177440258
 20
-2838.9660092122085
 42
0.0025609928538425
 10
-1199.5464382455189
 20
-2839.6011544345965
 10
-1199.5490296126504
 20
-2839.6094567755531
 42
0.0031362356241823
 10
-1199.7385203983226
 20
-2840.2302196317169
 10
-1199.7406514412555
 20
-2840.2373609379465
 42
0.0037229918028706
 10
-1199.9174518281764
 20
-2840.8463462399022
 10
-1199.9191304173844
 20
-2840.8522931300822
 42
0.0043077623709618
 10
-1200.082871219448
 20
-2841.4521118618454
 42
0.0047654161822292
 10
-1200.2356999419599
 20
-2842.0547979507314
 10
-1200.270164550803
 20
-2842.1963597278977
 42
0.0112969368443488
 10
-1200.4660289089454
 20
-2843.0880518885165
 10
-1200.4940352980432
 20
-2843.2308799346197
 42
0.0130056762568595
 10
-1200.6948725416896
 20
-2844.4178210062646
 10
-1200.7154122918366
 20
-2844.5618991197407
 42
0.0138721532145086
 10
-1200.8191152963748
 20
-2845.4687286055673
 10
-1200.8384107842833
 20
-2845.6922263274992
 42
0.0071254697010083
 10
-1200.8717574302054
 20
-2846.1554133363397
 10
-1200.8767184043686
 20
-2846.2414173308998
 42
0.0028881799200074
 10
-1200.8918566976586
 20
-2846.5331590407422
 42
0.0060297297145954
 10
-1200.9017888974342
 20
-2846.8251079768734
 10
-1200.9028511791009
 20
-2846.8735003487927
 42
0.0229523164151728
 10
-1200.8951201513153
 20
-2847.1962551950737
 10
-1200.8908943777949
 20
-2847.2566587290908
 42
0.0123673300655862
 10
-1200.8718157312765
 20
-2847.4577794542647
 42
0.0128577674461957
 10
-1200.8426203408703
 20
-2847.6576773041925
 10
-1200.8354944674834
 20
-2847.6990061187889
 42
0.0285717853768807
 10
-1200.7710004657865
 20
-2847.9771222701056
 10
-1200.7573319421228
 20
-2848.0237770395738
 42
0.0316283099144437
 10
-1200.641521362207
 20
-2848.3427915414049
 10
-1200.6384726704509
 20
-2848.3497779137315
 42
0.0338984824236478
 10
-1200.4890409594843
 20
-2848.6373438779196
 10
-1200.486732230112
 20
-2848.6411349071996
 42
0.0350228718358059
 10
-1200.3043719394409
 20
-2848.8981868918727
 10
-1200.3034866876694
 20
-2848.8992659696323
 42
0.0347476747518804
 10
-1200.0890620004257
 20
-2849.1264510168567
 42
0.0331337701903157
 10
-1199.8458186746814
 20
-2849.3225796789325
 10
-1199.8447185761631
 20
-2849.3233523821063
 42
0.0305233319089124
 10
-1199.5761738805897
 20
-2849.4884805521979
 10
-1199.5729438360886
 20
-2849.4902045640606
 42
0.0273744481153579
 10
-1199.2803901245177
 20
-2849.6263427079498
 10
-1199.2752855893768
 20
-2849.6283862924206
 42
0.0240964406194504
 10
-1198.9598085137336
 20
-2849.7373700187009
 10
-1198.9532251845212
 20
-2849.7392947583767
 42
0.0209636179819354
 10
-1198.6158250318663
 20
-2849.8227629063094
 10
-1198.6081925714197
 20
-2849.8243148193105
 42
0.0181388704692096
 10
-1198.249870179425
 20
-2849.8837309125238
 10
-1198.2415893310431
 20
-2849.8847970963416
 42
0.015608654758075
 10
-1197.8634019668561
 20
-2849.9215332829185
 10
-1197.8202067145367
 20
-2849.9243717853969
 42
0.0137148329010782
 10
-1197.4925335692283
 20
-2849.9368920406487
 10
-1197.4465973792849
 20
-2849.937386473764
 42
0.0051057823883091
 10
-1197.21045179271
 20
-2849.9375167281733
 42
0.0052256693308312
 10
-1196.97435450894
 20
-2849.9327679037087
 10
-1196.9041277251822
 20
-2849.9306209376946
 42
0.0161507179039645
 10
-1196.5283906470886
 20
-2849.9069705673692
 10
-1196.5083776867077
 20
-2849.9050603720807
 42
0.0101216737832781
 10
-1196.0943504652244
 20
-2849.8570674417156
 10
-1196.0602971757903
 20
-2849.8524197449051
 42
0.0245291776397029
 10
-1195.5835075202385
 20
-2849.7633446668292
 10
-1195.4986842047044
 20
-2849.7431487464805
 42
0.0143509212556486
 10
-1195.1420531007757
 20
-2849.6473441127046
 42
0.0156557857047318
 10
-1194.791837036041
 20
-2849.5303328968826
 10
-1194.7843358215537
 20
-2849.5275627351311
 42
0.0170137333628447
 10
-1194.4277398258698
 20
-2849.381905120259
 10
-1194.4206359034647
 20
-2849.3787172846964
 42
0.018310536440225
 10
-1194.061286235308
 20
-2849.2013822428776
 10
-1194.0543394706597
 20
-2849.1976318080001
 42
0.0194899958157184
 10
-1193.6958587296754
 20
-2848.9856528261089
 10
-1193.6888448503391
 20
-2848.9811274838144
 42
0.0204869852950971
 10
-1193.3348305482448
 20
-2848.7316074687283
 10
-1193.327564939658
 20
-2848.7260274033802
 42
0.0212516938552498
 10
-1192.981575008549
 20
-2848.436123406485
 10
-1192.9350583144746
 20
-2848.3936560963925
 42
0.0215248918254788
 10
-1192.6750321455868
 20
-2848.1348918173971
 10
-1192.6300024112047
 20
-2848.0860476960456
 42
0.0114578554959975
 10
-1192.4752102575289
 20
-2847.9102247625892
 10
-1192.4640157215449
 20
-2847.8969059990468
 42
0.0061531305136964
 10
-1192.337541075548
 20
-2847.7426164657381
 42
0.0006325587123371
 10
-1192.2131625913612
 20
-2847.5866130900181
 10
-1192.1901224563446
 20
-2847.5576395694029
 42
0.0041897761547764
 10
-1192.0216670523639
 20
-2847.3421201933311
 10
-1191.9632049324796
 20
-2847.266018846356
 42
0.0092993880038984
 10
-1191.6865930052543
 20
-2846.8917400824698
 10
-1191.6041985120589
 20
-2846.7758030789059
 42
0.0159321727083488
 10
-1191.2575920294146
 20
-2846.2536288581477
 10
-1191.2132358940255
 20
-2846.1819492938976
 42
0.0085547317023744
 10
-1190.9787241286999
 20
-2845.7880743446731
 42
0.0084601156885489
 10
-1190.7577479512572
 20
-2845.3864474956399
 10
-1190.7496324774274
 20
-2845.3710878133679
 42
0.0081429654277756
 10
-1190.5263832069909
 20
-2844.9313663008293
 10
-1190.5175230428058
 20
-2844.9131874588074
 42
0.0076574581331913
 10
-1190.2911155322395
 20
-2844.4300045835548
 10
-1190.2816358915156
 20
-2844.4089401052515
 42
0.0070682724199304
 10
-1190.0511909837087
 20
-2843.8769028004699
 10
-1190.0412006997271
 20
-2843.8529136114585
 42
0.0064559514446587
 10
-1189.8058674915478
 20
-2843.2666013449457
 10
-1189.7954581333804
 20
-2843.2396664194976
 42
0.0058311413906886
 10
-1189.5544113966189
 20
-2842.5936343251169
 10
-1189.5436563192302
 20
-2842.5637499839531
 42
0.0052312425818407
 10
-1189.2960750411912
 20
-2841.8525475701249
 10
-1189.2850312048095
 20
-2841.8197208580491
 42
0.0046680544794686
 10
-1189.0301027770759
 20
-2841.0378945422972
 10
-1188.9881106270313
 20
-2840.9049113050019
 42
0.004166685644514
 10
-1188.7848246146364
 20
-2840.2419425299968
 10
-1188.7471621739733
 20
-2840.1153614223458
 42
0.0015170975159973
 10
-1188.6259755955596
 20
-2839.7034930708492
 42
-0.0004887993120151
 10
-1188.5056358224538
 20
-2839.2913746588661
 10
-1188.4291585649414
 20
-2839.0304172728661
 42
0.0002583378927045
 10
-1188.155943994868
 20
-2838.0963605696556
 10
-1188.0741711453136
 20
-2837.816261310149
 42
0.0006636169669538
 10
-1187.8803033852892
 20
-2837.1489083865172
 10
-1187.8752067309347
 20
-2837.1312768036114
 42
0.0010589131319658
 10
-1187.6937580300255
 20
-2836.498545460588
 10
-1187.6887759595561
 20
-2836.4810325536073
 42
0.001565552446268
 10
-1187.5205057523622
 20
-2835.8824158743673
 10
-1187.5156755519472
 20
-2835.8650237154316
 42
0.0021640440473631
 10
-1187.3613855799613
 20
-2835.299996697413
 10
-1187.3567513605244
 20
-2835.2827319673929
 42
0.0028763871858057
 10
-1187.2172356424783
 20
-2834.7507640165722
 10
-1187.2128497783144
 20
-2834.7336400384306
 42
0.0037310511950978
 10
-1187.0888930864742
 20
-2834.2341924443936
 10
-1187.084817866184
 20
-2834.2172321731432
 42
0.0047652197770925
 10
-1186.9771939656766
 20
-2833.7497544048433
 10
-1186.9735033663549
 20
-2833.7329948496999
 42
0.0060276699298741
 10
-1186.8829732671998
 20
-2833.2969190545491
 10
-1186.8797545769116
 20
-2833.2804178402453
 42
0.0075824337759892
 10
-1186.8070652674951
 20
-2832.8751506758135
 10
-1186.804419890115
 20
-2832.8589957283639
 42
0.0095130624612142
 10
-1186.7503046544837
 20
-2832.4839063752916
 10
-1186.7433184306008
 20
-2832.4279728171723
 42
0.0121054653224207
 10
-1186.716727100023
 20
-2832.1630769887011
 10
-1186.7158606102641
 20
-2832.1516735457803
 42
0.0069050827388831
 10
-1186.7007717922261
 20
-2831.9087323189278
 10
-1186.6996364925574
 20
-2831.8852060618806
 42
0.0169063976706097
 10
-1186.6968092135771
 20
-2831.6890133345823
 10
-1186.697979865108
 20
-2831.6286775732469
 42
0.0052007732915157
 10
-1186.7002333137013
 20
-2831.553084183081
 42
0.0054038123309772
 10
-1186.7201968255456
 20
-2831.4330658870404
 10
-1186.7252826814106
 20
-2831.4044074004896
 42
0.011205046045684
 10
-1186.7606670434659
 20
-2831.2280809621661
 10
-1186.7784920055099
 20
-2831.1485393754301
 42
0.0240764468020632
 10
-1186.8693893716575
 20
-2830.8183023399242
 10
-1186.8879481344686
 20
-2830.7616821749366
 42
0.0256812331826506
 10
-1187.031311054659
 20
-2830.3899579686777
 10
-1187.0367204804797
 20
-2830.3778266336894
 42
0.0268360501218202
 10
-1187.2061477213301
 20
-2830.0468334996667
 10
-1187.2116841289651
 20
-2830.0373138293544
 42
0.02746702317243
 10
-1187.4038851053785
 20
-2829.7450264544373
 10
-1187.4092664053417
 20
-2829.737747306895
 42
0.0275035967109014
 10
-1187.620839284903
 20
-2829.4822314165922
 10
-1187.6259087858703
 20
-2829.4767523289611
 42
0.0269557673532871
 10
-1187.8533123293091
 20
-2829.2561100429994
 10
-1187.8580553870909
 20
-2829.2519800885393
 42
0.0259124802207812
 10
-1188.0976102185225
 20
-2829.064289561386
 10
-1188.1021410637077
 20
-2829.0611040590534
 42
0.02451621530082
 10
-1188.3500574167992
 20
-2828.9043710499454
 10
-1188.3545839631211
 20
-2828.9018108527457
 42
0.0229282588828042
 10
-1188.6070035199509
 20
-2828.7739426602457
 10
-1188.6117840137904
 20
-2828.7717903604826
 42
0.0212984135704939
 10
-1188.8648219662493
 20
-2828.6705914432414
 10
-1188.870126251215
 20
-2828.6687278804829
 42
0.0197555462338933
 10
-1189.1199045889418
 20
-2828.5919124625166
 42
0.0183511896791724
 10
-1189.374833314411
 20
-2828.5343295555499
 10
-1189.4611985111264
 20
-2828.518126765166
 42
0.0338057877142242
 10
-1189.7467058603884
 20
-2828.4843183600256
 10
-1189.8377112654207
 20
-2828.4797387047643
 42
0.0091990524486756
 10
-1189.9435583740642
 20
-2828.4763628488422
 42
0.0028333980765114
 10
-1190.0494722900523
 20
-2828.4755347413256
 10
-1190.0503877431065
 20
-2828.4755327715015
 42
-0.0023619827809652
 10
-1190.1581337582122
 20
-2828.4747919304227
 10
-1190.1945389283883
 20
-2828.4743696239598
 42
0.0008824598491667
 10
-1190.3750949183748
 20
-2828.4725938457204
 10
-1190.4189563506441
 20
-2828.4722398841959
 42
0.0038132665767892
 10
-1190.6872392464861
 20
-2828.4721209481295
 10
-1190.7037729013164
 20
-2828.4722397142732
 42
0.0060665569336975
 10
-1191.00505339291
 20
-2828.4780600136937
 10
-1191.019303724933
 20
-2828.4785083216611
 42
0.0080356953334727
 10
-1191.3487624412794
 20
-2828.4941760437287
 10
-1191.3608324563595
 20
-2828.4949446266687
 42
0.0098996399113175
 10
-1191.7135955410151
 20
-2828.5244298558678
 10
-1191.7236412503851
 20
-2828.5254701520653
 42
0.0117740981369001
 10
-1192.0947981087343
 20
-2828.5727623995949
 10
-1192.1030208052164
 20
-2828.5740075161657
 42
0.0137435215138814
 10
-1192.4876096247137
 20
-2828.6431044897299
 10
-1192.4942666638249
 20
-2828.644490385961
 42
0.0158359869388168
 10
-1192.8872637576274
 20
-2828.7393824744413
 10
-1192.8926769444945
 20
-2828.740872415312
 42
0.0180554124030174
 10
-1193.2889919891095
 20
-2828.8655104315517
 10
-1193.2935487771902
 20
-2828.8671264678169
 42
0.0203657431279198
 10
-1193.6880262949996
 20
-2829.0253868093323
 10
-1193.6921698340088
 20
-2829.0272484307752
 42
0.0226819684652429
 10
-1194.0796058902145
 20
-2829.2228910094468
 10
-1194.0838056812308
 20
-2829.2252566013658
 42
0.0248634984604598
 10
-1194.458987622409
 20
-2829.4618832473107
 10
-1194.5071825511973
 20
-2829.4957402891396
 42
0.0267044190890649
 10
-1194.7814752481124
 20
-2829.7111806650064
 42
0.0139303002196703
 10
-1195.0376424140538
 20
-2829.9484195059217
 10
-1195.042495799772
 20
-2829.953172168779
 42
0.0283460963444378
 10
-1195.2865683939981
 20
-2830.2209028292227
 10
-1195.3262368991559
 20
-2830.2697044066972
 42
0.0070695364826295
 10
-1195.4036741250156
 20
-2830.3677712226627
 42
0.0070695364826295
  0
LWPOLYLINE
  5
5F
100
AcDbEntity
  8
0
370
              15
390
0
  6
Continuous
 62
               7
100
AcDbPolyline
 90
      226
 70
             128
 10
-1198.932494562262
 20
-2846.0893600288464
 42
-0.0026277636631325
 10
-1198.9325724460623
 20
-2846.0225881031379
 10
-1198.93235508783
 20
-2845.9694328856604
 42
-0.0088680296703204
 10
-1198.9285784715364
 20
-2845.7964171032395
 10
-1198.9262321124247
 20
-2845.7371370778037
 42
-0.0077381705610831
 10
-1198.910186001661
 20
-2845.4458765819991
 10
-1198.9093180904883
 20
-2845.43358834832
 42
-0.0068872530535885
 10
-1198.8826860107406
 20
-2845.1183665962553
 10
-1198.8814817865541
 20
-2845.1061256172325
 42
-0.0062130021486214
 10
-1198.8438880697256
 20
-2844.767255925989
 10
-1198.8423841661911
 20
-2844.7550820540778
 42
-0.005672692967121
 10
-1198.7934623066892
 20
-2844.3928868319658
 10
-1198.7916888610446
 20
-2844.3807930317189
 42
-0.0052341884494238
 10
-1198.7310782747836
 20
-2843.9955997761954
 10
-1198.729060286008
 20
-2843.9835948462087
 42
-0.0049768450166625
 10
-1198.6563216045806
 20
-2843.5757502787701
 10
-1198.6320725898599
 20
-2843.4472022957698
 42
-0.0089029805620611
 10
-1198.4949917380659
 20
-2842.7854268483511
 10
-1198.4622463627466
 20
-2842.640395417824
 42
-0.0080318257099636
 10
-1198.2326977484038
 20
-2841.6946857859634
 10
-1198.2207128219575
 20
-2841.6485551507803
 42
-0.0074265721322553
 10
-1197.9367012831074
 20
-2840.618490572399
 10
-1197.9168217399915
 20
-2840.5503565118124
 42
-0.0069711922702972
 10
-1197.5895171614843
 20
-2839.4840887714827
 10
-1197.5295652143811
 20
-2839.2980674131186
 42
-0.0052070422892918
 10
-1197.3001399891195
 20
-2838.6107953360806
 10
-1197.2828587969568
 20
-2838.5607680554908
 42
-0.0009167004449226
 10
-1197.0797669096578
 20
-2837.9763122073091
 42
-0.002516272694975
 10
-1196.872669279396
 20
-2837.3932709431492
 10
-1196.8354446675892
 20
-2837.29012139724
 42
-0.0028212681458418
 10
-1196.5872687486267
 20
-2836.6143907650703
 10
-1196.5774379858763
 20
-2836.5880833203942
 42
-0.0031964916823303
 10
-1196.3411457282136
 20
-2835.9678785582664
 10
-1196.3315112742227
 20
-2835.9430685681441
 42
-0.0036281836458525
 10
-1196.1064053131136
 20
-2835.3756278872297
 10
-1196.0969669029598
 20
-2835.3523304557361
 42
-0.0041269166837844
 10
-1195.882349206297
 20
-2834.8348895597487
 10
-1195.8497162498782
 20
-2834.7580111133921
 42
-0.0047472213059517
 10
-1195.6926714443225
 20
-2834.3975896455045
 10
-1195.6857773631064
 20
-2834.3821690481545
 42
-0.0025651659991203
 10
-1195.5374193292641
 20
-2834.054840992424
 42
-0.0057144634994841
 10
-1195.3836696354902
 20
-2833.7300313190558
 10
-1195.3556389300927
 20
-2833.6725229366698
 42
-0.0065388068370283
 10
-1195.1721719023519
 20
-2833.3082904400026
 10
-1195.1637134465736
 20
-2833.2920308606335
 42
-0.0074510843034894
 10
-1194.9875312006955
 20
-2832.9653425795104
 10
-1194.9793515301628
 20
-2832.9507018022387
 42
-0.008464897986165
 10
-1194.8097176770643
 20
-2832.6587927912801
 10
-1194.8018615505787
 20
-2832.6457857996334
 42
-0.0095638542809862
 10
-1194.6380261029822
 20
-2832.3858969276507
 10
-1194.6305511593102
 20
-2832.374527566195
 42
-0.010719162678972
 10
-1194.4717495789228
 20
-2832.1439163316509
 10
-1194.4647328451924
 20
-2832.1341802392872
 42
-0.0118458573910668
 10
-1194.3101847466792
 20
-2831.9301080439759
 42
-0.01291845181953
 10
-1194.1457321230773
 20
-2831.7339475278054
 10
-1194.1155873507141
 20
-2831.6998214489058
 42
-0.0217742579642427
 10
-1193.9389750283792
 20
-2831.516614678656
 10
-1193.9282294839186
 20
-2831.5063978454527
 42
-0.0097266568654095
 10
-1193.762171865063
 20
-2831.3545502710153
 42
-0.0187720905712614
 10
-1193.5878242891752
 20
-2831.2124814176273
 10
-1193.5571182984943
 20
-2831.1893223352263
 42
-0.0179428207519462
 10
-1193.3246975785032
 20
-2831.0267701581183
 10
-1193.3210452515925
 20
-2831.0244062232341
 42
-0.0170047877703273
 10
-1193.0852816140571
 20
-2830.8829457090792
 10
-1193.0814986253149
 20
-2830.8808474040452
 42
-0.0160190788361855
 10
-1192.8445900776751
 20
-2830.7591961020548
 42
-0.0151102861495022
 10
-1192.6005582952273
 20
-2830.6525133259997
 10
-1192.5481717930168
 20
-2830.6314731931056
 42
-0.0271945441883962
 10
-1192.1895092339623
 20
-2830.5096083824005
 10
-1192.1204444334699
 20
-2830.4902588411333
 42
-0.0237596594027822
 10
-1191.7046475864479
 20
-2830.3948081291519
 10
-1191.6365847327131
 20
-2830.3825534410244
 42
-0.0213715440549066
 10
-1191.3507098012722
 20
-2830.3436064095149
 10
-1191.2905626350487
 20
-2830.3380166948136
 42
-0.0101465655817069
 10
-1191.1230701030599
 20
-2830.3258731515502
 10
-1191.1137297168596
 20
-2830.3253862365527
 42
-0.0100375910870145
 10
-1190.9645756162993
 20
-2830.3206104186279
 10
-1190.9543163466174
 20
-2830.3204879796135
 42
-0.0103625633382252
 10
-1190.8256083519641
 20
-2830.3216194131401
 10
-1190.8033427006872
 20
-2830.3222767716052
 42
-0.0115689250205939
 10
-1190.7192919631691
 20
-2830.32670627785
 42
-0.0072438037455923
 10
-1190.63545368373
 20
-2830.3342954775994
 10
-1190.6186531742571
 20
-2830.3360620203234
 42
-0.0217917313120053
 10
-1190.5020834109419
 20
-2830.3534819130446
 10
-1190.4364833203765
 20
-2830.3662285214587
 42
-0.0332943556765426
 10
-1190.2320911553486
 20
-2830.4202688127662
 10
-1190.2019185867937
 20
-2830.4304368898861
 42
-0.0184824084792047
 10
-1190.063413530333
 20
-2830.4828879052711
 42
-0.0198002050714646
 10
-1189.9293391898414
 20
-2830.5457719654664
 10
-1189.927452552457
 20
-2830.54674975235
 42
-0.0212242342992382
 10
-1189.7953136100605
 20
-2830.6225124911398
 10
-1189.7934983145115
 20
-2830.6236582933516
 42
-0.0226090605788697
 10
-1189.6649944132869
 20
-2830.7131379369184
 10
-1189.6631499715522
 20
-2830.7145501899035
 42
-0.0238457052245959
 10
-1189.5399678902595
 20
-2830.8185460857658
 10
-1189.5380151617003
 20
-2830.820360963532
 42
-0.0248160564142551
 10
-1189.4218136544039
 20
-2830.9396355647359
 10
-1189.4197100209976
 20
-2830.9420208984452
 42
-0.0254109591450925
 10
-1189.3121048031298
 20
-2831.077309284412
 10
-1189.3098567812176
 20
-2831.0804508328101
 42
-0.0255528488282097
 10
-1189.2124101024206
 20
-2831.2324778870443
 10
-1189.2100790025042
 20
-2831.2365594986522
 42
-0.0252146793212295
 10
-1189.1242979764945
 20
-2831.4060617446507
 10
-1189.1219957373376
 20
-2831.411243826562
 42
-0.0244265635940605
 10
-1189.0493410435736
 20
-2831.5989903986156
 10
-1189.040094642108
 20
-2831.626855816945
 42
-0.0231319612922015
 10
-1188.9941718631158
 20
-2831.7901568637481
 42
-0.011213042436284
 10
-1188.9595358405782
 20
-2831.956360463932
 10
-1188.9583333154649
 20
-2831.9628570508239
 42
-0.0210527881217001
 10
-1188.9326468400934
 20
-2832.1439126962709
 10
-1188.9291362452723
 20
-2832.1793182448127
 42
-0.0190029892420567
 10
-1188.9136947717277
 20
-2832.432854091086
 10
-1188.9128847952836
 20
-2832.4683297054539
 42
-0.0137974553661337
 10
-1188.9144336481193
 20
-2832.7933611121884
 10
-1188.9152791030747
 20
-2832.8194798567797
 42
-0.0081336634211548
 10
-1188.9301384382973
 20
-2833.1248273243796
 42
-0.0073526923568411
 10
-1188.9544469716707
 20
-2833.4295755686535
 10
-1188.9557083954546
 20
-2833.4429122433307
 42
-0.0066886138683414
 10
-1188.9914439815025
 20
-2833.7734982868392
 10
-1188.9931010709711
 20
-2833.7871199058191
 42
-0.0061359187356557
 10
-1189.0409516730235
 20
-2834.1438838859317
 10
-1189.0429891740946
 20
-2834.1577786887483
 42
-0.0056698610059924
 10
-1189.1036395048625
 20
-2834.5410572575906
 10
-1189.1060449381848
 20
-2834.555216376817
 42
-0.0052721077281512
 10
-1189.1801771389839
 20
-2834.9653437164911
 10
-1189.1829402878263
 20
-2834.9797603518809
 42
-0.0049289272176812
 10
-1189.271234405925
 20
-2835.4170688629974
 10
-1189.2743469006089
 20
-2835.4317377158195
 42
-0.0047415956714557
 10
-1189.3775848921423
 20
-2835.8965344732346
 10
-1189.4123531025009
 20
-2836.0463415686131
 42
-0.0084404470901036
 10
-1189.6023695460717
 20
-2836.8065655931405
 10
-1189.6084962340583
 20
-2836.8294297172974
 42
-0.0039635940254473
 10
-1189.8299499183418
 20
-2837.6304185815429
 10
-1189.8433267135219
 20
-2837.677350198137
 42
-0.0072475040837864
 10
-1190.1107736013878
 20
-2838.5665699145361
 10
-1190.1809859282098
 20
-2838.788310264491
 42
-0.0051345458829262
 10
-1190.4677453002714
 20
-2839.6626354523105
 10
-1190.4892715670387
 20
-2839.7260617194397
 42
-0.0019150016601489
 10
-1190.7448049739055
 20
-2840.4696108396665
 10
-1190.7512725782899
 20
-2840.4881983045539
 42
-0.0021524362751462
 10
-1190.9997506293657
 20
-2841.1925241262961
 10
-1191.0089610500518
 20
-2841.2182777045682
 42
-0.0024331286820727
 10
-1191.2452163090979
 20
-2841.8688770127155
 10
-1191.254264261655
 20
-2841.8934203190875
 42
-0.0027449721789638
 10
-1191.478878832484
 20
-2842.4925501979942
 10
-1191.4877688398715
 20
-2842.5158727878338
 42
-0.0031083229770878
 10
-1191.7013113264861
 20
-2843.0657968254263
 10
-1191.7100474581614
 20
-2843.0878865412833
 42
-0.0035311343287278
 10
-1191.9130886437536
 20
-2843.590869667014
 10
-1191.9216739828948
 20
-2843.6117123905087
 42
-0.004024564094886
 10
-1192.1147857866956
 20
-2844.0700217131166
 10
-1192.1232219003002
 20
-2844.0896010811925
 42
-0.0046015135854056
 10
-1192.3069781934623
 20
-2844.505506110831
 10
-1192.3152643712883
 20
-2844.523803250278
 42
-0.0052768638271538
 10
-1192.4902418902461
 20
-2844.8995761345532
 10
-1192.4983741008728
 20
-2844.9165694730955
 42
-0.0060672675635683
 10
-1192.665153713639
 20
-2845.2544850962108
 10
-1192.6731231941201
 20
-2845.2701503552071
 42
-0.0069904648872695
 10
-1192.8322915881222
 20
-2845.5724861618719
 10
-1192.8400829877307
 20
-2845.5867967110953
 42
-0.0080637022768283
 10
-1192.9922348480789
 20
-2845.855832014252
 10
-1192.9998238807095
 20
-2845.868759879852
 42
-0.0093006455658356
 10
-1193.1455645572416
 20
-2846.1067742783562
 10
-1193.1529152239837
 20
-2846.1182922475268
 42
-0.0107060778034534
 10
-1193.2928637674238
 20
-2846.3275625649085
 10
-1193.299925535702
 20
-2846.337648107472
 42
-0.0122723111406108
 10
-1193.4347192539014
 20
-2846.5204414369632
 10
-1193.4350454774544
 20
-2846.5208618247716
 42
-0.0141836319632118
 10
-1193.5786270804297
 20
-2846.6954315826024
 10
-1193.585574836078
 20
-2846.703406582863
 42
-0.017595747719384
 10
-1193.7254810041163
 20
-2846.8530274712721
 42
-0.0080466359661344
 10
-1193.8729447691508
 20
-2846.9953499994276
 10
-1193.9189793136638
 20
-2847.0383704375145
 42
-0.0269600260388909
 10
-1194.1722595596455
 20
-2847.2506936960226
 10
-1194.2388266959447
 20
-2847.300645110648
 42
-0.0178362839750845
 10
-1194.4787711855997
 20
-2847.4676630368995
 10
-1194.4860161566023
 20
-2847.4723315491055
 42
-0.0174650732665173
 10
-1194.7223523540415
 20
-2847.6131925140635
 42
-0.0169240130168918
 10
-1194.9678185999021
 20
-2847.7374847738424
 10
-1195.0138047554569
 20
-2847.7588467294081
 42
-0.0318883036847061
 10
-1195.3641556110736
 20
-2847.8951850389171
 10
-1195.4325211462399
 20
-2847.9168856593933
 42
-0.0284435909900401
 10
-1195.8085712725328
 20
-2848.0131030948687
 10
-1195.8437294330295
 20
-2848.0199966906966
 42
-0.0243909341021894
 10
-1196.1571728939502
 20
-2848.0657177217272
 10
-1196.2074536207219
 20
-2848.070563268629
 42
-0.0196639292922017
 10
-1196.4230491982485
 20
-2848.0828115541422
 10
-1196.47487326942
 20
-2848.0837148148789
 42
-0.0100501510670885
 10
-1196.5872965510762
 20
-2848.083414416526
 10
-1196.6189564124281
 20
-2848.0826933446406
 42
-0.0019752031171993
 10
-1196.6680487491017
 20
-2848.0813811844309
 10
-1196.6708090523252
 20
-2848.0812964926045
 42
0.0065378751940758
 10
-1196.7143856270786
 20
-2848.0805296013896
 42
-0.016797469471093
 10
-1196.7579164500021
 20
-2848.0788697028643
 10
-1196.7619957892725
 20
-2848.0785766919689
 42
-0.0081283276257374
 10
-1196.8135555870203
 20
-2848.0740296983304
 10
-1196.8252951608897
 20
-2848.0728017807528
 42
-0.012670344016187
 10
-1196.9000134566795
 20
-2848.0630669896823
 10
-1196.9228013243601
 20
-2848.0595087337661
 42
-0.0117852088449248
 10
-1197.0423403101811
 20
-2848.0379457386111
 10
-1197.0977207619553
 20
-2848.0266021983743
 42
-0.0251774592291454
 10
-1197.3245648009663
 20
-2847.9681041889403
 10
-1197.3692839908153
 20
-2847.9541373696056
 42
-0.0146525199888581
 10
-1197.5556769783527
 20
-2847.8898708424076
 42
-0.0166929435863236
 10
-1197.7376546344753
 20
-2847.8140637093552
 10
-1197.7423112657525
 20
-2847.8119388087393
 42
-0.0191684358440161
 10
-1197.9274948970035
 20
-2847.7187027249483
 10
-1197.9308274827588
 20
-2847.7168614773959
 42
-0.0221181781818338
 10
-1198.1141377866613
 20
-2847.6047279790246
 10
-1198.1164875906693
 20
-2847.603143681034
 42
-0.0254984685387671
 10
-1198.2927777410525
 20
-2847.4707325310665
 10
-1198.3152598887546
 20
-2847.4519802221303
 42
-0.0292492648816422
 10
-1198.4400288275997
 20
-2847.3348874224853
 42
-0.0159048957490769
 10
-1198.5538688250508
 20
-2847.2068674308848
 10
-1198.5551876156292
 20
-2847.2052858178658
 42
-0.0343813379552005
 10
-1198.6578248772571
 20
-2847.0634144920937
 10
-1198.6893164086148
 20
-2847.0129111000047
 42
-0.0369117275714099
 10
-1198.7752089105134
 20
-2846.849433859054
 42
-0.0191751379903156
 10
-1198.8424022960712
 20
-2846.6770292530455
 10
-1198.8441656198299
 20
-2846.6719359083731
 42
-0.0378178042230268
 10
-1198.8939603386148
 20
-2846.4829951322895
 10
-1198.899955634346
 20
-2846.4504345140863
 42
-0.0184846046468041
 10
-1198.9206728336389
 20
-2846.3086816935497
 42
-0.0179866351307846
 10
-1198.9310058387127
 20
-2846.1657908804646
 10
-1198.9310622811583
 20
-2846.1642331938565
 42
-0.0085497186109058
 10
-1198.932494562262
 20
-2846.0893600288464
 42
-0.0085497186109058
  0
ENDBLK
  5
60
100
AcDbEntity
  8
template
390
0
100
AcDbBlockEnd
  0
BLOCK
  5
61
100
AcDbEntity
  8
notes
390
0
100
AcDbBlockBegin
  2
*D3
 70
               1
 10
0.0
 20
0.0
 30
0.0
  3
*D3
  1

  0
LINE
  5
62
100
AcDbEntity
  8
0
370
              -2
390
0
  6
Continuous
 62
               0
100
AcDbLine
 10
-215.16545037058313
 20
337.75529664466785
 30
0.0
 11
-140.16545037058313
 21
337.75529664466785
 31
0.0
  0
LINE
  5
63
100
AcDbEntity
  8
0
370
              -2
390
0
  6
Continuous
 62
               0
100
AcDbLine
 10
-394.16545037058404
 20
137.75529664466717
 30
0.0
 11
-140.16545037058313
 21
137.75529664466717
 31
0.0
  0
LINE
  5
64
100
AcDbEntity
  8
0
370
              -2
390
0
  6
Continuous
 62
               0
100
AcDbLine
 10
-140.16545037058313
 20
337.75529664466785
 30
0.0
 11
-140.16545037058313
 21
137.75529664466717
 31
0.0
  0
CIRCLE
  5
65
102
{ACAD_REACTORS
330
66
102
}
100
AcDbEntity
  8
0
370
              -2
390
0
  6
Continuous
 62
               0
100
AcDbCircle
 10
-140.16545037058313
 20
337.75529664466785
 30
0.0
 40
1.9998779296875
  0
HATCH
  5
66
100
AcDbEntity
  8
0
370
              -2
390
0
  6
Continuous
 62
               0
100
AcDbHatch
 10
0.0
 20
0.0
 30
0.0
210
0.0
220
0.0
230
1.0
  2
SOLID
 70
               1
 71
               1
 91
        1
 92
        1
 93
        1
 72
               2
 10
-140.16545037058313
 20
337.75529664466785
 40
1.9998779296875
 50
0.0
 51
360.0
 73
               0
 97
        1
330
65
 75
               0
 76
               1
 98
        1
 10
0.0
 20
0.0
  0
CIRCLE
  5
67
102
{ACAD_REACTORS
330
68
102
}
100
AcDbEntity
  8
0
370
              -2
390
0
  6
Continuous
 62
               0
100
AcDbCircle
 10
-140.16545037058313
 20
137.75529664466717
 30
0.0
 40
1.9998779296875
  0
HATCH
  5
68
100
AcDbEntity
  8
0
370
              -2
390
0
  6
Continuous
 62
               0
100
AcDbHatch
 10
0.0
 20
0.0
 30
0.0
210
0.0
220
0.0
230
1.0
  2
SOLID
 70
               1
 71
               1
 91
        1
 92
        1
 93
        1
 72
               2
 10
-140.16545037058313
 20
137.75529664466717
 40
1.9998779296875
 50
0.0
 51
360.0
 73
               0
 97
        1
330
67
 75
               0
 76
               1
 98
        1
 10
0.0
 20
0.0
  0
MTEXT
  5
69
100
AcDbEntity
  8
0
390
0
 62
               0
100
AcDbMText
 10
-174.04306755808329
 20
213.94279496249192
 30
0.0
 40
24.432617187500004
 41
0.0
 71
               1
 72
               1
  1
200
  7
ＭＳ ゴシック
 11
0.0
 21
1.0
 31
0.0
 73
               1
 44
0.7828267384257843
  0
POINT
  5
6A
100
AcDbEntity
  8
Defpoints
370
               0
390
0
 62
               0
100
AcDbPoint
 10
-419.16545037058404
 20
137.75529664466717
 30
0.0
  0
POINT
  5
6B
100
AcDbEntity
  8
Defpoints
370
               0
390
0
 62
               0
100
AcDbPoint
 10
-240.16545037058313
 20
337.75529664466785
 30
0.0
  0
POINT
  5
6C
100
AcDbEntity
  8
Defpoints
370
               0
390
0
 62
               0
100
AcDbPoint
 10
-140.16545037058313
 20
337.75529664466785
 30
0.0
  0
ENDBLK
  5
6D
100
AcDbEntity
  8
notes
390
0
100
AcDbBlockEnd
  0
BLOCK
  5
6E
100
AcDbEntity
  8
notes
390
0
100
AcDbBlockBegin
  2
*D4
 70
               1
 10
0.0
 20
0.0
 30
0.0
  3
*D4
  1

  0
LINE
  5
6F
100
AcDbEntity
  8
0
370
              -2
390
0
  6
Continuous
 62
               0
100
AcDbLine
 10
614.83734738873727
 20
352.75529664466785
 30
0.0
 11
614.83734738873727
 21
437.75529664466785
 31
0.0
  0
LINE
  5
70
100
AcDbEntity
  8
0
370
              -2
390
0
  6
Continuous
 62
               0
100
AcDbLine
 10
674.83734738872954
 20
360.75529664466785
 30
0.0
 11
674.83734738872954
 21
437.75529664466785
 31
0.0
  0
LINE
  5
71
100
AcDbEntity
  8
0
370
              -2
390
0
  6
Continuous
 62
               0
100
AcDbLine
 10
614.83734738873727
 20
437.75529664466785
 30
0.0
 11
674.83734738872954
 21
437.75529664466785
 31
0.0
  0
CIRCLE
  5
72
102
{ACAD_REACTORS
330
73
102
}
100
AcDbEntity
  8
0
370
              -2
390
0
  6
Continuous
 62
               0
100
AcDbCircle
 10
614.83734738873727
 20
437.75529664466785
 30
0.0
 40
1.9998779296875
  0
HATCH
  5
73
100
AcDbEntity
  8
0
370
              -2
390
0
  6
Continuous
 62
               0
100
AcDbHatch
 10
0.0
 20
0.0
 30
0.0
210
0.0
220
0.0
230
1.0
  2
SOLID
 70
               1
 71
               1
 91
        1
 92
        1
 93
        1
 72
               2
 10
614.83734738873727
 20
437.75529664466785
 40
1.9998779296875
 50
0.0
 51
360.0
 73
               0
 97
        1
330
72
 75
               0
 76
               1
 98
        1
 10
0.0
 20
0.0
  0
CIRCLE
  5
74
102
{ACAD_REACTORS
330
75
102
}
100
AcDbEntity
  8
0
370
              -2
390
0
  6
Continuous
 62
               0
100
AcDbCircle
 10
674.83734738872954
 20
437.75529664466785
 30
0.0
 40
1.9998779296875
  0
HATCH
  5
75
100
AcDbEntity
  8
0
370
              -2
390
0
  6
Continuous
 62
               0
100
AcDbHatch
 10
0.0
 20
0.0
 30
0.0
210
0.0
220
0.0
230
1.0
  2
SOLID
 70
               1
 71
               1
 91
        1
 92
        1
 93
        1
 72
               2
 10
674.83734738872954
 20
437.75529664466785
 40
1.9998779296875
 50
0.0
 51
360.0
 73
               0
 97
        1
330
74
 75
               0
 76
               1
 98
        1
 10
0.0
 20
0.0
  0
MTEXT
  5
76
100
AcDbEntity
  8
0
390
0
 62
               0
100
AcDbMText
 10
628.96234738873341
 20
471.6329138321679
 30
0.0
 40
24.432617187500004
 41
0.0
 71
               1
 72
               1
  1
60
  7
ＭＳ ゴシック
 73
               1
 44
0.7828267384257843
  0
POINT
  5
77
100
AcDbEntity
  8
Defpoints
370
               0
390
0
 62
               0
100
AcDbPoint
 10
674.83734738872954
 20
335.75529664466785
 30
0.0
  0
POINT
  5
78
100
AcDbEntity
  8
Defpoints
370
               0
390
0
 62
               0
100
AcDbPoint
 10
614.83734738873727
 20
327.75529664466785
 30
0.0
  0
POINT
  5
79
100
AcDbEntity
  8
Defpoints
370
               0
390
0
 62
               0
100
AcDbPoint
 10
614.83734738873727
 20
437.75529664466785
 30
0.0
  0
ENDBLK
  5
7A
100
AcDbEntity
  8
notes
390
0
100
AcDbBlockEnd
  0
BLOCK
  5
7B
100
AcDbEntity
  8
notes
390
0
100
AcDbBlockBegin
  2
*D5
 70
               1
 10
0.0
 20
0.0
 30
0.0
  3
*D5
  1

  0
LINE
  5
7C
100
AcDbEntity
  8
0
370
              -2
390
0
  6
Continuous
 62
               0
100
AcDbLine
 10
674.83734738872954
 20
153.75529664466717
 30
0.0
 11
674.83734738872954
 21
37.755296644667396
 31
0.0
  0
LINE
  5
7D
100
AcDbEntity
  8
0
370
              -2
390
0
  6
Continuous
 62
               0
100
AcDbLine
 10
499.83734738873954
 20
112.75529664466717
 30
0.0
 11
499.83734738873954
 21
37.755296644667396
 31
0.0
  0
LINE
  5
7E
100
AcDbEntity
  8
0
370
              -2
390
0
  6
Continuous
 62
               0
100
AcDbLine
 10
674.83734738872954
 20
37.755296644667396
 30
0.0
 11
499.83734738873954
 21
37.755296644667396
 31
0.0
  0
CIRCLE
  5
7F
102
{ACAD_REACTORS
330
80
102
}
100
AcDbEntity
  8
0
370
              -2
390
0
  6
Continuous
 62
               0
100
AcDbCircle
 10
674.83734738872954
 20
37.755296644667396
 30
0.0
 40
1.9998779296875
  0
HATCH
  5
80
100
AcDbEntity
  8
0
370
              -2
390
0
  6
Continuous
 62
               0
100
AcDbHatch
 10
0.0
 20
0.0
 30
0.0
210
0.0
220
0.0
230
1.0
  2
SOLID
 70
               1
 71
               1
 91
        1
 92
        1
 93
        1
 72
               2
 10
674.83734738872954
 20
37.755296644667396
 40
1.9998779296875
 50
0.0
 51
360.0
 73
               0
 97
        1
330
7F
 75
               0
 76
               1
 98
        1
 10
0.0
 20
0.0
  0
CIRCLE
  5
81
102
{ACAD_REACTORS
330
82
102
}
100
AcDbEntity
  8
0
370
              -2
390
0
  6
Continuous
 62
               0
100
AcDbCircle
 10
499.83734738873954
 20
37.755296644667396
 30
0.0
 40
1.9998779296875
  0
HATCH
  5
82
100
AcDbEntity
  8
0
370
              -2
390
0
  6
Continuous
 62
               0
100
AcDbHatch
 10
0.0
 20
0.0
 30
0.0
210
0.0
220
0.0
230
1.0
  2
SOLID
 70
               1
 71
               1
 91
        1
 92
        1
 93
        1
 72
               2
 10
499.83734738873954
 20
37.755296644667396
 40
1.9998779296875
 50
0.0
 51
360.0
 73
               0
 97
        1
330
81
 75
               0
 76
               1
 98
        1
 10
0.0
 20
0.0
  0
MTEXT
  5
83
100
AcDbEntity
  8
0
390
0
 62
               0
100
AcDbMText
 10
563.52484570655906
 20
71.632913832167333
 30
0.0
 40
24.432617187500004
 41
0.0
 71
               1
 72
               1
  1
175
  7
ＭＳ ゴシック
 73
               1
 44
0.7828267384257843
  0
POINT
  5
84
100
AcDbEntity
  8
Defpoints
370
               0
390
0
 62
               0
100
AcDbPoint
 10
499.83734738873954
 20
137.75529664466717
 30
0.0
  0
POINT
  5
85
100
AcDbEntity
  8
Defpoints
370
               0
390
0
 62
               0
100
AcDbPoint
 10
674.83734738872954
 20
178.75529664466717
 30
0.0
  0
POINT
  5
86
100
AcDbEntity
  8
Defpoints
370
               0
390
0
 62
               0
100
AcDbPoint
 10
674.83734738872954
 20
37.755296644667396
 30
0.0
  0
ENDBLK
  5
87
100
AcDbEntity
  8
notes
390
0
100
AcDbBlockEnd
  0
BLOCK
  5
88
100
AcDbEntity
  8
notes
390
0
100
AcDbBlockBegin
  2
*D6
 70
               1
 10
0.0
 20
0.0
 30
0.0
  3
*D6
  1

  0
LINE
  5
89
100
AcDbEntity
  8
0
370
              -2
390
0
  6
Continuous
 62
               0
100
AcDbLine
 10
691.83734738873045
 20
337.75529664466785
 30
0.0
 11
799.83734738872954
 21
337.75529664466785
 31
0.0
  0
LINE
  5
8A
100
AcDbEntity
  8
0
370
              -2
390
0
  6
Continuous
 62
               0
100
AcDbLine
 10
698.83734738872954
 20
177.75529664466717
 30
0.0
 11
799.83734738872954
 21
177.75529664466717
 31
0.0
  0
LINE
  5
8B
100
AcDbEntity
  8
0
370
              -2
390
0
  6
Continuous
 62
               0
100
AcDbLine
 10
799.83734738872954
 20
337.75529664466785
 30
0.0
 11
799.83734738872954
 21
177.75529664466717
 31
0.0
  0
CIRCLE
  5
8C
102
{ACAD_REACTORS
330
8D
102
}
100
AcDbEntity
  8
0
370
              -2
390
0
  6
Continuous
 62
               0
100
AcDbCircle
 10
799.83734738872954
 20
337.75529664466785
 30
0.0
 40
1.9998779296875
  0
HATCH
  5
8D
100
AcDbEntity
  8
0
370
              -2
390
0
  6
Continuous
 62
               0
100
AcDbHatch
 10
0.0
 20
0.0
 30
0.0
210
0.0
220
0.0
230
1.0
  2
SOLID
 70
               1
 71
               1
 91
        1
 92
        1
 93
        1
 72
               2
 10
799.83734738872954
 20
337.75529664466785
 40
1.9998779296875
 50
0.0
 51
360.0
 73
               0
 97
        1
330
8C
 75
               0
 76
               1
 98
        1
 10
0.0
 20
0.0
  0
CIRCLE
  5
8E
102
{ACAD_REACTORS
330
8F
102
}
100
AcDbEntity
  8
0
370
              -2
390
0
  6
Continuous
 62
               0
100
AcDbCircle
 10
799.83734738872954
 20
177.75529664466717
 30
0.0
 40
1.9998779296875
  0
HATCH
  5
8F
100
AcDbEntity
  8
0
370
              -2
390
0
  6
Continuous
 62
               0
100
AcDbHatch
 10
0.0
 20
0.0
 30
0.0
210
0.0
220
0.0
230
1.0
  2
SOLID
 70
               1
 71
               1
 91
        1
 92
        1
 93
        1
 72
               2
 10
799.83734738872954
 20
177.75529664466717
 40
1.9998779296875
 50
0.0
 51
360.0
 73
               0
 97
        1
330
8E
 75
               0
 76
               1
 98
        1
 10
0.0
 20
0.0
  0
MTEXT
  5
90
100
AcDbEntity
  8
0
390
0
 62
               0
100
AcDbMText
 10
765.9597302012296
 20
233.94279496249192
 30
0.0
 40
24.432617187500004
 41
0.0
 71
               1
 72
               1
  1
160
  7
ＭＳ ゴシック
 11
0.0
 21
1.0
 31
0.0
 73
               1
 44
0.7828267384257843
  0
POINT
  5
91
100
AcDbEntity
  8
Defpoints
370
               0
390
0
 62
               0
100
AcDbPoint
 10
673.83734738872954
 20
177.75529664466717
 30
0.0
  0
POINT
  5
92
100
AcDbEntity
  8
Defpoints
370
               0
390
0
 62
               0
100
AcDbPoint
 10
666.83734738873045
 20
337.75529664466785
 30
0.0
  0
POINT
  5
93
100
AcDbEntity
  8
Defpoints
370
               0
390
0
 62
               0
100
AcDbPoint
 10
799.83734738872954
 20
337.75529664466785
 30
0.0
  0
ENDBLK
  5
94
100
AcDbEntity
  8
notes
390
0
100
AcDbBlockEnd
  0
BLOCK
  5
95
100
AcDbEntity
  8
notes
390
0
100
AcDbBlockBegin
  2
*D7
 70
               1
 10
0.0
 20
0.0
 30
0.0
  3
*D7
  1

  0
LINE
  5
96
100
AcDbEntity
  8
0
370
              -2
390
0
  6
Continuous
 62
               0
100
AcDbLine
 10
474.61496048415029
 20
337.75529664466785
 30
0.0
 11
497.73996048415029
 21
337.75529664466785
 31
0.0
  0
LINE
  5
97
100
AcDbEntity
  8
0
370
              -2
390
0
  6
Continuous
 62
               0
100
AcDbLine
 10
474.61496048415029
 20
197.75529664466762
 30
0.0
 11
497.73996048415029
 21
197.75529664466762
 31
0.0
  0
LINE
  5
98
100
AcDbEntity
  8
0
370
              -2
390
0
  6
Continuous
 62
               0
100
AcDbLine
 10
497.73996048415029
 20
337.75529664466785
 30
0.0
 11
497.73996048415029
 21
499.66197835448702
 31
0.0
  0
LINE
  5
99
100
AcDbEntity
  8
0
370
              -2
390
0
  6
Continuous
 62
               0
100
AcDbLine
 10
497.73996048415029
 20
337.75529664466785
 30
0.0
 11
497.73996048415029
 21
197.75529664466762
 31
0.0
  0
CIRCLE
  5
9A
102
{ACAD_REACTORS
330
9B
102
}
100
AcDbEntity
  8
0
370
              -2
390
0
  6
Continuous
 62
               0
100
AcDbCircle
 10
497.73996048415029
 20
337.75529664466785
 30
0.0
 40
1.9998779296875
  0
HATCH
  5
9B
100
AcDbEntity
  8
0
370
              -2
390
0
  6
Continuous
 62
               0
100
AcDbHatch
 10
0.0
 20
0.0
 30
0.0
210
0.0
220
0.0
230
1.0
  2
SOLID
 70
               1
 71
               1
 91
        1
 92
        1
 93
        1
 72
               2
 10
497.73996048415029
 20
337.75529664466785
 40
1.9998779296875
 50
0.0
 51
360.0
 73
               0
 97
        1
330
9A
 75
               0
 76
               1
 98
        1
 10
0.0
 20
0.0
  0
CIRCLE
  5
9C
102
{ACAD_REACTORS
330
9D
102
}
100
AcDbEntity
  8
0
370
              -2
390
0
  6
Continuous
 62
               0
100
AcDbCircle
 10
497.73996048415029
 20
197.75529664466762
 30
0.0
 40
1.9998779296875
  0
HATCH
  5
9D
100
AcDbEntity
  8
0
370
              -2
390
0
  6
Continuous
 62
               0
100
AcDbHatch
 10
0.0
 20
0.0
 30
0.0
210
0.0
220
0.0
230
1.0
  2
SOLID
 70
               1
 71
               1
 91
        1
 92
        1
 93
        1
 72
               2
 10
497.73996048415029
 20
197.75529664466762
 40
1.9998779296875
 50
0.0
 51
360.0
 73
               0
 97
        1
330
9C
 75
               0
 76
               1
 98
        1
 10
0.0
 20
0.0
  0
MTEXT
  5
9E
100
AcDbEntity
  8
0
390
0
 62
               0
100
AcDbMText
 10
463.86234329665035
 20
356.78697835448702
 30
0.0
 40
24.432617187500004
 41
0.0
 71
               1
 72
               1
  1
140(深さ)
  7
ＭＳ ゴシック
 11
0.0
 21
1.0
 31
0.0
 73
               1
 44
0.7828267384257843
  0
POINT
  5
9F
100
AcDbEntity
  8
Defpoints
370
               0
390
0
 62
               0
100
AcDbPoint
 10
499.61496048415029
 20
197.75529664466762
 30
0.0
  0
POINT
  5
A0
100
AcDbEntity
  8
Defpoints
370
               0
390
0
 62
               0
100
AcDbPoint
 10
499.61496048415029
 20
337.75529664466785
 30
0.0
  0
POINT
  5
A1
100
AcDbEntity
  8
Defpoints
370
               0
390
0
 62
               0
100
AcDbPoint
 10
497.73996048415029
 20
337.75529664466785
 30
0.0
  0
ENDBLK
  5
A2
100
AcDbEntity
  8
notes
390
0
100
AcDbBlockEnd
  0
BLOCK
  5
A3
100
AcDbEntity
  8
notes
390
0
100
AcDbBlockBegin
  2
*D8
 70
               1
 10
0.0
 20
0.0
 30
0.0
  3
*D8
  1

  0
LINE
  5
A4
100
AcDbEntity
  8
0
370
              -2
390
0
  6
Continuous
 62
               0
100
AcDbLine
 10
-665.16545037057858
 20
931.44630527562492
 30
0.0
 11
-665.16545037057858
 21
1218.9463052756246
 31
0.0
  0
LINE
  5
A5
100
AcDbEntity
  8
0
370
              -2
390
0
  6
Continuous
 62
               0
100
AcDbLine
 10
-240.16545037057904
 20
931.44630527562492
 30
0.0
 11
-240.16545037057904
 21
1218.9463052756246
 31
0.0
  0
LINE
  5
A6
100
AcDbEntity
  8
0
370
              -2
390
0
  6
Continuous
 62
               0
100
AcDbLine
 10
-665.16545037057858
 20
1218.9463052756246
 30
0.0
 11
-240.16545037057904
 21
1218.9463052756246
 31
0.0
  0
CIRCLE
  5
A7
102
{ACAD_REACTORS
330
A8
102
}
100
AcDbEntity
  8
0
370
              -2
390
0
  6
Continuous
 62
               0
100
AcDbCircle
 10
-665.16545037057858
 20
1218.9463052756246
 30
0.0
 40
1.9998779296875
  0
HATCH
  5
A8
100
AcDbEntity
  8
0
370
              -2
390
0
  6
Continuous
 62
               0
100
AcDbHatch
 10
0.0
 20
0.0
 30
0.0
210
0.0
220
0.0
230
1.0
  2
SOLID
 70
               1
 71
               1
 91
        1
 92
        1
 93
        1
 72
               2
 10
-665.16545037057858
 20
1218.9463052756246
 40
1.9998779296875
 50
0.0
 51
360.0
 73
               0
 97
        1
330
A7
 75
               0
 76
               1
 98
        1
 10
0.0
 20
0.0
  0
CIRCLE
  5
A9
102
{ACAD_REACTORS
330
AA
102
}
100
AcDbEntity
  8
0
370
              -2
390
0
  6
Continuous
 62
               0
100
AcDbCircle
 10
-240.16545037057904
 20
1218.9463052756246
 30
0.0
 40
1.9998779296875
  0
HATCH
  5
AA
100
AcDbEntity
  8
0
370
              -2
390
0
  6
Continuous
 62
               0
100
AcDbHatch
 10
0.0
 20
0.0
 30
0.0
210
0.0
220
0.0
230
1.0
  2
SOLID
 70
               1
 71
               1
 91
        1
 92
        1
 93
        1
 72
               2
 10
-240.16545037057904
 20
1218.9463052756246
 40
1.9998779296875
 50
0.0
 51
360.0
 73
               0
 97
        1
330
A9
 75
               0
 76
               1
 98
        1
 10
0.0
 20
0.0
  0
MTEXT
  5
AB
100
AcDbEntity
  8
0
390
0
 62
               0
100
AcDbMText
 10
-476.47795205275406
 20
1252.8239224631247
 30
0.0
 40
24.432617187500004
 41
0.0
 71
               1
 72
               1
  1
425
  7
ＭＳ ゴシック
 73
               1
 44
0.7828267384257843
  0
POINT
  5
AC
100
AcDbEntity
  8
Defpoints
370
               0
390
0
 62
               0
100
AcDbPoint
 10
-240.16545037057904
 20
906.44630527562492
 30
0.0
  0
POINT
  5
AD
100
AcDbEntity
  8
Defpoints
370
               0
390
0
 62
               0
100
AcDbPoint
 10
-665.16545037057858
 20
906.44630527562492
 30
0.0
  0
POINT
  5
AE
100
AcDbEntity
  8
Defpoints
370
               0
390
0
 62
               0
100
AcDbPoint
 10
-665.16545037057858
 20
1218.9463052756246
 30
0.0
  0
ENDBLK
  5
AF
100
AcDbEntity
  8
notes
390
0
100
AcDbBlockEnd
  0
BLOCK
  5
B0
100
AcDbEntity
  8
notes
390
0
100
AcDbBlockBegin
  2
*D9
 70
               1
 10
0.0
 20
0.0
 30
0.0
  3
*D9
  1

  0
LINE
  5
B1
100
AcDbEntity
  8
0
370
              -2
390
0
  6
Continuous
 62
               0
100
AcDbLine
 10
-527.66545037057858
 20
1118.9463052756246
 30
0.0
 11
-765.16545037057904
 21
1118.9463052756246
 31
0.0
  0
LINE
  5
B2
100
AcDbEntity
  8
0
370
              -2
390
0
  6
Continuous
 62
               0
100
AcDbLine
 10
-663.81055506044049
 20
1008.9463052756258
 30
0.0
 11
-765.16545037057904
 21
1008.9463052756258
 31
0.0
  0
LINE
  5
B3
100
AcDbEntity
  8
0
370
              -2
390
0
  6
Continuous
 62
               0
100
AcDbLine
 10
-765.16545037057904
 20
1118.9463052756246
 30
0.0
 11
-765.16545037057904
 21
1008.9463052756258
 31
0.0
  0
CIRCLE
  5
B4
102
{ACAD_REACTORS
330
B5
102
}
100
AcDbEntity
  8
0
370
              -2
390
0
  6
Continuous
 62
               0
100
AcDbCircle
 10
-765.16545037057904
 20
1118.9463052756246
 30
0.0
 40
1.9998779296875
  0
HATCH
  5
B5
100
AcDbEntity
  8
0
370
              -2
390
0
  6
Continuous
 62
               0
100
AcDbHatch
 10
0.0
 20
0.0
 30
0.0
210
0.0
220
0.0
230
1.0
  2
SOLID
 70
               1
 71
               1
 91
        1
 92
        1
 93
        1
 72
               2
 10
-765.16545037057904
 20
1118.9463052756246
 40
1.9998779296875
 50
0.0
 51
360.0
 73
               0
 97
        1
330
B4
 75
               0
 76
               1
 98
        1
 10
0.0
 20
0.0
  0
CIRCLE
  5
B6
102
{ACAD_REACTORS
330
B7
102
}
100
AcDbEntity
  8
0
370
              -2
390
0
  6
Continuous
 62
               0
100
AcDbCircle
 10
-765.16545037057904
 20
1008.9463052756258
 30
0.0
 40
1.9998779296875
  0
HATCH
  5
B7
100
AcDbEntity
  8
0
370
              -2
390
0
  6
Continuous
 62
               0
100
AcDbHatch
 10
0.0
 20
0.0
 30
0.0
210
0.0
220
0.0
230
1.0
  2
SOLID
 70
               1
 71
               1
 91
        1
 92
        1
 93
        1
 72
               2
 10
-765.16545037057904
 20
1008.9463052756258
 40
1.9998779296875
 50
0.0
 51
360.0
 73
               0
 97
        1
330
B6
 75
               0
 76
               1
 98
        1
 10
0.0
 20
0.0
  0
MTEXT
  5
B8
100
AcDbEntity
  8
0
390
0
 62
               0
100
AcDbMText
 10
-799.0430675580792
 20
1040.1338035934498
 30
0.0
 40
24.432617187500004
 41
0.0
 71
               1
 72
               1
  1
110
  7
ＭＳ ゴシック
 11
0.0
 21
1.0
 31
0.0
 73
               1
 44
0.7828267384257843
  0
POINT
  5
B9
100
AcDbEntity
  8
Defpoints
370
               0
390
0
 62
               0
100
AcDbPoint
 10
-638.81055506044049
 20
1008.9463052756258
 30
0.0
  0
POINT
  5
BA
100
AcDbEntity
  8
Defpoints
370
               0
390
0
 62
               0
100
AcDbPoint
 10
-502.66545037057858
 20
1118.9463052756246
 30
0.0
  0
POINT
  5
BB
100
AcDbEntity
  8
Defpoints
370
               0
390
0
 62
               0
100
AcDbPoint
 10
-765.16545037057904
 20
1118.9463052756246
 30
0.0
  0
ENDBLK
  5
BC
100
AcDbEntity
  8
notes
390
0
100
AcDbBlockEnd
  0
BLOCK
  5
BD
100
AcDbEntity
  8
notes
390
0
100
AcDbBlockBegin
  2
*D10
 70
               1
 10
0.0
 20
0.0
 30
0.0
  3
*D10
  1

  0
LINE
  5
BE
100
AcDbEntity
  8
0
370
              -2
390
0
  6
Continuous
 62
               0
100
AcDbLine
 10
-663.81055506044049
 20
1008.9463052756258
 30
0.0
 11
-765.16545037057858
 21
1008.9463052756258
 31
0.0
  0
LINE
  5
BF
100
AcDbEntity
  8
0
370
              -2
390
0
  6
Continuous
 62
               0
100
AcDbLine
 10
-556.08738607736996
 20
708.94630527562344
 30
0.0
 11
-765.16545037057858
 21
708.94630527562344
 31
0.0
  0
LINE
  5
C0
100
AcDbEntity
  8
0
370
              -2
390
0
  6
Continuous
 62
               0
100
AcDbLine
 10
-765.16545037057858
 20
1008.9463052756258
 30
0.0
 11
-765.16545037057858
 21
708.94630527562344
 31
0.0
  0
CIRCLE
  5
C1
102
{ACAD_REACTORS
330
C2
102
}
100
AcDbEntity
  8
0
370
              -2
390
0
  6
Continuous
 62
               0
100
AcDbCircle
 10
-765.16545037057858
 20
1008.9463052756258
 30
0.0
 40
1.9998779296875
  0
HATCH
  5
C2
100
AcDbEntity
  8
0
370
              -2
390
0
  6
Continuous
 62
               0
100
AcDbHatch
 10
0.0
 20
0.0
 30
0.0
210
0.0
220
0.0
230
1.0
  2
SOLID
 70
               1
 71
               1
 91
        1
 92
        1
 93
        1
 72
               2
 10
-765.16545037057858
 20
1008.9463052756258
 40
1.9998779296875
 50
0.0
 51
360.0
 73
               0
 97
        1
330
C1
 75
               0
 76
               1
 98
        1
 10
0.0
 20
0.0
  0
CIRCLE
  5
C3
102
{ACAD_REACTORS
330
C4
102
}
100
AcDbEntity
  8
0
370
              -2
390
0
  6
Continuous
 62
               0
100
AcDbCircle
 10
-765.16545037057858
 20
708.94630527562344
 30
0.0
 40
1.9998779296875
  0
HATCH
  5
C4
100
AcDbEntity
  8
0
370
              -2
390
0
  6
Continuous
 62
               0
100
AcDbHatch
 10
0.0
 20
0.0
 30
0.0
210
0.0
220
0.0
230
1.0
  2
SOLID
 70
               1
 71
               1
 91
        1
 92
        1
 93
        1
 72
               2
 10
-765.16545037057858
 20
708.94630527562344
 40
1.9998779296875
 50
0.0
 51
360.0
 73
               0
 97
        1
330
C3
 75
               0
 76
               1
 98
        1
 10
0.0
 20
0.0
  0
MTEXT
  5
C5
100
AcDbEntity
  8
0
390
0
 62
               0
100
AcDbMText
 10
-799.04306755807875
 20
835.1338035934491
 30
0.0
 40
24.432617187500004
 41
0.0
 71
               1
 72
               1
  1
300
  7
ＭＳ ゴシック
 11
0.0
 21
1.0
 31
0.0
 73
               1
 44
0.7828267384257843
  0
POINT
  5
C6
100
AcDbEntity
  8
Defpoints
370
               0
390
0
 62
               0
100
AcDbPoint
 10
-531.08738607736996
 20
708.94630527562344
 30
0.0
  0
POINT
  5
C7
100
AcDbEntity
  8
Defpoints
370
               0
390
0
 62
               0
100
AcDbPoint
 10
-638.81055506044049
 20
1008.9463052756258
 30
0.0
  0
POINT
  5
C8
100
AcDbEntity
  8
Defpoints
370
               0
390
0
 62
               0
100
AcDbPoint
 10
-765.16545037057858
 20
1008.9463052756258
 30
0.0
  0
ENDBLK
  5
C9
100
AcDbEntity
  8
notes
390
0
100
AcDbBlockEnd
  0
BLOCK
  5
CA
100
AcDbEntity
  8
notes
390
0
100
AcDbBlockBegin
  2
*D11
 70
               1
 10
0.0
 20
0.0
 30
0.0
  3
*D11
  1

  0
LINE
  5
CB
100
AcDbEntity
  8
0
370
              -2
390
0
  6
Continuous
 62
               0
100
AcDbLine
 10
-556.08738607736996
 20
708.94630527562344
 30
0.0
 11
-765.16545037057904
 21
708.94630527562344
 31
0.0
  0
LINE
  5
CC
100
AcDbEntity
  8
0
370
              -2
390
0
  6
Continuous
 62
               0
100
AcDbLine
 10
-502.66545037057858
 20
693.94630527562344
 30
0.0
 11
-765.16545037057904
 21
693.94630527562344
 31
0.0
  0
LINE
  5
CD
100
AcDbEntity
  8
0
370
              -2
390
0
  6
Continuous
 62
               0
100
AcDbLine
 10
-765.16545037057904
 20
708.94630527562344
 30
0.0
 11
-765.16545037057904
 21
693.94630527562344
 31
0.0
  0
CIRCLE
  5
CE
102
{ACAD_REACTORS
330
CF
102
}
100
AcDbEntity
  8
0
370
              -2
390
0
  6
Continuous
 62
               0
100
AcDbCircle
 10
-765.16545037057904
 20
708.94630527562344
 30
0.0
 40
1.9998779296875
  0
HATCH
  5
CF
100
AcDbEntity
  8
0
370
              -2
390
0
  6
Continuous
 62
               0
100
AcDbHatch
 10
0.0
 20
0.0
 30
0.0
210
0.0
220
0.0
230
1.0
  2
SOLID
 70
               1
 71
               1
 91
        1
 92
        1
 93
        1
 72
               2
 10
-765.16545037057904
 20
708.94630527562344
 40
1.9998779296875
 50
0.0
 51
360.0
 73
               0
 97
        1
330
CE
 75
               0
 76
               1
 98
        1
 10
0.0
 20
0.0
  0
CIRCLE
  5
D0
102
{ACAD_REACTORS
330
D1
102
}
100
AcDbEntity
  8
0
370
              -2
390
0
  6
Continuous
 62
               0
100
AcDbCircle
 10
-765.16545037057904
 20
693.94630527562344
 30
0.0
 40
1.9998779296875
  0
HATCH
  5
D1
100
AcDbEntity
  8
0
370
              -2
390
0
  6
Continuous
 62
               0
100
AcDbHatch
 10
0.0
 20
0.0
 30
0.0
210
0.0
220
0.0
230
1.0
  2
SOLID
 70
               1
 71
               1
 91
        1
 92
        1
 93
        1
 72
               2
 10
-765.16545037057904
 20
693.94630527562344
 40
1.9998779296875
 50
0.0
 51
360.0
 73
               0
 97
        1
330
D0
 75
               0
 76
               1
 98
        1
 10
0.0
 20
0.0
  0
MTEXT
  5
D2
100
AcDbEntity
  8
0
390
0
 62
               0
100
AcDbMText
 10
-799.0430675580792
 20
685.57130527562344
 30
0.0
 40
24.432617187500004
 41
0.0
 71
               1
 72
               1
  1
15
  7
ＭＳ ゴシック
 11
0.0
 21
1.0
 31
0.0
 73
               1
 44
0.7828267384257843
  0
POINT
  5
D3
100
AcDbEntity
  8
Defpoints
370
               0
390
0
 62
               0
100
AcDbPoint
 10
-477.66545037057858
 20
693.94630527562344
 30
0.0
  0
POINT
  5
D4
100
AcDbEntity
  8
Defpoints
370
               0
390
0
 62
               0
100
AcDbPoint
 10
-531.08738607736996
 20
708.94630527562344
 30
0.0
  0
POINT
  5
D5
100
AcDbEntity
  8
Defpoints
370
               0
390
0
 62
               0
100
AcDbPoint
 10
-765.16545037057904
 20
708.94630527562344
 30
0.0
  0
ENDBLK
  5
D6
100
AcDbEntity
  8
notes
390
0
100
AcDbBlockEnd
  0
BLOCK
  5
D7
100
AcDbEntity
  8
notes
390
0
100
AcDbBlockBegin
  2
*D12
 70
               1
 10
0.0
 20
0.0
 30
0.0
  3
*D12
  1

  0
LINE
  5
D8
100
AcDbEntity
  8
0
370
              -2
390
0
  6
Continuous
 62
               0
100
AcDbLine
 10
-402.66545037057858
 20
1118.946305275625
 30
0.0
 11
-140.16545037057904
 21
1118.946305275625
 31
0.0
  0
LINE
  5
D9
100
AcDbEntity
  8
0
370
              -2
390
0
  6
Continuous
 62
               0
100
AcDbLine
 10
-402.66545037057858
 20
693.94630527562344
 30
0.0
 11
-140.16545037057904
 21
693.94630527562344
 31
0.0
  0
LINE
  5
DA
100
AcDbEntity
  8
0
370
              -2
390
0
  6
Continuous
 62
               0
100
AcDbLine
 10
-140.16545037057904
 20
1118.946305275625
 30
0.0
 11
-140.16545037057904
 21
693.94630527562344
 31
0.0
  0
CIRCLE
  5
DB
102
{ACAD_REACTORS
330
DC
102
}
100
AcDbEntity
  8
0
370
              -2
390
0
  6
Continuous
 62
               0
100
AcDbCircle
 10
-140.16545037057904
 20
1118.946305275625
 30
0.0
 40
1.9998779296875
  0
HATCH
  5
DC
100
AcDbEntity
  8
0
370
              -2
390
0
  6
Continuous
 62
               0
100
AcDbHatch
 10
0.0
 20
0.0
 30
0.0
210
0.0
220
0.0
230
1.0
  2
SOLID
 70
               1
 71
               1
 91
        1
 92
        1
 93
        1
 72
               2
 10
-140.16545037057904
 20
1118.946305275625
 40
1.9998779296875
 50
0.0
 51
360.0
 73
               0
 97
        1
330
DB
 75
               0
 76
               1
 98
        1
 10
0.0
 20
0.0
  0
CIRCLE
  5
DD
102
{ACAD_REACTORS
330
DE
102
}
100
AcDbEntity
  8
0
370
              -2
390
0
  6
Continuous
 62
               0
100
AcDbCircle
 10
-140.16545037057904
 20
693.94630527562344
 30
0.0
 40
1.9998779296875
  0
HATCH
  5
DE
100
AcDbEntity
  8
0
370
              -2
390
0
  6
Continuous
 62
               0
100
AcDbHatch
 10
0.0
 20
0.0
 30
0.0
210
0.0
220
0.0
230
1.0
  2
SOLID
 70
               1
 71
               1
 91
        1
 92
        1
 93
        1
 72
               2
 10
-140.16545037057904
 20
693.94630527562344
 40
1.9998779296875
 50
0.0
 51
360.0
 73
               0
 97
        1
330
DD
 75
               0
 76
               1
 98
        1
 10
0.0
 20
0.0
  0
MTEXT
  5
DF
100
AcDbEntity
  8
0
390
0
 62
               0
100
AcDbMText
 10
-174.0430675580792
 20
882.63380359344865
 30
0.0
 40
24.432617187500004
 41
0.0
 71
               1
 72
               1
  1
425
  7
ＭＳ ゴシック
 11
0.0
 21
1.0
 31
0.0
 73
               1
 44
0.7828267384257843
  0
POINT
  5
E0
100
AcDbEntity
  8
Defpoints
370
               0
390
0
 62
               0
100
AcDbPoint
 10
-427.66545037057858
 20
693.94630527562344
 30
0.0
  0
POINT
  5
E1
100
AcDbEntity
  8
Defpoints
370
               0
390
0
 62
               0
100
AcDbPoint
 10
-427.66545037057858
 20
1118.946305275625
 30
0.0
  0
POINT
  5
E2
100
AcDbEntity
  8
Defpoints
370
               0
390
0
 62
               0
100
AcDbPoint
 10
-140.16545037057904
 20
1118.946305275625
 30
0.0
  0
ENDBLK
  5
E3
100
AcDbEntity
  8
notes
390
0
100
AcDbBlockEnd
  0
BLOCK
  5
E4
100
AcDbEntity
  8
notes
390
0
100
AcDbBlockBegin
  2
*D13
 70
               1
 10
0.0
 20
0.0
 30
0.0
  3
*D13
  1

  0
LINE
  5
E5
100
AcDbEntity
  8
0
370
              -2
390
0
  6
Continuous
 62
               0
100
AcDbLine
 10
-255.16545037057858
 20
803.02436956883435
 30
0.0
 11
-255.16545037057858
 21
593.94630527562492
 31
0.0
  0
LINE
  5
E6
100
AcDbEntity
  8
0
370
              -2
390
0
  6
Continuous
 62
               0
100
AcDbLine
 10
-650.16545037057858
 20
803.02436956883435
 30
0.0
 11
-650.16545037057858
 21
593.94630527562492
 31
0.0
  0
LINE
  5
E7
100
AcDbEntity
  8
0
370
              -2
390
0
  6
Continuous
 62
               0
100
AcDbLine
 10
-255.16545037057858
 20
593.94630527562492
 30
0.0
 11
-650.16545037057858
 21
593.94630527562492
 31
0.0
  0
CIRCLE
  5
E8
102
{ACAD_REACTORS
330
E9
102
}
100
AcDbEntity
  8
0
370
              -2
390
0
  6
Continuous
 62
               0
100
AcDbCircle
 10
-255.16545037057858
 20
593.94630527562492
 30
0.0
 40
1.9998779296875
  0
HATCH
  5
E9
100
AcDbEntity
  8
0
370
              -2
390
0
  6
Continuous
 62
               0
100
AcDbHatch
 10
0.0
 20
0.0
 30
0.0
210
0.0
220
0.0
230
1.0
  2
SOLID
 70
               1
 71
               1
 91
        1
 92
        1
 93
        1
 72
               2
 10
-255.16545037057858
 20
593.94630527562492
 40
1.9998779296875
 50
0.0
 51
360.0
 73
               0
 97
        1
330
E8
 75
               0
 76
               1
 98
        1
 10
0.0
 20
0.0
  0
CIRCLE
  5
EA
102
{ACAD_REACTORS
330
EB
102
}
100
AcDbEntity
  8
0
370
              -2
390
0
  6
Continuous
 62
               0
100
AcDbCircle
 10
-650.16545037057858
 20
593.94630527562492
 30
0.0
 40
1.9998779296875
  0
HATCH
  5
EB
100
AcDbEntity
  8
0
370
              -2
390
0
  6
Continuous
 62
               0
100
AcDbHatch
 10
0.0
 20
0.0
 30
0.0
210
0.0
220
0.0
230
1.0
  2
SOLID
 70
               1
 71
               1
 91
        1
 92
        1
 93
        1
 72
               2
 10
-650.16545037057858
 20
593.94630527562492
 40
1.9998779296875
 50
0.0
 51
360.0
 73
               0
 97
        1
330
EA
 75
               0
 76
               1
 98
        1
 10
0.0
 20
0.0
  0
MTEXT
  5
EC
100
AcDbEntity
  8
0
390
0
 62
               0
100
AcDbMText
 10
-476.47795205275406
 20
627.82392246312497
 30
0.0
 40
24.432617187500004
 41
0.0
 71
               1
 72
               1
  1
395
  7
ＭＳ ゴシック
 73
               1
 44
0.7828267384257843
  0
POINT
  5
ED
100
AcDbEntity
  8
Defpoints
370
               0
390
0
 62
               0
100
AcDbPoint
 10
-650.16545037057858
 20
828.02436956883435
 30
0.0
  0
POINT
  5
EE
100
AcDbEntity
  8
Defpoints
370
               0
390
0
 62
               0
100
AcDbPoint
 10
-255.16545037057858
 20
828.02436956883435
 30
0.0
  0
POINT
  5
EF
100
AcDbEntity
  8
Defpoints
370
               0
390
0
 62
               0
100
AcDbPoint
 10
-255.16545037057858
 20
593.94630527562492
 30
0.0
  0
ENDBLK
  5
F0
100
AcDbEntity
  8
notes
390
0
100
AcDbBlockEnd
  0
BLOCK
  5
F1
100
AcDbEntity
  8
notes
390
0
100
AcDbBlockBegin
  2
*D14
 70
               1
 10
0.0
 20
0.0
 30
0.0
  3
*D14
  1

  0
LINE
  5
F2
100
AcDbEntity
  8
0
370
              -2
390
0
  6
Continuous
 62
               0
100
AcDbLine
 10
698.83734738872954
 20
177.75529664466717
 30
0.0
 11
799.83734738872954
 21
177.75529664466717
 31
0.0
  0
LINE
  5
F3
100
AcDbEntity
  8
0
370
              -2
390
0
  6
Continuous
 62
               0
100
AcDbLine
 10
558.33734738873318
 20
137.75529664466717
 30
0.0
 11
799.83734738872954
 21
137.75529664466717
 31
0.0
  0
LINE
  5
F4
100
AcDbEntity
  8
0
370
              -2
390
0
  6
Continuous
 62
               0
100
AcDbLine
 10
799.83734738872954
 20
177.75529664466717
 30
0.0
 11
799.83734738872954
 21
137.75529664466717
 31
0.0
  0
CIRCLE
  5
F5
102
{ACAD_REACTORS
330
F6
102
}
100
AcDbEntity
  8
0
370
              -2
390
0
  6
Continuous
 62
               0
100
AcDbCircle
 10
799.83734738872954
 20
177.75529664466717
 30
0.0
 40
1.9998779296875
  0
HATCH
  5
F6
100
AcDbEntity
  8
0
370
              -2
390
0
  6
Continuous
 62
               0
100
AcDbHatch
 10
0.0
 20
0.0
 30
0.0
210
0.0
220
0.0
230
1.0
  2
SOLID
 70
               1
 71
               1
 91
        1
 92
        1
 93
        1
 72
               2
 10
799.83734738872954
 20
177.75529664466717
 40
1.9998779296875
 50
0.0
 51
360.0
 73
               0
 97
        1
330
F5
 75
               0
 76
               1
 98
        1
 10
0.0
 20
0.0
  0
CIRCLE
  5
F7
102
{ACAD_REACTORS
330
F8
102
}
100
AcDbEntity
  8
0
370
              -2
390
0
  6
Continuous
 62
               0
100
AcDbCircle
 10
799.83734738872954
 20
137.75529664466717
 30
0.0
 40
1.9998779296875
  0
HATCH
  5
F8
100
AcDbEntity
  8
0
370
              -2
390
0
  6
Continuous
 62
               0
100
AcDbHatch
 10
0.0
 20
0.0
 30
0.0
210
0.0
220
0.0
230
1.0
  2
SOLID
 70
               1
 71
               1
 91
        1
 92
        1
 93
        1
 72
               2
 10
799.83734738872954
 20
137.75529664466717
 40
1.9998779296875
 50
0.0
 51
360.0
 73
               0
 97
        1
330
F7
 75
               0
 76
               1
 98
        1
 10
0.0
 20
0.0
  0
MTEXT
  5
F9
100
AcDbEntity
  8
0
390
0
 62
               0
100
AcDbMText
 10
765.9597302012296
 20
141.88029664466717
 30
0.0
 40
24.432617187500004
 41
0.0
 71
               1
 72
               1
  1
40
  7
ＭＳ ゴシック
 11
0.0
 21
1.0
 31
0.0
 73
               1
 44
0.7828267384257843
  0
POINT
  5
FA
100
AcDbEntity
  8
Defpoints
370
               0
390
0
 62
               0
100
AcDbPoint
 10
533.33734738873318
 20
137.75529664466717
 30
0.0
  0
POINT
  5
FB
100
AcDbEntity
  8
Defpoints
370
               0
390
0
 62
               0
100
AcDbPoint
 10
673.83734738872954
 20
177.75529664466717
 30
0.0
  0
POINT
  5
FC
100
AcDbEntity
  8
Defpoints
370
               0
390
0
 62
               0
100
AcDbPoint
 10
799.83734738872954
 20
177.75529664466717
 30
0.0
  0
ENDBLK
  5
FD
100
AcDbEntity
  8
notes
390
0
100
AcDbBlockEnd
  0
BLOCK
  5
FE
100
AcDbEntity
  8
notes
390
0
100
AcDbBlockBegin
  2
*D15
 70
               1
 10
0.0
 20
0.0
 30
0.0
  3
*D15
  1

  0
LINE
  5
FF
100
AcDbEntity
  8
0
370
              -2
390
0
  6
Continuous
 62
               0
100
AcDbLine
 10
-444.30947579105305
 20
1075.4516889071829
 30
0.0
 11
-401.0
 21
1161.0
 31
0.0
  0
CIRCLE
  5
100
102
{ACAD_REACTORS
330
101
102
}
100
AcDbEntity
  8
0
370
              -2
390
0
  6
Continuous
 62
               0
100
AcDbCircle
 10
-444.30947579105305
 20
1075.4516889071829
 30
0.0
 40
1.9998779296875
  0
HATCH
  5
101
100
AcDbEntity
  8
0
370
              -2
390
0
  6
Continuous
 62
               0
100
AcDbHatch
 10
0.0
 20
0.0
 30
0.0
210
0.0
220
0.0
230
1.0
  2
SOLID
 70
               1
 71
               1
 91
        1
 92
        1
 93
        1
 72
               2
 10
-444.30947579105305
 20
1075.4516889071829
 40
1.9998779296875
 50
0.0
 51
360.0
 73
               0
 97
        1
330
100
 75
               0
 76
               1
 98
        1
 10
0.0
 20
0.0
  0
LINE
  5
102
100
AcDbEntity
  8
0
370
              -2
390
0
  6
Continuous
 62
               0
100
AcDbLine
 10
-401.0
 20
1161.0
 30
0.0
 11
-277.5
 21
1161.0
 31
0.0
  0
MTEXT
  5
103
100
AcDbEntity
  8
0
390
0
 62
               0
100
AcDbMText
 10
-341.0
 20
1194.8776171875002
 30
0.0
 40
24.432617187500004
 41
0.0
 71
               1
 72
               1
  1
φ37
  7
ＭＳ ゴシック
 73
               1
 44
0.7828267384257843
  0
POINT
  5
104
100
AcDbEntity
  8
Defpoints
370
               0
390
0
 62
               0
100
AcDbPoint
 10
-461.02142495010594
 20
1042.4409216440672
 30
0.0
  0
POINT
  5
105
100
AcDbEntity
  8
Defpoints
370
               0
390
0
 62
               0
100
AcDbPoint
 10
-444.30947579105305
 20
1075.4516889071829
 30
0.0
  0
ENDBLK
  5
106
100
AcDbEntity
  8
notes
390
0
100
AcDbBlockEnd
  0
BLOCK
  5
107
100
AcDbEntity
  8
notes
390
0
100
AcDbBlockBegin
  2
*D16
 70
               1
 10
0.0
 20
0.0
 30
0.0
  3
*D16
  1

  0
LINE
  5
108
100
AcDbEntity
  8
0
370
              -2
390
0
  6
Continuous
 62
               0
100
AcDbLine
 10
724.32444893250795
 20
-910.3798929736563
 30
0.0
 11
782.8244489325125
 21
-910.3798929736563
 31
0.0
  0
LINE
  5
109
100
AcDbEntity
  8
0
370
              -2
390
0
  6
Continuous
 62
               0
100
AcDbLine
 10
724.32444893250795
 20
-1015.3798929736558
 30
0.0
 11
782.8244489325125
 21
-1015.3798929736558
 31
0.0
  0
LINE
  5
10A
100
AcDbEntity
  8
0
370
              -2
390
0
  6
Continuous
 62
               0
100
AcDbLine
 10
782.8244489325125
 20
-910.3798929736563
 30
0.0
 11
782.8244489325125
 21
-1015.3798929736558
 31
0.0
  0
CIRCLE
  5
10B
102
{ACAD_REACTORS
330
10C
102
}
100
AcDbEntity
  8
0
370
              -2
390
0
  6
Continuous
 62
               0
100
AcDbCircle
 10
782.8244489325125
 20
-910.3798929736563
 30
0.0
 40
1.9998779296875
  0
HATCH
  5
10C
100
AcDbEntity
  8
0
370
              -2
390
0
  6
Continuous
 62
               0
100
AcDbHatch
 10
0.0
 20
0.0
 30
0.0
210
0.0
220
0.0
230
1.0
  2
SOLID
 70
               1
 71
               1
 91
        1
 92
        1
 93
        1
 72
               2
 10
782.8244489325125
 20
-910.3798929736563
 40
1.9998779296875
 50
0.0
 51
360.0
 73
               0
 97
        1
330
10B
 75
               0
 76
               1
 98
        1
 10
0.0
 20
0.0
  0
CIRCLE
  5
10D
102
{ACAD_REACTORS
330
10E
102
}
100
AcDbEntity
  8
0
370
              -2
390
0
  6
Continuous
 62
               0
100
AcDbCircle
 10
782.8244489325125
 20
-1015.3798929736558
 30
0.0
 40
1.9998779296875
  0
HATCH
  5
10E
100
AcDbEntity
  8
0
370
              -2
390
0
  6
Continuous
 62
               0
100
AcDbHatch
 10
0.0
 20
0.0
 30
0.0
210
0.0
220
0.0
230
1.0
  2
SOLID
 70
               1
 71
               1
 91
        1
 92
        1
 93
        1
 72
               2
 10
782.8244489325125
 20
-1015.3798929736558
 40
1.9998779296875
 50
0.0
 51
360.0
 73
               0
 97
        1
330
10D
 75
               0
 76
               1
 98
        1
 10
0.0
 20
0.0
  0
MTEXT
  5
10F
100
AcDbEntity
  8
0
390
0
 62
               0
100
AcDbMText
 10
748.94683174501256
 20
-986.69239465583132
 30
0.0
 40
24.432617187500004
 41
0.0
 71
               1
 72
               1
  1
105
  7
ＭＳ ゴシック
 11
0.0
 21
1.0
 31
0.0
 73
               1
 44
0.7828267384257843
  0
POINT
  5
110
100
AcDbEntity
  8
Defpoints
370
               0
390
0
 62
               0
100
AcDbPoint
 10
699.32444893250795
 20
-1015.3798929736558
 30
0.0
  0
POINT
  5
111
100
AcDbEntity
  8
Defpoints
370
               0
390
0
 62
               0
100
AcDbPoint
 10
699.32444893250795
 20
-910.3798929736563
 30
0.0
  0
POINT
  5
112
100
AcDbEntity
  8
Defpoints
370
               0
390
0
 62
               0
100
AcDbPoint
 10
782.8244489325125
 20
-910.3798929736563
 30
0.0
  0
ENDBLK
  5
113
100
AcDbEntity
  8
notes
390
0
100
AcDbBlockEnd
  0
BLOCK
  5
114
100
AcDbEntity
  8
notes
390
0
100
AcDbBlockBegin
  2
*D17
 70
               1
 10
0.0
 20
0.0
 30
0.0
  3
*D17
  1

  0
LINE
  5
115
100
AcDbEntity
  8
0
370
              -2
390
0
  6
Continuous
 62
               0
100
AcDbLine
 10
-540.63078150133151
 20
-890.39418098736678
 30
0.0
 11
-540.63078150133151
 21
-803.37989297365584
 31
0.0
  0
LINE
  5
116
100
AcDbEntity
  8
0
370
              -2
390
0
  6
Continuous
 62
               0
100
AcDbLine
 10
-365.63078150133151
 20
-890.39418098736678
 30
0.0
 11
-365.63078150133151
 21
-803.37989297365584
 31
0.0
  0
LINE
  5
117
100
AcDbEntity
  8
0
370
              -2
390
0
  6
Continuous
 62
               0
100
AcDbLine
 10
-540.63078150133151
 20
-803.37989297365584
 30
0.0
 11
-365.63078150133151
 21
-803.37989297365584
 31
0.0
  0
CIRCLE
  5
118
102
{ACAD_REACTORS
330
119
102
}
100
AcDbEntity
  8
0
370
              -2
390
0
  6
Continuous
 62
               0
100
AcDbCircle
 10
-540.63078150133151
 20
-803.37989297365584
 30
0.0
 40
1.9998779296875
  0
HATCH
  5
119
100
AcDbEntity
  8
0
370
              -2
390
0
  6
Continuous
 62
               0
100
AcDbHatch
 10
0.0
 20
0.0
 30
0.0
210
0.0
220
0.0
230
1.0
  2
SOLID
 70
               1
 71
               1
 91
        1
 92
        1
 93
        1
 72
               2
 10
-540.63078150133151
 20
-803.37989297365584
 40
1.9998779296875
 50
0.0
 51
360.0
 73
               0
 97
        1
330
118
 75
               0
 76
               1
 98
        1
 10
0.0
 20
0.0
  0
CIRCLE
  5
11A
102
{ACAD_REACTORS
330
11B
102
}
100
AcDbEntity
  8
0
370
              -2
390
0
  6
Continuous
 62
               0
100
AcDbCircle
 10
-365.63078150133151
 20
-803.37989297365584
 30
0.0
 40
1.9998779296875
  0
HATCH
  5
11B
100
AcDbEntity
  8
0
370
              -2
390
0
  6
Continuous
 62
               0
100
AcDbHatch
 10
0.0
 20
0.0
 30
0.0
210
0.0
220
0.0
230
1.0
  2
SOLID
 70
               1
 71
               1
 91
        1
 92
        1
 93
        1
 72
               2
 10
-365.63078150133151
 20
-803.37989297365584
 40
1.9998779296875
 50
0.0
 51
360.0
 73
               0
 97
        1
330
11A
 75
               0
 76
               1
 98
        1
 10
0.0
 20
0.0
  0
MTEXT
  5
11C
100
AcDbEntity
  8
0
390
0
 62
               0
100
AcDbMText
 10
-476.94328318350699
 20
-769.50227578615568
 30
0.0
 40
24.432617187500004
 41
0.0
 71
               1
 72
               1
  1
175
  7
ＭＳ ゴシック
 73
               1
 44
0.7828267384257843
  0
POINT
  5
11D
100
AcDbEntity
  8
Defpoints
370
               0
390
0
 62
               0
100
AcDbPoint
 10
-365.63078150133151
 20
-915.39418098736678
 30
0.0
  0
POINT
  5
11E
100
AcDbEntity
  8
Defpoints
370
               0
390
0
 62
               0
100
AcDbPoint
 10
-540.63078150133151
 20
-915.39418098736678
 30
0.0
  0
POINT
  5
11F
100
AcDbEntity
  8
Defpoints
370
               0
390
0
 62
               0
100
AcDbPoint
 10
-540.63078150133151
 20
-803.37989297365584
 30
0.0
  0
ENDBLK
  5
120
100
AcDbEntity
  8
notes
390
0
100
AcDbBlockEnd
  0
BLOCK
  5
121
100
AcDbEntity
  8
notes
390
0
100
AcDbBlockBegin
  2
*D18
 70
               1
 10
0.0
 20
0.0
 30
0.0
  3
*D18
  1

  0
LINE
  5
122
100
AcDbEntity
  8
0
370
              -2
390
0
  6
Continuous
 62
               0
100
AcDbLine
 10
-580.63078150133151
 20
-930.39418098736678
 30
0.0
 11
-765.67834882680017
 21
-930.39418098736678
 31
0.0
  0
LINE
  5
123
100
AcDbEntity
  8
0
370
              -2
390
0
  6
Continuous
 62
               0
100
AcDbLine
 10
-580.63078150133151
 20
-995.39418098736678
 30
0.0
 11
-765.67834882680017
 21
-995.39418098736678
 31
0.0
  0
LINE
  5
124
100
AcDbEntity
  8
0
370
              -2
390
0
  6
Continuous
 62
               0
100
AcDbLine
 10
-765.67834882680017
 20
-930.39418098736678
 30
0.0
 11
-765.67834882680017
 21
-995.39418098736678
 31
0.0
  0
CIRCLE
  5
125
102
{ACAD_REACTORS
330
126
102
}
100
AcDbEntity
  8
0
370
              -2
390
0
  6
Continuous
 62
               0
100
AcDbCircle
 10
-765.67834882680017
 20
-930.39418098736678
 30
0.0
 40
1.9998779296875
  0
HATCH
  5
126
100
AcDbEntity
  8
0
370
              -2
390
0
  6
Continuous
 62
               0
100
AcDbHatch
 10
0.0
 20
0.0
 30
0.0
210
0.0
220
0.0
230
1.0
  2
SOLID
 70
               1
 71
               1
 91
        1
 92
        1
 93
        1
 72
               2
 10
-765.67834882680017
 20
-930.39418098736678
 40
1.9998779296875
 50
0.0
 51
360.0
 73
               0
 97
        1
330
125
 75
               0
 76
               1
 98
        1
 10
0.0
 20
0.0
  0
CIRCLE
  5
127
102
{ACAD_REACTORS
330
128
102
}
100
AcDbEntity
  8
0
370
              -2
390
0
  6
Continuous
 62
               0
100
AcDbCircle
 10
-765.67834882680017
 20
-995.39418098736678
 30
0.0
 40
1.9998779296875
  0
HATCH
  5
128
100
AcDbEntity
  8
0
370
              -2
390
0
  6
Continuous
 62
               0
100
AcDbHatch
 10
0.0
 20
0.0
 30
0.0
210
0.0
220
0.0
230
1.0
  2
SOLID
 70
               1
 71
               1
 91
        1
 92
        1
 93
        1
 72
               2
 10
-765.67834882680017
 20
-995.39418098736678
 40
1.9998779296875
 50
0.0
 51
360.0
 73
               0
 97
        1
330
127
 75
               0
 76
               1
 98
        1
 10
0.0
 20
0.0
  0
MTEXT
  5
129
100
AcDbEntity
  8
0
390
0
 62
               0
100
AcDbMText
 10
-799.55596601430034
 20
-978.76918098736678
 30
0.0
 40
24.432617187500004
 41
0.0
 71
               1
 72
               1
  1
65
  7
ＭＳ ゴシック
 11
0.0
 21
1.0
 31
0.0
 73
               1
 44
0.7828267384257843
  0
POINT
  5
12A
100
AcDbEntity
  8
Defpoints
370
               0
390
0
 62
               0
100
AcDbPoint
 10
-555.63078150133151
 20
-995.39418098736678
 30
0.0
  0
POINT
  5
12B
100
AcDbEntity
  8
Defpoints
370
               0
390
0
 62
               0
100
AcDbPoint
 10
-555.63078150133151
 20
-930.39418098736678
 30
0.0
  0
POINT
  5
12C
100
AcDbEntity
  8
Defpoints
370
               0
390
0
 62
               0
100
AcDbPoint
 10
-765.67834882680017
 20
-930.39418098736678
 30
0.0
  0
ENDBLK
  5
12D
100
AcDbEntity
  8
notes
390
0
100
AcDbBlockEnd
  0
BLOCK
  5
12E
100
AcDbEntity
  8
notes
390
0
100
AcDbBlockBegin
  2
*D19
 70
               1
 10
0.0
 20
0.0
 30
0.0
  3
*D19
  1

  0
LINE
  5
12F
100
AcDbEntity
  8
0
370
              -2
390
0
  6
Continuous
 62
               0
100
AcDbLine
 10
-577.66545037057858
 20
-255.00000000000045
 30
0.0
 11
-577.66545037057858
 21
-180.00000000000045
 31
0.0
  0
LINE
  5
130
100
AcDbEntity
  8
0
370
              -2
390
0
  6
Continuous
 62
               0
100
AcDbLine
 10
-327.66545037057949
 20
-255.00000000000045
 30
0.0
 11
-327.66545037057949
 21
-180.00000000000045
 31
0.0
  0
LINE
  5
131
100
AcDbEntity
  8
0
370
              -2
390
0
  6
Continuous
 62
               0
100
AcDbLine
 10
-577.66545037057858
 20
-180.00000000000045
 30
0.0
 11
-327.66545037057949
 21
-180.00000000000045
 31
0.0
  0
CIRCLE
  5
132
102
{ACAD_REACTORS
330
133
102
}
100
AcDbEntity
  8
0
370
              -2
390
0
  6
Continuous
 62
               0
100
AcDbCircle
 10
-577.66545037057858
 20
-180.00000000000045
 30
0.0
 40
1.9998779296875
  0
HATCH
  5
133
100
AcDbEntity
  8
0
370
              -2
390
0
  6
Continuous
 62
               0
100
AcDbHatch
 10
0.0
 20
0.0
 30
0.0
210
0.0
220
0.0
230
1.0
  2
SOLID
 70
               1
 71
               1
 91
        1
 92
        1
 93
        1
 72
               2
 10
-577.66545037057858
 20
-180.00000000000045
 40
1.9998779296875
 50
0.0
 51
360.0
 73
               0
 97
        1
330
132
 75
               0
 76
               1
 98
        1
 10
0.0
 20
0.0
  0
CIRCLE
  5
134
102
{ACAD_REACTORS
330
135
102
}
100
AcDbEntity
  8
0
370
              -2
390
0
  6
Continuous
 62
               0
100
AcDbCircle
 10
-327.66545037057949
 20
-180.00000000000045
 30
0.0
 40
1.9998779296875
  0
HATCH
  5
135
100
AcDbEntity
  8
0
370
              -2
390
0
  6
Continuous
 62
               0
100
AcDbHatch
 10
0.0
 20
0.0
 30
0.0
210
0.0
220
0.0
230
1.0
  2
SOLID
 70
               1
 71
               1
 91
        1
 92
        1
 93
        1
 72
               2
 10
-327.66545037057949
 20
-180.00000000000045
 40
1.9998779296875
 50
0.0
 51
360.0
 73
               0
 97
        1
330
134
 75
               0
 76
               1
 98
        1
 10
0.0
 20
0.0
  0
MTEXT
  5
136
100
AcDbEntity
  8
0
390
0
 62
               0
100
AcDbMText
 10
-476.47795205275452
 20
-146.12238281250052
 30
0.0
 40
24.432617187500004
 41
0.0
 71
               1
 72
               1
  1
250
  7
ＭＳ ゴシック
 73
               1
 44
0.7828267384257843
  0
POINT
  5
137
100
AcDbEntity
  8
Defpoints
370
               0
390
0
 62
               0
100
AcDbPoint
 10
-327.66545037057949
 20
-280.00000000000045
 30
0.0
  0
POINT
  5
138
100
AcDbEntity
  8
Defpoints
370
               0
390
0
 62
               0
100
AcDbPoint
 10
-577.66545037057858
 20
-280.00000000000045
 30
0.0
  0
POINT
  5
139
100
AcDbEntity
  8
Defpoints
370
               0
390
0
 62
               0
100
AcDbPoint
 10
-577.66545037057858
 20
-180.00000000000045
 30
0.0
  0
ENDBLK
  5
13A
100
AcDbEntity
  8
notes
390
0
100
AcDbBlockEnd
  0
BLOCK
  5
13B
100
AcDbEntity
  8
notes
390
0
100
AcDbBlockBegin
  2
*D20
 70
               1
 10
0.0
 20
0.0
 30
0.0
  3
*D20
  1

  0
LINE
  5
13C
100
AcDbEntity
  8
0
370
              -2
390
0
  6
Continuous
 62
               0
100
AcDbLine
 10
-302.66545037057949
 20
-280.00000000000045
 30
0.0
 11
-227.66545037057949
 21
-280.00000000000045
 31
0.0
  0
LINE
  5
13D
100
AcDbEntity
  8
0
370
              -2
390
0
  6
Continuous
 62
               0
100
AcDbLine
 10
-305.01463830561352
 20
-330.00000000000045
 30
0.0
 11
-227.66545037057949
 21
-330.00000000000045
 31
0.0
  0
LINE
  5
13E
100
AcDbEntity
  8
0
370
              -2
390
0
  6
Continuous
 62
               0
100
AcDbLine
 10
-227.66545037057949
 20
-280.00000000000045
 30
0.0
 11
-227.66545037057949
 21
-330.00000000000045
 31
0.0
  0
CIRCLE
  5
13F
102
{ACAD_REACTORS
330
140
102
}
100
AcDbEntity
  8
0
370
              -2
390
0
  6
Continuous
 62
               0
100
AcDbCircle
 10
-227.66545037057949
 20
-280.00000000000045
 30
0.0
 40
1.9998779296875
  0
HATCH
  5
140
100
AcDbEntity
  8
0
370
              -2
390
0
  6
Continuous
 62
               0
100
AcDbHatch
 10
0.0
 20
0.0
 30
0.0
210
0.0
220
0.0
230
1.0
  2
SOLID
 70
               1
 71
               1
 91
        1
 92
        1
 93
        1
 72
               2
 10
-227.66545037057949
 20
-280.00000000000045
 40
1.9998779296875
 50
0.0
 51
360.0
 73
               0
 97
        1
330
13F
 75
               0
 76
               1
 98
        1
 10
0.0
 20
0.0
  0
CIRCLE
  5
141
102
{ACAD_REACTORS
330
142
102
}
100
AcDbEntity
  8
0
370
              -2
390
0
  6
Continuous
 62
               0
100
AcDbCircle
 10
-227.66545037057949
 20
-330.00000000000045
 30
0.0
 40
1.9998779296875
  0
HATCH
  5
142
100
AcDbEntity
  8
0
370
              -2
390
0
  6
Continuous
 62
               0
100
AcDbHatch
 10
0.0
 20
0.0
 30
0.0
210
0.0
220
0.0
230
1.0
  2
SOLID
 70
               1
 71
               1
 91
        1
 92
        1
 93
        1
 72
               2
 10
-227.66545037057949
 20
-330.00000000000045
 40
1.9998779296875
 50
0.0
 51
360.0
 73
               0
 97
        1
330
141
 75
               0
 76
               1
 98
        1
 10
0.0
 20
0.0
  0
MTEXT
  5
143
100
AcDbEntity
  8
0
390
0
 62
               0
100
AcDbMText
 10
-261.54306755807966
 20
-320.87500000000045
 30
0.0
 40
24.432617187500004
 41
0.0
 71
               1
 72
               1
  1
50
  7
ＭＳ ゴシック
 11
0.0
 21
1.0
 31
0.0
 73
               1
 44
0.7828267384257843
  0
POINT
  5
144
100
AcDbEntity
  8
Defpoints
370
               0
390
0
 62
               0
100
AcDbPoint
 10
-330.01463830561352
 20
-330.00000000000045
 30
0.0
  0
POINT
  5
145
100
AcDbEntity
  8
Defpoints
370
               0
390
0
 62
               0
100
AcDbPoint
 10
-327.66545037057949
 20
-280.00000000000045
 30
0.0
  0
POINT
  5
146
100
AcDbEntity
  8
Defpoints
370
               0
390
0
 62
               0
100
AcDbPoint
 10
-227.66545037057949
 20
-280.00000000000045
 30
0.0
  0
ENDBLK
  5
147
100
AcDbEntity
  8
notes
390
0
100
AcDbBlockEnd
  0
BLOCK
  5
148
100
AcDbEntity
  8
notes
390
0
100
AcDbBlockBegin
  2
*D21
 70
               1
 10
0.0
 20
0.0
 30
0.0
  3
*D21
  1

  0
LINE
  5
149
100
AcDbEntity
  8
0
370
              -2
390
0
  6
Continuous
 62
               0
100
AcDbLine
 10
-602.66545037057858
 20
-280.00000000000045
 30
0.0
 11
-677.66545037057858
 21
-280.00000000000045
 31
0.0
  0
LINE
  5
14A
100
AcDbEntity
  8
0
370
              -2
390
0
  6
Continuous
 62
               0
100
AcDbLine
 10
-477.66545037057858
 20
-290.0
 30
0.0
 11
-677.66545037057858
 21
-290.0
 31
0.0
  0
LINE
  5
14B
100
AcDbEntity
  8
0
370
              -2
390
0
  6
Continuous
 62
               0
100
AcDbLine
 10
-677.66545037057858
 20
-280.00000000000045
 30
0.0
 11
-677.66545037057858
 21
-232.37500000000045
 31
0.0
  0
LINE
  5
14C
100
AcDbEntity
  8
0
370
              -2
390
0
  6
Continuous
 62
               0
100
AcDbLine
 10
-677.66545037057858
 20
-280.00000000000045
 30
0.0
 11
-677.66545037057858
 21
-290.0
 31
0.0
  0
CIRCLE
  5
14D
102
{ACAD_REACTORS
330
14E
102
}
100
AcDbEntity
  8
0
370
              -2
390
0
  6
Continuous
 62
               0
100
AcDbCircle
 10
-677.66545037057858
 20
-280.00000000000045
 30
0.0
 40
1.9998779296875
  0
HATCH
  5
14E
100
AcDbEntity
  8
0
370
              -2
390
0
  6
Continuous
 62
               0
100
AcDbHatch
 10
0.0
 20
0.0
 30
0.0
210
0.0
220
0.0
230
1.0
  2
SOLID
 70
               1
 71
               1
 91
        1
 92
        1
 93
        1
 72
               2
 10
-677.66545037057858
 20
-280.00000000000045
 40
1.9998779296875
 50
0.0
 51
360.0
 73
               0
 97
        1
330
14D
 75
               0
 76
               1
 98
        1
 10
0.0
 20
0.0
  0
CIRCLE
  5
14F
102
{ACAD_REACTORS
330
150
102
}
100
AcDbEntity
  8
0
370
              -2
390
0
  6
Continuous
 62
               0
100
AcDbCircle
 10
-677.66545037057858
 20
-290.0
 30
0.0
 40
1.9998779296875
  0
HATCH
  5
150
100
AcDbEntity
  8
0
370
              -2
390
0
  6
Continuous
 62
               0
100
AcDbHatch
 10
0.0
 20
0.0
 30
0.0
210
0.0
220
0.0
230
1.0
  2
SOLID
 70
               1
 71
               1
 91
        1
 92
        1
 93
        1
 72
               2
 10
-677.66545037057858
 20
-290.0
 40
1.9998779296875
 50
0.0
 51
360.0
 73
               0
 97
        1
330
14F
 75
               0
 76
               1
 98
        1
 10
0.0
 20
0.0
  0
MTEXT
  5
151
100
AcDbEntity
  8
0
390
0
 62
               0
100
AcDbMText
 10
-711.54306755807875
 20
-264.12500000000045
 30
0.0
 40
24.432617187500004
 41
0.0
 71
               1
 72
               1
  1
10
  7
ＭＳ ゴシック
 11
0.0
 21
1.0
 31
0.0
 73
               1
 44
0.7828267384257843
  0
POINT
  5
152
100
AcDbEntity
  8
Defpoints
370
               0
390
0
 62
               0
100
AcDbPoint
 10
-452.66545037057858
 20
-290.0
 30
0.0
  0
POINT
  5
153
100
AcDbEntity
  8
Defpoints
370
               0
390
0
 62
               0
100
AcDbPoint
 10
-577.66545037057858
 20
-280.00000000000045
 30
0.0
  0
POINT
  5
154
100
AcDbEntity
  8
Defpoints
370
               0
390
0
 62
               0
100
AcDbPoint
 10
-677.66545037057858
 20
-280.00000000000045
 30
0.0
  0
ENDBLK
  5
155
100
AcDbEntity
  8
notes
390
0
100
AcDbBlockEnd
  0
BLOCK
  5
156
100
AcDbEntity
  8
AAA70-0202+AAA75-0201
390
0
100
AcDbBlockBegin
  2
*D22
 70
               1
 10
0.0
 20
0.0
 30
0.0
  3
*D22
  1

  0
LINE
  5
157
100
AcDbEntity
  8
0
370
              -2
390
0
  6
Continuous
 62
               0
100
AcDbLine
 10
-302.66545037057949
 20
-280.00000000000045
 30
0.0
 11
-155.875
 21
-280.00000000000045
 31
0.0
  0
LINE
  5
158
100
AcDbEntity
  8
0
370
              -2
390
0
  6
Continuous
 62
               0
100
AcDbLine
 10
-427.66545037057858
 20
-715.0
 30
0.0
 11
-155.875
 21
-715.0
 31
0.0
  0
LINE
  5
159
100
AcDbEntity
  8
0
370
              -2
390
0
  6
Continuous
 62
               0
100
AcDbLine
 10
-155.875
 20
-280.00000000000045
 30
0.0
 11
-155.875
 21
-715.0
 31
0.0
  0
CIRCLE
  5
15A
102
{ACAD_REACTORS
330
15B
102
}
100
AcDbEntity
  8
0
370
              -2
390
0
  6
Continuous
 62
               0
100
AcDbCircle
 10
-155.875
 20
-280.00000000000045
 30
0.0
 40
1.9998779296875
  0
HATCH
  5
15B
100
AcDbEntity
  8
0
370
              -2
390
0
  6
Continuous
 62
               0
100
AcDbHatch
 10
0.0
 20
0.0
 30
0.0
210
0.0
220
0.0
230
1.0
  2
SOLID
 70
               1
 71
               1
 91
        1
 92
        1
 93
        1
 72
               2
 10
-155.875
 20
-280.00000000000045
 40
1.9998779296875
 50
0.0
 51
360.0
 73
               0
 97
        1
330
15A
 75
               0
 76
               1
 98
        1
 10
0.0
 20
0.0
  0
CIRCLE
  5
15C
102
{ACAD_REACTORS
330
15D
102
}
100
AcDbEntity
  8
0
370
              -2
390
0
  6
Continuous
 62
               0
100
AcDbCircle
 10
-155.875
 20
-715.0
 30
0.0
 40
1.9998779296875
  0
HATCH
  5
15D
100
AcDbEntity
  8
0
370
              -2
390
0
  6
Continuous
 62
               0
100
AcDbHatch
 10
0.0
 20
0.0
 30
0.0
210
0.0
220
0.0
230
1.0
  2
SOLID
 70
               1
 71
               1
 91
        1
 92
        1
 93
        1
 72
               2
 10
-155.875
 20
-715.0
 40
1.9998779296875
 50
0.0
 51
360.0
 73
               0
 97
        1
330
15C
 75
               0
 76
               1
 98
        1
 10
0.0
 20
0.0
  0
MTEXT
  5
15E
100
AcDbEntity
  8
0
390
0
 62
               0
100
AcDbMText
 10
-189.75261718750016
 20
-521.31250168217571
 30
0.0
 40
24.432617187500004
 41
0.0
 71
               1
 72
               1
  1
435
  7
ＭＳ ゴシック
 11
0.0
 21
1.0
 31
0.0
 73
               1
 44
0.7828267384257843
  0
POINT
  5
15F
100
AcDbEntity
  8
Defpoints
370
               0
390
0
 62
               0
100
AcDbPoint
 10
-452.66545037057858
 20
-715.0
 30
0.0
  0
POINT
  5
160
100
AcDbEntity
  8
Defpoints
370
               0
390
0
 62
               0
100
AcDbPoint
 10
-327.66545037057949
 20
-280.00000000000045
 30
0.0
  0
POINT
  5
161
100
AcDbEntity
  8
Defpoints
370
               0
390
0
 62
               0
100
AcDbPoint
 10
-155.875
 20
-280.00000000000045
 30
0.0
  0
ENDBLK
  5
162
100
AcDbEntity
  8
AAA70-0202+AAA75-0201
390
0
100
AcDbBlockEnd
  0
ENDSEC
  0
SECTION
  2
ENTITIES
  0
MTEXT
  5
163
100
AcDbEntity
  8
template
390
0
 62
               7
100
AcDbMText
 10
-967.99999999975898
 20
-1147.4176292337006
 30
0.0
 40
16.288411458333332
 41
0.0
 71
               1
 72
               1
  1
品名
  7
ＭＳ ゴシック
 73
               1
 44
0.7828267384257843
  0
MTEXT
  5
164
100
AcDbEntity
  8
template
390
0
 62
               7
100
AcDbMText
 10
-967.99999999975898
 20
-1232.4176292337006
 30
0.0
 40
16.288411458333332
 41
0.0
 71
               1
 72
               1
  1
仕様
  7
ＭＳ ゴシック
 73
               1
 44
0.7828267384257843
  0
LINE
  5
165
100
AcDbEntity
  8
template
370
               5
390
0
  6
Continuous
 62
               7
100
AcDbLine
 10
974.99999999975876
 20
-1224.0027073587007
 30
0.0
 11
-975.00000000024102
 21
-1224.0027073587007
 31
0.0
  0
LWPOLYLINE
  5
166
100
AcDbEntity
  8
template
370
               5
390
0
  6
Continuous
 62
               7
100
AcDbPolyline
 90
        5
 70
             128
 10
975.00000000024124
 20
1405.9972926412995
 10
-974.99999999975898
 20
1405.9972926412995
 10
-974.99999999975898
 20
-1394.0027073587007
 10
975.00000000024124
 20
-1394.0027073587007
 10
975.00000000024124
 20
1405.9972926412995
  0
LINE
  5
167
100
AcDbEntity
  8
template
370
               5
390
0
  6
Continuous
 62
               7
100
AcDbLine
 10
974.99999999975876
 20
-1139.0027073587007
 30
0.0
 11
-975.00000000024102
 21
-1139.0027073587007
 31
0.0
  0
LINE
  5
168
100
AcDbEntity
  8
template
370
               5
390
0
  6
Continuous
 62
               7
100
AcDbLine
 10
975.00000000024124
 20
-1309.0027073587007
 30
0.0
 11
222.00000000024124
 21
-1309.0027073587007
 31
0.0
  0
MTEXT
  5
169
100
AcDbEntity
  8
template
390
0
 62
               7
100
AcDbMText
 10
-974.99999999955617
 20
-1405.8565294155578
 30
0.0
 40
21.717881944444446
 41
0.0
 71
               1
 72
               1
  1
110614SH
  7
ＭＳ ゴシック
 73
               1
 44
0.7828267384257843
  0
MTEXT
  5
16A
100
AcDbEntity
  8
template
390
0
 62
               7
100
AcDbMText
 10
251.87140625250095
 20
-1338.9131018320081
 30
0.0
 40
24.432617187500004
 41
0.0
 71
               1
 72
               1
  1
大洋金物株式会社 ティーフォルム事業部
  7
ＭＳ ゴシック
 73
               1
 44
0.7828267384257843
  0
INSERT
  5
16B
100
AcDbEntity
  8
template
390
0
 62
               7
100
AcDbBlockReference
  2
グループ
 10
2100.0
 20
1485.0
 30
0.0
  0
MTEXT
  5
16C
100
AcDbEntity
  8
template
390
0
 62
               7
100
AcDbMText
 10
784.00000000049999
 20
-1261.0000901712006
 30
0.0
 40
24.432617187500004
 41
0.0
 71
               1
 72
               1
  1
1:10
  7
ＭＳ ゴシック
 73
               1
 44
0.7828267384257843
  0
MTEXT
  5
16D
100
AcDbEntity
  8
template
390
0
 62
               7
100
AcDbMText
 10
731.00000000049999
 20
-1232.4176292337006
 30
0.0
 40
16.288411458333332
 41
0.0
 71
               1
 72
               1
  1
縮尺
  7
ＭＳ ゴシック
 73
               1
 44
0.7828267384257843
  0
LINE
  5
16E
100
AcDbEntity
  8
template
370
               5
390
0
  6
Continuous
 62
               7
100
AcDbLine
 10
724.00000000049999
 20
-1309.0027073587007
 30
0.0
 11
724.00000000049999
 21
-1224.0027073587007
 31
0.0
  0
MTEXT
  5
16F
100
AcDbEntity
  8
template
390
0
 62
               7
100
AcDbMText
 10
480.00000000049999
 20
-1232.4176292337006
 30
0.0
 40
16.288411458333332
 41
0.0
 71
               1
 72
               1
  1
容量
  7
ＭＳ ゴシック
 73
               1
 44
0.7828267384257843
  0
MTEXT
  5
170
100
AcDbEntity
  8
template
390
0
 62
               7
100
AcDbMText
 10
533.00000000049999
 20
-1261.0000901712006
 30
0.0
 40
24.432617187500004
 41
0.0
 71
               1
 72
               1
  1
6.2L
  7
ＭＳ ゴシック
 73
               1
 44
0.7828267384257843
  0
LINE
  5
171
100
AcDbEntity
  8
template
370
               5
390
0
  6
Continuous
 62
               7
100
AcDbLine
 10
473.00000000049999
 20
-1309.0027073587007
 30
0.0
 11
473.00000000049999
 21
-1224.0027073587007
 31
0.0
  0
MTEXT
  5
172
100
AcDbEntity
  8
template
390
0
 62
               7
100
AcDbMText
 10
229.00000000049999
 20
-1147.4176292337006
 30
0.0
 40
16.288411458333332
 41
0.0
 71
               1
 72
               1
  1
品番
  7
ＭＳ ゴシック
 73
               1
 44
0.7828267384257843
  0
MTEXT
  5
173
100
AcDbEntity
  8
template
390
0
 62
               7
100
AcDbMText
 10
229.00000000049999
 20
-1232.4176292337006
 30
0.0
 40
16.288411458333332
 41
0.0
 71
               1
 72
               1
  1
重量
  7
ＭＳ ゴシック
 73
               1
 44
0.7828267384257843
  0
MTEXT
  5
174
100
AcDbEntity
  8
template
390
0
 62
               7
100
AcDbMText
 10
282.00000000049999
 20
-1176.0000901712006
 30
0.0
 40
24.432617187500004
 41
0.0
 71
               1
 72
               1
  1
AAA70-0211(旧品番:AAA70-0202+AAA75-0201)
  7
ＭＳ ゴシック
 73
               1
 44
0.7828267384257843
  0
MTEXT
  5
175
100
AcDbEntity
  8
template
390
0
 62
               7
100
AcDbMText
 10
282.00000000049999
 20
-1261.0000901712006
 30
0.0
 40
24.432617187500004
 41
0.0
 71
               1
 72
               1
  1
11.5kg
  7
ＭＳ ゴシック
 73
               1
 44
0.7828267384257843
  0
LINE
  5
176
100
AcDbEntity
  8
template
370
               5
390
0
  6
Continuous
 62
               7
100
AcDbLine
 10
222.00000000049999
 20
-1394.0027073587007
 30
0.0
 11
222.00000000049999
 21
-1139.0027073587007
 31
0.0
  0
MTEXT
  5
177
100
AcDbEntity
  8
template
390
0
 62
               7
100
AcDbMText
 10
-914.99999999975898
 20
-1176.0000901712006
 30
0.0
 40
24.432617187500004
 41
0.0
 71
               1
 72
               1
  1
洗面器 -FLAMINIA,Twin-
  7
ＭＳ ゴシック
 73
               1
 44
0.7828267384257843
  0
MTEXT
  5
178
100
AcDbEntity
  8
template
390
0
 62
               7
100
AcDbMText
 10
-914.99999999975944
 20
-1261.0000901712006
 30
0.0
 40
24.432617187500004
 41
0.0
 71
               1
 72
               1
  1
壁掛け/オーバーフロー付き/陶器/ホワイト/\P
  7
ＭＳ ゴシック
 73
               1
 44
1.3047112307096407
  0
DIMENSION
  5
179
100
AcDbEntity
  8
notes
370
               5
390
0
  6
Continuous
 62
               7
100
AcDbDimension
  2
*D3
 10
-140.16545037058313
 20
337.75529664466785
 30
0.0
 11
-140.16545037058313
 21
237.7552966446674
 31
0.0
 71
               5
 72
               1
 41
1.0
 42
0.0
  3
tfrom線あり
100
AcDbAlignedDimension
 13
-419.16545037058404
 23
137.75529664466717
 33
0.0
 14
-240.16545037058313
 24
337.75529664466785
 34
0.0
 50
90.0
100
AcDbRotatedDimension
1001
ACAD
1000
DSTYLE
1002
{
1070
             271
1070
               0
1070
             279
1070
               2
1070
             340
1005
38
1070
             147
1040
5.0
1002
}
  0
DIMENSION
  5
17A
100
AcDbEntity
  8
notes
370
               5
390
0
  6
Continuous
 62
               7
100
AcDbDimension
  2
*D4
 10
614.83734738873727
 20
437.75529664466785
 30
0.0
 11
644.83734738873341
 21
437.75529664466785
 31
0.0
 71
               5
 72
               1
 41
1.0
 42
0.0
  3
tfrom線あり
100
AcDbAlignedDimension
 13
674.83734738872954
 23
335.75529664466785
 33
0.0
 14
614.83734738873727
 24
327.75529664466785
 34
0.0
100
AcDbRotatedDimension
1001
ACAD
1000
DSTYLE
1002
{
1070
             271
1070
               0
1070
             279
1070
               2
1070
             340
1005
38
1070
             147
1040
5.0
1002
}
  0
DIMENSION
  5
17B
100
AcDbEntity
  8
notes
370
               5
390
0
  6
Continuous
 62
               7
100
AcDbDimension
  2
*D5
 10
674.83734738872954
 20
37.755296644667396
 30
0.0
 11
587.33734738873454
 21
37.755296644667396
 31
0.0
 71
               5
 72
               1
 41
1.0
 42
0.0
  3
tfrom線あり
100
AcDbAlignedDimension
 13
499.83734738873954
 23
137.75529664466717
 33
0.0
 14
674.83734738872954
 24
178.75529664466717
 34
0.0
100
AcDbRotatedDimension
1001
ACAD
1000
DSTYLE
1002
{
1070
             271
1070
               0
1070
             279
1070
               2
1070
             340
1005
38
1070
             147
1040
5.0
1002
}
  0
DIMENSION
  5
17C
100
AcDbEntity
  8
notes
370
               5
390
0
  6
Continuous
 62
               7
100
AcDbDimension
  2
*D6
 10
799.83734738872954
 20
337.75529664466785
 30
0.0
 11
799.83734738872954
 21
257.7552966446674
 31
0.0
 71
               5
 72
               1
 41
1.0
 42
0.0
  3
tfrom線あり
100
AcDbAlignedDimension
 13
673.83734738872954
 23
177.75529664466717
 33
0.0
 14
666.83734738873045
 24
337.75529664466785
 34
0.0
 50
90.0
100
AcDbRotatedDimension
1001
ACAD
1000
DSTYLE
1002
{
1070
             271
1070
               0
1070
             279
1070
               2
1070
             340
1005
38
1070
             147
1040
5.0
1002
}
  0
DIMENSION
  5
17D
100
AcDbEntity
  8
notes
370
               5
390
0
  6
Continuous
 62
               7
100
AcDbDimension
  2
*D7
 10
497.73996048415029
 20
337.75529664466785
 30
0.0
 11
492.73996048415029
 21
356.78697835448702
 31
0.0
 70
             128
 71
               5
 72
               1
 41
1.0
 42
0.0
  3
tfrom線あり
100
AcDbAlignedDimension
 13
499.61496048415029
 23
197.75529664466762
 33
0.0
 14
499.61496048415029
 24
337.75529664466785
 34
0.0
 50
90.0
100
AcDbRotatedDimension
1001
ACAD
1000
DSTYLE
1002
{
1070
             271
1070
               0
1070
             279
1070
               2
1070
             340
1005
38
1070
               3
1000
<>(深さ)
1070
             174
1070
               0
1070
             147
1040
5.0
1002
}
  0
DIMENSION
  5
17E
100
AcDbEntity
  8
notes
370
               5
390
0
  6
Continuous
 62
               7
100
AcDbDimension
  2
*D8
 10
-665.16545037057858
 20
1218.9463052756246
 30
0.0
 11
-452.66545037057858
 21
1223.9463052756246
 31
0.0
 70
             128
 71
               5
 72
               1
 41
1.0
 42
0.0
  3
tfrom線あり
100
AcDbAlignedDimension
 13
-240.16545037057904
 23
906.44630527562492
 33
0.0
 14
-665.16545037057858
 24
906.44630527562492
 34
0.0
100
AcDbRotatedDimension
1001
ACAD
1000
DSTYLE
1002
{
1070
             271
1070
               0
1070
             279
1070
               2
1070
             340
1005
38
1070
             147
1040
5.0
1002
}
  0
DIMENSION
  5
17F
100
AcDbEntity
  8
notes
370
               5
390
0
  6
Continuous
 62
               7
100
AcDbDimension
  2
*D9
 10
-765.16545037057904
 20
1118.9463052756246
 30
0.0
 11
-765.16545037057904
 21
1063.9463052756253
 31
0.0
 71
               5
 72
               1
 41
1.0
 42
0.0
  3
tfrom線あり
100
AcDbAlignedDimension
 13
-638.81055506044049
 23
1008.9463052756258
 33
0.0
 14
-502.66545037057858
 24
1118.9463052756246
 34
0.0
 50
90.0
100
AcDbRotatedDimension
1001
ACAD
1000
DSTYLE
1002
{
1070
             279
1070
               2
1070
             340
1005
38
1070
             147
1040
5.0
1002
}
  0
DIMENSION
  5
180
100
AcDbEntity
  8
notes
370
               5
390
0
  6
Continuous
 62
               7
100
AcDbDimension
  2
*D10
 10
-765.16545037057858
 20
1008.9463052756258
 30
0.0
 11
-765.16545037057858
 21
858.94630527562458
 31
0.0
 71
               5
 72
               1
 41
1.0
 42
0.0
  3
tfrom線あり
100
AcDbAlignedDimension
 13
-531.08738607736996
 23
708.94630527562344
 33
0.0
 14
-638.81055506044049
 24
1008.9463052756258
 34
0.0
 50
90.0
100
AcDbRotatedDimension
1001
ACAD
1000
DSTYLE
1002
{
1070
             279
1070
               2
1070
             340
1005
38
1070
             147
1040
5.0
1002
}
  0
DIMENSION
  5
181
100
AcDbEntity
  8
notes
370
               5
390
0
  6
Continuous
 62
               7
100
AcDbDimension
  2
*D11
 10
-765.16545037057904
 20
708.94630527562344
 30
0.0
 11
-765.16545037057904
 21
701.44630527562344
 31
0.0
 71
               5
 72
               1
 41
1.0
 42
0.0
  3
tfrom線あり
100
AcDbAlignedDimension
 13
-477.66545037057858
 23
693.94630527562344
 33
0.0
 14
-531.08738607736996
 24
708.94630527562344
 34
0.0
 50
90.0
100
AcDbRotatedDimension
1001
ACAD
1000
DSTYLE
1002
{
1070
             279
1070
               2
1070
             340
1005
38
1070
             147
1040
5.0
1002
}
  0
DIMENSION
  5
182
100
AcDbEntity
  8
notes
370
               5
390
0
  6
Continuous
 62
               7
100
AcDbDimension
  2
*D12
 10
-140.16545037057904
 20
1118.946305275625
 30
0.0
 11
-140.16545037057904
 21
906.44630527562413
 31
0.0
 71
               5
 72
               1
 41
1.0
 42
0.0
  3
tfrom線あり
100
AcDbAlignedDimension
 13
-427.66545037057858
 23
693.94630527562344
 33
0.0
 14
-427.66545037057858
 24
1118.946305275625
 34
0.0
 50
90.0
100
AcDbRotatedDimension
1001
ACAD
1000
DSTYLE
1002
{
1070
             279
1070
               2
1070
             340
1005
38
1070
             147
1040
5.0
1002
}
  0
DIMENSION
  5
183
100
AcDbEntity
  8
notes
370
               5
390
0
  6
Continuous
 62
               7
100
AcDbDimension
  2
*D13
 10
-255.16545037057858
 20
593.94630527562492
 30
0.0
 11
-452.66545037057858
 21
593.94630527562492
 31
0.0
 71
               5
 72
               1
 41
1.0
 42
0.0
  3
tfrom線あり
100
AcDbAlignedDimension
 13
-650.16545037057858
 23
828.02436956883435
 33
0.0
 14
-255.16545037057858
 24
828.02436956883435
 34
0.0
100
AcDbRotatedDimension
1001
ACAD
1000
DSTYLE
1002
{
1070
             279
1070
               2
1070
             340
1005
38
1070
             147
1040
5.0
1002
}
  0
DIMENSION
  5
184
100
AcDbEntity
  8
notes
370
               5
390
0
  6
Continuous
 62
               7
100
AcDbDimension
  2
*D14
 10
799.83734738872954
 20
177.75529664466717
 30
0.0
 11
799.83734738872954
 21
157.75529664466717
 31
0.0
 71
               5
 72
               1
 41
1.0
 42
0.0
  3
tfrom線あり
100
AcDbAlignedDimension
 13
533.33734738873318
 23
137.75529664466717
 33
0.0
 14
673.83734738872954
 24
177.75529664466717
 34
0.0
 50
90.0
100
AcDbRotatedDimension
1001
ACAD
1000
DSTYLE
1002
{
1070
             279
1070
               2
1070
             340
1005
38
1070
             147
1040
5.0
1002
}
  0
DIMENSION
  5
185
100
AcDbEntity
  8
notes
370
               5
390
0
  6
Continuous
 62
               7
100
AcDbDimension
  2
*D15
 10
-461.02142495010594
 20
1042.4409216440672
 30
0.0
 11
-341.0
 21
1161.0
 31
0.0
 70
               3
 71
               5
 72
               1
 41
1.0
 42
0.0
  3
tfrom線あり
100
AcDbDiametricDimension
 15
-444.30947579105305
 25
1075.4516889071829
 35
0.0
 40
95.886517426222269
1001
ACAD
1000
DSTYLE
1002
{
1070
             271
1070
               0
1070
             289
1070
               0
1070
             342
1005
4B
1070
             340
1005
38
1070
              73
1070
               1
1070
              74
1070
               1
1070
               3
1000

1070
             174
1070
               0
1070
             147
1040
5.0
1002
}
  0
DIMENSION
  5
186
100
AcDbEntity
  8
notes
370
               5
390
0
  6
Continuous
 62
               7
100
AcDbDimension
  2
*D16
 10
782.8244489325125
 20
-910.3798929736563
 30
0.0
 11
782.8244489325125
 21
-962.87989297365584
 31
0.0
 71
               5
 72
               1
 41
1.0
 42
0.0
  3
tfrom線あり
100
AcDbAlignedDimension
 13
699.32444893250795
 23
-1015.3798929736558
 33
0.0
 14
699.32444893250795
 24
-910.3798929736563
 34
0.0
 50
90.0
100
AcDbRotatedDimension
1001
ACAD
1000
DSTYLE
1002
{
1070
             279
1070
               2
1070
             340
1005
38
1070
             147
1040
5.0
1002
}
  0
MTEXT
  5
187
100
AcDbEntity
  8
notes
390
0
 62
               7
100
AcDbMText
 10
-709.75376243554365
 20
-56.249972098468106
 30
0.0
 40
24.432617187500004
 41
0.0
 71
               1
 72
               1
  1
【壁掛け用ブラケット:AAA75-0201】
  7
ＭＳ ゴシック
 73
               1
 44
0.7828267384257843
  0
DIMENSION
  5
188
100
AcDbEntity
  8
notes
370
               5
390
0
  6
Continuous
 62
               7
100
AcDbDimension
  2
*D17
 10
-540.63078150133151
 20
-803.37989297365584
 30
0.0
 11
-453.13078150133151
 21
-798.37989297365584
 31
0.0
 70
             128
 71
               5
 72
               1
 41
1.0
 42
0.0
  3
tfrom線あり
100
AcDbAlignedDimension
 13
-365.63078150133151
 23
-915.39418098736678
 33
0.0
 14
-540.63078150133151
 24
-915.39418098736678
 34
0.0
100
AcDbRotatedDimension
1001
ACAD
1000
DSTYLE
1002
{
1070
             279
1070
               2
1070
             340
1005
38
1070
             147
1040
5.0
1002
}
  0
DIMENSION
  5
189
100
AcDbEntity
  8
notes
370
               5
390
0
  6
Continuous
 62
               7
100
AcDbDimension
  2
*D18
 10
-765.67834882680017
 20
-930.39418098736678
 30
0.0
 11
-765.67834882680017
 21
-962.89418098736678
 31
0.0
 71
               5
 72
               1
 41
1.0
 42
0.0
  3
tfrom線あり
100
AcDbAlignedDimension
 13
-555.63078150133151
 23
-995.39418098736678
 33
0.0
 14
-555.63078150133151
 24
-930.39418098736678
 34
0.0
 50
90.0
100
AcDbRotatedDimension
1001
ACAD
1000
DSTYLE
1002
{
1070
             279
1070
               2
1070
             340
1005
38
1070
             147
1040
5.0
1002
}
  0
MTEXT
  5
18A
100
AcDbEntity
  8
notes
390
0
 62
               7
100
AcDbMText
 10
-230.8876236948322
 20
-816.0665637998668
 30
0.0
 40
24.432617187500004
 41
0.0
 71
               1
 72
               1
  1
取付位置(4ヶ所)
  7
ＭＳ ゴシック
 73
               1
 44
0.7828267384257843
  0
LINE
  5
18B
100
AcDbEntity
  8
notes
370
               5
390
0
  6
Continuous
 62
               7
100
AcDbLine
 10
-365.63078150133151
 20
-930.39418098736678
 30
0.0
 11
-237.0
 21
-832.0
 31
0.0
  0
DIMENSION
  5
18C
100
AcDbEntity
  8
notes
370
               5
390
0
  6
Continuous
 62
               7
100
AcDbDimension
  2
*D19
 10
-577.66545037057858
 20
-180.00000000000045
 30
0.0
 11
-452.66545037057904
 21
-180.00000000000045
 31
0.0
 71
               5
 72
               1
 41
1.0
 42
0.0
  3
tfrom線あり
100
AcDbAlignedDimension
 13
-327.66545037057949
 23
-280.00000000000045
 33
0.0
 14
-577.66545037057858
 24
-280.00000000000045
 34
0.0
100
AcDbRotatedDimension
1001
ACAD
1000
DSTYLE
1002
{
1070
             279
1070
               2
1070
             340
1005
38
1070
             147
1040
5.0
1002
}
  0
DIMENSION
  5
18D
100
AcDbEntity
  8
notes
370
               5
390
0
  6
Continuous
 62
               7
100
AcDbDimension
  2
*D20
 10
-227.66545037057949
 20
-280.00000000000045
 30
0.0
 11
-227.66545037057949
 21
-305.00000000000045
 31
0.0
 71
               5
 72
               1
 41
1.0
 42
0.0
  3
tfrom線あり
100
AcDbAlignedDimension
 13
-330.01463830561352
 23
-330.00000000000045
 33
0.0
 14
-327.66545037057949
 24
-280.00000000000045
 34
0.0
 50
90.0
100
AcDbRotatedDimension
1001
ACAD
1000
DSTYLE
1002
{
1070
             279
1070
               2
1070
             340
1005
38
1070
             147
1040
5.0
1002
}
  0
DIMENSION
  5
18E
100
AcDbEntity
  8
notes
370
               5
390
0
  6
Continuous
 62
               7
100
AcDbDimension
  2
*D21
 10
-677.66545037057858
 20
-280.00000000000045
 30
0.0
 11
-682.66545037057858
 21
-264.12500000000045
 31
0.0
 70
             128
 71
               5
 72
               1
 41
1.0
 42
0.0
  3
tfrom線あり
100
AcDbAlignedDimension
 13
-452.66545037057858
 23
-290.0
 33
0.0
 14
-577.66545037057858
 24
-280.00000000000045
 34
0.0
 50
90.0
100
AcDbRotatedDimension
1001
ACAD
1000
DSTYLE
1002
{
1070
             279
1070
               2
1070
             340
1005
38
1070
             174
1070
               0
1070
             147
1040
5.0
1002
}
  0
LINE
  5
18F
100
AcDbEntity
  8
AAA70-0202+AAA75-0201
370
              15
390
0
  6
Continuous
 62
               7
100
AcDbLine
 10
674.83734738872954
 20
335.75529664466785
 30
0.0
 11
674.83734738872954
 21
309.7552966446674
 31
0.0
  0
LINE
  5
190
100
AcDbEntity
  8
AAA70-0202+AAA75-0201
370
              15
390
0
  6
Continuous
 62
               7
100
AcDbLine
 10
674.83734738872954
 20
309.7552966446674
 30
0.0
 11
674.83734738872954
 21
178.75529664466717
 31
0.0
  0
LINE
  5
191
100
AcDbEntity
  8
AAA70-0202+AAA75-0201
370
              15
390
0
  6
Continuous
 62
               7
100
AcDbLine
 10
251.83734738873864
 20
337.75529664466785
 30
0.0
 11
672.83734738872954
 21
337.75529664466785
 31
0.0
  0
LINE
  5
192
100
AcDbEntity
  8
AAA70-0202+AAA75-0201
370
              15
390
0
  6
Continuous
 62
               7
100
AcDbLine
 10
538.77989776162258
 20
196.89874254665688
 30
0.0
 11
523.28672767393437
 21
184.44405712415323
 31
0.0
  0
ARC
  5
193
100
AcDbEntity
  8
AAA70-0202+AAA75-0201
370
              15
390
0
  6
Continuous
 62
               7
100
AcDbCircle
 10
524.33734738873318
 20
182.74223509618537
 30
0.0
 40
2.0000000000001483
100
AcDbArc
 50
121.68910504311646
 51
180.0
  0
LINE
  5
194
100
AcDbEntity
  8
AAA70-0202+AAA75-0201
370
              15
390
0
  6
Continuous
 62
               7
100
AcDbLine
 10
522.33734738873318
 20
182.74223509618537
 30
0.0
 11
522.33734738873318
 21
175.57027134637588
 31
0.0
  0
LINE
  5
195
100
AcDbEntity
  8
AAA70-0202+AAA75-0201
370
              15
390
0
  6
Continuous
 62
               7
100
AcDbLine
 10
522.33734738873318
 20
165.57027134637588
 30
0.0
 11
522.33734738873454
 21
138.75529664466717
 31
0.0
  0
ARC
  5
196
100
AcDbEntity
  8
AAA70-0202+AAA75-0201
370
              15
390
0
  6
Continuous
 62
               7
100
AcDbCircle
 10
523.33734738873318
 20
138.75529664466717
 30
0.0
 40
1.0
100
AcDbArc
 50
180.0
 51
270.0
  0
LINE
  5
197
100
AcDbEntity
  8
AAA70-0202+AAA75-0201
370
              15
390
0
  6
Continuous
 62
               7
100
AcDbLine
 10
523.33734738873318
 20
137.75529664466717
 30
0.0
 11
533.33734738873318
 21
137.75529664466717
 31
0.0
  0
ARC
  5
198
100
AcDbEntity
  8
AAA70-0202+AAA75-0201
370
              15
390
0
  6
Continuous
 62
               7
100
AcDbCircle
 10
533.33734738873318
 20
138.75529664466717
 30
0.0
 40
1.0
100
AcDbArc
 50
270.0
 51
0.0
  0
LINE
  5
199
100
AcDbEntity
  8
AAA70-0202+AAA75-0201
370
              15
390
0
  6
Continuous
 62
               7
100
AcDbLine
 10
534.33734738873318
 20
138.75529664466717
 30
0.0
 11
534.33734738873318
 21
157.44685845128947
 31
0.0
  0
LINE
  5
19A
100
AcDbEntity
  8
AAA70-0202+AAA75-0201
370
              15
390
0
  6
Continuous
 62
               7
100
AcDbLine
 10
534.33734738873227
 20
175.57027134637588
 30
0.0
 11
534.33734738873318
 21
176.18948866083497
 31
0.0
  0
LINE
  5
19B
100
AcDbEntity
  8
AAA70-0202+AAA75-0201
370
              15
390
0
  6
Continuous
 62
               7
100
AcDbLine
 10
460.92691578834228
 20
196.87292283350075
 30
0.0
 11
476.38796710354336
 21
184.44405712415323
 31
0.0
  0
ARC
  5
19C
100
AcDbEntity
  8
AAA70-0202+AAA75-0201
370
              15
390
0
  6
Continuous
 62
               7
100
AcDbCircle
 10
475.33734738874455
 20
182.74223509618537
 30
0.0
 40
2.0
100
AcDbArc
 50
0.0
 51
58.310894956883601
  0
LINE
  5
19D
100
AcDbEntity
  8
AAA70-0202+AAA75-0201
370
              15
390
0
  6
Continuous
 62
               7
100
AcDbLine
 10
477.33734738874455
 20
182.74223509618537
 30
0.0
 11
477.33734738874455
 21
138.75529664466717
 31
0.0
  0
ARC
  5
19E
100
AcDbEntity
  8
AAA70-0202+AAA75-0201
370
              15
390
0
  6
Continuous
 62
               7
100
AcDbCircle
 10
476.33734738874455
 20
138.75529664466717
 30
0.0
 40
1.0
100
AcDbArc
 50
270.0
 51
0.0
  0
LINE
  5
19F
100
AcDbEntity
  8
AAA70-0202+AAA75-0201
370
              15
390
0
  6
Continuous
 62
               7
100
AcDbLine
 10
476.33734738874455
 20
137.75529664466717
 30
0.0
 11
466.33734738874455
 21
137.75529664466717
 31
0.0
  0
ARC
  5
1A0
100
AcDbEntity
  8
AAA70-0202+AAA75-0201
370
              15
390
0
  6
Continuous
 62
               7
100
AcDbCircle
 10
466.33734738874455
 20
138.75529664466717
 30
0.0
 40
1.0
100
AcDbArc
 50
180.0
 51
270.0
  0
LINE
  5
1A1
100
AcDbEntity
  8
AAA70-0202+AAA75-0201
370
              15
390
0
  6
Continuous
 62
               7
100
AcDbLine
 10
465.33734738874455
 20
138.75529664466717
 30
0.0
 11
465.33734738874455
 21
175.7837663449443
 31
0.0
  0
LINE
  5
1A2
100
AcDbEntity
  8
AAA70-0202+AAA75-0201
370
              15
390
0
  6
Continuous
 62
               7
100
AcDbLine
 10
249.83734738873818
 20
335.75529664466785
 30
0.0
 11
249.83734738873818
 21
178.75529664466762
 31
0.0
  0
ARC
  5
1A3
100
AcDbEntity
  8
AAA70-0202+AAA75-0201
370
              15
390
0
  6
Continuous
 62
               7
100
AcDbCircle
 10
251.83734738873727
 20
335.75529664466785
 30
0.0
 40
2.0
100
AcDbArc
 50
90.0
 51
180.0
  0
LINE
  5
1A4
100
AcDbEntity
  8
AAA70-0202+AAA75-0201
370
              15
390
0
  6
Continuous
 62
               7
100
AcDbLine
 10
659.83734738873136
 20
315.75529664466808
 30
0.0
 11
659.83734738872954
 21
179.75529664466717
 31
0.0
  0
LINE
  5
1A5
100
AcDbEntity
  8
AAA70-0202+AAA75-0201
370
              15
390
0
  6
Continuous
 62
               7
100
AcDbLine
 10
659.83734738873136
 20
335.75529664466785
 30
0.0
 11
659.83734738873136
 21
329.75529664466785
 31
0.0
  0
ARC
  5
1A6
100
AcDbEntity
  8
AAA70-0202+AAA75-0201
370
              15
390
0
  6
Continuous
 62
               7
100
AcDbCircle
 10
661.83734738873136
 20
335.75529664466785
 30
0.0
 40
2.0
100
AcDbArc
 50
90.0
 51
180.0
  0
ARC
  5
1A7
100
AcDbEntity
  8
AAA70-0202+AAA75-0201
370
              15
390
0
  6
Continuous
 62
               7
100
AcDbCircle
 10
672.83734738872954
 20
335.75529664466785
 30
0.0
 40
2.0
100
AcDbArc
 50
0.0
 51
90.0
  0
LINE
  5
1A8
100
AcDbEntity
  8
AAA70-0202+AAA75-0201
370
              15
390
0
  6
Continuous
 62
               7
100
AcDbLine
 10
661.83734738873045
 20
177.75529664466717
 30
0.0
 11
673.83734738872954
 21
177.75529664466717
 31
0.0
  0
LINE
  5
1A9
100
AcDbEntity
  8
AAA70-0202+AAA75-0201
370
              15
390
0
  6
Continuous
 62
               7
100
AcDbLine
 10
259.83734738873727
 20
300.48836079133366
 30
0.0
 11
259.83734738873727
 21
189.75529664466762
 31
0.0
  0
LINE
  5
1AA
100
AcDbEntity
  8
AAA70-0202+AAA75-0201
370
              15
390
0
  6
Continuous
 62
               7
100
AcDbLine
 10
261.83734738873818
 20
187.75529664466762
 30
0.0
 11
281.43485693022058
 21
187.75529664466762
 31
0.0
  0
ARC
  5
1AB
100
AcDbEntity
  8
AAA70-0202+AAA75-0201
370
              15
390
0
  6
Continuous
 62
               7
100
AcDbCircle
 10
281.43485693022058
 20
189.75529664466762
 30
0.0
 40
2.0
100
AcDbArc
 50
270.0
 51
340.0000000000108
  0
ARC
  5
1AC
100
AcDbEntity
  8
AAA70-0202+AAA75-0201
370
              15
390
0
  6
Continuous
 62
               7
100
AcDbCircle
 10
261.83734738873818
 20
189.75529664466762
 30
0.0
 40
2.0
100
AcDbArc
 50
180.0
 51
270.0
  0
ARC
  5
1AD
100
AcDbEntity
  8
AAA70-0202+AAA75-0201
370
              15
390
0
  6
Continuous
 62
               7
100
AcDbCircle
 10
250.83734738873727
 20
178.75529664466762
 30
0.0
 40
1.0
100
AcDbArc
 50
180.0
 51
270.0
  0
ARC
  5
1AE
100
AcDbEntity
  8
AAA70-0202+AAA75-0201
370
              15
390
0
  6
Continuous
 62
               7
100
AcDbCircle
 10
673.83734738872954
 20
178.75529664466717
 30
0.0
 40
1.0
100
AcDbArc
 50
270.0
 51
0.0
  0
ARC
  5
1AF
100
AcDbEntity
  8
AAA70-0202+AAA75-0201
370
              15
390
0
  6
Continuous
 62
               7
100
AcDbCircle
 10
657.83734738873136
 20
315.75529664466808
 30
0.0
 40
2.0
100
AcDbArc
 50
0.0
 51
90.0
  0
ARC
  5
1B0
100
AcDbEntity
  8
AAA70-0202+AAA75-0201
370
              15
390
0
  6
Continuous
 62
               7
100
AcDbCircle
 10
661.83734738873045
 20
179.75529664466717
 30
0.0
 40
2.0
100
AcDbArc
 50
180.0
 51
270.0
  0
LINE
  5
1B1
100
AcDbEntity
  8
AAA70-0202+AAA75-0201
370
              15
390
0
  6
Continuous
 62
               7
100
AcDbLine
 10
251.83734738873727
 20
337.75529664466785
 30
0.0
 11
260.8798634476243
 21
337.75529664466785
 31
0.0
  0
LINE
  5
1B2
100
AcDbEntity
  8
AAA70-0202+AAA75-0201
370
              15
390
0
  6
Continuous
 62
               7
100
AcDbLine
 10
568.83734738873954
 20
327.75529664466785
 30
0.0
 11
596.33734738873954
 21
327.75529664466785
 31
0.0
  0
ARC
  5
1B3
100
AcDbEntity
  8
AAA70-0202+AAA75-0201
370
              15
390
0
  6
Continuous
 62
               7
100
AcDbCircle
 10
657.83734738873136
 20
329.75529664466785
 30
0.0
 40
2.0
100
AcDbArc
 50
270.0
 51
0.0
  0
CIRCLE
  5
1B4
100
AcDbEntity
  8
AAA70-0202+AAA75-0201
370
              15
390
0
  6
Continuous
 62
               7
100
AcDbCircle
 10
-452.66545037057858
 20
906.44630527562492
 30
0.0
 40
212.5
  0
ARC
  5
1B5
100
AcDbEntity
  8
AAA70-0202+AAA75-0201
370
              15
390
0
  6
Continuous
 62
               7
100
AcDbCircle
 10
-583.43241867679899
 20
948.94630527562583
 30
0.0
 40
60.0
100
AcDbArc
 50
90.0
 51
161.9955469999168
  0
ARC
  5
1B6
100
AcDbEntity
  8
AAA70-0202+AAA75-0201
370
              15
390
0
  6
Continuous
 62
               7
100
AcDbCircle
 10
-321.89848206435818
 20
948.94630527562492
 30
0.0
 40
59.999999999999986
100
AcDbArc
 50
18.004453000082805
 51
89.999999999999588
  0
LINE
  5
1B7
100
AcDbEntity
  8
AAA70-0202+AAA75-0201
370
              15
390
0
  6
Continuous
 62
               7
100
AcDbLine
 10
-321.89848206435818
 20
1008.9463052756249
 30
0.0
 11
-583.43241867679899
 21
1008.9463052756258
 31
0.0
  0
CIRCLE
  5
1B8
100
AcDbEntity
  8
AAA70-0202+AAA75-0201
370
              15
390
0
  6
Continuous
 62
               7
100
AcDbCircle
 10
-452.66545037057858
 20
1058.9463052756259
 30
0.0
 40
18.5
  0
CIRCLE
  5
1B9
100
AcDbEntity
  8
AAA70-0202+AAA75-0201
370
              15
390
0
  6
Continuous
 62
               7
100
AcDbCircle
 10
-452.66545037057858
 20
943.94630527562492
 30
0.0
 40
22.5
  0
CIRCLE
  5
1BA
100
AcDbEntity
  8
AAA70-0202+AAA75-0201
370
              15
390
0
  6
Continuous
 62
               7
100
AcDbCircle
 10
-452.66545037057858
 20
943.94630527562492
 30
0.0
 40
35.0
  0
LINE
  5
1BB
100
AcDbEntity
  8
AAA70-0202+AAA75-0201
370
              15
390
0
  6
Continuous
 62
               7
100
AcDbLine
 10
633.33734738873727
 20
327.75529664466785
 30
0.0
 11
657.83734738873136
 21
327.75529664466785
 31
0.0
  0
LINE
  5
1BC
100
AcDbEntity
  8
AAA70-0202+AAA75-0201
370
              15
390
0
  6
Continuous
 62
               7
100
AcDbLine
 10
-665.16545037057494
 20
335.75529664466694
 30
0.0
 11
-665.16545037057494
 21
178.75529664466808
 31
0.0
  0
ARC
  5
1BD
100
AcDbEntity
  8
AAA70-0202+AAA75-0201
370
              15
390
0
  6
Continuous
 62
               7
100
AcDbCircle
 10
-663.16545037057404
 20
335.75529664466694
 30
0.0
 40
2.0
100
AcDbArc
 50
90.0
 51
180.0
  0
LINE
  5
1BE
100
AcDbEntity
  8
AAA70-0202+AAA75-0201
370
              15
390
0
  6
Continuous
 62
               7
100
AcDbLine
 10
-240.16545037058313
 20
335.75529664466694
 30
0.0
 11
-240.16545037058313
 21
178.75529664466717
 31
0.0
  0
ARC
  5
1BF
100
AcDbEntity
  8
AAA70-0202+AAA75-0201
370
              15
390
0
  6
Continuous
 62
               7
100
AcDbCircle
 10
-242.16545037058313
 20
335.75529664466694
 30
0.0
 40
2.0
100
AcDbArc
 50
0.0
 51
90.0
  0
LINE
  5
1C0
100
AcDbEntity
  8
AAA70-0202+AAA75-0201
370
              15
390
0
  6
Continuous
 62
               7
100
AcDbLine
 10
-664.16545037057494
 20
177.75529664466808
 30
0.0
 11
-241.16545037058222
 21
177.75529664466717
 31
0.0
  0
ARC
  5
1C1
100
AcDbEntity
  8
AAA70-0202+AAA75-0201
370
              15
390
0
  6
Continuous
 62
               7
100
AcDbCircle
 10
-664.16545037057494
 20
178.75529664466808
 30
0.0
 40
1.0
100
AcDbArc
 50
180.0
 51
270.0
  0
ARC
  5
1C2
100
AcDbEntity
  8
AAA70-0202+AAA75-0201
370
              15
390
0
  6
Continuous
 62
               7
100
AcDbCircle
 10
-241.16545037058222
 20
178.75529664466717
 30
0.0
 40
1.0
100
AcDbArc
 50
270.0
 51
0.0
  0
LINE
  5
1C3
100
AcDbEntity
  8
AAA70-0202+AAA75-0201
370
              15
390
0
  6
Continuous
 62
               7
100
AcDbLine
 10
-663.16545037057404
 20
337.75529664466785
 30
0.0
 11
-242.16545037058313
 21
337.75529664466785
 31
0.0
  0
LINE
  5
1C4
100
AcDbEntity
  8
AAA70-0202+AAA75-0201
370
              15
390
0
  6
Continuous
 62
               7
100
AcDbLine
 10
672.83734738872954
 20
337.75529664466785
 30
0.0
 11
661.83734738873136
 21
337.75529664466785
 31
0.0
  0
ARC
  5
1C5
100
AcDbEntity
  8
AAA70-0202+AAA75-0201
370
              15
390
0
  6
Continuous
 62
               7
100
AcDbCircle
 10
568.83734738873954
 20
323.75529664466762
 30
0.0
 40
4.0
100
AcDbArc
 50
90.0
 51
180.0
  0
LINE
  5
1C6
100
AcDbEntity
  8
AAA70-0202+AAA75-0201
370
              15
390
0
  6
Continuous
 62
               7
100
AcDbLine
 10
476.33734738874455
 20
137.75529664466717
 30
0.0
 11
523.33734738873318
 21
137.75529664466717
 31
0.0
  0
LINE
  5
1C7
100
AcDbEntity
  8
AAA70-0202+AAA75-0201
370
              15
390
0
  6
Continuous
 62
               7
100
AcDbLine
 10
477.33734738874455
 20
182.74223509618537
 30
0.0
 11
522.33734738873318
 21
182.74223509618537
 31
0.0
  0
ARC
  5
1C8
100
AcDbEntity
  8
AAA70-0202+AAA75-0201
370
              15
390
0
  6
Continuous
 62
               7
100
AcDbCircle
 10
540.3324886456553
 20
218.20737430047916
 30
0.0
 40
20.444799942396422
100
AcDbArc
 50
272.23560709948765
 51
342.53896181746433
  0
ARC
  5
1C9
100
AcDbEntity
  8
AAA70-0202+AAA75-0201
370
              15
390
0
  6
Continuous
 62
               7
100
AcDbCircle
 10
541.28605107226849
 20
193.78118010405228
 30
0.0
 40
3.9999999999999991
100
AcDbArc
 50
92.235607099487098
 51
128.79518589719271
  0
LINE
  5
1CA
100
AcDbEntity
  8
AAA70-0202+AAA75-0201
370
              15
390
0
  6
Continuous
 62
               7
100
AcDbLine
 10
563.83538447082447
 20
301.38447720822751
 30
0.0
 11
564.83734738873818
 21
323.75529664466762
 31
0.0
  0
ARC
  5
1CB
100
AcDbEntity
  8
AAA70-0202+AAA75-0201
370
              15
390
0
  6
Continuous
 62
               7
100
AcDbCircle
 10
540.3324886456553
 20
218.20737430047916
 30
0.0
 40
30.444799942396777
100
AcDbArc
 50
278.13318077503618
 51
345.23952505203692
  0
ARC
  5
1CC
100
AcDbEntity
  8
AAA70-0202+AAA75-0201
370
              15
390
0
  6
Continuous
 62
               7
100
AcDbCircle
 10
546.33734738873227
 20
176.18948866083542
 30
0.0
 40
11.999999999999718
100
AcDbArc
 50
98.133180775037019
 51
180.00000000000219
  0
LINE
  5
1CD
100
AcDbEntity
  8
AAA70-0202+AAA75-0201
370
              15
390
0
  6
Continuous
 62
               7
100
AcDbLine
 10
569.77259118725442
 20
210.45068648462006
 30
0.0
 11
573.3975213039912
 21
291.38447720822774
 31
0.0
  0
LINE
  5
1CE
100
AcDbEntity
  8
AAA70-0202+AAA75-0201
370
              15
390
0
  6
Continuous
 62
               7
100
AcDbLine
 10
573.84540964387133
 20
301.38447720822774
 30
0.0
 11
574.49306995102916
 21
315.84478459942056
 31
0.0
  0
LINE
  5
1CF
100
AcDbEntity
  8
AAA70-0202+AAA75-0201
370
              15
390
0
  6
Continuous
 62
               7
100
AcDbLine
 10
576.49106692448959
 20
317.75529664466785
 30
0.0
 11
583.40655561742551
 21
317.75529664466831
 31
0.0
  0
LINE
  5
1D0
100
AcDbEntity
  8
AAA70-0202+AAA75-0201
370
              15
390
0
  6
Continuous
 62
               7
100
AcDbLine
 10
591.4065556174246
 20
317.75529664466831
 30
0.0
 11
596.33734738873954
 21
317.75529664466876
 31
0.0
  0
LINE
  5
1D1
100
AcDbEntity
  8
AAA70-0202+AAA75-0201
370
              15
390
0
  6
Continuous
 62
               7
100
AcDbLine
 10
633.33734738873727
 20
317.75529664466876
 30
0.0
 11
657.83734738873136
 21
317.75529664466808
 31
0.0
  0
ARC
  5
1D2
100
AcDbEntity
  8
AAA70-0202+AAA75-0201
370
              15
390
0
  6
Continuous
 62
               7
100
AcDbCircle
 10
260.8798634476243
 20
333.75529664466785
 30
0.0
 40
3.999999999999901
100
AcDbArc
 50
8.3612183131170852
 51
90.0
  0
ARC
  5
1D3
100
AcDbEntity
  8
AAA70-0202+AAA75-0201
370
              15
390
0
  6
Continuous
 62
               7
100
AcDbCircle
 10
414.82747572127528
 20
370.2187129506317
 30
0.0
 40
164.22237028221201
100
AcDbArc
 50
204.6448104944138
 51
227.26515327776238
  0
ARC
  5
1D4
100
AcDbEntity
  8
AAA70-0202+AAA75-0201
370
              15
390
0
  6
Continuous
 62
               7
100
AcDbCircle
 10
301.34928627043337
 20
247.39354597838724
 30
0.0
 40
3.0000000000002127
100
AcDbArc
 50
340.00000000000261
 51
47.265153277758543
  0
ARC
  5
1D5
100
AcDbEntity
  8
AAA70-0202+AAA75-0201
370
              15
390
0
  6
Continuous
 62
               7
100
AcDbCircle
 10
262.83734738873818
 20
300.48836079133366
 30
0.0
 40
3.0000000000001292
100
AcDbArc
 50
24.644810494409278
 51
180.00000000000435
  0
ARC
  5
1D6
100
AcDbEntity
  8
AAA70-0202+AAA75-0201
370
              15
390
0
  6
Continuous
 62
               7
100
AcDbCircle
 10
458.42076247769637
 20
193.7553603908957
 30
0.0
 40
4.0000000000000941
100
AcDbArc
 50
51.204814102816478
 51
90.323471079429126
  0
ARC
  5
1D7
100
AcDbEntity
  8
AAA70-0202+AAA75-0201
370
              15
390
0
  6
Continuous
 62
               7
100
AcDbCircle
 10
314.21467455241918
 20
235.96003937305045
 30
0.0
 40
3.0000000000000027
100
AcDbArc
 50
50.591505028922853
 51
160.00000000000261
  0
ARC
  5
1D8
100
AcDbEntity
  8
AAA70-0202+AAA75-0201
370
              15
390
0
  6
Continuous
 62
               7
100
AcDbCircle
 10
453.33734738874318
 20
175.78376634494384
 30
0.0
 40
12.0
100
AcDbArc
 50
0.00000000000216
 51
89.05509071419165
  0
LINE
  5
1D9
100
AcDbEntity
  8
AAA70-0202+AAA75-0201
370
              15
390
0
  6
Continuous
 62
               7
100
AcDbLine
 10
596.33734738873727
 20
317.75529664466808
 30
0.0
 11
596.33734738873954
 21
327.75529664466785
 31
0.0
  0
LINE
  5
1DA
100
AcDbEntity
  8
AAA70-0202+AAA75-0201
370
              15
390
0
  6
Continuous
 62
               7
100
AcDbLine
 10
633.33734738873727
 20
317.75529664466808
 30
0.0
 11
633.33734738873727
 21
327.75529664466785
 31
0.0
  0
CIRCLE
  5
1DB
100
AcDbEntity
  8
AAA70-0202+AAA75-0201
370
              15
390
0
  6
Continuous
 62
               7
100
AcDbCircle
 10
-452.66545037057858
 20
906.44630527562492
 30
0.0
 40
197.5
  0
ARC
  5
1DC
100
AcDbEntity
  8
AAA70-0202+AAA75-0201
370
              15
390
0
  6
Continuous
 62
               7
100
AcDbCircle
 10
457.20002043423938
 20
409.9806377192308
 30
0.0
 40
222.22872326971586
100
AcDbArc
 50
230.59150502892706
 51
269.05509071419118
  0
ARC
  5
1DD
100
AcDbEntity
  8
AAA70-0202+AAA75-0201
370
              15
390
0
  6
Continuous
 62
               7
100
AcDbCircle
 10
414.82747572127528
 20
370.2187129506317
 30
0.0
 40
154.22237028221224
100
AcDbArc
 50
193.45387530114661
 51
227.14003922463405
  0
ARC
  5
1DE
100
AcDbEntity
  8
AAA70-0202+AAA75-0201
370
              15
390
0
  6
Continuous
 62
               7
100
AcDbCircle
 10
457.20002043423847
 20
409.9806377192308
 30
0.0
 40
212.22872326971623
100
AcDbArc
 50
226.05645749167198
 51
270.32347107942536
  0
LINE
  5
1DF
100
AcDbEntity
  8
AAA70-0202+AAA75-0201
370
              15
390
0
  6
Continuous
 62
               7
100
AcDbLine
 10
596.33734738873954
 20
327.75529664466785
 30
0.0
 11
633.33734738873727
 21
327.75529664466785
 31
0.0
  0
LINE
  5
1E0
100
AcDbEntity
  8
AAA70-0202+AAA75-0201
370
              15
390
0
  6
Continuous
 62
               7
100
AcDbLine
 10
596.33734738873954
 20
317.75529664466876
 30
0.0
 11
633.33734738873727
 21
317.75529664466876
 31
0.0
  0
LINE
  5
1E1
100
AcDbEntity
  8
AAA70-0202+AAA75-0201
370
              15
390
0
  6
Continuous
 62
               7
100
AcDbLine
 10
559.83521702214921
 20
212.07276505804953
 30
0.0
 11
563.38749613094524
 21
291.38447720822774
 31
0.0
  0
ARC
  5
1E2
100
AcDbEntity
  8
AAA70-0202+AAA75-0201
370
              15
390
0
  6
Continuous
 62
               7
100
AcDbCircle
 10
576.49106692448959
 20
315.75529664466785
 30
0.0
 40
2.0
100
AcDbArc
 50
90.0
 51
177.4355027545231
  0
LINE
  5
1E3
100
AcDbEntity
  8
AAA70-0202+AAA75-0201
370
              15
390
0
  6
Continuous
 62
               7
100
AcDbLine
 10
458.39818005617417
 20
197.75529664466762
 30
0.0
 11
540.83174091212641
 21
197.75529664466762
 31
0.0
  0
LINE
  5
1E4
100
AcDbEntity
  8
AAA70-0202+AAA75-0201
370
              15
390
0
  6
Continuous
 62
               7
100
AcDbLine
 10
288.43693231231828
 20
177.75529664466762
 30
0.0
 11
465.17428399739629
 21
177.75529664466717
 31
0.0
  0
LINE
  5
1E5
100
AcDbEntity
  8
AAA70-0202+AAA75-0201
370
              15
390
0
  6
Continuous
 62
               7
100
AcDbLine
 10
534.43994240454549
 20
177.75529664466762
 30
0.0
 11
578.38850789047228
 21
177.75529664466717
 31
0.0
  0
LINE
  5
1E6
100
AcDbEntity
  8
AAA70-0202+AAA75-0201
370
              15
390
0
  6
Continuous
 62
               7
100
AcDbLine
 10
588.07351517696316
 20
177.75529664466717
 30
0.0
 11
661.83734738873045
 21
177.75529664466717
 31
0.0
  0
ARC
  5
1E7
100
AcDbEntity
  8
AAA70-0202+AAA75-0201
370
              15
390
0
  6
Continuous
 62
               7
100
AcDbCircle
 10
-419.16545037058404
 20
138.75529664466717
 30
0.0
 40
1.0
100
AcDbArc
 50
270.0
 51
0.0
  0
LINE
  5
1E8
100
AcDbEntity
  8
AAA70-0202+AAA75-0201
370
              15
390
0
  6
Continuous
 62
               7
100
AcDbLine
 10
-418.16545037058404
 20
138.75529664466717
 30
0.0
 11
-418.16545037058404
 21
171.17677890056007
 31
0.0
  0
ARC
  5
1E9
100
AcDbEntity
  8
AAA70-0202+AAA75-0201
370
              15
390
0
  6
Continuous
 62
               7
100
AcDbCircle
 10
-486.16545037057313
 20
138.75529664466717
 30
0.0
 40
1.0
100
AcDbArc
 50
180.0
 51
270.0
  0
LINE
  5
1EA
100
AcDbEntity
  8
AAA70-0202+AAA75-0201
370
              15
390
0
  6
Continuous
 62
               7
100
AcDbLine
 10
-487.16545037057313
 20
138.75529664466717
 30
0.0
 11
-487.16545037057404
 21
170.77105658466894
 31
0.0
  0
LINE
  5
1EB
100
AcDbEntity
  8
AAA70-0202+AAA75-0201
370
              15
390
0
  6
Continuous
 62
               7
100
AcDbLine
 10
-486.16545037057313
 20
137.75529664466717
 30
0.0
 11
-419.16545037058404
 21
137.75529664466717
 31
0.0
  0
ARC
  5
1EC
100
AcDbEntity
  8
AAA70-0202+AAA75-0201
370
              15
390
0
  6
Continuous
 62
               7
100
AcDbCircle
 10
-406.16545037058495
 20
171.17677890056007
 30
0.0
 40
11.999999999999998
100
AcDbArc
 50
146.75571492786742
 51
180.0
  0
ARC
  5
1ED
100
AcDbEntity
  8
AAA70-0202+AAA75-0201
370
              15
390
0
  6
Continuous
 62
               7
100
AcDbCircle
 10
-499.16545037057404
 20
170.77105658466803
 30
0.0
 40
12.0
100
AcDbArc
 50
0.0
 51
35.59274480869226
  0
LINE
  5
1EE
100
AcDbEntity
  8
AAA70-0202+AAA75-0201
370
              15
390
0
  6
Continuous
 62
               7
100
AcDbLine
 10
304.16836413279134
 20
246.36748554841029
 30
0.0
 11
283.31424217179347
 21
189.07125635801617
 31
0.0
  0
LINE
  5
1EF
100
AcDbEntity
  8
AAA70-0202+AAA75-0201
370
              15
390
0
  6
Continuous
 62
               7
100
AcDbLine
 10
311.39559669006121
 20
236.9860998030274
 30
0.0
 11
290.31631755388935
 21
179.07125635801617
 31
0.0
  0
LINE
  5
1F0
100
AcDbEntity
  8
AAA70-0202+AAA75-0201
370
              15
390
0
  6
Continuous
 62
               7
100
AcDbLine
 10
250.83734738873727
 20
177.75529664466808
 30
0.0
 11
288.43693231231828
 21
177.75529664466762
 31
0.0
  0
ARC
  5
1F1
100
AcDbEntity
  8
AAA70-0202+AAA75-0201
370
              15
390
0
  6
Continuous
 62
               7
100
AcDbCircle
 10
288.43693231231828
 20
179.75529664466762
 30
0.0
 40
2.0
100
AcDbArc
 50
270.0
 51
339.99999999999858
  0
LINE
  5
1F2
100
AcDbEntity
  8
AAA70-0202+AAA75-0201
370
              15
390
0
  6
Continuous
 62
               7
100
AcDbLine
 10
591.4065556174246
 20
317.75529664466831
 30
0.0
 11
591.4065556174246
 21
191.00448930264179
 31
0.0
  0
ARC
  5
1F3
100
AcDbEntity
  8
AAA70-0202+AAA75-0201
370
              15
390
0
  6
Continuous
 62
               7
100
AcDbCircle
 10
563.4065556174246
 20
191.00448930264179
 30
0.0
 40
28.000000000000359
100
AcDbArc
 50
280.000000000005
 51
0.0
  0
LINE
  5
1F4
100
AcDbEntity
  8
AAA70-0202+AAA75-0201
370
              15
390
0
  6
Continuous
 62
               7
100
AcDbLine
 10
583.40655561742551
 20
317.75529664466831
 30
0.0
 11
583.40655561742551
 21
191.00448930264133
 31
0.0
  0
LINE
  5
1F5
100
AcDbEntity
  8
AAA70-0202+AAA75-0201
370
              15
390
0
  6
Continuous
 62
               7
100
AcDbLine
 10
534.33734738873227
 20
175.57027134637542
 30
0.0
 11
522.33734738873318
 21
175.57027134637588
 31
0.0
  0
LINE
  5
1F6
100
AcDbEntity
  8
AAA70-0202+AAA75-0201
370
              15
390
0
  6
Continuous
 62
               7
100
AcDbLine
 10
534.33734738873227
 20
165.57027134637588
 30
0.0
 11
522.33734738873318
 21
165.57027134637588
 31
0.0
  0
LINE
  5
1F7
100
AcDbEntity
  8
AAA70-0202+AAA75-0201
370
              15
390
0
  6
Continuous
 62
               7
100
AcDbLine
 10
534.33734738873227
 20
165.57027134637588
 30
0.0
 11
566.87951917076316
 21
171.30833424239722
 31
0.0
  0
ARC
  5
1F8
100
AcDbEntity
  8
AAA70-0202+AAA75-0201
370
              15
390
0
  6
Continuous
 62
               7
100
AcDbCircle
 10
563.4065556174246
 20
191.00448930264133
 30
0.0
 40
19.999999999999808
100
AcDbArc
 50
280.00000000000523
 51
0.0
  0
LINE
  5
1F9
100
AcDbEntity
  8
AAA70-0202+AAA75-0201
370
              15
390
0
  6
Continuous
 62
               7
100
AcDbLine
 10
534.33734738873318
 20
157.44685845128947
 30
0.0
 11
568.26870459209931
 21
163.42987221829958
 31
0.0
  0
LINE
  5
1FA
100
AcDbEntity
  8
AAA70-0202+AAA75-0201
370
              15
390
0
  6
Continuous
 62
               7
100
AcDbLine
 10
563.83538447082537
 20
301.38447720822774
 30
0.0
 11
573.84540964387133
 21
301.38447720822774
 31
0.0
  0
LINE
  5
1FB
100
AcDbEntity
  8
AAA70-0202+AAA75-0201
370
              15
390
0
  6
Continuous
 62
               7
100
AcDbLine
 10
563.38749613094524
 20
291.38447720822774
 30
0.0
 11
573.3975213039912
 21
291.38447720822774
 31
0.0
  0
LINE
  5
1FC
100
AcDbEntity
  8
AAA70-0202+AAA75-0201
370
              15
390
0
  6
Continuous
 62
               7
100
AcDbLine
 10
522.33734738873318
 20
175.57027134637588
 30
0.0
 11
522.33734738873318
 21
165.57027134637588
 31
0.0
  0
LINE
  5
1FD
100
AcDbEntity
  8
AAA70-0202+AAA75-0201
370
              15
390
0
  6
Continuous
 62
               7
100
AcDbLine
 10
534.33734738873227
 20
175.57027134637542
 30
0.0
 11
534.33734738873318
 21
165.57027134637588
 31
0.0
  0
LINE
  5
1FE
100
AcDbEntity
  8
AAA70-0202+AAA75-0201
370
              15
390
0
  6
Continuous
 62
               7
100
AcDbLine
 10
563.83538447082447
 20
301.38447720822774
 30
0.0
 11
563.38749613094524
 21
291.38447720822774
 31
0.0
  0
LINE
  5
1FF
100
AcDbEntity
  8
AAA70-0202+AAA75-0201
370
              15
390
0
  6
Continuous
 62
               7
100
AcDbLine
 10
573.84540964387133
 20
301.38447720822774
 30
0.0
 11
573.3975213039912
 21
291.38447720822774
 31
0.0
  0
LINE
  5
200
100
AcDbEntity
  8
AAA70-0202+AAA75-0201
370
              15
390
0
  6
STYLE_12
 62
               7
100
AcDbLine
 10
-413.46648770643651
 20
197.03380282384092
 30
0.0
 11
-429.21607008538331
 21
184.3729920952826
 31
0.0
  0
ARC
  5
201
100
AcDbEntity
  8
AAA70-0202+AAA75-0201
370
              15
390
0
  6
STYLE_12
 62
               7
100
AcDbCircle
 10
-428.16545037058449
 20
182.67117006731473
 30
0.0
 40
2.0000000000001483
100
AcDbArc
 50
121.68910504311646
 51
180.0
  0
LINE
  5
202
100
AcDbEntity
  8
AAA70-0202+AAA75-0201
370
              15
390
0
  6
STYLE_12
 62
               7
100
AcDbLine
 10
-430.16545037058449
 20
182.67117006731473
 30
0.0
 11
-430.16545037058449
 21
137.75529664466717
 31
0.0
  0
LINE
  5
203
100
AcDbEntity
  8
AAA70-0202+AAA75-0201
370
              15
390
0
  6
STYLE_12
 62
               7
100
AcDbLine
 10
-491.66934552911789
 20
196.87699150603089
 30
0.0
 11
-476.11483065577431
 21
184.3729920952826
 31
0.0
  0
ARC
  5
204
100
AcDbEntity
  8
AAA70-0202+AAA75-0201
370
              15
390
0
  6
STYLE_12
 62
               7
100
AcDbCircle
 10
-477.16545037057313
 20
182.67117006731473
 30
0.0
 40
2.0
100
AcDbArc
 50
0.0
 51
58.310894956883601
  0
LINE
  5
205
100
AcDbEntity
  8
AAA70-0202+AAA75-0201
370
              15
390
0
  6
STYLE_12
 62
               7
100
AcDbLine
 10
-475.16545037057313
 20
182.67117006731473
 30
0.0
 11
-475.16545037057313
 21
137.75529664466717
 31
0.0
  0
LINE
  5
206
100
AcDbEntity
  8
AAA70-0202+AAA75-0201
370
              15
390
0
  6
STYLE_12
 62
               7
100
AcDbLine
 10
-475.16545037057313
 20
182.67117006731473
 30
0.0
 11
-430.16545037058449
 21
182.67117006731473
 31
0.0
  0
ARC
  5
207
100
AcDbEntity
  8
AAA70-0202+AAA75-0201
370
              15
390
0
  6
STYLE_12
 62
               7
100
AcDbCircle
 10
-410.96033439579014
 20
193.91624038123587
 30
0.0
 40
3.9999999999999178
100
AcDbArc
 50
100.64840176744292
 51
128.79518589718353
  0
ARC
  5
208
100
AcDbEntity
  8
AAA70-0202+AAA75-0201
370
              15
390
0
  6
STYLE_12
 62
               7
100
AcDbCircle
 10
-494.17549883976335
 20
193.75942906342584
 30
0.0
 40
4.0000000000000941
100
AcDbArc
 50
51.204814102816478
 51
87.395363074791064
  0
LINE
  5
209
100
AcDbEntity
  8
AAA70-0202+AAA75-0201
370
              15
390
0
  6
STYLE_12
 62
               7
100
AcDbLine
 10
-493.9937235026382
 20
197.75529664466762
 30
0.0
 11
-412.08356500711034
 21
197.75529664466762
 31
0.0
  0
ARC
  5
20A
100
AcDbEntity
  8
AAA70-0202+AAA75-0201
370
              15
390
0
  6
STYLE_12
 62
               7
100
AcDbCircle
 10
-253.18290041957016
 20
335.69694137607189
 30
0.0
 40
2.0
100
AcDbArc
 50
90.0
 51
172.42579189952659
  0
ARC
  5
20B
100
AcDbEntity
  8
AAA70-0202+AAA75-0201
370
              15
390
0
  6
STYLE_12
 62
               7
100
AcDbCircle
 10
-407.6485284205537
 20
358.65385244645449
 30
0.0
 40
154.16249393114992
100
AcDbArc
 50
318.23139850294109
 51
351.53508806892387
  0
ARC
  5
20C
100
AcDbEntity
  8
AAA70-0202+AAA75-0201
370
              15
390
0
  6
STYLE_12
 62
               7
100
AcDbCircle
 10
-430.97104010381827
 20
388.2775309861679
 30
0.0
 40
191.40283238809485
100
AcDbArc
 50
275.77867282970368
 51
316.2676366576008
  0
ARC
  5
20D
100
AcDbEntity
  8
AAA70-0202+AAA75-0201
370
              15
390
0
  6
STYLE_12
 62
               7
100
AcDbCircle
 10
-652.14800032158746
 20
335.69694137607189
 30
0.0
 40
1.9999999999999287
100
AcDbArc
 50
7.5742081004734461
 51
89.999999999999986
  0
ARC
  5
20E
100
AcDbEntity
  8
AAA70-0202+AAA75-0201
370
              15
390
0
  6
STYLE_12
 62
               7
100
AcDbCircle
 10
-497.68237232060346
 20
358.65385244645449
 30
0.0
 40
154.16249393115032
100
AcDbArc
 50
188.4649119310761
 51
221.7686014970588
  0
ARC
  5
20F
100
AcDbEntity
  8
AAA70-0202+AAA75-0201
370
              15
390
0
  6
STYLE_12
 62
               7
100
AcDbCircle
 10
-474.3598606373389
 20
388.2775309861679
 30
0.0
 40
191.40283238809519
100
AcDbArc
 50
223.73236334239908
 51
264.22132717029615
  0
LWPOLYLINE
  5
210
100
AcDbEntity
  8
AAA70-0202+AAA75-0201
370
              15
390
0
  6
Continuous
 62
               7
100
AcDbPolyline
 90
        6
 70
             129
 10
-327.66545037057949
 20
-324.85921076509567
 42
-0.6037175550158132
 10
-332.363826240648
 20
-327.33216838785484
 42
0.3103213997138863
 10
-572.96707450050963
 20
-327.33216838785438
 42
-0.603717555015876
 10
-577.66545037057858
 20
-324.85921076509567
 10
-577.66545037057858
 20
-280.00000000000045
 10
-327.66545037057949
 20
-280.00000000000045
  0
CIRCLE
  5
211
100
AcDbEntity
  8
AAA70-0202+AAA75-0201
370
               5
390
0
  6
STYLE_12
 62
               7
100
AcDbCircle
 10
-452.66545037057858
 20
-502.5
 30
0.0
 40
212.5
  0
CIRCLE
  5
212
100
AcDbEntity
  8
AAA70-0202+AAA75-0201
370
               5
390
0
  6
STYLE_12
 62
               7
100
AcDbCircle
 10
-452.66545037057858
 20
-502.5
 30
0.0
 40
197.5
  0
ARC
  5
213
100
AcDbEntity
  8
AAA70-0202+AAA75-0201
370
               5
390
0
  6
STYLE_12
 62
               7
100
AcDbCircle
 10
-583.43241867679899
 20
-459.99999999999955
 30
0.0
 40
59.999999999999773
100
AcDbArc
 50
90.0
 51
161.99554699991694
  0
ARC
  5
214
100
AcDbEntity
  8
AAA70-0202+AAA75-0201
370
               5
390
0
  6
STYLE_12
 62
               7
100
AcDbCircle
 10
-321.89848206435818
 20
-460.00000000000045
 30
0.0
 40
59.999999999999986
100
AcDbArc
 50
18.004453000082805
 51
90.000000000000014
  0
LINE
  5
215
100
AcDbEntity
  8
AAA70-0202+AAA75-0201
370
               5
390
0
  6
STYLE_12
 62
               7
100
AcDbLine
 10
-321.89848206435818
 20
-400.00000000000045
 30
0.0
 11
-583.43241867679899
 21
-400.00000000000045
 31
0.0
  0
CIRCLE
  5
216
100
AcDbEntity
  8
AAA70-0202+AAA75-0201
370
               5
390
0
  6
STYLE_12
 62
               7
100
AcDbCircle
 10
-452.66545037057858
 20
-350.00000000000045
 30
0.0
 40
18.5
  0
CIRCLE
  5
217
100
AcDbEntity
  8
AAA70-0202+AAA75-0201
370
               5
390
0
  6
STYLE_12
 62
               7
100
AcDbCircle
 10
-452.66545037057858
 20
-465.0
 30
0.0
 40
22.5
  0
CIRCLE
  5
218
100
AcDbEntity
  8
AAA70-0202+AAA75-0201
370
               5
390
0
  6
STYLE_12
 62
               7
100
AcDbCircle
 10
-452.66545037057858
 20
-465.0
 30
0.0
 40
35.0
  0
LINE
  5
219
100
AcDbEntity
  8
AAA70-0202+AAA75-0201
370
              15
390
0
  6
STYLE_13
 62
               7
100
AcDbLine
 10
674.32444893250795
 20
-884.37989297365584
 30
0.0
 11
674.32444893250795
 21
-910.3798929736563
 31
0.0
  0
LINE
  5
21A
100
AcDbEntity
  8
AAA70-0202+AAA75-0201
370
              15
390
0
  6
STYLE_13
 62
               7
100
AcDbLine
 10
674.32444893250795
 20
-910.3798929736563
 30
0.0
 11
674.32444893250795
 21
-1041.3798929736563
 31
0.0
  0
LINE
  5
21B
100
AcDbEntity
  8
AAA70-0202+AAA75-0201
370
              15
390
0
  6
STYLE_13
 62
               7
100
AcDbLine
 10
251.32444893251704
 20
-882.37989297365584
 30
0.0
 11
672.32444893250795
 21
-882.37989297365584
 31
0.0
  0
LINE
  5
21C
100
AcDbEntity
  8
AAA70-0202+AAA75-0201
370
              15
390
0
  6
Continuous
 62
               7
100
AcDbLine
 10
699.32444893250795
 20
-910.3798929736563
 30
0.0
 11
699.32444893250795
 21
-1015.3798929736558
 31
0.0
  0
LINE
  5
21D
100
AcDbEntity
  8
AAA70-0202+AAA75-0201
370
              15
390
0
  6
STYLE_13
 62
               7
100
AcDbLine
 10
649.32444893250795
 20
-910.3798929736563
 30
0.0
 11
649.32444893250795
 21
-1015.3798929736558
 31
0.0
  0
LINE
  5
21E
100
AcDbEntity
  8
AAA70-0202+AAA75-0201
370
              15
390
0
  6
Continuous
 62
               7
100
AcDbLine
 10
649.32444893250795
 20
-1015.3798929736558
 30
0.0
 11
699.32444893250795
 21
-1015.3798929736558
 31
0.0
  0
LINE
  5
21F
100
AcDbEntity
  8
AAA70-0202+AAA75-0201
370
              15
390
0
  6
Continuous
 62
               7
100
AcDbLine
 10
649.32444893250795
 20
-910.3798929736563
 30
0.0
 11
699.32444893250795
 21
-910.3798929736563
 31
0.0
  0
CIRCLE
  5
220
100
AcDbEntity
  8
AAA70-0202+AAA75-0201
370
              15
390
0
  6
Continuous
 62
               7
100
AcDbCircle
 10
689.32444893250886
 20
-930.37989297365584
 30
0.0
 40
3.0
  0
CIRCLE
  5
221
100
AcDbEntity
  8
AAA70-0202+AAA75-0201
370
              15
390
0
  6
Continuous
 62
               7
100
AcDbCircle
 10
689.32444893250886
 20
-995.37989297365539
 30
0.0
 40
3.0
  0
LINE
  5
222
100
AcDbEntity
  8
AAA70-0202+AAA75-0201
370
              15
390
0
  6
STYLE_13
 62
               7
100
AcDbLine
 10
538.26699930540099
 20
-1023.2364470716666
 30
0.0
 11
522.77382921771277
 21
-1035.6911324941702
 31
0.0
  0
ARC
  5
223
100
AcDbEntity
  8
AAA70-0202+AAA75-0201
370
              15
390
0
  6
STYLE_13
 62
               7
100
AcDbCircle
 10
523.82444893251159
 20
-1037.3929545221381
 30
0.0
 40
2.0000000000001483
100
AcDbArc
 50
121.68910504311646
 51
180.0
  0
LINE
  5
224
100
AcDbEntity
  8
AAA70-0202+AAA75-0201
370
              15
390
0
  6
STYLE_13
 62
               7
100
AcDbLine
 10
521.82444893251159
 20
-1037.3929545221381
 30
0.0
 11
521.82444893251159
 21
-1044.5649182719476
 31
0.0
  0
LINE
  5
225
100
AcDbEntity
  8
AAA70-0202+AAA75-0201
370
              15
390
0
  6
STYLE_13
 62
               7
100
AcDbLine
 10
521.82444893251159
 20
-1054.5649182719476
 30
0.0
 11
521.82444893251295
 21
-1081.3798929736563
 31
0.0
  0
ARC
  5
226
100
AcDbEntity
  8
AAA70-0202+AAA75-0201
370
              15
390
0
  6
STYLE_13
 62
               7
100
AcDbCircle
 10
522.82444893251159
 20
-1081.3798929736563
 30
0.0
 40
1.0
100
AcDbArc
 50
180.0
 51
270.0
  0
LINE
  5
227
100
AcDbEntity
  8
AAA70-0202+AAA75-0201
370
              15
390
0
  6
STYLE_13
 62
               7
100
AcDbLine
 10
522.82444893251159
 20
-1082.3798929736563
 30
0.0
 11
532.82444893251159
 21
-1082.3798929736563
 31
0.0
  0
ARC
  5
228
100
AcDbEntity
  8
AAA70-0202+AAA75-0201
370
              15
390
0
  6
STYLE_13
 62
               7
100
AcDbCircle
 10
532.82444893251159
 20
-1081.3798929736563
 30
0.0
 40
1.0
100
AcDbArc
 50
270.0
 51
0.0
  0
LINE
  5
229
100
AcDbEntity
  8
AAA70-0202+AAA75-0201
370
              15
390
0
  6
STYLE_13
 62
               7
100
AcDbLine
 10
533.82444893251159
 20
-1081.3798929736563
 30
0.0
 11
533.82444893251159
 21
-1062.688331167034
 31
0.0
  0
LINE
  5
22A
100
AcDbEntity
  8
AAA70-0202+AAA75-0201
370
              15
390
0
  6
STYLE_13
 62
               7
100
AcDbLine
 10
533.82444893251068
 20
-1044.5649182719476
 30
0.0
 11
533.82444893251159
 21
-1043.9457009574885
 31
0.0
  0
LINE
  5
22B
100
AcDbEntity
  8
AAA70-0202+AAA75-0201
370
              15
390
0
  6
STYLE_13
 62
               7
100
AcDbLine
 10
460.41401733212069
 20
-1023.2622667848227
 30
0.0
 11
475.87506864732177
 21
-1035.6911324941702
 31
0.0
  0
ARC
  5
22C
100
AcDbEntity
  8
AAA70-0202+AAA75-0201
370
              15
390
0
  6
STYLE_13
 62
               7
100
AcDbCircle
 10
474.82444893252296
 20
-1037.3929545221381
 30
0.0
 40
2.0
100
AcDbArc
 50
0.0
 51
58.310894956883601
  0
LINE
  5
22D
100
AcDbEntity
  8
AAA70-0202+AAA75-0201
370
              15
390
0
  6
STYLE_13
 62
               7
100
AcDbLine
 10
476.82444893252296
 20
-1037.3929545221381
 30
0.0
 11
476.82444893252296
 21
-1081.3798929736563
 31
0.0
  0
ARC
  5
22E
100
AcDbEntity
  8
AAA70-0202+AAA75-0201
370
              15
390
0
  6
STYLE_13
 62
               7
100
AcDbCircle
 10
475.82444893252296
 20
-1081.3798929736563
 30
0.0
 40
1.0
100
AcDbArc
 50
270.0
 51
0.0
  0
LINE
  5
22F
100
AcDbEntity
  8
AAA70-0202+AAA75-0201
370
              15
390
0
  6
STYLE_13
 62
               7
100
AcDbLine
 10
475.82444893252296
 20
-1082.3798929736563
 30
0.0
 11
465.82444893252296
 21
-1082.3798929736563
 31
0.0
  0
ARC
  5
230
100
AcDbEntity
  8
AAA70-0202+AAA75-0201
370
              15
390
0
  6
STYLE_13
 62
               7
100
AcDbCircle
 10
465.82444893252296
 20
-1081.3798929736563
 30
0.0
 40
1.0
100
AcDbArc
 50
180.0
 51
270.0
  0
LINE
  5
231
100
AcDbEntity
  8
AAA70-0202+AAA75-0201
370
              15
390
0
  6
STYLE_13
 62
               7
100
AcDbLine
 10
464.82444893252296
 20
-1081.3798929736563
 30
0.0
 11
464.82444893252296
 21
-1044.3514232733792
 31
0.0
  0
LINE
  5
232
100
AcDbEntity
  8
AAA70-0202+AAA75-0201
370
              15
390
0
  6
STYLE_13
 62
               7
100
AcDbLine
 10
249.32444893251659
 20
-884.37989297365584
 30
0.0
 11
249.32444893251659
 21
-1041.3798929736558
 31
0.0
  0
ARC
  5
233
100
AcDbEntity
  8
AAA70-0202+AAA75-0201
370
              15
390
0
  6
STYLE_13
 62
               7
100
AcDbCircle
 10
251.32444893251568
 20
-884.37989297365584
 30
0.0
 40
2.0
100
AcDbArc
 50
90.0
 51
180.0
  0
LINE
  5
234
100
AcDbEntity
  8
AAA70-0202+AAA75-0201
370
              15
390
0
  6
STYLE_13
 62
               7
100
AcDbLine
 10
659.32444893250977
 20
-904.37989297365539
 30
0.0
 11
659.32444893250795
 21
-1040.3798929736563
 31
0.0
  0
LINE
  5
235
100
AcDbEntity
  8
AAA70-0202+AAA75-0201
370
              15
390
0
  6
STYLE_13
 62
               7
100
AcDbLine
 10
659.32444893250977
 20
-884.37989297365584
 30
0.0
 11
659.32444893250977
 21
-890.37989297365584
 31
0.0
  0
ARC
  5
236
100
AcDbEntity
  8
AAA70-0202+AAA75-0201
370
              15
390
0
  6
STYLE_13
 62
               7
100
AcDbCircle
 10
661.32444893250977
 20
-884.37989297365584
 30
0.0
 40
2.0
100
AcDbArc
 50
90.0
 51
180.0
  0
ARC
  5
237
100
AcDbEntity
  8
AAA70-0202+AAA75-0201
370
              15
390
0
  6
STYLE_13
 62
               7
100
AcDbCircle
 10
672.32444893250795
 20
-884.37989297365584
 30
0.0
 40
2.0
100
AcDbArc
 50
0.0
 51
90.0
  0
LINE
  5
238
100
AcDbEntity
  8
AAA70-0202+AAA75-0201
370
              15
390
0
  6
STYLE_13
 62
               7
100
AcDbLine
 10
661.32444893250886
 20
-1042.3798929736563
 30
0.0
 11
673.32444893250795
 21
-1042.3798929736563
 31
0.0
  0
LINE
  5
239
100
AcDbEntity
  8
AAA70-0202+AAA75-0201
370
              15
390
0
  6
STYLE_13
 62
               7
100
AcDbLine
 10
259.32444893251568
 20
-919.6468288269898
 30
0.0
 11
259.32444893251568
 21
-1030.3798929736558
 31
0.0
  0
LINE
  5
23A
100
AcDbEntity
  8
AAA70-0202+AAA75-0201
370
              15
390
0
  6
STYLE_13
 62
               7
100
AcDbLine
 10
261.32444893251659
 20
-1032.3798929736558
 30
0.0
 11
280.92195847399898
 21
-1032.3798929736558
 31
0.0
  0
ARC
  5
23B
100
AcDbEntity
  8
AAA70-0202+AAA75-0201
370
              15
390
0
  6
STYLE_13
 62
               7
100
AcDbCircle
 10
280.92195847399898
 20
-1030.3798929736558
 30
0.0
 40
2.0
100
AcDbArc
 50
270.0
 51
340.0000000000108
  0
ARC
  5
23C
100
AcDbEntity
  8
AAA70-0202+AAA75-0201
370
              15
390
0
  6
STYLE_13
 62
               7
100
AcDbCircle
 10
261.32444893251659
 20
-1030.3798929736558
 30
0.0
 40
2.0
100
AcDbArc
 50
180.0
 51
270.0
  0
ARC
  5
23D
100
AcDbEntity
  8
AAA70-0202+AAA75-0201
370
              15
390
0
  6
STYLE_13
 62
               7
100
AcDbCircle
 10
250.32444893251568
 20
-1041.3798929736558
 30
0.0
 40
1.0
100
AcDbArc
 50
180.0
 51
270.0
  0
ARC
  5
23E
100
AcDbEntity
  8
AAA70-0202+AAA75-0201
370
              15
390
0
  6
STYLE_13
 62
               7
100
AcDbCircle
 10
673.32444893250795
 20
-1041.3798929736563
 30
0.0
 40
1.0
100
AcDbArc
 50
270.0
 51
0.0
  0
ARC
  5
23F
100
AcDbEntity
  8
AAA70-0202+AAA75-0201
370
              15
390
0
  6
STYLE_13
 62
               7
100
AcDbCircle
 10
657.32444893250977
 20
-904.37989297365539
 30
0.0
 40
2.0
100
AcDbArc
 50
0.0
 51
90.0
  0
ARC
  5
240
100
AcDbEntity
  8
AAA70-0202+AAA75-0201
370
              15
390
0
  6
STYLE_13
 62
               7
100
AcDbCircle
 10
661.32444893250886
 20
-1040.3798929736563
 30
0.0
 40
2.0
100
AcDbArc
 50
180.0
 51
270.0
  0
LINE
  5
241
100
AcDbEntity
  8
AAA70-0202+AAA75-0201
370
              15
390
0
  6
STYLE_13
 62
               7
100
AcDbLine
 10
251.32444893251568
 20
-882.37989297365584
 30
0.0
 11
260.36696499140271
 21
-882.37989297365584
 31
0.0
  0
LINE
  5
242
100
AcDbEntity
  8
AAA70-0202+AAA75-0201
370
              15
390
0
  6
STYLE_13
 62
               7
100
AcDbLine
 10
568.32444893251795
 20
-892.37989297365584
 30
0.0
 11
595.82444893251795
 21
-892.37989297365584
 31
0.0
  0
ARC
  5
243
100
AcDbEntity
  8
AAA70-0202+AAA75-0201
370
              15
390
0
  6
STYLE_13
 62
               7
100
AcDbCircle
 10
657.32444893250977
 20
-890.37989297365584
 30
0.0
 40
2.0
100
AcDbArc
 50
270.0
 51
0.0
  0
LINE
  5
244
100
AcDbEntity
  8
AAA70-0202+AAA75-0201
370
              15
390
0
  6
STYLE_13
 62
               7
100
AcDbLine
 10
632.82444893251568
 20
-892.37989297365584
 30
0.0
 11
657.32444893250977
 21
-892.37989297365584
 31
0.0
  0
LINE
  5
245
100
AcDbEntity
  8
AAA70-0202+AAA75-0201
370
              15
390
0
  6
STYLE_12
 62
               7
100
AcDbLine
 10
-665.67834882679654
 20
-884.37989297365675
 30
0.0
 11
-665.67834882679654
 21
-1041.3798929736554
 31
0.0
  0
ARC
  5
246
100
AcDbEntity
  8
AAA70-0202+AAA75-0201
370
              15
390
0
  6
STYLE_12
 62
               7
100
AcDbCircle
 10
-663.67834882679563
 20
-884.37989297365675
 30
0.0
 40
2.0
100
AcDbArc
 50
90.0
 51
180.0
  0
LINE
  5
247
100
AcDbEntity
  8
AAA70-0202+AAA75-0201
370
              15
390
0
  6
STYLE_12
 62
               7
100
AcDbLine
 10
-240.67834882680472
 20
-884.37989297365675
 30
0.0
 11
-240.67834882680472
 21
-1041.3798929736563
 31
0.0
  0
ARC
  5
248
100
AcDbEntity
  8
AAA70-0202+AAA75-0201
370
              15
390
0
  6
STYLE_12
 62
               7
100
AcDbCircle
 10
-242.67834882680472
 20
-884.37989297365675
 30
0.0
 40
2.0
100
AcDbArc
 50
0.0
 51
90.0
  0
LINE
  5
249
100
AcDbEntity
  8
AAA70-0202+AAA75-0201
370
              15
390
0
  6
STYLE_12
 62
               7
100
AcDbLine
 10
-664.67834882679654
 20
-1042.3798929736554
 30
0.0
 11
-241.67834882680381
 21
-1042.3798929736563
 31
0.0
  0
ARC
  5
24A
100
AcDbEntity
  8
AAA70-0202+AAA75-0201
370
              15
390
0
  6
STYLE_12
 62
               7
100
AcDbCircle
 10
-664.67834882679654
 20
-1041.3798929736554
 30
0.0
 40
1.0
100
AcDbArc
 50
180.0
 51
270.0
  0
ARC
  5
24B
100
AcDbEntity
  8
AAA70-0202+AAA75-0201
370
              15
390
0
  6
STYLE_12
 62
               7
100
AcDbCircle
 10
-241.67834882680381
 20
-1041.3798929736563
 30
0.0
 40
1.0
100
AcDbArc
 50
270.0
 51
0.0
  0
LINE
  5
24C
100
AcDbEntity
  8
AAA70-0202+AAA75-0201
370
              15
390
0
  6
STYLE_12
 62
               7
100
AcDbLine
 10
-663.67834882679563
 20
-882.37989297365584
 30
0.0
 11
-242.67834882680472
 21
-882.37989297365584
 31
0.0
  0
LINE
  5
24D
100
AcDbEntity
  8
AAA70-0202+AAA75-0201
370
              15
390
0
  6
STYLE_13
 62
               7
100
AcDbLine
 10
672.32444893250795
 20
-882.37989297365584
 30
0.0
 11
661.32444893250977
 21
-882.37989297365584
 31
0.0
  0
ARC
  5
24E
100
AcDbEntity
  8
AAA70-0202+AAA75-0201
370
              15
390
0
  6
STYLE_13
 62
               7
100
AcDbCircle
 10
568.32444893251795
 20
-896.37989297365584
 30
0.0
 40
4.0
100
AcDbArc
 50
90.0
 51
180.0
  0
LINE
  5
24F
100
AcDbEntity
  8
AAA70-0202+AAA75-0201
370
              15
390
0
  6
STYLE_13
 62
               7
100
AcDbLine
 10
475.82444893252296
 20
-1082.3798929736563
 30
0.0
 11
522.82444893251159
 21
-1082.3798929736563
 31
0.0
  0
LINE
  5
250
100
AcDbEntity
  8
AAA70-0202+AAA75-0201
370
              15
390
0
  6
STYLE_13
 62
               7
100
AcDbLine
 10
476.82444893252296
 20
-1037.3929545221381
 30
0.0
 11
521.82444893251159
 21
-1037.3929545221381
 31
0.0
  0
ARC
  5
251
100
AcDbEntity
  8
AAA70-0202+AAA75-0201
370
              15
390
0
  6
STYLE_13
 62
               7
100
AcDbCircle
 10
539.81959018943371
 20
-1001.9278153178443
 30
0.0
 40
20.444799942396422
100
AcDbArc
 50
272.23560709948765
 51
342.53896181746433
  0
ARC
  5
252
100
AcDbEntity
  8
AAA70-0202+AAA75-0201
370
              15
390
0
  6
STYLE_13
 62
               7
100
AcDbCircle
 10
540.7731526160469
 20
-1026.3540095142712
 30
0.0
 40
3.9999999999999991
100
AcDbArc
 50
92.235607099487098
 51
128.79518589719271
  0
LINE
  5
253
100
AcDbEntity
  8
AAA70-0202+AAA75-0201
370
              15
390
0
  6
STYLE_13
 62
               7
100
AcDbLine
 10
563.32248601460287
 20
-918.75071241009618
 30
0.0
 11
564.32444893251659
 21
-896.37989297365584
 31
0.0
  0
ARC
  5
254
100
AcDbEntity
  8
AAA70-0202+AAA75-0201
370
              15
390
0
  6
STYLE_13
 62
               7
100
AcDbCircle
 10
539.81959018943371
 20
-1001.9278153178443
 30
0.0
 40
30.444799942396777
100
AcDbArc
 50
278.13318077503618
 51
345.23952505203692
  0
ARC
  5
255
100
AcDbEntity
  8
AAA70-0202+AAA75-0201
370
              15
390
0
  6
STYLE_13
 62
               7
100
AcDbCircle
 10
545.82444893251068
 20
-1043.945700957488
 30
0.0
 40
11.999999999999718
100
AcDbArc
 50
98.133180775037019
 51
180.00000000000219
  0
LINE
  5
256
100
AcDbEntity
  8
AAA70-0202+AAA75-0201
370
              15
390
0
  6
STYLE_13
 62
               7
100
AcDbLine
 10
569.25969273103283
 20
-1009.6845031337034
 30
0.0
 11
572.88462284776961
 21
-928.75071241009573
 31
0.0
  0
LINE
  5
257
100
AcDbEntity
  8
AAA70-0202+AAA75-0201
370
              15
390
0
  6
STYLE_13
 62
               7
100
AcDbLine
 10
573.33251118764974
 20
-918.75071241009573
 30
0.0
 11
573.98017149480756
 21
-904.29040501890313
 31
0.0
  0
LINE
  5
258
100
AcDbEntity
  8
AAA70-0202+AAA75-0201
370
              15
390
0
  6
STYLE_13
 62
               7
100
AcDbLine
 10
575.978168468268
 20
-902.37989297365584
 30
0.0
 11
582.89365716120392
 21
-902.37989297365539
 31
0.0
  0
LINE
  5
259
100
AcDbEntity
  8
AAA70-0202+AAA75-0201
370
              15
390
0
  6
STYLE_13
 62
               7
100
AcDbLine
 10
590.89365716120301
 20
-902.37989297365539
 30
0.0
 11
595.82444893251795
 21
-902.37989297365493
 31
0.0
  0
LINE
  5
25A
100
AcDbEntity
  8
AAA70-0202+AAA75-0201
370
              15
390
0
  6
STYLE_13
 62
               7
100
AcDbLine
 10
632.82444893251568
 20
-902.37989297365493
 30
0.0
 11
657.32444893250977
 21
-902.37989297365539
 31
0.0
  0
ARC
  5
25B
100
AcDbEntity
  8
AAA70-0202+AAA75-0201
370
              15
390
0
  6
STYLE_13
 62
               7
100
AcDbCircle
 10
260.36696499140271
 20
-886.37989297365584
 30
0.0
 40
3.999999999999901
100
AcDbArc
 50
8.3612183131170852
 51
90.0
  0
ARC
  5
25C
100
AcDbEntity
  8
AAA70-0202+AAA75-0201
370
              15
390
0
  6
STYLE_13
 62
               7
100
AcDbCircle
 10
414.31457726505369
 20
-849.91647666769177
 30
0.0
 40
164.22237028221201
100
AcDbArc
 50
204.6448104944138
 51
227.26515327776249
  0
ARC
  5
25D
100
AcDbEntity
  8
AAA70-0202+AAA75-0201
370
              15
390
0
  6
STYLE_13
 62
               7
100
AcDbCircle
 10
300.83638781421178
 20
-972.74164363993623
 30
0.0
 40
3.0000000000002127
100
AcDbArc
 50
340.00000000000261
 51
47.265153277758543
  0
ARC
  5
25E
100
AcDbEntity
  8
AAA70-0202+AAA75-0201
370
              15
390
0
  6
STYLE_13
 62
               7
100
AcDbCircle
 10
262.32444893251659
 20
-919.6468288269898
 30
0.0
 40
3.0000000000000342
100
AcDbArc
 50
24.644810494405334
 51
180.0000000000087
  0
ARC
  5
25F
100
AcDbEntity
  8
AAA70-0202+AAA75-0201
370
              15
390
0
  6
STYLE_13
 62
               7
100
AcDbCircle
 10
457.90786402147478
 20
-1026.3798292274278
 30
0.0
 40
4.0000000000000941
100
AcDbArc
 50
51.204814102816478
 51
90.323471079429126
  0
ARC
  5
260
100
AcDbEntity
  8
AAA70-0202+AAA75-0201
370
              15
390
0
  6
STYLE_13
 62
               7
100
AcDbCircle
 10
313.70177609619759
 20
-984.17515024527302
 30
0.0
 40
3.0000000000000027
100
AcDbArc
 50
50.591505028922853
 51
160.00000000000261
  0
ARC
  5
261
100
AcDbEntity
  8
AAA70-0202+AAA75-0201
370
              15
390
0
  6
STYLE_13
 62
               7
100
AcDbCircle
 10
452.82444893252159
 20
-1044.3514232733796
 30
0.0
 40
12.0
100
AcDbArc
 50
0.00000000000216
 51
89.05509071419165
  0
LINE
  5
262
100
AcDbEntity
  8
AAA70-0202+AAA75-0201
370
              15
390
0
  6
STYLE_13
 62
               7
100
AcDbLine
 10
595.82444893251568
 20
-902.37989297365539
 30
0.0
 11
595.82444893251795
 21
-892.37989297365584
 31
0.0
  0
LINE
  5
263
100
AcDbEntity
  8
AAA70-0202+AAA75-0201
370
              15
390
0
  6
STYLE_13
 62
               7
100
AcDbLine
 10
632.82444893251568
 20
-902.37989297365539
 30
0.0
 11
632.82444893251568
 21
-892.37989297365584
 31
0.0
  0
ARC
  5
264
100
AcDbEntity
  8
AAA70-0202+AAA75-0201
370
              15
390
0
  6
STYLE_13
 62
               7
100
AcDbCircle
 10
456.68712197801779
 20
-810.15455189909289
 30
0.0
 40
222.22872326971569
100
AcDbArc
 50
230.59150502892706
 51
269.05509071419118
  0
ARC
  5
265
100
AcDbEntity
  8
AAA70-0202+AAA75-0201
370
              15
390
0
  6
STYLE_13
 62
               7
100
AcDbCircle
 10
414.31457726505369
 20
-849.91647666769177
 30
0.0
 40
154.22237028221224
100
AcDbArc
 50
193.45387530114661
 51
227.14003922463405
  0
ARC
  5
266
100
AcDbEntity
  8
AAA70-0202+AAA75-0201
370
              15
390
0
  6
STYLE_13
 62
               7
100
AcDbCircle
 10
456.68712197801688
 20
-810.15455189909289
 30
0.0
 40
212.22872326971606
100
AcDbArc
 50
226.05645749167192
 51
270.32347107942536
  0
LINE
  5
267
100
AcDbEntity
  8
AAA70-0202+AAA75-0201
370
              15
390
0
  6
STYLE_13
 62
               7
100
AcDbLine
 10
595.82444893251795
 20
-892.37989297365584
 30
0.0
 11
632.82444893251568
 21
-892.37989297365584
 31
0.0
  0
LINE
  5
268
100
AcDbEntity
  8
AAA70-0202+AAA75-0201
370
              15
390
0
  6
STYLE_13
 62
               7
100
AcDbLine
 10
595.82444893251795
 20
-902.37989297365493
 30
0.0
 11
632.82444893251568
 21
-902.37989297365493
 31
0.0
  0
LINE
  5
269
100
AcDbEntity
  8
AAA70-0202+AAA75-0201
370
              15
390
0
  6
STYLE_13
 62
               7
100
AcDbLine
 10
559.32231856592762
 20
-1008.0624245602739
 30
0.0
 11
562.87459767472365
 21
-928.75071241009573
 31
0.0
  0
ARC
  5
26A
100
AcDbEntity
  8
AAA70-0202+AAA75-0201
370
              15
390
0
  6
STYLE_13
 62
               7
100
AcDbCircle
 10
575.978168468268
 20
-904.37989297365584
 30
0.0
 40
2.0
100
AcDbArc
 50
90.0
 51
177.4355027545231
  0
LINE
  5
26B
100
AcDbEntity
  8
AAA70-0202+AAA75-0201
370
              15
390
0
  6
STYLE_13
 62
               7
100
AcDbLine
 10
457.88528159995258
 20
-1022.3798929736558
 30
0.0
 11
540.31884245590481
 21
-1022.3798929736558
 31
0.0
  0
LINE
  5
26C
100
AcDbEntity
  8
AAA70-0202+AAA75-0201
370
              15
390
0
  6
STYLE_13
 62
               7
100
AcDbLine
 10
287.92403385609668
 20
-1042.3798929736558
 30
0.0
 11
464.6613855411747
 21
-1042.3798929736563
 31
0.0
  0
LINE
  5
26D
100
AcDbEntity
  8
AAA70-0202+AAA75-0201
370
              15
390
0
  6
STYLE_13
 62
               7
100
AcDbLine
 10
533.9270439483239
 20
-1042.3798929736558
 30
0.0
 11
577.87560943425069
 21
-1042.3798929736563
 31
0.0
  0
LINE
  5
26E
100
AcDbEntity
  8
AAA70-0202+AAA75-0201
370
              15
390
0
  6
STYLE_13
 62
               7
100
AcDbLine
 10
587.56061672074156
 20
-1042.3798929736563
 30
0.0
 11
661.32444893250886
 21
-1042.3798929736563
 31
0.0
  0
ARC
  5
26F
100
AcDbEntity
  8
AAA70-0202+AAA75-0201
370
              15
390
0
  6
STYLE_12
 62
               7
100
AcDbCircle
 10
-419.67834882680563
 20
-1081.3798929736563
 30
0.0
 40
1.0
100
AcDbArc
 50
270.0
 51
0.0
  0
LINE
  5
270
100
AcDbEntity
  8
AAA70-0202+AAA75-0201
370
              15
390
0
  6
STYLE_12
 62
               7
100
AcDbLine
 10
-418.67834882680563
 20
-1081.3798929736563
 30
0.0
 11
-418.67834882680563
 21
-1048.9584107177634
 31
0.0
  0
ARC
  5
271
100
AcDbEntity
  8
AAA70-0202+AAA75-0201
370
              15
390
0
  6
STYLE_12
 62
               7
100
AcDbCircle
 10
-486.67834882679472
 20
-1081.3798929736563
 30
0.0
 40
1.0
100
AcDbArc
 50
180.0
 51
270.0
  0
LINE
  5
272
100
AcDbEntity
  8
AAA70-0202+AAA75-0201
370
              15
390
0
  6
STYLE_12
 62
               7
100
AcDbLine
 10
-487.67834882679472
 20
-1081.3798929736563
 30
0.0
 11
-487.67834882679563
 21
-1049.3641330336545
 31
0.0
  0
LINE
  5
273
100
AcDbEntity
  8
AAA70-0202+AAA75-0201
370
              15
390
0
  6
STYLE_12
 62
               7
100
AcDbLine
 10
-486.67834882679472
 20
-1082.3798929736563
 30
0.0
 11
-419.67834882680563
 21
-1082.3798929736563
 31
0.0
  0
ARC
  5
274
100
AcDbEntity
  8
AAA70-0202+AAA75-0201
370
              15
390
0
  6
STYLE_12
 62
               7
100
AcDbCircle
 10
-406.67834882680654
 20
-1048.9584107177634
 30
0.0
 40
11.999999999999998
100
AcDbArc
 50
146.75571492786742
 51
180.0
  0
ARC
  5
275
100
AcDbEntity
  8
AAA70-0202+AAA75-0201
370
              15
390
0
  6
STYLE_12
 62
               7
100
AcDbCircle
 10
-499.67834882679563
 20
-1049.3641330336554
 30
0.0
 40
12.0
100
AcDbArc
 50
0.0
 51
35.59274480869226
  0
LINE
  5
276
100
AcDbEntity
  8
AAA70-0202+AAA75-0201
370
              15
390
0
  6
STYLE_13
 62
               7
100
AcDbLine
 10
303.65546567656975
 20
-973.76770406991318
 30
0.0
 11
282.80134371557187
 21
-1031.0639332603073
 31
0.0
  0
LINE
  5
277
100
AcDbEntity
  8
AAA70-0202+AAA75-0201
370
              15
390
0
  6
STYLE_13
 62
               7
100
AcDbLine
 10
310.88269823383962
 20
-983.14908981529607
 30
0.0
 11
289.80341909766776
 21
-1041.0639332603073
 31
0.0
  0
LINE
  5
278
100
AcDbEntity
  8
AAA70-0202+AAA75-0201
370
              15
390
0
  6
STYLE_13
 62
               7
100
AcDbLine
 10
250.32444893251568
 20
-1042.3798929736554
 30
0.0
 11
287.92403385609668
 21
-1042.3798929736558
 31
0.0
  0
ARC
  5
279
100
AcDbEntity
  8
AAA70-0202+AAA75-0201
370
              15
390
0
  6
STYLE_13
 62
               7
100
AcDbCircle
 10
287.92403385609668
 20
-1040.3798929736558
 30
0.0
 40
2.0
100
AcDbArc
 50
270.0
 51
339.99999999999858
  0
LINE
  5
27A
100
AcDbEntity
  8
AAA70-0202+AAA75-0201
370
              15
390
0
  6
STYLE_13
 62
               7
100
AcDbLine
 10
590.89365716120301
 20
-902.37989297365539
 30
0.0
 11
590.89365716120301
 21
-1029.1307003156817
 31
0.0
  0
ARC
  5
27B
100
AcDbEntity
  8
AAA70-0202+AAA75-0201
370
              15
390
0
  6
STYLE_13
 62
               7
100
AcDbCircle
 10
562.89365716120301
 20
-1029.1307003156817
 30
0.0
 40
28.000000000000359
100
AcDbArc
 50
280.000000000005
 51
0.0
  0
LINE
  5
27C
100
AcDbEntity
  8
AAA70-0202+AAA75-0201
370
              15
390
0
  6
STYLE_13
 62
               7
100
AcDbLine
 10
582.89365716120392
 20
-902.37989297365539
 30
0.0
 11
582.89365716120392
 21
-1029.1307003156821
 31
0.0
  0
LINE
  5
27D
100
AcDbEntity
  8
AAA70-0202+AAA75-0201
370
              15
390
0
  6
STYLE_13
 62
               7
100
AcDbLine
 10
533.82444893251068
 20
-1044.564918271948
 30
0.0
 11
521.82444893251159
 21
-1044.5649182719476
 31
0.0
  0
LINE
  5
27E
100
AcDbEntity
  8
AAA70-0202+AAA75-0201
370
              15
390
0
  6
STYLE_13
 62
               7
100
AcDbLine
 10
533.82444893251068
 20
-1054.5649182719476
 30
0.0
 11
521.82444893251159
 21
-1054.5649182719476
 31
0.0
  0
LINE
  5
27F
100
AcDbEntity
  8
AAA70-0202+AAA75-0201
370
              15
390
0
  6
STYLE_13
 62
               7
100
AcDbLine
 10
533.82444893251068
 20
-1054.5649182719476
 30
0.0
 11
566.36662071454157
 21
-1048.8268553759262
 31
0.0
  0
ARC
  5
280
100
AcDbEntity
  8
AAA70-0202+AAA75-0201
370
              15
390
0
  6
STYLE_13
 62
               7
100
AcDbCircle
 10
562.89365716120301
 20
-1029.1307003156821
 30
0.0
 40
19.999999999999808
100
AcDbArc
 50
280.00000000000523
 51
0.0
  0
LINE
  5
281
100
AcDbEntity
  8
AAA70-0202+AAA75-0201
370
              15
390
0
  6
STYLE_13
 62
               7
100
AcDbLine
 10
533.82444893251159
 20
-1062.688331167034
 30
0.0
 11
567.75580613587772
 21
-1056.7053174000239
 31
0.0
  0
LINE
  5
282
100
AcDbEntity
  8
AAA70-0202+AAA75-0201
370
              15
390
0
  6
STYLE_13
 62
               7
100
AcDbLine
 10
563.32248601460378
 20
-918.75071241009573
 30
0.0
 11
573.33251118764974
 21
-918.75071241009573
 31
0.0
  0
LINE
  5
283
100
AcDbEntity
  8
AAA70-0202+AAA75-0201
370
              15
390
0
  6
STYLE_13
 62
               7
100
AcDbLine
 10
562.87459767472365
 20
-928.75071241009573
 30
0.0
 11
572.88462284776961
 21
-928.75071241009573
 31
0.0
  0
LINE
  5
284
100
AcDbEntity
  8
AAA70-0202+AAA75-0201
370
              15
390
0
  6
STYLE_13
 62
               7
100
AcDbLine
 10
521.82444893251159
 20
-1044.5649182719476
 30
0.0
 11
521.82444893251159
 21
-1054.5649182719476
 31
0.0
  0
LINE
  5
285
100
AcDbEntity
  8
AAA70-0202+AAA75-0201
370
              15
390
0
  6
STYLE_13
 62
               7
100
AcDbLine
 10
533.82444893251068
 20
-1044.564918271948
 30
0.0
 11
533.82444893251159
 21
-1054.5649182719476
 31
0.0
  0
LINE
  5
286
100
AcDbEntity
  8
AAA70-0202+AAA75-0201
370
              15
390
0
  6
STYLE_13
 62
               7
100
AcDbLine
 10
563.32248601460287
 20
-918.75071241009573
 30
0.0
 11
562.87459767472365
 21
-928.75071241009573
 31
0.0
  0
LINE
  5
287
100
AcDbEntity
  8
AAA70-0202+AAA75-0201
370
              15
390
0
  6
STYLE_13
 62
               7
100
AcDbLine
 10
573.33251118764974
 20
-918.75071241009573
 30
0.0
 11
572.88462284776961
 21
-928.75071241009573
 31
0.0
  0
LINE
  5
288
100
AcDbEntity
  8
AAA70-0202+AAA75-0201
370
              15
390
0
  6
STYLE_12
 62
               7
100
AcDbLine
 10
-413.97938616265765
 20
-1023.1013867944826
 30
0.0
 11
-429.72896854160444
 21
-1035.7621975230409
 31
0.0
  0
ARC
  5
289
100
AcDbEntity
  8
AAA70-0202+AAA75-0201
370
              15
390
0
  6
STYLE_12
 62
               7
100
AcDbCircle
 10
-428.67834882680563
 20
-1037.4640195510087
 30
0.0
 40
2.0000000000001483
100
AcDbArc
 50
121.68910504311646
 51
180.0
  0
LINE
  5
28A
100
AcDbEntity
  8
AAA70-0202+AAA75-0201
370
              15
390
0
  6
STYLE_12
 62
               7
100
AcDbLine
 10
-430.67834882680563
 20
-1037.4640195510087
 30
0.0
 11
-430.67834882680563
 21
-1082.3798929736563
 31
0.0
  0
LINE
  5
28B
100
AcDbEntity
  8
AAA70-0202+AAA75-0201
370
              15
390
0
  6
STYLE_12
 62
               7
100
AcDbLine
 10
-492.18224398533948
 20
-1023.2581981122926
 30
0.0
 11
-476.6277291119959
 21
-1035.7621975230409
 31
0.0
  0
ARC
  5
28C
100
AcDbEntity
  8
AAA70-0202+AAA75-0201
370
              15
390
0
  6
STYLE_12
 62
               7
100
AcDbCircle
 10
-477.67834882679472
 20
-1037.4640195510087
 30
0.0
 40
2.0
100
AcDbArc
 50
0.0
 51
58.310894956883601
  0
LINE
  5
28D
100
AcDbEntity
  8
AAA70-0202+AAA75-0201
370
              15
390
0
  6
STYLE_12
 62
               7
100
AcDbLine
 10
-475.67834882679472
 20
-1037.4640195510087
 30
0.0
 11
-475.67834882679472
 21
-1082.3798929736563
 31
0.0
  0
LINE
  5
28E
100
AcDbEntity
  8
AAA70-0202+AAA75-0201
370
              15
390
0
  6
STYLE_12
 62
               7
100
AcDbLine
 10
-475.67834882679472
 20
-1037.4640195510087
 30
0.0
 11
-430.67834882680563
 21
-1037.4640195510087
 31
0.0
  0
ARC
  5
28F
100
AcDbEntity
  8
AAA70-0202+AAA75-0201
370
              15
390
0
  6
STYLE_12
 62
               7
100
AcDbCircle
 10
-411.47323285201219
 20
-1026.2189492370876
 30
0.0
 40
3.9999999999999178
100
AcDbArc
 50
100.64840176744292
 51
128.79518589718353
  0
ARC
  5
290
100
AcDbEntity
  8
AAA70-0202+AAA75-0201
370
              15
390
0
  6
STYLE_12
 62
               7
100
AcDbCircle
 10
-494.68839729598494
 20
-1026.3757605548976
 30
0.0
 40
4.0000000000000941
100
AcDbArc
 50
51.204814102816478
 51
87.395363074791064
  0
LINE
  5
291
100
AcDbEntity
  8
AAA70-0202+AAA75-0201
370
              15
390
0
  6
STYLE_12
 62
               7
100
AcDbLine
 10
-494.5066219588598
 20
-1022.3798929736558
 30
0.0
 11
-412.59646346333193
 21
-1022.3798929736558
 31
0.0
  0
ARC
  5
292
100
AcDbEntity
  8
AAA70-0202+AAA75-0201
370
              15
390
0
  6
STYLE_12
 62
               7
100
AcDbCircle
 10
-253.69579887579221
 20
-884.43824824225157
 30
0.0
 40
2.0
100
AcDbArc
 50
90.0
 51
172.4257918995296
  0
ARC
  5
293
100
AcDbEntity
  8
AAA70-0202+AAA75-0201
370
              15
390
0
  6
STYLE_12
 62
               7
100
AcDbCircle
 10
-408.16142687677529
 20
-861.4813371718692
 30
0.0
 40
154.16249393114941
100
AcDbArc
 50
318.23139850294103
 51
351.53508806892393
  0
ARC
  5
294
100
AcDbEntity
  8
AAA70-0202+AAA75-0201
370
              15
390
0
  6
STYLE_12
 62
               7
100
AcDbCircle
 10
-431.48393856003986
 20
-831.85765863215556
 30
0.0
 40
191.40283238809479
100
AcDbArc
 50
275.77867282970368
 51
316.26763665760075
  0
ARC
  5
295
100
AcDbEntity
  8
AAA70-0202+AAA75-0201
370
              15
390
0
  6
STYLE_12
 62
               7
100
AcDbCircle
 10
-652.66089877780905
 20
-884.43824824225157
 30
0.0
 40
1.9999999999998987
100
AcDbArc
 50
7.5742081004669899
 51
90.0
  0
ARC
  5
296
100
AcDbEntity
  8
AAA70-0202+AAA75-0201
370
              15
390
0
  6
STYLE_12
 62
               7
100
AcDbCircle
 10
-498.19527077682505
 20
-861.4813371718692
 30
0.0
 40
154.16249393115032
100
AcDbArc
 50
188.4649119310761
 51
221.76860149705874
  0
ARC
  5
297
100
AcDbEntity
  8
AAA70-0202+AAA75-0201
370
              15
390
0
  6
STYLE_12
 62
               7
100
AcDbCircle
 10
-474.87275909356049
 20
-831.85765863215556
 30
0.0
 40
191.40283238809519
100
AcDbArc
 50
223.73236334239908
 51
264.22132717029615
  0
LINE
  5
298
100
AcDbEntity
  8
AAA70-0202+AAA75-0201
370
              15
390
0
  6
STYLE_13
 62
               7
100
AcDbLine
 10
674.32444893250795
 20
-884.37989297365584
 30
0.0
 11
674.32444893250795
 21
-910.3798929736563
 31
0.0
  0
LINE
  5
299
100
AcDbEntity
  8
AAA70-0202+AAA75-0201
370
              15
390
0
  6
STYLE_13
 62
               7
100
AcDbLine
 10
674.32444893250795
 20
-910.3798929736563
 30
0.0
 11
674.32444893250795
 21
-1041.3798929736563
 31
0.0
  0
LINE
  5
29A
100
AcDbEntity
  8
AAA70-0202+AAA75-0201
370
              15
390
0
  6
STYLE_13
 62
               7
100
AcDbLine
 10
251.32444893251704
 20
-882.37989297365584
 30
0.0
 11
672.32444893250795
 21
-882.37989297365584
 31
0.0
  0
LINE
  5
29B
100
AcDbEntity
  8
AAA70-0202+AAA75-0201
370
              15
390
0
  6
Continuous
 62
               7
100
AcDbLine
 10
649.32444893250795
 20
-910.3798929736563
 30
0.0
 11
649.32444893250795
 21
-1015.3798929736558
 31
0.0
  0
LINE
  5
29C
100
AcDbEntity
  8
AAA70-0202+AAA75-0201
370
              15
390
0
  6
STYLE_13
 62
               7
100
AcDbLine
 10
538.26699930540099
 20
-1023.2364470716666
 30
0.0
 11
522.77382921771277
 21
-1035.6911324941702
 31
0.0
  0
ARC
  5
29D
100
AcDbEntity
  8
AAA70-0202+AAA75-0201
370
              15
390
0
  6
STYLE_13
 62
               7
100
AcDbCircle
 10
523.82444893251159
 20
-1037.3929545221381
 30
0.0
 40
2.0000000000001483
100
AcDbArc
 50
121.68910504311646
 51
180.0
  0
LINE
  5
29E
100
AcDbEntity
  8
AAA70-0202+AAA75-0201
370
              15
390
0
  6
STYLE_13
 62
               7
100
AcDbLine
 10
521.82444893251159
 20
-1037.3929545221381
 30
0.0
 11
521.82444893251159
 21
-1044.5649182719476
 31
0.0
  0
LINE
  5
29F
100
AcDbEntity
  8
AAA70-0202+AAA75-0201
370
              15
390
0
  6
STYLE_13
 62
               7
100
AcDbLine
 10
521.82444893251159
 20
-1054.5649182719476
 30
0.0
 11
521.82444893251295
 21
-1081.3798929736563
 31
0.0
  0
ARC
  5
2A0
100
AcDbEntity
  8
AAA70-0202+AAA75-0201
370
              15
390
0
  6
STYLE_13
 62
               7
100
AcDbCircle
 10
522.82444893251159
 20
-1081.3798929736563
 30
0.0
 40
1.0
100
AcDbArc
 50
180.0
 51
270.0
  0
LINE
  5
2A1
100
AcDbEntity
  8
AAA70-0202+AAA75-0201
370
              15
390
0
  6
STYLE_13
 62
               7
100
AcDbLine
 10
522.82444893251159
 20
-1082.3798929736563
 30
0.0
 11
532.82444893251159
 21
-1082.3798929736563
 31
0.0
  0
ARC
  5
2A2
100
AcDbEntity
  8
AAA70-0202+AAA75-0201
370
              15
390
0
  6
STYLE_13
 62
               7
100
AcDbCircle
 10
532.82444893251159
 20
-1081.3798929736563
 30
0.0
 40
1.0
100
AcDbArc
 50
270.0
 51
0.0
  0
LINE
  5
2A3
100
AcDbEntity
  8
AAA70-0202+AAA75-0201
370
              15
390
0
  6
STYLE_13
 62
               7
100
AcDbLine
 10
533.82444893251159
 20
-1081.3798929736563
 30
0.0
 11
533.82444893251159
 21
-1062.688331167034
 31
0.0
  0
LINE
  5
2A4
100
AcDbEntity
  8
AAA70-0202+AAA75-0201
370
              15
390
0
  6
STYLE_13
 62
               7
100
AcDbLine
 10
533.82444893251068
 20
-1044.5649182719476
 30
0.0
 11
533.82444893251159
 21
-1043.9457009574885
 31
0.0
  0
LINE
  5
2A5
100
AcDbEntity
  8
AAA70-0202+AAA75-0201
370
              15
390
0
  6
STYLE_13
 62
               7
100
AcDbLine
 10
460.41401733212069
 20
-1023.2622667848227
 30
0.0
 11
475.87506864732177
 21
-1035.6911324941702
 31
0.0
  0
ARC
  5
2A6
100
AcDbEntity
  8
AAA70-0202+AAA75-0201
370
              15
390
0
  6
STYLE_13
 62
               7
100
AcDbCircle
 10
474.82444893252296
 20
-1037.3929545221381
 30
0.0
 40
2.0
100
AcDbArc
 50
0.0
 51
58.310894956883601
  0
LINE
  5
2A7
100
AcDbEntity
  8
AAA70-0202+AAA75-0201
370
              15
390
0
  6
STYLE_13
 62
               7
100
AcDbLine
 10
476.82444893252296
 20
-1037.3929545221381
 30
0.0
 11
476.82444893252296
 21
-1081.3798929736563
 31
0.0
  0
ARC
  5
2A8
100
AcDbEntity
  8
AAA70-0202+AAA75-0201
370
              15
390
0
  6
STYLE_13
 62
               7
100
AcDbCircle
 10
475.82444893252296
 20
-1081.3798929736563
 30
0.0
 40
1.0
100
AcDbArc
 50
270.0
 51
0.0
  0
LINE
  5
2A9
100
AcDbEntity
  8
AAA70-0202+AAA75-0201
370
              15
390
0
  6
STYLE_13
 62
               7
100
AcDbLine
 10
475.82444893252296
 20
-1082.3798929736563
 30
0.0
 11
465.82444893252296
 21
-1082.3798929736563
 31
0.0
  0
ARC
  5
2AA
100
AcDbEntity
  8
AAA70-0202+AAA75-0201
370
              15
390
0
  6
STYLE_13
 62
               7
100
AcDbCircle
 10
465.82444893252296
 20
-1081.3798929736563
 30
0.0
 40
1.0
100
AcDbArc
 50
180.0
 51
270.0
  0
LINE
  5
2AB
100
AcDbEntity
  8
AAA70-0202+AAA75-0201
370
              15
390
0
  6
STYLE_13
 62
               7
100
AcDbLine
 10
464.82444893252296
 20
-1081.3798929736563
 30
0.0
 11
464.82444893252296
 21
-1044.3514232733792
 31
0.0
  0
LINE
  5
2AC
100
AcDbEntity
  8
AAA70-0202+AAA75-0201
370
              15
390
0
  6
STYLE_13
 62
               7
100
AcDbLine
 10
249.32444893251659
 20
-884.37989297365584
 30
0.0
 11
249.32444893251659
 21
-1041.3798929736558
 31
0.0
  0
ARC
  5
2AD
100
AcDbEntity
  8
AAA70-0202+AAA75-0201
370
              15
390
0
  6
STYLE_13
 62
               7
100
AcDbCircle
 10
251.32444893251568
 20
-884.37989297365584
 30
0.0
 40
2.0
100
AcDbArc
 50
90.0
 51
180.0
  0
LINE
  5
2AE
100
AcDbEntity
  8
AAA70-0202+AAA75-0201
370
              15
390
0
  6
STYLE_13
 62
               7
100
AcDbLine
 10
659.32444893250977
 20
-904.37989297365539
 30
0.0
 11
659.32444893250795
 21
-1040.3798929736563
 31
0.0
  0
LINE
  5
2AF
100
AcDbEntity
  8
AAA70-0202+AAA75-0201
370
              15
390
0
  6
STYLE_13
 62
               7
100
AcDbLine
 10
659.32444893250977
 20
-884.37989297365584
 30
0.0
 11
659.32444893250977
 21
-890.37989297365584
 31
0.0
  0
ARC
  5
2B0
100
AcDbEntity
  8
AAA70-0202+AAA75-0201
370
              15
390
0
  6
STYLE_13
 62
               7
100
AcDbCircle
 10
661.32444893250977
 20
-884.37989297365584
 30
0.0
 40
2.0
100
AcDbArc
 50
90.0
 51
180.0
  0
ARC
  5
2B1
100
AcDbEntity
  8
AAA70-0202+AAA75-0201
370
              15
390
0
  6
STYLE_13
 62
               7
100
AcDbCircle
 10
672.32444893250795
 20
-884.37989297365584
 30
0.0
 40
2.0
100
AcDbArc
 50
0.0
 51
90.0
  0
LINE
  5
2B2
100
AcDbEntity
  8
AAA70-0202+AAA75-0201
370
              15
390
0
  6
STYLE_13
 62
               7
100
AcDbLine
 10
661.32444893250886
 20
-1042.3798929736563
 30
0.0
 11
673.32444893250795
 21
-1042.3798929736563
 31
0.0
  0
LINE
  5
2B3
100
AcDbEntity
  8
AAA70-0202+AAA75-0201
370
              15
390
0
  6
STYLE_13
 62
               7
100
AcDbLine
 10
259.32444893251568
 20
-919.6468288269898
 30
0.0
 11
259.32444893251568
 21
-1030.3798929736558
 31
0.0
  0
LINE
  5
2B4
100
AcDbEntity
  8
AAA70-0202+AAA75-0201
370
              15
390
0
  6
STYLE_13
 62
               7
100
AcDbLine
 10
261.32444893251659
 20
-1032.3798929736558
 30
0.0
 11
280.92195847399898
 21
-1032.3798929736558
 31
0.0
  0
ARC
  5
2B5
100
AcDbEntity
  8
AAA70-0202+AAA75-0201
370
              15
390
0
  6
STYLE_13
 62
               7
100
AcDbCircle
 10
280.92195847399898
 20
-1030.3798929736558
 30
0.0
 40
2.0
100
AcDbArc
 50
270.0
 51
340.0000000000108
  0
ARC
  5
2B6
100
AcDbEntity
  8
AAA70-0202+AAA75-0201
370
              15
390
0
  6
STYLE_13
 62
               7
100
AcDbCircle
 10
261.32444893251659
 20
-1030.3798929736558
 30
0.0
 40
2.0
100
AcDbArc
 50
180.0
 51
270.0
  0
ARC
  5
2B7
100
AcDbEntity
  8
AAA70-0202+AAA75-0201
370
              15
390
0
  6
STYLE_13
 62
               7
100
AcDbCircle
 10
250.32444893251568
 20
-1041.3798929736558
 30
0.0
 40
1.0
100
AcDbArc
 50
180.0
 51
270.0
  0
ARC
  5
2B8
100
AcDbEntity
  8
AAA70-0202+AAA75-0201
370
              15
390
0
  6
STYLE_13
 62
               7
100
AcDbCircle
 10
673.32444893250795
 20
-1041.3798929736563
 30
0.0
 40
1.0
100
AcDbArc
 50
270.0
 51
0.0
  0
ARC
  5
2B9
100
AcDbEntity
  8
AAA70-0202+AAA75-0201
370
              15
390
0
  6
STYLE_13
 62
               7
100
AcDbCircle
 10
657.32444893250977
 20
-904.37989297365539
 30
0.0
 40
2.0
100
AcDbArc
 50
0.0
 51
90.0
  0
ARC
  5
2BA
100
AcDbEntity
  8
AAA70-0202+AAA75-0201
370
              15
390
0
  6
STYLE_13
 62
               7
100
AcDbCircle
 10
661.32444893250886
 20
-1040.3798929736563
 30
0.0
 40
2.0
100
AcDbArc
 50
180.0
 51
270.0
  0
LINE
  5
2BB
100
AcDbEntity
  8
AAA70-0202+AAA75-0201
370
              15
390
0
  6
STYLE_13
 62
               7
100
AcDbLine
 10
251.32444893251568
 20
-882.37989297365584
 30
0.0
 11
260.36696499140271
 21
-882.37989297365584
 31
0.0
  0
LINE
  5
2BC
100
AcDbEntity
  8
AAA70-0202+AAA75-0201
370
              15
390
0
  6
STYLE_13
 62
               7
100
AcDbLine
 10
568.32444893251795
 20
-892.37989297365584
 30
0.0
 11
595.82444893251795
 21
-892.37989297365584
 31
0.0
  0
ARC
  5
2BD
100
AcDbEntity
  8
AAA70-0202+AAA75-0201
370
              15
390
0
  6
STYLE_13
 62
               7
100
AcDbCircle
 10
657.32444893250977
 20
-890.37989297365584
 30
0.0
 40
2.0
100
AcDbArc
 50
270.0
 51
0.0
  0
LINE
  5
2BE
100
AcDbEntity
  8
AAA70-0202+AAA75-0201
370
              15
390
0
  6
STYLE_13
 62
               7
100
AcDbLine
 10
632.82444893251568
 20
-892.37989297365584
 30
0.0
 11
657.32444893250977
 21
-892.37989297365584
 31
0.0
  0
LINE
  5
2BF
100
AcDbEntity
  8
AAA70-0202+AAA75-0201
370
              15
390
0
  6
STYLE_13
 62
               7
100
AcDbLine
 10
672.32444893250795
 20
-882.37989297365584
 30
0.0
 11
661.32444893250977
 21
-882.37989297365584
 31
0.0
  0
ARC
  5
2C0
100
AcDbEntity
  8
AAA70-0202+AAA75-0201
370
              15
390
0
  6
STYLE_13
 62
               7
100
AcDbCircle
 10
568.32444893251795
 20
-896.37989297365584
 30
0.0
 40
4.0
100
AcDbArc
 50
90.0
 51
180.0
  0
LINE
  5
2C1
100
AcDbEntity
  8
AAA70-0202+AAA75-0201
370
              15
390
0
  6
STYLE_13
 62
               7
100
AcDbLine
 10
475.82444893252296
 20
-1082.3798929736563
 30
0.0
 11
522.82444893251159
 21
-1082.3798929736563
 31
0.0
  0
LINE
  5
2C2
100
AcDbEntity
  8
AAA70-0202+AAA75-0201
370
              15
390
0
  6
STYLE_13
 62
               7
100
AcDbLine
 10
476.82444893252296
 20
-1037.3929545221381
 30
0.0
 11
521.82444893251159
 21
-1037.3929545221381
 31
0.0
  0
ARC
  5
2C3
100
AcDbEntity
  8
AAA70-0202+AAA75-0201
370
              15
390
0
  6
STYLE_13
 62
               7
100
AcDbCircle
 10
539.81959018943371
 20
-1001.9278153178443
 30
0.0
 40
20.444799942396422
100
AcDbArc
 50
272.23560709948765
 51
342.53896181746433
  0
ARC
  5
2C4
100
AcDbEntity
  8
AAA70-0202+AAA75-0201
370
              15
390
0
  6
STYLE_13
 62
               7
100
AcDbCircle
 10
540.7731526160469
 20
-1026.3540095142712
 30
0.0
 40
3.9999999999999991
100
AcDbArc
 50
92.235607099487098
 51
128.79518589719271
  0
LINE
  5
2C5
100
AcDbEntity
  8
AAA70-0202+AAA75-0201
370
              15
390
0
  6
STYLE_13
 62
               7
100
AcDbLine
 10
563.32248601460287
 20
-918.75071241009618
 30
0.0
 11
564.32444893251659
 21
-896.37989297365584
 31
0.0
  0
ARC
  5
2C6
100
AcDbEntity
  8
AAA70-0202+AAA75-0201
370
              15
390
0
  6
STYLE_13
 62
               7
100
AcDbCircle
 10
539.81959018943371
 20
-1001.9278153178443
 30
0.0
 40
30.444799942396777
100
AcDbArc
 50
278.13318077503618
 51
345.23952505203692
  0
ARC
  5
2C7
100
AcDbEntity
  8
AAA70-0202+AAA75-0201
370
              15
390
0
  6
STYLE_13
 62
               7
100
AcDbCircle
 10
545.82444893251068
 20
-1043.945700957488
 30
0.0
 40
11.999999999999718
100
AcDbArc
 50
98.133180775037019
 51
180.00000000000219
  0
LINE
  5
2C8
100
AcDbEntity
  8
AAA70-0202+AAA75-0201
370
              15
390
0
  6
STYLE_13
 62
               7
100
AcDbLine
 10
569.25969273103283
 20
-1009.6845031337034
 30
0.0
 11
572.88462284776961
 21
-928.75071241009573
 31
0.0
  0
LINE
  5
2C9
100
AcDbEntity
  8
AAA70-0202+AAA75-0201
370
              15
390
0
  6
STYLE_13
 62
               7
100
AcDbLine
 10
573.33251118764974
 20
-918.75071241009573
 30
0.0
 11
573.98017149480756
 21
-904.29040501890313
 31
0.0
  0
LINE
  5
2CA
100
AcDbEntity
  8
AAA70-0202+AAA75-0201
370
              15
390
0
  6
STYLE_13
 62
               7
100
AcDbLine
 10
575.978168468268
 20
-902.37989297365584
 30
0.0
 11
582.89365716120392
 21
-902.37989297365539
 31
0.0
  0
LINE
  5
2CB
100
AcDbEntity
  8
AAA70-0202+AAA75-0201
370
              15
390
0
  6
STYLE_13
 62
               7
100
AcDbLine
 10
590.89365716120301
 20
-902.37989297365539
 30
0.0
 11
595.82444893251795
 21
-902.37989297365493
 31
0.0
  0
LINE
  5
2CC
100
AcDbEntity
  8
AAA70-0202+AAA75-0201
370
              15
390
0
  6
STYLE_13
 62
               7
100
AcDbLine
 10
632.82444893251568
 20
-902.37989297365493
 30
0.0
 11
657.32444893250977
 21
-902.37989297365539
 31
0.0
  0
ARC
  5
2CD
100
AcDbEntity
  8
AAA70-0202+AAA75-0201
370
              15
390
0
  6
STYLE_13
 62
               7
100
AcDbCircle
 10
260.36696499140271
 20
-886.37989297365584
 30
0.0
 40
3.999999999999901
100
AcDbArc
 50
8.3612183131170852
 51
90.0
  0
ARC
  5
2CE
100
AcDbEntity
  8
AAA70-0202+AAA75-0201
370
              15
390
0
  6
STYLE_13
 62
               7
100
AcDbCircle
 10
414.31457726505369
 20
-849.91647666769177
 30
0.0
 40
164.22237028221201
100
AcDbArc
 50
204.6448104944138
 51
227.26515327776249
  0
ARC
  5
2CF
100
AcDbEntity
  8
AAA70-0202+AAA75-0201
370
              15
390
0
  6
STYLE_13
 62
               7
100
AcDbCircle
 10
300.83638781421178
 20
-972.74164363993623
 30
0.0
 40
3.0000000000002127
100
AcDbArc
 50
340.00000000000261
 51
47.265153277758543
  0
ARC
  5
2D0
100
AcDbEntity
  8
AAA70-0202+AAA75-0201
370
              15
390
0
  6
STYLE_13
 62
               7
100
AcDbCircle
 10
262.32444893251659
 20
-919.6468288269898
 30
0.0
 40
3.0000000000000342
100
AcDbArc
 50
24.644810494405334
 51
180.0000000000087
  0
ARC
  5
2D1
100
AcDbEntity
  8
AAA70-0202+AAA75-0201
370
              15
390
0
  6
STYLE_13
 62
               7
100
AcDbCircle
 10
457.90786402147478
 20
-1026.3798292274278
 30
0.0
 40
4.0000000000000941
100
AcDbArc
 50
51.204814102816478
 51
90.323471079429126
  0
ARC
  5
2D2
100
AcDbEntity
  8
AAA70-0202+AAA75-0201
370
              15
390
0
  6
STYLE_13
 62
               7
100
AcDbCircle
 10
313.70177609619759
 20
-984.17515024527302
 30
0.0
 40
3.0000000000000027
100
AcDbArc
 50
50.591505028922853
 51
160.00000000000261
  0
ARC
  5
2D3
100
AcDbEntity
  8
AAA70-0202+AAA75-0201
370
              15
390
0
  6
STYLE_13
 62
               7
100
AcDbCircle
 10
452.82444893252159
 20
-1044.3514232733796
 30
0.0
 40
12.0
100
AcDbArc
 50
0.00000000000216
 51
89.05509071419165
  0
LINE
  5
2D4
100
AcDbEntity
  8
AAA70-0202+AAA75-0201
370
              15
390
0
  6
STYLE_13
 62
               7
100
AcDbLine
 10
595.82444893251568
 20
-902.37989297365539
 30
0.0
 11
595.82444893251795
 21
-892.37989297365584
 31
0.0
  0
LINE
  5
2D5
100
AcDbEntity
  8
AAA70-0202+AAA75-0201
370
              15
390
0
  6
STYLE_13
 62
               7
100
AcDbLine
 10
632.82444893251568
 20
-902.37989297365539
 30
0.0
 11
632.82444893251568
 21
-892.37989297365584
 31
0.0
  0
ARC
  5
2D6
100
AcDbEntity
  8
AAA70-0202+AAA75-0201
370
              15
390
0
  6
STYLE_13
 62
               7
100
AcDbCircle
 10
456.68712197801779
 20
-810.15455189909289
 30
0.0
 40
222.22872326971569
100
AcDbArc
 50
230.59150502892706
 51
269.05509071419118
  0
ARC
  5
2D7
100
AcDbEntity
  8
AAA70-0202+AAA75-0201
370
              15
390
0
  6
STYLE_13
 62
               7
100
AcDbCircle
 10
414.31457726505369
 20
-849.91647666769177
 30
0.0
 40
154.22237028221224
100
AcDbArc
 50
193.45387530114661
 51
227.14003922463405
  0
ARC
  5
2D8
100
AcDbEntity
  8
AAA70-0202+AAA75-0201
370
              15
390
0
  6
STYLE_13
 62
               7
100
AcDbCircle
 10
456.68712197801688
 20
-810.15455189909289
 30
0.0
 40
212.22872326971606
100
AcDbArc
 50
226.05645749167192
 51
270.32347107942536
  0
LINE
  5
2D9
100
AcDbEntity
  8
AAA70-0202+AAA75-0201
370
              15
390
0
  6
STYLE_13
 62
               7
100
AcDbLine
 10
595.82444893251795
 20
-892.37989297365584
 30
0.0
 11
632.82444893251568
 21
-892.37989297365584
 31
0.0
  0
LINE
  5
2DA
100
AcDbEntity
  8
AAA70-0202+AAA75-0201
370
              15
390
0
  6
STYLE_13
 62
               7
100
AcDbLine
 10
595.82444893251795
 20
-902.37989297365493
 30
0.0
 11
632.82444893251568
 21
-902.37989297365493
 31
0.0
  0
LINE
  5
2DB
100
AcDbEntity
  8
AAA70-0202+AAA75-0201
370
              15
390
0
  6
STYLE_13
 62
               7
100
AcDbLine
 10
559.32231856592762
 20
-1008.0624245602739
 30
0.0
 11
562.87459767472365
 21
-928.75071241009573
 31
0.0
  0
ARC
  5
2DC
100
AcDbEntity
  8
AAA70-0202+AAA75-0201
370
              15
390
0
  6
STYLE_13
 62
               7
100
AcDbCircle
 10
575.978168468268
 20
-904.37989297365584
 30
0.0
 40
2.0
100
AcDbArc
 50
90.0
 51
177.4355027545231
  0
LINE
  5
2DD
100
AcDbEntity
  8
AAA70-0202+AAA75-0201
370
              15
390
0
  6
STYLE_13
 62
               7
100
AcDbLine
 10
457.88528159995258
 20
-1022.3798929736558
 30
0.0
 11
540.31884245590481
 21
-1022.3798929736558
 31
0.0
  0
LINE
  5
2DE
100
AcDbEntity
  8
AAA70-0202+AAA75-0201
370
              15
390
0
  6
STYLE_13
 62
               7
100
AcDbLine
 10
287.92403385609668
 20
-1042.3798929736558
 30
0.0
 11
464.6613855411747
 21
-1042.3798929736563
 31
0.0
  0
LINE
  5
2DF
100
AcDbEntity
  8
AAA70-0202+AAA75-0201
370
              15
390
0
  6
STYLE_13
 62
               7
100
AcDbLine
 10
533.9270439483239
 20
-1042.3798929736558
 30
0.0
 11
577.87560943425069
 21
-1042.3798929736563
 31
0.0
  0
LINE
  5
2E0
100
AcDbEntity
  8
AAA70-0202+AAA75-0201
370
              15
390
0
  6
STYLE_13
 62
               7
100
AcDbLine
 10
587.56061672074156
 20
-1042.3798929736563
 30
0.0
 11
661.32444893250886
 21
-1042.3798929736563
 31
0.0
  0
LINE
  5
2E1
100
AcDbEntity
  8
AAA70-0202+AAA75-0201
370
              15
390
0
  6
STYLE_13
 62
               7
100
AcDbLine
 10
303.65546567656975
 20
-973.76770406991318
 30
0.0
 11
282.80134371557187
 21
-1031.0639332603073
 31
0.0
  0
LINE
  5
2E2
100
AcDbEntity
  8
AAA70-0202+AAA75-0201
370
              15
390
0
  6
STYLE_13
 62
               7
100
AcDbLine
 10
310.88269823383962
 20
-983.14908981529607
 30
0.0
 11
289.80341909766776
 21
-1041.0639332603073
 31
0.0
  0
LINE
  5
2E3
100
AcDbEntity
  8
AAA70-0202+AAA75-0201
370
              15
390
0
  6
STYLE_13
 62
               7
100
AcDbLine
 10
250.32444893251568
 20
-1042.3798929736554
 30
0.0
 11
287.92403385609668
 21
-1042.3798929736558
 31
0.0
  0
ARC
  5
2E4
100
AcDbEntity
  8
AAA70-0202+AAA75-0201
370
              15
390
0
  6
STYLE_13
 62
               7
100
AcDbCircle
 10
287.92403385609668
 20
-1040.3798929736558
 30
0.0
 40
2.0
100
AcDbArc
 50
270.0
 51
339.99999999999858
  0
LINE
  5
2E5
100
AcDbEntity
  8
AAA70-0202+AAA75-0201
370
              15
390
0
  6
STYLE_13
 62
               7
100
AcDbLine
 10
590.89365716120301
 20
-902.37989297365539
 30
0.0
 11
590.89365716120301
 21
-1029.1307003156817
 31
0.0
  0
ARC
  5
2E6
100
AcDbEntity
  8
AAA70-0202+AAA75-0201
370
              15
390
0
  6
STYLE_13
 62
               7
100
AcDbCircle
 10
562.89365716120301
 20
-1029.1307003156817
 30
0.0
 40
28.000000000000359
100
AcDbArc
 50
280.000000000005
 51
0.0
  0
LINE
  5
2E7
100
AcDbEntity
  8
AAA70-0202+AAA75-0201
370
              15
390
0
  6
STYLE_13
 62
               7
100
AcDbLine
 10
582.89365716120392
 20
-902.37989297365539
 30
0.0
 11
582.89365716120392
 21
-1029.1307003156821
 31
0.0
  0
LINE
  5
2E8
100
AcDbEntity
  8
AAA70-0202+AAA75-0201
370
              15
390
0
  6
STYLE_13
 62
               7
100
AcDbLine
 10
533.82444893251068
 20
-1044.564918271948
 30
0.0
 11
521.82444893251159
 21
-1044.5649182719476
 31
0.0
  0
LINE
  5
2E9
100
AcDbEntity
  8
AAA70-0202+AAA75-0201
370
              15
390
0
  6
STYLE_13
 62
               7
100
AcDbLine
 10
533.82444893251068
 20
-1054.5649182719476
 30
0.0
 11
521.82444893251159
 21
-1054.5649182719476
 31
0.0
  0
LINE
  5
2EA
100
AcDbEntity
  8
AAA70-0202+AAA75-0201
370
              15
390
0
  6
STYLE_13
 62
               7
100
AcDbLine
 10
533.82444893251068
 20
-1054.5649182719476
 30
0.0
 11
566.36662071454157
 21
-1048.8268553759262
 31
0.0
  0
ARC
  5
2EB
100
AcDbEntity
  8
AAA70-0202+AAA75-0201
370
              15
390
0
  6
STYLE_13
 62
               7
100
AcDbCircle
 10
562.89365716120301
 20
-1029.1307003156821
 30
0.0
 40
19.999999999999808
100
AcDbArc
 50
280.00000000000523
 51
0.0
  0
LINE
  5
2EC
100
AcDbEntity
  8
AAA70-0202+AAA75-0201
370
              15
390
0
  6
STYLE_13
 62
               7
100
AcDbLine
 10
533.82444893251159
 20
-1062.688331167034
 30
0.0
 11
567.75580613587772
 21
-1056.7053174000239
 31
0.0
  0
LINE
  5
2ED
100
AcDbEntity
  8
AAA70-0202+AAA75-0201
370
              15
390
0
  6
STYLE_13
 62
               7
100
AcDbLine
 10
563.32248601460378
 20
-918.75071241009573
 30
0.0
 11
573.33251118764974
 21
-918.75071241009573
 31
0.0
  0
LINE
  5
2EE
100
AcDbEntity
  8
AAA70-0202+AAA75-0201
370
              15
390
0
  6
STYLE_13
 62
               7
100
AcDbLine
 10
562.87459767472365
 20
-928.75071241009573
 30
0.0
 11
572.88462284776961
 21
-928.75071241009573
 31
0.0
  0
LINE
  5
2EF
100
AcDbEntity
  8
AAA70-0202+AAA75-0201
370
              15
390
0
  6
STYLE_13
 62
               7
100
AcDbLine
 10
521.82444893251159
 20
-1044.5649182719476
 30
0.0
 11
521.82444893251159
 21
-1054.5649182719476
 31
0.0
  0
LINE
  5
2F0
100
AcDbEntity
  8
AAA70-0202+AAA75-0201
370
              15
390
0
  6
STYLE_13
 62
               7
100
AcDbLine
 10
533.82444893251068
 20
-1044.564918271948
 30
0.0
 11
533.82444893251159
 21
-1054.5649182719476
 31
0.0
  0
LINE
  5
2F1
100
AcDbEntity
  8
AAA70-0202+AAA75-0201
370
              15
390
0
  6
STYLE_13
 62
               7
100
AcDbLine
 10
563.32248601460287
 20
-918.75071241009573
 30
0.0
 11
562.87459767472365
 21
-928.75071241009573
 31
0.0
  0
LINE
  5
2F2
100
AcDbEntity
  8
AAA70-0202+AAA75-0201
370
              15
390
0
  6
STYLE_13
 62
               7
100
AcDbLine
 10
573.33251118764974
 20
-918.75071241009573
 30
0.0
 11
572.88462284776961
 21
-928.75071241009573
 31
0.0
  0
POLYLINE
  5
2F3
100
AcDbEntity
  8
AAA70-0202+AAA75-0201
370
               5
390
0
  6
Continuous
 62
               7
100
AcDb2dPolyline
 66
               1
 10
0.0
 20
0.0
 30
0.0
 70
               1
 75
               5
  0
VERTEX
  5
2F4
100
AcDbEntity
  8
AAA70-0202+AAA75-0201
370
               5
390
0
  6
Continuous
 62
               7
100
AcDbVertex
100
AcDb2dVertex
 10
-578.13078150133151
 20
-910.39418098736724
 30
0.0
  0
VERTEX
  5
2F5
100
AcDbEntity
  8
AAA70-0202+AAA75-0201
370
               5
390
0
  6
Continuous
 62
               7
100
AcDbVertex
100
AcDb2dVertex
 10
-328.13078150133151
 20
-910.39418098736724
 30
0.0
  0
VERTEX
  5
2F6
100
AcDbEntity
  8
AAA70-0202+AAA75-0201
370
               5
390
0
  6
Continuous
 62
               7
100
AcDbVertex
100
AcDb2dVertex
 10
-328.13078150133151
 20
-1015.3941809873668
 30
0.0
  0
VERTEX
  5
2F7
100
AcDbEntity
  8
AAA70-0202+AAA75-0201
370
               5
390
0
  6
Continuous
 62
               7
100
AcDbVertex
100
AcDb2dVertex
 10
-578.13078150133151
 20
-1015.3941809873668
 30
0.0
  0
SEQEND
  5
2F8
100
AcDbEntity
  8
AAA70-0202+AAA75-0201
370
               5
390
0
  6
Continuous
 62
               7
  0
LINE
  5
2F9
100
AcDbEntity
  8
AAA70-0202+AAA75-0201
370
               5
390
0
  6
STYLE_12
 62
               7
100
AcDbLine
 10
-365.63078150133151
 20
-945.39418098736678
 30
0.0
 11
-365.63078150133151
 21
-915.39418098736678
 31
0.0
  0
LINE
  5
2FA
100
AcDbEntity
  8
AAA70-0202+AAA75-0201
370
               5
390
0
  6
STYLE_12
 62
               7
100
AcDbLine
 10
-380.63078150133151
 20
-930.39418098736678
 30
0.0
 11
-350.63078150133151
 21
-930.39418098736678
 31
0.0
  0
LINE
  5
2FB
100
AcDbEntity
  8
AAA70-0202+AAA75-0201
370
               5
390
0
  6
STYLE_12
 62
               7
100
AcDbLine
 10
-365.63078150133151
 20
-1010.3941809873668
 30
0.0
 11
-365.63078150133151
 21
-980.39418098736678
 31
0.0
  0
LINE
  5
2FC
100
AcDbEntity
  8
AAA70-0202+AAA75-0201
370
               5
390
0
  6
STYLE_12
 62
               7
100
AcDbLine
 10
-380.63078150133151
 20
-995.39418098736678
 30
0.0
 11
-350.63078150133151
 21
-995.39418098736678
 31
0.0
  0
CIRCLE
  5
2FD
100
AcDbEntity
  8
AAA70-0202+AAA75-0201
370
               5
390
0
  6
STYLE_12
 62
               7
100
AcDbCircle
 10
-365.63078150133151
 20
-930.39418098736678
 30
0.0
 40
7.5
  0
CIRCLE
  5
2FE
100
AcDbEntity
  8
AAA70-0202+AAA75-0201
370
               5
390
0
  6
STYLE_12
 62
               7
100
AcDbCircle
 10
-365.63078150133151
 20
-995.39418098736678
 30
0.0
 40
7.5
  0
LINE
  5
2FF
100
AcDbEntity
  8
AAA70-0202+AAA75-0201
370
               5
390
0
  6
STYLE_12
 62
               7
100
AcDbLine
 10
-540.63078150133151
 20
-945.39418098736678
 30
0.0
 11
-540.63078150133151
 21
-915.39418098736678
 31
0.0
  0
LINE
  5
300
100
AcDbEntity
  8
AAA70-0202+AAA75-0201
370
               5
390
0
  6
STYLE_12
 62
               7
100
AcDbLine
 10
-555.63078150133151
 20
-930.39418098736678
 30
0.0
 11
-525.63078150133151
 21
-930.39418098736678
 31
0.0
  0
LINE
  5
301
100
AcDbEntity
  8
AAA70-0202+AAA75-0201
370
               5
390
0
  6
STYLE_12
 62
               7
100
AcDbLine
 10
-540.63078150133151
 20
-1010.3941809873668
 30
0.0
 11
-540.63078150133151
 21
-980.39418098736678
 31
0.0
  0
LINE
  5
302
100
AcDbEntity
  8
AAA70-0202+AAA75-0201
370
               5
390
0
  6
STYLE_12
 62
               7
100
AcDbLine
 10
-555.63078150133151
 20
-995.39418098736678
 30
0.0
 11
-525.63078150133151
 21
-995.39418098736678
 31
0.0
  0
CIRCLE
  5
303
100
AcDbEntity
  8
AAA70-0202+AAA75-0201
370
               5
390
0
  6
STYLE_12
 62
               7
100
AcDbCircle
 10
-540.63078150133151
 20
-930.39418098736678
 30
0.0
 40
7.5
  0
CIRCLE
  5
304
100
AcDbEntity
  8
AAA70-0202+AAA75-0201
370
               5
390
0
  6
STYLE_12
 62
               7
100
AcDbCircle
 10
-540.63078150133151
 20
-995.39418098736678
 30
0.0
 40
7.5
  0
DIMENSION
  5
305
100
AcDbEntity
  8
AAA70-0202+AAA75-0201
370
               5
390
0
  6
Continuous
 62
               7
100
AcDbDimension
  2
*D22
 10
-155.875
 20
-280.00000000000045
 30
0.0
 11
-150.875
 21
-497.50000000000023
 31
0.0
 70
             128
 71
               5
 72
               1
 41
1.0
 42
0.0
  3
tfrom線あり
100
AcDbAlignedDimension
 13
-452.66545037057858
 23
-715.0
 33
0.0
 14
-327.66545037057949
 24
-280.00000000000045
 34
0.0
 50
90.0
100
AcDbRotatedDimension
1001
ACAD
1000
DSTYLE
1002
{
1070
             279
1070
               2
1070
             340
1005
38
1070
             147
1040
5.0
1002
}
  0
ENDSEC
  0
SECTION
  2
OBJECTS
  0
DICTIONARY
  5
19
100
AcDbDictionary
280
               0
281
               1
  3
ACAD_GROUP
350
1A
  3
ACAD_MLINESTYLE
350
1B
  3
ACAD_LAYOUT
350
1E
  3
ACAD_PLOTSETTINGS
350
22
  3
ACAD_PLOTSTYLENAME
350
1F
  0
DICTIONARY
  5
1A
102
{ACAD_REACTORS
330
19
102
}
100
AcDbDictionary
280
               0
281
               1
  0
DICTIONARY
  5
1B
102
{ACAD_REACTORS
330
19
102
}
100
AcDbDictionary
280
               0
281
               1
  3
Standard
350
1C
  0
MLINESTYLE
  5
1C
102
{ACAD_REACTORS
330
1B
102
}
100
AcDbMlineStyle
  2
Standard
 70
               0
  3

 62
               0
 51
90.0
 52
90.0
 71
               2
 49
0.5
 62
             256
  6
ByLayer
 49
-0.5
 62
             256
  6
ByLayer
  0
ACDBDICTIONARYWDFLT
  5
1F
102
{ACAD_REACTORS
330
19
102
}
100
AcDbDictionary
281
               1
  3
Normal
350
1D
100
AcDbDictionaryWithDefault
340
1D
  0
ACDBPLACEHOLDER
  5
1D
102
{ACAD_REACTORS
330
1F
102
}
  0
LAYOUT
  5
20
102
{ACAD_REACTORS
330
1E
102
}
100
AcDbPlotSettings
  1

  2

  4

  6

 40
0.0
 41
0.0
 42
0.0
 43
0.0
 44
0.0
 45
0.0
 46
0.0
 47
0.0
 48
0.0
 49
0.0
140
0.0
141
0.0
142
1.0
143
1.0
 70
            1024
 72
               0
 73
               0
 74
               0
  7

 75
               0
147
1.0
148
0.0
149
0.0
100
AcDbLayout
  1
Model
 70
               0
 71
               0
 10
0.0
 20
0.0
 11
0.0
 21
0.0
 12
0.0
 22
0.0
 32
0.0
 14
0.0
 24
0.0
 34
0.0
 15
0.0
 25
0.0
 35
0.0
146
0.0
 13
0.0
 23
0.0
 33
0.0
 16
0.0
 26
0.0
 36
0.0
 17
0.0
 27
0.0
 37
0.0
 76
               0
330
A
331
0
345
0
346
0
  0
LAYOUT
  5
21
102
{ACAD_REACTORS
330
1E
102
}
100
AcDbPlotSettings
  1

  2

  4

  6

 40
0.0
 41
0.0
 42
0.0
 43
0.0
 44
0.0
 45
0.0
 46
0.0
 47
0.0
 48
0.0
 49
0.0
140
0.0
141
0.0
142
1.0
143
1.0
 70
               0
 72
               0
 73
               0
 74
               0
  7

 75
               0
147
1.0
148
0.0
149
0.0
100
AcDbLayout
  1
Layout1
 70
               0
 71
               0
 10
0.0
 20
0.0
 11
0.0
 21
0.0
 12
0.0
 22
0.0
 32
0.0
 14
0.0
 24
0.0
 34
0.0
 15
0.0
 25
0.0
 35
0.0
146
0.0
 13
0.0
 23
0.0
 33
0.0
 16
0.0
 26
0.0
 36
0.0
 17
0.0
 27
0.0
 37
0.0
 76
               0
330
B
331
0
345
0
346
0
  0
DICTIONARY
  5
1E
102
{ACAD_REACTORS
330
19
102
}
100
AcDbDictionary
280
               0
281
               1
  3
Layout1
350
21
  3
Model
350
20
  0
DICTIONARY
  5
22
102
{ACAD_REACTORS
330
19
102
}
100
AcDbDictionary
280
               0
281
               1
  0
ENDSEC
  0
EOF
